  0
SECTION
  2
HEADER
  9
$ACADVER
  1
AC1018
  9
$ACADMAINTVER
 70
     0
  9
$DWGCODEPAGE
  3
ANSI_1252
  9
$INSBASE
 10
0.0
 20
0.0
 30
0.0
  9
$EXTMIN
 10
-462.8499965690755
 20
-299.767369638322
 30
0.0
  9
$EXTMAX
 10
-42.84999656907712
 20
-2.76736963832202
 30
0.0
  9
$LIMMIN
 10
0.0
 20
0.0
  9
$LIMMAX
 10
12.0
 20
9.0
  9
$ORTHOMODE
 70
     0
  9
$REGENMODE
 70
     1
  9
$FILLMODE
 70
     1
  9
$QTEXTMODE
 70
     0
  9
$MIRRTEXT
 70
     1
  9
$LTSCALE
 40
1.0
  9
$ATTMODE
 70
     1
  9
$TEXTSIZE
 40
0.2
  9
$TRACEWID
 40
0.05
  9
$TEXTSTYLE
  7
Standard
  9
$CLAYER
  8
0
  9
$CELTYPE
  6
ByLayer
  9
$CECOLOR
 62
   256
  9
$CELTSCALE
 40
1.0
  9
$DISPSILH
 70
     0
  9
$DIMSCALE
 40
1.0
  9
$DIMASZ
 40
0.18
  9
$DIMEXO
 40
0.0625
  9
$DIMDLI
 40
0.38
  9
$DIMRND
 40
0.0
  9
$DIMDLE
 40
0.0
  9
$DIMEXE
 40
0.18
  9
$DIMTP
 40
0.0
  9
$DIMTM
 40
0.0
  9
$DIMTXT
 40
0.18
  9
$DIMCEN
 40
0.09
  9
$DIMTSZ
 40
0.0
  9
$DIMTOL
 70
     0
  9
$DIMLIM
 70
     0
  9
$DIMTIH
 70
     1
  9
$DIMTOH
 70
     1
  9
$DIMSE1
 70
     0
  9
$DIMSE2
 70
     0
  9
$DIMTAD
 70
     0
  9
$DIMZIN
 70
     0
  9
$DIMBLK
  1

  9
$DIMASO
 70
     1
  9
$DIMSHO
 70
     1
  9
$DIMPOST
  1

  9
$DIMAPOST
  1

  9
$DIMALT
 70
     0
  9
$DIMALTD
 70
     2
  9
$DIMALTF
 40
25.4
  9
$DIMLFAC
 40
1.0
  9
$DIMTOFL
 70
     0
  9
$DIMTVP
 40
0.0
  9
$DIMTIX
 70
     0
  9
$DIMSOXD
 70
     0
  9
$DIMSAH
 70
     0
  9
$DIMBLK1
  1

  9
$DIMBLK2
  1

  9
$DIMSTYLE
  2
Standard
  9
$DIMCLRD
 70
     0
  9
$DIMCLRE
 70
     0
  9
$DIMCLRT
 70
     0
  9
$DIMTFAC
 40
1.0
  9
$DIMGAP
 40
0.09
  9
$DIMJUST
 70
     0
  9
$DIMSD1
 70
     0
  9
$DIMSD2
 70
     0
  9
$DIMTOLJ
 70
     1
  9
$DIMTZIN
 70
     0
  9
$DIMALTZ
 70
     0
  9
$DIMALTTZ
 70
     0
  9
$DIMUPT
 70
     0
  9
$DIMDEC
 70
     4
  9
$DIMTDEC
 70
     4
  9
$DIMALTU
 70
     2
  9
$DIMALTTD
 70
     2
  9
$DIMTXSTY
  7
Standard
  9
$DIMAUNIT
 70
     0
  9
$DIMADEC
 70
     0
  9
$DIMALTRND
 40
0.0
  9
$DIMAZIN
 70
     0
  9
$DIMDSEP
 70
    46
  9
$DIMATFIT
 70
     3
  9
$DIMFRAC
 70
     0
  9
$DIMLDRBLK
  1

  9
$DIMLUNIT
 70
     2
  9
$DIMLWD
 70
    -2
  9
$DIMLWE
 70
    -2
  9
$DIMTMOVE
 70
     0
  9
$LUNITS
 70
     2
  9
$LUPREC
 70
     4
  9
$SKETCHINC
 40
0.1
  9
$FILLETRAD
 40
0.5
  9
$AUNITS
 70
     0
  9
$AUPREC
 70
     0
  9
$MENU
  1
.
  9
$ELEVATION
 40
0.0
  9
$PELEVATION
 40
0.0
  9
$THICKNESS
 40
0.0
  9
$LIMCHECK
 70
     0
  9
$CHAMFERA
 40
0.0
  9
$CHAMFERB
 40
0.0
  9
$CHAMFERC
 40
0.0
  9
$CHAMFERD
 40
0.0
  9
$SKPOLY
 70
     0
  9
$TDCREATE
 40
2458618.059521458
  9
$TDUCREATE
 40
2458617.976188125
  9
$TDUPDATE
 40
2458618.059521817
  9
$TDUUPDATE
 40
2458617.976188484
  9
$TDINDWG
 40
0.0000000116
  9
$TDUSRTIMER
 40
0.0000000116
  9
$USRTIMER
 70
     1
  9
$ANGBASE
 50
0.0
  9
$ANGDIR
 70
     0
  9
$PDMODE
 70
     0
  9
$PDSIZE
 40
0.0
  9
$PLINEWID
 40
0.0
  9
$SPLFRAME
 70
     0
  9
$SPLINETYPE
 70
     6
  9
$SPLINESEGS
 70
     8
  9
$HANDSEED
  5
3B8
  9
$SURFTAB1
 70
     6
  9
$SURFTAB2
 70
     6
  9
$SURFTYPE
 70
     6
  9
$SURFU
 70
     6
  9
$SURFV
 70
     6
  9
$UCSBASE
  2

  9
$UCSNAME
  2

  9
$UCSORG
 10
0.0
 20
0.0
 30
0.0
  9
$UCSXDIR
 10
1.0
 20
0.0
 30
0.0
  9
$UCSYDIR
 10
0.0
 20
1.0
 30
0.0
  9
$UCSORTHOREF
  2

  9
$UCSORTHOVIEW
 70
     0
  9
$UCSORGTOP
 10
0.0
 20
0.0
 30
0.0
  9
$UCSORGBOTTOM
 10
0.0
 20
0.0
 30
0.0
  9
$UCSORGLEFT
 10
0.0
 20
0.0
 30
0.0
  9
$UCSORGRIGHT
 10
0.0
 20
0.0
 30
0.0
  9
$UCSORGFRONT
 10
0.0
 20
0.0
 30
0.0
  9
$UCSORGBACK
 10
0.0
 20
0.0
 30
0.0
  9
$PUCSBASE
  2

  9
$PUCSNAME
  2

  9
$PUCSORG
 10
0.0
 20
0.0
 30
0.0
  9
$PUCSXDIR
 10
1.0
 20
0.0
 30
0.0
  9
$PUCSYDIR
 10
0.0
 20
1.0
 30
0.0
  9
$PUCSORTHOREF
  2

  9
$PUCSORTHOVIEW
 70
     0
  9
$PUCSORGTOP
 10
0.0
 20
0.0
 30
0.0
  9
$PUCSORGBOTTOM
 10
0.0
 20
0.0
 30
0.0
  9
$PUCSORGLEFT
 10
0.0
 20
0.0
 30
0.0
  9
$PUCSORGRIGHT
 10
0.0
 20
0.0
 30
0.0
  9
$PUCSORGFRONT
 10
0.0
 20
0.0
 30
0.0
  9
$PUCSORGBACK
 10
0.0
 20
0.0
 30
0.0
  9
$USERI1
 70
     0
  9
$USERI2
 70
     0
  9
$USERI3
 70
     0
  9
$USERI4
 70
     0
  9
$USERI5
 70
     0
  9
$USERR1
 40
20.1
  9
$USERR2
 40
0.0
  9
$USERR3
 40
0.0
  9
$USERR4
 40
0.0
  9
$USERR5
 40
0.0
  9
$WORLDVIEW
 70
     1
  9
$SHADEDGE
 70
     3
  9
$SHADEDIF
 70
    70
  9
$TILEMODE
 70
     1
  9
$MAXACTVP
 70
    64
  9
$PINSBASE
 10
0.0
 20
0.0
 30
0.0
  9
$PLIMCHECK
 70
     0
  9
$PEXTMIN
 10
1.00000000000000E+20
 20
1.00000000000000E+20
 30
1.00000000000000E+20
  9
$PEXTMAX
 10
-1.00000000000000E+20
 20
-1.00000000000000E+20
 30
-1.00000000000000E+20
  9
$PLIMMIN
 10
0.0
 20
0.0
  9
$PLIMMAX
 10
12.0
 20
9.0
  9
$UNITMODE
 70
     0
  9
$VISRETAIN
 70
     1
  9
$PLINEGEN
 70
     0
  9
$PSLTSCALE
 70
     1
  9
$TREEDEPTH
 70
  3020
  9
$CMLSTYLE
  2
Standard
  9
$CMLJUST
 70
     0
  9
$CMLSCALE
 40
1.0
  9
$PROXYGRAPHICS
 70
     1
  9
$MEASUREMENT
 70
     1
  9
$CELWEIGHT
370
    -1
  9
$ENDCAPS
280
     0
  9
$JOINSTYLE
280
     0
  9
$LWDISPLAY
290
     0
  9
$INSUNITS
 70
     4
  9
$HYPERLINKBASE
  1

  9
$STYLESHEET
  1

  9
$XEDIT
290
     1
  9
$CEPSNTYPE
380
     0
  9
$PSTYLEMODE
290
     1
  9
$FINGERPRINTGUID
  2
{6b0d8e08-4556-4f0f-9cf7-85636634266d}
  9
$VERSIONGUID
  2
{FAEB1C32-E019-11D5-929B-00C0DF256EC4}
  9
$EXTNAMES
290
     1
  9
$PSVPSCALE
 40
0.0
  9
$OLESTARTUP
290
     0
  9
$SORTENTS
280
   127
  9
$INDEXCTL
280
     0
  9
$HIDETEXT
280
     1
  9
$XCLIPFRAME
290
     0
  9
$HALOGAP
280
     0
  9
$OBSCOLOR
 70
   257
  9
$OBSLTYPE
280
     0
  9
$INTERSECTIONDISPLAY
280
     0
  9
$INTERSECTIONCOLOR
 70
   257
  9
$DIMASSOC
280
     2
  9
$PROJECTNAME
  1

  0
ENDSEC
  0
SECTION
  2
CLASSES
  0
CLASS
  1
ACDBDICTIONARYWDFLT
  2
AcDbDictionaryWithDefault
  3
ObjectDBX Classes
 90
        0
 91
        3
280
     0
281
     0
  0
CLASS
  1
VISUALSTYLE
  2
AcDbVisualStyle
  3
ObjectDBX Classes
 90
     4095
 91
        3
280
     0
281
     0
  0
CLASS
  1
MATERIAL
  2
AcDbMaterial
  3
ObjectDBX Classes
 90
     1153
 91
        3
280
     0
281
     0
  0
CLASS
  1
SCALE
  2
AcDbScale
  3
ObjectDBX Classes
 90
     1153
 91
        3
280
     0
281
     0
  0
CLASS
  1
TABLESTYLE
  2
AcDbTableStyle
  3
ObjectDBX Classes
 90
     4095
 91
        3
280
     0
281
     0
  0
CLASS
  1
MLEADERSTYLE
  2
AcDbMLeaderStyle
  3
ACDB_MLEADERSTYLE_CLASS
 90
     4095
 91
        3
280
     0
281
     0
  0
CLASS
  1
SUN
  2
AcDbSun
  3
SCENEOE
 90
     1153
 91
        3
280
     0
281
     0
  0
CLASS
  1
DICTIONARYVAR
  2
AcDbDictionaryVar
  3
ObjectDBX Classes
 90
        0
 91
        3
280
     0
281
     0
  0
CLASS
  1
CELLSTYLEMAP
  2
AcDbCellStyleMap
  3
ObjectDBX Classes
 90
     1152
 91
        3
280
     0
281
     0
  0
ENDSEC
  0
SECTION
  2
TABLES
  0
TABLE
  2
VPORT
  5
8
102
{ACAD_XDICTIONARY
360
371
102
}
330
0
100
AcDbSymbolTable
 70
     1
  0
VPORT
  5
29
330
8
100
AcDbSymbolTableRecord
100
AcDbViewportTableRecord
  2
*Active
 70
     0
 10
0.0
 20
0.0
 11
1.0
 21
1.0
 12
-252.8499965690763
 22
-151.267369638322
 13
0.0
 23
0.0
 14
0.5
 24
0.5
 15
0.5
 25
0.5
 16
0.0
 26
0.0
 36
1.0
 17
0.0
 27
0.0
 37
0.0
 40
326.7
 41
1.60267857142857
 42
50.0
 43
0.0
 44
0.0
 50
0.0
 51
0.0
 71
     0
 72
   100
 73
     1
 74
     3
 75
     0
 76
     0
 77
     0
 78
     0
281
     0
 65
     1
110
0.0
120
0.0
130
0.0
111
1.0
121
0.0
131
0.0
112
0.0
122
1.0
132
0.0
 79
     0
146
0.0
  0
ENDTAB
  0
TABLE
  2
LTYPE
  5
5
330
0
100
AcDbSymbolTable
 70
     8
  0
LTYPE
  5
14
330
5
100
AcDbSymbolTableRecord
100
AcDbLinetypeTableRecord
  2
ByBlock
 70
     0
  3

 72
    65
 73
     0
 40
0.0
  0
LTYPE
  5
15
330
5
100
AcDbSymbolTableRecord
100
AcDbLinetypeTableRecord
  2
ByLayer
 70
     0
  3

 72
    65
 73
     0
 40
0.0
  0
LTYPE
  5
16
330
5
100
AcDbSymbolTableRecord
100
AcDbLinetypeTableRecord
  2
Continuous
 70
     0
  3
Solid line
 72
    65
 73
     0
 40
0.0
  0
LTYPE
  5
6E
330
5
100
AcDbSymbolTableRecord
100
AcDbLinetypeTableRecord
  2
DASHED
 70
     0
  3
Dashed
 72
    65
 73
     2
 40
15.0
 49
7.0
 74
     0
 49
-8.0
 74
     0
  0
LTYPE
  5
6F
330
5
100
AcDbSymbolTableRecord
100
AcDbLinetypeTableRecord
  2
DOTTED
 70
     0
  3
Dotted
 72
    65
 73
     2
 40
1.0
 49
0.0
 74
     0
 49
-1.0
 74
     0
  0
LTYPE
  5
70
330
5
100
AcDbSymbolTableRecord
100
AcDbLinetypeTableRecord
  2
DOT_CENTER
 70
     0
  3
Dot_Center
 72
    65
 73
     4
 40
14.0
 49
12.0
 74
     0
 49
-1.0
 74
     0
 49
0.0
 74
     0
 49
-1.0
 74
     0
  0
LTYPE
  5
71
330
5
100
AcDbSymbolTableRecord
100
AcDbLinetypeTableRecord
  2
LONG_DASHED
 70
     0
  3
Long_Dashed
 72
    65
 73
     2
 40
15.0
 49
10.0
 74
     0
 49
-5.0
 74
     0
  0
LTYPE
  5
72
330
5
100
AcDbSymbolTableRecord
100
AcDbLinetypeTableRecord
  2
DASH_CENTER
 70
     0
  3
Dash_Center
 72
    65
 73
     4
 40
14.0
 49
11.0
 74
     0
 49
-1.0
 74
     0
 49
1.0
 74
     0
 49
-1.0
 74
     0
  0
LTYPE
  5
73
330
5
100
AcDbSymbolTableRecord
100
AcDbLinetypeTableRecord
  2
PHANTOM
 70
     0
  3
Phantom
 72
    65
 73
     6
 40
13.0
 49
10.0
 74
     0
 49
-1.0
 74
     0
 49
0.0
 74
     0
 49
-1.0
 74
     0
 49
0.0
 74
     0
 49
-1.0
 74
     0
  0
LTYPE
  5
74
330
5
100
AcDbSymbolTableRecord
100
AcDbLinetypeTableRecord
  2
CENTER_DASH_DASH
 70
     0
  3
Center_Dash_Dash
 72
    65
 73
     6
 40
14.0
 49
9.0
 74
     0
 49
-1.0
 74
     0
 49
1.0
 74
     0
 49
-1.0
 74
     0
 49
1.0
 74
     0
 49
-1.0
 74
     0
  0
ENDTAB
  0
TABLE
  2
LAYER
  5
2
330
0
100
AcDbSymbolTable
 70
     2
  0
LAYER
  5
10
330
2
100
AcDbSymbolTableRecord
100
AcDbLayerTableRecord
  2
0
 70
     0
 62
     7
  6
Continuous
370
    -3
390
F
  0
LAYER
  5
75
330
2
100
AcDbSymbolTableRecord
100
AcDbLayerTableRecord
  2
1
 70
     0
 62
     7
  6
Continuous
370
    -3
390
F
  0
ENDTAB
  0
TABLE
  2
STYLE
  5
3
330
0
100
AcDbSymbolTable
 70
     5
  0
STYLE
  5
11
330
3
100
AcDbSymbolTableRecord
100
AcDbTextStyleTableRecord
  2
Standard
 70
     0
 40
0.0
 41
1.0
 50
0.0
 71
     0
 42
0.2
  3
txt
  4

  0
STYLE
  5
114
330
3
100
AcDbSymbolTableRecord
100
AcDbTextStyleTableRecord
  2
CONVERTER_11
 70
     0
 40
0.0
 41
0.9
 50
0.0
 71
     0
 42
0.2
  3
txt.shx
  4

  0
STYLE
  5
331
330
3
100
AcDbSymbolTableRecord
100
AcDbTextStyleTableRecord
  2
CONVERTER_12
 70
     0
 40
0.0
 41
0.81
 50
0.0
 71
     0
 42
0.2
  3
txt.shx
  4

  0
STYLE
  5
339
330
3
100
AcDbSymbolTableRecord
100
AcDbTextStyleTableRecord
  2
CONVERTER_13
 70
     0
 40
0.0
 41
0.72
 50
0.0
 71
     0
 42
0.2
  3
txt.shx
  4

  0
STYLE
  5
33C
330
3
100
AcDbSymbolTableRecord
100
AcDbTextStyleTableRecord
  2
CONVERTER_14
 70
     0
 40
0.0
 41
0.855
 50
0.0
 71
     0
 42
0.2
  3
txt.shx
  4

  0
ENDTAB
  0
TABLE
  2
VIEW
  5
6
330
0
100
AcDbSymbolTable
 70
     0
  0
ENDTAB
  0
TABLE
  2
UCS
  5
7
330
0
100
AcDbSymbolTable
 70
     0
  0
ENDTAB
  0
TABLE
  2
APPID
  5
9
330
0
100
AcDbSymbolTable
 70
     2
  0
APPID
  5
12
330
9
100
AcDbSymbolTableRecord
100
AcDbRegAppTableRecord
  2
ACAD
 70
     0
  0
APPID
  5
3B0
330
9
100
AcDbSymbolTableRecord
100
AcDbRegAppTableRecord
  2
ACAD_MLEADERVER
 70
     0
  0
ENDTAB
  0
TABLE
  2
DIMSTYLE
  5
A
330
0
100
AcDbSymbolTable
 70
     5
100
AcDbDimStyleTable
  0
DIMSTYLE
105
27
330
A
100
AcDbSymbolTableRecord
100
AcDbDimStyleTableRecord
  2
Standard
 70
     0
178
     0
340
11
  0
DIMSTYLE
105
14C
102
{ACAD_REACTORS
330
14D
102
}
330
A
100
AcDbSymbolTableRecord
100
AcDbDimStyleTableRecord
  2
ME10_DIM_10
 70
     0
 41
3.5
 42
0.0
 44
1.5
 73
     0
 74
     0
 77
     1
 78
     8
140
3.5
147
1.5
172
     1
173
     1
174
     1
175
     1
176
     2
177
     2
271
     3
178
     3
271
     3
340
114
  0
DIMSTYLE
105
157
102
{ACAD_REACTORS
330
158
102
}
330
A
100
AcDbSymbolTableRecord
100
AcDbDimStyleTableRecord
  2
ME10_DIM_11
 70
     0
  3
(<>)
 41
3.5
 42
0.0
 44
1.5
 73
     0
 74
     0
 77
     1
 78
     8
140
3.5
147
1.5
172
     1
173
     1
174
     1
175
     1
176
     2
177
     2
271
     3
178
     3
271
     3
340
114
  0
DIMSTYLE
105
162
102
{ACAD_REACTORS
330
163
102
}
330
A
100
AcDbSymbolTableRecord
100
AcDbDimStyleTableRecord
  2
ME10_DIM_12
 70
     0
 41
3.5
 42
0.0
 44
1.5
 73
     0
 74
     0
 77
     1
 78
     8
140
3.5
147
1.5
172
     1
173
     1
174
     1
175
     1
176
     2
177
     2
178
     3
340
114
  0
DIMSTYLE
105
222
102
{ACAD_REACTORS
330
223
102
}
330
A
100
AcDbSymbolTableRecord
100
AcDbDimStyleTableRecord
  2
ME10_DIM_13
 70
     0
 41
3.5
 42
0.0
 44
1.5
 73
     0
 74
     0
 77
     1
 78
     8
140
3.5
147
1.5
172
     1
173
     1
174
     1
175
     1
176
     2
177
     2
271
     3
178
     3
271
     3
340
114
  0
ENDTAB
  0
TABLE
  2
BLOCK_RECORD
  5
1
330
0
100
AcDbSymbolTable
 70
    21
  0
BLOCK_RECORD
  5
1F
330
1
100
AcDbSymbolTableRecord
100
AcDbBlockTableRecord
  2
*Model_Space
340
22
  0
BLOCK_RECORD
  5
1B
330
1
100
AcDbSymbolTableRecord
100
AcDbBlockTableRecord
  2
*Paper_Space
340
1E
  0
BLOCK_RECORD
  5
23
330
1
100
AcDbSymbolTableRecord
100
AcDbBlockTableRecord
  2
*Paper_Space0
340
26
  0
BLOCK_RECORD
  5
76
330
1
100
AcDbSymbolTableRecord
100
AcDbBlockTableRecord
  2
VS_SI_FP_BP-select__1
340
0
102
{BLKREFS
331
7A
102
}
  0
BLOCK_RECORD
  5
79
330
1
100
AcDbSymbolTableRecord
100
AcDbBlockTableRecord
  2
Allg1
340
0
102
{BLKREFS
331
AC
102
}
  0
BLOCK_RECORD
  5
7D
330
1
100
AcDbSymbolTableRecord
100
AcDbBlockTableRecord
  2
VS_SI_FP_BP-select__2
340
0
102
{BLKREFS
331
81
102
}
  0
BLOCK_RECORD
  5
80
330
1
100
AcDbSymbolTableRecord
100
AcDbBlockTableRecord
  2
Drfsicht1
340
0
102
{BLKREFS
331
AD
102
}
  0
BLOCK_RECORD
  5
84
330
1
100
AcDbSymbolTableRecord
100
AcDbBlockTableRecord
  2
VS_SI_FP_BP-select__3
340
0
102
{BLKREFS
331
88
102
}
  0
BLOCK_RECORD
  5
87
330
1
100
AcDbSymbolTableRecord
100
AcDbBlockTableRecord
  2
Rückansicht1
340
0
102
{BLKREFS
331
AE
102
}
  0
BLOCK_RECORD
  5
8B
330
1
100
AcDbSymbolTableRecord
100
AcDbBlockTableRecord
  2
VS_SI_FP_BP-select__4
340
0
102
{BLKREFS
331
8F
102
}
  0
BLOCK_RECORD
  5
8E
330
1
100
AcDbSymbolTableRecord
100
AcDbBlockTableRecord
  2
SA_Links1
340
0
102
{BLKREFS
331
AF
102
}
  0
BLOCK_RECORD
  5
92
330
1
100
AcDbSymbolTableRecord
100
AcDbBlockTableRecord
  2
VS_SI_FP_BP-select__5
340
0
102
{BLKREFS
331
96
102
}
  0
BLOCK_RECORD
  5
95
330
1
100
AcDbSymbolTableRecord
100
AcDbBlockTableRecord
  2
SA_Rechts1
340
0
102
{BLKREFS
331
B0
102
}
  0
BLOCK_RECORD
  5
99
330
1
100
AcDbSymbolTableRecord
100
AcDbBlockTableRecord
  2
VS_SI_FP_BP-select__6
340
0
102
{BLKREFS
331
9D
102
}
  0
BLOCK_RECORD
  5
9C
330
1
100
AcDbSymbolTableRecord
100
AcDbBlockTableRecord
  2
Vordans1
340
0
102
{BLKREFS
331
B1
102
}
  0
BLOCK_RECORD
  5
A0
330
1
100
AcDbSymbolTableRecord
100
AcDbBlockTableRecord
  2
_rahmen
340
0
102
{BLKREFS
331
A7
102
}
  0
BLOCK_RECORD
  5
A3
330
1
100
AcDbSymbolTableRecord
100
AcDbBlockTableRecord
  2
_punkt
340
0
102
{BLKREFS
331
A8
102
}
  0
BLOCK_RECORD
  5
A6
330
1
100
AcDbSymbolTableRecord
100
AcDbBlockTableRecord
  2
A3I_CS
340
0
102
{BLKREFS
331
B2
102
}
  0
BLOCK_RECORD
  5
AB
330
1
100
AcDbSymbolTableRecord
100
AcDbBlockTableRecord
  2
1
340
0
102
{BLKREFS
331
B5
102
}
  0
BLOCK_RECORD
  5
143
330
1
100
AcDbSymbolTableRecord
100
AcDbBlockTableRecord
  2
*D17
340
0
  0
BLOCK_RECORD
  5
14E
330
1
100
AcDbSymbolTableRecord
100
AcDbBlockTableRecord
  2
*D18
340
0
  0
BLOCK_RECORD
  5
159
330
1
100
AcDbSymbolTableRecord
100
AcDbBlockTableRecord
  2
*D19
340
0
  0
BLOCK_RECORD
  5
218
330
1
100
AcDbSymbolTableRecord
100
AcDbBlockTableRecord
  2
*D20
340
0
  0
ENDTAB
  0
ENDSEC
  0
SECTION
  2
BLOCKS
  0
BLOCK
  5
20
330
1F
100
AcDbEntity
  8
0
100
AcDbBlockBegin
  2
*Model_Space
 70
     0
 10
0.0
 20
0.0
 30
0.0
  3
*Model_Space
  1

  0
ENDBLK
  5
21
330
1F
100
AcDbEntity
  8
0
100
AcDbBlockEnd
  0
BLOCK
  5
1C
330
1B
100
AcDbEntity
 67
     1
  8
0
100
AcDbBlockBegin
  2
*Paper_Space
 70
     0
 10
0.0
 20
0.0
 30
0.0
  3
*Paper_Space
  1

  0
ENDBLK
  5
1D
330
1B
100
AcDbEntity
 67
     1
  8
0
100
AcDbBlockEnd
  0
BLOCK
  5
24
330
23
100
AcDbEntity
  8
0
100
AcDbBlockBegin
  2
*Paper_Space0
 70
     0
 10
0.0
 20
0.0
 30
0.0
  3
*Paper_Space0
  1

  0
ENDBLK
  5
25
330
23
100
AcDbEntity
  8
0
100
AcDbBlockEnd
  0
BLOCK
  5
77
330
76
100
AcDbEntity
  8
0
100
AcDbBlockBegin
  2
VS_SI_FP_BP-select__1
 70
     0
 10
-181.2131292562042
 20
-210.4474273061811
 30
0.0
  3
VS_SI_FP_BP-select__1
  1

  0
LINE
  5
B6
330
76
100
AcDbEntity
  8
0
  6
Continuous
 62
     7
100
AcDbLine
 10
-181.2131292562042
 20
-186.0609536352062
 30
0.0
 11
-105.4359064250658
 21
-207.9359536352062
 31
0.0
  0
LINE
  5
B7
330
76
100
AcDbEntity
  8
0
  6
Continuous
 62
     7
100
AcDbLine
 10
-99.71186831938914
 20
-209.5883411057882
 30
0.0
 11
-97.21186831938914
 21
-207.4232775963272
 31
0.0
  0
LINE
  5
B8
330
76
100
AcDbEntity
  8
0
  6
Continuous
 62
     7
100
AcDbLine
 10
-99.71186831938914
 20
-209.5883411057882
 30
0.0
 11
-99.71186831938914
 21
-207.8562902982194
 31
0.0
  0
LINE
  5
B9
330
76
100
AcDbEntity
  8
0
  6
Continuous
 62
     7
100
AcDbLine
 10
-99.71186831938914
 20
-209.5883411057882
 30
0.0
 11
-103.1759699345269
 21
-208.5883411057882
 31
0.0
  0
LINE
  5
BA
330
76
100
AcDbEntity
  8
0
  6
Continuous
 62
     7
100
AcDbLine
 10
-164.3365920757682
 20
-176.7588411686575
 30
0.0
 11
-174.4365920757682
 21
-185.5056977468804
 31
0.0
  0
LINE
  5
BB
330
76
100
AcDbEntity
  8
0
  6
Continuous
 62
     7
100
AcDbLine
 10
-174.3615920757682
 20
-185.527348381975
 30
0.0
 11
-164.3365920757682
 21
-176.845443709036
 31
0.0
  0
LINE
  5
BC
330
76
100
AcDbEntity
  8
0
  6
Continuous
 62
     7
100
AcDbLine
 10
-170.0381292562042
 20
-176.383119747915
 30
0.0
 11
-181.2131292562042
 21
-186.0609536352062
 31
0.0
  0
LINE
  5
BD
330
76
100
AcDbEntity
  8
0
  6
Continuous
 62
     7
100
AcDbLine
 10
-170.0381292562042
 20
-176.383119747915
 30
0.0
 11
-168.7390911505275
 21
-176.7581197479151
 31
0.0
  0
LINE
  5
BE
330
76
100
AcDbEntity
  8
0
  6
Continuous
 62
     7
100
AcDbLine
 10
-174.4365920757682
 20
-185.5056977468804
 30
0.0
 11
-168.1378117088987
 21
-187.3239990170696
 31
0.0
  0
LINE
  5
BF
330
76
100
AcDbEntity
  8
0
  6
Continuous
 62
     7
100
AcDbLine
 10
-164.3365920757682
 20
-176.845443709036
 30
0.0
 11
-164.3365920757682
 21
-176.7588411686575
 31
0.0
  0
LINE
  5
C0
330
76
100
AcDbEntity
  8
0
  6
Continuous
 62
     7
100
AcDbLine
 10
-80.08590642506584
 20
-185.9822096492707
 30
0.0
 11
-155.8631292562043
 21
-164.1072096492706
 31
0.0
  0
LINE
  5
C1
330
76
100
AcDbEntity
  8
0
  6
Continuous
 62
     7
100
AcDbLine
 10
-167.1943507398161
 20
-188.8203353099865
 30
0.0
 11
-144.0743507398161
 21
-168.7978279744903
 31
0.0
  0
LINE
  5
C2
330
76
100
AcDbEntity
  8
0
  6
Continuous
 62
     7
100
AcDbLine
 10
-144.3671710628437
 20
-168.2514178129765
 30
0.0
 11
-168.2871710628436
 21
-188.9667454715003
 31
0.0
  0
LINE
  5
C3
330
76
100
AcDbEntity
  8
0
  6
Continuous
 62
     7
100
AcDbLine
 10
-157.2378117088987
 20
-177.8843221158192
 30
0.0
 11
-147.1378117088987
 21
-169.1374655375964
 31
0.0
  0
LINE
  5
C4
330
76
100
AcDbEntity
  8
0
  6
Continuous
 62
     7
100
AcDbLine
 10
-157.3128117088988
 20
-177.8626714807246
 30
0.0
 11
-157.2378117088987
 21
-177.8843221158192
 31
0.0
  0
LINE
  5
C5
330
76
100
AcDbEntity
  8
0
  6
Continuous
 62
     7
100
AcDbLine
 10
-168.1378117088987
 20
-187.3239990170696
 30
0.0
 11
-158.1128117088987
 21
-178.6420943441306
 31
0.0
  0
LINE
  5
C6
330
76
100
AcDbEntity
  8
0
  6
Continuous
 62
     7
100
AcDbLine
 10
-158.1128117088987
 20
-178.6420943441306
 30
0.0
 11
-158.0378117088987
 21
-178.5771424388468
 31
0.0
  0
LINE
  5
C7
330
76
100
AcDbEntity
  8
0
  6
Continuous
 62
     7
100
AcDbLine
 10
-158.0378117088987
 20
-178.5771424388468
 30
0.0
 11
-158.1128117088987
 21
-178.5554918037522
 31
0.0
  0
LINE
  5
C8
330
76
100
AcDbEntity
  8
0
  6
Continuous
 62
     7
100
AcDbLine
 10
-158.1128117088987
 20
-178.5554918037522
 30
0.0
 11
-158.1128117088987
 21
-178.6420943441306
 31
0.0
  0
LINE
  5
C9
330
76
100
AcDbEntity
  8
0
  6
Continuous
 62
     7
100
AcDbLine
 10
-162.5955666719839
 20
-176.3376714807246
 30
0.0
 11
-163.3955666719838
 21
-177.0304918037522
 31
0.0
  0
LINE
  5
CA
330
76
100
AcDbEntity
  8
0
  6
Continuous
 62
     7
100
AcDbLine
 10
-162.5955666719839
 20
-176.3376714807246
 30
0.0
 11
-162.5955666719839
 21
-176.424274021103
 31
0.0
  0
LINE
  5
CB
330
76
100
AcDbEntity
  8
0
  6
Continuous
 62
     7
100
AcDbLine
 10
-163.3955666719838
 20
-177.1170943441306
 30
0.0
 11
-163.3955666719838
 21
-177.0304918037522
 31
0.0
  0
LINE
  5
CC
330
76
100
AcDbEntity
  8
0
  6
Continuous
 62
     7
100
AcDbLine
 10
-162.5955666719839
 20
-177.3480344518064
 30
0.0
 11
-162.5955666719839
 21
-176.424274021103
 31
0.0
  0
LINE
  5
CD
330
76
100
AcDbEntity
  8
0
  6
Continuous
 62
     7
100
AcDbLine
 10
-158.1128117088987
 20
-178.5554918037522
 30
0.0
 11
-157.3128117088988
 21
-177.8626714807246
 31
0.0
  0
LINE
  5
CE
330
76
100
AcDbEntity
  8
0
  6
Continuous
 62
     7
100
AcDbLine
 10
-167.0381292562042
 20
-173.7850435365617
 30
0.0
 11
-165.7390911505275
 21
-174.1600435365617
 31
0.0
  0
LINE
  5
CF
330
76
100
AcDbEntity
  8
0
  6
Continuous
 62
     7
100
AcDbLine
 10
-163.5365920757683
 20
-176.06602084563
 30
0.0
 11
-162.5955666719839
 21
-176.3376714807246
 31
0.0
  0
LINE
  5
D0
330
76
100
AcDbEntity
  8
0
  6
Continuous
 62
     7
100
AcDbLine
 10
-167.0381292562042
 20
-173.7850435365617
 30
0.0
 11
-167.0381292562042
 21
-175.2850435365617
 31
0.0
  0
LINE
  5
D1
330
76
100
AcDbEntity
  8
0
  6
Continuous
 62
     7
100
AcDbLine
 10
-163.3955666719838
 20
-177.1170943441306
 30
0.0
 11
-158.1128117088987
 21
-178.6420943441306
 31
0.0
  0
LINE
  5
D2
330
76
100
AcDbEntity
  8
0
  6
Continuous
 62
     7
100
AcDbLine
 10
-157.3878117088987
 20
-177.9276233860084
 30
0.0
 11
-162.5955666719839
 21
-176.424274021103
 31
0.0
  0
LINE
  5
D3
330
76
100
AcDbEntity
  8
0
  6
Continuous
 62
     7
100
AcDbLine
 10
-163.3955666719838
 20
-177.1170943441306
 30
0.0
 11
-164.3365920757682
 21
-176.845443709036
 31
0.0
  0
LINE
  5
D4
330
76
100
AcDbEntity
  8
0
  6
Continuous
 62
     7
100
AcDbLine
 10
-163.3955666719838
 20
-177.0304918037522
 30
0.0
 11
-164.3365920757682
 21
-176.7588411686575
 31
0.0
  0
LINE
  5
D5
330
76
100
AcDbEntity
  8
0
  6
Continuous
 62
     7
100
AcDbLine
 10
-144.3671710628437
 20
-168.2514178129765
 30
0.0
 11
-144.3671710628437
 21
-168.4246228937334
 31
0.0
  0
LINE
  5
D6
330
76
100
AcDbEntity
  8
0
  6
Continuous
 62
     7
100
AcDbLine
 10
-153.4365920757682
 20
-167.4057668077856
 30
0.0
 11
-147.2128117088988
 21
-169.2024174428802
 31
0.0
  0
LINE
  5
D7
330
76
100
AcDbEntity
  8
0
  6
Continuous
 62
     7
100
AcDbLine
 10
-147.1378117088987
 20
-169.1374655375964
 30
0.0
 11
-153.4365920757682
 21
-167.3191642674072
 31
0.0
  0
LINE
  5
D8
330
76
100
AcDbEntity
  8
0
  6
Continuous
 62
     7
100
AcDbLine
 10
-163.4615920757682
 20
-176.0876714807246
 30
0.0
 11
-153.4365920757682
 21
-167.4057668077856
 31
0.0
  0
LINE
  5
D9
330
76
100
AcDbEntity
  8
0
  6
Continuous
 62
     7
100
AcDbLine
 10
-153.4365920757682
 20
-167.3191642674072
 30
0.0
 11
-163.5365920757683
 21
-176.06602084563
 31
0.0
  0
LINE
  5
DA
330
76
100
AcDbEntity
  8
0
  6
Continuous
 62
     7
100
AcDbLine
 10
-153.4365920757682
 20
-167.4057668077856
 30
0.0
 11
-153.4365920757682
 21
-167.3191642674072
 31
0.0
  0
LINE
  5
DB
330
76
100
AcDbEntity
  8
0
  6
Continuous
 62
     7
100
AcDbLine
 10
-144.3671710628437
 20
-168.4246228937334
 30
0.0
 11
-82.18932275247755
 21
-186.3738216235442
 31
0.0
  0
LINE
  5
DC
330
76
100
AcDbEntity
  8
0
  6
Continuous
 62
     7
100
AcDbLine
 10
-82.03932275247755
 20
-186.2439178129765
 30
0.0
 11
-144.3671710628437
 21
-168.2514178129765
 31
0.0
  0
LINE
  5
DD
330
76
100
AcDbEntity
  8
0
  6
Continuous
 62
     7
100
AcDbLine
 10
-144.0743507398161
 20
-168.7978279744903
 30
0.0
 11
-83.13214307550516
 21
-186.3903279744903
 31
0.0
  0
LINE
  5
DE
330
76
100
AcDbEntity
  8
0
  6
Continuous
 62
     7
100
AcDbLine
 10
-80.08590642506584
 20
-185.9822096492707
 30
0.0
 11
-80.08590642506584
 21
-188.4936833202455
 31
0.0
  0
LINE
  5
DF
330
76
100
AcDbEntity
  8
0
  6
Continuous
 62
     7
100
AcDbLine
 10
-83.13214307550516
 20
-186.5635330552472
 30
0.0
 11
-83.13214307550516
 21
-186.3903279744903
 31
0.0
  0
LINE
  5
E0
330
76
100
AcDbEntity
  8
0
  6
Continuous
 62
     7
100
AcDbLine
 10
-168.1371710628436
 20
-189.0100467416895
 30
0.0
 11
-144.3671710628437
 21
-168.4246228937334
 31
0.0
  0
LINE
  5
E1
330
76
100
AcDbEntity
  8
0
  6
Continuous
 62
     7
100
AcDbLine
 10
-155.8631292562043
 20
-164.1072096492706
 30
0.0
 11
-167.0381292562042
 21
-173.7850435365617
 31
0.0
  0
LINE
  5
E2
330
76
100
AcDbEntity
  8
0
  6
Continuous
 62
     7
100
AcDbLine
 10
-168.7390911505275
 20
-176.7581197479151
 30
0.0
 11
-165.7390911505275
 21
-174.1600435365617
 31
0.0
  0
LINE
  5
E3
330
76
100
AcDbEntity
  8
0
  6
Continuous
 62
     7
100
AcDbLine
 10
-167.1943507398161
 20
-188.9935403907434
 30
0.0
 11
-167.1943507398161
 21
-188.8203353099865
 31
0.0
  0
LINE
  5
E4
330
76
100
AcDbEntity
  8
0
  6
Continuous
 62
     7
100
AcDbLine
 10
-181.2131292562042
 20
-188.572427306181
 30
0.0
 11
-105.4359064250658
 21
-210.4474273061811
 31
0.0
  0
LINE
  5
E5
330
76
100
AcDbEntity
  8
0
  6
Continuous
 62
     7
100
AcDbLine
 10
-106.2521430755051
 20
-206.4128353099865
 30
0.0
 11
-167.1943507398161
 21
-188.8203353099865
 31
0.0
  0
LINE
  5
E6
330
76
100
AcDbEntity
  8
0
  6
Continuous
 62
     7
100
AcDbLine
 10
-168.2871710628436
 20
-188.9667454715003
 30
0.0
 11
-105.9593227524775
 21
-206.9592454715003
 31
0.0
  0
LINE
  5
E7
330
76
100
AcDbEntity
  8
0
  6
Continuous
 62
     7
100
AcDbLine
 10
-106.2521430755051
 20
-206.5860403907434
 30
0.0
 11
-167.1943507398161
 21
-188.9935403907434
 31
0.0
  0
LINE
  5
E8
330
76
100
AcDbEntity
  8
0
  6
Continuous
 62
     7
100
AcDbLine
 10
-106.2521430755051
 20
-206.5860403907434
 30
0.0
 11
-106.2521430755051
 21
-206.4128353099865
 31
0.0
  0
LINE
  5
E9
330
76
100
AcDbEntity
  8
0
  6
Continuous
 62
     7
100
AcDbLine
 10
-181.2131292562042
 20
-186.0609536352062
 30
0.0
 11
-181.2131292562042
 21
-188.572427306181
 31
0.0
  0
LINE
  5
EA
330
76
100
AcDbEntity
  8
0
  6
Continuous
 62
     7
100
AcDbLine
 10
-173.3581311066857
 20
-196.757810213429
 30
0.0
 11
-169.8940294915479
 21
-197.757810213429
 31
0.0
  0
LINE
  5
EB
330
76
100
AcDbEntity
  8
0
  6
Continuous
 62
     7
100
AcDbLine
 10
-173.7081311066856
 20
-194.7226505145355
 30
0.0
 11
-174.2081311066856
 21
-195.1556632164277
 31
0.0
  0
LINE
  5
EC
330
76
100
AcDbEntity
  8
0
  6
Continuous
 62
     7
100
AcDbLine
 10
-173.7081311066856
 20
-194.7226505145355
 30
0.0
 11
-170.2440294915479
 21
-195.7226505145355
 31
0.0
  0
LINE
  5
ED
330
76
100
AcDbEntity
  8
0
  6
Continuous
 62
     7
100
AcDbLine
 10
-169.6071074451805
 20
-197.509328432369
 30
0.0
 11
-169.340474376282
 21
-191.9997675516404
 31
0.0
  0
LINE
  5
EE
330
76
100
AcDbEntity
  8
0
  6
Continuous
 62
     7
100
AcDbLine
 10
-170.7440294915479
 20
-197.0216886202122
 30
0.0
 11
-169.8940294915479
 21
-197.757810213429
 31
0.0
  0
LINE
  5
EF
330
76
100
AcDbEntity
  8
0
  6
Continuous
 62
     7
100
AcDbLine
 10
-170.2440294915479
 20
-195.7226505145355
 30
0.0
 11
-170.7440294915479
 21
-196.1556632164277
 31
0.0
  0
LINE
  5
F0
330
76
100
AcDbEntity
  8
0
  6
Continuous
 62
     7
100
AcDbLine
 10
-170.2440294915479
 20
-191.7389336571271
 30
0.0
 11
-170.2440294915479
 21
-195.7226505145355
 31
0.0
  0
LINE
  5
F1
330
76
100
AcDbEntity
  8
0
  6
Continuous
 62
     7
100
AcDbLine
 10
-170.7440294915479
 20
-196.1556632164277
 30
0.0
 11
-170.7440294915479
 21
-197.0216886202122
 31
0.0
  0
LINE
  5
F2
330
76
100
AcDbEntity
  8
0
  6
Continuous
 62
     7
100
AcDbLine
 10
-169.8940294915479
 20
-197.757810213429
 30
0.0
 11
-169.6071074451805
 21
-197.509328432369
 31
0.0
  0
LINE
  5
F3
330
76
100
AcDbEntity
  8
0
  6
Continuous
 62
     7
100
AcDbLine
 10
-174.2081311066856
 20
-196.0216886202122
 30
0.0
 11
-170.7440294915479
 21
-197.0216886202122
 31
0.0
  0
LINE
  5
F4
330
76
100
AcDbEntity
  8
0
  6
Continuous
 62
     7
100
AcDbLine
 10
-174.2081311066856
 20
-195.1556632164277
 30
0.0
 11
-170.7440294915479
 21
-196.1556632164277
 31
0.0
  0
LINE
  5
F5
330
76
100
AcDbEntity
  8
0
  6
Continuous
 62
     7
100
AcDbLine
 10
-173.7081311066856
 20
-190.7389336571271
 30
0.0
 11
-173.7081311066856
 21
-194.7226505145355
 31
0.0
  0
LINE
  5
F6
330
76
100
AcDbEntity
  8
0
  6
Continuous
 62
     7
100
AcDbLine
 10
-174.2081311066856
 20
-196.0216886202122
 30
0.0
 11
-174.2081311066856
 21
-195.1556632164277
 31
0.0
  0
LINE
  5
F7
330
76
100
AcDbEntity
  8
0
  6
Continuous
 62
     7
100
AcDbLine
 10
-173.3581311066857
 20
-196.757810213429
 30
0.0
 11
-174.2081311066856
 21
-196.0216886202122
 31
0.0
  0
LINE
  5
F8
330
76
100
AcDbEntity
  8
0
  6
Continuous
 62
     7
100
AcDbLine
 10
-105.4359064250658
 20
-207.9359536352062
 30
0.0
 11
-105.4359064250658
 21
-210.4474273061811
 31
0.0
  0
LINE
  5
F9
330
76
100
AcDbEntity
  8
0
  6
Continuous
 62
     7
100
AcDbLine
 10
-105.4359064250658
 20
-210.4474273061811
 30
0.0
 11
-101.0109064250659
 21
-206.6152648944349
 31
0.0
  0
LINE
  5
FA
330
76
100
AcDbEntity
  8
0
  6
Continuous
 62
     7
100
AcDbLine
 10
-103.2107318794371
 20
-208.5203696218121
 30
0.0
 11
-103.1759699345269
 21
-208.5883411057882
 31
0.0
  0
LINE
  5
FB
330
76
100
AcDbEntity
  8
0
  6
Continuous
 62
     7
100
AcDbLine
 10
-83.13214307550516
 20
-186.5635330552472
 30
0.0
 11
-106.2521430755051
 21
-206.5860403907434
 31
0.0
  0
LINE
  5
FC
330
76
100
AcDbEntity
  8
0
  6
Continuous
 62
     7
100
AcDbLine
 10
-98.51090642506585
 20
-204.4502013849738
 30
0.0
 11
-87.01090642506585
 21
-194.4909092414528
 31
0.0
  0
LINE
  5
FD
330
76
100
AcDbEntity
  8
0
  6
Continuous
 62
     7
100
AcDbLine
 10
-99.71186831938914
 20
-207.8562902982194
 30
0.0
 11
-97.21186831938914
 21
-205.6912267887583
 31
0.0
  0
LINE
  5
FE
330
76
100
AcDbEntity
  8
0
  6
Continuous
 62
     7
100
AcDbLine
 10
-83.13214307550516
 20
-186.3903279744903
 30
0.0
 11
-106.2521430755051
 21
-206.4128353099865
 31
0.0
  0
LINE
  5
FF
330
76
100
AcDbEntity
  8
0
  6
Continuous
 62
     7
100
AcDbLine
 10
-105.4359064250658
 20
-207.9359536352062
 30
0.0
 11
-80.08590642506584
 21
-185.9822096492707
 31
0.0
  0
LINE
  5
100
330
76
100
AcDbEntity
  8
0
  6
Continuous
 62
     7
100
AcDbLine
 10
-105.9593227524775
 20
-206.9592454715003
 30
0.0
 11
-82.03932275247755
 21
-186.2439178129765
 31
0.0
  0
LINE
  5
101
330
76
100
AcDbEntity
  8
0
  6
Continuous
 62
     7
100
AcDbLine
 10
-98.51090642506585
 20
-204.4502013849738
 30
0.0
 11
-98.51090642506585
 21
-205.3162267887583
 31
0.0
  0
LINE
  5
102
330
76
100
AcDbEntity
  8
0
  6
Continuous
 62
     7
100
AcDbLine
 10
-84.51090642506585
 20
-193.1918711357761
 30
0.0
 11
-83.21186831938914
 21
-193.5668711357761
 31
0.0
  0
LINE
  5
103
330
76
100
AcDbEntity
  8
0
  6
Continuous
 62
     7
100
AcDbLine
 10
-98.51090642506585
 20
-205.3162267887583
 30
0.0
 11
-97.21186831938914
 21
-205.6912267887583
 31
0.0
  0
LINE
  5
104
330
76
100
AcDbEntity
  8
0
  6
Continuous
 62
     7
100
AcDbLine
 10
-97.33302074209584
 20
-203.4301224607678
 30
0.0
 11
-97.33302074209584
 21
-205.6562530968269
 31
0.0
  0
LINE
  5
105
330
76
100
AcDbEntity
  8
0
  6
Continuous
 62
     7
100
AcDbLine
 10
-89.21073187943713
 20
-196.39601396883
 30
0.0
 11
-89.17596993452693
 21
-196.4639854528061
 31
0.0
  0
LINE
  5
106
330
76
100
AcDbEntity
  8
0
  6
Continuous
 62
     7
100
AcDbLine
 10
-85.71186831938914
 20
-197.4639854528061
 30
0.0
 11
-83.21186831938914
 21
-195.298921943345
 31
0.0
  0
LINE
  5
107
330
76
100
AcDbEntity
  8
0
  6
Continuous
 62
     7
100
AcDbLine
 10
-87.01090642506585
 20
-195.3569346452372
 30
0.0
 11
-85.71186831938914
 21
-195.7319346452372
 31
0.0
  0
LINE
  5
108
330
76
100
AcDbEntity
  8
0
  6
Continuous
 62
     7
100
AcDbLine
 10
-85.71186831938914
 20
-197.4639854528061
 30
0.0
 11
-85.71186831938914
 21
-195.7319346452372
 31
0.0
  0
LINE
  5
109
330
76
100
AcDbEntity
  8
0
  6
Continuous
 62
     7
100
AcDbLine
 10
-85.71186831938914
 20
-197.4639854528061
 30
0.0
 11
-89.17596993452693
 21
-196.4639854528061
 31
0.0
  0
LINE
  5
10A
330
76
100
AcDbEntity
  8
0
  6
Continuous
 62
     7
100
AcDbLine
 10
-83.21186831938914
 20
-193.5668711357761
 30
0.0
 11
-83.21186831938914
 21
-195.298921943345
 31
0.0
  0
LINE
  5
10B
330
76
100
AcDbEntity
  8
0
  6
Continuous
 62
     7
100
AcDbLine
 10
-85.71186831938914
 20
-195.7319346452372
 30
0.0
 11
-83.21186831938914
 21
-193.5668711357761
 31
0.0
  0
LINE
  5
10C
330
76
100
AcDbEntity
  8
0
  6
Continuous
 62
     7
100
AcDbLine
 10
-87.01090642506585
 20
-195.3569346452372
 30
0.0
 11
-84.51090642506585
 21
-193.1918711357761
 31
0.0
  0
LINE
  5
10D
330
76
100
AcDbEntity
  8
0
  6
Continuous
 62
     7
100
AcDbLine
 10
-87.01090642506585
 20
-194.4909092414528
 30
0.0
 11
-87.01090642506585
 21
-195.3569346452372
 31
0.0
  0
LINE
  5
10E
330
76
100
AcDbEntity
  8
0
  6
Continuous
 62
     7
100
AcDbLine
 10
-84.51090642506585
 20
-192.3258457319917
 30
0.0
 11
-84.51090642506585
 21
-193.1918711357761
 31
0.0
  0
LINE
  5
10F
330
76
100
AcDbEntity
  8
0
  6
Continuous
 62
     7
100
AcDbLine
 10
-101.0109064250659
 20
-207.4812902982194
 30
0.0
 11
-98.51090642506585
 21
-205.3162267887583
 31
0.0
  0
LINE
  5
110
330
76
100
AcDbEntity
  8
0
  6
Continuous
 62
     7
100
AcDbLine
 10
-101.0109064250659
 20
-206.6152648944349
 30
0.0
 11
-101.0109064250659
 21
-207.4812902982194
 31
0.0
  0
LINE
  5
111
330
76
100
AcDbEntity
  8
0
  6
Continuous
 62
     7
100
AcDbLine
 10
-101.0109064250659
 20
-207.4812902982194
 30
0.0
 11
-99.71186831938914
 21
-207.8562902982194
 31
0.0
  0
LINE
  5
112
330
76
100
AcDbEntity
  8
0
  6
Continuous
 62
     7
100
AcDbLine
 10
-97.21186831938914
 20
-205.6912267887583
 30
0.0
 11
-97.21186831938914
 21
-207.4232775963272
 31
0.0
  0
LINE
  5
113
330
76
100
AcDbEntity
  8
0
  6
Continuous
 62
     7
100
AcDbLine
 10
-84.51090642506585
 20
-192.3258457319917
 30
0.0
 11
-80.08590642506584
 21
-188.4936833202455
 31
0.0
  0
ENDBLK
  5
78
330
76
100
AcDbEntity
  8
0
100
AcDbBlockEnd
  0
BLOCK
  5
7B
330
79
100
AcDbEntity
  8
0
100
AcDbBlockBegin
  2
Allg1
 70
     0
 10
-129.9999999998003
 20
-191.058823496723
 30
0.0
  3
Allg1
  1

  0
INSERT
  5
7A
330
79
100
AcDbEntity
  8
0
100
AcDbBlockReference
  2
VS_SI_FP_BP-select__1
 10
-181.2131292562042
 20
-210.4474273061811
 30
0.0
  0
MTEXT
  5
115
330
79
100
AcDbEntity
  8
1
 62
     6
100
AcDbMText
 10
-129.9999999998
 20
-223.0104367338217
 30
0.0
 40
5.0
 41
0.0
 71
     2
 72
     1
  1
 
  7
CONVERTER_11
 73
     1
 44
1.32052821128451
  0
ENDBLK
  5
7C
330
79
100
AcDbEntity
  8
0
100
AcDbBlockEnd
  0
BLOCK
  5
7E
330
7D
100
AcDbEntity
  8
0
100
AcDbBlockBegin
  2
VS_SI_FP_BP-select__2
 70
     0
 10
-340.3499965690763
 20
-189.2999984338159
 30
0.0
  3
VS_SI_FP_BP-select__2
  1

  0
LINE
  5
116
330
7D
100
AcDbEntity
  8
0
  6
Continuous
 62
     7
100
AcDbLine
 10
-340.3499965690763
 20
-189.2999984338159
 30
0.0
 11
-252.8499965690763
 21
-189.2999984338159
 31
0.0
  0
LINE
  5
117
330
7D
100
AcDbEntity
  8
0
  6
Continuous
 62
     7
100
AcDbLine
 10
-325.4499965690763
 20
-187.0699984338158
 30
0.0
 11
-325.4499965690763
 21
-140.8299984338158
 31
0.0
  0
LINE
  5
118
330
7D
100
AcDbEntity
  8
0
  6
Continuous
 62
     7
100
AcDbLine
 10
-327.7633940286978
 20
-163.1499984338158
 30
0.0
 11
-327.7633940286978
 21
-142.9499984338158
 31
0.0
  0
LINE
  5
119
330
7D
100
AcDbEntity
  8
0
  6
Continuous
 62
     7
100
AcDbLine
 10
-326.2499965690763
 20
-140.0299984338158
 30
0.0
 11
-326.2499965690763
 21
-187.8699984338159
 31
0.0
  0
LINE
  5
11A
330
7D
100
AcDbEntity
  8
0
  6
Continuous
 62
     7
100
AcDbLine
 10
-327.7633940286979
 20
-184.9499984338158
 30
0.0
 11
-327.7633940286978
 21
-164.7499984338159
 31
0.0
  0
LINE
  5
11B
330
7D
100
AcDbEntity
  8
0
  6
Continuous
 62
     7
100
AcDbLine
 10
-327.8499965690763
 20
-163.1499984338159
 30
0.0
 11
-333.9499965690763
 21
-163.1499984338159
 31
0.0
  0
LINE
  5
11C
330
7D
100
AcDbEntity
  8
0
  6
Continuous
 62
     7
100
AcDbLine
 10
-335.0365991094548
 20
-163.1499984338158
 30
0.0
 11
-333.9499965690763
 21
-163.1499984338159
 31
0.0
  0
LINE
  5
11D
330
7D
100
AcDbEntity
  8
0
  6
Continuous
 62
     7
100
AcDbLine
 10
-340.3499965690763
 20
-160.9499984338158
 30
0.0
 11
-339.3499965690763
 21
-160.9499984338158
 31
0.0
  0
LINE
  5
11E
330
7D
100
AcDbEntity
  8
0
  6
Continuous
 62
     7
100
AcDbLine
 10
-339.3499965690763
 20
-160.9499984338158
 30
0.0
 11
-338.8499965690763
 21
-160.9499984338158
 31
0.0
  0
LINE
  5
11F
330
7D
100
AcDbEntity
  8
0
  6
Continuous
 62
     7
100
AcDbLine
 10
-327.8499965690763
 20
-163.1499984338159
 30
0.0
 11
-327.7633940286978
 21
-163.1499984338158
 31
0.0
  0
LINE
  5
120
330
7D
100
AcDbEntity
  8
0
  6
Continuous
 62
     7
100
AcDbLine
 10
-327.7633940286978
 20
-164.7499984338159
 30
0.0
 11
-327.8499965690763
 21
-164.7499984338159
 31
0.0
  0
LINE
  5
121
330
7D
100
AcDbEntity
  8
0
  6
Continuous
 62
     7
100
AcDbLine
 10
-333.9499965690763
 20
-164.7499984338159
 30
0.0
 11
-335.0365991094547
 21
-164.7499984338159
 31
0.0
  0
LINE
  5
122
330
7D
100
AcDbEntity
  8
0
  6
Continuous
 62
     7
100
AcDbLine
 10
-333.9499965690763
 20
-163.1499984338159
 30
0.0
 11
-333.9499965690763
 21
-164.7499984338159
 31
0.0
  0
LINE
  5
123
330
7D
100
AcDbEntity
  8
0
  6
Continuous
 62
     7
100
AcDbLine
 10
-335.0365991094548
 20
-142.9499984338158
 30
0.0
 11
-335.0365991094548
 21
-163.1499984338158
 31
0.0
  0
LINE
  5
124
330
7D
100
AcDbEntity
  8
0
  6
Continuous
 62
     7
100
AcDbLine
 10
-335.0365991094547
 20
-164.7499984338159
 30
0.0
 11
-335.0365991094547
 21
-184.9499984338158
 31
0.0
  0
LINE
  5
125
330
7D
100
AcDbEntity
  8
0
  6
Continuous
 62
     7
100
AcDbLine
 10
-338.8499965690763
 20
-166.9499984338158
 30
0.0
 11
-338.8499965690763
 21
-160.9499984338158
 31
0.0
  0
LINE
  5
126
330
7D
100
AcDbEntity
  8
0
  6
Continuous
 62
     7
100
AcDbLine
 10
-255.0799965690763
 20
-140.8299984338158
 30
0.0
 11
-255.0799965690763
 21
-187.0699984338158
 31
0.0
  0
LINE
  5
127
330
7D
100
AcDbEntity
  8
0
  6
Continuous
 62
     7
100
AcDbLine
 10
-254.2799965690763
 20
-187.8699984338159
 30
0.0
 11
-254.2799965690763
 21
-140.0299984338158
 31
0.0
  0
LINE
  5
128
330
7D
100
AcDbEntity
  8
0
  6
Continuous
 62
     7
100
AcDbLine
 10
-255.0799965690763
 20
-187.0699984338158
 30
0.0
 11
-325.4499965690763
 21
-187.0699984338158
 31
0.0
  0
LINE
  5
129
330
7D
100
AcDbEntity
  8
0
  6
Continuous
 62
     7
100
AcDbLine
 10
-326.2499965690763
 20
-187.8699984338159
 30
0.0
 11
-254.2799965690763
 21
-187.8699984338159
 31
0.0
  0
LINE
  5
12A
330
7D
100
AcDbEntity
  8
0
  6
Continuous
 62
     7
100
AcDbLine
 10
-335.0365991094547
 20
-184.9499984338158
 30
0.0
 11
-327.7633940286979
 21
-184.9499984338158
 31
0.0
  0
LINE
  5
12B
330
7D
100
AcDbEntity
  8
0
  6
Continuous
 62
     7
100
AcDbLine
 10
-340.3499965690763
 20
-166.9499984338158
 30
0.0
 11
-340.3499965690763
 21
-189.2999984338159
 31
0.0
  0
LINE
  5
12C
330
7D
100
AcDbEntity
  8
0
  6
Continuous
 62
     7
100
AcDbLine
 10
-340.3499965690763
 20
-138.5999984338158
 30
0.0
 11
-340.3499965690763
 21
-160.9499984338158
 31
0.0
  0
LINE
  5
12D
330
7D
100
AcDbEntity
  8
0
  6
Continuous
 62
     7
100
AcDbLine
 10
-339.3499965690763
 20
-166.9499984338158
 30
0.0
 11
-339.3499965690763
 21
-160.9499984338158
 31
0.0
  0
LINE
  5
12E
330
7D
100
AcDbEntity
  8
0
  6
Continuous
 62
     7
100
AcDbLine
 10
-340.3499965690763
 20
-166.9499984338158
 30
0.0
 11
-340.3499965690763
 21
-160.9499984338158
 31
0.0
  0
LINE
  5
12F
330
7D
100
AcDbEntity
  8
0
  6
Continuous
 62
     7
100
AcDbLine
 10
-333.9499965690763
 20
-164.7499984338159
 30
0.0
 11
-327.8499965690763
 21
-164.7499984338159
 31
0.0
  0
LINE
  5
130
330
7D
100
AcDbEntity
  8
0
  6
Continuous
 62
     7
100
AcDbLine
 10
-340.3499965690763
 20
-166.9499984338158
 30
0.0
 11
-339.3499965690763
 21
-166.9499984338158
 31
0.0
  0
LINE
  5
131
330
7D
100
AcDbEntity
  8
0
  6
Continuous
 62
     7
100
AcDbLine
 10
-339.3499965690763
 20
-166.9499984338158
 30
0.0
 11
-338.8499965690763
 21
-166.9499984338158
 31
0.0
  0
LINE
  5
132
330
7D
100
AcDbEntity
  8
0
  6
Continuous
 62
     7
100
AcDbLine
 10
-327.8499965690763
 20
-164.7499984338159
 30
0.0
 11
-327.8499965690763
 21
-163.1499984338159
 31
0.0
  0
LINE
  5
133
330
7D
100
AcDbEntity
  8
0
  6
Continuous
 62
     7
100
AcDbLine
 10
-325.4499965690763
 20
-140.8299984338158
 30
0.0
 11
-255.0799965690763
 21
-140.8299984338158
 31
0.0
  0
LINE
  5
134
330
7D
100
AcDbEntity
  8
0
  6
Continuous
 62
     7
100
AcDbLine
 10
-254.2799965690763
 20
-140.0299984338158
 30
0.0
 11
-326.2499965690763
 21
-140.0299984338158
 31
0.0
  0
LINE
  5
135
330
7D
100
AcDbEntity
  8
0
  6
Continuous
 62
     7
100
AcDbLine
 10
-327.7633940286978
 20
-142.9499984338158
 30
0.0
 11
-335.0365991094548
 21
-142.9499984338158
 31
0.0
  0
LINE
  5
136
330
7D
100
AcDbEntity
  8
0
  6
Continuous
 62
     7
100
AcDbLine
 10
-252.8499965690763
 20
-138.5999984338158
 30
0.0
 11
-340.3499965690763
 21
-138.5999984338158
 31
0.0
  0
LINE
  5
137
330
7D
100
AcDbEntity
  8
0
  6
Continuous
 62
     7
100
AcDbLine
 10
-252.8499965690763
 20
-175.4499984338158
 30
0.0
 11
-252.8499965690763
 21
-152.4499984338158
 31
0.0
  0
LINE
  5
138
330
7D
100
AcDbEntity
  8
0
  6
Continuous
 62
     7
100
AcDbLine
 10
-252.8499965690763
 20
-189.2999984338159
 30
0.0
 11
-252.8499965690763
 21
-180.4499984338158
 31
0.0
  0
LINE
  5
139
330
7D
100
AcDbEntity
  8
0
  6
Continuous
 62
     7
100
AcDbLine
 10
-252.8499965690763
 20
-180.4499984338158
 30
0.0
 11
-252.8499965690763
 21
-175.4499984338158
 31
0.0
  0
LINE
  5
13A
330
7D
100
AcDbEntity
  8
0
  6
Continuous
 62
     7
100
AcDbLine
 10
-252.8499965690763
 20
-147.4499984338158
 30
0.0
 11
-252.8499965690763
 21
-138.5999984338158
 31
0.0
  0
LINE
  5
13B
330
7D
100
AcDbEntity
  8
0
  6
Continuous
 62
     7
100
AcDbLine
 10
-252.8499965690763
 20
-152.4499984338158
 30
0.0
 11
-252.8499965690763
 21
-147.4499984338158
 31
0.0
  0
LINE
  5
13C
330
7D
100
AcDbEntity
  8
0
  6
Continuous
 62
     7
100
AcDbLine
 10
-252.8499965690763
 20
-175.4499984338158
 30
0.0
 11
-251.3499965690762
 21
-175.4499984338158
 31
0.0
  0
LINE
  5
13D
330
7D
100
AcDbEntity
  8
0
  6
Continuous
 62
     7
100
AcDbLine
 10
-251.3499965690762
 20
-180.4499984338158
 30
0.0
 11
-251.3499965690762
 21
-175.4499984338158
 31
0.0
  0
LINE
  5
13E
330
7D
100
AcDbEntity
  8
0
  6
Continuous
 62
     7
100
AcDbLine
 10
-252.8499965690763
 20
-180.4499984338158
 30
0.0
 11
-251.3499965690762
 21
-180.4499984338158
 31
0.0
  0
LINE
  5
13F
330
7D
100
AcDbEntity
  8
0
  6
Continuous
 62
     7
100
AcDbLine
 10
-251.3499965690762
 20
-152.4499984338158
 30
0.0
 11
-251.3499965690762
 21
-147.4499984338158
 31
0.0
  0
LINE
  5
140
330
7D
100
AcDbEntity
  8
0
  6
Continuous
 62
     7
100
AcDbLine
 10
-252.8499965690763
 20
-147.4499984338158
 30
0.0
 11
-251.3499965690762
 21
-147.4499984338158
 31
0.0
  0
LINE
  5
141
330
7D
100
AcDbEntity
  8
0
  6
Continuous
 62
     7
100
AcDbLine
 10
-252.8499965690763
 20
-152.4499984338158
 30
0.0
 11
-251.3499965690762
 21
-152.4499984338158
 31
0.0
  0
ENDBLK
  5
7F
330
7D
100
AcDbEntity
  8
0
100
AcDbBlockEnd
  0
BLOCK
  5
82
330
80
100
AcDbEntity
  8
0
100
AcDbBlockBegin
  2
Drfsicht1
 70
     0
 10
-295.8499981905397
 20
-163.949998049366
 30
0.0
  3
Drfsicht1
  1

  0
INSERT
  5
81
330
80
100
AcDbEntity
  8
0
100
AcDbBlockReference
  2
VS_SI_FP_BP-select__2
 10
-340.3499965690763
 20
-189.2999984338159
 30
0.0
  0
MTEXT
  5
142
330
80
100
AcDbEntity
  8
1
 62
     6
100
AcDbMText
 10
-295.8499981905397
 20
-194.2999976708765
 30
0.0
 40
5.0
 41
0.0
 71
     2
 72
     1
  1
 
  7
CONVERTER_11
 73
     1
 44
1.32052821128451
  0
DIMENSION
  5
14D
330
80
100
AcDbEntity
  8
1
100
AcDbDimension
  2
*D17
 10
-350.3499965690763
 20
-138.5999984338158
 30
0.0
 11
-353.7749965690763
 21
-163.170728420197
 31
0.0
 70
    32
  1
<>
 71
     5
 42
-1.0
 53
90.0
  3
ME10_DIM_10
100
AcDbAlignedDimension
 13
-340.3499965690763
 23
-189.2999984338159
 33
0.0
 14
-340.3499965690763
 24
-138.5999984338158
 34
0.0
 50
90.0
100
AcDbRotatedDimension
  0
DIMENSION
  5
158
330
80
100
AcDbEntity
  8
1
100
AcDbDimension
  2
*D18
 10
-340.3499965690763
 20
-118.5999984338158
 30
0.0
 11
-296.909622258638
 21
-115.3499984338158
 31
0.0
 70
    32
  1
<>)
 71
     5
 42
-1.0
 53
0.00013888888889
  3
ME10_DIM_11
100
AcDbAlignedDimension
 13
-251.3499965690762
 23
-147.4499984338158
 33
0.0
 14
-340.3499965690763
 24
-138.5999984338158
 34
0.0
100
AcDbRotatedDimension
  0
DIMENSION
  5
163
330
80
100
AcDbEntity
  8
1
100
AcDbDimension
  2
*D19
 10
-340.3499965690763
 20
-128.5999984338158
 30
0.0
 11
-296.5999965690763
 21
-125.1749984338158
 31
0.0
 70
    32
  1
<>
 71
     5
 42
-1.0
 53
0.00013888888889
  3
ME10_DIM_12
100
AcDbAlignedDimension
 13
-252.8499965690763
 23
-138.5999984338158
 33
0.0
 14
-340.3499965690763
 24
-138.5999984338158
 34
0.0
100
AcDbRotatedDimension
  0
ENDBLK
  5
83
330
80
100
AcDbEntity
  8
0
100
AcDbBlockEnd
  0
BLOCK
  5
85
330
84
100
AcDbEntity
  8
0
100
AcDbBlockBegin
  2
VS_SI_FP_BP-select__3
 70
     0
 10
-160.6500034306947
 20
-94.59999980938518
 30
0.0
  3
VS_SI_FP_BP-select__3
  1

  0
LINE
  5
164
330
84
100
AcDbEntity
  8
0
  6
Continuous
 62
     7
100
AcDbLine
 10
-156.6500034306947
 20
-89.29999980938523
 30
0.0
 11
-154.8500034306947
 21
-86.29999980938521
 31
0.0
  0
LINE
  5
165
330
84
100
AcDbEntity
  8
0
  6
Continuous
 62
     7
100
AcDbLine
 10
-83.45000343069466
 20
-94.59999980938518
 30
0.0
 11
-83.45000343069466
 21
-92.89999980938518
 31
0.0
  0
LINE
  5
166
330
84
100
AcDbEntity
  8
0
  6
Continuous
 62
     7
100
AcDbLine
 10
-79.45000343069466
 20
-92.89999980938518
 30
0.0
 11
-79.45000343069466
 21
-94.59999980938518
 31
0.0
  0
LINE
  5
167
330
84
100
AcDbEntity
  8
0
  6
Continuous
 62
     7
100
AcDbLine
 10
-79.45000343069466
 20
-92.89999980938518
 30
0.0
 11
-79.45000343069466
 21
-91.89999980938518
 31
0.0
  0
LINE
  5
168
330
84
100
AcDbEntity
  8
0
  6
Continuous
 62
     7
100
AcDbLine
 10
-154.6500034306947
 20
-86.29999980938521
 30
0.0
 11
-85.65000343069465
 21
-86.29999980938521
 31
0.0
  0
LINE
  5
169
330
84
100
AcDbEntity
  8
0
  6
Continuous
 62
     7
100
AcDbLine
 10
-79.45000343069466
 20
-91.89999980938518
 30
0.0
 11
-79.45000343069466
 21
-86.29999980938521
 31
0.0
  0
LINE
  5
16A
330
84
100
AcDbEntity
  8
0
  6
Continuous
 62
     7
100
AcDbLine
 10
-83.45000343069466
 20
-91.89999980938518
 30
0.0
 11
-83.45000343069466
 21
-86.29999980938521
 31
0.0
  0
LINE
  5
16B
330
84
100
AcDbEntity
  8
0
  6
Continuous
 62
     7
100
AcDbLine
 10
-85.65000343069465
 20
-86.29999980938521
 30
0.0
 11
-85.65000343069465
 21
-87.29999980938518
 31
0.0
  0
LINE
  5
16C
330
84
100
AcDbEntity
  8
0
  6
Continuous
 62
     7
100
AcDbLine
 10
-85.65000343069465
 20
-86.29999980938521
 30
0.0
 11
-83.45000343069466
 21
-86.29999980938521
 31
0.0
  0
LINE
  5
16D
330
84
100
AcDbEntity
  8
0
  6
Continuous
 62
     7
100
AcDbLine
 10
-79.45000343069466
 20
-91.89999980938518
 30
0.0
 11
-83.45000343069466
 21
-91.89999980938518
 31
0.0
  0
LINE
  5
16E
330
84
100
AcDbEntity
  8
0
  6
Continuous
 62
     7
100
AcDbLine
 10
-83.45000343069466
 20
-86.29999980938521
 30
0.0
 11
-79.45000343069466
 21
-86.29999980938521
 31
0.0
  0
LINE
  5
16F
330
84
100
AcDbEntity
  8
0
  6
Continuous
 62
     7
100
AcDbLine
 10
-154.6500034306947
 20
-93.89999980938522
 30
0.0
 11
-156.6500034306947
 21
-93.89999980938522
 31
0.0
  0
LINE
  5
170
330
84
100
AcDbEntity
  8
0
  6
Continuous
 62
     7
100
AcDbLine
 10
-154.6500034306947
 20
-93.89999980938522
 30
0.0
 11
-154.6500034306947
 21
-86.29999980938521
 31
0.0
  0
LINE
  5
171
330
84
100
AcDbEntity
  8
0
  6
Continuous
 62
     7
100
AcDbLine
 10
-156.6500034306947
 20
-89.29999980938523
 30
0.0
 11
-156.6500034306947
 21
-93.89999980938522
 31
0.0
  0
LINE
  5
172
330
84
100
AcDbEntity
  8
0
  6
Continuous
 62
     7
100
AcDbLine
 10
-154.8500034306947
 20
-86.29999980938521
 30
0.0
 11
-154.6500034306947
 21
-86.29999980938521
 31
0.0
  0
LINE
  5
173
330
84
100
AcDbEntity
  8
0
  6
Continuous
 62
     7
100
AcDbLine
 10
-79.45000343069466
 20
-92.89999980938518
 30
0.0
 11
-83.45000343069466
 21
-92.89999980938518
 31
0.0
  0
LINE
  5
174
330
84
100
AcDbEntity
  8
0
  6
Continuous
 62
     7
100
AcDbLine
 10
-71.65000343069465
 20
-92.89999980938516
 30
0.0
 11
-71.65000343069465
 21
-91.89999980938518
 31
0.0
  0
LINE
  5
175
330
84
100
AcDbEntity
  8
0
  6
Continuous
 62
     7
100
AcDbLine
 10
-71.65000343069465
 20
-91.89999980938518
 30
0.0
 11
-72.65000343069465
 21
-91.89999980938518
 31
0.0
  0
LINE
  5
176
330
84
100
AcDbEntity
  8
0
  6
Continuous
 62
     7
100
AcDbLine
 10
-83.45000343069466
 20
-92.89999980938518
 30
0.0
 11
-83.45000343069466
 21
-91.89999980938518
 31
0.0
  0
LINE
  5
177
330
84
100
AcDbEntity
  8
0
  6
Continuous
 62
     7
100
AcDbLine
 10
-73.35000343069467
 20
-94.59999980938518
 30
0.0
 11
-71.65000343069465
 21
-92.89999980938516
 31
0.0
  0
LINE
  5
178
330
84
100
AcDbEntity
  8
0
  6
Continuous
 62
     7
100
AcDbLine
 10
-79.45000343069466
 20
-94.59999980938518
 30
0.0
 11
-83.45000343069466
 21
-94.59999980938518
 31
0.0
  0
LINE
  5
179
330
84
100
AcDbEntity
  8
0
  6
Continuous
 62
     7
100
AcDbLine
 10
-74.21133618695546
 20
-94.59999980938517
 30
0.0
 11
-73.35000343069467
 21
-94.59999980938518
 31
0.0
  0
LINE
  5
17A
330
84
100
AcDbEntity
  8
0
  6
Continuous
 62
     7
100
AcDbLine
 10
-160.6500034306947
 20
-89.29999980938523
 30
0.0
 11
-156.6500034306947
 21
-89.29999980938523
 31
0.0
  0
LINE
  5
17B
330
84
100
AcDbEntity
  8
0
  6
Continuous
 62
     7
100
AcDbLine
 10
-160.6500034306947
 20
-87.29999980938524
 30
0.0
 11
-160.6500034306947
 21
-89.29999980938523
 31
0.0
  0
LINE
  5
17C
330
84
100
AcDbEntity
  8
0
  6
Continuous
 62
     7
100
AcDbLine
 10
-159.1500034306947
 20
-86.29999980938521
 30
0.0
 11
-159.1500034306947
 21
-87.29999980938524
 31
0.0
  0
LINE
  5
17D
330
84
100
AcDbEntity
  8
0
  6
Continuous
 62
     7
100
AcDbLine
 10
-159.1500034306947
 20
-87.29999980938524
 30
0.0
 11
-160.6500034306947
 21
-87.29999980938524
 31
0.0
  0
LINE
  5
17E
330
84
100
AcDbEntity
  8
0
  6
Continuous
 62
     7
100
AcDbLine
 10
-79.45000343069466
 20
-87.29999980938518
 30
0.0
 11
-74.85000343069467
 21
-87.29999980938518
 31
0.0
  0
LINE
  5
17F
330
84
100
AcDbEntity
  8
0
  6
Continuous
 62
     7
100
AcDbLine
 10
-85.65000343069465
 20
-87.29999980938518
 30
0.0
 11
-83.45000343069466
 21
-87.29999980938518
 31
0.0
  0
LINE
  5
180
330
84
100
AcDbEntity
  8
0
  6
Continuous
 62
     7
100
AcDbLine
 10
-159.1500034306947
 20
-83.3999998093852
 30
0.0
 11
-159.1500034306947
 21
-86.29999980938521
 31
0.0
  0
LINE
  5
181
330
84
100
AcDbEntity
  8
0
  6
Continuous
 62
     7
100
AcDbLine
 10
-71.65000343069465
 20
-83.3999998093852
 30
0.0
 11
-71.65000343069465
 21
-86.29999980938521
 31
0.0
  0
LINE
  5
182
330
84
100
AcDbEntity
  8
0
  6
Continuous
 62
     7
100
AcDbLine
 10
-159.1500034306947
 20
-86.29999980938521
 30
0.0
 11
-154.8500034306947
 21
-86.29999980938521
 31
0.0
  0
LINE
  5
183
330
84
100
AcDbEntity
  8
0
  6
Continuous
 62
     7
100
AcDbLine
 10
-79.45000343069466
 20
-86.29999980938521
 30
0.0
 11
-72.65000343069465
 21
-86.29999980938521
 31
0.0
  0
LINE
  5
184
330
84
100
AcDbEntity
  8
0
  6
Continuous
 62
     7
100
AcDbLine
 10
-71.65000343069465
 20
-86.29999980938521
 30
0.0
 11
-72.65000343069465
 21
-86.29999980938521
 31
0.0
  0
LINE
  5
185
330
84
100
AcDbEntity
  8
0
  6
Continuous
 62
     7
100
AcDbLine
 10
-159.1500034306947
 20
-83.3999998093852
 30
0.0
 11
-71.65000343069465
 21
-83.3999998093852
 31
0.0
  0
LINE
  5
186
330
84
100
AcDbEntity
  8
0
  6
Continuous
 62
     7
100
AcDbLine
 10
-74.85000343069467
 20
-87.29999980938518
 30
0.0
 11
-74.21133618695546
 21
-94.59999980938517
 31
0.0
  0
LINE
  5
187
330
84
100
AcDbEntity
  8
0
  6
Continuous
 62
     7
100
AcDbLine
 10
-72.65000343069465
 20
-86.29999980938521
 30
0.0
 11
-72.65000343069465
 21
-91.89999980938518
 31
0.0
  0
ENDBLK
  5
86
330
84
100
AcDbEntity
  8
0
100
AcDbBlockEnd
  0
BLOCK
  5
89
330
87
100
AcDbEntity
  8
0
100
AcDbBlockBegin
  2
Rückansicht1
 70
     0
 10
-116.1500018092313
 20
-89.00000000006008
 30
0.0
  3
Rückansicht1
  1

  0
INSERT
  5
88
330
87
100
AcDbEntity
  8
0
100
AcDbBlockReference
  2
VS_SI_FP_BP-select__3
 10
-160.6500034306947
 20
-94.59999980938518
 30
0.0
  0
MTEXT
  5
188
330
87
100
AcDbEntity
  8
1
 62
     6
100
AcDbMText
 10
-116.1500018092311
 20
-99.59999942785544
 30
0.0
 40
5.0
 41
0.0
 71
     2
 72
     1
  1
 
  7
CONVERTER_11
 73
     1
 44
1.32052821128451
  0
ENDBLK
  5
8A
330
87
100
AcDbEntity
  8
0
100
AcDbBlockEnd
  0
BLOCK
  5
8C
330
8B
100
AcDbEntity
  8
0
100
AcDbBlockBegin
  2
VS_SI_FP_BP-select__4
 70
     0
 10
-231.3499996155501
 20
-94.59999980944514
 30
0.0
  3
VS_SI_FP_BP-select__4
  1

  0
LINE
  5
189
330
8B
100
AcDbEntity
  8
0
  6
Continuous
 62
     7
100
AcDbLine
 10
-184.1499996155501
 20
-86.29999980944517
 30
0.0
 11
-183.423843708285
 21
-94.59999980944514
 31
0.0
  0
LINE
  5
18A
330
8B
100
AcDbEntity
  8
0
  6
Continuous
 62
     7
100
AcDbLine
 10
-189.4999996155501
 20
-86.29999980944517
 30
0.0
 11
-184.1499996155501
 21
-86.29999980944517
 31
0.0
  0
LINE
  5
18B
330
8B
100
AcDbEntity
  8
0
  6
Continuous
 62
     7
100
AcDbLine
 10
-202.9999996155501
 20
-86.29999980944517
 30
0.0
 11
-202.9999996155501
 21
-87.37542628998807
 31
0.0
  0
LINE
  5
18C
330
8B
100
AcDbEntity
  8
0
  6
Continuous
 62
     7
100
AcDbLine
 10
-182.1499996155501
 20
-86.29999980944517
 30
0.0
 11
-182.1499996155501
 21
-91.89999980944513
 31
0.0
  0
LINE
  5
18D
330
8B
100
AcDbEntity
  8
0
  6
Continuous
 62
     7
100
AcDbLine
 10
-184.1499996155501
 20
-86.29999980944517
 30
0.0
 11
-182.1499996155501
 21
-86.29999980944517
 31
0.0
  0
LINE
  5
18E
330
8B
100
AcDbEntity
  8
0
  6
Continuous
 62
     7
100
AcDbLine
 10
-202.9999996155501
 20
-86.29999980944517
 30
0.0
 11
-195.9999996155501
 21
-86.29999980944517
 31
0.0
  0
LINE
  5
18F
330
8B
100
AcDbEntity
  8
0
  6
Continuous
 62
     7
100
AcDbLine
 10
-194.4999996155501
 20
-89.29999980944518
 30
0.0
 11
-194.4999996155501
 21
-86.29999980944517
 31
0.0
  0
LINE
  5
190
330
8B
100
AcDbEntity
  8
0
  6
Continuous
 62
     7
100
AcDbLine
 10
-195.9999996155501
 20
-86.29999980944517
 30
0.0
 11
-194.4999996155501
 21
-86.29999980944517
 31
0.0
  0
LINE
  5
191
330
8B
100
AcDbEntity
  8
0
  6
Continuous
 62
     7
100
AcDbLine
 10
-194.4999996155501
 20
-86.29999980944517
 30
0.0
 11
-189.4999996155501
 21
-86.29999980944517
 31
0.0
  0
LINE
  5
192
330
8B
100
AcDbEntity
  8
0
  6
Continuous
 62
     7
100
AcDbLine
 10
-189.4999996155501
 20
-89.29999980944518
 30
0.0
 11
-194.4999996155501
 21
-89.29999980944518
 31
0.0
  0
LINE
  5
193
330
8B
100
AcDbEntity
  8
0
  6
Continuous
 62
     7
100
AcDbLine
 10
-189.4999996155501
 20
-86.29999980944517
 30
0.0
 11
-189.4999996155501
 21
-89.29999980944518
 31
0.0
  0
LINE
  5
194
330
8B
100
AcDbEntity
  8
0
  6
Continuous
 62
     7
100
AcDbLine
 10
-196.5774247948212
 20
-92.89999980944512
 30
0.0
 11
-196.7261555228153
 21
-94.59999980944512
 31
0.0
  0
LINE
  5
195
330
8B
100
AcDbEntity
  8
0
  6
Continuous
 62
     7
100
AcDbLine
 10
-195.9999996155501
 20
-86.29999980944517
 30
0.0
 11
-196.4899361312953
 21
-91.89999980944513
 31
0.0
  0
LINE
  5
196
330
8B
100
AcDbEntity
  8
0
  6
Continuous
 62
     7
100
AcDbLine
 10
-196.4899361312953
 20
-91.89999980944513
 30
0.0
 11
-196.5774247948212
 21
-92.89999980944512
 31
0.0
  0
LINE
  5
197
330
8B
100
AcDbEntity
  8
0
  6
Continuous
 62
     7
100
AcDbLine
 10
-182.8499996155501
 20
-94.59999980944514
 30
0.0
 11
-181.1499996155501
 21
-92.89999980944513
 31
0.0
  0
LINE
  5
198
330
8B
100
AcDbEntity
  8
0
  6
Continuous
 62
     7
100
AcDbLine
 10
-230.8499996155501
 20
-92.89999980944513
 30
0.0
 11
-229.1499996155501
 21
-94.59999980944514
 31
0.0
  0
LINE
  5
199
330
8B
100
AcDbEntity
  8
0
  6
Continuous
 62
     7
100
AcDbLine
 10
-228.5761555228153
 20
-94.59999980944514
 30
0.0
 11
-229.1499996155501
 21
-94.59999980944514
 31
0.0
  0
LINE
  5
19A
330
8B
100
AcDbEntity
  8
0
  6
Continuous
 62
     7
100
AcDbLine
 10
-196.7261555228153
 20
-94.59999980944512
 30
0.0
 11
-215.2738437082849
 21
-94.59999980944514
 31
0.0
  0
LINE
  5
19B
330
8B
100
AcDbEntity
  8
0
  6
Continuous
 62
     7
100
AcDbLine
 10
-182.8499996155501
 20
-94.59999980944514
 30
0.0
 11
-183.423843708285
 21
-94.59999980944514
 31
0.0
  0
LINE
  5
19C
330
8B
100
AcDbEntity
  8
0
  6
Continuous
 62
     7
100
AcDbLine
 10
-202.9999996155501
 20
-87.37542628998807
 30
0.0
 11
-208.9999996155501
 21
-87.37542628998807
 31
0.0
  0
LINE
  5
19D
330
8B
100
AcDbEntity
  8
0
  6
Continuous
 62
     7
100
AcDbLine
 10
-222.4999996155501
 20
-86.29999980944517
 30
0.0
 11
-217.4999996155501
 21
-86.29999980944517
 31
0.0
  0
LINE
  5
19E
330
8B
100
AcDbEntity
  8
0
  6
Continuous
 62
     7
100
AcDbLine
 10
-208.9999996155501
 20
-86.29999980944517
 30
0.0
 11
-208.9999996155501
 21
-87.37542628998807
 31
0.0
  0
LINE
  5
19F
330
8B
100
AcDbEntity
  8
0
  6
Continuous
 62
     7
100
AcDbLine
 10
-229.8499996155501
 20
-91.89999980944513
 30
0.0
 11
-229.8499996155501
 21
-86.29999980944517
 31
0.0
  0
LINE
  5
1A0
330
8B
100
AcDbEntity
  8
0
  6
Continuous
 62
     7
100
AcDbLine
 10
-222.4999996155501
 20
-89.29999980944518
 30
0.0
 11
-222.4999996155501
 21
-86.29999980944517
 31
0.0
  0
LINE
  5
1A1
330
8B
100
AcDbEntity
  8
0
  6
Continuous
 62
     7
100
AcDbLine
 10
-215.9999996155501
 20
-86.29999980944517
 30
0.0
 11
-208.9999996155501
 21
-86.29999980944517
 31
0.0
  0
LINE
  5
1A2
330
8B
100
AcDbEntity
  8
0
  6
Continuous
 62
     7
100
AcDbLine
 10
-227.8499996155501
 20
-86.29999980944517
 30
0.0
 11
-222.4999996155501
 21
-86.29999980944517
 31
0.0
  0
LINE
  5
1A3
330
8B
100
AcDbEntity
  8
0
  6
Continuous
 62
     7
100
AcDbLine
 10
-229.8499996155501
 20
-86.29999980944517
 30
0.0
 11
-227.8499996155501
 21
-86.29999980944517
 31
0.0
  0
LINE
  5
1A4
330
8B
100
AcDbEntity
  8
0
  6
Continuous
 62
     7
100
AcDbLine
 10
-217.4999996155501
 20
-89.29999980944518
 30
0.0
 11
-222.4999996155501
 21
-89.29999980944518
 31
0.0
  0
LINE
  5
1A5
330
8B
100
AcDbEntity
  8
0
  6
Continuous
 62
     7
100
AcDbLine
 10
-217.4999996155501
 20
-86.29999980944517
 30
0.0
 11
-215.9999996155501
 21
-86.29999980944517
 31
0.0
  0
LINE
  5
1A6
330
8B
100
AcDbEntity
  8
0
  6
Continuous
 62
     7
100
AcDbLine
 10
-217.4999996155501
 20
-86.29999980944517
 30
0.0
 11
-217.4999996155501
 21
-89.29999980944518
 31
0.0
  0
LINE
  5
1A7
330
8B
100
AcDbEntity
  8
0
  6
Continuous
 62
     7
100
AcDbLine
 10
-181.1499996155501
 20
-92.89999980944513
 30
0.0
 11
-181.1499996155501
 21
-91.89999980944513
 31
0.0
  0
LINE
  5
1A8
330
8B
100
AcDbEntity
  8
0
  6
Continuous
 62
     7
100
AcDbLine
 10
-230.8499996155501
 20
-92.89999980944513
 30
0.0
 11
-230.8499996155501
 21
-91.89999980944513
 31
0.0
  0
LINE
  5
1A9
330
8B
100
AcDbEntity
  8
0
  6
Continuous
 62
     7
100
AcDbLine
 10
-196.4899361312953
 20
-91.89999980944513
 30
0.0
 11
-215.5100630998049
 21
-91.89999980944513
 31
0.0
  0
LINE
  5
1AA
330
8B
100
AcDbEntity
  8
0
  6
Continuous
 62
     7
100
AcDbLine
 10
-196.5774247948212
 20
-92.89999980944512
 30
0.0
 11
-215.422574436279
 21
-92.89999980944512
 31
0.0
  0
LINE
  5
1AB
330
8B
100
AcDbEntity
  8
0
  6
Continuous
 62
     7
100
AcDbLine
 10
-230.8499996155501
 20
-91.89999980944513
 30
0.0
 11
-229.8499996155501
 21
-91.89999980944513
 31
0.0
  0
LINE
  5
1AC
330
8B
100
AcDbEntity
  8
0
  6
Continuous
 62
     7
100
AcDbLine
 10
-182.1499996155501
 20
-91.89999980944513
 30
0.0
 11
-181.1499996155501
 21
-91.89999980944513
 31
0.0
  0
LINE
  5
1AD
330
8B
100
AcDbEntity
  8
0
  6
Continuous
 62
     7
100
AcDbLine
 10
-228.5761555228153
 20
-94.59999980944514
 30
0.0
 11
-227.8499996155501
 21
-86.29999980944517
 31
0.0
  0
LINE
  5
1AE
330
8B
100
AcDbEntity
  8
0
  6
Continuous
 62
     7
100
AcDbLine
 10
-215.5100630998049
 20
-91.89999980944513
 30
0.0
 11
-215.9999996155501
 21
-86.29999980944517
 31
0.0
  0
LINE
  5
1AF
330
8B
100
AcDbEntity
  8
0
  6
Continuous
 62
     7
100
AcDbLine
 10
-215.422574436279
 20
-92.89999980944512
 30
0.0
 11
-215.5100630998049
 21
-91.89999980944513
 31
0.0
  0
LINE
  5
1B0
330
8B
100
AcDbEntity
  8
0
  6
Continuous
 62
     7
100
AcDbLine
 10
-215.2738437082849
 20
-94.59999980944514
 30
0.0
 11
-215.422574436279
 21
-92.89999980944512
 31
0.0
  0
LINE
  5
1B1
330
8B
100
AcDbEntity
  8
0
  6
Continuous
 62
     7
100
AcDbLine
 10
-208.9999996155501
 20
-84.19999980944513
 30
0.0
 11
-202.9999996155501
 21
-84.19999980944513
 31
0.0
  0
LINE
  5
1B2
330
8B
100
AcDbEntity
  8
0
  6
Continuous
 62
     7
100
AcDbLine
 10
-202.9999996155501
 20
-84.19999980944513
 30
0.0
 11
-202.9999996155501
 21
-84.77735007863475
 31
0.0
  0
LINE
  5
1B3
330
8B
100
AcDbEntity
  8
0
  6
Continuous
 62
     7
100
AcDbLine
 10
-202.9999996155501
 20
-83.39999980944516
 30
0.0
 11
-202.9999996155501
 21
-84.19999980944513
 31
0.0
  0
LINE
  5
1B4
330
8B
100
AcDbEntity
  8
0
  6
Continuous
 62
     7
100
AcDbLine
 10
-208.9999996155501
 20
-84.77735007863475
 30
0.0
 11
-202.9999996155501
 21
-84.77735007863475
 31
0.0
  0
LINE
  5
1B5
330
8B
100
AcDbEntity
  8
0
  6
Continuous
 62
     7
100
AcDbLine
 10
-231.3499996155501
 20
-86.29999980944517
 30
0.0
 11
-229.8499996155501
 21
-86.29999980944517
 31
0.0
  0
LINE
  5
1B6
330
8B
100
AcDbEntity
  8
0
  6
Continuous
 62
     7
100
AcDbLine
 10
-208.9999996155501
 20
-84.77735007863475
 30
0.0
 11
-208.9999996155501
 21
-86.29999980944517
 31
0.0
  0
LINE
  5
1B7
330
8B
100
AcDbEntity
  8
0
  6
Continuous
 62
     7
100
AcDbLine
 10
-208.9999996155501
 20
-83.39999980944516
 30
0.0
 11
-208.9999996155501
 21
-84.19999980944513
 31
0.0
  0
LINE
  5
1B8
330
8B
100
AcDbEntity
  8
0
  6
Continuous
 62
     7
100
AcDbLine
 10
-208.9999996155501
 20
-84.19999980944513
 30
0.0
 11
-208.9999996155501
 21
-84.77735007863475
 31
0.0
  0
LINE
  5
1B9
330
8B
100
AcDbEntity
  8
0
  6
Continuous
 62
     7
100
AcDbLine
 10
-231.3499996155501
 20
-83.39999980944516
 30
0.0
 11
-231.3499996155501
 21
-86.29999980944517
 31
0.0
  0
LINE
  5
1BA
330
8B
100
AcDbEntity
  8
0
  6
Continuous
 62
     7
100
AcDbLine
 10
-202.9999996155501
 20
-84.77735007863475
 30
0.0
 11
-202.9999996155501
 21
-86.29999980944517
 31
0.0
  0
LINE
  5
1BB
330
8B
100
AcDbEntity
  8
0
  6
Continuous
 62
     7
100
AcDbLine
 10
-231.3499996155501
 20
-83.39999980944516
 30
0.0
 11
-208.9999996155501
 21
-83.39999980944516
 31
0.0
  0
LINE
  5
1BC
330
8B
100
AcDbEntity
  8
0
  6
Continuous
 62
     7
100
AcDbLine
 10
-202.9999996155501
 20
-83.39999980944516
 30
0.0
 11
-208.9999996155501
 21
-83.39999980944516
 31
0.0
  0
LINE
  5
1BD
330
8B
100
AcDbEntity
  8
0
  6
Continuous
 62
     7
100
AcDbLine
 10
-182.1499996155501
 20
-86.29999980944517
 30
0.0
 11
-180.6499996155501
 21
-86.29999980944517
 31
0.0
  0
LINE
  5
1BE
330
8B
100
AcDbEntity
  8
0
  6
Continuous
 62
     7
100
AcDbLine
 10
-180.6499996155501
 20
-83.39999980944516
 30
0.0
 11
-180.6499996155501
 21
-86.29999980944517
 31
0.0
  0
LINE
  5
1BF
330
8B
100
AcDbEntity
  8
0
  6
Continuous
 62
     7
100
AcDbLine
 10
-202.9999996155501
 20
-83.39999980944516
 30
0.0
 11
-180.6499996155501
 21
-83.39999980944516
 31
0.0
  0
ENDBLK
  5
8D
330
8B
100
AcDbEntity
  8
0
100
AcDbBlockEnd
  0
BLOCK
  5
90
330
8E
100
AcDbEntity
  8
0
100
AcDbBlockBegin
  2
SA_Links1
 70
     0
 10
-206.0
 20
-89.00000000012004
 30
0.0
  3
SA_Links1
  1

  0
INSERT
  5
8F
330
8E
100
AcDbEntity
  8
0
100
AcDbBlockReference
  2
VS_SI_FP_BP-select__4
 10
-231.3499996155501
 20
-94.59999980944514
 30
0.0
  0
MTEXT
  5
1C0
330
8E
100
AcDbEntity
  8
1
 62
     6
100
AcDbMText
 10
-206.0
 20
-99.59999942791546
 30
0.0
 40
5.0
 41
0.0
 71
     2
 72
     1
  1
 
  7
CONVERTER_11
 73
     1
 44
1.32052821128451
  0
ENDBLK
  5
91
330
8E
100
AcDbEntity
  8
0
100
AcDbBlockEnd
  0
BLOCK
  5
93
330
92
100
AcDbEntity
  8
0
100
AcDbBlockBegin
  2
VS_SI_FP_BP-select__5
 70
     0
 10
-420.0499980981809
 20
-94.59999980938512
 30
0.0
  3
VS_SI_FP_BP-select__5
  1

  0
LINE
  5
1C1
330
92
100
AcDbEntity
  8
0
  6
Continuous
 62
     7
100
AcDbLine
 10
-417.2761540054461
 20
-94.59999980938512
 30
0.0
 11
-416.5499980981809
 21
-86.29999980938514
 31
0.0
  0
LINE
  5
1C2
330
92
100
AcDbEntity
  8
0
  6
Continuous
 62
     7
100
AcDbLine
 10
-420.0499980981809
 20
-83.39999980938515
 30
0.0
 11
-420.0499980981809
 21
-86.29999980938516
 31
0.0
  0
LINE
  5
1C3
330
92
100
AcDbEntity
  8
0
  6
Continuous
 62
     7
100
AcDbLine
 10
-418.5499980981809
 20
-86.29999980938516
 30
0.0
 11
-418.5499980981809
 21
-91.89999980938514
 31
0.0
  0
LINE
  5
1C4
330
92
100
AcDbEntity
  8
0
  6
Continuous
 62
     7
100
AcDbLine
 10
-420.0499980981809
 20
-86.29999980938516
 30
0.0
 11
-418.5499980981809
 21
-86.29999980938516
 31
0.0
  0
LINE
  5
1C5
330
92
100
AcDbEntity
  8
0
  6
Continuous
 62
     7
100
AcDbLine
 10
-398.0499980981809
 20
-93.89999980938518
 30
0.0
 11
-402.0499980981809
 21
-93.89999980938518
 31
0.0
  0
LINE
  5
1C6
330
92
100
AcDbEntity
  8
0
  6
Continuous
 62
     7
100
AcDbLine
 10
-417.8499980981809
 20
-94.59999980938512
 30
0.0
 11
-417.2761540054461
 21
-94.59999980938512
 31
0.0
  0
LINE
  5
1C7
330
92
100
AcDbEntity
  8
0
  6
Continuous
 62
     7
100
AcDbLine
 10
-403.9738421909157
 20
-94.59999980938512
 30
0.0
 11
-385.4261540054461
 21
-94.59999980938511
 31
0.0
  0
LINE
  5
1C8
330
92
100
AcDbEntity
  8
0
  6
Continuous
 62
     7
100
AcDbLine
 10
-418.5499980981809
 20
-86.29999980938516
 30
0.0
 11
-416.5499980981809
 21
-86.29999980938514
 31
0.0
  0
LINE
  5
1C9
330
92
100
AcDbEntity
  8
0
  6
Continuous
 62
     7
100
AcDbLine
 10
-419.5499980981809
 20
-92.89999980938512
 30
0.0
 11
-417.8499980981809
 21
-94.59999980938512
 31
0.0
  0
LINE
  5
1CA
330
92
100
AcDbEntity
  8
0
  6
Continuous
 62
     7
100
AcDbLine
 10
-419.5499980981809
 20
-91.89999980938514
 30
0.0
 11
-419.5499980981809
 21
-92.89999980938512
 31
0.0
  0
LINE
  5
1CB
330
92
100
AcDbEntity
  8
0
  6
Continuous
 62
     7
100
AcDbLine
 10
-418.5499980981809
 20
-91.89999980938514
 30
0.0
 11
-419.5499980981809
 21
-91.89999980938514
 31
0.0
  0
LINE
  5
1CC
330
92
100
AcDbEntity
  8
0
  6
Continuous
 62
     7
100
AcDbLine
 10
-411.1999980981809
 20
-89.29999980938518
 30
0.0
 11
-406.1999980981809
 21
-89.29999980938518
 31
0.0
  0
LINE
  5
1CD
330
92
100
AcDbEntity
  8
0
  6
Continuous
 62
     7
100
AcDbLine
 10
-398.0499980981809
 20
-86.29999980938516
 30
0.0
 11
-398.0499980981809
 21
-93.89999980938518
 31
0.0
  0
LINE
  5
1CE
330
92
100
AcDbEntity
  8
0
  6
Continuous
 62
     7
100
AcDbLine
 10
-402.0499980981809
 20
-86.29999980938516
 30
0.0
 11
-402.0499980981809
 21
-93.89999980938518
 31
0.0
  0
LINE
  5
1CF
330
92
100
AcDbEntity
  8
0
  6
Continuous
 62
     7
100
AcDbLine
 10
-403.9738421909157
 20
-94.59999980938512
 30
0.0
 11
-404.612509434655
 21
-87.29999980938513
 31
0.0
  0
LINE
  5
1D0
330
92
100
AcDbEntity
  8
0
  6
Continuous
 62
     7
100
AcDbLine
 10
-404.612509434655
 20
-87.29999980938513
 30
0.0
 11
-404.6999980981809
 21
-86.29999980938516
 31
0.0
  0
LINE
  5
1D1
330
92
100
AcDbEntity
  8
0
  6
Continuous
 62
     7
100
AcDbLine
 10
-404.6999980981809
 20
-86.29999980938516
 30
0.0
 11
-402.0499980981809
 21
-86.29999980938516
 31
0.0
  0
LINE
  5
1D2
330
92
100
AcDbEntity
  8
0
  6
Continuous
 62
     7
100
AcDbLine
 10
-402.0499980981809
 20
-86.29999980938516
 30
0.0
 11
-398.0499980981809
 21
-86.29999980938516
 31
0.0
  0
LINE
  5
1D3
330
92
100
AcDbEntity
  8
0
  6
Continuous
 62
     7
100
AcDbLine
 10
-406.1999980981809
 20
-87.29999980938518
 30
0.0
 11
-406.1999980981809
 21
-89.29999980938518
 31
0.0
  0
LINE
  5
1D4
330
92
100
AcDbEntity
  8
0
  6
Continuous
 62
     7
100
AcDbLine
 10
-411.1999980981809
 20
-89.29999980938518
 30
0.0
 11
-411.1999980981809
 21
-87.29999980938518
 31
0.0
  0
LINE
  5
1D5
330
92
100
AcDbEntity
  8
0
  6
Continuous
 62
     7
100
AcDbLine
 10
-370.8499980981809
 20
-86.29999980938516
 30
0.0
 11
-369.3499980981809
 21
-86.29999980938516
 31
0.0
  0
LINE
  5
1D6
330
92
100
AcDbEntity
  8
0
  6
Continuous
 62
     7
100
AcDbLine
 10
-369.8499980981809
 20
-91.89999980938514
 30
0.0
 11
-370.8499980981809
 21
-91.89999980938514
 31
0.0
  0
LINE
  5
1D7
330
92
100
AcDbEntity
  8
0
  6
Continuous
 62
     7
100
AcDbLine
 10
-372.8499980981809
 20
-86.29999980938516
 30
0.0
 11
-372.1238421909158
 21
-94.59999980938512
 31
0.0
  0
LINE
  5
1D8
330
92
100
AcDbEntity
  8
0
  6
Continuous
 62
     7
100
AcDbLine
 10
-370.8499980981809
 20
-91.89999980938514
 30
0.0
 11
-370.8499980981809
 21
-86.29999980938516
 31
0.0
  0
LINE
  5
1D9
330
92
100
AcDbEntity
  8
0
  6
Continuous
 62
     7
100
AcDbLine
 10
-372.8499980981809
 20
-86.29999980938516
 30
0.0
 11
-370.8499980981809
 21
-86.29999980938516
 31
0.0
  0
LINE
  5
1DA
330
92
100
AcDbEntity
  8
0
  6
Continuous
 62
     7
100
AcDbLine
 10
-371.5499980981809
 20
-94.59999980938512
 30
0.0
 11
-369.8499980981809
 21
-92.89999980938512
 31
0.0
  0
LINE
  5
1DB
330
92
100
AcDbEntity
  8
0
  6
Continuous
 62
     7
100
AcDbLine
 10
-372.1238421909158
 20
-94.59999980938512
 30
0.0
 11
-371.5499980981809
 21
-94.59999980938512
 31
0.0
  0
LINE
  5
1DC
330
92
100
AcDbEntity
  8
0
  6
Continuous
 62
     7
100
AcDbLine
 10
-369.3499980981809
 20
-83.39999980938515
 30
0.0
 11
-369.3499980981809
 21
-86.29999980938516
 31
0.0
  0
LINE
  5
1DD
330
92
100
AcDbEntity
  8
0
  6
Continuous
 62
     7
100
AcDbLine
 10
-369.8499980981809
 20
-92.89999980938512
 30
0.0
 11
-369.8499980981809
 21
-91.89999980938514
 31
0.0
  0
LINE
  5
1DE
330
92
100
AcDbEntity
  8
0
  6
Continuous
 62
     7
100
AcDbLine
 10
-378.1999980981809
 20
-86.29999980938516
 30
0.0
 11
-372.8499980981809
 21
-86.29999980938516
 31
0.0
  0
LINE
  5
1DF
330
92
100
AcDbEntity
  8
0
  6
Continuous
 62
     7
100
AcDbLine
 10
-411.1999980981809
 20
-87.29999980938518
 30
0.0
 11
-406.1999980981809
 21
-87.29999980938518
 31
0.0
  0
LINE
  5
1E0
330
92
100
AcDbEntity
  8
0
  6
Continuous
 62
     7
100
AcDbLine
 10
-398.0499980981809
 20
-86.29999980938516
 30
0.0
 11
-384.6999980981809
 21
-86.29999980938516
 31
0.0
  0
LINE
  5
1E1
330
92
100
AcDbEntity
  8
0
  6
Continuous
 62
     7
100
AcDbLine
 10
-406.1999980981809
 20
-86.29999980938516
 30
0.0
 11
-404.6999980981809
 21
-86.29999980938516
 31
0.0
  0
LINE
  5
1E2
330
92
100
AcDbEntity
  8
0
  6
Continuous
 62
     7
100
AcDbLine
 10
-416.5499980981809
 20
-86.29999980938514
 30
0.0
 11
-411.1999980981809
 21
-86.29999980938516
 31
0.0
  0
LINE
  5
1E3
330
92
100
AcDbEntity
  8
0
  6
Continuous
 62
     7
100
AcDbLine
 10
-398.0499980981809
 20
-87.29999980938513
 30
0.0
 11
-384.7874867617068
 21
-87.29999980938513
 31
0.0
  0
LINE
  5
1E4
330
92
100
AcDbEntity
  8
0
  6
Continuous
 62
     7
100
AcDbLine
 10
-404.612509434655
 20
-87.29999980938513
 30
0.0
 11
-402.0499980981809
 21
-87.29999980938513
 31
0.0
  0
LINE
  5
1E5
330
92
100
AcDbEntity
  8
0
  6
Continuous
 62
     7
100
AcDbLine
 10
-406.1999980981809
 20
-86.29999980938516
 30
0.0
 11
-406.1999980981809
 21
-87.29999980938518
 31
0.0
  0
LINE
  5
1E6
330
92
100
AcDbEntity
  8
0
  6
Continuous
 62
     7
100
AcDbLine
 10
-411.1999980981809
 20
-86.29999980938516
 30
0.0
 11
-411.1999980981809
 21
-87.29999980938518
 31
0.0
  0
LINE
  5
1E7
330
92
100
AcDbEntity
  8
0
  6
Continuous
 62
     7
100
AcDbLine
 10
-378.1999980981809
 20
-86.29999980938516
 30
0.0
 11
-378.1999980981809
 21
-87.29999980938518
 31
0.0
  0
LINE
  5
1E8
330
92
100
AcDbEntity
  8
0
  6
Continuous
 62
     7
100
AcDbLine
 10
-383.1999980981809
 20
-87.29999980938518
 30
0.0
 11
-378.1999980981809
 21
-87.29999980938518
 31
0.0
  0
LINE
  5
1E9
330
92
100
AcDbEntity
  8
0
  6
Continuous
 62
     7
100
AcDbLine
 10
-420.0499980981809
 20
-83.39999980938515
 30
0.0
 11
-369.3499980981809
 21
-83.39999980938515
 31
0.0
  0
LINE
  5
1EA
330
92
100
AcDbEntity
  8
0
  6
Continuous
 62
     7
100
AcDbLine
 10
-383.1999980981809
 20
-89.29999980938518
 30
0.0
 11
-378.1999980981809
 21
-89.29999980938518
 31
0.0
  0
LINE
  5
1EB
330
92
100
AcDbEntity
  8
0
  6
Continuous
 62
     7
100
AcDbLine
 10
-383.1999980981809
 20
-89.29999980938518
 30
0.0
 11
-383.1999980981809
 21
-87.29999980938518
 31
0.0
  0
LINE
  5
1EC
330
92
100
AcDbEntity
  8
0
  6
Continuous
 62
     7
100
AcDbLine
 10
-384.7874867617068
 20
-87.29999980938513
 30
0.0
 11
-385.4261540054461
 21
-94.59999980938511
 31
0.0
  0
LINE
  5
1ED
330
92
100
AcDbEntity
  8
0
  6
Continuous
 62
     7
100
AcDbLine
 10
-384.6999980981809
 20
-86.29999980938516
 30
0.0
 11
-384.7874867617068
 21
-87.29999980938513
 31
0.0
  0
LINE
  5
1EE
330
92
100
AcDbEntity
  8
0
  6
Continuous
 62
     7
100
AcDbLine
 10
-383.1999980981809
 20
-86.29999980938516
 30
0.0
 11
-383.1999980981809
 21
-87.29999980938518
 31
0.0
  0
LINE
  5
1EF
330
92
100
AcDbEntity
  8
0
  6
Continuous
 62
     7
100
AcDbLine
 10
-384.6999980981809
 20
-86.29999980938516
 30
0.0
 11
-383.1999980981809
 21
-86.29999980938516
 31
0.0
  0
LINE
  5
1F0
330
92
100
AcDbEntity
  8
0
  6
Continuous
 62
     7
100
AcDbLine
 10
-378.1999980981809
 20
-87.29999980938518
 30
0.0
 11
-378.1999980981809
 21
-89.29999980938518
 31
0.0
  0
ENDBLK
  5
94
330
92
100
AcDbEntity
  8
0
100
AcDbBlockEnd
  0
BLOCK
  5
97
330
95
100
AcDbEntity
  8
0
100
AcDbBlockBegin
  2
SA_Rechts1
 70
     0
 10
-394.699997713731
 20
-89.00000000006003
 30
0.0
  3
SA_Rechts1
  1

  0
INSERT
  5
96
330
95
100
AcDbEntity
  8
0
100
AcDbBlockReference
  2
VS_SI_FP_BP-select__5
 10
-420.0499980981809
 20
-94.59999980938512
 30
0.0
  0
MTEXT
  5
1F1
330
95
100
AcDbEntity
  8
1
 62
     6
100
AcDbMText
 10
-394.699997713731
 20
-99.59999942785544
 30
0.0
 40
5.0
 41
0.0
 71
     2
 72
     1
  1
 
  7
CONVERTER_11
 73
     1
 44
1.32052821128451
  0
ENDBLK
  5
98
330
95
100
AcDbEntity
  8
0
100
AcDbBlockEnd
  0
BLOCK
  5
9A
330
99
100
AcDbEntity
  8
0
100
AcDbBlockBegin
  2
VS_SI_FP_BP-select__6
 70
     0
 10
-340.3499966648054
 20
-94.59999980938512
 30
0.0
  3
VS_SI_FP_BP-select__6
  1

  0
LINE
  5
1F2
330
99
100
AcDbEntity
  8
0
  6
Continuous
 62
     7
100
AcDbLine
 10
-257.1499966648054
 20
-86.29999980938516
 30
0.0
 11
-255.3499966648054
 21
-89.29999980938518
 31
0.0
  0
LINE
  5
1F3
330
99
100
AcDbEntity
  8
0
  6
Continuous
 62
     7
100
AcDbLine
 10
-326.3499966648054
 20
-86.29999980938516
 30
0.0
 11
-257.3499966648053
 21
-86.29999980938516
 31
0.0
  0
LINE
  5
1F4
330
99
100
AcDbEntity
  8
0
  6
Continuous
 62
     7
100
AcDbLine
 10
-328.5499966648054
 20
-87.29999980938513
 30
0.0
 11
-326.3499966648054
 21
-87.29999980938513
 31
0.0
  0
LINE
  5
1F5
330
99
100
AcDbEntity
  8
0
  6
Continuous
 62
     7
100
AcDbLine
 10
-328.5499966648054
 20
-86.29999980938516
 30
0.0
 11
-326.3499966648054
 21
-86.29999980938516
 31
0.0
  0
LINE
  5
1F6
330
99
100
AcDbEntity
  8
0
  6
Continuous
 62
     7
100
AcDbLine
 10
-332.5499966648054
 20
-86.29999980938516
 30
0.0
 11
-328.5499966648054
 21
-86.29999980938516
 31
0.0
  0
LINE
  5
1F7
330
99
100
AcDbEntity
  8
0
  6
Continuous
 62
     7
100
AcDbLine
 10
-257.3499966648053
 20
-93.89999980938518
 30
0.0
 11
-257.3499966648053
 21
-86.29999980938516
 31
0.0
  0
LINE
  5
1F8
330
99
100
AcDbEntity
  8
0
  6
Continuous
 62
     7
100
AcDbLine
 10
-257.3499966648053
 20
-86.29999980938516
 30
0.0
 11
-257.1499966648054
 21
-86.29999980938516
 31
0.0
  0
LINE
  5
1F9
330
99
100
AcDbEntity
  8
0
  6
Continuous
 62
     7
100
AcDbLine
 10
-255.3499966648054
 20
-89.29999980938518
 30
0.0
 11
-255.3499966648054
 21
-93.89999980938518
 31
0.0
  0
LINE
  5
1FA
330
99
100
AcDbEntity
  8
0
  6
Continuous
 62
     7
100
AcDbLine
 10
-255.3499966648054
 20
-93.89999980938518
 30
0.0
 11
-257.3499966648053
 21
-93.89999980938518
 31
0.0
  0
LINE
  5
1FB
330
99
100
AcDbEntity
  8
0
  6
Continuous
 62
     7
100
AcDbLine
 10
-332.5499966648054
 20
-94.59999980938512
 30
0.0
 11
-328.5499966648054
 21
-94.59999980938512
 31
0.0
  0
LINE
  5
1FC
330
99
100
AcDbEntity
  8
0
  6
Continuous
 62
     7
100
AcDbLine
 10
-338.6499966648054
 20
-94.59999980938511
 30
0.0
 11
-337.7886639085447
 21
-94.59999980938512
 31
0.0
  0
LINE
  5
1FD
330
99
100
AcDbEntity
  8
0
  6
Continuous
 62
     7
100
AcDbLine
 10
-251.3499966648053
 20
-89.29999980938518
 30
0.0
 11
-255.3499966648054
 21
-89.29999980938518
 31
0.0
  0
LINE
  5
1FE
330
99
100
AcDbEntity
  8
0
  6
Continuous
 62
     7
100
AcDbLine
 10
-339.3499966648054
 20
-91.89999980938512
 30
0.0
 11
-340.3499966648054
 21
-91.89999980938512
 31
0.0
  0
LINE
  5
1FF
330
99
100
AcDbEntity
  8
0
  6
Continuous
 62
     7
100
AcDbLine
 10
-340.3499966648054
 20
-91.89999980938512
 30
0.0
 11
-340.3499966648054
 21
-92.89999980938511
 31
0.0
  0
LINE
  5
200
330
99
100
AcDbEntity
  8
0
  6
Continuous
 62
     7
100
AcDbLine
 10
-339.3499966648054
 20
-86.29999980938516
 30
0.0
 11
-339.3499966648054
 21
-91.89999980938512
 31
0.0
  0
LINE
  5
201
330
99
100
AcDbEntity
  8
0
  6
Continuous
 62
     7
100
AcDbLine
 10
-337.7886639085447
 20
-94.59999980938512
 30
0.0
 11
-337.1499966648054
 21
-87.29999980938513
 31
0.0
  0
LINE
  5
202
330
99
100
AcDbEntity
  8
0
  6
Continuous
 62
     7
100
AcDbLine
 10
-340.3499966648054
 20
-92.89999980938511
 30
0.0
 11
-338.6499966648054
 21
-94.59999980938511
 31
0.0
  0
LINE
  5
203
330
99
100
AcDbEntity
  8
0
  6
Continuous
 62
     7
100
AcDbLine
 10
-332.5499966648054
 20
-91.89999980938514
 30
0.0
 11
-332.5499966648054
 21
-87.29999980938513
 31
0.0
  0
LINE
  5
204
330
99
100
AcDbEntity
  8
0
  6
Continuous
 62
     7
100
AcDbLine
 10
-326.3499966648054
 20
-87.29999980938513
 30
0.0
 11
-326.3499966648054
 21
-86.29999980938516
 31
0.0
  0
LINE
  5
205
330
99
100
AcDbEntity
  8
0
  6
Continuous
 62
     7
100
AcDbLine
 10
-328.5499966648054
 20
-86.29999980938516
 30
0.0
 11
-328.5499966648054
 21
-91.89999980938514
 31
0.0
  0
LINE
  5
206
330
99
100
AcDbEntity
  8
0
  6
Continuous
 62
     7
100
AcDbLine
 10
-328.5499966648054
 20
-92.89999980938512
 30
0.0
 11
-328.5499966648054
 21
-94.59999980938512
 31
0.0
  0
LINE
  5
207
330
99
100
AcDbEntity
  8
0
  6
Continuous
 62
     7
100
AcDbLine
 10
-328.5499966648054
 20
-91.89999980938514
 30
0.0
 11
-328.5499966648054
 21
-92.89999980938512
 31
0.0
  0
LINE
  5
208
330
99
100
AcDbEntity
  8
0
  6
Continuous
 62
     7
100
AcDbLine
 10
-332.5499966648054
 20
-94.59999980938512
 30
0.0
 11
-332.5499966648054
 21
-92.89999980938514
 31
0.0
  0
LINE
  5
209
330
99
100
AcDbEntity
  8
0
  6
Continuous
 62
     7
100
AcDbLine
 10
-332.5499966648054
 20
-92.89999980938514
 30
0.0
 11
-332.5499966648054
 21
-91.89999980938514
 31
0.0
  0
LINE
  5
20A
330
99
100
AcDbEntity
  8
0
  6
Continuous
 62
     7
100
AcDbLine
 10
-332.5499966648054
 20
-92.89999980938514
 30
0.0
 11
-328.5499966648054
 21
-92.89999980938512
 31
0.0
  0
LINE
  5
20B
330
99
100
AcDbEntity
  8
0
  6
Continuous
 62
     7
100
AcDbLine
 10
-332.5499966648054
 20
-91.89999980938514
 30
0.0
 11
-328.5499966648054
 21
-91.89999980938514
 31
0.0
  0
LINE
  5
20C
330
99
100
AcDbEntity
  8
0
  6
Continuous
 62
     7
100
AcDbLine
 10
-340.3499966648054
 20
-83.39999980938515
 30
0.0
 11
-340.3499966648054
 21
-86.29999980938516
 31
0.0
  0
LINE
  5
20D
330
99
100
AcDbEntity
  8
0
  6
Continuous
 62
     7
100
AcDbLine
 10
-252.8499966648054
 20
-83.39999980938515
 30
0.0
 11
-252.8499966648054
 21
-86.29999980938516
 31
0.0
  0
LINE
  5
20E
330
99
100
AcDbEntity
  8
0
  6
Continuous
 62
     7
100
AcDbLine
 10
-340.3499966648054
 20
-83.39999980938515
 30
0.0
 11
-252.8499966648054
 21
-83.39999980938515
 31
0.0
  0
LINE
  5
20F
330
99
100
AcDbEntity
  8
0
  6
Continuous
 62
     7
100
AcDbLine
 10
-251.3499966648053
 20
-89.29999980938518
 30
0.0
 11
-251.3499966648053
 21
-87.29999980938518
 31
0.0
  0
LINE
  5
210
330
99
100
AcDbEntity
  8
0
  6
Continuous
 62
     7
100
AcDbLine
 10
-339.3499966648054
 20
-86.29999980938516
 30
0.0
 11
-332.5499966648054
 21
-86.29999980938516
 31
0.0
  0
LINE
  5
211
330
99
100
AcDbEntity
  8
0
  6
Continuous
 62
     7
100
AcDbLine
 10
-337.1499966648054
 20
-87.29999980938513
 30
0.0
 11
-332.5499966648054
 21
-87.29999980938513
 31
0.0
  0
LINE
  5
212
330
99
100
AcDbEntity
  8
0
  6
Continuous
 62
     7
100
AcDbLine
 10
-340.3499966648054
 20
-86.29999980938516
 30
0.0
 11
-339.3499966648054
 21
-86.29999980938516
 31
0.0
  0
LINE
  5
213
330
99
100
AcDbEntity
  8
0
  6
Continuous
 62
     7
100
AcDbLine
 10
-332.5499966648054
 20
-87.29999980938513
 30
0.0
 11
-332.5499966648054
 21
-86.29999980938516
 31
0.0
  0
LINE
  5
214
330
99
100
AcDbEntity
  8
0
  6
Continuous
 62
     7
100
AcDbLine
 10
-257.1499966648054
 20
-86.29999980938516
 30
0.0
 11
-252.8499966648054
 21
-86.29999980938516
 31
0.0
  0
LINE
  5
215
330
99
100
AcDbEntity
  8
0
  6
Continuous
 62
     7
100
AcDbLine
 10
-252.8499966648054
 20
-87.29999980938518
 30
0.0
 11
-251.3499966648053
 21
-87.29999980938518
 31
0.0
  0
LINE
  5
216
330
99
100
AcDbEntity
  8
0
  6
Continuous
 62
     7
100
AcDbLine
 10
-252.8499966648054
 20
-86.29999980938516
 30
0.0
 11
-252.8499966648054
 21
-87.29999980938518
 31
0.0
  0
ENDBLK
  5
9B
330
99
100
AcDbEntity
  8
0
100
AcDbBlockEnd
  0
BLOCK
  5
9E
330
9C
100
AcDbEntity
  8
0
100
AcDbBlockBegin
  2
Vordans1
 70
     0
 10
-295.8499982862688
 20
-89.00000000006003
 30
0.0
  3
Vordans1
  1

  0
INSERT
  5
9D
330
9C
100
AcDbEntity
  8
0
100
AcDbBlockReference
  2
VS_SI_FP_BP-select__6
 10
-340.3499966648054
 20
-94.59999980938512
 30
0.0
  0
MTEXT
  5
217
330
9C
100
AcDbEntity
  8
1
 62
     6
100
AcDbMText
 10
-295.8499982862688
 20
-99.59999942785544
 30
0.0
 40
5.0
 41
0.0
 71
     2
 72
     1
  1
 
  7
CONVERTER_11
 73
     1
 44
1.32052821128451
  0
DIMENSION
  5
223
330
9C
100
AcDbEntity
  8
1
100
AcDbDimension
  2
*D20
 10
-350.3499966648054
 20
-83.39999980938515
 30
0.0
 11
-353.7749966648054
 21
-100.536417013834
 31
0.0
 70
    32
  1
<>
 71
     5
 42
-1.0
 53
90.0
  3
ME10_DIM_13
100
AcDbAlignedDimension
 13
-337.7886639085447
 23
-94.59999980938512
 33
0.0
 14
-340.3499966648054
 24
-83.39999980938515
 34
0.0
 50
90.0
100
AcDbRotatedDimension
  0
ENDBLK
  5
9F
330
9C
100
AcDbEntity
  8
0
100
AcDbBlockEnd
  0
BLOCK
  5
A1
330
A0
100
AcDbEntity
  8
0
100
AcDbBlockBegin
  2
_rahmen
 70
     0
 10
-47.84999656907473
 20
-299.767369638322
 30
0.0
  3
_rahmen
  1

  0
LINE
  5
224
330
A0
100
AcDbEntity
  8
1
  6
DOT_CENTER
 62
     2
100
AcDbLine
 10
-173.4081462092621
 20
-273.6423696383227
 30
0.0
 11
-167.9081462092621
 21
-273.6423696383227
 31
0.0
  0
LINE
  5
225
330
A0
100
AcDbEntity
  8
1
  6
PHANTOM
 62
     2
100
AcDbLine
 10
-164.6581462092621
 20
-270.8923696383226
 30
0.0
 11
-164.6581462092621
 21
-276.3923696383226
 31
0.0
  0
LINE
  5
226
330
A0
100
AcDbEntity
  8
1
  6
PHANTOM
 62
     2
100
AcDbLine
 10
-161.9081462092621
 20
-273.6423696383227
 30
0.0
 11
-167.4081462092621
 21
-273.6423696383227
 31
0.0
  0
LINE
  5
227
330
A0
100
AcDbEntity
  8
1
  6
Continuous
 62
     6
100
AcDbLine
 10
-177.3948010958247
 20
-269.2673696383226
 30
0.0
 11
-47.84999656907294
 21
-269.2673696383226
 31
0.0
  0
LINE
  5
228
330
A0
100
AcDbEntity
  8
1
  6
Continuous
 62
     7
100
AcDbLine
 10
-159.1948010958247
 20
-290.5173696383225
 30
0.0
 11
-140.9948010958247
 21
-290.5173696383225
 31
0.0
  0
LINE
  5
229
330
A0
100
AcDbEntity
  8
1
  6
Continuous
 62
     6
100
AcDbLine
 10
-159.1948010958247
 20
-294.7673696383225
 30
0.0
 11
-177.3948010958247
 21
-294.7673696383226
 31
0.0
  0
LINE
  5
22A
330
A0
100
AcDbEntity
  8
1
  6
Continuous
 62
     7
100
AcDbLine
 10
-159.1948010958247
 20
-290.5173696383225
 30
0.0
 11
-159.1948010958247
 21
-294.7673696383225
 31
0.0
  0
LINE
  5
22B
330
A0
100
AcDbEntity
  8
1
  6
Continuous
 62
     7
100
AcDbLine
 10
-140.9948010958247
 20
-290.5173696383225
 30
0.0
 11
-140.9948010958247
 21
-294.7673696383226
 31
0.0
  0
LINE
  5
22C
330
A0
100
AcDbEntity
  8
1
  6
Continuous
 62
     7
100
AcDbLine
 10
-177.3948010958247
 20
-290.5173696383226
 30
0.0
 11
-177.3948010958247
 21
-294.7673696383226
 31
0.0
  0
LINE
  5
22D
330
A0
100
AcDbEntity
  8
1
  6
Continuous
 62
     7
100
AcDbLine
 10
-177.3948010958247
 20
-290.5173696383226
 30
0.0
 11
-159.1948010958247
 21
-290.5173696383225
 31
0.0
  0
LINE
  5
22E
330
A0
100
AcDbEntity
  8
1
  6
Continuous
 62
     2
100
AcDbLine
 10
-168.1581462092621
 20
-271.1423696383227
 30
0.0
 11
-168.1581462092621
 21
-276.1423696383227
 31
0.0
  0
LINE
  5
22F
330
A0
100
AcDbEntity
  8
1
  6
Continuous
 62
     2
100
AcDbLine
 10
-168.1581462092621
 20
-276.1423696383227
 30
0.0
 11
-173.1581462092621
 21
-274.8923696383227
 31
0.0
  0
LINE
  5
230
330
A0
100
AcDbEntity
  8
1
  6
Continuous
 62
     2
100
AcDbLine
 10
-173.1581462092621
 20
-274.8923696383227
 30
0.0
 11
-173.1581462092621
 21
-272.3923696383227
 31
0.0
  0
LINE
  5
231
330
A0
100
AcDbEntity
  8
1
  6
Continuous
 62
     2
100
AcDbLine
 10
-173.1581462092621
 20
-272.3923696383227
 30
0.0
 11
-168.1581462092621
 21
-271.1423696383227
 31
0.0
  0
LINE
  5
232
330
A0
100
AcDbEntity
  8
1
  6
Continuous
 62
     6
100
AcDbLine
 10
-47.84999656907294
 20
-277.7673696383226
 30
0.0
 11
-47.84999656907344
 21
-286.2673696383226
 31
0.0
  0
LINE
  5
233
330
A0
100
AcDbEntity
  8
1
  6
Continuous
 62
     6
100
AcDbLine
 10
-140.9948010958247
 20
-294.7673696383226
 30
0.0
 11
-141.3499965690747
 21
-294.7673696383225
 31
0.0
  0
LINE
  5
234
330
A0
100
AcDbEntity
  8
1
  6
Continuous
 62
     7
100
AcDbLine
 10
-140.9948010958247
 20
-277.7673696383226
 30
0.0
 11
-140.9948010958247
 21
-290.5173696383225
 31
0.0
  0
LINE
  5
235
330
A0
100
AcDbEntity
  8
1
  6
Continuous
 62
     7
100
AcDbLine
 10
-177.3948010958247
 20
-277.7673696383226
 30
0.0
 11
-177.3948010958247
 21
-290.5173696383226
 31
0.0
  0
LINE
  5
236
330
A0
100
AcDbEntity
  8
1
  6
Continuous
 62
     6
100
AcDbLine
 10
-140.9948010958247
 20
-294.7673696383226
 30
0.0
 11
-91.34999656907473
 21
-294.7673696383225
 31
0.0
  0
LINE
  5
237
330
A0
100
AcDbEntity
  8
1
  6
Continuous
 62
     6
100
AcDbLine
 10
-47.84999656907479
 20
-294.7673696383225
 30
0.0
 11
-47.84999656907344
 21
-286.2673696383226
 31
0.0
  0
LINE
  5
238
330
A0
100
AcDbEntity
  8
1
  6
Continuous
 62
     6
100
AcDbLine
 10
-177.3948010958247
 20
-277.7673696383226
 30
0.0
 11
-140.9948010958247
 21
-277.7673696383226
 31
0.0
  0
LINE
  5
239
330
A0
100
AcDbEntity
  8
1
  6
Continuous
 62
     6
100
AcDbLine
 10
-141.3499965690747
 20
-294.7673696383225
 30
0.0
 11
-159.1948010958247
 21
-294.7673696383225
 31
0.0
  0
LINE
  5
23A
330
A0
100
AcDbEntity
  8
1
  6
Continuous
 62
     6
100
AcDbLine
 10
-91.34999656907473
 20
-294.7673696383225
 30
0.0
 11
-47.84999656907479
 21
-294.7673696383225
 31
0.0
  0
LINE
  5
23B
102
{ACAD_REACTORS
330
369
330
36A
102
}
330
A0
100
AcDbEntity
  8
0
  6
Continuous
 62
     2
100
AcDbLine
 10
-169.8801751536778
 20
-282.6948548821105
 30
0.0
 11
-169.8801751536778
 21
-282.0893195936037
 31
0.0
  0
LINE
  5
23C
102
{ACAD_REACTORS
330
369
330
36A
102
}
330
A0
100
AcDbEntity
  8
0
  6
Continuous
 62
     2
100
AcDbLine
 10
-169.8801751536778
 20
-285.4949894887417
 30
0.0
 11
-169.8801751536778
 21
-284.9131380820466
 31
0.0
  0
LINE
  5
23D
102
{ACAD_REACTORS
330
36B
330
36C
102
}
330
A0
100
AcDbEntity
  8
0
  6
Continuous
 62
     2
100
AcDbLine
 10
-147.2506887181988
 20
-285.2053254206188
 30
0.0
 11
-147.2506887181988
 21
-287.4738696383062
 31
0.0
  0
LINE
  5
23E
102
{ACAD_REACTORS
330
36B
330
36C
102
}
330
A0
100
AcDbEntity
  8
0
  6
Continuous
 62
     2
100
AcDbLine
 10
-148.6317424971863
 20
-284.4200601144957
 30
0.0
 11
-145.2467969785577
 21
-284.4200601144951
 31
0.0
  0
LINE
  5
23F
102
{ACAD_REACTORS
330
36B
330
36C
102
}
330
A0
100
AcDbEntity
  8
0
  6
Continuous
 62
     2
100
AcDbLine
 10
-145.2467969785577
 20
-285.2053254206188
 30
0.0
 11
-145.2467969785577
 21
-284.4200601144951
 31
0.0
  0
LINE
  5
240
102
{ACAD_REACTORS
330
36B
330
36C
102
}
330
A0
100
AcDbEntity
  8
0
  6
Continuous
 62
     2
100
AcDbLine
 10
-146.057896016031
 20
-285.2053254206188
 30
0.0
 11
-145.2467969785577
 21
-285.2053254206188
 31
0.0
  0
LINE
  5
241
102
{ACAD_REACTORS
330
36B
330
36C
102
}
330
A0
100
AcDbEntity
  8
0
  6
Continuous
 62
     2
100
AcDbLine
 10
-146.057896016031
 20
-287.4738696383062
 30
0.0
 11
-146.057896016031
 21
-285.2053254206188
 31
0.0
  0
LINE
  5
242
102
{ACAD_REACTORS
330
36B
330
36C
102
}
330
A0
100
AcDbEntity
  8
0
  6
Continuous
 62
     2
100
AcDbLine
 10
-147.2506887181988
 20
-287.4738696383062
 30
0.0
 11
-146.057896016031
 21
-287.4738696383062
 31
0.0
  0
LINE
  5
243
102
{ACAD_REACTORS
330
361
330
362
102
}
330
A0
100
AcDbEntity
  8
0
  6
Continuous
 62
     2
100
AcDbLine
 10
-147.9472796562633
 20
-281.0608696383208
 30
0.0
 11
-149.3500038740124
 21
-281.0608696383208
 31
0.0
  0
LINE
  5
244
102
{ACAD_REACTORS
330
361
330
362
102
}
330
A0
100
AcDbEntity
  8
0
  6
Continuous
 62
     2
100
AcDbLine
 10
-147.9472796562633
 20
-281.0608696383208
 30
0.0
 11
-147.3461121343713
 21
-281.7406929598763
 31
0.0
  0
LINE
  5
245
102
{ACAD_REACTORS
330
361
330
362
102
}
330
A0
100
AcDbEntity
  8
0
  6
Continuous
 62
     2
100
AcDbLine
 10
-147.3461121343713
 20
-281.7406929598763
 30
0.0
 11
-146.7449446124786
 21
-281.0608696383208
 31
0.0
  0
LINE
  5
246
102
{ACAD_REACTORS
330
361
330
362
102
}
330
A0
100
AcDbEntity
  8
0
  6
Continuous
 62
     2
100
AcDbLine
 10
-146.6447500254979
 20
-282.533820168357
 30
0.0
 11
-145.3422203947313
 21
-281.0608696383208
 31
0.0
  0
LINE
  5
247
102
{ACAD_REACTORS
330
361
330
362
102
}
330
A0
100
AcDbEntity
  8
0
  6
Continuous
 62
     2
100
AcDbLine
 10
-146.6447500254979
 20
-282.533820168357
 30
0.0
 11
-145.2467969785577
 21
-284.1146791621319
 31
0.0
  0
LINE
  5
248
102
{ACAD_REACTORS
330
361
330
362
102
}
330
A0
100
AcDbEntity
  8
0
  6
Continuous
 62
     2
100
AcDbLine
 10
-146.649521196306
 20
-284.1146791621319
 30
0.0
 11
-145.2467969785577
 21
-284.1146791621319
 31
0.0
  0
LINE
  5
249
102
{ACAD_REACTORS
330
361
330
362
102
}
330
A0
100
AcDbEntity
  8
0
  6
Continuous
 62
     2
100
AcDbLine
 10
-147.3461121343713
 20
-283.3269473768382
 30
0.0
 11
-146.649521196306
 21
-284.1146791621319
 31
0.0
  0
LINE
  5
24A
102
{ACAD_REACTORS
330
35F
330
360
102
}
330
A0
100
AcDbEntity
  8
0
  6
Continuous
 62
     2
100
AcDbLine
 10
-150.8052109706551
 20
-281.0608696383208
 30
0.0
 11
-149.5647065604021
 21
-281.0608696383208
 31
0.0
  0
LINE
  5
24B
102
{ACAD_REACTORS
330
35F
330
360
102
}
330
A0
100
AcDbEntity
  8
0
  6
Continuous
 62
     2
100
AcDbLine
 10
-149.5647065604021
 20
-281.0608696383208
 30
0.0
 11
-149.5647065604021
 21
-284.1146791621319
 31
0.0
  0
LINE
  5
24C
102
{ACAD_REACTORS
330
35F
330
360
102
}
330
A0
100
AcDbEntity
  8
0
  6
Continuous
 62
     2
100
AcDbLine
 10
-150.8052109706551
 20
-284.1146791621319
 30
0.0
 11
-150.8052109706551
 21
-281.0608696383208
 31
0.0
  0
LINE
  5
24D
102
{ACAD_REACTORS
330
35D
330
35E
102
}
330
A0
100
AcDbEntity
  8
0
  6
Continuous
 62
     2
100
AcDbLine
 10
-152.2735210531926
 20
-286.2523458287818
 30
0.0
 11
-151.9733558160004
 21
-285.4845308627951
 31
0.0
  0
LINE
  5
24E
102
{ACAD_REACTORS
330
35D
330
35E
102
}
330
A0
100
AcDbEntity
  8
0
  6
Continuous
 62
     2
100
AcDbLine
 10
-152.7510566578135
 20
-287.4738696383062
 30
0.0
 11
-152.5395766043378
 21
-286.9329090940884
 31
0.0
  0
LINE
  5
24F
102
{ACAD_REACTORS
330
35D
330
35E
102
}
330
A0
100
AcDbEntity
  8
0
  6
Continuous
 62
     2
100
AcDbLine
 10
-152.5936080211272
 20
-284.4200601144951
 30
0.0
 11
-153.9915610680664
 21
-287.4738696383062
 31
0.0
  0
LINE
  5
250
102
{ACAD_REACTORS
330
35D
330
35E
102
}
330
A0
100
AcDbEntity
  8
0
  6
Continuous
 62
     2
100
AcDbLine
 10
-149.9551505639342
 20
-287.4738696383062
 30
0.0
 11
-151.1956549741881
 21
-287.4738696383062
 31
0.0
  0
LINE
  5
251
102
{ACAD_REACTORS
330
35D
330
35E
102
}
330
A0
100
AcDbEntity
  8
0
  6
Continuous
 62
     2
100
AcDbLine
 10
-152.5395766043378
 20
-286.9329090940884
 30
0.0
 11
-151.4071350276638
 21
-286.9329090940884
 31
0.0
  0
LINE
  5
252
102
{ACAD_REACTORS
330
35B
330
35C
102
}
330
A0
100
AcDbEntity
  8
0
  6
Continuous
 62
     2
100
AcDbLine
 10
-156.1490732072487
 20
-285.2053254206188
 30
0.0
 11
-155.337974169774
 21
-285.2053254206188
 31
0.0
  0
LINE
  5
253
102
{ACAD_REACTORS
330
35B
330
35C
102
}
330
A0
100
AcDbEntity
  8
0
  6
Continuous
 62
     2
100
AcDbLine
 10
-153.334082430135
 20
-284.4200601144951
 30
0.0
 11
-156.1490732072487
 21
-284.4200601144951
 31
0.0
  0
LINE
  5
254
102
{ACAD_REACTORS
330
35B
330
35C
102
}
330
A0
100
AcDbEntity
  8
0
  6
Continuous
 62
     2
100
AcDbLine
 10
-153.334082430135
 20
-285.2053254206188
 30
0.0
 11
-153.334082430135
 21
-284.4200601144951
 31
0.0
  0
LINE
  5
255
102
{ACAD_REACTORS
330
35B
330
35C
102
}
330
A0
100
AcDbEntity
  8
0
  6
Continuous
 62
     2
100
AcDbLine
 10
-154.1451814676076
 20
-285.2053254206188
 30
0.0
 11
-153.334082430135
 21
-285.2053254206188
 31
0.0
  0
LINE
  5
256
102
{ACAD_REACTORS
330
35B
330
35C
102
}
330
A0
100
AcDbEntity
  8
0
  6
Continuous
 62
     2
100
AcDbLine
 10
-154.1451814676076
 20
-287.4738696383062
 30
0.0
 11
-154.1451814676076
 21
-285.2053254206188
 31
0.0
  0
LINE
  5
257
102
{ACAD_REACTORS
330
359
330
35A
102
}
330
A0
100
AcDbEntity
  8
0
  6
Continuous
 62
     2
100
AcDbLine
 10
-153.4770666235096
 20
-284.1146791621319
 30
0.0
 11
-153.4770666235096
 21
-282.8059036519272
 31
0.0
  0
LINE
  5
258
102
{ACAD_REACTORS
330
359
330
35A
102
}
330
A0
100
AcDbEntity
  8
0
  6
Continuous
 62
     2
100
AcDbLine
 10
-154.669859325676
 20
-281.0608696383208
 30
0.0
 11
-154.669859325676
 21
-284.1146791621319
 31
0.0
  0
LINE
  5
259
102
{ACAD_REACTORS
330
359
330
35A
102
}
330
A0
100
AcDbEntity
  8
0
  6
Continuous
 62
     2
100
AcDbLine
 10
-153.4770666235096
 20
-281.0608696383208
 30
0.0
 11
-154.669859325676
 21
-281.0608696383208
 31
0.0
  0
LINE
  5
25A
102
{ACAD_REACTORS
330
359
330
35A
102
}
330
A0
100
AcDbEntity
  8
0
  6
Continuous
 62
     2
100
AcDbLine
 10
-152.2365622132556
 20
-281.0608696383208
 30
0.0
 11
-152.2365622132556
 21
-282.3696451485259
 31
0.0
  0
LINE
  5
25B
102
{ACAD_REACTORS
330
357
330
358
102
}
330
A0
100
AcDbEntity
  8
0
  6
Continuous
 62
     2
100
AcDbLine
 10
-159.9182981460957
 20
-284.4200601144951
 30
0.0
 11
-159.9182981460957
 21
-287.4738696383062
 31
0.0
  0
LINE
  5
25C
102
{ACAD_REACTORS
330
357
330
358
102
}
330
A0
100
AcDbEntity
  8
0
  6
Continuous
 62
     2
100
AcDbLine
 10
-158.7255054439282
 20
-284.4200601144951
 30
0.0
 11
-159.9182981460957
 21
-284.4200601144951
 31
0.0
  0
LINE
  5
25D
102
{ACAD_REACTORS
330
357
330
358
102
}
330
A0
100
AcDbEntity
  8
0
  6
Continuous
 62
     2
100
AcDbLine
 10
-157.4850010336753
 20
-287.4738696383062
 30
0.0
 11
-156.2922083315089
 21
-287.4738696383062
 31
0.0
  0
LINE
  5
25E
102
{ACAD_REACTORS
330
357
330
358
102
}
330
A0
100
AcDbEntity
  8
0
  6
Continuous
 62
     2
100
AcDbLine
 10
-159.9182981460957
 20
-287.4738696383062
 30
0.0
 11
-158.7255054439282
 21
-287.4738696383062
 31
0.0
  0
LINE
  5
25F
102
{ACAD_REACTORS
330
367
330
368
102
}
330
A0
100
AcDbEntity
  8
0
  6
Continuous
 62
     2
100
AcDbLine
 10
-156.2443456925367
 20
-282.2387675975054
 30
0.0
 11
-156.2443456925367
 21
-281.7588832437637
 31
0.0
  0
LINE
  5
260
102
{ACAD_REACTORS
330
367
330
368
102
}
330
A0
100
AcDbEntity
  8
0
  6
Continuous
 62
     2
100
AcDbLine
 10
-154.908417866109
 20
-282.2387675975054
 30
0.0
 11
-156.2443456925367
 21
-282.2387675975054
 31
0.0
  0
LINE
  5
261
102
{ACAD_REACTORS
330
367
330
368
102
}
330
A0
100
AcDbEntity
  8
0
  6
Continuous
 62
     2
100
AcDbLine
 10
-154.908417866109
 20
-282.9367812029478
 30
0.0
 11
-154.908417866109
 21
-282.2387675975054
 31
0.0
  0
LINE
  5
262
102
{ACAD_REACTORS
330
367
330
368
102
}
330
A0
100
AcDbEntity
  8
0
  6
Continuous
 62
     2
100
AcDbLine
 10
-156.2443456925367
 20
-282.9367812029478
 30
0.0
 11
-154.908417866109
 21
-282.9367812029478
 31
0.0
  0
LINE
  5
263
102
{ACAD_REACTORS
330
355
330
356
102
}
330
A0
100
AcDbEntity
  8
0
  6
Continuous
 62
     2
100
AcDbLine
 10
-159.7273003828636
 20
-281.0608696383208
 30
0.0
 11
-159.7273003828636
 21
-284.1146791621319
 31
0.0
  0
LINE
  5
264
102
{ACAD_REACTORS
330
355
330
356
102
}
330
A0
100
AcDbEntity
  8
0
  6
Continuous
 62
     2
100
AcDbLine
 10
-159.7273003828636
 20
-284.1146791621319
 30
0.0
 11
-160.92009308503
 21
-284.1146791621319
 31
0.0
  0
LINE
  5
265
102
{ACAD_REACTORS
330
355
330
356
102
}
330
A0
100
AcDbEntity
  8
0
  6
Continuous
 62
     2
100
AcDbLine
 10
-160.92009308503
 20
-284.1146791621319
 30
0.0
 11
-160.92009308503
 21
-282.9804070532882
 31
0.0
  0
LINE
  5
266
102
{ACAD_REACTORS
330
355
330
356
102
}
330
A0
100
AcDbEntity
  8
0
  6
Continuous
 62
     2
100
AcDbLine
 10
-161.9697506629374
 20
-284.1146791621319
 30
0.0
 11
-163.162543365104
 21
-284.1146791621319
 31
0.0
  0
LINE
  5
267
102
{ACAD_REACTORS
330
355
330
356
102
}
330
A0
100
AcDbEntity
  8
0
  6
Continuous
 62
     2
100
AcDbLine
 10
-163.162543365104
 20
-281.0608696383208
 30
0.0
 11
-161.9697506629374
 21
-281.0608696383208
 31
0.0
  0
LINE
  5
268
102
{ACAD_REACTORS
330
355
330
356
102
}
330
A0
100
AcDbEntity
  8
0
  6
Continuous
 62
     2
100
AcDbLine
 10
-161.9697506629374
 20
-281.0608696383208
 30
0.0
 11
-161.9697506629374
 21
-282.1297029716554
 31
0.0
  0
LINE
  5
269
102
{ACAD_REACTORS
330
355
330
356
102
}
330
A0
100
AcDbEntity
  8
0
  6
Continuous
 62
     2
100
AcDbLine
 10
-161.9697506629374
 20
-282.1297029716554
 30
0.0
 11
-160.92009308503
 21
-282.1297029716554
 31
0.0
  0
LINE
  5
26A
102
{ACAD_REACTORS
330
363
330
364
102
}
330
A0
100
AcDbEntity
  8
0
  6
Continuous
 62
     2
100
AcDbLine
 10
-165.1187233966577
 20
-281.7239754837608
 30
0.0
 11
-164.8014283351157
 21
-281.7239754837608
 31
0.0
  0
LINE
  5
26B
102
{ACAD_REACTORS
330
363
330
364
102
}
330
A0
100
AcDbEntity
  8
0
  6
Continuous
 62
     2
100
AcDbLine
 10
-165.1187233966577
 20
-282.4297031331031
 30
0.0
 11
-164.8014283351157
 21
-282.4297031331031
 31
0.0
  0
LINE
  5
26C
102
{ACAD_REACTORS
330
363
330
364
102
}
330
A0
100
AcDbEntity
  8
0
  6
Continuous
 62
     2
100
AcDbLine
 10
-166.3592278069118
 20
-281.0608696383208
 30
0.0
 11
-166.3592278069118
 21
-284.1146791621319
 31
0.0
  0
LINE
  5
26D
102
{ACAD_REACTORS
330
363
330
364
102
}
330
A0
100
AcDbEntity
  8
0
  6
Continuous
 62
     2
100
AcDbLine
 10
-166.3592278069118
 20
-281.0608696383208
 30
0.0
 11
-164.3599558088773
 21
-281.0608696383208
 31
0.0
  0
LINE
  5
26E
102
{ACAD_REACTORS
330
363
330
364
102
}
330
A0
100
AcDbEntity
  8
0
  6
Continuous
 62
     2
100
AcDbLine
 10
-165.1187233966577
 20
-283.1716009209882
 30
0.0
 11
-164.3599558088773
 21
-283.1716009209882
 31
0.0
  0
LINE
  5
26F
102
{ACAD_REACTORS
330
369
330
36A
102
}
330
A0
100
AcDbEntity
  8
0
  6
Continuous
 62
     2
100
AcDbLine
 10
-172.4557238402084
 20
-282.0891421169555
 30
0.0
 11
-172.4557238402084
 21
-286.4455971596726
 31
0.0
  0
LINE
  5
270
102
{ACAD_REACTORS
330
369
330
36A
102
}
330
A0
100
AcDbEntity
  8
0
  6
Continuous
 62
     2
100
AcDbLine
 10
-172.1400069171328
 20
-281.7734251938794
 30
0.0
 11
-170.6641736561232
 21
-281.7734251938794
 31
0.0
  0
LINE
  5
271
102
{ACAD_REACTORS
330
369
330
36A
102
}
330
A0
100
AcDbEntity
  8
0
  6
Continuous
 62
     2
100
AcDbLine
 10
-170.3484567330467
 20
-282.6931667360161
 30
0.0
 11
-170.3484567330467
 21
-282.0891421169555
 31
0.0
  0
LINE
  5
272
102
{ACAD_REACTORS
330
369
330
36A
102
}
330
A0
100
AcDbEntity
  8
0
  6
Continuous
 62
     2
100
AcDbLine
 10
-170.3484567330467
 20
-286.4455971596726
 30
0.0
 11
-170.3484567330467
 21
-284.914826228141
 31
0.0
  0
LINE
  5
273
102
{ACAD_REACTORS
330
369
330
36A
102
}
330
A0
100
AcDbEntity
  8
0
  6
Continuous
 62
     2
100
AcDbLine
 10
-167.2605895031624
 20
-287.4738696383062
 30
0.0
 11
-172.7339015938794
 21
-287.4738696383062
 31
0.0
  0
LINE
  5
274
102
{ACAD_REACTORS
330
369
330
36A
102
}
330
A0
100
AcDbEntity
  8
0
  6
Continuous
 62
     2
100
AcDbLine
 10
-166.8363448877786
 20
-281.4851142537228
 30
0.0
 11
-166.8363448877786
 21
-287.049625022923
 31
0.0
  0
LINE
  5
275
102
{ACAD_REACTORS
330
369
330
36A
102
}
330
A0
100
AcDbEntity
  8
0
  6
Continuous
 62
     2
100
AcDbLine
 10
-172.7339015938794
 20
-281.0608696383389
 30
0.0
 11
-167.2605895031624
 21
-281.0608696383389
 31
0.0
  0
LINE
  5
276
102
{ACAD_REACTORS
330
369
330
36A
102
}
330
A0
100
AcDbEntity
  8
0
  6
Continuous
 62
     2
100
AcDbLine
 10
-173.1581462092621
 20
-281.4851142537228
 30
0.0
 11
-173.1581462092621
 21
-287.049625022923
 31
0.0
  0
LINE
  5
277
102
{ACAD_REACTORS
330
369
330
36A
102
}
330
A0
100
AcDbEntity
  8
0
  6
Continuous
 62
     2
100
AcDbLine
 10
-170.6641736561232
 20
-286.7613140827493
 30
0.0
 11
-172.1400069171328
 21
-286.7613140827493
 31
0.0
  0
LINE
  5
278
102
{ACAD_REACTORS
330
363
330
364
102
}
330
A0
100
AcDbEntity
  8
0
  6
Continuous
 62
     2
100
AcDbLine
 10
-165.1187233966577
 20
-284.1146791621319
 30
0.0
 11
-165.1187233966577
 21
-283.1716009209882
 31
0.0
  0
LINE
  5
279
102
{ACAD_REACTORS
330
363
330
364
102
}
330
A0
100
AcDbEntity
  8
0
  6
Continuous
 62
     2
100
AcDbLine
 10
-166.3592278069118
 20
-284.1146791621319
 30
0.0
 11
-165.1187233966577
 21
-284.1146791621319
 31
0.0
  0
LINE
  5
27A
102
{ACAD_REACTORS
330
363
330
364
102
}
330
A0
100
AcDbEntity
  8
0
  6
Continuous
 62
     2
100
AcDbLine
 10
-165.1187233966577
 20
-282.4297031331031
 30
0.0
 11
-165.1187233966577
 21
-281.7239754837608
 31
0.0
  0
LINE
  5
27B
102
{ACAD_REACTORS
330
355
330
356
102
}
330
A0
100
AcDbEntity
  8
0
  6
Continuous
 62
     2
100
AcDbLine
 10
-163.162543365104
 20
-281.0608696383208
 30
0.0
 11
-163.162543365104
 21
-284.1146791621319
 31
0.0
  0
LINE
  5
27C
102
{ACAD_REACTORS
330
355
330
356
102
}
330
A0
100
AcDbEntity
  8
0
  6
Continuous
 62
     2
100
AcDbLine
 10
-161.9697506629374
 20
-282.9804070532882
 30
0.0
 11
-161.9697506629374
 21
-284.1146791621319
 31
0.0
  0
LINE
  5
27D
102
{ACAD_REACTORS
330
355
330
356
102
}
330
A0
100
AcDbEntity
  8
0
  6
Continuous
 62
     2
100
AcDbLine
 10
-160.92009308503
 20
-282.9804070532882
 30
0.0
 11
-161.9697506629374
 21
-282.9804070532882
 31
0.0
  0
LINE
  5
27E
102
{ACAD_REACTORS
330
355
330
356
102
}
330
A0
100
AcDbEntity
  8
0
  6
Continuous
 62
     2
100
AcDbLine
 10
-160.92009308503
 20
-281.0608696383208
 30
0.0
 11
-159.7273003828636
 21
-281.0608696383208
 31
0.0
  0
LINE
  5
27F
102
{ACAD_REACTORS
330
355
330
356
102
}
330
A0
100
AcDbEntity
  8
0
  6
Continuous
 62
     2
100
AcDbLine
 10
-160.92009308503
 20
-282.1297029716554
 30
0.0
 11
-160.92009308503
 21
-281.0608696383208
 31
0.0
  0
LINE
  5
280
102
{ACAD_REACTORS
330
367
330
368
102
}
330
A0
100
AcDbEntity
  8
0
  6
Continuous
 62
     2
100
AcDbLine
 10
-154.908417866109
 20
-281.7588832437637
 30
0.0
 11
-154.908417866109
 21
-281.0608696383208
 31
0.0
  0
LINE
  5
281
102
{ACAD_REACTORS
330
367
330
368
102
}
330
A0
100
AcDbEntity
  8
0
  6
Continuous
 62
     2
100
AcDbLine
 10
-158.0587375898899
 20
-281.0608696383208
 30
0.0
 11
-154.908417866109
 21
-281.0608696383208
 31
0.0
  0
LINE
  5
282
102
{ACAD_REACTORS
330
367
330
368
102
}
330
A0
100
AcDbEntity
  8
0
  6
Continuous
 62
     2
100
AcDbLine
 10
-158.0587375898899
 20
-284.1146791621319
 30
0.0
 11
-154.908417866109
 21
-284.1146791621319
 31
0.0
  0
LINE
  5
283
102
{ACAD_REACTORS
330
367
330
368
102
}
330
A0
100
AcDbEntity
  8
0
  6
Continuous
 62
     2
100
AcDbLine
 10
-154.908417866109
 20
-284.1146791621319
 30
0.0
 11
-154.908417866109
 21
-283.4166655566895
 31
0.0
  0
LINE
  5
284
102
{ACAD_REACTORS
330
367
330
368
102
}
330
A0
100
AcDbEntity
  8
0
  6
Continuous
 62
     2
100
AcDbLine
 10
-154.908417866109
 20
-283.4166655566895
 30
0.0
 11
-156.2443456925367
 21
-283.4166655566895
 31
0.0
  0
LINE
  5
285
102
{ACAD_REACTORS
330
367
330
368
102
}
330
A0
100
AcDbEntity
  8
0
  6
Continuous
 62
     2
100
AcDbLine
 10
-156.2443456925367
 20
-283.4166655566895
 30
0.0
 11
-156.2443456925367
 21
-282.9367812029478
 31
0.0
  0
LINE
  5
286
102
{ACAD_REACTORS
330
367
330
368
102
}
330
A0
100
AcDbEntity
  8
0
  6
Continuous
 62
     2
100
AcDbLine
 10
-156.2443456925367
 20
-281.7588832437637
 30
0.0
 11
-154.908417866109
 21
-281.7588832437637
 31
0.0
  0
LINE
  5
287
102
{ACAD_REACTORS
330
357
330
358
102
}
330
A0
100
AcDbEntity
  8
0
  6
Continuous
 62
     2
100
AcDbLine
 10
-158.7255054439282
 20
-287.4738696383062
 30
0.0
 11
-158.7255054439282
 21
-286.1650941281017
 31
0.0
  0
LINE
  5
288
102
{ACAD_REACTORS
330
357
330
358
102
}
330
A0
100
AcDbEntity
  8
0
  6
Continuous
 62
     2
100
AcDbLine
 10
-158.7255054439282
 20
-286.1650941281017
 30
0.0
 11
-157.4850010336753
 21
-287.4738696383062
 31
0.0
  0
LINE
  5
289
102
{ACAD_REACTORS
330
357
330
358
102
}
330
A0
100
AcDbEntity
  8
0
  6
Continuous
 62
     2
100
AcDbLine
 10
-156.2922083315089
 20
-287.4738696383062
 30
0.0
 11
-156.2922083315089
 21
-284.4200601144951
 31
0.0
  0
LINE
  5
28A
102
{ACAD_REACTORS
330
357
330
358
102
}
330
A0
100
AcDbEntity
  8
0
  6
Continuous
 62
     2
100
AcDbLine
 10
-156.2922083315089
 20
-284.4200601144951
 30
0.0
 11
-157.4850010336753
 21
-284.4200601144951
 31
0.0
  0
LINE
  5
28B
102
{ACAD_REACTORS
330
357
330
358
102
}
330
A0
100
AcDbEntity
  8
0
  6
Continuous
 62
     2
100
AcDbLine
 10
-157.4850010336753
 20
-284.4200601144951
 30
0.0
 11
-157.4850010336753
 21
-285.7288356247003
 31
0.0
  0
LINE
  5
28C
102
{ACAD_REACTORS
330
357
330
358
102
}
330
A0
100
AcDbEntity
  8
0
  6
Continuous
 62
     2
100
AcDbLine
 10
-157.4850010336753
 20
-285.7288356247003
 30
0.0
 11
-158.7255054439282
 21
-284.4200601144951
 31
0.0
  0
LINE
  5
28D
102
{ACAD_REACTORS
330
359
330
35A
102
}
330
A0
100
AcDbEntity
  8
0
  6
Continuous
 62
     2
100
AcDbLine
 10
-153.4770666235096
 20
-282.8059036519272
 30
0.0
 11
-152.2365622132556
 21
-284.1146791621319
 31
0.0
  0
LINE
  5
28E
102
{ACAD_REACTORS
330
359
330
35A
102
}
330
A0
100
AcDbEntity
  8
0
  6
Continuous
 62
     2
100
AcDbLine
 10
-152.2365622132556
 20
-284.1146791621319
 30
0.0
 11
-151.043769511089
 21
-284.1146791621319
 31
0.0
  0
LINE
  5
28F
102
{ACAD_REACTORS
330
359
330
35A
102
}
330
A0
100
AcDbEntity
  8
0
  6
Continuous
 62
     2
100
AcDbLine
 10
-151.043769511089
 20
-284.1146791621319
 30
0.0
 11
-151.043769511089
 21
-281.0608696383208
 31
0.0
  0
LINE
  5
290
102
{ACAD_REACTORS
330
359
330
35A
102
}
330
A0
100
AcDbEntity
  8
0
  6
Continuous
 62
     2
100
AcDbLine
 10
-151.043769511089
 20
-281.0608696383208
 30
0.0
 11
-152.2365622132556
 21
-281.0608696383208
 31
0.0
  0
LINE
  5
291
102
{ACAD_REACTORS
330
359
330
35A
102
}
330
A0
100
AcDbEntity
  8
0
  6
Continuous
 62
     2
100
AcDbLine
 10
-152.2365622132556
 20
-282.3696451485259
 30
0.0
 11
-153.4770666235096
 21
-281.0608696383208
 31
0.0
  0
LINE
  5
292
102
{ACAD_REACTORS
330
359
330
35A
102
}
330
A0
100
AcDbEntity
  8
0
  6
Continuous
 62
     2
100
AcDbLine
 10
-154.669859325676
 20
-284.1146791621319
 30
0.0
 11
-153.4770666235096
 21
-284.1146791621319
 31
0.0
  0
LINE
  5
293
102
{ACAD_REACTORS
330
35B
330
35C
102
}
330
A0
100
AcDbEntity
  8
0
  6
Continuous
 62
     2
100
AcDbLine
 10
-156.1490732072487
 20
-284.4200601144951
 30
0.0
 11
-156.1490732072487
 21
-285.2053254206188
 31
0.0
  0
LINE
  5
294
102
{ACAD_REACTORS
330
35B
330
35C
102
}
330
A0
100
AcDbEntity
  8
0
  6
Continuous
 62
     2
100
AcDbLine
 10
-155.337974169774
 20
-285.2053254206188
 30
0.0
 11
-155.337974169774
 21
-287.4738696383062
 31
0.0
  0
LINE
  5
295
102
{ACAD_REACTORS
330
35B
330
35C
102
}
330
A0
100
AcDbEntity
  8
0
  6
Continuous
 62
     2
100
AcDbLine
 10
-155.337974169774
 20
-287.4738696383062
 30
0.0
 11
-154.1451814676076
 21
-287.4738696383062
 31
0.0
  0
LINE
  5
296
102
{ACAD_REACTORS
330
35D
330
35E
102
}
330
A0
100
AcDbEntity
  8
0
  6
Continuous
 62
     2
100
AcDbLine
 10
-151.1956549741881
 20
-287.4738696383062
 30
0.0
 11
-151.4071350276638
 21
-286.9329090940884
 31
0.0
  0
LINE
  5
297
102
{ACAD_REACTORS
330
35D
330
35E
102
}
330
A0
100
AcDbEntity
  8
0
  6
Continuous
 62
     2
100
AcDbLine
 10
-151.3531036108744
 20
-284.4200601144951
 30
0.0
 11
-149.9551505639342
 21
-287.4738696383062
 31
0.0
  0
LINE
  5
298
102
{ACAD_REACTORS
330
35D
330
35E
102
}
330
A0
100
AcDbEntity
  8
0
  6
Continuous
 62
     2
100
AcDbLine
 10
-152.5936080211272
 20
-284.4200601144951
 30
0.0
 11
-151.3531036108744
 21
-284.4200601144951
 31
0.0
  0
LINE
  5
299
102
{ACAD_REACTORS
330
35D
330
35E
102
}
330
A0
100
AcDbEntity
  8
0
  6
Continuous
 62
     2
100
AcDbLine
 10
-153.9915610680664
 20
-287.4738696383062
 30
0.0
 11
-152.7510566578135
 21
-287.4738696383062
 31
0.0
  0
LINE
  5
29A
102
{ACAD_REACTORS
330
35D
330
35E
102
}
330
A0
100
AcDbEntity
  8
0
  6
Continuous
 62
     2
100
AcDbLine
 10
-152.2735210531926
 20
-286.2523458287818
 30
0.0
 11
-151.6731905788101
 21
-286.2523458287818
 31
0.0
  0
LINE
  5
29B
102
{ACAD_REACTORS
330
35D
330
35E
102
}
330
A0
100
AcDbEntity
  8
0
  6
Continuous
 62
     2
100
AcDbLine
 10
-151.6731905788101
 20
-286.2523458287818
 30
0.0
 11
-151.9733558160004
 21
-285.4845308627951
 31
0.0
  0
LINE
  5
29C
102
{ACAD_REACTORS
330
35F
330
360
102
}
330
A0
100
AcDbEntity
  8
0
  6
Continuous
 62
     2
100
AcDbLine
 10
-149.5647065604021
 20
-284.1146791621319
 30
0.0
 11
-150.8052109706551
 21
-284.1146791621319
 31
0.0
  0
LINE
  5
29D
102
{ACAD_REACTORS
330
361
330
362
102
}
330
A0
100
AcDbEntity
  8
0
  6
Continuous
 62
     2
100
AcDbLine
 10
-148.0427030724372
 20
-284.1146791621319
 30
0.0
 11
-149.4454272901853
 21
-284.1146791621319
 31
0.0
  0
LINE
  5
29E
102
{ACAD_REACTORS
330
361
330
362
102
}
330
A0
100
AcDbEntity
  8
0
  6
Continuous
 62
     2
100
AcDbLine
 10
-148.0427030724372
 20
-284.1146791621319
 30
0.0
 11
-147.3461121343713
 21
-283.3269473768382
 31
0.0
  0
LINE
  5
29F
102
{ACAD_REACTORS
330
361
330
362
102
}
330
A0
100
AcDbEntity
  8
0
  6
Continuous
 62
     2
100
AcDbLine
 10
-146.7449446124786
 20
-281.0608696383208
 30
0.0
 11
-145.3422203947313
 21
-281.0608696383208
 31
0.0
  0
LINE
  5
2A0
102
{ACAD_REACTORS
330
361
330
362
102
}
330
A0
100
AcDbEntity
  8
0
  6
Continuous
 62
     2
100
AcDbLine
 10
-149.3500038740124
 20
-281.0608696383208
 30
0.0
 11
-148.047474243245
 21
-282.533820168357
 31
0.0
  0
LINE
  5
2A1
102
{ACAD_REACTORS
330
361
330
362
102
}
330
A0
100
AcDbEntity
  8
0
  6
Continuous
 62
     2
100
AcDbLine
 10
-149.4454272901853
 20
-284.1146791621319
 30
0.0
 11
-148.047474243245
 21
-282.533820168357
 31
0.0
  0
LINE
  5
2A2
102
{ACAD_REACTORS
330
36B
330
36C
102
}
330
A0
100
AcDbEntity
  8
0
  6
Continuous
 62
     2
100
AcDbLine
 10
-147.5846706748054
 20
-286.4268492301426
 30
0.0
 11
-147.5846706748054
 21
-287.2993662369459
 31
0.0
  0
LINE
  5
2A3
102
{ACAD_REACTORS
330
36B
330
36C
102
}
330
A0
100
AcDbEntity
  8
0
  6
Continuous
 62
     2
100
AcDbLine
 10
-148.3543280177669
 20
-285.2053254206188
 30
0.0
 11
-147.2506887181988
 21
-285.2053254206188
 31
0.0
  0
LINE
  5
2A4
102
{ACAD_REACTORS
330
36D
330
36E
102
}
330
A0
100
AcDbEntity
  8
0
  6
Continuous
 62
     2
100
AcDbLine
 10
-163.6873721540572
 20
-286.4268492301421
 30
0.0
 11
-163.6873721540572
 21
-287.2993662369454
 31
0.0
  0
LINE
  5
2A5
102
{ACAD_REACTORS
330
36D
330
36E
102
}
330
A0
100
AcDbEntity
  8
0
  6
Continuous
 62
     2
100
AcDbLine
 10
-163.6873721540572
 20
-285.4670805226593
 30
0.0
 11
-163.6873721540572
 21
-284.594563515856
 31
0.0
  0
LINE
  5
2A6
330
A0
100
AcDbEntity
  8
1
  6
Continuous
 62
     7
100
AcDbLine
 10
-47.84999656907344
 20
-286.2673696383226
 30
0.0
 11
-140.9948010958247
 21
-286.2673696383226
 31
0.0
  0
LINE
  5
2A7
330
A0
100
AcDbEntity
  8
1
  6
Continuous
 62
     7
100
AcDbLine
 10
-56.76840485075213
 20
-269.2673696383226
 30
0.0
 11
-56.76840485075213
 21
-277.7673696383226
 31
0.0
  0
LINE
  5
2A8
330
A0
100
AcDbEntity
  8
1
  6
Continuous
 62
     7
100
AcDbLine
 10
-83.26840485075176
 20
-269.2673696383226
 30
0.0
 11
-83.26840485075176
 21
-277.7673696383226
 31
0.0
  0
LINE
  5
2A9
330
A0
100
AcDbEntity
  8
1
  6
Continuous
 62
     7
100
AcDbLine
 10
-140.9948010958247
 20
-277.7673696383226
 30
0.0
 11
-140.9948010958247
 21
-269.2673696383226
 31
0.0
  0
LINE
  5
2AA
330
A0
100
AcDbEntity
  8
1
  6
Continuous
 62
     7
100
AcDbLine
 10
-177.3948010958247
 20
-277.7673696383226
 30
0.0
 11
-177.3948010958247
 21
-269.2673696383226
 31
0.0
  0
LINE
  5
2AB
330
A0
100
AcDbEntity
  8
1
  6
Continuous
 62
     6
100
AcDbLine
 10
-140.9948010958247
 20
-277.7673696383226
 30
0.0
 11
-47.84999656907294
 21
-277.7673696383226
 31
0.0
  0
LINE
  5
2AC
330
A0
100
AcDbEntity
  8
1
  6
Continuous
 62
     7
100
AcDbLine
 10
-113.0948010958247
 20
-286.2673696383226
 30
0.0
 11
-113.0948010958247
 21
-277.7673696383226
 31
0.0
  0
LINE
  5
2AD
330
A0
100
AcDbEntity
  8
1
  6
Continuous
 62
     6
100
AcDbLine
 10
-47.84999656907294
 20
-277.7673696383226
 30
0.0
 11
-47.84999656907294
 21
-269.2673696383226
 31
0.0
  0
LINE
  5
2AE
330
A0
100
AcDbEntity
  8
1
  6
Continuous
 62
     2
100
AcDbLine
 10
-184.5166632357413
 20
-294.7673696383249
 30
0.0
 11
-184.5166632357413
 21
-294.767369638322
 31
0.0
  0
LINE
  5
2AF
330
A0
100
AcDbEntity
  8
1
  6
Continuous
 62
     6
100
AcDbLine
 10
-321.1833299024078
 20
-294.767369638322
 30
0.0
 11
-177.3948010958247
 21
-294.7673696383251
 31
0.0
  0
LINE
  5
2B0
330
A0
100
AcDbEntity
  8
1
  6
Continuous
 62
     6
100
AcDbLine
 10
-47.84999656907479
 20
-294.7673696383225
 30
0.0
 11
-47.84999656907519
 21
-286.2673696383226
 31
0.0
  0
LINE
  5
2B1
330
A0
100
AcDbEntity
  8
1
  6
Continuous
 62
     6
100
AcDbLine
 10
-442.8499965690745
 20
-294.767369638322
 30
0.0
 11
-442.8499965690754
 21
-7.76736963832179
 31
0.0
  0
LINE
  5
2B2
330
A0
100
AcDbEntity
  8
1
  6
Continuous
 62
     2
100
AcDbLine
 10
-462.8499965690755
 20
-151.267369638322
 30
0.0
 11
-462.8499965690755
 21
-299.767369638322
 31
0.0
  0
LINE
  5
2B3
330
A0
100
AcDbEntity
  8
1
  6
Continuous
 62
     2
100
AcDbLine
 10
-462.8499965690755
 20
-151.267369638322
 30
0.0
 11
-452.8499965690754
 21
-151.267369638322
 31
0.0
  0
LINE
  5
2B4
330
A0
100
AcDbEntity
  8
1
  6
Continuous
 62
     2
100
AcDbLine
 10
-462.8499965690755
 20
-2.76736963832202
 30
0.0
 11
-462.8499965690755
 21
-151.267369638322
 31
0.0
  0
LINE
  5
2B5
330
A0
100
AcDbEntity
  8
1
  6
Continuous
 62
     2
100
AcDbLine
 10
-232.8499965690776
 20
-2.76736963832202
 30
0.0
 11
-252.8499965690747
 21
-2.76736963832202
 31
0.0
  0
LINE
  5
2B6
330
A0
100
AcDbEntity
  8
1
  6
Continuous
 62
     2
100
AcDbLine
 10
-232.8499965690776
 20
-2.76736963832202
 30
0.0
 11
-232.8499965690776
 21
-6.76736963832179
 31
0.0
  0
LINE
  5
2B7
330
A0
100
AcDbEntity
  8
1
  6
Continuous
 62
     2
100
AcDbLine
 10
-442.8499965690754
 20
-2.76736963832202
 30
0.0
 11
-462.8499965690755
 21
-2.76736963832202
 31
0.0
  0
LINE
  5
2B8
330
A0
100
AcDbEntity
  8
1
  6
Continuous
 62
     2
100
AcDbLine
 10
-442.8499965690754
 20
-2.76736963832202
 30
0.0
 11
-442.8499965690754
 21
-6.76736963832179
 31
0.0
  0
LINE
  5
2B9
330
A0
100
AcDbEntity
  8
1
  6
Continuous
 62
     2
100
AcDbLine
 10
-389.5166632357414
 20
-2.76736963832202
 30
0.0
 11
-442.8499965690754
 21
-2.76736963832202
 31
0.0
  0
LINE
  5
2BA
330
A0
100
AcDbEntity
  8
1
  6
Continuous
 62
     6
100
AcDbLine
 10
-389.5166632357414
 20
-7.76736963832179
 30
0.0
 11
-321.1833299024078
 21
-7.76736963832202
 31
0.0
  0
LINE
  5
2BB
330
A0
100
AcDbEntity
  8
1
  6
Continuous
 62
     2
100
AcDbLine
 10
-389.5166632357414
 20
-7.76736963832179
 30
0.0
 11
-389.5166632357414
 21
-2.76736963832202
 31
0.0
  0
LINE
  5
2BC
330
A0
100
AcDbEntity
  8
1
  6
Continuous
 62
     2
100
AcDbLine
 10
-321.1833299024078
 20
-2.76736963832202
 30
0.0
 11
-389.5166632357414
 21
-2.76736963832202
 31
0.0
  0
LINE
  5
2BD
330
A0
100
AcDbEntity
  8
1
  6
Continuous
 62
     6
100
AcDbLine
 10
-321.1833299024078
 20
-7.76736963832202
 30
0.0
 11
-252.8499965690747
 21
-7.76736963832202
 31
0.0
  0
LINE
  5
2BE
330
A0
100
AcDbEntity
  8
1
  6
Continuous
 62
     2
100
AcDbLine
 10
-321.1833299024078
 20
-7.76736963832202
 30
0.0
 11
-321.1833299024078
 21
-2.76736963832202
 31
0.0
  0
LINE
  5
2BF
330
A0
100
AcDbEntity
  8
1
  6
Continuous
 62
     2
100
AcDbLine
 10
-252.8499965690747
 20
-2.76736963832202
 30
0.0
 11
-321.1833299024078
 21
-2.76736963832202
 31
0.0
  0
LINE
  5
2C0
330
A0
100
AcDbEntity
  8
1
  6
Continuous
 62
     6
100
AcDbLine
 10
-252.8499965690747
 20
-7.76736963832202
 30
0.0
 11
-184.5166632357413
 21
-7.76736963832202
 31
0.0
  0
LINE
  5
2C1
330
A0
100
AcDbEntity
  8
1
  6
Continuous
 62
     2
100
AcDbLine
 10
-252.8499965690747
 20
-7.76736963832202
 30
0.0
 11
-252.8499965690747
 21
-2.76736963832202
 31
0.0
  0
LINE
  5
2C2
330
A0
100
AcDbEntity
  8
1
  6
Continuous
 62
     2
100
AcDbLine
 10
-184.5166632357413
 20
-2.76736963832202
 30
0.0
 11
-232.8499965690776
 21
-2.76736963832202
 31
0.0
  0
LINE
  5
2C3
330
A0
100
AcDbEntity
  8
1
  6
Continuous
 62
     6
100
AcDbLine
 10
-184.5166632357413
 20
-7.76736963832202
 30
0.0
 11
-116.1833299024082
 21
-7.76736963832202
 31
0.0
  0
LINE
  5
2C4
330
A0
100
AcDbEntity
  8
1
  6
Continuous
 62
     2
100
AcDbLine
 10
-184.5166632357413
 20
-7.76736963832202
 30
0.0
 11
-184.5166632357413
 21
-2.76736963832202
 31
0.0
  0
LINE
  5
2C5
330
A0
100
AcDbEntity
  8
1
  6
Continuous
 62
     2
100
AcDbLine
 10
-116.1833299024082
 20
-2.76736963832202
 30
0.0
 11
-184.5166632357413
 21
-2.76736963832202
 31
0.0
  0
LINE
  5
2C6
330
A0
100
AcDbEntity
  8
1
  6
Continuous
 62
     6
100
AcDbLine
 10
-116.1833299024082
 20
-7.76736963832202
 30
0.0
 11
-47.84999656907723
 21
-7.76736963832202
 31
0.0
  0
LINE
  5
2C7
330
A0
100
AcDbEntity
  8
1
  6
Continuous
 62
     2
100
AcDbLine
 10
-116.1833299024082
 20
-7.76736963832202
 30
0.0
 11
-116.1833299024082
 21
-2.76736963832202
 31
0.0
  0
LINE
  5
2C8
330
A0
100
AcDbEntity
  8
1
  6
Continuous
 62
     2
100
AcDbLine
 10
-47.84999656907723
 20
-2.76736963832202
 30
0.0
 11
-116.1833299024082
 21
-2.76736963832202
 31
0.0
  0
LINE
  5
2C9
330
A0
100
AcDbEntity
  8
1
  6
Continuous
 62
     6
100
AcDbLine
 10
-442.8499965690754
 20
-7.76736963832179
 30
0.0
 11
-389.5166632357414
 21
-7.76736963832179
 31
0.0
  0
LINE
  5
2CA
330
A0
100
AcDbEntity
  8
1
  6
Continuous
 62
     6
100
AcDbLine
 10
-47.84999656907473
 20
-179.9673696383218
 30
0.0
 11
-47.84999656907479
 21
-237.3673696383219
 31
0.0
  0
LINE
  5
2CB
330
A0
100
AcDbEntity
  8
1
  6
Continuous
 62
     2
100
AcDbLine
 10
-47.84999656907473
 20
-179.9673696383218
 30
0.0
 11
-42.84999656907723
 21
-179.9673696383218
 31
0.0
  0
LINE
  5
2CC
330
A0
100
AcDbEntity
  8
1
  6
Continuous
 62
     2
100
AcDbLine
 10
-42.84999656907723
 20
-122.567369638322
 30
0.0
 11
-42.84999656907723
 21
-179.9673696383218
 31
0.0
  0
LINE
  5
2CD
330
A0
100
AcDbEntity
  8
1
  6
Continuous
 62
     6
100
AcDbLine
 10
-47.84999656907473
 20
-122.567369638322
 30
0.0
 11
-47.84999656907473
 21
-179.9673696383218
 31
0.0
  0
LINE
  5
2CE
330
A0
100
AcDbEntity
  8
1
  6
Continuous
 62
     2
100
AcDbLine
 10
-47.84999656907473
 20
-122.567369638322
 30
0.0
 11
-42.84999656907723
 21
-122.567369638322
 31
0.0
  0
LINE
  5
2CF
330
A0
100
AcDbEntity
  8
1
  6
Continuous
 62
     2
100
AcDbLine
 10
-42.84999656907723
 20
-65.1673696383221
 30
0.0
 11
-42.84999656907723
 21
-122.567369638322
 31
0.0
  0
LINE
  5
2D0
330
A0
100
AcDbEntity
  8
1
  6
Continuous
 62
     6
100
AcDbLine
 10
-47.84999656907672
 20
-65.1673696383221
 30
0.0
 11
-47.84999656907473
 21
-122.567369638322
 31
0.0
  0
LINE
  5
2D1
330
A0
100
AcDbEntity
  8
1
  6
Continuous
 62
     2
100
AcDbLine
 10
-47.84999656907672
 20
-65.1673696383221
 30
0.0
 11
-42.84999656907723
 21
-65.1673696383221
 31
0.0
  0
LINE
  5
2D2
330
A0
100
AcDbEntity
  8
1
  6
Continuous
 62
     2
100
AcDbLine
 10
-42.84999656907723
 20
-7.76736963832202
 30
0.0
 11
-42.84999656907723
 21
-65.1673696383221
 31
0.0
  0
LINE
  5
2D3
330
A0
100
AcDbEntity
  8
1
  6
Continuous
 62
     2
100
AcDbLine
 10
-47.84999656907723
 20
-7.76736963832202
 30
0.0
 11
-42.84999656907723
 21
-7.76736963832202
 31
0.0
  0
LINE
  5
2D4
330
A0
100
AcDbEntity
  8
1
  6
Continuous
 62
     2
100
AcDbLine
 10
-47.84999656907723
 20
-7.76736963832202
 30
0.0
 11
-47.84999656907723
 21
-2.76736963832202
 31
0.0
  0
LINE
  5
2D5
330
A0
100
AcDbEntity
  8
1
  6
Continuous
 62
     2
100
AcDbLine
 10
-42.84999656907723
 20
-2.76736963832202
 30
0.0
 11
-42.84999656907723
 21
-7.76736963832202
 31
0.0
  0
LINE
  5
2D6
330
A0
100
AcDbEntity
  8
1
  6
Continuous
 62
     6
100
AcDbLine
 10
-47.84999656907723
 20
-7.76736963832202
 30
0.0
 11
-47.84999656907672
 21
-65.1673696383221
 31
0.0
  0
LINE
  5
2D7
330
A0
100
AcDbEntity
  8
1
  6
Continuous
 62
     2
100
AcDbLine
 10
-42.84999656907723
 20
-2.76736963832202
 30
0.0
 11
-47.84999656907723
 21
-2.76736963832202
 31
0.0
  0
LINE
  5
2D8
330
A0
100
AcDbEntity
  8
1
  6
Continuous
 62
     2
100
AcDbLine
 10
-42.84999656907723
 20
-294.767369638322
 30
0.0
 11
-42.84999656907723
 21
-237.3673696383219
 31
0.0
  0
LINE
  5
2D9
330
A0
100
AcDbEntity
  8
1
  6
Continuous
 62
     2
100
AcDbLine
 10
-42.84999656907723
 20
-294.767369638322
 30
0.0
 11
-42.84999656907723
 21
-299.767369638322
 31
0.0
  0
LINE
  5
2DA
330
A0
100
AcDbEntity
  8
1
  6
Continuous
 62
     2
100
AcDbLine
 10
-42.84999656907723
 20
-299.767369638322
 30
0.0
 11
-47.84999656907473
 21
-299.767369638322
 31
0.0
  0
LINE
  5
2DB
330
A0
100
AcDbEntity
  8
1
  6
Continuous
 62
     2
100
AcDbLine
 10
-184.5166632357413
 20
-299.767369638322
 30
0.0
 11
-116.1833299024082
 21
-299.767369638322
 31
0.0
  0
LINE
  5
2DC
330
A0
100
AcDbEntity
  8
1
  6
Continuous
 62
     2
100
AcDbLine
 10
-232.8499965690776
 20
-299.767369638322
 30
0.0
 11
-184.5166632357413
 21
-299.767369638322
 31
0.0
  0
LINE
  5
2DD
330
A0
100
AcDbEntity
  8
1
  6
Continuous
 62
     2
100
AcDbLine
 10
-232.8499965690776
 20
-299.767369638322
 30
0.0
 11
-232.8499965690776
 21
-295.767369638322
 31
0.0
  0
LINE
  5
2DE
330
A0
100
AcDbEntity
  8
1
  6
Continuous
 62
     2
100
AcDbLine
 10
-232.8499965690776
 20
-299.767369638322
 30
0.0
 11
-252.8499965690747
 21
-299.767369638322
 31
0.0
  0
LINE
  5
2DF
330
A0
100
AcDbEntity
  8
1
  6
Continuous
 62
     2
100
AcDbLine
 10
-442.8499965690754
 20
-299.767369638322
 30
0.0
 11
-389.5166632357414
 21
-299.767369638322
 31
0.0
  0
LINE
  5
2E0
330
A0
100
AcDbEntity
  8
1
  6
Continuous
 62
     2
100
AcDbLine
 10
-442.8499965690754
 20
-299.767369638322
 30
0.0
 11
-442.8499965690754
 21
-295.767369638322
 31
0.0
  0
LINE
  5
2E1
330
A0
100
AcDbEntity
  8
1
  6
Continuous
 62
     2
100
AcDbLine
 10
-321.1833299024078
 20
-299.767369638322
 30
0.0
 11
-321.1833299024078
 21
-294.767369638322
 31
0.0
  0
LINE
  5
2E2
330
A0
100
AcDbEntity
  8
1
  6
Continuous
 62
     6
100
AcDbLine
 10
-389.5166632357414
 20
-294.767369638322
 30
0.0
 11
-442.8499965690745
 21
-294.767369638322
 31
0.0
  0
LINE
  5
2E3
330
A0
100
AcDbEntity
  8
1
  6
Continuous
 62
     6
100
AcDbLine
 10
-389.5166632357414
 20
-294.767369638322
 30
0.0
 11
-321.1833299024078
 21
-294.767369638322
 31
0.0
  0
LINE
  5
2E4
330
A0
100
AcDbEntity
  8
1
  6
Continuous
 62
     2
100
AcDbLine
 10
-389.5166632357414
 20
-299.767369638322
 30
0.0
 11
-321.1833299024078
 21
-299.767369638322
 31
0.0
  0
LINE
  5
2E5
330
A0
100
AcDbEntity
  8
1
  6
Continuous
 62
     2
100
AcDbLine
 10
-389.5166632357414
 20
-299.767369638322
 30
0.0
 11
-389.5166632357414
 21
-294.767369638322
 31
0.0
  0
LINE
  5
2E6
330
A0
100
AcDbEntity
  8
1
  6
Continuous
 62
     2
100
AcDbLine
 10
-442.8499965690754
 20
-299.767369638322
 30
0.0
 11
-462.8499965690755
 21
-299.767369638322
 31
0.0
  0
LINE
  5
2E7
330
A0
100
AcDbEntity
  8
1
  6
Continuous
 62
     2
100
AcDbLine
 10
-42.84999656907723
 20
-237.3673696383219
 30
0.0
 11
-47.84999656907479
 21
-237.3673696383219
 31
0.0
  0
LINE
  5
2E8
330
A0
100
AcDbEntity
  8
1
  6
Continuous
 62
     2
100
AcDbLine
 10
-42.84999656907723
 20
-237.3673696383219
 30
0.0
 11
-42.84999656907723
 21
-179.9673696383218
 31
0.0
  0
LINE
  5
2E9
330
A0
100
AcDbEntity
  8
1
  6
Continuous
 62
     2
100
AcDbLine
 10
-252.8499965690747
 20
-299.767369638322
 30
0.0
 11
-252.8499965690747
 21
-294.767369638322
 31
0.0
  0
LINE
  5
2EA
330
A0
100
AcDbEntity
  8
1
  6
Continuous
 62
     2
100
AcDbLine
 10
-184.5166632357413
 20
-299.767369638322
 30
0.0
 11
-184.5166632357413
 21
-294.7673696383249
 31
0.0
  0
LINE
  5
2EB
330
A0
100
AcDbEntity
  8
1
  6
Continuous
 62
     2
100
AcDbLine
 10
-116.1833299024082
 20
-299.767369638322
 30
0.0
 11
-116.1833299024082
 21
-294.767369638322
 31
0.0
  0
LINE
  5
2EC
330
A0
100
AcDbEntity
  8
1
  6
Continuous
 62
     2
100
AcDbLine
 10
-116.1833299024082
 20
-299.767369638322
 30
0.0
 11
-47.84999656907473
 21
-299.767369638322
 31
0.0
  0
LINE
  5
2ED
330
A0
100
AcDbEntity
  8
1
  6
Continuous
 62
     2
100
AcDbLine
 10
-252.8499965690747
 20
-299.767369638322
 30
0.0
 11
-321.1833299024078
 21
-299.767369638322
 31
0.0
  0
LINE
  5
2EE
330
A0
100
AcDbEntity
  8
1
  6
Continuous
 62
     6
100
AcDbLine
 10
-47.8499965690757
 20
-273.5173696383226
 30
0.0
 11
-47.84999656907479
 21
-237.3673696383219
 31
0.0
  0
LINE
  5
2EF
330
A0
100
AcDbEntity
  8
1
  6
Continuous
 62
     6
100
AcDbLine
 10
-47.84999656907473
 20
-277.7673696383226
 30
0.0
 11
-47.8499965690757
 21
-273.5173696383226
 31
0.0
  0
LINE
  5
2F0
330
A0
100
AcDbEntity
  8
1
  6
Continuous
 62
     6
100
AcDbLine
 10
-47.84999656907519
 20
-286.2673696383226
 30
0.0
 11
-47.84999656907473
 21
-277.7673696383226
 31
0.0
  0
LINE
  5
2F1
330
A0
100
AcDbEntity
  8
1
  6
Continuous
 62
     6
100
AcDbLine
 10
-116.1833299024082
 20
-294.767369638322
 30
0.0
 11
-47.84999656907479
 21
-294.7673696383225
 31
0.0
  0
ARC
  5
2F2
102
{ACAD_REACTORS
330
36D
330
36E
102
}
330
A0
100
AcDbEntity
  8
0
  6
Continuous
 62
     2
100
AcDbCircle
 10
-165.023300071175
 20
-289.2596458216568
 30
0.0
 40
4.852596863497986
100
AcDbArc
 50
74.0200087416471
 51
84.84185523037642
  0
ARC
  5
2F3
102
{ACAD_REACTORS
330
36D
330
36E
102
}
330
A0
100
AcDbEntity
  8
0
  6
Continuous
 62
     2
100
AcDbCircle
 10
-164.4472594624213
 20
-286.1038854657725
 30
0.0
 40
0.9059297849853498
100
AcDbArc
 50
71.55192388185974
 51
113.3722778881356
  0
ARC
  5
2F4
102
{ACAD_REACTORS
330
36D
330
36E
102
}
330
A0
100
AcDbEntity
  8
0
  6
Continuous
 62
     2
100
AcDbCircle
 10
-164.6036994951234
 20
-286.1520363057395
 30
0.0
 40
0.5115800601947491
100
AcDbArc
 50
208.5214732576844
 51
246.6277221118194
  0
ARC
  5
2F5
102
{ACAD_REACTORS
330
36D
330
36E
102
}
330
A0
100
AcDbEntity
  8
0
  6
Continuous
 62
     2
100
AcDbCircle
 10
-164.4472594624213
 20
-285.7900442870295
 30
0.0
 40
0.90592978498486
100
AcDbArc
 50
246.6277221118615
 51
288.4480761181528
  0
ARC
  5
2F6
102
{ACAD_REACTORS
330
36D
330
36E
102
}
330
A0
100
AcDbEntity
  8
0
  6
Continuous
 62
     2
100
AcDbCircle
 10
-164.8654271960822
 20
-284.5364985109923
 30
0.0
 40
2.227384008972773
100
AcDbArc
 50
288.4480761181333
 51
301.9309089499635
  0
ARC
  5
2F7
102
{ACAD_REACTORS
330
369
330
36A
102
}
330
A0
100
AcDbEntity
  8
0
  6
Continuous
 62
     2
100
AcDbCircle
 10
-170.090500928689
 20
-283.8039964820783
 30
0.0
 40
0.9118481501444307
100
AcDbArc
 50
295.3740086781852
 51
64.62599132180254
  0
ARC
  5
2F8
102
{ACAD_REACTORS
330
369
330
36A
102
}
330
A0
100
AcDbEntity
  8
0
  6
Continuous
 62
     2
100
AcDbCircle
 10
-169.5644582306011
 20
-282.0893195936037
 30
0.0
 40
0.3157169230761851
100
AcDbArc
 50
90.1889670425665
 51
180.0
  0
ARC
  5
2F9
102
{ACAD_REACTORS
330
36B
330
36C
102
}
330
A0
100
AcDbEntity
  8
0
  6
Continuous
 62
     2
100
AcDbCircle
 10
-148.3543280177669
 20
-286.1598484274449
 30
0.0
 40
0.9545230068260935
100
AcDbArc
 50
90.0
 51
109.3371432194233
  0
ARC
  5
2FA
102
{ACAD_REACTORS
330
36B
330
36C
102
}
330
A0
100
AcDbEntity
  8
0
  6
Continuous
 62
     2
100
AcDbCircle
 10
-148.1236407577891
 20
-285.946964876401
 30
0.0
 40
0.9410597353349331
100
AcDbArc
 50
151.4785267423579
 51
208.5214732576695
  0
ARC
  5
2FB
102
{ACAD_REACTORS
330
36B
330
36C
102
}
330
A0
100
AcDbEntity
  8
0
  6
Continuous
 62
     2
100
AcDbCircle
 10
-148.3445579831673
 20
-285.7900442870295
 30
0.0
 40
0.9059297849852547
100
AcDbArc
 50
246.6277221118039
 51
288.4480761180721
  0
ARC
  5
2FC
102
{ACAD_REACTORS
330
36B
330
36C
102
}
330
A0
100
AcDbEntity
  8
0
  6
Continuous
 62
     2
100
AcDbCircle
 10
-148.7627257168294
 20
-284.5364985109928
 30
0.0
 40
2.227384008972719
100
AcDbArc
 50
288.4480761181337
 51
301.930908949942
  0
ARC
  5
2FD
102
{ACAD_REACTORS
330
36B
330
36C
102
}
330
A0
100
AcDbEntity
  8
0
  6
Continuous
 62
     2
100
AcDbCircle
 10
-148.9205985919221
 20
-282.6342839311445
 30
0.0
 40
4.852596863498833
100
AcDbArc
 50
275.1581447696374
 51
285.9799912583384
  0
ARC
  5
2FE
102
{ACAD_REACTORS
330
36B
330
36C
102
}
330
A0
100
AcDbEntity
  8
0
  6
Continuous
 62
     2
100
AcDbCircle
 10
-148.6317424971863
 20
-285.8341745143661
 30
0.0
 40
1.639695123940421
100
AcDbArc
 50
195.0618917771015
 51
275.1581447696801
  0
ARC
  5
2FF
102
{ACAD_REACTORS
330
363
330
364
102
}
330
A0
100
AcDbEntity
  8
0
  6
Continuous
 62
     2
100
AcDbCircle
 10
-164.3599558088773
 20
-282.1162352796545
 30
0.0
 40
1.055365641333708
100
AcDbArc
 50
270.0
 51
90.0
  0
ARC
  5
300
102
{ACAD_REACTORS
330
369
330
36A
102
}
330
A0
100
AcDbEntity
  8
0
  6
Continuous
 62
     2
100
AcDbCircle
 10
-172.1400069171328
 20
-286.4455971596726
 30
0.0
 40
0.3157169230755983
100
AcDbArc
 50
180.0
 51
270.0
  0
ARC
  5
301
102
{ACAD_REACTORS
330
369
330
36A
102
}
330
A0
100
AcDbEntity
  8
0
  6
Continuous
 62
     2
100
AcDbCircle
 10
-170.6641736561232
 20
-282.0891421169555
 30
0.0
 40
0.3157169230765078
100
AcDbArc
 50
0.0
 51
90.0
  0
ARC
  5
302
102
{ACAD_REACTORS
330
369
330
36A
102
}
330
A0
100
AcDbEntity
  8
0
  6
Continuous
 62
     2
100
AcDbCircle
 10
-170.6641736561232
 20
-282.6931667360161
 30
0.0
 40
0.3157169230760658
100
AcDbArc
 50
295.1944106485672
 51
0.0
  0
ARC
  5
303
102
{ACAD_REACTORS
330
369
330
36A
102
}
330
A0
100
AcDbEntity
  8
0
  6
Continuous
 62
     2
100
AcDbCircle
 10
-170.6641736561232
 20
-286.4455971596726
 30
0.0
 40
0.3157169230767067
100
AcDbArc
 50
270.0
 51
0.0
  0
ARC
  5
304
102
{ACAD_REACTORS
330
369
330
36A
102
}
330
A0
100
AcDbEntity
  8
0
  6
Continuous
 62
     2
100
AcDbCircle
 10
-172.7339015938794
 20
-281.4851142537228
 30
0.0
 40
0.424244615383941
100
AcDbArc
 50
90.0
 51
180.0
  0
ARC
  5
305
102
{ACAD_REACTORS
330
369
330
36A
102
}
330
A0
100
AcDbEntity
  8
0
  6
Continuous
 62
     2
100
AcDbCircle
 10
-167.2605895031624
 20
-281.4851142537228
 30
0.0
 40
0.4242446153837989
100
AcDbArc
 50
0.0
 51
90.0
  0
ARC
  5
306
102
{ACAD_REACTORS
330
369
330
36A
102
}
330
A0
100
AcDbEntity
  8
0
  6
Continuous
 62
     2
100
AcDbCircle
 10
-167.2605895031624
 20
-287.049625022923
 30
0.0
 40
0.424244615383202
100
AcDbArc
 50
270.0
 51
0.0
  0
ARC
  5
307
102
{ACAD_REACTORS
330
367
330
368
102
}
330
A0
100
AcDbEntity
  8
0
  6
Continuous
 62
     2
100
AcDbCircle
 10
-158.0422056160709
 20
-282.5877744002266
 30
0.0
 40
0.7717997786794808
100
AcDbArc
 50
321.8795802028346
 51
38.12041979716205
  0
ARC
  5
308
102
{ACAD_REACTORS
330
367
330
368
102
}
330
A0
100
AcDbEntity
  8
0
  6
Continuous
 62
     2
100
AcDbCircle
 10
-157.8424655797248
 20
-282.7445055783471
 30
0.0
 40
0.5179085730134564
100
AcDbArc
 50
218.1204197971334
 51
321.8795802028588
  0
ARC
  5
309
102
{ACAD_REACTORS
330
365
330
366
102
}
330
A0
100
AcDbEntity
  8
0
  6
Continuous
 62
     2
100
AcDbCircle
 10
-161.5224731686851
 20
-285.946964876401
 30
0.0
 40
1.458034083652083
100
AcDbArc
 50
297.5481481757095
 51
62.45185182429258
  0
ARC
  5
30A
102
{ACAD_REACTORS
330
365
330
366
102
}
330
A0
100
AcDbEntity
  8
0
  6
Continuous
 62
     2
100
AcDbCircle
 10
-162.0843529523517
 20
-285.946964876401
 30
0.0
 40
1.458034083651526
100
AcDbArc
 50
117.5481481756579
 51
242.45185182434
  0
ARC
  5
30B
102
{ACAD_REACTORS
330
365
330
366
102
}
330
A0
100
AcDbEntity
  8
0
  6
Continuous
 62
     2
100
AcDbCircle
 10
-161.8034130605182
 20
-286.4855398867038
 30
0.0
 40
2.065479772208656
100
AcDbArc
 50
62.45185182430676
 51
117.5481481756681
  0
ARC
  5
30C
102
{ACAD_REACTORS
330
365
330
366
102
}
330
A0
100
AcDbEntity
  8
0
  6
Continuous
 62
     2
100
AcDbCircle
 10
-161.8034130605182
 20
-285.4083898660976
 30
0.0
 40
2.065479772208637
100
AcDbArc
 50
242.4518518243384
 51
297.5481481756867
  0
ARC
  5
30D
102
{ACAD_REACTORS
330
367
330
368
102
}
330
A0
100
AcDbEntity
  8
0
  6
Continuous
 62
     2
100
AcDbCircle
 10
-157.6427255433785
 20
-282.5877744002266
 30
0.0
 40
0.7717997786796917
100
AcDbArc
 50
141.8795802028523
 51
218.120419797151
  0
ARC
  5
30E
102
{ACAD_REACTORS
330
367
330
368
102
}
330
A0
100
AcDbEntity
  8
0
  6
Continuous
 62
     2
100
AcDbCircle
 10
-157.8424655797248
 20
-282.4310432221061
 30
0.0
 40
0.5179085730133669
100
AcDbArc
 50
38.12041979714121
 51
141.8795802028666
  0
ARC
  5
30F
102
{ACAD_REACTORS
330
369
330
36A
102
}
330
A0
100
AcDbEntity
  8
0
  6
Continuous
 62
     2
100
AcDbCircle
 10
-172.7339015938794
 20
-287.049625022923
 30
0.0
 40
0.4242446153826904
100
AcDbArc
 50
180.0
 51
270.0
  0
ARC
  5
310
102
{ACAD_REACTORS
330
369
330
36A
102
}
330
A0
100
AcDbEntity
  8
0
  6
Continuous
 62
     2
100
AcDbCircle
 10
-170.6641736561232
 20
-284.914826228141
 30
0.0
 40
0.3157169230765078
100
AcDbArc
 50
0.0
 51
64.805589351446
  0
ARC
  5
311
102
{ACAD_REACTORS
330
369
330
36A
102
}
330
A0
100
AcDbEntity
  8
0
  6
Continuous
 62
     2
100
AcDbCircle
 10
-170.1415892085483
 20
-283.8039964820783
 30
0.0
 40
0.9118975235576071
100
AcDbArc
 50
115.1944106485146
 51
244.805589351496
  0
ARC
  5
312
102
{ACAD_REACTORS
330
369
330
36A
102
}
330
A0
100
AcDbEntity
  8
0
  6
Continuous
 62
     2
100
AcDbCircle
 10
-172.1400069171328
 20
-282.0891421169555
 30
0.0
 40
0.3157169230760815
100
AcDbArc
 50
90.0
 51
180.0
  0
ARC
  5
313
102
{ACAD_REACTORS
330
363
330
364
102
}
330
A0
100
AcDbEntity
  8
0
  6
Continuous
 62
     2
100
AcDbCircle
 10
-164.8014283351157
 20
-282.076839308432
 30
0.0
 40
0.3528638246710898
100
AcDbArc
 50
270.0
 51
90.0
  0
ARC
  5
314
102
{ACAD_REACTORS
330
367
330
368
102
}
330
A0
100
AcDbEntity
  8
0
  6
Continuous
 62
     2
100
AcDbCircle
 10
-158.0587375898899
 20
-282.5877744002266
 30
0.0
 40
1.526904761905769
100
AcDbArc
 50
90.0
 51
270.0
  0
ARC
  5
315
102
{ACAD_REACTORS
330
36B
330
36C
102
}
330
A0
100
AcDbEntity
  8
0
  6
Continuous
 62
     2
100
AcDbCircle
 10
-148.6317424971863
 20
-286.0597552384358
 30
0.0
 40
1.639695123940101
100
AcDbArc
 50
90.0
 51
164.9381082228985
  0
ARC
  5
316
102
{ACAD_REACTORS
330
36B
330
36C
102
}
330
A0
100
AcDbEntity
  8
0
  6
Continuous
 62
     2
100
AcDbCircle
 10
-149.050870340648
 20
-285.946964876401
 30
0.0
 40
1.205656168392893
100
AcDbArc
 50
164.9381082229014
 51
195.0618917770934
  0
ARC
  5
317
102
{ACAD_REACTORS
330
36B
330
36C
102
}
330
A0
100
AcDbEntity
  8
0
  6
Continuous
 62
     2
100
AcDbCircle
 10
-148.5009980158706
 20
-286.1520363057395
 30
0.0
 40
0.5115800601959217
100
AcDbArc
 50
208.5214732576927
 51
246.6277221118399
  0
ARC
  5
318
102
{ACAD_REACTORS
330
36B
330
36C
102
}
330
A0
100
AcDbEntity
  8
0
  6
Continuous
 62
     2
100
AcDbCircle
 10
-148.5009980158706
 20
-285.7418934470619
 30
0.0
 40
0.5115800601943766
100
AcDbArc
 50
109.3371432194733
 51
151.4785267424192
  0
ARC
  5
319
102
{ACAD_REACTORS
330
369
330
36A
102
}
330
A0
100
AcDbEntity
  8
0
  6
Continuous
 62
     2
100
AcDbCircle
 10
-169.5644582306011
 20
-285.4949894887417
 30
0.0
 40
0.3157169230767067
100
AcDbArc
 50
180.0
 51
269.8110329574335
  0
ARC
  5
31A
102
{ACAD_REACTORS
330
369
330
36A
102
}
330
A0
100
AcDbEntity
  8
0
  6
Continuous
 62
     2
100
AcDbCircle
 10
-169.558842095291
 20
-283.7921545411727
 30
0.0
 40
2.018561131933267
100
AcDbArc
 50
269.8110329575802
 51
90.18896704241979
  0
ARC
  5
31B
102
{ACAD_REACTORS
330
369
330
36A
102
}
330
A0
100
AcDbEntity
  8
0
  6
Continuous
 62
     2
100
AcDbCircle
 10
-169.5644582306011
 20
-282.6948548821105
 30
0.0
 40
0.3157169230767067
100
AcDbArc
 50
180.0
 51
244.6259913216533
  0
ARC
  5
31C
102
{ACAD_REACTORS
330
369
330
36A
102
}
330
A0
100
AcDbEntity
  8
0
  6
Continuous
 62
     2
100
AcDbCircle
 10
-169.5644582306011
 20
-284.9131380820466
 30
0.0
 40
0.3157169230764963
100
AcDbArc
 50
115.3740086783378
 51
180.0
  0
ARC
  5
31D
102
{ACAD_REACTORS
330
36D
330
36E
102
}
330
A0
100
AcDbEntity
  8
0
  6
Continuous
 62
     2
100
AcDbCircle
 10
-164.7344439764391
 20
-286.0597552384358
 30
0.0
 40
1.639695123940499
100
AcDbArc
 50
84.84185523036533
 51
164.9381082228913
  0
ARC
  5
31E
102
{ACAD_REACTORS
330
36D
330
36E
102
}
330
A0
100
AcDbEntity
  8
0
  6
Continuous
 62
     2
100
AcDbCircle
 10
-165.1535718199019
 20
-285.946964876401
 30
0.0
 40
1.205656168391054
100
AcDbArc
 50
164.9381082228779
 51
195.0618917770935
  0
ARC
  5
31F
102
{ACAD_REACTORS
330
36D
330
36E
102
}
330
A0
100
AcDbEntity
  8
0
  6
Continuous
 62
     2
100
AcDbCircle
 10
-164.7344439764391
 20
-285.8341745143661
 30
0.0
 40
1.639695123939519
100
AcDbArc
 50
195.0618917770914
 51
275.1581447696363
  0
ARC
  5
320
102
{ACAD_REACTORS
330
36D
330
36E
102
}
330
A0
100
AcDbEntity
  8
0
  6
Continuous
 62
     2
100
AcDbCircle
 10
-165.023300071175
 20
-282.6342839311445
 30
0.0
 40
4.852596863498214
100
AcDbArc
 50
275.1581447696235
 51
285.9799912583527
  0
ARC
  5
321
102
{ACAD_REACTORS
330
36D
330
36E
102
}
330
A0
100
AcDbEntity
  8
0
  6
Continuous
 62
     2
100
AcDbCircle
 10
-164.226342237043
 20
-285.946964876401
 30
0.0
 40
0.9410597353333294
100
AcDbArc
 50
151.4785267422693
 51
208.5214732576972
  0
ARC
  5
322
102
{ACAD_REACTORS
330
36D
330
36E
102
}
330
A0
100
AcDbEntity
  8
0
  6
Continuous
 62
     2
100
AcDbCircle
 10
-164.6036994951234
 20
-285.7418934470619
 30
0.0
 40
0.511580060194863
100
AcDbArc
 50
113.3722778882033
 51
151.4785267423156
  0
ARC
  5
323
102
{ACAD_REACTORS
330
36D
330
36E
102
}
330
A0
100
AcDbEntity
  8
0
  6
Continuous
 62
     2
100
AcDbCircle
 10
-164.8654271960822
 20
-287.3574312418091
 30
0.0
 40
2.22738400897348
100
AcDbArc
 50
58.06909105003646
 51
71.55192388186676
  0
ARC
  5
324
102
{ACAD_REACTORS
330
365
330
366
102
}
330
A0
100
AcDbEntity
  8
0
  6
Continuous
 62
     2
100
AcDbCircle
 10
-161.8034130605182
 20
-285.7902336982805
 30
0.0
 40
0.5179085730132135
100
AcDbArc
 50
38.12041979717052
 51
141.8795802028547
  0
ARC
  5
325
102
{ACAD_REACTORS
330
365
330
366
102
}
330
A0
100
AcDbEntity
  8
0
  6
Continuous
 62
     2
100
AcDbCircle
 10
-161.6036730241723
 20
-285.946964876401
 30
0.0
 40
0.7717997786794615
100
AcDbArc
 50
141.8795802028228
 51
218.1204197971672
  0
ARC
  5
326
102
{ACAD_REACTORS
330
365
330
366
102
}
330
A0
100
AcDbEntity
  8
0
  6
Continuous
 62
     2
100
AcDbCircle
 10
-161.8034130605182
 20
-286.1036960545209
 30
0.0
 40
0.5179085730137849
100
AcDbArc
 50
218.1204197971849
 51
321.8795802027899
  0
ARC
  5
327
102
{ACAD_REACTORS
330
365
330
366
102
}
330
A0
100
AcDbEntity
  8
0
  6
Continuous
 62
     2
100
AcDbCircle
 10
-162.0031530968647
 20
-285.946964876401
 30
0.0
 40
0.7717997786795351
100
AcDbArc
 50
321.8795802028432
 51
38.1204197971668
  0
CIRCLE
  5
328
330
A0
100
AcDbEntity
  8
1
  6
Continuous
 62
     2
100
AcDbCircle
 10
-164.6581462092621
 20
-273.6423696383227
 30
0.0
 40
2.5
  0
CIRCLE
  5
329
330
A0
100
AcDbEntity
  8
1
  6
Continuous
 62
     2
100
AcDbCircle
 10
-164.6581462092621
 20
-273.6423696383227
 30
0.0
 40
1.25
  0
CIRCLE
  5
32A
102
{ACAD_REACTORS
330
369
330
36A
102
}
330
A0
100
AcDbEntity
  8
0
  6
Continuous
 62
     2
100
AcDbCircle
 10
-170.1143159433617
 20
-283.8039964820783
 30
0.0
 40
0.4709789327783938
  0
MTEXT
  5
32B
330
A0
100
AcDbEntity
  8
1
 62
     3
100
AcDbMText
 10
-444.4273232577215
 20
-294.7404555388214
 30
0.0
 40
1.8
 41
0.0
 71
     7
 72
     1
  3
Weitergabe sowie Vervielfältigung dieses Dokuments, Verwertung und \PMitteilung seines Inhalts sind verboten, soweit nicht ausdrücklich gestattet. \PZuwiderhandlungen verpflichten zu Schadenersatz. Alle Rechte für den Fall\Pder Patent-, Gebrauchsmus
  1
ter- oder Designeintragung vorbehalten.
  7
CONVERTER_11
 11
0.0
 21
1.0
 31
0.0
 73
     1
 44
0.99639855942377
  0
MTEXT
  5
32C
330
A0
100
AcDbEntity
  8
1
 62
     3
100
AcDbMText
 10
-444.5815295688154
 20
-121.7810855246683
 30
0.0
 40
1.8
 41
0.0
 71
     7
 72
     1
  3
Transfer or duplication of this document as well as the utilisation or\Pcommunication of its content are not permitted unless express consent\Pis granted. Violations give rise to claims for damages. All rights reserved\Pin case of patent, utility mo
  1
del or design patent registrations.
  7
CONVERTER_11
 11
0.0
 21
1.0
 31
0.0
 73
     1
 44
0.99639855942377
  0
TEXT
  5
32D
330
A0
100
AcDbEntity
  8
1
 62
     2
100
AcDbText
 10
-158.1948010958248
 20
-293.5263868533141
 30
0.0
 40
1.8
  1
of
 41
0.9
  7
CONVERTER_11
100
AcDbText
  0
TEXT
  5
32E
330
A0
100
AcDbEntity
  8
1
 62
     2
100
AcDbText
 10
-176.3948010958247
 20
-293.5263868533143
 30
0.0
 40
1.8
  1
page
 41
0.9
  7
CONVERTER_11
100
AcDbText
  0
TEXT
  5
32F
330
A0
100
AcDbEntity
  8
1
 62
     2
100
AcDbText
 10
-167.7485361254826
 20
-293.5666182921245
 30
0.0
 40
1.8
  1
1
 41
0.9
  7
CONVERTER_11
100
AcDbText
  0
TEXT
  5
330
330
A0
100
AcDbEntity
  8
1
 62
     2
100
AcDbText
 10
-152.9594922860111
 20
-293.5173696383226
 30
0.0
 40
1.8
  1
1
 41
0.9
  7
CONVERTER_11
100
AcDbText
  0
MTEXT
  5
332
330
A0
100
AcDbEntity
  8
1
 62
     7
100
AcDbMText
 10
-94.42239883244923
 20
-291.5173696383224
 30
0.0
 40
3.0
 41
0.0
 71
     5
 72
     1
  1
VS-SI-FP-BP
  7
CONVERTER_12
 73
     1
 44
1.20048019207683
  0
MTEXT
  5
333
330
A0
100
AcDbEntity
  8
1
 62
     2
100
AcDbMText
 10
-139.9948010958247
 20
-287.2673696383226
 30
0.0
 40
1.8
 41
0.0
 71
     1
 72
     1
  1
description
  7
CONVERTER_11
 73
     1
 44
1.20048019207683
  0
MTEXT
  5
334
330
A0
100
AcDbEntity
  8
1
 62
     3
100
AcDbMText
 10
-151.1948010958247
 20
-273.6423696383226
 30
0.0
 40
2.5
 41
0.0
 71
     5
 72
     1
  1
DIN A3
  7
CONVERTER_11
 73
     1
 44
1.20048019207683
  0
MTEXT
  5
335
330
A0
100
AcDbEntity
  8
1
 62
     2
100
AcDbMText
 10
-211.8058243650343
 20
-282.0173696383238
 30
0.0
 40
2.0
 41
0.0
 71
     5
 72
     1
  1
General Information\P- Simplified representation\P- Document excluded from change process\P- Linear dimensions [mm]
  7
CONVERTER_11
 73
     1
 44
1.20048019207683
  0
TEXT
  5
336
330
A0
100
AcDbEntity
  8
1
 62
     7
100
AcDbText
 10
-139.494801095825
 20
-284.9673696383226
 30
0.0
 40
2.5
  1
1656657
 41
0.81
  7
CONVERTER_12
100
AcDbText
  0
MTEXT
  5
337
330
A0
100
AcDbEntity
  8
1
 62
     2
100
AcDbMText
 10
-139.8948010958247
 20
-278.7673696383226
 30
0.0
 40
1.8
 41
0.0
 71
     1
 72
     1
  1
ident.-No.
  7
CONVERTER_11
 73
     1
 44
1.20048019207683
  0
MTEXT
  5
338
330
A0
100
AcDbEntity
  8
1
 62
     2
100
AcDbMText
 10
-55.66840485075194
 20
-270.2673696383226
 30
0.0
 40
1.8
 41
0.0
 71
     1
 72
     1
  1
scale
  7
CONVERTER_11
 73
     1
 44
1.20048019207683
  0
MTEXT
  5
33A
330
A0
100
AcDbEntity
  8
1
 62
     3
100
AcDbMText
 10
-52.30920070991243
 20
-276.4673696383225
 30
0.0
 40
2.5
 41
0.0
 71
     8
 72
     1
  1
1:1
  7
CONVERTER_13
 73
     1
 44
1.32052821128451
  0
TEXT
  5
33B
330
A0
100
AcDbEntity
  8
1
 62
     7
100
AcDbText
 10
-139.8948010958247
 20
-276.4673696383226
 30
0.0
 40
2.5
  1
01214850
 41
0.81
  7
CONVERTER_12
100
AcDbText
  0
MTEXT
  5
33D
330
A0
100
AcDbEntity
  8
1
 62
     2
100
AcDbMText
 10
-139.8948010958247
 20
-270.2673696383226
 30
0.0
 40
1.8
 41
0.0
 71
     1
 72
     1
  1
document-No. / RI
  7
CONVERTER_14
 73
     1
 44
1.32052821128451
  0
TEXT
  5
33E
330
A0
100
AcDbEntity
  8
1
 62
     3
100
AcDbText
 10
-112.0948010958247
 20
-284.9673696383226
 30
0.0
 40
2.5
  1
TECDOC 2D_Productdrawing
 41
0.81
  7
CONVERTER_12
100
AcDbText
  0
MTEXT
  5
33F
330
A0
100
AcDbEntity
  8
1
 62
     2
100
AcDbMText
 10
-112.0948010958247
 20
-278.7673696383226
 30
0.0
 40
1.8
 41
0.0
 71
     1
 72
     1
  1
document-type
  7
CONVERTER_11
 73
     1
 44
1.20048019207683
  0
MTEXT
  5
340
330
A0
100
AcDbEntity
  8
1
 62
     2
100
AcDbMText
 10
-82.26840485075176
 20
-270.2673696383226
 30
0.0
 40
1.8
 41
0.0
 71
     1
 72
     1
  1
date
  7
CONVERTER_11
 73
     1
 44
1.32052821128451
  0
TEXT
  5
341
330
A0
100
AcDbEntity
  8
1
 62
     3
100
AcDbText
 10
-82.26840485075176
 20
-276.4673696383226
 30
0.0
 40
2.5
  1
13.05.2019
 41
0.81
  7
CONVERTER_12
100
AcDbText
  0
TEXT
  5
342
330
A0
100
AcDbEntity
  8
1
 62
     7
100
AcDbText
 10
-119.8648888767689
 20
-276.4673696383226
 30
0.0
 40
2.5
  1
00
 41
0.81
  7
CONVERTER_12
100
AcDbText
  0
TEXT
  5
343
330
A0
100
AcDbEntity
  8
1
 62
     7
100
AcDbText
 10
-122.0212533738109
 20
-276.4673696383226
 30
0.0
 40
2.5
  1
/
 41
0.9
  7
CONVERTER_11
100
AcDbText
  0
TEXT
  5
344
330
A0
100
AcDbEntity
  8
1
 62
     7
100
AcDbText
 10
-424.8499965690745
 20
-6.76736963832179
 30
0.0
 40
2.5
  1
1
 41
0.9
  7
CONVERTER_11
100
AcDbText
  0
TEXT
  5
345
330
A0
100
AcDbEntity
  8
1
 62
     7
100
AcDbText
 10
-356.5166632357414
 20
-6.76736963832179
 30
0.0
 40
2.5
  1
2
 41
0.9
  7
CONVERTER_11
100
AcDbText
  0
TEXT
  5
346
330
A0
100
AcDbEntity
  8
1
 62
     7
100
AcDbText
 10
-288.1833299024078
 20
-6.76736963832179
 30
0.0
 40
2.5
  1
3
 41
0.9
  7
CONVERTER_11
100
AcDbText
  0
TEXT
  5
347
330
A0
100
AcDbEntity
  8
1
 62
     7
100
AcDbText
 10
-219.8499965690747
 20
-6.76736963832179
 30
0.0
 40
2.5
  1
4
 41
0.9
  7
CONVERTER_11
100
AcDbText
  0
TEXT
  5
348
330
A0
100
AcDbEntity
  8
1
 62
     7
100
AcDbText
 10
-151.5166632357413
 20
-6.76736963832179
 30
0.0
 40
2.5
  1
5
 41
0.9
  7
CONVERTER_11
100
AcDbText
  0
TEXT
  5
349
330
A0
100
AcDbEntity
  8
1
 62
     7
100
AcDbText
 10
-83.1833299024081
 20
-6.76736963832179
 30
0.0
 40
2.5
  1
6
 41
0.9
  7
CONVERTER_11
100
AcDbText
  0
TEXT
  5
34A
330
A0
100
AcDbEntity
  8
1
 62
     7
100
AcDbText
 10
-46.84999656907473
 20
-37.66736963832211
 30
0.0
 40
2.5
  1
A
 41
0.9
  7
CONVERTER_11
100
AcDbText
  0
TEXT
  5
34B
330
A0
100
AcDbEntity
  8
1
 62
     7
100
AcDbText
 10
-46.84999656907473
 20
-95.06736963832199
 30
0.0
 40
2.5
  1
B
 41
0.9
  7
CONVERTER_11
100
AcDbText
  0
TEXT
  5
34C
330
A0
100
AcDbEntity
  8
1
 62
     7
100
AcDbText
 10
-46.84999656907473
 20
-152.4673696383218
 30
0.0
 40
2.5
  1
C
 41
0.9
  7
CONVERTER_11
100
AcDbText
  0
TEXT
  5
34D
330
A0
100
AcDbEntity
  8
1
 62
     7
100
AcDbText
 10
-46.84999656907473
 20
-209.8673696383219
 30
0.0
 40
2.5
  1
D
 41
0.9
  7
CONVERTER_11
100
AcDbText
  0
TEXT
  5
34E
330
A0
100
AcDbEntity
  8
1
 62
     7
100
AcDbText
 10
-356.5166632357414
 20
-298.767369638322
 30
0.0
 40
2.5
  1
2
 41
0.9
  7
CONVERTER_11
100
AcDbText
  0
TEXT
  5
34F
330
A0
100
AcDbEntity
  8
1
 62
     7
100
AcDbText
 10
-424.8499965690745
 20
-298.767369638322
 30
0.0
 40
2.5
  1
1
 41
0.9
  7
CONVERTER_11
100
AcDbText
  0
TEXT
  5
350
330
A0
100
AcDbEntity
  8
1
 62
     7
100
AcDbText
 10
-46.84999656907473
 20
-267.267369638322
 30
0.0
 40
2.5
  1
E
 41
0.9
  7
CONVERTER_11
100
AcDbText
  0
TEXT
  5
351
330
A0
100
AcDbEntity
  8
1
 62
     7
100
AcDbText
 10
-288.1833299024078
 20
-298.767369638322
 30
0.0
 40
2.5
  1
3
 41
0.9
  7
CONVERTER_11
100
AcDbText
  0
TEXT
  5
352
330
A0
100
AcDbEntity
  8
1
 62
     7
100
AcDbText
 10
-219.8499965690747
 20
-298.767369638322
 30
0.0
 40
2.5
  1
4
 41
0.9
  7
CONVERTER_11
100
AcDbText
  0
TEXT
  5
353
330
A0
100
AcDbEntity
  8
1
 62
     7
100
AcDbText
 10
-151.5166632357415
 20
-298.767369638322
 30
0.0
 40
2.5
  1
5
 41
0.9
  7
CONVERTER_11
100
AcDbText
  0
TEXT
  5
354
330
A0
100
AcDbEntity
  8
1
 62
     7
100
AcDbText
 10
-83.1833299024081
 20
-298.767369638322
 30
0.0
 40
2.5
  1
6
 41
0.9
  7
CONVERTER_11
100
AcDbText
  0
HATCH
  5
355
330
A0
100
AcDbEntity
  8
1
  6
Continuous
 62
     2
100
AcDbHatch
 10
0.0
 20
0.0
 30
0.0
210
0.0
220
0.0
230
1.0
  2
CUSTOM0
 70
     0
 71
     1
 91
        1
 92
        1
 93
       12
 72
     1
 10
-159.7273003828636
 20
-284.1146791621319
 11
-160.92009308503
 21
-284.1146791621319
 72
     1
 10
-160.92009308503
 20
-284.1146791621319
 11
-160.92009308503
 21
-282.9804070532882
 72
     1
 10
-160.92009308503
 20
-282.9804070532882
 11
-161.9697506629374
 21
-282.9804070532882
 72
     1
 10
-161.9697506629374
 20
-282.9804070532882
 11
-161.9697506629374
 21
-284.1146791621319
 72
     1
 10
-161.9697506629374
 20
-284.1146791621319
 11
-163.162543365104
 21
-284.1146791621319
 72
     1
 10
-163.162543365104
 20
-284.1146791621319
 11
-163.162543365104
 21
-281.0608696383208
 72
     1
 10
-163.162543365104
 20
-281.0608696383208
 11
-161.9697506629374
 21
-281.0608696383208
 72
     1
 10
-161.9697506629374
 20
-281.0608696383208
 11
-161.9697506629374
 21
-282.1297029716554
 72
     1
 10
-161.9697506629374
 20
-282.1297029716554
 11
-160.92009308503
 21
-282.1297029716554
 72
     1
 10
-160.92009308503
 20
-282.1297029716554
 11
-160.92009308503
 21
-281.0608696383208
 72
     1
 10
-160.92009308503
 20
-281.0608696383208
 11
-159.7273003828636
 21
-281.0608696383208
 72
     1
 10
-159.7273003828636
 20
-281.0608696383208
 11
-159.7273003828636
 21
-284.1146791621319
 97
       12
330
27E
330
27F
330
269
330
268
330
267
330
27B
330
266
330
27C
330
27D
330
265
330
264
330
263
 75
     1
 76
     2
 52
45.0
 41
0.1
 77
     0
 78
     1
 53
45.0
 43
62.7811309658083
 44
-72.3161373035813
 45
-0.1414213562373095
 46
0.0
 79
     0
 98
        1
 10
0.0
 20
0.0
  0
HATCH
  5
356
330
A0
100
AcDbEntity
  8
1
  6
Continuous
 62
     2
100
AcDbHatch
 10
0.0
 20
0.0
 30
0.0
210
0.0
220
0.0
230
1.0
  2
CUSTOM1
 70
     0
 71
     1
 91
        1
 92
        1
 93
       12
 72
     1
 10
-159.7273003828636
 20
-284.1146791621319
 11
-160.92009308503
 21
-284.1146791621319
 72
     1
 10
-160.92009308503
 20
-284.1146791621319
 11
-160.92009308503
 21
-282.9804070532882
 72
     1
 10
-160.92009308503
 20
-282.9804070532882
 11
-161.9697506629374
 21
-282.9804070532882
 72
     1
 10
-161.9697506629374
 20
-282.9804070532882
 11
-161.9697506629374
 21
-284.1146791621319
 72
     1
 10
-161.9697506629374
 20
-284.1146791621319
 11
-163.162543365104
 21
-284.1146791621319
 72
     1
 10
-163.162543365104
 20
-284.1146791621319
 11
-163.162543365104
 21
-281.0608696383208
 72
     1
 10
-163.162543365104
 20
-281.0608696383208
 11
-161.9697506629374
 21
-281.0608696383208
 72
     1
 10
-161.9697506629374
 20
-281.0608696383208
 11
-161.9697506629374
 21
-282.1297029716554
 72
     1
 10
-161.9697506629374
 20
-282.1297029716554
 11
-160.92009308503
 21
-282.1297029716554
 72
     1
 10
-160.92009308503
 20
-282.1297029716554
 11
-160.92009308503
 21
-281.0608696383208
 72
     1
 10
-160.92009308503
 20
-281.0608696383208
 11
-159.7273003828636
 21
-281.0608696383208
 72
     1
 10
-159.7273003828636
 20
-281.0608696383208
 11
-159.7273003828636
 21
-284.1146791621319
 97
       12
330
27E
330
27F
330
269
330
268
330
267
330
27B
330
266
330
27C
330
27D
330
265
330
264
330
263
 75
     1
 76
     2
 52
45.0
 41
0.1
 77
     0
 78
     1
 53
45.0
 43
62.7811309658083
 44
-72.3161373035813
 45
-0.1414213562373095
 46
0.0
 79
     0
 98
        1
 10
0.0
 20
0.0
  0
HATCH
  5
357
330
A0
100
AcDbEntity
  8
1
  6
Continuous
 62
     2
100
AcDbHatch
 10
0.0
 20
0.0
 30
0.0
210
0.0
220
0.0
230
1.0
  2
CUSTOM2
 70
     0
 71
     1
 91
        1
 92
        1
 93
       10
 72
     1
 10
-157.4850010336753
 20
-285.7288356247003
 11
-158.7255054439282
 21
-284.4200601144951
 72
     1
 10
-158.7255054439282
 20
-284.4200601144951
 11
-159.9182981460957
 21
-284.4200601144951
 72
     1
 10
-159.9182981460957
 20
-284.4200601144951
 11
-159.9182981460957
 21
-287.4738696383062
 72
     1
 10
-159.9182981460957
 20
-287.4738696383062
 11
-158.7255054439282
 21
-287.4738696383062
 72
     1
 10
-158.7255054439282
 20
-287.4738696383062
 11
-158.7255054439282
 21
-286.1650941281017
 72
     1
 10
-158.7255054439282
 20
-286.1650941281017
 11
-157.4850010336753
 21
-287.4738696383062
 72
     1
 10
-157.4850010336753
 20
-287.4738696383062
 11
-156.2922083315089
 21
-287.4738696383062
 72
     1
 10
-156.2922083315089
 20
-287.4738696383062
 11
-156.2922083315089
 21
-284.4200601144951
 72
     1
 10
-156.2922083315089
 20
-284.4200601144951
 11
-157.4850010336753
 21
-284.4200601144951
 72
     1
 10
-157.4850010336753
 20
-284.4200601144951
 11
-157.4850010336753
 21
-285.7288356247003
 97
       10
330
28C
330
25C
330
25B
330
25E
330
287
330
288
330
25D
330
289
330
28A
330
28B
 75
     1
 76
     2
 52
45.0
 41
0.1
 77
     0
 78
     1
 53
45.0
 43
62.7811309658083
 44
-72.3161373035813
 45
-0.1414213562373095
 46
0.0
 79
     0
 98
        1
 10
0.0
 20
0.0
  0
HATCH
  5
358
330
A0
100
AcDbEntity
  8
1
  6
Continuous
 62
     2
100
AcDbHatch
 10
0.0
 20
0.0
 30
0.0
210
0.0
220
0.0
230
1.0
  2
CUSTOM3
 70
     0
 71
     1
 91
        1
 92
        1
 93
       10
 72
     1
 10
-157.4850010336753
 20
-285.7288356247003
 11
-158.7255054439282
 21
-284.4200601144951
 72
     1
 10
-158.7255054439282
 20
-284.4200601144951
 11
-159.9182981460957
 21
-284.4200601144951
 72
     1
 10
-159.9182981460957
 20
-284.4200601144951
 11
-159.9182981460957
 21
-287.4738696383062
 72
     1
 10
-159.9182981460957
 20
-287.4738696383062
 11
-158.7255054439282
 21
-287.4738696383062
 72
     1
 10
-158.7255054439282
 20
-287.4738696383062
 11
-158.7255054439282
 21
-286.1650941281017
 72
     1
 10
-158.7255054439282
 20
-286.1650941281017
 11
-157.4850010336753
 21
-287.4738696383062
 72
     1
 10
-157.4850010336753
 20
-287.4738696383062
 11
-156.2922083315089
 21
-287.4738696383062
 72
     1
 10
-156.2922083315089
 20
-287.4738696383062
 11
-156.2922083315089
 21
-284.4200601144951
 72
     1
 10
-156.2922083315089
 20
-284.4200601144951
 11
-157.4850010336753
 21
-284.4200601144951
 72
     1
 10
-157.4850010336753
 20
-284.4200601144951
 11
-157.4850010336753
 21
-285.7288356247003
 97
       10
330
28C
330
25C
330
25B
330
25E
330
287
330
288
330
25D
330
289
330
28A
330
28B
 75
     1
 76
     2
 52
45.0
 41
0.1
 77
     0
 78
     1
 53
45.0
 43
62.7811309658083
 44
-72.3161373035813
 45
-0.1414213562373095
 46
0.0
 79
     0
 98
        1
 10
0.0
 20
0.0
  0
HATCH
  5
359
330
A0
100
AcDbEntity
  8
1
  6
Continuous
 62
     2
100
AcDbHatch
 10
0.0
 20
0.0
 30
0.0
210
0.0
220
0.0
230
1.0
  2
CUSTOM4
 70
     0
 71
     1
 91
        1
 92
        1
 93
       10
 72
     1
 10
-152.2365622132556
 20
-282.3696451485259
 11
-153.4770666235096
 21
-281.0608696383208
 72
     1
 10
-153.4770666235096
 20
-281.0608696383208
 11
-154.669859325676
 21
-281.0608696383208
 72
     1
 10
-154.669859325676
 20
-281.0608696383208
 11
-154.669859325676
 21
-284.1146791621319
 72
     1
 10
-154.669859325676
 20
-284.1146791621319
 11
-153.4770666235096
 21
-284.1146791621319
 72
     1
 10
-153.4770666235096
 20
-284.1146791621319
 11
-153.4770666235096
 21
-282.8059036519272
 72
     1
 10
-153.4770666235096
 20
-282.8059036519272
 11
-152.2365622132556
 21
-284.1146791621319
 72
     1
 10
-152.2365622132556
 20
-284.1146791621319
 11
-151.043769511089
 21
-284.1146791621319
 72
     1
 10
-151.043769511089
 20
-284.1146791621319
 11
-151.043769511089
 21
-281.0608696383208
 72
     1
 10
-151.043769511089
 20
-281.0608696383208
 11
-152.2365622132556
 21
-281.0608696383208
 72
     1
 10
-152.2365622132556
 20
-281.0608696383208
 11
-152.2365622132556
 21
-282.3696451485259
 97
       10
330
291
330
259
330
258
330
292
330
257
330
28D
330
28E
330
28F
330
290
330
25A
 75
     1
 76
     2
 52
45.0
 41
0.1
 77
     0
 78
     1
 53
45.0
 43
62.7811309658083
 44
-72.3161373035813
 45
-0.1414213562373095
 46
0.0
 79
     0
 98
        1
 10
0.0
 20
0.0
  0
HATCH
  5
35A
330
A0
100
AcDbEntity
  8
1
  6
Continuous
 62
     2
100
AcDbHatch
 10
0.0
 20
0.0
 30
0.0
210
0.0
220
0.0
230
1.0
  2
CUSTOM5
 70
     0
 71
     1
 91
        1
 92
        1
 93
       10
 72
     1
 10
-152.2365622132556
 20
-282.3696451485259
 11
-153.4770666235096
 21
-281.0608696383208
 72
     1
 10
-153.4770666235096
 20
-281.0608696383208
 11
-154.669859325676
 21
-281.0608696383208
 72
     1
 10
-154.669859325676
 20
-281.0608696383208
 11
-154.669859325676
 21
-284.1146791621319
 72
     1
 10
-154.669859325676
 20
-284.1146791621319
 11
-153.4770666235096
 21
-284.1146791621319
 72
     1
 10
-153.4770666235096
 20
-284.1146791621319
 11
-153.4770666235096
 21
-282.8059036519272
 72
     1
 10
-153.4770666235096
 20
-282.8059036519272
 11
-152.2365622132556
 21
-284.1146791621319
 72
     1
 10
-152.2365622132556
 20
-284.1146791621319
 11
-151.043769511089
 21
-284.1146791621319
 72
     1
 10
-151.043769511089
 20
-284.1146791621319
 11
-151.043769511089
 21
-281.0608696383208
 72
     1
 10
-151.043769511089
 20
-281.0608696383208
 11
-152.2365622132556
 21
-281.0608696383208
 72
     1
 10
-152.2365622132556
 20
-281.0608696383208
 11
-152.2365622132556
 21
-282.3696451485259
 97
       10
330
291
330
259
330
258
330
292
330
257
330
28D
330
28E
330
28F
330
290
330
25A
 75
     1
 76
     2
 52
45.0
 41
0.1
 77
     0
 78
     1
 53
45.0
 43
62.7811309658083
 44
-72.3161373035813
 45
-0.1414213562373095
 46
0.0
 79
     0
 98
        1
 10
0.0
 20
0.0
  0
HATCH
  5
35B
330
A0
100
AcDbEntity
  8
1
  6
Continuous
 62
     2
100
AcDbHatch
 10
0.0
 20
0.0
 30
0.0
210
0.0
220
0.0
230
1.0
  2
CUSTOM6
 70
     0
 71
     1
 91
        1
 92
        1
 93
        8
 72
     1
 10
-153.334082430135
 20
-284.4200601144951
 11
-156.1490732072487
 21
-284.4200601144951
 72
     1
 10
-156.1490732072487
 20
-284.4200601144951
 11
-156.1490732072487
 21
-285.2053254206188
 72
     1
 10
-156.1490732072487
 20
-285.2053254206188
 11
-155.337974169774
 21
-285.2053254206188
 72
     1
 10
-155.337974169774
 20
-285.2053254206188
 11
-155.337974169774
 21
-287.4738696383062
 72
     1
 10
-155.337974169774
 20
-287.4738696383062
 11
-154.1451814676076
 21
-287.4738696383062
 72
     1
 10
-154.1451814676076
 20
-287.4738696383062
 11
-154.1451814676076
 21
-285.2053254206188
 72
     1
 10
-154.1451814676076
 20
-285.2053254206188
 11
-153.334082430135
 21
-285.2053254206188
 72
     1
 10
-153.334082430135
 20
-285.2053254206188
 11
-153.334082430135
 21
-284.4200601144951
 97
        8
330
253
330
293
330
252
330
294
330
295
330
256
330
255
330
254
 75
     1
 76
     2
 52
45.0
 41
0.1
 77
     0
 78
     1
 53
45.0
 43
62.7811309658083
 44
-72.3161373035813
 45
-0.1414213562373095
 46
0.0
 79
     0
 98
        1
 10
0.0
 20
0.0
  0
HATCH
  5
35C
330
A0
100
AcDbEntity
  8
1
  6
Continuous
 62
     2
100
AcDbHatch
 10
0.0
 20
0.0
 30
0.0
210
0.0
220
0.0
230
1.0
  2
CUSTOM7
 70
     0
 71
     1
 91
        1
 92
        1
 93
        8
 72
     1
 10
-153.334082430135
 20
-284.4200601144951
 11
-156.1490732072487
 21
-284.4200601144951
 72
     1
 10
-156.1490732072487
 20
-284.4200601144951
 11
-156.1490732072487
 21
-285.2053254206188
 72
     1
 10
-156.1490732072487
 20
-285.2053254206188
 11
-155.337974169774
 21
-285.2053254206188
 72
     1
 10
-155.337974169774
 20
-285.2053254206188
 11
-155.337974169774
 21
-287.4738696383062
 72
     1
 10
-155.337974169774
 20
-287.4738696383062
 11
-154.1451814676076
 21
-287.4738696383062
 72
     1
 10
-154.1451814676076
 20
-287.4738696383062
 11
-154.1451814676076
 21
-285.2053254206188
 72
     1
 10
-154.1451814676076
 20
-285.2053254206188
 11
-153.334082430135
 21
-285.2053254206188
 72
     1
 10
-153.334082430135
 20
-285.2053254206188
 11
-153.334082430135
 21
-284.4200601144951
 97
        8
330
253
330
293
330
252
330
294
330
295
330
256
330
255
330
254
 75
     1
 76
     2
 52
45.0
 41
0.1
 77
     0
 78
     1
 53
45.0
 43
62.7811309658083
 44
-72.3161373035813
 45
-0.1414213562373095
 46
0.0
 79
     0
 98
        1
 10
0.0
 20
0.0
  0
HATCH
  5
35D
330
A0
100
AcDbEntity
  8
1
  6
Continuous
 62
     2
100
AcDbHatch
 10
0.0
 20
0.0
 30
0.0
210
0.0
220
0.0
230
1.0
  2
CUSTOM8
 70
     0
 71
     1
 91
        2
 92
        1
 93
        8
 72
     1
 10
-151.1956549741881
 20
-287.4738696383062
 11
-151.4071350276638
 21
-286.9329090940884
 72
     1
 10
-151.4071350276638
 20
-286.9329090940884
 11
-152.5395766043378
 21
-286.9329090940884
 72
     1
 10
-152.5395766043378
 20
-286.9329090940884
 11
-152.7510566578135
 21
-287.4738696383062
 72
     1
 10
-152.7510566578135
 20
-287.4738696383062
 11
-153.9915610680664
 21
-287.4738696383062
 72
     1
 10
-153.9915610680664
 20
-287.4738696383062
 11
-152.5936080211272
 21
-284.4200601144951
 72
     1
 10
-152.5936080211272
 20
-284.4200601144951
 11
-151.3531036108744
 21
-284.4200601144951
 72
     1
 10
-151.3531036108744
 20
-284.4200601144951
 11
-149.9551505639342
 21
-287.4738696383062
 72
     1
 10
-149.9551505639342
 20
-287.4738696383062
 11
-151.1956549741881
 21
-287.4738696383062
 97
        8
330
297
330
298
330
24F
330
299
330
24E
330
251
330
296
330
250
 92
       16
 93
        3
 72
     1
 10
-152.2735210531926
 20
-286.2523458287818
 11
-151.9733558160004
 21
-285.4845308627951
 72
     1
 10
-151.9733558160004
 20
-285.4845308627951
 11
-151.6731905788101
 21
-286.2523458287818
 72
     1
 10
-151.6731905788101
 20
-286.2523458287818
 11
-152.2735210531926
 21
-286.2523458287818
 97
        3
330
24D
330
29B
330
29A
 75
     1
 76
     2
 52
45.0
 41
0.1
 77
     0
 78
     1
 53
45.0
 43
62.7811309658083
 44
-72.3161373035813
 45
-0.1414213562373095
 46
0.0
 79
     0
 98
        1
 10
0.0
 20
0.0
  0
HATCH
  5
35E
330
A0
100
AcDbEntity
  8
1
  6
Continuous
 62
     2
100
AcDbHatch
 10
0.0
 20
0.0
 30
0.0
210
0.0
220
0.0
230
1.0
  2
CUSTOM9
 70
     0
 71
     1
 91
        2
 92
        1
 93
        8
 72
     1
 10
-151.1956549741881
 20
-287.4738696383062
 11
-151.4071350276638
 21
-286.9329090940884
 72
     1
 10
-151.4071350276638
 20
-286.9329090940884
 11
-152.5395766043378
 21
-286.9329090940884
 72
     1
 10
-152.5395766043378
 20
-286.9329090940884
 11
-152.7510566578135
 21
-287.4738696383062
 72
     1
 10
-152.7510566578135
 20
-287.4738696383062
 11
-153.9915610680664
 21
-287.4738696383062
 72
     1
 10
-153.9915610680664
 20
-287.4738696383062
 11
-152.5936080211272
 21
-284.4200601144951
 72
     1
 10
-152.5936080211272
 20
-284.4200601144951
 11
-151.3531036108744
 21
-284.4200601144951
 72
     1
 10
-151.3531036108744
 20
-284.4200601144951
 11
-149.9551505639342
 21
-287.4738696383062
 72
     1
 10
-149.9551505639342
 20
-287.4738696383062
 11
-151.1956549741881
 21
-287.4738696383062
 97
        8
330
297
330
298
330
24F
330
299
330
24E
330
251
330
296
330
250
 92
       16
 93
        3
 72
     1
 10
-152.2735210531926
 20
-286.2523458287818
 11
-151.9733558160004
 21
-285.4845308627951
 72
     1
 10
-151.9733558160004
 20
-285.4845308627951
 11
-151.6731905788101
 21
-286.2523458287818
 72
     1
 10
-151.6731905788101
 20
-286.2523458287818
 11
-152.2735210531926
 21
-286.2523458287818
 97
        3
330
24D
330
29B
330
29A
 75
     1
 76
     2
 52
45.0
 41
0.1
 77
     0
 78
     1
 53
45.0
 43
62.7811309658083
 44
-72.3161373035813
 45
-0.1414213562373095
 46
0.0
 79
     0
 98
        1
 10
0.0
 20
0.0
  0
HATCH
  5
35F
330
A0
100
AcDbEntity
  8
1
  6
Continuous
 62
     2
100
AcDbHatch
 10
0.0
 20
0.0
 30
0.0
210
0.0
220
0.0
230
1.0
  2
CUSTOM10
 70
     0
 71
     1
 91
        1
 92
        1
 93
        4
 72
     1
 10
-149.5647065604021
 20
-284.1146791621319
 11
-150.8052109706551
 21
-284.1146791621319
 72
     1
 10
-150.8052109706551
 20
-284.1146791621319
 11
-150.8052109706551
 21
-281.0608696383208
 72
     1
 10
-150.8052109706551
 20
-281.0608696383208
 11
-149.5647065604021
 21
-281.0608696383208
 72
     1
 10
-149.5647065604021
 20
-281.0608696383208
 11
-149.5647065604021
 21
-284.1146791621319
 97
        4
330
24A
330
24C
330
29C
330
24B
 75
     1
 76
     2
 52
45.0
 41
0.1
 77
     0
 78
     1
 53
45.0
 43
62.7811309658083
 44
-72.3161373035813
 45
-0.1414213562373095
 46
0.0
 79
     0
 98
        1
 10
0.0
 20
0.0
  0
HATCH
  5
360
330
A0
100
AcDbEntity
  8
1
  6
Continuous
 62
     2
100
AcDbHatch
 10
0.0
 20
0.0
 30
0.0
210
0.0
220
0.0
230
1.0
  2
CUSTOM11
 70
     0
 71
     1
 91
        1
 92
        1
 93
        4
 72
     1
 10
-149.5647065604021
 20
-284.1146791621319
 11
-150.8052109706551
 21
-284.1146791621319
 72
     1
 10
-150.8052109706551
 20
-284.1146791621319
 11
-150.8052109706551
 21
-281.0608696383208
 72
     1
 10
-150.8052109706551
 20
-281.0608696383208
 11
-149.5647065604021
 21
-281.0608696383208
 72
     1
 10
-149.5647065604021
 20
-281.0608696383208
 11
-149.5647065604021
 21
-284.1146791621319
 97
        4
330
24A
330
24C
330
29C
330
24B
 75
     1
 76
     2
 52
45.0
 41
0.1
 77
     0
 78
     1
 53
45.0
 43
62.7811309658083
 44
-72.3161373035813
 45
-0.1414213562373095
 46
0.0
 79
     0
 98
        1
 10
0.0
 20
0.0
  0
HATCH
  5
361
330
A0
100
AcDbEntity
  8
1
  6
Continuous
 62
     2
100
AcDbHatch
 10
0.0
 20
0.0
 30
0.0
210
0.0
220
0.0
230
1.0
  2
CUSTOM12
 70
     0
 71
     1
 91
        1
 92
        1
 93
       12
 72
     1
 10
-145.3422203947313
 20
-281.0608696383208
 11
-146.6447500254979
 21
-282.533820168357
 72
     1
 10
-146.6447500254979
 20
-282.533820168357
 11
-145.2467969785577
 21
-284.1146791621319
 72
     1
 10
-145.2467969785577
 20
-284.1146791621319
 11
-146.649521196306
 21
-284.1146791621319
 72
     1
 10
-146.649521196306
 20
-284.1146791621319
 11
-147.3461121343713
 21
-283.3269473768382
 72
     1
 10
-147.3461121343713
 20
-283.3269473768382
 11
-148.0427030724372
 21
-284.1146791621319
 72
     1
 10
-148.0427030724372
 20
-284.1146791621319
 11
-149.4454272901853
 21
-284.1146791621319
 72
     1
 10
-149.4454272901853
 20
-284.1146791621319
 11
-148.047474243245
 21
-282.533820168357
 72
     1
 10
-148.047474243245
 20
-282.533820168357
 11
-149.3500038740124
 21
-281.0608696383208
 72
     1
 10
-149.3500038740124
 20
-281.0608696383208
 11
-147.9472796562633
 21
-281.0608696383208
 72
     1
 10
-147.9472796562633
 20
-281.0608696383208
 11
-147.3461121343713
 21
-281.7406929598763
 72
     1
 10
-147.3461121343713
 20
-281.7406929598763
 11
-146.7449446124786
 21
-281.0608696383208
 72
     1
 10
-146.7449446124786
 20
-281.0608696383208
 11
-145.3422203947313
 21
-281.0608696383208
 97
       12
330
245
330
244
330
243
330
2A0
330
2A1
330
29D
330
29E
330
249
330
248
330
247
330
246
330
29F
 75
     1
 76
     2
 52
45.0
 41
0.1
 77
     0
 78
     1
 53
45.0
 43
62.7811309658083
 44
-72.3161373035813
 45
-0.1414213562373095
 46
0.0
 79
     0
 98
        1
 10
0.0
 20
0.0
  0
HATCH
  5
362
330
A0
100
AcDbEntity
  8
1
  6
Continuous
 62
     2
100
AcDbHatch
 10
0.0
 20
0.0
 30
0.0
210
0.0
220
0.0
230
1.0
  2
CUSTOM13
 70
     0
 71
     1
 91
        1
 92
        1
 93
       12
 72
     1
 10
-145.3422203947313
 20
-281.0608696383208
 11
-146.6447500254979
 21
-282.533820168357
 72
     1
 10
-146.6447500254979
 20
-282.533820168357
 11
-145.2467969785577
 21
-284.1146791621319
 72
     1
 10
-145.2467969785577
 20
-284.1146791621319
 11
-146.649521196306
 21
-284.1146791621319
 72
     1
 10
-146.649521196306
 20
-284.1146791621319
 11
-147.3461121343713
 21
-283.3269473768382
 72
     1
 10
-147.3461121343713
 20
-283.3269473768382
 11
-148.0427030724372
 21
-284.1146791621319
 72
     1
 10
-148.0427030724372
 20
-284.1146791621319
 11
-149.4454272901853
 21
-284.1146791621319
 72
     1
 10
-149.4454272901853
 20
-284.1146791621319
 11
-148.047474243245
 21
-282.533820168357
 72
     1
 10
-148.047474243245
 20
-282.533820168357
 11
-149.3500038740124
 21
-281.0608696383208
 72
     1
 10
-149.3500038740124
 20
-281.0608696383208
 11
-147.9472796562633
 21
-281.0608696383208
 72
     1
 10
-147.9472796562633
 20
-281.0608696383208
 11
-147.3461121343713
 21
-281.7406929598763
 72
     1
 10
-147.3461121343713
 20
-281.7406929598763
 11
-146.7449446124786
 21
-281.0608696383208
 72
     1
 10
-146.7449446124786
 20
-281.0608696383208
 11
-145.3422203947313
 21
-281.0608696383208
 97
       12
330
245
330
244
330
243
330
2A0
330
2A1
330
29D
330
29E
330
249
330
248
330
247
330
246
330
29F
 75
     1
 76
     2
 52
45.0
 41
0.1
 77
     0
 78
     1
 53
45.0
 43
62.7811309658083
 44
-72.3161373035813
 45
-0.1414213562373095
 46
0.0
 79
     0
 98
        1
 10
0.0
 20
0.0
  0
HATCH
  5
363
330
A0
100
AcDbEntity
  8
1
  6
Continuous
 62
     2
100
AcDbHatch
 10
0.0
 20
0.0
 30
0.0
210
0.0
220
0.0
230
1.0
  2
CUSTOM14
 70
     0
 71
     1
 91
        2
 92
        1
 93
        6
 72
     1
 10
-164.3599558088773
 20
-283.1716009209882
 11
-165.1187233966577
 21
-283.1716009209882
 72
     1
 10
-165.1187233966577
 20
-283.1716009209882
 11
-165.1187233966577
 21
-284.1146791621319
 72
     1
 10
-165.1187233966577
 20
-284.1146791621319
 11
-166.3592278069118
 21
-284.1146791621319
 72
     1
 10
-166.3592278069118
 20
-284.1146791621319
 11
-166.3592278069118
 21
-281.0608696383208
 72
     1
 10
-166.3592278069118
 20
-281.0608696383208
 11
-164.3599558088773
 21
-281.0608696383208
 72
     2
 10
-164.3599558088773
 20
-282.1162352796545
 40
1.055365641333708
 50
270.0
 51
450.0
 73
     0
 97
        6
330
26D
330
26C
330
279
330
278
330
26E
330
2FF
 92
       16
 93
        4
 72
     2
 10
-164.8014283351157
 20
-282.076839308432
 40
0.3528638246710898
 50
270.0
 51
450.0
 73
     1
 72
     1
 10
-164.8014283351157
 20
-281.7239754837608
 11
-165.1187233966577
 21
-281.7239754837608
 72
     1
 10
-165.1187233966577
 20
-281.7239754837608
 11
-165.1187233966577
 21
-282.4297031331031
 72
     1
 10
-165.1187233966577
 20
-282.4297031331031
 11
-164.8014283351157
 21
-282.4297031331031
 97
        4
330
313
330
26A
330
27A
330
26B
 75
     1
 76
     2
 52
45.0
 41
0.1
 77
     0
 78
     1
 53
45.0
 43
62.7811309658083
 44
-72.3161373035813
 45
-0.1414213562373095
 46
0.0
 79
     0
 98
        1
 10
0.0
 20
0.0
  0
HATCH
  5
364
330
A0
100
AcDbEntity
  8
1
  6
Continuous
 62
     2
100
AcDbHatch
 10
0.0
 20
0.0
 30
0.0
210
0.0
220
0.0
230
1.0
  2
CUSTOM15
 70
     0
 71
     1
 91
        2
 92
        1
 93
        6
 72
     1
 10
-164.3599558088773
 20
-283.1716009209882
 11
-165.1187233966577
 21
-283.1716009209882
 72
     1
 10
-165.1187233966577
 20
-283.1716009209882
 11
-165.1187233966577
 21
-284.1146791621319
 72
     1
 10
-165.1187233966577
 20
-284.1146791621319
 11
-166.3592278069118
 21
-284.1146791621319
 72
     1
 10
-166.3592278069118
 20
-284.1146791621319
 11
-166.3592278069118
 21
-281.0608696383208
 72
     1
 10
-166.3592278069118
 20
-281.0608696383208
 11
-164.3599558088773
 21
-281.0608696383208
 72
     2
 10
-164.3599558088773
 20
-282.1162352796545
 40
1.055365641333708
 50
270.0
 51
450.0
 73
     0
 97
        6
330
26D
330
26C
330
279
330
278
330
26E
330
2FF
 92
       16
 93
        4
 72
     2
 10
-164.8014283351157
 20
-282.076839308432
 40
0.3528638246710898
 50
270.0
 51
450.0
 73
     1
 72
     1
 10
-164.8014283351157
 20
-281.7239754837608
 11
-165.1187233966577
 21
-281.7239754837608
 72
     1
 10
-165.1187233966577
 20
-281.7239754837608
 11
-165.1187233966577
 21
-282.4297031331031
 72
     1
 10
-165.1187233966577
 20
-282.4297031331031
 11
-164.8014283351157
 21
-282.4297031331031
 97
        4
330
313
330
26A
330
27A
330
26B
 75
     1
 76
     2
 52
45.0
 41
0.1
 77
     0
 78
     1
 53
45.0
 43
62.7811309658083
 44
-72.3161373035813
 45
-0.1414213562373095
 46
0.0
 79
     0
 98
        1
 10
0.0
 20
0.0
  0
HATCH
  5
365
330
A0
100
AcDbEntity
  8
1
  6
Continuous
 62
     2
100
AcDbHatch
 10
0.0
 20
0.0
 30
0.0
210
0.0
220
0.0
230
1.0
  2
CUSTOM16
 70
     0
 71
     1
 91
        2
 92
        1
 93
        4
 72
     2
 10
-161.8034130605182
 20
-286.4855398867038
 40
2.065479772208656
 50
62.45185182430676
 51
117.5481481756681
 73
     1
 72
     2
 10
-162.0843529523517
 20
-285.946964876401
 40
1.458034083651526
 50
117.5481481756579
 51
242.45185182434
 73
     1
 72
     2
 10
-161.8034130605182
 20
-285.4083898660976
 40
2.065479772208637
 50
242.4518518243384
 51
297.5481481756867
 73
     1
 72
     2
 10
-161.5224731686851
 20
-285.946964876401
 40
1.458034083652083
 50
297.5481481757095
 51
422.4518518242925
 73
     1
 97
        4
330
30B
330
30A
330
30C
330
309
 92
       16
 93
        4
 72
     2
 10
-162.0031530968647
 20
-285.946964876401
 40
0.7717997786795351
 50
321.8795802028432
 51
398.1204197971668
 73
     1
 72
     2
 10
-161.8034130605182
 20
-285.7902336982805
 40
0.5179085730132135
 50
38.12041979717052
 51
141.8795802028547
 73
     1
 72
     2
 10
-161.6036730241723
 20
-285.946964876401
 40
0.7717997786794615
 50
141.8795802028228
 51
218.1204197971672
 73
     1
 72
     2
 10
-161.8034130605182
 20
-286.1036960545209
 40
0.5179085730137849
 50
218.1204197971849
 51
321.8795802027899
 73
     1
 97
        4
330
327
330
324
330
325
330
326
 75
     1
 76
     2
 52
45.0
 41
0.1
 77
     0
 78
     1
 53
45.0
 43
62.7811309658083
 44
-72.3161373035813
 45
-0.1414213562373095
 46
0.0
 79
     0
 98
        1
 10
0.0
 20
0.0
  0
HATCH
  5
366
330
A0
100
AcDbEntity
  8
1
  6
Continuous
 62
     2
100
AcDbHatch
 10
0.0
 20
0.0
 30
0.0
210
0.0
220
0.0
230
1.0
  2
CUSTOM17
 70
     0
 71
     1
 91
        2
 92
        1
 93
        4
 72
     2
 10
-161.8034130605182
 20
-286.4855398867038
 40
2.065479772208656
 50
62.45185182430676
 51
117.5481481756681
 73
     1
 72
     2
 10
-162.0843529523517
 20
-285.946964876401
 40
1.458034083651526
 50
117.5481481756579
 51
242.45185182434
 73
     1
 72
     2
 10
-161.8034130605182
 20
-285.4083898660976
 40
2.065479772208637
 50
242.4518518243384
 51
297.5481481756867
 73
     1
 72
     2
 10
-161.5224731686851
 20
-285.946964876401
 40
1.458034083652083
 50
297.5481481757095
 51
422.4518518242925
 73
     1
 97
        4
330
30B
330
30A
330
30C
330
309
 92
       16
 93
        4
 72
     2
 10
-162.0031530968647
 20
-285.946964876401
 40
0.7717997786795351
 50
321.8795802028432
 51
398.1204197971668
 73
     1
 72
     2
 10
-161.8034130605182
 20
-285.7902336982805
 40
0.5179085730132135
 50
38.12041979717052
 51
141.8795802028547
 73
     1
 72
     2
 10
-161.6036730241723
 20
-285.946964876401
 40
0.7717997786794615
 50
141.8795802028228
 51
218.1204197971672
 73
     1
 72
     2
 10
-161.8034130605182
 20
-286.1036960545209
 40
0.5179085730137849
 50
218.1204197971849
 51
321.8795802027899
 73
     1
 97
        4
330
327
330
324
330
325
330
326
 75
     1
 76
     2
 52
45.0
 41
0.1
 77
     0
 78
     1
 53
45.0
 43
62.7811309658083
 44
-72.3161373035813
 45
-0.1414213562373095
 46
0.0
 79
     0
 98
        1
 10
0.0
 20
0.0
  0
HATCH
  5
367
330
A0
100
AcDbEntity
  8
1
  6
Continuous
 62
     2
100
AcDbHatch
 10
0.0
 20
0.0
 30
0.0
210
0.0
220
0.0
230
1.0
  2
CUSTOM18
 70
     0
 71
     1
 91
        2
 92
        1
 93
       12
 72
     1
 10
-154.908417866109
 20
-281.7588832437637
 11
-156.2443456925367
 21
-281.7588832437637
 72
     1
 10
-156.2443456925367
 20
-281.7588832437637
 11
-156.2443456925367
 21
-282.2387675975054
 72
     1
 10
-156.2443456925367
 20
-282.2387675975054
 11
-154.908417866109
 21
-282.2387675975054
 72
     1
 10
-154.908417866109
 20
-282.2387675975054
 11
-154.908417866109
 21
-282.9367812029478
 72
     1
 10
-154.908417866109
 20
-282.9367812029478
 11
-156.2443456925367
 21
-282.9367812029478
 72
     1
 10
-156.2443456925367
 20
-282.9367812029478
 11
-156.2443456925367
 21
-283.4166655566895
 72
     1
 10
-156.2443456925367
 20
-283.4166655566895
 11
-154.908417866109
 21
-283.4166655566895
 72
     1
 10
-154.908417866109
 20
-283.4166655566895
 11
-154.908417866109
 21
-284.1146791621319
 72
     1
 10
-154.908417866109
 20
-284.1146791621319
 11
-158.0587375898899
 21
-284.1146791621319
 72
     2
 10
-158.0587375898899
 20
-282.5877744002266
 40
1.526904761905769
 50
90.0
 51
270.0
 73
     0
 72
     1
 10
-158.0587375898899
 20
-281.0608696383208
 11
-154.908417866109
 21
-281.0608696383208
 72
     1
 10
-154.908417866109
 20
-281.0608696383208
 11
-154.908417866109
 21
-281.7588832437637
 97
       12
330
281
330
314
330
282
330
283
330
284
330
285
330
262
330
261
330
260
330
25F
330
286
330
280
 92
       16
 93
        4
 72
     2
 10
-157.8424655797248
 20
-282.4310432221061
 40
0.5179085730133669
 50
38.12041979714121
 51
141.8795802028666
 73
     1
 72
     2
 10
-157.6427255433785
 20
-282.5877744002266
 40
0.7717997786796917
 50
141.8795802028523
 51
218.120419797151
 73
     1
 72
     2
 10
-157.8424655797248
 20
-282.7445055783471
 40
0.5179085730134564
 50
218.1204197971334
 51
321.8795802028588
 73
     1
 72
     2
 10
-158.0422056160709
 20
-282.5877744002266
 40
0.7717997786794808
 50
321.8795802028346
 51
398.120419797162
 73
     1
 97
        4
330
30E
330
30D
330
308
330
307
 75
     1
 76
     2
 52
45.0
 41
0.1
 77
     0
 78
     1
 53
45.0
 43
62.7811309658083
 44
-72.3161373035813
 45
-0.1414213562373095
 46
0.0
 79
     0
 98
        1
 10
0.0
 20
0.0
  0
HATCH
  5
368
330
A0
100
AcDbEntity
  8
1
  6
Continuous
 62
     2
100
AcDbHatch
 10
0.0
 20
0.0
 30
0.0
210
0.0
220
0.0
230
1.0
  2
CUSTOM19
 70
     0
 71
     1
 91
        2
 92
        1
 93
       12
 72
     1
 10
-154.908417866109
 20
-281.7588832437637
 11
-156.2443456925367
 21
-281.7588832437637
 72
     1
 10
-156.2443456925367
 20
-281.7588832437637
 11
-156.2443456925367
 21
-282.2387675975054
 72
     1
 10
-156.2443456925367
 20
-282.2387675975054
 11
-154.908417866109
 21
-282.2387675975054
 72
     1
 10
-154.908417866109
 20
-282.2387675975054
 11
-154.908417866109
 21
-282.9367812029478
 72
     1
 10
-154.908417866109
 20
-282.9367812029478
 11
-156.2443456925367
 21
-282.9367812029478
 72
     1
 10
-156.2443456925367
 20
-282.9367812029478
 11
-156.2443456925367
 21
-283.4166655566895
 72
     1
 10
-156.2443456925367
 20
-283.4166655566895
 11
-154.908417866109
 21
-283.4166655566895
 72
     1
 10
-154.908417866109
 20
-283.4166655566895
 11
-154.908417866109
 21
-284.1146791621319
 72
     1
 10
-154.908417866109
 20
-284.1146791621319
 11
-158.0587375898899
 21
-284.1146791621319
 72
     2
 10
-158.0587375898899
 20
-282.5877744002266
 40
1.526904761905769
 50
90.0
 51
270.0
 73
     0
 72
     1
 10
-158.0587375898899
 20
-281.0608696383208
 11
-154.908417866109
 21
-281.0608696383208
 72
     1
 10
-154.908417866109
 20
-281.0608696383208
 11
-154.908417866109
 21
-281.7588832437637
 97
       12
330
281
330
314
330
282
330
283
330
284
330
285
330
262
330
261
330
260
330
25F
330
286
330
280
 92
       16
 93
        4
 72
     2
 10
-157.8424655797248
 20
-282.4310432221061
 40
0.5179085730133669
 50
38.12041979714121
 51
141.8795802028666
 73
     1
 72
     2
 10
-157.6427255433785
 20
-282.5877744002266
 40
0.7717997786796917
 50
141.8795802028523
 51
218.120419797151
 73
     1
 72
     2
 10
-157.8424655797248
 20
-282.7445055783471
 40
0.5179085730134564
 50
218.1204197971334
 51
321.8795802028588
 73
     1
 72
     2
 10
-158.0422056160709
 20
-282.5877744002266
 40
0.7717997786794808
 50
321.8795802028346
 51
398.120419797162
 73
     1
 97
        4
330
30E
330
30D
330
308
330
307
 75
     1
 76
     2
 52
45.0
 41
0.1
 77
     0
 78
     1
 53
45.0
 43
62.7811309658083
 44
-72.3161373035813
 45
-0.1414213562373095
 46
0.0
 79
     0
 98
        1
 10
0.0
 20
0.0
  0
HATCH
  5
369
330
A0
100
AcDbEntity
  8
1
  6
Continuous
 62
     2
100
AcDbHatch
 10
0.0
 20
0.0
 30
0.0
210
0.0
220
0.0
230
1.0
  2
CUSTOM20
 70
     0
 71
     1
 91
        4
 92
        1
 93
        8
 72
     1
 10
-166.8363448877786
 20
-281.4851142537228
 11
-166.8363448877786
 21
-287.049625022923
 72
     2
 10
-167.2605895031624
 20
-287.049625022923
 40
0.424244615383202
 50
0.0
 51
90.0
 73
     0
 72
     1
 10
-167.2605895031624
 20
-287.4738696383062
 11
-172.7339015938794
 21
-287.4738696383062
 72
     2
 10
-172.7339015938794
 20
-287.049625022923
 40
0.4242446153826904
 50
90.0
 51
180.0
 73
     0
 72
     1
 10
-173.1581462092621
 20
-287.049625022923
 11
-173.1581462092621
 21
-281.4851142537228
 72
     2
 10
-172.7339015938794
 20
-281.4851142537228
 40
0.424244615383941
 50
180.0
 51
270.0
 73
     0
 72
     1
 10
-172.7339015938794
 20
-281.0608696383389
 11
-167.2605895031624
 21
-281.0608696383389
 72
     2
 10
-167.2605895031624
 20
-281.4851142537228
 40
0.4242446153837989
 50
270.0
 51
360.0
 73
     0
 97
        8
330
275
330
304
330
276
330
30F
330
273
330
306
330
274
330
305
 92
       16
 93
       12
 72
     2
 10
-172.1400069171328
 20
-286.4455971596726
 40
0.3157169230755983
 50
180.0
 51
270.0
 73
     1
 72
     1
 10
-172.1400069171328
 20
-286.7613140827493
 11
-170.6641736561232
 21
-286.7613140827493
 72
     2
 10
-170.6641736561232
 20
-286.4455971596726
 40
0.3157169230767067
 50
270.0
 51
360.0
 73
     1
 72
     1
 10
-170.3484567330467
 20
-286.4455971596726
 11
-170.3484567330467
 21
-284.914826228141
 72
     2
 10
-170.6641736561232
 20
-284.914826228141
 40
0.3157169230765078
 50
0.0
 51
64.805589351446
 73
     1
 72
     2
 10
-170.1415892085483
 20
-283.8039964820783
 40
0.9118975235576071
 50
115.194410648504
 51
244.8055893514854
 73
     0
 72
     2
 10
-170.6641736561232
 20
-282.6931667360161
 40
0.3157169230760658
 50
295.1944106485672
 51
360.0
 73
     1
 72
     1
 10
-170.3484567330467
 20
-282.6931667360161
 11
-170.3484567330467
 21
-282.0891421169555
 72
     2
 10
-170.6641736561232
 20
-282.0891421169555
 40
0.3157169230765078
 50
0.0
 51
90.0
 73
     1
 72
     1
 10
-170.6641736561232
 20
-281.7734251938794
 11
-172.1400069171328
 21
-281.7734251938794
 72
     2
 10
-172.1400069171328
 20
-282.0891421169555
 40
0.3157169230760815
 50
90.0
 51
180.0
 73
     1
 72
     1
 10
-172.4557238402084
 20
-282.0891421169555
 11
-172.4557238402084
 21
-286.4455971596726
 97
       12
330
300
330
277
330
303
330
272
330
310
330
311
330
302
330
271
330
301
330
270
330
312
330
26F
 92
       16
 93
        8
 72
     2
 10
-169.5644582306011
 20
-284.9131380820466
 40
0.3157169230764963
 50
115.3740086783378
 51
180.0
 73
     1
 72
     1
 10
-169.8801751536778
 20
-284.9131380820466
 11
-169.8801751536778
 21
-285.4949894887417
 72
     2
 10
-169.5644582306011
 20
-285.4949894887417
 40
0.3157169230767067
 50
180.0
 51
269.8110329574335
 73
     1
 72
     2
 10
-169.558842095291
 20
-283.7921545411727
 40
2.018561131933267
 50
269.8110329575802
 51
450.1889670424198
 73
     1
 72
     2
 10
-169.5644582306011
 20
-282.0893195936037
 40
0.3157169230761851
 50
90.1889670425665
 51
180.0
 73
     1
 72
     1
 10
-169.8801751536778
 20
-282.0893195936037
 11
-169.8801751536778
 21
-282.6948548821105
 72
     2
 10
-169.5644582306011
 20
-282.6948548821105
 40
0.3157169230767067
 50
180.0
 51
244.6259913216533
 73
     1
 72
     2
 10
-170.090500928689
 20
-283.8039964820783
 40
0.9118481501444307
 50
295.3740086781975
 51
424.6259913218148
 73
     0
 97
        8
330
31C
330
23C
330
319
330
31A
330
2F8
330
23B
330
31B
330
2F7
 92
       16
 93
        1
 72
     2
 10
-170.1143159433617
 20
-283.8039964820783
 40
0.4709789327783938
 50
0.0
 51
360.0
 73
     1
 97
        1
330
32A
 75
     1
 76
     2
 52
45.0
 41
0.1
 77
     0
 78
     1
 53
45.0
 43
62.7811309658083
 44
-72.3161373035813
 45
-0.1414213562373095
 46
0.0
 79
     0
 98
        1
 10
0.0
 20
0.0
  0
HATCH
  5
36A
330
A0
100
AcDbEntity
  8
1
  6
Continuous
 62
     2
100
AcDbHatch
 10
0.0
 20
0.0
 30
0.0
210
0.0
220
0.0
230
1.0
  2
CUSTOM21
 70
     0
 71
     1
 91
        4
 92
        1
 93
        8
 72
     1
 10
-166.8363448877786
 20
-281.4851142537228
 11
-166.8363448877786
 21
-287.049625022923
 72
     2
 10
-167.2605895031624
 20
-287.049625022923
 40
0.424244615383202
 50
0.0
 51
90.0
 73
     0
 72
     1
 10
-167.2605895031624
 20
-287.4738696383062
 11
-172.7339015938794
 21
-287.4738696383062
 72
     2
 10
-172.7339015938794
 20
-287.049625022923
 40
0.4242446153826904
 50
90.0
 51
180.0
 73
     0
 72
     1
 10
-173.1581462092621
 20
-287.049625022923
 11
-173.1581462092621
 21
-281.4851142537228
 72
     2
 10
-172.7339015938794
 20
-281.4851142537228
 40
0.424244615383941
 50
180.0
 51
270.0
 73
     0
 72
     1
 10
-172.7339015938794
 20
-281.0608696383389
 11
-167.2605895031624
 21
-281.0608696383389
 72
     2
 10
-167.2605895031624
 20
-281.4851142537228
 40
0.4242446153837989
 50
270.0
 51
360.0
 73
     0
 97
        8
330
275
330
304
330
276
330
30F
330
273
330
306
330
274
330
305
 92
       16
 93
       12
 72
     2
 10
-172.1400069171328
 20
-286.4455971596726
 40
0.3157169230755983
 50
180.0
 51
270.0
 73
     1
 72
     1
 10
-172.1400069171328
 20
-286.7613140827493
 11
-170.6641736561232
 21
-286.7613140827493
 72
     2
 10
-170.6641736561232
 20
-286.4455971596726
 40
0.3157169230767067
 50
270.0
 51
360.0
 73
     1
 72
     1
 10
-170.3484567330467
 20
-286.4455971596726
 11
-170.3484567330467
 21
-284.914826228141
 72
     2
 10
-170.6641736561232
 20
-284.914826228141
 40
0.3157169230765078
 50
0.0
 51
64.805589351446
 73
     1
 72
     2
 10
-170.1415892085483
 20
-283.8039964820783
 40
0.9118975235576071
 50
115.194410648504
 51
244.8055893514854
 73
     0
 72
     2
 10
-170.6641736561232
 20
-282.6931667360161
 40
0.3157169230760658
 50
295.1944106485672
 51
360.0
 73
     1
 72
     1
 10
-170.3484567330467
 20
-282.6931667360161
 11
-170.3484567330467
 21
-282.0891421169555
 72
     2
 10
-170.6641736561232
 20
-282.0891421169555
 40
0.3157169230765078
 50
0.0
 51
90.0
 73
     1
 72
     1
 10
-170.6641736561232
 20
-281.7734251938794
 11
-172.1400069171328
 21
-281.7734251938794
 72
     2
 10
-172.1400069171328
 20
-282.0891421169555
 40
0.3157169230760815
 50
90.0
 51
180.0
 73
     1
 72
     1
 10
-172.4557238402084
 20
-282.0891421169555
 11
-172.4557238402084
 21
-286.4455971596726
 97
       12
330
300
330
277
330
303
330
272
330
310
330
311
330
302
330
271
330
301
330
270
330
312
330
26F
 92
       16
 93
        8
 72
     2
 10
-169.5644582306011
 20
-284.9131380820466
 40
0.3157169230764963
 50
115.3740086783378
 51
180.0
 73
     1
 72
     1
 10
-169.8801751536778
 20
-284.9131380820466
 11
-169.8801751536778
 21
-285.4949894887417
 72
     2
 10
-169.5644582306011
 20
-285.4949894887417
 40
0.3157169230767067
 50
180.0
 51
269.8110329574335
 73
     1
 72
     2
 10
-169.558842095291
 20
-283.7921545411727
 40
2.018561131933267
 50
269.8110329575802
 51
450.1889670424198
 73
     1
 72
     2
 10
-169.5644582306011
 20
-282.0893195936037
 40
0.3157169230761851
 50
90.1889670425665
 51
180.0
 73
     1
 72
     1
 10
-169.8801751536778
 20
-282.0893195936037
 11
-169.8801751536778
 21
-282.6948548821105
 72
     2
 10
-169.5644582306011
 20
-282.6948548821105
 40
0.3157169230767067
 50
180.0
 51
244.6259913216533
 73
     1
 72
     2
 10
-170.090500928689
 20
-283.8039964820783
 40
0.9118481501444307
 50
295.3740086781975
 51
424.6259913218148
 73
     0
 97
        8
330
31C
330
23C
330
319
330
31A
330
2F8
330
23B
330
31B
330
2F7
 92
       16
 93
        1
 72
     2
 10
-170.1143159433617
 20
-283.8039964820783
 40
0.4709789327783938
 50
0.0
 51
360.0
 73
     1
 97
        1
330
32A
 75
     1
 76
     2
 52
45.0
 41
0.1
 77
     0
 78
     1
 53
45.0
 43
62.7811309658083
 44
-72.3161373035813
 45
-0.1414213562373095
 46
0.0
 79
     0
 98
        1
 10
0.0
 20
0.0
  0
HATCH
  5
36B
330
A0
100
AcDbEntity
  8
1
  6
Continuous
 62
     2
100
AcDbHatch
 10
0.0
 20
0.0
 30
0.0
210
0.0
220
0.0
230
1.0
  2
CUSTOM22
 70
     0
 71
     1
 91
        1
 92
        1
 93
       18
 72
     1
 10
-145.2467969785577
 20
-285.2053254206188
 11
-146.057896016031
 21
-285.2053254206188
 72
     1
 10
-146.057896016031
 20
-285.2053254206188
 11
-146.057896016031
 21
-287.4738696383062
 72
     1
 10
-146.057896016031
 20
-287.4738696383062
 11
-147.2506887181988
 21
-287.4738696383062
 72
     1
 10
-147.2506887181988
 20
-287.4738696383062
 11
-147.2506887181988
 21
-285.2053254206188
 72
     1
 10
-147.2506887181988
 20
-285.2053254206188
 11
-148.3543280177669
 21
-285.2053254206188
 72
     2
 10
-148.3543280177669
 20
-286.1598484274449
 40
0.9545230068260935
 50
90.0
 51
109.3371432194233
 73
     1
 72
     2
 10
-148.5009980158706
 20
-285.7418934470619
 40
0.5115800601943766
 50
109.3371432194733
 51
151.4785267424192
 73
     1
 72
     2
 10
-148.1236407577891
 20
-285.946964876401
 40
0.9410597353349331
 50
151.4785267423579
 51
208.5214732576695
 73
     1
 72
     2
 10
-148.5009980158706
 20
-286.1520363057395
 40
0.5115800601959217
 50
208.5214732576927
 51
246.6277221118399
 73
     1
 72
     2
 10
-148.3445579831673
 20
-285.7900442870295
 40
0.9059297849852547
 50
246.6277221118039
 51
288.4480761180721
 73
     1
 72
     2
 10
-148.7627257168294
 20
-284.5364985109928
 40
2.227384008972719
 50
288.4480761181337
 51
301.930908949942
 73
     1
 72
     1
 10
-147.5846706748054
 20
-286.4268492301426
 11
-147.5846706748054
 21
-287.2993662369459
 72
     2
 10
-148.9205985919221
 20
-282.6342839311445
 40
4.852596863498833
 50
74.02000874166154
 51
84.84185523036264
 73
     0
 72
     2
 10
-148.6317424971863
 20
-285.8341745143661
 40
1.639695123940421
 50
84.84185523031984
 51
164.9381082228985
 73
     0
 72
     2
 10
-149.050870340648
 20
-285.946964876401
 40
1.205656168392893
 50
164.9381082229066
 51
195.0618917770986
 73
     0
 72
     2
 10
-148.6317424971863
 20
-286.0597552384358
 40
1.639695123940101
 50
195.0618917771015
 51
270.0
 73
     0
 72
     1
 10
-148.6317424971863
 20
-284.4200601144957
 11
-145.2467969785577
 21
-284.4200601144951
 72
     1
 10
-145.2467969785577
 20
-284.4200601144951
 11
-145.2467969785577
 21
-285.2053254206188
 97
       18
330
23E
330
315
330
316
330
2FE
330
2FD
330
2A2
330
2FC
330
2FB
330
317
330
2FA
330
318
330
2F9
330
2A3
330
23D
330
242
330
241
330
240
330
23F
 75
     1
 76
     2
 52
45.0
 41
0.1
 77
     0
 78
     1
 53
45.0
 43
62.7811309658083
 44
-72.3161373035813
 45
-0.1414213562373095
 46
0.0
 79
     0
 98
        1
 10
0.0
 20
0.0
  0
HATCH
  5
36C
330
A0
100
AcDbEntity
  8
1
  6
Continuous
 62
     2
100
AcDbHatch
 10
0.0
 20
0.0
 30
0.0
210
0.0
220
0.0
230
1.0
  2
CUSTOM23
 70
     0
 71
     1
 91
        1
 92
        1
 93
       18
 72
     1
 10
-145.2467969785577
 20
-285.2053254206188
 11
-146.057896016031
 21
-285.2053254206188
 72
     1
 10
-146.057896016031
 20
-285.2053254206188
 11
-146.057896016031
 21
-287.4738696383062
 72
     1
 10
-146.057896016031
 20
-287.4738696383062
 11
-147.2506887181988
 21
-287.4738696383062
 72
     1
 10
-147.2506887181988
 20
-287.4738696383062
 11
-147.2506887181988
 21
-285.2053254206188
 72
     1
 10
-147.2506887181988
 20
-285.2053254206188
 11
-148.3543280177669
 21
-285.2053254206188
 72
     2
 10
-148.3543280177669
 20
-286.1598484274449
 40
0.9545230068260935
 50
90.0
 51
109.3371432194233
 73
     1
 72
     2
 10
-148.5009980158706
 20
-285.7418934470619
 40
0.5115800601943766
 50
109.3371432194733
 51
151.4785267424192
 73
     1
 72
     2
 10
-148.1236407577891
 20
-285.946964876401
 40
0.9410597353349331
 50
151.4785267423579
 51
208.5214732576695
 73
     1
 72
     2
 10
-148.5009980158706
 20
-286.1520363057395
 40
0.5115800601959217
 50
208.5214732576927
 51
246.6277221118399
 73
     1
 72
     2
 10
-148.3445579831673
 20
-285.7900442870295
 40
0.9059297849852547
 50
246.6277221118039
 51
288.4480761180721
 73
     1
 72
     2
 10
-148.7627257168294
 20
-284.5364985109928
 40
2.227384008972719
 50
288.4480761181337
 51
301.930908949942
 73
     1
 72
     1
 10
-147.5846706748054
 20
-286.4268492301426
 11
-147.5846706748054
 21
-287.2993662369459
 72
     2
 10
-148.9205985919221
 20
-282.6342839311445
 40
4.852596863498833
 50
74.02000874166154
 51
84.84185523036264
 73
     0
 72
     2
 10
-148.6317424971863
 20
-285.8341745143661
 40
1.639695123940421
 50
84.84185523031984
 51
164.9381082228985
 73
     0
 72
     2
 10
-149.050870340648
 20
-285.946964876401
 40
1.205656168392893
 50
164.9381082229066
 51
195.0618917770986
 73
     0
 72
     2
 10
-148.6317424971863
 20
-286.0597552384358
 40
1.639695123940101
 50
195.0618917771015
 51
270.0
 73
     0
 72
     1
 10
-148.6317424971863
 20
-284.4200601144957
 11
-145.2467969785577
 21
-284.4200601144951
 72
     1
 10
-145.2467969785577
 20
-284.4200601144951
 11
-145.2467969785577
 21
-285.2053254206188
 97
       18
330
23E
330
315
330
316
330
2FE
330
2FD
330
2A2
330
2FC
330
2FB
330
317
330
2FA
330
318
330
2F9
330
2A3
330
23D
330
242
330
241
330
240
330
23F
 75
     1
 76
     2
 52
45.0
 41
0.1
 77
     0
 78
     1
 53
45.0
 43
62.7811309658083
 44
-72.3161373035813
 45
-0.1414213562373095
 46
0.0
 79
     0
 98
        1
 10
0.0
 20
0.0
  0
HATCH
  5
36D
330
A0
100
AcDbEntity
  8
1
  6
Continuous
 62
     2
100
AcDbHatch
 10
0.0
 20
0.0
 30
0.0
210
0.0
220
0.0
230
1.0
  2
CUSTOM24
 70
     0
 71
     1
 91
        1
 92
        1
 93
       14
 72
     2
 10
-164.7344439764391
 20
-286.0597552384358
 40
1.639695123940499
 50
84.84185523036533
 51
164.9381082228913
 73
     1
 72
     2
 10
-165.1535718199019
 20
-285.946964876401
 40
1.205656168391054
 50
164.9381082228779
 51
195.0618917770935
 73
     1
 72
     2
 10
-164.7344439764391
 20
-285.8341745143661
 40
1.639695123939519
 50
195.0618917770914
 51
275.1581447696363
 73
     1
 72
     2
 10
-165.023300071175
 20
-282.6342839311445
 40
4.852596863498214
 50
275.1581447696235
 51
285.9799912583527
 73
     1
 72
     1
 10
-163.6873721540572
 20
-287.2993662369454
 11
-163.6873721540572
 21
-286.4268492301421
 72
     2
 10
-164.8654271960822
 20
-284.5364985109923
 40
2.227384008972773
 50
58.06909105003648
 51
71.55192388186677
 73
     0
 72
     2
 10
-164.4472594624213
 20
-285.7900442870295
 40
0.90592978498486
 50
71.55192388184723
 51
113.3722778881384
 73
     0
 72
     2
 10
-164.6036994951234
 20
-286.1520363057395
 40
0.5115800601947491
 50
113.3722778881806
 51
151.4785267423156
 73
     0
 72
     2
 10
-164.226342237043
 20
-285.946964876401
 40
0.9410597353333294
 50
151.4785267423028
 51
208.5214732577306
 73
     0
 72
     2
 10
-164.6036994951234
 20
-285.7418934470619
 40
0.511580060194863
 50
208.5214732576844
 51
246.6277221117967
 73
     0
 72
     2
 10
-164.4472594624213
 20
-286.1038854657725
 40
0.9059297849853498
 50
246.6277221118644
 51
288.4480761181402
 73
     0
 72
     2
 10
-164.8654271960822
 20
-287.3574312418091
 40
2.22738400897348
 50
288.4480761181333
 51
301.9309089499635
 73
     0
 72
     1
 10
-163.6873721540572
 20
-285.4670805226593
 11
-163.6873721540572
 21
-284.594563515856
 72
     2
 10
-165.023300071175
 20
-289.2596458216568
 40
4.852596863497986
 50
74.0200087416471
 51
84.84185523037642
 73
     1
 97
       14
330
31D
330
31E
330
31F
330
320
330
2A4
330
2F6
330
2F5
330
2F4
330
321
330
322
330
2F3
330
323
330
2A5
330
2F2
 75
     1
 76
     2
 52
45.0
 41
0.1
 77
     0
 78
     1
 53
45.0
 43
62.7811309658083
 44
-72.3161373035813
 45
-0.1414213562373095
 46
0.0
 79
     0
 98
        1
 10
0.0
 20
0.0
  0
HATCH
  5
36E
330
A0
100
AcDbEntity
  8
1
  6
Continuous
 62
     2
100
AcDbHatch
 10
0.0
 20
0.0
 30
0.0
210
0.0
220
0.0
230
1.0
  2
CUSTOM25
 70
     0
 71
     1
 91
        1
 92
        1
 93
       14
 72
     2
 10
-164.7344439764391
 20
-286.0597552384358
 40
1.639695123940499
 50
84.84185523036533
 51
164.9381082228913
 73
     1
 72
     2
 10
-165.1535718199019
 20
-285.946964876401
 40
1.205656168391054
 50
164.9381082228779
 51
195.0618917770935
 73
     1
 72
     2
 10
-164.7344439764391
 20
-285.8341745143661
 40
1.639695123939519
 50
195.0618917770914
 51
275.1581447696363
 73
     1
 72
     2
 10
-165.023300071175
 20
-282.6342839311445
 40
4.852596863498214
 50
275.1581447696235
 51
285.9799912583527
 73
     1
 72
     1
 10
-163.6873721540572
 20
-287.2993662369454
 11
-163.6873721540572
 21
-286.4268492301421
 72
     2
 10
-164.8654271960822
 20
-284.5364985109923
 40
2.227384008972773
 50
58.06909105003648
 51
71.55192388186677
 73
     0
 72
     2
 10
-164.4472594624213
 20
-285.7900442870295
 40
0.90592978498486
 50
71.55192388184723
 51
113.3722778881384
 73
     0
 72
     2
 10
-164.6036994951234
 20
-286.1520363057395
 40
0.5115800601947491
 50
113.3722778881806
 51
151.4785267423156
 73
     0
 72
     2
 10
-164.226342237043
 20
-285.946964876401
 40
0.9410597353333294
 50
151.4785267423028
 51
208.5214732577306
 73
     0
 72
     2
 10
-164.6036994951234
 20
-285.7418934470619
 40
0.511580060194863
 50
208.5214732576844
 51
246.6277221117967
 73
     0
 72
     2
 10
-164.4472594624213
 20
-286.1038854657725
 40
0.9059297849853498
 50
246.6277221118644
 51
288.4480761181402
 73
     0
 72
     2
 10
-164.8654271960822
 20
-287.3574312418091
 40
2.22738400897348
 50
288.4480761181333
 51
301.9309089499635
 73
     0
 72
     1
 10
-163.6873721540572
 20
-285.4670805226593
 11
-163.6873721540572
 21
-284.594563515856
 72
     2
 10
-165.023300071175
 20
-289.2596458216568
 40
4.852596863497986
 50
74.0200087416471
 51
84.84185523037642
 73
     1
 97
       14
330
31D
330
31E
330
31F
330
320
330
2A4
330
2F6
330
2F5
330
2F4
330
321
330
322
330
2F3
330
323
330
2A5
330
2F2
 75
     1
 76
     2
 52
45.0
 41
0.1
 77
     0
 78
     1
 53
45.0
 43
62.7811309658083
 44
-72.3161373035813
 45
-0.1414213562373095
 46
0.0
 79
     0
 98
        1
 10
0.0
 20
0.0
  0
ENDBLK
  5
A2
330
A0
100
AcDbEntity
  8
0
100
AcDbBlockEnd
  0
BLOCK
  5
A4
330
A3
100
AcDbEntity
  8
0
100
AcDbBlockBegin
  2
_punkt
 70
     0
 10
-47.84999656907479
 20
-294.7673696383225
 30
0.0
  3
_punkt
  1

  0
LINE
  5
36F
330
A3
100
AcDbEntity
  8
1
  6
Continuous
 62
     2
100
AcDbLine
 10
-47.84999656907473
 20
-294.7673696383225
 30
0.0
 11
-42.84999656907712
 21
-294.7673696383225
 31
0.0
  0
LINE
  5
370
330
A3
100
AcDbEntity
  8
1
  6
Continuous
 62
     2
100
AcDbLine
 10
-47.84999656907473
 20
-294.7673696383225
 30
0.0
 11
-47.84999656907473
 21
-299.767369638322
 31
0.0
  0
ENDBLK
  5
A5
330
A3
100
AcDbEntity
  8
0
100
AcDbBlockEnd
  0
BLOCK
  5
A9
330
A6
100
AcDbEntity
  8
0
100
AcDbBlockBegin
  2
A3I_CS
 70
     0
 10
-47.84999656907473
 20
-299.767369638322
 30
0.0
  3
A3I_CS
  1

  0
INSERT
  5
A7
330
A6
100
AcDbEntity
  8
1
100
AcDbBlockReference
  2
_rahmen
 10
-47.84999656907473
 20
-299.767369638322
 30
0.0
  0
INSERT
  5
A8
330
A6
100
AcDbEntity
  8
1
100
AcDbBlockReference
  2
_punkt
 10
-47.84999656907479
 20
-294.7673696383225
 30
0.0
  0
ENDBLK
  5
AA
330
A6
100
AcDbEntity
  8
0
100
AcDbBlockEnd
  0
BLOCK
  5
B3
330
AB
100
AcDbEntity
  8
0
100
AcDbBlockBegin
  2
1
 70
     0
 10
0.0
 20
0.0
 30
0.0
  3
1
  1

  0
INSERT
  5
AC
330
AB
100
AcDbEntity
  8
0
100
AcDbBlockReference
  2
Allg1
 10
-129.9999999998003
 20
-191.058823496723
 30
0.0
  0
INSERT
  5
AD
330
AB
100
AcDbEntity
  8
0
100
AcDbBlockReference
  2
Drfsicht1
 10
-295.8499981905397
 20
-163.949998049366
 30
0.0
  0
INSERT
  5
AE
330
AB
100
AcDbEntity
  8
0
100
AcDbBlockReference
  2
Rückansicht1
 10
-116.1500018092313
 20
-89.00000000006008
 30
0.0
  0
INSERT
  5
AF
330
AB
100
AcDbEntity
  8
0
100
AcDbBlockReference
  2
SA_Links1
 10
-206.0
 20
-89.00000000012004
 30
0.0
  0
INSERT
  5
B0
330
AB
100
AcDbEntity
  8
0
100
AcDbBlockReference
  2
SA_Rechts1
 10
-394.699997713731
 20
-89.00000000006003
 30
0.0
  0
INSERT
  5
B1
330
AB
100
AcDbEntity
  8
0
100
AcDbBlockReference
  2
Vordans1
 10
-295.8499982862688
 20
-89.00000000006003
 30
0.0
  0
INSERT
  5
B2
330
AB
100
AcDbEntity
  8
0
100
AcDbBlockReference
  2
A3I_CS
 10
-47.84999656907473
 20
-299.767369638322
 30
0.0
  0
ENDBLK
  5
B4
330
AB
100
AcDbEntity
  8
0
100
AcDbBlockEnd
  0
BLOCK
  5
14A
330
143
100
AcDbEntity
  8
0
100
AcDbBlockBegin
  2
*D17
 70
     1
 10
0.0
 20
0.0
 30
0.0
  3
*D17
  1

  0
LINE
  5
144
330
143
100
AcDbEntity
  8
1
  6
Continuous
 62
     2
100
AcDbLine
 10
-350.3499965690763
 20
-138.5999984338158
 30
0.0
 11
-350.3499965690763
 21
-189.2999984338159
 31
0.0
  0
LINE
  5
145
330
143
100
AcDbEntity
  8
1
  6
Continuous
 62
     2
100
AcDbLine
 10
-340.3499965690763
 20
-189.2999984338159
 30
0.0
 11
-351.8499965690763
 21
-189.2999984338159
 31
0.0
  0
LINE
  5
146
330
143
100
AcDbEntity
  8
1
  6
Continuous
 62
     2
100
AcDbLine
 10
-340.3499965690763
 20
-138.5999984338158
 30
0.0
 11
-351.8499965690763
 21
-138.5999984338158
 31
0.0
  0
SOLID
  5
147
330
143
100
AcDbEntity
  8
1
 62
     2
100
AcDbTrace
 10
-349.8892128275204
 20
-142.0999984338158
 30
0.0
 11
-350.8107803106321
 21
-142.0999984338158
 31
0.0
 12
-350.3499965690763
 22
-138.5999984338158
 32
0.0
 13
-350.3499965690763
 23
-138.5999984338158
 33
0.0
  0
SOLID
  5
148
330
143
100
AcDbEntity
  8
1
 62
     2
100
AcDbTrace
 10
-350.8107803106321
 20
-185.7999984338159
 30
0.0
 11
-349.8892128275204
 21
-185.7999984338159
 31
0.0
 12
-350.3499965690763
 22
-189.2999984338159
 32
0.0
 13
-350.3499965690763
 23
-189.2999984338159
 33
0.0
  0
MTEXT
  5
149
330
143
100
AcDbEntity
  8
1
 62
     3
100
AcDbMText
 10
-352.1999965690763
 20
-167.983228420197
 30
0.0
 40
3.5
 41
0.0
 71
     7
 72
     1
  1
50,7
  7
CONVERTER_11
 11
0.0
 21
1.0
 31
0.0
 73
     1
 44
0.60024009603842
  0
ENDBLK
  5
14B
330
143
100
AcDbEntity
  8
0
100
AcDbBlockEnd
  0
BLOCK
  5
155
330
14E
100
AcDbEntity
  8
0
100
AcDbBlockBegin
  2
*D18
 70
     1
 10
0.0
 20
0.0
 30
0.0
  3
*D18
  1

  0
LINE
  5
14F
330
14E
100
AcDbEntity
  8
1
  6
Continuous
 62
     2
100
AcDbLine
 10
-340.3499965690763
 20
-118.5999984338158
 30
0.0
 11
-251.3499965690762
 21
-118.5999984338158
 31
0.0
  0
LINE
  5
150
330
14E
100
AcDbEntity
  8
1
  6
Continuous
 62
     2
100
AcDbLine
 10
-340.3499965690763
 20
-138.5999984338158
 30
0.0
 11
-340.3499965690763
 21
-117.0999984338158
 31
0.0
  0
LINE
  5
151
330
14E
100
AcDbEntity
  8
1
  6
Continuous
 62
     2
100
AcDbLine
 10
-251.3499965690762
 20
-147.4499984338158
 30
0.0
 11
-251.3499965690762
 21
-117.0999984338158
 31
0.0
  0
SOLID
  5
152
330
14E
100
AcDbEntity
  8
1
 62
     2
100
AcDbTrace
 10
-336.8499965690763
 20
-118.1392146922599
 30
0.0
 11
-336.8499965690763
 21
-119.0607821753717
 31
0.0
 12
-340.3499965690763
 22
-118.5999984338158
 32
0.0
 13
-340.3499965690763
 23
-118.5999984338158
 33
0.0
  0
SOLID
  5
153
330
14E
100
AcDbEntity
  8
1
 62
     2
100
AcDbTrace
 10
-254.8499965690762
 20
-119.0607821753717
 30
0.0
 11
-254.8499965690762
 21
-118.1392146922599
 31
0.0
 12
-251.3499965690762
 22
-118.5999984338158
 32
0.0
 13
-251.3499965690762
 23
-118.5999984338158
 33
0.0
  0
MTEXT
  5
154
330
14E
100
AcDbEntity
  8
1
 62
     3
100
AcDbMText
 10
-302.4046222586296
 20
-117.1000053908921
 30
0.0
 40
3.5
 41
0.0
 71
     7
 72
     1
  1
\C3;(\C3;89\C3;)
  7
CONVERTER_11
 11
0.9999999999970619
 21
2.424068405545306E-6
 31
0.0
 73
     1
 44
0.60024009603842
  0
ENDBLK
  5
156
330
14E
100
AcDbEntity
  8
0
100
AcDbBlockEnd
  0
BLOCK
  5
160
330
159
100
AcDbEntity
  8
0
100
AcDbBlockBegin
  2
*D19
 70
     1
 10
0.0
 20
0.0
 30
0.0
  3
*D19
  1

  0
LINE
  5
15A
330
159
100
AcDbEntity
  8
1
  6
Continuous
 62
     2
100
AcDbLine
 10
-340.3499965690763
 20
-128.5999984338158
 30
0.0
 11
-252.8499965690763
 21
-128.5999984338158
 31
0.0
  0
LINE
  5
15B
330
159
100
AcDbEntity
  8
1
  6
Continuous
 62
     2
100
AcDbLine
 10
-340.3499965690763
 20
-138.5999984338158
 30
0.0
 11
-340.3499965690763
 21
-127.0999984338158
 31
0.0
  0
LINE
  5
15C
330
159
100
AcDbEntity
  8
1
  6
Continuous
 62
     2
100
AcDbLine
 10
-252.8499965690763
 20
-138.5999984338158
 30
0.0
 11
-252.8499965690763
 21
-127.0999984338158
 31
0.0
  0
SOLID
  5
15D
330
159
100
AcDbEntity
  8
1
 62
     2
100
AcDbTrace
 10
-336.8499965690763
 20
-128.1392146922599
 30
0.0
 11
-336.8499965690763
 21
-129.0607821753717
 31
0.0
 12
-340.3499965690763
 22
-128.5999984338158
 32
0.0
 13
-340.3499965690763
 23
-128.5999984338158
 33
0.0
  0
SOLID
  5
15E
330
159
100
AcDbEntity
  8
1
 62
     2
100
AcDbTrace
 10
-256.3499965690763
 20
-129.0607821753717
 30
0.0
 11
-256.3499965690763
 21
-128.1392146922599
 31
0.0
 12
-252.8499965690763
 22
-128.5999984338158
 32
0.0
 13
-252.8499965690763
 23
-128.5999984338158
 33
0.0
  0
MTEXT
  5
15F
330
159
100
AcDbEntity
  8
1
 62
     3
100
AcDbMText
 10
-301.4124965690763
 20
-126.7499984338158
 30
0.0
 40
3.5
 41
0.0
 71
     7
 72
     1
  1
87,5
  7
CONVERTER_11
 11
0.9999999999970619
 21
2.424068405545306E-6
 31
0.0
 73
     1
 44
0.60024009603842
  0
ENDBLK
  5
161
330
159
100
AcDbEntity
  8
0
100
AcDbBlockEnd
  0
BLOCK
  5
220
330
218
100
AcDbEntity
  8
0
100
AcDbBlockBegin
  2
*D20
 70
     1
 10
0.0
 20
0.0
 30
0.0
  3
*D20
  1

  0
LINE
  5
219
330
218
100
AcDbEntity
  8
1
  6
Continuous
 62
     2
100
AcDbLine
 10
-350.3499966648054
 20
-94.59999980938512
 30
0.0
 11
-350.3499966648054
 21
-104.298917013834
 31
0.0
  0
LINE
  5
21A
330
218
100
AcDbEntity
  8
1
  6
Continuous
 62
     2
100
AcDbLine
 10
-350.3499966648054
 20
-83.39999980938515
 30
0.0
 11
-350.3499966648054
 21
-94.59999980938512
 31
0.0
  0
LINE
  5
21B
330
218
100
AcDbEntity
  8
1
  6
Continuous
 62
     2
100
AcDbLine
 10
-337.7886639085447
 20
-94.59999980938512
 30
0.0
 11
-351.8499966648054
 21
-94.59999980938512
 31
0.0
  0
LINE
  5
21C
330
218
100
AcDbEntity
  8
1
  6
Continuous
 62
     2
100
AcDbLine
 10
-340.3499966648054
 20
-83.39999980938515
 30
0.0
 11
-351.8499966648054
 21
-83.39999980938515
 31
0.0
  0
SOLID
  5
21D
330
218
100
AcDbEntity
  8
1
 62
     2
100
AcDbTrace
 10
-349.8892129232495
 20
-86.89999980938515
 30
0.0
 11
-350.8107804063613
 21
-86.89999980938515
 31
0.0
 12
-350.3499966648054
 22
-83.39999980938515
 32
0.0
 13
-350.3499966648054
 23
-83.39999980938515
 33
0.0
  0
SOLID
  5
21E
330
218
100
AcDbEntity
  8
1
 62
     2
100
AcDbTrace
 10
-350.8107804063613
 20
-91.09999980938512
 30
0.0
 11
-349.8892129232495
 21
-91.09999980938512
 31
0.0
 12
-350.3499966648054
 22
-94.59999980938512
 32
0.0
 13
-350.3499966648054
 23
-94.59999980938512
 33
0.0
  0
MTEXT
  5
21F
330
218
100
AcDbEntity
  8
1
 62
     3
100
AcDbMText
 10
-352.1999966648054
 20
-104.298917013834
 30
0.0
 40
3.5
 41
0.0
 71
     7
 72
     1
  1
11,2
  7
CONVERTER_11
 11
0.0
 21
1.0
 31
0.0
 73
     1
 44
0.60024009603842
  0
ENDBLK
  5
221
330
218
100
AcDbEntity
  8
0
100
AcDbBlockEnd
  0
ENDSEC
  0
SECTION
  2
ENTITIES
  0
INSERT
  5
B5
330
1F
100
AcDbEntity
  8
1
100
AcDbBlockReference
  2
1
 10
0.0
 20
0.0
 30
0.0
  0
ENDSEC
  0
SECTION
  2
OBJECTS
  0
DICTIONARY
  5
C
330
0
100
AcDbDictionary
281
     1
  3
ACAD_DETAILVIEWSTYLE
350
3B6
  3
ACAD_GROUP
350
D
  3
ACAD_LAYOUT
350
1A
  3
ACAD_MATERIAL
350
43
  3
ACAD_MLEADERSTYLE
350
6B
  3
ACAD_MLINESTYLE
350
17
  3
ACAD_PLOTSETTINGS
350
19
  3
ACAD_PLOTSTYLENAME
350
E
  3
ACAD_SCALELIST
350
47
  3
ACAD_SECTIONVIEWSTYLE
350
3B7
  3
ACAD_TABLESTYLE
350
69
  3
ACAD_VISUALSTYLE
350
2A
  3
ACDB_RECOMPOSE_DATA
350
3B3
  3
AcDbVariableDictionary
350
373
  0
DICTIONARY
  5
371
330
8
100
AcDbDictionary
280
     1
281
     1
  3
ACAD_XREC_ROUNDTRIP
360
372
  0
DICTIONARY
  5
3B6
102
{ACAD_REACTORS
330
C
102
}
330
C
100
AcDbDictionary
281
     1
  0
DICTIONARY
  5
D
102
{ACAD_REACTORS
330
C
102
}
330
C
100
AcDbDictionary
281
     1
  0
DICTIONARY
  5
1A
102
{ACAD_REACTORS
330
C
102
}
330
C
100
AcDbDictionary
281
     1
  3
Layout1
350
1E
  3
Layout2
350
26
  3
Model
350
22
  0
DICTIONARY
  5
43
102
{ACAD_REACTORS
330
C
102
}
330
C
100
AcDbDictionary
281
     1
  3
ByBlock
350
45
  3
ByLayer
350
44
  3
Global
350
46
  0
DICTIONARY
  5
6B
102
{ACAD_REACTORS
330
C
102
}
330
C
100
AcDbDictionary
281
     1
  3
Standard
350
6C
  0
DICTIONARY
  5
17
102
{ACAD_REACTORS
330
C
102
}
330
C
100
AcDbDictionary
281
     1
  3
Standard
350
18
  0
DICTIONARY
  5
19
102
{ACAD_REACTORS
330
C
102
}
330
C
100
AcDbDictionary
281
     1
  0
ACDBDICTIONARYWDFLT
  5
E
102
{ACAD_REACTORS
330
C
102
}
330
C
100
AcDbDictionary
281
     1
  3
Normal
350
F
100
AcDbDictionaryWithDefault
340
F
  0
DICTIONARY
  5
47
102
{ACAD_REACTORS
330
C
102
}
330
C
100
AcDbDictionary
281
     1
  3
A0
350
48
  3
A1
350
49
  3
A2
350
4A
  3
A3
350
4B
  3
A4
350
4C
  3
A5
350
4D
  3
A6
350
4E
  3
A7
350
4F
  3
A8
350
50
  3
A9
350
51
  3
B0
350
52
  3
B1
350
53
  3
B2
350
54
  3
B3
350
55
  3
B4
350
56
  3
B5
350
57
  3
B6
350
58
  3
B7
350
59
  3
B8
350
5A
  3
B9
350
5B
  3
C0
350
5C
  3
C1
350
5D
  3
C2
350
5E
  3
C3
350
5F
  3
C4
350
60
  3
C5
350
61
  3
C6
350
62
  3
C7
350
63
  3
C8
350
64
  3
C9
350
65
  3
D0
350
66
  3
D1
350
67
  3
D2
350
68
  0
DICTIONARY
  5
3B7
102
{ACAD_REACTORS
330
C
102
}
330
C
100
AcDbDictionary
281
     1
  0
DICTIONARY
  5
69
102
{ACAD_REACTORS
330
C
102
}
330
C
100
AcDbDictionary
281
     1
  3
Standard
350
6A
  0
DICTIONARY
  5
2A
102
{ACAD_REACTORS
330
C
102
}
330
C
100
AcDbDictionary
281
     1
  3
2dWireframe
350
2F
  3
Basic
350
32
  3
Brighten
350
36
  3
ColorChange
350
3A
  3
Conceptual
350
34
  3
Dim
350
35
  3
EdgeColorOff
350
3D
  3
Facepattern
350
39
  3
Flat
350
2B
  3
FlatWithEdges
350
2C
  3
Gouraud
350
2D
  3
GouraudWithEdges
350
2E
  3
Hidden
350
31
  3
JitterOff
350
3B
  3
Linepattern
350
38
  3
OverhangOff
350
3C
  3
Realistic
350
33
  3
Shaded
350
42
  3
Shaded with edges
350
41
  3
Shades of Gray
350
3E
  3
Sketchy
350
3F
  3
Thicken
350
37
  3
Wireframe
350
30
  3
X-Ray
350
40
  0
XRECORD
  5
3B3
102
{ACAD_REACTORS
330
C
102
}
330
C
100
AcDbXrecord
280
     1
 90
        1
330
6A
  0
DICTIONARY
  5
373
102
{ACAD_REACTORS
330
C
102
}
330
C
100
AcDbDictionary
281
     1
  3
CANNOSCALE
350
374
  3
CMLEADERSTYLE
350
3B5
  3
CTABLESTYLE
350
3B4
  3
MSLTSCALE
350
375
  3
XCLIPFRAME
350
376
  0
XRECORD
  5
372
102
{ACAD_REACTORS
330
371
102
}
330
371
100
AcDbXrecord
280
     1
102
VTR_0.000_0.000_1.000_1.000_VISUALSTYLE
340
2F
102
VTR_0.000_0.000_1.000_1.000_GRIDDISPLAY
 70
     3
102
VTR_0.000_0.000_1.000_1.000_GRIDMAJOR
 70
     5
102
VTR_0.000_0.000_1.000_1.000_DEFAULTLIGHTING
280
     1
102
VTR_0.000_0.000_1.000_1.000_DEFAULTLIGHTINGTYPE
 70
     1
102
VTR_0.000_0.000_1.000_1.000_BRIGHTNESS
141
0.0
102
VTR_0.000_0.000_1.000_1.000_CONTRAST
142
0.0
  0
LAYOUT
  5
1E
102
{ACAD_REACTORS
330
1A
102
}
330
1A
100
AcDbPlotSettings
  1

  2
none_device
  4

  6

 40
0.0
 41
0.0
 42
0.0
 43
0.0
 44
0.0
 45
0.0
 46
0.0
 47
0.0
 48
0.0
 49
0.0
140
0.0
141
0.0
142
1.0
143
1.0
 70
   688
 72
     0
 73
     0
 74
     5
  7

 75
    16
 76
     0
 77
     2
 78
   300
147
1.0
148
0.0
149
0.0
100
AcDbLayout
  1
Layout1
 70
     1
 71
     1
 10
0.0
 20
0.0
 11
12.0
 21
9.0
 12
0.0
 22
0.0
 32
0.0
 14
1.00000000000000E+20
 24
1.00000000000000E+20
 34
1.00000000000000E+20
 15
-1.00000000000000E+20
 25
-1.00000000000000E+20
 35
-1.00000000000000E+20
146
0.0
 13
0.0
 23
0.0
 33
0.0
 16
1.0
 26
0.0
 36
0.0
 17
0.0
 27
1.0
 37
0.0
 76
     0
330
1B
  0
LAYOUT
  5
26
102
{ACAD_REACTORS
330
1A
102
}
330
1A
100
AcDbPlotSettings
  1

  2
none_device
  4

  6

 40
0.0
 41
0.0
 42
0.0
 43
0.0
 44
0.0
 45
0.0
 46
0.0
 47
0.0
 48
0.0
 49
0.0
140
0.0
141
0.0
142
1.0
143
1.0
 70
   688
 72
     0
 73
     0
 74
     5
  7

 75
    16
 76
     0
 77
     2
 78
   300
147
1.0
148
0.0
149
0.0
100
AcDbLayout
  1
Layout2
 70
     1
 71
     2
 10
0.0
 20
0.0
 11
0.0
 21
0.0
 12
0.0
 22
0.0
 32
0.0
 14
0.0
 24
0.0
 34
0.0
 15
0.0
 25
0.0
 35
0.0
146
0.0
 13
0.0
 23
0.0
 33
0.0
 16
1.0
 26
0.0
 36
0.0
 17
0.0
 27
1.0
 37
0.0
 76
     0
330
23
  0
LAYOUT
  5
22
102
{ACAD_REACTORS
330
1A
102
}
330
1A
100
AcDbPlotSettings
  1

  2
none_device
  4
Letter_(8.50_x_11.00_Inches)
  6

 40
6.35
 41
6.35
 42
6.35000508
 43
6.35000508
 44
215.9
 45
279.4
 46
0.0
 47
0.0
 48
0.0
 49
0.0
140
0.0
141
0.0
142
1.0
143
1.0
 70
  1712
 72
     0
 73
     0
 74
     0
  7

 75
     0
 76
     0
 77
     2
 78
   300
147
1.0
148
0.0
149
0.0
100
AcDbLayout
  1
Model
 70
     1
 71
     0
 10
0.0
 20
0.0
 11
12.0
 21
9.0
 12
0.0
 22
0.0
 32
0.0
 14
-462.8499965690755
 24
-299.767369638322
 34
0.0
 15
-42.84999656907712
 25
-2.76736963832202
 35
0.0
146
0.0
 13
0.0
 23
0.0
 33
0.0
 16
1.0
 26
0.0
 36
0.0
 17
0.0
 27
1.0
 37
0.0
 76
     0
330
1F
331
29
  0
MATERIAL
  5
45
102
{ACAD_REACTORS
330
43
102
}
102
{ACAD_XDICTIONARY
360
3A9
102
}
330
43
100
AcDbMaterial
  1
ByBlock
  0
MATERIAL
  5
44
102
{ACAD_REACTORS
330
43
102
}
102
{ACAD_XDICTIONARY
360
3A7
102
}
330
43
100
AcDbMaterial
  1
ByLayer
  0
MATERIAL
  5
46
102
{ACAD_REACTORS
330
43
102
}
102
{ACAD_XDICTIONARY
360
3AB
102
}
330
43
100
AcDbMaterial
  1
Global
  0
MLEADERSTYLE
  5
6C
102
{ACAD_REACTORS
330
6B
102
}
102
{ACAD_XDICTIONARY
360
3B1
102
}
330
6B
100
AcDbMLeaderStyle
170
     2
171
     1
172
     0
 90
        2
 40
0.0
 41
0.0
173
     1
 91
-1056964608
340
14
 92
       -2
290
     1
 42
0.09
291
     1
 43
0.36
  3
Standard
341
0
 44
0.18
300

342
11
174
     1
178
     6
175
     1
176
     0
 93
-1056964608
 45
0.18
292
     0
297
     0
 46
0.18
343
0
 94
-1056964608
 47
1.0
 49
1.0
140
1.0
293
     1
141
0.0
294
     1
177
     0
142
1.0
295
     0
296
     0
143
0.125
1001
ACAD_MLEADERVER
1070
     2
  0
MLINESTYLE
  5
18
102
{ACAD_REACTORS
330
17
102
}
330
17
100
AcDbMlineStyle
  2
Standard
 70
     0
  3

 62
   256
 51
90.0
 52
90.0
 71
     2
 49
0.5
 62
   256
  6
BYLAYER
 49
-0.5
 62
   256
  6
BYLAYER
  0
ACDBPLACEHOLDER
  5
F
102
{ACAD_REACTORS
330
E
102
}
330
E
  0
SCALE
  5
48
102
{ACAD_REACTORS
330
47
102
}
330
47
100
AcDbScale
 70
     0
300
1:1
140
1.0
141
1.0
290
     1
  0
SCALE
  5
49
102
{ACAD_REACTORS
330
47
102
}
330
47
100
AcDbScale
 70
     0
300
1:2
140
1.0
141
2.0
290
     0
  0
SCALE
  5
4A
102
{ACAD_REACTORS
330
47
102
}
330
47
100
AcDbScale
 70
     0
300
1:4
140
1.0
141
4.0
290
     0
  0
SCALE
  5
4B
102
{ACAD_REACTORS
330
47
102
}
330
47
100
AcDbScale
 70
     0
300
1:5
140
1.0
141
5.0
290
     0
  0
SCALE
  5
4C
102
{ACAD_REACTORS
330
47
102
}
330
47
100
AcDbScale
 70
     0
300
1:8
140
1.0
141
8.0
290
     0
  0
SCALE
  5
4D
102
{ACAD_REACTORS
330
47
102
}
330
47
100
AcDbScale
 70
     0
300
1:10
140
1.0
141
10.0
290
     0
  0
SCALE
  5
4E
102
{ACAD_REACTORS
330
47
102
}
330
47
100
AcDbScale
 70
     0
300
1:16
140
1.0
141
16.0
290
     0
  0
SCALE
  5
4F
102
{ACAD_REACTORS
330
47
102
}
330
47
100
AcDbScale
 70
     0
300
1:20
140
1.0
141
20.0
290
     0
  0
SCALE
  5
50
102
{ACAD_REACTORS
330
47
102
}
330
47
100
AcDbScale
 70
     0
300
1:30
140
1.0
141
30.0
290
     0
  0
SCALE
  5
51
102
{ACAD_REACTORS
330
47
102
}
330
47
100
AcDbScale
 70
     0
300
1:40
140
1.0
141
40.0
290
     0
  0
SCALE
  5
52
102
{ACAD_REACTORS
330
47
102
}
330
47
100
AcDbScale
 70
     0
300
1:50
140
1.0
141
50.0
290
     0
  0
SCALE
  5
53
102
{ACAD_REACTORS
330
47
102
}
330
47
100
AcDbScale
 70
     0
300
1:100
140
1.0
141
100.0
290
     0
  0
SCALE
  5
54
102
{ACAD_REACTORS
330
47
102
}
330
47
100
AcDbScale
 70
     0
300
2:1
140
2.0
141
1.0
290
     0
  0
SCALE
  5
55
102
{ACAD_REACTORS
330
47
102
}
330
47
100
AcDbScale
 70
     0
300
4:1
140
4.0
141
1.0
290
     0
  0
SCALE
  5
56
102
{ACAD_REACTORS
330
47
102
}
330
47
100
AcDbScale
 70
     0
300
8:1
140
8.0
141
1.0
290
     0
  0
SCALE
  5
57
102
{ACAD_REACTORS
330
47
102
}
330
47
100
AcDbScale
 70
     0
300
10:1
140
10.0
141
1.0
290
     0
  0
SCALE
  5
58
102
{ACAD_REACTORS
330
47
102
}
330
47
100
AcDbScale
 70
     0
300
100:1
140
100.0
141
1.0
290
     0
  0
SCALE
  5
59
102
{ACAD_REACTORS
330
47
102
}
330
47
100
AcDbScale
 70
     0
300
1/128" = 1'-0"
140
0.0078125
141
12.0
290
     0
  0
SCALE
  5
5A
102
{ACAD_REACTORS
330
47
102
}
330
47
100
AcDbScale
 70
     0
300
1/64" = 1'-0"
140
0.015625
141
12.0
290
     0
  0
SCALE
  5
5B
102
{ACAD_REACTORS
330
47
102
}
330
47
100
AcDbScale
 70
     0
300
1/32" = 1'-0"
140
0.03125
141
12.0
290
     0
  0
SCALE
  5
5C
102
{ACAD_REACTORS
330
47
102
}
330
47
100
AcDbScale
 70
     0
300
1/16" = 1'-0"
140
0.0625
141
12.0
290
     0
  0
SCALE
  5
5D
102
{ACAD_REACTORS
330
47
102
}
330
47
100
AcDbScale
 70
     0
300
3/32" = 1'-0"
140
0.09375
141
12.0
290
     0
  0
SCALE
  5
5E
102
{ACAD_REACTORS
330
47
102
}
330
47
100
AcDbScale
 70
     0
300
1/8" = 1'-0"
140
0.125
141
12.0
290
     0
  0
SCALE
  5
5F
102
{ACAD_REACTORS
330
47
102
}
330
47
100
AcDbScale
 70
     0
300
3/16" = 1'-0"
140
0.1875
141
12.0
290
     0
  0
SCALE
  5
60
102
{ACAD_REACTORS
330
47
102
}
330
47
100
AcDbScale
 70
     0
300
1/4" = 1'-0"
140
0.25
141
12.0
290
     0
  0
SCALE
  5
61
102
{ACAD_REACTORS
330
47
102
}
330
47
100
AcDbScale
 70
     0
300
3/8" = 1'-0"
140
0.375
141
12.0
290
     0
  0
SCALE
  5
62
102
{ACAD_REACTORS
330
47
102
}
330
47
100
AcDbScale
 70
     0
300
1/2" = 1'-0"
140
0.5
141
12.0
290
     0
  0
SCALE
  5
63
102
{ACAD_REACTORS
330
47
102
}
330
47
100
AcDbScale
 70
     0
300
3/4" = 1'-0"
140
0.75
141
12.0
290
     0
  0
SCALE
  5
64
102
{ACAD_REACTORS
330
47
102
}
330
47
100
AcDbScale
 70
     0
300
1" = 1'-0"
140
1.0
141
12.0
290
     0
  0
SCALE
  5
65
102
{ACAD_REACTORS
330
47
102
}
330
47
100
AcDbScale
 70
     0
300
1-1/2" = 1'-0"
140
1.5
141
12.0
290
     0
  0
SCALE
  5
66
102
{ACAD_REACTORS
330
47
102
}
330
47
100
AcDbScale
 70
     0
300
3" = 1'-0"
140
3.0
141
12.0
290
     0
  0
SCALE
  5
67
102
{ACAD_REACTORS
330
47
102
}
330
47
100
AcDbScale
 70
     0
300
6" = 1'-0"
140
6.0
141
12.0
290
     0
  0
SCALE
  5
68
102
{ACAD_REACTORS
330
47
102
}
330
47
100
AcDbScale
 70
     0
300
1'-0" = 1'-0"
140
12.0
141
12.0
290
     0
  0
TABLESTYLE
  5
6A
102
{ACAD_REACTORS
330
69
102
}
102
{ACAD_XDICTIONARY
360
3AD
102
}
330
69
100
AcDbTableStyle
  3
Standard
 70
     0
 71
     0
 40
0.06
 41
0.06
280
     0
281
     0
  7
Standard
140
0.18
170
     2
 62
     0
 63
   257
283
     0
274
    -2
284
     1
 64
     0
275
    -2
285
     1
 65
     0
276
    -2
286
     1
 66
     0
277
    -2
287
     1
 67
     0
278
    -2
288
     1
 68
     0
279
    -2
289
     1
 69
     0
  7
Standard
140
0.25
170
     5
 62
     0
 63
   257
283
     0
274
    -2
284
     1
 64
     0
275
    -2
285
     1
 65
     0
276
    -2
286
     1
 66
     0
277
    -2
287
     1
 67
     0
278
    -2
288
     1
 68
     0
279
    -2
289
     1
 69
     0
  7
Standard
140
0.18
170
     5
 62
     0
 63
   257
283
     0
274
    -2
284
     1
 64
     0
275
    -2
285
     1
 65
     0
276
    -2
286
     1
 66
     0
277
    -2
287
     1
 67
     0
278
    -2
288
     1
 68
     0
279
    -2
289
     1
 69
     0
  0
VISUALSTYLE
  5
2F
102
{ACAD_REACTORS
330
2A
102
}
102
{ACAD_XDICTIONARY
360
37F
102
}
330
2A
100
AcDbVisualStyle
  2
2dWireframe
 70
     4
 71
     0
 72
     2
 73
     0
 90
        0
 40
0.6
 41
30.0
 62
     5
 63
     7
421
 16777215
 74
     1
 91
        4
 64
     7
 65
   257
 75
     1
175
     1
 42
1.0
 92
        0
 66
   257
 43
1.0
 76
     1
 77
     6
 78
     2
 67
     7
 79
     5
170
     0
171
     0
290
     0
174
     0
 93
        1
 44
0.0
173
     0
291
     0
 45
0.0
1001
ACAD
1000
AcDbSavedByObjectVersion
1070
     0
  0
VISUALSTYLE
  5
32
102
{ACAD_REACTORS
330
2A
102
}
102
{ACAD_XDICTIONARY
360
385
102
}
330
2A
100
AcDbVisualStyle
  2
Basic
 70
     7
 71
     1
 72
     0
 73
     1
 90
        0
 40
0.6
 41
30.0
 62
     5
 63
     7
421
 16777215
 74
     0
 91
        4
 64
     7
 65
   257
 75
     1
175
     1
 42
1.0
 92
        8
 66
     7
 43
1.0
 76
     1
 77
     6
 78
     2
 67
     7
 79
     5
170
     0
171
     0
290
     0
174
     0
 93
        1
 44
0.0
173
     0
291
     1
 45
0.0
1001
ACAD
1000
AcDbSavedByObjectVersion
1070
     0
  0
VISUALSTYLE
  5
36
102
{ACAD_REACTORS
330
2A
102
}
102
{ACAD_XDICTIONARY
360
38D
102
}
330
2A
100
AcDbVisualStyle
  2
Brighten
 70
    12
 71
     2
 72
     2
 73
     0
 90
        0
 40
0.6
 41
30.0
 62
     5
 63
     7
421
 16777215
 74
     1
 91
        4
 64
     7
 65
   257
 75
     1
175
     1
 42
1.0
 92
        8
 66
     7
 43
1.0
 76
     1
 77
     6
 78
     2
 67
     7
 79
     5
170
     0
171
     0
290
     0
174
     0
 93
        1
 44
50.0
173
     0
291
     1
 45
0.0
1001
ACAD
1000
AcDbSavedByObjectVersion
1070
     0
  0
VISUALSTYLE
  5
3A
102
{ACAD_REACTORS
330
2A
102
}
102
{ACAD_XDICTIONARY
360
395
102
}
330
2A
100
AcDbVisualStyle
  2
ColorChange
 70
    16
 71
     2
 72
     2
 73
     3
 90
        0
 40
0.6
 41
30.0
 62
     5
 63
     8
421
  8421504
 74
     1
 91
        4
 64
     7
 65
   257
 75
     1
175
     1
 42
1.0
 92
        8
 66
     8
424
  8421504
 43
1.0
 76
     1
 77
     6
 78
     2
 67
     7
 79
     5
170
     0
171
     0
290
     0
174
     0
 93
        1
 44
0.0
173
     0
291
     1
 45
0.0
1001
ACAD
1000
AcDbSavedByObjectVersion
1070
     0
  0
VISUALSTYLE
  5
34
102
{ACAD_REACTORS
330
2A
102
}
102
{ACAD_XDICTIONARY
360
389
102
}
330
2A
100
AcDbVisualStyle
  2
Conceptual
 70
     9
 71
     3
 72
     2
 73
     0
 90
        0
 40
0.6
 41
30.0
 62
     5
 63
     7
421
 16777215
 74
     2
 91
        2
 64
     7
 65
   257
 75
     1
175
     1
 42
179.0
 92
        8
 66
     7
 43
1.0
 76
     1
 77
     6
 78
     2
 67
     7
 79
     3
170
     0
171
     0
290
     0
174
     0
 93
        1
 44
0.0
173
     0
291
     0
 45
0.0
1001
ACAD
1000
AcDbSavedByObjectVersion
1070
     0
  0
VISUALSTYLE
  5
35
102
{ACAD_REACTORS
330
2A
102
}
102
{ACAD_XDICTIONARY
360
38B
102
}
330
2A
100
AcDbVisualStyle
  2
Dim
 70
    11
 71
     2
 72
     2
 73
     0
 90
        0
 40
0.6
 41
30.0
 62
     5
 63
     7
421
 16777215
 74
     1
 91
        4
 64
     7
 65
   257
 75
     1
175
     1
 42
1.0
 92
        8
 66
     7
 43
1.0
 76
     1
 77
     6
 78
     2
 67
     7
 79
     5
170
     0
171
     0
290
     0
174
     0
 93
        1
 44
-50.0
173
     0
291
     1
 45
0.0
1001
ACAD
1000
AcDbSavedByObjectVersion
1070
     0
  0
VISUALSTYLE
  5
3D
102
{ACAD_REACTORS
330
2A
102
}
102
{ACAD_XDICTIONARY
360
39B
102
}
330
2A
100
AcDbVisualStyle
  2
EdgeColorOff
 70
    22
 71
     2
 72
     2
 73
     0
 90
        0
 40
0.6
 41
30.0
 62
     5
 63
     7
421
 16777215
 74
     1
 91
        4
 64
     7
 65
   257
 75
     1
175
     1
 42
1.0
 92
        8
 66
     7
 43
1.0
 76
     1
 77
     6
 78
     2
 67
     7
 79
     5
170
     0
171
     0
290
     0
174
     0
 93
        1
 44
0.0
173
     0
291
     1
 45
0.0
1001
ACAD
1000
AcDbSavedByObjectVersion
1070
     0
  0
VISUALSTYLE
  5
39
102
{ACAD_REACTORS
330
2A
102
}
102
{ACAD_XDICTIONARY
360
393
102
}
330
2A
100
AcDbVisualStyle
  2
Facepattern
 70
    15
 71
     2
 72
     2
 73
     0
 90
        0
 40
0.6
 41
30.0
 62
     5
 63
     7
421
 16777215
 74
     1
 91
        4
 64
     7
 65
   257
 75
     1
175
     1
 42
1.0
 92
        8
 66
     7
 43
1.0
 76
     1
 77
     6
 78
     2
 67
     7
 79
     5
170
     0
171
     0
290
     0
174
     0
 93
        1
 44
0.0
173
     0
291
     1
 45
0.0
1001
ACAD
1000
AcDbSavedByObjectVersion
1070
     0
  0
VISUALSTYLE
  5
2B
102
{ACAD_REACTORS
330
2A
102
}
102
{ACAD_XDICTIONARY
360
377
102
}
330
2A
100
AcDbVisualStyle
  2
Flat
 70
     0
 71
     2
 72
     1
 73
     1
 90
        2
 40
0.6
 41
30.0
 62
     5
 63
     7
421
 16777215
 74
     0
 91
        0
 64
     7
 65
   257
 75
     1
175
     1
 42
1.0
 92
        8
 66
     7
 43
1.0
 76
     1
 77
     6
 78
     2
 67
     7
 79
     5
170
     0
171
     0
290
     0
174
     0
 93
       13
 44
0.0
173
     0
291
     1
 45
0.0
1001
ACAD
1000
AcDbSavedByObjectVersion
1070
     0
  0
VISUALSTYLE
  5
2C
102
{ACAD_REACTORS
330
2A
102
}
102
{ACAD_XDICTIONARY
360
379
102
}
330
2A
100
AcDbVisualStyle
  2
FlatWithEdges
 70
     1
 71
     2
 72
     1
 73
     1
 90
        2
 40
0.6
 41
30.0
 62
     5
 63
     7
421
 16777215
 74
     1
 91
        0
 64
     7
 65
   257
 75
     1
175
     1
 42
1.0
 92
        0
 66
   257
 43
1.0
 76
     1
 77
     6
 78
     2
 67
     7
 79
     5
170
     0
171
     0
290
     0
174
     0
 93
       13
 44
0.0
173
     0
291
     1
 45
0.0
1001
ACAD
1000
AcDbSavedByObjectVersion
1070
     0
  0
VISUALSTYLE
  5
2D
102
{ACAD_REACTORS
330
2A
102
}
102
{ACAD_XDICTIONARY
360
37B
102
}
330
2A
100
AcDbVisualStyle
  2
Gouraud
 70
     2
 71
     2
 72
     2
 73
     1
 90
        2
 40
0.6
 41
30.0
 62
     5
 63
     7
421
 16777215
 74
     0
 91
        0
 64
     7
 65
   257
 75
     1
175
     1
 42
1.0
 92
        0
 66
     7
 43
1.0
 76
     1
 77
     6
 78
     2
 67
     7
 79
     5
170
     0
171
     0
290
     0
174
     0
 93
       13
 44
0.0
173
     0
291
     1
 45
0.0
1001
ACAD
1000
AcDbSavedByObjectVersion
1070
     0
  0
VISUALSTYLE
  5
2E
102
{ACAD_REACTORS
330
2A
102
}
102
{ACAD_XDICTIONARY
360
37D
102
}
330
2A
100
AcDbVisualStyle
  2
GouraudWithEdges
 70
     3
 71
     2
 72
     2
 73
     1
 90
        2
 40
0.6
 41
30.0
 62
     5
 63
     7
421
 16777215
 74
     1
 91
        0
 64
     7
 65
   257
 75
     1
175
     1
 42
1.0
 92
        0
 66
   257
 43
1.0
 76
     1
 77
     6
 78
     2
 67
     7
 79
     5
170
     0
171
     0
290
     0
174
     0
 93
       13
 44
0.0
173
     0
291
     1
 45
0.0
1001
ACAD
1000
AcDbSavedByObjectVersion
1070
     0
  0
VISUALSTYLE
  5
31
102
{ACAD_REACTORS
330
2A
102
}
102
{ACAD_XDICTIONARY
360
383
102
}
330
2A
100
AcDbVisualStyle
  2
Hidden
 70
     6
 71
     1
 72
     2
 73
     2
 90
        0
 40
0.6
 41
30.0
 62
     5
 63
     7
421
 16777215
 74
     2
 91
        2
 64
     7
 65
   257
 75
     2
175
     1
 42
40.0
 92
        0
 66
   257
 43
1.0
 76
     1
 77
     6
 78
     2
 67
     7
 79
     3
170
     0
171
     0
290
     0
174
     0
 93
        1
 44
0.0
173
     0
291
     0
 45
0.0
1001
ACAD
1000
AcDbSavedByObjectVersion
1070
     0
  0
VISUALSTYLE
  5
3B
102
{ACAD_REACTORS
330
2A
102
}
102
{ACAD_XDICTIONARY
360
397
102
}
330
2A
100
AcDbVisualStyle
  2
JitterOff
 70
    20
 71
     2
 72
     2
 73
     0
 90
        0
 40
0.6
 41
30.0
 62
     5
 63
     7
421
 16777215
 74
     1
 91
        4
 64
     7
 65
   257
 75
     1
175
     1
 42
1.0
 92
       10
 66
     7
 43
1.0
 76
     1
 77
     6
 78
     2
 67
     7
 79
     5
170
     0
171
     0
290
     0
174
     0
 93
        1
 44
0.0
173
     0
291
     1
 45
0.0
1001
ACAD
1000
AcDbSavedByObjectVersion
1070
     0
  0
VISUALSTYLE
  5
38
102
{ACAD_REACTORS
330
2A
102
}
102
{ACAD_XDICTIONARY
360
391
102
}
330
2A
100
AcDbVisualStyle
  2
Linepattern
 70
    14
 71
     2
 72
     2
 73
     0
 90
        0
 40
0.6
 41
30.0
 62
     5
 63
     7
421
 16777215
 74
     1
 91
        4
 64
     7
 65
   257
 75
     7
175
     7
 42
1.0
 92
        8
 66
     7
 43
1.0
 76
     1
 77
     6
 78
     2
 67
     7
 79
     5
170
     0
171
     0
290
     0
174
     0
 93
        1
 44
0.0
173
     0
291
     1
 45
0.0
1001
ACAD
1000
AcDbSavedByObjectVersion
1070
     0
  0
VISUALSTYLE
  5
3C
102
{ACAD_REACTORS
330
2A
102
}
102
{ACAD_XDICTIONARY
360
399
102
}
330
2A
100
AcDbVisualStyle
  2
OverhangOff
 70
    21
 71
     2
 72
     2
 73
     0
 90
        0
 40
0.6
 41
30.0
 62
     5
 63
     7
421
 16777215
 74
     1
 91
        4
 64
     7
 65
   257
 75
     1
175
     1
 42
1.0
 92
        9
 66
     7
 43
1.0
 76
     1
 77
     6
 78
     2
 67
     7
 79
     5
170
     0
171
     0
290
     0
174
     0
 93
        1
 44
0.0
173
     0
291
     1
 45
0.0
1001
ACAD
1000
AcDbSavedByObjectVersion
1070
     0
  0
VISUALSTYLE
  5
33
102
{ACAD_REACTORS
330
2A
102
}
102
{ACAD_XDICTIONARY
360
387
102
}
330
2A
100
AcDbVisualStyle
  2
Realistic
 70
     8
 71
     2
 72
     3
 73
     0
 90
        2
 40
0.6
 41
30.0
 62
     5
 63
     7
421
 16777215
 74
     0
 91
        0
 64
     7
 65
   257
 75
     1
175
     1
 42
1.0
 92
        8
 66
   257
 43
1.0
 76
     1
 77
     6
 78
     2
 67
     7
 79
     3
170
     0
171
     0
290
     0
174
     0
 93
       13
 44
0.0
173
     0
291
     0
 45
0.0
1001
ACAD
1000
AcDbSavedByObjectVersion
1070
     0
  0
VISUALSTYLE
  5
42
102
{ACAD_REACTORS
330
2A
102
}
102
{ACAD_XDICTIONARY
360
3A5
102
}
330
2A
100
AcDbVisualStyle
  2
Shaded
 70
    27
 71
     2
 72
     2
 73
     1
 90
        2
 40
0.6
 41
30.0
 62
     5
 63
     7
421
 16777215
 74
     0
 91
        4
 64
     7
 65
   257
 75
     1
175
     1
 42
1.0
 92
        8
 66
   257
 43
1.0
 76
     1
 77
     6
 78
     2
 67
     8
425
  7895160
 79
     3
170
     0
171
     0
290
     0
174
     0
 93
        5
 44
0.0
173
     0
291
     0
 45
0.0
1001
ACAD
1000
AcDbSavedByObjectVersion
1070
     0
  0
VISUALSTYLE
  5
41
102
{ACAD_REACTORS
330
2A
102
}
102
{ACAD_XDICTIONARY
360
3A3
102
}
330
2A
100
AcDbVisualStyle
  2
Shaded with edges
 70
    26
 71
     2
 72
     2
 73
     1
 90
        2
 40
0.6
 41
30.0
 62
     5
 63
     7
421
 16777215
 74
     1
 91
       10
 64
     7
 65
   257
 75
     2
175
     1
 42
1.0
 92
        8
 66
   257
 43
1.0
 76
     1
 77
     6
 78
     2
 67
     7
 79
     3
170
     0
171
     0
290
     0
174
     0
 93
        5
 44
0.0
173
     0
291
     0
 45
0.0
1001
ACAD
1000
AcDbSavedByObjectVersion
1070
     0
  0
VISUALSTYLE
  5
3E
102
{ACAD_REACTORS
330
2A
102
}
102
{ACAD_XDICTIONARY
360
39D
102
}
330
2A
100
AcDbVisualStyle
  2
Shades of Gray
 70
    23
 71
     2
 72
     2
 73
     3
 90
        0
 40
0.6
 41
30.0
 62
     5
 63
     7
421
 16777215
 74
     2
 91
        2
 64
     7
 65
     7
 75
     1
175
     1
 42
40.0
 92
        8
 66
     7
 43
1.0
 76
     1
 77
     6
 78
     2
 67
     7
 79
     3
170
     0
171
     0
290
     0
174
     0
 93
        1
 44
0.0
173
     0
291
     0
 45
0.0
1001
ACAD
1000
AcDbSavedByObjectVersion
1070
     0
  0
VISUALSTYLE
  5
3F
102
{ACAD_REACTORS
330
2A
102
}
102
{ACAD_XDICTIONARY
360
39F
102
}
330
2A
100
AcDbVisualStyle
  2
Sketchy
 70
    24
 71
     1
 72
     2
 73
     2
 90
        0
 40
0.6
 41
30.0
 62
     5
 63
     7
421
 16777215
 74
     2
 91
        2
 64
     7
 65
     7
 75
     1
175
     1
 42
40.0
 92
       11
 66
     7
 43
1.0
 76
     1
 77
     6
 78
     2
 67
     7
 79
     6
170
     0
171
     0
290
     0
174
     0
 93
        1
 44
0.0
173
     0
291
     0
 45
0.0
1001
ACAD
1000
AcDbSavedByObjectVersion
1070
     0
  0
VISUALSTYLE
  5
37
102
{ACAD_REACTORS
330
2A
102
}
102
{ACAD_XDICTIONARY
360
38F
102
}
330
2A
100
AcDbVisualStyle
  2
Thicken
 70
    13
 71
     2
 72
     2
 73
     0
 90
        0
 40
0.6
 41
30.0
 62
     5
 63
     7
421
 16777215
 74
     1
 91
        4
 64
     7
 65
   257
 75
     1
175
     1
 42
1.0
 92
       12
 66
     7
 43
1.0
 76
     1
 77
     6
 78
     2
 67
     7
 79
     5
170
     0
171
     0
290
     0
174
     0
 93
        1
 44
0.0
173
     0
291
     1
 45
0.0
1001
ACAD
1000
AcDbSavedByObjectVersion
1070
     0
  0
VISUALSTYLE
  5
30
102
{ACAD_REACTORS
330
2A
102
}
102
{ACAD_XDICTIONARY
360
381
102
}
330
2A
100
AcDbVisualStyle
  2
Wireframe
 70
     5
 71
     0
 72
     2
 73
     0
 90
        0
 40
0.6
 41
30.0
 62
     5
 63
     7
421
 16777215
 74
     1
 91
        4
 64
     7
 65
   257
 75
     1
175
     1
 42
1.0
 92
        0
 66
   257
 43
1.0
 76
     1
 77
     6
 78
     2
 67
     7
 79
     3
170
     0
171
     0
290
     0
174
     0
 93
        1
 44
0.0
173
     0
291
     0
 45
0.0
1001
ACAD
1000
AcDbSavedByObjectVersion
1070
     0
  0
VISUALSTYLE
  5
40
102
{ACAD_REACTORS
330
2A
102
}
102
{ACAD_XDICTIONARY
360
3A1
102
}
330
2A
100
AcDbVisualStyle
  2
X-Ray
 70
    25
 71
     2
 72
     2
 73
     1
 90
        1
 40
0.5
 41
30.0
 62
     5
 63
     7
421
 16777215
 74
     1
 91
        0
 64
     7
 65
   257
 75
     1
175
     1
 42
1.0
 92
        8
 66
     7
 43
1.0
 76
     1
 77
     6
 78
     2
 67
     7
 79
     3
170
     0
171
     0
290
     0
174
     0
 93
       13
 44
0.0
173
     0
291
     0
 45
0.0
1001
ACAD
1000
AcDbSavedByObjectVersion
1070
     0
  0
DICTIONARYVAR
  5
374
102
{ACAD_REACTORS
330
373
102
}
330
373
100
DictionaryVariables
280
     0
  1
1:1
  0
DICTIONARYVAR
  5
3B5
102
{ACAD_REACTORS
330
373
102
}
330
373
100
DictionaryVariables
280
     0
  1
Standard
  0
DICTIONARYVAR
  5
3B4
102
{ACAD_REACTORS
330
373
102
}
330
373
100
DictionaryVariables
280
     0
  1
Standard
  0
DICTIONARYVAR
  5
375
102
{ACAD_REACTORS
330
373
102
}
330
373
100
DictionaryVariables
280
     0
  1
1
  0
DICTIONARYVAR
  5
376
102
{ACAD_REACTORS
330
373
102
}
330
373
100
DictionaryVariables
280
     0
  1
2
  0
DICTIONARY
  5
3A9
330
45
100
AcDbDictionary
280
     1
281
     1
  3
ACAD_XREC_ROUNDTRIP
360
3AA
  0
DICTIONARY
  5
3A7
330
44
100
AcDbDictionary
280
     1
281
     1
  3
ACAD_XREC_ROUNDTRIP
360
3A8
  0
DICTIONARY
  5
3AB
330
46
100
AcDbDictionary
280
     1
281
     1
  3
ACAD_XREC_ROUNDTRIP
360
3AC
  0
DICTIONARY
  5
3B1
330
6C
100
AcDbDictionary
280
     1
281
     1
  3
ACAD_XREC_ROUNDTRIP
360
3B2
  0
DICTIONARY
  5
3AD
330
6A
100
AcDbDictionary
280
     1
281
     1
  3
ACAD_ROUNDTRIP_2008_TABLESTYLE_CELLSTYLEMAP
360
3AF
  3
ACAD_XREC_ROUNDTRIP
360
3AE
  0
DICTIONARY
  5
37F
330
2F
100
AcDbDictionary
280
     1
281
     1
  3
ACAD_XREC_ROUNDTRIP
360
380
  0
DICTIONARY
  5
385
330
32
100
AcDbDictionary
280
     1
281
     1
  3
ACAD_XREC_ROUNDTRIP
360
386
  0
DICTIONARY
  5
38D
330
36
100
AcDbDictionary
280
     1
281
     1
  3
ACAD_XREC_ROUNDTRIP
360
38E
  0
DICTIONARY
  5
395
330
3A
100
AcDbDictionary
280
     1
281
     1
  3
ACAD_XREC_ROUNDTRIP
360
396
  0
DICTIONARY
  5
389
330
34
100
AcDbDictionary
280
     1
281
     1
  3
ACAD_XREC_ROUNDTRIP
360
38A
  0
DICTIONARY
  5
38B
330
35
100
AcDbDictionary
280
     1
281
     1
  3
ACAD_XREC_ROUNDTRIP
360
38C
  0
DICTIONARY
  5
39B
330
3D
100
AcDbDictionary
280
     1
281
     1
  3
ACAD_XREC_ROUNDTRIP
360
39C
  0
DICTIONARY
  5
393
330
39
100
AcDbDictionary
280
     1
281
     1
  3
ACAD_XREC_ROUNDTRIP
360
394
  0
DICTIONARY
  5
377
330
2B
100
AcDbDictionary
280
     1
281
     1
  3
ACAD_XREC_ROUNDTRIP
360
378
  0
DICTIONARY
  5
379
330
2C
100
AcDbDictionary
280
     1
281
     1
  3
ACAD_XREC_ROUNDTRIP
360
37A
  0
DICTIONARY
  5
37B
330
2D
100
AcDbDictionary
280
     1
281
     1
  3
ACAD_XREC_ROUNDTRIP
360
37C
  0
DICTIONARY
  5
37D
330
2E
100
AcDbDictionary
280
     1
281
     1
  3
ACAD_XREC_ROUNDTRIP
360
37E
  0
DICTIONARY
  5
383
330
31
100
AcDbDictionary
280
     1
281
     1
  3
ACAD_XREC_ROUNDTRIP
360
384
  0
DICTIONARY
  5
397
330
3B
100
AcDbDictionary
280
     1
281
     1
  3
ACAD_XREC_ROUNDTRIP
360
398
  0
DICTIONARY
  5
391
330
38
100
AcDbDictionary
280
     1
281
     1
  3
ACAD_XREC_ROUNDTRIP
360
392
  0
DICTIONARY
  5
399
330
3C
100
AcDbDictionary
280
     1
281
     1
  3
ACAD_XREC_ROUNDTRIP
360
39A
  0
DICTIONARY
  5
387
330
33
100
AcDbDictionary
280
     1
281
     1
  3
ACAD_XREC_ROUNDTRIP
360
388
  0
DICTIONARY
  5
3A5
330
42
100
AcDbDictionary
280
     1
281
     1
  3
ACAD_XREC_ROUNDTRIP
360
3A6
  0
DICTIONARY
  5
3A3
330
41
100
AcDbDictionary
280
     1
281
     1
  3
ACAD_XREC_ROUNDTRIP
360
3A4
  0
DICTIONARY
  5
39D
330
3E
100
AcDbDictionary
280
     1
281
     1
  3
ACAD_XREC_ROUNDTRIP
360
39E
  0
DICTIONARY
  5
39F
330
3F
100
AcDbDictionary
280
     1
281
     1
  3
ACAD_XREC_ROUNDTRIP
360
3A0
  0
DICTIONARY
  5
38F
330
37
100
AcDbDictionary
280
     1
281
     1
  3
ACAD_XREC_ROUNDTRIP
360
390
  0
DICTIONARY
  5
381
330
30
100
AcDbDictionary
280
     1
281
     1
  3
ACAD_XREC_ROUNDTRIP
360
382
  0
DICTIONARY
  5
3A1
330
40
100
AcDbDictionary
280
     1
281
     1
  3
ACAD_XREC_ROUNDTRIP
360
3A2
  0
XRECORD
  5
3AA
102
{ACAD_REACTORS
330
3A9
102
}
330
3A9
100
AcDbXrecord
280
     1
102
MATERIAL
148
0.0
149
0.0
149
0.0
 93
        0
 94
      127
282
     0
 72
     1
 77
     1
171
     1
175
     1
179
     1
273
     0
  0
XRECORD
  5
3A8
102
{ACAD_REACTORS
330
3A7
102
}
330
3A7
100
AcDbXrecord
280
     1
102
MATERIAL
148
0.0
149
0.0
149
0.0
 93
        0
 94
      127
282
     0
 72
     1
 77
     1
171
     1
175
     1
179
     1
273
     0
  0
XRECORD
  5
3AC
102
{ACAD_REACTORS
330
3AB
102
}
330
3AB
100
AcDbXrecord
280
     1
102
MATERIAL
148
0.0
149
0.0
149
0.0
 93
        0
 94
      127
282
     0
 72
     1
 77
     1
171
     1
175
     1
179
     1
273
     0
  0
XRECORD
  5
3B2
102
{ACAD_REACTORS
330
3B1
102
}
330
3B1
100
AcDbXrecord
280
     1
102
ACAD_ROUNDTRIP_2010_MLEADER_STYLE
  0
CELLSTYLEMAP
  5
3AF
102
{ACAD_REACTORS
330
3AD
102
}
330
3AD
100
AcDbCellStyleMap
 90
        3
300
CELLSTYLE
  1
TABLEFORMAT_BEGIN
 90
        5
170
     1
 91
        0
 92
    32768
 62
   257
 93
        1
300
CONTENTFORMAT
  1
CONTENTFORMAT_BEGIN
 90
        0
 91
        0
 92
        4
 93
        0
300

 40
0.0
140
1.0
 94
        5
 62
     0
340
11
144
0.25
309
CONTENTFORMAT_END
171
     1
301
MARGIN
  1
CELLMARGIN_BEGIN
 40
0.06
 40
0.06
 40
0.06
 40
0.06
 40
0.06
 40
0.06
309
CELLMARGIN_END
 94
        6
 95
        1
302
GRIDFORMAT
  1
GRIDFORMAT_BEGIN
 90
        0
 91
        1
 62
     0
 92
       -2
340
14
 93
        0
 40
0.045
309
GRIDFORMAT_END
 95
        2
302
GRIDFORMAT
  1
GRIDFORMAT_BEGIN
 90
        0
 91
        1
 62
     0
 92
       -2
340
14
 93
        0
 40
0.045
309
GRIDFORMAT_END
 95
        4
302
GRIDFORMAT
  1
GRIDFORMAT_BEGIN
 90
        0
 91
        1
 62
     0
 92
       -2
340
14
 93
        0
 40
0.045
309
GRIDFORMAT_END
 95
        8
302
GRIDFORMAT
  1
GRIDFORMAT_BEGIN
 90
        0
 91
        1
 62
     0
 92
       -2
340
14
 93
        0
 40
0.045
309
GRIDFORMAT_END
 95
       16
302
GRIDFORMAT
  1
GRIDFORMAT_BEGIN
 90
        0
 91
        1
 62
     0
 92
       -2
340
14
 93
        0
 40
0.045
309
GRIDFORMAT_END
 95
       32
302
GRIDFORMAT
  1
GRIDFORMAT_BEGIN
 90
        0
 91
        1
 62
     0
 92
       -2
340
14
 93
        0
 40
0.045
309
GRIDFORMAT_END
309
TABLEFORMAT_END
  1
CELLSTYLE_BEGIN
 90
        1
 91
        1
300
_TITLE
309
CELLSTYLE_END
300
CELLSTYLE
  1
TABLEFORMAT_BEGIN
 90
        5
170
     1
 91
        0
 92
        0
 62
   257
 93
        1
300
CONTENTFORMAT
  1
CONTENTFORMAT_BEGIN
 90
        0
 91
        0
 92
        4
 93
        0
300

 40
0.0
140
1.0
 94
        5
 62
     0
340
11
144
0.18
309
CONTENTFORMAT_END
171
     1
301
MARGIN
  1
CELLMARGIN_BEGIN
 40
0.06
 40
0.06
 40
0.06
 40
0.06
 40
0.06
 40
0.06
309
CELLMARGIN_END
 94
        6
 95
        1
302
GRIDFORMAT
  1
GRIDFORMAT_BEGIN
 90
        0
 91
        1
 62
     0
 92
       -2
340
14
 93
        0
 40
0.045
309
GRIDFORMAT_END
 95
        2
302
GRIDFORMAT
  1
GRIDFORMAT_BEGIN
 90
        0
 91
        1
 62
     0
 92
       -2
340
14
 93
        0
 40
0.045
309
GRIDFORMAT_END
 95
        4
302
GRIDFORMAT
  1
GRIDFORMAT_BEGIN
 90
        0
 91
        1
 62
     0
 92
       -2
340
14
 93
        0
 40
0.045
309
GRIDFORMAT_END
 95
        8
302
GRIDFORMAT
  1
GRIDFORMAT_BEGIN
 90
        0
 91
        1
 62
     0
 92
       -2
340
14
 93
        0
 40
0.045
309
GRIDFORMAT_END
 95
       16
302
GRIDFORMAT
  1
GRIDFORMAT_BEGIN
 90
        0
 91
        1
 62
     0
 92
       -2
340
14
 93
        0
 40
0.045
309
GRIDFORMAT_END
 95
       32
302
GRIDFORMAT
  1
GRIDFORMAT_BEGIN
 90
        0
 91
        1
 62
     0
 92
       -2
340
14
 93
        0
 40
0.045
309
GRIDFORMAT_END
309
TABLEFORMAT_END
  1
CELLSTYLE_BEGIN
 90
        2
 91
        1
300
_HEADER
309
CELLSTYLE_END
300
CELLSTYLE
  1
TABLEFORMAT_BEGIN
 90
        5
170
     1
 91
        0
 92
        0
 62
   257
 93
        1
300
CONTENTFORMAT
  1
CONTENTFORMAT_BEGIN
 90
        0
 91
        0
 92
        4
 93
        0
300

 40
0.0
140
1.0
 94
        2
 62
     0
340
11
144
0.18
309
CONTENTFORMAT_END
171
     1
301
MARGIN
  1
CELLMARGIN_BEGIN
 40
0.06
 40
0.06
 40
0.06
 40
0.06
 40
0.06
 40
0.06
309
CELLMARGIN_END
 94
        6
 95
        1
302
GRIDFORMAT
  1
GRIDFORMAT_BEGIN
 90
        0
 91
        1
 62
     0
 92
       -2
340
14
 93
        0
 40
0.045
309
GRIDFORMAT_END
 95
        2
302
GRIDFORMAT
  1
GRIDFORMAT_BEGIN
 90
        0
 91
        1
 62
     0
 92
       -2
340
14
 93
        0
 40
0.045
309
GRIDFORMAT_END
 95
        4
302
GRIDFORMAT
  1
GRIDFORMAT_BEGIN
 90
        0
 91
        1
 62
     0
 92
       -2
340
14
 93
        0
 40
0.045
309
GRIDFORMAT_END
 95
        8
302
GRIDFORMAT
  1
GRIDFORMAT_BEGIN
 90
        0
 91
        1
 62
     0
 92
       -2
340
14
 93
        0
 40
0.045
309
GRIDFORMAT_END
 95
       16
302
GRIDFORMAT
  1
GRIDFORMAT_BEGIN
 90
        0
 91
        1
 62
     0
 92
       -2
340
14
 93
        0
 40
0.045
309
GRIDFORMAT_END
 95
       32
302
GRIDFORMAT
  1
GRIDFORMAT_BEGIN
 90
        0
 91
        1
 62
     0
 92
       -2
340
14
 93
        0
 40
0.045
309
GRIDFORMAT_END
309
TABLEFORMAT_END
  1
CELLSTYLE_BEGIN
 90
        3
 91
        2
300
_DATA
309
CELLSTYLE_END
  0
XRECORD
  5
3AE
102
{ACAD_REACTORS
330
3AD
102
}
330
3AD
100
AcDbXrecord
280
     1
102
ACAD_ROUNDTRIP_PRE2007_TABLESTYLE
 90
        4
 91
        0
  1

 92
        4
 93
        0
  2

 94
        4
 95
        0
  3

  0
XRECORD
  5
380
102
{ACAD_REACTORS
330
37F
102
}
330
37F
100
AcDbXrecord
280
     1
102
RTVSPropertyOp0
 70
     1
102
RTVSPropertyOp1
 70
     1
102
RTVSPropertyOp2
 70
     1
102
RTVSPropertyOp3
 70
     1
102
RTVSPropertyOp4
 70
     1
102
RTVSPropertyOp5
 70
     1
102
RTVSPropertyOp6
 70
     1
102
RTVSPropertyOp7
 70
     1
102
RTVSPropertyOp8
 70
     1
102
RTVSPropertyOp9
 70
     1
102
RTVSPropertyOp10
 70
     1
102
RTVSPropertyOp11
 70
     1
102
RTVSPropertyOp12
 70
     1
102
RTVSPropertyOp13
 70
     1
102
RTVSPropertyOp14
 70
     1
102
RTVSPropertyOp15
 70
     1
102
RTVSPropertyOp16
 70
     1
102
RTVSPropertyOp17
 70
     1
102
RTVSPropertyOp18
 70
     1
102
RTVSPropertyOp19
 70
     1
102
RTVSPropertyOp20
 70
     1
102
RTVSPropertyOp21
 70
     1
102
RTVSPropertyOp22
 70
     1
102
RTVSPropertyOp23
 70
     1
102
RTVSPropertyOp24
 70
     1
102
RTVSPropertyOp25
 70
     1
102
RTVSPropertyOp26
 70
     1
102
RTVSPropertyOp27
 70
     1
102
RTVSPropertyOp28
 70
     1
102
RTVSPropertyOp29
 70
     1
102
RTVSPropertyOp30
 70
     1
102
RTVSPropertyOp31
 70
     1
102
RTVSPropertyOp32
 70
     1
102
RTVSPropertyOp33
 70
     1
102
RTVSPropertyOp34
 70
     1
102
RTVSPropertyOp35
 70
     1
102
RTVSPropertyOp36
 70
     1
102
RTVSPropertyOp37
 70
     1
102
RTVSPropertyOp38
 70
     1
102
RTVSPropertyOp39
 70
     1
102
RTVSPropertyOp40
 70
     1
102
RTVSPropertyOp41
 70
     1
102
RTVSPropertyOp42
 70
     1
102
RTVSPropertyOp43
 70
     1
102
RTVSPropertyOp44
 70
     1
102
RTVSPropertyOp45
 70
     1
102
RTVSPropertyOp46
 70
     1
102
RTVSPropertyOp47
 70
     1
102
RTVSPropertyOp48
 70
     1
102
RTVSPropertyOp49
 70
     1
102
RTVSPropertyOp50
 70
     1
102
RTVSPropertyOp51
 70
     0
102
RTVSPropertyOp52
 70
     0
102
RTVSPropertyOp53
 70
     1
102
RTVSPropertyOp54
 70
     1
102
RTVSPropertyOp55
 70
     1
102
RTVSPropertyOp56
 70
     1
102
RTVSPropertyOp57
 70
     1
102
RTVSPost2010Prop28
280
     1
102
RTVSPost2010PropOp28
 70
     1
102
RTVSPost2010Prop29
280
     1
102
RTVSPost2010PropOp29
 70
     1
102
RTVSPost2010Prop30
280
     0
102
RTVSPost2010PropOp30
 70
     1
102
RTVSPost2010Prop31
280
     0
102
RTVSPost2010PropOp31
 70
     1
102
RTVSPost2010Prop32
280
     0
102
RTVSPost2010PropOp32
 70
     1
102
RTVSPost2010Prop33
280
     0
102
RTVSPost2010PropOp33
 70
     1
102
RTVSPost2010Prop34
280
     0
102
RTVSPost2010PropOp34
 70
     1
102
RTVSPost2010Prop35
280
     0
102
RTVSPost2010PropOp35
 70
     1
102
RTVSPost2010Prop36
280
     0
102
RTVSPost2010PropOp36
 70
     1
102
RTVSPost2010Prop37
 90
       50
102
RTVSPost2010PropOp37
 70
     1
102
RTVSPost2010Prop38
140
0.0
102
RTVSPost2010PropOp38
 70
     1
102
RTVSPost2010Prop39
140
1.0
102
RTVSPost2010PropOp39
 70
     1
102
RTVSPost2010Prop40
 90
        0
102
RTVSPost2010PropOp40
 70
     1
102
RTVSPost2010Prop41ColorIndex
 90
       18
102
RTVSPost2010Prop41ColorRGB
 90
        0
102
RTVSPost2010PropOp41
 70
     1
102
RTVSPost2010Prop42
 90
       50
102
RTVSPost2010PropOp42
 70
     1
102
RTVSPost2010Prop43
 90
        3
102
RTVSPost2010PropOp43
 70
     1
102
RTVSPost2010Prop44ColorIndex
 90
        5
102
RTVSPost2010Prop44ColorRGB
 90
      255
102
RTVSPost2010PropOp44
 70
     1
102
RTVSPost2010Prop45
280
     0
102
RTVSPost2010PropOp45
 70
     1
102
RTVSPost2010Prop46
 90
       50
102
RTVSPost2010PropOp46
 70
     1
102
RTVSPost2010Prop47
 90
       50
102
RTVSPost2010PropOp47
 70
     1
102
RTVSPost2010Prop48
 90
       50
102
RTVSPost2010PropOp48
 70
     1
102
RTVSPost2010Prop49
280
     0
102
RTVSPost2010PropOp49
 70
     1
102
RTVSPost2010Prop50
 90
       50
102
RTVSPost2010PropOp50
 70
     1
102
RTVSPost2010Prop51ColorIndex
 90
      256
102
RTVSPost2010Prop51ColorRGB
 90
-16777216
102
RTVSPost2010PropOp51
 70
     0
102
RTVSPost2010Prop52
140
1.0
102
RTVSPost2010PropOp52
 70
     0
102
RTVSPost2010Prop53
 90
        2
102
RTVSPost2010PropOp53
 70
     1
102
RTVSPost2010Prop54
  1
strokes_ogs.tif
102
RTVSPost2010PropOp54
 70
     1
102
RTVSPost2010Prop55
280
     0
102
RTVSPost2010PropOp55
 70
     1
102
RTVSPost2010Prop56
140
1.0
102
RTVSPost2010PropOp56
 70
     1
102
RTVSPost2010Prop57
140
1.0
102
RTVSPost2010PropOp57
 70
     1
  0
XRECORD
  5
386
102
{ACAD_REACTORS
330
385
102
}
330
385
100
AcDbXrecord
280
     1
102
RTVSPropertyOp0
 70
     1
102
RTVSPropertyOp1
 70
     1
102
RTVSPropertyOp2
 70
     1
102
RTVSPropertyOp3
 70
     1
102
RTVSPropertyOp4
 70
     1
102
RTVSPropertyOp5
 70
     1
102
RTVSPropertyOp6
 70
     1
102
RTVSPropertyOp7
 70
     1
102
RTVSPropertyOp8
 70
     1
102
RTVSPropertyOp9
 70
     1
102
RTVSPropertyOp10
 70
     1
102
RTVSPropertyOp11
 70
     1
102
RTVSPropertyOp12
 70
     1
102
RTVSPropertyOp13
 70
     1
102
RTVSPropertyOp14
 70
     1
102
RTVSPropertyOp15
 70
     1
102
RTVSPropertyOp16
 70
     1
102
RTVSPropertyOp17
 70
     1
102
RTVSPropertyOp18
 70
     1
102
RTVSPropertyOp19
 70
     1
102
RTVSPropertyOp20
 70
     1
102
RTVSPropertyOp21
 70
     1
102
RTVSPropertyOp22
 70
     1
102
RTVSPropertyOp23
 70
     1
102
RTVSPropertyOp24
 70
     1
102
RTVSPropertyOp25
 70
     1
102
RTVSPropertyOp26
 70
     1
102
RTVSPropertyOp27
 70
     1
102
RTVSPropertyOp28
 70
     1
102
RTVSPropertyOp29
 70
     1
102
RTVSPropertyOp30
 70
     1
102
RTVSPropertyOp31
 70
     1
102
RTVSPropertyOp32
 70
     1
102
RTVSPropertyOp33
 70
     1
102
RTVSPropertyOp34
 70
     1
102
RTVSPropertyOp35
 70
     1
102
RTVSPropertyOp36
 70
     1
102
RTVSPropertyOp37
 70
     1
102
RTVSPropertyOp38
 70
     1
102
RTVSPropertyOp39
 70
     1
102
RTVSPropertyOp40
 70
     1
102
RTVSPropertyOp41
 70
     1
102
RTVSPropertyOp42
 70
     1
102
RTVSPropertyOp43
 70
     1
102
RTVSPropertyOp44
 70
     1
102
RTVSPropertyOp45
 70
     1
102
RTVSPropertyOp46
 70
     1
102
RTVSPropertyOp47
 70
     1
102
RTVSPropertyOp48
 70
     1
102
RTVSPropertyOp49
 70
     1
102
RTVSPropertyOp50
 70
     1
102
RTVSPropertyOp51
 70
     0
102
RTVSPropertyOp52
 70
     0
102
RTVSPropertyOp53
 70
     1
102
RTVSPropertyOp54
 70
     1
102
RTVSPropertyOp55
 70
     1
102
RTVSPropertyOp56
 70
     1
102
RTVSPropertyOp57
 70
     1
102
RTVSPost2010Prop28
280
     0
102
RTVSPost2010PropOp28
 70
     1
102
RTVSPost2010Prop29
280
     1
102
RTVSPost2010PropOp29
 70
     1
102
RTVSPost2010Prop30
280
     1
102
RTVSPost2010PropOp30
 70
     1
102
RTVSPost2010Prop31
280
     0
102
RTVSPost2010PropOp31
 70
     1
102
RTVSPost2010Prop32
280
     0
102
RTVSPost2010PropOp32
 70
     1
102
RTVSPost2010Prop33
280
     0
102
RTVSPost2010PropOp33
 70
     1
102
RTVSPost2010Prop34
280
     0
102
RTVSPost2010PropOp34
 70
     1
102
RTVSPost2010Prop35
280
     0
102
RTVSPost2010PropOp35
 70
     1
102
RTVSPost2010Prop36
280
     0
102
RTVSPost2010PropOp36
 70
     1
102
RTVSPost2010Prop37
 90
       50
102
RTVSPost2010PropOp37
 70
     1
102
RTVSPost2010Prop38
140
0.0
102
RTVSPost2010PropOp38
 70
     1
102
RTVSPost2010Prop39
140
1.0
102
RTVSPost2010PropOp39
 70
     1
102
RTVSPost2010Prop40
 90
        0
102
RTVSPost2010PropOp40
 70
     1
102
RTVSPost2010Prop41ColorIndex
 90
       18
102
RTVSPost2010Prop41ColorRGB
 90
        0
102
RTVSPost2010PropOp41
 70
     1
102
RTVSPost2010Prop42
 90
       50
102
RTVSPost2010PropOp42
 70
     1
102
RTVSPost2010Prop43
 90
        3
102
RTVSPost2010PropOp43
 70
     1
102
RTVSPost2010Prop44ColorIndex
 90
        5
102
RTVSPost2010Prop44ColorRGB
 90
      255
102
RTVSPost2010PropOp44
 70
     1
102
RTVSPost2010Prop45
280
     0
102
RTVSPost2010PropOp45
 70
     1
102
RTVSPost2010Prop46
 90
       50
102
RTVSPost2010PropOp46
 70
     1
102
RTVSPost2010Prop47
 90
       50
102
RTVSPost2010PropOp47
 70
     1
102
RTVSPost2010Prop48
 90
       50
102
RTVSPost2010PropOp48
 70
     1
102
RTVSPost2010Prop49
280
     0
102
RTVSPost2010PropOp49
 70
     1
102
RTVSPost2010Prop50
 90
       50
102
RTVSPost2010PropOp50
 70
     1
102
RTVSPost2010Prop51ColorIndex
 90
      256
102
RTVSPost2010Prop51ColorRGB
 90
-16777216
102
RTVSPost2010PropOp51
 70
     0
102
RTVSPost2010Prop52
140
1.0
102
RTVSPost2010PropOp52
 70
     0
102
RTVSPost2010Prop53
 90
        2
102
RTVSPost2010PropOp53
 70
     1
102
RTVSPost2010Prop54
  1
strokes_ogs.tif
102
RTVSPost2010PropOp54
 70
     1
102
RTVSPost2010Prop55
280
     0
102
RTVSPost2010PropOp55
 70
     1
102
RTVSPost2010Prop56
140
1.0
102
RTVSPost2010PropOp56
 70
     1
102
RTVSPost2010Prop57
140
1.0
102
RTVSPost2010PropOp57
 70
     1
  0
XRECORD
  5
38E
102
{ACAD_REACTORS
330
38D
102
}
330
38D
100
AcDbXrecord
280
     1
102
RTVSPropertyOp0
 70
     1
102
RTVSPropertyOp1
 70
     1
102
RTVSPropertyOp2
 70
     1
102
RTVSPropertyOp3
 70
     1
102
RTVSPropertyOp4
 70
     1
102
RTVSPropertyOp5
 70
     1
102
RTVSPropertyOp6
 70
     1
102
RTVSPropertyOp7
 70
     1
102
RTVSPropertyOp8
 70
     1
102
RTVSPropertyOp9
 70
     1
102
RTVSPropertyOp10
 70
     1
102
RTVSPropertyOp11
 70
     1
102
RTVSPropertyOp12
 70
     1
102
RTVSPropertyOp13
 70
     1
102
RTVSPropertyOp14
 70
     1
102
RTVSPropertyOp15
 70
     1
102
RTVSPropertyOp16
 70
     1
102
RTVSPropertyOp17
 70
     1
102
RTVSPropertyOp18
 70
     1
102
RTVSPropertyOp19
 70
     1
102
RTVSPropertyOp20
 70
     1
102
RTVSPropertyOp21
 70
     1
102
RTVSPropertyOp22
 70
     1
102
RTVSPropertyOp23
 70
     1
102
RTVSPropertyOp24
 70
     1
102
RTVSPropertyOp25
 70
     1
102
RTVSPropertyOp26
 70
     1
102
RTVSPropertyOp27
 70
     1
102
RTVSPropertyOp28
 70
     1
102
RTVSPropertyOp29
 70
     1
102
RTVSPropertyOp30
 70
     1
102
RTVSPropertyOp31
 70
     1
102
RTVSPropertyOp32
 70
     1
102
RTVSPropertyOp33
 70
     1
102
RTVSPropertyOp34
 70
     1
102
RTVSPropertyOp35
 70
     1
102
RTVSPropertyOp36
 70
     1
102
RTVSPropertyOp37
 70
     1
102
RTVSPropertyOp38
 70
     1
102
RTVSPropertyOp39
 70
     1
102
RTVSPropertyOp40
 70
     1
102
RTVSPropertyOp41
 70
     1
102
RTVSPropertyOp42
 70
     1
102
RTVSPropertyOp43
 70
     1
102
RTVSPropertyOp44
 70
     1
102
RTVSPropertyOp45
 70
     1
102
RTVSPropertyOp46
 70
     1
102
RTVSPropertyOp47
 70
     1
102
RTVSPropertyOp48
 70
     1
102
RTVSPropertyOp49
 70
     1
102
RTVSPropertyOp50
 70
     1
102
RTVSPropertyOp51
 70
     0
102
RTVSPropertyOp52
 70
     0
102
RTVSPropertyOp53
 70
     1
102
RTVSPropertyOp54
 70
     1
102
RTVSPropertyOp55
 70
     1
102
RTVSPropertyOp56
 70
     1
102
RTVSPropertyOp57
 70
     1
102
RTVSPost2010Prop28
280
     0
102
RTVSPost2010PropOp28
 70
     1
102
RTVSPost2010Prop29
280
     1
102
RTVSPost2010PropOp29
 70
     1
102
RTVSPost2010Prop30
280
     1
102
RTVSPost2010PropOp30
 70
     1
102
RTVSPost2010Prop31
280
     0
102
RTVSPost2010PropOp31
 70
     1
102
RTVSPost2010Prop32
280
     0
102
RTVSPost2010PropOp32
 70
     1
102
RTVSPost2010Prop33
280
     0
102
RTVSPost2010PropOp33
 70
     1
102
RTVSPost2010Prop34
280
     0
102
RTVSPost2010PropOp34
 70
     1
102
RTVSPost2010Prop35
280
     0
102
RTVSPost2010PropOp35
 70
     1
102
RTVSPost2010Prop36
280
     0
102
RTVSPost2010PropOp36
 70
     1
102
RTVSPost2010Prop37
 90
       50
102
RTVSPost2010PropOp37
 70
     1
102
RTVSPost2010Prop38
140
0.0
102
RTVSPost2010PropOp38
 70
     1
102
RTVSPost2010Prop39
140
1.0
102
RTVSPost2010PropOp39
 70
     1
102
RTVSPost2010Prop40
 90
        0
102
RTVSPost2010PropOp40
 70
     1
102
RTVSPost2010Prop41ColorIndex
 90
       18
102
RTVSPost2010Prop41ColorRGB
 90
        0
102
RTVSPost2010PropOp41
 70
     1
102
RTVSPost2010Prop42
 90
       50
102
RTVSPost2010PropOp42
 70
     1
102
RTVSPost2010Prop43
 90
        3
102
RTVSPost2010PropOp43
 70
     1
102
RTVSPost2010Prop44ColorIndex
 90
        5
102
RTVSPost2010Prop44ColorRGB
 90
      255
102
RTVSPost2010PropOp44
 70
     1
102
RTVSPost2010Prop45
280
     0
102
RTVSPost2010PropOp45
 70
     1
102
RTVSPost2010Prop46
 90
       50
102
RTVSPost2010PropOp46
 70
     1
102
RTVSPost2010Prop47
 90
       50
102
RTVSPost2010PropOp47
 70
     1
102
RTVSPost2010Prop48
 90
       50
102
RTVSPost2010PropOp48
 70
     1
102
RTVSPost2010Prop49
280
     0
102
RTVSPost2010PropOp49
 70
     1
102
RTVSPost2010Prop50
 90
       50
102
RTVSPost2010PropOp50
 70
     1
102
RTVSPost2010Prop51ColorIndex
 90
      256
102
RTVSPost2010Prop51ColorRGB
 90
-16777216
102
RTVSPost2010PropOp51
 70
     0
102
RTVSPost2010Prop52
140
1.0
102
RTVSPost2010PropOp52
 70
     0
102
RTVSPost2010Prop53
 90
        2
102
RTVSPost2010PropOp53
 70
     1
102
RTVSPost2010Prop54
  1
strokes_ogs.tif
102
RTVSPost2010PropOp54
 70
     1
102
RTVSPost2010Prop55
280
     0
102
RTVSPost2010PropOp55
 70
     1
102
RTVSPost2010Prop56
140
1.0
102
RTVSPost2010PropOp56
 70
     1
102
RTVSPost2010Prop57
140
1.0
102
RTVSPost2010PropOp57
 70
     1
  0
XRECORD
  5
396
102
{ACAD_REACTORS
330
395
102
}
330
395
100
AcDbXrecord
280
     1
102
RTVSPropertyOp0
 70
     1
102
RTVSPropertyOp1
 70
     1
102
RTVSPropertyOp2
 70
     1
102
RTVSPropertyOp3
 70
     1
102
RTVSPropertyOp4
 70
     1
102
RTVSPropertyOp5
 70
     1
102
RTVSPropertyOp6
 70
     1
102
RTVSPropertyOp7
 70
     1
102
RTVSPropertyOp8
 70
     1
102
RTVSPropertyOp9
 70
     1
102
RTVSPropertyOp10
 70
     1
102
RTVSPropertyOp11
 70
     1
102
RTVSPropertyOp12
 70
     1
102
RTVSPropertyOp13
 70
     1
102
RTVSPropertyOp14
 70
     1
102
RTVSPropertyOp15
 70
     1
102
RTVSPropertyOp16
 70
     1
102
RTVSPropertyOp17
 70
     1
102
RTVSPropertyOp18
 70
     1
102
RTVSPropertyOp19
 70
     1
102
RTVSPropertyOp20
 70
     1
102
RTVSPropertyOp21
 70
     1
102
RTVSPropertyOp22
 70
     1
102
RTVSPropertyOp23
 70
     1
102
RTVSPropertyOp24
 70
     1
102
RTVSPropertyOp25
 70
     1
102
RTVSPropertyOp26
 70
     1
102
RTVSPropertyOp27
 70
     1
102
RTVSPropertyOp28
 70
     1
102
RTVSPropertyOp29
 70
     1
102
RTVSPropertyOp30
 70
     1
102
RTVSPropertyOp31
 70
     1
102
RTVSPropertyOp32
 70
     1
102
RTVSPropertyOp33
 70
     1
102
RTVSPropertyOp34
 70
     1
102
RTVSPropertyOp35
 70
     1
102
RTVSPropertyOp36
 70
     1
102
RTVSPropertyOp37
 70
     1
102
RTVSPropertyOp38
 70
     1
102
RTVSPropertyOp39
 70
     1
102
RTVSPropertyOp40
 70
     1
102
RTVSPropertyOp41
 70
     1
102
RTVSPropertyOp42
 70
     1
102
RTVSPropertyOp43
 70
     1
102
RTVSPropertyOp44
 70
     1
102
RTVSPropertyOp45
 70
     1
102
RTVSPropertyOp46
 70
     1
102
RTVSPropertyOp47
 70
     1
102
RTVSPropertyOp48
 70
     1
102
RTVSPropertyOp49
 70
     1
102
RTVSPropertyOp50
 70
     1
102
RTVSPropertyOp51
 70
     0
102
RTVSPropertyOp52
 70
     0
102
RTVSPropertyOp53
 70
     1
102
RTVSPropertyOp54
 70
     1
102
RTVSPropertyOp55
 70
     1
102
RTVSPropertyOp56
 70
     1
102
RTVSPropertyOp57
 70
     1
102
RTVSPost2010Prop28
280
     0
102
RTVSPost2010PropOp28
 70
     1
102
RTVSPost2010Prop29
280
     1
102
RTVSPost2010PropOp29
 70
     1
102
RTVSPost2010Prop30
280
     1
102
RTVSPost2010PropOp30
 70
     1
102
RTVSPost2010Prop31
280
     0
102
RTVSPost2010PropOp31
 70
     1
102
RTVSPost2010Prop32
280
     0
102
RTVSPost2010PropOp32
 70
     1
102
RTVSPost2010Prop33
280
     0
102
RTVSPost2010PropOp33
 70
     1
102
RTVSPost2010Prop34
280
     0
102
RTVSPost2010PropOp34
 70
     1
102
RTVSPost2010Prop35
280
     0
102
RTVSPost2010PropOp35
 70
     1
102
RTVSPost2010Prop36
280
     0
102
RTVSPost2010PropOp36
 70
     1
102
RTVSPost2010Prop37
 90
       50
102
RTVSPost2010PropOp37
 70
     1
102
RTVSPost2010Prop38
140
0.0
102
RTVSPost2010PropOp38
 70
     1
102
RTVSPost2010Prop39
140
1.0
102
RTVSPost2010PropOp39
 70
     1
102
RTVSPost2010Prop40
 90
        0
102
RTVSPost2010PropOp40
 70
     1
102
RTVSPost2010Prop41ColorIndex
 90
       18
102
RTVSPost2010Prop41ColorRGB
 90
        0
102
RTVSPost2010PropOp41
 70
     1
102
RTVSPost2010Prop42
 90
       50
102
RTVSPost2010PropOp42
 70
     1
102
RTVSPost2010Prop43
 90
        3
102
RTVSPost2010PropOp43
 70
     1
102
RTVSPost2010Prop44ColorIndex
 90
        5
102
RTVSPost2010Prop44ColorRGB
 90
      255
102
RTVSPost2010PropOp44
 70
     1
102
RTVSPost2010Prop45
280
     0
102
RTVSPost2010PropOp45
 70
     1
102
RTVSPost2010Prop46
 90
       50
102
RTVSPost2010PropOp46
 70
     1
102
RTVSPost2010Prop47
 90
       50
102
RTVSPost2010PropOp47
 70
     1
102
RTVSPost2010Prop48
 90
       50
102
RTVSPost2010PropOp48
 70
     1
102
RTVSPost2010Prop49
280
     0
102
RTVSPost2010PropOp49
 70
     1
102
RTVSPost2010Prop50
 90
       50
102
RTVSPost2010PropOp50
 70
     1
102
RTVSPost2010Prop51ColorIndex
 90
      256
102
RTVSPost2010Prop51ColorRGB
 90
-16777216
102
RTVSPost2010PropOp51
 70
     0
102
RTVSPost2010Prop52
140
1.0
102
RTVSPost2010PropOp52
 70
     0
102
RTVSPost2010Prop53
 90
        2
102
RTVSPost2010PropOp53
 70
     1
102
RTVSPost2010Prop54
  1
strokes_ogs.tif
102
RTVSPost2010PropOp54
 70
     1
102
RTVSPost2010Prop55
280
     0
102
RTVSPost2010PropOp55
 70
     1
102
RTVSPost2010Prop56
140
1.0
102
RTVSPost2010PropOp56
 70
     1
102
RTVSPost2010Prop57
140
1.0
102
RTVSPost2010PropOp57
 70
     1
  0
XRECORD
  5
38A
102
{ACAD_REACTORS
330
389
102
}
330
389
100
AcDbXrecord
280
     1
102
RTVSPropertyOp0
 70
     1
102
RTVSPropertyOp1
 70
     1
102
RTVSPropertyOp2
 70
     1
102
RTVSPropertyOp3
 70
     1
102
RTVSPropertyOp4
 70
     1
102
RTVSPropertyOp5
 70
     1
102
RTVSPropertyOp6
 70
     1
102
RTVSPropertyOp7
 70
     1
102
RTVSPropertyOp8
 70
     1
102
RTVSPropertyOp9
 70
     1
102
RTVSPropertyOp10
 70
     1
102
RTVSPropertyOp11
 70
     1
102
RTVSPropertyOp12
 70
     1
102
RTVSPropertyOp13
 70
     1
102
RTVSPropertyOp14
 70
     1
102
RTVSPropertyOp15
 70
     1
102
RTVSPropertyOp16
 70
     1
102
RTVSPropertyOp17
 70
     1
102
RTVSPropertyOp18
 70
     1
102
RTVSPropertyOp19
 70
     1
102
RTVSPropertyOp20
 70
     1
102
RTVSPropertyOp21
 70
     1
102
RTVSPropertyOp22
 70
     1
102
RTVSPropertyOp23
 70
     1
102
RTVSPropertyOp24
 70
     1
102
RTVSPropertyOp25
 70
     1
102
RTVSPropertyOp26
 70
     1
102
RTVSPropertyOp27
 70
     1
102
RTVSPropertyOp28
 70
     1
102
RTVSPropertyOp29
 70
     1
102
RTVSPropertyOp30
 70
     1
102
RTVSPropertyOp31
 70
     1
102
RTVSPropertyOp32
 70
     1
102
RTVSPropertyOp33
 70
     1
102
RTVSPropertyOp34
 70
     1
102
RTVSPropertyOp35
 70
     1
102
RTVSPropertyOp36
 70
     1
102
RTVSPropertyOp37
 70
     1
102
RTVSPropertyOp38
 70
     1
102
RTVSPropertyOp39
 70
     1
102
RTVSPropertyOp40
 70
     1
102
RTVSPropertyOp41
 70
     1
102
RTVSPropertyOp42
 70
     1
102
RTVSPropertyOp43
 70
     1
102
RTVSPropertyOp44
 70
     1
102
RTVSPropertyOp45
 70
     1
102
RTVSPropertyOp46
 70
     1
102
RTVSPropertyOp47
 70
     1
102
RTVSPropertyOp48
 70
     1
102
RTVSPropertyOp49
 70
     1
102
RTVSPropertyOp50
 70
     1
102
RTVSPropertyOp51
 70
     0
102
RTVSPropertyOp52
 70
     0
102
RTVSPropertyOp53
 70
     1
102
RTVSPropertyOp54
 70
     1
102
RTVSPropertyOp55
 70
     1
102
RTVSPropertyOp56
 70
     1
102
RTVSPropertyOp57
 70
     1
102
RTVSPost2010Prop28
280
     0
102
RTVSPost2010PropOp28
 70
     1
102
RTVSPost2010Prop29
280
     1
102
RTVSPost2010PropOp29
 70
     1
102
RTVSPost2010Prop30
280
     1
102
RTVSPost2010PropOp30
 70
     1
102
RTVSPost2010Prop31
280
     0
102
RTVSPost2010PropOp31
 70
     1
102
RTVSPost2010Prop32
280
     0
102
RTVSPost2010PropOp32
 70
     1
102
RTVSPost2010Prop33
280
     0
102
RTVSPost2010PropOp33
 70
     1
102
RTVSPost2010Prop34
280
     0
102
RTVSPost2010PropOp34
 70
     1
102
RTVSPost2010Prop35
280
     0
102
RTVSPost2010PropOp35
 70
     1
102
RTVSPost2010Prop36
280
     0
102
RTVSPost2010PropOp36
 70
     1
102
RTVSPost2010Prop37
 90
       50
102
RTVSPost2010PropOp37
 70
     1
102
RTVSPost2010Prop38
140
0.0
102
RTVSPost2010PropOp38
 70
     1
102
RTVSPost2010Prop39
140
1.0
102
RTVSPost2010PropOp39
 70
     1
102
RTVSPost2010Prop40
 90
        0
102
RTVSPost2010PropOp40
 70
     1
102
RTVSPost2010Prop41ColorIndex
 90
       18
102
RTVSPost2010Prop41ColorRGB
 90
        0
102
RTVSPost2010PropOp41
 70
     1
102
RTVSPost2010Prop42
 90
       50
102
RTVSPost2010PropOp42
 70
     1
102
RTVSPost2010Prop43
 90
        3
102
RTVSPost2010PropOp43
 70
     1
102
RTVSPost2010Prop44ColorIndex
 90
        5
102
RTVSPost2010Prop44ColorRGB
 90
      255
102
RTVSPost2010PropOp44
 70
     1
102
RTVSPost2010Prop45
280
     0
102
RTVSPost2010PropOp45
 70
     1
102
RTVSPost2010Prop46
 90
       50
102
RTVSPost2010PropOp46
 70
     1
102
RTVSPost2010Prop47
 90
       50
102
RTVSPost2010PropOp47
 70
     1
102
RTVSPost2010Prop48
 90
       50
102
RTVSPost2010PropOp48
 70
     1
102
RTVSPost2010Prop49
280
     0
102
RTVSPost2010PropOp49
 70
     1
102
RTVSPost2010Prop50
 90
       50
102
RTVSPost2010PropOp50
 70
     1
102
RTVSPost2010Prop51ColorIndex
 90
      256
102
RTVSPost2010Prop51ColorRGB
 90
-16777216
102
RTVSPost2010PropOp51
 70
     0
102
RTVSPost2010Prop52
140
1.0
102
RTVSPost2010PropOp52
 70
     0
102
RTVSPost2010Prop53
 90
        2
102
RTVSPost2010PropOp53
 70
     1
102
RTVSPost2010Prop54
  1
strokes_ogs.tif
102
RTVSPost2010PropOp54
 70
     1
102
RTVSPost2010Prop55
280
     0
102
RTVSPost2010PropOp55
 70
     1
102
RTVSPost2010Prop56
140
1.0
102
RTVSPost2010PropOp56
 70
     1
102
RTVSPost2010Prop57
140
1.0
102
RTVSPost2010PropOp57
 70
     1
  0
XRECORD
  5
38C
102
{ACAD_REACTORS
330
38B
102
}
330
38B
100
AcDbXrecord
280
     1
102
RTVSPropertyOp0
 70
     1
102
RTVSPropertyOp1
 70
     1
102
RTVSPropertyOp2
 70
     1
102
RTVSPropertyOp3
 70
     1
102
RTVSPropertyOp4
 70
     1
102
RTVSPropertyOp5
 70
     1
102
RTVSPropertyOp6
 70
     1
102
RTVSPropertyOp7
 70
     1
102
RTVSPropertyOp8
 70
     1
102
RTVSPropertyOp9
 70
     1
102
RTVSPropertyOp10
 70
     1
102
RTVSPropertyOp11
 70
     1
102
RTVSPropertyOp12
 70
     1
102
RTVSPropertyOp13
 70
     1
102
RTVSPropertyOp14
 70
     1
102
RTVSPropertyOp15
 70
     1
102
RTVSPropertyOp16
 70
     1
102
RTVSPropertyOp17
 70
     1
102
RTVSPropertyOp18
 70
     1
102
RTVSPropertyOp19
 70
     1
102
RTVSPropertyOp20
 70
     1
102
RTVSPropertyOp21
 70
     1
102
RTVSPropertyOp22
 70
     1
102
RTVSPropertyOp23
 70
     1
102
RTVSPropertyOp24
 70
     1
102
RTVSPropertyOp25
 70
     1
102
RTVSPropertyOp26
 70
     1
102
RTVSPropertyOp27
 70
     1
102
RTVSPropertyOp28
 70
     1
102
RTVSPropertyOp29
 70
     1
102
RTVSPropertyOp30
 70
     1
102
RTVSPropertyOp31
 70
     1
102
RTVSPropertyOp32
 70
     1
102
RTVSPropertyOp33
 70
     1
102
RTVSPropertyOp34
 70
     1
102
RTVSPropertyOp35
 70
     1
102
RTVSPropertyOp36
 70
     1
102
RTVSPropertyOp37
 70
     1
102
RTVSPropertyOp38
 70
     1
102
RTVSPropertyOp39
 70
     1
102
RTVSPropertyOp40
 70
     1
102
RTVSPropertyOp41
 70
     1
102
RTVSPropertyOp42
 70
     1
102
RTVSPropertyOp43
 70
     1
102
RTVSPropertyOp44
 70
     1
102
RTVSPropertyOp45
 70
     1
102
RTVSPropertyOp46
 70
     1
102
RTVSPropertyOp47
 70
     1
102
RTVSPropertyOp48
 70
     1
102
RTVSPropertyOp49
 70
     1
102
RTVSPropertyOp50
 70
     1
102
RTVSPropertyOp51
 70
     0
102
RTVSPropertyOp52
 70
     0
102
RTVSPropertyOp53
 70
     1
102
RTVSPropertyOp54
 70
     1
102
RTVSPropertyOp55
 70
     1
102
RTVSPropertyOp56
 70
     1
102
RTVSPropertyOp57
 70
     1
102
RTVSPost2010Prop28
280
     0
102
RTVSPost2010PropOp28
 70
     1
102
RTVSPost2010Prop29
280
     1
102
RTVSPost2010PropOp29
 70
     1
102
RTVSPost2010Prop30
280
     1
102
RTVSPost2010PropOp30
 70
     1
102
RTVSPost2010Prop31
280
     0
102
RTVSPost2010PropOp31
 70
     1
102
RTVSPost2010Prop32
280
     0
102
RTVSPost2010PropOp32
 70
     1
102
RTVSPost2010Prop33
280
     0
102
RTVSPost2010PropOp33
 70
     1
102
RTVSPost2010Prop34
280
     0
102
RTVSPost2010PropOp34
 70
     1
102
RTVSPost2010Prop35
280
     0
102
RTVSPost2010PropOp35
 70
     1
102
RTVSPost2010Prop36
280
     0
102
RTVSPost2010PropOp36
 70
     1
102
RTVSPost2010Prop37
 90
       50
102
RTVSPost2010PropOp37
 70
     1
102
RTVSPost2010Prop38
140
0.0
102
RTVSPost2010PropOp38
 70
     1
102
RTVSPost2010Prop39
140
1.0
102
RTVSPost2010PropOp39
 70
     1
102
RTVSPost2010Prop40
 90
        0
102
RTVSPost2010PropOp40
 70
     1
102
RTVSPost2010Prop41ColorIndex
 90
       18
102
RTVSPost2010Prop41ColorRGB
 90
        0
102
RTVSPost2010PropOp41
 70
     1
102
RTVSPost2010Prop42
 90
       50
102
RTVSPost2010PropOp42
 70
     1
102
RTVSPost2010Prop43
 90
        3
102
RTVSPost2010PropOp43
 70
     1
102
RTVSPost2010Prop44ColorIndex
 90
        5
102
RTVSPost2010Prop44ColorRGB
 90
      255
102
RTVSPost2010PropOp44
 70
     1
102
RTVSPost2010Prop45
280
     0
102
RTVSPost2010PropOp45
 70
     1
102
RTVSPost2010Prop46
 90
       50
102
RTVSPost2010PropOp46
 70
     1
102
RTVSPost2010Prop47
 90
       50
102
RTVSPost2010PropOp47
 70
     1
102
RTVSPost2010Prop48
 90
       50
102
RTVSPost2010PropOp48
 70
     1
102
RTVSPost2010Prop49
280
     0
102
RTVSPost2010PropOp49
 70
     1
102
RTVSPost2010Prop50
 90
       50
102
RTVSPost2010PropOp50
 70
     1
102
RTVSPost2010Prop51ColorIndex
 90
      256
102
RTVSPost2010Prop51ColorRGB
 90
-16777216
102
RTVSPost2010PropOp51
 70
     0
102
RTVSPost2010Prop52
140
1.0
102
RTVSPost2010PropOp52
 70
     0
102
RTVSPost2010Prop53
 90
        2
102
RTVSPost2010PropOp53
 70
     1
102
RTVSPost2010Prop54
  1
strokes_ogs.tif
102
RTVSPost2010PropOp54
 70
     1
102
RTVSPost2010Prop55
280
     0
102
RTVSPost2010PropOp55
 70
     1
102
RTVSPost2010Prop56
140
1.0
102
RTVSPost2010PropOp56
 70
     1
102
RTVSPost2010Prop57
140
1.0
102
RTVSPost2010PropOp57
 70
     1
  0
XRECORD
  5
39C
102
{ACAD_REACTORS
330
39B
102
}
330
39B
100
AcDbXrecord
280
     1
102
RTVSPropertyOp0
 70
     0
102
RTVSPropertyOp1
 70
     0
102
RTVSPropertyOp2
 70
     0
102
RTVSPropertyOp3
 70
     0
102
RTVSPropertyOp4
 70
     0
102
RTVSPropertyOp5
 70
     0
102
RTVSPropertyOp6
 70
     0
102
RTVSPropertyOp7
 70
     0
102
RTVSPropertyOp8
 70
     0
102
RTVSPropertyOp9
 70
     0
102
RTVSPropertyOp10
 70
     0
102
RTVSPropertyOp11
 70
     0
102
RTVSPropertyOp12
 70
     0
102
RTVSPropertyOp13
 70
     0
102
RTVSPropertyOp14
 70
     2
102
RTVSPropertyOp15
 70
     0
102
RTVSPropertyOp16
 70
     0
102
RTVSPropertyOp17
 70
     0
102
RTVSPropertyOp18
 70
     0
102
RTVSPropertyOp19
 70
     0
102
RTVSPropertyOp20
 70
     0
102
RTVSPropertyOp21
 70
     0
102
RTVSPropertyOp22
 70
     0
102
RTVSPropertyOp23
 70
     0
102
RTVSPropertyOp24
 70
     0
102
RTVSPropertyOp25
 70
     0
102
RTVSPropertyOp26
 70
     0
102
RTVSPropertyOp27
 70
     0
102
RTVSPropertyOp28
 70
     0
102
RTVSPropertyOp29
 70
     0
102
RTVSPropertyOp30
 70
     0
102
RTVSPropertyOp31
 70
     0
102
RTVSPropertyOp32
 70
     0
102
RTVSPropertyOp33
 70
     0
102
RTVSPropertyOp34
 70
     0
102
RTVSPropertyOp35
 70
     0
102
RTVSPropertyOp36
 70
     0
102
RTVSPropertyOp37
 70
     0
102
RTVSPropertyOp38
 70
     0
102
RTVSPropertyOp39
 70
     0
102
RTVSPropertyOp40
 70
     0
102
RTVSPropertyOp41
 70
     0
102
RTVSPropertyOp42
 70
     0
102
RTVSPropertyOp43
 70
     0
102
RTVSPropertyOp44
 70
     0
102
RTVSPropertyOp45
 70
     0
102
RTVSPropertyOp46
 70
     0
102
RTVSPropertyOp47
 70
     0
102
RTVSPropertyOp48
 70
     0
102
RTVSPropertyOp49
 70
     0
102
RTVSPropertyOp50
 70
     0
102
RTVSPropertyOp51
 70
     0
102
RTVSPropertyOp52
 70
     0
102
RTVSPropertyOp53
 70
     0
102
RTVSPropertyOp54
 70
     0
102
RTVSPropertyOp55
 70
     0
102
RTVSPropertyOp56
 70
     0
102
RTVSPropertyOp57
 70
     0
102
RTVSPost2010Prop28
280
     0
102
RTVSPost2010PropOp28
 70
     0
102
RTVSPost2010Prop29
280
     1
102
RTVSPost2010PropOp29
 70
     0
102
RTVSPost2010Prop30
280
     1
102
RTVSPost2010PropOp30
 70
     0
102
RTVSPost2010Prop31
280
     0
102
RTVSPost2010PropOp31
 70
     0
102
RTVSPost2010Prop32
280
     0
102
RTVSPost2010PropOp32
 70
     0
102
RTVSPost2010Prop33
280
     0
102
RTVSPost2010PropOp33
 70
     0
102
RTVSPost2010Prop34
280
     0
102
RTVSPost2010PropOp34
 70
     0
102
RTVSPost2010Prop35
280
     0
102
RTVSPost2010PropOp35
 70
     0
102
RTVSPost2010Prop36
280
     0
102
RTVSPost2010PropOp36
 70
     0
102
RTVSPost2010Prop37
 90
       50
102
RTVSPost2010PropOp37
 70
     0
102
RTVSPost2010Prop38
140
0.0
102
RTVSPost2010PropOp38
 70
     0
102
RTVSPost2010Prop39
140
1.0
102
RTVSPost2010PropOp39
 70
     0
102
RTVSPost2010Prop40
 90
        0
102
RTVSPost2010PropOp40
 70
     0
102
RTVSPost2010Prop41ColorIndex
 90
       18
102
RTVSPost2010Prop41ColorRGB
 90
        0
102
RTVSPost2010PropOp41
 70
     0
102
RTVSPost2010Prop42
 90
       50
102
RTVSPost2010PropOp42
 70
     0
102
RTVSPost2010Prop43
 90
        3
102
RTVSPost2010PropOp43
 70
     0
102
RTVSPost2010Prop44ColorIndex
 90
        5
102
RTVSPost2010Prop44ColorRGB
 90
      255
102
RTVSPost2010PropOp44
 70
     0
102
RTVSPost2010Prop45
280
     0
102
RTVSPost2010PropOp45
 70
     0
102
RTVSPost2010Prop46
 90
       50
102
RTVSPost2010PropOp46
 70
     0
102
RTVSPost2010Prop47
 90
       50
102
RTVSPost2010PropOp47
 70
     0
102
RTVSPost2010Prop48
 90
       50
102
RTVSPost2010PropOp48
 70
     0
102
RTVSPost2010Prop49
280
     0
102
RTVSPost2010PropOp49
 70
     0
102
RTVSPost2010Prop50
 90
       50
102
RTVSPost2010PropOp50
 70
     0
102
RTVSPost2010Prop51ColorIndex
 90
      256
102
RTVSPost2010Prop51ColorRGB
 90
-16777216
102
RTVSPost2010PropOp51
 70
     0
102
RTVSPost2010Prop52
140
1.0
102
RTVSPost2010PropOp52
 70
     0
102
RTVSPost2010Prop53
 90
        2
102
RTVSPost2010PropOp53
 70
     0
102
RTVSPost2010Prop54
  1
strokes_ogs.tif
102
RTVSPost2010PropOp54
 70
     0
102
RTVSPost2010Prop55
280
     0
102
RTVSPost2010PropOp55
 70
     0
102
RTVSPost2010Prop56
140
1.0
102
RTVSPost2010PropOp56
 70
     0
102
RTVSPost2010Prop57
140
1.0
102
RTVSPost2010PropOp57
 70
     0
  0
XRECORD
  5
394
102
{ACAD_REACTORS
330
393
102
}
330
393
100
AcDbXrecord
280
     1
102
RTVSPropertyOp0
 70
     1
102
RTVSPropertyOp1
 70
     1
102
RTVSPropertyOp2
 70
     1
102
RTVSPropertyOp3
 70
     1
102
RTVSPropertyOp4
 70
     1
102
RTVSPropertyOp5
 70
     1
102
RTVSPropertyOp6
 70
     1
102
RTVSPropertyOp7
 70
     1
102
RTVSPropertyOp8
 70
     1
102
RTVSPropertyOp9
 70
     1
102
RTVSPropertyOp10
 70
     1
102
RTVSPropertyOp11
 70
     1
102
RTVSPropertyOp12
 70
     1
102
RTVSPropertyOp13
 70
     1
102
RTVSPropertyOp14
 70
     1
102
RTVSPropertyOp15
 70
     1
102
RTVSPropertyOp16
 70
     1
102
RTVSPropertyOp17
 70
     1
102
RTVSPropertyOp18
 70
     1
102
RTVSPropertyOp19
 70
     1
102
RTVSPropertyOp20
 70
     1
102
RTVSPropertyOp21
 70
     1
102
RTVSPropertyOp22
 70
     1
102
RTVSPropertyOp23
 70
     1
102
RTVSPropertyOp24
 70
     1
102
RTVSPropertyOp25
 70
     1
102
RTVSPropertyOp26
 70
     1
102
RTVSPropertyOp27
 70
     1
102
RTVSPropertyOp28
 70
     1
102
RTVSPropertyOp29
 70
     1
102
RTVSPropertyOp30
 70
     1
102
RTVSPropertyOp31
 70
     1
102
RTVSPropertyOp32
 70
     1
102
RTVSPropertyOp33
 70
     1
102
RTVSPropertyOp34
 70
     1
102
RTVSPropertyOp35
 70
     1
102
RTVSPropertyOp36
 70
     1
102
RTVSPropertyOp37
 70
     1
102
RTVSPropertyOp38
 70
     1
102
RTVSPropertyOp39
 70
     1
102
RTVSPropertyOp40
 70
     1
102
RTVSPropertyOp41
 70
     1
102
RTVSPropertyOp42
 70
     1
102
RTVSPropertyOp43
 70
     1
102
RTVSPropertyOp44
 70
     1
102
RTVSPropertyOp45
 70
     1
102
RTVSPropertyOp46
 70
     1
102
RTVSPropertyOp47
 70
     1
102
RTVSPropertyOp48
 70
     1
102
RTVSPropertyOp49
 70
     1
102
RTVSPropertyOp50
 70
     1
102
RTVSPropertyOp51
 70
     0
102
RTVSPropertyOp52
 70
     0
102
RTVSPropertyOp53
 70
     1
102
RTVSPropertyOp54
 70
     1
102
RTVSPropertyOp55
 70
     1
102
RTVSPropertyOp56
 70
     1
102
RTVSPropertyOp57
 70
     1
102
RTVSPost2010Prop28
280
     0
102
RTVSPost2010PropOp28
 70
     1
102
RTVSPost2010Prop29
280
     1
102
RTVSPost2010PropOp29
 70
     1
102
RTVSPost2010Prop30
280
     1
102
RTVSPost2010PropOp30
 70
     1
102
RTVSPost2010Prop31
280
     0
102
RTVSPost2010PropOp31
 70
     1
102
RTVSPost2010Prop32
280
     0
102
RTVSPost2010PropOp32
 70
     1
102
RTVSPost2010Prop33
280
     0
102
RTVSPost2010PropOp33
 70
     1
102
RTVSPost2010Prop34
280
     0
102
RTVSPost2010PropOp34
 70
     1
102
RTVSPost2010Prop35
280
     0
102
RTVSPost2010PropOp35
 70
     1
102
RTVSPost2010Prop36
280
     0
102
RTVSPost2010PropOp36
 70
     1
102
RTVSPost2010Prop37
 90
       50
102
RTVSPost2010PropOp37
 70
     1
102
RTVSPost2010Prop38
140
0.0
102
RTVSPost2010PropOp38
 70
     1
102
RTVSPost2010Prop39
140
1.0
102
RTVSPost2010PropOp39
 70
     1
102
RTVSPost2010Prop40
 90
        0
102
RTVSPost2010PropOp40
 70
     1
102
RTVSPost2010Prop41ColorIndex
 90
       18
102
RTVSPost2010Prop41ColorRGB
 90
        0
102
RTVSPost2010PropOp41
 70
     1
102
RTVSPost2010Prop42
 90
       50
102
RTVSPost2010PropOp42
 70
     1
102
RTVSPost2010Prop43
 90
        3
102
RTVSPost2010PropOp43
 70
     1
102
RTVSPost2010Prop44ColorIndex
 90
        5
102
RTVSPost2010Prop44ColorRGB
 90
      255
102
RTVSPost2010PropOp44
 70
     1
102
RTVSPost2010Prop45
280
     0
102
RTVSPost2010PropOp45
 70
     1
102
RTVSPost2010Prop46
 90
       50
102
RTVSPost2010PropOp46
 70
     1
102
RTVSPost2010Prop47
 90
       50
102
RTVSPost2010PropOp47
 70
     1
102
RTVSPost2010Prop48
 90
       50
102
RTVSPost2010PropOp48
 70
     1
102
RTVSPost2010Prop49
280
     0
102
RTVSPost2010PropOp49
 70
     1
102
RTVSPost2010Prop50
 90
       50
102
RTVSPost2010PropOp50
 70
     1
102
RTVSPost2010Prop51ColorIndex
 90
      256
102
RTVSPost2010Prop51ColorRGB
 90
-16777216
102
RTVSPost2010PropOp51
 70
     0
102
RTVSPost2010Prop52
140
1.0
102
RTVSPost2010PropOp52
 70
     0
102
RTVSPost2010Prop53
 90
        2
102
RTVSPost2010PropOp53
 70
     1
102
RTVSPost2010Prop54
  1
strokes_ogs.tif
102
RTVSPost2010PropOp54
 70
     1
102
RTVSPost2010Prop55
280
     0
102
RTVSPost2010PropOp55
 70
     1
102
RTVSPost2010Prop56
140
1.0
102
RTVSPost2010PropOp56
 70
     1
102
RTVSPost2010Prop57
140
1.0
102
RTVSPost2010PropOp57
 70
     1
  0
XRECORD
  5
378
102
{ACAD_REACTORS
330
377
102
}
330
377
100
AcDbXrecord
280
     1
102
RTVSPropertyOp0
 70
     1
102
RTVSPropertyOp1
 70
     1
102
RTVSPropertyOp2
 70
     1
102
RTVSPropertyOp3
 70
     1
102
RTVSPropertyOp4
 70
     1
102
RTVSPropertyOp5
 70
     1
102
RTVSPropertyOp6
 70
     1
102
RTVSPropertyOp7
 70
     1
102
RTVSPropertyOp8
 70
     1
102
RTVSPropertyOp9
 70
     1
102
RTVSPropertyOp10
 70
     1
102
RTVSPropertyOp11
 70
     1
102
RTVSPropertyOp12
 70
     1
102
RTVSPropertyOp13
 70
     1
102
RTVSPropertyOp14
 70
     1
102
RTVSPropertyOp15
 70
     1
102
RTVSPropertyOp16
 70
     1
102
RTVSPropertyOp17
 70
     1
102
RTVSPropertyOp18
 70
     1
102
RTVSPropertyOp19
 70
     1
102
RTVSPropertyOp20
 70
     1
102
RTVSPropertyOp21
 70
     1
102
RTVSPropertyOp22
 70
     1
102
RTVSPropertyOp23
 70
     1
102
RTVSPropertyOp24
 70
     1
102
RTVSPropertyOp25
 70
     1
102
RTVSPropertyOp26
 70
     1
102
RTVSPropertyOp27
 70
     1
102
RTVSPropertyOp28
 70
     1
102
RTVSPropertyOp29
 70
     1
102
RTVSPropertyOp30
 70
     1
102
RTVSPropertyOp31
 70
     1
102
RTVSPropertyOp32
 70
     1
102
RTVSPropertyOp33
 70
     1
102
RTVSPropertyOp34
 70
     1
102
RTVSPropertyOp35
 70
     1
102
RTVSPropertyOp36
 70
     1
102
RTVSPropertyOp37
 70
     1
102
RTVSPropertyOp38
 70
     1
102
RTVSPropertyOp39
 70
     1
102
RTVSPropertyOp40
 70
     1
102
RTVSPropertyOp41
 70
     1
102
RTVSPropertyOp42
 70
     1
102
RTVSPropertyOp43
 70
     1
102
RTVSPropertyOp44
 70
     1
102
RTVSPropertyOp45
 70
     1
102
RTVSPropertyOp46
 70
     1
102
RTVSPropertyOp47
 70
     1
102
RTVSPropertyOp48
 70
     1
102
RTVSPropertyOp49
 70
     1
102
RTVSPropertyOp50
 70
     1
102
RTVSPropertyOp51
 70
     0
102
RTVSPropertyOp52
 70
     0
102
RTVSPropertyOp53
 70
     1
102
RTVSPropertyOp54
 70
     1
102
RTVSPropertyOp55
 70
     1
102
RTVSPropertyOp56
 70
     1
102
RTVSPropertyOp57
 70
     1
102
RTVSPost2010Prop28
280
     0
102
RTVSPost2010PropOp28
 70
     1
102
RTVSPost2010Prop29
280
     1
102
RTVSPost2010PropOp29
 70
     1
102
RTVSPost2010Prop30
280
     1
102
RTVSPost2010PropOp30
 70
     1
102
RTVSPost2010Prop31
280
     0
102
RTVSPost2010PropOp31
 70
     1
102
RTVSPost2010Prop32
280
     0
102
RTVSPost2010PropOp32
 70
     1
102
RTVSPost2010Prop33
280
     0
102
RTVSPost2010PropOp33
 70
     1
102
RTVSPost2010Prop34
280
     0
102
RTVSPost2010PropOp34
 70
     1
102
RTVSPost2010Prop35
280
     0
102
RTVSPost2010PropOp35
 70
     1
102
RTVSPost2010Prop36
280
     0
102
RTVSPost2010PropOp36
 70
     1
102
RTVSPost2010Prop37
 90
       50
102
RTVSPost2010PropOp37
 70
     1
102
RTVSPost2010Prop38
140
0.0
102
RTVSPost2010PropOp38
 70
     1
102
RTVSPost2010Prop39
140
1.0
102
RTVSPost2010PropOp39
 70
     1
102
RTVSPost2010Prop40
 90
        0
102
RTVSPost2010PropOp40
 70
     1
102
RTVSPost2010Prop41ColorIndex
 90
       18
102
RTVSPost2010Prop41ColorRGB
 90
        0
102
RTVSPost2010PropOp41
 70
     1
102
RTVSPost2010Prop42
 90
       50
102
RTVSPost2010PropOp42
 70
     1
102
RTVSPost2010Prop43
 90
        3
102
RTVSPost2010PropOp43
 70
     1
102
RTVSPost2010Prop44ColorIndex
 90
        5
102
RTVSPost2010Prop44ColorRGB
 90
      255
102
RTVSPost2010PropOp44
 70
     1
102
RTVSPost2010Prop45
280
     0
102
RTVSPost2010PropOp45
 70
     1
102
RTVSPost2010Prop46
 90
       50
102
RTVSPost2010PropOp46
 70
     1
102
RTVSPost2010Prop47
 90
       50
102
RTVSPost2010PropOp47
 70
     1
102
RTVSPost2010Prop48
 90
       50
102
RTVSPost2010PropOp48
 70
     1
102
RTVSPost2010Prop49
280
     0
102
RTVSPost2010PropOp49
 70
     1
102
RTVSPost2010Prop50
 90
       50
102
RTVSPost2010PropOp50
 70
     1
102
RTVSPost2010Prop51ColorIndex
 90
      256
102
RTVSPost2010Prop51ColorRGB
 90
-16777216
102
RTVSPost2010PropOp51
 70
     0
102
RTVSPost2010Prop52
140
1.0
102
RTVSPost2010PropOp52
 70
     0
102
RTVSPost2010Prop53
 90
        2
102
RTVSPost2010PropOp53
 70
     1
102
RTVSPost2010Prop54
  1
strokes_ogs.tif
102
RTVSPost2010PropOp54
 70
     1
102
RTVSPost2010Prop55
280
     0
102
RTVSPost2010PropOp55
 70
     1
102
RTVSPost2010Prop56
140
1.0
102
RTVSPost2010PropOp56
 70
     1
102
RTVSPost2010Prop57
140
1.0
102
RTVSPost2010PropOp57
 70
     1
  0
XRECORD
  5
37A
102
{ACAD_REACTORS
330
379
102
}
330
379
100
AcDbXrecord
280
     1
102
RTVSPropertyOp0
 70
     1
102
RTVSPropertyOp1
 70
     1
102
RTVSPropertyOp2
 70
     1
102
RTVSPropertyOp3
 70
     1
102
RTVSPropertyOp4
 70
     1
102
RTVSPropertyOp5
 70
     1
102
RTVSPropertyOp6
 70
     1
102
RTVSPropertyOp7
 70
     1
102
RTVSPropertyOp8
 70
     1
102
RTVSPropertyOp9
 70
     1
102
RTVSPropertyOp10
 70
     1
102
RTVSPropertyOp11
 70
     1
102
RTVSPropertyOp12
 70
     1
102
RTVSPropertyOp13
 70
     1
102
RTVSPropertyOp14
 70
     1
102
RTVSPropertyOp15
 70
     1
102
RTVSPropertyOp16
 70
     1
102
RTVSPropertyOp17
 70
     1
102
RTVSPropertyOp18
 70
     1
102
RTVSPropertyOp19
 70
     1
102
RTVSPropertyOp20
 70
     1
102
RTVSPropertyOp21
 70
     1
102
RTVSPropertyOp22
 70
     1
102
RTVSPropertyOp23
 70
     1
102
RTVSPropertyOp24
 70
     1
102
RTVSPropertyOp25
 70
     1
102
RTVSPropertyOp26
 70
     1
102
RTVSPropertyOp27
 70
     1
102
RTVSPropertyOp28
 70
     1
102
RTVSPropertyOp29
 70
     1
102
RTVSPropertyOp30
 70
     1
102
RTVSPropertyOp31
 70
     1
102
RTVSPropertyOp32
 70
     1
102
RTVSPropertyOp33
 70
     1
102
RTVSPropertyOp34
 70
     1
102
RTVSPropertyOp35
 70
     1
102
RTVSPropertyOp36
 70
     1
102
RTVSPropertyOp37
 70
     1
102
RTVSPropertyOp38
 70
     1
102
RTVSPropertyOp39
 70
     1
102
RTVSPropertyOp40
 70
     1
102
RTVSPropertyOp41
 70
     1
102
RTVSPropertyOp42
 70
     1
102
RTVSPropertyOp43
 70
     1
102
RTVSPropertyOp44
 70
     1
102
RTVSPropertyOp45
 70
     1
102
RTVSPropertyOp46
 70
     1
102
RTVSPropertyOp47
 70
     1
102
RTVSPropertyOp48
 70
     1
102
RTVSPropertyOp49
 70
     1
102
RTVSPropertyOp50
 70
     1
102
RTVSPropertyOp51
 70
     0
102
RTVSPropertyOp52
 70
     0
102
RTVSPropertyOp53
 70
     1
102
RTVSPropertyOp54
 70
     1
102
RTVSPropertyOp55
 70
     1
102
RTVSPropertyOp56
 70
     1
102
RTVSPropertyOp57
 70
     1
102
RTVSPost2010Prop28
280
     0
102
RTVSPost2010PropOp28
 70
     1
102
RTVSPost2010Prop29
280
     1
102
RTVSPost2010PropOp29
 70
     1
102
RTVSPost2010Prop30
280
     1
102
RTVSPost2010PropOp30
 70
     1
102
RTVSPost2010Prop31
280
     0
102
RTVSPost2010PropOp31
 70
     1
102
RTVSPost2010Prop32
280
     0
102
RTVSPost2010PropOp32
 70
     1
102
RTVSPost2010Prop33
280
     0
102
RTVSPost2010PropOp33
 70
     1
102
RTVSPost2010Prop34
280
     0
102
RTVSPost2010PropOp34
 70
     1
102
RTVSPost2010Prop35
280
     0
102
RTVSPost2010PropOp35
 70
     1
102
RTVSPost2010Prop36
280
     0
102
RTVSPost2010PropOp36
 70
     1
102
RTVSPost2010Prop37
 90
       50
102
RTVSPost2010PropOp37
 70
     1
102
RTVSPost2010Prop38
140
0.0
102
RTVSPost2010PropOp38
 70
     1
102
RTVSPost2010Prop39
140
1.0
102
RTVSPost2010PropOp39
 70
     1
102
RTVSPost2010Prop40
 90
        0
102
RTVSPost2010PropOp40
 70
     1
102
RTVSPost2010Prop41ColorIndex
 90
       18
102
RTVSPost2010Prop41ColorRGB
 90
        0
102
RTVSPost2010PropOp41
 70
     1
102
RTVSPost2010Prop42
 90
       50
102
RTVSPost2010PropOp42
 70
     1
102
RTVSPost2010Prop43
 90
        3
102
RTVSPost2010PropOp43
 70
     1
102
RTVSPost2010Prop44ColorIndex
 90
        5
102
RTVSPost2010Prop44ColorRGB
 90
      255
102
RTVSPost2010PropOp44
 70
     1
102
RTVSPost2010Prop45
280
     0
102
RTVSPost2010PropOp45
 70
     1
102
RTVSPost2010Prop46
 90
       50
102
RTVSPost2010PropOp46
 70
     1
102
RTVSPost2010Prop47
 90
       50
102
RTVSPost2010PropOp47
 70
     1
102
RTVSPost2010Prop48
 90
       50
102
RTVSPost2010PropOp48
 70
     1
102
RTVSPost2010Prop49
280
     0
102
RTVSPost2010PropOp49
 70
     1
102
RTVSPost2010Prop50
 90
       50
102
RTVSPost2010PropOp50
 70
     1
102
RTVSPost2010Prop51ColorIndex
 90
      256
102
RTVSPost2010Prop51ColorRGB
 90
-16777216
102
RTVSPost2010PropOp51
 70
     0
102
RTVSPost2010Prop52
140
1.0
102
RTVSPost2010PropOp52
 70
     0
102
RTVSPost2010Prop53
 90
        2
102
RTVSPost2010PropOp53
 70
     1
102
RTVSPost2010Prop54
  1
strokes_ogs.tif
102
RTVSPost2010PropOp54
 70
     1
102
RTVSPost2010Prop55
280
     0
102
RTVSPost2010PropOp55
 70
     1
102
RTVSPost2010Prop56
140
1.0
102
RTVSPost2010PropOp56
 70
     1
102
RTVSPost2010Prop57
140
1.0
102
RTVSPost2010PropOp57
 70
     1
  0
XRECORD
  5
37C
102
{ACAD_REACTORS
330
37B
102
}
330
37B
100
AcDbXrecord
280
     1
102
RTVSPropertyOp0
 70
     1
102
RTVSPropertyOp1
 70
     1
102
RTVSPropertyOp2
 70
     1
102
RTVSPropertyOp3
 70
     1
102
RTVSPropertyOp4
 70
     1
102
RTVSPropertyOp5
 70
     1
102
RTVSPropertyOp6
 70
     1
102
RTVSPropertyOp7
 70
     1
102
RTVSPropertyOp8
 70
     1
102
RTVSPropertyOp9
 70
     1
102
RTVSPropertyOp10
 70
     1
102
RTVSPropertyOp11
 70
     1
102
RTVSPropertyOp12
 70
     1
102
RTVSPropertyOp13
 70
     1
102
RTVSPropertyOp14
 70
     1
102
RTVSPropertyOp15
 70
     1
102
RTVSPropertyOp16
 70
     1
102
RTVSPropertyOp17
 70
     1
102
RTVSPropertyOp18
 70
     1
102
RTVSPropertyOp19
 70
     1
102
RTVSPropertyOp20
 70
     1
102
RTVSPropertyOp21
 70
     1
102
RTVSPropertyOp22
 70
     1
102
RTVSPropertyOp23
 70
     1
102
RTVSPropertyOp24
 70
     1
102
RTVSPropertyOp25
 70
     1
102
RTVSPropertyOp26
 70
     1
102
RTVSPropertyOp27
 70
     1
102
RTVSPropertyOp28
 70
     1
102
RTVSPropertyOp29
 70
     1
102
RTVSPropertyOp30
 70
     1
102
RTVSPropertyOp31
 70
     1
102
RTVSPropertyOp32
 70
     1
102
RTVSPropertyOp33
 70
     1
102
RTVSPropertyOp34
 70
     1
102
RTVSPropertyOp35
 70
     1
102
RTVSPropertyOp36
 70
     1
102
RTVSPropertyOp37
 70
     1
102
RTVSPropertyOp38
 70
     1
102
RTVSPropertyOp39
 70
     1
102
RTVSPropertyOp40
 70
     1
102
RTVSPropertyOp41
 70
     1
102
RTVSPropertyOp42
 70
     1
102
RTVSPropertyOp43
 70
     1
102
RTVSPropertyOp44
 70
     1
102
RTVSPropertyOp45
 70
     1
102
RTVSPropertyOp46
 70
     1
102
RTVSPropertyOp47
 70
     1
102
RTVSPropertyOp48
 70
     1
102
RTVSPropertyOp49
 70
     1
102
RTVSPropertyOp50
 70
     1
102
RTVSPropertyOp51
 70
     0
102
RTVSPropertyOp52
 70
     0
102
RTVSPropertyOp53
 70
     1
102
RTVSPropertyOp54
 70
     1
102
RTVSPropertyOp55
 70
     1
102
RTVSPropertyOp56
 70
     1
102
RTVSPropertyOp57
 70
     1
102
RTVSPost2010Prop28
280
     0
102
RTVSPost2010PropOp28
 70
     1
102
RTVSPost2010Prop29
280
     1
102
RTVSPost2010PropOp29
 70
     1
102
RTVSPost2010Prop30
280
     1
102
RTVSPost2010PropOp30
 70
     1
102
RTVSPost2010Prop31
280
     0
102
RTVSPost2010PropOp31
 70
     1
102
RTVSPost2010Prop32
280
     0
102
RTVSPost2010PropOp32
 70
     1
102
RTVSPost2010Prop33
280
     0
102
RTVSPost2010PropOp33
 70
     1
102
RTVSPost2010Prop34
280
     0
102
RTVSPost2010PropOp34
 70
     1
102
RTVSPost2010Prop35
280
     0
102
RTVSPost2010PropOp35
 70
     1
102
RTVSPost2010Prop36
280
     0
102
RTVSPost2010PropOp36
 70
     1
102
RTVSPost2010Prop37
 90
       50
102
RTVSPost2010PropOp37
 70
     1
102
RTVSPost2010Prop38
140
0.0
102
RTVSPost2010PropOp38
 70
     1
102
RTVSPost2010Prop39
140
1.0
102
RTVSPost2010PropOp39
 70
     1
102
RTVSPost2010Prop40
 90
        0
102
RTVSPost2010PropOp40
 70
     1
102
RTVSPost2010Prop41ColorIndex
 90
       18
102
RTVSPost2010Prop41ColorRGB
 90
        0
102
RTVSPost2010PropOp41
 70
     1
102
RTVSPost2010Prop42
 90
       50
102
RTVSPost2010PropOp42
 70
     1
102
RTVSPost2010Prop43
 90
        3
102
RTVSPost2010PropOp43
 70
     1
102
RTVSPost2010Prop44ColorIndex
 90
        5
102
RTVSPost2010Prop44ColorRGB
 90
      255
102
RTVSPost2010PropOp44
 70
     1
102
RTVSPost2010Prop45
280
     0
102
RTVSPost2010PropOp45
 70
     1
102
RTVSPost2010Prop46
 90
       50
102
RTVSPost2010PropOp46
 70
     1
102
RTVSPost2010Prop47
 90
       50
102
RTVSPost2010PropOp47
 70
     1
102
RTVSPost2010Prop48
 90
       50
102
RTVSPost2010PropOp48
 70
     1
102
RTVSPost2010Prop49
280
     0
102
RTVSPost2010PropOp49
 70
     1
102
RTVSPost2010Prop50
 90
       50
102
RTVSPost2010PropOp50
 70
     1
102
RTVSPost2010Prop51ColorIndex
 90
      256
102
RTVSPost2010Prop51ColorRGB
 90
-16777216
102
RTVSPost2010PropOp51
 70
     0
102
RTVSPost2010Prop52
140
1.0
102
RTVSPost2010PropOp52
 70
     0
102
RTVSPost2010Prop53
 90
        2
102
RTVSPost2010PropOp53
 70
     1
102
RTVSPost2010Prop54
  1
strokes_ogs.tif
102
RTVSPost2010PropOp54
 70
     1
102
RTVSPost2010Prop55
280
     0
102
RTVSPost2010PropOp55
 70
     1
102
RTVSPost2010Prop56
140
1.0
102
RTVSPost2010PropOp56
 70
     1
102
RTVSPost2010Prop57
140
1.0
102
RTVSPost2010PropOp57
 70
     1
  0
XRECORD
  5
37E
102
{ACAD_REACTORS
330
37D
102
}
330
37D
100
AcDbXrecord
280
     1
102
RTVSPropertyOp0
 70
     1
102
RTVSPropertyOp1
 70
     1
102
RTVSPropertyOp2
 70
     1
102
RTVSPropertyOp3
 70
     1
102
RTVSPropertyOp4
 70
     1
102
RTVSPropertyOp5
 70
     1
102
RTVSPropertyOp6
 70
     1
102
RTVSPropertyOp7
 70
     1
102
RTVSPropertyOp8
 70
     1
102
RTVSPropertyOp9
 70
     1
102
RTVSPropertyOp10
 70
     1
102
RTVSPropertyOp11
 70
     1
102
RTVSPropertyOp12
 70
     1
102
RTVSPropertyOp13
 70
     1
102
RTVSPropertyOp14
 70
     1
102
RTVSPropertyOp15
 70
     1
102
RTVSPropertyOp16
 70
     1
102
RTVSPropertyOp17
 70
     1
102
RTVSPropertyOp18
 70
     1
102
RTVSPropertyOp19
 70
     1
102
RTVSPropertyOp20
 70
     1
102
RTVSPropertyOp21
 70
     1
102
RTVSPropertyOp22
 70
     1
102
RTVSPropertyOp23
 70
     1
102
RTVSPropertyOp24
 70
     1
102
RTVSPropertyOp25
 70
     1
102
RTVSPropertyOp26
 70
     1
102
RTVSPropertyOp27
 70
     1
102
RTVSPropertyOp28
 70
     1
102
RTVSPropertyOp29
 70
     1
102
RTVSPropertyOp30
 70
     1
102
RTVSPropertyOp31
 70
     1
102
RTVSPropertyOp32
 70
     1
102
RTVSPropertyOp33
 70
     1
102
RTVSPropertyOp34
 70
     1
102
RTVSPropertyOp35
 70
     1
102
RTVSPropertyOp36
 70
     1
102
RTVSPropertyOp37
 70
     1
102
RTVSPropertyOp38
 70
     1
102
RTVSPropertyOp39
 70
     1
102
RTVSPropertyOp40
 70
     1
102
RTVSPropertyOp41
 70
     1
102
RTVSPropertyOp42
 70
     1
102
RTVSPropertyOp43
 70
     1
102
RTVSPropertyOp44
 70
     1
102
RTVSPropertyOp45
 70
     1
102
RTVSPropertyOp46
 70
     1
102
RTVSPropertyOp47
 70
     1
102
RTVSPropertyOp48
 70
     1
102
RTVSPropertyOp49
 70
     1
102
RTVSPropertyOp50
 70
     1
102
RTVSPropertyOp51
 70
     0
102
RTVSPropertyOp52
 70
     0
102
RTVSPropertyOp53
 70
     1
102
RTVSPropertyOp54
 70
     1
102
RTVSPropertyOp55
 70
     1
102
RTVSPropertyOp56
 70
     1
102
RTVSPropertyOp57
 70
     1
102
RTVSPost2010Prop28
280
     0
102
RTVSPost2010PropOp28
 70
     1
102
RTVSPost2010Prop29
280
     1
102
RTVSPost2010PropOp29
 70
     1
102
RTVSPost2010Prop30
280
     1
102
RTVSPost2010PropOp30
 70
     1
102
RTVSPost2010Prop31
280
     0
102
RTVSPost2010PropOp31
 70
     1
102
RTVSPost2010Prop32
280
     0
102
RTVSPost2010PropOp32
 70
     1
102
RTVSPost2010Prop33
280
     0
102
RTVSPost2010PropOp33
 70
     1
102
RTVSPost2010Prop34
280
     0
102
RTVSPost2010PropOp34
 70
     1
102
RTVSPost2010Prop35
280
     0
102
RTVSPost2010PropOp35
 70
     1
102
RTVSPost2010Prop36
280
     0
102
RTVSPost2010PropOp36
 70
     1
102
RTVSPost2010Prop37
 90
       50
102
RTVSPost2010PropOp37
 70
     1
102
RTVSPost2010Prop38
140
0.0
102
RTVSPost2010PropOp38
 70
     1
102
RTVSPost2010Prop39
140
1.0
102
RTVSPost2010PropOp39
 70
     1
102
RTVSPost2010Prop40
 90
        0
102
RTVSPost2010PropOp40
 70
     1
102
RTVSPost2010Prop41ColorIndex
 90
       18
102
RTVSPost2010Prop41ColorRGB
 90
        0
102
RTVSPost2010PropOp41
 70
     1
102
RTVSPost2010Prop42
 90
       50
102
RTVSPost2010PropOp42
 70
     1
102
RTVSPost2010Prop43
 90
        3
102
RTVSPost2010PropOp43
 70
     1
102
RTVSPost2010Prop44ColorIndex
 90
        5
102
RTVSPost2010Prop44ColorRGB
 90
      255
102
RTVSPost2010PropOp44
 70
     1
102
RTVSPost2010Prop45
280
     0
102
RTVSPost2010PropOp45
 70
     1
102
RTVSPost2010Prop46
 90
       50
102
RTVSPost2010PropOp46
 70
     1
102
RTVSPost2010Prop47
 90
       50
102
RTVSPost2010PropOp47
 70
     1
102
RTVSPost2010Prop48
 90
       50
102
RTVSPost2010PropOp48
 70
     1
102
RTVSPost2010Prop49
280
     0
102
RTVSPost2010PropOp49
 70
     1
102
RTVSPost2010Prop50
 90
       50
102
RTVSPost2010PropOp50
 70
     1
102
RTVSPost2010Prop51ColorIndex
 90
      256
102
RTVSPost2010Prop51ColorRGB
 90
-16777216
102
RTVSPost2010PropOp51
 70
     0
102
RTVSPost2010Prop52
140
1.0
102
RTVSPost2010PropOp52
 70
     0
102
RTVSPost2010Prop53
 90
        2
102
RTVSPost2010PropOp53
 70
     1
102
RTVSPost2010Prop54
  1
strokes_ogs.tif
102
RTVSPost2010PropOp54
 70
     1
102
RTVSPost2010Prop55
280
     0
102
RTVSPost2010PropOp55
 70
     1
102
RTVSPost2010Prop56
140
1.0
102
RTVSPost2010PropOp56
 70
     1
102
RTVSPost2010Prop57
140
1.0
102
RTVSPost2010PropOp57
 70
     1
  0
XRECORD
  5
384
102
{ACAD_REACTORS
330
383
102
}
330
383
100
AcDbXrecord
280
     1
102
RTVSPropertyOp0
 70
     1
102
RTVSPropertyOp1
 70
     1
102
RTVSPropertyOp2
 70
     1
102
RTVSPropertyOp3
 70
     1
102
RTVSPropertyOp4
 70
     1
102
RTVSPropertyOp5
 70
     1
102
RTVSPropertyOp6
 70
     1
102
RTVSPropertyOp7
 70
     1
102
RTVSPropertyOp8
 70
     1
102
RTVSPropertyOp9
 70
     1
102
RTVSPropertyOp10
 70
     1
102
RTVSPropertyOp11
 70
     1
102
RTVSPropertyOp12
 70
     1
102
RTVSPropertyOp13
 70
     1
102
RTVSPropertyOp14
 70
     1
102
RTVSPropertyOp15
 70
     1
102
RTVSPropertyOp16
 70
     1
102
RTVSPropertyOp17
 70
     1
102
RTVSPropertyOp18
 70
     1
102
RTVSPropertyOp19
 70
     1
102
RTVSPropertyOp20
 70
     1
102
RTVSPropertyOp21
 70
     1
102
RTVSPropertyOp22
 70
     1
102
RTVSPropertyOp23
 70
     1
102
RTVSPropertyOp24
 70
     1
102
RTVSPropertyOp25
 70
     1
102
RTVSPropertyOp26
 70
     1
102
RTVSPropertyOp27
 70
     1
102
RTVSPropertyOp28
 70
     1
102
RTVSPropertyOp29
 70
     1
102
RTVSPropertyOp30
 70
     1
102
RTVSPropertyOp31
 70
     1
102
RTVSPropertyOp32
 70
     1
102
RTVSPropertyOp33
 70
     1
102
RTVSPropertyOp34
 70
     1
102
RTVSPropertyOp35
 70
     1
102
RTVSPropertyOp36
 70
     1
102
RTVSPropertyOp37
 70
     1
102
RTVSPropertyOp38
 70
     1
102
RTVSPropertyOp39
 70
     1
102
RTVSPropertyOp40
 70
     1
102
RTVSPropertyOp41
 70
     1
102
RTVSPropertyOp42
 70
     1
102
RTVSPropertyOp43
 70
     1
102
RTVSPropertyOp44
 70
     1
102
RTVSPropertyOp45
 70
     1
102
RTVSPropertyOp46
 70
     1
102
RTVSPropertyOp47
 70
     1
102
RTVSPropertyOp48
 70
     1
102
RTVSPropertyOp49
 70
     1
102
RTVSPropertyOp50
 70
     1
102
RTVSPropertyOp51
 70
     0
102
RTVSPropertyOp52
 70
     0
102
RTVSPropertyOp53
 70
     1
102
RTVSPropertyOp54
 70
     1
102
RTVSPropertyOp55
 70
     1
102
RTVSPropertyOp56
 70
     1
102
RTVSPropertyOp57
 70
     1
102
RTVSPost2010Prop28
280
     0
102
RTVSPost2010PropOp28
 70
     1
102
RTVSPost2010Prop29
280
     1
102
RTVSPost2010PropOp29
 70
     1
102
RTVSPost2010Prop30
280
     1
102
RTVSPost2010PropOp30
 70
     1
102
RTVSPost2010Prop31
280
     0
102
RTVSPost2010PropOp31
 70
     1
102
RTVSPost2010Prop32
280
     0
102
RTVSPost2010PropOp32
 70
     1
102
RTVSPost2010Prop33
280
     0
102
RTVSPost2010PropOp33
 70
     1
102
RTVSPost2010Prop34
280
     0
102
RTVSPost2010PropOp34
 70
     1
102
RTVSPost2010Prop35
280
     0
102
RTVSPost2010PropOp35
 70
     1
102
RTVSPost2010Prop36
280
     0
102
RTVSPost2010PropOp36
 70
     1
102
RTVSPost2010Prop37
 90
       50
102
RTVSPost2010PropOp37
 70
     1
102
RTVSPost2010Prop38
140
0.0
102
RTVSPost2010PropOp38
 70
     1
102
RTVSPost2010Prop39
140
1.0
102
RTVSPost2010PropOp39
 70
     1
102
RTVSPost2010Prop40
 90
        0
102
RTVSPost2010PropOp40
 70
     1
102
RTVSPost2010Prop41ColorIndex
 90
       18
102
RTVSPost2010Prop41ColorRGB
 90
        0
102
RTVSPost2010PropOp41
 70
     1
102
RTVSPost2010Prop42
 90
       50
102
RTVSPost2010PropOp42
 70
     1
102
RTVSPost2010Prop43
 90
        3
102
RTVSPost2010PropOp43
 70
     1
102
RTVSPost2010Prop44ColorIndex
 90
        5
102
RTVSPost2010Prop44ColorRGB
 90
      255
102
RTVSPost2010PropOp44
 70
     1
102
RTVSPost2010Prop45
280
     0
102
RTVSPost2010PropOp45
 70
     1
102
RTVSPost2010Prop46
 90
       50
102
RTVSPost2010PropOp46
 70
     1
102
RTVSPost2010Prop47
 90
       50
102
RTVSPost2010PropOp47
 70
     1
102
RTVSPost2010Prop48
 90
       50
102
RTVSPost2010PropOp48
 70
     1
102
RTVSPost2010Prop49
280
     0
102
RTVSPost2010PropOp49
 70
     1
102
RTVSPost2010Prop50
 90
       50
102
RTVSPost2010PropOp50
 70
     1
102
RTVSPost2010Prop51ColorIndex
 90
      256
102
RTVSPost2010Prop51ColorRGB
 90
-16777216
102
RTVSPost2010PropOp51
 70
     0
102
RTVSPost2010Prop52
140
1.0
102
RTVSPost2010PropOp52
 70
     0
102
RTVSPost2010Prop53
 90
        2
102
RTVSPost2010PropOp53
 70
     1
102
RTVSPost2010Prop54
  1
strokes_ogs.tif
102
RTVSPost2010PropOp54
 70
     1
102
RTVSPost2010Prop55
280
     0
102
RTVSPost2010PropOp55
 70
     1
102
RTVSPost2010Prop56
140
1.0
102
RTVSPost2010PropOp56
 70
     1
102
RTVSPost2010Prop57
140
1.0
102
RTVSPost2010PropOp57
 70
     1
  0
XRECORD
  5
398
102
{ACAD_REACTORS
330
397
102
}
330
397
100
AcDbXrecord
280
     1
102
RTVSPropertyOp0
 70
     0
102
RTVSPropertyOp1
 70
     0
102
RTVSPropertyOp2
 70
     0
102
RTVSPropertyOp3
 70
     0
102
RTVSPropertyOp4
 70
     0
102
RTVSPropertyOp5
 70
     0
102
RTVSPropertyOp6
 70
     0
102
RTVSPropertyOp7
 70
     0
102
RTVSPropertyOp8
 70
     0
102
RTVSPropertyOp9
 70
     0
102
RTVSPropertyOp10
 70
     0
102
RTVSPropertyOp11
 70
     0
102
RTVSPropertyOp12
 70
     0
102
RTVSPropertyOp13
 70
     0
102
RTVSPropertyOp14
 70
     2
102
RTVSPropertyOp15
 70
     0
102
RTVSPropertyOp16
 70
     0
102
RTVSPropertyOp17
 70
     0
102
RTVSPropertyOp18
 70
     0
102
RTVSPropertyOp19
 70
     0
102
RTVSPropertyOp20
 70
     0
102
RTVSPropertyOp21
 70
     0
102
RTVSPropertyOp22
 70
     0
102
RTVSPropertyOp23
 70
     0
102
RTVSPropertyOp24
 70
     0
102
RTVSPropertyOp25
 70
     0
102
RTVSPropertyOp26
 70
     0
102
RTVSPropertyOp27
 70
     0
102
RTVSPropertyOp28
 70
     0
102
RTVSPropertyOp29
 70
     0
102
RTVSPropertyOp30
 70
     0
102
RTVSPropertyOp31
 70
     0
102
RTVSPropertyOp32
 70
     0
102
RTVSPropertyOp33
 70
     0
102
RTVSPropertyOp34
 70
     0
102
RTVSPropertyOp35
 70
     0
102
RTVSPropertyOp36
 70
     0
102
RTVSPropertyOp37
 70
     0
102
RTVSPropertyOp38
 70
     0
102
RTVSPropertyOp39
 70
     0
102
RTVSPropertyOp40
 70
     0
102
RTVSPropertyOp41
 70
     0
102
RTVSPropertyOp42
 70
     0
102
RTVSPropertyOp43
 70
     0
102
RTVSPropertyOp44
 70
     0
102
RTVSPropertyOp45
 70
     0
102
RTVSPropertyOp46
 70
     0
102
RTVSPropertyOp47
 70
     0
102
RTVSPropertyOp48
 70
     0
102
RTVSPropertyOp49
 70
     0
102
RTVSPropertyOp50
 70
     0
102
RTVSPropertyOp51
 70
     0
102
RTVSPropertyOp52
 70
     0
102
RTVSPropertyOp53
 70
     0
102
RTVSPropertyOp54
 70
     0
102
RTVSPropertyOp55
 70
     0
102
RTVSPropertyOp56
 70
     0
102
RTVSPropertyOp57
 70
     0
102
RTVSPost2010Prop28
280
     0
102
RTVSPost2010PropOp28
 70
     0
102
RTVSPost2010Prop29
280
     1
102
RTVSPost2010PropOp29
 70
     0
102
RTVSPost2010Prop30
280
     1
102
RTVSPost2010PropOp30
 70
     0
102
RTVSPost2010Prop31
280
     0
102
RTVSPost2010PropOp31
 70
     0
102
RTVSPost2010Prop32
280
     0
102
RTVSPost2010PropOp32
 70
     0
102
RTVSPost2010Prop33
280
     0
102
RTVSPost2010PropOp33
 70
     0
102
RTVSPost2010Prop34
280
     0
102
RTVSPost2010PropOp34
 70
     0
102
RTVSPost2010Prop35
280
     0
102
RTVSPost2010PropOp35
 70
     0
102
RTVSPost2010Prop36
280
     0
102
RTVSPost2010PropOp36
 70
     0
102
RTVSPost2010Prop37
 90
       50
102
RTVSPost2010PropOp37
 70
     0
102
RTVSPost2010Prop38
140
0.0
102
RTVSPost2010PropOp38
 70
     0
102
RTVSPost2010Prop39
140
1.0
102
RTVSPost2010PropOp39
 70
     0
102
RTVSPost2010Prop40
 90
        0
102
RTVSPost2010PropOp40
 70
     0
102
RTVSPost2010Prop41ColorIndex
 90
       18
102
RTVSPost2010Prop41ColorRGB
 90
        0
102
RTVSPost2010PropOp41
 70
     0
102
RTVSPost2010Prop42
 90
       50
102
RTVSPost2010PropOp42
 70
     0
102
RTVSPost2010Prop43
 90
        3
102
RTVSPost2010PropOp43
 70
     0
102
RTVSPost2010Prop44ColorIndex
 90
        5
102
RTVSPost2010Prop44ColorRGB
 90
      255
102
RTVSPost2010PropOp44
 70
     0
102
RTVSPost2010Prop45
280
     0
102
RTVSPost2010PropOp45
 70
     0
102
RTVSPost2010Prop46
 90
       50
102
RTVSPost2010PropOp46
 70
     0
102
RTVSPost2010Prop47
 90
       50
102
RTVSPost2010PropOp47
 70
     0
102
RTVSPost2010Prop48
 90
       50
102
RTVSPost2010PropOp48
 70
     0
102
RTVSPost2010Prop49
280
     0
102
RTVSPost2010PropOp49
 70
     0
102
RTVSPost2010Prop50
 90
       50
102
RTVSPost2010PropOp50
 70
     0
102
RTVSPost2010Prop51ColorIndex
 90
      256
102
RTVSPost2010Prop51ColorRGB
 90
-16777216
102
RTVSPost2010PropOp51
 70
     0
102
RTVSPost2010Prop52
140
1.0
102
RTVSPost2010PropOp52
 70
     0
102
RTVSPost2010Prop53
 90
        2
102
RTVSPost2010PropOp53
 70
     0
102
RTVSPost2010Prop54
  1
strokes_ogs.tif
102
RTVSPost2010PropOp54
 70
     0
102
RTVSPost2010Prop55
280
     0
102
RTVSPost2010PropOp55
 70
     0
102
RTVSPost2010Prop56
140
1.0
102
RTVSPost2010PropOp56
 70
     0
102
RTVSPost2010Prop57
140
1.0
102
RTVSPost2010PropOp57
 70
     0
  0
XRECORD
  5
392
102
{ACAD_REACTORS
330
391
102
}
330
391
100
AcDbXrecord
280
     1
102
RTVSPropertyOp0
 70
     1
102
RTVSPropertyOp1
 70
     1
102
RTVSPropertyOp2
 70
     1
102
RTVSPropertyOp3
 70
     1
102
RTVSPropertyOp4
 70
     1
102
RTVSPropertyOp5
 70
     1
102
RTVSPropertyOp6
 70
     1
102
RTVSPropertyOp7
 70
     1
102
RTVSPropertyOp8
 70
     1
102
RTVSPropertyOp9
 70
     1
102
RTVSPropertyOp10
 70
     1
102
RTVSPropertyOp11
 70
     1
102
RTVSPropertyOp12
 70
     1
102
RTVSPropertyOp13
 70
     1
102
RTVSPropertyOp14
 70
     1
102
RTVSPropertyOp15
 70
     1
102
RTVSPropertyOp16
 70
     1
102
RTVSPropertyOp17
 70
     1
102
RTVSPropertyOp18
 70
     1
102
RTVSPropertyOp19
 70
     1
102
RTVSPropertyOp20
 70
     1
102
RTVSPropertyOp21
 70
     1
102
RTVSPropertyOp22
 70
     1
102
RTVSPropertyOp23
 70
     1
102
RTVSPropertyOp24
 70
     1
102
RTVSPropertyOp25
 70
     1
102
RTVSPropertyOp26
 70
     1
102
RTVSPropertyOp27
 70
     1
102
RTVSPropertyOp28
 70
     1
102
RTVSPropertyOp29
 70
     1
102
RTVSPropertyOp30
 70
     1
102
RTVSPropertyOp31
 70
     1
102
RTVSPropertyOp32
 70
     1
102
RTVSPropertyOp33
 70
     1
102
RTVSPropertyOp34
 70
     1
102
RTVSPropertyOp35
 70
     1
102
RTVSPropertyOp36
 70
     1
102
RTVSPropertyOp37
 70
     1
102
RTVSPropertyOp38
 70
     1
102
RTVSPropertyOp39
 70
     1
102
RTVSPropertyOp40
 70
     1
102
RTVSPropertyOp41
 70
     1
102
RTVSPropertyOp42
 70
     1
102
RTVSPropertyOp43
 70
     1
102
RTVSPropertyOp44
 70
     1
102
RTVSPropertyOp45
 70
     1
102
RTVSPropertyOp46
 70
     1
102
RTVSPropertyOp47
 70
     1
102
RTVSPropertyOp48
 70
     1
102
RTVSPropertyOp49
 70
     1
102
RTVSPropertyOp50
 70
     1
102
RTVSPropertyOp51
 70
     0
102
RTVSPropertyOp52
 70
     0
102
RTVSPropertyOp53
 70
     1
102
RTVSPropertyOp54
 70
     1
102
RTVSPropertyOp55
 70
     1
102
RTVSPropertyOp56
 70
     1
102
RTVSPropertyOp57
 70
     1
102
RTVSPost2010Prop28
280
     0
102
RTVSPost2010PropOp28
 70
     1
102
RTVSPost2010Prop29
280
     1
102
RTVSPost2010PropOp29
 70
     1
102
RTVSPost2010Prop30
280
     1
102
RTVSPost2010PropOp30
 70
     1
102
RTVSPost2010Prop31
280
     0
102
RTVSPost2010PropOp31
 70
     1
102
RTVSPost2010Prop32
280
     0
102
RTVSPost2010PropOp32
 70
     1
102
RTVSPost2010Prop33
280
     0
102
RTVSPost2010PropOp33
 70
     1
102
RTVSPost2010Prop34
280
     0
102
RTVSPost2010PropOp34
 70
     1
102
RTVSPost2010Prop35
280
     0
102
RTVSPost2010PropOp35
 70
     1
102
RTVSPost2010Prop36
280
     0
102
RTVSPost2010PropOp36
 70
     1
102
RTVSPost2010Prop37
 90
       50
102
RTVSPost2010PropOp37
 70
     1
102
RTVSPost2010Prop38
140
0.0
102
RTVSPost2010PropOp38
 70
     1
102
RTVSPost2010Prop39
140
1.0
102
RTVSPost2010PropOp39
 70
     1
102
RTVSPost2010Prop40
 90
        0
102
RTVSPost2010PropOp40
 70
     1
102
RTVSPost2010Prop41ColorIndex
 90
       18
102
RTVSPost2010Prop41ColorRGB
 90
        0
102
RTVSPost2010PropOp41
 70
     1
102
RTVSPost2010Prop42
 90
       50
102
RTVSPost2010PropOp42
 70
     1
102
RTVSPost2010Prop43
 90
        3
102
RTVSPost2010PropOp43
 70
     1
102
RTVSPost2010Prop44ColorIndex
 90
        5
102
RTVSPost2010Prop44ColorRGB
 90
      255
102
RTVSPost2010PropOp44
 70
     1
102
RTVSPost2010Prop45
280
     0
102
RTVSPost2010PropOp45
 70
     1
102
RTVSPost2010Prop46
 90
       50
102
RTVSPost2010PropOp46
 70
     1
102
RTVSPost2010Prop47
 90
       50
102
RTVSPost2010PropOp47
 70
     1
102
RTVSPost2010Prop48
 90
       50
102
RTVSPost2010PropOp48
 70
     1
102
RTVSPost2010Prop49
280
     0
102
RTVSPost2010PropOp49
 70
     1
102
RTVSPost2010Prop50
 90
       50
102
RTVSPost2010PropOp50
 70
     1
102
RTVSPost2010Prop51ColorIndex
 90
      256
102
RTVSPost2010Prop51ColorRGB
 90
-16777216
102
RTVSPost2010PropOp51
 70
     0
102
RTVSPost2010Prop52
140
1.0
102
RTVSPost2010PropOp52
 70
     0
102
RTVSPost2010Prop53
 90
        2
102
RTVSPost2010PropOp53
 70
     1
102
RTVSPost2010Prop54
  1
strokes_ogs.tif
102
RTVSPost2010PropOp54
 70
     1
102
RTVSPost2010Prop55
280
     0
102
RTVSPost2010PropOp55
 70
     1
102
RTVSPost2010Prop56
140
1.0
102
RTVSPost2010PropOp56
 70
     1
102
RTVSPost2010Prop57
140
1.0
102
RTVSPost2010PropOp57
 70
     1
  0
XRECORD
  5
39A
102
{ACAD_REACTORS
330
399
102
}
330
399
100
AcDbXrecord
280
     1
102
RTVSPropertyOp0
 70
     0
102
RTVSPropertyOp1
 70
     0
102
RTVSPropertyOp2
 70
     0
102
RTVSPropertyOp3
 70
     0
102
RTVSPropertyOp4
 70
     0
102
RTVSPropertyOp5
 70
     0
102
RTVSPropertyOp6
 70
     0
102
RTVSPropertyOp7
 70
     0
102
RTVSPropertyOp8
 70
     0
102
RTVSPropertyOp9
 70
     0
102
RTVSPropertyOp10
 70
     0
102
RTVSPropertyOp11
 70
     0
102
RTVSPropertyOp12
 70
     0
102
RTVSPropertyOp13
 70
     0
102
RTVSPropertyOp14
 70
     2
102
RTVSPropertyOp15
 70
     0
102
RTVSPropertyOp16
 70
     0
102
RTVSPropertyOp17
 70
     0
102
RTVSPropertyOp18
 70
     0
102
RTVSPropertyOp19
 70
     0
102
RTVSPropertyOp20
 70
     0
102
RTVSPropertyOp21
 70
     0
102
RTVSPropertyOp22
 70
     0
102
RTVSPropertyOp23
 70
     0
102
RTVSPropertyOp24
 70
     0
102
RTVSPropertyOp25
 70
     0
102
RTVSPropertyOp26
 70
     0
102
RTVSPropertyOp27
 70
     0
102
RTVSPropertyOp28
 70
     0
102
RTVSPropertyOp29
 70
     0
102
RTVSPropertyOp30
 70
     0
102
RTVSPropertyOp31
 70
     0
102
RTVSPropertyOp32
 70
     0
102
RTVSPropertyOp33
 70
     0
102
RTVSPropertyOp34
 70
     0
102
RTVSPropertyOp35
 70
     0
102
RTVSPropertyOp36
 70
     0
102
RTVSPropertyOp37
 70
     0
102
RTVSPropertyOp38
 70
     0
102
RTVSPropertyOp39
 70
     0
102
RTVSPropertyOp40
 70
     0
102
RTVSPropertyOp41
 70
     0
102
RTVSPropertyOp42
 70
     0
102
RTVSPropertyOp43
 70
     0
102
RTVSPropertyOp44
 70
     0
102
RTVSPropertyOp45
 70
     0
102
RTVSPropertyOp46
 70
     0
102
RTVSPropertyOp47
 70
     0
102
RTVSPropertyOp48
 70
     0
102
RTVSPropertyOp49
 70
     0
102
RTVSPropertyOp50
 70
     0
102
RTVSPropertyOp51
 70
     0
102
RTVSPropertyOp52
 70
     0
102
RTVSPropertyOp53
 70
     0
102
RTVSPropertyOp54
 70
     0
102
RTVSPropertyOp55
 70
     0
102
RTVSPropertyOp56
 70
     0
102
RTVSPropertyOp57
 70
     0
102
RTVSPost2010Prop28
280
     0
102
RTVSPost2010PropOp28
 70
     0
102
RTVSPost2010Prop29
280
     1
102
RTVSPost2010PropOp29
 70
     0
102
RTVSPost2010Prop30
280
     1
102
RTVSPost2010PropOp30
 70
     0
102
RTVSPost2010Prop31
280
     0
102
RTVSPost2010PropOp31
 70
     0
102
RTVSPost2010Prop32
280
     0
102
RTVSPost2010PropOp32
 70
     0
102
RTVSPost2010Prop33
280
     0
102
RTVSPost2010PropOp33
 70
     0
102
RTVSPost2010Prop34
280
     0
102
RTVSPost2010PropOp34
 70
     0
102
RTVSPost2010Prop35
280
     0
102
RTVSPost2010PropOp35
 70
     0
102
RTVSPost2010Prop36
280
     0
102
RTVSPost2010PropOp36
 70
     0
102
RTVSPost2010Prop37
 90
       50
102
RTVSPost2010PropOp37
 70
     0
102
RTVSPost2010Prop38
140
0.0
102
RTVSPost2010PropOp38
 70
     0
102
RTVSPost2010Prop39
140
1.0
102
RTVSPost2010PropOp39
 70
     0
102
RTVSPost2010Prop40
 90
        0
102
RTVSPost2010PropOp40
 70
     0
102
RTVSPost2010Prop41ColorIndex
 90
       18
102
RTVSPost2010Prop41ColorRGB
 90
        0
102
RTVSPost2010PropOp41
 70
     0
102
RTVSPost2010Prop42
 90
       50
102
RTVSPost2010PropOp42
 70
     0
102
RTVSPost2010Prop43
 90
        3
102
RTVSPost2010PropOp43
 70
     0
102
RTVSPost2010Prop44ColorIndex
 90
        5
102
RTVSPost2010Prop44ColorRGB
 90
      255
102
RTVSPost2010PropOp44
 70
     0
102
RTVSPost2010Prop45
280
     0
102
RTVSPost2010PropOp45
 70
     0
102
RTVSPost2010Prop46
 90
       50
102
RTVSPost2010PropOp46
 70
     0
102
RTVSPost2010Prop47
 90
       50
102
RTVSPost2010PropOp47
 70
     0
102
RTVSPost2010Prop48
 90
       50
102
RTVSPost2010PropOp48
 70
     0
102
RTVSPost2010Prop49
280
     0
102
RTVSPost2010PropOp49
 70
     0
102
RTVSPost2010Prop50
 90
       50
102
RTVSPost2010PropOp50
 70
     0
102
RTVSPost2010Prop51ColorIndex
 90
      256
102
RTVSPost2010Prop51ColorRGB
 90
-16777216
102
RTVSPost2010PropOp51
 70
     0
102
RTVSPost2010Prop52
140
1.0
102
RTVSPost2010PropOp52
 70
     0
102
RTVSPost2010Prop53
 90
        2
102
RTVSPost2010PropOp53
 70
     0
102
RTVSPost2010Prop54
  1
strokes_ogs.tif
102
RTVSPost2010PropOp54
 70
     0
102
RTVSPost2010Prop55
280
     0
102
RTVSPost2010PropOp55
 70
     0
102
RTVSPost2010Prop56
140
1.0
102
RTVSPost2010PropOp56
 70
     0
102
RTVSPost2010Prop57
140
1.0
102
RTVSPost2010PropOp57
 70
     0
  0
XRECORD
  5
388
102
{ACAD_REACTORS
330
387
102
}
330
387
100
AcDbXrecord
280
     1
102
RTVSPropertyOp0
 70
     1
102
RTVSPropertyOp1
 70
     1
102
RTVSPropertyOp2
 70
     1
102
RTVSPropertyOp3
 70
     1
102
RTVSPropertyOp4
 70
     1
102
RTVSPropertyOp5
 70
     1
102
RTVSPropertyOp6
 70
     1
102
RTVSPropertyOp7
 70
     1
102
RTVSPropertyOp8
 70
     1
102
RTVSPropertyOp9
 70
     1
102
RTVSPropertyOp10
 70
     1
102
RTVSPropertyOp11
 70
     1
102
RTVSPropertyOp12
 70
     1
102
RTVSPropertyOp13
 70
     1
102
RTVSPropertyOp14
 70
     1
102
RTVSPropertyOp15
 70
     1
102
RTVSPropertyOp16
 70
     1
102
RTVSPropertyOp17
 70
     1
102
RTVSPropertyOp18
 70
     1
102
RTVSPropertyOp19
 70
     1
102
RTVSPropertyOp20
 70
     1
102
RTVSPropertyOp21
 70
     1
102
RTVSPropertyOp22
 70
     1
102
RTVSPropertyOp23
 70
     1
102
RTVSPropertyOp24
 70
     1
102
RTVSPropertyOp25
 70
     1
102
RTVSPropertyOp26
 70
     1
102
RTVSPropertyOp27
 70
     1
102
RTVSPropertyOp28
 70
     1
102
RTVSPropertyOp29
 70
     1
102
RTVSPropertyOp30
 70
     1
102
RTVSPropertyOp31
 70
     1
102
RTVSPropertyOp32
 70
     1
102
RTVSPropertyOp33
 70
     1
102
RTVSPropertyOp34
 70
     1
102
RTVSPropertyOp35
 70
     1
102
RTVSPropertyOp36
 70
     1
102
RTVSPropertyOp37
 70
     1
102
RTVSPropertyOp38
 70
     1
102
RTVSPropertyOp39
 70
     1
102
RTVSPropertyOp40
 70
     1
102
RTVSPropertyOp41
 70
     1
102
RTVSPropertyOp42
 70
     1
102
RTVSPropertyOp43
 70
     1
102
RTVSPropertyOp44
 70
     1
102
RTVSPropertyOp45
 70
     1
102
RTVSPropertyOp46
 70
     1
102
RTVSPropertyOp47
 70
     1
102
RTVSPropertyOp48
 70
     1
102
RTVSPropertyOp49
 70
     1
102
RTVSPropertyOp50
 70
     1
102
RTVSPropertyOp51
 70
     0
102
RTVSPropertyOp52
 70
     0
102
RTVSPropertyOp53
 70
     1
102
RTVSPropertyOp54
 70
     1
102
RTVSPropertyOp55
 70
     1
102
RTVSPropertyOp56
 70
     1
102
RTVSPropertyOp57
 70
     1
102
RTVSPost2010Prop28
280
     0
102
RTVSPost2010PropOp28
 70
     1
102
RTVSPost2010Prop29
280
     1
102
RTVSPost2010PropOp29
 70
     1
102
RTVSPost2010Prop30
280
     1
102
RTVSPost2010PropOp30
 70
     1
102
RTVSPost2010Prop31
280
     0
102
RTVSPost2010PropOp31
 70
     1
102
RTVSPost2010Prop32
280
     0
102
RTVSPost2010PropOp32
 70
     1
102
RTVSPost2010Prop33
280
     0
102
RTVSPost2010PropOp33
 70
     1
102
RTVSPost2010Prop34
280
     0
102
RTVSPost2010PropOp34
 70
     1
102
RTVSPost2010Prop35
280
     0
102
RTVSPost2010PropOp35
 70
     1
102
RTVSPost2010Prop36
280
     0
102
RTVSPost2010PropOp36
 70
     1
102
RTVSPost2010Prop37
 90
       50
102
RTVSPost2010PropOp37
 70
     1
102
RTVSPost2010Prop38
140
0.0
102
RTVSPost2010PropOp38
 70
     1
102
RTVSPost2010Prop39
140
1.0
102
RTVSPost2010PropOp39
 70
     1
102
RTVSPost2010Prop40
 90
        0
102
RTVSPost2010PropOp40
 70
     1
102
RTVSPost2010Prop41ColorIndex
 90
       18
102
RTVSPost2010Prop41ColorRGB
 90
        0
102
RTVSPost2010PropOp41
 70
     1
102
RTVSPost2010Prop42
 90
       50
102
RTVSPost2010PropOp42
 70
     1
102
RTVSPost2010Prop43
 90
        3
102
RTVSPost2010PropOp43
 70
     1
102
RTVSPost2010Prop44ColorIndex
 90
        5
102
RTVSPost2010Prop44ColorRGB
 90
      255
102
RTVSPost2010PropOp44
 70
     1
102
RTVSPost2010Prop45
280
     0
102
RTVSPost2010PropOp45
 70
     1
102
RTVSPost2010Prop46
 90
       50
102
RTVSPost2010PropOp46
 70
     1
102
RTVSPost2010Prop47
 90
       50
102
RTVSPost2010PropOp47
 70
     1
102
RTVSPost2010Prop48
 90
       50
102
RTVSPost2010PropOp48
 70
     1
102
RTVSPost2010Prop49
280
     0
102
RTVSPost2010PropOp49
 70
     1
102
RTVSPost2010Prop50
 90
       50
102
RTVSPost2010PropOp50
 70
     1
102
RTVSPost2010Prop51ColorIndex
 90
      256
102
RTVSPost2010Prop51ColorRGB
 90
-16777216
102
RTVSPost2010PropOp51
 70
     0
102
RTVSPost2010Prop52
140
1.0
102
RTVSPost2010PropOp52
 70
     0
102
RTVSPost2010Prop53
 90
        2
102
RTVSPost2010PropOp53
 70
     1
102
RTVSPost2010Prop54
  1
strokes_ogs.tif
102
RTVSPost2010PropOp54
 70
     1
102
RTVSPost2010Prop55
280
     0
102
RTVSPost2010PropOp55
 70
     1
102
RTVSPost2010Prop56
140
1.0
102
RTVSPost2010PropOp56
 70
     1
102
RTVSPost2010Prop57
140
1.0
102
RTVSPost2010PropOp57
 70
     1
  0
XRECORD
  5
3A6
102
{ACAD_REACTORS
330
3A5
102
}
330
3A5
100
AcDbXrecord
280
     1
102
RTVSPropertyOp0
 70
     1
102
RTVSPropertyOp1
 70
     1
102
RTVSPropertyOp2
 70
     1
102
RTVSPropertyOp3
 70
     1
102
RTVSPropertyOp4
 70
     1
102
RTVSPropertyOp5
 70
     1
102
RTVSPropertyOp6
 70
     1
102
RTVSPropertyOp7
 70
     1
102
RTVSPropertyOp8
 70
     1
102
RTVSPropertyOp9
 70
     1
102
RTVSPropertyOp10
 70
     1
102
RTVSPropertyOp11
 70
     1
102
RTVSPropertyOp12
 70
     1
102
RTVSPropertyOp13
 70
     1
102
RTVSPropertyOp14
 70
     1
102
RTVSPropertyOp15
 70
     1
102
RTVSPropertyOp16
 70
     1
102
RTVSPropertyOp17
 70
     1
102
RTVSPropertyOp18
 70
     1
102
RTVSPropertyOp19
 70
     1
102
RTVSPropertyOp20
 70
     1
102
RTVSPropertyOp21
 70
     1
102
RTVSPropertyOp22
 70
     1
102
RTVSPropertyOp23
 70
     1
102
RTVSPropertyOp24
 70
     1
102
RTVSPropertyOp25
 70
     1
102
RTVSPropertyOp26
 70
     1
102
RTVSPropertyOp27
 70
     1
102
RTVSPropertyOp28
 70
     1
102
RTVSPropertyOp29
 70
     1
102
RTVSPropertyOp30
 70
     1
102
RTVSPropertyOp31
 70
     1
102
RTVSPropertyOp32
 70
     1
102
RTVSPropertyOp33
 70
     1
102
RTVSPropertyOp34
 70
     1
102
RTVSPropertyOp35
 70
     1
102
RTVSPropertyOp36
 70
     1
102
RTVSPropertyOp37
 70
     1
102
RTVSPropertyOp38
 70
     1
102
RTVSPropertyOp39
 70
     1
102
RTVSPropertyOp40
 70
     1
102
RTVSPropertyOp41
 70
     1
102
RTVSPropertyOp42
 70
     1
102
RTVSPropertyOp43
 70
     1
102
RTVSPropertyOp44
 70
     1
102
RTVSPropertyOp45
 70
     1
102
RTVSPropertyOp46
 70
     1
102
RTVSPropertyOp47
 70
     1
102
RTVSPropertyOp48
 70
     1
102
RTVSPropertyOp49
 70
     1
102
RTVSPropertyOp50
 70
     1
102
RTVSPropertyOp51
 70
     0
102
RTVSPropertyOp52
 70
     0
102
RTVSPropertyOp53
 70
     1
102
RTVSPropertyOp54
 70
     1
102
RTVSPropertyOp55
 70
     1
102
RTVSPropertyOp56
 70
     1
102
RTVSPropertyOp57
 70
     1
102
RTVSPost2010Prop28
280
     0
102
RTVSPost2010PropOp28
 70
     1
102
RTVSPost2010Prop29
280
     1
102
RTVSPost2010PropOp29
 70
     1
102
RTVSPost2010Prop30
280
     1
102
RTVSPost2010PropOp30
 70
     1
102
RTVSPost2010Prop31
280
     0
102
RTVSPost2010PropOp31
 70
     1
102
RTVSPost2010Prop32
280
     0
102
RTVSPost2010PropOp32
 70
     1
102
RTVSPost2010Prop33
280
     0
102
RTVSPost2010PropOp33
 70
     1
102
RTVSPost2010Prop34
280
     0
102
RTVSPost2010PropOp34
 70
     1
102
RTVSPost2010Prop35
280
     0
102
RTVSPost2010PropOp35
 70
     1
102
RTVSPost2010Prop36
280
     0
102
RTVSPost2010PropOp36
 70
     1
102
RTVSPost2010Prop37
 90
       50
102
RTVSPost2010PropOp37
 70
     1
102
RTVSPost2010Prop38
140
0.0
102
RTVSPost2010PropOp38
 70
     1
102
RTVSPost2010Prop39
140
1.0
102
RTVSPost2010PropOp39
 70
     1
102
RTVSPost2010Prop40
 90
        0
102
RTVSPost2010PropOp40
 70
     1
102
RTVSPost2010Prop41ColorIndex
 90
       18
102
RTVSPost2010Prop41ColorRGB
 90
        0
102
RTVSPost2010PropOp41
 70
     1
102
RTVSPost2010Prop42
 90
       50
102
RTVSPost2010PropOp42
 70
     1
102
RTVSPost2010Prop43
 90
        3
102
RTVSPost2010PropOp43
 70
     1
102
RTVSPost2010Prop44ColorIndex
 90
        5
102
RTVSPost2010Prop44ColorRGB
 90
      255
102
RTVSPost2010PropOp44
 70
     1
102
RTVSPost2010Prop45
280
     0
102
RTVSPost2010PropOp45
 70
     1
102
RTVSPost2010Prop46
 90
       50
102
RTVSPost2010PropOp46
 70
     1
102
RTVSPost2010Prop47
 90
       50
102
RTVSPost2010PropOp47
 70
     1
102
RTVSPost2010Prop48
 90
       50
102
RTVSPost2010PropOp48
 70
     1
102
RTVSPost2010Prop49
280
     0
102
RTVSPost2010PropOp49
 70
     1
102
RTVSPost2010Prop50
 90
       50
102
RTVSPost2010PropOp50
 70
     1
102
RTVSPost2010Prop51ColorIndex
 90
      256
102
RTVSPost2010Prop51ColorRGB
 90
-16777216
102
RTVSPost2010PropOp51
 70
     0
102
RTVSPost2010Prop52
140
1.0
102
RTVSPost2010PropOp52
 70
     0
102
RTVSPost2010Prop53
 90
        2
102
RTVSPost2010PropOp53
 70
     1
102
RTVSPost2010Prop54
  1
strokes_ogs.tif
102
RTVSPost2010PropOp54
 70
     1
102
RTVSPost2010Prop55
280
     0
102
RTVSPost2010PropOp55
 70
     1
102
RTVSPost2010Prop56
140
1.0
102
RTVSPost2010PropOp56
 70
     1
102
RTVSPost2010Prop57
140
1.0
102
RTVSPost2010PropOp57
 70
     1
  0
XRECORD
  5
3A4
102
{ACAD_REACTORS
330
3A3
102
}
330
3A3
100
AcDbXrecord
280
     1
102
RTVSPropertyOp0
 70
     1
102
RTVSPropertyOp1
 70
     1
102
RTVSPropertyOp2
 70
     1
102
RTVSPropertyOp3
 70
     1
102
RTVSPropertyOp4
 70
     1
102
RTVSPropertyOp5
 70
     1
102
RTVSPropertyOp6
 70
     1
102
RTVSPropertyOp7
 70
     1
102
RTVSPropertyOp8
 70
     1
102
RTVSPropertyOp9
 70
     1
102
RTVSPropertyOp10
 70
     1
102
RTVSPropertyOp11
 70
     1
102
RTVSPropertyOp12
 70
     1
102
RTVSPropertyOp13
 70
     1
102
RTVSPropertyOp14
 70
     1
102
RTVSPropertyOp15
 70
     1
102
RTVSPropertyOp16
 70
     1
102
RTVSPropertyOp17
 70
     1
102
RTVSPropertyOp18
 70
     1
102
RTVSPropertyOp19
 70
     1
102
RTVSPropertyOp20
 70
     1
102
RTVSPropertyOp21
 70
     1
102
RTVSPropertyOp22
 70
     1
102
RTVSPropertyOp23
 70
     1
102
RTVSPropertyOp24
 70
     1
102
RTVSPropertyOp25
 70
     1
102
RTVSPropertyOp26
 70
     1
102
RTVSPropertyOp27
 70
     1
102
RTVSPropertyOp28
 70
     1
102
RTVSPropertyOp29
 70
     1
102
RTVSPropertyOp30
 70
     1
102
RTVSPropertyOp31
 70
     1
102
RTVSPropertyOp32
 70
     1
102
RTVSPropertyOp33
 70
     1
102
RTVSPropertyOp34
 70
     1
102
RTVSPropertyOp35
 70
     1
102
RTVSPropertyOp36
 70
     1
102
RTVSPropertyOp37
 70
     1
102
RTVSPropertyOp38
 70
     1
102
RTVSPropertyOp39
 70
     1
102
RTVSPropertyOp40
 70
     1
102
RTVSPropertyOp41
 70
     1
102
RTVSPropertyOp42
 70
     1
102
RTVSPropertyOp43
 70
     1
102
RTVSPropertyOp44
 70
     1
102
RTVSPropertyOp45
 70
     1
102
RTVSPropertyOp46
 70
     1
102
RTVSPropertyOp47
 70
     1
102
RTVSPropertyOp48
 70
     1
102
RTVSPropertyOp49
 70
     1
102
RTVSPropertyOp50
 70
     1
102
RTVSPropertyOp51
 70
     0
102
RTVSPropertyOp52
 70
     0
102
RTVSPropertyOp53
 70
     1
102
RTVSPropertyOp54
 70
     1
102
RTVSPropertyOp55
 70
     1
102
RTVSPropertyOp56
 70
     1
102
RTVSPropertyOp57
 70
     1
102
RTVSPost2010Prop28
280
     0
102
RTVSPost2010PropOp28
 70
     1
102
RTVSPost2010Prop29
280
     1
102
RTVSPost2010PropOp29
 70
     1
102
RTVSPost2010Prop30
280
     1
102
RTVSPost2010PropOp30
 70
     1
102
RTVSPost2010Prop31
280
     0
102
RTVSPost2010PropOp31
 70
     1
102
RTVSPost2010Prop32
280
     0
102
RTVSPost2010PropOp32
 70
     1
102
RTVSPost2010Prop33
280
     0
102
RTVSPost2010PropOp33
 70
     1
102
RTVSPost2010Prop34
280
     0
102
RTVSPost2010PropOp34
 70
     1
102
RTVSPost2010Prop35
280
     0
102
RTVSPost2010PropOp35
 70
     1
102
RTVSPost2010Prop36
280
     0
102
RTVSPost2010PropOp36
 70
     1
102
RTVSPost2010Prop37
 90
       50
102
RTVSPost2010PropOp37
 70
     1
102
RTVSPost2010Prop38
140
0.0
102
RTVSPost2010PropOp38
 70
     1
102
RTVSPost2010Prop39
140
1.0
102
RTVSPost2010PropOp39
 70
     1
102
RTVSPost2010Prop40
 90
        0
102
RTVSPost2010PropOp40
 70
     1
102
RTVSPost2010Prop41ColorIndex
 90
       18
102
RTVSPost2010Prop41ColorRGB
 90
        0
102
RTVSPost2010PropOp41
 70
     1
102
RTVSPost2010Prop42
 90
       50
102
RTVSPost2010PropOp42
 70
     1
102
RTVSPost2010Prop43
 90
        3
102
RTVSPost2010PropOp43
 70
     1
102
RTVSPost2010Prop44ColorIndex
 90
        5
102
RTVSPost2010Prop44ColorRGB
 90
      255
102
RTVSPost2010PropOp44
 70
     1
102
RTVSPost2010Prop45
280
     0
102
RTVSPost2010PropOp45
 70
     1
102
RTVSPost2010Prop46
 90
       50
102
RTVSPost2010PropOp46
 70
     1
102
RTVSPost2010Prop47
 90
       50
102
RTVSPost2010PropOp47
 70
     1
102
RTVSPost2010Prop48
 90
       50
102
RTVSPost2010PropOp48
 70
     1
102
RTVSPost2010Prop49
280
     0
102
RTVSPost2010PropOp49
 70
     1
102
RTVSPost2010Prop50
 90
       50
102
RTVSPost2010PropOp50
 70
     1
102
RTVSPost2010Prop51ColorIndex
 90
      256
102
RTVSPost2010Prop51ColorRGB
 90
-16777216
102
RTVSPost2010PropOp51
 70
     0
102
RTVSPost2010Prop52
140
1.0
102
RTVSPost2010PropOp52
 70
     0
102
RTVSPost2010Prop53
 90
        2
102
RTVSPost2010PropOp53
 70
     1
102
RTVSPost2010Prop54
  1
strokes_ogs.tif
102
RTVSPost2010PropOp54
 70
     1
102
RTVSPost2010Prop55
280
     0
102
RTVSPost2010PropOp55
 70
     1
102
RTVSPost2010Prop56
140
1.0
102
RTVSPost2010PropOp56
 70
     1
102
RTVSPost2010Prop57
140
1.0
102
RTVSPost2010PropOp57
 70
     1
  0
XRECORD
  5
39E
102
{ACAD_REACTORS
330
39D
102
}
330
39D
100
AcDbXrecord
280
     1
102
RTVSPropertyOp0
 70
     1
102
RTVSPropertyOp1
 70
     1
102
RTVSPropertyOp2
 70
     1
102
RTVSPropertyOp3
 70
     1
102
RTVSPropertyOp4
 70
     1
102
RTVSPropertyOp5
 70
     1
102
RTVSPropertyOp6
 70
     1
102
RTVSPropertyOp7
 70
     1
102
RTVSPropertyOp8
 70
     1
102
RTVSPropertyOp9
 70
     1
102
RTVSPropertyOp10
 70
     1
102
RTVSPropertyOp11
 70
     1
102
RTVSPropertyOp12
 70
     1
102
RTVSPropertyOp13
 70
     1
102
RTVSPropertyOp14
 70
     1
102
RTVSPropertyOp15
 70
     1
102
RTVSPropertyOp16
 70
     1
102
RTVSPropertyOp17
 70
     1
102
RTVSPropertyOp18
 70
     1
102
RTVSPropertyOp19
 70
     1
102
RTVSPropertyOp20
 70
     1
102
RTVSPropertyOp21
 70
     1
102
RTVSPropertyOp22
 70
     1
102
RTVSPropertyOp23
 70
     1
102
RTVSPropertyOp24
 70
     1
102
RTVSPropertyOp25
 70
     1
102
RTVSPropertyOp26
 70
     1
102
RTVSPropertyOp27
 70
     1
102
RTVSPropertyOp28
 70
     1
102
RTVSPropertyOp29
 70
     1
102
RTVSPropertyOp30
 70
     1
102
RTVSPropertyOp31
 70
     1
102
RTVSPropertyOp32
 70
     1
102
RTVSPropertyOp33
 70
     1
102
RTVSPropertyOp34
 70
     1
102
RTVSPropertyOp35
 70
     1
102
RTVSPropertyOp36
 70
     1
102
RTVSPropertyOp37
 70
     1
102
RTVSPropertyOp38
 70
     1
102
RTVSPropertyOp39
 70
     1
102
RTVSPropertyOp40
 70
     1
102
RTVSPropertyOp41
 70
     1
102
RTVSPropertyOp42
 70
     1
102
RTVSPropertyOp43
 70
     1
102
RTVSPropertyOp44
 70
     1
102
RTVSPropertyOp45
 70
     1
102
RTVSPropertyOp46
 70
     1
102
RTVSPropertyOp47
 70
     1
102
RTVSPropertyOp48
 70
     1
102
RTVSPropertyOp49
 70
     1
102
RTVSPropertyOp50
 70
     1
102
RTVSPropertyOp51
 70
     0
102
RTVSPropertyOp52
 70
     0
102
RTVSPropertyOp53
 70
     1
102
RTVSPropertyOp54
 70
     1
102
RTVSPropertyOp55
 70
     1
102
RTVSPropertyOp56
 70
     1
102
RTVSPropertyOp57
 70
     1
102
RTVSPost2010Prop28
280
     0
102
RTVSPost2010PropOp28
 70
     1
102
RTVSPost2010Prop29
280
     1
102
RTVSPost2010PropOp29
 70
     1
102
RTVSPost2010Prop30
280
     1
102
RTVSPost2010PropOp30
 70
     1
102
RTVSPost2010Prop31
280
     0
102
RTVSPost2010PropOp31
 70
     1
102
RTVSPost2010Prop32
280
     0
102
RTVSPost2010PropOp32
 70
     1
102
RTVSPost2010Prop33
280
     0
102
RTVSPost2010PropOp33
 70
     1
102
RTVSPost2010Prop34
280
     0
102
RTVSPost2010PropOp34
 70
     1
102
RTVSPost2010Prop35
280
     0
102
RTVSPost2010PropOp35
 70
     1
102
RTVSPost2010Prop36
280
     0
102
RTVSPost2010PropOp36
 70
     1
102
RTVSPost2010Prop37
 90
       50
102
RTVSPost2010PropOp37
 70
     1
102
RTVSPost2010Prop38
140
0.0
102
RTVSPost2010PropOp38
 70
     1
102
RTVSPost2010Prop39
140
1.0
102
RTVSPost2010PropOp39
 70
     1
102
RTVSPost2010Prop40
 90
        0
102
RTVSPost2010PropOp40
 70
     1
102
RTVSPost2010Prop41ColorIndex
 90
       18
102
RTVSPost2010Prop41ColorRGB
 90
        0
102
RTVSPost2010PropOp41
 70
     1
102
RTVSPost2010Prop42
 90
       50
102
RTVSPost2010PropOp42
 70
     1
102
RTVSPost2010Prop43
 90
        3
102
RTVSPost2010PropOp43
 70
     1
102
RTVSPost2010Prop44ColorIndex
 90
        5
102
RTVSPost2010Prop44ColorRGB
 90
      255
102
RTVSPost2010PropOp44
 70
     1
102
RTVSPost2010Prop45
280
     0
102
RTVSPost2010PropOp45
 70
     1
102
RTVSPost2010Prop46
 90
       50
102
RTVSPost2010PropOp46
 70
     1
102
RTVSPost2010Prop47
 90
       50
102
RTVSPost2010PropOp47
 70
     1
102
RTVSPost2010Prop48
 90
       50
102
RTVSPost2010PropOp48
 70
     1
102
RTVSPost2010Prop49
280
     0
102
RTVSPost2010PropOp49
 70
     1
102
RTVSPost2010Prop50
 90
       50
102
RTVSPost2010PropOp50
 70
     1
102
RTVSPost2010Prop51ColorIndex
 90
      256
102
RTVSPost2010Prop51ColorRGB
 90
-16777216
102
RTVSPost2010PropOp51
 70
     0
102
RTVSPost2010Prop52
140
1.0
102
RTVSPost2010PropOp52
 70
     0
102
RTVSPost2010Prop53
 90
        2
102
RTVSPost2010PropOp53
 70
     1
102
RTVSPost2010Prop54
  1
strokes_ogs.tif
102
RTVSPost2010PropOp54
 70
     1
102
RTVSPost2010Prop55
280
     0
102
RTVSPost2010PropOp55
 70
     1
102
RTVSPost2010Prop56
140
1.0
102
RTVSPost2010PropOp56
 70
     1
102
RTVSPost2010Prop57
140
1.0
102
RTVSPost2010PropOp57
 70
     1
  0
XRECORD
  5
3A0
102
{ACAD_REACTORS
330
39F
102
}
330
39F
100
AcDbXrecord
280
     1
102
RTVSPropertyOp0
 70
     1
102
RTVSPropertyOp1
 70
     1
102
RTVSPropertyOp2
 70
     1
102
RTVSPropertyOp3
 70
     1
102
RTVSPropertyOp4
 70
     1
102
RTVSPropertyOp5
 70
     1
102
RTVSPropertyOp6
 70
     1
102
RTVSPropertyOp7
 70
     1
102
RTVSPropertyOp8
 70
     1
102
RTVSPropertyOp9
 70
     1
102
RTVSPropertyOp10
 70
     1
102
RTVSPropertyOp11
 70
     1
102
RTVSPropertyOp12
 70
     1
102
RTVSPropertyOp13
 70
     1
102
RTVSPropertyOp14
 70
     1
102
RTVSPropertyOp15
 70
     1
102
RTVSPropertyOp16
 70
     1
102
RTVSPropertyOp17
 70
     1
102
RTVSPropertyOp18
 70
     1
102
RTVSPropertyOp19
 70
     1
102
RTVSPropertyOp20
 70
     1
102
RTVSPropertyOp21
 70
     1
102
RTVSPropertyOp22
 70
     1
102
RTVSPropertyOp23
 70
     1
102
RTVSPropertyOp24
 70
     1
102
RTVSPropertyOp25
 70
     1
102
RTVSPropertyOp26
 70
     1
102
RTVSPropertyOp27
 70
     1
102
RTVSPropertyOp28
 70
     1
102
RTVSPropertyOp29
 70
     1
102
RTVSPropertyOp30
 70
     1
102
RTVSPropertyOp31
 70
     1
102
RTVSPropertyOp32
 70
     1
102
RTVSPropertyOp33
 70
     1
102
RTVSPropertyOp34
 70
     1
102
RTVSPropertyOp35
 70
     1
102
RTVSPropertyOp36
 70
     1
102
RTVSPropertyOp37
 70
     1
102
RTVSPropertyOp38
 70
     1
102
RTVSPropertyOp39
 70
     1
102
RTVSPropertyOp40
 70
     1
102
RTVSPropertyOp41
 70
     1
102
RTVSPropertyOp42
 70
     1
102
RTVSPropertyOp43
 70
     1
102
RTVSPropertyOp44
 70
     1
102
RTVSPropertyOp45
 70
     1
102
RTVSPropertyOp46
 70
     1
102
RTVSPropertyOp47
 70
     1
102
RTVSPropertyOp48
 70
     1
102
RTVSPropertyOp49
 70
     1
102
RTVSPropertyOp50
 70
     1
102
RTVSPropertyOp51
 70
     0
102
RTVSPropertyOp52
 70
     0
102
RTVSPropertyOp53
 70
     1
102
RTVSPropertyOp54
 70
     1
102
RTVSPropertyOp55
 70
     1
102
RTVSPropertyOp56
 70
     1
102
RTVSPropertyOp57
 70
     1
102
RTVSPost2010Prop28
280
     0
102
RTVSPost2010PropOp28
 70
     1
102
RTVSPost2010Prop29
280
     1
102
RTVSPost2010PropOp29
 70
     1
102
RTVSPost2010Prop30
280
     1
102
RTVSPost2010PropOp30
 70
     1
102
RTVSPost2010Prop31
280
     0
102
RTVSPost2010PropOp31
 70
     1
102
RTVSPost2010Prop32
280
     0
102
RTVSPost2010PropOp32
 70
     1
102
RTVSPost2010Prop33
280
     0
102
RTVSPost2010PropOp33
 70
     1
102
RTVSPost2010Prop34
280
     0
102
RTVSPost2010PropOp34
 70
     1
102
RTVSPost2010Prop35
280
     0
102
RTVSPost2010PropOp35
 70
     1
102
RTVSPost2010Prop36
280
     0
102
RTVSPost2010PropOp36
 70
     1
102
RTVSPost2010Prop37
 90
       50
102
RTVSPost2010PropOp37
 70
     1
102
RTVSPost2010Prop38
140
0.0
102
RTVSPost2010PropOp38
 70
     1
102
RTVSPost2010Prop39
140
1.0
102
RTVSPost2010PropOp39
 70
     1
102
RTVSPost2010Prop40
 90
        0
102
RTVSPost2010PropOp40
 70
     1
102
RTVSPost2010Prop41ColorIndex
 90
       18
102
RTVSPost2010Prop41ColorRGB
 90
        0
102
RTVSPost2010PropOp41
 70
     1
102
RTVSPost2010Prop42
 90
       50
102
RTVSPost2010PropOp42
 70
     1
102
RTVSPost2010Prop43
 90
        3
102
RTVSPost2010PropOp43
 70
     1
102
RTVSPost2010Prop44ColorIndex
 90
        5
102
RTVSPost2010Prop44ColorRGB
 90
      255
102
RTVSPost2010PropOp44
 70
     1
102
RTVSPost2010Prop45
280
     0
102
RTVSPost2010PropOp45
 70
     1
102
RTVSPost2010Prop46
 90
       50
102
RTVSPost2010PropOp46
 70
     1
102
RTVSPost2010Prop47
 90
       50
102
RTVSPost2010PropOp47
 70
     1
102
RTVSPost2010Prop48
 90
       50
102
RTVSPost2010PropOp48
 70
     1
102
RTVSPost2010Prop49
280
     0
102
RTVSPost2010PropOp49
 70
     1
102
RTVSPost2010Prop50
 90
       50
102
RTVSPost2010PropOp50
 70
     1
102
RTVSPost2010Prop51ColorIndex
 90
      256
102
RTVSPost2010Prop51ColorRGB
 90
-16777216
102
RTVSPost2010PropOp51
 70
     0
102
RTVSPost2010Prop52
140
1.0
102
RTVSPost2010PropOp52
 70
     0
102
RTVSPost2010Prop53
 90
        2
102
RTVSPost2010PropOp53
 70
     1
102
RTVSPost2010Prop54
  1
strokes_ogs.tif
102
RTVSPost2010PropOp54
 70
     1
102
RTVSPost2010Prop55
280
     0
102
RTVSPost2010PropOp55
 70
     1
102
RTVSPost2010Prop56
140
1.0
102
RTVSPost2010PropOp56
 70
     1
102
RTVSPost2010Prop57
140
1.0
102
RTVSPost2010PropOp57
 70
     1
  0
XRECORD
  5
390
102
{ACAD_REACTORS
330
38F
102
}
330
38F
100
AcDbXrecord
280
     1
102
RTVSPropertyOp0
 70
     1
102
RTVSPropertyOp1
 70
     1
102
RTVSPropertyOp2
 70
     1
102
RTVSPropertyOp3
 70
     1
102
RTVSPropertyOp4
 70
     1
102
RTVSPropertyOp5
 70
     1
102
RTVSPropertyOp6
 70
     1
102
RTVSPropertyOp7
 70
     1
102
RTVSPropertyOp8
 70
     1
102
RTVSPropertyOp9
 70
     1
102
RTVSPropertyOp10
 70
     1
102
RTVSPropertyOp11
 70
     1
102
RTVSPropertyOp12
 70
     1
102
RTVSPropertyOp13
 70
     1
102
RTVSPropertyOp14
 70
     1
102
RTVSPropertyOp15
 70
     1
102
RTVSPropertyOp16
 70
     1
102
RTVSPropertyOp17
 70
     1
102
RTVSPropertyOp18
 70
     1
102
RTVSPropertyOp19
 70
     1
102
RTVSPropertyOp20
 70
     1
102
RTVSPropertyOp21
 70
     1
102
RTVSPropertyOp22
 70
     1
102
RTVSPropertyOp23
 70
     1
102
RTVSPropertyOp24
 70
     1
102
RTVSPropertyOp25
 70
     1
102
RTVSPropertyOp26
 70
     1
102
RTVSPropertyOp27
 70
     1
102
RTVSPropertyOp28
 70
     1
102
RTVSPropertyOp29
 70
     1
102
RTVSPropertyOp30
 70
     1
102
RTVSPropertyOp31
 70
     1
102
RTVSPropertyOp32
 70
     1
102
RTVSPropertyOp33
 70
     1
102
RTVSPropertyOp34
 70
     1
102
RTVSPropertyOp35
 70
     1
102
RTVSPropertyOp36
 70
     1
102
RTVSPropertyOp37
 70
     1
102
RTVSPropertyOp38
 70
     1
102
RTVSPropertyOp39
 70
     1
102
RTVSPropertyOp40
 70
     1
102
RTVSPropertyOp41
 70
     1
102
RTVSPropertyOp42
 70
     1
102
RTVSPropertyOp43
 70
     1
102
RTVSPropertyOp44
 70
     1
102
RTVSPropertyOp45
 70
     1
102
RTVSPropertyOp46
 70
     1
102
RTVSPropertyOp47
 70
     1
102
RTVSPropertyOp48
 70
     1
102
RTVSPropertyOp49
 70
     1
102
RTVSPropertyOp50
 70
     1
102
RTVSPropertyOp51
 70
     0
102
RTVSPropertyOp52
 70
     0
102
RTVSPropertyOp53
 70
     1
102
RTVSPropertyOp54
 70
     1
102
RTVSPropertyOp55
 70
     1
102
RTVSPropertyOp56
 70
     1
102
RTVSPropertyOp57
 70
     1
102
RTVSPost2010Prop28
280
     0
102
RTVSPost2010PropOp28
 70
     1
102
RTVSPost2010Prop29
280
     1
102
RTVSPost2010PropOp29
 70
     1
102
RTVSPost2010Prop30
280
     1
102
RTVSPost2010PropOp30
 70
     1
102
RTVSPost2010Prop31
280
     0
102
RTVSPost2010PropOp31
 70
     1
102
RTVSPost2010Prop32
280
     0
102
RTVSPost2010PropOp32
 70
     1
102
RTVSPost2010Prop33
280
     0
102
RTVSPost2010PropOp33
 70
     1
102
RTVSPost2010Prop34
280
     0
102
RTVSPost2010PropOp34
 70
     1
102
RTVSPost2010Prop35
280
     0
102
RTVSPost2010PropOp35
 70
     1
102
RTVSPost2010Prop36
280
     0
102
RTVSPost2010PropOp36
 70
     1
102
RTVSPost2010Prop37
 90
       50
102
RTVSPost2010PropOp37
 70
     1
102
RTVSPost2010Prop38
140
0.0
102
RTVSPost2010PropOp38
 70
     1
102
RTVSPost2010Prop39
140
1.0
102
RTVSPost2010PropOp39
 70
     1
102
RTVSPost2010Prop40
 90
        0
102
RTVSPost2010PropOp40
 70
     1
102
RTVSPost2010Prop41ColorIndex
 90
       18
102
RTVSPost2010Prop41ColorRGB
 90
        0
102
RTVSPost2010PropOp41
 70
     1
102
RTVSPost2010Prop42
 90
       50
102
RTVSPost2010PropOp42
 70
     1
102
RTVSPost2010Prop43
 90
        3
102
RTVSPost2010PropOp43
 70
     1
102
RTVSPost2010Prop44ColorIndex
 90
        5
102
RTVSPost2010Prop44ColorRGB
 90
      255
102
RTVSPost2010PropOp44
 70
     1
102
RTVSPost2010Prop45
280
     0
102
RTVSPost2010PropOp45
 70
     1
102
RTVSPost2010Prop46
 90
       50
102
RTVSPost2010PropOp46
 70
     1
102
RTVSPost2010Prop47
 90
       50
102
RTVSPost2010PropOp47
 70
     1
102
RTVSPost2010Prop48
 90
       50
102
RTVSPost2010PropOp48
 70
     1
102
RTVSPost2010Prop49
280
     0
102
RTVSPost2010PropOp49
 70
     1
102
RTVSPost2010Prop50
 90
       50
102
RTVSPost2010PropOp50
 70
     1
102
RTVSPost2010Prop51ColorIndex
 90
      256
102
RTVSPost2010Prop51ColorRGB
 90
-16777216
102
RTVSPost2010PropOp51
 70
     0
102
RTVSPost2010Prop52
140
1.0
102
RTVSPost2010PropOp52
 70
     0
102
RTVSPost2010Prop53
 90
        2
102
RTVSPost2010PropOp53
 70
     1
102
RTVSPost2010Prop54
  1
strokes_ogs.tif
102
RTVSPost2010PropOp54
 70
     1
102
RTVSPost2010Prop55
280
     0
102
RTVSPost2010PropOp55
 70
     1
102
RTVSPost2010Prop56
140
1.0
102
RTVSPost2010PropOp56
 70
     1
102
RTVSPost2010Prop57
140
1.0
102
RTVSPost2010PropOp57
 70
     1
  0
XRECORD
  5
382
102
{ACAD_REACTORS
330
381
102
}
330
381
100
AcDbXrecord
280
     1
102
RTVSPropertyOp0
 70
     1
102
RTVSPropertyOp1
 70
     1
102
RTVSPropertyOp2
 70
     1
102
RTVSPropertyOp3
 70
     1
102
RTVSPropertyOp4
 70
     1
102
RTVSPropertyOp5
 70
     1
102
RTVSPropertyOp6
 70
     1
102
RTVSPropertyOp7
 70
     1
102
RTVSPropertyOp8
 70
     1
102
RTVSPropertyOp9
 70
     1
102
RTVSPropertyOp10
 70
     1
102
RTVSPropertyOp11
 70
     1
102
RTVSPropertyOp12
 70
     1
102
RTVSPropertyOp13
 70
     1
102
RTVSPropertyOp14
 70
     1
102
RTVSPropertyOp15
 70
     1
102
RTVSPropertyOp16
 70
     1
102
RTVSPropertyOp17
 70
     1
102
RTVSPropertyOp18
 70
     1
102
RTVSPropertyOp19
 70
     1
102
RTVSPropertyOp20
 70
     1
102
RTVSPropertyOp21
 70
     1
102
RTVSPropertyOp22
 70
     1
102
RTVSPropertyOp23
 70
     1
102
RTVSPropertyOp24
 70
     1
102
RTVSPropertyOp25
 70
     1
102
RTVSPropertyOp26
 70
     1
102
RTVSPropertyOp27
 70
     1
102
RTVSPropertyOp28
 70
     1
102
RTVSPropertyOp29
 70
     1
102
RTVSPropertyOp30
 70
     1
102
RTVSPropertyOp31
 70
     1
102
RTVSPropertyOp32
 70
     1
102
RTVSPropertyOp33
 70
     1
102
RTVSPropertyOp34
 70
     1
102
RTVSPropertyOp35
 70
     1
102
RTVSPropertyOp36
 70
     1
102
RTVSPropertyOp37
 70
     1
102
RTVSPropertyOp38
 70
     1
102
RTVSPropertyOp39
 70
     1
102
RTVSPropertyOp40
 70
     1
102
RTVSPropertyOp41
 70
     1
102
RTVSPropertyOp42
 70
     1
102
RTVSPropertyOp43
 70
     1
102
RTVSPropertyOp44
 70
     1
102
RTVSPropertyOp45
 70
     1
102
RTVSPropertyOp46
 70
     1
102
RTVSPropertyOp47
 70
     1
102
RTVSPropertyOp48
 70
     1
102
RTVSPropertyOp49
 70
     1
102
RTVSPropertyOp50
 70
     1
102
RTVSPropertyOp51
 70
     0
102
RTVSPropertyOp52
 70
     0
102
RTVSPropertyOp53
 70
     1
102
RTVSPropertyOp54
 70
     1
102
RTVSPropertyOp55
 70
     1
102
RTVSPropertyOp56
 70
     1
102
RTVSPropertyOp57
 70
     1
102
RTVSPost2010Prop28
280
     0
102
RTVSPost2010PropOp28
 70
     1
102
RTVSPost2010Prop29
280
     1
102
RTVSPost2010PropOp29
 70
     1
102
RTVSPost2010Prop30
280
     1
102
RTVSPost2010PropOp30
 70
     1
102
RTVSPost2010Prop31
280
     0
102
RTVSPost2010PropOp31
 70
     1
102
RTVSPost2010Prop32
280
     0
102
RTVSPost2010PropOp32
 70
     1
102
RTVSPost2010Prop33
280
     0
102
RTVSPost2010PropOp33
 70
     1
102
RTVSPost2010Prop34
280
     0
102
RTVSPost2010PropOp34
 70
     1
102
RTVSPost2010Prop35
280
     0
102
RTVSPost2010PropOp35
 70
     1
102
RTVSPost2010Prop36
280
     0
102
RTVSPost2010PropOp36
 70
     1
102
RTVSPost2010Prop37
 90
       50
102
RTVSPost2010PropOp37
 70
     1
102
RTVSPost2010Prop38
140
0.0
102
RTVSPost2010PropOp38
 70
     1
102
RTVSPost2010Prop39
140
1.0
102
RTVSPost2010PropOp39
 70
     1
102
RTVSPost2010Prop40
 90
        0
102
RTVSPost2010PropOp40
 70
     1
102
RTVSPost2010Prop41ColorIndex
 90
       18
102
RTVSPost2010Prop41ColorRGB
 90
        0
102
RTVSPost2010PropOp41
 70
     1
102
RTVSPost2010Prop42
 90
       50
102
RTVSPost2010PropOp42
 70
     1
102
RTVSPost2010Prop43
 90
        3
102
RTVSPost2010PropOp43
 70
     1
102
RTVSPost2010Prop44ColorIndex
 90
        5
102
RTVSPost2010Prop44ColorRGB
 90
      255
102
RTVSPost2010PropOp44
 70
     1
102
RTVSPost2010Prop45
280
     0
102
RTVSPost2010PropOp45
 70
     1
102
RTVSPost2010Prop46
 90
       50
102
RTVSPost2010PropOp46
 70
     1
102
RTVSPost2010Prop47
 90
       50
102
RTVSPost2010PropOp47
 70
     1
102
RTVSPost2010Prop48
 90
       50
102
RTVSPost2010PropOp48
 70
     1
102
RTVSPost2010Prop49
280
     0
102
RTVSPost2010PropOp49
 70
     1
102
RTVSPost2010Prop50
 90
       50
102
RTVSPost2010PropOp50
 70
     1
102
RTVSPost2010Prop51ColorIndex
 90
      256
102
RTVSPost2010Prop51ColorRGB
 90
-16777216
102
RTVSPost2010PropOp51
 70
     0
102
RTVSPost2010Prop52
140
1.0
102
RTVSPost2010PropOp52
 70
     0
102
RTVSPost2010Prop53
 90
        2
102
RTVSPost2010PropOp53
 70
     1
102
RTVSPost2010Prop54
  1
strokes_ogs.tif
102
RTVSPost2010PropOp54
 70
     1
102
RTVSPost2010Prop55
280
     0
102
RTVSPost2010PropOp55
 70
     1
102
RTVSPost2010Prop56
140
1.0
102
RTVSPost2010PropOp56
 70
     1
102
RTVSPost2010Prop57
140
1.0
102
RTVSPost2010PropOp57
 70
     1
  0
XRECORD
  5
3A2
102
{ACAD_REACTORS
330
3A1
102
}
330
3A1
100
AcDbXrecord
280
     1
102
RTVSPropertyOp0
 70
     1
102
RTVSPropertyOp1
 70
     1
102
RTVSPropertyOp2
 70
     1
102
RTVSPropertyOp3
 70
     1
102
RTVSPropertyOp4
 70
     1
102
RTVSPropertyOp5
 70
     1
102
RTVSPropertyOp6
 70
     1
102
RTVSPropertyOp7
 70
     1
102
RTVSPropertyOp8
 70
     1
102
RTVSPropertyOp9
 70
     1
102
RTVSPropertyOp10
 70
     1
102
RTVSPropertyOp11
 70
     1
102
RTVSPropertyOp12
 70
     1
102
RTVSPropertyOp13
 70
     1
102
RTVSPropertyOp14
 70
     1
102
RTVSPropertyOp15
 70
     1
102
RTVSPropertyOp16
 70
     1
102
RTVSPropertyOp17
 70
     1
102
RTVSPropertyOp18
 70
     1
102
RTVSPropertyOp19
 70
     1
102
RTVSPropertyOp20
 70
     1
102
RTVSPropertyOp21
 70
     1
102
RTVSPropertyOp22
 70
     1
102
RTVSPropertyOp23
 70
     1
102
RTVSPropertyOp24
 70
     1
102
RTVSPropertyOp25
 70
     1
102
RTVSPropertyOp26
 70
     1
102
RTVSPropertyOp27
 70
     1
102
RTVSPropertyOp28
 70
     1
102
RTVSPropertyOp29
 70
     1
102
RTVSPropertyOp30
 70
     1
102
RTVSPropertyOp31
 70
     1
102
RTVSPropertyOp32
 70
     1
102
RTVSPropertyOp33
 70
     1
102
RTVSPropertyOp34
 70
     1
102
RTVSPropertyOp35
 70
     1
102
RTVSPropertyOp36
 70
     1
102
RTVSPropertyOp37
 70
     1
102
RTVSPropertyOp38
 70
     1
102
RTVSPropertyOp39
 70
     1
102
RTVSPropertyOp40
 70
     1
102
RTVSPropertyOp41
 70
     1
102
RTVSPropertyOp42
 70
     1
102
RTVSPropertyOp43
 70
     1
102
RTVSPropertyOp44
 70
     1
102
RTVSPropertyOp45
 70
     1
102
RTVSPropertyOp46
 70
     1
102
RTVSPropertyOp47
 70
     1
102
RTVSPropertyOp48
 70
     1
102
RTVSPropertyOp49
 70
     1
102
RTVSPropertyOp50
 70
     1
102
RTVSPropertyOp51
 70
     0
102
RTVSPropertyOp52
 70
     0
102
RTVSPropertyOp53
 70
     1
102
RTVSPropertyOp54
 70
     1
102
RTVSPropertyOp55
 70
     1
102
RTVSPropertyOp56
 70
     1
102
RTVSPropertyOp57
 70
     1
102
RTVSPost2010Prop28
280
     0
102
RTVSPost2010PropOp28
 70
     1
102
RTVSPost2010Prop29
280
     1
102
RTVSPost2010PropOp29
 70
     1
102
RTVSPost2010Prop30
280
     1
102
RTVSPost2010PropOp30
 70
     1
102
RTVSPost2010Prop31
280
     0
102
RTVSPost2010PropOp31
 70
     1
102
RTVSPost2010Prop32
280
     0
102
RTVSPost2010PropOp32
 70
     1
102
RTVSPost2010Prop33
280
     0
102
RTVSPost2010PropOp33
 70
     1
102
RTVSPost2010Prop34
280
     0
102
RTVSPost2010PropOp34
 70
     1
102
RTVSPost2010Prop35
280
     0
102
RTVSPost2010PropOp35
 70
     1
102
RTVSPost2010Prop36
280
     0
102
RTVSPost2010PropOp36
 70
     1
102
RTVSPost2010Prop37
 90
       50
102
RTVSPost2010PropOp37
 70
     1
102
RTVSPost2010Prop38
140
0.0
102
RTVSPost2010PropOp38
 70
     1
102
RTVSPost2010Prop39
140
1.0
102
RTVSPost2010PropOp39
 70
     1
102
RTVSPost2010Prop40
 90
        0
102
RTVSPost2010PropOp40
 70
     1
102
RTVSPost2010Prop41ColorIndex
 90
       18
102
RTVSPost2010Prop41ColorRGB
 90
        0
102
RTVSPost2010PropOp41
 70
     1
102
RTVSPost2010Prop42
 90
       50
102
RTVSPost2010PropOp42
 70
     1
102
RTVSPost2010Prop43
 90
        3
102
RTVSPost2010PropOp43
 70
     1
102
RTVSPost2010Prop44ColorIndex
 90
        5
102
RTVSPost2010Prop44ColorRGB
 90
      255
102
RTVSPost2010PropOp44
 70
     1
102
RTVSPost2010Prop45
280
     0
102
RTVSPost2010PropOp45
 70
     1
102
RTVSPost2010Prop46
 90
       50
102
RTVSPost2010PropOp46
 70
     1
102
RTVSPost2010Prop47
 90
       50
102
RTVSPost2010PropOp47
 70
     1
102
RTVSPost2010Prop48
 90
       50
102
RTVSPost2010PropOp48
 70
     1
102
RTVSPost2010Prop49
280
     0
102
RTVSPost2010PropOp49
 70
     1
102
RTVSPost2010Prop50
 90
       50
102
RTVSPost2010PropOp50
 70
     1
102
RTVSPost2010Prop51ColorIndex
 90
      256
102
RTVSPost2010Prop51ColorRGB
 90
-16777216
102
RTVSPost2010PropOp51
 70
     0
102
RTVSPost2010Prop52
140
1.0
102
RTVSPost2010PropOp52
 70
     0
102
RTVSPost2010Prop53
 90
        2
102
RTVSPost2010PropOp53
 70
     1
102
RTVSPost2010Prop54
  1
strokes_ogs.tif
102
RTVSPost2010PropOp54
 70
     1
102
RTVSPost2010Prop55
280
     0
102
RTVSPost2010PropOp55
 70
     1
102
RTVSPost2010Prop56
140
1.0
102
RTVSPost2010PropOp56
 70
     1
102
RTVSPost2010Prop57
140
1.0
102
RTVSPost2010PropOp57
 70
     1
  0
ENDSEC
  0
EOF
