  0
SECTION
  2
HEADER
  9
$ACADVER
  1
AC1018
  9
$ACADMAINTVER
 70
     0
  9
$DWGCODEPAGE
  3
ANSI_1252
  9
$INSBASE
 10
0.0
 20
0.0
 30
0.0
  9
$EXTMIN
 10
-457.7082196961705
 20
-314.224989179649
 30
0.0
  9
$EXTMAX
 10
-37.70821969617208
 20
-17.22498917964902
 30
0.0
  9
$LIMMIN
 10
0.0
 20
0.0
  9
$LIMMAX
 10
12.0
 20
9.0
  9
$ORTHOMODE
 70
     0
  9
$REGENMODE
 70
     1
  9
$FILLMODE
 70
     1
  9
$QTEXTMODE
 70
     0
  9
$MIRRTEXT
 70
     1
  9
$LTSCALE
 40
1.0
  9
$ATTMODE
 70
     1
  9
$TEXTSIZE
 40
0.2
  9
$TRACEWID
 40
0.05
  9
$TEXTSTYLE
  7
Standard
  9
$CLAYER
  8
0
  9
$CELTYPE
  6
ByLayer
  9
$CECOLOR
 62
   256
  9
$CELTSCALE
 40
1.0
  9
$DISPSILH
 70
     0
  9
$DIMSCALE
 40
1.0
  9
$DIMASZ
 40
0.18
  9
$DIMEXO
 40
0.0625
  9
$DIMDLI
 40
0.38
  9
$DIMRND
 40
0.0
  9
$DIMDLE
 40
0.0
  9
$DIMEXE
 40
0.18
  9
$DIMTP
 40
0.0
  9
$DIMTM
 40
0.0
  9
$DIMTXT
 40
0.18
  9
$DIMCEN
 40
0.09
  9
$DIMTSZ
 40
0.0
  9
$DIMTOL
 70
     0
  9
$DIMLIM
 70
     0
  9
$DIMTIH
 70
     1
  9
$DIMTOH
 70
     1
  9
$DIMSE1
 70
     0
  9
$DIMSE2
 70
     0
  9
$DIMTAD
 70
     0
  9
$DIMZIN
 70
     0
  9
$DIMBLK
  1

  9
$DIMASO
 70
     1
  9
$DIMSHO
 70
     1
  9
$DIMPOST
  1

  9
$DIMAPOST
  1

  9
$DIMALT
 70
     0
  9
$DIMALTD
 70
     2
  9
$DIMALTF
 40
25.4
  9
$DIMLFAC
 40
1.0
  9
$DIMTOFL
 70
     0
  9
$DIMTVP
 40
0.0
  9
$DIMTIX
 70
     0
  9
$DIMSOXD
 70
     0
  9
$DIMSAH
 70
     0
  9
$DIMBLK1
  1

  9
$DIMBLK2
  1

  9
$DIMSTYLE
  2
Standard
  9
$DIMCLRD
 70
     0
  9
$DIMCLRE
 70
     0
  9
$DIMCLRT
 70
     0
  9
$DIMTFAC
 40
1.0
  9
$DIMGAP
 40
0.09
  9
$DIMJUST
 70
     0
  9
$DIMSD1
 70
     0
  9
$DIMSD2
 70
     0
  9
$DIMTOLJ
 70
     1
  9
$DIMTZIN
 70
     0
  9
$DIMALTZ
 70
     0
  9
$DIMALTTZ
 70
     0
  9
$DIMUPT
 70
     0
  9
$DIMDEC
 70
     4
  9
$DIMTDEC
 70
     4
  9
$DIMALTU
 70
     2
  9
$DIMALTTD
 70
     2
  9
$DIMTXSTY
  7
Standard
  9
$DIMAUNIT
 70
     0
  9
$DIMADEC
 70
     0
  9
$DIMALTRND
 40
0.0
  9
$DIMAZIN
 70
     0
  9
$DIMDSEP
 70
    46
  9
$DIMATFIT
 70
     3
  9
$DIMFRAC
 70
     0
  9
$DIMLDRBLK
  1

  9
$DIMLUNIT
 70
     2
  9
$DIMLWD
 70
    -2
  9
$DIMLWE
 70
    -2
  9
$DIMTMOVE
 70
     0
  9
$LUNITS
 70
     2
  9
$LUPREC
 70
     4
  9
$SKETCHINC
 40
0.1
  9
$FILLETRAD
 40
0.5
  9
$AUNITS
 70
     0
  9
$AUPREC
 70
     0
  9
$MENU
  1
.
  9
$ELEVATION
 40
0.0
  9
$PELEVATION
 40
0.0
  9
$THICKNESS
 40
0.0
  9
$LIMCHECK
 70
     0
  9
$CHAMFERA
 40
0.0
  9
$CHAMFERB
 40
0.0
  9
$CHAMFERC
 40
0.0
  9
$CHAMFERD
 40
0.0
  9
$SKPOLY
 70
     0
  9
$TDCREATE
 40
2459151.688985104
  9
$TDUCREATE
 40
2459151.647318438
  9
$TDUPDATE
 40
2459151.68898529
  9
$TDUUPDATE
 40
2459151.647318623
  9
$TDINDWG
 40
0.0000000116
  9
$TDUSRTIMER
 40
0.0000000116
  9
$USRTIMER
 70
     1
  9
$ANGBASE
 50
0.0
  9
$ANGDIR
 70
     0
  9
$PDMODE
 70
     0
  9
$PDSIZE
 40
0.0
  9
$PLINEWID
 40
0.0
  9
$SPLFRAME
 70
     0
  9
$SPLINETYPE
 70
     6
  9
$SPLINESEGS
 70
     8
  9
$HANDSEED
  5
2DB
  9
$SURFTAB1
 70
     6
  9
$SURFTAB2
 70
     6
  9
$SURFTYPE
 70
     6
  9
$SURFU
 70
     6
  9
$SURFV
 70
     6
  9
$UCSBASE
  2

  9
$UCSNAME
  2

  9
$UCSORG
 10
0.0
 20
0.0
 30
0.0
  9
$UCSXDIR
 10
1.0
 20
0.0
 30
0.0
  9
$UCSYDIR
 10
0.0
 20
1.0
 30
0.0
  9
$UCSORTHOREF
  2

  9
$UCSORTHOVIEW
 70
     0
  9
$UCSORGTOP
 10
0.0
 20
0.0
 30
0.0
  9
$UCSORGBOTTOM
 10
0.0
 20
0.0
 30
0.0
  9
$UCSORGLEFT
 10
0.0
 20
0.0
 30
0.0
  9
$UCSORGRIGHT
 10
0.0
 20
0.0
 30
0.0
  9
$UCSORGFRONT
 10
0.0
 20
0.0
 30
0.0
  9
$UCSORGBACK
 10
0.0
 20
0.0
 30
0.0
  9
$PUCSBASE
  2

  9
$PUCSNAME
  2

  9
$PUCSORG
 10
0.0
 20
0.0
 30
0.0
  9
$PUCSXDIR
 10
1.0
 20
0.0
 30
0.0
  9
$PUCSYDIR
 10
0.0
 20
1.0
 30
0.0
  9
$PUCSORTHOREF
  2

  9
$PUCSORTHOVIEW
 70
     0
  9
$PUCSORGTOP
 10
0.0
 20
0.0
 30
0.0
  9
$PUCSORGBOTTOM
 10
0.0
 20
0.0
 30
0.0
  9
$PUCSORGLEFT
 10
0.0
 20
0.0
 30
0.0
  9
$PUCSORGRIGHT
 10
0.0
 20
0.0
 30
0.0
  9
$PUCSORGFRONT
 10
0.0
 20
0.0
 30
0.0
  9
$PUCSORGBACK
 10
0.0
 20
0.0
 30
0.0
  9
$USERI1
 70
     0
  9
$USERI2
 70
     0
  9
$USERI3
 70
     0
  9
$USERI4
 70
     0
  9
$USERI5
 70
     0
  9
$USERR1
 40
20.1
  9
$USERR2
 40
0.0
  9
$USERR3
 40
0.0
  9
$USERR4
 40
0.0
  9
$USERR5
 40
0.0
  9
$WORLDVIEW
 70
     1
  9
$SHADEDGE
 70
     3
  9
$SHADEDIF
 70
    70
  9
$TILEMODE
 70
     1
  9
$MAXACTVP
 70
    64
  9
$PINSBASE
 10
0.0
 20
0.0
 30
0.0
  9
$PLIMCHECK
 70
     0
  9
$PEXTMIN
 10
1.00000000000000E+20
 20
1.00000000000000E+20
 30
1.00000000000000E+20
  9
$PEXTMAX
 10
-1.00000000000000E+20
 20
-1.00000000000000E+20
 30
-1.00000000000000E+20
  9
$PLIMMIN
 10
0.0
 20
0.0
  9
$PLIMMAX
 10
12.0
 20
9.0
  9
$UNITMODE
 70
     0
  9
$VISRETAIN
 70
     1
  9
$PLINEGEN
 70
     0
  9
$PSLTSCALE
 70
     1
  9
$TREEDEPTH
 70
  3020
  9
$CMLSTYLE
  2
Standard
  9
$CMLJUST
 70
     0
  9
$CMLSCALE
 40
1.0
  9
$PROXYGRAPHICS
 70
     1
  9
$MEASUREMENT
 70
     1
  9
$CELWEIGHT
370
    -1
  9
$ENDCAPS
280
     0
  9
$JOINSTYLE
280
     0
  9
$LWDISPLAY
290
     0
  9
$INSUNITS
 70
     4
  9
$HYPERLINKBASE
  1

  9
$STYLESHEET
  1

  9
$XEDIT
290
     1
  9
$CEPSNTYPE
380
     0
  9
$PSTYLEMODE
290
     1
  9
$FINGERPRINTGUID
  2
{c3005f6c-70ee-4785-a3fd-f85ac1950f04}
  9
$VERSIONGUID
  2
{FAEB1C32-E019-11D5-929B-00C0DF256EC4}
  9
$EXTNAMES
290
     1
  9
$PSVPSCALE
 40
0.0
  9
$OLESTARTUP
290
     0
  9
$SORTENTS
280
   127
  9
$INDEXCTL
280
     0
  9
$HIDETEXT
280
     1
  9
$XCLIPFRAME
290
     0
  9
$HALOGAP
280
     0
  9
$OBSCOLOR
 70
   257
  9
$OBSLTYPE
280
     0
  9
$INTERSECTIONDISPLAY
280
     0
  9
$INTERSECTIONCOLOR
 70
   257
  9
$DIMASSOC
280
     2
  9
$PROJECTNAME
  1

  0
ENDSEC
  0
SECTION
  2
CLASSES
  0
CLASS
  1
ACDBDICTIONARYWDFLT
  2
AcDbDictionaryWithDefault
  3
ObjectDBX Classes
 90
        0
 91
        3
280
     0
281
     0
  0
CLASS
  1
VISUALSTYLE
  2
AcDbVisualStyle
  3
ObjectDBX Classes
 90
     4095
 91
        3
280
     0
281
     0
  0
CLASS
  1
MATERIAL
  2
AcDbMaterial
  3
ObjectDBX Classes
 90
     1153
 91
        3
280
     0
281
     0
  0
CLASS
  1
SCALE
  2
AcDbScale
  3
ObjectDBX Classes
 90
     1153
 91
        3
280
     0
281
     0
  0
CLASS
  1
TABLESTYLE
  2
AcDbTableStyle
  3
ObjectDBX Classes
 90
     4095
 91
        3
280
     0
281
     0
  0
CLASS
  1
MLEADERSTYLE
  2
AcDbMLeaderStyle
  3
ACDB_MLEADERSTYLE_CLASS
 90
     4095
 91
        3
280
     0
281
     0
  0
CLASS
  1
SUN
  2
AcDbSun
  3
SCENEOE
 90
     1153
 91
        3
280
     0
281
     0
  0
CLASS
  1
DICTIONARYVAR
  2
AcDbDictionaryVar
  3
ObjectDBX Classes
 90
        0
 91
        3
280
     0
281
     0
  0
CLASS
  1
CELLSTYLEMAP
  2
AcDbCellStyleMap
  3
ObjectDBX Classes
 90
     1152
 91
        3
280
     0
281
     0
  0
ENDSEC
  0
SECTION
  2
TABLES
  0
TABLE
  2
VPORT
  5
8
102
{ACAD_XDICTIONARY
360
294
102
}
330
0
100
AcDbSymbolTable
 70
     1
  0
VPORT
  5
29
330
8
100
AcDbSymbolTableRecord
100
AcDbViewportTableRecord
  2
*Active
 70
     0
 10
0.0
 20
0.0
 11
1.0
 21
1.0
 12
-247.7082196961713
 22
-165.724989179649
 13
0.0
 23
0.0
 14
0.5
 24
0.5
 15
0.5
 25
0.5
 16
0.0
 26
0.0
 36
1.0
 17
0.0
 27
0.0
 37
0.0
 40
326.7
 41
1.60267857142857
 42
50.0
 43
0.0
 44
0.0
 50
0.0
 51
0.0
 71
     0
 72
   100
 73
     1
 74
     3
 75
     0
 76
     0
 77
     0
 78
     0
281
     0
 65
     1
110
0.0
120
0.0
130
0.0
111
1.0
121
0.0
131
0.0
112
0.0
122
1.0
132
0.0
 79
     0
146
0.0
  0
ENDTAB
  0
TABLE
  2
LTYPE
  5
5
330
0
100
AcDbSymbolTable
 70
     8
  0
LTYPE
  5
14
330
5
100
AcDbSymbolTableRecord
100
AcDbLinetypeTableRecord
  2
ByBlock
 70
     0
  3

 72
    65
 73
     0
 40
0.0
  0
LTYPE
  5
15
330
5
100
AcDbSymbolTableRecord
100
AcDbLinetypeTableRecord
  2
ByLayer
 70
     0
  3

 72
    65
 73
     0
 40
0.0
  0
LTYPE
  5
16
330
5
100
AcDbSymbolTableRecord
100
AcDbLinetypeTableRecord
  2
Continuous
 70
     0
  3
Solid line
 72
    65
 73
     0
 40
0.0
  0
LTYPE
  5
6E
330
5
100
AcDbSymbolTableRecord
100
AcDbLinetypeTableRecord
  2
DASHED
 70
     0
  3
Dashed
 72
    65
 73
     2
 40
15.0
 49
7.0
 74
     0
 49
-8.0
 74
     0
  0
LTYPE
  5
6F
330
5
100
AcDbSymbolTableRecord
100
AcDbLinetypeTableRecord
  2
DOTTED
 70
     0
  3
Dotted
 72
    65
 73
     2
 40
1.0
 49
0.0
 74
     0
 49
-1.0
 74
     0
  0
LTYPE
  5
70
330
5
100
AcDbSymbolTableRecord
100
AcDbLinetypeTableRecord
  2
DOT_CENTER
 70
     0
  3
Dot_Center
 72
    65
 73
     4
 40
14.0
 49
12.0
 74
     0
 49
-1.0
 74
     0
 49
0.0
 74
     0
 49
-1.0
 74
     0
  0
LTYPE
  5
71
330
5
100
AcDbSymbolTableRecord
100
AcDbLinetypeTableRecord
  2
LONG_DASHED
 70
     0
  3
Long_Dashed
 72
    65
 73
     2
 40
15.0
 49
10.0
 74
     0
 49
-5.0
 74
     0
  0
LTYPE
  5
72
330
5
100
AcDbSymbolTableRecord
100
AcDbLinetypeTableRecord
  2
DASH_CENTER
 70
     0
  3
Dash_Center
 72
    65
 73
     4
 40
14.0
 49
11.0
 74
     0
 49
-1.0
 74
     0
 49
1.0
 74
     0
 49
-1.0
 74
     0
  0
LTYPE
  5
73
330
5
100
AcDbSymbolTableRecord
100
AcDbLinetypeTableRecord
  2
PHANTOM
 70
     0
  3
Phantom
 72
    65
 73
     6
 40
13.0
 49
10.0
 74
     0
 49
-1.0
 74
     0
 49
0.0
 74
     0
 49
-1.0
 74
     0
 49
0.0
 74
     0
 49
-1.0
 74
     0
  0
LTYPE
  5
74
330
5
100
AcDbSymbolTableRecord
100
AcDbLinetypeTableRecord
  2
CENTER_DASH_DASH
 70
     0
  3
Center_Dash_Dash
 72
    65
 73
     6
 40
14.0
 49
9.0
 74
     0
 49
-1.0
 74
     0
 49
1.0
 74
     0
 49
-1.0
 74
     0
 49
1.0
 74
     0
 49
-1.0
 74
     0
  0
ENDTAB
  0
TABLE
  2
LAYER
  5
2
330
0
100
AcDbSymbolTable
 70
     2
  0
LAYER
  5
10
330
2
100
AcDbSymbolTableRecord
100
AcDbLayerTableRecord
  2
0
 70
     0
 62
     7
  6
Continuous
370
    -3
390
F
  0
LAYER
  5
75
330
2
100
AcDbSymbolTableRecord
100
AcDbLayerTableRecord
  2
1
 70
     0
 62
     7
  6
Continuous
370
    -3
390
F
  0
ENDTAB
  0
TABLE
  2
STYLE
  5
3
330
0
100
AcDbSymbolTable
 70
     5
  0
STYLE
  5
11
330
3
100
AcDbSymbolTableRecord
100
AcDbTextStyleTableRecord
  2
Standard
 70
     0
 40
0.0
 41
1.0
 50
0.0
 71
     0
 42
0.2
  3
txt
  4

  0
STYLE
  5
B3
330
3
100
AcDbSymbolTableRecord
100
AcDbTextStyleTableRecord
  2
CONVERTER_11
 70
     0
 40
0.0
 41
0.9
 50
0.0
 71
     0
 42
0.2
  3
txt.shx
  4

  0
STYLE
  5
256
330
3
100
AcDbSymbolTableRecord
100
AcDbTextStyleTableRecord
  2
CONVERTER_12
 70
     0
 40
0.0
 41
0.81
 50
0.0
 71
     0
 42
0.2
  3
txt.shx
  4

  0
STYLE
  5
25C
330
3
100
AcDbSymbolTableRecord
100
AcDbTextStyleTableRecord
  2
CONVERTER_13
 70
     0
 40
0.0
 41
0.72
 50
0.0
 71
     0
 42
0.2
  3
txt.shx
  4

  0
STYLE
  5
25F
330
3
100
AcDbSymbolTableRecord
100
AcDbTextStyleTableRecord
  2
CONVERTER_14
 70
     0
 40
0.0
 41
0.855
 50
0.0
 71
     0
 42
0.2
  3
txt.shx
  4

  0
ENDTAB
  0
TABLE
  2
VIEW
  5
6
330
0
100
AcDbSymbolTable
 70
     0
  0
ENDTAB
  0
TABLE
  2
UCS
  5
7
330
0
100
AcDbSymbolTable
 70
     0
  0
ENDTAB
  0
TABLE
  2
APPID
  5
9
330
0
100
AcDbSymbolTable
 70
     2
  0
APPID
  5
12
330
9
100
AcDbSymbolTableRecord
100
AcDbRegAppTableRecord
  2
ACAD
 70
     0
  0
APPID
  5
2D3
330
9
100
AcDbSymbolTableRecord
100
AcDbRegAppTableRecord
  2
ACAD_MLEADERVER
 70
     0
  0
ENDTAB
  0
TABLE
  2
DIMSTYLE
  5
A
330
0
100
AcDbSymbolTable
 70
    12
100
AcDbDimStyleTable
  0
DIMSTYLE
105
27
330
A
100
AcDbSymbolTableRecord
100
AcDbDimStyleTableRecord
  2
Standard
 70
     0
178
     0
340
11
  0
DIMSTYLE
105
BE
102
{ACAD_REACTORS
330
BF
102
}
330
A
100
AcDbSymbolTableRecord
100
AcDbDimStyleTableRecord
  2
ME10_DIM_10
 70
     0
 41
0.7
 42
0.0
 44
0.3
 73
     0
 74
     0
 77
     1
 78
     8
140
0.7
147
0.3
172
     1
173
     1
174
     1
175
     1
176
     2
177
     2
178
     3
340
B3
  0
DIMSTYLE
105
CB
102
{ACAD_REACTORS
330
CC
102
}
330
A
100
AcDbSymbolTableRecord
100
AcDbDimStyleTableRecord
  2
ME10_DIM_11
 70
     0
 41
0.7
 42
0.0
 44
0.3
 73
     0
 74
     0
 77
     1
 78
     8
140
0.7
147
0.3
172
     1
173
     1
174
     1
175
     1
176
     2
177
     2
178
     3
340
B3
  0
DIMSTYLE
105
D6
102
{ACAD_REACTORS
330
D7
102
}
330
A
100
AcDbSymbolTableRecord
100
AcDbDimStyleTableRecord
  2
ME10_DIM_12
 70
     0
 41
0.7
 42
0.0
 44
0.3
 73
     0
 74
     0
 77
     1
 78
     8
140
0.7
147
0.3
172
     1
173
     1
174
     1
175
     1
176
     2
177
     2
178
     3
340
B3
  0
DIMSTYLE
105
E1
102
{ACAD_REACTORS
330
E2
102
}
330
A
100
AcDbSymbolTableRecord
100
AcDbDimStyleTableRecord
  2
ME10_DIM_13
 70
     0
 41
0.7
 42
0.0
 44
0.3
 73
     0
 74
     0
 77
     1
 78
     8
140
0.7
147
0.3
172
     1
173
     1
174
     1
175
     1
176
     2
177
     2
178
     3
340
B3
  0
DIMSTYLE
105
EC
102
{ACAD_REACTORS
330
ED
102
}
330
A
100
AcDbSymbolTableRecord
100
AcDbDimStyleTableRecord
  2
ME10_DIM_14
 70
     0
 41
0.7
 42
0.0
 44
0.3
 73
     0
 74
     0
 77
     1
 78
     8
140
0.7
147
0.3
172
     1
173
     1
174
     1
175
     1
176
     2
177
     2
178
     3
340
B3
  0
DIMSTYLE
105
F7
102
{ACAD_REACTORS
330
F8
102
}
330
A
100
AcDbSymbolTableRecord
100
AcDbDimStyleTableRecord
  2
ME10_DIM_15
 70
     0
 41
0.7
 42
0.0
 44
0.3
 73
     0
 74
     0
 77
     1
 78
     8
140
0.7
147
0.3
172
     1
173
     1
174
     1
175
     1
176
     2
177
     2
178
     3
340
B3
  0
DIMSTYLE
105
102
102
{ACAD_REACTORS
330
103
102
}
330
A
100
AcDbSymbolTableRecord
100
AcDbDimStyleTableRecord
  2
ME10_DIM_16
 70
     0
 41
0.7
 42
0.0
 44
0.3
 73
     0
 74
     0
 77
     1
 78
     8
140
0.7
147
0.3
172
     1
173
     1
174
     1
175
     1
176
     2
177
     2
178
     3
340
B3
  0
DIMSTYLE
105
10E
102
{ACAD_REACTORS
330
10F
102
}
330
A
100
AcDbSymbolTableRecord
100
AcDbDimStyleTableRecord
  2
ME10_DIM_17
 70
     0
 41
0.7
 42
0.1
 44
0.3
 73
     0
 74
     0
 77
     1
 78
     8
140
0.7
147
0.4
172
     1
173
     1
174
     1
175
     1
176
     2
177
     2
178
     3
340
B3
  0
DIMSTYLE
105
11B
102
{ACAD_REACTORS
330
11C
102
}
330
A
100
AcDbSymbolTableRecord
100
AcDbDimStyleTableRecord
  2
ME10_DIM_18
 70
     0
 41
0.7
 42
0.1
 44
0.3
 73
     0
 74
     0
 77
     1
 78
     8
140
0.7
147
0.4
172
     1
173
     1
174
     1
175
     1
176
     2
177
     2
178
     3
340
B3
  0
DIMSTYLE
105
128
102
{ACAD_REACTORS
330
129
102
}
330
A
100
AcDbSymbolTableRecord
100
AcDbDimStyleTableRecord
  2
ME10_DIM_19
 70
     0
 41
0.7
 42
0.1
 44
0.3
 73
     0
 74
     0
 77
     1
 78
     8
140
0.7
147
0.4
172
     1
173
     1
174
     1
175
     1
176
     2
177
     2
178
     3
340
B3
  0
DIMSTYLE
105
133
102
{ACAD_REACTORS
330
134
102
}
330
A
100
AcDbSymbolTableRecord
100
AcDbDimStyleTableRecord
  2
ME10_DIM_20
 70
     0
 41
0.7
 42
0.1
 44
0.3
 73
     0
 74
     0
 77
     1
 78
     8
140
0.7
147
0.4
172
     1
173
     1
174
     1
175
     1
176
     2
177
     2
178
     3
340
B3
  0
ENDTAB
  0
TABLE
  2
BLOCK_RECORD
  5
1
330
0
100
AcDbSymbolTable
 70
    21
  0
BLOCK_RECORD
  5
1F
330
1
100
AcDbSymbolTableRecord
100
AcDbBlockTableRecord
  2
*Model_Space
340
22
  0
BLOCK_RECORD
  5
1B
330
1
100
AcDbSymbolTableRecord
100
AcDbBlockTableRecord
  2
*Paper_Space
340
1E
  0
BLOCK_RECORD
  5
23
330
1
100
AcDbSymbolTableRecord
100
AcDbBlockTableRecord
  2
*Paper_Space0
340
26
  0
BLOCK_RECORD
  5
76
330
1
100
AcDbSymbolTableRecord
100
AcDbBlockTableRecord
  2
Leiterplatte
340
0
102
{BLKREFS
331
7A
102
}
  0
BLOCK_RECORD
  5
79
330
1
100
AcDbSymbolTableRecord
100
AcDbBlockTableRecord
  2
Vordans1
340
0
102
{BLKREFS
331
89
102
}
  0
BLOCK_RECORD
  5
7D
330
1
100
AcDbSymbolTableRecord
100
AcDbBlockTableRecord
  2
_rahmen
340
0
102
{BLKREFS
331
84
102
}
  0
BLOCK_RECORD
  5
80
330
1
100
AcDbSymbolTableRecord
100
AcDbBlockTableRecord
  2
_punkt
340
0
102
{BLKREFS
331
85
102
}
  0
BLOCK_RECORD
  5
83
330
1
100
AcDbSymbolTableRecord
100
AcDbBlockTableRecord
  2
A3I_TD_PRF
340
0
102
{BLKREFS
331
8A
102
}
  0
BLOCK_RECORD
  5
88
330
1
100
AcDbSymbolTableRecord
100
AcDbBlockTableRecord
  2
1
340
0
102
{BLKREFS
331
8D
102
}
  0
BLOCK_RECORD
  5
B5
330
1
100
AcDbSymbolTableRecord
100
AcDbBlockTableRecord
  2
*D7
340
0
  0
BLOCK_RECORD
  5
C0
330
1
100
AcDbSymbolTableRecord
100
AcDbBlockTableRecord
  2
*D8
340
0
  0
BLOCK_RECORD
  5
CD
330
1
100
AcDbSymbolTableRecord
100
AcDbBlockTableRecord
  2
*D9
340
0
  0
BLOCK_RECORD
  5
D8
330
1
100
AcDbSymbolTableRecord
100
AcDbBlockTableRecord
  2
*D10
340
0
  0
BLOCK_RECORD
  5
E3
330
1
100
AcDbSymbolTableRecord
100
AcDbBlockTableRecord
  2
*D11
340
0
  0
BLOCK_RECORD
  5
EE
330
1
100
AcDbSymbolTableRecord
100
AcDbBlockTableRecord
  2
*D12
340
0
  0
BLOCK_RECORD
  5
F9
330
1
100
AcDbSymbolTableRecord
100
AcDbBlockTableRecord
  2
*D13
340
0
  0
BLOCK_RECORD
  5
104
330
1
100
AcDbSymbolTableRecord
100
AcDbBlockTableRecord
  2
*D14
340
0
  0
BLOCK_RECORD
  5
110
330
1
100
AcDbSymbolTableRecord
100
AcDbBlockTableRecord
  2
*D15
340
0
  0
BLOCK_RECORD
  5
11D
330
1
100
AcDbSymbolTableRecord
100
AcDbBlockTableRecord
  2
*D16
340
0
  0
BLOCK_RECORD
  5
12A
330
1
100
AcDbSymbolTableRecord
100
AcDbBlockTableRecord
  2
*D17
340
0
  0
BLOCK_RECORD
  5
135
330
1
100
AcDbSymbolTableRecord
100
AcDbBlockTableRecord
  2
*D18
340
0
102
{BLKREFS
331
13C
102
}
  0
BLOCK_RECORD
  5
13D
330
1
100
AcDbSymbolTableRecord
100
AcDbBlockTableRecord
  2
*D19
340
0
102
{BLKREFS
331
144
102
}
  0
BLOCK_RECORD
  5
145
330
1
100
AcDbSymbolTableRecord
100
AcDbBlockTableRecord
  2
*D20
340
0
102
{BLKREFS
331
14C
102
}
  0
ENDTAB
  0
ENDSEC
  0
SECTION
  2
BLOCKS
  0
BLOCK
  5
20
330
1F
100
AcDbEntity
  8
0
100
AcDbBlockBegin
  2
*Model_Space
 70
     0
 10
0.0
 20
0.0
 30
0.0
  3
*Model_Space
  1

  0
ENDBLK
  5
21
330
1F
100
AcDbEntity
  8
0
100
AcDbBlockEnd
  0
BLOCK
  5
1C
330
1B
100
AcDbEntity
 67
     1
  8
0
100
AcDbBlockBegin
  2
*Paper_Space
 70
     0
 10
0.0
 20
0.0
 30
0.0
  3
*Paper_Space
  1

  0
ENDBLK
  5
1D
330
1B
100
AcDbEntity
 67
     1
  8
0
100
AcDbBlockEnd
  0
BLOCK
  5
24
330
23
100
AcDbEntity
  8
0
100
AcDbBlockBegin
  2
*Paper_Space0
 70
     0
 10
0.0
 20
0.0
 30
0.0
  3
*Paper_Space0
  1

  0
ENDBLK
  5
25
330
23
100
AcDbEntity
  8
0
100
AcDbBlockEnd
  0
BLOCK
  5
77
330
76
100
AcDbEntity
  8
0
100
AcDbBlockBegin
  2
Leiterplatte
 70
     0
 10
-77.83675568219078
 20
-41.25774782419205
 30
0.0
  3
Leiterplatte
  1

  0
LINE
  5
8E
330
76
100
AcDbEntity
  8
0
  6
Continuous
 62
     7
100
AcDbLine
 10
-77.33707715954601
 20
-41.25774782419204
 30
0.0
 11
-18.33696215954601
 21
-41.25774782419205
 31
0.0
  0
LINE
  5
8F
330
76
100
AcDbEntity
  8
1
  6
DOT_CENTER
 62
     2
100
AcDbLine
 10
-21.93652915954595
 20
-30.58774782419204
 30
0.0
 11
-25.34652915954595
 21
-30.58774782419204
 31
0.0
  0
LINE
  5
90
330
76
100
AcDbEntity
  8
1
  6
DOT_CENTER
 62
     2
100
AcDbLine
 10
-23.64152915954595
 20
-28.88274782419204
 30
0.0
 11
-23.64152915954595
 21
-32.29274782419205
 31
0.0
  0
LINE
  5
91
330
76
100
AcDbEntity
  8
1
  6
DOT_CENTER
 62
     2
100
AcDbLine
 10
-54.8915291595458
 20
-29.017747824192
 30
0.0
 11
-55.9915291595458
 21
-29.017747824192
 31
0.0
  0
LINE
  5
92
330
76
100
AcDbEntity
  8
1
  6
DOT_CENTER
 62
     2
100
AcDbLine
 10
-55.4415291595458
 20
-28.467747824192
 30
0.0
 11
-55.4415291595458
 21
-29.567747824192
 31
0.0
  0
LINE
  5
93
330
76
100
AcDbEntity
  8
1
  6
DOT_CENTER
 62
     2
100
AcDbLine
 10
-68.97652915954588
 20
-30.58774782419204
 30
0.0
 11
-72.38652915954587
 21
-30.58774782419204
 31
0.0
  0
LINE
  5
94
330
76
100
AcDbEntity
  8
1
  6
DOT_CENTER
 62
     2
100
AcDbLine
 10
-70.68152915954587
 20
-28.88274782419205
 30
0.0
 11
-70.68152915954587
 21
-32.29274782419204
 31
0.0
  0
LINE
  5
95
330
76
100
AcDbEntity
  8
1
  6
DOT_CENTER
 62
     2
100
AcDbLine
 10
-30.45402915954588
 20
-29.45774782419205
 30
0.0
 11
-34.90902915954587
 21
-29.45774782419205
 31
0.0
  0
LINE
  5
96
330
76
100
AcDbEntity
  8
1
  6
DOT_CENTER
 62
     2
100
AcDbLine
 10
-32.68152915954588
 20
-27.23024782419205
 30
0.0
 11
-32.68152915954588
 21
-31.68524782419205
 31
0.0
  0
LINE
  5
97
330
76
100
AcDbEntity
  8
1
  6
DOT_CENTER
 62
     2
100
AcDbLine
 10
-37.16402915954588
 20
-29.45774782419205
 30
0.0
 11
-41.61902915954588
 21
-29.45774782419205
 31
0.0
  0
LINE
  5
98
330
76
100
AcDbEntity
  8
1
  6
DOT_CENTER
 62
     2
100
AcDbLine
 10
-39.39152915954588
 20
-27.23024782419205
 30
0.0
 11
-39.39152915954588
 21
-31.68524782419205
 31
0.0
  0
LINE
  5
99
330
76
100
AcDbEntity
  8
1
  6
DOT_CENTER
 62
     2
100
AcDbLine
 10
-52.15152915954582
 20
-29.017747824192
 30
0.0
 11
-53.25152915954582
 21
-29.017747824192
 31
0.0
  0
LINE
  5
9A
330
76
100
AcDbEntity
  8
1
  6
DOT_CENTER
 62
     2
100
AcDbLine
 10
-52.70152915954582
 20
-28.467747824192
 30
0.0
 11
-52.70152915954582
 21
-29.567747824192
 31
0.0
  0
LINE
  5
9B
330
76
100
AcDbEntity
  8
1
  6
DOT_CENTER
 62
     2
100
AcDbLine
 10
-59.41402915954588
 20
-29.45774782419205
 30
0.0
 11
-63.86902915954588
 21
-29.45774782419205
 31
0.0
  0
LINE
  5
9C
330
76
100
AcDbEntity
  8
1
  6
DOT_CENTER
 62
     2
100
AcDbLine
 10
-61.64152915954588
 20
-27.23024782419205
 30
0.0
 11
-61.64152915954588
 21
-31.68524782419205
 31
0.0
  0
LINE
  5
9D
330
76
100
AcDbEntity
  8
1
  6
DOT_CENTER
 62
     2
100
AcDbLine
 10
-56.29152915954579
 20
-31.857747824192
 30
0.0
 11
-57.39152915954578
 21
-31.857747824192
 31
0.0
  0
LINE
  5
9E
330
76
100
AcDbEntity
  8
1
  6
DOT_CENTER
 62
     2
100
AcDbLine
 10
-56.84152915954579
 20
-31.307747824192
 30
0.0
 11
-56.84152915954579
 21
-32.40774782419199
 31
0.0
  0
LINE
  5
9F
330
76
100
AcDbEntity
  8
1
  6
DOT_CENTER
 62
     2
100
AcDbLine
 10
-53.52152915954581
 20
-31.857747824192
 30
0.0
 11
-54.6215291595458
 21
-31.857747824192
 31
0.0
  0
LINE
  5
A0
330
76
100
AcDbEntity
  8
1
  6
DOT_CENTER
 62
     2
100
AcDbLine
 10
-54.0715291595458
 20
-31.307747824192
 30
0.0
 11
-54.0715291595458
 21
-32.40774782419199
 31
0.0
  0
LINE
  5
A1
330
76
100
AcDbEntity
  8
1
  6
DOT_CENTER
 62
     2
100
AcDbLine
 10
-44.93402915954587
 20
-29.45774782419205
 30
0.0
 11
-49.38902915954587
 21
-29.45774782419205
 31
0.0
  0
LINE
  5
A2
330
76
100
AcDbEntity
  8
1
  6
DOT_CENTER
 62
     2
100
AcDbLine
 10
-47.16152915954587
 20
-27.23024782419205
 30
0.0
 11
-47.16152915954587
 21
-31.68524782419205
 31
0.0
  0
LINE
  5
A3
330
76
100
AcDbEntity
  8
1
  6
DOT_CENTER
 62
     2
100
AcDbLine
 10
-50.75152915954583
 20
-31.857747824192
 30
0.0
 11
-51.85152915954582
 21
-31.857747824192
 31
0.0
  0
LINE
  5
A4
330
76
100
AcDbEntity
  8
1
  6
DOT_CENTER
 62
     2
100
AcDbLine
 10
-51.30152915954582
 20
-31.307747824192
 30
0.0
 11
-51.30152915954582
 21
-32.40774782419199
 31
0.0
  0
CIRCLE
  5
A5
330
76
100
AcDbEntity
  8
0
  6
Continuous
 62
     7
100
AcDbCircle
 10
-51.30152915954582
 20
-31.857747824192
 30
0.0
 40
0.5
  0
CIRCLE
  5
A6
330
76
100
AcDbEntity
  8
0
  6
Continuous
 62
     7
100
AcDbCircle
 10
-54.0715291595458
 20
-31.857747824192
 30
0.0
 40
0.5
  0
CIRCLE
  5
A7
330
76
100
AcDbEntity
  8
0
  6
Continuous
 62
     7
100
AcDbCircle
 10
-55.4415291595458
 20
-29.017747824192
 30
0.0
 40
0.5
  0
CIRCLE
  5
A8
330
76
100
AcDbEntity
  8
0
  6
Continuous
 62
     7
100
AcDbCircle
 10
-23.64152915954595
 20
-30.58774782419204
 30
0.0
 40
1.550000000000001
  0
CIRCLE
  5
A9
330
76
100
AcDbEntity
  8
0
  6
Continuous
 62
     7
100
AcDbCircle
 10
-61.64152915954588
 20
-29.45774782419205
 30
0.0
 40
2.025000000000006
  0
CIRCLE
  5
AA
330
76
100
AcDbEntity
  8
0
  6
Continuous
 62
     7
100
AcDbCircle
 10
-52.70152915954582
 20
-29.017747824192
 30
0.0
 40
0.5
  0
CIRCLE
  5
AB
330
76
100
AcDbEntity
  8
0
  6
Continuous
 62
     7
100
AcDbCircle
 10
-47.16152915954587
 20
-29.45774782419205
 30
0.0
 40
2.024999999999999
  0
CIRCLE
  5
AC
330
76
100
AcDbEntity
  8
0
  6
Continuous
 62
     7
100
AcDbCircle
 10
-32.68152915954588
 20
-29.45774782419205
 30
0.0
 40
2.025000000000002
  0
CIRCLE
  5
AD
330
76
100
AcDbEntity
  8
0
  6
Continuous
 62
     7
100
AcDbCircle
 10
-56.84152915954579
 20
-31.857747824192
 30
0.0
 40
0.5
  0
CIRCLE
  5
AE
330
76
100
AcDbEntity
  8
0
  6
Continuous
 62
     7
100
AcDbCircle
 10
-70.68152915954587
 20
-30.58774782419204
 30
0.0
 40
1.549999999999997
  0
CIRCLE
  5
AF
330
76
100
AcDbEntity
  8
0
  6
Continuous
 62
     7
100
AcDbCircle
 10
-39.39152915954588
 20
-29.45774782419205
 30
0.0
 40
2.025000000000006
  0
SPLINE
  5
B0
330
76
100
AcDbEntity
  8
0
  6
Continuous
 62
     7
100
AcDbSpline
210
0.0
220
0.0
230
1.0
 70
  1064
 71
     3
 72
    11
 73
     7
 74
     5
 42
0.000000001
 43
0.0000000001
 44
0.00000001
 40
0.0
 40
0.0
 40
0.0
 40
0.0
 40
1.303732024582335
 40
2.619427365361804
 40
5.952480467136327
 40
9.271543772858708
 40
9.271543772858708
 40
9.271543772858708
 40
9.271543772858708
 10
-17.68612451280362
 20
-32.09182575145437
 30
0.0
 10
-17.64083380364024
 20
-32.52586663016498
 30
0.0
 10
-17.54983677441237
 20
-33.39793123608126
 30
0.0
 10
-17.86157841887043
 20
-35.37223527397831
 30
0.0
 10
-17.22957731390048
 20
-38.05561507240316
 30
0.0
 10
-17.96835176603326
 20
-40.19186779679082
 30
0.0
 10
-18.33696215954601
 20
-41.25774782419205
 30
0.0
 11
-17.68612451280362
 21
-32.09182575145437
 31
0.0
 11
-17.6067777399885
 21
-33.39314096272788
 31
0.0
 11
-17.70688815954601
 21
-34.70502210601463
 31
0.0
 11
-17.54640460438504
 21
-38.0342093988377
 31
0.0
 11
-18.33696215954601
 21
-41.25774782419205
 31
0.0
  0
SPLINE
  5
B1
330
76
100
AcDbEntity
  8
0
  6
Continuous
 62
     7
100
AcDbSpline
210
0.0
220
0.0
230
1.0
 70
  1064
 71
     3
 72
    11
 73
     7
 74
     5
 42
0.000000001
 43
0.0000000001
 44
0.00000001
 40
0.0
 40
0.0
 40
0.0
 40
0.0
 40
1.710981765852868
 40
3.432045739639467
 40
7.105016246596922
 40
10.76503124672607
 40
10.76503124672607
 40
10.76503124672607
 40
10.76503124672607
 10
-77.54725063411766
 20
-30.58774782419205
 30
0.0
 10
-77.64734086386586
 20
-31.15149473144125
 30
0.0
 10
-77.84811110528292
 20
-32.28231050818916
 30
0.0
 10
-77.66058764885327
 20
-34.66081185791412
 30
0.0
 10
-76.70166095518346
 20
-37.59053782834911
 30
0.0
 10
-77.12552136887872
 20
-40.03678512296599
 30
0.0
 10
-77.33707715954601
 20
-41.25774782419204
 30
0.0
 11
-77.54725063411766
 21
-30.58774782419205
 31
0.0
 11
-77.7751104907452
 21
-32.28348910633598
 31
0.0
 11
-77.66843815954601
 21
-34.00124410601462
 31
0.0
 11
-77.00147696103437
 21
-37.61315150711442
 31
0.0
 11
-77.33707715954601
 21
-41.25774782419204
 31
0.0
  0
SPLINE
  5
B2
330
76
100
AcDbEntity
  8
0
  6
Continuous
 62
     7
100
AcDbSpline
210
0.0
220
0.0
230
1.0
 70
  1064
 71
     3
 72
    27
 73
    23
 74
    21
 42
0.000000001
 43
0.0000000001
 44
0.00000001
 40
0.0
 40
0.0
 40
0.0
 40
0.0
 40
2.193782843049255
 40
4.477669304321621
 40
8.441463273231399
 40
12.29528484409098
 40
14.9175122117584
 40
17.55044167903719
 40
22.14998087823673
 40
26.79242749158468
 40
31.12793975555024
 40
35.46101512349441
 40
40.49476832082235
 40
45.50119592093426
 40
49.30680357748833
 40
53.0675328033278
 40
56.36258364727178
 40
59.62870480778561
 40
62.70846872531743
 40
65.85702240155948
 40
66.58660769133179
 40
67.33167574287133
 40
67.33167574287133
 40
67.33167574287133
 40
67.33167574287133
 10
-17.68612451280362
 20
-32.09182575145437
 30
0.0
 10
-17.70666131432981
 20
-31.35356160150532
 30
0.0
 10
-17.74857842545616
 20
-29.84671112829204
 30
0.0
 10
-19.01255233923249
 20
-27.25195884936695
 30
0.0
 10
-21.61280687748492
 20
-24.92311453663472
 30
0.0
 10
-25.12493236633531
 20
-24.00244082138784
 30
0.0
 10
-28.14865964685089
 20
-24.46074902017991
 30
0.0
 10
-31.35089332066471
 20
-25.21384004156078
 30
0.0
 10
-35.34894828699505
 20
-25.1252976216387
 30
0.0
 10
-39.84599333456799
 20
-24.63950033724024
 30
0.0
 10
-44.288468317275
 20
-24.8130769139989
 30
0.0
 10
-48.85741040216978
 20
-25.02664961191237
 30
0.0
 10
-53.62606049586867
 20
-24.59147506344051
 30
0.0
 10
-58.28412102247627
 20
-24.51184967954145
 30
0.0
 10
-62.35619387599066
 20
-25.50381896546231
 30
0.0
 10
-65.9908325590578
 20
-26.06459362364653
 30
0.0
 10
-69.36893080611617
 20
-25.33720879631266
 30
0.0
 10
-72.63075170496253
 20
-25.02578240863333
 30
0.0
 10
-75.6611877134847
 20
-26.35634011097176
 30
0.0
 10
-77.11869404169639
 20
-28.346647870615
 30
0.0
 10
-77.48371034193028
 20
-29.84966967421526
 30
0.0
 10
-77.5259228065877
 20
-30.34000571924895
 30
0.0
 10
-77.54725063411766
 20
-30.58774782419205
 30
0.0
 11
-17.68612451280362
 21
-32.09182575145437
 31
0.0
 11
-17.89861005183559
 21
-29.90835761759557
 31
0.0
 11
-18.85091315954586
 21
-27.83248282419205
 31
0.0
 11
-21.79989334444746
 21
-25.18386460555251
 31
0.0
 11
-25.52901915954585
 21
-24.21146482419204
 31
0.0
 11
-28.13594109781944
 21
-24.49436828417915
 31
0.0
 11
-30.72310215954586
 21
-24.98315782419204
 31
0.0
 11
-35.32198628404689
 21
-25.06078283441263
 31
0.0
 11
-39.95372915954586
 21
-24.74571382419204
 31
0.0
 11
-44.2886282051991
 21
-24.81863051559624
 31
0.0
 11
-48.62042715954587
 21
-24.92379682419204
 31
0.0
 11
-53.64686657955713
 21
-24.6525441860642
 31
0.0
 11
-58.65242715954587
 21
-24.74571382419204
 31
0.0
 11
-62.39132099153222
 21
-25.45516610774738
 31
0.0
 11
-66.13190615954586
 21
-25.84389082419204
 31
0.0
 11
-69.3966932970971
 21
-25.39832937731807
 31
0.0
 11
-72.66161015954583
 21
-25.30964282419203
 31
0.0
 11
-75.47216418780188
 21
-26.56890126762139
 31
0.0
 11
-77.29176415954586
 21
-29.13842382419204
 31
0.0
 11
-77.46432151433737
 21
-29.84730932123401
 31
0.0
 11
-77.54725063411766
 21
-30.58774782419205
 31
0.0
  0
ENDBLK
  5
78
330
76
100
AcDbEntity
  8
0
100
AcDbBlockEnd
  0
BLOCK
  5
7B
330
79
100
AcDbEntity
  8
0
100
AcDbBlockBegin
  2
Vordans1
 70
     0
 10
-47.60000000000001
 20
-31.0
 30
0.0
  3
Vordans1
  1

  0
INSERT
  5
7A
330
79
100
AcDbEntity
  8
0
100
AcDbBlockReference
  2
Leiterplatte
 10
-77.83675568219078
 20
-41.25774782419205
 30
0.0
  0
MTEXT
  5
B4
330
79
100
AcDbEntity
  8
1
 62
     6
100
AcDbMText
 10
-47.59999999999999
 20
-38.78852933645248
 30
0.0
 40
1.0
 41
0.0
 71
     2
 72
     1
  1
 
  7
CONVERTER_11
 73
     1
 44
1.32052821128451
  0
DIMENSION
  5
BF
330
79
100
AcDbEntity
  8
1
100
AcDbDimension
  2
*D7
 10
-47.16152915954587
 20
-22.7047795155258
 30
0.0
 11
-49.21244627219722
 21
-22.0197795155258
 31
0.0
 70
    32
  1
<>
 71
     5
 42
-1.0
 53
0.00013888888889
  3
ME10_DIM_10
100
AcDbAlignedDimension
 13
-51.30152915954582
 23
-32.40774782419199
 33
0.0
 14
-47.16152915954587
 24
-31.68524782419205
 34
0.0
100
AcDbRotatedDimension
  0
DIMENSION
  5
CC
330
79
100
AcDbEntity
  8
1
100
AcDbDimension
  2
*D8
 10
-51.30152915954582
 20
-27.17907753708562
 30
0.0
 11
-54.04358097980061
 21
-26.49407753708562
 31
0.0
 70
    32
  1
<>
 71
     5
 42
-1.0
 53
0.00013888888889
  3
ME10_DIM_11
100
AcDbAlignedDimension
 13
-52.70152915954582
 23
-28.467747824192
 33
0.0
 14
-51.30152915954582
 24
-31.307747824192
 34
0.0
100
AcDbRotatedDimension
  0
DIMENSION
  5
D7
330
79
100
AcDbEntity
  8
1
100
AcDbDimension
  2
*D9
 10
-57.93715304601781
 20
-29.017747824192
 30
0.0
 11
-58.62215304601781
 21
-30.3660537261132
 31
0.0
 70
    32
  1
<>
 71
     5
 42
-1.0
 53
90.0
  3
ME10_DIM_12
100
AcDbAlignedDimension
 13
-57.39152915954578
 23
-31.857747824192
 33
0.0
 14
-55.99152915954581
 24
-29.017747824192
 34
0.0
 50
90.0
100
AcDbRotatedDimension
  0
DIMENSION
  5
E2
330
79
100
AcDbEntity
  8
1
100
AcDbDimension
  2
*D10
 10
-47.16152915954588
 20
-22.7047795155258
 30
0.0
 11
-43.34906139268043
 21
-22.0197795155258
 31
0.0
 70
    32
  1
<>
 71
     5
 42
-1.0
 53
0.00013888888889
  3
ME10_DIM_13
100
AcDbAlignedDimension
 13
-39.39152915954588
 23
-31.68524782419205
 33
0.0
 14
-47.16152915954587
 24
-31.68524782419205
 34
0.0
100
AcDbRotatedDimension
  0
DIMENSION
  5
ED
330
79
100
AcDbEntity
  8
1
100
AcDbDimension
  2
*D11
 10
-47.16152915954587
 20
-20.53719702745482
 30
0.0
 11
-40.43014242765463
 21
-19.85219702745482
 31
0.0
 70
    32
  1
<>
 71
     5
 42
-1.0
 53
0.00013888888889
  3
ME10_DIM_14
100
AcDbAlignedDimension
 13
-32.68152915954588
 23
-31.68524782419205
 33
0.0
 14
-47.16152915954587
 24
-31.68524782419205
 34
0.0
100
AcDbRotatedDimension
  0
DIMENSION
  5
F8
330
79
100
AcDbEntity
  8
1
100
AcDbDimension
  2
*D12
 10
-23.64152915954595
 20
-45.31870744742963
 30
0.0
 11
-45.6670264531422
 21
-44.63370744742963
 31
0.0
 70
    32
  1
<>
 71
     5
 42
-1.0
 53
0.00013888888889
  3
ME10_DIM_15
100
AcDbAlignedDimension
 13
-70.68152915954589
 23
-32.29274782419204
 33
0.0
 14
-23.64152915954595
 24
-32.29274782419205
 34
0.0
100
AcDbRotatedDimension
  0
DIMENSION
  5
103
330
79
100
AcDbEntity
  8
1
100
AcDbDimension
  2
*D13
 10
-47.16152915954588
 20
-20.53719702745483
 30
0.0
 11
-53.73697888586082
 21
-19.85219702745483
 31
0.0
 70
    32
  1
<>
 71
     5
 42
-1.0
 53
0.00013888888889
  3
ME10_DIM_16
100
AcDbAlignedDimension
 13
-61.64152915954588
 23
-31.68524782419205
 33
0.0
 14
-47.16152915954587
 24
-31.68524782419205
 34
0.0
100
AcDbRotatedDimension
  0
LWPOLYLINE
  5
10B
330
79
100
AcDbEntity
  8
1
 62
     3
100
AcDbPolyline
 90
        4
 70
     1
 43
0.0
 10
-16.11416207376104
 20
-37.5206260873056
 10
-14.61266207376104
 20
-37.5206260873056
 10
-14.61266207376104
 20
-34.44412608730561
 10
-16.11416207376104
 20
-34.44412608730561
  0
DIMENSION
  5
10F
330
79
100
AcDbEntity
  8
1
100
AcDbDimension
  2
*D14
 10
-14.21266207376104
 20
-30.58774782419204
 30
0.0
 11
-15.36341207376104
 21
-35.9823760873056
 31
0.0
 70
    32
  1
<>
 71
     5
 42
-1.0
 53
90.0
  3
ME10_DIM_17
100
AcDbAlignedDimension
 13
-18.33696215954601
 23
-41.25774782419205
 33
0.0
 14
-23.64152915954595
 24
-30.58774782419204
 34
0.0
 50
90.0
100
AcDbRotatedDimension
  0
DIMENSION
  5
11C
330
79
100
AcDbEntity
  8
1
100
AcDbDimension
  2
*D15
 10
-28.46909813080301
 20
-29.45774782419205
 30
0.0
 11
-29.25409813080301
 21
-33.2945406610992
 31
0.0
 70
    32
  1
<>
 71
     5
 42
-1.0
 53
90.0
  3
ME10_DIM_18
100
AcDbAlignedDimension
 13
-23.64152915954595
 23
-30.58774782419204
 33
0.0
 14
-32.68152915954588
 24
-29.45774782419205
 34
0.0
 50
90.0
100
AcDbRotatedDimension
  0
DIMENSION
  5
129
330
79
100
AcDbEntity
  8
1
100
AcDbDimension
  2
*D16
 10
-26.64990916960921
 20
-30.58774782419204
 30
0.0
 11
-27.43490916960921
 21
-33.2945406610992
 31
0.0
 70
    32
  1
<>
 71
     5
 42
-1.0
 53
90.0
  3
ME10_DIM_19
100
AcDbAlignedDimension
 13
-51.30152915954582
 23
-31.857747824192
 33
0.0
 14
-23.64152915954595
 24
-30.58774782419204
 34
0.0
 50
90.0
100
AcDbRotatedDimension
  0
DIMENSION
  5
134
330
79
100
AcDbEntity
  8
1
100
AcDbDimension
  2
*D17
 10
-51.30152915954583
 20
-35.07685485936118
 30
0.0
 11
-52.80646745198661
 21
-34.29185485936119
 31
0.0
 70
    32
  1
<>
 71
     5
 42
-1.0
 53
0.00013888888889
  3
ME10_DIM_20
100
AcDbAlignedDimension
 13
-54.0715291595458
 23
-31.857747824192
 33
0.0
 14
-51.30152915954582
 24
-31.857747824192
 34
0.0
100
AcDbRotatedDimension
  0
INSERT
  5
13C
330
79
100
AcDbEntity
  8
1
100
AcDbBlockReference
  2
*D18
 10
0.0
 20
0.0
 30
0.0
  0
INSERT
  5
144
330
79
100
AcDbEntity
  8
1
100
AcDbBlockReference
  2
*D19
 10
0.0
 20
0.0
 30
0.0
  0
INSERT
  5
14C
330
79
100
AcDbEntity
  8
1
100
AcDbBlockReference
  2
*D20
 10
0.0
 20
0.0
 30
0.0
  0
ENDBLK
  5
7C
330
79
100
AcDbEntity
  8
0
100
AcDbBlockEnd
  0
BLOCK
  5
7E
330
7D
100
AcDbEntity
  8
0
100
AcDbBlockBegin
  2
_rahmen
 70
     0
 10
-42.70821969616969
 20
-314.224989179649
 30
0.0
  3
_rahmen
  1

  0
POINT
  5
14D
330
7D
100
AcDbEntity
  8
1
 62
     3
 60
     1
100
AcDbPoint
 10
-42.70821969616975
 20
-309.2249891796495
 30
0.0
  0
LINE
  5
14E
330
7D
100
AcDbEntity
  8
1
  6
Continuous
 62
     6
100
AcDbLine
 10
-42.70821969617015
 20
-300.7249891796496
 30
0.0
 11
-42.70821969616975
 21
-309.2249891796495
 31
0.0
  0
LINE
  5
14F
330
7D
100
AcDbEntity
  8
1
  6
Continuous
 62
     6
100
AcDbLine
 10
-42.7082196961679
 20
-283.7249891796496
 30
0.0
 11
-42.70821969617015
 21
-300.7249891796496
 31
0.0
  0
LINE
  5
150
330
7D
100
AcDbEntity
  8
1
  6
Continuous
 62
     6
100
AcDbLine
 10
-135.8530242229197
 20
-309.2249891796496
 30
0.0
 11
-42.70821969616975
 21
-309.2249891796495
 31
0.0
  0
LINE
  5
151
330
7D
100
AcDbEntity
  8
1
  6
Continuous
 62
     7
100
AcDbLine
 10
-79.8266279778472
 20
-292.2249891796496
 30
0.0
 11
-79.8266279778472
 21
-300.7249891796496
 31
0.0
  0
LINE
  5
152
330
7D
100
AcDbEntity
  8
1
  6
Continuous
 62
     6
100
AcDbLine
 10
-42.70821969617015
 20
-300.7249891796496
 30
0.0
 11
-135.8530242229197
 21
-300.7249891796496
 31
0.0
  0
LINE
  5
153
330
7D
100
AcDbEntity
  8
1
  6
Continuous
 62
     7
100
AcDbLine
 10
-79.8266279778472
 20
-283.7249891796496
 30
0.0
 11
-79.8266279778472
 21
-292.2249891796496
 31
0.0
  0
LINE
  5
154
330
7D
100
AcDbEntity
  8
1
  6
Continuous
 62
     6
100
AcDbLine
 10
-42.70821969616975
 20
-251.8249891796489
 30
0.0
 11
-42.7082196961679
 21
-283.7249891796496
 31
0.0
  0
LINE
  5
155
330
7D
100
AcDbEntity
  8
1
  6
DOT_CENTER
 62
     2
100
AcDbLine
 10
-168.2663693363571
 20
-288.0999891796497
 30
0.0
 11
-162.7663693363571
 21
-288.0999891796497
 31
0.0
  0
LINE
  5
156
330
7D
100
AcDbEntity
  8
1
  6
PHANTOM
 62
     2
100
AcDbLine
 10
-159.5163693363571
 20
-285.3499891796496
 30
0.0
 11
-159.5163693363571
 21
-290.8499891796496
 31
0.0
  0
LINE
  5
157
330
7D
100
AcDbEntity
  8
1
  6
PHANTOM
 62
     2
100
AcDbLine
 10
-156.7663693363571
 20
-288.0999891796497
 30
0.0
 11
-162.2663693363571
 21
-288.0999891796497
 31
0.0
  0
LINE
  5
158
330
7D
100
AcDbEntity
  8
1
  6
Continuous
 62
     6
100
AcDbLine
 10
-172.2530242229196
 20
-283.7249891796496
 30
0.0
 11
-42.7082196961679
 21
-283.7249891796496
 31
0.0
  0
LINE
  5
159
330
7D
100
AcDbEntity
  8
1
  6
Continuous
 62
     7
100
AcDbLine
 10
-154.0530242229197
 20
-304.9749891796495
 30
0.0
 11
-135.8530242229197
 21
-304.9749891796495
 31
0.0
  0
LINE
  5
15A
330
7D
100
AcDbEntity
  8
1
  6
Continuous
 62
     6
100
AcDbLine
 10
-154.0530242229197
 20
-309.2249891796495
 30
0.0
 11
-172.2530242229196
 21
-309.2249891796496
 31
0.0
  0
LINE
  5
15B
330
7D
100
AcDbEntity
  8
1
  6
Continuous
 62
     7
100
AcDbLine
 10
-154.0530242229197
 20
-304.9749891796495
 30
0.0
 11
-154.0530242229197
 21
-309.2249891796495
 31
0.0
  0
LINE
  5
15C
330
7D
100
AcDbEntity
  8
1
  6
Continuous
 62
     6
100
AcDbLine
 10
-135.8530242229197
 20
-304.9749891796495
 30
0.0
 11
-135.8530242229197
 21
-309.2249891796496
 31
0.0
  0
LINE
  5
15D
330
7D
100
AcDbEntity
  8
1
  6
Continuous
 62
     6
100
AcDbLine
 10
-172.2530242229196
 20
-304.9749891796496
 30
0.0
 11
-172.2530242229196
 21
-309.2249891796496
 31
0.0
  0
LINE
  5
15E
330
7D
100
AcDbEntity
  8
1
  6
Continuous
 62
     7
100
AcDbLine
 10
-172.2530242229196
 20
-304.9749891796496
 30
0.0
 11
-154.0530242229197
 21
-304.9749891796495
 31
0.0
  0
LINE
  5
15F
330
7D
100
AcDbEntity
  8
1
  6
Continuous
 62
     2
100
AcDbLine
 10
-163.0163693363571
 20
-285.5999891796497
 30
0.0
 11
-163.0163693363571
 21
-290.5999891796497
 31
0.0
  0
LINE
  5
160
330
7D
100
AcDbEntity
  8
1
  6
Continuous
 62
     2
100
AcDbLine
 10
-163.0163693363571
 20
-290.5999891796497
 30
0.0
 11
-168.0163693363571
 21
-289.3499891796497
 31
0.0
  0
LINE
  5
161
330
7D
100
AcDbEntity
  8
1
  6
Continuous
 62
     2
100
AcDbLine
 10
-168.0163693363571
 20
-289.3499891796497
 30
0.0
 11
-168.0163693363571
 21
-286.8499891796497
 31
0.0
  0
LINE
  5
162
330
7D
100
AcDbEntity
  8
1
  6
Continuous
 62
     2
100
AcDbLine
 10
-168.0163693363571
 20
-286.8499891796497
 30
0.0
 11
-163.0163693363571
 21
-285.5999891796497
 31
0.0
  0
LINE
  5
163
330
7D
100
AcDbEntity
  8
1
  6
Continuous
 62
     6
100
AcDbLine
 10
-135.8530242229197
 20
-309.2249891796496
 30
0.0
 11
-136.2082196961697
 21
-309.2249891796495
 31
0.0
  0
LINE
  5
164
330
7D
100
AcDbEntity
  8
1
  6
Continuous
 62
     6
100
AcDbLine
 10
-135.8530242229197
 20
-292.2249891796496
 30
0.0
 11
-135.8530242229197
 21
-304.9749891796495
 31
0.0
  0
LINE
  5
165
330
7D
100
AcDbEntity
  8
1
  6
Continuous
 62
     6
100
AcDbLine
 10
-172.2530242229196
 20
-292.2249891796496
 30
0.0
 11
-172.2530242229196
 21
-304.9749891796496
 31
0.0
  0
LINE
  5
166
330
7D
100
AcDbEntity
  8
1
  6
Continuous
 62
     7
100
AcDbLine
 10
-172.2530242229196
 20
-292.2249891796496
 30
0.0
 11
-135.8530242229197
 21
-292.2249891796496
 31
0.0
  0
LINE
  5
167
330
7D
100
AcDbEntity
  8
1
  6
Continuous
 62
     6
100
AcDbLine
 10
-136.2082196961697
 20
-309.2249891796495
 30
0.0
 11
-154.0530242229197
 21
-309.2249891796495
 31
0.0
  0
LINE
  5
168
102
{ACAD_REACTORS
330
28C
330
28D
102
}
330
7D
100
AcDbEntity
  8
0
  6
Continuous
 62
     2
100
AcDbLine
 10
-164.7383982807728
 20
-297.1524744234375
 30
0.0
 11
-164.7383982807728
 21
-296.5469391349307
 31
0.0
  0
LINE
  5
169
102
{ACAD_REACTORS
330
28C
330
28D
102
}
330
7D
100
AcDbEntity
  8
0
  6
Continuous
 62
     2
100
AcDbLine
 10
-164.7383982807728
 20
-299.9526090300687
 30
0.0
 11
-164.7383982807728
 21
-299.3707576233736
 31
0.0
  0
LINE
  5
16A
102
{ACAD_REACTORS
330
28E
330
28F
102
}
330
7D
100
AcDbEntity
  8
0
  6
Continuous
 62
     2
100
AcDbLine
 10
-142.1089118452937
 20
-299.6629449619458
 30
0.0
 11
-142.1089118452937
 21
-301.9314891796332
 31
0.0
  0
LINE
  5
16B
102
{ACAD_REACTORS
330
28E
330
28F
102
}
330
7D
100
AcDbEntity
  8
0
  6
Continuous
 62
     2
100
AcDbLine
 10
-143.4899656242812
 20
-298.8776796558227
 30
0.0
 11
-140.1050201056526
 21
-298.8776796558221
 31
0.0
  0
LINE
  5
16C
102
{ACAD_REACTORS
330
28E
330
28F
102
}
330
7D
100
AcDbEntity
  8
0
  6
Continuous
 62
     2
100
AcDbLine
 10
-140.1050201056526
 20
-299.6629449619458
 30
0.0
 11
-140.1050201056526
 21
-298.8776796558221
 31
0.0
  0
LINE
  5
16D
102
{ACAD_REACTORS
330
28E
330
28F
102
}
330
7D
100
AcDbEntity
  8
0
  6
Continuous
 62
     2
100
AcDbLine
 10
-140.916119143126
 20
-299.6629449619458
 30
0.0
 11
-140.1050201056526
 21
-299.6629449619458
 31
0.0
  0
LINE
  5
16E
102
{ACAD_REACTORS
330
28E
330
28F
102
}
330
7D
100
AcDbEntity
  8
0
  6
Continuous
 62
     2
100
AcDbLine
 10
-140.916119143126
 20
-301.9314891796332
 30
0.0
 11
-140.916119143126
 21
-299.6629449619458
 31
0.0
  0
LINE
  5
16F
102
{ACAD_REACTORS
330
28E
330
28F
102
}
330
7D
100
AcDbEntity
  8
0
  6
Continuous
 62
     2
100
AcDbLine
 10
-142.1089118452937
 20
-301.9314891796332
 30
0.0
 11
-140.916119143126
 21
-301.9314891796332
 31
0.0
  0
LINE
  5
170
102
{ACAD_REACTORS
330
284
330
285
102
}
330
7D
100
AcDbEntity
  8
0
  6
Continuous
 62
     2
100
AcDbLine
 10
-142.8055027833582
 20
-295.5184891796478
 30
0.0
 11
-144.2082270011074
 21
-295.5184891796478
 31
0.0
  0
LINE
  5
171
102
{ACAD_REACTORS
330
284
330
285
102
}
330
7D
100
AcDbEntity
  8
0
  6
Continuous
 62
     2
100
AcDbLine
 10
-142.8055027833582
 20
-295.5184891796478
 30
0.0
 11
-142.2043352614663
 21
-296.1983125012033
 31
0.0
  0
LINE
  5
172
102
{ACAD_REACTORS
330
284
330
285
102
}
330
7D
100
AcDbEntity
  8
0
  6
Continuous
 62
     2
100
AcDbLine
 10
-142.2043352614663
 20
-296.1983125012033
 30
0.0
 11
-141.6031677395735
 21
-295.5184891796478
 31
0.0
  0
LINE
  5
173
102
{ACAD_REACTORS
330
284
330
285
102
}
330
7D
100
AcDbEntity
  8
0
  6
Continuous
 62
     2
100
AcDbLine
 10
-141.5029731525929
 20
-296.991439709684
 30
0.0
 11
-140.2004435218263
 21
-295.5184891796478
 31
0.0
  0
LINE
  5
174
102
{ACAD_REACTORS
330
284
330
285
102
}
330
7D
100
AcDbEntity
  8
0
  6
Continuous
 62
     2
100
AcDbLine
 10
-141.5029731525929
 20
-296.991439709684
 30
0.0
 11
-140.1050201056526
 21
-298.5722987034589
 31
0.0
  0
LINE
  5
175
102
{ACAD_REACTORS
330
284
330
285
102
}
330
7D
100
AcDbEntity
  8
0
  6
Continuous
 62
     2
100
AcDbLine
 10
-141.5077443234009
 20
-298.5722987034589
 30
0.0
 11
-140.1050201056526
 21
-298.5722987034589
 31
0.0
  0
LINE
  5
176
102
{ACAD_REACTORS
330
284
330
285
102
}
330
7D
100
AcDbEntity
  8
0
  6
Continuous
 62
     2
100
AcDbLine
 10
-142.2043352614663
 20
-297.7845669181652
 30
0.0
 11
-141.5077443234009
 21
-298.5722987034589
 31
0.0
  0
LINE
  5
177
102
{ACAD_REACTORS
330
282
330
283
102
}
330
7D
100
AcDbEntity
  8
0
  6
Continuous
 62
     2
100
AcDbLine
 10
-145.66343409775
 20
-295.5184891796478
 30
0.0
 11
-144.4229296874971
 21
-295.5184891796478
 31
0.0
  0
LINE
  5
178
102
{ACAD_REACTORS
330
282
330
283
102
}
330
7D
100
AcDbEntity
  8
0
  6
Continuous
 62
     2
100
AcDbLine
 10
-144.4229296874971
 20
-295.5184891796478
 30
0.0
 11
-144.4229296874971
 21
-298.5722987034589
 31
0.0
  0
LINE
  5
179
102
{ACAD_REACTORS
330
282
330
283
102
}
330
7D
100
AcDbEntity
  8
0
  6
Continuous
 62
     2
100
AcDbLine
 10
-145.66343409775
 20
-298.5722987034589
 30
0.0
 11
-145.66343409775
 21
-295.5184891796478
 31
0.0
  0
LINE
  5
17A
102
{ACAD_REACTORS
330
280
330
281
102
}
330
7D
100
AcDbEntity
  8
0
  6
Continuous
 62
     2
100
AcDbLine
 10
-147.1317441802876
 20
-300.7099653701088
 30
0.0
 11
-146.8315789430953
 21
-299.9421504041221
 31
0.0
  0
LINE
  5
17B
102
{ACAD_REACTORS
330
280
330
281
102
}
330
7D
100
AcDbEntity
  8
0
  6
Continuous
 62
     2
100
AcDbLine
 10
-147.6092797849085
 20
-301.9314891796332
 30
0.0
 11
-147.3977997314327
 21
-301.3905286354154
 31
0.0
  0
LINE
  5
17C
102
{ACAD_REACTORS
330
280
330
281
102
}
330
7D
100
AcDbEntity
  8
0
  6
Continuous
 62
     2
100
AcDbLine
 10
-147.4518311482222
 20
-298.8776796558221
 30
0.0
 11
-148.8497841951614
 21
-301.9314891796332
 31
0.0
  0
LINE
  5
17D
102
{ACAD_REACTORS
330
280
330
281
102
}
330
7D
100
AcDbEntity
  8
0
  6
Continuous
 62
     2
100
AcDbLine
 10
-144.8133736910291
 20
-301.9314891796332
 30
0.0
 11
-146.053878101283
 21
-301.9314891796332
 31
0.0
  0
LINE
  5
17E
102
{ACAD_REACTORS
330
280
330
281
102
}
330
7D
100
AcDbEntity
  8
0
  6
Continuous
 62
     2
100
AcDbLine
 10
-147.3977997314327
 20
-301.3905286354154
 30
0.0
 11
-146.2653581547588
 21
-301.3905286354154
 31
0.0
  0
LINE
  5
17F
102
{ACAD_REACTORS
330
27E
330
27F
102
}
330
7D
100
AcDbEntity
  8
0
  6
Continuous
 62
     2
100
AcDbLine
 10
-151.0072963343437
 20
-299.6629449619458
 30
0.0
 11
-150.196197296869
 21
-299.6629449619458
 31
0.0
  0
LINE
  5
180
102
{ACAD_REACTORS
330
27E
330
27F
102
}
330
7D
100
AcDbEntity
  8
0
  6
Continuous
 62
     2
100
AcDbLine
 10
-148.19230555723
 20
-298.8776796558221
 30
0.0
 11
-151.0072963343437
 21
-298.8776796558221
 31
0.0
  0
LINE
  5
181
102
{ACAD_REACTORS
330
27E
330
27F
102
}
330
7D
100
AcDbEntity
  8
0
  6
Continuous
 62
     2
100
AcDbLine
 10
-148.19230555723
 20
-299.6629449619458
 30
0.0
 11
-148.19230555723
 21
-298.8776796558221
 31
0.0
  0
LINE
  5
182
102
{ACAD_REACTORS
330
27E
330
27F
102
}
330
7D
100
AcDbEntity
  8
0
  6
Continuous
 62
     2
100
AcDbLine
 10
-149.0034045947026
 20
-299.6629449619458
 30
0.0
 11
-148.19230555723
 21
-299.6629449619458
 31
0.0
  0
LINE
  5
183
102
{ACAD_REACTORS
330
27E
330
27F
102
}
330
7D
100
AcDbEntity
  8
0
  6
Continuous
 62
     2
100
AcDbLine
 10
-149.0034045947026
 20
-301.9314891796332
 30
0.0
 11
-149.0034045947026
 21
-299.6629449619458
 31
0.0
  0
LINE
  5
184
102
{ACAD_REACTORS
330
27C
330
27D
102
}
330
7D
100
AcDbEntity
  8
0
  6
Continuous
 62
     2
100
AcDbLine
 10
-148.3352897506046
 20
-298.5722987034589
 30
0.0
 11
-148.3352897506046
 21
-297.2635231932542
 31
0.0
  0
LINE
  5
185
102
{ACAD_REACTORS
330
27C
330
27D
102
}
330
7D
100
AcDbEntity
  8
0
  6
Continuous
 62
     2
100
AcDbLine
 10
-149.528082452771
 20
-295.5184891796478
 30
0.0
 11
-149.528082452771
 21
-298.5722987034589
 31
0.0
  0
LINE
  5
186
102
{ACAD_REACTORS
330
27C
330
27D
102
}
330
7D
100
AcDbEntity
  8
0
  6
Continuous
 62
     2
100
AcDbLine
 10
-148.3352897506046
 20
-295.5184891796478
 30
0.0
 11
-149.528082452771
 21
-295.5184891796478
 31
0.0
  0
LINE
  5
187
102
{ACAD_REACTORS
330
27C
330
27D
102
}
330
7D
100
AcDbEntity
  8
0
  6
Continuous
 62
     2
100
AcDbLine
 10
-147.0947853403505
 20
-295.5184891796478
 30
0.0
 11
-147.0947853403505
 21
-296.8272646898529
 31
0.0
  0
LINE
  5
188
102
{ACAD_REACTORS
330
27A
330
27B
102
}
330
7D
100
AcDbEntity
  8
0
  6
Continuous
 62
     2
100
AcDbLine
 10
-154.7765212731907
 20
-298.8776796558221
 30
0.0
 11
-154.7765212731907
 21
-301.9314891796332
 31
0.0
  0
LINE
  5
189
102
{ACAD_REACTORS
330
27A
330
27B
102
}
330
7D
100
AcDbEntity
  8
0
  6
Continuous
 62
     2
100
AcDbLine
 10
-153.5837285710232
 20
-298.8776796558221
 30
0.0
 11
-154.7765212731907
 21
-298.8776796558221
 31
0.0
  0
LINE
  5
18A
102
{ACAD_REACTORS
330
27A
330
27B
102
}
330
7D
100
AcDbEntity
  8
0
  6
Continuous
 62
     2
100
AcDbLine
 10
-152.3432241607702
 20
-301.9314891796332
 30
0.0
 11
-151.1504314586038
 21
-301.9314891796332
 31
0.0
  0
LINE
  5
18B
102
{ACAD_REACTORS
330
27A
330
27B
102
}
330
7D
100
AcDbEntity
  8
0
  6
Continuous
 62
     2
100
AcDbLine
 10
-154.7765212731907
 20
-301.9314891796332
 30
0.0
 11
-153.5837285710232
 21
-301.9314891796332
 31
0.0
  0
LINE
  5
18C
102
{ACAD_REACTORS
330
28A
330
28B
102
}
330
7D
100
AcDbEntity
  8
0
  6
Continuous
 62
     2
100
AcDbLine
 10
-151.1025688196316
 20
-296.6963871388324
 30
0.0
 11
-151.1025688196316
 21
-296.2165027850907
 31
0.0
  0
LINE
  5
18D
102
{ACAD_REACTORS
330
28A
330
28B
102
}
330
7D
100
AcDbEntity
  8
0
  6
Continuous
 62
     2
100
AcDbLine
 10
-149.766640993204
 20
-296.6963871388324
 30
0.0
 11
-151.1025688196316
 21
-296.6963871388324
 31
0.0
  0
LINE
  5
18E
102
{ACAD_REACTORS
330
28A
330
28B
102
}
330
7D
100
AcDbEntity
  8
0
  6
Continuous
 62
     2
100
AcDbLine
 10
-149.766640993204
 20
-297.3944007442748
 30
0.0
 11
-149.766640993204
 21
-296.6963871388324
 31
0.0
  0
LINE
  5
18F
102
{ACAD_REACTORS
330
28A
330
28B
102
}
330
7D
100
AcDbEntity
  8
0
  6
Continuous
 62
     2
100
AcDbLine
 10
-151.1025688196316
 20
-297.3944007442748
 30
0.0
 11
-149.766640993204
 21
-297.3944007442748
 31
0.0
  0
LINE
  5
190
102
{ACAD_REACTORS
330
278
330
279
102
}
330
7D
100
AcDbEntity
  8
0
  6
Continuous
 62
     2
100
AcDbLine
 10
-154.5855235099585
 20
-295.5184891796478
 30
0.0
 11
-154.5855235099585
 21
-298.5722987034589
 31
0.0
  0
LINE
  5
191
102
{ACAD_REACTORS
330
278
330
279
102
}
330
7D
100
AcDbEntity
  8
0
  6
Continuous
 62
     2
100
AcDbLine
 10
-154.5855235099585
 20
-298.5722987034589
 30
0.0
 11
-155.778316212125
 21
-298.5722987034589
 31
0.0
  0
LINE
  5
192
102
{ACAD_REACTORS
330
278
330
279
102
}
330
7D
100
AcDbEntity
  8
0
  6
Continuous
 62
     2
100
AcDbLine
 10
-155.778316212125
 20
-298.5722987034589
 30
0.0
 11
-155.778316212125
 21
-297.4380265946152
 31
0.0
  0
LINE
  5
193
102
{ACAD_REACTORS
330
278
330
279
102
}
330
7D
100
AcDbEntity
  8
0
  6
Continuous
 62
     2
100
AcDbLine
 10
-156.8279737900324
 20
-298.5722987034589
 30
0.0
 11
-158.020766492199
 21
-298.5722987034589
 31
0.0
  0
LINE
  5
194
102
{ACAD_REACTORS
330
278
330
279
102
}
330
7D
100
AcDbEntity
  8
0
  6
Continuous
 62
     2
100
AcDbLine
 10
-158.020766492199
 20
-295.5184891796478
 30
0.0
 11
-156.8279737900324
 21
-295.5184891796478
 31
0.0
  0
LINE
  5
195
102
{ACAD_REACTORS
330
278
330
279
102
}
330
7D
100
AcDbEntity
  8
0
  6
Continuous
 62
     2
100
AcDbLine
 10
-156.8279737900324
 20
-295.5184891796478
 30
0.0
 11
-156.8279737900324
 21
-296.5873225129824
 31
0.0
  0
LINE
  5
196
102
{ACAD_REACTORS
330
278
330
279
102
}
330
7D
100
AcDbEntity
  8
0
  6
Continuous
 62
     2
100
AcDbLine
 10
-156.8279737900324
 20
-296.5873225129824
 30
0.0
 11
-155.778316212125
 21
-296.5873225129824
 31
0.0
  0
LINE
  5
197
102
{ACAD_REACTORS
330
286
330
287
102
}
330
7D
100
AcDbEntity
  8
0
  6
Continuous
 62
     2
100
AcDbLine
 10
-159.9769465237527
 20
-296.1815950250878
 30
0.0
 11
-159.6596514622107
 21
-296.1815950250878
 31
0.0
  0
LINE
  5
198
102
{ACAD_REACTORS
330
286
330
287
102
}
330
7D
100
AcDbEntity
  8
0
  6
Continuous
 62
     2
100
AcDbLine
 10
-159.9769465237527
 20
-296.8873226744301
 30
0.0
 11
-159.6596514622107
 21
-296.8873226744301
 31
0.0
  0
LINE
  5
199
102
{ACAD_REACTORS
330
286
330
287
102
}
330
7D
100
AcDbEntity
  8
0
  6
Continuous
 62
     2
100
AcDbLine
 10
-161.2174509340067
 20
-295.5184891796478
 30
0.0
 11
-161.2174509340067
 21
-298.5722987034589
 31
0.0
  0
LINE
  5
19A
102
{ACAD_REACTORS
330
286
330
287
102
}
330
7D
100
AcDbEntity
  8
0
  6
Continuous
 62
     2
100
AcDbLine
 10
-161.2174509340067
 20
-295.5184891796478
 30
0.0
 11
-159.2181789359723
 21
-295.5184891796478
 31
0.0
  0
LINE
  5
19B
102
{ACAD_REACTORS
330
286
330
287
102
}
330
7D
100
AcDbEntity
  8
0
  6
Continuous
 62
     2
100
AcDbLine
 10
-159.9769465237527
 20
-297.6292204623152
 30
0.0
 11
-159.2181789359723
 21
-297.6292204623152
 31
0.0
  0
LINE
  5
19C
102
{ACAD_REACTORS
330
28C
330
28D
102
}
330
7D
100
AcDbEntity
  8
0
  6
Continuous
 62
     2
100
AcDbLine
 10
-167.3139469673034
 20
-296.5467616582825
 30
0.0
 11
-167.3139469673034
 21
-300.9032167009996
 31
0.0
  0
LINE
  5
19D
102
{ACAD_REACTORS
330
28C
330
28D
102
}
330
7D
100
AcDbEntity
  8
0
  6
Continuous
 62
     2
100
AcDbLine
 10
-166.9982300442278
 20
-296.2310447352064
 30
0.0
 11
-165.5223967832182
 21
-296.2310447352064
 31
0.0
  0
LINE
  5
19E
102
{ACAD_REACTORS
330
28C
330
28D
102
}
330
7D
100
AcDbEntity
  8
0
  6
Continuous
 62
     2
100
AcDbLine
 10
-165.2066798601416
 20
-297.1507862773431
 30
0.0
 11
-165.2066798601416
 21
-296.5467616582825
 31
0.0
  0
LINE
  5
19F
102
{ACAD_REACTORS
330
28C
330
28D
102
}
330
7D
100
AcDbEntity
  8
0
  6
Continuous
 62
     2
100
AcDbLine
 10
-165.2066798601416
 20
-300.9032167009996
 30
0.0
 11
-165.2066798601416
 21
-299.372445769468
 31
0.0
  0
LINE
  5
1A0
102
{ACAD_REACTORS
330
28C
330
28D
102
}
330
7D
100
AcDbEntity
  8
0
  6
Continuous
 62
     2
100
AcDbLine
 10
-162.1188126302574
 20
-301.9314891796332
 30
0.0
 11
-167.5921247209743
 21
-301.9314891796332
 31
0.0
  0
LINE
  5
1A1
102
{ACAD_REACTORS
330
28C
330
28D
102
}
330
7D
100
AcDbEntity
  8
0
  6
Continuous
 62
     2
100
AcDbLine
 10
-161.6945680148735
 20
-295.9427337950498
 30
0.0
 11
-161.6945680148735
 21
-301.50724456425
 31
0.0
  0
LINE
  5
1A2
102
{ACAD_REACTORS
330
28C
330
28D
102
}
330
7D
100
AcDbEntity
  8
0
  6
Continuous
 62
     2
100
AcDbLine
 10
-167.5921247209743
 20
-295.5184891796659
 30
0.0
 11
-162.1188126302574
 21
-295.5184891796659
 31
0.0
  0
LINE
  5
1A3
102
{ACAD_REACTORS
330
28C
330
28D
102
}
330
7D
100
AcDbEntity
  8
0
  6
Continuous
 62
     2
100
AcDbLine
 10
-168.0163693363571
 20
-295.9427337950498
 30
0.0
 11
-168.0163693363571
 21
-301.50724456425
 31
0.0
  0
LINE
  5
1A4
102
{ACAD_REACTORS
330
28C
330
28D
102
}
330
7D
100
AcDbEntity
  8
0
  6
Continuous
 62
     2
100
AcDbLine
 10
-165.5223967832182
 20
-301.2189336240763
 30
0.0
 11
-166.9982300442278
 21
-301.2189336240763
 31
0.0
  0
LINE
  5
1A5
102
{ACAD_REACTORS
330
286
330
287
102
}
330
7D
100
AcDbEntity
  8
0
  6
Continuous
 62
     2
100
AcDbLine
 10
-159.9769465237527
 20
-298.5722987034589
 30
0.0
 11
-159.9769465237527
 21
-297.6292204623152
 31
0.0
  0
LINE
  5
1A6
102
{ACAD_REACTORS
330
286
330
287
102
}
330
7D
100
AcDbEntity
  8
0
  6
Continuous
 62
     2
100
AcDbLine
 10
-161.2174509340067
 20
-298.5722987034589
 30
0.0
 11
-159.9769465237527
 21
-298.5722987034589
 31
0.0
  0
LINE
  5
1A7
102
{ACAD_REACTORS
330
286
330
287
102
}
330
7D
100
AcDbEntity
  8
0
  6
Continuous
 62
     2
100
AcDbLine
 10
-159.9769465237527
 20
-296.8873226744301
 30
0.0
 11
-159.9769465237527
 21
-296.1815950250878
 31
0.0
  0
LINE
  5
1A8
102
{ACAD_REACTORS
330
278
330
279
102
}
330
7D
100
AcDbEntity
  8
0
  6
Continuous
 62
     2
100
AcDbLine
 10
-158.020766492199
 20
-295.5184891796478
 30
0.0
 11
-158.020766492199
 21
-298.5722987034589
 31
0.0
  0
LINE
  5
1A9
102
{ACAD_REACTORS
330
278
330
279
102
}
330
7D
100
AcDbEntity
  8
0
  6
Continuous
 62
     2
100
AcDbLine
 10
-156.8279737900324
 20
-297.4380265946152
 30
0.0
 11
-156.8279737900324
 21
-298.5722987034589
 31
0.0
  0
LINE
  5
1AA
102
{ACAD_REACTORS
330
278
330
279
102
}
330
7D
100
AcDbEntity
  8
0
  6
Continuous
 62
     2
100
AcDbLine
 10
-155.778316212125
 20
-297.4380265946152
 30
0.0
 11
-156.8279737900324
 21
-297.4380265946152
 31
0.0
  0
LINE
  5
1AB
102
{ACAD_REACTORS
330
278
330
279
102
}
330
7D
100
AcDbEntity
  8
0
  6
Continuous
 62
     2
100
AcDbLine
 10
-155.778316212125
 20
-295.5184891796478
 30
0.0
 11
-154.5855235099585
 21
-295.5184891796478
 31
0.0
  0
LINE
  5
1AC
102
{ACAD_REACTORS
330
278
330
279
102
}
330
7D
100
AcDbEntity
  8
0
  6
Continuous
 62
     2
100
AcDbLine
 10
-155.778316212125
 20
-296.5873225129824
 30
0.0
 11
-155.778316212125
 21
-295.5184891796478
 31
0.0
  0
LINE
  5
1AD
102
{ACAD_REACTORS
330
28A
330
28B
102
}
330
7D
100
AcDbEntity
  8
0
  6
Continuous
 62
     2
100
AcDbLine
 10
-149.766640993204
 20
-296.2165027850907
 30
0.0
 11
-149.766640993204
 21
-295.5184891796478
 31
0.0
  0
LINE
  5
1AE
102
{ACAD_REACTORS
330
28A
330
28B
102
}
330
7D
100
AcDbEntity
  8
0
  6
Continuous
 62
     2
100
AcDbLine
 10
-152.9169607169849
 20
-295.5184891796478
 30
0.0
 11
-149.766640993204
 21
-295.5184891796478
 31
0.0
  0
LINE
  5
1AF
102
{ACAD_REACTORS
330
28A
330
28B
102
}
330
7D
100
AcDbEntity
  8
0
  6
Continuous
 62
     2
100
AcDbLine
 10
-152.9169607169849
 20
-298.5722987034589
 30
0.0
 11
-149.766640993204
 21
-298.5722987034589
 31
0.0
  0
LINE
  5
1B0
102
{ACAD_REACTORS
330
28A
330
28B
102
}
330
7D
100
AcDbEntity
  8
0
  6
Continuous
 62
     2
100
AcDbLine
 10
-149.766640993204
 20
-298.5722987034589
 30
0.0
 11
-149.766640993204
 21
-297.8742850980165
 31
0.0
  0
LINE
  5
1B1
102
{ACAD_REACTORS
330
28A
330
28B
102
}
330
7D
100
AcDbEntity
  8
0
  6
Continuous
 62
     2
100
AcDbLine
 10
-149.766640993204
 20
-297.8742850980165
 30
0.0
 11
-151.1025688196316
 21
-297.8742850980165
 31
0.0
  0
LINE
  5
1B2
102
{ACAD_REACTORS
330
28A
330
28B
102
}
330
7D
100
AcDbEntity
  8
0
  6
Continuous
 62
     2
100
AcDbLine
 10
-151.1025688196316
 20
-297.8742850980165
 30
0.0
 11
-151.1025688196316
 21
-297.3944007442748
 31
0.0
  0
LINE
  5
1B3
102
{ACAD_REACTORS
330
28A
330
28B
102
}
330
7D
100
AcDbEntity
  8
0
  6
Continuous
 62
     2
100
AcDbLine
 10
-151.1025688196316
 20
-296.2165027850907
 30
0.0
 11
-149.766640993204
 21
-296.2165027850907
 31
0.0
  0
LINE
  5
1B4
102
{ACAD_REACTORS
330
27A
330
27B
102
}
330
7D
100
AcDbEntity
  8
0
  6
Continuous
 62
     2
100
AcDbLine
 10
-153.5837285710232
 20
-301.9314891796332
 30
0.0
 11
-153.5837285710232
 21
-300.6227136694287
 31
0.0
  0
LINE
  5
1B5
102
{ACAD_REACTORS
330
27A
330
27B
102
}
330
7D
100
AcDbEntity
  8
0
  6
Continuous
 62
     2
100
AcDbLine
 10
-153.5837285710232
 20
-300.6227136694287
 30
0.0
 11
-152.3432241607702
 21
-301.9314891796332
 31
0.0
  0
LINE
  5
1B6
102
{ACAD_REACTORS
330
27A
330
27B
102
}
330
7D
100
AcDbEntity
  8
0
  6
Continuous
 62
     2
100
AcDbLine
 10
-151.1504314586038
 20
-301.9314891796332
 30
0.0
 11
-151.1504314586038
 21
-298.8776796558221
 31
0.0
  0
LINE
  5
1B7
102
{ACAD_REACTORS
330
27A
330
27B
102
}
330
7D
100
AcDbEntity
  8
0
  6
Continuous
 62
     2
100
AcDbLine
 10
-151.1504314586038
 20
-298.8776796558221
 30
0.0
 11
-152.3432241607702
 21
-298.8776796558221
 31
0.0
  0
LINE
  5
1B8
102
{ACAD_REACTORS
330
27A
330
27B
102
}
330
7D
100
AcDbEntity
  8
0
  6
Continuous
 62
     2
100
AcDbLine
 10
-152.3432241607702
 20
-298.8776796558221
 30
0.0
 11
-152.3432241607702
 21
-300.1864551660273
 31
0.0
  0
LINE
  5
1B9
102
{ACAD_REACTORS
330
27A
330
27B
102
}
330
7D
100
AcDbEntity
  8
0
  6
Continuous
 62
     2
100
AcDbLine
 10
-152.3432241607702
 20
-300.1864551660273
 30
0.0
 11
-153.5837285710232
 21
-298.8776796558221
 31
0.0
  0
LINE
  5
1BA
102
{ACAD_REACTORS
330
27C
330
27D
102
}
330
7D
100
AcDbEntity
  8
0
  6
Continuous
 62
     2
100
AcDbLine
 10
-148.3352897506046
 20
-297.2635231932542
 30
0.0
 11
-147.0947853403505
 21
-298.5722987034589
 31
0.0
  0
LINE
  5
1BB
102
{ACAD_REACTORS
330
27C
330
27D
102
}
330
7D
100
AcDbEntity
  8
0
  6
Continuous
 62
     2
100
AcDbLine
 10
-147.0947853403505
 20
-298.5722987034589
 30
0.0
 11
-145.9019926381839
 21
-298.5722987034589
 31
0.0
  0
LINE
  5
1BC
102
{ACAD_REACTORS
330
27C
330
27D
102
}
330
7D
100
AcDbEntity
  8
0
  6
Continuous
 62
     2
100
AcDbLine
 10
-145.9019926381839
 20
-298.5722987034589
 30
0.0
 11
-145.9019926381839
 21
-295.5184891796478
 31
0.0
  0
LINE
  5
1BD
102
{ACAD_REACTORS
330
27C
330
27D
102
}
330
7D
100
AcDbEntity
  8
0
  6
Continuous
 62
     2
100
AcDbLine
 10
-145.9019926381839
 20
-295.5184891796478
 30
0.0
 11
-147.0947853403505
 21
-295.5184891796478
 31
0.0
  0
LINE
  5
1BE
102
{ACAD_REACTORS
330
27C
330
27D
102
}
330
7D
100
AcDbEntity
  8
0
  6
Continuous
 62
     2
100
AcDbLine
 10
-147.0947853403505
 20
-296.8272646898529
 30
0.0
 11
-148.3352897506046
 21
-295.5184891796478
 31
0.0
  0
LINE
  5
1BF
102
{ACAD_REACTORS
330
27C
330
27D
102
}
330
7D
100
AcDbEntity
  8
0
  6
Continuous
 62
     2
100
AcDbLine
 10
-149.528082452771
 20
-298.5722987034589
 30
0.0
 11
-148.3352897506046
 21
-298.5722987034589
 31
0.0
  0
LINE
  5
1C0
102
{ACAD_REACTORS
330
27E
330
27F
102
}
330
7D
100
AcDbEntity
  8
0
  6
Continuous
 62
     2
100
AcDbLine
 10
-151.0072963343437
 20
-298.8776796558221
 30
0.0
 11
-151.0072963343437
 21
-299.6629449619458
 31
0.0
  0
LINE
  5
1C1
102
{ACAD_REACTORS
330
27E
330
27F
102
}
330
7D
100
AcDbEntity
  8
0
  6
Continuous
 62
     2
100
AcDbLine
 10
-150.196197296869
 20
-299.6629449619458
 30
0.0
 11
-150.196197296869
 21
-301.9314891796332
 31
0.0
  0
LINE
  5
1C2
102
{ACAD_REACTORS
330
27E
330
27F
102
}
330
7D
100
AcDbEntity
  8
0
  6
Continuous
 62
     2
100
AcDbLine
 10
-150.196197296869
 20
-301.9314891796332
 30
0.0
 11
-149.0034045947026
 21
-301.9314891796332
 31
0.0
  0
LINE
  5
1C3
102
{ACAD_REACTORS
330
280
330
281
102
}
330
7D
100
AcDbEntity
  8
0
  6
Continuous
 62
     2
100
AcDbLine
 10
-146.053878101283
 20
-301.9314891796332
 30
0.0
 11
-146.2653581547588
 21
-301.3905286354154
 31
0.0
  0
LINE
  5
1C4
102
{ACAD_REACTORS
330
280
330
281
102
}
330
7D
100
AcDbEntity
  8
0
  6
Continuous
 62
     2
100
AcDbLine
 10
-146.2113267379694
 20
-298.8776796558221
 30
0.0
 11
-144.8133736910291
 21
-301.9314891796332
 31
0.0
  0
LINE
  5
1C5
102
{ACAD_REACTORS
330
280
330
281
102
}
330
7D
100
AcDbEntity
  8
0
  6
Continuous
 62
     2
100
AcDbLine
 10
-147.4518311482222
 20
-298.8776796558221
 30
0.0
 11
-146.2113267379694
 21
-298.8776796558221
 31
0.0
  0
LINE
  5
1C6
102
{ACAD_REACTORS
330
280
330
281
102
}
330
7D
100
AcDbEntity
  8
0
  6
Continuous
 62
     2
100
AcDbLine
 10
-148.8497841951614
 20
-301.9314891796332
 30
0.0
 11
-147.6092797849085
 21
-301.9314891796332
 31
0.0
  0
LINE
  5
1C7
102
{ACAD_REACTORS
330
280
330
281
102
}
330
7D
100
AcDbEntity
  8
0
  6
Continuous
 62
     2
100
AcDbLine
 10
-147.1317441802876
 20
-300.7099653701088
 30
0.0
 11
-146.5314137059051
 21
-300.7099653701088
 31
0.0
  0
LINE
  5
1C8
102
{ACAD_REACTORS
330
280
330
281
102
}
330
7D
100
AcDbEntity
  8
0
  6
Continuous
 62
     2
100
AcDbLine
 10
-146.5314137059051
 20
-300.7099653701088
 30
0.0
 11
-146.8315789430953
 21
-299.9421504041221
 31
0.0
  0
LINE
  5
1C9
102
{ACAD_REACTORS
330
282
330
283
102
}
330
7D
100
AcDbEntity
  8
0
  6
Continuous
 62
     2
100
AcDbLine
 10
-144.4229296874971
 20
-298.5722987034589
 30
0.0
 11
-145.66343409775
 21
-298.5722987034589
 31
0.0
  0
LINE
  5
1CA
102
{ACAD_REACTORS
330
284
330
285
102
}
330
7D
100
AcDbEntity
  8
0
  6
Continuous
 62
     2
100
AcDbLine
 10
-142.9009261995321
 20
-298.5722987034589
 30
0.0
 11
-144.3036504172802
 21
-298.5722987034589
 31
0.0
  0
LINE
  5
1CB
102
{ACAD_REACTORS
330
284
330
285
102
}
330
7D
100
AcDbEntity
  8
0
  6
Continuous
 62
     2
100
AcDbLine
 10
-142.9009261995321
 20
-298.5722987034589
 30
0.0
 11
-142.2043352614663
 21
-297.7845669181652
 31
0.0
  0
LINE
  5
1CC
102
{ACAD_REACTORS
330
284
330
285
102
}
330
7D
100
AcDbEntity
  8
0
  6
Continuous
 62
     2
100
AcDbLine
 10
-141.6031677395735
 20
-295.5184891796478
 30
0.0
 11
-140.2004435218263
 21
-295.5184891796478
 31
0.0
  0
LINE
  5
1CD
102
{ACAD_REACTORS
330
284
330
285
102
}
330
7D
100
AcDbEntity
  8
0
  6
Continuous
 62
     2
100
AcDbLine
 10
-144.2082270011074
 20
-295.5184891796478
 30
0.0
 11
-142.9056973703399
 21
-296.991439709684
 31
0.0
  0
LINE
  5
1CE
102
{ACAD_REACTORS
330
284
330
285
102
}
330
7D
100
AcDbEntity
  8
0
  6
Continuous
 62
     2
100
AcDbLine
 10
-144.3036504172802
 20
-298.5722987034589
 30
0.0
 11
-142.9056973703399
 21
-296.991439709684
 31
0.0
  0
LINE
  5
1CF
102
{ACAD_REACTORS
330
28E
330
28F
102
}
330
7D
100
AcDbEntity
  8
0
  6
Continuous
 62
     2
100
AcDbLine
 10
-142.4428938019004
 20
-300.8844687714696
 30
0.0
 11
-142.4428938019004
 21
-301.7569857782729
 31
0.0
  0
LINE
  5
1D0
102
{ACAD_REACTORS
330
28E
330
28F
102
}
330
7D
100
AcDbEntity
  8
0
  6
Continuous
 62
     2
100
AcDbLine
 10
-143.2125511448618
 20
-299.6629449619458
 30
0.0
 11
-142.1089118452937
 21
-299.6629449619458
 31
0.0
  0
LINE
  5
1D1
102
{ACAD_REACTORS
330
290
330
291
102
}
330
7D
100
AcDbEntity
  8
0
  6
Continuous
 62
     2
100
AcDbLine
 10
-158.5455952811522
 20
-300.8844687714691
 30
0.0
 11
-158.5455952811522
 21
-301.7569857782724
 31
0.0
  0
LINE
  5
1D2
102
{ACAD_REACTORS
330
290
330
291
102
}
330
7D
100
AcDbEntity
  8
0
  6
Continuous
 62
     2
100
AcDbLine
 10
-158.5455952811522
 20
-299.9247000639863
 30
0.0
 11
-158.5455952811522
 21
-299.052183057183
 31
0.0
  0
LINE
  5
1D3
330
7D
100
AcDbEntity
  8
1
  6
Continuous
 62
     7
100
AcDbLine
 10
-89.2266279778472
 20
-283.7249891796496
 30
0.0
 11
-89.2266279778472
 21
-292.2249891796496
 31
0.0
  0
LINE
  5
1D4
330
7D
100
AcDbEntity
  8
1
  6
Continuous
 62
     7
100
AcDbLine
 10
-109.7266279778468
 20
-283.7249891796496
 30
0.0
 11
-109.7266279778468
 21
-292.2249891796496
 31
0.0
  0
LINE
  5
1D5
330
7D
100
AcDbEntity
  8
1
  6
Continuous
 62
     6
100
AcDbLine
 10
-135.8530242229197
 20
-292.2249891796496
 30
0.0
 11
-135.8530242229197
 21
-283.7249891796496
 31
0.0
  0
LINE
  5
1D6
330
7D
100
AcDbEntity
  8
1
  6
Continuous
 62
     6
100
AcDbLine
 10
-172.2530242229196
 20
-292.2249891796496
 30
0.0
 11
-172.2530242229196
 21
-283.7249891796496
 31
0.0
  0
LINE
  5
1D7
330
7D
100
AcDbEntity
  8
1
  6
Continuous
 62
     7
100
AcDbLine
 10
-135.8530242229197
 20
-292.2249891796496
 30
0.0
 11
-79.8266279778472
 21
-292.2249891796496
 31
0.0
  0
LINE
  5
1D8
330
7D
100
AcDbEntity
  8
1
  6
Continuous
 62
     2
100
AcDbLine
 10
-179.3748863628363
 20
-309.2249891796519
 30
0.0
 11
-179.3748863628363
 21
-309.224989179649
 31
0.0
  0
LINE
  5
1D9
330
7D
100
AcDbEntity
  8
1
  6
Continuous
 62
     6
100
AcDbLine
 10
-316.0415530295028
 20
-309.224989179649
 30
0.0
 11
-172.2530242229196
 21
-309.2249891796521
 31
0.0
  0
LINE
  5
1DA
330
7D
100
AcDbEntity
  8
1
  6
Continuous
 62
     6
100
AcDbLine
 10
-437.7082196961694
 20
-309.224989179649
 30
0.0
 11
-437.7082196961704
 21
-22.22498917964879
 31
0.0
  0
LINE
  5
1DB
330
7D
100
AcDbEntity
  8
1
  6
Continuous
 62
     2
100
AcDbLine
 10
-457.7082196961705
 20
-165.724989179649
 30
0.0
 11
-457.7082196961705
 21
-314.224989179649
 31
0.0
  0
LINE
  5
1DC
330
7D
100
AcDbEntity
  8
1
  6
Continuous
 62
     2
100
AcDbLine
 10
-457.7082196961705
 20
-165.724989179649
 30
0.0
 11
-447.7082196961704
 21
-165.724989179649
 31
0.0
  0
LINE
  5
1DD
330
7D
100
AcDbEntity
  8
1
  6
Continuous
 62
     2
100
AcDbLine
 10
-457.7082196961705
 20
-17.22498917964902
 30
0.0
 11
-457.7082196961705
 21
-165.724989179649
 31
0.0
  0
LINE
  5
1DE
330
7D
100
AcDbEntity
  8
1
  6
Continuous
 62
     2
100
AcDbLine
 10
-227.7082196961725
 20
-17.22498917964902
 30
0.0
 11
-247.7082196961697
 21
-17.22498917964902
 31
0.0
  0
LINE
  5
1DF
330
7D
100
AcDbEntity
  8
1
  6
Continuous
 62
     2
100
AcDbLine
 10
-227.7082196961725
 20
-17.22498917964902
 30
0.0
 11
-227.7082196961725
 21
-21.22498917964879
 31
0.0
  0
LINE
  5
1E0
330
7D
100
AcDbEntity
  8
1
  6
Continuous
 62
     2
100
AcDbLine
 10
-437.7082196961704
 20
-17.22498917964902
 30
0.0
 11
-457.7082196961705
 21
-17.22498917964902
 31
0.0
  0
LINE
  5
1E1
330
7D
100
AcDbEntity
  8
1
  6
Continuous
 62
     2
100
AcDbLine
 10
-437.7082196961704
 20
-17.22498917964902
 30
0.0
 11
-437.7082196961704
 21
-21.22498917964879
 31
0.0
  0
LINE
  5
1E2
330
7D
100
AcDbEntity
  8
1
  6
Continuous
 62
     2
100
AcDbLine
 10
-384.3748863628363
 20
-17.22498917964902
 30
0.0
 11
-437.7082196961704
 21
-17.22498917964902
 31
0.0
  0
LINE
  5
1E3
330
7D
100
AcDbEntity
  8
1
  6
Continuous
 62
     6
100
AcDbLine
 10
-384.3748863628363
 20
-22.22498917964879
 30
0.0
 11
-316.0415530295028
 21
-22.22498917964902
 31
0.0
  0
LINE
  5
1E4
330
7D
100
AcDbEntity
  8
1
  6
Continuous
 62
     2
100
AcDbLine
 10
-384.3748863628363
 20
-22.22498917964879
 30
0.0
 11
-384.3748863628363
 21
-17.22498917964902
 31
0.0
  0
LINE
  5
1E5
330
7D
100
AcDbEntity
  8
1
  6
Continuous
 62
     2
100
AcDbLine
 10
-316.0415530295028
 20
-17.22498917964902
 30
0.0
 11
-384.3748863628363
 21
-17.22498917964902
 31
0.0
  0
LINE
  5
1E6
330
7D
100
AcDbEntity
  8
1
  6
Continuous
 62
     6
100
AcDbLine
 10
-316.0415530295028
 20
-22.22498917964902
 30
0.0
 11
-247.7082196961697
 21
-22.22498917964902
 31
0.0
  0
LINE
  5
1E7
330
7D
100
AcDbEntity
  8
1
  6
Continuous
 62
     2
100
AcDbLine
 10
-316.0415530295028
 20
-22.22498917964902
 30
0.0
 11
-316.0415530295028
 21
-17.22498917964902
 31
0.0
  0
LINE
  5
1E8
330
7D
100
AcDbEntity
  8
1
  6
Continuous
 62
     2
100
AcDbLine
 10
-247.7082196961697
 20
-17.22498917964902
 30
0.0
 11
-316.0415530295028
 21
-17.22498917964902
 31
0.0
  0
LINE
  5
1E9
330
7D
100
AcDbEntity
  8
1
  6
Continuous
 62
     6
100
AcDbLine
 10
-247.7082196961697
 20
-22.22498917964902
 30
0.0
 11
-179.3748863628363
 21
-22.22498917964902
 31
0.0
  0
LINE
  5
1EA
330
7D
100
AcDbEntity
  8
1
  6
Continuous
 62
     2
100
AcDbLine
 10
-247.7082196961697
 20
-22.22498917964902
 30
0.0
 11
-247.7082196961697
 21
-17.22498917964902
 31
0.0
  0
LINE
  5
1EB
330
7D
100
AcDbEntity
  8
1
  6
Continuous
 62
     2
100
AcDbLine
 10
-179.3748863628363
 20
-17.22498917964902
 30
0.0
 11
-227.7082196961725
 21
-17.22498917964902
 31
0.0
  0
LINE
  5
1EC
330
7D
100
AcDbEntity
  8
1
  6
Continuous
 62
     6
100
AcDbLine
 10
-179.3748863628363
 20
-22.22498917964902
 30
0.0
 11
-111.0415530295031
 21
-22.22498917964902
 31
0.0
  0
LINE
  5
1ED
330
7D
100
AcDbEntity
  8
1
  6
Continuous
 62
     2
100
AcDbLine
 10
-179.3748863628363
 20
-22.22498917964902
 30
0.0
 11
-179.3748863628363
 21
-17.22498917964902
 31
0.0
  0
LINE
  5
1EE
330
7D
100
AcDbEntity
  8
1
  6
Continuous
 62
     2
100
AcDbLine
 10
-111.0415530295031
 20
-17.22498917964902
 30
0.0
 11
-179.3748863628363
 21
-17.22498917964902
 31
0.0
  0
LINE
  5
1EF
330
7D
100
AcDbEntity
  8
1
  6
Continuous
 62
     6
100
AcDbLine
 10
-111.0415530295031
 20
-22.22498917964902
 30
0.0
 11
-42.70821969617219
 21
-22.22498917964902
 31
0.0
  0
LINE
  5
1F0
330
7D
100
AcDbEntity
  8
1
  6
Continuous
 62
     2
100
AcDbLine
 10
-111.0415530295031
 20
-22.22498917964902
 30
0.0
 11
-111.0415530295031
 21
-17.22498917964902
 31
0.0
  0
LINE
  5
1F1
330
7D
100
AcDbEntity
  8
1
  6
Continuous
 62
     2
100
AcDbLine
 10
-42.70821969617219
 20
-17.22498917964902
 30
0.0
 11
-111.0415530295031
 21
-17.22498917964902
 31
0.0
  0
LINE
  5
1F2
330
7D
100
AcDbEntity
  8
1
  6
Continuous
 62
     6
100
AcDbLine
 10
-437.7082196961704
 20
-22.22498917964879
 30
0.0
 11
-384.3748863628363
 21
-22.22498917964879
 31
0.0
  0
LINE
  5
1F3
330
7D
100
AcDbEntity
  8
1
  6
Continuous
 62
     6
100
AcDbLine
 10
-42.70821969616969
 20
-194.4249891796488
 30
0.0
 11
-42.70821969616975
 21
-251.8249891796489
 31
0.0
  0
LINE
  5
1F4
330
7D
100
AcDbEntity
  8
1
  6
Continuous
 62
     2
100
AcDbLine
 10
-42.70821969616969
 20
-194.4249891796488
 30
0.0
 11
-37.70821969617219
 21
-194.4249891796488
 31
0.0
  0
LINE
  5
1F5
330
7D
100
AcDbEntity
  8
1
  6
Continuous
 62
     2
100
AcDbLine
 10
-37.70821969617219
 20
-137.024989179649
 30
0.0
 11
-37.70821969617219
 21
-194.4249891796488
 31
0.0
  0
LINE
  5
1F6
330
7D
100
AcDbEntity
  8
1
  6
Continuous
 62
     6
100
AcDbLine
 10
-42.70821969616969
 20
-137.024989179649
 30
0.0
 11
-42.70821969616969
 21
-194.4249891796488
 31
0.0
  0
LINE
  5
1F7
330
7D
100
AcDbEntity
  8
1
  6
Continuous
 62
     2
100
AcDbLine
 10
-42.70821969616969
 20
-137.024989179649
 30
0.0
 11
-37.70821969617219
 21
-137.024989179649
 31
0.0
  0
LINE
  5
1F8
330
7D
100
AcDbEntity
  8
1
  6
Continuous
 62
     2
100
AcDbLine
 10
-37.70821969617219
 20
-79.6249891796491
 30
0.0
 11
-37.70821969617219
 21
-137.024989179649
 31
0.0
  0
LINE
  5
1F9
330
7D
100
AcDbEntity
  8
1
  6
Continuous
 62
     6
100
AcDbLine
 10
-42.70821969617168
 20
-79.6249891796491
 30
0.0
 11
-42.70821969616969
 21
-137.024989179649
 31
0.0
  0
LINE
  5
1FA
330
7D
100
AcDbEntity
  8
1
  6
Continuous
 62
     2
100
AcDbLine
 10
-42.70821969617168
 20
-79.6249891796491
 30
0.0
 11
-37.70821969617219
 21
-79.6249891796491
 31
0.0
  0
LINE
  5
1FB
330
7D
100
AcDbEntity
  8
1
  6
Continuous
 62
     2
100
AcDbLine
 10
-37.70821969617219
 20
-22.22498917964902
 30
0.0
 11
-37.70821969617219
 21
-79.6249891796491
 31
0.0
  0
LINE
  5
1FC
330
7D
100
AcDbEntity
  8
1
  6
Continuous
 62
     2
100
AcDbLine
 10
-42.70821969617219
 20
-22.22498917964902
 30
0.0
 11
-37.70821969617219
 21
-22.22498917964902
 31
0.0
  0
LINE
  5
1FD
330
7D
100
AcDbEntity
  8
1
  6
Continuous
 62
     2
100
AcDbLine
 10
-42.70821969617219
 20
-22.22498917964902
 30
0.0
 11
-42.70821969617219
 21
-17.22498917964902
 31
0.0
  0
LINE
  5
1FE
330
7D
100
AcDbEntity
  8
1
  6
Continuous
 62
     2
100
AcDbLine
 10
-37.70821969617219
 20
-17.22498917964902
 30
0.0
 11
-37.70821969617219
 21
-22.22498917964902
 31
0.0
  0
LINE
  5
1FF
330
7D
100
AcDbEntity
  8
1
  6
Continuous
 62
     6
100
AcDbLine
 10
-42.70821969617219
 20
-22.22498917964902
 30
0.0
 11
-42.70821969617168
 21
-79.6249891796491
 31
0.0
  0
LINE
  5
200
330
7D
100
AcDbEntity
  8
1
  6
Continuous
 62
     2
100
AcDbLine
 10
-37.70821969617219
 20
-17.22498917964902
 30
0.0
 11
-42.70821969617219
 21
-17.22498917964902
 31
0.0
  0
LINE
  5
201
330
7D
100
AcDbEntity
  8
1
  6
Continuous
 62
     2
100
AcDbLine
 10
-37.70821969617219
 20
-309.224989179649
 30
0.0
 11
-37.70821969617219
 21
-251.8249891796489
 31
0.0
  0
LINE
  5
202
330
7D
100
AcDbEntity
  8
1
  6
Continuous
 62
     2
100
AcDbLine
 10
-37.70821969617219
 20
-309.224989179649
 30
0.0
 11
-37.70821969617219
 21
-314.224989179649
 31
0.0
  0
LINE
  5
203
330
7D
100
AcDbEntity
  8
1
  6
Continuous
 62
     2
100
AcDbLine
 10
-37.70821969617219
 20
-314.224989179649
 30
0.0
 11
-42.70821969616969
 21
-314.224989179649
 31
0.0
  0
LINE
  5
204
330
7D
100
AcDbEntity
  8
1
  6
Continuous
 62
     2
100
AcDbLine
 10
-179.3748863628363
 20
-314.224989179649
 30
0.0
 11
-111.0415530295031
 21
-314.224989179649
 31
0.0
  0
LINE
  5
205
330
7D
100
AcDbEntity
  8
1
  6
Continuous
 62
     2
100
AcDbLine
 10
-227.7082196961725
 20
-314.224989179649
 30
0.0
 11
-179.3748863628363
 21
-314.224989179649
 31
0.0
  0
LINE
  5
206
330
7D
100
AcDbEntity
  8
1
  6
Continuous
 62
     2
100
AcDbLine
 10
-227.7082196961725
 20
-314.224989179649
 30
0.0
 11
-227.7082196961725
 21
-310.224989179649
 31
0.0
  0
LINE
  5
207
330
7D
100
AcDbEntity
  8
1
  6
Continuous
 62
     2
100
AcDbLine
 10
-227.7082196961725
 20
-314.224989179649
 30
0.0
 11
-247.7082196961697
 21
-314.224989179649
 31
0.0
  0
LINE
  5
208
330
7D
100
AcDbEntity
  8
1
  6
Continuous
 62
     2
100
AcDbLine
 10
-437.7082196961704
 20
-314.224989179649
 30
0.0
 11
-384.3748863628363
 21
-314.224989179649
 31
0.0
  0
LINE
  5
209
330
7D
100
AcDbEntity
  8
1
  6
Continuous
 62
     2
100
AcDbLine
 10
-437.7082196961704
 20
-314.224989179649
 30
0.0
 11
-437.7082196961704
 21
-310.224989179649
 31
0.0
  0
LINE
  5
20A
330
7D
100
AcDbEntity
  8
1
  6
Continuous
 62
     2
100
AcDbLine
 10
-316.0415530295028
 20
-314.224989179649
 30
0.0
 11
-316.0415530295028
 21
-309.224989179649
 31
0.0
  0
LINE
  5
20B
330
7D
100
AcDbEntity
  8
1
  6
Continuous
 62
     6
100
AcDbLine
 10
-384.3748863628363
 20
-309.224989179649
 30
0.0
 11
-437.7082196961694
 21
-309.224989179649
 31
0.0
  0
LINE
  5
20C
330
7D
100
AcDbEntity
  8
1
  6
Continuous
 62
     6
100
AcDbLine
 10
-384.3748863628363
 20
-309.224989179649
 30
0.0
 11
-316.0415530295028
 21
-309.224989179649
 31
0.0
  0
LINE
  5
20D
330
7D
100
AcDbEntity
  8
1
  6
Continuous
 62
     2
100
AcDbLine
 10
-384.3748863628363
 20
-314.224989179649
 30
0.0
 11
-316.0415530295028
 21
-314.224989179649
 31
0.0
  0
LINE
  5
20E
330
7D
100
AcDbEntity
  8
1
  6
Continuous
 62
     2
100
AcDbLine
 10
-384.3748863628363
 20
-314.224989179649
 30
0.0
 11
-384.3748863628363
 21
-309.224989179649
 31
0.0
  0
LINE
  5
20F
330
7D
100
AcDbEntity
  8
1
  6
Continuous
 62
     2
100
AcDbLine
 10
-437.7082196961704
 20
-314.224989179649
 30
0.0
 11
-457.7082196961705
 21
-314.224989179649
 31
0.0
  0
LINE
  5
210
330
7D
100
AcDbEntity
  8
1
  6
Continuous
 62
     2
100
AcDbLine
 10
-37.70821969617219
 20
-251.8249891796489
 30
0.0
 11
-42.70821969616975
 21
-251.8249891796489
 31
0.0
  0
LINE
  5
211
330
7D
100
AcDbEntity
  8
1
  6
Continuous
 62
     2
100
AcDbLine
 10
-37.70821969617219
 20
-251.8249891796489
 30
0.0
 11
-37.70821969617219
 21
-194.4249891796488
 31
0.0
  0
LINE
  5
212
330
7D
100
AcDbEntity
  8
1
  6
Continuous
 62
     2
100
AcDbLine
 10
-247.7082196961697
 20
-314.224989179649
 30
0.0
 11
-247.7082196961697
 21
-309.224989179649
 31
0.0
  0
LINE
  5
213
330
7D
100
AcDbEntity
  8
1
  6
Continuous
 62
     2
100
AcDbLine
 10
-179.3748863628363
 20
-314.224989179649
 30
0.0
 11
-179.3748863628363
 21
-309.2249891796519
 31
0.0
  0
LINE
  5
214
330
7D
100
AcDbEntity
  8
1
  6
Continuous
 62
     2
100
AcDbLine
 10
-111.0415530295031
 20
-314.224989179649
 30
0.0
 11
-111.0415530295031
 21
-309.224989179649
 31
0.0
  0
LINE
  5
215
330
7D
100
AcDbEntity
  8
1
  6
Continuous
 62
     2
100
AcDbLine
 10
-111.0415530295031
 20
-314.224989179649
 30
0.0
 11
-42.70821969616969
 21
-314.224989179649
 31
0.0
  0
LINE
  5
216
330
7D
100
AcDbEntity
  8
1
  6
Continuous
 62
     2
100
AcDbLine
 10
-247.7082196961697
 20
-314.224989179649
 30
0.0
 11
-316.0415530295028
 21
-314.224989179649
 31
0.0
  0
ARC
  5
217
102
{ACAD_REACTORS
330
290
330
291
102
}
330
7D
100
AcDbEntity
  8
0
  6
Continuous
 62
     2
100
AcDbCircle
 10
-159.88152319827
 20
-303.7172653629838
 30
0.0
 40
4.852596863497986
100
AcDbArc
 50
74.0200087416471
 51
84.84185523037608
  0
ARC
  5
218
102
{ACAD_REACTORS
330
290
330
291
102
}
330
7D
100
AcDbEntity
  8
0
  6
Continuous
 62
     2
100
AcDbCircle
 10
-159.3054825895163
 20
-300.5615050070995
 30
0.0
 40
0.9059297849853498
100
AcDbArc
 50
71.55192388185974
 51
113.3722778881306
  0
ARC
  5
219
102
{ACAD_REACTORS
330
290
330
291
102
}
330
7D
100
AcDbEntity
  8
0
  6
Continuous
 62
     2
100
AcDbCircle
 10
-159.4619226222184
 20
-300.6096558470665
 30
0.0
 40
0.5115800601947491
100
AcDbArc
 50
208.5214732576844
 51
246.6277221118282
  0
ARC
  5
21A
102
{ACAD_REACTORS
330
290
330
291
102
}
330
7D
100
AcDbEntity
  8
0
  6
Continuous
 62
     2
100
AcDbCircle
 10
-159.3054825895163
 20
-300.2476638283565
 30
0.0
 40
0.9059297849848262
100
AcDbArc
 50
246.6277221118665
 51
288.4480761181539
  0
ARC
  5
21B
102
{ACAD_REACTORS
330
290
330
291
102
}
330
7D
100
AcDbEntity
  8
0
  6
Continuous
 62
     2
100
AcDbCircle
 10
-159.7236503231772
 20
-298.9941180523193
 30
0.0
 40
2.227384008972719
100
AcDbArc
 50
288.4480761181337
 51
301.9309089499637
  0
ARC
  5
21C
102
{ACAD_REACTORS
330
28C
330
28D
102
}
330
7D
100
AcDbEntity
  8
0
  6
Continuous
 62
     2
100
AcDbCircle
 10
-164.9487240557839
 20
-298.2616160234053
 30
0.0
 40
0.9118481501443941
100
AcDbArc
 50
295.3740086781804
 51
64.62599132180893
  0
ARC
  5
21D
102
{ACAD_REACTORS
330
28C
330
28D
102
}
330
7D
100
AcDbEntity
  8
0
  6
Continuous
 62
     2
100
AcDbCircle
 10
-164.422681357696
 20
-296.5469391349307
 30
0.0
 40
0.3157169230761851
100
AcDbArc
 50
90.1889670425665
 51
180.0
  0
ARC
  5
21E
102
{ACAD_REACTORS
330
28E
330
28F
102
}
330
7D
100
AcDbEntity
  8
0
  6
Continuous
 62
     2
100
AcDbCircle
 10
-143.2125511448618
 20
-300.6174679687719
 30
0.0
 40
0.9545230068260935
100
AcDbArc
 50
90.0
 51
109.3371432194281
  0
ARC
  5
21F
102
{ACAD_REACTORS
330
28E
330
28F
102
}
330
7D
100
AcDbEntity
  8
0
  6
Continuous
 62
     2
100
AcDbCircle
 10
-142.981863884884
 20
-300.404584417728
 30
0.0
 40
0.9410597353350352
100
AcDbArc
 50
151.4785267423573
 51
208.521473257667
  0
ARC
  5
220
102
{ACAD_REACTORS
330
28E
330
28F
102
}
330
7D
100
AcDbEntity
  8
0
  6
Continuous
 62
     2
100
AcDbCircle
 10
-143.2027811102623
 20
-300.2476638283565
 30
0.0
 40
0.9059297849852208
100
AcDbArc
 50
246.6277221118088
 51
288.4480761180772
  0
ARC
  5
221
102
{ACAD_REACTORS
330
28E
330
28F
102
}
330
7D
100
AcDbEntity
  8
0
  6
Continuous
 62
     2
100
AcDbCircle
 10
-143.6209488439243
 20
-298.9941180523198
 30
0.0
 40
2.227384008972773
100
AcDbArc
 50
288.4480761181333
 51
301.9309089499394
  0
ARC
  5
222
102
{ACAD_REACTORS
330
28E
330
28F
102
}
330
7D
100
AcDbEntity
  8
0
  6
Continuous
 62
     2
100
AcDbCircle
 10
-143.7788217190171
 20
-297.0919034724715
 30
0.0
 40
4.852596863498889
100
AcDbArc
 50
275.1581447696373
 51
285.9799912583383
  0
ARC
  5
223
102
{ACAD_REACTORS
330
28E
330
28F
102
}
330
7D
100
AcDbEntity
  8
0
  6
Continuous
 62
     2
100
AcDbCircle
 10
-143.4899656242812
 20
-300.2917940556931
 30
0.0
 40
1.639695123940503
100
AcDbArc
 50
195.0618917771007
 51
275.1581447696772
  0
ARC
  5
224
102
{ACAD_REACTORS
330
286
330
287
102
}
330
7D
100
AcDbEntity
  8
0
  6
Continuous
 62
     2
100
AcDbCircle
 10
-159.2181789359723
 20
-296.5738548209815
 30
0.0
 40
1.055365641333651
100
AcDbArc
 50
270.0
 51
90.0
  0
ARC
  5
225
102
{ACAD_REACTORS
330
28C
330
28D
102
}
330
7D
100
AcDbEntity
  8
0
  6
Continuous
 62
     2
100
AcDbCircle
 10
-166.9982300442278
 20
-300.9032167009996
 30
0.0
 40
0.3157169230755983
100
AcDbArc
 50
180.0
 51
270.0
  0
ARC
  5
226
102
{ACAD_REACTORS
330
28C
330
28D
102
}
330
7D
100
AcDbEntity
  8
0
  6
Continuous
 62
     2
100
AcDbCircle
 10
-165.5223967832182
 20
-296.5467616582825
 30
0.0
 40
0.315716923076593
100
AcDbArc
 50
0.0
 51
90.0
  0
ARC
  5
227
102
{ACAD_REACTORS
330
28C
330
28D
102
}
330
7D
100
AcDbEntity
  8
0
  6
Continuous
 62
     2
100
AcDbCircle
 10
-165.5223967832182
 20
-297.1507862773431
 30
0.0
 40
0.3157169230760658
100
AcDbArc
 50
295.1944106485672
 51
0.0
  0
ARC
  5
228
102
{ACAD_REACTORS
330
28C
330
28D
102
}
330
7D
100
AcDbEntity
  8
0
  6
Continuous
 62
     2
100
AcDbCircle
 10
-165.5223967832182
 20
-300.9032167009996
 30
0.0
 40
0.3157169230767067
100
AcDbArc
 50
270.0
 51
0.0
  0
ARC
  5
229
102
{ACAD_REACTORS
330
28C
330
28D
102
}
330
7D
100
AcDbEntity
  8
0
  6
Continuous
 62
     2
100
AcDbCircle
 10
-167.5921247209743
 20
-295.9427337950498
 30
0.0
 40
0.4242446153838841
100
AcDbArc
 50
90.0
 51
180.0
  0
ARC
  5
22A
102
{ACAD_REACTORS
330
28C
330
28D
102
}
330
7D
100
AcDbEntity
  8
0
  6
Continuous
 62
     2
100
AcDbCircle
 10
-162.1188126302574
 20
-295.9427337950498
 30
0.0
 40
0.4242446153838841
100
AcDbArc
 50
0.0
 51
90.0
  0
ARC
  5
22B
102
{ACAD_REACTORS
330
28C
330
28D
102
}
330
7D
100
AcDbEntity
  8
0
  6
Continuous
 62
     2
100
AcDbCircle
 10
-162.1188126302574
 20
-301.50724456425
 30
0.0
 40
0.424244615383202
100
AcDbArc
 50
270.0
 51
0.0
  0
ARC
  5
22C
102
{ACAD_REACTORS
330
28A
330
28B
102
}
330
7D
100
AcDbEntity
  8
0
  6
Continuous
 62
     2
100
AcDbCircle
 10
-152.9004287431659
 20
-297.0453939415536
 30
0.0
 40
0.7717997786795479
100
AcDbArc
 50
321.8795802028385
 51
38.12041979715814
  0
ARC
  5
22D
102
{ACAD_REACTORS
330
28A
330
28B
102
}
330
7D
100
AcDbEntity
  8
0
  6
Continuous
 62
     2
100
AcDbCircle
 10
-152.7006887068197
 20
-297.2021251196741
 30
0.0
 40
0.5179085730134564
100
AcDbArc
 50
218.1204197971334
 51
321.8795802028588
  0
ARC
  5
22E
102
{ACAD_REACTORS
330
288
330
289
102
}
330
7D
100
AcDbEntity
  8
0
  6
Continuous
 62
     2
100
AcDbCircle
 10
-156.38069629578
 20
-300.404584417728
 30
0.0
 40
1.45803408365203
100
AcDbArc
 50
297.5481481757055
 51
62.45185182429758
  0
ARC
  5
22F
102
{ACAD_REACTORS
330
288
330
289
102
}
330
7D
100
AcDbEntity
  8
0
  6
Continuous
 62
     2
100
AcDbCircle
 10
-156.9425760794466
 20
-300.404584417728
 30
0.0
 40
1.458034083651616
100
AcDbArc
 50
117.5481481756598
 51
242.451851824337
  0
ARC
  5
230
102
{ACAD_REACTORS
330
288
330
289
102
}
330
7D
100
AcDbEntity
  8
0
  6
Continuous
 62
     2
100
AcDbCircle
 10
-156.6616361876132
 20
-300.9431594280308
 30
0.0
 40
2.065479772208694
100
AcDbArc
 50
62.45185182430819
 51
117.5481481756674
  0
ARC
  5
231
102
{ACAD_REACTORS
330
288
330
289
102
}
330
7D
100
AcDbEntity
  8
0
  6
Continuous
 62
     2
100
AcDbCircle
 10
-156.6616361876132
 20
-299.8660094074246
 30
0.0
 40
2.065479772208637
100
AcDbArc
 50
242.4518518243384
 51
297.548148175686
  0
ARC
  5
232
102
{ACAD_REACTORS
330
28A
330
28B
102
}
330
7D
100
AcDbEntity
  8
0
  6
Continuous
 62
     2
100
AcDbCircle
 10
-152.5009486704735
 20
-297.0453939415536
 30
0.0
 40
0.7717997786796245
100
AcDbArc
 50
141.8795802028484
 51
218.1204197971549
  0
ARC
  5
233
102
{ACAD_REACTORS
330
28A
330
28B
102
}
330
7D
100
AcDbEntity
  8
0
  6
Continuous
 62
     2
100
AcDbCircle
 10
-152.7006887068197
 20
-296.8886627634331
 30
0.0
 40
0.5179085730133669
100
AcDbArc
 50
38.12041979714121
 51
141.8795802028666
  0
ARC
  5
234
102
{ACAD_REACTORS
330
28C
330
28D
102
}
330
7D
100
AcDbEntity
  8
0
  6
Continuous
 62
     2
100
AcDbCircle
 10
-167.5921247209743
 20
-301.50724456425
 30
0.0
 40
0.4242446153827757
100
AcDbArc
 50
180.0
 51
270.0
  0
ARC
  5
235
102
{ACAD_REACTORS
330
28C
330
28D
102
}
330
7D
100
AcDbEntity
  8
0
  6
Continuous
 62
     2
100
AcDbCircle
 10
-165.5223967832182
 20
-299.372445769468
 30
0.0
 40
0.315716923076593
100
AcDbArc
 50
0.0
 51
64.805589351446
  0
ARC
  5
236
102
{ACAD_REACTORS
330
28C
330
28D
102
}
330
7D
100
AcDbEntity
  8
0
  6
Continuous
 62
     2
100
AcDbCircle
 10
-164.9998123356432
 20
-298.2616160234053
 30
0.0
 40
0.9118975235576433
100
AcDbArc
 50
115.1944106485195
 51
244.8055893514911
  0
ARC
  5
237
102
{ACAD_REACTORS
330
28C
330
28D
102
}
330
7D
100
AcDbEntity
  8
0
  6
Continuous
 62
     2
100
AcDbCircle
 10
-166.9982300442278
 20
-296.5467616582825
 30
0.0
 40
0.3157169230760815
100
AcDbArc
 50
90.0
 51
180.0
  0
ARC
  5
238
102
{ACAD_REACTORS
330
286
330
287
102
}
330
7D
100
AcDbEntity
  8
0
  6
Continuous
 62
     2
100
AcDbCircle
 10
-159.6596514622107
 20
-296.534458849759
 30
0.0
 40
0.3528638246710898
100
AcDbArc
 50
270.0
 51
90.0
  0
ARC
  5
239
102
{ACAD_REACTORS
330
28A
330
28B
102
}
330
7D
100
AcDbEntity
  8
0
  6
Continuous
 62
     2
100
AcDbCircle
 10
-152.9169607169849
 20
-297.0453939415536
 30
0.0
 40
1.526904761905769
100
AcDbArc
 50
90.0
 51
270.0
  0
ARC
  5
23A
102
{ACAD_REACTORS
330
28E
330
28F
102
}
330
7D
100
AcDbEntity
  8
0
  6
Continuous
 62
     2
100
AcDbCircle
 10
-143.4899656242812
 20
-300.5173747797628
 30
0.0
 40
1.639695123940101
100
AcDbArc
 50
90.0
 51
164.9381082228993
  0
ARC
  5
23B
102
{ACAD_REACTORS
330
28E
330
28F
102
}
330
7D
100
AcDbEntity
  8
0
  6
Continuous
 62
     2
100
AcDbCircle
 10
-143.9090934677429
 20
-300.404584417728
 30
0.0
 40
1.205656168392975
100
AcDbArc
 50
164.9381082229024
 51
195.0618917770924
  0
ARC
  5
23C
102
{ACAD_REACTORS
330
28E
330
28F
102
}
330
7D
100
AcDbEntity
  8
0
  6
Continuous
 62
     2
100
AcDbCircle
 10
-143.3592211429655
 20
-300.6096558470665
 30
0.0
 40
0.5115800601959967
100
AcDbArc
 50
208.5214732576881
 51
246.6277221118399
  0
ARC
  5
23D
102
{ACAD_REACTORS
330
28E
330
28F
102
}
330
7D
100
AcDbEntity
  8
0
  6
Continuous
 62
     2
100
AcDbCircle
 10
-143.3592211429655
 20
-300.1995129883889
 30
0.0
 40
0.5115800601944048
100
AcDbArc
 50
109.3371432194823
 51
151.4785267424182
  0
ARC
  5
23E
102
{ACAD_REACTORS
330
28C
330
28D
102
}
330
7D
100
AcDbEntity
  8
0
  6
Continuous
 62
     2
100
AcDbCircle
 10
-164.422681357696
 20
-299.9526090300687
 30
0.0
 40
0.315716923076792
100
AcDbArc
 50
180.0
 51
269.8110329574335
  0
ARC
  5
23F
102
{ACAD_REACTORS
330
28C
330
28D
102
}
330
7D
100
AcDbEntity
  8
0
  6
Continuous
 62
     2
100
AcDbCircle
 10
-164.417065222386
 20
-298.2497740824997
 30
0.0
 40
2.018561131933266
100
AcDbArc
 50
269.8110329575827
 51
90.18896704241737
  0
ARC
  5
240
102
{ACAD_REACTORS
330
28C
330
28D
102
}
330
7D
100
AcDbEntity
  8
0
  6
Continuous
 62
     2
100
AcDbCircle
 10
-164.422681357696
 20
-297.1524744234375
 30
0.0
 40
0.315716923076792
100
AcDbArc
 50
180.0
 51
244.6259913216349
  0
ARC
  5
241
102
{ACAD_REACTORS
330
28C
330
28D
102
}
330
7D
100
AcDbEntity
  8
0
  6
Continuous
 62
     2
100
AcDbCircle
 10
-164.422681357696
 20
-299.3707576233736
 30
0.0
 40
0.3157169230765328
100
AcDbArc
 50
115.3740086783519
 51
180.0
  0
ARC
  5
242
102
{ACAD_REACTORS
330
290
330
291
102
}
330
7D
100
AcDbEntity
  8
0
  6
Continuous
 62
     2
100
AcDbCircle
 10
-159.5926671035341
 20
-300.5173747797628
 30
0.0
 40
1.639695123940499
100
AcDbArc
 50
84.84185523036533
 51
164.9381082228905
  0
ARC
  5
243
102
{ACAD_REACTORS
330
290
330
291
102
}
330
7D
100
AcDbEntity
  8
0
  6
Continuous
 62
     2
100
AcDbCircle
 10
-160.0117949469969
 20
-300.404584417728
 30
0.0
 40
1.205656168390971
100
AcDbArc
 50
164.9381082228768
 51
195.0618917770945
  0
ARC
  5
244
102
{ACAD_REACTORS
330
290
330
291
102
}
330
7D
100
AcDbEntity
  8
0
  6
Continuous
 62
     2
100
AcDbCircle
 10
-159.5926671035341
 20
-300.2917940556931
 30
0.0
 40
1.639695123939437
100
AcDbArc
 50
195.0618917770922
 51
275.1581447696363
  0
ARC
  5
245
102
{ACAD_REACTORS
330
290
330
291
102
}
330
7D
100
AcDbEntity
  8
0
  6
Continuous
 62
     2
100
AcDbCircle
 10
-159.88152319827
 20
-297.0919034724715
 30
0.0
 40
4.852596863498272
100
AcDbArc
 50
275.1581447696238
 51
285.9799912583526
  0
ARC
  5
246
102
{ACAD_REACTORS
330
290
330
291
102
}
330
7D
100
AcDbEntity
  8
0
  6
Continuous
 62
     2
100
AcDbCircle
 10
-159.084565364138
 20
-300.404584417728
 30
0.0
 40
0.9410597353333294
100
AcDbArc
 50
151.4785267422693
 51
208.5214732576972
  0
ARC
  5
247
102
{ACAD_REACTORS
330
290
330
291
102
}
330
7D
100
AcDbEntity
  8
0
  6
Continuous
 62
     2
100
AcDbCircle
 10
-159.4619226222184
 20
-300.1995129883889
 30
0.0
 40
0.5115800601948293
100
AcDbArc
 50
113.3722778881945
 51
151.4785267423156
  0
ARC
  5
248
102
{ACAD_REACTORS
330
290
330
291
102
}
330
7D
100
AcDbEntity
  8
0
  6
Continuous
 62
     2
100
AcDbCircle
 10
-159.7236503231772
 20
-301.8150507831361
 30
0.0
 40
2.227384008973465
100
AcDbArc
 50
58.06909105003707
 51
71.55192388186676
  0
ARC
  5
249
102
{ACAD_REACTORS
330
288
330
289
102
}
330
7D
100
AcDbEntity
  8
0
  6
Continuous
 62
     2
100
AcDbCircle
 10
-156.6616361876132
 20
-300.2478532396075
 30
0.0
 40
0.5179085730132806
100
AcDbArc
 50
38.12041979716469
 51
141.8795802028567
  0
ARC
  5
24A
102
{ACAD_REACTORS
330
288
330
289
102
}
330
7D
100
AcDbEntity
  8
0
  6
Continuous
 62
     2
100
AcDbCircle
 10
-156.4618961512672
 20
-300.404584417728
 30
0.0
 40
0.771799778679551
100
AcDbArc
 50
141.879580202828
 51
218.120419797162
  0
ARC
  5
24B
102
{ACAD_REACTORS
330
288
330
289
102
}
330
7D
100
AcDbEntity
  8
0
  6
Continuous
 62
     2
100
AcDbCircle
 10
-156.6616361876132
 20
-300.5613155958479
 30
0.0
 40
0.5179085730138424
100
AcDbArc
 50
218.1204197971879
 51
321.8795802027908
  0
ARC
  5
24C
102
{ACAD_REACTORS
330
288
330
289
102
}
330
7D
100
AcDbEntity
  8
0
  6
Continuous
 62
     2
100
AcDbCircle
 10
-156.8613762239596
 20
-300.404584417728
 30
0.0
 40
0.7717997786795351
100
AcDbArc
 50
321.8795802028432
 51
38.1204197971668
  0
CIRCLE
  5
24D
330
7D
100
AcDbEntity
  8
1
  6
Continuous
 62
     2
100
AcDbCircle
 10
-159.5163693363571
 20
-288.0999891796497
 30
0.0
 40
2.5
  0
CIRCLE
  5
24E
330
7D
100
AcDbEntity
  8
1
  6
Continuous
 62
     2
100
AcDbCircle
 10
-159.5163693363571
 20
-288.0999891796497
 30
0.0
 40
1.25
  0
CIRCLE
  5
24F
102
{ACAD_REACTORS
330
28C
330
28D
102
}
330
7D
100
AcDbEntity
  8
0
  6
Continuous
 62
     2
100
AcDbCircle
 10
-164.9725390704567
 20
-298.2616160234053
 30
0.0
 40
0.470978932778479
  0
MTEXT
  5
250
330
7D
100
AcDbEntity
  8
1
 62
     3
100
AcDbMText
 10
-439.2855463848165
 20
-309.1980750801484
 30
0.0
 40
1.8
 41
0.0
 71
     7
 72
     1
  3
Weitergabe sowie Vervielfältigung dieses Dokuments, Verwertung und\PMitteilung seines Inhalts sind verboten, soweit nicht ausdrücklich gestattet.\PZuwiderhandlungen verpflichten zu Schadenersatz. Alle Rechte für den Fall\Pder Patent-, Gebrauchsmuste
  1
r- oder Designeintragung vorbehalten.\PBauartbedingtes Spiel ist in den Toleranzangaben nicht berücksichtigt.
  7
CONVERTER_11
 11
0.0
 21
1.0
 31
0.0
 73
     1
 44
0.99639855942377
  0
MTEXT
  5
251
330
7D
100
AcDbEntity
  8
1
 62
     3
100
AcDbMText
 10
-439.4397526959104
 20
-136.2387050659953
 30
0.0
 40
1.8
 41
0.0
 71
     7
 72
     1
  3
Transfer or duplication of this document as well as the utilisation or\Pcommunication of its content are not permitted unless express consent\Pis granted. Violations give rise to claims for damages. All rights reserved\Pin case of patent, utility mo
  1
del or design patent registrations.\PTolerance specifications do not include clearances inherent in the design.
  7
CONVERTER_11
 11
0.0
 21
1.0
 31
0.0
 73
     1
 44
0.99639855942377
  0
TEXT
  5
252
330
7D
100
AcDbEntity
  8
1
 62
     2
100
AcDbText
 10
-153.0530242229198
 20
-307.9840063946411
 30
0.0
 40
1.8
  1
of
 41
0.9
  7
CONVERTER_11
100
AcDbText
  0
TEXT
  5
253
330
7D
100
AcDbEntity
  8
1
 62
     2
100
AcDbText
 10
-171.2530242229196
 20
-307.9840063946413
 30
0.0
 40
1.8
  1
page
 41
0.9
  7
CONVERTER_11
100
AcDbText
  0
TEXT
  5
254
330
7D
100
AcDbEntity
  8
1
 62
     2
100
AcDbText
 10
-162.6067592525776
 20
-308.0242378334515
 30
0.0
 40
1.8
  1
1
 41
0.9
  7
CONVERTER_11
100
AcDbText
  0
TEXT
  5
255
330
7D
100
AcDbEntity
  8
1
 62
     2
100
AcDbText
 10
-147.8177154131061
 20
-307.9749891796496
 30
0.0
 40
1.8
  1
1
 41
0.9
  7
CONVERTER_11
100
AcDbText
  0
MTEXT
  5
257
330
7D
100
AcDbEntity
  8
1
 62
     7
100
AcDbMText
 10
-89.28062195954419
 20
-305.9749891796494
 30
0.0
 40
3.0
 41
0.0
 71
     5
 72
     1
  1
VS-25-BU-DSUB-4P-5S-LH
  7
CONVERTER_12
 73
     1
 44
1.20048019207683
  0
MTEXT
  5
258
330
7D
100
AcDbEntity
  8
1
 62
     2
100
AcDbMText
 10
-134.8530242229197
 20
-301.7249891796496
 30
0.0
 40
1.8
 41
0.0
 71
     1
 72
     1
  1
description
  7
CONVERTER_11
 73
     1
 44
1.20048019207683
  0
MTEXT
  5
259
330
7D
100
AcDbEntity
  8
1
 62
     3
100
AcDbMText
 10
-146.0530242229197
 20
-288.0999891796496
 30
0.0
 40
2.5
 41
0.0
 71
     5
 72
     1
  1
DIN A3
  7
CONVERTER_11
 73
     1
 44
1.20048019207683
  0
MTEXT
  5
25A
330
7D
100
AcDbEntity
  8
1
 62
     2
100
AcDbMText
 10
-78.7266279778472
 20
-292.2249891796496
 30
0.0
 40
1.5
 41
0.0
 71
     4
 72
     1
  1
- Simplified representation\P- Document excluded\P  from change process\P- Linear dimensions [mm]\P- EN ISO 291  23/50
  7
CONVERTER_11
 73
     1
 44
1.20048019207683
  0
MTEXT
  5
25B
330
7D
100
AcDbEntity
  8
1
 62
     2
100
AcDbMText
 10
-88.1266279778472
 20
-284.7249891796496
 30
0.0
 40
1.8
 41
0.0
 71
     1
 72
     1
  1
scale
  7
CONVERTER_11
 73
     1
 44
1.20048019207683
  0
MTEXT
  5
25D
330
7D
100
AcDbEntity
  8
1
 62
     3
100
AcDbMText
 10
-84.9674238370077
 20
-290.9249891796495
 30
0.0
 40
2.5
 41
0.0
 71
     8
 72
     1
  1
5:1
  7
CONVERTER_13
 73
     1
 44
1.32052821128451
  0
TEXT
  5
25E
330
7D
100
AcDbEntity
  8
1
 62
     7
100
AcDbText
 10
-134.7530242229197
 20
-290.9249891796496
 30
0.0
 40
2.5
  1
01302131
 41
0.81
  7
CONVERTER_12
100
AcDbText
  0
MTEXT
  5
260
330
7D
100
AcDbEntity
  8
1
 62
     2
100
AcDbMText
 10
-134.7530242229197
 20
-284.7249891796496
 30
0.0
 40
1.8
 41
0.0
 71
     1
 72
     1
  1
document-No. / RI
  7
CONVERTER_14
 73
     1
 44
1.32052821128451
  0
TEXT
  5
261
330
7D
100
AcDbEntity
  8
1
 62
     3
100
AcDbText
 10
-134.8530242229197
 20
-299.4249891796496
 30
0.0
 40
2.5
  1
 
 41
0.81
  7
CONVERTER_12
100
AcDbText
  0
MTEXT
  5
262
330
7D
100
AcDbEntity
  8
1
 62
     2
100
AcDbMText
 10
-134.8530242229197
 20
-293.2249891796496
 30
0.0
 40
1.8
 41
0.0
 71
     1
 72
     1
  1
document-type
  7
CONVERTER_11
 73
     1
 44
1.20048019207683
  0
MTEXT
  5
263
330
7D
100
AcDbEntity
  8
1
 62
     2
100
AcDbMText
 10
-108.6266279778468
 20
-284.7249891796496
 30
0.0
 40
1.8
 41
0.0
 71
     1
 72
     1
  1
date
  7
CONVERTER_11
 73
     1
 44
1.32052821128451
  0
TEXT
  5
264
330
7D
100
AcDbEntity
  8
1
 62
     3
100
AcDbText
 10
-108.6266279778468
 20
-290.9249891796496
 30
0.0
 40
2.5
  1
28.10.2020
 41
0.81
  7
CONVERTER_12
100
AcDbText
  0
TEXT
  5
265
330
7D
100
AcDbEntity
  8
1
 62
     7
100
AcDbText
 10
-114.7231120038639
 20
-290.9249891796496
 30
0.0
 40
2.5
  1
00
 41
0.81
  7
CONVERTER_12
100
AcDbText
  0
TEXT
  5
266
330
7D
100
AcDbEntity
  8
1
 62
     7
100
AcDbText
 10
-116.8794765009059
 20
-290.9249891796496
 30
0.0
 40
2.5
  1
/
 41
0.9
  7
CONVERTER_11
100
AcDbText
  0
TEXT
  5
267
330
7D
100
AcDbEntity
  8
1
 62
     7
100
AcDbText
 10
-419.7082196961694
 20
-21.22498917964879
 30
0.0
 40
2.5
  1
1
 41
0.9
  7
CONVERTER_11
100
AcDbText
  0
TEXT
  5
268
330
7D
100
AcDbEntity
  8
1
 62
     7
100
AcDbText
 10
-351.3748863628363
 20
-21.22498917964879
 30
0.0
 40
2.5
  1
2
 41
0.9
  7
CONVERTER_11
100
AcDbText
  0
TEXT
  5
269
330
7D
100
AcDbEntity
  8
1
 62
     7
100
AcDbText
 10
-283.0415530295028
 20
-21.22498917964879
 30
0.0
 40
2.5
  1
3
 41
0.9
  7
CONVERTER_11
100
AcDbText
  0
TEXT
  5
26A
330
7D
100
AcDbEntity
  8
1
 62
     7
100
AcDbText
 10
-214.7082196961697
 20
-21.22498917964879
 30
0.0
 40
2.5
  1
4
 41
0.9
  7
CONVERTER_11
100
AcDbText
  0
TEXT
  5
26B
330
7D
100
AcDbEntity
  8
1
 62
     7
100
AcDbText
 10
-146.3748863628363
 20
-21.22498917964879
 30
0.0
 40
2.5
  1
5
 41
0.9
  7
CONVERTER_11
100
AcDbText
  0
TEXT
  5
26C
330
7D
100
AcDbEntity
  8
1
 62
     7
100
AcDbText
 10
-78.04155302950306
 20
-21.22498917964879
 30
0.0
 40
2.5
  1
6
 41
0.9
  7
CONVERTER_11
100
AcDbText
  0
TEXT
  5
26D
330
7D
100
AcDbEntity
  8
1
 62
     7
100
AcDbText
 10
-41.70821969616969
 20
-52.12498917964911
 30
0.0
 40
2.5
  1
A
 41
0.9
  7
CONVERTER_11
100
AcDbText
  0
TEXT
  5
26E
330
7D
100
AcDbEntity
  8
1
 62
     7
100
AcDbText
 10
-41.70821969616969
 20
-109.524989179649
 30
0.0
 40
2.5
  1
B
 41
0.9
  7
CONVERTER_11
100
AcDbText
  0
TEXT
  5
26F
330
7D
100
AcDbEntity
  8
1
 62
     7
100
AcDbText
 10
-41.70821969616969
 20
-166.9249891796488
 30
0.0
 40
2.5
  1
C
 41
0.9
  7
CONVERTER_11
100
AcDbText
  0
TEXT
  5
270
330
7D
100
AcDbEntity
  8
1
 62
     7
100
AcDbText
 10
-41.70821969616969
 20
-224.3249891796489
 30
0.0
 40
2.5
  1
D
 41
0.9
  7
CONVERTER_11
100
AcDbText
  0
TEXT
  5
271
330
7D
100
AcDbEntity
  8
1
 62
     7
100
AcDbText
 10
-351.3748863628363
 20
-313.224989179649
 30
0.0
 40
2.5
  1
2
 41
0.9
  7
CONVERTER_11
100
AcDbText
  0
TEXT
  5
272
330
7D
100
AcDbEntity
  8
1
 62
     7
100
AcDbText
 10
-419.7082196961694
 20
-313.224989179649
 30
0.0
 40
2.5
  1
1
 41
0.9
  7
CONVERTER_11
100
AcDbText
  0
TEXT
  5
273
330
7D
100
AcDbEntity
  8
1
 62
     7
100
AcDbText
 10
-41.70821969616969
 20
-281.724989179649
 30
0.0
 40
2.5
  1
E
 41
0.9
  7
CONVERTER_11
100
AcDbText
  0
TEXT
  5
274
330
7D
100
AcDbEntity
  8
1
 62
     7
100
AcDbText
 10
-283.0415530295028
 20
-313.224989179649
 30
0.0
 40
2.5
  1
3
 41
0.9
  7
CONVERTER_11
100
AcDbText
  0
TEXT
  5
275
330
7D
100
AcDbEntity
  8
1
 62
     7
100
AcDbText
 10
-214.7082196961697
 20
-313.224989179649
 30
0.0
 40
2.5
  1
4
 41
0.9
  7
CONVERTER_11
100
AcDbText
  0
TEXT
  5
276
330
7D
100
AcDbEntity
  8
1
 62
     7
100
AcDbText
 10
-146.3748863628365
 20
-313.224989179649
 30
0.0
 40
2.5
  1
5
 41
0.9
  7
CONVERTER_11
100
AcDbText
  0
TEXT
  5
277
330
7D
100
AcDbEntity
  8
1
 62
     7
100
AcDbText
 10
-78.04155302950306
 20
-313.224989179649
 30
0.0
 40
2.5
  1
6
 41
0.9
  7
CONVERTER_11
100
AcDbText
  0
HATCH
  5
278
330
7D
100
AcDbEntity
  8
1
  6
Continuous
 62
     2
100
AcDbHatch
 10
0.0
 20
0.0
 30
0.0
210
0.0
220
0.0
230
1.0
  2
CUSTOM0
 70
     0
 71
     1
 91
        1
 92
        1
 93
       12
 72
     1
 10
-154.5855235099585
 20
-298.5722987034589
 11
-155.778316212125
 21
-298.5722987034589
 72
     1
 10
-155.778316212125
 20
-298.5722987034589
 11
-155.778316212125
 21
-297.4380265946152
 72
     1
 10
-155.778316212125
 20
-297.4380265946152
 11
-156.8279737900324
 21
-297.4380265946152
 72
     1
 10
-156.8279737900324
 20
-297.4380265946152
 11
-156.8279737900324
 21
-298.5722987034589
 72
     1
 10
-156.8279737900324
 20
-298.5722987034589
 11
-158.020766492199
 21
-298.5722987034589
 72
     1
 10
-158.020766492199
 20
-298.5722987034589
 11
-158.020766492199
 21
-295.5184891796478
 72
     1
 10
-158.020766492199
 20
-295.5184891796478
 11
-156.8279737900324
 21
-295.5184891796478
 72
     1
 10
-156.8279737900324
 20
-295.5184891796478
 11
-156.8279737900324
 21
-296.5873225129824
 72
     1
 10
-156.8279737900324
 20
-296.5873225129824
 11
-155.778316212125
 21
-296.5873225129824
 72
     1
 10
-155.778316212125
 20
-296.5873225129824
 11
-155.778316212125
 21
-295.5184891796478
 72
     1
 10
-155.778316212125
 20
-295.5184891796478
 11
-154.5855235099585
 21
-295.5184891796478
 72
     1
 10
-154.5855235099585
 20
-295.5184891796478
 11
-154.5855235099585
 21
-298.5722987034589
 97
       12
330
1AB
330
1AC
330
196
330
195
330
194
330
1A8
330
193
330
1A9
330
1AA
330
192
330
191
330
190
 75
     1
 76
     2
 52
45.0
 41
0.1
 77
     0
 78
     1
 53
45.0
 43
62.7811309658083
 44
-72.3161373035813
 45
-0.1414213562373095
 46
0.0
 79
     0
 98
        1
 10
0.0
 20
0.0
  0
HATCH
  5
279
330
7D
100
AcDbEntity
  8
1
  6
Continuous
 62
     2
100
AcDbHatch
 10
0.0
 20
0.0
 30
0.0
210
0.0
220
0.0
230
1.0
  2
CUSTOM1
 70
     0
 71
     1
 91
        1
 92
        1
 93
       12
 72
     1
 10
-154.5855235099585
 20
-298.5722987034589
 11
-155.778316212125
 21
-298.5722987034589
 72
     1
 10
-155.778316212125
 20
-298.5722987034589
 11
-155.778316212125
 21
-297.4380265946152
 72
     1
 10
-155.778316212125
 20
-297.4380265946152
 11
-156.8279737900324
 21
-297.4380265946152
 72
     1
 10
-156.8279737900324
 20
-297.4380265946152
 11
-156.8279737900324
 21
-298.5722987034589
 72
     1
 10
-156.8279737900324
 20
-298.5722987034589
 11
-158.020766492199
 21
-298.5722987034589
 72
     1
 10
-158.020766492199
 20
-298.5722987034589
 11
-158.020766492199
 21
-295.5184891796478
 72
     1
 10
-158.020766492199
 20
-295.5184891796478
 11
-156.8279737900324
 21
-295.5184891796478
 72
     1
 10
-156.8279737900324
 20
-295.5184891796478
 11
-156.8279737900324
 21
-296.5873225129824
 72
     1
 10
-156.8279737900324
 20
-296.5873225129824
 11
-155.778316212125
 21
-296.5873225129824
 72
     1
 10
-155.778316212125
 20
-296.5873225129824
 11
-155.778316212125
 21
-295.5184891796478
 72
     1
 10
-155.778316212125
 20
-295.5184891796478
 11
-154.5855235099585
 21
-295.5184891796478
 72
     1
 10
-154.5855235099585
 20
-295.5184891796478
 11
-154.5855235099585
 21
-298.5722987034589
 97
       12
330
1AB
330
1AC
330
196
330
195
330
194
330
1A8
330
193
330
1A9
330
1AA
330
192
330
191
330
190
 75
     1
 76
     2
 52
45.0
 41
0.1
 77
     0
 78
     1
 53
45.0
 43
62.7811309658083
 44
-72.3161373035813
 45
-0.1414213562373095
 46
0.0
 79
     0
 98
        1
 10
0.0
 20
0.0
  0
HATCH
  5
27A
330
7D
100
AcDbEntity
  8
1
  6
Continuous
 62
     2
100
AcDbHatch
 10
0.0
 20
0.0
 30
0.0
210
0.0
220
0.0
230
1.0
  2
CUSTOM2
 70
     0
 71
     1
 91
        1
 92
        1
 93
       10
 72
     1
 10
-152.3432241607702
 20
-300.1864551660273
 11
-153.5837285710232
 21
-298.8776796558221
 72
     1
 10
-153.5837285710232
 20
-298.8776796558221
 11
-154.7765212731907
 21
-298.8776796558221
 72
     1
 10
-154.7765212731907
 20
-298.8776796558221
 11
-154.7765212731907
 21
-301.9314891796332
 72
     1
 10
-154.7765212731907
 20
-301.9314891796332
 11
-153.5837285710232
 21
-301.9314891796332
 72
     1
 10
-153.5837285710232
 20
-301.9314891796332
 11
-153.5837285710232
 21
-300.6227136694287
 72
     1
 10
-153.5837285710232
 20
-300.6227136694287
 11
-152.3432241607702
 21
-301.9314891796332
 72
     1
 10
-152.3432241607702
 20
-301.9314891796332
 11
-151.1504314586038
 21
-301.9314891796332
 72
     1
 10
-151.1504314586038
 20
-301.9314891796332
 11
-151.1504314586038
 21
-298.8776796558221
 72
     1
 10
-151.1504314586038
 20
-298.8776796558221
 11
-152.3432241607702
 21
-298.8776796558221
 72
     1
 10
-152.3432241607702
 20
-298.8776796558221
 11
-152.3432241607702
 21
-300.1864551660273
 97
       10
330
1B9
330
189
330
188
330
18B
330
1B4
330
1B5
330
18A
330
1B6
330
1B7
330
1B8
 75
     1
 76
     2
 52
45.0
 41
0.1
 77
     0
 78
     1
 53
45.0
 43
62.7811309658083
 44
-72.3161373035813
 45
-0.1414213562373095
 46
0.0
 79
     0
 98
        1
 10
0.0
 20
0.0
  0
HATCH
  5
27B
330
7D
100
AcDbEntity
  8
1
  6
Continuous
 62
     2
100
AcDbHatch
 10
0.0
 20
0.0
 30
0.0
210
0.0
220
0.0
230
1.0
  2
CUSTOM3
 70
     0
 71
     1
 91
        1
 92
        1
 93
       10
 72
     1
 10
-152.3432241607702
 20
-300.1864551660273
 11
-153.5837285710232
 21
-298.8776796558221
 72
     1
 10
-153.5837285710232
 20
-298.8776796558221
 11
-154.7765212731907
 21
-298.8776796558221
 72
     1
 10
-154.7765212731907
 20
-298.8776796558221
 11
-154.7765212731907
 21
-301.9314891796332
 72
     1
 10
-154.7765212731907
 20
-301.9314891796332
 11
-153.5837285710232
 21
-301.9314891796332
 72
     1
 10
-153.5837285710232
 20
-301.9314891796332
 11
-153.5837285710232
 21
-300.6227136694287
 72
     1
 10
-153.5837285710232
 20
-300.6227136694287
 11
-152.3432241607702
 21
-301.9314891796332
 72
     1
 10
-152.3432241607702
 20
-301.9314891796332
 11
-151.1504314586038
 21
-301.9314891796332
 72
     1
 10
-151.1504314586038
 20
-301.9314891796332
 11
-151.1504314586038
 21
-298.8776796558221
 72
     1
 10
-151.1504314586038
 20
-298.8776796558221
 11
-152.3432241607702
 21
-298.8776796558221
 72
     1
 10
-152.3432241607702
 20
-298.8776796558221
 11
-152.3432241607702
 21
-300.1864551660273
 97
       10
330
1B9
330
189
330
188
330
18B
330
1B4
330
1B5
330
18A
330
1B6
330
1B7
330
1B8
 75
     1
 76
     2
 52
45.0
 41
0.1
 77
     0
 78
     1
 53
45.0
 43
62.7811309658083
 44
-72.3161373035813
 45
-0.1414213562373095
 46
0.0
 79
     0
 98
        1
 10
0.0
 20
0.0
  0
HATCH
  5
27C
330
7D
100
AcDbEntity
  8
1
  6
Continuous
 62
     2
100
AcDbHatch
 10
0.0
 20
0.0
 30
0.0
210
0.0
220
0.0
230
1.0
  2
CUSTOM4
 70
     0
 71
     1
 91
        1
 92
        1
 93
       10
 72
     1
 10
-147.0947853403505
 20
-296.8272646898529
 11
-148.3352897506046
 21
-295.5184891796478
 72
     1
 10
-148.3352897506046
 20
-295.5184891796478
 11
-149.528082452771
 21
-295.5184891796478
 72
     1
 10
-149.528082452771
 20
-295.5184891796478
 11
-149.528082452771
 21
-298.5722987034589
 72
     1
 10
-149.528082452771
 20
-298.5722987034589
 11
-148.3352897506046
 21
-298.5722987034589
 72
     1
 10
-148.3352897506046
 20
-298.5722987034589
 11
-148.3352897506046
 21
-297.2635231932542
 72
     1
 10
-148.3352897506046
 20
-297.2635231932542
 11
-147.0947853403505
 21
-298.5722987034589
 72
     1
 10
-147.0947853403505
 20
-298.5722987034589
 11
-145.9019926381839
 21
-298.5722987034589
 72
     1
 10
-145.9019926381839
 20
-298.5722987034589
 11
-145.9019926381839
 21
-295.5184891796478
 72
     1
 10
-145.9019926381839
 20
-295.5184891796478
 11
-147.0947853403505
 21
-295.5184891796478
 72
     1
 10
-147.0947853403505
 20
-295.5184891796478
 11
-147.0947853403505
 21
-296.8272646898529
 97
       10
330
1BE
330
186
330
185
330
1BF
330
184
330
1BA
330
1BB
330
1BC
330
1BD
330
187
 75
     1
 76
     2
 52
45.0
 41
0.1
 77
     0
 78
     1
 53
45.0
 43
62.7811309658083
 44
-72.3161373035813
 45
-0.1414213562373095
 46
0.0
 79
     0
 98
        1
 10
0.0
 20
0.0
  0
HATCH
  5
27D
330
7D
100
AcDbEntity
  8
1
  6
Continuous
 62
     2
100
AcDbHatch
 10
0.0
 20
0.0
 30
0.0
210
0.0
220
0.0
230
1.0
  2
CUSTOM5
 70
     0
 71
     1
 91
        1
 92
        1
 93
       10
 72
     1
 10
-147.0947853403505
 20
-296.8272646898529
 11
-148.3352897506046
 21
-295.5184891796478
 72
     1
 10
-148.3352897506046
 20
-295.5184891796478
 11
-149.528082452771
 21
-295.5184891796478
 72
     1
 10
-149.528082452771
 20
-295.5184891796478
 11
-149.528082452771
 21
-298.5722987034589
 72
     1
 10
-149.528082452771
 20
-298.5722987034589
 11
-148.3352897506046
 21
-298.5722987034589
 72
     1
 10
-148.3352897506046
 20
-298.5722987034589
 11
-148.3352897506046
 21
-297.2635231932542
 72
     1
 10
-148.3352897506046
 20
-297.2635231932542
 11
-147.0947853403505
 21
-298.5722987034589
 72
     1
 10
-147.0947853403505
 20
-298.5722987034589
 11
-145.9019926381839
 21
-298.5722987034589
 72
     1
 10
-145.9019926381839
 20
-298.5722987034589
 11
-145.9019926381839
 21
-295.5184891796478
 72
     1
 10
-145.9019926381839
 20
-295.5184891796478
 11
-147.0947853403505
 21
-295.5184891796478
 72
     1
 10
-147.0947853403505
 20
-295.5184891796478
 11
-147.0947853403505
 21
-296.8272646898529
 97
       10
330
1BE
330
186
330
185
330
1BF
330
184
330
1BA
330
1BB
330
1BC
330
1BD
330
187
 75
     1
 76
     2
 52
45.0
 41
0.1
 77
     0
 78
     1
 53
45.0
 43
62.7811309658083
 44
-72.3161373035813
 45
-0.1414213562373095
 46
0.0
 79
     0
 98
        1
 10
0.0
 20
0.0
  0
HATCH
  5
27E
330
7D
100
AcDbEntity
  8
1
  6
Continuous
 62
     2
100
AcDbHatch
 10
0.0
 20
0.0
 30
0.0
210
0.0
220
0.0
230
1.0
  2
CUSTOM6
 70
     0
 71
     1
 91
        1
 92
        1
 93
        8
 72
     1
 10
-148.19230555723
 20
-298.8776796558221
 11
-151.0072963343437
 21
-298.8776796558221
 72
     1
 10
-151.0072963343437
 20
-298.8776796558221
 11
-151.0072963343437
 21
-299.6629449619458
 72
     1
 10
-151.0072963343437
 20
-299.6629449619458
 11
-150.196197296869
 21
-299.6629449619458
 72
     1
 10
-150.196197296869
 20
-299.6629449619458
 11
-150.196197296869
 21
-301.9314891796332
 72
     1
 10
-150.196197296869
 20
-301.9314891796332
 11
-149.0034045947026
 21
-301.9314891796332
 72
     1
 10
-149.0034045947026
 20
-301.9314891796332
 11
-149.0034045947026
 21
-299.6629449619458
 72
     1
 10
-149.0034045947026
 20
-299.6629449619458
 11
-148.19230555723
 21
-299.6629449619458
 72
     1
 10
-148.19230555723
 20
-299.6629449619458
 11
-148.19230555723
 21
-298.8776796558221
 97
        8
330
180
330
1C0
330
17F
330
1C1
330
1C2
330
183
330
182
330
181
 75
     1
 76
     2
 52
45.0
 41
0.1
 77
     0
 78
     1
 53
45.0
 43
62.7811309658083
 44
-72.3161373035813
 45
-0.1414213562373095
 46
0.0
 79
     0
 98
        1
 10
0.0
 20
0.0
  0
HATCH
  5
27F
330
7D
100
AcDbEntity
  8
1
  6
Continuous
 62
     2
100
AcDbHatch
 10
0.0
 20
0.0
 30
0.0
210
0.0
220
0.0
230
1.0
  2
CUSTOM7
 70
     0
 71
     1
 91
        1
 92
        1
 93
        8
 72
     1
 10
-148.19230555723
 20
-298.8776796558221
 11
-151.0072963343437
 21
-298.8776796558221
 72
     1
 10
-151.0072963343437
 20
-298.8776796558221
 11
-151.0072963343437
 21
-299.6629449619458
 72
     1
 10
-151.0072963343437
 20
-299.6629449619458
 11
-150.196197296869
 21
-299.6629449619458
 72
     1
 10
-150.196197296869
 20
-299.6629449619458
 11
-150.196197296869
 21
-301.9314891796332
 72
     1
 10
-150.196197296869
 20
-301.9314891796332
 11
-149.0034045947026
 21
-301.9314891796332
 72
     1
 10
-149.0034045947026
 20
-301.9314891796332
 11
-149.0034045947026
 21
-299.6629449619458
 72
     1
 10
-149.0034045947026
 20
-299.6629449619458
 11
-148.19230555723
 21
-299.6629449619458
 72
     1
 10
-148.19230555723
 20
-299.6629449619458
 11
-148.19230555723
 21
-298.8776796558221
 97
        8
330
180
330
1C0
330
17F
330
1C1
330
1C2
330
183
330
182
330
181
 75
     1
 76
     2
 52
45.0
 41
0.1
 77
     0
 78
     1
 53
45.0
 43
62.7811309658083
 44
-72.3161373035813
 45
-0.1414213562373095
 46
0.0
 79
     0
 98
        1
 10
0.0
 20
0.0
  0
HATCH
  5
280
330
7D
100
AcDbEntity
  8
1
  6
Continuous
 62
     2
100
AcDbHatch
 10
0.0
 20
0.0
 30
0.0
210
0.0
220
0.0
230
1.0
  2
CUSTOM8
 70
     0
 71
     1
 91
        2
 92
        1
 93
        8
 72
     1
 10
-146.053878101283
 20
-301.9314891796332
 11
-146.2653581547588
 21
-301.3905286354154
 72
     1
 10
-146.2653581547588
 20
-301.3905286354154
 11
-147.3977997314327
 21
-301.3905286354154
 72
     1
 10
-147.3977997314327
 20
-301.3905286354154
 11
-147.6092797849085
 21
-301.9314891796332
 72
     1
 10
-147.6092797849085
 20
-301.9314891796332
 11
-148.8497841951614
 21
-301.9314891796332
 72
     1
 10
-148.8497841951614
 20
-301.9314891796332
 11
-147.4518311482222
 21
-298.8776796558221
 72
     1
 10
-147.4518311482222
 20
-298.8776796558221
 11
-146.2113267379694
 21
-298.8776796558221
 72
     1
 10
-146.2113267379694
 20
-298.8776796558221
 11
-144.8133736910291
 21
-301.9314891796332
 72
     1
 10
-144.8133736910291
 20
-301.9314891796332
 11
-146.053878101283
 21
-301.9314891796332
 97
        8
330
1C4
330
1C5
330
17C
330
1C6
330
17B
330
17E
330
1C3
330
17D
 92
       16
 93
        3
 72
     1
 10
-147.1317441802876
 20
-300.7099653701088
 11
-146.8315789430953
 21
-299.9421504041221
 72
     1
 10
-146.8315789430953
 20
-299.9421504041221
 11
-146.5314137059051
 21
-300.7099653701088
 72
     1
 10
-146.5314137059051
 20
-300.7099653701088
 11
-147.1317441802876
 21
-300.7099653701088
 97
        3
330
17A
330
1C8
330
1C7
 75
     1
 76
     2
 52
45.0
 41
0.1
 77
     0
 78
     1
 53
45.0
 43
62.7811309658083
 44
-72.3161373035813
 45
-0.1414213562373095
 46
0.0
 79
     0
 98
        1
 10
0.0
 20
0.0
  0
HATCH
  5
281
330
7D
100
AcDbEntity
  8
1
  6
Continuous
 62
     2
100
AcDbHatch
 10
0.0
 20
0.0
 30
0.0
210
0.0
220
0.0
230
1.0
  2
CUSTOM9
 70
     0
 71
     1
 91
        2
 92
        1
 93
        8
 72
     1
 10
-146.053878101283
 20
-301.9314891796332
 11
-146.2653581547588
 21
-301.3905286354154
 72
     1
 10
-146.2653581547588
 20
-301.3905286354154
 11
-147.3977997314327
 21
-301.3905286354154
 72
     1
 10
-147.3977997314327
 20
-301.3905286354154
 11
-147.6092797849085
 21
-301.9314891796332
 72
     1
 10
-147.6092797849085
 20
-301.9314891796332
 11
-148.8497841951614
 21
-301.9314891796332
 72
     1
 10
-148.8497841951614
 20
-301.9314891796332
 11
-147.4518311482222
 21
-298.8776796558221
 72
     1
 10
-147.4518311482222
 20
-298.8776796558221
 11
-146.2113267379694
 21
-298.8776796558221
 72
     1
 10
-146.2113267379694
 20
-298.8776796558221
 11
-144.8133736910291
 21
-301.9314891796332
 72
     1
 10
-144.8133736910291
 20
-301.9314891796332
 11
-146.053878101283
 21
-301.9314891796332
 97
        8
330
1C4
330
1C5
330
17C
330
1C6
330
17B
330
17E
330
1C3
330
17D
 92
       16
 93
        3
 72
     1
 10
-147.1317441802876
 20
-300.7099653701088
 11
-146.8315789430953
 21
-299.9421504041221
 72
     1
 10
-146.8315789430953
 20
-299.9421504041221
 11
-146.5314137059051
 21
-300.7099653701088
 72
     1
 10
-146.5314137059051
 20
-300.7099653701088
 11
-147.1317441802876
 21
-300.7099653701088
 97
        3
330
17A
330
1C8
330
1C7
 75
     1
 76
     2
 52
45.0
 41
0.1
 77
     0
 78
     1
 53
45.0
 43
62.7811309658083
 44
-72.3161373035813
 45
-0.1414213562373095
 46
0.0
 79
     0
 98
        1
 10
0.0
 20
0.0
  0
HATCH
  5
282
330
7D
100
AcDbEntity
  8
1
  6
Continuous
 62
     2
100
AcDbHatch
 10
0.0
 20
0.0
 30
0.0
210
0.0
220
0.0
230
1.0
  2
CUSTOM10
 70
     0
 71
     1
 91
        1
 92
        1
 93
        4
 72
     1
 10
-144.4229296874971
 20
-298.5722987034589
 11
-145.66343409775
 21
-298.5722987034589
 72
     1
 10
-145.66343409775
 20
-298.5722987034589
 11
-145.66343409775
 21
-295.5184891796478
 72
     1
 10
-145.66343409775
 20
-295.5184891796478
 11
-144.4229296874971
 21
-295.5184891796478
 72
     1
 10
-144.4229296874971
 20
-295.5184891796478
 11
-144.4229296874971
 21
-298.5722987034589
 97
        4
330
177
330
179
330
1C9
330
178
 75
     1
 76
     2
 52
45.0
 41
0.1
 77
     0
 78
     1
 53
45.0
 43
62.7811309658083
 44
-72.3161373035813
 45
-0.1414213562373095
 46
0.0
 79
     0
 98
        1
 10
0.0
 20
0.0
  0
HATCH
  5
283
330
7D
100
AcDbEntity
  8
1
  6
Continuous
 62
     2
100
AcDbHatch
 10
0.0
 20
0.0
 30
0.0
210
0.0
220
0.0
230
1.0
  2
CUSTOM11
 70
     0
 71
     1
 91
        1
 92
        1
 93
        4
 72
     1
 10
-144.4229296874971
 20
-298.5722987034589
 11
-145.66343409775
 21
-298.5722987034589
 72
     1
 10
-145.66343409775
 20
-298.5722987034589
 11
-145.66343409775
 21
-295.5184891796478
 72
     1
 10
-145.66343409775
 20
-295.5184891796478
 11
-144.4229296874971
 21
-295.5184891796478
 72
     1
 10
-144.4229296874971
 20
-295.5184891796478
 11
-144.4229296874971
 21
-298.5722987034589
 97
        4
330
177
330
179
330
1C9
330
178
 75
     1
 76
     2
 52
45.0
 41
0.1
 77
     0
 78
     1
 53
45.0
 43
62.7811309658083
 44
-72.3161373035813
 45
-0.1414213562373095
 46
0.0
 79
     0
 98
        1
 10
0.0
 20
0.0
  0
HATCH
  5
284
330
7D
100
AcDbEntity
  8
1
  6
Continuous
 62
     2
100
AcDbHatch
 10
0.0
 20
0.0
 30
0.0
210
0.0
220
0.0
230
1.0
  2
CUSTOM12
 70
     0
 71
     1
 91
        1
 92
        1
 93
       12
 72
     1
 10
-140.2004435218263
 20
-295.5184891796478
 11
-141.5029731525929
 21
-296.991439709684
 72
     1
 10
-141.5029731525929
 20
-296.991439709684
 11
-140.1050201056526
 21
-298.5722987034589
 72
     1
 10
-140.1050201056526
 20
-298.5722987034589
 11
-141.5077443234009
 21
-298.5722987034589
 72
     1
 10
-141.5077443234009
 20
-298.5722987034589
 11
-142.2043352614663
 21
-297.7845669181652
 72
     1
 10
-142.2043352614663
 20
-297.7845669181652
 11
-142.9009261995321
 21
-298.5722987034589
 72
     1
 10
-142.9009261995321
 20
-298.5722987034589
 11
-144.3036504172802
 21
-298.5722987034589
 72
     1
 10
-144.3036504172802
 20
-298.5722987034589
 11
-142.9056973703399
 21
-296.991439709684
 72
     1
 10
-142.9056973703399
 20
-296.991439709684
 11
-144.2082270011074
 21
-295.5184891796478
 72
     1
 10
-144.2082270011074
 20
-295.5184891796478
 11
-142.8055027833582
 21
-295.5184891796478
 72
     1
 10
-142.8055027833582
 20
-295.5184891796478
 11
-142.2043352614663
 21
-296.1983125012033
 72
     1
 10
-142.2043352614663
 20
-296.1983125012033
 11
-141.6031677395735
 21
-295.5184891796478
 72
     1
 10
-141.6031677395735
 20
-295.5184891796478
 11
-140.2004435218263
 21
-295.5184891796478
 97
       12
330
172
330
171
330
170
330
1CD
330
1CE
330
1CA
330
1CB
330
176
330
175
330
174
330
173
330
1CC
 75
     1
 76
     2
 52
45.0
 41
0.1
 77
     0
 78
     1
 53
45.0
 43
62.7811309658083
 44
-72.3161373035813
 45
-0.1414213562373095
 46
0.0
 79
     0
 98
        1
 10
0.0
 20
0.0
  0
HATCH
  5
285
330
7D
100
AcDbEntity
  8
1
  6
Continuous
 62
     2
100
AcDbHatch
 10
0.0
 20
0.0
 30
0.0
210
0.0
220
0.0
230
1.0
  2
CUSTOM13
 70
     0
 71
     1
 91
        1
 92
        1
 93
       12
 72
     1
 10
-140.2004435218263
 20
-295.5184891796478
 11
-141.5029731525929
 21
-296.991439709684
 72
     1
 10
-141.5029731525929
 20
-296.991439709684
 11
-140.1050201056526
 21
-298.5722987034589
 72
     1
 10
-140.1050201056526
 20
-298.5722987034589
 11
-141.5077443234009
 21
-298.5722987034589
 72
     1
 10
-141.5077443234009
 20
-298.5722987034589
 11
-142.2043352614663
 21
-297.7845669181652
 72
     1
 10
-142.2043352614663
 20
-297.7845669181652
 11
-142.9009261995321
 21
-298.5722987034589
 72
     1
 10
-142.9009261995321
 20
-298.5722987034589
 11
-144.3036504172802
 21
-298.5722987034589
 72
     1
 10
-144.3036504172802
 20
-298.5722987034589
 11
-142.9056973703399
 21
-296.991439709684
 72
     1
 10
-142.9056973703399
 20
-296.991439709684
 11
-144.2082270011074
 21
-295.5184891796478
 72
     1
 10
-144.2082270011074
 20
-295.5184891796478
 11
-142.8055027833582
 21
-295.5184891796478
 72
     1
 10
-142.8055027833582
 20
-295.5184891796478
 11
-142.2043352614663
 21
-296.1983125012033
 72
     1
 10
-142.2043352614663
 20
-296.1983125012033
 11
-141.6031677395735
 21
-295.5184891796478
 72
     1
 10
-141.6031677395735
 20
-295.5184891796478
 11
-140.2004435218263
 21
-295.5184891796478
 97
       12
330
172
330
171
330
170
330
1CD
330
1CE
330
1CA
330
1CB
330
176
330
175
330
174
330
173
330
1CC
 75
     1
 76
     2
 52
45.0
 41
0.1
 77
     0
 78
     1
 53
45.0
 43
62.7811309658083
 44
-72.3161373035813
 45
-0.1414213562373095
 46
0.0
 79
     0
 98
        1
 10
0.0
 20
0.0
  0
HATCH
  5
286
330
7D
100
AcDbEntity
  8
1
  6
Continuous
 62
     2
100
AcDbHatch
 10
0.0
 20
0.0
 30
0.0
210
0.0
220
0.0
230
1.0
  2
CUSTOM14
 70
     0
 71
     1
 91
        2
 92
        1
 93
        6
 72
     1
 10
-159.2181789359723
 20
-297.6292204623152
 11
-159.9769465237527
 21
-297.6292204623152
 72
     1
 10
-159.9769465237527
 20
-297.6292204623152
 11
-159.9769465237527
 21
-298.5722987034589
 72
     1
 10
-159.9769465237527
 20
-298.5722987034589
 11
-161.2174509340067
 21
-298.5722987034589
 72
     1
 10
-161.2174509340067
 20
-298.5722987034589
 11
-161.2174509340067
 21
-295.5184891796478
 72
     1
 10
-161.2174509340067
 20
-295.5184891796478
 11
-159.2181789359723
 21
-295.5184891796478
 72
     2
 10
-159.2181789359723
 20
-296.5738548209815
 40
1.055365641333651
 50
270.0
 51
450.0
 73
     0
 97
        6
330
19A
330
199
330
1A6
330
1A5
330
19B
330
224
 92
       16
 93
        4
 72
     2
 10
-159.6596514622107
 20
-296.534458849759
 40
0.3528638246710898
 50
270.0
 51
450.0
 73
     1
 72
     1
 10
-159.6596514622107
 20
-296.1815950250878
 11
-159.9769465237527
 21
-296.1815950250878
 72
     1
 10
-159.9769465237527
 20
-296.1815950250878
 11
-159.9769465237527
 21
-296.8873226744301
 72
     1
 10
-159.9769465237527
 20
-296.8873226744301
 11
-159.6596514622107
 21
-296.8873226744301
 97
        4
330
238
330
197
330
1A7
330
198
 75
     1
 76
     2
 52
45.0
 41
0.1
 77
     0
 78
     1
 53
45.0
 43
62.7811309658083
 44
-72.3161373035813
 45
-0.1414213562373095
 46
0.0
 79
     0
 98
        1
 10
0.0
 20
0.0
  0
HATCH
  5
287
330
7D
100
AcDbEntity
  8
1
  6
Continuous
 62
     2
100
AcDbHatch
 10
0.0
 20
0.0
 30
0.0
210
0.0
220
0.0
230
1.0
  2
CUSTOM15
 70
     0
 71
     1
 91
        2
 92
        1
 93
        6
 72
     1
 10
-159.2181789359723
 20
-297.6292204623152
 11
-159.9769465237527
 21
-297.6292204623152
 72
     1
 10
-159.9769465237527
 20
-297.6292204623152
 11
-159.9769465237527
 21
-298.5722987034589
 72
     1
 10
-159.9769465237527
 20
-298.5722987034589
 11
-161.2174509340067
 21
-298.5722987034589
 72
     1
 10
-161.2174509340067
 20
-298.5722987034589
 11
-161.2174509340067
 21
-295.5184891796478
 72
     1
 10
-161.2174509340067
 20
-295.5184891796478
 11
-159.2181789359723
 21
-295.5184891796478
 72
     2
 10
-159.2181789359723
 20
-296.5738548209815
 40
1.055365641333651
 50
270.0
 51
450.0
 73
     0
 97
        6
330
19A
330
199
330
1A6
330
1A5
330
19B
330
224
 92
       16
 93
        4
 72
     2
 10
-159.6596514622107
 20
-296.534458849759
 40
0.3528638246710898
 50
270.0
 51
450.0
 73
     1
 72
     1
 10
-159.6596514622107
 20
-296.1815950250878
 11
-159.9769465237527
 21
-296.1815950250878
 72
     1
 10
-159.9769465237527
 20
-296.1815950250878
 11
-159.9769465237527
 21
-296.8873226744301
 72
     1
 10
-159.9769465237527
 20
-296.8873226744301
 11
-159.6596514622107
 21
-296.8873226744301
 97
        4
330
238
330
197
330
1A7
330
198
 75
     1
 76
     2
 52
45.0
 41
0.1
 77
     0
 78
     1
 53
45.0
 43
62.7811309658083
 44
-72.3161373035813
 45
-0.1414213562373095
 46
0.0
 79
     0
 98
        1
 10
0.0
 20
0.0
  0
HATCH
  5
288
330
7D
100
AcDbEntity
  8
1
  6
Continuous
 62
     2
100
AcDbHatch
 10
0.0
 20
0.0
 30
0.0
210
0.0
220
0.0
230
1.0
  2
CUSTOM16
 70
     0
 71
     1
 91
        2
 92
        1
 93
        4
 72
     2
 10
-156.6616361876132
 20
-300.9431594280308
 40
2.065479772208694
 50
62.45185182430819
 51
117.5481481756674
 73
     1
 72
     2
 10
-156.9425760794466
 20
-300.404584417728
 40
1.458034083651616
 50
117.5481481756598
 51
242.451851824337
 73
     1
 72
     2
 10
-156.6616361876132
 20
-299.8660094074246
 40
2.065479772208637
 50
242.4518518243384
 51
297.548148175686
 73
     1
 72
     2
 10
-156.38069629578
 20
-300.404584417728
 40
1.45803408365203
 50
297.5481481757055
 51
422.4518518242976
 73
     1
 97
        4
330
230
330
22F
330
231
330
22E
 92
       16
 93
        4
 72
     2
 10
-156.8613762239596
 20
-300.404584417728
 40
0.7717997786795351
 50
321.8795802028432
 51
398.1204197971668
 73
     1
 72
     2
 10
-156.6616361876132
 20
-300.2478532396075
 40
0.5179085730132806
 50
38.12041979716469
 51
141.8795802028567
 73
     1
 72
     2
 10
-156.4618961512672
 20
-300.404584417728
 40
0.771799778679551
 50
141.879580202828
 51
218.120419797162
 73
     1
 72
     2
 10
-156.6616361876132
 20
-300.5613155958479
 40
0.5179085730138424
 50
218.1204197971879
 51
321.8795802027908
 73
     1
 97
        4
330
24C
330
249
330
24A
330
24B
 75
     1
 76
     2
 52
45.0
 41
0.1
 77
     0
 78
     1
 53
45.0
 43
62.7811309658083
 44
-72.3161373035813
 45
-0.1414213562373095
 46
0.0
 79
     0
 98
        1
 10
0.0
 20
0.0
  0
HATCH
  5
289
330
7D
100
AcDbEntity
  8
1
  6
Continuous
 62
     2
100
AcDbHatch
 10
0.0
 20
0.0
 30
0.0
210
0.0
220
0.0
230
1.0
  2
CUSTOM17
 70
     0
 71
     1
 91
        2
 92
        1
 93
        4
 72
     2
 10
-156.6616361876132
 20
-300.9431594280308
 40
2.065479772208694
 50
62.45185182430819
 51
117.5481481756674
 73
     1
 72
     2
 10
-156.9425760794466
 20
-300.404584417728
 40
1.458034083651616
 50
117.5481481756598
 51
242.451851824337
 73
     1
 72
     2
 10
-156.6616361876132
 20
-299.8660094074246
 40
2.065479772208637
 50
242.4518518243384
 51
297.548148175686
 73
     1
 72
     2
 10
-156.38069629578
 20
-300.404584417728
 40
1.45803408365203
 50
297.5481481757055
 51
422.4518518242976
 73
     1
 97
        4
330
230
330
22F
330
231
330
22E
 92
       16
 93
        4
 72
     2
 10
-156.8613762239596
 20
-300.404584417728
 40
0.7717997786795351
 50
321.8795802028432
 51
398.1204197971668
 73
     1
 72
     2
 10
-156.6616361876132
 20
-300.2478532396075
 40
0.5179085730132806
 50
38.12041979716469
 51
141.8795802028567
 73
     1
 72
     2
 10
-156.4618961512672
 20
-300.404584417728
 40
0.771799778679551
 50
141.879580202828
 51
218.120419797162
 73
     1
 72
     2
 10
-156.6616361876132
 20
-300.5613155958479
 40
0.5179085730138424
 50
218.1204197971879
 51
321.8795802027908
 73
     1
 97
        4
330
24C
330
249
330
24A
330
24B
 75
     1
 76
     2
 52
45.0
 41
0.1
 77
     0
 78
     1
 53
45.0
 43
62.7811309658083
 44
-72.3161373035813
 45
-0.1414213562373095
 46
0.0
 79
     0
 98
        1
 10
0.0
 20
0.0
  0
HATCH
  5
28A
330
7D
100
AcDbEntity
  8
1
  6
Continuous
 62
     2
100
AcDbHatch
 10
0.0
 20
0.0
 30
0.0
210
0.0
220
0.0
230
1.0
  2
CUSTOM18
 70
     0
 71
     1
 91
        2
 92
        1
 93
       12
 72
     1
 10
-149.766640993204
 20
-296.2165027850907
 11
-151.1025688196316
 21
-296.2165027850907
 72
     1
 10
-151.1025688196316
 20
-296.2165027850907
 11
-151.1025688196316
 21
-296.6963871388324
 72
     1
 10
-151.1025688196316
 20
-296.6963871388324
 11
-149.766640993204
 21
-296.6963871388324
 72
     1
 10
-149.766640993204
 20
-296.6963871388324
 11
-149.766640993204
 21
-297.3944007442748
 72
     1
 10
-149.766640993204
 20
-297.3944007442748
 11
-151.1025688196316
 21
-297.3944007442748
 72
     1
 10
-151.1025688196316
 20
-297.3944007442748
 11
-151.1025688196316
 21
-297.8742850980165
 72
     1
 10
-151.1025688196316
 20
-297.8742850980165
 11
-149.766640993204
 21
-297.8742850980165
 72
     1
 10
-149.766640993204
 20
-297.8742850980165
 11
-149.766640993204
 21
-298.5722987034589
 72
     1
 10
-149.766640993204
 20
-298.5722987034589
 11
-152.9169607169849
 21
-298.5722987034589
 72
     2
 10
-152.9169607169849
 20
-297.0453939415536
 40
1.526904761905769
 50
90.0
 51
270.0
 73
     0
 72
     1
 10
-152.9169607169849
 20
-295.5184891796478
 11
-149.766640993204
 21
-295.5184891796478
 72
     1
 10
-149.766640993204
 20
-295.5184891796478
 11
-149.766640993204
 21
-296.2165027850907
 97
       12
330
1AE
330
239
330
1AF
330
1B0
330
1B1
330
1B2
330
18F
330
18E
330
18D
330
18C
330
1B3
330
1AD
 92
       16
 93
        4
 72
     2
 10
-152.7006887068197
 20
-296.8886627634331
 40
0.5179085730133669
 50
38.12041979714121
 51
141.8795802028666
 73
     1
 72
     2
 10
-152.5009486704735
 20
-297.0453939415536
 40
0.7717997786796245
 50
141.8795802028484
 51
218.1204197971549
 73
     1
 72
     2
 10
-152.7006887068197
 20
-297.2021251196741
 40
0.5179085730134564
 50
218.1204197971334
 51
321.8795802028588
 73
     1
 72
     2
 10
-152.9004287431659
 20
-297.0453939415536
 40
0.7717997786795479
 50
321.8795802028385
 51
398.1204197971581
 73
     1
 97
        4
330
233
330
232
330
22D
330
22C
 75
     1
 76
     2
 52
45.0
 41
0.1
 77
     0
 78
     1
 53
45.0
 43
62.7811309658083
 44
-72.3161373035813
 45
-0.1414213562373095
 46
0.0
 79
     0
 98
        1
 10
0.0
 20
0.0
  0
HATCH
  5
28B
330
7D
100
AcDbEntity
  8
1
  6
Continuous
 62
     2
100
AcDbHatch
 10
0.0
 20
0.0
 30
0.0
210
0.0
220
0.0
230
1.0
  2
CUSTOM19
 70
     0
 71
     1
 91
        2
 92
        1
 93
       12
 72
     1
 10
-149.766640993204
 20
-296.2165027850907
 11
-151.1025688196316
 21
-296.2165027850907
 72
     1
 10
-151.1025688196316
 20
-296.2165027850907
 11
-151.1025688196316
 21
-296.6963871388324
 72
     1
 10
-151.1025688196316
 20
-296.6963871388324
 11
-149.766640993204
 21
-296.6963871388324
 72
     1
 10
-149.766640993204
 20
-296.6963871388324
 11
-149.766640993204
 21
-297.3944007442748
 72
     1
 10
-149.766640993204
 20
-297.3944007442748
 11
-151.1025688196316
 21
-297.3944007442748
 72
     1
 10
-151.1025688196316
 20
-297.3944007442748
 11
-151.1025688196316
 21
-297.8742850980165
 72
     1
 10
-151.1025688196316
 20
-297.8742850980165
 11
-149.766640993204
 21
-297.8742850980165
 72
     1
 10
-149.766640993204
 20
-297.8742850980165
 11
-149.766640993204
 21
-298.5722987034589
 72
     1
 10
-149.766640993204
 20
-298.5722987034589
 11
-152.9169607169849
 21
-298.5722987034589
 72
     2
 10
-152.9169607169849
 20
-297.0453939415536
 40
1.526904761905769
 50
90.0
 51
270.0
 73
     0
 72
     1
 10
-152.9169607169849
 20
-295.5184891796478
 11
-149.766640993204
 21
-295.5184891796478
 72
     1
 10
-149.766640993204
 20
-295.5184891796478
 11
-149.766640993204
 21
-296.2165027850907
 97
       12
330
1AE
330
239
330
1AF
330
1B0
330
1B1
330
1B2
330
18F
330
18E
330
18D
330
18C
330
1B3
330
1AD
 92
       16
 93
        4
 72
     2
 10
-152.7006887068197
 20
-296.8886627634331
 40
0.5179085730133669
 50
38.12041979714121
 51
141.8795802028666
 73
     1
 72
     2
 10
-152.5009486704735
 20
-297.0453939415536
 40
0.7717997786796245
 50
141.8795802028484
 51
218.1204197971549
 73
     1
 72
     2
 10
-152.7006887068197
 20
-297.2021251196741
 40
0.5179085730134564
 50
218.1204197971334
 51
321.8795802028588
 73
     1
 72
     2
 10
-152.9004287431659
 20
-297.0453939415536
 40
0.7717997786795479
 50
321.8795802028385
 51
398.1204197971581
 73
     1
 97
        4
330
233
330
232
330
22D
330
22C
 75
     1
 76
     2
 52
45.0
 41
0.1
 77
     0
 78
     1
 53
45.0
 43
62.7811309658083
 44
-72.3161373035813
 45
-0.1414213562373095
 46
0.0
 79
     0
 98
        1
 10
0.0
 20
0.0
  0
HATCH
  5
28C
330
7D
100
AcDbEntity
  8
1
  6
Continuous
 62
     2
100
AcDbHatch
 10
0.0
 20
0.0
 30
0.0
210
0.0
220
0.0
230
1.0
  2
CUSTOM20
 70
     0
 71
     1
 91
        4
 92
        1
 93
        8
 72
     1
 10
-161.6945680148735
 20
-295.9427337950498
 11
-161.6945680148735
 21
-301.50724456425
 72
     2
 10
-162.1188126302574
 20
-301.50724456425
 40
0.424244615383202
 50
0.0
 51
90.0
 73
     0
 72
     1
 10
-162.1188126302574
 20
-301.9314891796332
 11
-167.5921247209743
 21
-301.9314891796332
 72
     2
 10
-167.5921247209743
 20
-301.50724456425
 40
0.4242446153827757
 50
90.0
 51
180.0
 73
     0
 72
     1
 10
-168.0163693363571
 20
-301.50724456425
 11
-168.0163693363571
 21
-295.9427337950498
 72
     2
 10
-167.5921247209743
 20
-295.9427337950498
 40
0.4242446153838841
 50
180.0
 51
270.0
 73
     0
 72
     1
 10
-167.5921247209743
 20
-295.5184891796659
 11
-162.1188126302574
 21
-295.5184891796659
 72
     2
 10
-162.1188126302574
 20
-295.9427337950498
 40
0.4242446153838841
 50
270.0
 51
360.0
 73
     0
 97
        8
330
1A2
330
229
330
1A3
330
234
330
1A0
330
22B
330
1A1
330
22A
 92
       16
 93
       12
 72
     2
 10
-166.9982300442278
 20
-300.9032167009996
 40
0.3157169230755983
 50
180.0
 51
270.0
 73
     1
 72
     1
 10
-166.9982300442278
 20
-301.2189336240763
 11
-165.5223967832182
 21
-301.2189336240763
 72
     2
 10
-165.5223967832182
 20
-300.9032167009996
 40
0.3157169230767067
 50
270.0
 51
360.0
 73
     1
 72
     1
 10
-165.2066798601416
 20
-300.9032167009996
 11
-165.2066798601416
 21
-299.372445769468
 72
     2
 10
-165.5223967832182
 20
-299.372445769468
 40
0.315716923076593
 50
0.0
 51
64.805589351446
 73
     1
 72
     2
 10
-164.9998123356432
 20
-298.2616160234053
 40
0.9118975235576433
 50
115.1944106485089
 51
244.8055893514805
 73
     0
 72
     2
 10
-165.5223967832182
 20
-297.1507862773431
 40
0.3157169230760658
 50
295.1944106485672
 51
360.0
 73
     1
 72
     1
 10
-165.2066798601416
 20
-297.1507862773431
 11
-165.2066798601416
 21
-296.5467616582825
 72
     2
 10
-165.5223967832182
 20
-296.5467616582825
 40
0.315716923076593
 50
0.0
 51
90.0
 73
     1
 72
     1
 10
-165.5223967832182
 20
-296.2310447352064
 11
-166.9982300442278
 21
-296.2310447352064
 72
     2
 10
-166.9982300442278
 20
-296.5467616582825
 40
0.3157169230760815
 50
90.0
 51
180.0
 73
     1
 72
     1
 10
-167.3139469673034
 20
-296.5467616582825
 11
-167.3139469673034
 21
-300.9032167009996
 97
       12
330
225
330
1A4
330
228
330
19F
330
235
330
236
330
227
330
19E
330
226
330
19D
330
237
330
19C
 92
       16
 93
        8
 72
     2
 10
-164.422681357696
 20
-299.3707576233736
 40
0.3157169230765328
 50
115.3740086783519
 51
180.0
 73
     1
 72
     1
 10
-164.7383982807728
 20
-299.3707576233736
 11
-164.7383982807728
 21
-299.9526090300687
 72
     2
 10
-164.422681357696
 20
-299.9526090300687
 40
0.315716923076792
 50
180.0
 51
269.8110329574335
 73
     1
 72
     2
 10
-164.417065222386
 20
-298.2497740824997
 40
2.018561131933266
 50
269.8110329575827
 51
450.1889670424174
 73
     1
 72
     2
 10
-164.422681357696
 20
-296.5469391349307
 40
0.3157169230761851
 50
90.1889670425665
 51
180.0
 73
     1
 72
     1
 10
-164.7383982807728
 20
-296.5469391349307
 11
-164.7383982807728
 21
-297.1524744234375
 72
     2
 10
-164.422681357696
 20
-297.1524744234375
 40
0.315716923076792
 50
180.0
 51
244.6259913216349
 73
     1
 72
     2
 10
-164.9487240557839
 20
-298.2616160234053
 40
0.9118481501443941
 50
295.3740086781911
 51
424.6259913218196
 73
     0
 97
        8
330
241
330
169
330
23E
330
23F
330
21D
330
168
330
240
330
21C
 92
       16
 93
        1
 72
     2
 10
-164.9725390704567
 20
-298.2616160234053
 40
0.470978932778479
 50
0.0
 51
360.0
 73
     1
 97
        1
330
24F
 75
     1
 76
     2
 52
45.0
 41
0.1
 77
     0
 78
     1
 53
45.0
 43
62.7811309658083
 44
-72.3161373035813
 45
-0.1414213562373095
 46
0.0
 79
     0
 98
        1
 10
0.0
 20
0.0
  0
HATCH
  5
28D
330
7D
100
AcDbEntity
  8
1
  6
Continuous
 62
     2
100
AcDbHatch
 10
0.0
 20
0.0
 30
0.0
210
0.0
220
0.0
230
1.0
  2
CUSTOM21
 70
     0
 71
     1
 91
        4
 92
        1
 93
        8
 72
     1
 10
-161.6945680148735
 20
-295.9427337950498
 11
-161.6945680148735
 21
-301.50724456425
 72
     2
 10
-162.1188126302574
 20
-301.50724456425
 40
0.424244615383202
 50
0.0
 51
90.0
 73
     0
 72
     1
 10
-162.1188126302574
 20
-301.9314891796332
 11
-167.5921247209743
 21
-301.9314891796332
 72
     2
 10
-167.5921247209743
 20
-301.50724456425
 40
0.4242446153827757
 50
90.0
 51
180.0
 73
     0
 72
     1
 10
-168.0163693363571
 20
-301.50724456425
 11
-168.0163693363571
 21
-295.9427337950498
 72
     2
 10
-167.5921247209743
 20
-295.9427337950498
 40
0.4242446153838841
 50
180.0
 51
270.0
 73
     0
 72
     1
 10
-167.5921247209743
 20
-295.5184891796659
 11
-162.1188126302574
 21
-295.5184891796659
 72
     2
 10
-162.1188126302574
 20
-295.9427337950498
 40
0.4242446153838841
 50
270.0
 51
360.0
 73
     0
 97
        8
330
1A2
330
229
330
1A3
330
234
330
1A0
330
22B
330
1A1
330
22A
 92
       16
 93
       12
 72
     2
 10
-166.9982300442278
 20
-300.9032167009996
 40
0.3157169230755983
 50
180.0
 51
270.0
 73
     1
 72
     1
 10
-166.9982300442278
 20
-301.2189336240763
 11
-165.5223967832182
 21
-301.2189336240763
 72
     2
 10
-165.5223967832182
 20
-300.9032167009996
 40
0.3157169230767067
 50
270.0
 51
360.0
 73
     1
 72
     1
 10
-165.2066798601416
 20
-300.9032167009996
 11
-165.2066798601416
 21
-299.372445769468
 72
     2
 10
-165.5223967832182
 20
-299.372445769468
 40
0.315716923076593
 50
0.0
 51
64.805589351446
 73
     1
 72
     2
 10
-164.9998123356432
 20
-298.2616160234053
 40
0.9118975235576433
 50
115.1944106485089
 51
244.8055893514805
 73
     0
 72
     2
 10
-165.5223967832182
 20
-297.1507862773431
 40
0.3157169230760658
 50
295.1944106485672
 51
360.0
 73
     1
 72
     1
 10
-165.2066798601416
 20
-297.1507862773431
 11
-165.2066798601416
 21
-296.5467616582825
 72
     2
 10
-165.5223967832182
 20
-296.5467616582825
 40
0.315716923076593
 50
0.0
 51
90.0
 73
     1
 72
     1
 10
-165.5223967832182
 20
-296.2310447352064
 11
-166.9982300442278
 21
-296.2310447352064
 72
     2
 10
-166.9982300442278
 20
-296.5467616582825
 40
0.3157169230760815
 50
90.0
 51
180.0
 73
     1
 72
     1
 10
-167.3139469673034
 20
-296.5467616582825
 11
-167.3139469673034
 21
-300.9032167009996
 97
       12
330
225
330
1A4
330
228
330
19F
330
235
330
236
330
227
330
19E
330
226
330
19D
330
237
330
19C
 92
       16
 93
        8
 72
     2
 10
-164.422681357696
 20
-299.3707576233736
 40
0.3157169230765328
 50
115.3740086783519
 51
180.0
 73
     1
 72
     1
 10
-164.7383982807728
 20
-299.3707576233736
 11
-164.7383982807728
 21
-299.9526090300687
 72
     2
 10
-164.422681357696
 20
-299.9526090300687
 40
0.315716923076792
 50
180.0
 51
269.8110329574335
 73
     1
 72
     2
 10
-164.417065222386
 20
-298.2497740824997
 40
2.018561131933266
 50
269.8110329575827
 51
450.1889670424174
 73
     1
 72
     2
 10
-164.422681357696
 20
-296.5469391349307
 40
0.3157169230761851
 50
90.1889670425665
 51
180.0
 73
     1
 72
     1
 10
-164.7383982807728
 20
-296.5469391349307
 11
-164.7383982807728
 21
-297.1524744234375
 72
     2
 10
-164.422681357696
 20
-297.1524744234375
 40
0.315716923076792
 50
180.0
 51
244.6259913216349
 73
     1
 72
     2
 10
-164.9487240557839
 20
-298.2616160234053
 40
0.9118481501443941
 50
295.3740086781911
 51
424.6259913218196
 73
     0
 97
        8
330
241
330
169
330
23E
330
23F
330
21D
330
168
330
240
330
21C
 92
       16
 93
        1
 72
     2
 10
-164.9725390704567
 20
-298.2616160234053
 40
0.470978932778479
 50
0.0
 51
360.0
 73
     1
 97
        1
330
24F
 75
     1
 76
     2
 52
45.0
 41
0.1
 77
     0
 78
     1
 53
45.0
 43
62.7811309658083
 44
-72.3161373035813
 45
-0.1414213562373095
 46
0.0
 79
     0
 98
        1
 10
0.0
 20
0.0
  0
HATCH
  5
28E
330
7D
100
AcDbEntity
  8
1
  6
Continuous
 62
     2
100
AcDbHatch
 10
0.0
 20
0.0
 30
0.0
210
0.0
220
0.0
230
1.0
  2
CUSTOM22
 70
     0
 71
     1
 91
        1
 92
        1
 93
       18
 72
     1
 10
-140.1050201056526
 20
-299.6629449619458
 11
-140.916119143126
 21
-299.6629449619458
 72
     1
 10
-140.916119143126
 20
-299.6629449619458
 11
-140.916119143126
 21
-301.9314891796332
 72
     1
 10
-140.916119143126
 20
-301.9314891796332
 11
-142.1089118452937
 21
-301.9314891796332
 72
     1
 10
-142.1089118452937
 20
-301.9314891796332
 11
-142.1089118452937
 21
-299.6629449619458
 72
     1
 10
-142.1089118452937
 20
-299.6629449619458
 11
-143.2125511448618
 21
-299.6629449619458
 72
     2
 10
-143.2125511448618
 20
-300.6174679687719
 40
0.9545230068260935
 50
90.0
 51
109.3371432194281
 73
     1
 72
     2
 10
-143.3592211429655
 20
-300.1995129883889
 40
0.5115800601944048
 50
109.3371432194823
 51
151.4785267424182
 73
     1
 72
     2
 10
-142.981863884884
 20
-300.404584417728
 40
0.9410597353350352
 50
151.4785267423573
 51
208.521473257667
 73
     1
 72
     2
 10
-143.3592211429655
 20
-300.6096558470665
 40
0.5115800601959967
 50
208.5214732576881
 51
246.6277221118399
 73
     1
 72
     2
 10
-143.2027811102623
 20
-300.2476638283565
 40
0.9059297849852208
 50
246.6277221118088
 51
288.4480761180772
 73
     1
 72
     2
 10
-143.6209488439243
 20
-298.9941180523198
 40
2.227384008972773
 50
288.4480761181333
 51
301.9309089499394
 73
     1
 72
     1
 10
-142.4428938019004
 20
-300.8844687714696
 11
-142.4428938019004
 21
-301.7569857782729
 72
     2
 10
-143.7788217190171
 20
-297.0919034724715
 40
4.852596863498889
 50
74.0200087416617
 51
84.84185523036268
 73
     0
 72
     2
 10
-143.4899656242812
 20
-300.2917940556931
 40
1.639695123940503
 50
84.84185523032279
 51
164.9381082228993
 73
     0
 72
     2
 10
-143.9090934677429
 20
-300.404584417728
 40
1.205656168392975
 50
164.9381082229076
 51
195.0618917770975
 73
     0
 72
     2
 10
-143.4899656242812
 20
-300.5173747797628
 40
1.639695123940101
 50
195.0618917771007
 51
270.0
 73
     0
 72
     1
 10
-143.4899656242812
 20
-298.8776796558227
 11
-140.1050201056526
 21
-298.8776796558221
 72
     1
 10
-140.1050201056526
 20
-298.8776796558221
 11
-140.1050201056526
 21
-299.6629449619458
 97
       18
330
16B
330
23A
330
23B
330
223
330
222
330
1CF
330
221
330
220
330
23C
330
21F
330
23D
330
21E
330
1D0
330
16A
330
16F
330
16E
330
16D
330
16C
 75
     1
 76
     2
 52
45.0
 41
0.1
 77
     0
 78
     1
 53
45.0
 43
62.7811309658083
 44
-72.3161373035813
 45
-0.1414213562373095
 46
0.0
 79
     0
 98
        1
 10
0.0
 20
0.0
  0
HATCH
  5
28F
330
7D
100
AcDbEntity
  8
1
  6
Continuous
 62
     2
100
AcDbHatch
 10
0.0
 20
0.0
 30
0.0
210
0.0
220
0.0
230
1.0
  2
CUSTOM23
 70
     0
 71
     1
 91
        1
 92
        1
 93
       18
 72
     1
 10
-140.1050201056526
 20
-299.6629449619458
 11
-140.916119143126
 21
-299.6629449619458
 72
     1
 10
-140.916119143126
 20
-299.6629449619458
 11
-140.916119143126
 21
-301.9314891796332
 72
     1
 10
-140.916119143126
 20
-301.9314891796332
 11
-142.1089118452937
 21
-301.9314891796332
 72
     1
 10
-142.1089118452937
 20
-301.9314891796332
 11
-142.1089118452937
 21
-299.6629449619458
 72
     1
 10
-142.1089118452937
 20
-299.6629449619458
 11
-143.2125511448618
 21
-299.6629449619458
 72
     2
 10
-143.2125511448618
 20
-300.6174679687719
 40
0.9545230068260935
 50
90.0
 51
109.3371432194281
 73
     1
 72
     2
 10
-143.3592211429655
 20
-300.1995129883889
 40
0.5115800601944048
 50
109.3371432194823
 51
151.4785267424182
 73
     1
 72
     2
 10
-142.981863884884
 20
-300.404584417728
 40
0.9410597353350352
 50
151.4785267423573
 51
208.521473257667
 73
     1
 72
     2
 10
-143.3592211429655
 20
-300.6096558470665
 40
0.5115800601959967
 50
208.5214732576881
 51
246.6277221118399
 73
     1
 72
     2
 10
-143.2027811102623
 20
-300.2476638283565
 40
0.9059297849852208
 50
246.6277221118088
 51
288.4480761180772
 73
     1
 72
     2
 10
-143.6209488439243
 20
-298.9941180523198
 40
2.227384008972773
 50
288.4480761181333
 51
301.9309089499394
 73
     1
 72
     1
 10
-142.4428938019004
 20
-300.8844687714696
 11
-142.4428938019004
 21
-301.7569857782729
 72
     2
 10
-143.7788217190171
 20
-297.0919034724715
 40
4.852596863498889
 50
74.0200087416617
 51
84.84185523036268
 73
     0
 72
     2
 10
-143.4899656242812
 20
-300.2917940556931
 40
1.639695123940503
 50
84.84185523032279
 51
164.9381082228993
 73
     0
 72
     2
 10
-143.9090934677429
 20
-300.404584417728
 40
1.205656168392975
 50
164.9381082229076
 51
195.0618917770975
 73
     0
 72
     2
 10
-143.4899656242812
 20
-300.5173747797628
 40
1.639695123940101
 50
195.0618917771007
 51
270.0
 73
     0
 72
     1
 10
-143.4899656242812
 20
-298.8776796558227
 11
-140.1050201056526
 21
-298.8776796558221
 72
     1
 10
-140.1050201056526
 20
-298.8776796558221
 11
-140.1050201056526
 21
-299.6629449619458
 97
       18
330
16B
330
23A
330
23B
330
223
330
222
330
1CF
330
221
330
220
330
23C
330
21F
330
23D
330
21E
330
1D0
330
16A
330
16F
330
16E
330
16D
330
16C
 75
     1
 76
     2
 52
45.0
 41
0.1
 77
     0
 78
     1
 53
45.0
 43
62.7811309658083
 44
-72.3161373035813
 45
-0.1414213562373095
 46
0.0
 79
     0
 98
        1
 10
0.0
 20
0.0
  0
HATCH
  5
290
330
7D
100
AcDbEntity
  8
1
  6
Continuous
 62
     2
100
AcDbHatch
 10
0.0
 20
0.0
 30
0.0
210
0.0
220
0.0
230
1.0
  2
CUSTOM24
 70
     0
 71
     1
 91
        1
 92
        1
 93
       14
 72
     2
 10
-159.5926671035341
 20
-300.5173747797628
 40
1.639695123940499
 50
84.84185523036533
 51
164.9381082228905
 73
     1
 72
     2
 10
-160.0117949469969
 20
-300.404584417728
 40
1.205656168390971
 50
164.9381082228768
 51
195.0618917770945
 73
     1
 72
     2
 10
-159.5926671035341
 20
-300.2917940556931
 40
1.639695123939437
 50
195.0618917770922
 51
275.1581447696363
 73
     1
 72
     2
 10
-159.88152319827
 20
-297.0919034724715
 40
4.852596863498272
 50
275.1581447696238
 51
285.9799912583526
 73
     1
 72
     1
 10
-158.5455952811522
 20
-301.7569857782724
 11
-158.5455952811522
 21
-300.8844687714691
 72
     2
 10
-159.7236503231772
 20
-298.9941180523193
 40
2.227384008972719
 50
58.06909105003628
 51
71.55192388186632
 73
     0
 72
     2
 10
-159.3054825895163
 20
-300.2476638283565
 40
0.9059297849848262
 50
71.55192388184605
 51
113.3722778881334
 73
     0
 72
     2
 10
-159.4619226222184
 20
-300.6096558470665
 40
0.5115800601947491
 50
113.3722778881718
 51
151.4785267423156
 73
     0
 72
     2
 10
-159.084565364138
 20
-300.404584417728
 40
0.9410597353333294
 50
151.4785267423028
 51
208.5214732577306
 73
     0
 72
     2
 10
-159.4619226222184
 20
-300.1995129883889
 40
0.5115800601948293
 50
208.5214732576844
 51
246.6277221118054
 73
     0
 72
     2
 10
-159.3054825895163
 20
-300.5615050070995
 40
0.9059297849853498
 50
246.6277221118694
 51
288.4480761181403
 73
     0
 72
     2
 10
-159.7236503231772
 20
-301.8150507831361
 40
2.227384008973465
 50
288.4480761181333
 51
301.9309089499629
 73
     0
 72
     1
 10
-158.5455952811522
 20
-299.9247000639863
 11
-158.5455952811522
 21
-299.052183057183
 72
     2
 10
-159.88152319827
 20
-303.7172653629838
 40
4.852596863497986
 50
74.0200087416471
 51
84.84185523037608
 73
     1
 97
       14
330
242
330
243
330
244
330
245
330
1D1
330
21B
330
21A
330
219
330
246
330
247
330
218
330
248
330
1D2
330
217
 75
     1
 76
     2
 52
45.0
 41
0.1
 77
     0
 78
     1
 53
45.0
 43
62.7811309658083
 44
-72.3161373035813
 45
-0.1414213562373095
 46
0.0
 79
     0
 98
        1
 10
0.0
 20
0.0
  0
HATCH
  5
291
330
7D
100
AcDbEntity
  8
1
  6
Continuous
 62
     2
100
AcDbHatch
 10
0.0
 20
0.0
 30
0.0
210
0.0
220
0.0
230
1.0
  2
CUSTOM25
 70
     0
 71
     1
 91
        1
 92
        1
 93
       14
 72
     2
 10
-159.5926671035341
 20
-300.5173747797628
 40
1.639695123940499
 50
84.84185523036533
 51
164.9381082228905
 73
     1
 72
     2
 10
-160.0117949469969
 20
-300.404584417728
 40
1.205656168390971
 50
164.9381082228768
 51
195.0618917770945
 73
     1
 72
     2
 10
-159.5926671035341
 20
-300.2917940556931
 40
1.639695123939437
 50
195.0618917770922
 51
275.1581447696363
 73
     1
 72
     2
 10
-159.88152319827
 20
-297.0919034724715
 40
4.852596863498272
 50
275.1581447696238
 51
285.9799912583526
 73
     1
 72
     1
 10
-158.5455952811522
 20
-301.7569857782724
 11
-158.5455952811522
 21
-300.8844687714691
 72
     2
 10
-159.7236503231772
 20
-298.9941180523193
 40
2.227384008972719
 50
58.06909105003628
 51
71.55192388186632
 73
     0
 72
     2
 10
-159.3054825895163
 20
-300.2476638283565
 40
0.9059297849848262
 50
71.55192388184605
 51
113.3722778881334
 73
     0
 72
     2
 10
-159.4619226222184
 20
-300.6096558470665
 40
0.5115800601947491
 50
113.3722778881718
 51
151.4785267423156
 73
     0
 72
     2
 10
-159.084565364138
 20
-300.404584417728
 40
0.9410597353333294
 50
151.4785267423028
 51
208.5214732577306
 73
     0
 72
     2
 10
-159.4619226222184
 20
-300.1995129883889
 40
0.5115800601948293
 50
208.5214732576844
 51
246.6277221118054
 73
     0
 72
     2
 10
-159.3054825895163
 20
-300.5615050070995
 40
0.9059297849853498
 50
246.6277221118694
 51
288.4480761181403
 73
     0
 72
     2
 10
-159.7236503231772
 20
-301.8150507831361
 40
2.227384008973465
 50
288.4480761181333
 51
301.9309089499629
 73
     0
 72
     1
 10
-158.5455952811522
 20
-299.9247000639863
 11
-158.5455952811522
 21
-299.052183057183
 72
     2
 10
-159.88152319827
 20
-303.7172653629838
 40
4.852596863497986
 50
74.0200087416471
 51
84.84185523037608
 73
     1
 97
       14
330
242
330
243
330
244
330
245
330
1D1
330
21B
330
21A
330
219
330
246
330
247
330
218
330
248
330
1D2
330
217
 75
     1
 76
     2
 52
45.0
 41
0.1
 77
     0
 78
     1
 53
45.0
 43
62.7811309658083
 44
-72.3161373035813
 45
-0.1414213562373095
 46
0.0
 79
     0
 98
        1
 10
0.0
 20
0.0
  0
ENDBLK
  5
7F
330
7D
100
AcDbEntity
  8
0
100
AcDbBlockEnd
  0
BLOCK
  5
81
330
80
100
AcDbEntity
  8
0
100
AcDbBlockBegin
  2
_punkt
 70
     0
 10
-42.70821969616975
 20
-309.2249891796495
 30
0.0
  3
_punkt
  1

  0
LINE
  5
292
330
80
100
AcDbEntity
  8
1
  6
Continuous
 62
     2
100
AcDbLine
 10
-42.70821969616969
 20
-309.2249891796495
 30
0.0
 11
-37.70821969617208
 21
-309.2249891796495
 31
0.0
  0
LINE
  5
293
330
80
100
AcDbEntity
  8
1
  6
Continuous
 62
     2
100
AcDbLine
 10
-42.70821969616969
 20
-309.2249891796495
 30
0.0
 11
-42.70821969616969
 21
-314.224989179649
 31
0.0
  0
ENDBLK
  5
82
330
80
100
AcDbEntity
  8
0
100
AcDbBlockEnd
  0
BLOCK
  5
86
330
83
100
AcDbEntity
  8
0
100
AcDbBlockBegin
  2
A3I_TD_PRF
 70
     0
 10
-42.70821969616969
 20
-314.224989179649
 30
0.0
  3
A3I_TD_PRF
  1

  0
INSERT
  5
84
330
83
100
AcDbEntity
  8
1
100
AcDbBlockReference
  2
_rahmen
 10
-42.70821969616969
 20
-314.224989179649
 30
0.0
  0
INSERT
  5
85
330
83
100
AcDbEntity
  8
1
100
AcDbBlockReference
  2
_punkt
 10
-42.70821969616975
 20
-309.2249891796495
 30
0.0
  0
ENDBLK
  5
87
330
83
100
AcDbEntity
  8
0
100
AcDbBlockEnd
  0
BLOCK
  5
8B
330
88
100
AcDbEntity
  8
0
100
AcDbBlockBegin
  2
1
 70
     0
 10
0.0
 20
0.0
 30
0.0
  3
1
  1

  0
INSERT
  5
89
330
88
100
AcDbEntity
  8
0
100
AcDbBlockReference
  2
Vordans1
 10
-238.0000000000001
 20
-155.0
 30
0.0
 41
5.0
 42
5.0
 43
5.0
  0
INSERT
  5
8A
330
88
100
AcDbEntity
  8
0
100
AcDbBlockReference
  2
A3I_TD_PRF
 10
-42.70821969616969
 20
-314.224989179649
 30
0.0
  0
ENDBLK
  5
8C
330
88
100
AcDbEntity
  8
0
100
AcDbBlockEnd
  0
BLOCK
  5
BC
330
B5
100
AcDbEntity
  8
0
100
AcDbBlockBegin
  2
*D7
 70
     1
 10
0.0
 20
0.0
 30
0.0
  3
*D7
  1

  0
LINE
  5
B6
330
B5
100
AcDbEntity
  8
1
  6
Continuous
 62
     2
100
AcDbLine
 10
-47.16152915954587
 20
-22.7047795155258
 30
0.0
 11
-51.30152915954582
 21
-22.7047795155258
 31
0.0
  0
LINE
  5
B7
330
B5
100
AcDbEntity
  8
1
  6
Continuous
 62
     2
100
AcDbLine
 10
-47.16152915954587
 20
-31.68524782419205
 30
0.0
 11
-47.16152915954587
 21
-22.4047795155258
 31
0.0
  0
LINE
  5
B8
330
B5
100
AcDbEntity
  8
1
  6
Continuous
 62
     2
100
AcDbLine
 10
-51.30152915954582
 20
-32.407747824192
 30
0.0
 11
-51.30152915954582
 21
-22.4047795155258
 31
0.0
  0
SOLID
  5
B9
330
B5
100
AcDbEntity
  8
1
 62
     2
100
AcDbTrace
 10
-47.86152915954587
 20
-22.79693626383698
 30
0.0
 11
-47.86152915954587
 21
-22.61262276721462
 31
0.0
 12
-47.16152915954587
 22
-22.7047795155258
 32
0.0
 13
-47.16152915954587
 23
-22.7047795155258
 33
0.0
  0
SOLID
  5
BA
330
B5
100
AcDbEntity
  8
1
 62
     2
100
AcDbTrace
 10
-50.60152915954582
 20
-22.61262276721462
 30
0.0
 11
-50.60152915954582
 21
-22.79693626383698
 31
0.0
 12
-51.30152915954582
 22
-22.7047795155258
 32
0.0
 13
-51.30152915954582
 23
-22.7047795155258
 33
0.0
  0
MTEXT
  5
BB
330
B5
100
AcDbEntity
  8
1
 62
     3
100
AcDbMText
 10
-50.06994627219722
 20
-22.3347795155258
 30
0.0
 40
0.7
 41
0.0
 71
     7
 72
     1
  1
4,14
  7
CONVERTER_11
 11
0.9999999999970619
 21
2.424068405545306E-6
 31
0.0
 73
     1
 44
0.60024009603842
  0
ENDBLK
  5
BD
330
B5
100
AcDbEntity
  8
0
100
AcDbBlockEnd
  0
BLOCK
  5
C9
330
C0
100
AcDbEntity
  8
0
100
AcDbBlockBegin
  2
*D8
 70
     1
 10
0.0
 20
0.0
 30
0.0
  3
*D8
  1

  0
LINE
  5
C1
330
C0
100
AcDbEntity
  8
1
  6
Continuous
 62
     2
100
AcDbLine
 10
-49.90152915954582
 20
-27.17907753708562
 30
0.0
 11
-51.30152915954582
 21
-27.17907753708562
 31
0.0
  0
LINE
  5
C2
330
C0
100
AcDbEntity
  8
1
  6
Continuous
 62
     2
100
AcDbLine
 10
-51.30152915954582
 20
-27.17907753708562
 30
0.0
 11
-52.70152915954582
 21
-27.17907753708562
 31
0.0
  0
LINE
  5
C3
330
C0
100
AcDbEntity
  8
1
  6
Continuous
 62
     2
100
AcDbLine
 10
-52.70152915954582
 20
-27.17907753708562
 30
0.0
 11
-54.58608097980061
 21
-27.17907753708562
 31
0.0
  0
LINE
  5
C4
330
C0
100
AcDbEntity
  8
1
  6
Continuous
 62
     2
100
AcDbLine
 10
-51.30152915954582
 20
-31.307747824192
 30
0.0
 11
-51.30152915954582
 21
-26.87907753708562
 31
0.0
  0
LINE
  5
C5
330
C0
100
AcDbEntity
  8
1
  6
Continuous
 62
     2
100
AcDbLine
 10
-52.70152915954582
 20
-28.467747824192
 30
0.0
 11
-52.70152915954582
 21
-26.87907753708562
 31
0.0
  0
SOLID
  5
C6
330
C0
100
AcDbEntity
  8
1
 62
     2
100
AcDbTrace
 10
-50.60152915954581
 20
-27.08692078877444
 30
0.0
 11
-50.60152915954581
 21
-27.27123428539679
 31
0.0
 12
-51.30152915954582
 22
-27.17907753708562
 32
0.0
 13
-51.30152915954582
 23
-27.17907753708562
 33
0.0
  0
SOLID
  5
C7
330
C0
100
AcDbEntity
  8
1
 62
     2
100
AcDbTrace
 10
-53.40152915954582
 20
-27.27123428539679
 30
0.0
 11
-53.40152915954582
 21
-27.08692078877444
 31
0.0
 12
-52.70152915954582
 22
-27.17907753708562
 32
0.0
 13
-52.70152915954582
 23
-27.17907753708562
 33
0.0
  0
MTEXT
  5
C8
330
C0
100
AcDbEntity
  8
1
 62
     3
100
AcDbMText
 10
-54.58608097980061
 20
-26.80907753708562
 30
0.0
 40
0.7
 41
0.0
 71
     7
 72
     1
  1
1,4
  7
CONVERTER_11
 11
0.9999999999970619
 21
2.424068405545306E-6
 31
0.0
 73
     1
 44
0.60024009603842
  0
ENDBLK
  5
CA
330
C0
100
AcDbEntity
  8
0
100
AcDbBlockEnd
  0
BLOCK
  5
D4
330
CD
100
AcDbEntity
  8
0
100
AcDbBlockBegin
  2
*D9
 70
     1
 10
0.0
 20
0.0
 30
0.0
  3
*D9
  1

  0
LINE
  5
CE
330
CD
100
AcDbEntity
  8
1
  6
Continuous
 62
     2
100
AcDbLine
 10
-57.93715304601781
 20
-29.017747824192
 30
0.0
 11
-57.93715304601781
 21
-31.85774782419199
 31
0.0
  0
LINE
  5
CF
330
CD
100
AcDbEntity
  8
1
  6
Continuous
 62
     2
100
AcDbLine
 10
-55.9915291595458
 20
-29.017747824192
 30
0.0
 11
-58.2371530460178
 21
-29.017747824192
 31
0.0
  0
LINE
  5
D0
330
CD
100
AcDbEntity
  8
1
  6
Continuous
 62
     2
100
AcDbLine
 10
-57.39152915954578
 20
-31.85774782419199
 30
0.0
 11
-58.2371530460178
 21
-31.85774782419199
 31
0.0
  0
SOLID
  5
D1
330
CD
100
AcDbEntity
  8
1
 62
     2
100
AcDbTrace
 10
-57.84499629770663
 20
-29.717747824192
 30
0.0
 11
-58.02930979432898
 21
-29.717747824192
 31
0.0
 12
-57.93715304601781
 22
-29.017747824192
 32
0.0
 13
-57.93715304601781
 23
-29.017747824192
 33
0.0
  0
SOLID
  5
D2
330
CD
100
AcDbEntity
  8
1
 62
     2
100
AcDbTrace
 10
-58.02930979432898
 20
-31.15774782419199
 30
0.0
 11
-57.84499629770663
 21
-31.15774782419199
 31
0.0
 12
-57.93715304601781
 22
-31.85774782419199
 32
0.0
 13
-57.93715304601781
 23
-31.85774782419199
 33
0.0
  0
MTEXT
  5
D3
330
CD
100
AcDbEntity
  8
1
 62
     3
100
AcDbMText
 10
-58.30715304601781
 20
-31.3285537261132
 30
0.0
 40
0.7
 41
0.0
 71
     7
 72
     1
  1
2,84
  7
CONVERTER_11
 11
0.0
 21
1.0
 31
0.0
 73
     1
 44
0.60024009603842
  0
ENDBLK
  5
D5
330
CD
100
AcDbEntity
  8
0
100
AcDbBlockEnd
  0
BLOCK
  5
DF
330
D8
100
AcDbEntity
  8
0
100
AcDbBlockBegin
  2
*D10
 70
     1
 10
0.0
 20
0.0
 30
0.0
  3
*D10
  1

  0
LINE
  5
D9
330
D8
100
AcDbEntity
  8
1
  6
Continuous
 62
     2
100
AcDbLine
 10
-47.16152915954588
 20
-22.7047795155258
 30
0.0
 11
-39.39152915954588
 21
-22.7047795155258
 31
0.0
  0
LINE
  5
DA
330
D8
100
AcDbEntity
  8
1
  6
Continuous
 62
     2
100
AcDbLine
 10
-47.16152915954588
 20
-31.68524782419205
 30
0.0
 11
-47.16152915954588
 21
-22.4047795155258
 31
0.0
  0
LINE
  5
DB
330
D8
100
AcDbEntity
  8
1
  6
Continuous
 62
     2
100
AcDbLine
 10
-39.39152915954588
 20
-31.68524782419205
 30
0.0
 11
-39.39152915954588
 21
-22.4047795155258
 31
0.0
  0
SOLID
  5
DC
330
D8
100
AcDbEntity
  8
1
 62
     2
100
AcDbTrace
 10
-46.46152915954588
 20
-22.61262276721462
 30
0.0
 11
-46.46152915954588
 21
-22.79693626383698
 31
0.0
 12
-47.16152915954588
 22
-22.7047795155258
 32
0.0
 13
-47.16152915954588
 23
-22.7047795155258
 33
0.0
  0
SOLID
  5
DD
330
D8
100
AcDbEntity
  8
1
 62
     2
100
AcDbTrace
 10
-40.09152915954589
 20
-22.79693626383698
 30
0.0
 11
-40.09152915954589
 21
-22.61262276721462
 31
0.0
 12
-39.39152915954588
 22
-22.7047795155258
 32
0.0
 13
-39.39152915954588
 23
-22.7047795155258
 33
0.0
  0
MTEXT
  5
DE
330
D8
100
AcDbEntity
  8
1
 62
     3
100
AcDbMText
 10
-44.31156139268043
 20
-22.3347795155258
 30
0.0
 40
0.7
 41
0.0
 71
     7
 72
     1
  1
7,77
  7
CONVERTER_11
 11
0.9999999999970619
 21
2.424068405545306E-6
 31
0.0
 73
     1
 44
0.60024009603842
  0
ENDBLK
  5
E0
330
D8
100
AcDbEntity
  8
0
100
AcDbBlockEnd
  0
BLOCK
  5
EA
330
E3
100
AcDbEntity
  8
0
100
AcDbBlockBegin
  2
*D11
 70
     1
 10
0.0
 20
0.0
 30
0.0
  3
*D11
  1

  0
LINE
  5
E4
330
E3
100
AcDbEntity
  8
1
  6
Continuous
 62
     2
100
AcDbLine
 10
-47.16152915954587
 20
-20.53719702745482
 30
0.0
 11
-32.68152915954587
 21
-20.53719702745482
 31
0.0
  0
LINE
  5
E5
330
E3
100
AcDbEntity
  8
1
  6
Continuous
 62
     2
100
AcDbLine
 10
-47.16152915954587
 20
-31.68524782419205
 30
0.0
 11
-47.16152915954587
 21
-20.23719702745482
 31
0.0
  0
LINE
  5
E6
330
E3
100
AcDbEntity
  8
1
  6
Continuous
 62
     2
100
AcDbLine
 10
-32.68152915954587
 20
-31.68524782419205
 30
0.0
 11
-32.68152915954587
 21
-20.23719702745482
 31
0.0
  0
SOLID
  5
E7
330
E3
100
AcDbEntity
  8
1
 62
     2
100
AcDbTrace
 10
-46.46152915954587
 20
-20.44504027914364
 30
0.0
 11
-46.46152915954587
 21
-20.629353775766
 31
0.0
 12
-47.16152915954587
 22
-20.53719702745482
 32
0.0
 13
-47.16152915954587
 23
-20.53719702745482
 33
0.0
  0
SOLID
  5
E8
330
E3
100
AcDbEntity
  8
1
 62
     2
100
AcDbTrace
 10
-33.38152915954588
 20
-20.629353775766
 30
0.0
 11
-33.38152915954588
 21
-20.44504027914364
 31
0.0
 12
-32.68152915954587
 22
-20.53719702745482
 32
0.0
 13
-32.68152915954587
 23
-20.53719702745482
 33
0.0
  0
MTEXT
  5
E9
330
E3
100
AcDbEntity
  8
1
 62
     3
100
AcDbMText
 10
-41.60264242765463
 20
-20.16719702745482
 30
0.0
 40
0.7
 41
0.0
 71
     7
 72
     1
  1
14,48
  7
CONVERTER_11
 11
0.9999999999970619
 21
2.424068405545306E-6
 31
0.0
 73
     1
 44
0.60024009603842
  0
ENDBLK
  5
EB
330
E3
100
AcDbEntity
  8
0
100
AcDbBlockEnd
  0
BLOCK
  5
F5
330
EE
100
AcDbEntity
  8
0
100
AcDbBlockBegin
  2
*D12
 70
     1
 10
0.0
 20
0.0
 30
0.0
  3
*D12
  1

  0
LINE
  5
EF
330
EE
100
AcDbEntity
  8
1
  6
Continuous
 62
     2
100
AcDbLine
 10
-23.64152915954595
 20
-45.31870744742963
 30
0.0
 11
-70.68152915954587
 21
-45.31870744742963
 31
0.0
  0
LINE
  5
F0
330
EE
100
AcDbEntity
  8
1
  6
Continuous
 62
     2
100
AcDbLine
 10
-23.64152915954595
 20
-32.29274782419206
 30
0.0
 11
-23.64152915954595
 21
-45.61870744742963
 31
0.0
  0
LINE
  5
F1
330
EE
100
AcDbEntity
  8
1
  6
Continuous
 62
     2
100
AcDbLine
 10
-70.68152915954587
 20
-32.29274782419204
 30
0.0
 11
-70.68152915954587
 21
-45.61870744742963
 31
0.0
  0
SOLID
  5
F2
330
EE
100
AcDbEntity
  8
1
 62
     2
100
AcDbTrace
 10
-24.34152915954595
 20
-45.41086419574081
 30
0.0
 11
-24.34152915954595
 21
-45.22655069911846
 31
0.0
 12
-23.64152915954595
 22
-45.31870744742963
 32
0.0
 13
-23.64152915954595
 23
-45.31870744742963
 33
0.0
  0
SOLID
  5
F3
330
EE
100
AcDbEntity
  8
1
 62
     2
100
AcDbTrace
 10
-69.98152915954587
 20
-45.22655069911846
 30
0.0
 11
-69.98152915954587
 21
-45.41086419574081
 31
0.0
 12
-70.68152915954587
 22
-45.31870744742963
 32
0.0
 13
-70.68152915954587
 23
-45.31870744742963
 33
0.0
  0
MTEXT
  5
F4
330
EE
100
AcDbEntity
  8
1
 62
     3
100
AcDbMText
 10
-46.9445264531422
 20
-44.94870744742963
 30
0.0
 40
0.7
 41
0.0
 71
     7
 72
     1
  1
47,04
  7
CONVERTER_11
 11
0.9999999999970619
 21
2.424068405545306E-6
 31
0.0
 73
     1
 44
0.60024009603842
  0
ENDBLK
  5
F6
330
EE
100
AcDbEntity
  8
0
100
AcDbBlockEnd
  0
BLOCK
  5
100
330
F9
100
AcDbEntity
  8
0
100
AcDbBlockBegin
  2
*D13
 70
     1
 10
0.0
 20
0.0
 30
0.0
  3
*D13
  1

  0
LINE
  5
FA
330
F9
100
AcDbEntity
  8
1
  6
Continuous
 62
     2
100
AcDbLine
 10
-47.16152915954588
 20
-20.53719702745483
 30
0.0
 11
-61.64152915954588
 21
-20.53719702745483
 31
0.0
  0
LINE
  5
FB
330
F9
100
AcDbEntity
  8
1
  6
Continuous
 62
     2
100
AcDbLine
 10
-47.16152915954588
 20
-31.68524782419206
 30
0.0
 11
-47.16152915954588
 21
-20.23719702745483
 31
0.0
  0
LINE
  5
FC
330
F9
100
AcDbEntity
  8
1
  6
Continuous
 62
     2
100
AcDbLine
 10
-61.64152915954588
 20
-31.68524782419205
 30
0.0
 11
-61.64152915954588
 21
-20.23719702745483
 31
0.0
  0
SOLID
  5
FD
330
F9
100
AcDbEntity
  8
1
 62
     2
100
AcDbTrace
 10
-47.86152915954588
 20
-20.62935377576601
 30
0.0
 11
-47.86152915954588
 21
-20.44504027914365
 31
0.0
 12
-47.16152915954588
 22
-20.53719702745483
 32
0.0
 13
-47.16152915954588
 23
-20.53719702745483
 33
0.0
  0
SOLID
  5
FE
330
F9
100
AcDbEntity
  8
1
 62
     2
100
AcDbTrace
 10
-60.94152915954588
 20
-20.44504027914365
 30
0.0
 11
-60.94152915954588
 21
-20.62935377576601
 31
0.0
 12
-61.64152915954588
 22
-20.53719702745483
 32
0.0
 13
-61.64152915954588
 23
-20.53719702745483
 33
0.0
  0
MTEXT
  5
FF
330
F9
100
AcDbEntity
  8
1
 62
     3
100
AcDbMText
 10
-54.90947888586082
 20
-20.16719702745483
 30
0.0
 40
0.7
 41
0.0
 71
     7
 72
     1
  1
14,48
  7
CONVERTER_11
 11
0.9999999999970619
 21
2.424068405545306E-6
 31
0.0
 73
     1
 44
0.60024009603842
  0
ENDBLK
  5
101
330
F9
100
AcDbEntity
  8
0
100
AcDbBlockEnd
  0
BLOCK
  5
10C
330
104
100
AcDbEntity
  8
0
100
AcDbBlockBegin
  2
*D14
 70
     1
 10
0.0
 20
0.0
 30
0.0
  3
*D14
  1

  0
LINE
  5
105
330
104
100
AcDbEntity
  8
1
  6
Continuous
 62
     2
100
AcDbLine
 10
-14.21266207376104
 20
-30.58774782419204
 30
0.0
 11
-14.21266207376104
 21
-41.25774782419204
 31
0.0
  0
LINE
  5
106
330
104
100
AcDbEntity
  8
1
  6
Continuous
 62
     2
100
AcDbLine
 10
-23.54152915954595
 20
-30.58774782419204
 30
0.0
 11
-13.91266207376104
 21
-30.58774782419204
 31
0.0
  0
LINE
  5
107
330
104
100
AcDbEntity
  8
1
  6
Continuous
 62
     2
100
AcDbLine
 10
-18.23696215954601
 20
-41.25774782419204
 30
0.0
 11
-13.91266207376104
 21
-41.25774782419204
 31
0.0
  0
SOLID
  5
108
330
104
100
AcDbEntity
  8
1
 62
     2
100
AcDbTrace
 10
-14.12050532544986
 20
-31.28774782419204
 30
0.0
 11
-14.30481882207222
 21
-31.28774782419204
 31
0.0
 12
-14.21266207376104
 22
-30.58774782419204
 32
0.0
 13
-14.21266207376104
 23
-30.58774782419204
 33
0.0
  0
SOLID
  5
109
330
104
100
AcDbEntity
  8
1
 62
     2
100
AcDbTrace
 10
-14.30481882207222
 20
-40.55774782419204
 30
0.0
 11
-14.12050532544986
 21
-40.55774782419204
 31
0.0
 12
-14.21266207376104
 22
-41.25774782419204
 32
0.0
 13
-14.21266207376104
 23
-41.25774782419204
 33
0.0
  0
MTEXT
  5
10A
330
104
100
AcDbEntity
  8
1
 62
     3
100
AcDbMText
 10
-15.04841207376104
 20
-37.1548760873056
 30
0.0
 40
0.7
 41
0.0
 71
     7
 72
     1
  1
10,67
  7
CONVERTER_11
 11
0.0
 21
1.0
 31
0.0
 73
     1
 44
0.60024009603842
  0
ENDBLK
  5
10D
330
104
100
AcDbEntity
  8
0
100
AcDbBlockEnd
  0
BLOCK
  5
119
330
110
100
AcDbEntity
  8
0
100
AcDbBlockBegin
  2
*D15
 70
     1
 10
0.0
 20
0.0
 30
0.0
  3
*D15
  1

  0
LINE
  5
111
330
110
100
AcDbEntity
  8
1
  6
Continuous
 62
     2
100
AcDbLine
 10
-28.46909813080301
 20
-28.05774782419205
 30
0.0
 11
-28.46909813080301
 21
-29.45774782419205
 31
0.0
  0
LINE
  5
112
330
110
100
AcDbEntity
  8
1
  6
Continuous
 62
     2
100
AcDbLine
 10
-28.46909813080301
 20
-29.45774782419205
 30
0.0
 11
-28.46909813080301
 21
-30.58774782419204
 31
0.0
  0
LINE
  5
113
330
110
100
AcDbEntity
  8
1
  6
Continuous
 62
     2
100
AcDbLine
 10
-28.46909813080301
 20
-30.58774782419204
 30
0.0
 11
-28.46909813080301
 21
-34.0470406610992
 31
0.0
  0
LINE
  5
114
330
110
100
AcDbEntity
  8
1
  6
Continuous
 62
     2
100
AcDbLine
 10
-32.58152915954587
 20
-29.45774782419205
 30
0.0
 11
-28.16909813080301
 21
-29.45774782419205
 31
0.0
  0
LINE
  5
115
330
110
100
AcDbEntity
  8
1
  6
Continuous
 62
     2
100
AcDbLine
 10
-23.74152915954595
 20
-30.58774782419204
 30
0.0
 11
-28.76909813080301
 21
-30.58774782419204
 31
0.0
  0
SOLID
  5
116
330
110
100
AcDbEntity
  8
1
 62
     2
100
AcDbTrace
 10
-28.56125487911418
 20
-28.75774782419205
 30
0.0
 11
-28.37694138249183
 21
-28.75774782419205
 31
0.0
 12
-28.46909813080301
 22
-29.45774782419205
 32
0.0
 13
-28.46909813080301
 23
-29.45774782419205
 33
0.0
  0
SOLID
  5
117
330
110
100
AcDbEntity
  8
1
 62
     2
100
AcDbTrace
 10
-28.37694138249183
 20
-31.28774782419204
 30
0.0
 11
-28.56125487911418
 21
-31.28774782419204
 31
0.0
 12
-28.46909813080301
 22
-30.58774782419204
 32
0.0
 13
-28.46909813080301
 23
-30.58774782419204
 33
0.0
  0
MTEXT
  5
118
330
110
100
AcDbEntity
  8
1
 62
     3
100
AcDbMText
 10
-28.93909813080301
 20
-34.0470406610992
 30
0.0
 40
0.7
 41
0.0
 71
     7
 72
     1
  1
1,13
  7
CONVERTER_11
 11
0.0
 21
1.0
 31
0.0
 73
     1
 44
0.60024009603842
  0
ENDBLK
  5
11A
330
110
100
AcDbEntity
  8
0
100
AcDbBlockEnd
  0
BLOCK
  5
126
330
11D
100
AcDbEntity
  8
0
100
AcDbBlockBegin
  2
*D16
 70
     1
 10
0.0
 20
0.0
 30
0.0
  3
*D16
  1

  0
LINE
  5
11E
330
11D
100
AcDbEntity
  8
1
  6
Continuous
 62
     2
100
AcDbLine
 10
-26.64990916960921
 20
-29.18774782419204
 30
0.0
 11
-26.64990916960921
 21
-30.58774782419204
 31
0.0
  0
LINE
  5
11F
330
11D
100
AcDbEntity
  8
1
  6
Continuous
 62
     2
100
AcDbLine
 10
-26.64990916960921
 20
-30.58774782419204
 30
0.0
 11
-26.64990916960921
 21
-31.857747824192
 31
0.0
  0
LINE
  5
120
330
11D
100
AcDbEntity
  8
1
  6
Continuous
 62
     2
100
AcDbLine
 10
-26.64990916960921
 20
-31.857747824192
 30
0.0
 11
-26.64990916960921
 21
-34.1520406610992
 31
0.0
  0
LINE
  5
121
330
11D
100
AcDbEntity
  8
1
  6
Continuous
 62
     2
100
AcDbLine
 10
-23.74152915954595
 20
-30.58774782419204
 30
0.0
 11
-26.94990916960921
 21
-30.58774782419204
 31
0.0
  0
LINE
  5
122
330
11D
100
AcDbEntity
  8
1
  6
Continuous
 62
     2
100
AcDbLine
 10
-51.20152915954583
 20
-31.857747824192
 30
0.0
 11
-26.34990916960921
 21
-31.857747824192
 31
0.0
  0
SOLID
  5
123
330
11D
100
AcDbEntity
  8
1
 62
     2
100
AcDbTrace
 10
-26.74206591792039
 20
-29.88774782419204
 30
0.0
 11
-26.55775242129803
 21
-29.88774782419204
 31
0.0
 12
-26.64990916960921
 22
-30.58774782419204
 32
0.0
 13
-26.64990916960921
 23
-30.58774782419204
 33
0.0
  0
SOLID
  5
124
330
11D
100
AcDbEntity
  8
1
 62
     2
100
AcDbTrace
 10
-26.55775242129803
 20
-32.557747824192
 30
0.0
 11
-26.74206591792039
 21
-32.557747824192
 31
0.0
 12
-26.64990916960921
 22
-31.857747824192
 32
0.0
 13
-26.64990916960921
 23
-31.857747824192
 33
0.0
  0
MTEXT
  5
125
330
11D
100
AcDbEntity
  8
1
 62
     3
100
AcDbMText
 10
-27.11990916960921
 20
-34.1520406610992
 30
0.0
 40
0.7
 41
0.0
 71
     7
 72
     1
  1
1,27
  7
CONVERTER_11
 11
0.0
 21
1.0
 31
0.0
 73
     1
 44
0.60024009603842
  0
ENDBLK
  5
127
330
11D
100
AcDbEntity
  8
0
100
AcDbBlockEnd
  0
BLOCK
  5
131
330
12A
100
AcDbEntity
  8
0
100
AcDbBlockBegin
  2
*D17
 70
     1
 10
0.0
 20
0.0
 30
0.0
  3
*D17
  1

  0
LINE
  5
12B
330
12A
100
AcDbEntity
  8
1
  6
Continuous
 62
     2
100
AcDbLine
 10
-51.30152915954583
 20
-35.07685485936118
 30
0.0
 11
-54.07152915954581
 21
-35.07685485936118
 31
0.0
  0
LINE
  5
12C
330
12A
100
AcDbEntity
  8
1
  6
Continuous
 62
     2
100
AcDbLine
 10
-51.30152915954583
 20
-31.95774782419199
 30
0.0
 11
-51.30152915954583
 21
-35.37685485936118
 31
0.0
  0
LINE
  5
12D
330
12A
100
AcDbEntity
  8
1
  6
Continuous
 62
     2
100
AcDbLine
 10
-54.07152915954581
 20
-31.95774782419199
 30
0.0
 11
-54.07152915954581
 21
-35.37685485936118
 31
0.0
  0
SOLID
  5
12E
330
12A
100
AcDbEntity
  8
1
 62
     2
100
AcDbTrace
 10
-52.00152915954583
 20
-35.16901160767236
 30
0.0
 11
-52.00152915954583
 21
-34.98469811105001
 31
0.0
 12
-51.30152915954583
 22
-35.07685485936118
 32
0.0
 13
-51.30152915954583
 23
-35.07685485936118
 33
0.0
  0
SOLID
  5
12F
330
12A
100
AcDbEntity
  8
1
 62
     2
100
AcDbTrace
 10
-53.37152915954581
 20
-34.98469811105001
 30
0.0
 11
-53.37152915954581
 21
-35.16901160767236
 31
0.0
 12
-54.07152915954581
 22
-35.07685485936118
 32
0.0
 13
-54.07152915954581
 23
-35.07685485936118
 33
0.0
  0
MTEXT
  5
130
330
12A
100
AcDbEntity
  8
1
 62
     3
100
AcDbMText
 10
-53.76896745198661
 20
-34.60685485936119
 30
0.0
 40
0.7
 41
0.0
 71
     7
 72
     1
  1
2,77
  7
CONVERTER_11
 11
0.9999999999970619
 21
2.424068405545306E-6
 31
0.0
 73
     1
 44
0.60024009603842
  0
ENDBLK
  5
132
330
12A
100
AcDbEntity
  8
0
100
AcDbBlockEnd
  0
BLOCK
  5
13A
330
135
100
AcDbEntity
  8
0
100
AcDbBlockBegin
  2
*D18
 70
     1
 10
0.0
 20
0.0
 30
0.0
  3
*D18
  1

  0
LINE
  5
136
330
135
100
AcDbEntity
  8
1
  6
Continuous
 62
     2
100
AcDbLine
 10
-68.85390121916556
 20
-28.73848415679866
 30
0.0
 11
-75.23252211248912
 21
-35.19261609770397
 31
0.0
  0
SOLID
  5
137
330
135
100
AcDbEntity
  8
1
 62
     2
100
AcDbTrace
 10
-72.19758329012232
 20
-32.2528522471702
 30
0.0
 11
-72.32867723347384
 21
-32.12329205631781
 31
0.0
 12
-71.77107658554183
 22
-31.69019347206117
 32
0.0
 13
-71.77107658554183
 23
-31.69019347206117
 33
0.0
  0
SOLID
  5
138
330
135
100
AcDbEntity
  8
1
 62
     2
100
AcDbTrace
 10
-69.16547502896944
 20
-28.92264340121389
 30
0.0
 11
-69.03438108561791
 21
-29.05220359206628
 31
0.0
 12
-69.59198173354991
 22
-29.48530217632291
 32
0.0
 13
-69.59198173354991
 23
-29.48530217632291
 33
0.0
  0
MTEXT
  5
139
330
135
100
AcDbEntity
  8
1
 62
     3
100
AcDbMText
 10
-75.4752596213208
 20
-34.59841535029624
 30
0.0
 40
0.7
 41
0.0
 71
     7
 72
     1
  1
\C3; {\Fgdt;n}\C3;\C3;3,1\C3;\H0.42;{\Fgdt;`}0,1
  7
CONVERTER_11
 11
0.7029338232231974
 21
0.7112552566897616
 31
0.0
 73
     1
 44
0.60024009603842
  0
ENDBLK
  5
13B
330
135
100
AcDbEntity
  8
0
100
AcDbBlockEnd
  0
BLOCK
  5
142
330
13D
100
AcDbEntity
  8
0
100
AcDbBlockBegin
  2
*D19
 70
     1
 10
0.0
 20
0.0
 30
0.0
  3
*D19
  1

  0
LINE
  5
13E
330
13D
100
AcDbEntity
  8
1
  6
Continuous
 62
     2
100
AcDbLine
 10
-59.74786257251358
 20
-27.03501138430482
 30
0.0
 11
-66.30867241354534
 21
-35.42884015325869
 31
0.0
  0
SOLID
  5
13F
330
13D
100
AcDbEntity
  8
1
 62
     2
100
AcDbTrace
 10
-63.24704783835823
 20
-31.66147821565193
 30
0.0
 11
-63.39226508214035
 21
-31.54797307415832
 31
0.0
 12
-62.88857788759153
 22
-31.05320840655681
 32
0.0
 13
-62.88857788759153
 23
-31.05320840655681
 33
0.0
  0
SOLID
  5
140
330
13D
100
AcDbEntity
  8
1
 62
     2
100
AcDbTrace
 10
-60.03601048073352
 20
-27.25401743273217
 30
0.0
 11
-59.8907932369514
 21
-27.36752257422577
 31
0.0
 12
-60.39448043150022
 22
-27.86228724182729
 32
0.0
 13
-60.39448043150022
 23
-27.86228724182729
 33
0.0
  0
MTEXT
  5
141
330
13D
100
AcDbEntity
  8
1
 62
     3
100
AcDbMText
 10
-66.44500038194407
 20
-35.00243813047706
 30
0.0
 40
0.7
 41
0.0
 71
     7
 72
     1
  1
\C3; {\Fgdt;n}\C3;\C3;4,05\C3;\H0.42;{\Fgdt;`}0,1
  7
CONVERTER_11
 11
0.6158265323682269
 21
0.787881769069018
 31
0.0
 73
     1
 44
0.60024009603842
  0
ENDBLK
  5
143
330
13D
100
AcDbEntity
  8
0
100
AcDbBlockEnd
  0
BLOCK
  5
14A
330
145
100
AcDbEntity
  8
0
100
AcDbBlockBegin
  2
*D20
 70
     1
 10
0.0
 20
0.0
 30
0.0
  3
*D20
  1

  0
LINE
  5
146
330
145
100
AcDbEntity
  8
1
  6
Continuous
 62
     2
100
AcDbLine
 10
-55.92286370326225
 20
-30.60932731033003
 30
0.0
 11
-60.01043224721174
 21
-36.1641289926831
 31
0.0
  0
SOLID
  5
147
330
145
100
AcDbEntity
  8
1
 62
     2
100
AcDbTrace
 10
-57.47852798048627
 20
-32.87888707443151
 30
0.0
 11
-57.62698007736689
 21
-32.76964678896456
 31
0.0
 12
-57.13787285512112
 22
-32.26046411898618
 32
0.0
 13
-57.13787285512112
 23
-32.26046411898618
 33
0.0
  0
SOLID
  5
148
330
145
100
AcDbEntity
  8
1
 62
     2
100
AcDbTrace
 10
-56.20453033860531
 20
-30.83660857395248
 30
0.0
 11
-56.05607824172468
 21
-30.94584885941944
 31
0.0
 12
-56.54518546397045
 22
-31.45503152939781
 32
0.0
 13
-56.54518546397045
 23
-31.45503152939781
 33
0.0
  0
MTEXT
  5
149
330
145
100
AcDbEntity
  8
1
 62
     3
100
AcDbMText
 10
-60.10270480151828
 20
-35.78335376276164
 30
0.0
 40
0.7
 41
0.0
 71
     7
 72
     1
  1
\C3; {\Fgdt;n}\C3;\C3;1\C3;\H0.42;{\Fgdt;`}0,1
  7
CONVERTER_11
 11
0.5926873911506659
 21
0.8054325895883637
 31
0.0
 73
     1
 44
0.60024009603842
  0
ENDBLK
  5
14B
330
145
100
AcDbEntity
  8
0
100
AcDbBlockEnd
  0
ENDSEC
  0
SECTION
  2
ENTITIES
  0
INSERT
  5
8D
330
1F
100
AcDbEntity
  8
1
100
AcDbBlockReference
  2
1
 10
0.0
 20
0.0
 30
0.0
  0
ENDSEC
  0
SECTION
  2
OBJECTS
  0
DICTIONARY
  5
C
330
0
100
AcDbDictionary
281
     1
  3
ACAD_DETAILVIEWSTYLE
350
2D9
  3
ACAD_GROUP
350
D
  3
ACAD_LAYOUT
350
1A
  3
ACAD_MATERIAL
350
43
  3
ACAD_MLEADERSTYLE
350
6B
  3
ACAD_MLINESTYLE
350
17
  3
ACAD_PLOTSETTINGS
350
19
  3
ACAD_PLOTSTYLENAME
350
E
  3
ACAD_SCALELIST
350
47
  3
ACAD_SECTIONVIEWSTYLE
350
2DA
  3
ACAD_TABLESTYLE
350
69
  3
ACAD_VISUALSTYLE
350
2A
  3
ACDB_RECOMPOSE_DATA
350
2D6
  3
AcDbVariableDictionary
350
296
  0
DICTIONARY
  5
294
330
8
100
AcDbDictionary
280
     1
281
     1
  3
ACAD_XREC_ROUNDTRIP
360
295
  0
DICTIONARY
  5
2D9
102
{ACAD_REACTORS
330
C
102
}
330
C
100
AcDbDictionary
281
     1
  0
DICTIONARY
  5
D
102
{ACAD_REACTORS
330
C
102
}
330
C
100
AcDbDictionary
281
     1
  0
DICTIONARY
  5
1A
102
{ACAD_REACTORS
330
C
102
}
330
C
100
AcDbDictionary
281
     1
  3
Layout1
350
1E
  3
Layout2
350
26
  3
Model
350
22
  0
DICTIONARY
  5
43
102
{ACAD_REACTORS
330
C
102
}
330
C
100
AcDbDictionary
281
     1
  3
ByBlock
350
45
  3
ByLayer
350
44
  3
Global
350
46
  0
DICTIONARY
  5
6B
102
{ACAD_REACTORS
330
C
102
}
330
C
100
AcDbDictionary
281
     1
  3
Standard
350
6C
  0
DICTIONARY
  5
17
102
{ACAD_REACTORS
330
C
102
}
330
C
100
AcDbDictionary
281
     1
  3
Standard
350
18
  0
DICTIONARY
  5
19
102
{ACAD_REACTORS
330
C
102
}
330
C
100
AcDbDictionary
281
     1
  0
ACDBDICTIONARYWDFLT
  5
E
102
{ACAD_REACTORS
330
C
102
}
330
C
100
AcDbDictionary
281
     1
  3
Normal
350
F
100
AcDbDictionaryWithDefault
340
F
  0
DICTIONARY
  5
47
102
{ACAD_REACTORS
330
C
102
}
330
C
100
AcDbDictionary
281
     1
  3
A0
350
48
  3
A1
350
49
  3
A2
350
4A
  3
A3
350
4B
  3
A4
350
4C
  3
A5
350
4D
  3
A6
350
4E
  3
A7
350
4F
  3
A8
350
50
  3
A9
350
51
  3
B0
350
52
  3
B1
350
53
  3
B2
350
54
  3
B3
350
55
  3
B4
350
56
  3
B5
350
57
  3
B6
350
58
  3
B7
350
59
  3
B8
350
5A
  3
B9
350
5B
  3
C0
350
5C
  3
C1
350
5D
  3
C2
350
5E
  3
C3
350
5F
  3
C4
350
60
  3
C5
350
61
  3
C6
350
62
  3
C7
350
63
  3
C8
350
64
  3
C9
350
65
  3
D0
350
66
  3
D1
350
67
  3
D2
350
68
  0
DICTIONARY
  5
2DA
102
{ACAD_REACTORS
330
C
102
}
330
C
100
AcDbDictionary
281
     1
  0
DICTIONARY
  5
69
102
{ACAD_REACTORS
330
C
102
}
330
C
100
AcDbDictionary
281
     1
  3
Standard
350
6A
  0
DICTIONARY
  5
2A
102
{ACAD_REACTORS
330
C
102
}
330
C
100
AcDbDictionary
281
     1
  3
2dWireframe
350
2F
  3
Basic
350
32
  3
Brighten
350
36
  3
ColorChange
350
3A
  3
Conceptual
350
34
  3
Dim
350
35
  3
EdgeColorOff
350
3D
  3
Facepattern
350
39
  3
Flat
350
2B
  3
FlatWithEdges
350
2C
  3
Gouraud
350
2D
  3
GouraudWithEdges
350
2E
  3
Hidden
350
31
  3
JitterOff
350
3B
  3
Linepattern
350
38
  3
OverhangOff
350
3C
  3
Realistic
350
33
  3
Shaded
350
42
  3
Shaded with edges
350
41
  3
Shades of Gray
350
3E
  3
Sketchy
350
3F
  3
Thicken
350
37
  3
Wireframe
350
30
  3
X-Ray
350
40
  0
XRECORD
  5
2D6
102
{ACAD_REACTORS
330
C
102
}
330
C
100
AcDbXrecord
280
     1
 90
        1
330
6A
  0
DICTIONARY
  5
296
102
{ACAD_REACTORS
330
C
102
}
330
C
100
AcDbDictionary
281
     1
  3
CANNOSCALE
350
297
  3
CMLEADERSTYLE
350
2D8
  3
CTABLESTYLE
350
2D7
  3
MSLTSCALE
350
298
  3
XCLIPFRAME
350
299
  0
XRECORD
  5
295
102
{ACAD_REACTORS
330
294
102
}
330
294
100
AcDbXrecord
280
     1
102
VTR_0.000_0.000_1.000_1.000_VISUALSTYLE
340
2F
102
VTR_0.000_0.000_1.000_1.000_GRIDDISPLAY
 70
     3
102
VTR_0.000_0.000_1.000_1.000_GRIDMAJOR
 70
     5
102
VTR_0.000_0.000_1.000_1.000_DEFAULTLIGHTING
280
     1
102
VTR_0.000_0.000_1.000_1.000_DEFAULTLIGHTINGTYPE
 70
     1
102
VTR_0.000_0.000_1.000_1.000_BRIGHTNESS
141
0.0
102
VTR_0.000_0.000_1.000_1.000_CONTRAST
142
0.0
  0
LAYOUT
  5
1E
102
{ACAD_REACTORS
330
1A
102
}
330
1A
100
AcDbPlotSettings
  1

  2
none_device
  4

  6

 40
0.0
 41
0.0
 42
0.0
 43
0.0
 44
0.0
 45
0.0
 46
0.0
 47
0.0
 48
0.0
 49
0.0
140
0.0
141
0.0
142
1.0
143
1.0
 70
   688
 72
     0
 73
     0
 74
     5
  7

 75
    16
 76
     0
 77
     2
 78
   300
147
1.0
148
0.0
149
0.0
100
AcDbLayout
  1
Layout1
 70
     1
 71
     1
 10
0.0
 20
0.0
 11
12.0
 21
9.0
 12
0.0
 22
0.0
 32
0.0
 14
1.00000000000000E+20
 24
1.00000000000000E+20
 34
1.00000000000000E+20
 15
-1.00000000000000E+20
 25
-1.00000000000000E+20
 35
-1.00000000000000E+20
146
0.0
 13
0.0
 23
0.0
 33
0.0
 16
1.0
 26
0.0
 36
0.0
 17
0.0
 27
1.0
 37
0.0
 76
     0
330
1B
  0
LAYOUT
  5
26
102
{ACAD_REACTORS
330
1A
102
}
330
1A
100
AcDbPlotSettings
  1

  2
none_device
  4

  6

 40
0.0
 41
0.0
 42
0.0
 43
0.0
 44
0.0
 45
0.0
 46
0.0
 47
0.0
 48
0.0
 49
0.0
140
0.0
141
0.0
142
1.0
143
1.0
 70
   688
 72
     0
 73
     0
 74
     5
  7

 75
    16
 76
     0
 77
     2
 78
   300
147
1.0
148
0.0
149
0.0
100
AcDbLayout
  1
Layout2
 70
     1
 71
     2
 10
0.0
 20
0.0
 11
0.0
 21
0.0
 12
0.0
 22
0.0
 32
0.0
 14
0.0
 24
0.0
 34
0.0
 15
0.0
 25
0.0
 35
0.0
146
0.0
 13
0.0
 23
0.0
 33
0.0
 16
1.0
 26
0.0
 36
0.0
 17
0.0
 27
1.0
 37
0.0
 76
     0
330
23
  0
LAYOUT
  5
22
102
{ACAD_REACTORS
330
1A
102
}
330
1A
100
AcDbPlotSettings
  1

  2
none_device
  4
Letter_(8.50_x_11.00_Inches)
  6

 40
6.35
 41
6.35
 42
6.35000508
 43
6.35000508
 44
215.9
 45
279.4
 46
0.0
 47
0.0
 48
0.0
 49
0.0
140
0.0
141
0.0
142
1.0
143
1.0
 70
  1712
 72
     0
 73
     0
 74
     0
  7

 75
     0
 76
     0
 77
     2
 78
   300
147
1.0
148
0.0
149
0.0
100
AcDbLayout
  1
Model
 70
     1
 71
     0
 10
0.0
 20
0.0
 11
12.0
 21
9.0
 12
0.0
 22
0.0
 32
0.0
 14
-457.7082196961705
 24
-314.224989179649
 34
0.0
 15
-37.70821969617208
 25
-17.22498917964902
 35
0.0
146
0.0
 13
0.0
 23
0.0
 33
0.0
 16
1.0
 26
0.0
 36
0.0
 17
0.0
 27
1.0
 37
0.0
 76
     0
330
1F
331
29
  0
MATERIAL
  5
45
102
{ACAD_REACTORS
330
43
102
}
102
{ACAD_XDICTIONARY
360
2CC
102
}
330
43
100
AcDbMaterial
  1
ByBlock
  0
MATERIAL
  5
44
102
{ACAD_REACTORS
330
43
102
}
102
{ACAD_XDICTIONARY
360
2CA
102
}
330
43
100
AcDbMaterial
  1
ByLayer
  0
MATERIAL
  5
46
102
{ACAD_REACTORS
330
43
102
}
102
{ACAD_XDICTIONARY
360
2CE
102
}
330
43
100
AcDbMaterial
  1
Global
  0
MLEADERSTYLE
  5
6C
102
{ACAD_REACTORS
330
6B
102
}
102
{ACAD_XDICTIONARY
360
2D4
102
}
330
6B
100
AcDbMLeaderStyle
170
     2
171
     1
172
     0
 90
        2
 40
0.0
 41
0.0
173
     1
 91
-1056964608
340
14
 92
       -2
290
     1
 42
0.09
291
     1
 43
0.36
  3
Standard
341
0
 44
0.18
300

342
11
174
     1
178
     6
175
     1
176
     0
 93
-1056964608
 45
0.18
292
     0
297
     0
 46
0.18
343
0
 94
-1056964608
 47
1.0
 49
1.0
140
1.0
293
     1
141
0.0
294
     1
177
     0
142
1.0
295
     0
296
     0
143
0.125
1001
ACAD_MLEADERVER
1070
     2
  0
MLINESTYLE
  5
18
102
{ACAD_REACTORS
330
17
102
}
330
17
100
AcDbMlineStyle
  2
Standard
 70
     0
  3

 62
   256
 51
90.0
 52
90.0
 71
     2
 49
0.5
 62
   256
  6
BYLAYER
 49
-0.5
 62
   256
  6
BYLAYER
  0
ACDBPLACEHOLDER
  5
F
102
{ACAD_REACTORS
330
E
102
}
330
E
  0
SCALE
  5
48
102
{ACAD_REACTORS
330
47
102
}
330
47
100
AcDbScale
 70
     0
300
1:1
140
1.0
141
1.0
290
     1
  0
SCALE
  5
49
102
{ACAD_REACTORS
330
47
102
}
330
47
100
AcDbScale
 70
     0
300
1:2
140
1.0
141
2.0
290
     0
  0
SCALE
  5
4A
102
{ACAD_REACTORS
330
47
102
}
330
47
100
AcDbScale
 70
     0
300
1:4
140
1.0
141
4.0
290
     0
  0
SCALE
  5
4B
102
{ACAD_REACTORS
330
47
102
}
330
47
100
AcDbScale
 70
     0
300
1:5
140
1.0
141
5.0
290
     0
  0
SCALE
  5
4C
102
{ACAD_REACTORS
330
47
102
}
330
47
100
AcDbScale
 70
     0
300
1:8
140
1.0
141
8.0
290
     0
  0
SCALE
  5
4D
102
{ACAD_REACTORS
330
47
102
}
330
47
100
AcDbScale
 70
     0
300
1:10
140
1.0
141
10.0
290
     0
  0
SCALE
  5
4E
102
{ACAD_REACTORS
330
47
102
}
330
47
100
AcDbScale
 70
     0
300
1:16
140
1.0
141
16.0
290
     0
  0
SCALE
  5
4F
102
{ACAD_REACTORS
330
47
102
}
330
47
100
AcDbScale
 70
     0
300
1:20
140
1.0
141
20.0
290
     0
  0
SCALE
  5
50
102
{ACAD_REACTORS
330
47
102
}
330
47
100
AcDbScale
 70
     0
300
1:30
140
1.0
141
30.0
290
     0
  0
SCALE
  5
51
102
{ACAD_REACTORS
330
47
102
}
330
47
100
AcDbScale
 70
     0
300
1:40
140
1.0
141
40.0
290
     0
  0
SCALE
  5
52
102
{ACAD_REACTORS
330
47
102
}
330
47
100
AcDbScale
 70
     0
300
1:50
140
1.0
141
50.0
290
     0
  0
SCALE
  5
53
102
{ACAD_REACTORS
330
47
102
}
330
47
100
AcDbScale
 70
     0
300
1:100
140
1.0
141
100.0
290
     0
  0
SCALE
  5
54
102
{ACAD_REACTORS
330
47
102
}
330
47
100
AcDbScale
 70
     0
300
2:1
140
2.0
141
1.0
290
     0
  0
SCALE
  5
55
102
{ACAD_REACTORS
330
47
102
}
330
47
100
AcDbScale
 70
     0
300
4:1
140
4.0
141
1.0
290
     0
  0
SCALE
  5
56
102
{ACAD_REACTORS
330
47
102
}
330
47
100
AcDbScale
 70
     0
300
8:1
140
8.0
141
1.0
290
     0
  0
SCALE
  5
57
102
{ACAD_REACTORS
330
47
102
}
330
47
100
AcDbScale
 70
     0
300
10:1
140
10.0
141
1.0
290
     0
  0
SCALE
  5
58
102
{ACAD_REACTORS
330
47
102
}
330
47
100
AcDbScale
 70
     0
300
100:1
140
100.0
141
1.0
290
     0
  0
SCALE
  5
59
102
{ACAD_REACTORS
330
47
102
}
330
47
100
AcDbScale
 70
     0
300
1/128" = 1'-0"
140
0.0078125
141
12.0
290
     0
  0
SCALE
  5
5A
102
{ACAD_REACTORS
330
47
102
}
330
47
100
AcDbScale
 70
     0
300
1/64" = 1'-0"
140
0.015625
141
12.0
290
     0
  0
SCALE
  5
5B
102
{ACAD_REACTORS
330
47
102
}
330
47
100
AcDbScale
 70
     0
300
1/32" = 1'-0"
140
0.03125
141
12.0
290
     0
  0
SCALE
  5
5C
102
{ACAD_REACTORS
330
47
102
}
330
47
100
AcDbScale
 70
     0
300
1/16" = 1'-0"
140
0.0625
141
12.0
290
     0
  0
SCALE
  5
5D
102
{ACAD_REACTORS
330
47
102
}
330
47
100
AcDbScale
 70
     0
300
3/32" = 1'-0"
140
0.09375
141
12.0
290
     0
  0
SCALE
  5
5E
102
{ACAD_REACTORS
330
47
102
}
330
47
100
AcDbScale
 70
     0
300
1/8" = 1'-0"
140
0.125
141
12.0
290
     0
  0
SCALE
  5
5F
102
{ACAD_REACTORS
330
47
102
}
330
47
100
AcDbScale
 70
     0
300
3/16" = 1'-0"
140
0.1875
141
12.0
290
     0
  0
SCALE
  5
60
102
{ACAD_REACTORS
330
47
102
}
330
47
100
AcDbScale
 70
     0
300
1/4" = 1'-0"
140
0.25
141
12.0
290
     0
  0
SCALE
  5
61
102
{ACAD_REACTORS
330
47
102
}
330
47
100
AcDbScale
 70
     0
300
3/8" = 1'-0"
140
0.375
141
12.0
290
     0
  0
SCALE
  5
62
102
{ACAD_REACTORS
330
47
102
}
330
47
100
AcDbScale
 70
     0
300
1/2" = 1'-0"
140
0.5
141
12.0
290
     0
  0
SCALE
  5
63
102
{ACAD_REACTORS
330
47
102
}
330
47
100
AcDbScale
 70
     0
300
3/4" = 1'-0"
140
0.75
141
12.0
290
     0
  0
SCALE
  5
64
102
{ACAD_REACTORS
330
47
102
}
330
47
100
AcDbScale
 70
     0
300
1" = 1'-0"
140
1.0
141
12.0
290
     0
  0
SCALE
  5
65
102
{ACAD_REACTORS
330
47
102
}
330
47
100
AcDbScale
 70
     0
300
1-1/2" = 1'-0"
140
1.5
141
12.0
290
     0
  0
SCALE
  5
66
102
{ACAD_REACTORS
330
47
102
}
330
47
100
AcDbScale
 70
     0
300
3" = 1'-0"
140
3.0
141
12.0
290
     0
  0
SCALE
  5
67
102
{ACAD_REACTORS
330
47
102
}
330
47
100
AcDbScale
 70
     0
300
6" = 1'-0"
140
6.0
141
12.0
290
     0
  0
SCALE
  5
68
102
{ACAD_REACTORS
330
47
102
}
330
47
100
AcDbScale
 70
     0
300
1'-0" = 1'-0"
140
12.0
141
12.0
290
     0
  0
TABLESTYLE
  5
6A
102
{ACAD_REACTORS
330
69
102
}
102
{ACAD_XDICTIONARY
360
2D0
102
}
330
69
100
AcDbTableStyle
  3
Standard
 70
     0
 71
     0
 40
0.06
 41
0.06
280
     0
281
     0
  7
Standard
140
0.18
170
     2
 62
     0
 63
   257
283
     0
274
    -2
284
     1
 64
     0
275
    -2
285
     1
 65
     0
276
    -2
286
     1
 66
     0
277
    -2
287
     1
 67
     0
278
    -2
288
     1
 68
     0
279
    -2
289
     1
 69
     0
  7
Standard
140
0.25
170
     5
 62
     0
 63
   257
283
     0
274
    -2
284
     1
 64
     0
275
    -2
285
     1
 65
     0
276
    -2
286
     1
 66
     0
277
    -2
287
     1
 67
     0
278
    -2
288
     1
 68
     0
279
    -2
289
     1
 69
     0
  7
Standard
140
0.18
170
     5
 62
     0
 63
   257
283
     0
274
    -2
284
     1
 64
     0
275
    -2
285
     1
 65
     0
276
    -2
286
     1
 66
     0
277
    -2
287
     1
 67
     0
278
    -2
288
     1
 68
     0
279
    -2
289
     1
 69
     0
  0
VISUALSTYLE
  5
2F
102
{ACAD_REACTORS
330
2A
102
}
102
{ACAD_XDICTIONARY
360
2A2
102
}
330
2A
100
AcDbVisualStyle
  2
2dWireframe
 70
     4
 71
     0
 72
     2
 73
     0
 90
        0
 40
0.6
 41
30.0
 62
     5
 63
     7
421
 16777215
 74
     1
 91
        4
 64
     7
 65
   257
 75
     1
175
     1
 42
1.0
 92
        0
 66
   257
 43
1.0
 76
     1
 77
     6
 78
     2
 67
     7
 79
     5
170
     0
171
     0
290
     0
174
     0
 93
        1
 44
0.0
173
     0
291
     0
 45
0.0
1001
ACAD
1000
AcDbSavedByObjectVersion
1070
     0
  0
VISUALSTYLE
  5
32
102
{ACAD_REACTORS
330
2A
102
}
102
{ACAD_XDICTIONARY
360
2A8
102
}
330
2A
100
AcDbVisualStyle
  2
Basic
 70
     7
 71
     1
 72
     0
 73
     1
 90
        0
 40
0.6
 41
30.0
 62
     5
 63
     7
421
 16777215
 74
     0
 91
        4
 64
     7
 65
   257
 75
     1
175
     1
 42
1.0
 92
        8
 66
     7
 43
1.0
 76
     1
 77
     6
 78
     2
 67
     7
 79
     5
170
     0
171
     0
290
     0
174
     0
 93
        1
 44
0.0
173
     0
291
     1
 45
0.0
1001
ACAD
1000
AcDbSavedByObjectVersion
1070
     0
  0
VISUALSTYLE
  5
36
102
{ACAD_REACTORS
330
2A
102
}
102
{ACAD_XDICTIONARY
360
2B0
102
}
330
2A
100
AcDbVisualStyle
  2
Brighten
 70
    12
 71
     2
 72
     2
 73
     0
 90
        0
 40
0.6
 41
30.0
 62
     5
 63
     7
421
 16777215
 74
     1
 91
        4
 64
     7
 65
   257
 75
     1
175
     1
 42
1.0
 92
        8
 66
     7
 43
1.0
 76
     1
 77
     6
 78
     2
 67
     7
 79
     5
170
     0
171
     0
290
     0
174
     0
 93
        1
 44
50.0
173
     0
291
     1
 45
0.0
1001
ACAD
1000
AcDbSavedByObjectVersion
1070
     0
  0
VISUALSTYLE
  5
3A
102
{ACAD_REACTORS
330
2A
102
}
102
{ACAD_XDICTIONARY
360
2B8
102
}
330
2A
100
AcDbVisualStyle
  2
ColorChange
 70
    16
 71
     2
 72
     2
 73
     3
 90
        0
 40
0.6
 41
30.0
 62
     5
 63
     8
421
  8421504
 74
     1
 91
        4
 64
     7
 65
   257
 75
     1
175
     1
 42
1.0
 92
        8
 66
     8
424
  8421504
 43
1.0
 76
     1
 77
     6
 78
     2
 67
     7
 79
     5
170
     0
171
     0
290
     0
174
     0
 93
        1
 44
0.0
173
     0
291
     1
 45
0.0
1001
ACAD
1000
AcDbSavedByObjectVersion
1070
     0
  0
VISUALSTYLE
  5
34
102
{ACAD_REACTORS
330
2A
102
}
102
{ACAD_XDICTIONARY
360
2AC
102
}
330
2A
100
AcDbVisualStyle
  2
Conceptual
 70
     9
 71
     3
 72
     2
 73
     0
 90
        0
 40
0.6
 41
30.0
 62
     5
 63
     7
421
 16777215
 74
     2
 91
        2
 64
     7
 65
   257
 75
     1
175
     1
 42
179.0
 92
        8
 66
     7
 43
1.0
 76
     1
 77
     6
 78
     2
 67
     7
 79
     3
170
     0
171
     0
290
     0
174
     0
 93
        1
 44
0.0
173
     0
291
     0
 45
0.0
1001
ACAD
1000
AcDbSavedByObjectVersion
1070
     0
  0
VISUALSTYLE
  5
35
102
{ACAD_REACTORS
330
2A
102
}
102
{ACAD_XDICTIONARY
360
2AE
102
}
330
2A
100
AcDbVisualStyle
  2
Dim
 70
    11
 71
     2
 72
     2
 73
     0
 90
        0
 40
0.6
 41
30.0
 62
     5
 63
     7
421
 16777215
 74
     1
 91
        4
 64
     7
 65
   257
 75
     1
175
     1
 42
1.0
 92
        8
 66
     7
 43
1.0
 76
     1
 77
     6
 78
     2
 67
     7
 79
     5
170
     0
171
     0
290
     0
174
     0
 93
        1
 44
-50.0
173
     0
291
     1
 45
0.0
1001
ACAD
1000
AcDbSavedByObjectVersion
1070
     0
  0
VISUALSTYLE
  5
3D
102
{ACAD_REACTORS
330
2A
102
}
102
{ACAD_XDICTIONARY
360
2BE
102
}
330
2A
100
AcDbVisualStyle
  2
EdgeColorOff
 70
    22
 71
     2
 72
     2
 73
     0
 90
        0
 40
0.6
 41
30.0
 62
     5
 63
     7
421
 16777215
 74
     1
 91
        4
 64
     7
 65
   257
 75
     1
175
     1
 42
1.0
 92
        8
 66
     7
 43
1.0
 76
     1
 77
     6
 78
     2
 67
     7
 79
     5
170
     0
171
     0
290
     0
174
     0
 93
        1
 44
0.0
173
     0
291
     1
 45
0.0
1001
ACAD
1000
AcDbSavedByObjectVersion
1070
     0
  0
VISUALSTYLE
  5
39
102
{ACAD_REACTORS
330
2A
102
}
102
{ACAD_XDICTIONARY
360
2B6
102
}
330
2A
100
AcDbVisualStyle
  2
Facepattern
 70
    15
 71
     2
 72
     2
 73
     0
 90
        0
 40
0.6
 41
30.0
 62
     5
 63
     7
421
 16777215
 74
     1
 91
        4
 64
     7
 65
   257
 75
     1
175
     1
 42
1.0
 92
        8
 66
     7
 43
1.0
 76
     1
 77
     6
 78
     2
 67
     7
 79
     5
170
     0
171
     0
290
     0
174
     0
 93
        1
 44
0.0
173
     0
291
     1
 45
0.0
1001
ACAD
1000
AcDbSavedByObjectVersion
1070
     0
  0
VISUALSTYLE
  5
2B
102
{ACAD_REACTORS
330
2A
102
}
102
{ACAD_XDICTIONARY
360
29A
102
}
330
2A
100
AcDbVisualStyle
  2
Flat
 70
     0
 71
     2
 72
     1
 73
     1
 90
        2
 40
0.6
 41
30.0
 62
     5
 63
     7
421
 16777215
 74
     0
 91
        0
 64
     7
 65
   257
 75
     1
175
     1
 42
1.0
 92
        8
 66
     7
 43
1.0
 76
     1
 77
     6
 78
     2
 67
     7
 79
     5
170
     0
171
     0
290
     0
174
     0
 93
       13
 44
0.0
173
     0
291
     1
 45
0.0
1001
ACAD
1000
AcDbSavedByObjectVersion
1070
     0
  0
VISUALSTYLE
  5
2C
102
{ACAD_REACTORS
330
2A
102
}
102
{ACAD_XDICTIONARY
360
29C
102
}
330
2A
100
AcDbVisualStyle
  2
FlatWithEdges
 70
     1
 71
     2
 72
     1
 73
     1
 90
        2
 40
0.6
 41
30.0
 62
     5
 63
     7
421
 16777215
 74
     1
 91
        0
 64
     7
 65
   257
 75
     1
175
     1
 42
1.0
 92
        0
 66
   257
 43
1.0
 76
     1
 77
     6
 78
     2
 67
     7
 79
     5
170
     0
171
     0
290
     0
174
     0
 93
       13
 44
0.0
173
     0
291
     1
 45
0.0
1001
ACAD
1000
AcDbSavedByObjectVersion
1070
     0
  0
VISUALSTYLE
  5
2D
102
{ACAD_REACTORS
330
2A
102
}
102
{ACAD_XDICTIONARY
360
29E
102
}
330
2A
100
AcDbVisualStyle
  2
Gouraud
 70
     2
 71
     2
 72
     2
 73
     1
 90
        2
 40
0.6
 41
30.0
 62
     5
 63
     7
421
 16777215
 74
     0
 91
        0
 64
     7
 65
   257
 75
     1
175
     1
 42
1.0
 92
        0
 66
     7
 43
1.0
 76
     1
 77
     6
 78
     2
 67
     7
 79
     5
170
     0
171
     0
290
     0
174
     0
 93
       13
 44
0.0
173
     0
291
     1
 45
0.0
1001
ACAD
1000
AcDbSavedByObjectVersion
1070
     0
  0
VISUALSTYLE
  5
2E
102
{ACAD_REACTORS
330
2A
102
}
102
{ACAD_XDICTIONARY
360
2A0
102
}
330
2A
100
AcDbVisualStyle
  2
GouraudWithEdges
 70
     3
 71
     2
 72
     2
 73
     1
 90
        2
 40
0.6
 41
30.0
 62
     5
 63
     7
421
 16777215
 74
     1
 91
        0
 64
     7
 65
   257
 75
     1
175
     1
 42
1.0
 92
        0
 66
   257
 43
1.0
 76
     1
 77
     6
 78
     2
 67
     7
 79
     5
170
     0
171
     0
290
     0
174
     0
 93
       13
 44
0.0
173
     0
291
     1
 45
0.0
1001
ACAD
1000
AcDbSavedByObjectVersion
1070
     0
  0
VISUALSTYLE
  5
31
102
{ACAD_REACTORS
330
2A
102
}
102
{ACAD_XDICTIONARY
360
2A6
102
}
330
2A
100
AcDbVisualStyle
  2
Hidden
 70
     6
 71
     1
 72
     2
 73
     2
 90
        0
 40
0.6
 41
30.0
 62
     5
 63
     7
421
 16777215
 74
     2
 91
        2
 64
     7
 65
   257
 75
     2
175
     1
 42
40.0
 92
        0
 66
   257
 43
1.0
 76
     1
 77
     6
 78
     2
 67
     7
 79
     3
170
     0
171
     0
290
     0
174
     0
 93
        1
 44
0.0
173
     0
291
     0
 45
0.0
1001
ACAD
1000
AcDbSavedByObjectVersion
1070
     0
  0
VISUALSTYLE
  5
3B
102
{ACAD_REACTORS
330
2A
102
}
102
{ACAD_XDICTIONARY
360
2BA
102
}
330
2A
100
AcDbVisualStyle
  2
JitterOff
 70
    20
 71
     2
 72
     2
 73
     0
 90
        0
 40
0.6
 41
30.0
 62
     5
 63
     7
421
 16777215
 74
     1
 91
        4
 64
     7
 65
   257
 75
     1
175
     1
 42
1.0
 92
       10
 66
     7
 43
1.0
 76
     1
 77
     6
 78
     2
 67
     7
 79
     5
170
     0
171
     0
290
     0
174
     0
 93
        1
 44
0.0
173
     0
291
     1
 45
0.0
1001
ACAD
1000
AcDbSavedByObjectVersion
1070
     0
  0
VISUALSTYLE
  5
38
102
{ACAD_REACTORS
330
2A
102
}
102
{ACAD_XDICTIONARY
360
2B4
102
}
330
2A
100
AcDbVisualStyle
  2
Linepattern
 70
    14
 71
     2
 72
     2
 73
     0
 90
        0
 40
0.6
 41
30.0
 62
     5
 63
     7
421
 16777215
 74
     1
 91
        4
 64
     7
 65
   257
 75
     7
175
     7
 42
1.0
 92
        8
 66
     7
 43
1.0
 76
     1
 77
     6
 78
     2
 67
     7
 79
     5
170
     0
171
     0
290
     0
174
     0
 93
        1
 44
0.0
173
     0
291
     1
 45
0.0
1001
ACAD
1000
AcDbSavedByObjectVersion
1070
     0
  0
VISUALSTYLE
  5
3C
102
{ACAD_REACTORS
330
2A
102
}
102
{ACAD_XDICTIONARY
360
2BC
102
}
330
2A
100
AcDbVisualStyle
  2
OverhangOff
 70
    21
 71
     2
 72
     2
 73
     0
 90
        0
 40
0.6
 41
30.0
 62
     5
 63
     7
421
 16777215
 74
     1
 91
        4
 64
     7
 65
   257
 75
     1
175
     1
 42
1.0
 92
        9
 66
     7
 43
1.0
 76
     1
 77
     6
 78
     2
 67
     7
 79
     5
170
     0
171
     0
290
     0
174
     0
 93
        1
 44
0.0
173
     0
291
     1
 45
0.0
1001
ACAD
1000
AcDbSavedByObjectVersion
1070
     0
  0
VISUALSTYLE
  5
33
102
{ACAD_REACTORS
330
2A
102
}
102
{ACAD_XDICTIONARY
360
2AA
102
}
330
2A
100
AcDbVisualStyle
  2
Realistic
 70
     8
 71
     2
 72
     3
 73
     0
 90
        2
 40
0.6
 41
30.0
 62
     5
 63
     7
421
 16777215
 74
     0
 91
        0
 64
     7
 65
   257
 75
     1
175
     1
 42
1.0
 92
        8
 66
   257
 43
1.0
 76
     1
 77
     6
 78
     2
 67
     7
 79
     3
170
     0
171
     0
290
     0
174
     0
 93
       13
 44
0.0
173
     0
291
     0
 45
0.0
1001
ACAD
1000
AcDbSavedByObjectVersion
1070
     0
  0
VISUALSTYLE
  5
42
102
{ACAD_REACTORS
330
2A
102
}
102
{ACAD_XDICTIONARY
360
2C8
102
}
330
2A
100
AcDbVisualStyle
  2
Shaded
 70
    27
 71
     2
 72
     2
 73
     1
 90
        2
 40
0.6
 41
30.0
 62
     5
 63
     7
421
 16777215
 74
     0
 91
        4
 64
     7
 65
   257
 75
     1
175
     1
 42
1.0
 92
        8
 66
   257
 43
1.0
 76
     1
 77
     6
 78
     2
 67
     8
425
  7895160
 79
     3
170
     0
171
     0
290
     0
174
     0
 93
        5
 44
0.0
173
     0
291
     0
 45
0.0
1001
ACAD
1000
AcDbSavedByObjectVersion
1070
     0
  0
VISUALSTYLE
  5
41
102
{ACAD_REACTORS
330
2A
102
}
102
{ACAD_XDICTIONARY
360
2C6
102
}
330
2A
100
AcDbVisualStyle
  2
Shaded with edges
 70
    26
 71
     2
 72
     2
 73
     1
 90
        2
 40
0.6
 41
30.0
 62
     5
 63
     7
421
 16777215
 74
     1
 91
       10
 64
     7
 65
   257
 75
     2
175
     1
 42
1.0
 92
        8
 66
   257
 43
1.0
 76
     1
 77
     6
 78
     2
 67
     7
 79
     3
170
     0
171
     0
290
     0
174
     0
 93
        5
 44
0.0
173
     0
291
     0
 45
0.0
1001
ACAD
1000
AcDbSavedByObjectVersion
1070
     0
  0
VISUALSTYLE
  5
3E
102
{ACAD_REACTORS
330
2A
102
}
102
{ACAD_XDICTIONARY
360
2C0
102
}
330
2A
100
AcDbVisualStyle
  2
Shades of Gray
 70
    23
 71
     2
 72
     2
 73
     3
 90
        0
 40
0.6
 41
30.0
 62
     5
 63
     7
421
 16777215
 74
     2
 91
        2
 64
     7
 65
     7
 75
     1
175
     1
 42
40.0
 92
        8
 66
     7
 43
1.0
 76
     1
 77
     6
 78
     2
 67
     7
 79
     3
170
     0
171
     0
290
     0
174
     0
 93
        1
 44
0.0
173
     0
291
     0
 45
0.0
1001
ACAD
1000
AcDbSavedByObjectVersion
1070
     0
  0
VISUALSTYLE
  5
3F
102
{ACAD_REACTORS
330
2A
102
}
102
{ACAD_XDICTIONARY
360
2C2
102
}
330
2A
100
AcDbVisualStyle
  2
Sketchy
 70
    24
 71
     1
 72
     2
 73
     2
 90
        0
 40
0.6
 41
30.0
 62
     5
 63
     7
421
 16777215
 74
     2
 91
        2
 64
     7
 65
     7
 75
     1
175
     1
 42
40.0
 92
       11
 66
     7
 43
1.0
 76
     1
 77
     6
 78
     2
 67
     7
 79
     6
170
     0
171
     0
290
     0
174
     0
 93
        1
 44
0.0
173
     0
291
     0
 45
0.0
1001
ACAD
1000
AcDbSavedByObjectVersion
1070
     0
  0
VISUALSTYLE
  5
37
102
{ACAD_REACTORS
330
2A
102
}
102
{ACAD_XDICTIONARY
360
2B2
102
}
330
2A
100
AcDbVisualStyle
  2
Thicken
 70
    13
 71
     2
 72
     2
 73
     0
 90
        0
 40
0.6
 41
30.0
 62
     5
 63
     7
421
 16777215
 74
     1
 91
        4
 64
     7
 65
   257
 75
     1
175
     1
 42
1.0
 92
       12
 66
     7
 43
1.0
 76
     1
 77
     6
 78
     2
 67
     7
 79
     5
170
     0
171
     0
290
     0
174
     0
 93
        1
 44
0.0
173
     0
291
     1
 45
0.0
1001
ACAD
1000
AcDbSavedByObjectVersion
1070
     0
  0
VISUALSTYLE
  5
30
102
{ACAD_REACTORS
330
2A
102
}
102
{ACAD_XDICTIONARY
360
2A4
102
}
330
2A
100
AcDbVisualStyle
  2
Wireframe
 70
     5
 71
     0
 72
     2
 73
     0
 90
        0
 40
0.6
 41
30.0
 62
     5
 63
     7
421
 16777215
 74
     1
 91
        4
 64
     7
 65
   257
 75
     1
175
     1
 42
1.0
 92
        0
 66
   257
 43
1.0
 76
     1
 77
     6
 78
     2
 67
     7
 79
     3
170
     0
171
     0
290
     0
174
     0
 93
        1
 44
0.0
173
     0
291
     0
 45
0.0
1001
ACAD
1000
AcDbSavedByObjectVersion
1070
     0
  0
VISUALSTYLE
  5
40
102
{ACAD_REACTORS
330
2A
102
}
102
{ACAD_XDICTIONARY
360
2C4
102
}
330
2A
100
AcDbVisualStyle
  2
X-Ray
 70
    25
 71
     2
 72
     2
 73
     1
 90
        1
 40
0.5
 41
30.0
 62
     5
 63
     7
421
 16777215
 74
     1
 91
        0
 64
     7
 65
   257
 75
     1
175
     1
 42
1.0
 92
        8
 66
     7
 43
1.0
 76
     1
 77
     6
 78
     2
 67
     7
 79
     3
170
     0
171
     0
290
     0
174
     0
 93
       13
 44
0.0
173
     0
291
     0
 45
0.0
1001
ACAD
1000
AcDbSavedByObjectVersion
1070
     0
  0
DICTIONARYVAR
  5
297
102
{ACAD_REACTORS
330
296
102
}
330
296
100
DictionaryVariables
280
     0
  1
1:1
  0
DICTIONARYVAR
  5
2D8
102
{ACAD_REACTORS
330
296
102
}
330
296
100
DictionaryVariables
280
     0
  1
Standard
  0
DICTIONARYVAR
  5
2D7
102
{ACAD_REACTORS
330
296
102
}
330
296
100
DictionaryVariables
280
     0
  1
Standard
  0
DICTIONARYVAR
  5
298
102
{ACAD_REACTORS
330
296
102
}
330
296
100
DictionaryVariables
280
     0
  1
1
  0
DICTIONARYVAR
  5
299
102
{ACAD_REACTORS
330
296
102
}
330
296
100
DictionaryVariables
280
     0
  1
2
  0
DICTIONARY
  5
2CC
330
45
100
AcDbDictionary
280
     1
281
     1
  3
ACAD_XREC_ROUNDTRIP
360
2CD
  0
DICTIONARY
  5
2CA
330
44
100
AcDbDictionary
280
     1
281
     1
  3
ACAD_XREC_ROUNDTRIP
360
2CB
  0
DICTIONARY
  5
2CE
330
46
100
AcDbDictionary
280
     1
281
     1
  3
ACAD_XREC_ROUNDTRIP
360
2CF
  0
DICTIONARY
  5
2D4
330
6C
100
AcDbDictionary
280
     1
281
     1
  3
ACAD_XREC_ROUNDTRIP
360
2D5
  0
DICTIONARY
  5
2D0
330
6A
100
AcDbDictionary
280
     1
281
     1
  3
ACAD_ROUNDTRIP_2008_TABLESTYLE_CELLSTYLEMAP
360
2D2
  3
ACAD_XREC_ROUNDTRIP
360
2D1
  0
DICTIONARY
  5
2A2
330
2F
100
AcDbDictionary
280
     1
281
     1
  3
ACAD_XREC_ROUNDTRIP
360
2A3
  0
DICTIONARY
  5
2A8
330
32
100
AcDbDictionary
280
     1
281
     1
  3
ACAD_XREC_ROUNDTRIP
360
2A9
  0
DICTIONARY
  5
2B0
330
36
100
AcDbDictionary
280
     1
281
     1
  3
ACAD_XREC_ROUNDTRIP
360
2B1
  0
DICTIONARY
  5
2B8
330
3A
100
AcDbDictionary
280
     1
281
     1
  3
ACAD_XREC_ROUNDTRIP
360
2B9
  0
DICTIONARY
  5
2AC
330
34
100
AcDbDictionary
280
     1
281
     1
  3
ACAD_XREC_ROUNDTRIP
360
2AD
  0
DICTIONARY
  5
2AE
330
35
100
AcDbDictionary
280
     1
281
     1
  3
ACAD_XREC_ROUNDTRIP
360
2AF
  0
DICTIONARY
  5
2BE
330
3D
100
AcDbDictionary
280
     1
281
     1
  3
ACAD_XREC_ROUNDTRIP
360
2BF
  0
DICTIONARY
  5
2B6
330
39
100
AcDbDictionary
280
     1
281
     1
  3
ACAD_XREC_ROUNDTRIP
360
2B7
  0
DICTIONARY
  5
29A
330
2B
100
AcDbDictionary
280
     1
281
     1
  3
ACAD_XREC_ROUNDTRIP
360
29B
  0
DICTIONARY
  5
29C
330
2C
100
AcDbDictionary
280
     1
281
     1
  3
ACAD_XREC_ROUNDTRIP
360
29D
  0
DICTIONARY
  5
29E
330
2D
100
AcDbDictionary
280
     1
281
     1
  3
ACAD_XREC_ROUNDTRIP
360
29F
  0
DICTIONARY
  5
2A0
330
2E
100
AcDbDictionary
280
     1
281
     1
  3
ACAD_XREC_ROUNDTRIP
360
2A1
  0
DICTIONARY
  5
2A6
330
31
100
AcDbDictionary
280
     1
281
     1
  3
ACAD_XREC_ROUNDTRIP
360
2A7
  0
DICTIONARY
  5
2BA
330
3B
100
AcDbDictionary
280
     1
281
     1
  3
ACAD_XREC_ROUNDTRIP
360
2BB
  0
DICTIONARY
  5
2B4
330
38
100
AcDbDictionary
280
     1
281
     1
  3
ACAD_XREC_ROUNDTRIP
360
2B5
  0
DICTIONARY
  5
2BC
330
3C
100
AcDbDictionary
280
     1
281
     1
  3
ACAD_XREC_ROUNDTRIP
360
2BD
  0
DICTIONARY
  5
2AA
330
33
100
AcDbDictionary
280
     1
281
     1
  3
ACAD_XREC_ROUNDTRIP
360
2AB
  0
DICTIONARY
  5
2C8
330
42
100
AcDbDictionary
280
     1
281
     1
  3
ACAD_XREC_ROUNDTRIP
360
2C9
  0
DICTIONARY
  5
2C6
330
41
100
AcDbDictionary
280
     1
281
     1
  3
ACAD_XREC_ROUNDTRIP
360
2C7
  0
DICTIONARY
  5
2C0
330
3E
100
AcDbDictionary
280
     1
281
     1
  3
ACAD_XREC_ROUNDTRIP
360
2C1
  0
DICTIONARY
  5
2C2
330
3F
100
AcDbDictionary
280
     1
281
     1
  3
ACAD_XREC_ROUNDTRIP
360
2C3
  0
DICTIONARY
  5
2B2
330
37
100
AcDbDictionary
280
     1
281
     1
  3
ACAD_XREC_ROUNDTRIP
360
2B3
  0
DICTIONARY
  5
2A4
330
30
100
AcDbDictionary
280
     1
281
     1
  3
ACAD_XREC_ROUNDTRIP
360
2A5
  0
DICTIONARY
  5
2C4
330
40
100
AcDbDictionary
280
     1
281
     1
  3
ACAD_XREC_ROUNDTRIP
360
2C5
  0
XRECORD
  5
2CD
102
{ACAD_REACTORS
330
2CC
102
}
330
2CC
100
AcDbXrecord
280
     1
102
MATERIAL
148
0.0
149
0.0
149
0.0
 93
        0
 94
      127
282
     0
 72
     1
 77
     1
171
     1
175
     1
179
     1
273
     0
  0
XRECORD
  5
2CB
102
{ACAD_REACTORS
330
2CA
102
}
330
2CA
100
AcDbXrecord
280
     1
102
MATERIAL
148
0.0
149
0.0
149
0.0
 93
        0
 94
      127
282
     0
 72
     1
 77
     1
171
     1
175
     1
179
     1
273
     0
  0
XRECORD
  5
2CF
102
{ACAD_REACTORS
330
2CE
102
}
330
2CE
100
AcDbXrecord
280
     1
102
MATERIAL
148
0.0
149
0.0
149
0.0
 93
        0
 94
      127
282
     0
 72
     1
 77
     1
171
     1
175
     1
179
     1
273
     0
  0
XRECORD
  5
2D5
102
{ACAD_REACTORS
330
2D4
102
}
330
2D4
100
AcDbXrecord
280
     1
102
ACAD_ROUNDTRIP_2010_MLEADER_STYLE
  0
CELLSTYLEMAP
  5
2D2
102
{ACAD_REACTORS
330
2D0
102
}
330
2D0
100
AcDbCellStyleMap
 90
        3
300
CELLSTYLE
  1
TABLEFORMAT_BEGIN
 90
        5
170
     1
 91
        0
 92
    32768
 62
   257
 93
        1
300
CONTENTFORMAT
  1
CONTENTFORMAT_BEGIN
 90
        0
 91
        0
 92
        4
 93
        0
300

 40
0.0
140
1.0
 94
        5
 62
     0
340
11
144
0.25
309
CONTENTFORMAT_END
171
     1
301
MARGIN
  1
CELLMARGIN_BEGIN
 40
0.06
 40
0.06
 40
0.06
 40
0.06
 40
0.06
 40
0.06
309
CELLMARGIN_END
 94
        6
 95
        1
302
GRIDFORMAT
  1
GRIDFORMAT_BEGIN
 90
        0
 91
        1
 62
     0
 92
       -2
340
14
 93
        0
 40
0.045
309
GRIDFORMAT_END
 95
        2
302
GRIDFORMAT
  1
GRIDFORMAT_BEGIN
 90
        0
 91
        1
 62
     0
 92
       -2
340
14
 93
        0
 40
0.045
309
GRIDFORMAT_END
 95
        4
302
GRIDFORMAT
  1
GRIDFORMAT_BEGIN
 90
        0
 91
        1
 62
     0
 92
       -2
340
14
 93
        0
 40
0.045
309
GRIDFORMAT_END
 95
        8
302
GRIDFORMAT
  1
GRIDFORMAT_BEGIN
 90
        0
 91
        1
 62
     0
 92
       -2
340
14
 93
        0
 40
0.045
309
GRIDFORMAT_END
 95
       16
302
GRIDFORMAT
  1
GRIDFORMAT_BEGIN
 90
        0
 91
        1
 62
     0
 92
       -2
340
14
 93
        0
 40
0.045
309
GRIDFORMAT_END
 95
       32
302
GRIDFORMAT
  1
GRIDFORMAT_BEGIN
 90
        0
 91
        1
 62
     0
 92
       -2
340
14
 93
        0
 40
0.045
309
GRIDFORMAT_END
309
TABLEFORMAT_END
  1
CELLSTYLE_BEGIN
 90
        1
 91
        1
300
_TITLE
309
CELLSTYLE_END
300
CELLSTYLE
  1
TABLEFORMAT_BEGIN
 90
        5
170
     1
 91
        0
 92
        0
 62
   257
 93
        1
300
CONTENTFORMAT
  1
CONTENTFORMAT_BEGIN
 90
        0
 91
        0
 92
        4
 93
        0
300

 40
0.0
140
1.0
 94
        5
 62
     0
340
11
144
0.18
309
CONTENTFORMAT_END
171
     1
301
MARGIN
  1
CELLMARGIN_BEGIN
 40
0.06
 40
0.06
 40
0.06
 40
0.06
 40
0.06
 40
0.06
309
CELLMARGIN_END
 94
        6
 95
        1
302
GRIDFORMAT
  1
GRIDFORMAT_BEGIN
 90
        0
 91
        1
 62
     0
 92
       -2
340
14
 93
        0
 40
0.045
309
GRIDFORMAT_END
 95
        2
302
GRIDFORMAT
  1
GRIDFORMAT_BEGIN
 90
        0
 91
        1
 62
     0
 92
       -2
340
14
 93
        0
 40
0.045
309
GRIDFORMAT_END
 95
        4
302
GRIDFORMAT
  1
GRIDFORMAT_BEGIN
 90
        0
 91
        1
 62
     0
 92
       -2
340
14
 93
        0
 40
0.045
309
GRIDFORMAT_END
 95
        8
302
GRIDFORMAT
  1
GRIDFORMAT_BEGIN
 90
        0
 91
        1
 62
     0
 92
       -2
340
14
 93
        0
 40
0.045
309
GRIDFORMAT_END
 95
       16
302
GRIDFORMAT
  1
GRIDFORMAT_BEGIN
 90
        0
 91
        1
 62
     0
 92
       -2
340
14
 93
        0
 40
0.045
309
GRIDFORMAT_END
 95
       32
302
GRIDFORMAT
  1
GRIDFORMAT_BEGIN
 90
        0
 91
        1
 62
     0
 92
       -2
340
14
 93
        0
 40
0.045
309
GRIDFORMAT_END
309
TABLEFORMAT_END
  1
CELLSTYLE_BEGIN
 90
        2
 91
        1
300
_HEADER
309
CELLSTYLE_END
300
CELLSTYLE
  1
TABLEFORMAT_BEGIN
 90
        5
170
     1
 91
        0
 92
        0
 62
   257
 93
        1
300
CONTENTFORMAT
  1
CONTENTFORMAT_BEGIN
 90
        0
 91
        0
 92
        4
 93
        0
300

 40
0.0
140
1.0
 94
        2
 62
     0
340
11
144
0.18
309
CONTENTFORMAT_END
171
     1
301
MARGIN
  1
CELLMARGIN_BEGIN
 40
0.06
 40
0.06
 40
0.06
 40
0.06
 40
0.06
 40
0.06
309
CELLMARGIN_END
 94
        6
 95
        1
302
GRIDFORMAT
  1
GRIDFORMAT_BEGIN
 90
        0
 91
        1
 62
     0
 92
       -2
340
14
 93
        0
 40
0.045
309
GRIDFORMAT_END
 95
        2
302
GRIDFORMAT
  1
GRIDFORMAT_BEGIN
 90
        0
 91
        1
 62
     0
 92
       -2
340
14
 93
        0
 40
0.045
309
GRIDFORMAT_END
 95
        4
302
GRIDFORMAT
  1
GRIDFORMAT_BEGIN
 90
        0
 91
        1
 62
     0
 92
       -2
340
14
 93
        0
 40
0.045
309
GRIDFORMAT_END
 95
        8
302
GRIDFORMAT
  1
GRIDFORMAT_BEGIN
 90
        0
 91
        1
 62
     0
 92
       -2
340
14
 93
        0
 40
0.045
309
GRIDFORMAT_END
 95
       16
302
GRIDFORMAT
  1
GRIDFORMAT_BEGIN
 90
        0
 91
        1
 62
     0
 92
       -2
340
14
 93
        0
 40
0.045
309
GRIDFORMAT_END
 95
       32
302
GRIDFORMAT
  1
GRIDFORMAT_BEGIN
 90
        0
 91
        1
 62
     0
 92
       -2
340
14
 93
        0
 40
0.045
309
GRIDFORMAT_END
309
TABLEFORMAT_END
  1
CELLSTYLE_BEGIN
 90
        3
 91
        2
300
_DATA
309
CELLSTYLE_END
  0
XRECORD
  5
2D1
102
{ACAD_REACTORS
330
2D0
102
}
330
2D0
100
AcDbXrecord
280
     1
102
ACAD_ROUNDTRIP_PRE2007_TABLESTYLE
 90
        4
 91
        0
  1

 92
        4
 93
        0
  2

 94
        4
 95
        0
  3

  0
XRECORD
  5
2A3
102
{ACAD_REACTORS
330
2A2
102
}
330
2A2
100
AcDbXrecord
280
     1
102
RTVSPropertyOp0
 70
     1
102
RTVSPropertyOp1
 70
     1
102
RTVSPropertyOp2
 70
     1
102
RTVSPropertyOp3
 70
     1
102
RTVSPropertyOp4
 70
     1
102
RTVSPropertyOp5
 70
     1
102
RTVSPropertyOp6
 70
     1
102
RTVSPropertyOp7
 70
     1
102
RTVSPropertyOp8
 70
     1
102
RTVSPropertyOp9
 70
     1
102
RTVSPropertyOp10
 70
     1
102
RTVSPropertyOp11
 70
     1
102
RTVSPropertyOp12
 70
     1
102
RTVSPropertyOp13
 70
     1
102
RTVSPropertyOp14
 70
     1
102
RTVSPropertyOp15
 70
     1
102
RTVSPropertyOp16
 70
     1
102
RTVSPropertyOp17
 70
     1
102
RTVSPropertyOp18
 70
     1
102
RTVSPropertyOp19
 70
     1
102
RTVSPropertyOp20
 70
     1
102
RTVSPropertyOp21
 70
     1
102
RTVSPropertyOp22
 70
     1
102
RTVSPropertyOp23
 70
     1
102
RTVSPropertyOp24
 70
     1
102
RTVSPropertyOp25
 70
     1
102
RTVSPropertyOp26
 70
     1
102
RTVSPropertyOp27
 70
     1
102
RTVSPropertyOp28
 70
     1
102
RTVSPropertyOp29
 70
     1
102
RTVSPropertyOp30
 70
     1
102
RTVSPropertyOp31
 70
     1
102
RTVSPropertyOp32
 70
     1
102
RTVSPropertyOp33
 70
     1
102
RTVSPropertyOp34
 70
     1
102
RTVSPropertyOp35
 70
     1
102
RTVSPropertyOp36
 70
     1
102
RTVSPropertyOp37
 70
     1
102
RTVSPropertyOp38
 70
     1
102
RTVSPropertyOp39
 70
     1
102
RTVSPropertyOp40
 70
     1
102
RTVSPropertyOp41
 70
     1
102
RTVSPropertyOp42
 70
     1
102
RTVSPropertyOp43
 70
     1
102
RTVSPropertyOp44
 70
     1
102
RTVSPropertyOp45
 70
     1
102
RTVSPropertyOp46
 70
     1
102
RTVSPropertyOp47
 70
     1
102
RTVSPropertyOp48
 70
     1
102
RTVSPropertyOp49
 70
     1
102
RTVSPropertyOp50
 70
     1
102
RTVSPropertyOp51
 70
     0
102
RTVSPropertyOp52
 70
     0
102
RTVSPropertyOp53
 70
     1
102
RTVSPropertyOp54
 70
     1
102
RTVSPropertyOp55
 70
     1
102
RTVSPropertyOp56
 70
     1
102
RTVSPropertyOp57
 70
     1
102
RTVSPost2010Prop28
280
     1
102
RTVSPost2010PropOp28
 70
     1
102
RTVSPost2010Prop29
280
     1
102
RTVSPost2010PropOp29
 70
     1
102
RTVSPost2010Prop30
280
     0
102
RTVSPost2010PropOp30
 70
     1
102
RTVSPost2010Prop31
280
     0
102
RTVSPost2010PropOp31
 70
     1
102
RTVSPost2010Prop32
280
     0
102
RTVSPost2010PropOp32
 70
     1
102
RTVSPost2010Prop33
280
     0
102
RTVSPost2010PropOp33
 70
     1
102
RTVSPost2010Prop34
280
     0
102
RTVSPost2010PropOp34
 70
     1
102
RTVSPost2010Prop35
280
     0
102
RTVSPost2010PropOp35
 70
     1
102
RTVSPost2010Prop36
280
     0
102
RTVSPost2010PropOp36
 70
     1
102
RTVSPost2010Prop37
 90
       50
102
RTVSPost2010PropOp37
 70
     1
102
RTVSPost2010Prop38
140
0.0
102
RTVSPost2010PropOp38
 70
     1
102
RTVSPost2010Prop39
140
1.0
102
RTVSPost2010PropOp39
 70
     1
102
RTVSPost2010Prop40
 90
        0
102
RTVSPost2010PropOp40
 70
     1
102
RTVSPost2010Prop41ColorIndex
 90
       18
102
RTVSPost2010Prop41ColorRGB
 90
        0
102
RTVSPost2010PropOp41
 70
     1
102
RTVSPost2010Prop42
 90
       50
102
RTVSPost2010PropOp42
 70
     1
102
RTVSPost2010Prop43
 90
        3
102
RTVSPost2010PropOp43
 70
     1
102
RTVSPost2010Prop44ColorIndex
 90
        5
102
RTVSPost2010Prop44ColorRGB
 90
      255
102
RTVSPost2010PropOp44
 70
     1
102
RTVSPost2010Prop45
280
     0
102
RTVSPost2010PropOp45
 70
     1
102
RTVSPost2010Prop46
 90
       50
102
RTVSPost2010PropOp46
 70
     1
102
RTVSPost2010Prop47
 90
       50
102
RTVSPost2010PropOp47
 70
     1
102
RTVSPost2010Prop48
 90
       50
102
RTVSPost2010PropOp48
 70
     1
102
RTVSPost2010Prop49
280
     0
102
RTVSPost2010PropOp49
 70
     1
102
RTVSPost2010Prop50
 90
       50
102
RTVSPost2010PropOp50
 70
     1
102
RTVSPost2010Prop51ColorIndex
 90
      256
102
RTVSPost2010Prop51ColorRGB
 90
-16777216
102
RTVSPost2010PropOp51
 70
     0
102
RTVSPost2010Prop52
140
1.0
102
RTVSPost2010PropOp52
 70
     0
102
RTVSPost2010Prop53
 90
        2
102
RTVSPost2010PropOp53
 70
     1
102
RTVSPost2010Prop54
  1
strokes_ogs.tif
102
RTVSPost2010PropOp54
 70
     1
102
RTVSPost2010Prop55
280
     0
102
RTVSPost2010PropOp55
 70
     1
102
RTVSPost2010Prop56
140
1.0
102
RTVSPost2010PropOp56
 70
     1
102
RTVSPost2010Prop57
140
1.0
102
RTVSPost2010PropOp57
 70
     1
  0
XRECORD
  5
2A9
102
{ACAD_REACTORS
330
2A8
102
}
330
2A8
100
AcDbXrecord
280
     1
102
RTVSPropertyOp0
 70
     1
102
RTVSPropertyOp1
 70
     1
102
RTVSPropertyOp2
 70
     1
102
RTVSPropertyOp3
 70
     1
102
RTVSPropertyOp4
 70
     1
102
RTVSPropertyOp5
 70
     1
102
RTVSPropertyOp6
 70
     1
102
RTVSPropertyOp7
 70
     1
102
RTVSPropertyOp8
 70
     1
102
RTVSPropertyOp9
 70
     1
102
RTVSPropertyOp10
 70
     1
102
RTVSPropertyOp11
 70
     1
102
RTVSPropertyOp12
 70
     1
102
RTVSPropertyOp13
 70
     1
102
RTVSPropertyOp14
 70
     1
102
RTVSPropertyOp15
 70
     1
102
RTVSPropertyOp16
 70
     1
102
RTVSPropertyOp17
 70
     1
102
RTVSPropertyOp18
 70
     1
102
RTVSPropertyOp19
 70
     1
102
RTVSPropertyOp20
 70
     1
102
RTVSPropertyOp21
 70
     1
102
RTVSPropertyOp22
 70
     1
102
RTVSPropertyOp23
 70
     1
102
RTVSPropertyOp24
 70
     1
102
RTVSPropertyOp25
 70
     1
102
RTVSPropertyOp26
 70
     1
102
RTVSPropertyOp27
 70
     1
102
RTVSPropertyOp28
 70
     1
102
RTVSPropertyOp29
 70
     1
102
RTVSPropertyOp30
 70
     1
102
RTVSPropertyOp31
 70
     1
102
RTVSPropertyOp32
 70
     1
102
RTVSPropertyOp33
 70
     1
102
RTVSPropertyOp34
 70
     1
102
RTVSPropertyOp35
 70
     1
102
RTVSPropertyOp36
 70
     1
102
RTVSPropertyOp37
 70
     1
102
RTVSPropertyOp38
 70
     1
102
RTVSPropertyOp39
 70
     1
102
RTVSPropertyOp40
 70
     1
102
RTVSPropertyOp41
 70
     1
102
RTVSPropertyOp42
 70
     1
102
RTVSPropertyOp43
 70
     1
102
RTVSPropertyOp44
 70
     1
102
RTVSPropertyOp45
 70
     1
102
RTVSPropertyOp46
 70
     1
102
RTVSPropertyOp47
 70
     1
102
RTVSPropertyOp48
 70
     1
102
RTVSPropertyOp49
 70
     1
102
RTVSPropertyOp50
 70
     1
102
RTVSPropertyOp51
 70
     0
102
RTVSPropertyOp52
 70
     0
102
RTVSPropertyOp53
 70
     1
102
RTVSPropertyOp54
 70
     1
102
RTVSPropertyOp55
 70
     1
102
RTVSPropertyOp56
 70
     1
102
RTVSPropertyOp57
 70
     1
102
RTVSPost2010Prop28
280
     0
102
RTVSPost2010PropOp28
 70
     1
102
RTVSPost2010Prop29
280
     1
102
RTVSPost2010PropOp29
 70
     1
102
RTVSPost2010Prop30
280
     1
102
RTVSPost2010PropOp30
 70
     1
102
RTVSPost2010Prop31
280
     0
102
RTVSPost2010PropOp31
 70
     1
102
RTVSPost2010Prop32
280
     0
102
RTVSPost2010PropOp32
 70
     1
102
RTVSPost2010Prop33
280
     0
102
RTVSPost2010PropOp33
 70
     1
102
RTVSPost2010Prop34
280
     0
102
RTVSPost2010PropOp34
 70
     1
102
RTVSPost2010Prop35
280
     0
102
RTVSPost2010PropOp35
 70
     1
102
RTVSPost2010Prop36
280
     0
102
RTVSPost2010PropOp36
 70
     1
102
RTVSPost2010Prop37
 90
       50
102
RTVSPost2010PropOp37
 70
     1
102
RTVSPost2010Prop38
140
0.0
102
RTVSPost2010PropOp38
 70
     1
102
RTVSPost2010Prop39
140
1.0
102
RTVSPost2010PropOp39
 70
     1
102
RTVSPost2010Prop40
 90
        0
102
RTVSPost2010PropOp40
 70
     1
102
RTVSPost2010Prop41ColorIndex
 90
       18
102
RTVSPost2010Prop41ColorRGB
 90
        0
102
RTVSPost2010PropOp41
 70
     1
102
RTVSPost2010Prop42
 90
       50
102
RTVSPost2010PropOp42
 70
     1
102
RTVSPost2010Prop43
 90
        3
102
RTVSPost2010PropOp43
 70
     1
102
RTVSPost2010Prop44ColorIndex
 90
        5
102
RTVSPost2010Prop44ColorRGB
 90
      255
102
RTVSPost2010PropOp44
 70
     1
102
RTVSPost2010Prop45
280
     0
102
RTVSPost2010PropOp45
 70
     1
102
RTVSPost2010Prop46
 90
       50
102
RTVSPost2010PropOp46
 70
     1
102
RTVSPost2010Prop47
 90
       50
102
RTVSPost2010PropOp47
 70
     1
102
RTVSPost2010Prop48
 90
       50
102
RTVSPost2010PropOp48
 70
     1
102
RTVSPost2010Prop49
280
     0
102
RTVSPost2010PropOp49
 70
     1
102
RTVSPost2010Prop50
 90
       50
102
RTVSPost2010PropOp50
 70
     1
102
RTVSPost2010Prop51ColorIndex
 90
      256
102
RTVSPost2010Prop51ColorRGB
 90
-16777216
102
RTVSPost2010PropOp51
 70
     0
102
RTVSPost2010Prop52
140
1.0
102
RTVSPost2010PropOp52
 70
     0
102
RTVSPost2010Prop53
 90
        2
102
RTVSPost2010PropOp53
 70
     1
102
RTVSPost2010Prop54
  1
strokes_ogs.tif
102
RTVSPost2010PropOp54
 70
     1
102
RTVSPost2010Prop55
280
     0
102
RTVSPost2010PropOp55
 70
     1
102
RTVSPost2010Prop56
140
1.0
102
RTVSPost2010PropOp56
 70
     1
102
RTVSPost2010Prop57
140
1.0
102
RTVSPost2010PropOp57
 70
     1
  0
XRECORD
  5
2B1
102
{ACAD_REACTORS
330
2B0
102
}
330
2B0
100
AcDbXrecord
280
     1
102
RTVSPropertyOp0
 70
     1
102
RTVSPropertyOp1
 70
     1
102
RTVSPropertyOp2
 70
     1
102
RTVSPropertyOp3
 70
     1
102
RTVSPropertyOp4
 70
     1
102
RTVSPropertyOp5
 70
     1
102
RTVSPropertyOp6
 70
     1
102
RTVSPropertyOp7
 70
     1
102
RTVSPropertyOp8
 70
     1
102
RTVSPropertyOp9
 70
     1
102
RTVSPropertyOp10
 70
     1
102
RTVSPropertyOp11
 70
     1
102
RTVSPropertyOp12
 70
     1
102
RTVSPropertyOp13
 70
     1
102
RTVSPropertyOp14
 70
     1
102
RTVSPropertyOp15
 70
     1
102
RTVSPropertyOp16
 70
     1
102
RTVSPropertyOp17
 70
     1
102
RTVSPropertyOp18
 70
     1
102
RTVSPropertyOp19
 70
     1
102
RTVSPropertyOp20
 70
     1
102
RTVSPropertyOp21
 70
     1
102
RTVSPropertyOp22
 70
     1
102
RTVSPropertyOp23
 70
     1
102
RTVSPropertyOp24
 70
     1
102
RTVSPropertyOp25
 70
     1
102
RTVSPropertyOp26
 70
     1
102
RTVSPropertyOp27
 70
     1
102
RTVSPropertyOp28
 70
     1
102
RTVSPropertyOp29
 70
     1
102
RTVSPropertyOp30
 70
     1
102
RTVSPropertyOp31
 70
     1
102
RTVSPropertyOp32
 70
     1
102
RTVSPropertyOp33
 70
     1
102
RTVSPropertyOp34
 70
     1
102
RTVSPropertyOp35
 70
     1
102
RTVSPropertyOp36
 70
     1
102
RTVSPropertyOp37
 70
     1
102
RTVSPropertyOp38
 70
     1
102
RTVSPropertyOp39
 70
     1
102
RTVSPropertyOp40
 70
     1
102
RTVSPropertyOp41
 70
     1
102
RTVSPropertyOp42
 70
     1
102
RTVSPropertyOp43
 70
     1
102
RTVSPropertyOp44
 70
     1
102
RTVSPropertyOp45
 70
     1
102
RTVSPropertyOp46
 70
     1
102
RTVSPropertyOp47
 70
     1
102
RTVSPropertyOp48
 70
     1
102
RTVSPropertyOp49
 70
     1
102
RTVSPropertyOp50
 70
     1
102
RTVSPropertyOp51
 70
     0
102
RTVSPropertyOp52
 70
     0
102
RTVSPropertyOp53
 70
     1
102
RTVSPropertyOp54
 70
     1
102
RTVSPropertyOp55
 70
     1
102
RTVSPropertyOp56
 70
     1
102
RTVSPropertyOp57
 70
     1
102
RTVSPost2010Prop28
280
     0
102
RTVSPost2010PropOp28
 70
     1
102
RTVSPost2010Prop29
280
     1
102
RTVSPost2010PropOp29
 70
     1
102
RTVSPost2010Prop30
280
     1
102
RTVSPost2010PropOp30
 70
     1
102
RTVSPost2010Prop31
280
     0
102
RTVSPost2010PropOp31
 70
     1
102
RTVSPost2010Prop32
280
     0
102
RTVSPost2010PropOp32
 70
     1
102
RTVSPost2010Prop33
280
     0
102
RTVSPost2010PropOp33
 70
     1
102
RTVSPost2010Prop34
280
     0
102
RTVSPost2010PropOp34
 70
     1
102
RTVSPost2010Prop35
280
     0
102
RTVSPost2010PropOp35
 70
     1
102
RTVSPost2010Prop36
280
     0
102
RTVSPost2010PropOp36
 70
     1
102
RTVSPost2010Prop37
 90
       50
102
RTVSPost2010PropOp37
 70
     1
102
RTVSPost2010Prop38
140
0.0
102
RTVSPost2010PropOp38
 70
     1
102
RTVSPost2010Prop39
140
1.0
102
RTVSPost2010PropOp39
 70
     1
102
RTVSPost2010Prop40
 90
        0
102
RTVSPost2010PropOp40
 70
     1
102
RTVSPost2010Prop41ColorIndex
 90
       18
102
RTVSPost2010Prop41ColorRGB
 90
        0
102
RTVSPost2010PropOp41
 70
     1
102
RTVSPost2010Prop42
 90
       50
102
RTVSPost2010PropOp42
 70
     1
102
RTVSPost2010Prop43
 90
        3
102
RTVSPost2010PropOp43
 70
     1
102
RTVSPost2010Prop44ColorIndex
 90
        5
102
RTVSPost2010Prop44ColorRGB
 90
      255
102
RTVSPost2010PropOp44
 70
     1
102
RTVSPost2010Prop45
280
     0
102
RTVSPost2010PropOp45
 70
     1
102
RTVSPost2010Prop46
 90
       50
102
RTVSPost2010PropOp46
 70
     1
102
RTVSPost2010Prop47
 90
       50
102
RTVSPost2010PropOp47
 70
     1
102
RTVSPost2010Prop48
 90
       50
102
RTVSPost2010PropOp48
 70
     1
102
RTVSPost2010Prop49
280
     0
102
RTVSPost2010PropOp49
 70
     1
102
RTVSPost2010Prop50
 90
       50
102
RTVSPost2010PropOp50
 70
     1
102
RTVSPost2010Prop51ColorIndex
 90
      256
102
RTVSPost2010Prop51ColorRGB
 90
-16777216
102
RTVSPost2010PropOp51
 70
     0
102
RTVSPost2010Prop52
140
1.0
102
RTVSPost2010PropOp52
 70
     0
102
RTVSPost2010Prop53
 90
        2
102
RTVSPost2010PropOp53
 70
     1
102
RTVSPost2010Prop54
  1
strokes_ogs.tif
102
RTVSPost2010PropOp54
 70
     1
102
RTVSPost2010Prop55
280
     0
102
RTVSPost2010PropOp55
 70
     1
102
RTVSPost2010Prop56
140
1.0
102
RTVSPost2010PropOp56
 70
     1
102
RTVSPost2010Prop57
140
1.0
102
RTVSPost2010PropOp57
 70
     1
  0
XRECORD
  5
2B9
102
{ACAD_REACTORS
330
2B8
102
}
330
2B8
100
AcDbXrecord
280
     1
102
RTVSPropertyOp0
 70
     1
102
RTVSPropertyOp1
 70
     1
102
RTVSPropertyOp2
 70
     1
102
RTVSPropertyOp3
 70
     1
102
RTVSPropertyOp4
 70
     1
102
RTVSPropertyOp5
 70
     1
102
RTVSPropertyOp6
 70
     1
102
RTVSPropertyOp7
 70
     1
102
RTVSPropertyOp8
 70
     1
102
RTVSPropertyOp9
 70
     1
102
RTVSPropertyOp10
 70
     1
102
RTVSPropertyOp11
 70
     1
102
RTVSPropertyOp12
 70
     1
102
RTVSPropertyOp13
 70
     1
102
RTVSPropertyOp14
 70
     1
102
RTVSPropertyOp15
 70
     1
102
RTVSPropertyOp16
 70
     1
102
RTVSPropertyOp17
 70
     1
102
RTVSPropertyOp18
 70
     1
102
RTVSPropertyOp19
 70
     1
102
RTVSPropertyOp20
 70
     1
102
RTVSPropertyOp21
 70
     1
102
RTVSPropertyOp22
 70
     1
102
RTVSPropertyOp23
 70
     1
102
RTVSPropertyOp24
 70
     1
102
RTVSPropertyOp25
 70
     1
102
RTVSPropertyOp26
 70
     1
102
RTVSPropertyOp27
 70
     1
102
RTVSPropertyOp28
 70
     1
102
RTVSPropertyOp29
 70
     1
102
RTVSPropertyOp30
 70
     1
102
RTVSPropertyOp31
 70
     1
102
RTVSPropertyOp32
 70
     1
102
RTVSPropertyOp33
 70
     1
102
RTVSPropertyOp34
 70
     1
102
RTVSPropertyOp35
 70
     1
102
RTVSPropertyOp36
 70
     1
102
RTVSPropertyOp37
 70
     1
102
RTVSPropertyOp38
 70
     1
102
RTVSPropertyOp39
 70
     1
102
RTVSPropertyOp40
 70
     1
102
RTVSPropertyOp41
 70
     1
102
RTVSPropertyOp42
 70
     1
102
RTVSPropertyOp43
 70
     1
102
RTVSPropertyOp44
 70
     1
102
RTVSPropertyOp45
 70
     1
102
RTVSPropertyOp46
 70
     1
102
RTVSPropertyOp47
 70
     1
102
RTVSPropertyOp48
 70
     1
102
RTVSPropertyOp49
 70
     1
102
RTVSPropertyOp50
 70
     1
102
RTVSPropertyOp51
 70
     0
102
RTVSPropertyOp52
 70
     0
102
RTVSPropertyOp53
 70
     1
102
RTVSPropertyOp54
 70
     1
102
RTVSPropertyOp55
 70
     1
102
RTVSPropertyOp56
 70
     1
102
RTVSPropertyOp57
 70
     1
102
RTVSPost2010Prop28
280
     0
102
RTVSPost2010PropOp28
 70
     1
102
RTVSPost2010Prop29
280
     1
102
RTVSPost2010PropOp29
 70
     1
102
RTVSPost2010Prop30
280
     1
102
RTVSPost2010PropOp30
 70
     1
102
RTVSPost2010Prop31
280
     0
102
RTVSPost2010PropOp31
 70
     1
102
RTVSPost2010Prop32
280
     0
102
RTVSPost2010PropOp32
 70
     1
102
RTVSPost2010Prop33
280
     0
102
RTVSPost2010PropOp33
 70
     1
102
RTVSPost2010Prop34
280
     0
102
RTVSPost2010PropOp34
 70
     1
102
RTVSPost2010Prop35
280
     0
102
RTVSPost2010PropOp35
 70
     1
102
RTVSPost2010Prop36
280
     0
102
RTVSPost2010PropOp36
 70
     1
102
RTVSPost2010Prop37
 90
       50
102
RTVSPost2010PropOp37
 70
     1
102
RTVSPost2010Prop38
140
0.0
102
RTVSPost2010PropOp38
 70
     1
102
RTVSPost2010Prop39
140
1.0
102
RTVSPost2010PropOp39
 70
     1
102
RTVSPost2010Prop40
 90
        0
102
RTVSPost2010PropOp40
 70
     1
102
RTVSPost2010Prop41ColorIndex
 90
       18
102
RTVSPost2010Prop41ColorRGB
 90
        0
102
RTVSPost2010PropOp41
 70
     1
102
RTVSPost2010Prop42
 90
       50
102
RTVSPost2010PropOp42
 70
     1
102
RTVSPost2010Prop43
 90
        3
102
RTVSPost2010PropOp43
 70
     1
102
RTVSPost2010Prop44ColorIndex
 90
        5
102
RTVSPost2010Prop44ColorRGB
 90
      255
102
RTVSPost2010PropOp44
 70
     1
102
RTVSPost2010Prop45
280
     0
102
RTVSPost2010PropOp45
 70
     1
102
RTVSPost2010Prop46
 90
       50
102
RTVSPost2010PropOp46
 70
     1
102
RTVSPost2010Prop47
 90
       50
102
RTVSPost2010PropOp47
 70
     1
102
RTVSPost2010Prop48
 90
       50
102
RTVSPost2010PropOp48
 70
     1
102
RTVSPost2010Prop49
280
     0
102
RTVSPost2010PropOp49
 70
     1
102
RTVSPost2010Prop50
 90
       50
102
RTVSPost2010PropOp50
 70
     1
102
RTVSPost2010Prop51ColorIndex
 90
      256
102
RTVSPost2010Prop51ColorRGB
 90
-16777216
102
RTVSPost2010PropOp51
 70
     0
102
RTVSPost2010Prop52
140
1.0
102
RTVSPost2010PropOp52
 70
     0
102
RTVSPost2010Prop53
 90
        2
102
RTVSPost2010PropOp53
 70
     1
102
RTVSPost2010Prop54
  1
strokes_ogs.tif
102
RTVSPost2010PropOp54
 70
     1
102
RTVSPost2010Prop55
280
     0
102
RTVSPost2010PropOp55
 70
     1
102
RTVSPost2010Prop56
140
1.0
102
RTVSPost2010PropOp56
 70
     1
102
RTVSPost2010Prop57
140
1.0
102
RTVSPost2010PropOp57
 70
     1
  0
XRECORD
  5
2AD
102
{ACAD_REACTORS
330
2AC
102
}
330
2AC
100
AcDbXrecord
280
     1
102
RTVSPropertyOp0
 70
     1
102
RTVSPropertyOp1
 70
     1
102
RTVSPropertyOp2
 70
     1
102
RTVSPropertyOp3
 70
     1
102
RTVSPropertyOp4
 70
     1
102
RTVSPropertyOp5
 70
     1
102
RTVSPropertyOp6
 70
     1
102
RTVSPropertyOp7
 70
     1
102
RTVSPropertyOp8
 70
     1
102
RTVSPropertyOp9
 70
     1
102
RTVSPropertyOp10
 70
     1
102
RTVSPropertyOp11
 70
     1
102
RTVSPropertyOp12
 70
     1
102
RTVSPropertyOp13
 70
     1
102
RTVSPropertyOp14
 70
     1
102
RTVSPropertyOp15
 70
     1
102
RTVSPropertyOp16
 70
     1
102
RTVSPropertyOp17
 70
     1
102
RTVSPropertyOp18
 70
     1
102
RTVSPropertyOp19
 70
     1
102
RTVSPropertyOp20
 70
     1
102
RTVSPropertyOp21
 70
     1
102
RTVSPropertyOp22
 70
     1
102
RTVSPropertyOp23
 70
     1
102
RTVSPropertyOp24
 70
     1
102
RTVSPropertyOp25
 70
     1
102
RTVSPropertyOp26
 70
     1
102
RTVSPropertyOp27
 70
     1
102
RTVSPropertyOp28
 70
     1
102
RTVSPropertyOp29
 70
     1
102
RTVSPropertyOp30
 70
     1
102
RTVSPropertyOp31
 70
     1
102
RTVSPropertyOp32
 70
     1
102
RTVSPropertyOp33
 70
     1
102
RTVSPropertyOp34
 70
     1
102
RTVSPropertyOp35
 70
     1
102
RTVSPropertyOp36
 70
     1
102
RTVSPropertyOp37
 70
     1
102
RTVSPropertyOp38
 70
     1
102
RTVSPropertyOp39
 70
     1
102
RTVSPropertyOp40
 70
     1
102
RTVSPropertyOp41
 70
     1
102
RTVSPropertyOp42
 70
     1
102
RTVSPropertyOp43
 70
     1
102
RTVSPropertyOp44
 70
     1
102
RTVSPropertyOp45
 70
     1
102
RTVSPropertyOp46
 70
     1
102
RTVSPropertyOp47
 70
     1
102
RTVSPropertyOp48
 70
     1
102
RTVSPropertyOp49
 70
     1
102
RTVSPropertyOp50
 70
     1
102
RTVSPropertyOp51
 70
     0
102
RTVSPropertyOp52
 70
     0
102
RTVSPropertyOp53
 70
     1
102
RTVSPropertyOp54
 70
     1
102
RTVSPropertyOp55
 70
     1
102
RTVSPropertyOp56
 70
     1
102
RTVSPropertyOp57
 70
     1
102
RTVSPost2010Prop28
280
     0
102
RTVSPost2010PropOp28
 70
     1
102
RTVSPost2010Prop29
280
     1
102
RTVSPost2010PropOp29
 70
     1
102
RTVSPost2010Prop30
280
     1
102
RTVSPost2010PropOp30
 70
     1
102
RTVSPost2010Prop31
280
     0
102
RTVSPost2010PropOp31
 70
     1
102
RTVSPost2010Prop32
280
     0
102
RTVSPost2010PropOp32
 70
     1
102
RTVSPost2010Prop33
280
     0
102
RTVSPost2010PropOp33
 70
     1
102
RTVSPost2010Prop34
280
     0
102
RTVSPost2010PropOp34
 70
     1
102
RTVSPost2010Prop35
280
     0
102
RTVSPost2010PropOp35
 70
     1
102
RTVSPost2010Prop36
280
     0
102
RTVSPost2010PropOp36
 70
     1
102
RTVSPost2010Prop37
 90
       50
102
RTVSPost2010PropOp37
 70
     1
102
RTVSPost2010Prop38
140
0.0
102
RTVSPost2010PropOp38
 70
     1
102
RTVSPost2010Prop39
140
1.0
102
RTVSPost2010PropOp39
 70
     1
102
RTVSPost2010Prop40
 90
        0
102
RTVSPost2010PropOp40
 70
     1
102
RTVSPost2010Prop41ColorIndex
 90
       18
102
RTVSPost2010Prop41ColorRGB
 90
        0
102
RTVSPost2010PropOp41
 70
     1
102
RTVSPost2010Prop42
 90
       50
102
RTVSPost2010PropOp42
 70
     1
102
RTVSPost2010Prop43
 90
        3
102
RTVSPost2010PropOp43
 70
     1
102
RTVSPost2010Prop44ColorIndex
 90
        5
102
RTVSPost2010Prop44ColorRGB
 90
      255
102
RTVSPost2010PropOp44
 70
     1
102
RTVSPost2010Prop45
280
     0
102
RTVSPost2010PropOp45
 70
     1
102
RTVSPost2010Prop46
 90
       50
102
RTVSPost2010PropOp46
 70
     1
102
RTVSPost2010Prop47
 90
       50
102
RTVSPost2010PropOp47
 70
     1
102
RTVSPost2010Prop48
 90
       50
102
RTVSPost2010PropOp48
 70
     1
102
RTVSPost2010Prop49
280
     0
102
RTVSPost2010PropOp49
 70
     1
102
RTVSPost2010Prop50
 90
       50
102
RTVSPost2010PropOp50
 70
     1
102
RTVSPost2010Prop51ColorIndex
 90
      256
102
RTVSPost2010Prop51ColorRGB
 90
-16777216
102
RTVSPost2010PropOp51
 70
     0
102
RTVSPost2010Prop52
140
1.0
102
RTVSPost2010PropOp52
 70
     0
102
RTVSPost2010Prop53
 90
        2
102
RTVSPost2010PropOp53
 70
     1
102
RTVSPost2010Prop54
  1
strokes_ogs.tif
102
RTVSPost2010PropOp54
 70
     1
102
RTVSPost2010Prop55
280
     0
102
RTVSPost2010PropOp55
 70
     1
102
RTVSPost2010Prop56
140
1.0
102
RTVSPost2010PropOp56
 70
     1
102
RTVSPost2010Prop57
140
1.0
102
RTVSPost2010PropOp57
 70
     1
  0
XRECORD
  5
2AF
102
{ACAD_REACTORS
330
2AE
102
}
330
2AE
100
AcDbXrecord
280
     1
102
RTVSPropertyOp0
 70
     1
102
RTVSPropertyOp1
 70
     1
102
RTVSPropertyOp2
 70
     1
102
RTVSPropertyOp3
 70
     1
102
RTVSPropertyOp4
 70
     1
102
RTVSPropertyOp5
 70
     1
102
RTVSPropertyOp6
 70
     1
102
RTVSPropertyOp7
 70
     1
102
RTVSPropertyOp8
 70
     1
102
RTVSPropertyOp9
 70
     1
102
RTVSPropertyOp10
 70
     1
102
RTVSPropertyOp11
 70
     1
102
RTVSPropertyOp12
 70
     1
102
RTVSPropertyOp13
 70
     1
102
RTVSPropertyOp14
 70
     1
102
RTVSPropertyOp15
 70
     1
102
RTVSPropertyOp16
 70
     1
102
RTVSPropertyOp17
 70
     1
102
RTVSPropertyOp18
 70
     1
102
RTVSPropertyOp19
 70
     1
102
RTVSPropertyOp20
 70
     1
102
RTVSPropertyOp21
 70
     1
102
RTVSPropertyOp22
 70
     1
102
RTVSPropertyOp23
 70
     1
102
RTVSPropertyOp24
 70
     1
102
RTVSPropertyOp25
 70
     1
102
RTVSPropertyOp26
 70
     1
102
RTVSPropertyOp27
 70
     1
102
RTVSPropertyOp28
 70
     1
102
RTVSPropertyOp29
 70
     1
102
RTVSPropertyOp30
 70
     1
102
RTVSPropertyOp31
 70
     1
102
RTVSPropertyOp32
 70
     1
102
RTVSPropertyOp33
 70
     1
102
RTVSPropertyOp34
 70
     1
102
RTVSPropertyOp35
 70
     1
102
RTVSPropertyOp36
 70
     1
102
RTVSPropertyOp37
 70
     1
102
RTVSPropertyOp38
 70
     1
102
RTVSPropertyOp39
 70
     1
102
RTVSPropertyOp40
 70
     1
102
RTVSPropertyOp41
 70
     1
102
RTVSPropertyOp42
 70
     1
102
RTVSPropertyOp43
 70
     1
102
RTVSPropertyOp44
 70
     1
102
RTVSPropertyOp45
 70
     1
102
RTVSPropertyOp46
 70
     1
102
RTVSPropertyOp47
 70
     1
102
RTVSPropertyOp48
 70
     1
102
RTVSPropertyOp49
 70
     1
102
RTVSPropertyOp50
 70
     1
102
RTVSPropertyOp51
 70
     0
102
RTVSPropertyOp52
 70
     0
102
RTVSPropertyOp53
 70
     1
102
RTVSPropertyOp54
 70
     1
102
RTVSPropertyOp55
 70
     1
102
RTVSPropertyOp56
 70
     1
102
RTVSPropertyOp57
 70
     1
102
RTVSPost2010Prop28
280
     0
102
RTVSPost2010PropOp28
 70
     1
102
RTVSPost2010Prop29
280
     1
102
RTVSPost2010PropOp29
 70
     1
102
RTVSPost2010Prop30
280
     1
102
RTVSPost2010PropOp30
 70
     1
102
RTVSPost2010Prop31
280
     0
102
RTVSPost2010PropOp31
 70
     1
102
RTVSPost2010Prop32
280
     0
102
RTVSPost2010PropOp32
 70
     1
102
RTVSPost2010Prop33
280
     0
102
RTVSPost2010PropOp33
 70
     1
102
RTVSPost2010Prop34
280
     0
102
RTVSPost2010PropOp34
 70
     1
102
RTVSPost2010Prop35
280
     0
102
RTVSPost2010PropOp35
 70
     1
102
RTVSPost2010Prop36
280
     0
102
RTVSPost2010PropOp36
 70
     1
102
RTVSPost2010Prop37
 90
       50
102
RTVSPost2010PropOp37
 70
     1
102
RTVSPost2010Prop38
140
0.0
102
RTVSPost2010PropOp38
 70
     1
102
RTVSPost2010Prop39
140
1.0
102
RTVSPost2010PropOp39
 70
     1
102
RTVSPost2010Prop40
 90
        0
102
RTVSPost2010PropOp40
 70
     1
102
RTVSPost2010Prop41ColorIndex
 90
       18
102
RTVSPost2010Prop41ColorRGB
 90
        0
102
RTVSPost2010PropOp41
 70
     1
102
RTVSPost2010Prop42
 90
       50
102
RTVSPost2010PropOp42
 70
     1
102
RTVSPost2010Prop43
 90
        3
102
RTVSPost2010PropOp43
 70
     1
102
RTVSPost2010Prop44ColorIndex
 90
        5
102
RTVSPost2010Prop44ColorRGB
 90
      255
102
RTVSPost2010PropOp44
 70
     1
102
RTVSPost2010Prop45
280
     0
102
RTVSPost2010PropOp45
 70
     1
102
RTVSPost2010Prop46
 90
       50
102
RTVSPost2010PropOp46
 70
     1
102
RTVSPost2010Prop47
 90
       50
102
RTVSPost2010PropOp47
 70
     1
102
RTVSPost2010Prop48
 90
       50
102
RTVSPost2010PropOp48
 70
     1
102
RTVSPost2010Prop49
280
     0
102
RTVSPost2010PropOp49
 70
     1
102
RTVSPost2010Prop50
 90
       50
102
RTVSPost2010PropOp50
 70
     1
102
RTVSPost2010Prop51ColorIndex
 90
      256
102
RTVSPost2010Prop51ColorRGB
 90
-16777216
102
RTVSPost2010PropOp51
 70
     0
102
RTVSPost2010Prop52
140
1.0
102
RTVSPost2010PropOp52
 70
     0
102
RTVSPost2010Prop53
 90
        2
102
RTVSPost2010PropOp53
 70
     1
102
RTVSPost2010Prop54
  1
strokes_ogs.tif
102
RTVSPost2010PropOp54
 70
     1
102
RTVSPost2010Prop55
280
     0
102
RTVSPost2010PropOp55
 70
     1
102
RTVSPost2010Prop56
140
1.0
102
RTVSPost2010PropOp56
 70
     1
102
RTVSPost2010Prop57
140
1.0
102
RTVSPost2010PropOp57
 70
     1
  0
XRECORD
  5
2BF
102
{ACAD_REACTORS
330
2BE
102
}
330
2BE
100
AcDbXrecord
280
     1
102
RTVSPropertyOp0
 70
     0
102
RTVSPropertyOp1
 70
     0
102
RTVSPropertyOp2
 70
     0
102
RTVSPropertyOp3
 70
     0
102
RTVSPropertyOp4
 70
     0
102
RTVSPropertyOp5
 70
     0
102
RTVSPropertyOp6
 70
     0
102
RTVSPropertyOp7
 70
     0
102
RTVSPropertyOp8
 70
     0
102
RTVSPropertyOp9
 70
     0
102
RTVSPropertyOp10
 70
     0
102
RTVSPropertyOp11
 70
     0
102
RTVSPropertyOp12
 70
     0
102
RTVSPropertyOp13
 70
     0
102
RTVSPropertyOp14
 70
     2
102
RTVSPropertyOp15
 70
     0
102
RTVSPropertyOp16
 70
     0
102
RTVSPropertyOp17
 70
     0
102
RTVSPropertyOp18
 70
     0
102
RTVSPropertyOp19
 70
     0
102
RTVSPropertyOp20
 70
     0
102
RTVSPropertyOp21
 70
     0
102
RTVSPropertyOp22
 70
     0
102
RTVSPropertyOp23
 70
     0
102
RTVSPropertyOp24
 70
     0
102
RTVSPropertyOp25
 70
     0
102
RTVSPropertyOp26
 70
     0
102
RTVSPropertyOp27
 70
     0
102
RTVSPropertyOp28
 70
     0
102
RTVSPropertyOp29
 70
     0
102
RTVSPropertyOp30
 70
     0
102
RTVSPropertyOp31
 70
     0
102
RTVSPropertyOp32
 70
     0
102
RTVSPropertyOp33
 70
     0
102
RTVSPropertyOp34
 70
     0
102
RTVSPropertyOp35
 70
     0
102
RTVSPropertyOp36
 70
     0
102
RTVSPropertyOp37
 70
     0
102
RTVSPropertyOp38
 70
     0
102
RTVSPropertyOp39
 70
     0
102
RTVSPropertyOp40
 70
     0
102
RTVSPropertyOp41
 70
     0
102
RTVSPropertyOp42
 70
     0
102
RTVSPropertyOp43
 70
     0
102
RTVSPropertyOp44
 70
     0
102
RTVSPropertyOp45
 70
     0
102
RTVSPropertyOp46
 70
     0
102
RTVSPropertyOp47
 70
     0
102
RTVSPropertyOp48
 70
     0
102
RTVSPropertyOp49
 70
     0
102
RTVSPropertyOp50
 70
     0
102
RTVSPropertyOp51
 70
     0
102
RTVSPropertyOp52
 70
     0
102
RTVSPropertyOp53
 70
     0
102
RTVSPropertyOp54
 70
     0
102
RTVSPropertyOp55
 70
     0
102
RTVSPropertyOp56
 70
     0
102
RTVSPropertyOp57
 70
     0
102
RTVSPost2010Prop28
280
     0
102
RTVSPost2010PropOp28
 70
     0
102
RTVSPost2010Prop29
280
     1
102
RTVSPost2010PropOp29
 70
     0
102
RTVSPost2010Prop30
280
     1
102
RTVSPost2010PropOp30
 70
     0
102
RTVSPost2010Prop31
280
     0
102
RTVSPost2010PropOp31
 70
     0
102
RTVSPost2010Prop32
280
     0
102
RTVSPost2010PropOp32
 70
     0
102
RTVSPost2010Prop33
280
     0
102
RTVSPost2010PropOp33
 70
     0
102
RTVSPost2010Prop34
280
     0
102
RTVSPost2010PropOp34
 70
     0
102
RTVSPost2010Prop35
280
     0
102
RTVSPost2010PropOp35
 70
     0
102
RTVSPost2010Prop36
280
     0
102
RTVSPost2010PropOp36
 70
     0
102
RTVSPost2010Prop37
 90
       50
102
RTVSPost2010PropOp37
 70
     0
102
RTVSPost2010Prop38
140
0.0
102
RTVSPost2010PropOp38
 70
     0
102
RTVSPost2010Prop39
140
1.0
102
RTVSPost2010PropOp39
 70
     0
102
RTVSPost2010Prop40
 90
        0
102
RTVSPost2010PropOp40
 70
     0
102
RTVSPost2010Prop41ColorIndex
 90
       18
102
RTVSPost2010Prop41ColorRGB
 90
        0
102
RTVSPost2010PropOp41
 70
     0
102
RTVSPost2010Prop42
 90
       50
102
RTVSPost2010PropOp42
 70
     0
102
RTVSPost2010Prop43
 90
        3
102
RTVSPost2010PropOp43
 70
     0
102
RTVSPost2010Prop44ColorIndex
 90
        5
102
RTVSPost2010Prop44ColorRGB
 90
      255
102
RTVSPost2010PropOp44
 70
     0
102
RTVSPost2010Prop45
280
     0
102
RTVSPost2010PropOp45
 70
     0
102
RTVSPost2010Prop46
 90
       50
102
RTVSPost2010PropOp46
 70
     0
102
RTVSPost2010Prop47
 90
       50
102
RTVSPost2010PropOp47
 70
     0
102
RTVSPost2010Prop48
 90
       50
102
RTVSPost2010PropOp48
 70
     0
102
RTVSPost2010Prop49
280
     0
102
RTVSPost2010PropOp49
 70
     0
102
RTVSPost2010Prop50
 90
       50
102
RTVSPost2010PropOp50
 70
     0
102
RTVSPost2010Prop51ColorIndex
 90
      256
102
RTVSPost2010Prop51ColorRGB
 90
-16777216
102
RTVSPost2010PropOp51
 70
     0
102
RTVSPost2010Prop52
140
1.0
102
RTVSPost2010PropOp52
 70
     0
102
RTVSPost2010Prop53
 90
        2
102
RTVSPost2010PropOp53
 70
     0
102
RTVSPost2010Prop54
  1
strokes_ogs.tif
102
RTVSPost2010PropOp54
 70
     0
102
RTVSPost2010Prop55
280
     0
102
RTVSPost2010PropOp55
 70
     0
102
RTVSPost2010Prop56
140
1.0
102
RTVSPost2010PropOp56
 70
     0
102
RTVSPost2010Prop57
140
1.0
102
RTVSPost2010PropOp57
 70
     0
  0
XRECORD
  5
2B7
102
{ACAD_REACTORS
330
2B6
102
}
330
2B6
100
AcDbXrecord
280
     1
102
RTVSPropertyOp0
 70
     1
102
RTVSPropertyOp1
 70
     1
102
RTVSPropertyOp2
 70
     1
102
RTVSPropertyOp3
 70
     1
102
RTVSPropertyOp4
 70
     1
102
RTVSPropertyOp5
 70
     1
102
RTVSPropertyOp6
 70
     1
102
RTVSPropertyOp7
 70
     1
102
RTVSPropertyOp8
 70
     1
102
RTVSPropertyOp9
 70
     1
102
RTVSPropertyOp10
 70
     1
102
RTVSPropertyOp11
 70
     1
102
RTVSPropertyOp12
 70
     1
102
RTVSPropertyOp13
 70
     1
102
RTVSPropertyOp14
 70
     1
102
RTVSPropertyOp15
 70
     1
102
RTVSPropertyOp16
 70
     1
102
RTVSPropertyOp17
 70
     1
102
RTVSPropertyOp18
 70
     1
102
RTVSPropertyOp19
 70
     1
102
RTVSPropertyOp20
 70
     1
102
RTVSPropertyOp21
 70
     1
102
RTVSPropertyOp22
 70
     1
102
RTVSPropertyOp23
 70
     1
102
RTVSPropertyOp24
 70
     1
102
RTVSPropertyOp25
 70
     1
102
RTVSPropertyOp26
 70
     1
102
RTVSPropertyOp27
 70
     1
102
RTVSPropertyOp28
 70
     1
102
RTVSPropertyOp29
 70
     1
102
RTVSPropertyOp30
 70
     1
102
RTVSPropertyOp31
 70
     1
102
RTVSPropertyOp32
 70
     1
102
RTVSPropertyOp33
 70
     1
102
RTVSPropertyOp34
 70
     1
102
RTVSPropertyOp35
 70
     1
102
RTVSPropertyOp36
 70
     1
102
RTVSPropertyOp37
 70
     1
102
RTVSPropertyOp38
 70
     1
102
RTVSPropertyOp39
 70
     1
102
RTVSPropertyOp40
 70
     1
102
RTVSPropertyOp41
 70
     1
102
RTVSPropertyOp42
 70
     1
102
RTVSPropertyOp43
 70
     1
102
RTVSPropertyOp44
 70
     1
102
RTVSPropertyOp45
 70
     1
102
RTVSPropertyOp46
 70
     1
102
RTVSPropertyOp47
 70
     1
102
RTVSPropertyOp48
 70
     1
102
RTVSPropertyOp49
 70
     1
102
RTVSPropertyOp50
 70
     1
102
RTVSPropertyOp51
 70
     0
102
RTVSPropertyOp52
 70
     0
102
RTVSPropertyOp53
 70
     1
102
RTVSPropertyOp54
 70
     1
102
RTVSPropertyOp55
 70
     1
102
RTVSPropertyOp56
 70
     1
102
RTVSPropertyOp57
 70
     1
102
RTVSPost2010Prop28
280
     0
102
RTVSPost2010PropOp28
 70
     1
102
RTVSPost2010Prop29
280
     1
102
RTVSPost2010PropOp29
 70
     1
102
RTVSPost2010Prop30
280
     1
102
RTVSPost2010PropOp30
 70
     1
102
RTVSPost2010Prop31
280
     0
102
RTVSPost2010PropOp31
 70
     1
102
RTVSPost2010Prop32
280
     0
102
RTVSPost2010PropOp32
 70
     1
102
RTVSPost2010Prop33
280
     0
102
RTVSPost2010PropOp33
 70
     1
102
RTVSPost2010Prop34
280
     0
102
RTVSPost2010PropOp34
 70
     1
102
RTVSPost2010Prop35
280
     0
102
RTVSPost2010PropOp35
 70
     1
102
RTVSPost2010Prop36
280
     0
102
RTVSPost2010PropOp36
 70
     1
102
RTVSPost2010Prop37
 90
       50
102
RTVSPost2010PropOp37
 70
     1
102
RTVSPost2010Prop38
140
0.0
102
RTVSPost2010PropOp38
 70
     1
102
RTVSPost2010Prop39
140
1.0
102
RTVSPost2010PropOp39
 70
     1
102
RTVSPost2010Prop40
 90
        0
102
RTVSPost2010PropOp40
 70
     1
102
RTVSPost2010Prop41ColorIndex
 90
       18
102
RTVSPost2010Prop41ColorRGB
 90
        0
102
RTVSPost2010PropOp41
 70
     1
102
RTVSPost2010Prop42
 90
       50
102
RTVSPost2010PropOp42
 70
     1
102
RTVSPost2010Prop43
 90
        3
102
RTVSPost2010PropOp43
 70
     1
102
RTVSPost2010Prop44ColorIndex
 90
        5
102
RTVSPost2010Prop44ColorRGB
 90
      255
102
RTVSPost2010PropOp44
 70
     1
102
RTVSPost2010Prop45
280
     0
102
RTVSPost2010PropOp45
 70
     1
102
RTVSPost2010Prop46
 90
       50
102
RTVSPost2010PropOp46
 70
     1
102
RTVSPost2010Prop47
 90
       50
102
RTVSPost2010PropOp47
 70
     1
102
RTVSPost2010Prop48
 90
       50
102
RTVSPost2010PropOp48
 70
     1
102
RTVSPost2010Prop49
280
     0
102
RTVSPost2010PropOp49
 70
     1
102
RTVSPost2010Prop50
 90
       50
102
RTVSPost2010PropOp50
 70
     1
102
RTVSPost2010Prop51ColorIndex
 90
      256
102
RTVSPost2010Prop51ColorRGB
 90
-16777216
102
RTVSPost2010PropOp51
 70
     0
102
RTVSPost2010Prop52
140
1.0
102
RTVSPost2010PropOp52
 70
     0
102
RTVSPost2010Prop53
 90
        2
102
RTVSPost2010PropOp53
 70
     1
102
RTVSPost2010Prop54
  1
strokes_ogs.tif
102
RTVSPost2010PropOp54
 70
     1
102
RTVSPost2010Prop55
280
     0
102
RTVSPost2010PropOp55
 70
     1
102
RTVSPost2010Prop56
140
1.0
102
RTVSPost2010PropOp56
 70
     1
102
RTVSPost2010Prop57
140
1.0
102
RTVSPost2010PropOp57
 70
     1
  0
XRECORD
  5
29B
102
{ACAD_REACTORS
330
29A
102
}
330
29A
100
AcDbXrecord
280
     1
102
RTVSPropertyOp0
 70
     1
102
RTVSPropertyOp1
 70
     1
102
RTVSPropertyOp2
 70
     1
102
RTVSPropertyOp3
 70
     1
102
RTVSPropertyOp4
 70
     1
102
RTVSPropertyOp5
 70
     1
102
RTVSPropertyOp6
 70
     1
102
RTVSPropertyOp7
 70
     1
102
RTVSPropertyOp8
 70
     1
102
RTVSPropertyOp9
 70
     1
102
RTVSPropertyOp10
 70
     1
102
RTVSPropertyOp11
 70
     1
102
RTVSPropertyOp12
 70
     1
102
RTVSPropertyOp13
 70
     1
102
RTVSPropertyOp14
 70
     1
102
RTVSPropertyOp15
 70
     1
102
RTVSPropertyOp16
 70
     1
102
RTVSPropertyOp17
 70
     1
102
RTVSPropertyOp18
 70
     1
102
RTVSPropertyOp19
 70
     1
102
RTVSPropertyOp20
 70
     1
102
RTVSPropertyOp21
 70
     1
102
RTVSPropertyOp22
 70
     1
102
RTVSPropertyOp23
 70
     1
102
RTVSPropertyOp24
 70
     1
102
RTVSPropertyOp25
 70
     1
102
RTVSPropertyOp26
 70
     1
102
RTVSPropertyOp27
 70
     1
102
RTVSPropertyOp28
 70
     1
102
RTVSPropertyOp29
 70
     1
102
RTVSPropertyOp30
 70
     1
102
RTVSPropertyOp31
 70
     1
102
RTVSPropertyOp32
 70
     1
102
RTVSPropertyOp33
 70
     1
102
RTVSPropertyOp34
 70
     1
102
RTVSPropertyOp35
 70
     1
102
RTVSPropertyOp36
 70
     1
102
RTVSPropertyOp37
 70
     1
102
RTVSPropertyOp38
 70
     1
102
RTVSPropertyOp39
 70
     1
102
RTVSPropertyOp40
 70
     1
102
RTVSPropertyOp41
 70
     1
102
RTVSPropertyOp42
 70
     1
102
RTVSPropertyOp43
 70
     1
102
RTVSPropertyOp44
 70
     1
102
RTVSPropertyOp45
 70
     1
102
RTVSPropertyOp46
 70
     1
102
RTVSPropertyOp47
 70
     1
102
RTVSPropertyOp48
 70
     1
102
RTVSPropertyOp49
 70
     1
102
RTVSPropertyOp50
 70
     1
102
RTVSPropertyOp51
 70
     0
102
RTVSPropertyOp52
 70
     0
102
RTVSPropertyOp53
 70
     1
102
RTVSPropertyOp54
 70
     1
102
RTVSPropertyOp55
 70
     1
102
RTVSPropertyOp56
 70
     1
102
RTVSPropertyOp57
 70
     1
102
RTVSPost2010Prop28
280
     0
102
RTVSPost2010PropOp28
 70
     1
102
RTVSPost2010Prop29
280
     1
102
RTVSPost2010PropOp29
 70
     1
102
RTVSPost2010Prop30
280
     1
102
RTVSPost2010PropOp30
 70
     1
102
RTVSPost2010Prop31
280
     0
102
RTVSPost2010PropOp31
 70
     1
102
RTVSPost2010Prop32
280
     0
102
RTVSPost2010PropOp32
 70
     1
102
RTVSPost2010Prop33
280
     0
102
RTVSPost2010PropOp33
 70
     1
102
RTVSPost2010Prop34
280
     0
102
RTVSPost2010PropOp34
 70
     1
102
RTVSPost2010Prop35
280
     0
102
RTVSPost2010PropOp35
 70
     1
102
RTVSPost2010Prop36
280
     0
102
RTVSPost2010PropOp36
 70
     1
102
RTVSPost2010Prop37
 90
       50
102
RTVSPost2010PropOp37
 70
     1
102
RTVSPost2010Prop38
140
0.0
102
RTVSPost2010PropOp38
 70
     1
102
RTVSPost2010Prop39
140
1.0
102
RTVSPost2010PropOp39
 70
     1
102
RTVSPost2010Prop40
 90
        0
102
RTVSPost2010PropOp40
 70
     1
102
RTVSPost2010Prop41ColorIndex
 90
       18
102
RTVSPost2010Prop41ColorRGB
 90
        0
102
RTVSPost2010PropOp41
 70
     1
102
RTVSPost2010Prop42
 90
       50
102
RTVSPost2010PropOp42
 70
     1
102
RTVSPost2010Prop43
 90
        3
102
RTVSPost2010PropOp43
 70
     1
102
RTVSPost2010Prop44ColorIndex
 90
        5
102
RTVSPost2010Prop44ColorRGB
 90
      255
102
RTVSPost2010PropOp44
 70
     1
102
RTVSPost2010Prop45
280
     0
102
RTVSPost2010PropOp45
 70
     1
102
RTVSPost2010Prop46
 90
       50
102
RTVSPost2010PropOp46
 70
     1
102
RTVSPost2010Prop47
 90
       50
102
RTVSPost2010PropOp47
 70
     1
102
RTVSPost2010Prop48
 90
       50
102
RTVSPost2010PropOp48
 70
     1
102
RTVSPost2010Prop49
280
     0
102
RTVSPost2010PropOp49
 70
     1
102
RTVSPost2010Prop50
 90
       50
102
RTVSPost2010PropOp50
 70
     1
102
RTVSPost2010Prop51ColorIndex
 90
      256
102
RTVSPost2010Prop51ColorRGB
 90
-16777216
102
RTVSPost2010PropOp51
 70
     0
102
RTVSPost2010Prop52
140
1.0
102
RTVSPost2010PropOp52
 70
     0
102
RTVSPost2010Prop53
 90
        2
102
RTVSPost2010PropOp53
 70
     1
102
RTVSPost2010Prop54
  1
strokes_ogs.tif
102
RTVSPost2010PropOp54
 70
     1
102
RTVSPost2010Prop55
280
     0
102
RTVSPost2010PropOp55
 70
     1
102
RTVSPost2010Prop56
140
1.0
102
RTVSPost2010PropOp56
 70
     1
102
RTVSPost2010Prop57
140
1.0
102
RTVSPost2010PropOp57
 70
     1
  0
XRECORD
  5
29D
102
{ACAD_REACTORS
330
29C
102
}
330
29C
100
AcDbXrecord
280
     1
102
RTVSPropertyOp0
 70
     1
102
RTVSPropertyOp1
 70
     1
102
RTVSPropertyOp2
 70
     1
102
RTVSPropertyOp3
 70
     1
102
RTVSPropertyOp4
 70
     1
102
RTVSPropertyOp5
 70
     1
102
RTVSPropertyOp6
 70
     1
102
RTVSPropertyOp7
 70
     1
102
RTVSPropertyOp8
 70
     1
102
RTVSPropertyOp9
 70
     1
102
RTVSPropertyOp10
 70
     1
102
RTVSPropertyOp11
 70
     1
102
RTVSPropertyOp12
 70
     1
102
RTVSPropertyOp13
 70
     1
102
RTVSPropertyOp14
 70
     1
102
RTVSPropertyOp15
 70
     1
102
RTVSPropertyOp16
 70
     1
102
RTVSPropertyOp17
 70
     1
102
RTVSPropertyOp18
 70
     1
102
RTVSPropertyOp19
 70
     1
102
RTVSPropertyOp20
 70
     1
102
RTVSPropertyOp21
 70
     1
102
RTVSPropertyOp22
 70
     1
102
RTVSPropertyOp23
 70
     1
102
RTVSPropertyOp24
 70
     1
102
RTVSPropertyOp25
 70
     1
102
RTVSPropertyOp26
 70
     1
102
RTVSPropertyOp27
 70
     1
102
RTVSPropertyOp28
 70
     1
102
RTVSPropertyOp29
 70
     1
102
RTVSPropertyOp30
 70
     1
102
RTVSPropertyOp31
 70
     1
102
RTVSPropertyOp32
 70
     1
102
RTVSPropertyOp33
 70
     1
102
RTVSPropertyOp34
 70
     1
102
RTVSPropertyOp35
 70
     1
102
RTVSPropertyOp36
 70
     1
102
RTVSPropertyOp37
 70
     1
102
RTVSPropertyOp38
 70
     1
102
RTVSPropertyOp39
 70
     1
102
RTVSPropertyOp40
 70
     1
102
RTVSPropertyOp41
 70
     1
102
RTVSPropertyOp42
 70
     1
102
RTVSPropertyOp43
 70
     1
102
RTVSPropertyOp44
 70
     1
102
RTVSPropertyOp45
 70
     1
102
RTVSPropertyOp46
 70
     1
102
RTVSPropertyOp47
 70
     1
102
RTVSPropertyOp48
 70
     1
102
RTVSPropertyOp49
 70
     1
102
RTVSPropertyOp50
 70
     1
102
RTVSPropertyOp51
 70
     0
102
RTVSPropertyOp52
 70
     0
102
RTVSPropertyOp53
 70
     1
102
RTVSPropertyOp54
 70
     1
102
RTVSPropertyOp55
 70
     1
102
RTVSPropertyOp56
 70
     1
102
RTVSPropertyOp57
 70
     1
102
RTVSPost2010Prop28
280
     0
102
RTVSPost2010PropOp28
 70
     1
102
RTVSPost2010Prop29
280
     1
102
RTVSPost2010PropOp29
 70
     1
102
RTVSPost2010Prop30
280
     1
102
RTVSPost2010PropOp30
 70
     1
102
RTVSPost2010Prop31
280
     0
102
RTVSPost2010PropOp31
 70
     1
102
RTVSPost2010Prop32
280
     0
102
RTVSPost2010PropOp32
 70
     1
102
RTVSPost2010Prop33
280
     0
102
RTVSPost2010PropOp33
 70
     1
102
RTVSPost2010Prop34
280
     0
102
RTVSPost2010PropOp34
 70
     1
102
RTVSPost2010Prop35
280
     0
102
RTVSPost2010PropOp35
 70
     1
102
RTVSPost2010Prop36
280
     0
102
RTVSPost2010PropOp36
 70
     1
102
RTVSPost2010Prop37
 90
       50
102
RTVSPost2010PropOp37
 70
     1
102
RTVSPost2010Prop38
140
0.0
102
RTVSPost2010PropOp38
 70
     1
102
RTVSPost2010Prop39
140
1.0
102
RTVSPost2010PropOp39
 70
     1
102
RTVSPost2010Prop40
 90
        0
102
RTVSPost2010PropOp40
 70
     1
102
RTVSPost2010Prop41ColorIndex
 90
       18
102
RTVSPost2010Prop41ColorRGB
 90
        0
102
RTVSPost2010PropOp41
 70
     1
102
RTVSPost2010Prop42
 90
       50
102
RTVSPost2010PropOp42
 70
     1
102
RTVSPost2010Prop43
 90
        3
102
RTVSPost2010PropOp43
 70
     1
102
RTVSPost2010Prop44ColorIndex
 90
        5
102
RTVSPost2010Prop44ColorRGB
 90
      255
102
RTVSPost2010PropOp44
 70
     1
102
RTVSPost2010Prop45
280
     0
102
RTVSPost2010PropOp45
 70
     1
102
RTVSPost2010Prop46
 90
       50
102
RTVSPost2010PropOp46
 70
     1
102
RTVSPost2010Prop47
 90
       50
102
RTVSPost2010PropOp47
 70
     1
102
RTVSPost2010Prop48
 90
       50
102
RTVSPost2010PropOp48
 70
     1
102
RTVSPost2010Prop49
280
     0
102
RTVSPost2010PropOp49
 70
     1
102
RTVSPost2010Prop50
 90
       50
102
RTVSPost2010PropOp50
 70
     1
102
RTVSPost2010Prop51ColorIndex
 90
      256
102
RTVSPost2010Prop51ColorRGB
 90
-16777216
102
RTVSPost2010PropOp51
 70
     0
102
RTVSPost2010Prop52
140
1.0
102
RTVSPost2010PropOp52
 70
     0
102
RTVSPost2010Prop53
 90
        2
102
RTVSPost2010PropOp53
 70
     1
102
RTVSPost2010Prop54
  1
strokes_ogs.tif
102
RTVSPost2010PropOp54
 70
     1
102
RTVSPost2010Prop55
280
     0
102
RTVSPost2010PropOp55
 70
     1
102
RTVSPost2010Prop56
140
1.0
102
RTVSPost2010PropOp56
 70
     1
102
RTVSPost2010Prop57
140
1.0
102
RTVSPost2010PropOp57
 70
     1
  0
XRECORD
  5
29F
102
{ACAD_REACTORS
330
29E
102
}
330
29E
100
AcDbXrecord
280
     1
102
RTVSPropertyOp0
 70
     1
102
RTVSPropertyOp1
 70
     1
102
RTVSPropertyOp2
 70
     1
102
RTVSPropertyOp3
 70
     1
102
RTVSPropertyOp4
 70
     1
102
RTVSPropertyOp5
 70
     1
102
RTVSPropertyOp6
 70
     1
102
RTVSPropertyOp7
 70
     1
102
RTVSPropertyOp8
 70
     1
102
RTVSPropertyOp9
 70
     1
102
RTVSPropertyOp10
 70
     1
102
RTVSPropertyOp11
 70
     1
102
RTVSPropertyOp12
 70
     1
102
RTVSPropertyOp13
 70
     1
102
RTVSPropertyOp14
 70
     1
102
RTVSPropertyOp15
 70
     1
102
RTVSPropertyOp16
 70
     1
102
RTVSPropertyOp17
 70
     1
102
RTVSPropertyOp18
 70
     1
102
RTVSPropertyOp19
 70
     1
102
RTVSPropertyOp20
 70
     1
102
RTVSPropertyOp21
 70
     1
102
RTVSPropertyOp22
 70
     1
102
RTVSPropertyOp23
 70
     1
102
RTVSPropertyOp24
 70
     1
102
RTVSPropertyOp25
 70
     1
102
RTVSPropertyOp26
 70
     1
102
RTVSPropertyOp27
 70
     1
102
RTVSPropertyOp28
 70
     1
102
RTVSPropertyOp29
 70
     1
102
RTVSPropertyOp30
 70
     1
102
RTVSPropertyOp31
 70
     1
102
RTVSPropertyOp32
 70
     1
102
RTVSPropertyOp33
 70
     1
102
RTVSPropertyOp34
 70
     1
102
RTVSPropertyOp35
 70
     1
102
RTVSPropertyOp36
 70
     1
102
RTVSPropertyOp37
 70
     1
102
RTVSPropertyOp38
 70
     1
102
RTVSPropertyOp39
 70
     1
102
RTVSPropertyOp40
 70
     1
102
RTVSPropertyOp41
 70
     1
102
RTVSPropertyOp42
 70
     1
102
RTVSPropertyOp43
 70
     1
102
RTVSPropertyOp44
 70
     1
102
RTVSPropertyOp45
 70
     1
102
RTVSPropertyOp46
 70
     1
102
RTVSPropertyOp47
 70
     1
102
RTVSPropertyOp48
 70
     1
102
RTVSPropertyOp49
 70
     1
102
RTVSPropertyOp50
 70
     1
102
RTVSPropertyOp51
 70
     0
102
RTVSPropertyOp52
 70
     0
102
RTVSPropertyOp53
 70
     1
102
RTVSPropertyOp54
 70
     1
102
RTVSPropertyOp55
 70
     1
102
RTVSPropertyOp56
 70
     1
102
RTVSPropertyOp57
 70
     1
102
RTVSPost2010Prop28
280
     0
102
RTVSPost2010PropOp28
 70
     1
102
RTVSPost2010Prop29
280
     1
102
RTVSPost2010PropOp29
 70
     1
102
RTVSPost2010Prop30
280
     1
102
RTVSPost2010PropOp30
 70
     1
102
RTVSPost2010Prop31
280
     0
102
RTVSPost2010PropOp31
 70
     1
102
RTVSPost2010Prop32
280
     0
102
RTVSPost2010PropOp32
 70
     1
102
RTVSPost2010Prop33
280
     0
102
RTVSPost2010PropOp33
 70
     1
102
RTVSPost2010Prop34
280
     0
102
RTVSPost2010PropOp34
 70
     1
102
RTVSPost2010Prop35
280
     0
102
RTVSPost2010PropOp35
 70
     1
102
RTVSPost2010Prop36
280
     0
102
RTVSPost2010PropOp36
 70
     1
102
RTVSPost2010Prop37
 90
       50
102
RTVSPost2010PropOp37
 70
     1
102
RTVSPost2010Prop38
140
0.0
102
RTVSPost2010PropOp38
 70
     1
102
RTVSPost2010Prop39
140
1.0
102
RTVSPost2010PropOp39
 70
     1
102
RTVSPost2010Prop40
 90
        0
102
RTVSPost2010PropOp40
 70
     1
102
RTVSPost2010Prop41ColorIndex
 90
       18
102
RTVSPost2010Prop41ColorRGB
 90
        0
102
RTVSPost2010PropOp41
 70
     1
102
RTVSPost2010Prop42
 90
       50
102
RTVSPost2010PropOp42
 70
     1
102
RTVSPost2010Prop43
 90
        3
102
RTVSPost2010PropOp43
 70
     1
102
RTVSPost2010Prop44ColorIndex
 90
        5
102
RTVSPost2010Prop44ColorRGB
 90
      255
102
RTVSPost2010PropOp44
 70
     1
102
RTVSPost2010Prop45
280
     0
102
RTVSPost2010PropOp45
 70
     1
102
RTVSPost2010Prop46
 90
       50
102
RTVSPost2010PropOp46
 70
     1
102
RTVSPost2010Prop47
 90
       50
102
RTVSPost2010PropOp47
 70
     1
102
RTVSPost2010Prop48
 90
       50
102
RTVSPost2010PropOp48
 70
     1
102
RTVSPost2010Prop49
280
     0
102
RTVSPost2010PropOp49
 70
     1
102
RTVSPost2010Prop50
 90
       50
102
RTVSPost2010PropOp50
 70
     1
102
RTVSPost2010Prop51ColorIndex
 90
      256
102
RTVSPost2010Prop51ColorRGB
 90
-16777216
102
RTVSPost2010PropOp51
 70
     0
102
RTVSPost2010Prop52
140
1.0
102
RTVSPost2010PropOp52
 70
     0
102
RTVSPost2010Prop53
 90
        2
102
RTVSPost2010PropOp53
 70
     1
102
RTVSPost2010Prop54
  1
strokes_ogs.tif
102
RTVSPost2010PropOp54
 70
     1
102
RTVSPost2010Prop55
280
     0
102
RTVSPost2010PropOp55
 70
     1
102
RTVSPost2010Prop56
140
1.0
102
RTVSPost2010PropOp56
 70
     1
102
RTVSPost2010Prop57
140
1.0
102
RTVSPost2010PropOp57
 70
     1
  0
XRECORD
  5
2A1
102
{ACAD_REACTORS
330
2A0
102
}
330
2A0
100
AcDbXrecord
280
     1
102
RTVSPropertyOp0
 70
     1
102
RTVSPropertyOp1
 70
     1
102
RTVSPropertyOp2
 70
     1
102
RTVSPropertyOp3
 70
     1
102
RTVSPropertyOp4
 70
     1
102
RTVSPropertyOp5
 70
     1
102
RTVSPropertyOp6
 70
     1
102
RTVSPropertyOp7
 70
     1
102
RTVSPropertyOp8
 70
     1
102
RTVSPropertyOp9
 70
     1
102
RTVSPropertyOp10
 70
     1
102
RTVSPropertyOp11
 70
     1
102
RTVSPropertyOp12
 70
     1
102
RTVSPropertyOp13
 70
     1
102
RTVSPropertyOp14
 70
     1
102
RTVSPropertyOp15
 70
     1
102
RTVSPropertyOp16
 70
     1
102
RTVSPropertyOp17
 70
     1
102
RTVSPropertyOp18
 70
     1
102
RTVSPropertyOp19
 70
     1
102
RTVSPropertyOp20
 70
     1
102
RTVSPropertyOp21
 70
     1
102
RTVSPropertyOp22
 70
     1
102
RTVSPropertyOp23
 70
     1
102
RTVSPropertyOp24
 70
     1
102
RTVSPropertyOp25
 70
     1
102
RTVSPropertyOp26
 70
     1
102
RTVSPropertyOp27
 70
     1
102
RTVSPropertyOp28
 70
     1
102
RTVSPropertyOp29
 70
     1
102
RTVSPropertyOp30
 70
     1
102
RTVSPropertyOp31
 70
     1
102
RTVSPropertyOp32
 70
     1
102
RTVSPropertyOp33
 70
     1
102
RTVSPropertyOp34
 70
     1
102
RTVSPropertyOp35
 70
     1
102
RTVSPropertyOp36
 70
     1
102
RTVSPropertyOp37
 70
     1
102
RTVSPropertyOp38
 70
     1
102
RTVSPropertyOp39
 70
     1
102
RTVSPropertyOp40
 70
     1
102
RTVSPropertyOp41
 70
     1
102
RTVSPropertyOp42
 70
     1
102
RTVSPropertyOp43
 70
     1
102
RTVSPropertyOp44
 70
     1
102
RTVSPropertyOp45
 70
     1
102
RTVSPropertyOp46
 70
     1
102
RTVSPropertyOp47
 70
     1
102
RTVSPropertyOp48
 70
     1
102
RTVSPropertyOp49
 70
     1
102
RTVSPropertyOp50
 70
     1
102
RTVSPropertyOp51
 70
     0
102
RTVSPropertyOp52
 70
     0
102
RTVSPropertyOp53
 70
     1
102
RTVSPropertyOp54
 70
     1
102
RTVSPropertyOp55
 70
     1
102
RTVSPropertyOp56
 70
     1
102
RTVSPropertyOp57
 70
     1
102
RTVSPost2010Prop28
280
     0
102
RTVSPost2010PropOp28
 70
     1
102
RTVSPost2010Prop29
280
     1
102
RTVSPost2010PropOp29
 70
     1
102
RTVSPost2010Prop30
280
     1
102
RTVSPost2010PropOp30
 70
     1
102
RTVSPost2010Prop31
280
     0
102
RTVSPost2010PropOp31
 70
     1
102
RTVSPost2010Prop32
280
     0
102
RTVSPost2010PropOp32
 70
     1
102
RTVSPost2010Prop33
280
     0
102
RTVSPost2010PropOp33
 70
     1
102
RTVSPost2010Prop34
280
     0
102
RTVSPost2010PropOp34
 70
     1
102
RTVSPost2010Prop35
280
     0
102
RTVSPost2010PropOp35
 70
     1
102
RTVSPost2010Prop36
280
     0
102
RTVSPost2010PropOp36
 70
     1
102
RTVSPost2010Prop37
 90
       50
102
RTVSPost2010PropOp37
 70
     1
102
RTVSPost2010Prop38
140
0.0
102
RTVSPost2010PropOp38
 70
     1
102
RTVSPost2010Prop39
140
1.0
102
RTVSPost2010PropOp39
 70
     1
102
RTVSPost2010Prop40
 90
        0
102
RTVSPost2010PropOp40
 70
     1
102
RTVSPost2010Prop41ColorIndex
 90
       18
102
RTVSPost2010Prop41ColorRGB
 90
        0
102
RTVSPost2010PropOp41
 70
     1
102
RTVSPost2010Prop42
 90
       50
102
RTVSPost2010PropOp42
 70
     1
102
RTVSPost2010Prop43
 90
        3
102
RTVSPost2010PropOp43
 70
     1
102
RTVSPost2010Prop44ColorIndex
 90
        5
102
RTVSPost2010Prop44ColorRGB
 90
      255
102
RTVSPost2010PropOp44
 70
     1
102
RTVSPost2010Prop45
280
     0
102
RTVSPost2010PropOp45
 70
     1
102
RTVSPost2010Prop46
 90
       50
102
RTVSPost2010PropOp46
 70
     1
102
RTVSPost2010Prop47
 90
       50
102
RTVSPost2010PropOp47
 70
     1
102
RTVSPost2010Prop48
 90
       50
102
RTVSPost2010PropOp48
 70
     1
102
RTVSPost2010Prop49
280
     0
102
RTVSPost2010PropOp49
 70
     1
102
RTVSPost2010Prop50
 90
       50
102
RTVSPost2010PropOp50
 70
     1
102
RTVSPost2010Prop51ColorIndex
 90
      256
102
RTVSPost2010Prop51ColorRGB
 90
-16777216
102
RTVSPost2010PropOp51
 70
     0
102
RTVSPost2010Prop52
140
1.0
102
RTVSPost2010PropOp52
 70
     0
102
RTVSPost2010Prop53
 90
        2
102
RTVSPost2010PropOp53
 70
     1
102
RTVSPost2010Prop54
  1
strokes_ogs.tif
102
RTVSPost2010PropOp54
 70
     1
102
RTVSPost2010Prop55
280
     0
102
RTVSPost2010PropOp55
 70
     1
102
RTVSPost2010Prop56
140
1.0
102
RTVSPost2010PropOp56
 70
     1
102
RTVSPost2010Prop57
140
1.0
102
RTVSPost2010PropOp57
 70
     1
  0
XRECORD
  5
2A7
102
{ACAD_REACTORS
330
2A6
102
}
330
2A6
100
AcDbXrecord
280
     1
102
RTVSPropertyOp0
 70
     1
102
RTVSPropertyOp1
 70
     1
102
RTVSPropertyOp2
 70
     1
102
RTVSPropertyOp3
 70
     1
102
RTVSPropertyOp4
 70
     1
102
RTVSPropertyOp5
 70
     1
102
RTVSPropertyOp6
 70
     1
102
RTVSPropertyOp7
 70
     1
102
RTVSPropertyOp8
 70
     1
102
RTVSPropertyOp9
 70
     1
102
RTVSPropertyOp10
 70
     1
102
RTVSPropertyOp11
 70
     1
102
RTVSPropertyOp12
 70
     1
102
RTVSPropertyOp13
 70
     1
102
RTVSPropertyOp14
 70
     1
102
RTVSPropertyOp15
 70
     1
102
RTVSPropertyOp16
 70
     1
102
RTVSPropertyOp17
 70
     1
102
RTVSPropertyOp18
 70
     1
102
RTVSPropertyOp19
 70
     1
102
RTVSPropertyOp20
 70
     1
102
RTVSPropertyOp21
 70
     1
102
RTVSPropertyOp22
 70
     1
102
RTVSPropertyOp23
 70
     1
102
RTVSPropertyOp24
 70
     1
102
RTVSPropertyOp25
 70
     1
102
RTVSPropertyOp26
 70
     1
102
RTVSPropertyOp27
 70
     1
102
RTVSPropertyOp28
 70
     1
102
RTVSPropertyOp29
 70
     1
102
RTVSPropertyOp30
 70
     1
102
RTVSPropertyOp31
 70
     1
102
RTVSPropertyOp32
 70
     1
102
RTVSPropertyOp33
 70
     1
102
RTVSPropertyOp34
 70
     1
102
RTVSPropertyOp35
 70
     1
102
RTVSPropertyOp36
 70
     1
102
RTVSPropertyOp37
 70
     1
102
RTVSPropertyOp38
 70
     1
102
RTVSPropertyOp39
 70
     1
102
RTVSPropertyOp40
 70
     1
102
RTVSPropertyOp41
 70
     1
102
RTVSPropertyOp42
 70
     1
102
RTVSPropertyOp43
 70
     1
102
RTVSPropertyOp44
 70
     1
102
RTVSPropertyOp45
 70
     1
102
RTVSPropertyOp46
 70
     1
102
RTVSPropertyOp47
 70
     1
102
RTVSPropertyOp48
 70
     1
102
RTVSPropertyOp49
 70
     1
102
RTVSPropertyOp50
 70
     1
102
RTVSPropertyOp51
 70
     0
102
RTVSPropertyOp52
 70
     0
102
RTVSPropertyOp53
 70
     1
102
RTVSPropertyOp54
 70
     1
102
RTVSPropertyOp55
 70
     1
102
RTVSPropertyOp56
 70
     1
102
RTVSPropertyOp57
 70
     1
102
RTVSPost2010Prop28
280
     0
102
RTVSPost2010PropOp28
 70
     1
102
RTVSPost2010Prop29
280
     1
102
RTVSPost2010PropOp29
 70
     1
102
RTVSPost2010Prop30
280
     1
102
RTVSPost2010PropOp30
 70
     1
102
RTVSPost2010Prop31
280
     0
102
RTVSPost2010PropOp31
 70
     1
102
RTVSPost2010Prop32
280
     0
102
RTVSPost2010PropOp32
 70
     1
102
RTVSPost2010Prop33
280
     0
102
RTVSPost2010PropOp33
 70
     1
102
RTVSPost2010Prop34
280
     0
102
RTVSPost2010PropOp34
 70
     1
102
RTVSPost2010Prop35
280
     0
102
RTVSPost2010PropOp35
 70
     1
102
RTVSPost2010Prop36
280
     0
102
RTVSPost2010PropOp36
 70
     1
102
RTVSPost2010Prop37
 90
       50
102
RTVSPost2010PropOp37
 70
     1
102
RTVSPost2010Prop38
140
0.0
102
RTVSPost2010PropOp38
 70
     1
102
RTVSPost2010Prop39
140
1.0
102
RTVSPost2010PropOp39
 70
     1
102
RTVSPost2010Prop40
 90
        0
102
RTVSPost2010PropOp40
 70
     1
102
RTVSPost2010Prop41ColorIndex
 90
       18
102
RTVSPost2010Prop41ColorRGB
 90
        0
102
RTVSPost2010PropOp41
 70
     1
102
RTVSPost2010Prop42
 90
       50
102
RTVSPost2010PropOp42
 70
     1
102
RTVSPost2010Prop43
 90
        3
102
RTVSPost2010PropOp43
 70
     1
102
RTVSPost2010Prop44ColorIndex
 90
        5
102
RTVSPost2010Prop44ColorRGB
 90
      255
102
RTVSPost2010PropOp44
 70
     1
102
RTVSPost2010Prop45
280
     0
102
RTVSPost2010PropOp45
 70
     1
102
RTVSPost2010Prop46
 90
       50
102
RTVSPost2010PropOp46
 70
     1
102
RTVSPost2010Prop47
 90
       50
102
RTVSPost2010PropOp47
 70
     1
102
RTVSPost2010Prop48
 90
       50
102
RTVSPost2010PropOp48
 70
     1
102
RTVSPost2010Prop49
280
     0
102
RTVSPost2010PropOp49
 70
     1
102
RTVSPost2010Prop50
 90
       50
102
RTVSPost2010PropOp50
 70
     1
102
RTVSPost2010Prop51ColorIndex
 90
      256
102
RTVSPost2010Prop51ColorRGB
 90
-16777216
102
RTVSPost2010PropOp51
 70
     0
102
RTVSPost2010Prop52
140
1.0
102
RTVSPost2010PropOp52
 70
     0
102
RTVSPost2010Prop53
 90
        2
102
RTVSPost2010PropOp53
 70
     1
102
RTVSPost2010Prop54
  1
strokes_ogs.tif
102
RTVSPost2010PropOp54
 70
     1
102
RTVSPost2010Prop55
280
     0
102
RTVSPost2010PropOp55
 70
     1
102
RTVSPost2010Prop56
140
1.0
102
RTVSPost2010PropOp56
 70
     1
102
RTVSPost2010Prop57
140
1.0
102
RTVSPost2010PropOp57
 70
     1
  0
XRECORD
  5
2BB
102
{ACAD_REACTORS
330
2BA
102
}
330
2BA
100
AcDbXrecord
280
     1
102
RTVSPropertyOp0
 70
     0
102
RTVSPropertyOp1
 70
     0
102
RTVSPropertyOp2
 70
     0
102
RTVSPropertyOp3
 70
     0
102
RTVSPropertyOp4
 70
     0
102
RTVSPropertyOp5
 70
     0
102
RTVSPropertyOp6
 70
     0
102
RTVSPropertyOp7
 70
     0
102
RTVSPropertyOp8
 70
     0
102
RTVSPropertyOp9
 70
     0
102
RTVSPropertyOp10
 70
     0
102
RTVSPropertyOp11
 70
     0
102
RTVSPropertyOp12
 70
     0
102
RTVSPropertyOp13
 70
     0
102
RTVSPropertyOp14
 70
     2
102
RTVSPropertyOp15
 70
     0
102
RTVSPropertyOp16
 70
     0
102
RTVSPropertyOp17
 70
     0
102
RTVSPropertyOp18
 70
     0
102
RTVSPropertyOp19
 70
     0
102
RTVSPropertyOp20
 70
     0
102
RTVSPropertyOp21
 70
     0
102
RTVSPropertyOp22
 70
     0
102
RTVSPropertyOp23
 70
     0
102
RTVSPropertyOp24
 70
     0
102
RTVSPropertyOp25
 70
     0
102
RTVSPropertyOp26
 70
     0
102
RTVSPropertyOp27
 70
     0
102
RTVSPropertyOp28
 70
     0
102
RTVSPropertyOp29
 70
     0
102
RTVSPropertyOp30
 70
     0
102
RTVSPropertyOp31
 70
     0
102
RTVSPropertyOp32
 70
     0
102
RTVSPropertyOp33
 70
     0
102
RTVSPropertyOp34
 70
     0
102
RTVSPropertyOp35
 70
     0
102
RTVSPropertyOp36
 70
     0
102
RTVSPropertyOp37
 70
     0
102
RTVSPropertyOp38
 70
     0
102
RTVSPropertyOp39
 70
     0
102
RTVSPropertyOp40
 70
     0
102
RTVSPropertyOp41
 70
     0
102
RTVSPropertyOp42
 70
     0
102
RTVSPropertyOp43
 70
     0
102
RTVSPropertyOp44
 70
     0
102
RTVSPropertyOp45
 70
     0
102
RTVSPropertyOp46
 70
     0
102
RTVSPropertyOp47
 70
     0
102
RTVSPropertyOp48
 70
     0
102
RTVSPropertyOp49
 70
     0
102
RTVSPropertyOp50
 70
     0
102
RTVSPropertyOp51
 70
     0
102
RTVSPropertyOp52
 70
     0
102
RTVSPropertyOp53
 70
     0
102
RTVSPropertyOp54
 70
     0
102
RTVSPropertyOp55
 70
     0
102
RTVSPropertyOp56
 70
     0
102
RTVSPropertyOp57
 70
     0
102
RTVSPost2010Prop28
280
     0
102
RTVSPost2010PropOp28
 70
     0
102
RTVSPost2010Prop29
280
     1
102
RTVSPost2010PropOp29
 70
     0
102
RTVSPost2010Prop30
280
     1
102
RTVSPost2010PropOp30
 70
     0
102
RTVSPost2010Prop31
280
     0
102
RTVSPost2010PropOp31
 70
     0
102
RTVSPost2010Prop32
280
     0
102
RTVSPost2010PropOp32
 70
     0
102
RTVSPost2010Prop33
280
     0
102
RTVSPost2010PropOp33
 70
     0
102
RTVSPost2010Prop34
280
     0
102
RTVSPost2010PropOp34
 70
     0
102
RTVSPost2010Prop35
280
     0
102
RTVSPost2010PropOp35
 70
     0
102
RTVSPost2010Prop36
280
     0
102
RTVSPost2010PropOp36
 70
     0
102
RTVSPost2010Prop37
 90
       50
102
RTVSPost2010PropOp37
 70
     0
102
RTVSPost2010Prop38
140
0.0
102
RTVSPost2010PropOp38
 70
     0
102
RTVSPost2010Prop39
140
1.0
102
RTVSPost2010PropOp39
 70
     0
102
RTVSPost2010Prop40
 90
        0
102
RTVSPost2010PropOp40
 70
     0
102
RTVSPost2010Prop41ColorIndex
 90
       18
102
RTVSPost2010Prop41ColorRGB
 90
        0
102
RTVSPost2010PropOp41
 70
     0
102
RTVSPost2010Prop42
 90
       50
102
RTVSPost2010PropOp42
 70
     0
102
RTVSPost2010Prop43
 90
        3
102
RTVSPost2010PropOp43
 70
     0
102
RTVSPost2010Prop44ColorIndex
 90
        5
102
RTVSPost2010Prop44ColorRGB
 90
      255
102
RTVSPost2010PropOp44
 70
     0
102
RTVSPost2010Prop45
280
     0
102
RTVSPost2010PropOp45
 70
     0
102
RTVSPost2010Prop46
 90
       50
102
RTVSPost2010PropOp46
 70
     0
102
RTVSPost2010Prop47
 90
       50
102
RTVSPost2010PropOp47
 70
     0
102
RTVSPost2010Prop48
 90
       50
102
RTVSPost2010PropOp48
 70
     0
102
RTVSPost2010Prop49
280
     0
102
RTVSPost2010PropOp49
 70
     0
102
RTVSPost2010Prop50
 90
       50
102
RTVSPost2010PropOp50
 70
     0
102
RTVSPost2010Prop51ColorIndex
 90
      256
102
RTVSPost2010Prop51ColorRGB
 90
-16777216
102
RTVSPost2010PropOp51
 70
     0
102
RTVSPost2010Prop52
140
1.0
102
RTVSPost2010PropOp52
 70
     0
102
RTVSPost2010Prop53
 90
        2
102
RTVSPost2010PropOp53
 70
     0
102
RTVSPost2010Prop54
  1
strokes_ogs.tif
102
RTVSPost2010PropOp54
 70
     0
102
RTVSPost2010Prop55
280
     0
102
RTVSPost2010PropOp55
 70
     0
102
RTVSPost2010Prop56
140
1.0
102
RTVSPost2010PropOp56
 70
     0
102
RTVSPost2010Prop57
140
1.0
102
RTVSPost2010PropOp57
 70
     0
  0
XRECORD
  5
2B5
102
{ACAD_REACTORS
330
2B4
102
}
330
2B4
100
AcDbXrecord
280
     1
102
RTVSPropertyOp0
 70
     1
102
RTVSPropertyOp1
 70
     1
102
RTVSPropertyOp2
 70
     1
102
RTVSPropertyOp3
 70
     1
102
RTVSPropertyOp4
 70
     1
102
RTVSPropertyOp5
 70
     1
102
RTVSPropertyOp6
 70
     1
102
RTVSPropertyOp7
 70
     1
102
RTVSPropertyOp8
 70
     1
102
RTVSPropertyOp9
 70
     1
102
RTVSPropertyOp10
 70
     1
102
RTVSPropertyOp11
 70
     1
102
RTVSPropertyOp12
 70
     1
102
RTVSPropertyOp13
 70
     1
102
RTVSPropertyOp14
 70
     1
102
RTVSPropertyOp15
 70
     1
102
RTVSPropertyOp16
 70
     1
102
RTVSPropertyOp17
 70
     1
102
RTVSPropertyOp18
 70
     1
102
RTVSPropertyOp19
 70
     1
102
RTVSPropertyOp20
 70
     1
102
RTVSPropertyOp21
 70
     1
102
RTVSPropertyOp22
 70
     1
102
RTVSPropertyOp23
 70
     1
102
RTVSPropertyOp24
 70
     1
102
RTVSPropertyOp25
 70
     1
102
RTVSPropertyOp26
 70
     1
102
RTVSPropertyOp27
 70
     1
102
RTVSPropertyOp28
 70
     1
102
RTVSPropertyOp29
 70
     1
102
RTVSPropertyOp30
 70
     1
102
RTVSPropertyOp31
 70
     1
102
RTVSPropertyOp32
 70
     1
102
RTVSPropertyOp33
 70
     1
102
RTVSPropertyOp34
 70
     1
102
RTVSPropertyOp35
 70
     1
102
RTVSPropertyOp36
 70
     1
102
RTVSPropertyOp37
 70
     1
102
RTVSPropertyOp38
 70
     1
102
RTVSPropertyOp39
 70
     1
102
RTVSPropertyOp40
 70
     1
102
RTVSPropertyOp41
 70
     1
102
RTVSPropertyOp42
 70
     1
102
RTVSPropertyOp43
 70
     1
102
RTVSPropertyOp44
 70
     1
102
RTVSPropertyOp45
 70
     1
102
RTVSPropertyOp46
 70
     1
102
RTVSPropertyOp47
 70
     1
102
RTVSPropertyOp48
 70
     1
102
RTVSPropertyOp49
 70
     1
102
RTVSPropertyOp50
 70
     1
102
RTVSPropertyOp51
 70
     0
102
RTVSPropertyOp52
 70
     0
102
RTVSPropertyOp53
 70
     1
102
RTVSPropertyOp54
 70
     1
102
RTVSPropertyOp55
 70
     1
102
RTVSPropertyOp56
 70
     1
102
RTVSPropertyOp57
 70
     1
102
RTVSPost2010Prop28
280
     0
102
RTVSPost2010PropOp28
 70
     1
102
RTVSPost2010Prop29
280
     1
102
RTVSPost2010PropOp29
 70
     1
102
RTVSPost2010Prop30
280
     1
102
RTVSPost2010PropOp30
 70
     1
102
RTVSPost2010Prop31
280
     0
102
RTVSPost2010PropOp31
 70
     1
102
RTVSPost2010Prop32
280
     0
102
RTVSPost2010PropOp32
 70
     1
102
RTVSPost2010Prop33
280
     0
102
RTVSPost2010PropOp33
 70
     1
102
RTVSPost2010Prop34
280
     0
102
RTVSPost2010PropOp34
 70
     1
102
RTVSPost2010Prop35
280
     0
102
RTVSPost2010PropOp35
 70
     1
102
RTVSPost2010Prop36
280
     0
102
RTVSPost2010PropOp36
 70
     1
102
RTVSPost2010Prop37
 90
       50
102
RTVSPost2010PropOp37
 70
     1
102
RTVSPost2010Prop38
140
0.0
102
RTVSPost2010PropOp38
 70
     1
102
RTVSPost2010Prop39
140
1.0
102
RTVSPost2010PropOp39
 70
     1
102
RTVSPost2010Prop40
 90
        0
102
RTVSPost2010PropOp40
 70
     1
102
RTVSPost2010Prop41ColorIndex
 90
       18
102
RTVSPost2010Prop41ColorRGB
 90
        0
102
RTVSPost2010PropOp41
 70
     1
102
RTVSPost2010Prop42
 90
       50
102
RTVSPost2010PropOp42
 70
     1
102
RTVSPost2010Prop43
 90
        3
102
RTVSPost2010PropOp43
 70
     1
102
RTVSPost2010Prop44ColorIndex
 90
        5
102
RTVSPost2010Prop44ColorRGB
 90
      255
102
RTVSPost2010PropOp44
 70
     1
102
RTVSPost2010Prop45
280
     0
102
RTVSPost2010PropOp45
 70
     1
102
RTVSPost2010Prop46
 90
       50
102
RTVSPost2010PropOp46
 70
     1
102
RTVSPost2010Prop47
 90
       50
102
RTVSPost2010PropOp47
 70
     1
102
RTVSPost2010Prop48
 90
       50
102
RTVSPost2010PropOp48
 70
     1
102
RTVSPost2010Prop49
280
     0
102
RTVSPost2010PropOp49
 70
     1
102
RTVSPost2010Prop50
 90
       50
102
RTVSPost2010PropOp50
 70
     1
102
RTVSPost2010Prop51ColorIndex
 90
      256
102
RTVSPost2010Prop51ColorRGB
 90
-16777216
102
RTVSPost2010PropOp51
 70
     0
102
RTVSPost2010Prop52
140
1.0
102
RTVSPost2010PropOp52
 70
     0
102
RTVSPost2010Prop53
 90
        2
102
RTVSPost2010PropOp53
 70
     1
102
RTVSPost2010Prop54
  1
strokes_ogs.tif
102
RTVSPost2010PropOp54
 70
     1
102
RTVSPost2010Prop55
280
     0
102
RTVSPost2010PropOp55
 70
     1
102
RTVSPost2010Prop56
140
1.0
102
RTVSPost2010PropOp56
 70
     1
102
RTVSPost2010Prop57
140
1.0
102
RTVSPost2010PropOp57
 70
     1
  0
XRECORD
  5
2BD
102
{ACAD_REACTORS
330
2BC
102
}
330
2BC
100
AcDbXrecord
280
     1
102
RTVSPropertyOp0
 70
     0
102
RTVSPropertyOp1
 70
     0
102
RTVSPropertyOp2
 70
     0
102
RTVSPropertyOp3
 70
     0
102
RTVSPropertyOp4
 70
     0
102
RTVSPropertyOp5
 70
     0
102
RTVSPropertyOp6
 70
     0
102
RTVSPropertyOp7
 70
     0
102
RTVSPropertyOp8
 70
     0
102
RTVSPropertyOp9
 70
     0
102
RTVSPropertyOp10
 70
     0
102
RTVSPropertyOp11
 70
     0
102
RTVSPropertyOp12
 70
     0
102
RTVSPropertyOp13
 70
     0
102
RTVSPropertyOp14
 70
     2
102
RTVSPropertyOp15
 70
     0
102
RTVSPropertyOp16
 70
     0
102
RTVSPropertyOp17
 70
     0
102
RTVSPropertyOp18
 70
     0
102
RTVSPropertyOp19
 70
     0
102
RTVSPropertyOp20
 70
     0
102
RTVSPropertyOp21
 70
     0
102
RTVSPropertyOp22
 70
     0
102
RTVSPropertyOp23
 70
     0
102
RTVSPropertyOp24
 70
     0
102
RTVSPropertyOp25
 70
     0
102
RTVSPropertyOp26
 70
     0
102
RTVSPropertyOp27
 70
     0
102
RTVSPropertyOp28
 70
     0
102
RTVSPropertyOp29
 70
     0
102
RTVSPropertyOp30
 70
     0
102
RTVSPropertyOp31
 70
     0
102
RTVSPropertyOp32
 70
     0
102
RTVSPropertyOp33
 70
     0
102
RTVSPropertyOp34
 70
     0
102
RTVSPropertyOp35
 70
     0
102
RTVSPropertyOp36
 70
     0
102
RTVSPropertyOp37
 70
     0
102
RTVSPropertyOp38
 70
     0
102
RTVSPropertyOp39
 70
     0
102
RTVSPropertyOp40
 70
     0
102
RTVSPropertyOp41
 70
     0
102
RTVSPropertyOp42
 70
     0
102
RTVSPropertyOp43
 70
     0
102
RTVSPropertyOp44
 70
     0
102
RTVSPropertyOp45
 70
     0
102
RTVSPropertyOp46
 70
     0
102
RTVSPropertyOp47
 70
     0
102
RTVSPropertyOp48
 70
     0
102
RTVSPropertyOp49
 70
     0
102
RTVSPropertyOp50
 70
     0
102
RTVSPropertyOp51
 70
     0
102
RTVSPropertyOp52
 70
     0
102
RTVSPropertyOp53
 70
     0
102
RTVSPropertyOp54
 70
     0
102
RTVSPropertyOp55
 70
     0
102
RTVSPropertyOp56
 70
     0
102
RTVSPropertyOp57
 70
     0
102
RTVSPost2010Prop28
280
     0
102
RTVSPost2010PropOp28
 70
     0
102
RTVSPost2010Prop29
280
     1
102
RTVSPost2010PropOp29
 70
     0
102
RTVSPost2010Prop30
280
     1
102
RTVSPost2010PropOp30
 70
     0
102
RTVSPost2010Prop31
280
     0
102
RTVSPost2010PropOp31
 70
     0
102
RTVSPost2010Prop32
280
     0
102
RTVSPost2010PropOp32
 70
     0
102
RTVSPost2010Prop33
280
     0
102
RTVSPost2010PropOp33
 70
     0
102
RTVSPost2010Prop34
280
     0
102
RTVSPost2010PropOp34
 70
     0
102
RTVSPost2010Prop35
280
     0
102
RTVSPost2010PropOp35
 70
     0
102
RTVSPost2010Prop36
280
     0
102
RTVSPost2010PropOp36
 70
     0
102
RTVSPost2010Prop37
 90
       50
102
RTVSPost2010PropOp37
 70
     0
102
RTVSPost2010Prop38
140
0.0
102
RTVSPost2010PropOp38
 70
     0
102
RTVSPost2010Prop39
140
1.0
102
RTVSPost2010PropOp39
 70
     0
102
RTVSPost2010Prop40
 90
        0
102
RTVSPost2010PropOp40
 70
     0
102
RTVSPost2010Prop41ColorIndex
 90
       18
102
RTVSPost2010Prop41ColorRGB
 90
        0
102
RTVSPost2010PropOp41
 70
     0
102
RTVSPost2010Prop42
 90
       50
102
RTVSPost2010PropOp42
 70
     0
102
RTVSPost2010Prop43
 90
        3
102
RTVSPost2010PropOp43
 70
     0
102
RTVSPost2010Prop44ColorIndex
 90
        5
102
RTVSPost2010Prop44ColorRGB
 90
      255
102
RTVSPost2010PropOp44
 70
     0
102
RTVSPost2010Prop45
280
     0
102
RTVSPost2010PropOp45
 70
     0
102
RTVSPost2010Prop46
 90
       50
102
RTVSPost2010PropOp46
 70
     0
102
RTVSPost2010Prop47
 90
       50
102
RTVSPost2010PropOp47
 70
     0
102
RTVSPost2010Prop48
 90
       50
102
RTVSPost2010PropOp48
 70
     0
102
RTVSPost2010Prop49
280
     0
102
RTVSPost2010PropOp49
 70
     0
102
RTVSPost2010Prop50
 90
       50
102
RTVSPost2010PropOp50
 70
     0
102
RTVSPost2010Prop51ColorIndex
 90
      256
102
RTVSPost2010Prop51ColorRGB
 90
-16777216
102
RTVSPost2010PropOp51
 70
     0
102
RTVSPost2010Prop52
140
1.0
102
RTVSPost2010PropOp52
 70
     0
102
RTVSPost2010Prop53
 90
        2
102
RTVSPost2010PropOp53
 70
     0
102
RTVSPost2010Prop54
  1
strokes_ogs.tif
102
RTVSPost2010PropOp54
 70
     0
102
RTVSPost2010Prop55
280
     0
102
RTVSPost2010PropOp55
 70
     0
102
RTVSPost2010Prop56
140
1.0
102
RTVSPost2010PropOp56
 70
     0
102
RTVSPost2010Prop57
140
1.0
102
RTVSPost2010PropOp57
 70
     0
  0
XRECORD
  5
2AB
102
{ACAD_REACTORS
330
2AA
102
}
330
2AA
100
AcDbXrecord
280
     1
102
RTVSPropertyOp0
 70
     1
102
RTVSPropertyOp1
 70
     1
102
RTVSPropertyOp2
 70
     1
102
RTVSPropertyOp3
 70
     1
102
RTVSPropertyOp4
 70
     1
102
RTVSPropertyOp5
 70
     1
102
RTVSPropertyOp6
 70
     1
102
RTVSPropertyOp7
 70
     1
102
RTVSPropertyOp8
 70
     1
102
RTVSPropertyOp9
 70
     1
102
RTVSPropertyOp10
 70
     1
102
RTVSPropertyOp11
 70
     1
102
RTVSPropertyOp12
 70
     1
102
RTVSPropertyOp13
 70
     1
102
RTVSPropertyOp14
 70
     1
102
RTVSPropertyOp15
 70
     1
102
RTVSPropertyOp16
 70
     1
102
RTVSPropertyOp17
 70
     1
102
RTVSPropertyOp18
 70
     1
102
RTVSPropertyOp19
 70
     1
102
RTVSPropertyOp20
 70
     1
102
RTVSPropertyOp21
 70
     1
102
RTVSPropertyOp22
 70
     1
102
RTVSPropertyOp23
 70
     1
102
RTVSPropertyOp24
 70
     1
102
RTVSPropertyOp25
 70
     1
102
RTVSPropertyOp26
 70
     1
102
RTVSPropertyOp27
 70
     1
102
RTVSPropertyOp28
 70
     1
102
RTVSPropertyOp29
 70
     1
102
RTVSPropertyOp30
 70
     1
102
RTVSPropertyOp31
 70
     1
102
RTVSPropertyOp32
 70
     1
102
RTVSPropertyOp33
 70
     1
102
RTVSPropertyOp34
 70
     1
102
RTVSPropertyOp35
 70
     1
102
RTVSPropertyOp36
 70
     1
102
RTVSPropertyOp37
 70
     1
102
RTVSPropertyOp38
 70
     1
102
RTVSPropertyOp39
 70
     1
102
RTVSPropertyOp40
 70
     1
102
RTVSPropertyOp41
 70
     1
102
RTVSPropertyOp42
 70
     1
102
RTVSPropertyOp43
 70
     1
102
RTVSPropertyOp44
 70
     1
102
RTVSPropertyOp45
 70
     1
102
RTVSPropertyOp46
 70
     1
102
RTVSPropertyOp47
 70
     1
102
RTVSPropertyOp48
 70
     1
102
RTVSPropertyOp49
 70
     1
102
RTVSPropertyOp50
 70
     1
102
RTVSPropertyOp51
 70
     0
102
RTVSPropertyOp52
 70
     0
102
RTVSPropertyOp53
 70
     1
102
RTVSPropertyOp54
 70
     1
102
RTVSPropertyOp55
 70
     1
102
RTVSPropertyOp56
 70
     1
102
RTVSPropertyOp57
 70
     1
102
RTVSPost2010Prop28
280
     0
102
RTVSPost2010PropOp28
 70
     1
102
RTVSPost2010Prop29
280
     1
102
RTVSPost2010PropOp29
 70
     1
102
RTVSPost2010Prop30
280
     1
102
RTVSPost2010PropOp30
 70
     1
102
RTVSPost2010Prop31
280
     0
102
RTVSPost2010PropOp31
 70
     1
102
RTVSPost2010Prop32
280
     0
102
RTVSPost2010PropOp32
 70
     1
102
RTVSPost2010Prop33
280
     0
102
RTVSPost2010PropOp33
 70
     1
102
RTVSPost2010Prop34
280
     0
102
RTVSPost2010PropOp34
 70
     1
102
RTVSPost2010Prop35
280
     0
102
RTVSPost2010PropOp35
 70
     1
102
RTVSPost2010Prop36
280
     0
102
RTVSPost2010PropOp36
 70
     1
102
RTVSPost2010Prop37
 90
       50
102
RTVSPost2010PropOp37
 70
     1
102
RTVSPost2010Prop38
140
0.0
102
RTVSPost2010PropOp38
 70
     1
102
RTVSPost2010Prop39
140
1.0
102
RTVSPost2010PropOp39
 70
     1
102
RTVSPost2010Prop40
 90
        0
102
RTVSPost2010PropOp40
 70
     1
102
RTVSPost2010Prop41ColorIndex
 90
       18
102
RTVSPost2010Prop41ColorRGB
 90
        0
102
RTVSPost2010PropOp41
 70
     1
102
RTVSPost2010Prop42
 90
       50
102
RTVSPost2010PropOp42
 70
     1
102
RTVSPost2010Prop43
 90
        3
102
RTVSPost2010PropOp43
 70
     1
102
RTVSPost2010Prop44ColorIndex
 90
        5
102
RTVSPost2010Prop44ColorRGB
 90
      255
102
RTVSPost2010PropOp44
 70
     1
102
RTVSPost2010Prop45
280
     0
102
RTVSPost2010PropOp45
 70
     1
102
RTVSPost2010Prop46
 90
       50
102
RTVSPost2010PropOp46
 70
     1
102
RTVSPost2010Prop47
 90
       50
102
RTVSPost2010PropOp47
 70
     1
102
RTVSPost2010Prop48
 90
       50
102
RTVSPost2010PropOp48
 70
     1
102
RTVSPost2010Prop49
280
     0
102
RTVSPost2010PropOp49
 70
     1
102
RTVSPost2010Prop50
 90
       50
102
RTVSPost2010PropOp50
 70
     1
102
RTVSPost2010Prop51ColorIndex
 90
      256
102
RTVSPost2010Prop51ColorRGB
 90
-16777216
102
RTVSPost2010PropOp51
 70
     0
102
RTVSPost2010Prop52
140
1.0
102
RTVSPost2010PropOp52
 70
     0
102
RTVSPost2010Prop53
 90
        2
102
RTVSPost2010PropOp53
 70
     1
102
RTVSPost2010Prop54
  1
strokes_ogs.tif
102
RTVSPost2010PropOp54
 70
     1
102
RTVSPost2010Prop55
280
     0
102
RTVSPost2010PropOp55
 70
     1
102
RTVSPost2010Prop56
140
1.0
102
RTVSPost2010PropOp56
 70
     1
102
RTVSPost2010Prop57
140
1.0
102
RTVSPost2010PropOp57
 70
     1
  0
XRECORD
  5
2C9
102
{ACAD_REACTORS
330
2C8
102
}
330
2C8
100
AcDbXrecord
280
     1
102
RTVSPropertyOp0
 70
     1
102
RTVSPropertyOp1
 70
     1
102
RTVSPropertyOp2
 70
     1
102
RTVSPropertyOp3
 70
     1
102
RTVSPropertyOp4
 70
     1
102
RTVSPropertyOp5
 70
     1
102
RTVSPropertyOp6
 70
     1
102
RTVSPropertyOp7
 70
     1
102
RTVSPropertyOp8
 70
     1
102
RTVSPropertyOp9
 70
     1
102
RTVSPropertyOp10
 70
     1
102
RTVSPropertyOp11
 70
     1
102
RTVSPropertyOp12
 70
     1
102
RTVSPropertyOp13
 70
     1
102
RTVSPropertyOp14
 70
     1
102
RTVSPropertyOp15
 70
     1
102
RTVSPropertyOp16
 70
     1
102
RTVSPropertyOp17
 70
     1
102
RTVSPropertyOp18
 70
     1
102
RTVSPropertyOp19
 70
     1
102
RTVSPropertyOp20
 70
     1
102
RTVSPropertyOp21
 70
     1
102
RTVSPropertyOp22
 70
     1
102
RTVSPropertyOp23
 70
     1
102
RTVSPropertyOp24
 70
     1
102
RTVSPropertyOp25
 70
     1
102
RTVSPropertyOp26
 70
     1
102
RTVSPropertyOp27
 70
     1
102
RTVSPropertyOp28
 70
     1
102
RTVSPropertyOp29
 70
     1
102
RTVSPropertyOp30
 70
     1
102
RTVSPropertyOp31
 70
     1
102
RTVSPropertyOp32
 70
     1
102
RTVSPropertyOp33
 70
     1
102
RTVSPropertyOp34
 70
     1
102
RTVSPropertyOp35
 70
     1
102
RTVSPropertyOp36
 70
     1
102
RTVSPropertyOp37
 70
     1
102
RTVSPropertyOp38
 70
     1
102
RTVSPropertyOp39
 70
     1
102
RTVSPropertyOp40
 70
     1
102
RTVSPropertyOp41
 70
     1
102
RTVSPropertyOp42
 70
     1
102
RTVSPropertyOp43
 70
     1
102
RTVSPropertyOp44
 70
     1
102
RTVSPropertyOp45
 70
     1
102
RTVSPropertyOp46
 70
     1
102
RTVSPropertyOp47
 70
     1
102
RTVSPropertyOp48
 70
     1
102
RTVSPropertyOp49
 70
     1
102
RTVSPropertyOp50
 70
     1
102
RTVSPropertyOp51
 70
     0
102
RTVSPropertyOp52
 70
     0
102
RTVSPropertyOp53
 70
     1
102
RTVSPropertyOp54
 70
     1
102
RTVSPropertyOp55
 70
     1
102
RTVSPropertyOp56
 70
     1
102
RTVSPropertyOp57
 70
     1
102
RTVSPost2010Prop28
280
     0
102
RTVSPost2010PropOp28
 70
     1
102
RTVSPost2010Prop29
280
     1
102
RTVSPost2010PropOp29
 70
     1
102
RTVSPost2010Prop30
280
     1
102
RTVSPost2010PropOp30
 70
     1
102
RTVSPost2010Prop31
280
     0
102
RTVSPost2010PropOp31
 70
     1
102
RTVSPost2010Prop32
280
     0
102
RTVSPost2010PropOp32
 70
     1
102
RTVSPost2010Prop33
280
     0
102
RTVSPost2010PropOp33
 70
     1
102
RTVSPost2010Prop34
280
     0
102
RTVSPost2010PropOp34
 70
     1
102
RTVSPost2010Prop35
280
     0
102
RTVSPost2010PropOp35
 70
     1
102
RTVSPost2010Prop36
280
     0
102
RTVSPost2010PropOp36
 70
     1
102
RTVSPost2010Prop37
 90
       50
102
RTVSPost2010PropOp37
 70
     1
102
RTVSPost2010Prop38
140
0.0
102
RTVSPost2010PropOp38
 70
     1
102
RTVSPost2010Prop39
140
1.0
102
RTVSPost2010PropOp39
 70
     1
102
RTVSPost2010Prop40
 90
        0
102
RTVSPost2010PropOp40
 70
     1
102
RTVSPost2010Prop41ColorIndex
 90
       18
102
RTVSPost2010Prop41ColorRGB
 90
        0
102
RTVSPost2010PropOp41
 70
     1
102
RTVSPost2010Prop42
 90
       50
102
RTVSPost2010PropOp42
 70
     1
102
RTVSPost2010Prop43
 90
        3
102
RTVSPost2010PropOp43
 70
     1
102
RTVSPost2010Prop44ColorIndex
 90
        5
102
RTVSPost2010Prop44ColorRGB
 90
      255
102
RTVSPost2010PropOp44
 70
     1
102
RTVSPost2010Prop45
280
     0
102
RTVSPost2010PropOp45
 70
     1
102
RTVSPost2010Prop46
 90
       50
102
RTVSPost2010PropOp46
 70
     1
102
RTVSPost2010Prop47
 90
       50
102
RTVSPost2010PropOp47
 70
     1
102
RTVSPost2010Prop48
 90
       50
102
RTVSPost2010PropOp48
 70
     1
102
RTVSPost2010Prop49
280
     0
102
RTVSPost2010PropOp49
 70
     1
102
RTVSPost2010Prop50
 90
       50
102
RTVSPost2010PropOp50
 70
     1
102
RTVSPost2010Prop51ColorIndex
 90
      256
102
RTVSPost2010Prop51ColorRGB
 90
-16777216
102
RTVSPost2010PropOp51
 70
     0
102
RTVSPost2010Prop52
140
1.0
102
RTVSPost2010PropOp52
 70
     0
102
RTVSPost2010Prop53
 90
        2
102
RTVSPost2010PropOp53
 70
     1
102
RTVSPost2010Prop54
  1
strokes_ogs.tif
102
RTVSPost2010PropOp54
 70
     1
102
RTVSPost2010Prop55
280
     0
102
RTVSPost2010PropOp55
 70
     1
102
RTVSPost2010Prop56
140
1.0
102
RTVSPost2010PropOp56
 70
     1
102
RTVSPost2010Prop57
140
1.0
102
RTVSPost2010PropOp57
 70
     1
  0
XRECORD
  5
2C7
102
{ACAD_REACTORS
330
2C6
102
}
330
2C6
100
AcDbXrecord
280
     1
102
RTVSPropertyOp0
 70
     1
102
RTVSPropertyOp1
 70
     1
102
RTVSPropertyOp2
 70
     1
102
RTVSPropertyOp3
 70
     1
102
RTVSPropertyOp4
 70
     1
102
RTVSPropertyOp5
 70
     1
102
RTVSPropertyOp6
 70
     1
102
RTVSPropertyOp7
 70
     1
102
RTVSPropertyOp8
 70
     1
102
RTVSPropertyOp9
 70
     1
102
RTVSPropertyOp10
 70
     1
102
RTVSPropertyOp11
 70
     1
102
RTVSPropertyOp12
 70
     1
102
RTVSPropertyOp13
 70
     1
102
RTVSPropertyOp14
 70
     1
102
RTVSPropertyOp15
 70
     1
102
RTVSPropertyOp16
 70
     1
102
RTVSPropertyOp17
 70
     1
102
RTVSPropertyOp18
 70
     1
102
RTVSPropertyOp19
 70
     1
102
RTVSPropertyOp20
 70
     1
102
RTVSPropertyOp21
 70
     1
102
RTVSPropertyOp22
 70
     1
102
RTVSPropertyOp23
 70
     1
102
RTVSPropertyOp24
 70
     1
102
RTVSPropertyOp25
 70
     1
102
RTVSPropertyOp26
 70
     1
102
RTVSPropertyOp27
 70
     1
102
RTVSPropertyOp28
 70
     1
102
RTVSPropertyOp29
 70
     1
102
RTVSPropertyOp30
 70
     1
102
RTVSPropertyOp31
 70
     1
102
RTVSPropertyOp32
 70
     1
102
RTVSPropertyOp33
 70
     1
102
RTVSPropertyOp34
 70
     1
102
RTVSPropertyOp35
 70
     1
102
RTVSPropertyOp36
 70
     1
102
RTVSPropertyOp37
 70
     1
102
RTVSPropertyOp38
 70
     1
102
RTVSPropertyOp39
 70
     1
102
RTVSPropertyOp40
 70
     1
102
RTVSPropertyOp41
 70
     1
102
RTVSPropertyOp42
 70
     1
102
RTVSPropertyOp43
 70
     1
102
RTVSPropertyOp44
 70
     1
102
RTVSPropertyOp45
 70
     1
102
RTVSPropertyOp46
 70
     1
102
RTVSPropertyOp47
 70
     1
102
RTVSPropertyOp48
 70
     1
102
RTVSPropertyOp49
 70
     1
102
RTVSPropertyOp50
 70
     1
102
RTVSPropertyOp51
 70
     0
102
RTVSPropertyOp52
 70
     0
102
RTVSPropertyOp53
 70
     1
102
RTVSPropertyOp54
 70
     1
102
RTVSPropertyOp55
 70
     1
102
RTVSPropertyOp56
 70
     1
102
RTVSPropertyOp57
 70
     1
102
RTVSPost2010Prop28
280
     0
102
RTVSPost2010PropOp28
 70
     1
102
RTVSPost2010Prop29
280
     1
102
RTVSPost2010PropOp29
 70
     1
102
RTVSPost2010Prop30
280
     1
102
RTVSPost2010PropOp30
 70
     1
102
RTVSPost2010Prop31
280
     0
102
RTVSPost2010PropOp31
 70
     1
102
RTVSPost2010Prop32
280
     0
102
RTVSPost2010PropOp32
 70
     1
102
RTVSPost2010Prop33
280
     0
102
RTVSPost2010PropOp33
 70
     1
102
RTVSPost2010Prop34
280
     0
102
RTVSPost2010PropOp34
 70
     1
102
RTVSPost2010Prop35
280
     0
102
RTVSPost2010PropOp35
 70
     1
102
RTVSPost2010Prop36
280
     0
102
RTVSPost2010PropOp36
 70
     1
102
RTVSPost2010Prop37
 90
       50
102
RTVSPost2010PropOp37
 70
     1
102
RTVSPost2010Prop38
140
0.0
102
RTVSPost2010PropOp38
 70
     1
102
RTVSPost2010Prop39
140
1.0
102
RTVSPost2010PropOp39
 70
     1
102
RTVSPost2010Prop40
 90
        0
102
RTVSPost2010PropOp40
 70
     1
102
RTVSPost2010Prop41ColorIndex
 90
       18
102
RTVSPost2010Prop41ColorRGB
 90
        0
102
RTVSPost2010PropOp41
 70
     1
102
RTVSPost2010Prop42
 90
       50
102
RTVSPost2010PropOp42
 70
     1
102
RTVSPost2010Prop43
 90
        3
102
RTVSPost2010PropOp43
 70
     1
102
RTVSPost2010Prop44ColorIndex
 90
        5
102
RTVSPost2010Prop44ColorRGB
 90
      255
102
RTVSPost2010PropOp44
 70
     1
102
RTVSPost2010Prop45
280
     0
102
RTVSPost2010PropOp45
 70
     1
102
RTVSPost2010Prop46
 90
       50
102
RTVSPost2010PropOp46
 70
     1
102
RTVSPost2010Prop47
 90
       50
102
RTVSPost2010PropOp47
 70
     1
102
RTVSPost2010Prop48
 90
       50
102
RTVSPost2010PropOp48
 70
     1
102
RTVSPost2010Prop49
280
     0
102
RTVSPost2010PropOp49
 70
     1
102
RTVSPost2010Prop50
 90
       50
102
RTVSPost2010PropOp50
 70
     1
102
RTVSPost2010Prop51ColorIndex
 90
      256
102
RTVSPost2010Prop51ColorRGB
 90
-16777216
102
RTVSPost2010PropOp51
 70
     0
102
RTVSPost2010Prop52
140
1.0
102
RTVSPost2010PropOp52
 70
     0
102
RTVSPost2010Prop53
 90
        2
102
RTVSPost2010PropOp53
 70
     1
102
RTVSPost2010Prop54
  1
strokes_ogs.tif
102
RTVSPost2010PropOp54
 70
     1
102
RTVSPost2010Prop55
280
     0
102
RTVSPost2010PropOp55
 70
     1
102
RTVSPost2010Prop56
140
1.0
102
RTVSPost2010PropOp56
 70
     1
102
RTVSPost2010Prop57
140
1.0
102
RTVSPost2010PropOp57
 70
     1
  0
XRECORD
  5
2C1
102
{ACAD_REACTORS
330
2C0
102
}
330
2C0
100
AcDbXrecord
280
     1
102
RTVSPropertyOp0
 70
     1
102
RTVSPropertyOp1
 70
     1
102
RTVSPropertyOp2
 70
     1
102
RTVSPropertyOp3
 70
     1
102
RTVSPropertyOp4
 70
     1
102
RTVSPropertyOp5
 70
     1
102
RTVSPropertyOp6
 70
     1
102
RTVSPropertyOp7
 70
     1
102
RTVSPropertyOp8
 70
     1
102
RTVSPropertyOp9
 70
     1
102
RTVSPropertyOp10
 70
     1
102
RTVSPropertyOp11
 70
     1
102
RTVSPropertyOp12
 70
     1
102
RTVSPropertyOp13
 70
     1
102
RTVSPropertyOp14
 70
     1
102
RTVSPropertyOp15
 70
     1
102
RTVSPropertyOp16
 70
     1
102
RTVSPropertyOp17
 70
     1
102
RTVSPropertyOp18
 70
     1
102
RTVSPropertyOp19
 70
     1
102
RTVSPropertyOp20
 70
     1
102
RTVSPropertyOp21
 70
     1
102
RTVSPropertyOp22
 70
     1
102
RTVSPropertyOp23
 70
     1
102
RTVSPropertyOp24
 70
     1
102
RTVSPropertyOp25
 70
     1
102
RTVSPropertyOp26
 70
     1
102
RTVSPropertyOp27
 70
     1
102
RTVSPropertyOp28
 70
     1
102
RTVSPropertyOp29
 70
     1
102
RTVSPropertyOp30
 70
     1
102
RTVSPropertyOp31
 70
     1
102
RTVSPropertyOp32
 70
     1
102
RTVSPropertyOp33
 70
     1
102
RTVSPropertyOp34
 70
     1
102
RTVSPropertyOp35
 70
     1
102
RTVSPropertyOp36
 70
     1
102
RTVSPropertyOp37
 70
     1
102
RTVSPropertyOp38
 70
     1
102
RTVSPropertyOp39
 70
     1
102
RTVSPropertyOp40
 70
     1
102
RTVSPropertyOp41
 70
     1
102
RTVSPropertyOp42
 70
     1
102
RTVSPropertyOp43
 70
     1
102
RTVSPropertyOp44
 70
     1
102
RTVSPropertyOp45
 70
     1
102
RTVSPropertyOp46
 70
     1
102
RTVSPropertyOp47
 70
     1
102
RTVSPropertyOp48
 70
     1
102
RTVSPropertyOp49
 70
     1
102
RTVSPropertyOp50
 70
     1
102
RTVSPropertyOp51
 70
     0
102
RTVSPropertyOp52
 70
     0
102
RTVSPropertyOp53
 70
     1
102
RTVSPropertyOp54
 70
     1
102
RTVSPropertyOp55
 70
     1
102
RTVSPropertyOp56
 70
     1
102
RTVSPropertyOp57
 70
     1
102
RTVSPost2010Prop28
280
     0
102
RTVSPost2010PropOp28
 70
     1
102
RTVSPost2010Prop29
280
     1
102
RTVSPost2010PropOp29
 70
     1
102
RTVSPost2010Prop30
280
     1
102
RTVSPost2010PropOp30
 70
     1
102
RTVSPost2010Prop31
280
     0
102
RTVSPost2010PropOp31
 70
     1
102
RTVSPost2010Prop32
280
     0
102
RTVSPost2010PropOp32
 70
     1
102
RTVSPost2010Prop33
280
     0
102
RTVSPost2010PropOp33
 70
     1
102
RTVSPost2010Prop34
280
     0
102
RTVSPost2010PropOp34
 70
     1
102
RTVSPost2010Prop35
280
     0
102
RTVSPost2010PropOp35
 70
     1
102
RTVSPost2010Prop36
280
     0
102
RTVSPost2010PropOp36
 70
     1
102
RTVSPost2010Prop37
 90
       50
102
RTVSPost2010PropOp37
 70
     1
102
RTVSPost2010Prop38
140
0.0
102
RTVSPost2010PropOp38
 70
     1
102
RTVSPost2010Prop39
140
1.0
102
RTVSPost2010PropOp39
 70
     1
102
RTVSPost2010Prop40
 90
        0
102
RTVSPost2010PropOp40
 70
     1
102
RTVSPost2010Prop41ColorIndex
 90
       18
102
RTVSPost2010Prop41ColorRGB
 90
        0
102
RTVSPost2010PropOp41
 70
     1
102
RTVSPost2010Prop42
 90
       50
102
RTVSPost2010PropOp42
 70
     1
102
RTVSPost2010Prop43
 90
        3
102
RTVSPost2010PropOp43
 70
     1
102
RTVSPost2010Prop44ColorIndex
 90
        5
102
RTVSPost2010Prop44ColorRGB
 90
      255
102
RTVSPost2010PropOp44
 70
     1
102
RTVSPost2010Prop45
280
     0
102
RTVSPost2010PropOp45
 70
     1
102
RTVSPost2010Prop46
 90
       50
102
RTVSPost2010PropOp46
 70
     1
102
RTVSPost2010Prop47
 90
       50
102
RTVSPost2010PropOp47
 70
     1
102
RTVSPost2010Prop48
 90
       50
102
RTVSPost2010PropOp48
 70
     1
102
RTVSPost2010Prop49
280
     0
102
RTVSPost2010PropOp49
 70
     1
102
RTVSPost2010Prop50
 90
       50
102
RTVSPost2010PropOp50
 70
     1
102
RTVSPost2010Prop51ColorIndex
 90
      256
102
RTVSPost2010Prop51ColorRGB
 90
-16777216
102
RTVSPost2010PropOp51
 70
     0
102
RTVSPost2010Prop52
140
1.0
102
RTVSPost2010PropOp52
 70
     0
102
RTVSPost2010Prop53
 90
        2
102
RTVSPost2010PropOp53
 70
     1
102
RTVSPost2010Prop54
  1
strokes_ogs.tif
102
RTVSPost2010PropOp54
 70
     1
102
RTVSPost2010Prop55
280
     0
102
RTVSPost2010PropOp55
 70
     1
102
RTVSPost2010Prop56
140
1.0
102
RTVSPost2010PropOp56
 70
     1
102
RTVSPost2010Prop57
140
1.0
102
RTVSPost2010PropOp57
 70
     1
  0
XRECORD
  5
2C3
102
{ACAD_REACTORS
330
2C2
102
}
330
2C2
100
AcDbXrecord
280
     1
102
RTVSPropertyOp0
 70
     1
102
RTVSPropertyOp1
 70
     1
102
RTVSPropertyOp2
 70
     1
102
RTVSPropertyOp3
 70
     1
102
RTVSPropertyOp4
 70
     1
102
RTVSPropertyOp5
 70
     1
102
RTVSPropertyOp6
 70
     1
102
RTVSPropertyOp7
 70
     1
102
RTVSPropertyOp8
 70
     1
102
RTVSPropertyOp9
 70
     1
102
RTVSPropertyOp10
 70
     1
102
RTVSPropertyOp11
 70
     1
102
RTVSPropertyOp12
 70
     1
102
RTVSPropertyOp13
 70
     1
102
RTVSPropertyOp14
 70
     1
102
RTVSPropertyOp15
 70
     1
102
RTVSPropertyOp16
 70
     1
102
RTVSPropertyOp17
 70
     1
102
RTVSPropertyOp18
 70
     1
102
RTVSPropertyOp19
 70
     1
102
RTVSPropertyOp20
 70
     1
102
RTVSPropertyOp21
 70
     1
102
RTVSPropertyOp22
 70
     1
102
RTVSPropertyOp23
 70
     1
102
RTVSPropertyOp24
 70
     1
102
RTVSPropertyOp25
 70
     1
102
RTVSPropertyOp26
 70
     1
102
RTVSPropertyOp27
 70
     1
102
RTVSPropertyOp28
 70
     1
102
RTVSPropertyOp29
 70
     1
102
RTVSPropertyOp30
 70
     1
102
RTVSPropertyOp31
 70
     1
102
RTVSPropertyOp32
 70
     1
102
RTVSPropertyOp33
 70
     1
102
RTVSPropertyOp34
 70
     1
102
RTVSPropertyOp35
 70
     1
102
RTVSPropertyOp36
 70
     1
102
RTVSPropertyOp37
 70
     1
102
RTVSPropertyOp38
 70
     1
102
RTVSPropertyOp39
 70
     1
102
RTVSPropertyOp40
 70
     1
102
RTVSPropertyOp41
 70
     1
102
RTVSPropertyOp42
 70
     1
102
RTVSPropertyOp43
 70
     1
102
RTVSPropertyOp44
 70
     1
102
RTVSPropertyOp45
 70
     1
102
RTVSPropertyOp46
 70
     1
102
RTVSPropertyOp47
 70
     1
102
RTVSPropertyOp48
 70
     1
102
RTVSPropertyOp49
 70
     1
102
RTVSPropertyOp50
 70
     1
102
RTVSPropertyOp51
 70
     0
102
RTVSPropertyOp52
 70
     0
102
RTVSPropertyOp53
 70
     1
102
RTVSPropertyOp54
 70
     1
102
RTVSPropertyOp55
 70
     1
102
RTVSPropertyOp56
 70
     1
102
RTVSPropertyOp57
 70
     1
102
RTVSPost2010Prop28
280
     0
102
RTVSPost2010PropOp28
 70
     1
102
RTVSPost2010Prop29
280
     1
102
RTVSPost2010PropOp29
 70
     1
102
RTVSPost2010Prop30
280
     1
102
RTVSPost2010PropOp30
 70
     1
102
RTVSPost2010Prop31
280
     0
102
RTVSPost2010PropOp31
 70
     1
102
RTVSPost2010Prop32
280
     0
102
RTVSPost2010PropOp32
 70
     1
102
RTVSPost2010Prop33
280
     0
102
RTVSPost2010PropOp33
 70
     1
102
RTVSPost2010Prop34
280
     0
102
RTVSPost2010PropOp34
 70
     1
102
RTVSPost2010Prop35
280
     0
102
RTVSPost2010PropOp35
 70
     1
102
RTVSPost2010Prop36
280
     0
102
RTVSPost2010PropOp36
 70
     1
102
RTVSPost2010Prop37
 90
       50
102
RTVSPost2010PropOp37
 70
     1
102
RTVSPost2010Prop38
140
0.0
102
RTVSPost2010PropOp38
 70
     1
102
RTVSPost2010Prop39
140
1.0
102
RTVSPost2010PropOp39
 70
     1
102
RTVSPost2010Prop40
 90
        0
102
RTVSPost2010PropOp40
 70
     1
102
RTVSPost2010Prop41ColorIndex
 90
       18
102
RTVSPost2010Prop41ColorRGB
 90
        0
102
RTVSPost2010PropOp41
 70
     1
102
RTVSPost2010Prop42
 90
       50
102
RTVSPost2010PropOp42
 70
     1
102
RTVSPost2010Prop43
 90
        3
102
RTVSPost2010PropOp43
 70
     1
102
RTVSPost2010Prop44ColorIndex
 90
        5
102
RTVSPost2010Prop44ColorRGB
 90
      255
102
RTVSPost2010PropOp44
 70
     1
102
RTVSPost2010Prop45
280
     0
102
RTVSPost2010PropOp45
 70
     1
102
RTVSPost2010Prop46
 90
       50
102
RTVSPost2010PropOp46
 70
     1
102
RTVSPost2010Prop47
 90
       50
102
RTVSPost2010PropOp47
 70
     1
102
RTVSPost2010Prop48
 90
       50
102
RTVSPost2010PropOp48
 70
     1
102
RTVSPost2010Prop49
280
     0
102
RTVSPost2010PropOp49
 70
     1
102
RTVSPost2010Prop50
 90
       50
102
RTVSPost2010PropOp50
 70
     1
102
RTVSPost2010Prop51ColorIndex
 90
      256
102
RTVSPost2010Prop51ColorRGB
 90
-16777216
102
RTVSPost2010PropOp51
 70
     0
102
RTVSPost2010Prop52
140
1.0
102
RTVSPost2010PropOp52
 70
     0
102
RTVSPost2010Prop53
 90
        2
102
RTVSPost2010PropOp53
 70
     1
102
RTVSPost2010Prop54
  1
strokes_ogs.tif
102
RTVSPost2010PropOp54
 70
     1
102
RTVSPost2010Prop55
280
     0
102
RTVSPost2010PropOp55
 70
     1
102
RTVSPost2010Prop56
140
1.0
102
RTVSPost2010PropOp56
 70
     1
102
RTVSPost2010Prop57
140
1.0
102
RTVSPost2010PropOp57
 70
     1
  0
XRECORD
  5
2B3
102
{ACAD_REACTORS
330
2B2
102
}
330
2B2
100
AcDbXrecord
280
     1
102
RTVSPropertyOp0
 70
     1
102
RTVSPropertyOp1
 70
     1
102
RTVSPropertyOp2
 70
     1
102
RTVSPropertyOp3
 70
     1
102
RTVSPropertyOp4
 70
     1
102
RTVSPropertyOp5
 70
     1
102
RTVSPropertyOp6
 70
     1
102
RTVSPropertyOp7
 70
     1
102
RTVSPropertyOp8
 70
     1
102
RTVSPropertyOp9
 70
     1
102
RTVSPropertyOp10
 70
     1
102
RTVSPropertyOp11
 70
     1
102
RTVSPropertyOp12
 70
     1
102
RTVSPropertyOp13
 70
     1
102
RTVSPropertyOp14
 70
     1
102
RTVSPropertyOp15
 70
     1
102
RTVSPropertyOp16
 70
     1
102
RTVSPropertyOp17
 70
     1
102
RTVSPropertyOp18
 70
     1
102
RTVSPropertyOp19
 70
     1
102
RTVSPropertyOp20
 70
     1
102
RTVSPropertyOp21
 70
     1
102
RTVSPropertyOp22
 70
     1
102
RTVSPropertyOp23
 70
     1
102
RTVSPropertyOp24
 70
     1
102
RTVSPropertyOp25
 70
     1
102
RTVSPropertyOp26
 70
     1
102
RTVSPropertyOp27
 70
     1
102
RTVSPropertyOp28
 70
     1
102
RTVSPropertyOp29
 70
     1
102
RTVSPropertyOp30
 70
     1
102
RTVSPropertyOp31
 70
     1
102
RTVSPropertyOp32
 70
     1
102
RTVSPropertyOp33
 70
     1
102
RTVSPropertyOp34
 70
     1
102
RTVSPropertyOp35
 70
     1
102
RTVSPropertyOp36
 70
     1
102
RTVSPropertyOp37
 70
     1
102
RTVSPropertyOp38
 70
     1
102
RTVSPropertyOp39
 70
     1
102
RTVSPropertyOp40
 70
     1
102
RTVSPropertyOp41
 70
     1
102
RTVSPropertyOp42
 70
     1
102
RTVSPropertyOp43
 70
     1
102
RTVSPropertyOp44
 70
     1
102
RTVSPropertyOp45
 70
     1
102
RTVSPropertyOp46
 70
     1
102
RTVSPropertyOp47
 70
     1
102
RTVSPropertyOp48
 70
     1
102
RTVSPropertyOp49
 70
     1
102
RTVSPropertyOp50
 70
     1
102
RTVSPropertyOp51
 70
     0
102
RTVSPropertyOp52
 70
     0
102
RTVSPropertyOp53
 70
     1
102
RTVSPropertyOp54
 70
     1
102
RTVSPropertyOp55
 70
     1
102
RTVSPropertyOp56
 70
     1
102
RTVSPropertyOp57
 70
     1
102
RTVSPost2010Prop28
280
     0
102
RTVSPost2010PropOp28
 70
     1
102
RTVSPost2010Prop29
280
     1
102
RTVSPost2010PropOp29
 70
     1
102
RTVSPost2010Prop30
280
     1
102
RTVSPost2010PropOp30
 70
     1
102
RTVSPost2010Prop31
280
     0
102
RTVSPost2010PropOp31
 70
     1
102
RTVSPost2010Prop32
280
     0
102
RTVSPost2010PropOp32
 70
     1
102
RTVSPost2010Prop33
280
     0
102
RTVSPost2010PropOp33
 70
     1
102
RTVSPost2010Prop34
280
     0
102
RTVSPost2010PropOp34
 70
     1
102
RTVSPost2010Prop35
280
     0
102
RTVSPost2010PropOp35
 70
     1
102
RTVSPost2010Prop36
280
     0
102
RTVSPost2010PropOp36
 70
     1
102
RTVSPost2010Prop37
 90
       50
102
RTVSPost2010PropOp37
 70
     1
102
RTVSPost2010Prop38
140
0.0
102
RTVSPost2010PropOp38
 70
     1
102
RTVSPost2010Prop39
140
1.0
102
RTVSPost2010PropOp39
 70
     1
102
RTVSPost2010Prop40
 90
        0
102
RTVSPost2010PropOp40
 70
     1
102
RTVSPost2010Prop41ColorIndex
 90
       18
102
RTVSPost2010Prop41ColorRGB
 90
        0
102
RTVSPost2010PropOp41
 70
     1
102
RTVSPost2010Prop42
 90
       50
102
RTVSPost2010PropOp42
 70
     1
102
RTVSPost2010Prop43
 90
        3
102
RTVSPost2010PropOp43
 70
     1
102
RTVSPost2010Prop44ColorIndex
 90
        5
102
RTVSPost2010Prop44ColorRGB
 90
      255
102
RTVSPost2010PropOp44
 70
     1
102
RTVSPost2010Prop45
280
     0
102
RTVSPost2010PropOp45
 70
     1
102
RTVSPost2010Prop46
 90
       50
102
RTVSPost2010PropOp46
 70
     1
102
RTVSPost2010Prop47
 90
       50
102
RTVSPost2010PropOp47
 70
     1
102
RTVSPost2010Prop48
 90
       50
102
RTVSPost2010PropOp48
 70
     1
102
RTVSPost2010Prop49
280
     0
102
RTVSPost2010PropOp49
 70
     1
102
RTVSPost2010Prop50
 90
       50
102
RTVSPost2010PropOp50
 70
     1
102
RTVSPost2010Prop51ColorIndex
 90
      256
102
RTVSPost2010Prop51ColorRGB
 90
-16777216
102
RTVSPost2010PropOp51
 70
     0
102
RTVSPost2010Prop52
140
1.0
102
RTVSPost2010PropOp52
 70
     0
102
RTVSPost2010Prop53
 90
        2
102
RTVSPost2010PropOp53
 70
     1
102
RTVSPost2010Prop54
  1
strokes_ogs.tif
102
RTVSPost2010PropOp54
 70
     1
102
RTVSPost2010Prop55
280
     0
102
RTVSPost2010PropOp55
 70
     1
102
RTVSPost2010Prop56
140
1.0
102
RTVSPost2010PropOp56
 70
     1
102
RTVSPost2010Prop57
140
1.0
102
RTVSPost2010PropOp57
 70
     1
  0
XRECORD
  5
2A5
102
{ACAD_REACTORS
330
2A4
102
}
330
2A4
100
AcDbXrecord
280
     1
102
RTVSPropertyOp0
 70
     1
102
RTVSPropertyOp1
 70
     1
102
RTVSPropertyOp2
 70
     1
102
RTVSPropertyOp3
 70
     1
102
RTVSPropertyOp4
 70
     1
102
RTVSPropertyOp5
 70
     1
102
RTVSPropertyOp6
 70
     1
102
RTVSPropertyOp7
 70
     1
102
RTVSPropertyOp8
 70
     1
102
RTVSPropertyOp9
 70
     1
102
RTVSPropertyOp10
 70
     1
102
RTVSPropertyOp11
 70
     1
102
RTVSPropertyOp12
 70
     1
102
RTVSPropertyOp13
 70
     1
102
RTVSPropertyOp14
 70
     1
102
RTVSPropertyOp15
 70
     1
102
RTVSPropertyOp16
 70
     1
102
RTVSPropertyOp17
 70
     1
102
RTVSPropertyOp18
 70
     1
102
RTVSPropertyOp19
 70
     1
102
RTVSPropertyOp20
 70
     1
102
RTVSPropertyOp21
 70
     1
102
RTVSPropertyOp22
 70
     1
102
RTVSPropertyOp23
 70
     1
102
RTVSPropertyOp24
 70
     1
102
RTVSPropertyOp25
 70
     1
102
RTVSPropertyOp26
 70
     1
102
RTVSPropertyOp27
 70
     1
102
RTVSPropertyOp28
 70
     1
102
RTVSPropertyOp29
 70
     1
102
RTVSPropertyOp30
 70
     1
102
RTVSPropertyOp31
 70
     1
102
RTVSPropertyOp32
 70
     1
102
RTVSPropertyOp33
 70
     1
102
RTVSPropertyOp34
 70
     1
102
RTVSPropertyOp35
 70
     1
102
RTVSPropertyOp36
 70
     1
102
RTVSPropertyOp37
 70
     1
102
RTVSPropertyOp38
 70
     1
102
RTVSPropertyOp39
 70
     1
102
RTVSPropertyOp40
 70
     1
102
RTVSPropertyOp41
 70
     1
102
RTVSPropertyOp42
 70
     1
102
RTVSPropertyOp43
 70
     1
102
RTVSPropertyOp44
 70
     1
102
RTVSPropertyOp45
 70
     1
102
RTVSPropertyOp46
 70
     1
102
RTVSPropertyOp47
 70
     1
102
RTVSPropertyOp48
 70
     1
102
RTVSPropertyOp49
 70
     1
102
RTVSPropertyOp50
 70
     1
102
RTVSPropertyOp51
 70
     0
102
RTVSPropertyOp52
 70
     0
102
RTVSPropertyOp53
 70
     1
102
RTVSPropertyOp54
 70
     1
102
RTVSPropertyOp55
 70
     1
102
RTVSPropertyOp56
 70
     1
102
RTVSPropertyOp57
 70
     1
102
RTVSPost2010Prop28
280
     0
102
RTVSPost2010PropOp28
 70
     1
102
RTVSPost2010Prop29
280
     1
102
RTVSPost2010PropOp29
 70
     1
102
RTVSPost2010Prop30
280
     1
102
RTVSPost2010PropOp30
 70
     1
102
RTVSPost2010Prop31
280
     0
102
RTVSPost2010PropOp31
 70
     1
102
RTVSPost2010Prop32
280
     0
102
RTVSPost2010PropOp32
 70
     1
102
RTVSPost2010Prop33
280
     0
102
RTVSPost2010PropOp33
 70
     1
102
RTVSPost2010Prop34
280
     0
102
RTVSPost2010PropOp34
 70
     1
102
RTVSPost2010Prop35
280
     0
102
RTVSPost2010PropOp35
 70
     1
102
RTVSPost2010Prop36
280
     0
102
RTVSPost2010PropOp36
 70
     1
102
RTVSPost2010Prop37
 90
       50
102
RTVSPost2010PropOp37
 70
     1
102
RTVSPost2010Prop38
140
0.0
102
RTVSPost2010PropOp38
 70
     1
102
RTVSPost2010Prop39
140
1.0
102
RTVSPost2010PropOp39
 70
     1
102
RTVSPost2010Prop40
 90
        0
102
RTVSPost2010PropOp40
 70
     1
102
RTVSPost2010Prop41ColorIndex
 90
       18
102
RTVSPost2010Prop41ColorRGB
 90
        0
102
RTVSPost2010PropOp41
 70
     1
102
RTVSPost2010Prop42
 90
       50
102
RTVSPost2010PropOp42
 70
     1
102
RTVSPost2010Prop43
 90
        3
102
RTVSPost2010PropOp43
 70
     1
102
RTVSPost2010Prop44ColorIndex
 90
        5
102
RTVSPost2010Prop44ColorRGB
 90
      255
102
RTVSPost2010PropOp44
 70
     1
102
RTVSPost2010Prop45
280
     0
102
RTVSPost2010PropOp45
 70
     1
102
RTVSPost2010Prop46
 90
       50
102
RTVSPost2010PropOp46
 70
     1
102
RTVSPost2010Prop47
 90
       50
102
RTVSPost2010PropOp47
 70
     1
102
RTVSPost2010Prop48
 90
       50
102
RTVSPost2010PropOp48
 70
     1
102
RTVSPost2010Prop49
280
     0
102
RTVSPost2010PropOp49
 70
     1
102
RTVSPost2010Prop50
 90
       50
102
RTVSPost2010PropOp50
 70
     1
102
RTVSPost2010Prop51ColorIndex
 90
      256
102
RTVSPost2010Prop51ColorRGB
 90
-16777216
102
RTVSPost2010PropOp51
 70
     0
102
RTVSPost2010Prop52
140
1.0
102
RTVSPost2010PropOp52
 70
     0
102
RTVSPost2010Prop53
 90
        2
102
RTVSPost2010PropOp53
 70
     1
102
RTVSPost2010Prop54
  1
strokes_ogs.tif
102
RTVSPost2010PropOp54
 70
     1
102
RTVSPost2010Prop55
280
     0
102
RTVSPost2010PropOp55
 70
     1
102
RTVSPost2010Prop56
140
1.0
102
RTVSPost2010PropOp56
 70
     1
102
RTVSPost2010Prop57
140
1.0
102
RTVSPost2010PropOp57
 70
     1
  0
XRECORD
  5
2C5
102
{ACAD_REACTORS
330
2C4
102
}
330
2C4
100
AcDbXrecord
280
     1
102
RTVSPropertyOp0
 70
     1
102
RTVSPropertyOp1
 70
     1
102
RTVSPropertyOp2
 70
     1
102
RTVSPropertyOp3
 70
     1
102
RTVSPropertyOp4
 70
     1
102
RTVSPropertyOp5
 70
     1
102
RTVSPropertyOp6
 70
     1
102
RTVSPropertyOp7
 70
     1
102
RTVSPropertyOp8
 70
     1
102
RTVSPropertyOp9
 70
     1
102
RTVSPropertyOp10
 70
     1
102
RTVSPropertyOp11
 70
     1
102
RTVSPropertyOp12
 70
     1
102
RTVSPropertyOp13
 70
     1
102
RTVSPropertyOp14
 70
     1
102
RTVSPropertyOp15
 70
     1
102
RTVSPropertyOp16
 70
     1
102
RTVSPropertyOp17
 70
     1
102
RTVSPropertyOp18
 70
     1
102
RTVSPropertyOp19
 70
     1
102
RTVSPropertyOp20
 70
     1
102
RTVSPropertyOp21
 70
     1
102
RTVSPropertyOp22
 70
     1
102
RTVSPropertyOp23
 70
     1
102
RTVSPropertyOp24
 70
     1
102
RTVSPropertyOp25
 70
     1
102
RTVSPropertyOp26
 70
     1
102
RTVSPropertyOp27
 70
     1
102
RTVSPropertyOp28
 70
     1
102
RTVSPropertyOp29
 70
     1
102
RTVSPropertyOp30
 70
     1
102
RTVSPropertyOp31
 70
     1
102
RTVSPropertyOp32
 70
     1
102
RTVSPropertyOp33
 70
     1
102
RTVSPropertyOp34
 70
     1
102
RTVSPropertyOp35
 70
     1
102
RTVSPropertyOp36
 70
     1
102
RTVSPropertyOp37
 70
     1
102
RTVSPropertyOp38
 70
     1
102
RTVSPropertyOp39
 70
     1
102
RTVSPropertyOp40
 70
     1
102
RTVSPropertyOp41
 70
     1
102
RTVSPropertyOp42
 70
     1
102
RTVSPropertyOp43
 70
     1
102
RTVSPropertyOp44
 70
     1
102
RTVSPropertyOp45
 70
     1
102
RTVSPropertyOp46
 70
     1
102
RTVSPropertyOp47
 70
     1
102
RTVSPropertyOp48
 70
     1
102
RTVSPropertyOp49
 70
     1
102
RTVSPropertyOp50
 70
     1
102
RTVSPropertyOp51
 70
     0
102
RTVSPropertyOp52
 70
     0
102
RTVSPropertyOp53
 70
     1
102
RTVSPropertyOp54
 70
     1
102
RTVSPropertyOp55
 70
     1
102
RTVSPropertyOp56
 70
     1
102
RTVSPropertyOp57
 70
     1
102
RTVSPost2010Prop28
280
     0
102
RTVSPost2010PropOp28
 70
     1
102
RTVSPost2010Prop29
280
     1
102
RTVSPost2010PropOp29
 70
     1
102
RTVSPost2010Prop30
280
     1
102
RTVSPost2010PropOp30
 70
     1
102
RTVSPost2010Prop31
280
     0
102
RTVSPost2010PropOp31
 70
     1
102
RTVSPost2010Prop32
280
     0
102
RTVSPost2010PropOp32
 70
     1
102
RTVSPost2010Prop33
280
     0
102
RTVSPost2010PropOp33
 70
     1
102
RTVSPost2010Prop34
280
     0
102
RTVSPost2010PropOp34
 70
     1
102
RTVSPost2010Prop35
280
     0
102
RTVSPost2010PropOp35
 70
     1
102
RTVSPost2010Prop36
280
     0
102
RTVSPost2010PropOp36
 70
     1
102
RTVSPost2010Prop37
 90
       50
102
RTVSPost2010PropOp37
 70
     1
102
RTVSPost2010Prop38
140
0.0
102
RTVSPost2010PropOp38
 70
     1
102
RTVSPost2010Prop39
140
1.0
102
RTVSPost2010PropOp39
 70
     1
102
RTVSPost2010Prop40
 90
        0
102
RTVSPost2010PropOp40
 70
     1
102
RTVSPost2010Prop41ColorIndex
 90
       18
102
RTVSPost2010Prop41ColorRGB
 90
        0
102
RTVSPost2010PropOp41
 70
     1
102
RTVSPost2010Prop42
 90
       50
102
RTVSPost2010PropOp42
 70
     1
102
RTVSPost2010Prop43
 90
        3
102
RTVSPost2010PropOp43
 70
     1
102
RTVSPost2010Prop44ColorIndex
 90
        5
102
RTVSPost2010Prop44ColorRGB
 90
      255
102
RTVSPost2010PropOp44
 70
     1
102
RTVSPost2010Prop45
280
     0
102
RTVSPost2010PropOp45
 70
     1
102
RTVSPost2010Prop46
 90
       50
102
RTVSPost2010PropOp46
 70
     1
102
RTVSPost2010Prop47
 90
       50
102
RTVSPost2010PropOp47
 70
     1
102
RTVSPost2010Prop48
 90
       50
102
RTVSPost2010PropOp48
 70
     1
102
RTVSPost2010Prop49
280
     0
102
RTVSPost2010PropOp49
 70
     1
102
RTVSPost2010Prop50
 90
       50
102
RTVSPost2010PropOp50
 70
     1
102
RTVSPost2010Prop51ColorIndex
 90
      256
102
RTVSPost2010Prop51ColorRGB
 90
-16777216
102
RTVSPost2010PropOp51
 70
     0
102
RTVSPost2010Prop52
140
1.0
102
RTVSPost2010PropOp52
 70
     0
102
RTVSPost2010Prop53
 90
        2
102
RTVSPost2010PropOp53
 70
     1
102
RTVSPost2010Prop54
  1
strokes_ogs.tif
102
RTVSPost2010PropOp54
 70
     1
102
RTVSPost2010Prop55
280
     0
102
RTVSPost2010PropOp55
 70
     1
102
RTVSPost2010Prop56
140
1.0
102
RTVSPost2010PropOp56
 70
     1
102
RTVSPost2010Prop57
140
1.0
102
RTVSPost2010PropOp57
 70
     1
  0
ENDSEC
  0
EOF
