  0
SECTION
  2
HEADER
  9
$ACADVER
  1
AC1018
  9
$ACADMAINTVER
 70
     0
  9
$DWGCODEPAGE
  3
ANSI_1252
  9
$INSBASE
 10
0.0
 20
0.0
 30
0.0
  9
$EXTMIN
 10
-457.7082196961705
 20
-314.224989179649
 30
0.0
  9
$EXTMAX
 10
-37.70821969617208
 20
-17.22498917964902
 30
0.0
  9
$LIMMIN
 10
0.0
 20
0.0
  9
$LIMMAX
 10
12.0
 20
9.0
  9
$ORTHOMODE
 70
     0
  9
$REGENMODE
 70
     1
  9
$FILLMODE
 70
     1
  9
$QTEXTMODE
 70
     0
  9
$MIRRTEXT
 70
     1
  9
$LTSCALE
 40
1.0
  9
$ATTMODE
 70
     1
  9
$TEXTSIZE
 40
0.2
  9
$TRACEWID
 40
0.05
  9
$TEXTSTYLE
  7
Standard
  9
$CLAYER
  8
0
  9
$CELTYPE
  6
ByLayer
  9
$CECOLOR
 62
   256
  9
$CELTSCALE
 40
1.0
  9
$DISPSILH
 70
     0
  9
$DIMSCALE
 40
1.0
  9
$DIMASZ
 40
0.18
  9
$DIMEXO
 40
0.0625
  9
$DIMDLI
 40
0.38
  9
$DIMRND
 40
0.0
  9
$DIMDLE
 40
0.0
  9
$DIMEXE
 40
0.18
  9
$DIMTP
 40
0.0
  9
$DIMTM
 40
0.0
  9
$DIMTXT
 40
0.18
  9
$DIMCEN
 40
0.09
  9
$DIMTSZ
 40
0.0
  9
$DIMTOL
 70
     0
  9
$DIMLIM
 70
     0
  9
$DIMTIH
 70
     1
  9
$DIMTOH
 70
     1
  9
$DIMSE1
 70
     0
  9
$DIMSE2
 70
     0
  9
$DIMTAD
 70
     0
  9
$DIMZIN
 70
     0
  9
$DIMBLK
  1

  9
$DIMASO
 70
     1
  9
$DIMSHO
 70
     1
  9
$DIMPOST
  1

  9
$DIMAPOST
  1

  9
$DIMALT
 70
     0
  9
$DIMALTD
 70
     2
  9
$DIMALTF
 40
25.4
  9
$DIMLFAC
 40
1.0
  9
$DIMTOFL
 70
     0
  9
$DIMTVP
 40
0.0
  9
$DIMTIX
 70
     0
  9
$DIMSOXD
 70
     0
  9
$DIMSAH
 70
     0
  9
$DIMBLK1
  1

  9
$DIMBLK2
  1

  9
$DIMSTYLE
  2
Standard
  9
$DIMCLRD
 70
     0
  9
$DIMCLRE
 70
     0
  9
$DIMCLRT
 70
     0
  9
$DIMTFAC
 40
1.0
  9
$DIMGAP
 40
0.09
  9
$DIMJUST
 70
     0
  9
$DIMSD1
 70
     0
  9
$DIMSD2
 70
     0
  9
$DIMTOLJ
 70
     1
  9
$DIMTZIN
 70
     0
  9
$DIMALTZ
 70
     0
  9
$DIMALTTZ
 70
     0
  9
$DIMUPT
 70
     0
  9
$DIMDEC
 70
     4
  9
$DIMTDEC
 70
     4
  9
$DIMALTU
 70
     2
  9
$DIMALTTD
 70
     2
  9
$DIMTXSTY
  7
Standard
  9
$DIMAUNIT
 70
     0
  9
$DIMADEC
 70
     0
  9
$DIMALTRND
 40
0.0
  9
$DIMAZIN
 70
     0
  9
$DIMDSEP
 70
    46
  9
$DIMATFIT
 70
     3
  9
$DIMFRAC
 70
     0
  9
$DIMLDRBLK
  1

  9
$DIMLUNIT
 70
     2
  9
$DIMLWD
 70
    -2
  9
$DIMLWE
 70
    -2
  9
$DIMTMOVE
 70
     0
  9
$LUNITS
 70
     2
  9
$LUPREC
 70
     4
  9
$SKETCHINC
 40
0.1
  9
$FILLETRAD
 40
0.5
  9
$AUNITS
 70
     0
  9
$AUPREC
 70
     0
  9
$MENU
  1
.
  9
$ELEVATION
 40
0.0
  9
$PELEVATION
 40
0.0
  9
$THICKNESS
 40
0.0
  9
$LIMCHECK
 70
     0
  9
$CHAMFERA
 40
0.0
  9
$CHAMFERB
 40
0.0
  9
$CHAMFERC
 40
0.0
  9
$CHAMFERD
 40
0.0
  9
$SKPOLY
 70
     0
  9
$TDCREATE
 40
2459151.687330648
  9
$TDUCREATE
 40
2459151.645663981
  9
$TDUPDATE
 40
2459151.687330648
  9
$TDUUPDATE
 40
2459151.645663981
  9
$TDINDWG
 40
0.0000000116
  9
$TDUSRTIMER
 40
0.0000000116
  9
$USRTIMER
 70
     1
  9
$ANGBASE
 50
0.0
  9
$ANGDIR
 70
     0
  9
$PDMODE
 70
     0
  9
$PDSIZE
 40
0.0
  9
$PLINEWID
 40
0.0
  9
$SPLFRAME
 70
     0
  9
$SPLINETYPE
 70
     6
  9
$SPLINESEGS
 70
     8
  9
$HANDSEED
  5
270
  9
$SURFTAB1
 70
     6
  9
$SURFTAB2
 70
     6
  9
$SURFTYPE
 70
     6
  9
$SURFU
 70
     6
  9
$SURFV
 70
     6
  9
$UCSBASE
  2

  9
$UCSNAME
  2

  9
$UCSORG
 10
0.0
 20
0.0
 30
0.0
  9
$UCSXDIR
 10
1.0
 20
0.0
 30
0.0
  9
$UCSYDIR
 10
0.0
 20
1.0
 30
0.0
  9
$UCSORTHOREF
  2

  9
$UCSORTHOVIEW
 70
     0
  9
$UCSORGTOP
 10
0.0
 20
0.0
 30
0.0
  9
$UCSORGBOTTOM
 10
0.0
 20
0.0
 30
0.0
  9
$UCSORGLEFT
 10
0.0
 20
0.0
 30
0.0
  9
$UCSORGRIGHT
 10
0.0
 20
0.0
 30
0.0
  9
$UCSORGFRONT
 10
0.0
 20
0.0
 30
0.0
  9
$UCSORGBACK
 10
0.0
 20
0.0
 30
0.0
  9
$PUCSBASE
  2

  9
$PUCSNAME
  2

  9
$PUCSORG
 10
0.0
 20
0.0
 30
0.0
  9
$PUCSXDIR
 10
1.0
 20
0.0
 30
0.0
  9
$PUCSYDIR
 10
0.0
 20
1.0
 30
0.0
  9
$PUCSORTHOREF
  2

  9
$PUCSORTHOVIEW
 70
     0
  9
$PUCSORGTOP
 10
0.0
 20
0.0
 30
0.0
  9
$PUCSORGBOTTOM
 10
0.0
 20
0.0
 30
0.0
  9
$PUCSORGLEFT
 10
0.0
 20
0.0
 30
0.0
  9
$PUCSORGRIGHT
 10
0.0
 20
0.0
 30
0.0
  9
$PUCSORGFRONT
 10
0.0
 20
0.0
 30
0.0
  9
$PUCSORGBACK
 10
0.0
 20
0.0
 30
0.0
  9
$USERI1
 70
     0
  9
$USERI2
 70
     0
  9
$USERI3
 70
     0
  9
$USERI4
 70
     0
  9
$USERI5
 70
     0
  9
$USERR1
 40
20.1
  9
$USERR2
 40
0.0
  9
$USERR3
 40
0.0
  9
$USERR4
 40
0.0
  9
$USERR5
 40
0.0
  9
$WORLDVIEW
 70
     1
  9
$SHADEDGE
 70
     3
  9
$SHADEDIF
 70
    70
  9
$TILEMODE
 70
     1
  9
$MAXACTVP
 70
    64
  9
$PINSBASE
 10
0.0
 20
0.0
 30
0.0
  9
$PLIMCHECK
 70
     0
  9
$PEXTMIN
 10
1.00000000000000E+20
 20
1.00000000000000E+20
 30
1.00000000000000E+20
  9
$PEXTMAX
 10
-1.00000000000000E+20
 20
-1.00000000000000E+20
 30
-1.00000000000000E+20
  9
$PLIMMIN
 10
0.0
 20
0.0
  9
$PLIMMAX
 10
12.0
 20
9.0
  9
$UNITMODE
 70
     0
  9
$VISRETAIN
 70
     1
  9
$PLINEGEN
 70
     0
  9
$PSLTSCALE
 70
     1
  9
$TREEDEPTH
 70
  3020
  9
$CMLSTYLE
  2
Standard
  9
$CMLJUST
 70
     0
  9
$CMLSCALE
 40
1.0
  9
$PROXYGRAPHICS
 70
     1
  9
$MEASUREMENT
 70
     1
  9
$CELWEIGHT
370
    -1
  9
$ENDCAPS
280
     0
  9
$JOINSTYLE
280
     0
  9
$LWDISPLAY
290
     0
  9
$INSUNITS
 70
     4
  9
$HYPERLINKBASE
  1

  9
$STYLESHEET
  1

  9
$XEDIT
290
     1
  9
$CEPSNTYPE
380
     0
  9
$PSTYLEMODE
290
     1
  9
$FINGERPRINTGUID
  2
{c0bf0506-ffeb-40e0-ae46-ffe4783704b5}
  9
$VERSIONGUID
  2
{FAEB1C32-E019-11D5-929B-00C0DF256EC4}
  9
$EXTNAMES
290
     1
  9
$PSVPSCALE
 40
0.0
  9
$OLESTARTUP
290
     0
  9
$SORTENTS
280
   127
  9
$INDEXCTL
280
     0
  9
$HIDETEXT
280
     1
  9
$XCLIPFRAME
290
     0
  9
$HALOGAP
280
     0
  9
$OBSCOLOR
 70
   257
  9
$OBSLTYPE
280
     0
  9
$INTERSECTIONDISPLAY
280
     0
  9
$INTERSECTIONCOLOR
 70
   257
  9
$DIMASSOC
280
     2
  9
$PROJECTNAME
  1

  0
ENDSEC
  0
SECTION
  2
CLASSES
  0
CLASS
  1
ACDBDICTIONARYWDFLT
  2
AcDbDictionaryWithDefault
  3
ObjectDBX Classes
 90
        0
 91
        3
280
     0
281
     0
  0
CLASS
  1
VISUALSTYLE
  2
AcDbVisualStyle
  3
ObjectDBX Classes
 90
     4095
 91
        3
280
     0
281
     0
  0
CLASS
  1
MATERIAL
  2
AcDbMaterial
  3
ObjectDBX Classes
 90
     1153
 91
        3
280
     0
281
     0
  0
CLASS
  1
SCALE
  2
AcDbScale
  3
ObjectDBX Classes
 90
     1153
 91
        3
280
     0
281
     0
  0
CLASS
  1
TABLESTYLE
  2
AcDbTableStyle
  3
ObjectDBX Classes
 90
     4095
 91
        3
280
     0
281
     0
  0
CLASS
  1
MLEADERSTYLE
  2
AcDbMLeaderStyle
  3
ACDB_MLEADERSTYLE_CLASS
 90
     4095
 91
        3
280
     0
281
     0
  0
CLASS
  1
SUN
  2
AcDbSun
  3
SCENEOE
 90
     1153
 91
        3
280
     0
281
     0
  0
CLASS
  1
DICTIONARYVAR
  2
AcDbDictionaryVar
  3
ObjectDBX Classes
 90
        0
 91
        3
280
     0
281
     0
  0
CLASS
  1
CELLSTYLEMAP
  2
AcDbCellStyleMap
  3
ObjectDBX Classes
 90
     1152
 91
        3
280
     0
281
     0
  0
ENDSEC
  0
SECTION
  2
TABLES
  0
TABLE
  2
VPORT
  5
8
102
{ACAD_XDICTIONARY
360
229
102
}
330
0
100
AcDbSymbolTable
 70
     1
  0
VPORT
  5
29
330
8
100
AcDbSymbolTableRecord
100
AcDbViewportTableRecord
  2
*Active
 70
     0
 10
0.0
 20
0.0
 11
1.0
 21
1.0
 12
-247.7082196961713
 22
-165.724989179649
 13
0.0
 23
0.0
 14
0.5
 24
0.5
 15
0.5
 25
0.5
 16
0.0
 26
0.0
 36
1.0
 17
0.0
 27
0.0
 37
0.0
 40
326.7
 41
1.60267857142857
 42
50.0
 43
0.0
 44
0.0
 50
0.0
 51
0.0
 71
     0
 72
   100
 73
     1
 74
     3
 75
     0
 76
     0
 77
     0
 78
     0
281
     0
 65
     1
110
0.0
120
0.0
130
0.0
111
1.0
121
0.0
131
0.0
112
0.0
122
1.0
132
0.0
 79
     0
146
0.0
  0
ENDTAB
  0
TABLE
  2
LTYPE
  5
5
330
0
100
AcDbSymbolTable
 70
     8
  0
LTYPE
  5
14
330
5
100
AcDbSymbolTableRecord
100
AcDbLinetypeTableRecord
  2
ByBlock
 70
     0
  3

 72
    65
 73
     0
 40
0.0
  0
LTYPE
  5
15
330
5
100
AcDbSymbolTableRecord
100
AcDbLinetypeTableRecord
  2
ByLayer
 70
     0
  3

 72
    65
 73
     0
 40
0.0
  0
LTYPE
  5
16
330
5
100
AcDbSymbolTableRecord
100
AcDbLinetypeTableRecord
  2
Continuous
 70
     0
  3
Solid line
 72
    65
 73
     0
 40
0.0
  0
LTYPE
  5
6E
330
5
100
AcDbSymbolTableRecord
100
AcDbLinetypeTableRecord
  2
DASHED
 70
     0
  3
Dashed
 72
    65
 73
     2
 40
15.0
 49
7.0
 74
     0
 49
-8.0
 74
     0
  0
LTYPE
  5
6F
330
5
100
AcDbSymbolTableRecord
100
AcDbLinetypeTableRecord
  2
DOTTED
 70
     0
  3
Dotted
 72
    65
 73
     2
 40
1.0
 49
0.0
 74
     0
 49
-1.0
 74
     0
  0
LTYPE
  5
70
330
5
100
AcDbSymbolTableRecord
100
AcDbLinetypeTableRecord
  2
DOT_CENTER
 70
     0
  3
Dot_Center
 72
    65
 73
     4
 40
14.0
 49
12.0
 74
     0
 49
-1.0
 74
     0
 49
0.0
 74
     0
 49
-1.0
 74
     0
  0
LTYPE
  5
71
330
5
100
AcDbSymbolTableRecord
100
AcDbLinetypeTableRecord
  2
LONG_DASHED
 70
     0
  3
Long_Dashed
 72
    65
 73
     2
 40
15.0
 49
10.0
 74
     0
 49
-5.0
 74
     0
  0
LTYPE
  5
72
330
5
100
AcDbSymbolTableRecord
100
AcDbLinetypeTableRecord
  2
DASH_CENTER
 70
     0
  3
Dash_Center
 72
    65
 73
     4
 40
14.0
 49
11.0
 74
     0
 49
-1.0
 74
     0
 49
1.0
 74
     0
 49
-1.0
 74
     0
  0
LTYPE
  5
73
330
5
100
AcDbSymbolTableRecord
100
AcDbLinetypeTableRecord
  2
PHANTOM
 70
     0
  3
Phantom
 72
    65
 73
     6
 40
13.0
 49
10.0
 74
     0
 49
-1.0
 74
     0
 49
0.0
 74
     0
 49
-1.0
 74
     0
 49
0.0
 74
     0
 49
-1.0
 74
     0
  0
LTYPE
  5
74
330
5
100
AcDbSymbolTableRecord
100
AcDbLinetypeTableRecord
  2
CENTER_DASH_DASH
 70
     0
  3
Center_Dash_Dash
 72
    65
 73
     6
 40
14.0
 49
9.0
 74
     0
 49
-1.0
 74
     0
 49
1.0
 74
     0
 49
-1.0
 74
     0
 49
1.0
 74
     0
 49
-1.0
 74
     0
  0
ENDTAB
  0
TABLE
  2
LAYER
  5
2
330
0
100
AcDbSymbolTable
 70
     2
  0
LAYER
  5
10
330
2
100
AcDbSymbolTableRecord
100
AcDbLayerTableRecord
  2
0
 70
     0
 62
     7
  6
Continuous
370
    -3
390
F
  0
LAYER
  5
75
330
2
100
AcDbSymbolTableRecord
100
AcDbLayerTableRecord
  2
1
 70
     0
 62
     7
  6
Continuous
370
    -3
390
F
  0
ENDTAB
  0
TABLE
  2
STYLE
  5
3
330
0
100
AcDbSymbolTable
 70
     5
  0
STYLE
  5
11
330
3
100
AcDbSymbolTableRecord
100
AcDbTextStyleTableRecord
  2
Standard
 70
     0
 40
0.0
 41
1.0
 50
0.0
 71
     0
 42
0.2
  3
txt
  4

  0
STYLE
  5
A1
330
3
100
AcDbSymbolTableRecord
100
AcDbTextStyleTableRecord
  2
CONVERTER_11
 70
     0
 40
0.0
 41
0.9
 50
0.0
 71
     0
 42
0.2
  3
txt.shx
  4

  0
STYLE
  5
1EB
330
3
100
AcDbSymbolTableRecord
100
AcDbTextStyleTableRecord
  2
CONVERTER_12
 70
     0
 40
0.0
 41
0.81
 50
0.0
 71
     0
 42
0.2
  3
txt.shx
  4

  0
STYLE
  5
1F1
330
3
100
AcDbSymbolTableRecord
100
AcDbTextStyleTableRecord
  2
CONVERTER_13
 70
     0
 40
0.0
 41
0.72
 50
0.0
 71
     0
 42
0.2
  3
txt.shx
  4

  0
STYLE
  5
1F4
330
3
100
AcDbSymbolTableRecord
100
AcDbTextStyleTableRecord
  2
CONVERTER_14
 70
     0
 40
0.0
 41
0.855
 50
0.0
 71
     0
 42
0.2
  3
txt.shx
  4

  0
ENDTAB
  0
TABLE
  2
VIEW
  5
6
330
0
100
AcDbSymbolTable
 70
     0
  0
ENDTAB
  0
TABLE
  2
UCS
  5
7
330
0
100
AcDbSymbolTable
 70
     0
  0
ENDTAB
  0
TABLE
  2
APPID
  5
9
330
0
100
AcDbSymbolTable
 70
     2
  0
APPID
  5
12
330
9
100
AcDbSymbolTableRecord
100
AcDbRegAppTableRecord
  2
ACAD
 70
     0
  0
APPID
  5
268
330
9
100
AcDbSymbolTableRecord
100
AcDbRegAppTableRecord
  2
ACAD_MLEADERVER
 70
     0
  0
ENDTAB
  0
TABLE
  2
DIMSTYLE
  5
A
330
0
100
AcDbSymbolTable
 70
     5
100
AcDbDimStyleTable
  0
DIMSTYLE
105
27
330
A
100
AcDbSymbolTableRecord
100
AcDbDimStyleTableRecord
  2
Standard
 70
     0
178
     0
340
11
  0
DIMSTYLE
105
AE
102
{ACAD_REACTORS
330
AF
102
}
330
A
100
AcDbSymbolTableRecord
100
AcDbDimStyleTableRecord
  2
ME10_DIM_10
 70
     0
 41
0.7
 42
0.1
 44
0.3
 73
     0
 74
     0
 77
     1
 78
     8
140
0.7
147
0.4
172
     1
173
     1
174
     1
175
     1
176
     2
177
     2
178
     3
340
A1
  0
DIMSTYLE
105
BA
102
{ACAD_REACTORS
330
BB
102
}
330
A
100
AcDbSymbolTableRecord
100
AcDbDimStyleTableRecord
  2
ME10_DIM_11
 70
     0
 41
0.7
 42
0.1
 44
0.3
 73
     0
 74
     0
 77
     1
 78
     8
140
0.7
147
0.4
172
     1
173
     1
174
     1
175
     1
176
     2
177
     2
178
     3
340
A1
  0
DIMSTYLE
105
C5
102
{ACAD_REACTORS
330
C6
102
}
330
A
100
AcDbSymbolTableRecord
100
AcDbDimStyleTableRecord
  2
ME10_DIM_12
 70
     0
 41
0.7
 42
0.0
 44
0.3
 47
0.1
 48
0.1
 71
     1
 73
     0
 74
     0
 77
     1
 78
     8
140
0.7
146
0.6
147
0.3
172
     1
173
     1
174
     1
175
     1
176
     2
177
     2
178
     3
272
     0
340
A1
  0
DIMSTYLE
105
D0
102
{ACAD_REACTORS
330
D1
102
}
330
A
100
AcDbSymbolTableRecord
100
AcDbDimStyleTableRecord
  2
ME10_DIM_13
 70
     0
 41
0.7
 42
0.0
 44
0.3
 47
0.1
 48
0.1
 71
     1
 73
     0
 74
     0
 77
     1
 78
     8
140
0.7
146
0.6
147
0.3
172
     1
173
     1
174
     1
175
     1
176
     2
177
     2
178
     3
272
     0
340
A1
  0
ENDTAB
  0
TABLE
  2
BLOCK_RECORD
  5
1
330
0
100
AcDbSymbolTable
 70
    13
  0
BLOCK_RECORD
  5
1F
330
1
100
AcDbSymbolTableRecord
100
AcDbBlockTableRecord
  2
*Model_Space
340
22
  0
BLOCK_RECORD
  5
1B
330
1
100
AcDbSymbolTableRecord
100
AcDbBlockTableRecord
  2
*Paper_Space
340
1E
  0
BLOCK_RECORD
  5
23
330
1
100
AcDbSymbolTableRecord
100
AcDbBlockTableRecord
  2
*Paper_Space0
340
26
  0
BLOCK_RECORD
  5
76
330
1
100
AcDbSymbolTableRecord
100
AcDbBlockTableRecord
  2
Leiterplatte
340
0
102
{BLKREFS
331
7A
102
}
  0
BLOCK_RECORD
  5
79
330
1
100
AcDbSymbolTableRecord
100
AcDbBlockTableRecord
  2
Vordans1
340
0
102
{BLKREFS
331
89
102
}
  0
BLOCK_RECORD
  5
7D
330
1
100
AcDbSymbolTableRecord
100
AcDbBlockTableRecord
  2
_rahmen
340
0
102
{BLKREFS
331
84
102
}
  0
BLOCK_RECORD
  5
80
330
1
100
AcDbSymbolTableRecord
100
AcDbBlockTableRecord
  2
_punkt
340
0
102
{BLKREFS
331
85
102
}
  0
BLOCK_RECORD
  5
83
330
1
100
AcDbSymbolTableRecord
100
AcDbBlockTableRecord
  2
A3I_TD_PRF
340
0
102
{BLKREFS
331
8A
102
}
  0
BLOCK_RECORD
  5
88
330
1
100
AcDbSymbolTableRecord
100
AcDbBlockTableRecord
  2
1
340
0
102
{BLKREFS
331
8D
102
}
  0
BLOCK_RECORD
  5
A3
330
1
100
AcDbSymbolTableRecord
100
AcDbBlockTableRecord
  2
*D7
340
0
  0
BLOCK_RECORD
  5
B0
330
1
100
AcDbSymbolTableRecord
100
AcDbBlockTableRecord
  2
*D8
340
0
  0
BLOCK_RECORD
  5
BC
330
1
100
AcDbSymbolTableRecord
100
AcDbBlockTableRecord
  2
*D9
340
0
  0
BLOCK_RECORD
  5
C7
330
1
100
AcDbSymbolTableRecord
100
AcDbBlockTableRecord
  2
*D10
340
0
  0
BLOCK_RECORD
  5
D2
330
1
100
AcDbSymbolTableRecord
100
AcDbBlockTableRecord
  2
*D11
340
0
102
{BLKREFS
331
D9
102
}
  0
BLOCK_RECORD
  5
DA
330
1
100
AcDbSymbolTableRecord
100
AcDbBlockTableRecord
  2
*D12
340
0
102
{BLKREFS
331
E1
102
}
  0
ENDTAB
  0
ENDSEC
  0
SECTION
  2
BLOCKS
  0
BLOCK
  5
20
330
1F
100
AcDbEntity
  8
0
100
AcDbBlockBegin
  2
*Model_Space
 70
     0
 10
0.0
 20
0.0
 30
0.0
  3
*Model_Space
  1

  0
ENDBLK
  5
21
330
1F
100
AcDbEntity
  8
0
100
AcDbBlockEnd
  0
BLOCK
  5
1C
330
1B
100
AcDbEntity
 67
     1
  8
0
100
AcDbBlockBegin
  2
*Paper_Space
 70
     0
 10
0.0
 20
0.0
 30
0.0
  3
*Paper_Space
  1

  0
ENDBLK
  5
1D
330
1B
100
AcDbEntity
 67
     1
  8
0
100
AcDbBlockEnd
  0
BLOCK
  5
24
330
23
100
AcDbEntity
  8
0
100
AcDbBlockBegin
  2
*Paper_Space0
 70
     0
 10
0.0
 20
0.0
 30
0.0
  3
*Paper_Space0
  1

  0
ENDBLK
  5
25
330
23
100
AcDbEntity
  8
0
100
AcDbBlockEnd
  0
BLOCK
  5
77
330
76
100
AcDbEntity
  8
0
100
AcDbBlockBegin
  2
Leiterplatte
 70
     0
 10
-69.67615875001641
 20
-42.62745819862116
 30
0.0
  3
Leiterplatte
  1

  0
LINE
  5
8E
330
76
100
AcDbEntity
  8
0
  6
Continuous
 62
     7
100
AcDbLine
 10
-69.20016358418683
 20
-42.62745819862116
 30
0.0
 11
-28.39167261536336
 21
-42.62745819862114
 31
0.0
  0
LINE
  5
8F
330
76
100
AcDbEntity
  8
1
  6
DOT_CENTER
 62
     2
100
AcDbLine
 10
-30.42852050781248
 20
-31.95745819862114
 30
0.0
 11
-33.83852050781248
 21
-31.95745819862114
 31
0.0
  0
LINE
  5
90
330
76
100
AcDbEntity
  8
1
  6
DOT_CENTER
 62
     2
100
AcDbLine
 10
-32.13352050781248
 20
-30.25245819862115
 30
0.0
 11
-32.13352050781248
 21
-33.66245819862114
 31
0.0
  0
LINE
  5
91
330
76
100
AcDbEntity
  8
1
  6
DOT_CENTER
 62
     2
100
AcDbLine
 10
-53.42102050781252
 20
-30.82745819862116
 30
0.0
 11
-57.87602050781252
 21
-30.82745819862116
 31
0.0
  0
LINE
  5
92
330
76
100
AcDbEntity
  8
1
  6
DOT_CENTER
 62
     2
100
AcDbLine
 10
-55.64852050781252
 20
-28.59995819862116
 30
0.0
 11
-55.64852050781252
 21
-33.05495819862115
 31
0.0
  0
LINE
  5
93
330
76
100
AcDbEntity
  8
1
  6
DOT_CENTER
 62
     2
100
AcDbLine
 10
-63.72852050781235
 20
-31.95745819862114
 30
0.0
 11
-67.13852050781234
 21
-31.95745819862114
 31
0.0
  0
LINE
  5
94
330
76
100
AcDbEntity
  8
1
  6
DOT_CENTER
 62
     2
100
AcDbLine
 10
-65.43352050781235
 20
-30.25245819862114
 30
0.0
 11
-65.43352050781235
 21
-33.66245819862114
 31
0.0
  0
LINE
  5
95
330
76
100
AcDbEntity
  8
1
  6
DOT_CENTER
 62
     2
100
AcDbLine
 10
-39.70102050781252
 20
-30.82745819862116
 30
0.0
 11
-44.15602050781252
 21
-30.82745819862116
 31
0.0
  0
LINE
  5
96
330
76
100
AcDbEntity
  8
1
  6
DOT_CENTER
 62
     2
100
AcDbLine
 10
-41.92852050781252
 20
-28.59995819862116
 30
0.0
 11
-41.92852050781252
 21
-33.05495819862115
 31
0.0
  0
LINE
  5
97
330
76
100
AcDbEntity
  8
1
  6
DOT_CENTER
 62
     2
100
AcDbLine
 10
-46.55602050781252
 20
-30.82745819862116
 30
0.0
 11
-51.01102050781252
 21
-30.82745819862116
 31
0.0
  0
LINE
  5
98
330
76
100
AcDbEntity
  8
1
  6
DOT_CENTER
 62
     2
100
AcDbLine
 10
-48.78352050781252
 20
-26.8920936166062
 30
0.0
 11
-48.78352050781252
 21
-40.9216315716162
 31
0.0
  0
CIRCLE
  5
99
330
76
100
AcDbEntity
  8
0
  6
Continuous
 62
     7
100
AcDbCircle
 10
-41.92852050781252
 20
-30.82745819862116
 30
0.0
 40
2.024999999999999
  0
CIRCLE
  5
9A
330
76
100
AcDbEntity
  8
0
  6
Continuous
 62
     7
100
AcDbCircle
 10
-55.64852050781252
 20
-30.82745819862116
 30
0.0
 40
2.024999999999999
  0
CIRCLE
  5
9B
330
76
100
AcDbEntity
  8
0
  6
Continuous
 62
     7
100
AcDbCircle
 10
-32.13352050781248
 20
-31.95745819862114
 30
0.0
 40
1.549999999999997
  0
CIRCLE
  5
9C
330
76
100
AcDbEntity
  8
0
  6
Continuous
 62
     7
100
AcDbCircle
 10
-48.78352050781252
 20
-30.82745819862116
 30
0.0
 40
2.024999999999999
  0
CIRCLE
  5
9D
330
76
100
AcDbEntity
  8
0
  6
Continuous
 62
     7
100
AcDbCircle
 10
-65.43352050781235
 20
-31.95745819862114
 30
0.0
 40
1.549999999999997
  0
SPLINE
  5
9E
330
76
100
AcDbEntity
  8
0
  6
Continuous
 62
     7
100
AcDbSpline
210
0.0
220
0.0
230
1.0
 70
  1064
 71
     3
 72
    13
 73
     9
 74
     7
 42
0.000000001
 43
0.0000000001
 44
0.00000001
 40
0.0
 40
0.0
 40
0.0
 40
0.0
 40
0.574641658534781
 40
1.148735121055029
 40
3.730738899075521
 40
6.296392825206749
 40
8.099943494200009
 40
9.901766558823534
 40
9.901766558823534
 40
9.901766558823534
 40
9.901766558823534
 10
-28.39167261536335
 20
-32.81186708268277
 30
0.0
 10
-28.36710807869503
 20
-33.0016952103189
 30
0.0
 10
-28.31800245328279
 20
-33.38117037539588
 30
0.0
 10
-28.1610435055376
 20
-34.61926638694074
 30
0.0
 10
-28.57516580329412
 20
-36.50440463192241
 30
0.0
 10
-29.09860879300133
 20
-38.81949248374389
 30
0.0
 10
-28.4790343950787
 20
-40.82491239409659
 30
0.0
 10
-28.42078390944986
 20
-42.02680156921312
 30
0.0
 10
-28.39167261536336
 20
-42.62745819862114
 30
0.0
 11
-28.39167261536335
 21
-32.81186708268277
 31
0.0
 11
-28.31817325870542
 21
-33.38178890414757
 31
0.0
 11
-28.25747150781236
 21
-33.95266419862123
 31
0.0
 11
-28.58013811592804
 21
-36.51442721998693
 31
0.0
 11
-28.89128550781236
 21
-39.06114419862121
 31
0.0
 11
-28.55486646998886
 21
-40.8330407096657
 31
0.0
 11
-28.39167261536336
 21
-42.62745819862114
 31
0.0
  0
SPLINE
  5
9F
330
76
100
AcDbEntity
  8
0
  6
Continuous
 62
     7
100
AcDbSpline
210
0.0
220
0.0
230
1.0
 70
  1064
 71
     3
 72
    13
 73
     9
 74
     7
 42
0.000000001
 43
0.0000000001
 44
0.00000001
 40
0.0
 40
0.0
 40
0.0
 40
0.0
 40
1.28541011712798
 40
2.590044017949082
 40
4.365262518871562
 40
6.149275377376085
 40
8.66933519200515
 40
10.99884679341225
 40
10.99884679341225
 40
10.99884679341225
 40
10.99884679341225
 10
-69.20016358418683
 20
-31.75373594181305
 30
0.0
 10
-69.26362373779885
 20
-32.18039938759134
 30
0.0
 10
-69.3914930920381
 20
-33.04010718949058
 30
0.0
 10
-69.12423747064193
 20
-34.48784269758981
 30
0.0
 10
-69.24112038553655
 20
-36.10880634420854
 30
0.0
 10
-69.32912674500493
 20
-38.14661978507944
 30
0.0
 10
-68.36383950600123
 20
-40.29327098378786
 30
0.0
 10
-68.9287881612814
 20
-41.87004723412097
 30
0.0
 10
-69.20016358418683
 20
-42.62745819862116
 30
0.0
 11
-69.20016358418683
 21
-31.75373594181305
 31
0.0
 11
-69.31999301757789
 21
-33.03354845880204
 31
0.0
 11
-69.20016358418683
 21
-34.33266759394404
 31
0.0
 11
-69.23244939356442
 21
-36.10759248133716
 31
0.0
 11
-69.20016358418683
 21
-37.89131317302263
 31
0.0
 11
-68.679223730051
 21
-40.35694152322922
 31
0.0
 11
-69.20016358418683
 21
-42.62745819862116
 31
0.0
  0
SPLINE
  5
A0
330
76
100
AcDbEntity
  8
0
  6
Continuous
 62
     7
100
AcDbSpline
210
0.0
220
0.0
230
1.0
 70
  1064
 71
     3
 72
    24
 73
    20
 74
    18
 42
0.000000001
 43
0.0000000001
 44
0.00000001
 40
0.0
 40
0.0
 40
0.0
 40
0.0
 40
2.973071246735508
 40
5.659700518943048
 40
7.96115101436875
 40
10.49971990106699
 40
13.16287583185916
 40
18.27009365757652
 40
23.16190289442316
 40
27.12158927885168
 40
31.08813690949763
 40
33.4958200799937
 40
35.92883965116584
 40
39.0865109112103
 40
42.16537127911953
 40
44.65302187540134
 40
47.27693261684655
 40
48.0271192611151
 40
48.78462119296415
 40
48.78462119296415
 40
48.78462119296415
 40
48.78462119296415
 10
-69.20016358418683
 20
-31.75373594181305
 30
0.0
 10
-69.10535194291879
 20
-30.7598345470068
 30
0.0
 10
-68.92486331826757
 20
-28.86778966730473
 30
0.0
 10
-67.37301724269597
 20
-26.50157053902207
 30
0.0
 10
-64.94834417380125
 20
-25.54664161873559
 30
0.0
 10
-62.44166498766161
 20
-25.4181456044685
 30
0.0
 10
-59.00722044185304
 20
-25.54822762664377
 30
0.0
 10
-54.78953885872009
 20
-25.36216900896277
 30
0.0
 10
-50.12946281607616
 20
-25.20461305038935
 30
0.0
 10
-45.87860718377981
 20
-25.64589910334198
 30
0.0
 10
-42.42434465382764
 20
-25.8353545748826
 30
0.0
 10
-39.50632617762681
 20
-25.4823991057616
 30
0.0
 10
-36.84699333366296
 20
-25.24236813882905
 30
0.0
 10
-33.94495978027587
 20
-25.57042212457571
 30
0.0
 10
-31.21063594305586
 20
-26.75987560537663
 30
0.0
 10
-29.31027589167008
 20
-28.81534368096963
 30
0.0
 10
-28.60927367819884
 20
-30.69181713068247
 30
0.0
 10
-28.41269803825737
 20
-32.05642029498811
 30
0.0
 10
-28.39870371861706
 20
-32.55923826420666
 30
0.0
 10
-28.39167261536335
 20
-32.81186708268277
 30
0.0
 11
-69.20016358418683
 21
-31.75373594181305
 31
0.0
 11
-68.66110196026962
 21
-28.82994298810692
 31
0.0
 11
-67.11384550781251
 21
-26.6335881986212
 31
0.0
 11
-65.01166707242652
 21
-25.6968277230468
 31
0.0
 11
-62.48444008292142
 21
-25.45712848963693
 31
0.0
 11
-59.82151850781246
 21
-25.49245819862114
 31
0.0
 11
-54.71582003998031
 21
-25.36789073195472
 31
0.0
 11
-49.82426850781252
 21
-25.3176791986212
 31
0.0
 11
-45.87567226316982
 21
-25.61382772014692
 31
0.0
 11
-41.9105395078125
 21
-25.71976319862119
 31
0.0
 11
-39.51332652139643
 21
-25.49546843475454
 31
0.0
 11
-37.08554150781251
 21
-25.3359561986212
 31
0.0
 11
-33.95266438477913
 21
-25.73088492837854
 31
0.0
 11
-31.16395250781249
 21
-27.0356711986212
 31
0.0
 11
-29.47801032056531
 21
-28.86487988413722
 31
0.0
 11
-28.53213550781249
 21
-31.31237419862122
 31
0.0
 11
-28.42734118725812
 21
-32.05520537603655
 31
0.0
 11
-28.39167261536335
 21
-32.81186708268277
 31
0.0
  0
ENDBLK
  5
78
330
76
100
AcDbEntity
  8
0
100
AcDbBlockEnd
  0
BLOCK
  5
7B
330
79
100
AcDbEntity
  8
0
100
AcDbBlockBegin
  2
Vordans1
 70
     0
 10
-48.79999999999998
 20
-31.19999999999999
 30
0.0
  3
Vordans1
  1

  0
INSERT
  5
7A
330
79
100
AcDbEntity
  8
0
100
AcDbBlockReference
  2
Leiterplatte
 10
-69.67615875001641
 20
-42.62745819862116
 30
0.0
  0
MTEXT
  5
A2
330
79
100
AcDbEntity
  8
1
 62
     6
100
AcDbMText
 10
-48.80000000000001
 20
-38.09765489101412
 30
0.0
 40
1.0
 41
0.0
 71
     2
 72
     1
  1
 
  7
CONVERTER_11
 73
     1
 44
1.32052821128451
  0
DIMENSION
  5
AF
330
79
100
AcDbEntity
  8
1
100
AcDbDimension
  2
*D7
 10
-36.61867816705421
 20
-30.82745819862116
 30
0.0
 11
-37.40367816705421
 21
-33.849820996862
 31
0.0
 70
    32
  1
<>
 71
     5
 42
-1.0
 53
90.0
  3
ME10_DIM_10
100
AcDbAlignedDimension
 13
-32.13352050781248
 23
-31.95745819862114
 33
0.0
 14
-41.92852050781252
 24
-30.82745819862116
 34
0.0
 50
90.0
100
AcDbRotatedDimension
  0
LWPOLYLINE
  5
B7
330
79
100
AcDbEntity
  8
1
 62
     3
100
AcDbPolyline
 90
        4
 70
     1
 43
0.0
 10
-26.65890963088001
 20
-39.032033842129
 10
-25.15740963088001
 20
-39.032033842129
 10
-25.15740963088001
 20
-35.955533842129
 10
-26.65890963088001
 20
-35.955533842129
  0
DIMENSION
  5
BB
330
79
100
AcDbEntity
  8
1
100
AcDbDimension
  2
*D8
 10
-24.75740963088001
 20
-31.95745819862114
 30
0.0
 11
-25.90815963088001
 21
-37.493783842129
 31
0.0
 70
    32
  1
<>
 71
     5
 42
-1.0
 53
90.0
  3
ME10_DIM_11
100
AcDbAlignedDimension
 13
-28.39167261536336
 23
-42.62745819862114
 33
0.0
 14
-32.13352050781248
 24
-31.95745819862114
 34
0.0
 50
90.0
100
AcDbRotatedDimension
  0
DIMENSION
  5
C6
330
79
100
AcDbEntity
  8
1
100
AcDbDimension
  2
*D9
 10
-65.43352050781235
 20
-46.13199073553001
 30
0.0
 11
-47.31737671668901
 21
-45.44699073553001
 31
0.0
 70
    32
  1
<>
 71
     5
 42
-1.0
 53
0.00013888888889
  3
ME10_DIM_12
100
AcDbAlignedDimension
 13
-32.13352050781248
 23
-33.66245819862115
 33
0.0
 14
-65.43352050781235
 24
-33.66245819862115
 34
0.0
100
AcDbRotatedDimension
  0
DIMENSION
  5
D1
330
79
100
AcDbEntity
  8
1
100
AcDbDimension
  2
*D10
 10
-55.64852050781252
 20
-23.28818408836939
 30
0.0
 11
-48.66732739092994
 21
-22.60318408836939
 31
0.0
 70
    32
  1
<>
 71
     5
 42
-1.0
 53
0.00013888888889
  3
ME10_DIM_13
100
AcDbAlignedDimension
 13
-41.92852050781252
 23
-33.05495819862115
 33
0.0
 14
-55.64852050781252
 24
-33.05495819862115
 34
0.0
100
AcDbRotatedDimension
  0
INSERT
  5
D9
330
79
100
AcDbEntity
  8
1
100
AcDbBlockReference
  2
*D11
 10
0.0
 20
0.0
 30
0.0
  0
INSERT
  5
E1
330
79
100
AcDbEntity
  8
1
100
AcDbBlockReference
  2
*D12
 10
0.0
 20
0.0
 30
0.0
  0
ENDBLK
  5
7C
330
79
100
AcDbEntity
  8
0
100
AcDbBlockEnd
  0
BLOCK
  5
7E
330
7D
100
AcDbEntity
  8
0
100
AcDbBlockBegin
  2
_rahmen
 70
     0
 10
-42.70821969616969
 20
-314.224989179649
 30
0.0
  3
_rahmen
  1

  0
POINT
  5
E2
330
7D
100
AcDbEntity
  8
1
 62
     3
 60
     1
100
AcDbPoint
 10
-42.70821969616975
 20
-309.2249891796495
 30
0.0
  0
LINE
  5
E3
330
7D
100
AcDbEntity
  8
1
  6
Continuous
 62
     6
100
AcDbLine
 10
-42.70821969617015
 20
-300.7249891796496
 30
0.0
 11
-42.70821969616975
 21
-309.2249891796495
 31
0.0
  0
LINE
  5
E4
330
7D
100
AcDbEntity
  8
1
  6
Continuous
 62
     6
100
AcDbLine
 10
-42.7082196961679
 20
-283.7249891796496
 30
0.0
 11
-42.70821969617015
 21
-300.7249891796496
 31
0.0
  0
LINE
  5
E5
330
7D
100
AcDbEntity
  8
1
  6
Continuous
 62
     6
100
AcDbLine
 10
-135.8530242229197
 20
-309.2249891796496
 30
0.0
 11
-42.70821969616975
 21
-309.2249891796495
 31
0.0
  0
LINE
  5
E6
330
7D
100
AcDbEntity
  8
1
  6
Continuous
 62
     7
100
AcDbLine
 10
-79.8266279778472
 20
-292.2249891796496
 30
0.0
 11
-79.8266279778472
 21
-300.7249891796496
 31
0.0
  0
LINE
  5
E7
330
7D
100
AcDbEntity
  8
1
  6
Continuous
 62
     6
100
AcDbLine
 10
-42.70821969617015
 20
-300.7249891796496
 30
0.0
 11
-135.8530242229197
 21
-300.7249891796496
 31
0.0
  0
LINE
  5
E8
330
7D
100
AcDbEntity
  8
1
  6
Continuous
 62
     7
100
AcDbLine
 10
-79.8266279778472
 20
-283.7249891796496
 30
0.0
 11
-79.8266279778472
 21
-292.2249891796496
 31
0.0
  0
LINE
  5
E9
330
7D
100
AcDbEntity
  8
1
  6
Continuous
 62
     6
100
AcDbLine
 10
-42.70821969616975
 20
-251.8249891796489
 30
0.0
 11
-42.7082196961679
 21
-283.7249891796496
 31
0.0
  0
LINE
  5
EA
330
7D
100
AcDbEntity
  8
1
  6
DOT_CENTER
 62
     2
100
AcDbLine
 10
-168.2663693363571
 20
-288.0999891796497
 30
0.0
 11
-162.7663693363571
 21
-288.0999891796497
 31
0.0
  0
LINE
  5
EB
330
7D
100
AcDbEntity
  8
1
  6
PHANTOM
 62
     2
100
AcDbLine
 10
-159.5163693363571
 20
-285.3499891796496
 30
0.0
 11
-159.5163693363571
 21
-290.8499891796496
 31
0.0
  0
LINE
  5
EC
330
7D
100
AcDbEntity
  8
1
  6
PHANTOM
 62
     2
100
AcDbLine
 10
-156.7663693363571
 20
-288.0999891796497
 30
0.0
 11
-162.2663693363571
 21
-288.0999891796497
 31
0.0
  0
LINE
  5
ED
330
7D
100
AcDbEntity
  8
1
  6
Continuous
 62
     6
100
AcDbLine
 10
-172.2530242229196
 20
-283.7249891796496
 30
0.0
 11
-42.7082196961679
 21
-283.7249891796496
 31
0.0
  0
LINE
  5
EE
330
7D
100
AcDbEntity
  8
1
  6
Continuous
 62
     7
100
AcDbLine
 10
-154.0530242229197
 20
-304.9749891796495
 30
0.0
 11
-135.8530242229197
 21
-304.9749891796495
 31
0.0
  0
LINE
  5
EF
330
7D
100
AcDbEntity
  8
1
  6
Continuous
 62
     6
100
AcDbLine
 10
-154.0530242229197
 20
-309.2249891796495
 30
0.0
 11
-172.2530242229196
 21
-309.2249891796496
 31
0.0
  0
LINE
  5
F0
330
7D
100
AcDbEntity
  8
1
  6
Continuous
 62
     7
100
AcDbLine
 10
-154.0530242229197
 20
-304.9749891796495
 30
0.0
 11
-154.0530242229197
 21
-309.2249891796495
 31
0.0
  0
LINE
  5
F1
330
7D
100
AcDbEntity
  8
1
  6
Continuous
 62
     6
100
AcDbLine
 10
-135.8530242229197
 20
-304.9749891796495
 30
0.0
 11
-135.8530242229197
 21
-309.2249891796496
 31
0.0
  0
LINE
  5
F2
330
7D
100
AcDbEntity
  8
1
  6
Continuous
 62
     6
100
AcDbLine
 10
-172.2530242229196
 20
-304.9749891796496
 30
0.0
 11
-172.2530242229196
 21
-309.2249891796496
 31
0.0
  0
LINE
  5
F3
330
7D
100
AcDbEntity
  8
1
  6
Continuous
 62
     7
100
AcDbLine
 10
-172.2530242229196
 20
-304.9749891796496
 30
0.0
 11
-154.0530242229197
 21
-304.9749891796495
 31
0.0
  0
LINE
  5
F4
330
7D
100
AcDbEntity
  8
1
  6
Continuous
 62
     2
100
AcDbLine
 10
-163.0163693363571
 20
-285.5999891796497
 30
0.0
 11
-163.0163693363571
 21
-290.5999891796497
 31
0.0
  0
LINE
  5
F5
330
7D
100
AcDbEntity
  8
1
  6
Continuous
 62
     2
100
AcDbLine
 10
-163.0163693363571
 20
-290.5999891796497
 30
0.0
 11
-168.0163693363571
 21
-289.3499891796497
 31
0.0
  0
LINE
  5
F6
330
7D
100
AcDbEntity
  8
1
  6
Continuous
 62
     2
100
AcDbLine
 10
-168.0163693363571
 20
-289.3499891796497
 30
0.0
 11
-168.0163693363571
 21
-286.8499891796497
 31
0.0
  0
LINE
  5
F7
330
7D
100
AcDbEntity
  8
1
  6
Continuous
 62
     2
100
AcDbLine
 10
-168.0163693363571
 20
-286.8499891796497
 30
0.0
 11
-163.0163693363571
 21
-285.5999891796497
 31
0.0
  0
LINE
  5
F8
330
7D
100
AcDbEntity
  8
1
  6
Continuous
 62
     6
100
AcDbLine
 10
-135.8530242229197
 20
-309.2249891796496
 30
0.0
 11
-136.2082196961697
 21
-309.2249891796495
 31
0.0
  0
LINE
  5
F9
330
7D
100
AcDbEntity
  8
1
  6
Continuous
 62
     6
100
AcDbLine
 10
-135.8530242229197
 20
-292.2249891796496
 30
0.0
 11
-135.8530242229197
 21
-304.9749891796495
 31
0.0
  0
LINE
  5
FA
330
7D
100
AcDbEntity
  8
1
  6
Continuous
 62
     6
100
AcDbLine
 10
-172.2530242229196
 20
-292.2249891796496
 30
0.0
 11
-172.2530242229196
 21
-304.9749891796496
 31
0.0
  0
LINE
  5
FB
330
7D
100
AcDbEntity
  8
1
  6
Continuous
 62
     7
100
AcDbLine
 10
-172.2530242229196
 20
-292.2249891796496
 30
0.0
 11
-135.8530242229197
 21
-292.2249891796496
 31
0.0
  0
LINE
  5
FC
330
7D
100
AcDbEntity
  8
1
  6
Continuous
 62
     6
100
AcDbLine
 10
-136.2082196961697
 20
-309.2249891796495
 30
0.0
 11
-154.0530242229197
 21
-309.2249891796495
 31
0.0
  0
LINE
  5
FD
102
{ACAD_REACTORS
330
221
330
222
102
}
330
7D
100
AcDbEntity
  8
0
  6
Continuous
 62
     2
100
AcDbLine
 10
-164.7383982807728
 20
-297.1524744234375
 30
0.0
 11
-164.7383982807728
 21
-296.5469391349307
 31
0.0
  0
LINE
  5
FE
102
{ACAD_REACTORS
330
221
330
222
102
}
330
7D
100
AcDbEntity
  8
0
  6
Continuous
 62
     2
100
AcDbLine
 10
-164.7383982807728
 20
-299.9526090300687
 30
0.0
 11
-164.7383982807728
 21
-299.3707576233736
 31
0.0
  0
LINE
  5
FF
102
{ACAD_REACTORS
330
223
330
224
102
}
330
7D
100
AcDbEntity
  8
0
  6
Continuous
 62
     2
100
AcDbLine
 10
-142.1089118452937
 20
-299.6629449619458
 30
0.0
 11
-142.1089118452937
 21
-301.9314891796332
 31
0.0
  0
LINE
  5
100
102
{ACAD_REACTORS
330
223
330
224
102
}
330
7D
100
AcDbEntity
  8
0
  6
Continuous
 62
     2
100
AcDbLine
 10
-143.4899656242812
 20
-298.8776796558227
 30
0.0
 11
-140.1050201056526
 21
-298.8776796558221
 31
0.0
  0
LINE
  5
101
102
{ACAD_REACTORS
330
223
330
224
102
}
330
7D
100
AcDbEntity
  8
0
  6
Continuous
 62
     2
100
AcDbLine
 10
-140.1050201056526
 20
-299.6629449619458
 30
0.0
 11
-140.1050201056526
 21
-298.8776796558221
 31
0.0
  0
LINE
  5
102
102
{ACAD_REACTORS
330
223
330
224
102
}
330
7D
100
AcDbEntity
  8
0
  6
Continuous
 62
     2
100
AcDbLine
 10
-140.916119143126
 20
-299.6629449619458
 30
0.0
 11
-140.1050201056526
 21
-299.6629449619458
 31
0.0
  0
LINE
  5
103
102
{ACAD_REACTORS
330
223
330
224
102
}
330
7D
100
AcDbEntity
  8
0
  6
Continuous
 62
     2
100
AcDbLine
 10
-140.916119143126
 20
-301.9314891796332
 30
0.0
 11
-140.916119143126
 21
-299.6629449619458
 31
0.0
  0
LINE
  5
104
102
{ACAD_REACTORS
330
223
330
224
102
}
330
7D
100
AcDbEntity
  8
0
  6
Continuous
 62
     2
100
AcDbLine
 10
-142.1089118452937
 20
-301.9314891796332
 30
0.0
 11
-140.916119143126
 21
-301.9314891796332
 31
0.0
  0
LINE
  5
105
102
{ACAD_REACTORS
330
219
330
21A
102
}
330
7D
100
AcDbEntity
  8
0
  6
Continuous
 62
     2
100
AcDbLine
 10
-142.8055027833582
 20
-295.5184891796478
 30
0.0
 11
-144.2082270011074
 21
-295.5184891796478
 31
0.0
  0
LINE
  5
106
102
{ACAD_REACTORS
330
219
330
21A
102
}
330
7D
100
AcDbEntity
  8
0
  6
Continuous
 62
     2
100
AcDbLine
 10
-142.8055027833582
 20
-295.5184891796478
 30
0.0
 11
-142.2043352614663
 21
-296.1983125012033
 31
0.0
  0
LINE
  5
107
102
{ACAD_REACTORS
330
219
330
21A
102
}
330
7D
100
AcDbEntity
  8
0
  6
Continuous
 62
     2
100
AcDbLine
 10
-142.2043352614663
 20
-296.1983125012033
 30
0.0
 11
-141.6031677395735
 21
-295.5184891796478
 31
0.0
  0
LINE
  5
108
102
{ACAD_REACTORS
330
219
330
21A
102
}
330
7D
100
AcDbEntity
  8
0
  6
Continuous
 62
     2
100
AcDbLine
 10
-141.5029731525929
 20
-296.991439709684
 30
0.0
 11
-140.2004435218263
 21
-295.5184891796478
 31
0.0
  0
LINE
  5
109
102
{ACAD_REACTORS
330
219
330
21A
102
}
330
7D
100
AcDbEntity
  8
0
  6
Continuous
 62
     2
100
AcDbLine
 10
-141.5029731525929
 20
-296.991439709684
 30
0.0
 11
-140.1050201056526
 21
-298.5722987034589
 31
0.0
  0
LINE
  5
10A
102
{ACAD_REACTORS
330
219
330
21A
102
}
330
7D
100
AcDbEntity
  8
0
  6
Continuous
 62
     2
100
AcDbLine
 10
-141.5077443234009
 20
-298.5722987034589
 30
0.0
 11
-140.1050201056526
 21
-298.5722987034589
 31
0.0
  0
LINE
  5
10B
102
{ACAD_REACTORS
330
219
330
21A
102
}
330
7D
100
AcDbEntity
  8
0
  6
Continuous
 62
     2
100
AcDbLine
 10
-142.2043352614663
 20
-297.7845669181652
 30
0.0
 11
-141.5077443234009
 21
-298.5722987034589
 31
0.0
  0
LINE
  5
10C
102
{ACAD_REACTORS
330
217
330
218
102
}
330
7D
100
AcDbEntity
  8
0
  6
Continuous
 62
     2
100
AcDbLine
 10
-145.66343409775
 20
-295.5184891796478
 30
0.0
 11
-144.4229296874971
 21
-295.5184891796478
 31
0.0
  0
LINE
  5
10D
102
{ACAD_REACTORS
330
217
330
218
102
}
330
7D
100
AcDbEntity
  8
0
  6
Continuous
 62
     2
100
AcDbLine
 10
-144.4229296874971
 20
-295.5184891796478
 30
0.0
 11
-144.4229296874971
 21
-298.5722987034589
 31
0.0
  0
LINE
  5
10E
102
{ACAD_REACTORS
330
217
330
218
102
}
330
7D
100
AcDbEntity
  8
0
  6
Continuous
 62
     2
100
AcDbLine
 10
-145.66343409775
 20
-298.5722987034589
 30
0.0
 11
-145.66343409775
 21
-295.5184891796478
 31
0.0
  0
LINE
  5
10F
102
{ACAD_REACTORS
330
215
330
216
102
}
330
7D
100
AcDbEntity
  8
0
  6
Continuous
 62
     2
100
AcDbLine
 10
-147.1317441802876
 20
-300.7099653701088
 30
0.0
 11
-146.8315789430953
 21
-299.9421504041221
 31
0.0
  0
LINE
  5
110
102
{ACAD_REACTORS
330
215
330
216
102
}
330
7D
100
AcDbEntity
  8
0
  6
Continuous
 62
     2
100
AcDbLine
 10
-147.6092797849085
 20
-301.9314891796332
 30
0.0
 11
-147.3977997314327
 21
-301.3905286354154
 31
0.0
  0
LINE
  5
111
102
{ACAD_REACTORS
330
215
330
216
102
}
330
7D
100
AcDbEntity
  8
0
  6
Continuous
 62
     2
100
AcDbLine
 10
-147.4518311482222
 20
-298.8776796558221
 30
0.0
 11
-148.8497841951614
 21
-301.9314891796332
 31
0.0
  0
LINE
  5
112
102
{ACAD_REACTORS
330
215
330
216
102
}
330
7D
100
AcDbEntity
  8
0
  6
Continuous
 62
     2
100
AcDbLine
 10
-144.8133736910291
 20
-301.9314891796332
 30
0.0
 11
-146.053878101283
 21
-301.9314891796332
 31
0.0
  0
LINE
  5
113
102
{ACAD_REACTORS
330
215
330
216
102
}
330
7D
100
AcDbEntity
  8
0
  6
Continuous
 62
     2
100
AcDbLine
 10
-147.3977997314327
 20
-301.3905286354154
 30
0.0
 11
-146.2653581547588
 21
-301.3905286354154
 31
0.0
  0
LINE
  5
114
102
{ACAD_REACTORS
330
213
330
214
102
}
330
7D
100
AcDbEntity
  8
0
  6
Continuous
 62
     2
100
AcDbLine
 10
-151.0072963343437
 20
-299.6629449619458
 30
0.0
 11
-150.196197296869
 21
-299.6629449619458
 31
0.0
  0
LINE
  5
115
102
{ACAD_REACTORS
330
213
330
214
102
}
330
7D
100
AcDbEntity
  8
0
  6
Continuous
 62
     2
100
AcDbLine
 10
-148.19230555723
 20
-298.8776796558221
 30
0.0
 11
-151.0072963343437
 21
-298.8776796558221
 31
0.0
  0
LINE
  5
116
102
{ACAD_REACTORS
330
213
330
214
102
}
330
7D
100
AcDbEntity
  8
0
  6
Continuous
 62
     2
100
AcDbLine
 10
-148.19230555723
 20
-299.6629449619458
 30
0.0
 11
-148.19230555723
 21
-298.8776796558221
 31
0.0
  0
LINE
  5
117
102
{ACAD_REACTORS
330
213
330
214
102
}
330
7D
100
AcDbEntity
  8
0
  6
Continuous
 62
     2
100
AcDbLine
 10
-149.0034045947026
 20
-299.6629449619458
 30
0.0
 11
-148.19230555723
 21
-299.6629449619458
 31
0.0
  0
LINE
  5
118
102
{ACAD_REACTORS
330
213
330
214
102
}
330
7D
100
AcDbEntity
  8
0
  6
Continuous
 62
     2
100
AcDbLine
 10
-149.0034045947026
 20
-301.9314891796332
 30
0.0
 11
-149.0034045947026
 21
-299.6629449619458
 31
0.0
  0
LINE
  5
119
102
{ACAD_REACTORS
330
211
330
212
102
}
330
7D
100
AcDbEntity
  8
0
  6
Continuous
 62
     2
100
AcDbLine
 10
-148.3352897506046
 20
-298.5722987034589
 30
0.0
 11
-148.3352897506046
 21
-297.2635231932542
 31
0.0
  0
LINE
  5
11A
102
{ACAD_REACTORS
330
211
330
212
102
}
330
7D
100
AcDbEntity
  8
0
  6
Continuous
 62
     2
100
AcDbLine
 10
-149.528082452771
 20
-295.5184891796478
 30
0.0
 11
-149.528082452771
 21
-298.5722987034589
 31
0.0
  0
LINE
  5
11B
102
{ACAD_REACTORS
330
211
330
212
102
}
330
7D
100
AcDbEntity
  8
0
  6
Continuous
 62
     2
100
AcDbLine
 10
-148.3352897506046
 20
-295.5184891796478
 30
0.0
 11
-149.528082452771
 21
-295.5184891796478
 31
0.0
  0
LINE
  5
11C
102
{ACAD_REACTORS
330
211
330
212
102
}
330
7D
100
AcDbEntity
  8
0
  6
Continuous
 62
     2
100
AcDbLine
 10
-147.0947853403505
 20
-295.5184891796478
 30
0.0
 11
-147.0947853403505
 21
-296.8272646898529
 31
0.0
  0
LINE
  5
11D
102
{ACAD_REACTORS
330
20F
330
210
102
}
330
7D
100
AcDbEntity
  8
0
  6
Continuous
 62
     2
100
AcDbLine
 10
-154.7765212731907
 20
-298.8776796558221
 30
0.0
 11
-154.7765212731907
 21
-301.9314891796332
 31
0.0
  0
LINE
  5
11E
102
{ACAD_REACTORS
330
20F
330
210
102
}
330
7D
100
AcDbEntity
  8
0
  6
Continuous
 62
     2
100
AcDbLine
 10
-153.5837285710232
 20
-298.8776796558221
 30
0.0
 11
-154.7765212731907
 21
-298.8776796558221
 31
0.0
  0
LINE
  5
11F
102
{ACAD_REACTORS
330
20F
330
210
102
}
330
7D
100
AcDbEntity
  8
0
  6
Continuous
 62
     2
100
AcDbLine
 10
-152.3432241607702
 20
-301.9314891796332
 30
0.0
 11
-151.1504314586038
 21
-301.9314891796332
 31
0.0
  0
LINE
  5
120
102
{ACAD_REACTORS
330
20F
330
210
102
}
330
7D
100
AcDbEntity
  8
0
  6
Continuous
 62
     2
100
AcDbLine
 10
-154.7765212731907
 20
-301.9314891796332
 30
0.0
 11
-153.5837285710232
 21
-301.9314891796332
 31
0.0
  0
LINE
  5
121
102
{ACAD_REACTORS
330
21F
330
220
102
}
330
7D
100
AcDbEntity
  8
0
  6
Continuous
 62
     2
100
AcDbLine
 10
-151.1025688196316
 20
-296.6963871388324
 30
0.0
 11
-151.1025688196316
 21
-296.2165027850907
 31
0.0
  0
LINE
  5
122
102
{ACAD_REACTORS
330
21F
330
220
102
}
330
7D
100
AcDbEntity
  8
0
  6
Continuous
 62
     2
100
AcDbLine
 10
-149.766640993204
 20
-296.6963871388324
 30
0.0
 11
-151.1025688196316
 21
-296.6963871388324
 31
0.0
  0
LINE
  5
123
102
{ACAD_REACTORS
330
21F
330
220
102
}
330
7D
100
AcDbEntity
  8
0
  6
Continuous
 62
     2
100
AcDbLine
 10
-149.766640993204
 20
-297.3944007442748
 30
0.0
 11
-149.766640993204
 21
-296.6963871388324
 31
0.0
  0
LINE
  5
124
102
{ACAD_REACTORS
330
21F
330
220
102
}
330
7D
100
AcDbEntity
  8
0
  6
Continuous
 62
     2
100
AcDbLine
 10
-151.1025688196316
 20
-297.3944007442748
 30
0.0
 11
-149.766640993204
 21
-297.3944007442748
 31
0.0
  0
LINE
  5
125
102
{ACAD_REACTORS
330
20D
330
20E
102
}
330
7D
100
AcDbEntity
  8
0
  6
Continuous
 62
     2
100
AcDbLine
 10
-154.5855235099585
 20
-295.5184891796478
 30
0.0
 11
-154.5855235099585
 21
-298.5722987034589
 31
0.0
  0
LINE
  5
126
102
{ACAD_REACTORS
330
20D
330
20E
102
}
330
7D
100
AcDbEntity
  8
0
  6
Continuous
 62
     2
100
AcDbLine
 10
-154.5855235099585
 20
-298.5722987034589
 30
0.0
 11
-155.778316212125
 21
-298.5722987034589
 31
0.0
  0
LINE
  5
127
102
{ACAD_REACTORS
330
20D
330
20E
102
}
330
7D
100
AcDbEntity
  8
0
  6
Continuous
 62
     2
100
AcDbLine
 10
-155.778316212125
 20
-298.5722987034589
 30
0.0
 11
-155.778316212125
 21
-297.4380265946152
 31
0.0
  0
LINE
  5
128
102
{ACAD_REACTORS
330
20D
330
20E
102
}
330
7D
100
AcDbEntity
  8
0
  6
Continuous
 62
     2
100
AcDbLine
 10
-156.8279737900324
 20
-298.5722987034589
 30
0.0
 11
-158.020766492199
 21
-298.5722987034589
 31
0.0
  0
LINE
  5
129
102
{ACAD_REACTORS
330
20D
330
20E
102
}
330
7D
100
AcDbEntity
  8
0
  6
Continuous
 62
     2
100
AcDbLine
 10
-158.020766492199
 20
-295.5184891796478
 30
0.0
 11
-156.8279737900324
 21
-295.5184891796478
 31
0.0
  0
LINE
  5
12A
102
{ACAD_REACTORS
330
20D
330
20E
102
}
330
7D
100
AcDbEntity
  8
0
  6
Continuous
 62
     2
100
AcDbLine
 10
-156.8279737900324
 20
-295.5184891796478
 30
0.0
 11
-156.8279737900324
 21
-296.5873225129824
 31
0.0
  0
LINE
  5
12B
102
{ACAD_REACTORS
330
20D
330
20E
102
}
330
7D
100
AcDbEntity
  8
0
  6
Continuous
 62
     2
100
AcDbLine
 10
-156.8279737900324
 20
-296.5873225129824
 30
0.0
 11
-155.778316212125
 21
-296.5873225129824
 31
0.0
  0
LINE
  5
12C
102
{ACAD_REACTORS
330
21B
330
21C
102
}
330
7D
100
AcDbEntity
  8
0
  6
Continuous
 62
     2
100
AcDbLine
 10
-159.9769465237527
 20
-296.1815950250878
 30
0.0
 11
-159.6596514622107
 21
-296.1815950250878
 31
0.0
  0
LINE
  5
12D
102
{ACAD_REACTORS
330
21B
330
21C
102
}
330
7D
100
AcDbEntity
  8
0
  6
Continuous
 62
     2
100
AcDbLine
 10
-159.9769465237527
 20
-296.8873226744301
 30
0.0
 11
-159.6596514622107
 21
-296.8873226744301
 31
0.0
  0
LINE
  5
12E
102
{ACAD_REACTORS
330
21B
330
21C
102
}
330
7D
100
AcDbEntity
  8
0
  6
Continuous
 62
     2
100
AcDbLine
 10
-161.2174509340067
 20
-295.5184891796478
 30
0.0
 11
-161.2174509340067
 21
-298.5722987034589
 31
0.0
  0
LINE
  5
12F
102
{ACAD_REACTORS
330
21B
330
21C
102
}
330
7D
100
AcDbEntity
  8
0
  6
Continuous
 62
     2
100
AcDbLine
 10
-161.2174509340067
 20
-295.5184891796478
 30
0.0
 11
-159.2181789359723
 21
-295.5184891796478
 31
0.0
  0
LINE
  5
130
102
{ACAD_REACTORS
330
21B
330
21C
102
}
330
7D
100
AcDbEntity
  8
0
  6
Continuous
 62
     2
100
AcDbLine
 10
-159.9769465237527
 20
-297.6292204623152
 30
0.0
 11
-159.2181789359723
 21
-297.6292204623152
 31
0.0
  0
LINE
  5
131
102
{ACAD_REACTORS
330
221
330
222
102
}
330
7D
100
AcDbEntity
  8
0
  6
Continuous
 62
     2
100
AcDbLine
 10
-167.3139469673034
 20
-296.5467616582825
 30
0.0
 11
-167.3139469673034
 21
-300.9032167009996
 31
0.0
  0
LINE
  5
132
102
{ACAD_REACTORS
330
221
330
222
102
}
330
7D
100
AcDbEntity
  8
0
  6
Continuous
 62
     2
100
AcDbLine
 10
-166.9982300442278
 20
-296.2310447352064
 30
0.0
 11
-165.5223967832182
 21
-296.2310447352064
 31
0.0
  0
LINE
  5
133
102
{ACAD_REACTORS
330
221
330
222
102
}
330
7D
100
AcDbEntity
  8
0
  6
Continuous
 62
     2
100
AcDbLine
 10
-165.2066798601416
 20
-297.1507862773431
 30
0.0
 11
-165.2066798601416
 21
-296.5467616582825
 31
0.0
  0
LINE
  5
134
102
{ACAD_REACTORS
330
221
330
222
102
}
330
7D
100
AcDbEntity
  8
0
  6
Continuous
 62
     2
100
AcDbLine
 10
-165.2066798601416
 20
-300.9032167009996
 30
0.0
 11
-165.2066798601416
 21
-299.372445769468
 31
0.0
  0
LINE
  5
135
102
{ACAD_REACTORS
330
221
330
222
102
}
330
7D
100
AcDbEntity
  8
0
  6
Continuous
 62
     2
100
AcDbLine
 10
-162.1188126302574
 20
-301.9314891796332
 30
0.0
 11
-167.5921247209743
 21
-301.9314891796332
 31
0.0
  0
LINE
  5
136
102
{ACAD_REACTORS
330
221
330
222
102
}
330
7D
100
AcDbEntity
  8
0
  6
Continuous
 62
     2
100
AcDbLine
 10
-161.6945680148735
 20
-295.9427337950498
 30
0.0
 11
-161.6945680148735
 21
-301.50724456425
 31
0.0
  0
LINE
  5
137
102
{ACAD_REACTORS
330
221
330
222
102
}
330
7D
100
AcDbEntity
  8
0
  6
Continuous
 62
     2
100
AcDbLine
 10
-167.5921247209743
 20
-295.5184891796659
 30
0.0
 11
-162.1188126302574
 21
-295.5184891796659
 31
0.0
  0
LINE
  5
138
102
{ACAD_REACTORS
330
221
330
222
102
}
330
7D
100
AcDbEntity
  8
0
  6
Continuous
 62
     2
100
AcDbLine
 10
-168.0163693363571
 20
-295.9427337950498
 30
0.0
 11
-168.0163693363571
 21
-301.50724456425
 31
0.0
  0
LINE
  5
139
102
{ACAD_REACTORS
330
221
330
222
102
}
330
7D
100
AcDbEntity
  8
0
  6
Continuous
 62
     2
100
AcDbLine
 10
-165.5223967832182
 20
-301.2189336240763
 30
0.0
 11
-166.9982300442278
 21
-301.2189336240763
 31
0.0
  0
LINE
  5
13A
102
{ACAD_REACTORS
330
21B
330
21C
102
}
330
7D
100
AcDbEntity
  8
0
  6
Continuous
 62
     2
100
AcDbLine
 10
-159.9769465237527
 20
-298.5722987034589
 30
0.0
 11
-159.9769465237527
 21
-297.6292204623152
 31
0.0
  0
LINE
  5
13B
102
{ACAD_REACTORS
330
21B
330
21C
102
}
330
7D
100
AcDbEntity
  8
0
  6
Continuous
 62
     2
100
AcDbLine
 10
-161.2174509340067
 20
-298.5722987034589
 30
0.0
 11
-159.9769465237527
 21
-298.5722987034589
 31
0.0
  0
LINE
  5
13C
102
{ACAD_REACTORS
330
21B
330
21C
102
}
330
7D
100
AcDbEntity
  8
0
  6
Continuous
 62
     2
100
AcDbLine
 10
-159.9769465237527
 20
-296.8873226744301
 30
0.0
 11
-159.9769465237527
 21
-296.1815950250878
 31
0.0
  0
LINE
  5
13D
102
{ACAD_REACTORS
330
20D
330
20E
102
}
330
7D
100
AcDbEntity
  8
0
  6
Continuous
 62
     2
100
AcDbLine
 10
-158.020766492199
 20
-295.5184891796478
 30
0.0
 11
-158.020766492199
 21
-298.5722987034589
 31
0.0
  0
LINE
  5
13E
102
{ACAD_REACTORS
330
20D
330
20E
102
}
330
7D
100
AcDbEntity
  8
0
  6
Continuous
 62
     2
100
AcDbLine
 10
-156.8279737900324
 20
-297.4380265946152
 30
0.0
 11
-156.8279737900324
 21
-298.5722987034589
 31
0.0
  0
LINE
  5
13F
102
{ACAD_REACTORS
330
20D
330
20E
102
}
330
7D
100
AcDbEntity
  8
0
  6
Continuous
 62
     2
100
AcDbLine
 10
-155.778316212125
 20
-297.4380265946152
 30
0.0
 11
-156.8279737900324
 21
-297.4380265946152
 31
0.0
  0
LINE
  5
140
102
{ACAD_REACTORS
330
20D
330
20E
102
}
330
7D
100
AcDbEntity
  8
0
  6
Continuous
 62
     2
100
AcDbLine
 10
-155.778316212125
 20
-295.5184891796478
 30
0.0
 11
-154.5855235099585
 21
-295.5184891796478
 31
0.0
  0
LINE
  5
141
102
{ACAD_REACTORS
330
20D
330
20E
102
}
330
7D
100
AcDbEntity
  8
0
  6
Continuous
 62
     2
100
AcDbLine
 10
-155.778316212125
 20
-296.5873225129824
 30
0.0
 11
-155.778316212125
 21
-295.5184891796478
 31
0.0
  0
LINE
  5
142
102
{ACAD_REACTORS
330
21F
330
220
102
}
330
7D
100
AcDbEntity
  8
0
  6
Continuous
 62
     2
100
AcDbLine
 10
-149.766640993204
 20
-296.2165027850907
 30
0.0
 11
-149.766640993204
 21
-295.5184891796478
 31
0.0
  0
LINE
  5
143
102
{ACAD_REACTORS
330
21F
330
220
102
}
330
7D
100
AcDbEntity
  8
0
  6
Continuous
 62
     2
100
AcDbLine
 10
-152.9169607169849
 20
-295.5184891796478
 30
0.0
 11
-149.766640993204
 21
-295.5184891796478
 31
0.0
  0
LINE
  5
144
102
{ACAD_REACTORS
330
21F
330
220
102
}
330
7D
100
AcDbEntity
  8
0
  6
Continuous
 62
     2
100
AcDbLine
 10
-152.9169607169849
 20
-298.5722987034589
 30
0.0
 11
-149.766640993204
 21
-298.5722987034589
 31
0.0
  0
LINE
  5
145
102
{ACAD_REACTORS
330
21F
330
220
102
}
330
7D
100
AcDbEntity
  8
0
  6
Continuous
 62
     2
100
AcDbLine
 10
-149.766640993204
 20
-298.5722987034589
 30
0.0
 11
-149.766640993204
 21
-297.8742850980165
 31
0.0
  0
LINE
  5
146
102
{ACAD_REACTORS
330
21F
330
220
102
}
330
7D
100
AcDbEntity
  8
0
  6
Continuous
 62
     2
100
AcDbLine
 10
-149.766640993204
 20
-297.8742850980165
 30
0.0
 11
-151.1025688196316
 21
-297.8742850980165
 31
0.0
  0
LINE
  5
147
102
{ACAD_REACTORS
330
21F
330
220
102
}
330
7D
100
AcDbEntity
  8
0
  6
Continuous
 62
     2
100
AcDbLine
 10
-151.1025688196316
 20
-297.8742850980165
 30
0.0
 11
-151.1025688196316
 21
-297.3944007442748
 31
0.0
  0
LINE
  5
148
102
{ACAD_REACTORS
330
21F
330
220
102
}
330
7D
100
AcDbEntity
  8
0
  6
Continuous
 62
     2
100
AcDbLine
 10
-151.1025688196316
 20
-296.2165027850907
 30
0.0
 11
-149.766640993204
 21
-296.2165027850907
 31
0.0
  0
LINE
  5
149
102
{ACAD_REACTORS
330
20F
330
210
102
}
330
7D
100
AcDbEntity
  8
0
  6
Continuous
 62
     2
100
AcDbLine
 10
-153.5837285710232
 20
-301.9314891796332
 30
0.0
 11
-153.5837285710232
 21
-300.6227136694287
 31
0.0
  0
LINE
  5
14A
102
{ACAD_REACTORS
330
20F
330
210
102
}
330
7D
100
AcDbEntity
  8
0
  6
Continuous
 62
     2
100
AcDbLine
 10
-153.5837285710232
 20
-300.6227136694287
 30
0.0
 11
-152.3432241607702
 21
-301.9314891796332
 31
0.0
  0
LINE
  5
14B
102
{ACAD_REACTORS
330
20F
330
210
102
}
330
7D
100
AcDbEntity
  8
0
  6
Continuous
 62
     2
100
AcDbLine
 10
-151.1504314586038
 20
-301.9314891796332
 30
0.0
 11
-151.1504314586038
 21
-298.8776796558221
 31
0.0
  0
LINE
  5
14C
102
{ACAD_REACTORS
330
20F
330
210
102
}
330
7D
100
AcDbEntity
  8
0
  6
Continuous
 62
     2
100
AcDbLine
 10
-151.1504314586038
 20
-298.8776796558221
 30
0.0
 11
-152.3432241607702
 21
-298.8776796558221
 31
0.0
  0
LINE
  5
14D
102
{ACAD_REACTORS
330
20F
330
210
102
}
330
7D
100
AcDbEntity
  8
0
  6
Continuous
 62
     2
100
AcDbLine
 10
-152.3432241607702
 20
-298.8776796558221
 30
0.0
 11
-152.3432241607702
 21
-300.1864551660273
 31
0.0
  0
LINE
  5
14E
102
{ACAD_REACTORS
330
20F
330
210
102
}
330
7D
100
AcDbEntity
  8
0
  6
Continuous
 62
     2
100
AcDbLine
 10
-152.3432241607702
 20
-300.1864551660273
 30
0.0
 11
-153.5837285710232
 21
-298.8776796558221
 31
0.0
  0
LINE
  5
14F
102
{ACAD_REACTORS
330
211
330
212
102
}
330
7D
100
AcDbEntity
  8
0
  6
Continuous
 62
     2
100
AcDbLine
 10
-148.3352897506046
 20
-297.2635231932542
 30
0.0
 11
-147.0947853403505
 21
-298.5722987034589
 31
0.0
  0
LINE
  5
150
102
{ACAD_REACTORS
330
211
330
212
102
}
330
7D
100
AcDbEntity
  8
0
  6
Continuous
 62
     2
100
AcDbLine
 10
-147.0947853403505
 20
-298.5722987034589
 30
0.0
 11
-145.9019926381839
 21
-298.5722987034589
 31
0.0
  0
LINE
  5
151
102
{ACAD_REACTORS
330
211
330
212
102
}
330
7D
100
AcDbEntity
  8
0
  6
Continuous
 62
     2
100
AcDbLine
 10
-145.9019926381839
 20
-298.5722987034589
 30
0.0
 11
-145.9019926381839
 21
-295.5184891796478
 31
0.0
  0
LINE
  5
152
102
{ACAD_REACTORS
330
211
330
212
102
}
330
7D
100
AcDbEntity
  8
0
  6
Continuous
 62
     2
100
AcDbLine
 10
-145.9019926381839
 20
-295.5184891796478
 30
0.0
 11
-147.0947853403505
 21
-295.5184891796478
 31
0.0
  0
LINE
  5
153
102
{ACAD_REACTORS
330
211
330
212
102
}
330
7D
100
AcDbEntity
  8
0
  6
Continuous
 62
     2
100
AcDbLine
 10
-147.0947853403505
 20
-296.8272646898529
 30
0.0
 11
-148.3352897506046
 21
-295.5184891796478
 31
0.0
  0
LINE
  5
154
102
{ACAD_REACTORS
330
211
330
212
102
}
330
7D
100
AcDbEntity
  8
0
  6
Continuous
 62
     2
100
AcDbLine
 10
-149.528082452771
 20
-298.5722987034589
 30
0.0
 11
-148.3352897506046
 21
-298.5722987034589
 31
0.0
  0
LINE
  5
155
102
{ACAD_REACTORS
330
213
330
214
102
}
330
7D
100
AcDbEntity
  8
0
  6
Continuous
 62
     2
100
AcDbLine
 10
-151.0072963343437
 20
-298.8776796558221
 30
0.0
 11
-151.0072963343437
 21
-299.6629449619458
 31
0.0
  0
LINE
  5
156
102
{ACAD_REACTORS
330
213
330
214
102
}
330
7D
100
AcDbEntity
  8
0
  6
Continuous
 62
     2
100
AcDbLine
 10
-150.196197296869
 20
-299.6629449619458
 30
0.0
 11
-150.196197296869
 21
-301.9314891796332
 31
0.0
  0
LINE
  5
157
102
{ACAD_REACTORS
330
213
330
214
102
}
330
7D
100
AcDbEntity
  8
0
  6
Continuous
 62
     2
100
AcDbLine
 10
-150.196197296869
 20
-301.9314891796332
 30
0.0
 11
-149.0034045947026
 21
-301.9314891796332
 31
0.0
  0
LINE
  5
158
102
{ACAD_REACTORS
330
215
330
216
102
}
330
7D
100
AcDbEntity
  8
0
  6
Continuous
 62
     2
100
AcDbLine
 10
-146.053878101283
 20
-301.9314891796332
 30
0.0
 11
-146.2653581547588
 21
-301.3905286354154
 31
0.0
  0
LINE
  5
159
102
{ACAD_REACTORS
330
215
330
216
102
}
330
7D
100
AcDbEntity
  8
0
  6
Continuous
 62
     2
100
AcDbLine
 10
-146.2113267379694
 20
-298.8776796558221
 30
0.0
 11
-144.8133736910291
 21
-301.9314891796332
 31
0.0
  0
LINE
  5
15A
102
{ACAD_REACTORS
330
215
330
216
102
}
330
7D
100
AcDbEntity
  8
0
  6
Continuous
 62
     2
100
AcDbLine
 10
-147.4518311482222
 20
-298.8776796558221
 30
0.0
 11
-146.2113267379694
 21
-298.8776796558221
 31
0.0
  0
LINE
  5
15B
102
{ACAD_REACTORS
330
215
330
216
102
}
330
7D
100
AcDbEntity
  8
0
  6
Continuous
 62
     2
100
AcDbLine
 10
-148.8497841951614
 20
-301.9314891796332
 30
0.0
 11
-147.6092797849085
 21
-301.9314891796332
 31
0.0
  0
LINE
  5
15C
102
{ACAD_REACTORS
330
215
330
216
102
}
330
7D
100
AcDbEntity
  8
0
  6
Continuous
 62
     2
100
AcDbLine
 10
-147.1317441802876
 20
-300.7099653701088
 30
0.0
 11
-146.5314137059051
 21
-300.7099653701088
 31
0.0
  0
LINE
  5
15D
102
{ACAD_REACTORS
330
215
330
216
102
}
330
7D
100
AcDbEntity
  8
0
  6
Continuous
 62
     2
100
AcDbLine
 10
-146.5314137059051
 20
-300.7099653701088
 30
0.0
 11
-146.8315789430953
 21
-299.9421504041221
 31
0.0
  0
LINE
  5
15E
102
{ACAD_REACTORS
330
217
330
218
102
}
330
7D
100
AcDbEntity
  8
0
  6
Continuous
 62
     2
100
AcDbLine
 10
-144.4229296874971
 20
-298.5722987034589
 30
0.0
 11
-145.66343409775
 21
-298.5722987034589
 31
0.0
  0
LINE
  5
15F
102
{ACAD_REACTORS
330
219
330
21A
102
}
330
7D
100
AcDbEntity
  8
0
  6
Continuous
 62
     2
100
AcDbLine
 10
-142.9009261995321
 20
-298.5722987034589
 30
0.0
 11
-144.3036504172802
 21
-298.5722987034589
 31
0.0
  0
LINE
  5
160
102
{ACAD_REACTORS
330
219
330
21A
102
}
330
7D
100
AcDbEntity
  8
0
  6
Continuous
 62
     2
100
AcDbLine
 10
-142.9009261995321
 20
-298.5722987034589
 30
0.0
 11
-142.2043352614663
 21
-297.7845669181652
 31
0.0
  0
LINE
  5
161
102
{ACAD_REACTORS
330
219
330
21A
102
}
330
7D
100
AcDbEntity
  8
0
  6
Continuous
 62
     2
100
AcDbLine
 10
-141.6031677395735
 20
-295.5184891796478
 30
0.0
 11
-140.2004435218263
 21
-295.5184891796478
 31
0.0
  0
LINE
  5
162
102
{ACAD_REACTORS
330
219
330
21A
102
}
330
7D
100
AcDbEntity
  8
0
  6
Continuous
 62
     2
100
AcDbLine
 10
-144.2082270011074
 20
-295.5184891796478
 30
0.0
 11
-142.9056973703399
 21
-296.991439709684
 31
0.0
  0
LINE
  5
163
102
{ACAD_REACTORS
330
219
330
21A
102
}
330
7D
100
AcDbEntity
  8
0
  6
Continuous
 62
     2
100
AcDbLine
 10
-144.3036504172802
 20
-298.5722987034589
 30
0.0
 11
-142.9056973703399
 21
-296.991439709684
 31
0.0
  0
LINE
  5
164
102
{ACAD_REACTORS
330
223
330
224
102
}
330
7D
100
AcDbEntity
  8
0
  6
Continuous
 62
     2
100
AcDbLine
 10
-142.4428938019004
 20
-300.8844687714696
 30
0.0
 11
-142.4428938019004
 21
-301.7569857782729
 31
0.0
  0
LINE
  5
165
102
{ACAD_REACTORS
330
223
330
224
102
}
330
7D
100
AcDbEntity
  8
0
  6
Continuous
 62
     2
100
AcDbLine
 10
-143.2125511448618
 20
-299.6629449619458
 30
0.0
 11
-142.1089118452937
 21
-299.6629449619458
 31
0.0
  0
LINE
  5
166
102
{ACAD_REACTORS
330
225
330
226
102
}
330
7D
100
AcDbEntity
  8
0
  6
Continuous
 62
     2
100
AcDbLine
 10
-158.5455952811522
 20
-300.8844687714691
 30
0.0
 11
-158.5455952811522
 21
-301.7569857782724
 31
0.0
  0
LINE
  5
167
102
{ACAD_REACTORS
330
225
330
226
102
}
330
7D
100
AcDbEntity
  8
0
  6
Continuous
 62
     2
100
AcDbLine
 10
-158.5455952811522
 20
-299.9247000639863
 30
0.0
 11
-158.5455952811522
 21
-299.052183057183
 31
0.0
  0
LINE
  5
168
330
7D
100
AcDbEntity
  8
1
  6
Continuous
 62
     7
100
AcDbLine
 10
-89.2266279778472
 20
-283.7249891796496
 30
0.0
 11
-89.2266279778472
 21
-292.2249891796496
 31
0.0
  0
LINE
  5
169
330
7D
100
AcDbEntity
  8
1
  6
Continuous
 62
     7
100
AcDbLine
 10
-109.7266279778468
 20
-283.7249891796496
 30
0.0
 11
-109.7266279778468
 21
-292.2249891796496
 31
0.0
  0
LINE
  5
16A
330
7D
100
AcDbEntity
  8
1
  6
Continuous
 62
     6
100
AcDbLine
 10
-135.8530242229197
 20
-292.2249891796496
 30
0.0
 11
-135.8530242229197
 21
-283.7249891796496
 31
0.0
  0
LINE
  5
16B
330
7D
100
AcDbEntity
  8
1
  6
Continuous
 62
     6
100
AcDbLine
 10
-172.2530242229196
 20
-292.2249891796496
 30
0.0
 11
-172.2530242229196
 21
-283.7249891796496
 31
0.0
  0
LINE
  5
16C
330
7D
100
AcDbEntity
  8
1
  6
Continuous
 62
     7
100
AcDbLine
 10
-135.8530242229197
 20
-292.2249891796496
 30
0.0
 11
-79.8266279778472
 21
-292.2249891796496
 31
0.0
  0
LINE
  5
16D
330
7D
100
AcDbEntity
  8
1
  6
Continuous
 62
     2
100
AcDbLine
 10
-179.3748863628363
 20
-309.2249891796519
 30
0.0
 11
-179.3748863628363
 21
-309.224989179649
 31
0.0
  0
LINE
  5
16E
330
7D
100
AcDbEntity
  8
1
  6
Continuous
 62
     6
100
AcDbLine
 10
-316.0415530295028
 20
-309.224989179649
 30
0.0
 11
-172.2530242229196
 21
-309.2249891796521
 31
0.0
  0
LINE
  5
16F
330
7D
100
AcDbEntity
  8
1
  6
Continuous
 62
     6
100
AcDbLine
 10
-437.7082196961694
 20
-309.224989179649
 30
0.0
 11
-437.7082196961704
 21
-22.22498917964879
 31
0.0
  0
LINE
  5
170
330
7D
100
AcDbEntity
  8
1
  6
Continuous
 62
     2
100
AcDbLine
 10
-457.7082196961705
 20
-165.724989179649
 30
0.0
 11
-457.7082196961705
 21
-314.224989179649
 31
0.0
  0
LINE
  5
171
330
7D
100
AcDbEntity
  8
1
  6
Continuous
 62
     2
100
AcDbLine
 10
-457.7082196961705
 20
-165.724989179649
 30
0.0
 11
-447.7082196961704
 21
-165.724989179649
 31
0.0
  0
LINE
  5
172
330
7D
100
AcDbEntity
  8
1
  6
Continuous
 62
     2
100
AcDbLine
 10
-457.7082196961705
 20
-17.22498917964902
 30
0.0
 11
-457.7082196961705
 21
-165.724989179649
 31
0.0
  0
LINE
  5
173
330
7D
100
AcDbEntity
  8
1
  6
Continuous
 62
     2
100
AcDbLine
 10
-227.7082196961725
 20
-17.22498917964902
 30
0.0
 11
-247.7082196961697
 21
-17.22498917964902
 31
0.0
  0
LINE
  5
174
330
7D
100
AcDbEntity
  8
1
  6
Continuous
 62
     2
100
AcDbLine
 10
-227.7082196961725
 20
-17.22498917964902
 30
0.0
 11
-227.7082196961725
 21
-21.22498917964879
 31
0.0
  0
LINE
  5
175
330
7D
100
AcDbEntity
  8
1
  6
Continuous
 62
     2
100
AcDbLine
 10
-437.7082196961704
 20
-17.22498917964902
 30
0.0
 11
-457.7082196961705
 21
-17.22498917964902
 31
0.0
  0
LINE
  5
176
330
7D
100
AcDbEntity
  8
1
  6
Continuous
 62
     2
100
AcDbLine
 10
-437.7082196961704
 20
-17.22498917964902
 30
0.0
 11
-437.7082196961704
 21
-21.22498917964879
 31
0.0
  0
LINE
  5
177
330
7D
100
AcDbEntity
  8
1
  6
Continuous
 62
     2
100
AcDbLine
 10
-384.3748863628363
 20
-17.22498917964902
 30
0.0
 11
-437.7082196961704
 21
-17.22498917964902
 31
0.0
  0
LINE
  5
178
330
7D
100
AcDbEntity
  8
1
  6
Continuous
 62
     6
100
AcDbLine
 10
-384.3748863628363
 20
-22.22498917964879
 30
0.0
 11
-316.0415530295028
 21
-22.22498917964902
 31
0.0
  0
LINE
  5
179
330
7D
100
AcDbEntity
  8
1
  6
Continuous
 62
     2
100
AcDbLine
 10
-384.3748863628363
 20
-22.22498917964879
 30
0.0
 11
-384.3748863628363
 21
-17.22498917964902
 31
0.0
  0
LINE
  5
17A
330
7D
100
AcDbEntity
  8
1
  6
Continuous
 62
     2
100
AcDbLine
 10
-316.0415530295028
 20
-17.22498917964902
 30
0.0
 11
-384.3748863628363
 21
-17.22498917964902
 31
0.0
  0
LINE
  5
17B
330
7D
100
AcDbEntity
  8
1
  6
Continuous
 62
     6
100
AcDbLine
 10
-316.0415530295028
 20
-22.22498917964902
 30
0.0
 11
-247.7082196961697
 21
-22.22498917964902
 31
0.0
  0
LINE
  5
17C
330
7D
100
AcDbEntity
  8
1
  6
Continuous
 62
     2
100
AcDbLine
 10
-316.0415530295028
 20
-22.22498917964902
 30
0.0
 11
-316.0415530295028
 21
-17.22498917964902
 31
0.0
  0
LINE
  5
17D
330
7D
100
AcDbEntity
  8
1
  6
Continuous
 62
     2
100
AcDbLine
 10
-247.7082196961697
 20
-17.22498917964902
 30
0.0
 11
-316.0415530295028
 21
-17.22498917964902
 31
0.0
  0
LINE
  5
17E
330
7D
100
AcDbEntity
  8
1
  6
Continuous
 62
     6
100
AcDbLine
 10
-247.7082196961697
 20
-22.22498917964902
 30
0.0
 11
-179.3748863628363
 21
-22.22498917964902
 31
0.0
  0
LINE
  5
17F
330
7D
100
AcDbEntity
  8
1
  6
Continuous
 62
     2
100
AcDbLine
 10
-247.7082196961697
 20
-22.22498917964902
 30
0.0
 11
-247.7082196961697
 21
-17.22498917964902
 31
0.0
  0
LINE
  5
180
330
7D
100
AcDbEntity
  8
1
  6
Continuous
 62
     2
100
AcDbLine
 10
-179.3748863628363
 20
-17.22498917964902
 30
0.0
 11
-227.7082196961725
 21
-17.22498917964902
 31
0.0
  0
LINE
  5
181
330
7D
100
AcDbEntity
  8
1
  6
Continuous
 62
     6
100
AcDbLine
 10
-179.3748863628363
 20
-22.22498917964902
 30
0.0
 11
-111.0415530295031
 21
-22.22498917964902
 31
0.0
  0
LINE
  5
182
330
7D
100
AcDbEntity
  8
1
  6
Continuous
 62
     2
100
AcDbLine
 10
-179.3748863628363
 20
-22.22498917964902
 30
0.0
 11
-179.3748863628363
 21
-17.22498917964902
 31
0.0
  0
LINE
  5
183
330
7D
100
AcDbEntity
  8
1
  6
Continuous
 62
     2
100
AcDbLine
 10
-111.0415530295031
 20
-17.22498917964902
 30
0.0
 11
-179.3748863628363
 21
-17.22498917964902
 31
0.0
  0
LINE
  5
184
330
7D
100
AcDbEntity
  8
1
  6
Continuous
 62
     6
100
AcDbLine
 10
-111.0415530295031
 20
-22.22498917964902
 30
0.0
 11
-42.70821969617219
 21
-22.22498917964902
 31
0.0
  0
LINE
  5
185
330
7D
100
AcDbEntity
  8
1
  6
Continuous
 62
     2
100
AcDbLine
 10
-111.0415530295031
 20
-22.22498917964902
 30
0.0
 11
-111.0415530295031
 21
-17.22498917964902
 31
0.0
  0
LINE
  5
186
330
7D
100
AcDbEntity
  8
1
  6
Continuous
 62
     2
100
AcDbLine
 10
-42.70821969617219
 20
-17.22498917964902
 30
0.0
 11
-111.0415530295031
 21
-17.22498917964902
 31
0.0
  0
LINE
  5
187
330
7D
100
AcDbEntity
  8
1
  6
Continuous
 62
     6
100
AcDbLine
 10
-437.7082196961704
 20
-22.22498917964879
 30
0.0
 11
-384.3748863628363
 21
-22.22498917964879
 31
0.0
  0
LINE
  5
188
330
7D
100
AcDbEntity
  8
1
  6
Continuous
 62
     6
100
AcDbLine
 10
-42.70821969616969
 20
-194.4249891796488
 30
0.0
 11
-42.70821969616975
 21
-251.8249891796489
 31
0.0
  0
LINE
  5
189
330
7D
100
AcDbEntity
  8
1
  6
Continuous
 62
     2
100
AcDbLine
 10
-42.70821969616969
 20
-194.4249891796488
 30
0.0
 11
-37.70821969617219
 21
-194.4249891796488
 31
0.0
  0
LINE
  5
18A
330
7D
100
AcDbEntity
  8
1
  6
Continuous
 62
     2
100
AcDbLine
 10
-37.70821969617219
 20
-137.024989179649
 30
0.0
 11
-37.70821969617219
 21
-194.4249891796488
 31
0.0
  0
LINE
  5
18B
330
7D
100
AcDbEntity
  8
1
  6
Continuous
 62
     6
100
AcDbLine
 10
-42.70821969616969
 20
-137.024989179649
 30
0.0
 11
-42.70821969616969
 21
-194.4249891796488
 31
0.0
  0
LINE
  5
18C
330
7D
100
AcDbEntity
  8
1
  6
Continuous
 62
     2
100
AcDbLine
 10
-42.70821969616969
 20
-137.024989179649
 30
0.0
 11
-37.70821969617219
 21
-137.024989179649
 31
0.0
  0
LINE
  5
18D
330
7D
100
AcDbEntity
  8
1
  6
Continuous
 62
     2
100
AcDbLine
 10
-37.70821969617219
 20
-79.6249891796491
 30
0.0
 11
-37.70821969617219
 21
-137.024989179649
 31
0.0
  0
LINE
  5
18E
330
7D
100
AcDbEntity
  8
1
  6
Continuous
 62
     6
100
AcDbLine
 10
-42.70821969617168
 20
-79.6249891796491
 30
0.0
 11
-42.70821969616969
 21
-137.024989179649
 31
0.0
  0
LINE
  5
18F
330
7D
100
AcDbEntity
  8
1
  6
Continuous
 62
     2
100
AcDbLine
 10
-42.70821969617168
 20
-79.6249891796491
 30
0.0
 11
-37.70821969617219
 21
-79.6249891796491
 31
0.0
  0
LINE
  5
190
330
7D
100
AcDbEntity
  8
1
  6
Continuous
 62
     2
100
AcDbLine
 10
-37.70821969617219
 20
-22.22498917964902
 30
0.0
 11
-37.70821969617219
 21
-79.6249891796491
 31
0.0
  0
LINE
  5
191
330
7D
100
AcDbEntity
  8
1
  6
Continuous
 62
     2
100
AcDbLine
 10
-42.70821969617219
 20
-22.22498917964902
 30
0.0
 11
-37.70821969617219
 21
-22.22498917964902
 31
0.0
  0
LINE
  5
192
330
7D
100
AcDbEntity
  8
1
  6
Continuous
 62
     2
100
AcDbLine
 10
-42.70821969617219
 20
-22.22498917964902
 30
0.0
 11
-42.70821969617219
 21
-17.22498917964902
 31
0.0
  0
LINE
  5
193
330
7D
100
AcDbEntity
  8
1
  6
Continuous
 62
     2
100
AcDbLine
 10
-37.70821969617219
 20
-17.22498917964902
 30
0.0
 11
-37.70821969617219
 21
-22.22498917964902
 31
0.0
  0
LINE
  5
194
330
7D
100
AcDbEntity
  8
1
  6
Continuous
 62
     6
100
AcDbLine
 10
-42.70821969617219
 20
-22.22498917964902
 30
0.0
 11
-42.70821969617168
 21
-79.6249891796491
 31
0.0
  0
LINE
  5
195
330
7D
100
AcDbEntity
  8
1
  6
Continuous
 62
     2
100
AcDbLine
 10
-37.70821969617219
 20
-17.22498917964902
 30
0.0
 11
-42.70821969617219
 21
-17.22498917964902
 31
0.0
  0
LINE
  5
196
330
7D
100
AcDbEntity
  8
1
  6
Continuous
 62
     2
100
AcDbLine
 10
-37.70821969617219
 20
-309.224989179649
 30
0.0
 11
-37.70821969617219
 21
-251.8249891796489
 31
0.0
  0
LINE
  5
197
330
7D
100
AcDbEntity
  8
1
  6
Continuous
 62
     2
100
AcDbLine
 10
-37.70821969617219
 20
-309.224989179649
 30
0.0
 11
-37.70821969617219
 21
-314.224989179649
 31
0.0
  0
LINE
  5
198
330
7D
100
AcDbEntity
  8
1
  6
Continuous
 62
     2
100
AcDbLine
 10
-37.70821969617219
 20
-314.224989179649
 30
0.0
 11
-42.70821969616969
 21
-314.224989179649
 31
0.0
  0
LINE
  5
199
330
7D
100
AcDbEntity
  8
1
  6
Continuous
 62
     2
100
AcDbLine
 10
-179.3748863628363
 20
-314.224989179649
 30
0.0
 11
-111.0415530295031
 21
-314.224989179649
 31
0.0
  0
LINE
  5
19A
330
7D
100
AcDbEntity
  8
1
  6
Continuous
 62
     2
100
AcDbLine
 10
-227.7082196961725
 20
-314.224989179649
 30
0.0
 11
-179.3748863628363
 21
-314.224989179649
 31
0.0
  0
LINE
  5
19B
330
7D
100
AcDbEntity
  8
1
  6
Continuous
 62
     2
100
AcDbLine
 10
-227.7082196961725
 20
-314.224989179649
 30
0.0
 11
-227.7082196961725
 21
-310.224989179649
 31
0.0
  0
LINE
  5
19C
330
7D
100
AcDbEntity
  8
1
  6
Continuous
 62
     2
100
AcDbLine
 10
-227.7082196961725
 20
-314.224989179649
 30
0.0
 11
-247.7082196961697
 21
-314.224989179649
 31
0.0
  0
LINE
  5
19D
330
7D
100
AcDbEntity
  8
1
  6
Continuous
 62
     2
100
AcDbLine
 10
-437.7082196961704
 20
-314.224989179649
 30
0.0
 11
-384.3748863628363
 21
-314.224989179649
 31
0.0
  0
LINE
  5
19E
330
7D
100
AcDbEntity
  8
1
  6
Continuous
 62
     2
100
AcDbLine
 10
-437.7082196961704
 20
-314.224989179649
 30
0.0
 11
-437.7082196961704
 21
-310.224989179649
 31
0.0
  0
LINE
  5
19F
330
7D
100
AcDbEntity
  8
1
  6
Continuous
 62
     2
100
AcDbLine
 10
-316.0415530295028
 20
-314.224989179649
 30
0.0
 11
-316.0415530295028
 21
-309.224989179649
 31
0.0
  0
LINE
  5
1A0
330
7D
100
AcDbEntity
  8
1
  6
Continuous
 62
     6
100
AcDbLine
 10
-384.3748863628363
 20
-309.224989179649
 30
0.0
 11
-437.7082196961694
 21
-309.224989179649
 31
0.0
  0
LINE
  5
1A1
330
7D
100
AcDbEntity
  8
1
  6
Continuous
 62
     6
100
AcDbLine
 10
-384.3748863628363
 20
-309.224989179649
 30
0.0
 11
-316.0415530295028
 21
-309.224989179649
 31
0.0
  0
LINE
  5
1A2
330
7D
100
AcDbEntity
  8
1
  6
Continuous
 62
     2
100
AcDbLine
 10
-384.3748863628363
 20
-314.224989179649
 30
0.0
 11
-316.0415530295028
 21
-314.224989179649
 31
0.0
  0
LINE
  5
1A3
330
7D
100
AcDbEntity
  8
1
  6
Continuous
 62
     2
100
AcDbLine
 10
-384.3748863628363
 20
-314.224989179649
 30
0.0
 11
-384.3748863628363
 21
-309.224989179649
 31
0.0
  0
LINE
  5
1A4
330
7D
100
AcDbEntity
  8
1
  6
Continuous
 62
     2
100
AcDbLine
 10
-437.7082196961704
 20
-314.224989179649
 30
0.0
 11
-457.7082196961705
 21
-314.224989179649
 31
0.0
  0
LINE
  5
1A5
330
7D
100
AcDbEntity
  8
1
  6
Continuous
 62
     2
100
AcDbLine
 10
-37.70821969617219
 20
-251.8249891796489
 30
0.0
 11
-42.70821969616975
 21
-251.8249891796489
 31
0.0
  0
LINE
  5
1A6
330
7D
100
AcDbEntity
  8
1
  6
Continuous
 62
     2
100
AcDbLine
 10
-37.70821969617219
 20
-251.8249891796489
 30
0.0
 11
-37.70821969617219
 21
-194.4249891796488
 31
0.0
  0
LINE
  5
1A7
330
7D
100
AcDbEntity
  8
1
  6
Continuous
 62
     2
100
AcDbLine
 10
-247.7082196961697
 20
-314.224989179649
 30
0.0
 11
-247.7082196961697
 21
-309.224989179649
 31
0.0
  0
LINE
  5
1A8
330
7D
100
AcDbEntity
  8
1
  6
Continuous
 62
     2
100
AcDbLine
 10
-179.3748863628363
 20
-314.224989179649
 30
0.0
 11
-179.3748863628363
 21
-309.2249891796519
 31
0.0
  0
LINE
  5
1A9
330
7D
100
AcDbEntity
  8
1
  6
Continuous
 62
     2
100
AcDbLine
 10
-111.0415530295031
 20
-314.224989179649
 30
0.0
 11
-111.0415530295031
 21
-309.224989179649
 31
0.0
  0
LINE
  5
1AA
330
7D
100
AcDbEntity
  8
1
  6
Continuous
 62
     2
100
AcDbLine
 10
-111.0415530295031
 20
-314.224989179649
 30
0.0
 11
-42.70821969616969
 21
-314.224989179649
 31
0.0
  0
LINE
  5
1AB
330
7D
100
AcDbEntity
  8
1
  6
Continuous
 62
     2
100
AcDbLine
 10
-247.7082196961697
 20
-314.224989179649
 30
0.0
 11
-316.0415530295028
 21
-314.224989179649
 31
0.0
  0
ARC
  5
1AC
102
{ACAD_REACTORS
330
225
330
226
102
}
330
7D
100
AcDbEntity
  8
0
  6
Continuous
 62
     2
100
AcDbCircle
 10
-159.88152319827
 20
-303.7172653629838
 30
0.0
 40
4.852596863497986
100
AcDbArc
 50
74.0200087416471
 51
84.84185523037608
  0
ARC
  5
1AD
102
{ACAD_REACTORS
330
225
330
226
102
}
330
7D
100
AcDbEntity
  8
0
  6
Continuous
 62
     2
100
AcDbCircle
 10
-159.3054825895163
 20
-300.5615050070995
 30
0.0
 40
0.9059297849853498
100
AcDbArc
 50
71.55192388185974
 51
113.3722778881306
  0
ARC
  5
1AE
102
{ACAD_REACTORS
330
225
330
226
102
}
330
7D
100
AcDbEntity
  8
0
  6
Continuous
 62
     2
100
AcDbCircle
 10
-159.4619226222184
 20
-300.6096558470665
 30
0.0
 40
0.5115800601947491
100
AcDbArc
 50
208.5214732576844
 51
246.6277221118282
  0
ARC
  5
1AF
102
{ACAD_REACTORS
330
225
330
226
102
}
330
7D
100
AcDbEntity
  8
0
  6
Continuous
 62
     2
100
AcDbCircle
 10
-159.3054825895163
 20
-300.2476638283565
 30
0.0
 40
0.9059297849848262
100
AcDbArc
 50
246.6277221118665
 51
288.4480761181539
  0
ARC
  5
1B0
102
{ACAD_REACTORS
330
225
330
226
102
}
330
7D
100
AcDbEntity
  8
0
  6
Continuous
 62
     2
100
AcDbCircle
 10
-159.7236503231772
 20
-298.9941180523193
 30
0.0
 40
2.227384008972719
100
AcDbArc
 50
288.4480761181337
 51
301.9309089499637
  0
ARC
  5
1B1
102
{ACAD_REACTORS
330
221
330
222
102
}
330
7D
100
AcDbEntity
  8
0
  6
Continuous
 62
     2
100
AcDbCircle
 10
-164.9487240557839
 20
-298.2616160234053
 30
0.0
 40
0.9118481501443941
100
AcDbArc
 50
295.3740086781804
 51
64.62599132180893
  0
ARC
  5
1B2
102
{ACAD_REACTORS
330
221
330
222
102
}
330
7D
100
AcDbEntity
  8
0
  6
Continuous
 62
     2
100
AcDbCircle
 10
-164.422681357696
 20
-296.5469391349307
 30
0.0
 40
0.3157169230761851
100
AcDbArc
 50
90.1889670425665
 51
180.0
  0
ARC
  5
1B3
102
{ACAD_REACTORS
330
223
330
224
102
}
330
7D
100
AcDbEntity
  8
0
  6
Continuous
 62
     2
100
AcDbCircle
 10
-143.2125511448618
 20
-300.6174679687719
 30
0.0
 40
0.9545230068260935
100
AcDbArc
 50
90.0
 51
109.3371432194281
  0
ARC
  5
1B4
102
{ACAD_REACTORS
330
223
330
224
102
}
330
7D
100
AcDbEntity
  8
0
  6
Continuous
 62
     2
100
AcDbCircle
 10
-142.981863884884
 20
-300.404584417728
 30
0.0
 40
0.9410597353350352
100
AcDbArc
 50
151.4785267423573
 51
208.521473257667
  0
ARC
  5
1B5
102
{ACAD_REACTORS
330
223
330
224
102
}
330
7D
100
AcDbEntity
  8
0
  6
Continuous
 62
     2
100
AcDbCircle
 10
-143.2027811102623
 20
-300.2476638283565
 30
0.0
 40
0.9059297849852208
100
AcDbArc
 50
246.6277221118088
 51
288.4480761180772
  0
ARC
  5
1B6
102
{ACAD_REACTORS
330
223
330
224
102
}
330
7D
100
AcDbEntity
  8
0
  6
Continuous
 62
     2
100
AcDbCircle
 10
-143.6209488439243
 20
-298.9941180523198
 30
0.0
 40
2.227384008972773
100
AcDbArc
 50
288.4480761181333
 51
301.9309089499394
  0
ARC
  5
1B7
102
{ACAD_REACTORS
330
223
330
224
102
}
330
7D
100
AcDbEntity
  8
0
  6
Continuous
 62
     2
100
AcDbCircle
 10
-143.7788217190171
 20
-297.0919034724715
 30
0.0
 40
4.852596863498889
100
AcDbArc
 50
275.1581447696373
 51
285.9799912583383
  0
ARC
  5
1B8
102
{ACAD_REACTORS
330
223
330
224
102
}
330
7D
100
AcDbEntity
  8
0
  6
Continuous
 62
     2
100
AcDbCircle
 10
-143.4899656242812
 20
-300.2917940556931
 30
0.0
 40
1.639695123940503
100
AcDbArc
 50
195.0618917771007
 51
275.1581447696772
  0
ARC
  5
1B9
102
{ACAD_REACTORS
330
21B
330
21C
102
}
330
7D
100
AcDbEntity
  8
0
  6
Continuous
 62
     2
100
AcDbCircle
 10
-159.2181789359723
 20
-296.5738548209815
 30
0.0
 40
1.055365641333651
100
AcDbArc
 50
270.0
 51
90.0
  0
ARC
  5
1BA
102
{ACAD_REACTORS
330
221
330
222
102
}
330
7D
100
AcDbEntity
  8
0
  6
Continuous
 62
     2
100
AcDbCircle
 10
-166.9982300442278
 20
-300.9032167009996
 30
0.0
 40
0.3157169230755983
100
AcDbArc
 50
180.0
 51
270.0
  0
ARC
  5
1BB
102
{ACAD_REACTORS
330
221
330
222
102
}
330
7D
100
AcDbEntity
  8
0
  6
Continuous
 62
     2
100
AcDbCircle
 10
-165.5223967832182
 20
-296.5467616582825
 30
0.0
 40
0.315716923076593
100
AcDbArc
 50
0.0
 51
90.0
  0
ARC
  5
1BC
102
{ACAD_REACTORS
330
221
330
222
102
}
330
7D
100
AcDbEntity
  8
0
  6
Continuous
 62
     2
100
AcDbCircle
 10
-165.5223967832182
 20
-297.1507862773431
 30
0.0
 40
0.3157169230760658
100
AcDbArc
 50
295.1944106485672
 51
0.0
  0
ARC
  5
1BD
102
{ACAD_REACTORS
330
221
330
222
102
}
330
7D
100
AcDbEntity
  8
0
  6
Continuous
 62
     2
100
AcDbCircle
 10
-165.5223967832182
 20
-300.9032167009996
 30
0.0
 40
0.3157169230767067
100
AcDbArc
 50
270.0
 51
0.0
  0
ARC
  5
1BE
102
{ACAD_REACTORS
330
221
330
222
102
}
330
7D
100
AcDbEntity
  8
0
  6
Continuous
 62
     2
100
AcDbCircle
 10
-167.5921247209743
 20
-295.9427337950498
 30
0.0
 40
0.4242446153838841
100
AcDbArc
 50
90.0
 51
180.0
  0
ARC
  5
1BF
102
{ACAD_REACTORS
330
221
330
222
102
}
330
7D
100
AcDbEntity
  8
0
  6
Continuous
 62
     2
100
AcDbCircle
 10
-162.1188126302574
 20
-295.9427337950498
 30
0.0
 40
0.4242446153838841
100
AcDbArc
 50
0.0
 51
90.0
  0
ARC
  5
1C0
102
{ACAD_REACTORS
330
221
330
222
102
}
330
7D
100
AcDbEntity
  8
0
  6
Continuous
 62
     2
100
AcDbCircle
 10
-162.1188126302574
 20
-301.50724456425
 30
0.0
 40
0.424244615383202
100
AcDbArc
 50
270.0
 51
0.0
  0
ARC
  5
1C1
102
{ACAD_REACTORS
330
21F
330
220
102
}
330
7D
100
AcDbEntity
  8
0
  6
Continuous
 62
     2
100
AcDbCircle
 10
-152.9004287431659
 20
-297.0453939415536
 30
0.0
 40
0.7717997786795479
100
AcDbArc
 50
321.8795802028385
 51
38.12041979715814
  0
ARC
  5
1C2
102
{ACAD_REACTORS
330
21F
330
220
102
}
330
7D
100
AcDbEntity
  8
0
  6
Continuous
 62
     2
100
AcDbCircle
 10
-152.7006887068197
 20
-297.2021251196741
 30
0.0
 40
0.5179085730134564
100
AcDbArc
 50
218.1204197971334
 51
321.8795802028588
  0
ARC
  5
1C3
102
{ACAD_REACTORS
330
21D
330
21E
102
}
330
7D
100
AcDbEntity
  8
0
  6
Continuous
 62
     2
100
AcDbCircle
 10
-156.38069629578
 20
-300.404584417728
 30
0.0
 40
1.45803408365203
100
AcDbArc
 50
297.5481481757055
 51
62.45185182429758
  0
ARC
  5
1C4
102
{ACAD_REACTORS
330
21D
330
21E
102
}
330
7D
100
AcDbEntity
  8
0
  6
Continuous
 62
     2
100
AcDbCircle
 10
-156.9425760794466
 20
-300.404584417728
 30
0.0
 40
1.458034083651616
100
AcDbArc
 50
117.5481481756598
 51
242.451851824337
  0
ARC
  5
1C5
102
{ACAD_REACTORS
330
21D
330
21E
102
}
330
7D
100
AcDbEntity
  8
0
  6
Continuous
 62
     2
100
AcDbCircle
 10
-156.6616361876132
 20
-300.9431594280308
 30
0.0
 40
2.065479772208694
100
AcDbArc
 50
62.45185182430819
 51
117.5481481756674
  0
ARC
  5
1C6
102
{ACAD_REACTORS
330
21D
330
21E
102
}
330
7D
100
AcDbEntity
  8
0
  6
Continuous
 62
     2
100
AcDbCircle
 10
-156.6616361876132
 20
-299.8660094074246
 30
0.0
 40
2.065479772208637
100
AcDbArc
 50
242.4518518243384
 51
297.548148175686
  0
ARC
  5
1C7
102
{ACAD_REACTORS
330
21F
330
220
102
}
330
7D
100
AcDbEntity
  8
0
  6
Continuous
 62
     2
100
AcDbCircle
 10
-152.5009486704735
 20
-297.0453939415536
 30
0.0
 40
0.7717997786796245
100
AcDbArc
 50
141.8795802028484
 51
218.1204197971549
  0
ARC
  5
1C8
102
{ACAD_REACTORS
330
21F
330
220
102
}
330
7D
100
AcDbEntity
  8
0
  6
Continuous
 62
     2
100
AcDbCircle
 10
-152.7006887068197
 20
-296.8886627634331
 30
0.0
 40
0.5179085730133669
100
AcDbArc
 50
38.12041979714121
 51
141.8795802028666
  0
ARC
  5
1C9
102
{ACAD_REACTORS
330
221
330
222
102
}
330
7D
100
AcDbEntity
  8
0
  6
Continuous
 62
     2
100
AcDbCircle
 10
-167.5921247209743
 20
-301.50724456425
 30
0.0
 40
0.4242446153827757
100
AcDbArc
 50
180.0
 51
270.0
  0
ARC
  5
1CA
102
{ACAD_REACTORS
330
221
330
222
102
}
330
7D
100
AcDbEntity
  8
0
  6
Continuous
 62
     2
100
AcDbCircle
 10
-165.5223967832182
 20
-299.372445769468
 30
0.0
 40
0.315716923076593
100
AcDbArc
 50
0.0
 51
64.805589351446
  0
ARC
  5
1CB
102
{ACAD_REACTORS
330
221
330
222
102
}
330
7D
100
AcDbEntity
  8
0
  6
Continuous
 62
     2
100
AcDbCircle
 10
-164.9998123356432
 20
-298.2616160234053
 30
0.0
 40
0.9118975235576433
100
AcDbArc
 50
115.1944106485195
 51
244.8055893514911
  0
ARC
  5
1CC
102
{ACAD_REACTORS
330
221
330
222
102
}
330
7D
100
AcDbEntity
  8
0
  6
Continuous
 62
     2
100
AcDbCircle
 10
-166.9982300442278
 20
-296.5467616582825
 30
0.0
 40
0.3157169230760815
100
AcDbArc
 50
90.0
 51
180.0
  0
ARC
  5
1CD
102
{ACAD_REACTORS
330
21B
330
21C
102
}
330
7D
100
AcDbEntity
  8
0
  6
Continuous
 62
     2
100
AcDbCircle
 10
-159.6596514622107
 20
-296.534458849759
 30
0.0
 40
0.3528638246710898
100
AcDbArc
 50
270.0
 51
90.0
  0
ARC
  5
1CE
102
{ACAD_REACTORS
330
21F
330
220
102
}
330
7D
100
AcDbEntity
  8
0
  6
Continuous
 62
     2
100
AcDbCircle
 10
-152.9169607169849
 20
-297.0453939415536
 30
0.0
 40
1.526904761905769
100
AcDbArc
 50
90.0
 51
270.0
  0
ARC
  5
1CF
102
{ACAD_REACTORS
330
223
330
224
102
}
330
7D
100
AcDbEntity
  8
0
  6
Continuous
 62
     2
100
AcDbCircle
 10
-143.4899656242812
 20
-300.5173747797628
 30
0.0
 40
1.639695123940101
100
AcDbArc
 50
90.0
 51
164.9381082228993
  0
ARC
  5
1D0
102
{ACAD_REACTORS
330
223
330
224
102
}
330
7D
100
AcDbEntity
  8
0
  6
Continuous
 62
     2
100
AcDbCircle
 10
-143.9090934677429
 20
-300.404584417728
 30
0.0
 40
1.205656168392975
100
AcDbArc
 50
164.9381082229024
 51
195.0618917770924
  0
ARC
  5
1D1
102
{ACAD_REACTORS
330
223
330
224
102
}
330
7D
100
AcDbEntity
  8
0
  6
Continuous
 62
     2
100
AcDbCircle
 10
-143.3592211429655
 20
-300.6096558470665
 30
0.0
 40
0.5115800601959967
100
AcDbArc
 50
208.5214732576881
 51
246.6277221118399
  0
ARC
  5
1D2
102
{ACAD_REACTORS
330
223
330
224
102
}
330
7D
100
AcDbEntity
  8
0
  6
Continuous
 62
     2
100
AcDbCircle
 10
-143.3592211429655
 20
-300.1995129883889
 30
0.0
 40
0.5115800601944048
100
AcDbArc
 50
109.3371432194823
 51
151.4785267424182
  0
ARC
  5
1D3
102
{ACAD_REACTORS
330
221
330
222
102
}
330
7D
100
AcDbEntity
  8
0
  6
Continuous
 62
     2
100
AcDbCircle
 10
-164.422681357696
 20
-299.9526090300687
 30
0.0
 40
0.315716923076792
100
AcDbArc
 50
180.0
 51
269.8110329574335
  0
ARC
  5
1D4
102
{ACAD_REACTORS
330
221
330
222
102
}
330
7D
100
AcDbEntity
  8
0
  6
Continuous
 62
     2
100
AcDbCircle
 10
-164.417065222386
 20
-298.2497740824997
 30
0.0
 40
2.018561131933266
100
AcDbArc
 50
269.8110329575827
 51
90.18896704241737
  0
ARC
  5
1D5
102
{ACAD_REACTORS
330
221
330
222
102
}
330
7D
100
AcDbEntity
  8
0
  6
Continuous
 62
     2
100
AcDbCircle
 10
-164.422681357696
 20
-297.1524744234375
 30
0.0
 40
0.315716923076792
100
AcDbArc
 50
180.0
 51
244.6259913216349
  0
ARC
  5
1D6
102
{ACAD_REACTORS
330
221
330
222
102
}
330
7D
100
AcDbEntity
  8
0
  6
Continuous
 62
     2
100
AcDbCircle
 10
-164.422681357696
 20
-299.3707576233736
 30
0.0
 40
0.3157169230765328
100
AcDbArc
 50
115.3740086783519
 51
180.0
  0
ARC
  5
1D7
102
{ACAD_REACTORS
330
225
330
226
102
}
330
7D
100
AcDbEntity
  8
0
  6
Continuous
 62
     2
100
AcDbCircle
 10
-159.5926671035341
 20
-300.5173747797628
 30
0.0
 40
1.639695123940499
100
AcDbArc
 50
84.84185523036533
 51
164.9381082228905
  0
ARC
  5
1D8
102
{ACAD_REACTORS
330
225
330
226
102
}
330
7D
100
AcDbEntity
  8
0
  6
Continuous
 62
     2
100
AcDbCircle
 10
-160.0117949469969
 20
-300.404584417728
 30
0.0
 40
1.205656168390971
100
AcDbArc
 50
164.9381082228768
 51
195.0618917770945
  0
ARC
  5
1D9
102
{ACAD_REACTORS
330
225
330
226
102
}
330
7D
100
AcDbEntity
  8
0
  6
Continuous
 62
     2
100
AcDbCircle
 10
-159.5926671035341
 20
-300.2917940556931
 30
0.0
 40
1.639695123939437
100
AcDbArc
 50
195.0618917770922
 51
275.1581447696363
  0
ARC
  5
1DA
102
{ACAD_REACTORS
330
225
330
226
102
}
330
7D
100
AcDbEntity
  8
0
  6
Continuous
 62
     2
100
AcDbCircle
 10
-159.88152319827
 20
-297.0919034724715
 30
0.0
 40
4.852596863498272
100
AcDbArc
 50
275.1581447696238
 51
285.9799912583526
  0
ARC
  5
1DB
102
{ACAD_REACTORS
330
225
330
226
102
}
330
7D
100
AcDbEntity
  8
0
  6
Continuous
 62
     2
100
AcDbCircle
 10
-159.084565364138
 20
-300.404584417728
 30
0.0
 40
0.9410597353333294
100
AcDbArc
 50
151.4785267422693
 51
208.5214732576972
  0
ARC
  5
1DC
102
{ACAD_REACTORS
330
225
330
226
102
}
330
7D
100
AcDbEntity
  8
0
  6
Continuous
 62
     2
100
AcDbCircle
 10
-159.4619226222184
 20
-300.1995129883889
 30
0.0
 40
0.5115800601948293
100
AcDbArc
 50
113.3722778881945
 51
151.4785267423156
  0
ARC
  5
1DD
102
{ACAD_REACTORS
330
225
330
226
102
}
330
7D
100
AcDbEntity
  8
0
  6
Continuous
 62
     2
100
AcDbCircle
 10
-159.7236503231772
 20
-301.8150507831361
 30
0.0
 40
2.227384008973465
100
AcDbArc
 50
58.06909105003707
 51
71.55192388186676
  0
ARC
  5
1DE
102
{ACAD_REACTORS
330
21D
330
21E
102
}
330
7D
100
AcDbEntity
  8
0
  6
Continuous
 62
     2
100
AcDbCircle
 10
-156.6616361876132
 20
-300.2478532396075
 30
0.0
 40
0.5179085730132806
100
AcDbArc
 50
38.12041979716469
 51
141.8795802028567
  0
ARC
  5
1DF
102
{ACAD_REACTORS
330
21D
330
21E
102
}
330
7D
100
AcDbEntity
  8
0
  6
Continuous
 62
     2
100
AcDbCircle
 10
-156.4618961512672
 20
-300.404584417728
 30
0.0
 40
0.771799778679551
100
AcDbArc
 50
141.879580202828
 51
218.120419797162
  0
ARC
  5
1E0
102
{ACAD_REACTORS
330
21D
330
21E
102
}
330
7D
100
AcDbEntity
  8
0
  6
Continuous
 62
     2
100
AcDbCircle
 10
-156.6616361876132
 20
-300.5613155958479
 30
0.0
 40
0.5179085730138424
100
AcDbArc
 50
218.1204197971879
 51
321.8795802027908
  0
ARC
  5
1E1
102
{ACAD_REACTORS
330
21D
330
21E
102
}
330
7D
100
AcDbEntity
  8
0
  6
Continuous
 62
     2
100
AcDbCircle
 10
-156.8613762239596
 20
-300.404584417728
 30
0.0
 40
0.7717997786795351
100
AcDbArc
 50
321.8795802028432
 51
38.1204197971668
  0
CIRCLE
  5
1E2
330
7D
100
AcDbEntity
  8
1
  6
Continuous
 62
     2
100
AcDbCircle
 10
-159.5163693363571
 20
-288.0999891796497
 30
0.0
 40
2.5
  0
CIRCLE
  5
1E3
330
7D
100
AcDbEntity
  8
1
  6
Continuous
 62
     2
100
AcDbCircle
 10
-159.5163693363571
 20
-288.0999891796497
 30
0.0
 40
1.25
  0
CIRCLE
  5
1E4
102
{ACAD_REACTORS
330
221
330
222
102
}
330
7D
100
AcDbEntity
  8
0
  6
Continuous
 62
     2
100
AcDbCircle
 10
-164.9725390704567
 20
-298.2616160234053
 30
0.0
 40
0.470978932778479
  0
MTEXT
  5
1E5
330
7D
100
AcDbEntity
  8
1
 62
     3
100
AcDbMText
 10
-439.2855463848165
 20
-309.1980750801484
 30
0.0
 40
1.8
 41
0.0
 71
     7
 72
     1
  3
Weitergabe sowie Vervielfältigung dieses Dokuments, Verwertung und\PMitteilung seines Inhalts sind verboten, soweit nicht ausdrücklich gestattet.\PZuwiderhandlungen verpflichten zu Schadenersatz. Alle Rechte für den Fall\Pder Patent-, Gebrauchsmuste
  1
r- oder Designeintragung vorbehalten.\PBauartbedingtes Spiel ist in den Toleranzangaben nicht berücksichtigt.
  7
CONVERTER_11
 11
0.0
 21
1.0
 31
0.0
 73
     1
 44
0.99639855942377
  0
MTEXT
  5
1E6
330
7D
100
AcDbEntity
  8
1
 62
     3
100
AcDbMText
 10
-439.4397526959104
 20
-136.2387050659953
 30
0.0
 40
1.8
 41
0.0
 71
     7
 72
     1
  3
Transfer or duplication of this document as well as the utilisation or\Pcommunication of its content are not permitted unless express consent\Pis granted. Violations give rise to claims for damages. All rights reserved\Pin case of patent, utility mo
  1
del or design patent registrations.\PTolerance specifications do not include clearances inherent in the design.
  7
CONVERTER_11
 11
0.0
 21
1.0
 31
0.0
 73
     1
 44
0.99639855942377
  0
TEXT
  5
1E7
330
7D
100
AcDbEntity
  8
1
 62
     2
100
AcDbText
 10
-153.0530242229198
 20
-307.9840063946411
 30
0.0
 40
1.8
  1
of
 41
0.9
  7
CONVERTER_11
100
AcDbText
  0
TEXT
  5
1E8
330
7D
100
AcDbEntity
  8
1
 62
     2
100
AcDbText
 10
-171.2530242229196
 20
-307.9840063946413
 30
0.0
 40
1.8
  1
page
 41
0.9
  7
CONVERTER_11
100
AcDbText
  0
TEXT
  5
1E9
330
7D
100
AcDbEntity
  8
1
 62
     2
100
AcDbText
 10
-162.6067592525776
 20
-308.0242378334515
 30
0.0
 40
1.8
  1
1
 41
0.9
  7
CONVERTER_11
100
AcDbText
  0
TEXT
  5
1EA
330
7D
100
AcDbEntity
  8
1
 62
     2
100
AcDbText
 10
-147.8177154131061
 20
-307.9749891796496
 30
0.0
 40
1.8
  1
1
 41
0.9
  7
CONVERTER_11
100
AcDbText
  0
MTEXT
  5
1EC
330
7D
100
AcDbEntity
  8
1
 62
     7
100
AcDbMText
 10
-89.28062195954419
 20
-305.9749891796494
 30
0.0
 40
3.0
 41
0.0
 71
     5
 72
     1
  1
VS-15-BU-DSUB-3P-LH
  7
CONVERTER_12
 73
     1
 44
1.20048019207683
  0
MTEXT
  5
1ED
330
7D
100
AcDbEntity
  8
1
 62
     2
100
AcDbMText
 10
-134.8530242229197
 20
-301.7249891796496
 30
0.0
 40
1.8
 41
0.0
 71
     1
 72
     1
  1
description
  7
CONVERTER_11
 73
     1
 44
1.20048019207683
  0
MTEXT
  5
1EE
330
7D
100
AcDbEntity
  8
1
 62
     3
100
AcDbMText
 10
-146.0530242229197
 20
-288.0999891796496
 30
0.0
 40
2.5
 41
0.0
 71
     5
 72
     1
  1
DIN A3
  7
CONVERTER_11
 73
     1
 44
1.20048019207683
  0
MTEXT
  5
1EF
330
7D
100
AcDbEntity
  8
1
 62
     2
100
AcDbMText
 10
-78.7266279778472
 20
-292.2249891796496
 30
0.0
 40
1.5
 41
0.0
 71
     4
 72
     1
  1
- Simplified representation\P- Document excluded\P  from change process\P- Linear dimensions [mm]\P- EN ISO 291  23/50
  7
CONVERTER_11
 73
     1
 44
1.20048019207683
  0
MTEXT
  5
1F0
330
7D
100
AcDbEntity
  8
1
 62
     2
100
AcDbMText
 10
-88.1266279778472
 20
-284.7249891796496
 30
0.0
 40
1.8
 41
0.0
 71
     1
 72
     1
  1
scale
  7
CONVERTER_11
 73
     1
 44
1.20048019207683
  0
MTEXT
  5
1F2
330
7D
100
AcDbEntity
  8
1
 62
     3
100
AcDbMText
 10
-84.9674238370077
 20
-290.9249891796495
 30
0.0
 40
2.5
 41
0.0
 71
     8
 72
     1
  1
5:1
  7
CONVERTER_13
 73
     1
 44
1.32052821128451
  0
TEXT
  5
1F3
330
7D
100
AcDbEntity
  8
1
 62
     7
100
AcDbText
 10
-134.7530242229197
 20
-290.9249891796496
 30
0.0
 40
2.5
  1
01302046
 41
0.81
  7
CONVERTER_12
100
AcDbText
  0
MTEXT
  5
1F5
330
7D
100
AcDbEntity
  8
1
 62
     2
100
AcDbMText
 10
-134.7530242229197
 20
-284.7249891796496
 30
0.0
 40
1.8
 41
0.0
 71
     1
 72
     1
  1
document-No. / RI
  7
CONVERTER_14
 73
     1
 44
1.32052821128451
  0
TEXT
  5
1F6
330
7D
100
AcDbEntity
  8
1
 62
     3
100
AcDbText
 10
-134.8530242229197
 20
-299.4249891796496
 30
0.0
 40
2.5
  1
 
 41
0.81
  7
CONVERTER_12
100
AcDbText
  0
MTEXT
  5
1F7
330
7D
100
AcDbEntity
  8
1
 62
     2
100
AcDbMText
 10
-134.8530242229197
 20
-293.2249891796496
 30
0.0
 40
1.8
 41
0.0
 71
     1
 72
     1
  1
document-type
  7
CONVERTER_11
 73
     1
 44
1.20048019207683
  0
MTEXT
  5
1F8
330
7D
100
AcDbEntity
  8
1
 62
     2
100
AcDbMText
 10
-108.6266279778468
 20
-284.7249891796496
 30
0.0
 40
1.8
 41
0.0
 71
     1
 72
     1
  1
date
  7
CONVERTER_11
 73
     1
 44
1.32052821128451
  0
TEXT
  5
1F9
330
7D
100
AcDbEntity
  8
1
 62
     3
100
AcDbText
 10
-108.6266279778468
 20
-290.9249891796496
 30
0.0
 40
2.5
  1
28.10.2020
 41
0.81
  7
CONVERTER_12
100
AcDbText
  0
TEXT
  5
1FA
330
7D
100
AcDbEntity
  8
1
 62
     7
100
AcDbText
 10
-114.7231120038639
 20
-290.9249891796496
 30
0.0
 40
2.5
  1
00
 41
0.81
  7
CONVERTER_12
100
AcDbText
  0
TEXT
  5
1FB
330
7D
100
AcDbEntity
  8
1
 62
     7
100
AcDbText
 10
-116.8794765009059
 20
-290.9249891796496
 30
0.0
 40
2.5
  1
/
 41
0.9
  7
CONVERTER_11
100
AcDbText
  0
TEXT
  5
1FC
330
7D
100
AcDbEntity
  8
1
 62
     7
100
AcDbText
 10
-419.7082196961694
 20
-21.22498917964879
 30
0.0
 40
2.5
  1
1
 41
0.9
  7
CONVERTER_11
100
AcDbText
  0
TEXT
  5
1FD
330
7D
100
AcDbEntity
  8
1
 62
     7
100
AcDbText
 10
-351.3748863628363
 20
-21.22498917964879
 30
0.0
 40
2.5
  1
2
 41
0.9
  7
CONVERTER_11
100
AcDbText
  0
TEXT
  5
1FE
330
7D
100
AcDbEntity
  8
1
 62
     7
100
AcDbText
 10
-283.0415530295028
 20
-21.22498917964879
 30
0.0
 40
2.5
  1
3
 41
0.9
  7
CONVERTER_11
100
AcDbText
  0
TEXT
  5
1FF
330
7D
100
AcDbEntity
  8
1
 62
     7
100
AcDbText
 10
-214.7082196961697
 20
-21.22498917964879
 30
0.0
 40
2.5
  1
4
 41
0.9
  7
CONVERTER_11
100
AcDbText
  0
TEXT
  5
200
330
7D
100
AcDbEntity
  8
1
 62
     7
100
AcDbText
 10
-146.3748863628363
 20
-21.22498917964879
 30
0.0
 40
2.5
  1
5
 41
0.9
  7
CONVERTER_11
100
AcDbText
  0
TEXT
  5
201
330
7D
100
AcDbEntity
  8
1
 62
     7
100
AcDbText
 10
-78.04155302950306
 20
-21.22498917964879
 30
0.0
 40
2.5
  1
6
 41
0.9
  7
CONVERTER_11
100
AcDbText
  0
TEXT
  5
202
330
7D
100
AcDbEntity
  8
1
 62
     7
100
AcDbText
 10
-41.70821969616969
 20
-52.12498917964911
 30
0.0
 40
2.5
  1
A
 41
0.9
  7
CONVERTER_11
100
AcDbText
  0
TEXT
  5
203
330
7D
100
AcDbEntity
  8
1
 62
     7
100
AcDbText
 10
-41.70821969616969
 20
-109.524989179649
 30
0.0
 40
2.5
  1
B
 41
0.9
  7
CONVERTER_11
100
AcDbText
  0
TEXT
  5
204
330
7D
100
AcDbEntity
  8
1
 62
     7
100
AcDbText
 10
-41.70821969616969
 20
-166.9249891796488
 30
0.0
 40
2.5
  1
C
 41
0.9
  7
CONVERTER_11
100
AcDbText
  0
TEXT
  5
205
330
7D
100
AcDbEntity
  8
1
 62
     7
100
AcDbText
 10
-41.70821969616969
 20
-224.3249891796489
 30
0.0
 40
2.5
  1
D
 41
0.9
  7
CONVERTER_11
100
AcDbText
  0
TEXT
  5
206
330
7D
100
AcDbEntity
  8
1
 62
     7
100
AcDbText
 10
-351.3748863628363
 20
-313.224989179649
 30
0.0
 40
2.5
  1
2
 41
0.9
  7
CONVERTER_11
100
AcDbText
  0
TEXT
  5
207
330
7D
100
AcDbEntity
  8
1
 62
     7
100
AcDbText
 10
-419.7082196961694
 20
-313.224989179649
 30
0.0
 40
2.5
  1
1
 41
0.9
  7
CONVERTER_11
100
AcDbText
  0
TEXT
  5
208
330
7D
100
AcDbEntity
  8
1
 62
     7
100
AcDbText
 10
-41.70821969616969
 20
-281.724989179649
 30
0.0
 40
2.5
  1
E
 41
0.9
  7
CONVERTER_11
100
AcDbText
  0
TEXT
  5
209
330
7D
100
AcDbEntity
  8
1
 62
     7
100
AcDbText
 10
-283.0415530295028
 20
-313.224989179649
 30
0.0
 40
2.5
  1
3
 41
0.9
  7
CONVERTER_11
100
AcDbText
  0
TEXT
  5
20A
330
7D
100
AcDbEntity
  8
1
 62
     7
100
AcDbText
 10
-214.7082196961697
 20
-313.224989179649
 30
0.0
 40
2.5
  1
4
 41
0.9
  7
CONVERTER_11
100
AcDbText
  0
TEXT
  5
20B
330
7D
100
AcDbEntity
  8
1
 62
     7
100
AcDbText
 10
-146.3748863628365
 20
-313.224989179649
 30
0.0
 40
2.5
  1
5
 41
0.9
  7
CONVERTER_11
100
AcDbText
  0
TEXT
  5
20C
330
7D
100
AcDbEntity
  8
1
 62
     7
100
AcDbText
 10
-78.04155302950306
 20
-313.224989179649
 30
0.0
 40
2.5
  1
6
 41
0.9
  7
CONVERTER_11
100
AcDbText
  0
HATCH
  5
20D
330
7D
100
AcDbEntity
  8
1
  6
Continuous
 62
     2
100
AcDbHatch
 10
0.0
 20
0.0
 30
0.0
210
0.0
220
0.0
230
1.0
  2
CUSTOM0
 70
     0
 71
     1
 91
        1
 92
        1
 93
       12
 72
     1
 10
-154.5855235099585
 20
-298.5722987034589
 11
-155.778316212125
 21
-298.5722987034589
 72
     1
 10
-155.778316212125
 20
-298.5722987034589
 11
-155.778316212125
 21
-297.4380265946152
 72
     1
 10
-155.778316212125
 20
-297.4380265946152
 11
-156.8279737900324
 21
-297.4380265946152
 72
     1
 10
-156.8279737900324
 20
-297.4380265946152
 11
-156.8279737900324
 21
-298.5722987034589
 72
     1
 10
-156.8279737900324
 20
-298.5722987034589
 11
-158.020766492199
 21
-298.5722987034589
 72
     1
 10
-158.020766492199
 20
-298.5722987034589
 11
-158.020766492199
 21
-295.5184891796478
 72
     1
 10
-158.020766492199
 20
-295.5184891796478
 11
-156.8279737900324
 21
-295.5184891796478
 72
     1
 10
-156.8279737900324
 20
-295.5184891796478
 11
-156.8279737900324
 21
-296.5873225129824
 72
     1
 10
-156.8279737900324
 20
-296.5873225129824
 11
-155.778316212125
 21
-296.5873225129824
 72
     1
 10
-155.778316212125
 20
-296.5873225129824
 11
-155.778316212125
 21
-295.5184891796478
 72
     1
 10
-155.778316212125
 20
-295.5184891796478
 11
-154.5855235099585
 21
-295.5184891796478
 72
     1
 10
-154.5855235099585
 20
-295.5184891796478
 11
-154.5855235099585
 21
-298.5722987034589
 97
       12
330
140
330
141
330
12B
330
12A
330
129
330
13D
330
128
330
13E
330
13F
330
127
330
126
330
125
 75
     1
 76
     2
 52
45.0
 41
0.1
 77
     0
 78
     1
 53
45.0
 43
62.7811309658083
 44
-72.3161373035813
 45
-0.1414213562373095
 46
0.0
 79
     0
 98
        1
 10
0.0
 20
0.0
  0
HATCH
  5
20E
330
7D
100
AcDbEntity
  8
1
  6
Continuous
 62
     2
100
AcDbHatch
 10
0.0
 20
0.0
 30
0.0
210
0.0
220
0.0
230
1.0
  2
CUSTOM1
 70
     0
 71
     1
 91
        1
 92
        1
 93
       12
 72
     1
 10
-154.5855235099585
 20
-298.5722987034589
 11
-155.778316212125
 21
-298.5722987034589
 72
     1
 10
-155.778316212125
 20
-298.5722987034589
 11
-155.778316212125
 21
-297.4380265946152
 72
     1
 10
-155.778316212125
 20
-297.4380265946152
 11
-156.8279737900324
 21
-297.4380265946152
 72
     1
 10
-156.8279737900324
 20
-297.4380265946152
 11
-156.8279737900324
 21
-298.5722987034589
 72
     1
 10
-156.8279737900324
 20
-298.5722987034589
 11
-158.020766492199
 21
-298.5722987034589
 72
     1
 10
-158.020766492199
 20
-298.5722987034589
 11
-158.020766492199
 21
-295.5184891796478
 72
     1
 10
-158.020766492199
 20
-295.5184891796478
 11
-156.8279737900324
 21
-295.5184891796478
 72
     1
 10
-156.8279737900324
 20
-295.5184891796478
 11
-156.8279737900324
 21
-296.5873225129824
 72
     1
 10
-156.8279737900324
 20
-296.5873225129824
 11
-155.778316212125
 21
-296.5873225129824
 72
     1
 10
-155.778316212125
 20
-296.5873225129824
 11
-155.778316212125
 21
-295.5184891796478
 72
     1
 10
-155.778316212125
 20
-295.5184891796478
 11
-154.5855235099585
 21
-295.5184891796478
 72
     1
 10
-154.5855235099585
 20
-295.5184891796478
 11
-154.5855235099585
 21
-298.5722987034589
 97
       12
330
140
330
141
330
12B
330
12A
330
129
330
13D
330
128
330
13E
330
13F
330
127
330
126
330
125
 75
     1
 76
     2
 52
45.0
 41
0.1
 77
     0
 78
     1
 53
45.0
 43
62.7811309658083
 44
-72.3161373035813
 45
-0.1414213562373095
 46
0.0
 79
     0
 98
        1
 10
0.0
 20
0.0
  0
HATCH
  5
20F
330
7D
100
AcDbEntity
  8
1
  6
Continuous
 62
     2
100
AcDbHatch
 10
0.0
 20
0.0
 30
0.0
210
0.0
220
0.0
230
1.0
  2
CUSTOM2
 70
     0
 71
     1
 91
        1
 92
        1
 93
       10
 72
     1
 10
-152.3432241607702
 20
-300.1864551660273
 11
-153.5837285710232
 21
-298.8776796558221
 72
     1
 10
-153.5837285710232
 20
-298.8776796558221
 11
-154.7765212731907
 21
-298.8776796558221
 72
     1
 10
-154.7765212731907
 20
-298.8776796558221
 11
-154.7765212731907
 21
-301.9314891796332
 72
     1
 10
-154.7765212731907
 20
-301.9314891796332
 11
-153.5837285710232
 21
-301.9314891796332
 72
     1
 10
-153.5837285710232
 20
-301.9314891796332
 11
-153.5837285710232
 21
-300.6227136694287
 72
     1
 10
-153.5837285710232
 20
-300.6227136694287
 11
-152.3432241607702
 21
-301.9314891796332
 72
     1
 10
-152.3432241607702
 20
-301.9314891796332
 11
-151.1504314586038
 21
-301.9314891796332
 72
     1
 10
-151.1504314586038
 20
-301.9314891796332
 11
-151.1504314586038
 21
-298.8776796558221
 72
     1
 10
-151.1504314586038
 20
-298.8776796558221
 11
-152.3432241607702
 21
-298.8776796558221
 72
     1
 10
-152.3432241607702
 20
-298.8776796558221
 11
-152.3432241607702
 21
-300.1864551660273
 97
       10
330
14E
330
11E
330
11D
330
120
330
149
330
14A
330
11F
330
14B
330
14C
330
14D
 75
     1
 76
     2
 52
45.0
 41
0.1
 77
     0
 78
     1
 53
45.0
 43
62.7811309658083
 44
-72.3161373035813
 45
-0.1414213562373095
 46
0.0
 79
     0
 98
        1
 10
0.0
 20
0.0
  0
HATCH
  5
210
330
7D
100
AcDbEntity
  8
1
  6
Continuous
 62
     2
100
AcDbHatch
 10
0.0
 20
0.0
 30
0.0
210
0.0
220
0.0
230
1.0
  2
CUSTOM3
 70
     0
 71
     1
 91
        1
 92
        1
 93
       10
 72
     1
 10
-152.3432241607702
 20
-300.1864551660273
 11
-153.5837285710232
 21
-298.8776796558221
 72
     1
 10
-153.5837285710232
 20
-298.8776796558221
 11
-154.7765212731907
 21
-298.8776796558221
 72
     1
 10
-154.7765212731907
 20
-298.8776796558221
 11
-154.7765212731907
 21
-301.9314891796332
 72
     1
 10
-154.7765212731907
 20
-301.9314891796332
 11
-153.5837285710232
 21
-301.9314891796332
 72
     1
 10
-153.5837285710232
 20
-301.9314891796332
 11
-153.5837285710232
 21
-300.6227136694287
 72
     1
 10
-153.5837285710232
 20
-300.6227136694287
 11
-152.3432241607702
 21
-301.9314891796332
 72
     1
 10
-152.3432241607702
 20
-301.9314891796332
 11
-151.1504314586038
 21
-301.9314891796332
 72
     1
 10
-151.1504314586038
 20
-301.9314891796332
 11
-151.1504314586038
 21
-298.8776796558221
 72
     1
 10
-151.1504314586038
 20
-298.8776796558221
 11
-152.3432241607702
 21
-298.8776796558221
 72
     1
 10
-152.3432241607702
 20
-298.8776796558221
 11
-152.3432241607702
 21
-300.1864551660273
 97
       10
330
14E
330
11E
330
11D
330
120
330
149
330
14A
330
11F
330
14B
330
14C
330
14D
 75
     1
 76
     2
 52
45.0
 41
0.1
 77
     0
 78
     1
 53
45.0
 43
62.7811309658083
 44
-72.3161373035813
 45
-0.1414213562373095
 46
0.0
 79
     0
 98
        1
 10
0.0
 20
0.0
  0
HATCH
  5
211
330
7D
100
AcDbEntity
  8
1
  6
Continuous
 62
     2
100
AcDbHatch
 10
0.0
 20
0.0
 30
0.0
210
0.0
220
0.0
230
1.0
  2
CUSTOM4
 70
     0
 71
     1
 91
        1
 92
        1
 93
       10
 72
     1
 10
-147.0947853403505
 20
-296.8272646898529
 11
-148.3352897506046
 21
-295.5184891796478
 72
     1
 10
-148.3352897506046
 20
-295.5184891796478
 11
-149.528082452771
 21
-295.5184891796478
 72
     1
 10
-149.528082452771
 20
-295.5184891796478
 11
-149.528082452771
 21
-298.5722987034589
 72
     1
 10
-149.528082452771
 20
-298.5722987034589
 11
-148.3352897506046
 21
-298.5722987034589
 72
     1
 10
-148.3352897506046
 20
-298.5722987034589
 11
-148.3352897506046
 21
-297.2635231932542
 72
     1
 10
-148.3352897506046
 20
-297.2635231932542
 11
-147.0947853403505
 21
-298.5722987034589
 72
     1
 10
-147.0947853403505
 20
-298.5722987034589
 11
-145.9019926381839
 21
-298.5722987034589
 72
     1
 10
-145.9019926381839
 20
-298.5722987034589
 11
-145.9019926381839
 21
-295.5184891796478
 72
     1
 10
-145.9019926381839
 20
-295.5184891796478
 11
-147.0947853403505
 21
-295.5184891796478
 72
     1
 10
-147.0947853403505
 20
-295.5184891796478
 11
-147.0947853403505
 21
-296.8272646898529
 97
       10
330
153
330
11B
330
11A
330
154
330
119
330
14F
330
150
330
151
330
152
330
11C
 75
     1
 76
     2
 52
45.0
 41
0.1
 77
     0
 78
     1
 53
45.0
 43
62.7811309658083
 44
-72.3161373035813
 45
-0.1414213562373095
 46
0.0
 79
     0
 98
        1
 10
0.0
 20
0.0
  0
HATCH
  5
212
330
7D
100
AcDbEntity
  8
1
  6
Continuous
 62
     2
100
AcDbHatch
 10
0.0
 20
0.0
 30
0.0
210
0.0
220
0.0
230
1.0
  2
CUSTOM5
 70
     0
 71
     1
 91
        1
 92
        1
 93
       10
 72
     1
 10
-147.0947853403505
 20
-296.8272646898529
 11
-148.3352897506046
 21
-295.5184891796478
 72
     1
 10
-148.3352897506046
 20
-295.5184891796478
 11
-149.528082452771
 21
-295.5184891796478
 72
     1
 10
-149.528082452771
 20
-295.5184891796478
 11
-149.528082452771
 21
-298.5722987034589
 72
     1
 10
-149.528082452771
 20
-298.5722987034589
 11
-148.3352897506046
 21
-298.5722987034589
 72
     1
 10
-148.3352897506046
 20
-298.5722987034589
 11
-148.3352897506046
 21
-297.2635231932542
 72
     1
 10
-148.3352897506046
 20
-297.2635231932542
 11
-147.0947853403505
 21
-298.5722987034589
 72
     1
 10
-147.0947853403505
 20
-298.5722987034589
 11
-145.9019926381839
 21
-298.5722987034589
 72
     1
 10
-145.9019926381839
 20
-298.5722987034589
 11
-145.9019926381839
 21
-295.5184891796478
 72
     1
 10
-145.9019926381839
 20
-295.5184891796478
 11
-147.0947853403505
 21
-295.5184891796478
 72
     1
 10
-147.0947853403505
 20
-295.5184891796478
 11
-147.0947853403505
 21
-296.8272646898529
 97
       10
330
153
330
11B
330
11A
330
154
330
119
330
14F
330
150
330
151
330
152
330
11C
 75
     1
 76
     2
 52
45.0
 41
0.1
 77
     0
 78
     1
 53
45.0
 43
62.7811309658083
 44
-72.3161373035813
 45
-0.1414213562373095
 46
0.0
 79
     0
 98
        1
 10
0.0
 20
0.0
  0
HATCH
  5
213
330
7D
100
AcDbEntity
  8
1
  6
Continuous
 62
     2
100
AcDbHatch
 10
0.0
 20
0.0
 30
0.0
210
0.0
220
0.0
230
1.0
  2
CUSTOM6
 70
     0
 71
     1
 91
        1
 92
        1
 93
        8
 72
     1
 10
-148.19230555723
 20
-298.8776796558221
 11
-151.0072963343437
 21
-298.8776796558221
 72
     1
 10
-151.0072963343437
 20
-298.8776796558221
 11
-151.0072963343437
 21
-299.6629449619458
 72
     1
 10
-151.0072963343437
 20
-299.6629449619458
 11
-150.196197296869
 21
-299.6629449619458
 72
     1
 10
-150.196197296869
 20
-299.6629449619458
 11
-150.196197296869
 21
-301.9314891796332
 72
     1
 10
-150.196197296869
 20
-301.9314891796332
 11
-149.0034045947026
 21
-301.9314891796332
 72
     1
 10
-149.0034045947026
 20
-301.9314891796332
 11
-149.0034045947026
 21
-299.6629449619458
 72
     1
 10
-149.0034045947026
 20
-299.6629449619458
 11
-148.19230555723
 21
-299.6629449619458
 72
     1
 10
-148.19230555723
 20
-299.6629449619458
 11
-148.19230555723
 21
-298.8776796558221
 97
        8
330
115
330
155
330
114
330
156
330
157
330
118
330
117
330
116
 75
     1
 76
     2
 52
45.0
 41
0.1
 77
     0
 78
     1
 53
45.0
 43
62.7811309658083
 44
-72.3161373035813
 45
-0.1414213562373095
 46
0.0
 79
     0
 98
        1
 10
0.0
 20
0.0
  0
HATCH
  5
214
330
7D
100
AcDbEntity
  8
1
  6
Continuous
 62
     2
100
AcDbHatch
 10
0.0
 20
0.0
 30
0.0
210
0.0
220
0.0
230
1.0
  2
CUSTOM7
 70
     0
 71
     1
 91
        1
 92
        1
 93
        8
 72
     1
 10
-148.19230555723
 20
-298.8776796558221
 11
-151.0072963343437
 21
-298.8776796558221
 72
     1
 10
-151.0072963343437
 20
-298.8776796558221
 11
-151.0072963343437
 21
-299.6629449619458
 72
     1
 10
-151.0072963343437
 20
-299.6629449619458
 11
-150.196197296869
 21
-299.6629449619458
 72
     1
 10
-150.196197296869
 20
-299.6629449619458
 11
-150.196197296869
 21
-301.9314891796332
 72
     1
 10
-150.196197296869
 20
-301.9314891796332
 11
-149.0034045947026
 21
-301.9314891796332
 72
     1
 10
-149.0034045947026
 20
-301.9314891796332
 11
-149.0034045947026
 21
-299.6629449619458
 72
     1
 10
-149.0034045947026
 20
-299.6629449619458
 11
-148.19230555723
 21
-299.6629449619458
 72
     1
 10
-148.19230555723
 20
-299.6629449619458
 11
-148.19230555723
 21
-298.8776796558221
 97
        8
330
115
330
155
330
114
330
156
330
157
330
118
330
117
330
116
 75
     1
 76
     2
 52
45.0
 41
0.1
 77
     0
 78
     1
 53
45.0
 43
62.7811309658083
 44
-72.3161373035813
 45
-0.1414213562373095
 46
0.0
 79
     0
 98
        1
 10
0.0
 20
0.0
  0
HATCH
  5
215
330
7D
100
AcDbEntity
  8
1
  6
Continuous
 62
     2
100
AcDbHatch
 10
0.0
 20
0.0
 30
0.0
210
0.0
220
0.0
230
1.0
  2
CUSTOM8
 70
     0
 71
     1
 91
        2
 92
        1
 93
        8
 72
     1
 10
-146.053878101283
 20
-301.9314891796332
 11
-146.2653581547588
 21
-301.3905286354154
 72
     1
 10
-146.2653581547588
 20
-301.3905286354154
 11
-147.3977997314327
 21
-301.3905286354154
 72
     1
 10
-147.3977997314327
 20
-301.3905286354154
 11
-147.6092797849085
 21
-301.9314891796332
 72
     1
 10
-147.6092797849085
 20
-301.9314891796332
 11
-148.8497841951614
 21
-301.9314891796332
 72
     1
 10
-148.8497841951614
 20
-301.9314891796332
 11
-147.4518311482222
 21
-298.8776796558221
 72
     1
 10
-147.4518311482222
 20
-298.8776796558221
 11
-146.2113267379694
 21
-298.8776796558221
 72
     1
 10
-146.2113267379694
 20
-298.8776796558221
 11
-144.8133736910291
 21
-301.9314891796332
 72
     1
 10
-144.8133736910291
 20
-301.9314891796332
 11
-146.053878101283
 21
-301.9314891796332
 97
        8
330
159
330
15A
330
111
330
15B
330
110
330
113
330
158
330
112
 92
       16
 93
        3
 72
     1
 10
-147.1317441802876
 20
-300.7099653701088
 11
-146.8315789430953
 21
-299.9421504041221
 72
     1
 10
-146.8315789430953
 20
-299.9421504041221
 11
-146.5314137059051
 21
-300.7099653701088
 72
     1
 10
-146.5314137059051
 20
-300.7099653701088
 11
-147.1317441802876
 21
-300.7099653701088
 97
        3
330
10F
330
15D
330
15C
 75
     1
 76
     2
 52
45.0
 41
0.1
 77
     0
 78
     1
 53
45.0
 43
62.7811309658083
 44
-72.3161373035813
 45
-0.1414213562373095
 46
0.0
 79
     0
 98
        1
 10
0.0
 20
0.0
  0
HATCH
  5
216
330
7D
100
AcDbEntity
  8
1
  6
Continuous
 62
     2
100
AcDbHatch
 10
0.0
 20
0.0
 30
0.0
210
0.0
220
0.0
230
1.0
  2
CUSTOM9
 70
     0
 71
     1
 91
        2
 92
        1
 93
        8
 72
     1
 10
-146.053878101283
 20
-301.9314891796332
 11
-146.2653581547588
 21
-301.3905286354154
 72
     1
 10
-146.2653581547588
 20
-301.3905286354154
 11
-147.3977997314327
 21
-301.3905286354154
 72
     1
 10
-147.3977997314327
 20
-301.3905286354154
 11
-147.6092797849085
 21
-301.9314891796332
 72
     1
 10
-147.6092797849085
 20
-301.9314891796332
 11
-148.8497841951614
 21
-301.9314891796332
 72
     1
 10
-148.8497841951614
 20
-301.9314891796332
 11
-147.4518311482222
 21
-298.8776796558221
 72
     1
 10
-147.4518311482222
 20
-298.8776796558221
 11
-146.2113267379694
 21
-298.8776796558221
 72
     1
 10
-146.2113267379694
 20
-298.8776796558221
 11
-144.8133736910291
 21
-301.9314891796332
 72
     1
 10
-144.8133736910291
 20
-301.9314891796332
 11
-146.053878101283
 21
-301.9314891796332
 97
        8
330
159
330
15A
330
111
330
15B
330
110
330
113
330
158
330
112
 92
       16
 93
        3
 72
     1
 10
-147.1317441802876
 20
-300.7099653701088
 11
-146.8315789430953
 21
-299.9421504041221
 72
     1
 10
-146.8315789430953
 20
-299.9421504041221
 11
-146.5314137059051
 21
-300.7099653701088
 72
     1
 10
-146.5314137059051
 20
-300.7099653701088
 11
-147.1317441802876
 21
-300.7099653701088
 97
        3
330
10F
330
15D
330
15C
 75
     1
 76
     2
 52
45.0
 41
0.1
 77
     0
 78
     1
 53
45.0
 43
62.7811309658083
 44
-72.3161373035813
 45
-0.1414213562373095
 46
0.0
 79
     0
 98
        1
 10
0.0
 20
0.0
  0
HATCH
  5
217
330
7D
100
AcDbEntity
  8
1
  6
Continuous
 62
     2
100
AcDbHatch
 10
0.0
 20
0.0
 30
0.0
210
0.0
220
0.0
230
1.0
  2
CUSTOM10
 70
     0
 71
     1
 91
        1
 92
        1
 93
        4
 72
     1
 10
-144.4229296874971
 20
-298.5722987034589
 11
-145.66343409775
 21
-298.5722987034589
 72
     1
 10
-145.66343409775
 20
-298.5722987034589
 11
-145.66343409775
 21
-295.5184891796478
 72
     1
 10
-145.66343409775
 20
-295.5184891796478
 11
-144.4229296874971
 21
-295.5184891796478
 72
     1
 10
-144.4229296874971
 20
-295.5184891796478
 11
-144.4229296874971
 21
-298.5722987034589
 97
        4
330
10C
330
10E
330
15E
330
10D
 75
     1
 76
     2
 52
45.0
 41
0.1
 77
     0
 78
     1
 53
45.0
 43
62.7811309658083
 44
-72.3161373035813
 45
-0.1414213562373095
 46
0.0
 79
     0
 98
        1
 10
0.0
 20
0.0
  0
HATCH
  5
218
330
7D
100
AcDbEntity
  8
1
  6
Continuous
 62
     2
100
AcDbHatch
 10
0.0
 20
0.0
 30
0.0
210
0.0
220
0.0
230
1.0
  2
CUSTOM11
 70
     0
 71
     1
 91
        1
 92
        1
 93
        4
 72
     1
 10
-144.4229296874971
 20
-298.5722987034589
 11
-145.66343409775
 21
-298.5722987034589
 72
     1
 10
-145.66343409775
 20
-298.5722987034589
 11
-145.66343409775
 21
-295.5184891796478
 72
     1
 10
-145.66343409775
 20
-295.5184891796478
 11
-144.4229296874971
 21
-295.5184891796478
 72
     1
 10
-144.4229296874971
 20
-295.5184891796478
 11
-144.4229296874971
 21
-298.5722987034589
 97
        4
330
10C
330
10E
330
15E
330
10D
 75
     1
 76
     2
 52
45.0
 41
0.1
 77
     0
 78
     1
 53
45.0
 43
62.7811309658083
 44
-72.3161373035813
 45
-0.1414213562373095
 46
0.0
 79
     0
 98
        1
 10
0.0
 20
0.0
  0
HATCH
  5
219
330
7D
100
AcDbEntity
  8
1
  6
Continuous
 62
     2
100
AcDbHatch
 10
0.0
 20
0.0
 30
0.0
210
0.0
220
0.0
230
1.0
  2
CUSTOM12
 70
     0
 71
     1
 91
        1
 92
        1
 93
       12
 72
     1
 10
-140.2004435218263
 20
-295.5184891796478
 11
-141.5029731525929
 21
-296.991439709684
 72
     1
 10
-141.5029731525929
 20
-296.991439709684
 11
-140.1050201056526
 21
-298.5722987034589
 72
     1
 10
-140.1050201056526
 20
-298.5722987034589
 11
-141.5077443234009
 21
-298.5722987034589
 72
     1
 10
-141.5077443234009
 20
-298.5722987034589
 11
-142.2043352614663
 21
-297.7845669181652
 72
     1
 10
-142.2043352614663
 20
-297.7845669181652
 11
-142.9009261995321
 21
-298.5722987034589
 72
     1
 10
-142.9009261995321
 20
-298.5722987034589
 11
-144.3036504172802
 21
-298.5722987034589
 72
     1
 10
-144.3036504172802
 20
-298.5722987034589
 11
-142.9056973703399
 21
-296.991439709684
 72
     1
 10
-142.9056973703399
 20
-296.991439709684
 11
-144.2082270011074
 21
-295.5184891796478
 72
     1
 10
-144.2082270011074
 20
-295.5184891796478
 11
-142.8055027833582
 21
-295.5184891796478
 72
     1
 10
-142.8055027833582
 20
-295.5184891796478
 11
-142.2043352614663
 21
-296.1983125012033
 72
     1
 10
-142.2043352614663
 20
-296.1983125012033
 11
-141.6031677395735
 21
-295.5184891796478
 72
     1
 10
-141.6031677395735
 20
-295.5184891796478
 11
-140.2004435218263
 21
-295.5184891796478
 97
       12
330
107
330
106
330
105
330
162
330
163
330
15F
330
160
330
10B
330
10A
330
109
330
108
330
161
 75
     1
 76
     2
 52
45.0
 41
0.1
 77
     0
 78
     1
 53
45.0
 43
62.7811309658083
 44
-72.3161373035813
 45
-0.1414213562373095
 46
0.0
 79
     0
 98
        1
 10
0.0
 20
0.0
  0
HATCH
  5
21A
330
7D
100
AcDbEntity
  8
1
  6
Continuous
 62
     2
100
AcDbHatch
 10
0.0
 20
0.0
 30
0.0
210
0.0
220
0.0
230
1.0
  2
CUSTOM13
 70
     0
 71
     1
 91
        1
 92
        1
 93
       12
 72
     1
 10
-140.2004435218263
 20
-295.5184891796478
 11
-141.5029731525929
 21
-296.991439709684
 72
     1
 10
-141.5029731525929
 20
-296.991439709684
 11
-140.1050201056526
 21
-298.5722987034589
 72
     1
 10
-140.1050201056526
 20
-298.5722987034589
 11
-141.5077443234009
 21
-298.5722987034589
 72
     1
 10
-141.5077443234009
 20
-298.5722987034589
 11
-142.2043352614663
 21
-297.7845669181652
 72
     1
 10
-142.2043352614663
 20
-297.7845669181652
 11
-142.9009261995321
 21
-298.5722987034589
 72
     1
 10
-142.9009261995321
 20
-298.5722987034589
 11
-144.3036504172802
 21
-298.5722987034589
 72
     1
 10
-144.3036504172802
 20
-298.5722987034589
 11
-142.9056973703399
 21
-296.991439709684
 72
     1
 10
-142.9056973703399
 20
-296.991439709684
 11
-144.2082270011074
 21
-295.5184891796478
 72
     1
 10
-144.2082270011074
 20
-295.5184891796478
 11
-142.8055027833582
 21
-295.5184891796478
 72
     1
 10
-142.8055027833582
 20
-295.5184891796478
 11
-142.2043352614663
 21
-296.1983125012033
 72
     1
 10
-142.2043352614663
 20
-296.1983125012033
 11
-141.6031677395735
 21
-295.5184891796478
 72
     1
 10
-141.6031677395735
 20
-295.5184891796478
 11
-140.2004435218263
 21
-295.5184891796478
 97
       12
330
107
330
106
330
105
330
162
330
163
330
15F
330
160
330
10B
330
10A
330
109
330
108
330
161
 75
     1
 76
     2
 52
45.0
 41
0.1
 77
     0
 78
     1
 53
45.0
 43
62.7811309658083
 44
-72.3161373035813
 45
-0.1414213562373095
 46
0.0
 79
     0
 98
        1
 10
0.0
 20
0.0
  0
HATCH
  5
21B
330
7D
100
AcDbEntity
  8
1
  6
Continuous
 62
     2
100
AcDbHatch
 10
0.0
 20
0.0
 30
0.0
210
0.0
220
0.0
230
1.0
  2
CUSTOM14
 70
     0
 71
     1
 91
        2
 92
        1
 93
        6
 72
     1
 10
-159.2181789359723
 20
-297.6292204623152
 11
-159.9769465237527
 21
-297.6292204623152
 72
     1
 10
-159.9769465237527
 20
-297.6292204623152
 11
-159.9769465237527
 21
-298.5722987034589
 72
     1
 10
-159.9769465237527
 20
-298.5722987034589
 11
-161.2174509340067
 21
-298.5722987034589
 72
     1
 10
-161.2174509340067
 20
-298.5722987034589
 11
-161.2174509340067
 21
-295.5184891796478
 72
     1
 10
-161.2174509340067
 20
-295.5184891796478
 11
-159.2181789359723
 21
-295.5184891796478
 72
     2
 10
-159.2181789359723
 20
-296.5738548209815
 40
1.055365641333651
 50
270.0
 51
450.0
 73
     0
 97
        6
330
12F
330
12E
330
13B
330
13A
330
130
330
1B9
 92
       16
 93
        4
 72
     2
 10
-159.6596514622107
 20
-296.534458849759
 40
0.3528638246710898
 50
270.0
 51
450.0
 73
     1
 72
     1
 10
-159.6596514622107
 20
-296.1815950250878
 11
-159.9769465237527
 21
-296.1815950250878
 72
     1
 10
-159.9769465237527
 20
-296.1815950250878
 11
-159.9769465237527
 21
-296.8873226744301
 72
     1
 10
-159.9769465237527
 20
-296.8873226744301
 11
-159.6596514622107
 21
-296.8873226744301
 97
        4
330
1CD
330
12C
330
13C
330
12D
 75
     1
 76
     2
 52
45.0
 41
0.1
 77
     0
 78
     1
 53
45.0
 43
62.7811309658083
 44
-72.3161373035813
 45
-0.1414213562373095
 46
0.0
 79
     0
 98
        1
 10
0.0
 20
0.0
  0
HATCH
  5
21C
330
7D
100
AcDbEntity
  8
1
  6
Continuous
 62
     2
100
AcDbHatch
 10
0.0
 20
0.0
 30
0.0
210
0.0
220
0.0
230
1.0
  2
CUSTOM15
 70
     0
 71
     1
 91
        2
 92
        1
 93
        6
 72
     1
 10
-159.2181789359723
 20
-297.6292204623152
 11
-159.9769465237527
 21
-297.6292204623152
 72
     1
 10
-159.9769465237527
 20
-297.6292204623152
 11
-159.9769465237527
 21
-298.5722987034589
 72
     1
 10
-159.9769465237527
 20
-298.5722987034589
 11
-161.2174509340067
 21
-298.5722987034589
 72
     1
 10
-161.2174509340067
 20
-298.5722987034589
 11
-161.2174509340067
 21
-295.5184891796478
 72
     1
 10
-161.2174509340067
 20
-295.5184891796478
 11
-159.2181789359723
 21
-295.5184891796478
 72
     2
 10
-159.2181789359723
 20
-296.5738548209815
 40
1.055365641333651
 50
270.0
 51
450.0
 73
     0
 97
        6
330
12F
330
12E
330
13B
330
13A
330
130
330
1B9
 92
       16
 93
        4
 72
     2
 10
-159.6596514622107
 20
-296.534458849759
 40
0.3528638246710898
 50
270.0
 51
450.0
 73
     1
 72
     1
 10
-159.6596514622107
 20
-296.1815950250878
 11
-159.9769465237527
 21
-296.1815950250878
 72
     1
 10
-159.9769465237527
 20
-296.1815950250878
 11
-159.9769465237527
 21
-296.8873226744301
 72
     1
 10
-159.9769465237527
 20
-296.8873226744301
 11
-159.6596514622107
 21
-296.8873226744301
 97
        4
330
1CD
330
12C
330
13C
330
12D
 75
     1
 76
     2
 52
45.0
 41
0.1
 77
     0
 78
     1
 53
45.0
 43
62.7811309658083
 44
-72.3161373035813
 45
-0.1414213562373095
 46
0.0
 79
     0
 98
        1
 10
0.0
 20
0.0
  0
HATCH
  5
21D
330
7D
100
AcDbEntity
  8
1
  6
Continuous
 62
     2
100
AcDbHatch
 10
0.0
 20
0.0
 30
0.0
210
0.0
220
0.0
230
1.0
  2
CUSTOM16
 70
     0
 71
     1
 91
        2
 92
        1
 93
        4
 72
     2
 10
-156.6616361876132
 20
-300.9431594280308
 40
2.065479772208694
 50
62.45185182430819
 51
117.5481481756674
 73
     1
 72
     2
 10
-156.9425760794466
 20
-300.404584417728
 40
1.458034083651616
 50
117.5481481756598
 51
242.451851824337
 73
     1
 72
     2
 10
-156.6616361876132
 20
-299.8660094074246
 40
2.065479772208637
 50
242.4518518243384
 51
297.548148175686
 73
     1
 72
     2
 10
-156.38069629578
 20
-300.404584417728
 40
1.45803408365203
 50
297.5481481757055
 51
422.4518518242976
 73
     1
 97
        4
330
1C5
330
1C4
330
1C6
330
1C3
 92
       16
 93
        4
 72
     2
 10
-156.8613762239596
 20
-300.404584417728
 40
0.7717997786795351
 50
321.8795802028432
 51
398.1204197971668
 73
     1
 72
     2
 10
-156.6616361876132
 20
-300.2478532396075
 40
0.5179085730132806
 50
38.12041979716469
 51
141.8795802028567
 73
     1
 72
     2
 10
-156.4618961512672
 20
-300.404584417728
 40
0.771799778679551
 50
141.879580202828
 51
218.120419797162
 73
     1
 72
     2
 10
-156.6616361876132
 20
-300.5613155958479
 40
0.5179085730138424
 50
218.1204197971879
 51
321.8795802027908
 73
     1
 97
        4
330
1E1
330
1DE
330
1DF
330
1E0
 75
     1
 76
     2
 52
45.0
 41
0.1
 77
     0
 78
     1
 53
45.0
 43
62.7811309658083
 44
-72.3161373035813
 45
-0.1414213562373095
 46
0.0
 79
     0
 98
        1
 10
0.0
 20
0.0
  0
HATCH
  5
21E
330
7D
100
AcDbEntity
  8
1
  6
Continuous
 62
     2
100
AcDbHatch
 10
0.0
 20
0.0
 30
0.0
210
0.0
220
0.0
230
1.0
  2
CUSTOM17
 70
     0
 71
     1
 91
        2
 92
        1
 93
        4
 72
     2
 10
-156.6616361876132
 20
-300.9431594280308
 40
2.065479772208694
 50
62.45185182430819
 51
117.5481481756674
 73
     1
 72
     2
 10
-156.9425760794466
 20
-300.404584417728
 40
1.458034083651616
 50
117.5481481756598
 51
242.451851824337
 73
     1
 72
     2
 10
-156.6616361876132
 20
-299.8660094074246
 40
2.065479772208637
 50
242.4518518243384
 51
297.548148175686
 73
     1
 72
     2
 10
-156.38069629578
 20
-300.404584417728
 40
1.45803408365203
 50
297.5481481757055
 51
422.4518518242976
 73
     1
 97
        4
330
1C5
330
1C4
330
1C6
330
1C3
 92
       16
 93
        4
 72
     2
 10
-156.8613762239596
 20
-300.404584417728
 40
0.7717997786795351
 50
321.8795802028432
 51
398.1204197971668
 73
     1
 72
     2
 10
-156.6616361876132
 20
-300.2478532396075
 40
0.5179085730132806
 50
38.12041979716469
 51
141.8795802028567
 73
     1
 72
     2
 10
-156.4618961512672
 20
-300.404584417728
 40
0.771799778679551
 50
141.879580202828
 51
218.120419797162
 73
     1
 72
     2
 10
-156.6616361876132
 20
-300.5613155958479
 40
0.5179085730138424
 50
218.1204197971879
 51
321.8795802027908
 73
     1
 97
        4
330
1E1
330
1DE
330
1DF
330
1E0
 75
     1
 76
     2
 52
45.0
 41
0.1
 77
     0
 78
     1
 53
45.0
 43
62.7811309658083
 44
-72.3161373035813
 45
-0.1414213562373095
 46
0.0
 79
     0
 98
        1
 10
0.0
 20
0.0
  0
HATCH
  5
21F
330
7D
100
AcDbEntity
  8
1
  6
Continuous
 62
     2
100
AcDbHatch
 10
0.0
 20
0.0
 30
0.0
210
0.0
220
0.0
230
1.0
  2
CUSTOM18
 70
     0
 71
     1
 91
        2
 92
        1
 93
       12
 72
     1
 10
-149.766640993204
 20
-296.2165027850907
 11
-151.1025688196316
 21
-296.2165027850907
 72
     1
 10
-151.1025688196316
 20
-296.2165027850907
 11
-151.1025688196316
 21
-296.6963871388324
 72
     1
 10
-151.1025688196316
 20
-296.6963871388324
 11
-149.766640993204
 21
-296.6963871388324
 72
     1
 10
-149.766640993204
 20
-296.6963871388324
 11
-149.766640993204
 21
-297.3944007442748
 72
     1
 10
-149.766640993204
 20
-297.3944007442748
 11
-151.1025688196316
 21
-297.3944007442748
 72
     1
 10
-151.1025688196316
 20
-297.3944007442748
 11
-151.1025688196316
 21
-297.8742850980165
 72
     1
 10
-151.1025688196316
 20
-297.8742850980165
 11
-149.766640993204
 21
-297.8742850980165
 72
     1
 10
-149.766640993204
 20
-297.8742850980165
 11
-149.766640993204
 21
-298.5722987034589
 72
     1
 10
-149.766640993204
 20
-298.5722987034589
 11
-152.9169607169849
 21
-298.5722987034589
 72
     2
 10
-152.9169607169849
 20
-297.0453939415536
 40
1.526904761905769
 50
90.0
 51
270.0
 73
     0
 72
     1
 10
-152.9169607169849
 20
-295.5184891796478
 11
-149.766640993204
 21
-295.5184891796478
 72
     1
 10
-149.766640993204
 20
-295.5184891796478
 11
-149.766640993204
 21
-296.2165027850907
 97
       12
330
143
330
1CE
330
144
330
145
330
146
330
147
330
124
330
123
330
122
330
121
330
148
330
142
 92
       16
 93
        4
 72
     2
 10
-152.7006887068197
 20
-296.8886627634331
 40
0.5179085730133669
 50
38.12041979714121
 51
141.8795802028666
 73
     1
 72
     2
 10
-152.5009486704735
 20
-297.0453939415536
 40
0.7717997786796245
 50
141.8795802028484
 51
218.1204197971549
 73
     1
 72
     2
 10
-152.7006887068197
 20
-297.2021251196741
 40
0.5179085730134564
 50
218.1204197971334
 51
321.8795802028588
 73
     1
 72
     2
 10
-152.9004287431659
 20
-297.0453939415536
 40
0.7717997786795479
 50
321.8795802028385
 51
398.1204197971581
 73
     1
 97
        4
330
1C8
330
1C7
330
1C2
330
1C1
 75
     1
 76
     2
 52
45.0
 41
0.1
 77
     0
 78
     1
 53
45.0
 43
62.7811309658083
 44
-72.3161373035813
 45
-0.1414213562373095
 46
0.0
 79
     0
 98
        1
 10
0.0
 20
0.0
  0
HATCH
  5
220
330
7D
100
AcDbEntity
  8
1
  6
Continuous
 62
     2
100
AcDbHatch
 10
0.0
 20
0.0
 30
0.0
210
0.0
220
0.0
230
1.0
  2
CUSTOM19
 70
     0
 71
     1
 91
        2
 92
        1
 93
       12
 72
     1
 10
-149.766640993204
 20
-296.2165027850907
 11
-151.1025688196316
 21
-296.2165027850907
 72
     1
 10
-151.1025688196316
 20
-296.2165027850907
 11
-151.1025688196316
 21
-296.6963871388324
 72
     1
 10
-151.1025688196316
 20
-296.6963871388324
 11
-149.766640993204
 21
-296.6963871388324
 72
     1
 10
-149.766640993204
 20
-296.6963871388324
 11
-149.766640993204
 21
-297.3944007442748
 72
     1
 10
-149.766640993204
 20
-297.3944007442748
 11
-151.1025688196316
 21
-297.3944007442748
 72
     1
 10
-151.1025688196316
 20
-297.3944007442748
 11
-151.1025688196316
 21
-297.8742850980165
 72
     1
 10
-151.1025688196316
 20
-297.8742850980165
 11
-149.766640993204
 21
-297.8742850980165
 72
     1
 10
-149.766640993204
 20
-297.8742850980165
 11
-149.766640993204
 21
-298.5722987034589
 72
     1
 10
-149.766640993204
 20
-298.5722987034589
 11
-152.9169607169849
 21
-298.5722987034589
 72
     2
 10
-152.9169607169849
 20
-297.0453939415536
 40
1.526904761905769
 50
90.0
 51
270.0
 73
     0
 72
     1
 10
-152.9169607169849
 20
-295.5184891796478
 11
-149.766640993204
 21
-295.5184891796478
 72
     1
 10
-149.766640993204
 20
-295.5184891796478
 11
-149.766640993204
 21
-296.2165027850907
 97
       12
330
143
330
1CE
330
144
330
145
330
146
330
147
330
124
330
123
330
122
330
121
330
148
330
142
 92
       16
 93
        4
 72
     2
 10
-152.7006887068197
 20
-296.8886627634331
 40
0.5179085730133669
 50
38.12041979714121
 51
141.8795802028666
 73
     1
 72
     2
 10
-152.5009486704735
 20
-297.0453939415536
 40
0.7717997786796245
 50
141.8795802028484
 51
218.1204197971549
 73
     1
 72
     2
 10
-152.7006887068197
 20
-297.2021251196741
 40
0.5179085730134564
 50
218.1204197971334
 51
321.8795802028588
 73
     1
 72
     2
 10
-152.9004287431659
 20
-297.0453939415536
 40
0.7717997786795479
 50
321.8795802028385
 51
398.1204197971581
 73
     1
 97
        4
330
1C8
330
1C7
330
1C2
330
1C1
 75
     1
 76
     2
 52
45.0
 41
0.1
 77
     0
 78
     1
 53
45.0
 43
62.7811309658083
 44
-72.3161373035813
 45
-0.1414213562373095
 46
0.0
 79
     0
 98
        1
 10
0.0
 20
0.0
  0
HATCH
  5
221
330
7D
100
AcDbEntity
  8
1
  6
Continuous
 62
     2
100
AcDbHatch
 10
0.0
 20
0.0
 30
0.0
210
0.0
220
0.0
230
1.0
  2
CUSTOM20
 70
     0
 71
     1
 91
        4
 92
        1
 93
        8
 72
     1
 10
-161.6945680148735
 20
-295.9427337950498
 11
-161.6945680148735
 21
-301.50724456425
 72
     2
 10
-162.1188126302574
 20
-301.50724456425
 40
0.424244615383202
 50
0.0
 51
90.0
 73
     0
 72
     1
 10
-162.1188126302574
 20
-301.9314891796332
 11
-167.5921247209743
 21
-301.9314891796332
 72
     2
 10
-167.5921247209743
 20
-301.50724456425
 40
0.4242446153827757
 50
90.0
 51
180.0
 73
     0
 72
     1
 10
-168.0163693363571
 20
-301.50724456425
 11
-168.0163693363571
 21
-295.9427337950498
 72
     2
 10
-167.5921247209743
 20
-295.9427337950498
 40
0.4242446153838841
 50
180.0
 51
270.0
 73
     0
 72
     1
 10
-167.5921247209743
 20
-295.5184891796659
 11
-162.1188126302574
 21
-295.5184891796659
 72
     2
 10
-162.1188126302574
 20
-295.9427337950498
 40
0.4242446153838841
 50
270.0
 51
360.0
 73
     0
 97
        8
330
137
330
1BE
330
138
330
1C9
330
135
330
1C0
330
136
330
1BF
 92
       16
 93
       12
 72
     2
 10
-166.9982300442278
 20
-300.9032167009996
 40
0.3157169230755983
 50
180.0
 51
270.0
 73
     1
 72
     1
 10
-166.9982300442278
 20
-301.2189336240763
 11
-165.5223967832182
 21
-301.2189336240763
 72
     2
 10
-165.5223967832182
 20
-300.9032167009996
 40
0.3157169230767067
 50
270.0
 51
360.0
 73
     1
 72
     1
 10
-165.2066798601416
 20
-300.9032167009996
 11
-165.2066798601416
 21
-299.372445769468
 72
     2
 10
-165.5223967832182
 20
-299.372445769468
 40
0.315716923076593
 50
0.0
 51
64.805589351446
 73
     1
 72
     2
 10
-164.9998123356432
 20
-298.2616160234053
 40
0.9118975235576433
 50
115.1944106485089
 51
244.8055893514805
 73
     0
 72
     2
 10
-165.5223967832182
 20
-297.1507862773431
 40
0.3157169230760658
 50
295.1944106485672
 51
360.0
 73
     1
 72
     1
 10
-165.2066798601416
 20
-297.1507862773431
 11
-165.2066798601416
 21
-296.5467616582825
 72
     2
 10
-165.5223967832182
 20
-296.5467616582825
 40
0.315716923076593
 50
0.0
 51
90.0
 73
     1
 72
     1
 10
-165.5223967832182
 20
-296.2310447352064
 11
-166.9982300442278
 21
-296.2310447352064
 72
     2
 10
-166.9982300442278
 20
-296.5467616582825
 40
0.3157169230760815
 50
90.0
 51
180.0
 73
     1
 72
     1
 10
-167.3139469673034
 20
-296.5467616582825
 11
-167.3139469673034
 21
-300.9032167009996
 97
       12
330
1BA
330
139
330
1BD
330
134
330
1CA
330
1CB
330
1BC
330
133
330
1BB
330
132
330
1CC
330
131
 92
       16
 93
        8
 72
     2
 10
-164.422681357696
 20
-299.3707576233736
 40
0.3157169230765328
 50
115.3740086783519
 51
180.0
 73
     1
 72
     1
 10
-164.7383982807728
 20
-299.3707576233736
 11
-164.7383982807728
 21
-299.9526090300687
 72
     2
 10
-164.422681357696
 20
-299.9526090300687
 40
0.315716923076792
 50
180.0
 51
269.8110329574335
 73
     1
 72
     2
 10
-164.417065222386
 20
-298.2497740824997
 40
2.018561131933266
 50
269.8110329575827
 51
450.1889670424174
 73
     1
 72
     2
 10
-164.422681357696
 20
-296.5469391349307
 40
0.3157169230761851
 50
90.1889670425665
 51
180.0
 73
     1
 72
     1
 10
-164.7383982807728
 20
-296.5469391349307
 11
-164.7383982807728
 21
-297.1524744234375
 72
     2
 10
-164.422681357696
 20
-297.1524744234375
 40
0.315716923076792
 50
180.0
 51
244.6259913216349
 73
     1
 72
     2
 10
-164.9487240557839
 20
-298.2616160234053
 40
0.9118481501443941
 50
295.3740086781911
 51
424.6259913218196
 73
     0
 97
        8
330
1D6
330
FE
330
1D3
330
1D4
330
1B2
330
FD
330
1D5
330
1B1
 92
       16
 93
        1
 72
     2
 10
-164.9725390704567
 20
-298.2616160234053
 40
0.470978932778479
 50
0.0
 51
360.0
 73
     1
 97
        1
330
1E4
 75
     1
 76
     2
 52
45.0
 41
0.1
 77
     0
 78
     1
 53
45.0
 43
62.7811309658083
 44
-72.3161373035813
 45
-0.1414213562373095
 46
0.0
 79
     0
 98
        1
 10
0.0
 20
0.0
  0
HATCH
  5
222
330
7D
100
AcDbEntity
  8
1
  6
Continuous
 62
     2
100
AcDbHatch
 10
0.0
 20
0.0
 30
0.0
210
0.0
220
0.0
230
1.0
  2
CUSTOM21
 70
     0
 71
     1
 91
        4
 92
        1
 93
        8
 72
     1
 10
-161.6945680148735
 20
-295.9427337950498
 11
-161.6945680148735
 21
-301.50724456425
 72
     2
 10
-162.1188126302574
 20
-301.50724456425
 40
0.424244615383202
 50
0.0
 51
90.0
 73
     0
 72
     1
 10
-162.1188126302574
 20
-301.9314891796332
 11
-167.5921247209743
 21
-301.9314891796332
 72
     2
 10
-167.5921247209743
 20
-301.50724456425
 40
0.4242446153827757
 50
90.0
 51
180.0
 73
     0
 72
     1
 10
-168.0163693363571
 20
-301.50724456425
 11
-168.0163693363571
 21
-295.9427337950498
 72
     2
 10
-167.5921247209743
 20
-295.9427337950498
 40
0.4242446153838841
 50
180.0
 51
270.0
 73
     0
 72
     1
 10
-167.5921247209743
 20
-295.5184891796659
 11
-162.1188126302574
 21
-295.5184891796659
 72
     2
 10
-162.1188126302574
 20
-295.9427337950498
 40
0.4242446153838841
 50
270.0
 51
360.0
 73
     0
 97
        8
330
137
330
1BE
330
138
330
1C9
330
135
330
1C0
330
136
330
1BF
 92
       16
 93
       12
 72
     2
 10
-166.9982300442278
 20
-300.9032167009996
 40
0.3157169230755983
 50
180.0
 51
270.0
 73
     1
 72
     1
 10
-166.9982300442278
 20
-301.2189336240763
 11
-165.5223967832182
 21
-301.2189336240763
 72
     2
 10
-165.5223967832182
 20
-300.9032167009996
 40
0.3157169230767067
 50
270.0
 51
360.0
 73
     1
 72
     1
 10
-165.2066798601416
 20
-300.9032167009996
 11
-165.2066798601416
 21
-299.372445769468
 72
     2
 10
-165.5223967832182
 20
-299.372445769468
 40
0.315716923076593
 50
0.0
 51
64.805589351446
 73
     1
 72
     2
 10
-164.9998123356432
 20
-298.2616160234053
 40
0.9118975235576433
 50
115.1944106485089
 51
244.8055893514805
 73
     0
 72
     2
 10
-165.5223967832182
 20
-297.1507862773431
 40
0.3157169230760658
 50
295.1944106485672
 51
360.0
 73
     1
 72
     1
 10
-165.2066798601416
 20
-297.1507862773431
 11
-165.2066798601416
 21
-296.5467616582825
 72
     2
 10
-165.5223967832182
 20
-296.5467616582825
 40
0.315716923076593
 50
0.0
 51
90.0
 73
     1
 72
     1
 10
-165.5223967832182
 20
-296.2310447352064
 11
-166.9982300442278
 21
-296.2310447352064
 72
     2
 10
-166.9982300442278
 20
-296.5467616582825
 40
0.3157169230760815
 50
90.0
 51
180.0
 73
     1
 72
     1
 10
-167.3139469673034
 20
-296.5467616582825
 11
-167.3139469673034
 21
-300.9032167009996
 97
       12
330
1BA
330
139
330
1BD
330
134
330
1CA
330
1CB
330
1BC
330
133
330
1BB
330
132
330
1CC
330
131
 92
       16
 93
        8
 72
     2
 10
-164.422681357696
 20
-299.3707576233736
 40
0.3157169230765328
 50
115.3740086783519
 51
180.0
 73
     1
 72
     1
 10
-164.7383982807728
 20
-299.3707576233736
 11
-164.7383982807728
 21
-299.9526090300687
 72
     2
 10
-164.422681357696
 20
-299.9526090300687
 40
0.315716923076792
 50
180.0
 51
269.8110329574335
 73
     1
 72
     2
 10
-164.417065222386
 20
-298.2497740824997
 40
2.018561131933266
 50
269.8110329575827
 51
450.1889670424174
 73
     1
 72
     2
 10
-164.422681357696
 20
-296.5469391349307
 40
0.3157169230761851
 50
90.1889670425665
 51
180.0
 73
     1
 72
     1
 10
-164.7383982807728
 20
-296.5469391349307
 11
-164.7383982807728
 21
-297.1524744234375
 72
     2
 10
-164.422681357696
 20
-297.1524744234375
 40
0.315716923076792
 50
180.0
 51
244.6259913216349
 73
     1
 72
     2
 10
-164.9487240557839
 20
-298.2616160234053
 40
0.9118481501443941
 50
295.3740086781911
 51
424.6259913218196
 73
     0
 97
        8
330
1D6
330
FE
330
1D3
330
1D4
330
1B2
330
FD
330
1D5
330
1B1
 92
       16
 93
        1
 72
     2
 10
-164.9725390704567
 20
-298.2616160234053
 40
0.470978932778479
 50
0.0
 51
360.0
 73
     1
 97
        1
330
1E4
 75
     1
 76
     2
 52
45.0
 41
0.1
 77
     0
 78
     1
 53
45.0
 43
62.7811309658083
 44
-72.3161373035813
 45
-0.1414213562373095
 46
0.0
 79
     0
 98
        1
 10
0.0
 20
0.0
  0
HATCH
  5
223
330
7D
100
AcDbEntity
  8
1
  6
Continuous
 62
     2
100
AcDbHatch
 10
0.0
 20
0.0
 30
0.0
210
0.0
220
0.0
230
1.0
  2
CUSTOM22
 70
     0
 71
     1
 91
        1
 92
        1
 93
       18
 72
     1
 10
-140.1050201056526
 20
-299.6629449619458
 11
-140.916119143126
 21
-299.6629449619458
 72
     1
 10
-140.916119143126
 20
-299.6629449619458
 11
-140.916119143126
 21
-301.9314891796332
 72
     1
 10
-140.916119143126
 20
-301.9314891796332
 11
-142.1089118452937
 21
-301.9314891796332
 72
     1
 10
-142.1089118452937
 20
-301.9314891796332
 11
-142.1089118452937
 21
-299.6629449619458
 72
     1
 10
-142.1089118452937
 20
-299.6629449619458
 11
-143.2125511448618
 21
-299.6629449619458
 72
     2
 10
-143.2125511448618
 20
-300.6174679687719
 40
0.9545230068260935
 50
90.0
 51
109.3371432194281
 73
     1
 72
     2
 10
-143.3592211429655
 20
-300.1995129883889
 40
0.5115800601944048
 50
109.3371432194823
 51
151.4785267424182
 73
     1
 72
     2
 10
-142.981863884884
 20
-300.404584417728
 40
0.9410597353350352
 50
151.4785267423573
 51
208.521473257667
 73
     1
 72
     2
 10
-143.3592211429655
 20
-300.6096558470665
 40
0.5115800601959967
 50
208.5214732576881
 51
246.6277221118399
 73
     1
 72
     2
 10
-143.2027811102623
 20
-300.2476638283565
 40
0.9059297849852208
 50
246.6277221118088
 51
288.4480761180772
 73
     1
 72
     2
 10
-143.6209488439243
 20
-298.9941180523198
 40
2.227384008972773
 50
288.4480761181333
 51
301.9309089499394
 73
     1
 72
     1
 10
-142.4428938019004
 20
-300.8844687714696
 11
-142.4428938019004
 21
-301.7569857782729
 72
     2
 10
-143.7788217190171
 20
-297.0919034724715
 40
4.852596863498889
 50
74.0200087416617
 51
84.84185523036268
 73
     0
 72
     2
 10
-143.4899656242812
 20
-300.2917940556931
 40
1.639695123940503
 50
84.84185523032279
 51
164.9381082228993
 73
     0
 72
     2
 10
-143.9090934677429
 20
-300.404584417728
 40
1.205656168392975
 50
164.9381082229076
 51
195.0618917770975
 73
     0
 72
     2
 10
-143.4899656242812
 20
-300.5173747797628
 40
1.639695123940101
 50
195.0618917771007
 51
270.0
 73
     0
 72
     1
 10
-143.4899656242812
 20
-298.8776796558227
 11
-140.1050201056526
 21
-298.8776796558221
 72
     1
 10
-140.1050201056526
 20
-298.8776796558221
 11
-140.1050201056526
 21
-299.6629449619458
 97
       18
330
100
330
1CF
330
1D0
330
1B8
330
1B7
330
164
330
1B6
330
1B5
330
1D1
330
1B4
330
1D2
330
1B3
330
165
330
FF
330
104
330
103
330
102
330
101
 75
     1
 76
     2
 52
45.0
 41
0.1
 77
     0
 78
     1
 53
45.0
 43
62.7811309658083
 44
-72.3161373035813
 45
-0.1414213562373095
 46
0.0
 79
     0
 98
        1
 10
0.0
 20
0.0
  0
HATCH
  5
224
330
7D
100
AcDbEntity
  8
1
  6
Continuous
 62
     2
100
AcDbHatch
 10
0.0
 20
0.0
 30
0.0
210
0.0
220
0.0
230
1.0
  2
CUSTOM23
 70
     0
 71
     1
 91
        1
 92
        1
 93
       18
 72
     1
 10
-140.1050201056526
 20
-299.6629449619458
 11
-140.916119143126
 21
-299.6629449619458
 72
     1
 10
-140.916119143126
 20
-299.6629449619458
 11
-140.916119143126
 21
-301.9314891796332
 72
     1
 10
-140.916119143126
 20
-301.9314891796332
 11
-142.1089118452937
 21
-301.9314891796332
 72
     1
 10
-142.1089118452937
 20
-301.9314891796332
 11
-142.1089118452937
 21
-299.6629449619458
 72
     1
 10
-142.1089118452937
 20
-299.6629449619458
 11
-143.2125511448618
 21
-299.6629449619458
 72
     2
 10
-143.2125511448618
 20
-300.6174679687719
 40
0.9545230068260935
 50
90.0
 51
109.3371432194281
 73
     1
 72
     2
 10
-143.3592211429655
 20
-300.1995129883889
 40
0.5115800601944048
 50
109.3371432194823
 51
151.4785267424182
 73
     1
 72
     2
 10
-142.981863884884
 20
-300.404584417728
 40
0.9410597353350352
 50
151.4785267423573
 51
208.521473257667
 73
     1
 72
     2
 10
-143.3592211429655
 20
-300.6096558470665
 40
0.5115800601959967
 50
208.5214732576881
 51
246.6277221118399
 73
     1
 72
     2
 10
-143.2027811102623
 20
-300.2476638283565
 40
0.9059297849852208
 50
246.6277221118088
 51
288.4480761180772
 73
     1
 72
     2
 10
-143.6209488439243
 20
-298.9941180523198
 40
2.227384008972773
 50
288.4480761181333
 51
301.9309089499394
 73
     1
 72
     1
 10
-142.4428938019004
 20
-300.8844687714696
 11
-142.4428938019004
 21
-301.7569857782729
 72
     2
 10
-143.7788217190171
 20
-297.0919034724715
 40
4.852596863498889
 50
74.0200087416617
 51
84.84185523036268
 73
     0
 72
     2
 10
-143.4899656242812
 20
-300.2917940556931
 40
1.639695123940503
 50
84.84185523032279
 51
164.9381082228993
 73
     0
 72
     2
 10
-143.9090934677429
 20
-300.404584417728
 40
1.205656168392975
 50
164.9381082229076
 51
195.0618917770975
 73
     0
 72
     2
 10
-143.4899656242812
 20
-300.5173747797628
 40
1.639695123940101
 50
195.0618917771007
 51
270.0
 73
     0
 72
     1
 10
-143.4899656242812
 20
-298.8776796558227
 11
-140.1050201056526
 21
-298.8776796558221
 72
     1
 10
-140.1050201056526
 20
-298.8776796558221
 11
-140.1050201056526
 21
-299.6629449619458
 97
       18
330
100
330
1CF
330
1D0
330
1B8
330
1B7
330
164
330
1B6
330
1B5
330
1D1
330
1B4
330
1D2
330
1B3
330
165
330
FF
330
104
330
103
330
102
330
101
 75
     1
 76
     2
 52
45.0
 41
0.1
 77
     0
 78
     1
 53
45.0
 43
62.7811309658083
 44
-72.3161373035813
 45
-0.1414213562373095
 46
0.0
 79
     0
 98
        1
 10
0.0
 20
0.0
  0
HATCH
  5
225
330
7D
100
AcDbEntity
  8
1
  6
Continuous
 62
     2
100
AcDbHatch
 10
0.0
 20
0.0
 30
0.0
210
0.0
220
0.0
230
1.0
  2
CUSTOM24
 70
     0
 71
     1
 91
        1
 92
        1
 93
       14
 72
     2
 10
-159.5926671035341
 20
-300.5173747797628
 40
1.639695123940499
 50
84.84185523036533
 51
164.9381082228905
 73
     1
 72
     2
 10
-160.0117949469969
 20
-300.404584417728
 40
1.205656168390971
 50
164.9381082228768
 51
195.0618917770945
 73
     1
 72
     2
 10
-159.5926671035341
 20
-300.2917940556931
 40
1.639695123939437
 50
195.0618917770922
 51
275.1581447696363
 73
     1
 72
     2
 10
-159.88152319827
 20
-297.0919034724715
 40
4.852596863498272
 50
275.1581447696238
 51
285.9799912583526
 73
     1
 72
     1
 10
-158.5455952811522
 20
-301.7569857782724
 11
-158.5455952811522
 21
-300.8844687714691
 72
     2
 10
-159.7236503231772
 20
-298.9941180523193
 40
2.227384008972719
 50
58.06909105003628
 51
71.55192388186632
 73
     0
 72
     2
 10
-159.3054825895163
 20
-300.2476638283565
 40
0.9059297849848262
 50
71.55192388184605
 51
113.3722778881334
 73
     0
 72
     2
 10
-159.4619226222184
 20
-300.6096558470665
 40
0.5115800601947491
 50
113.3722778881718
 51
151.4785267423156
 73
     0
 72
     2
 10
-159.084565364138
 20
-300.404584417728
 40
0.9410597353333294
 50
151.4785267423028
 51
208.5214732577306
 73
     0
 72
     2
 10
-159.4619226222184
 20
-300.1995129883889
 40
0.5115800601948293
 50
208.5214732576844
 51
246.6277221118054
 73
     0
 72
     2
 10
-159.3054825895163
 20
-300.5615050070995
 40
0.9059297849853498
 50
246.6277221118694
 51
288.4480761181403
 73
     0
 72
     2
 10
-159.7236503231772
 20
-301.8150507831361
 40
2.227384008973465
 50
288.4480761181333
 51
301.9309089499629
 73
     0
 72
     1
 10
-158.5455952811522
 20
-299.9247000639863
 11
-158.5455952811522
 21
-299.052183057183
 72
     2
 10
-159.88152319827
 20
-303.7172653629838
 40
4.852596863497986
 50
74.0200087416471
 51
84.84185523037608
 73
     1
 97
       14
330
1D7
330
1D8
330
1D9
330
1DA
330
166
330
1B0
330
1AF
330
1AE
330
1DB
330
1DC
330
1AD
330
1DD
330
167
330
1AC
 75
     1
 76
     2
 52
45.0
 41
0.1
 77
     0
 78
     1
 53
45.0
 43
62.7811309658083
 44
-72.3161373035813
 45
-0.1414213562373095
 46
0.0
 79
     0
 98
        1
 10
0.0
 20
0.0
  0
HATCH
  5
226
330
7D
100
AcDbEntity
  8
1
  6
Continuous
 62
     2
100
AcDbHatch
 10
0.0
 20
0.0
 30
0.0
210
0.0
220
0.0
230
1.0
  2
CUSTOM25
 70
     0
 71
     1
 91
        1
 92
        1
 93
       14
 72
     2
 10
-159.5926671035341
 20
-300.5173747797628
 40
1.639695123940499
 50
84.84185523036533
 51
164.9381082228905
 73
     1
 72
     2
 10
-160.0117949469969
 20
-300.404584417728
 40
1.205656168390971
 50
164.9381082228768
 51
195.0618917770945
 73
     1
 72
     2
 10
-159.5926671035341
 20
-300.2917940556931
 40
1.639695123939437
 50
195.0618917770922
 51
275.1581447696363
 73
     1
 72
     2
 10
-159.88152319827
 20
-297.0919034724715
 40
4.852596863498272
 50
275.1581447696238
 51
285.9799912583526
 73
     1
 72
     1
 10
-158.5455952811522
 20
-301.7569857782724
 11
-158.5455952811522
 21
-300.8844687714691
 72
     2
 10
-159.7236503231772
 20
-298.9941180523193
 40
2.227384008972719
 50
58.06909105003628
 51
71.55192388186632
 73
     0
 72
     2
 10
-159.3054825895163
 20
-300.2476638283565
 40
0.9059297849848262
 50
71.55192388184605
 51
113.3722778881334
 73
     0
 72
     2
 10
-159.4619226222184
 20
-300.6096558470665
 40
0.5115800601947491
 50
113.3722778881718
 51
151.4785267423156
 73
     0
 72
     2
 10
-159.084565364138
 20
-300.404584417728
 40
0.9410597353333294
 50
151.4785267423028
 51
208.5214732577306
 73
     0
 72
     2
 10
-159.4619226222184
 20
-300.1995129883889
 40
0.5115800601948293
 50
208.5214732576844
 51
246.6277221118054
 73
     0
 72
     2
 10
-159.3054825895163
 20
-300.5615050070995
 40
0.9059297849853498
 50
246.6277221118694
 51
288.4480761181403
 73
     0
 72
     2
 10
-159.7236503231772
 20
-301.8150507831361
 40
2.227384008973465
 50
288.4480761181333
 51
301.9309089499629
 73
     0
 72
     1
 10
-158.5455952811522
 20
-299.9247000639863
 11
-158.5455952811522
 21
-299.052183057183
 72
     2
 10
-159.88152319827
 20
-303.7172653629838
 40
4.852596863497986
 50
74.0200087416471
 51
84.84185523037608
 73
     1
 97
       14
330
1D7
330
1D8
330
1D9
330
1DA
330
166
330
1B0
330
1AF
330
1AE
330
1DB
330
1DC
330
1AD
330
1DD
330
167
330
1AC
 75
     1
 76
     2
 52
45.0
 41
0.1
 77
     0
 78
     1
 53
45.0
 43
62.7811309658083
 44
-72.3161373035813
 45
-0.1414213562373095
 46
0.0
 79
     0
 98
        1
 10
0.0
 20
0.0
  0
ENDBLK
  5
7F
330
7D
100
AcDbEntity
  8
0
100
AcDbBlockEnd
  0
BLOCK
  5
81
330
80
100
AcDbEntity
  8
0
100
AcDbBlockBegin
  2
_punkt
 70
     0
 10
-42.70821969616975
 20
-309.2249891796495
 30
0.0
  3
_punkt
  1

  0
LINE
  5
227
330
80
100
AcDbEntity
  8
1
  6
Continuous
 62
     2
100
AcDbLine
 10
-42.70821969616969
 20
-309.2249891796495
 30
0.0
 11
-37.70821969617208
 21
-309.2249891796495
 31
0.0
  0
LINE
  5
228
330
80
100
AcDbEntity
  8
1
  6
Continuous
 62
     2
100
AcDbLine
 10
-42.70821969616969
 20
-309.2249891796495
 30
0.0
 11
-42.70821969616969
 21
-314.224989179649
 31
0.0
  0
ENDBLK
  5
82
330
80
100
AcDbEntity
  8
0
100
AcDbBlockEnd
  0
BLOCK
  5
86
330
83
100
AcDbEntity
  8
0
100
AcDbBlockBegin
  2
A3I_TD_PRF
 70
     0
 10
-42.70821969616969
 20
-314.224989179649
 30
0.0
  3
A3I_TD_PRF
  1

  0
INSERT
  5
84
330
83
100
AcDbEntity
  8
1
100
AcDbBlockReference
  2
_rahmen
 10
-42.70821969616969
 20
-314.224989179649
 30
0.0
  0
INSERT
  5
85
330
83
100
AcDbEntity
  8
1
100
AcDbBlockReference
  2
_punkt
 10
-42.70821969616975
 20
-309.2249891796495
 30
0.0
  0
ENDBLK
  5
87
330
83
100
AcDbEntity
  8
0
100
AcDbBlockEnd
  0
BLOCK
  5
8B
330
88
100
AcDbEntity
  8
0
100
AcDbBlockBegin
  2
1
 70
     0
 10
0.0
 20
0.0
 30
0.0
  3
1
  1

  0
INSERT
  5
89
330
88
100
AcDbEntity
  8
0
100
AcDbBlockReference
  2
Vordans1
 10
-243.9999999999999
 20
-155.9999999999999
 30
0.0
 41
5.0
 42
5.0
 43
5.0
  0
INSERT
  5
8A
330
88
100
AcDbEntity
  8
0
100
AcDbBlockReference
  2
A3I_TD_PRF
 10
-42.70821969616969
 20
-314.224989179649
 30
0.0
  0
ENDBLK
  5
8C
330
88
100
AcDbEntity
  8
0
100
AcDbBlockEnd
  0
BLOCK
  5
AC
330
A3
100
AcDbEntity
  8
0
100
AcDbBlockBegin
  2
*D7
 70
     1
 10
0.0
 20
0.0
 30
0.0
  3
*D7
  1

  0
LINE
  5
A4
330
A3
100
AcDbEntity
  8
1
  6
Continuous
 62
     2
100
AcDbLine
 10
-36.61867816705421
 20
-29.42745819862115
 30
0.0
 11
-36.61867816705421
 21
-30.82745819862116
 31
0.0
  0
LINE
  5
A5
330
A3
100
AcDbEntity
  8
1
  6
Continuous
 62
     2
100
AcDbLine
 10
-36.61867816705421
 20
-30.82745819862116
 30
0.0
 11
-36.61867816705421
 21
-31.95745819862114
 31
0.0
  0
LINE
  5
A6
330
A3
100
AcDbEntity
  8
1
  6
Continuous
 62
     2
100
AcDbLine
 10
-36.61867816705421
 20
-31.95745819862114
 30
0.0
 11
-36.61867816705421
 21
-34.602320996862
 31
0.0
  0
LINE
  5
A7
330
A3
100
AcDbEntity
  8
1
  6
Continuous
 62
     2
100
AcDbLine
 10
-41.82852050781252
 20
-30.82745819862116
 30
0.0
 11
-36.31867816705422
 21
-30.82745819862116
 31
0.0
  0
LINE
  5
A8
330
A3
100
AcDbEntity
  8
1
  6
Continuous
 62
     2
100
AcDbLine
 10
-32.23352050781248
 20
-31.95745819862114
 30
0.0
 11
-36.91867816705421
 21
-31.95745819862114
 31
0.0
  0
SOLID
  5
A9
330
A3
100
AcDbEntity
  8
1
 62
     2
100
AcDbTrace
 10
-36.71083491536539
 20
-30.12745819862116
 30
0.0
 11
-36.52652141874304
 21
-30.12745819862116
 31
0.0
 12
-36.61867816705421
 22
-30.82745819862116
 32
0.0
 13
-36.61867816705421
 23
-30.82745819862116
 33
0.0
  0
SOLID
  5
AA
330
A3
100
AcDbEntity
  8
1
 62
     2
100
AcDbTrace
 10
-36.52652141874304
 20
-32.65745819862114
 30
0.0
 11
-36.71083491536539
 21
-32.65745819862114
 31
0.0
 12
-36.61867816705421
 22
-31.95745819862114
 32
0.0
 13
-36.61867816705421
 23
-31.95745819862114
 33
0.0
  0
MTEXT
  5
AB
330
A3
100
AcDbEntity
  8
1
 62
     3
100
AcDbMText
 10
-37.08867816705421
 20
-34.602320996862
 30
0.0
 40
0.7
 41
0.0
 71
     7
 72
     1
  1
1,13
  7
CONVERTER_11
 11
0.0
 21
1.0
 31
0.0
 73
     1
 44
0.60024009603842
  0
ENDBLK
  5
AD
330
A3
100
AcDbEntity
  8
0
100
AcDbBlockEnd
  0
BLOCK
  5
B8
330
B0
100
AcDbEntity
  8
0
100
AcDbBlockBegin
  2
*D8
 70
     1
 10
0.0
 20
0.0
 30
0.0
  3
*D8
  1

  0
LINE
  5
B1
330
B0
100
AcDbEntity
  8
1
  6
Continuous
 62
     2
100
AcDbLine
 10
-24.75740963088001
 20
-31.95745819862114
 30
0.0
 11
-24.75740963088001
 21
-42.62745819862114
 31
0.0
  0
LINE
  5
B2
330
B0
100
AcDbEntity
  8
1
  6
Continuous
 62
     2
100
AcDbLine
 10
-32.03352050781248
 20
-31.95745819862114
 30
0.0
 11
-24.45740963088001
 21
-31.95745819862114
 31
0.0
  0
LINE
  5
B3
330
B0
100
AcDbEntity
  8
1
  6
Continuous
 62
     2
100
AcDbLine
 10
-28.29167261536336
 20
-42.62745819862114
 30
0.0
 11
-24.45740963088001
 21
-42.62745819862114
 31
0.0
  0
SOLID
  5
B4
330
B0
100
AcDbEntity
  8
1
 62
     2
100
AcDbTrace
 10
-24.66525288256883
 20
-32.65745819862114
 30
0.0
 11
-24.84956637919118
 21
-32.65745819862114
 31
0.0
 12
-24.75740963088001
 22
-31.95745819862114
 32
0.0
 13
-24.75740963088001
 23
-31.95745819862114
 33
0.0
  0
SOLID
  5
B5
330
B0
100
AcDbEntity
  8
1
 62
     2
100
AcDbTrace
 10
-24.84956637919118
 20
-41.92745819862114
 30
0.0
 11
-24.66525288256883
 21
-41.92745819862114
 31
0.0
 12
-24.75740963088001
 22
-42.62745819862114
 32
0.0
 13
-24.75740963088001
 23
-42.62745819862114
 33
0.0
  0
MTEXT
  5
B6
330
B0
100
AcDbEntity
  8
1
 62
     3
100
AcDbMText
 10
-25.59315963088001
 20
-38.666283842129
 30
0.0
 40
0.7
 41
0.0
 71
     7
 72
     1
  1
10,67
  7
CONVERTER_11
 11
0.0
 21
1.0
 31
0.0
 73
     1
 44
0.60024009603842
  0
ENDBLK
  5
B9
330
B0
100
AcDbEntity
  8
0
100
AcDbBlockEnd
  0
BLOCK
  5
C3
330
BC
100
AcDbEntity
  8
0
100
AcDbBlockBegin
  2
*D9
 70
     1
 10
0.0
 20
0.0
 30
0.0
  3
*D9
  1

  0
LINE
  5
BD
330
BC
100
AcDbEntity
  8
1
  6
Continuous
 62
     2
100
AcDbLine
 10
-65.43352050781235
 20
-46.13199073553001
 30
0.0
 11
-32.13352050781248
 21
-46.13199073553001
 31
0.0
  0
LINE
  5
BE
330
BC
100
AcDbEntity
  8
1
  6
Continuous
 62
     2
100
AcDbLine
 10
-65.43352050781235
 20
-33.66245819862114
 30
0.0
 11
-65.43352050781235
 21
-46.43199073553001
 31
0.0
  0
LINE
  5
BF
330
BC
100
AcDbEntity
  8
1
  6
Continuous
 62
     2
100
AcDbLine
 10
-32.13352050781248
 20
-33.66245819862114
 30
0.0
 11
-32.13352050781248
 21
-46.43199073553001
 31
0.0
  0
SOLID
  5
C0
330
BC
100
AcDbEntity
  8
1
 62
     2
100
AcDbTrace
 10
-64.73352050781234
 20
-46.03983398721883
 30
0.0
 11
-64.73352050781234
 21
-46.22414748384119
 31
0.0
 12
-65.43352050781235
 22
-46.13199073553001
 32
0.0
 13
-65.43352050781235
 23
-46.13199073553001
 33
0.0
  0
SOLID
  5
C1
330
BC
100
AcDbEntity
  8
1
 62
     2
100
AcDbTrace
 10
-32.83352050781248
 20
-46.22414748384119
 30
0.0
 11
-32.83352050781248
 21
-46.03983398721883
 31
0.0
 12
-32.13352050781248
 22
-46.13199073553001
 32
0.0
 13
-32.13352050781248
 23
-46.13199073553001
 33
0.0
  0
MTEXT
  5
C2
330
BC
100
AcDbEntity
  8
1
 62
     3
100
AcDbMText
 10
-48.92737671668901
 20
-45.76199073553001
 30
0.0
 40
0.7
 41
0.0
 71
     7
 72
     1
  1
\C3;33,3\C3;\H0.42;{\Fgdt;`}0,1
  7
CONVERTER_11
 11
0.9999999999970619
 21
2.424068405545306E-6
 31
0.0
 73
     1
 44
0.60024009603842
  0
ENDBLK
  5
C4
330
BC
100
AcDbEntity
  8
0
100
AcDbBlockEnd
  0
BLOCK
  5
CE
330
C7
100
AcDbEntity
  8
0
100
AcDbBlockBegin
  2
*D10
 70
     1
 10
0.0
 20
0.0
 30
0.0
  3
*D10
  1

  0
LINE
  5
C8
330
C7
100
AcDbEntity
  8
1
  6
Continuous
 62
     2
100
AcDbLine
 10
-55.64852050781252
 20
-23.28818408836939
 30
0.0
 11
-41.92852050781252
 21
-23.28818408836939
 31
0.0
  0
LINE
  5
C9
330
C7
100
AcDbEntity
  8
1
  6
Continuous
 62
     2
100
AcDbLine
 10
-55.64852050781252
 20
-33.05495819862115
 30
0.0
 11
-55.64852050781252
 21
-22.98818408836939
 31
0.0
  0
LINE
  5
CA
330
C7
100
AcDbEntity
  8
1
  6
Continuous
 62
     2
100
AcDbLine
 10
-41.92852050781252
 20
-33.05495819862115
 30
0.0
 11
-41.92852050781252
 21
-22.98818408836939
 31
0.0
  0
SOLID
  5
CB
330
C7
100
AcDbEntity
  8
1
 62
     2
100
AcDbTrace
 10
-54.94852050781252
 20
-23.19602734005821
 30
0.0
 11
-54.94852050781252
 21
-23.38034083668056
 31
0.0
 12
-55.64852050781252
 22
-23.28818408836939
 32
0.0
 13
-55.64852050781252
 23
-23.28818408836939
 33
0.0
  0
SOLID
  5
CC
330
C7
100
AcDbEntity
  8
1
 62
     2
100
AcDbTrace
 10
-42.62852050781252
 20
-23.38034083668056
 30
0.0
 11
-42.62852050781252
 21
-23.19602734005821
 31
0.0
 12
-41.92852050781252
 22
-23.28818408836939
 32
0.0
 13
-41.92852050781252
 23
-23.28818408836939
 33
0.0
  0
MTEXT
  5
CD
330
C7
100
AcDbEntity
  8
1
 62
     3
100
AcDbMText
 10
-50.48732739092994
 20
-22.91818408836939
 30
0.0
 40
0.7
 41
0.0
 71
     7
 72
     1
  1
\C3;13,72\C3;\H0.42;{\Fgdt;`}0,1
  7
CONVERTER_11
 11
0.9999999999970619
 21
2.424068405545306E-6
 31
0.0
 73
     1
 44
0.60024009603842
  0
ENDBLK
  5
CF
330
C7
100
AcDbEntity
  8
0
100
AcDbBlockEnd
  0
BLOCK
  5
D7
330
D2
100
AcDbEntity
  8
0
100
AcDbBlockBegin
  2
*D11
 70
     1
 10
0.0
 20
0.0
 30
0.0
  3
*D11
  1

  0
LINE
  5
D3
330
D2
100
AcDbEntity
  8
1
  6
Continuous
 62
     2
100
AcDbLine
 10
-57.55451616466014
 20
-28.41440918211155
 30
0.0
 11
-51.76444274186011
 21
-35.74481989328507
 31
0.0
  0
SOLID
  5
D4
330
D2
100
AcDbEntity
  8
1
 62
     2
100
AcDbTrace
 10
-53.8871491530851
 20
-32.90872916055883
 30
0.0
 11
-54.03178573902137
 21
-33.02297329846473
 31
0.0
 12
-54.39335263622993
 22
-32.41653925827382
 32
0.0
 13
-54.39335263622993
 23
-32.41653925827382
 33
0.0
  0
SOLID
  5
D5
330
D2
100
AcDbEntity
  8
1
 62
     2
100
AcDbTrace
 10
-57.40989186253994
 20
-28.74618723668348
 30
0.0
 11
-57.26525527660367
 21
-28.63194309877759
 31
0.0
 12
-56.90368837939511
 22
-29.23837713896849
 32
0.0
 13
-56.90368837939511
 23
-29.23837713896849
 33
0.0
  0
MTEXT
  5
D6
330
D2
100
AcDbEntity
  8
1
 62
     3
100
AcDbMText
 10
-54.18153571519405
 20
-32.08777387795252
 30
0.0
 40
0.7
 41
0.0
 71
     7
 72
     1
  1
\C3; {\Fgdt;n}\C3;\C3;4,05\C3;\H0.42;{\Fgdt;`}0,1
  7
CONVERTER_11
 11
0.6198359859667074
 21
-0.7847313874827996
 31
0.0
 73
     1
 44
0.60024009603842
  0
ENDBLK
  5
D8
330
D2
100
AcDbEntity
  8
0
100
AcDbBlockEnd
  0
BLOCK
  5
DF
330
DA
100
AcDbEntity
  8
0
100
AcDbBlockBegin
  2
*D12
 70
     1
 10
0.0
 20
0.0
 30
0.0
  3
*D12
  1

  0
LINE
  5
DB
330
DA
100
AcDbEntity
  8
1
  6
Continuous
 62
     2
100
AcDbLine
 10
-67.11165379471974
 20
-29.9715406093508
 30
0.0
 11
-61.7684573883998
 21
-36.29472590638522
 31
0.0
  0
SOLID
  5
DC
330
DA
100
AcDbEntity
  8
1
 62
     2
100
AcDbTrace
 10
-63.91089912204974
 20
-33.61655945589197
 30
0.0
 11
-64.051680435466
 21
-33.73552199970285
 31
0.0
 12
-64.43309489446371
 22
-33.14137060760924
 32
0.0
 13
-64.43309489446371
 23
-33.14137060760924
 33
0.0
  0
SOLID
  5
DD
330
DA
100
AcDbEntity
  8
1
 62
     2
100
AcDbTrace
 10
-66.95614189357495
 20
-30.29835694135032
 30
0.0
 11
-66.8153605801587
 21
-30.17939439753945
 31
0.0
 12
-66.43394612116099
 22
-30.77354578963305
 32
0.0
 13
-66.43394612116099
 23
-30.77354578963305
 33
0.0
  0
MTEXT
  5
DE
330
DA
100
AcDbEntity
  8
1
 62
     3
100
AcDbMText
 10
-63.57185914473697
 20
-33.19970750469937
 30
0.0
 40
0.7
 41
0.0
 71
     7
 72
     1
  1
\C3; {\Fgdt;n}\C3;\C3;3,1\C3;\H0.42;{\Fgdt;`}0,1
  7
CONVERTER_11
 11
0.6454358795797689
 21
-0.7638144574116743
 31
0.0
 73
     1
 44
0.60024009603842
  0
ENDBLK
  5
E0
330
DA
100
AcDbEntity
  8
0
100
AcDbBlockEnd
  0
ENDSEC
  0
SECTION
  2
ENTITIES
  0
INSERT
  5
8D
330
1F
100
AcDbEntity
  8
1
100
AcDbBlockReference
  2
1
 10
0.0
 20
0.0
 30
0.0
  0
ENDSEC
  0
SECTION
  2
OBJECTS
  0
DICTIONARY
  5
C
330
0
100
AcDbDictionary
281
     1
  3
ACAD_DETAILVIEWSTYLE
350
26E
  3
ACAD_GROUP
350
D
  3
ACAD_LAYOUT
350
1A
  3
ACAD_MATERIAL
350
43
  3
ACAD_MLEADERSTYLE
350
6B
  3
ACAD_MLINESTYLE
350
17
  3
ACAD_PLOTSETTINGS
350
19
  3
ACAD_PLOTSTYLENAME
350
E
  3
ACAD_SCALELIST
350
47
  3
ACAD_SECTIONVIEWSTYLE
350
26F
  3
ACAD_TABLESTYLE
350
69
  3
ACAD_VISUALSTYLE
350
2A
  3
ACDB_RECOMPOSE_DATA
350
26B
  3
AcDbVariableDictionary
350
22B
  0
DICTIONARY
  5
229
330
8
100
AcDbDictionary
280
     1
281
     1
  3
ACAD_XREC_ROUNDTRIP
360
22A
  0
DICTIONARY
  5
26E
102
{ACAD_REACTORS
330
C
102
}
330
C
100
AcDbDictionary
281
     1
  0
DICTIONARY
  5
D
102
{ACAD_REACTORS
330
C
102
}
330
C
100
AcDbDictionary
281
     1
  0
DICTIONARY
  5
1A
102
{ACAD_REACTORS
330
C
102
}
330
C
100
AcDbDictionary
281
     1
  3
Layout1
350
1E
  3
Layout2
350
26
  3
Model
350
22
  0
DICTIONARY
  5
43
102
{ACAD_REACTORS
330
C
102
}
330
C
100
AcDbDictionary
281
     1
  3
ByBlock
350
45
  3
ByLayer
350
44
  3
Global
350
46
  0
DICTIONARY
  5
6B
102
{ACAD_REACTORS
330
C
102
}
330
C
100
AcDbDictionary
281
     1
  3
Standard
350
6C
  0
DICTIONARY
  5
17
102
{ACAD_REACTORS
330
C
102
}
330
C
100
AcDbDictionary
281
     1
  3
Standard
350
18
  0
DICTIONARY
  5
19
102
{ACAD_REACTORS
330
C
102
}
330
C
100
AcDbDictionary
281
     1
  0
ACDBDICTIONARYWDFLT
  5
E
102
{ACAD_REACTORS
330
C
102
}
330
C
100
AcDbDictionary
281
     1
  3
Normal
350
F
100
AcDbDictionaryWithDefault
340
F
  0
DICTIONARY
  5
47
102
{ACAD_REACTORS
330
C
102
}
330
C
100
AcDbDictionary
281
     1
  3
A0
350
48
  3
A1
350
49
  3
A2
350
4A
  3
A3
350
4B
  3
A4
350
4C
  3
A5
350
4D
  3
A6
350
4E
  3
A7
350
4F
  3
A8
350
50
  3
A9
350
51
  3
B0
350
52
  3
B1
350
53
  3
B2
350
54
  3
B3
350
55
  3
B4
350
56
  3
B5
350
57
  3
B6
350
58
  3
B7
350
59
  3
B8
350
5A
  3
B9
350
5B
  3
C0
350
5C
  3
C1
350
5D
  3
C2
350
5E
  3
C3
350
5F
  3
C4
350
60
  3
C5
350
61
  3
C6
350
62
  3
C7
350
63
  3
C8
350
64
  3
C9
350
65
  3
D0
350
66
  3
D1
350
67
  3
D2
350
68
  0
DICTIONARY
  5
26F
102
{ACAD_REACTORS
330
C
102
}
330
C
100
AcDbDictionary
281
     1
  0
DICTIONARY
  5
69
102
{ACAD_REACTORS
330
C
102
}
330
C
100
AcDbDictionary
281
     1
  3
Standard
350
6A
  0
DICTIONARY
  5
2A
102
{ACAD_REACTORS
330
C
102
}
330
C
100
AcDbDictionary
281
     1
  3
2dWireframe
350
2F
  3
Basic
350
32
  3
Brighten
350
36
  3
ColorChange
350
3A
  3
Conceptual
350
34
  3
Dim
350
35
  3
EdgeColorOff
350
3D
  3
Facepattern
350
39
  3
Flat
350
2B
  3
FlatWithEdges
350
2C
  3
Gouraud
350
2D
  3
GouraudWithEdges
350
2E
  3
Hidden
350
31
  3
JitterOff
350
3B
  3
Linepattern
350
38
  3
OverhangOff
350
3C
  3
Realistic
350
33
  3
Shaded
350
42
  3
Shaded with edges
350
41
  3
Shades of Gray
350
3E
  3
Sketchy
350
3F
  3
Thicken
350
37
  3
Wireframe
350
30
  3
X-Ray
350
40
  0
XRECORD
  5
26B
102
{ACAD_REACTORS
330
C
102
}
330
C
100
AcDbXrecord
280
     1
 90
        1
330
6A
  0
DICTIONARY
  5
22B
102
{ACAD_REACTORS
330
C
102
}
330
C
100
AcDbDictionary
281
     1
  3
CANNOSCALE
350
22C
  3
CMLEADERSTYLE
350
26D
  3
CTABLESTYLE
350
26C
  3
MSLTSCALE
350
22D
  3
XCLIPFRAME
350
22E
  0
XRECORD
  5
22A
102
{ACAD_REACTORS
330
229
102
}
330
229
100
AcDbXrecord
280
     1
102
VTR_0.000_0.000_1.000_1.000_VISUALSTYLE
340
2F
102
VTR_0.000_0.000_1.000_1.000_GRIDDISPLAY
 70
     3
102
VTR_0.000_0.000_1.000_1.000_GRIDMAJOR
 70
     5
102
VTR_0.000_0.000_1.000_1.000_DEFAULTLIGHTING
280
     1
102
VTR_0.000_0.000_1.000_1.000_DEFAULTLIGHTINGTYPE
 70
     1
102
VTR_0.000_0.000_1.000_1.000_BRIGHTNESS
141
0.0
102
VTR_0.000_0.000_1.000_1.000_CONTRAST
142
0.0
  0
LAYOUT
  5
1E
102
{ACAD_REACTORS
330
1A
102
}
330
1A
100
AcDbPlotSettings
  1

  2
none_device
  4

  6

 40
0.0
 41
0.0
 42
0.0
 43
0.0
 44
0.0
 45
0.0
 46
0.0
 47
0.0
 48
0.0
 49
0.0
140
0.0
141
0.0
142
1.0
143
1.0
 70
   688
 72
     0
 73
     0
 74
     5
  7

 75
    16
 76
     0
 77
     2
 78
   300
147
1.0
148
0.0
149
0.0
100
AcDbLayout
  1
Layout1
 70
     1
 71
     1
 10
0.0
 20
0.0
 11
12.0
 21
9.0
 12
0.0
 22
0.0
 32
0.0
 14
1.00000000000000E+20
 24
1.00000000000000E+20
 34
1.00000000000000E+20
 15
-1.00000000000000E+20
 25
-1.00000000000000E+20
 35
-1.00000000000000E+20
146
0.0
 13
0.0
 23
0.0
 33
0.0
 16
1.0
 26
0.0
 36
0.0
 17
0.0
 27
1.0
 37
0.0
 76
     0
330
1B
  0
LAYOUT
  5
26
102
{ACAD_REACTORS
330
1A
102
}
330
1A
100
AcDbPlotSettings
  1

  2
none_device
  4

  6

 40
0.0
 41
0.0
 42
0.0
 43
0.0
 44
0.0
 45
0.0
 46
0.0
 47
0.0
 48
0.0
 49
0.0
140
0.0
141
0.0
142
1.0
143
1.0
 70
   688
 72
     0
 73
     0
 74
     5
  7

 75
    16
 76
     0
 77
     2
 78
   300
147
1.0
148
0.0
149
0.0
100
AcDbLayout
  1
Layout2
 70
     1
 71
     2
 10
0.0
 20
0.0
 11
0.0
 21
0.0
 12
0.0
 22
0.0
 32
0.0
 14
0.0
 24
0.0
 34
0.0
 15
0.0
 25
0.0
 35
0.0
146
0.0
 13
0.0
 23
0.0
 33
0.0
 16
1.0
 26
0.0
 36
0.0
 17
0.0
 27
1.0
 37
0.0
 76
     0
330
23
  0
LAYOUT
  5
22
102
{ACAD_REACTORS
330
1A
102
}
330
1A
100
AcDbPlotSettings
  1

  2
none_device
  4
Letter_(8.50_x_11.00_Inches)
  6

 40
6.35
 41
6.35
 42
6.35000508
 43
6.35000508
 44
215.9
 45
279.4
 46
0.0
 47
0.0
 48
0.0
 49
0.0
140
0.0
141
0.0
142
1.0
143
1.0
 70
  1712
 72
     0
 73
     0
 74
     0
  7

 75
     0
 76
     0
 77
     2
 78
   300
147
1.0
148
0.0
149
0.0
100
AcDbLayout
  1
Model
 70
     1
 71
     0
 10
0.0
 20
0.0
 11
12.0
 21
9.0
 12
0.0
 22
0.0
 32
0.0
 14
-457.7082196961705
 24
-314.224989179649
 34
0.0
 15
-37.70821969617208
 25
-17.22498917964902
 35
0.0
146
0.0
 13
0.0
 23
0.0
 33
0.0
 16
1.0
 26
0.0
 36
0.0
 17
0.0
 27
1.0
 37
0.0
 76
     0
330
1F
331
29
  0
MATERIAL
  5
45
102
{ACAD_REACTORS
330
43
102
}
102
{ACAD_XDICTIONARY
360
261
102
}
330
43
100
AcDbMaterial
  1
ByBlock
  0
MATERIAL
  5
44
102
{ACAD_REACTORS
330
43
102
}
102
{ACAD_XDICTIONARY
360
25F
102
}
330
43
100
AcDbMaterial
  1
ByLayer
  0
MATERIAL
  5
46
102
{ACAD_REACTORS
330
43
102
}
102
{ACAD_XDICTIONARY
360
263
102
}
330
43
100
AcDbMaterial
  1
Global
  0
MLEADERSTYLE
  5
6C
102
{ACAD_REACTORS
330
6B
102
}
102
{ACAD_XDICTIONARY
360
269
102
}
330
6B
100
AcDbMLeaderStyle
170
     2
171
     1
172
     0
 90
        2
 40
0.0
 41
0.0
173
     1
 91
-1056964608
340
14
 92
       -2
290
     1
 42
0.09
291
     1
 43
0.36
  3
Standard
341
0
 44
0.18
300

342
11
174
     1
178
     6
175
     1
176
     0
 93
-1056964608
 45
0.18
292
     0
297
     0
 46
0.18
343
0
 94
-1056964608
 47
1.0
 49
1.0
140
1.0
293
     1
141
0.0
294
     1
177
     0
142
1.0
295
     0
296
     0
143
0.125
1001
ACAD_MLEADERVER
1070
     2
  0
MLINESTYLE
  5
18
102
{ACAD_REACTORS
330
17
102
}
330
17
100
AcDbMlineStyle
  2
Standard
 70
     0
  3

 62
   256
 51
90.0
 52
90.0
 71
     2
 49
0.5
 62
   256
  6
BYLAYER
 49
-0.5
 62
   256
  6
BYLAYER
  0
ACDBPLACEHOLDER
  5
F
102
{ACAD_REACTORS
330
E
102
}
330
E
  0
SCALE
  5
48
102
{ACAD_REACTORS
330
47
102
}
330
47
100
AcDbScale
 70
     0
300
1:1
140
1.0
141
1.0
290
     1
  0
SCALE
  5
49
102
{ACAD_REACTORS
330
47
102
}
330
47
100
AcDbScale
 70
     0
300
1:2
140
1.0
141
2.0
290
     0
  0
SCALE
  5
4A
102
{ACAD_REACTORS
330
47
102
}
330
47
100
AcDbScale
 70
     0
300
1:4
140
1.0
141
4.0
290
     0
  0
SCALE
  5
4B
102
{ACAD_REACTORS
330
47
102
}
330
47
100
AcDbScale
 70
     0
300
1:5
140
1.0
141
5.0
290
     0
  0
SCALE
  5
4C
102
{ACAD_REACTORS
330
47
102
}
330
47
100
AcDbScale
 70
     0
300
1:8
140
1.0
141
8.0
290
     0
  0
SCALE
  5
4D
102
{ACAD_REACTORS
330
47
102
}
330
47
100
AcDbScale
 70
     0
300
1:10
140
1.0
141
10.0
290
     0
  0
SCALE
  5
4E
102
{ACAD_REACTORS
330
47
102
}
330
47
100
AcDbScale
 70
     0
300
1:16
140
1.0
141
16.0
290
     0
  0
SCALE
  5
4F
102
{ACAD_REACTORS
330
47
102
}
330
47
100
AcDbScale
 70
     0
300
1:20
140
1.0
141
20.0
290
     0
  0
SCALE
  5
50
102
{ACAD_REACTORS
330
47
102
}
330
47
100
AcDbScale
 70
     0
300
1:30
140
1.0
141
30.0
290
     0
  0
SCALE
  5
51
102
{ACAD_REACTORS
330
47
102
}
330
47
100
AcDbScale
 70
     0
300
1:40
140
1.0
141
40.0
290
     0
  0
SCALE
  5
52
102
{ACAD_REACTORS
330
47
102
}
330
47
100
AcDbScale
 70
     0
300
1:50
140
1.0
141
50.0
290
     0
  0
SCALE
  5
53
102
{ACAD_REACTORS
330
47
102
}
330
47
100
AcDbScale
 70
     0
300
1:100
140
1.0
141
100.0
290
     0
  0
SCALE
  5
54
102
{ACAD_REACTORS
330
47
102
}
330
47
100
AcDbScale
 70
     0
300
2:1
140
2.0
141
1.0
290
     0
  0
SCALE
  5
55
102
{ACAD_REACTORS
330
47
102
}
330
47
100
AcDbScale
 70
     0
300
4:1
140
4.0
141
1.0
290
     0
  0
SCALE
  5
56
102
{ACAD_REACTORS
330
47
102
}
330
47
100
AcDbScale
 70
     0
300
8:1
140
8.0
141
1.0
290
     0
  0
SCALE
  5
57
102
{ACAD_REACTORS
330
47
102
}
330
47
100
AcDbScale
 70
     0
300
10:1
140
10.0
141
1.0
290
     0
  0
SCALE
  5
58
102
{ACAD_REACTORS
330
47
102
}
330
47
100
AcDbScale
 70
     0
300
100:1
140
100.0
141
1.0
290
     0
  0
SCALE
  5
59
102
{ACAD_REACTORS
330
47
102
}
330
47
100
AcDbScale
 70
     0
300
1/128" = 1'-0"
140
0.0078125
141
12.0
290
     0
  0
SCALE
  5
5A
102
{ACAD_REACTORS
330
47
102
}
330
47
100
AcDbScale
 70
     0
300
1/64" = 1'-0"
140
0.015625
141
12.0
290
     0
  0
SCALE
  5
5B
102
{ACAD_REACTORS
330
47
102
}
330
47
100
AcDbScale
 70
     0
300
1/32" = 1'-0"
140
0.03125
141
12.0
290
     0
  0
SCALE
  5
5C
102
{ACAD_REACTORS
330
47
102
}
330
47
100
AcDbScale
 70
     0
300
1/16" = 1'-0"
140
0.0625
141
12.0
290
     0
  0
SCALE
  5
5D
102
{ACAD_REACTORS
330
47
102
}
330
47
100
AcDbScale
 70
     0
300
3/32" = 1'-0"
140
0.09375
141
12.0
290
     0
  0
SCALE
  5
5E
102
{ACAD_REACTORS
330
47
102
}
330
47
100
AcDbScale
 70
     0
300
1/8" = 1'-0"
140
0.125
141
12.0
290
     0
  0
SCALE
  5
5F
102
{ACAD_REACTORS
330
47
102
}
330
47
100
AcDbScale
 70
     0
300
3/16" = 1'-0"
140
0.1875
141
12.0
290
     0
  0
SCALE
  5
60
102
{ACAD_REACTORS
330
47
102
}
330
47
100
AcDbScale
 70
     0
300
1/4" = 1'-0"
140
0.25
141
12.0
290
     0
  0
SCALE
  5
61
102
{ACAD_REACTORS
330
47
102
}
330
47
100
AcDbScale
 70
     0
300
3/8" = 1'-0"
140
0.375
141
12.0
290
     0
  0
SCALE
  5
62
102
{ACAD_REACTORS
330
47
102
}
330
47
100
AcDbScale
 70
     0
300
1/2" = 1'-0"
140
0.5
141
12.0
290
     0
  0
SCALE
  5
63
102
{ACAD_REACTORS
330
47
102
}
330
47
100
AcDbScale
 70
     0
300
3/4" = 1'-0"
140
0.75
141
12.0
290
     0
  0
SCALE
  5
64
102
{ACAD_REACTORS
330
47
102
}
330
47
100
AcDbScale
 70
     0
300
1" = 1'-0"
140
1.0
141
12.0
290
     0
  0
SCALE
  5
65
102
{ACAD_REACTORS
330
47
102
}
330
47
100
AcDbScale
 70
     0
300
1-1/2" = 1'-0"
140
1.5
141
12.0
290
     0
  0
SCALE
  5
66
102
{ACAD_REACTORS
330
47
102
}
330
47
100
AcDbScale
 70
     0
300
3" = 1'-0"
140
3.0
141
12.0
290
     0
  0
SCALE
  5
67
102
{ACAD_REACTORS
330
47
102
}
330
47
100
AcDbScale
 70
     0
300
6" = 1'-0"
140
6.0
141
12.0
290
     0
  0
SCALE
  5
68
102
{ACAD_REACTORS
330
47
102
}
330
47
100
AcDbScale
 70
     0
300
1'-0" = 1'-0"
140
12.0
141
12.0
290
     0
  0
TABLESTYLE
  5
6A
102
{ACAD_REACTORS
330
69
102
}
102
{ACAD_XDICTIONARY
360
265
102
}
330
69
100
AcDbTableStyle
  3
Standard
 70
     0
 71
     0
 40
0.06
 41
0.06
280
     0
281
     0
  7
Standard
140
0.18
170
     2
 62
     0
 63
   257
283
     0
274
    -2
284
     1
 64
     0
275
    -2
285
     1
 65
     0
276
    -2
286
     1
 66
     0
277
    -2
287
     1
 67
     0
278
    -2
288
     1
 68
     0
279
    -2
289
     1
 69
     0
  7
Standard
140
0.25
170
     5
 62
     0
 63
   257
283
     0
274
    -2
284
     1
 64
     0
275
    -2
285
     1
 65
     0
276
    -2
286
     1
 66
     0
277
    -2
287
     1
 67
     0
278
    -2
288
     1
 68
     0
279
    -2
289
     1
 69
     0
  7
Standard
140
0.18
170
     5
 62
     0
 63
   257
283
     0
274
    -2
284
     1
 64
     0
275
    -2
285
     1
 65
     0
276
    -2
286
     1
 66
     0
277
    -2
287
     1
 67
     0
278
    -2
288
     1
 68
     0
279
    -2
289
     1
 69
     0
  0
VISUALSTYLE
  5
2F
102
{ACAD_REACTORS
330
2A
102
}
102
{ACAD_XDICTIONARY
360
237
102
}
330
2A
100
AcDbVisualStyle
  2
2dWireframe
 70
     4
 71
     0
 72
     2
 73
     0
 90
        0
 40
0.6
 41
30.0
 62
     5
 63
     7
421
 16777215
 74
     1
 91
        4
 64
     7
 65
   257
 75
     1
175
     1
 42
1.0
 92
        0
 66
   257
 43
1.0
 76
     1
 77
     6
 78
     2
 67
     7
 79
     5
170
     0
171
     0
290
     0
174
     0
 93
        1
 44
0.0
173
     0
291
     0
 45
0.0
1001
ACAD
1000
AcDbSavedByObjectVersion
1070
     0
  0
VISUALSTYLE
  5
32
102
{ACAD_REACTORS
330
2A
102
}
102
{ACAD_XDICTIONARY
360
23D
102
}
330
2A
100
AcDbVisualStyle
  2
Basic
 70
     7
 71
     1
 72
     0
 73
     1
 90
        0
 40
0.6
 41
30.0
 62
     5
 63
     7
421
 16777215
 74
     0
 91
        4
 64
     7
 65
   257
 75
     1
175
     1
 42
1.0
 92
        8
 66
     7
 43
1.0
 76
     1
 77
     6
 78
     2
 67
     7
 79
     5
170
     0
171
     0
290
     0
174
     0
 93
        1
 44
0.0
173
     0
291
     1
 45
0.0
1001
ACAD
1000
AcDbSavedByObjectVersion
1070
     0
  0
VISUALSTYLE
  5
36
102
{ACAD_REACTORS
330
2A
102
}
102
{ACAD_XDICTIONARY
360
245
102
}
330
2A
100
AcDbVisualStyle
  2
Brighten
 70
    12
 71
     2
 72
     2
 73
     0
 90
        0
 40
0.6
 41
30.0
 62
     5
 63
     7
421
 16777215
 74
     1
 91
        4
 64
     7
 65
   257
 75
     1
175
     1
 42
1.0
 92
        8
 66
     7
 43
1.0
 76
     1
 77
     6
 78
     2
 67
     7
 79
     5
170
     0
171
     0
290
     0
174
     0
 93
        1
 44
50.0
173
     0
291
     1
 45
0.0
1001
ACAD
1000
AcDbSavedByObjectVersion
1070
     0
  0
VISUALSTYLE
  5
3A
102
{ACAD_REACTORS
330
2A
102
}
102
{ACAD_XDICTIONARY
360
24D
102
}
330
2A
100
AcDbVisualStyle
  2
ColorChange
 70
    16
 71
     2
 72
     2
 73
     3
 90
        0
 40
0.6
 41
30.0
 62
     5
 63
     8
421
  8421504
 74
     1
 91
        4
 64
     7
 65
   257
 75
     1
175
     1
 42
1.0
 92
        8
 66
     8
424
  8421504
 43
1.0
 76
     1
 77
     6
 78
     2
 67
     7
 79
     5
170
     0
171
     0
290
     0
174
     0
 93
        1
 44
0.0
173
     0
291
     1
 45
0.0
1001
ACAD
1000
AcDbSavedByObjectVersion
1070
     0
  0
VISUALSTYLE
  5
34
102
{ACAD_REACTORS
330
2A
102
}
102
{ACAD_XDICTIONARY
360
241
102
}
330
2A
100
AcDbVisualStyle
  2
Conceptual
 70
     9
 71
     3
 72
     2
 73
     0
 90
        0
 40
0.6
 41
30.0
 62
     5
 63
     7
421
 16777215
 74
     2
 91
        2
 64
     7
 65
   257
 75
     1
175
     1
 42
179.0
 92
        8
 66
     7
 43
1.0
 76
     1
 77
     6
 78
     2
 67
     7
 79
     3
170
     0
171
     0
290
     0
174
     0
 93
        1
 44
0.0
173
     0
291
     0
 45
0.0
1001
ACAD
1000
AcDbSavedByObjectVersion
1070
     0
  0
VISUALSTYLE
  5
35
102
{ACAD_REACTORS
330
2A
102
}
102
{ACAD_XDICTIONARY
360
243
102
}
330
2A
100
AcDbVisualStyle
  2
Dim
 70
    11
 71
     2
 72
     2
 73
     0
 90
        0
 40
0.6
 41
30.0
 62
     5
 63
     7
421
 16777215
 74
     1
 91
        4
 64
     7
 65
   257
 75
     1
175
     1
 42
1.0
 92
        8
 66
     7
 43
1.0
 76
     1
 77
     6
 78
     2
 67
     7
 79
     5
170
     0
171
     0
290
     0
174
     0
 93
        1
 44
-50.0
173
     0
291
     1
 45
0.0
1001
ACAD
1000
AcDbSavedByObjectVersion
1070
     0
  0
VISUALSTYLE
  5
3D
102
{ACAD_REACTORS
330
2A
102
}
102
{ACAD_XDICTIONARY
360
253
102
}
330
2A
100
AcDbVisualStyle
  2
EdgeColorOff
 70
    22
 71
     2
 72
     2
 73
     0
 90
        0
 40
0.6
 41
30.0
 62
     5
 63
     7
421
 16777215
 74
     1
 91
        4
 64
     7
 65
   257
 75
     1
175
     1
 42
1.0
 92
        8
 66
     7
 43
1.0
 76
     1
 77
     6
 78
     2
 67
     7
 79
     5
170
     0
171
     0
290
     0
174
     0
 93
        1
 44
0.0
173
     0
291
     1
 45
0.0
1001
ACAD
1000
AcDbSavedByObjectVersion
1070
     0
  0
VISUALSTYLE
  5
39
102
{ACAD_REACTORS
330
2A
102
}
102
{ACAD_XDICTIONARY
360
24B
102
}
330
2A
100
AcDbVisualStyle
  2
Facepattern
 70
    15
 71
     2
 72
     2
 73
     0
 90
        0
 40
0.6
 41
30.0
 62
     5
 63
     7
421
 16777215
 74
     1
 91
        4
 64
     7
 65
   257
 75
     1
175
     1
 42
1.0
 92
        8
 66
     7
 43
1.0
 76
     1
 77
     6
 78
     2
 67
     7
 79
     5
170
     0
171
     0
290
     0
174
     0
 93
        1
 44
0.0
173
     0
291
     1
 45
0.0
1001
ACAD
1000
AcDbSavedByObjectVersion
1070
     0
  0
VISUALSTYLE
  5
2B
102
{ACAD_REACTORS
330
2A
102
}
102
{ACAD_XDICTIONARY
360
22F
102
}
330
2A
100
AcDbVisualStyle
  2
Flat
 70
     0
 71
     2
 72
     1
 73
     1
 90
        2
 40
0.6
 41
30.0
 62
     5
 63
     7
421
 16777215
 74
     0
 91
        0
 64
     7
 65
   257
 75
     1
175
     1
 42
1.0
 92
        8
 66
     7
 43
1.0
 76
     1
 77
     6
 78
     2
 67
     7
 79
     5
170
     0
171
     0
290
     0
174
     0
 93
       13
 44
0.0
173
     0
291
     1
 45
0.0
1001
ACAD
1000
AcDbSavedByObjectVersion
1070
     0
  0
VISUALSTYLE
  5
2C
102
{ACAD_REACTORS
330
2A
102
}
102
{ACAD_XDICTIONARY
360
231
102
}
330
2A
100
AcDbVisualStyle
  2
FlatWithEdges
 70
     1
 71
     2
 72
     1
 73
     1
 90
        2
 40
0.6
 41
30.0
 62
     5
 63
     7
421
 16777215
 74
     1
 91
        0
 64
     7
 65
   257
 75
     1
175
     1
 42
1.0
 92
        0
 66
   257
 43
1.0
 76
     1
 77
     6
 78
     2
 67
     7
 79
     5
170
     0
171
     0
290
     0
174
     0
 93
       13
 44
0.0
173
     0
291
     1
 45
0.0
1001
ACAD
1000
AcDbSavedByObjectVersion
1070
     0
  0
VISUALSTYLE
  5
2D
102
{ACAD_REACTORS
330
2A
102
}
102
{ACAD_XDICTIONARY
360
233
102
}
330
2A
100
AcDbVisualStyle
  2
Gouraud
 70
     2
 71
     2
 72
     2
 73
     1
 90
        2
 40
0.6
 41
30.0
 62
     5
 63
     7
421
 16777215
 74
     0
 91
        0
 64
     7
 65
   257
 75
     1
175
     1
 42
1.0
 92
        0
 66
     7
 43
1.0
 76
     1
 77
     6
 78
     2
 67
     7
 79
     5
170
     0
171
     0
290
     0
174
     0
 93
       13
 44
0.0
173
     0
291
     1
 45
0.0
1001
ACAD
1000
AcDbSavedByObjectVersion
1070
     0
  0
VISUALSTYLE
  5
2E
102
{ACAD_REACTORS
330
2A
102
}
102
{ACAD_XDICTIONARY
360
235
102
}
330
2A
100
AcDbVisualStyle
  2
GouraudWithEdges
 70
     3
 71
     2
 72
     2
 73
     1
 90
        2
 40
0.6
 41
30.0
 62
     5
 63
     7
421
 16777215
 74
     1
 91
        0
 64
     7
 65
   257
 75
     1
175
     1
 42
1.0
 92
        0
 66
   257
 43
1.0
 76
     1
 77
     6
 78
     2
 67
     7
 79
     5
170
     0
171
     0
290
     0
174
     0
 93
       13
 44
0.0
173
     0
291
     1
 45
0.0
1001
ACAD
1000
AcDbSavedByObjectVersion
1070
     0
  0
VISUALSTYLE
  5
31
102
{ACAD_REACTORS
330
2A
102
}
102
{ACAD_XDICTIONARY
360
23B
102
}
330
2A
100
AcDbVisualStyle
  2
Hidden
 70
     6
 71
     1
 72
     2
 73
     2
 90
        0
 40
0.6
 41
30.0
 62
     5
 63
     7
421
 16777215
 74
     2
 91
        2
 64
     7
 65
   257
 75
     2
175
     1
 42
40.0
 92
        0
 66
   257
 43
1.0
 76
     1
 77
     6
 78
     2
 67
     7
 79
     3
170
     0
171
     0
290
     0
174
     0
 93
        1
 44
0.0
173
     0
291
     0
 45
0.0
1001
ACAD
1000
AcDbSavedByObjectVersion
1070
     0
  0
VISUALSTYLE
  5
3B
102
{ACAD_REACTORS
330
2A
102
}
102
{ACAD_XDICTIONARY
360
24F
102
}
330
2A
100
AcDbVisualStyle
  2
JitterOff
 70
    20
 71
     2
 72
     2
 73
     0
 90
        0
 40
0.6
 41
30.0
 62
     5
 63
     7
421
 16777215
 74
     1
 91
        4
 64
     7
 65
   257
 75
     1
175
     1
 42
1.0
 92
       10
 66
     7
 43
1.0
 76
     1
 77
     6
 78
     2
 67
     7
 79
     5
170
     0
171
     0
290
     0
174
     0
 93
        1
 44
0.0
173
     0
291
     1
 45
0.0
1001
ACAD
1000
AcDbSavedByObjectVersion
1070
     0
  0
VISUALSTYLE
  5
38
102
{ACAD_REACTORS
330
2A
102
}
102
{ACAD_XDICTIONARY
360
249
102
}
330
2A
100
AcDbVisualStyle
  2
Linepattern
 70
    14
 71
     2
 72
     2
 73
     0
 90
        0
 40
0.6
 41
30.0
 62
     5
 63
     7
421
 16777215
 74
     1
 91
        4
 64
     7
 65
   257
 75
     7
175
     7
 42
1.0
 92
        8
 66
     7
 43
1.0
 76
     1
 77
     6
 78
     2
 67
     7
 79
     5
170
     0
171
     0
290
     0
174
     0
 93
        1
 44
0.0
173
     0
291
     1
 45
0.0
1001
ACAD
1000
AcDbSavedByObjectVersion
1070
     0
  0
VISUALSTYLE
  5
3C
102
{ACAD_REACTORS
330
2A
102
}
102
{ACAD_XDICTIONARY
360
251
102
}
330
2A
100
AcDbVisualStyle
  2
OverhangOff
 70
    21
 71
     2
 72
     2
 73
     0
 90
        0
 40
0.6
 41
30.0
 62
     5
 63
     7
421
 16777215
 74
     1
 91
        4
 64
     7
 65
   257
 75
     1
175
     1
 42
1.0
 92
        9
 66
     7
 43
1.0
 76
     1
 77
     6
 78
     2
 67
     7
 79
     5
170
     0
171
     0
290
     0
174
     0
 93
        1
 44
0.0
173
     0
291
     1
 45
0.0
1001
ACAD
1000
AcDbSavedByObjectVersion
1070
     0
  0
VISUALSTYLE
  5
33
102
{ACAD_REACTORS
330
2A
102
}
102
{ACAD_XDICTIONARY
360
23F
102
}
330
2A
100
AcDbVisualStyle
  2
Realistic
 70
     8
 71
     2
 72
     3
 73
     0
 90
        2
 40
0.6
 41
30.0
 62
     5
 63
     7
421
 16777215
 74
     0
 91
        0
 64
     7
 65
   257
 75
     1
175
     1
 42
1.0
 92
        8
 66
   257
 43
1.0
 76
     1
 77
     6
 78
     2
 67
     7
 79
     3
170
     0
171
     0
290
     0
174
     0
 93
       13
 44
0.0
173
     0
291
     0
 45
0.0
1001
ACAD
1000
AcDbSavedByObjectVersion
1070
     0
  0
VISUALSTYLE
  5
42
102
{ACAD_REACTORS
330
2A
102
}
102
{ACAD_XDICTIONARY
360
25D
102
}
330
2A
100
AcDbVisualStyle
  2
Shaded
 70
    27
 71
     2
 72
     2
 73
     1
 90
        2
 40
0.6
 41
30.0
 62
     5
 63
     7
421
 16777215
 74
     0
 91
        4
 64
     7
 65
   257
 75
     1
175
     1
 42
1.0
 92
        8
 66
   257
 43
1.0
 76
     1
 77
     6
 78
     2
 67
     8
425
  7895160
 79
     3
170
     0
171
     0
290
     0
174
     0
 93
        5
 44
0.0
173
     0
291
     0
 45
0.0
1001
ACAD
1000
AcDbSavedByObjectVersion
1070
     0
  0
VISUALSTYLE
  5
41
102
{ACAD_REACTORS
330
2A
102
}
102
{ACAD_XDICTIONARY
360
25B
102
}
330
2A
100
AcDbVisualStyle
  2
Shaded with edges
 70
    26
 71
     2
 72
     2
 73
     1
 90
        2
 40
0.6
 41
30.0
 62
     5
 63
     7
421
 16777215
 74
     1
 91
       10
 64
     7
 65
   257
 75
     2
175
     1
 42
1.0
 92
        8
 66
   257
 43
1.0
 76
     1
 77
     6
 78
     2
 67
     7
 79
     3
170
     0
171
     0
290
     0
174
     0
 93
        5
 44
0.0
173
     0
291
     0
 45
0.0
1001
ACAD
1000
AcDbSavedByObjectVersion
1070
     0
  0
VISUALSTYLE
  5
3E
102
{ACAD_REACTORS
330
2A
102
}
102
{ACAD_XDICTIONARY
360
255
102
}
330
2A
100
AcDbVisualStyle
  2
Shades of Gray
 70
    23
 71
     2
 72
     2
 73
     3
 90
        0
 40
0.6
 41
30.0
 62
     5
 63
     7
421
 16777215
 74
     2
 91
        2
 64
     7
 65
     7
 75
     1
175
     1
 42
40.0
 92
        8
 66
     7
 43
1.0
 76
     1
 77
     6
 78
     2
 67
     7
 79
     3
170
     0
171
     0
290
     0
174
     0
 93
        1
 44
0.0
173
     0
291
     0
 45
0.0
1001
ACAD
1000
AcDbSavedByObjectVersion
1070
     0
  0
VISUALSTYLE
  5
3F
102
{ACAD_REACTORS
330
2A
102
}
102
{ACAD_XDICTIONARY
360
257
102
}
330
2A
100
AcDbVisualStyle
  2
Sketchy
 70
    24
 71
     1
 72
     2
 73
     2
 90
        0
 40
0.6
 41
30.0
 62
     5
 63
     7
421
 16777215
 74
     2
 91
        2
 64
     7
 65
     7
 75
     1
175
     1
 42
40.0
 92
       11
 66
     7
 43
1.0
 76
     1
 77
     6
 78
     2
 67
     7
 79
     6
170
     0
171
     0
290
     0
174
     0
 93
        1
 44
0.0
173
     0
291
     0
 45
0.0
1001
ACAD
1000
AcDbSavedByObjectVersion
1070
     0
  0
VISUALSTYLE
  5
37
102
{ACAD_REACTORS
330
2A
102
}
102
{ACAD_XDICTIONARY
360
247
102
}
330
2A
100
AcDbVisualStyle
  2
Thicken
 70
    13
 71
     2
 72
     2
 73
     0
 90
        0
 40
0.6
 41
30.0
 62
     5
 63
     7
421
 16777215
 74
     1
 91
        4
 64
     7
 65
   257
 75
     1
175
     1
 42
1.0
 92
       12
 66
     7
 43
1.0
 76
     1
 77
     6
 78
     2
 67
     7
 79
     5
170
     0
171
     0
290
     0
174
     0
 93
        1
 44
0.0
173
     0
291
     1
 45
0.0
1001
ACAD
1000
AcDbSavedByObjectVersion
1070
     0
  0
VISUALSTYLE
  5
30
102
{ACAD_REACTORS
330
2A
102
}
102
{ACAD_XDICTIONARY
360
239
102
}
330
2A
100
AcDbVisualStyle
  2
Wireframe
 70
     5
 71
     0
 72
     2
 73
     0
 90
        0
 40
0.6
 41
30.0
 62
     5
 63
     7
421
 16777215
 74
     1
 91
        4
 64
     7
 65
   257
 75
     1
175
     1
 42
1.0
 92
        0
 66
   257
 43
1.0
 76
     1
 77
     6
 78
     2
 67
     7
 79
     3
170
     0
171
     0
290
     0
174
     0
 93
        1
 44
0.0
173
     0
291
     0
 45
0.0
1001
ACAD
1000
AcDbSavedByObjectVersion
1070
     0
  0
VISUALSTYLE
  5
40
102
{ACAD_REACTORS
330
2A
102
}
102
{ACAD_XDICTIONARY
360
259
102
}
330
2A
100
AcDbVisualStyle
  2
X-Ray
 70
    25
 71
     2
 72
     2
 73
     1
 90
        1
 40
0.5
 41
30.0
 62
     5
 63
     7
421
 16777215
 74
     1
 91
        0
 64
     7
 65
   257
 75
     1
175
     1
 42
1.0
 92
        8
 66
     7
 43
1.0
 76
     1
 77
     6
 78
     2
 67
     7
 79
     3
170
     0
171
     0
290
     0
174
     0
 93
       13
 44
0.0
173
     0
291
     0
 45
0.0
1001
ACAD
1000
AcDbSavedByObjectVersion
1070
     0
  0
DICTIONARYVAR
  5
22C
102
{ACAD_REACTORS
330
22B
102
}
330
22B
100
DictionaryVariables
280
     0
  1
1:1
  0
DICTIONARYVAR
  5
26D
102
{ACAD_REACTORS
330
22B
102
}
330
22B
100
DictionaryVariables
280
     0
  1
Standard
  0
DICTIONARYVAR
  5
26C
102
{ACAD_REACTORS
330
22B
102
}
330
22B
100
DictionaryVariables
280
     0
  1
Standard
  0
DICTIONARYVAR
  5
22D
102
{ACAD_REACTORS
330
22B
102
}
330
22B
100
DictionaryVariables
280
     0
  1
1
  0
DICTIONARYVAR
  5
22E
102
{ACAD_REACTORS
330
22B
102
}
330
22B
100
DictionaryVariables
280
     0
  1
2
  0
DICTIONARY
  5
261
330
45
100
AcDbDictionary
280
     1
281
     1
  3
ACAD_XREC_ROUNDTRIP
360
262
  0
DICTIONARY
  5
25F
330
44
100
AcDbDictionary
280
     1
281
     1
  3
ACAD_XREC_ROUNDTRIP
360
260
  0
DICTIONARY
  5
263
330
46
100
AcDbDictionary
280
     1
281
     1
  3
ACAD_XREC_ROUNDTRIP
360
264
  0
DICTIONARY
  5
269
330
6C
100
AcDbDictionary
280
     1
281
     1
  3
ACAD_XREC_ROUNDTRIP
360
26A
  0
DICTIONARY
  5
265
330
6A
100
AcDbDictionary
280
     1
281
     1
  3
ACAD_ROUNDTRIP_2008_TABLESTYLE_CELLSTYLEMAP
360
267
  3
ACAD_XREC_ROUNDTRIP
360
266
  0
DICTIONARY
  5
237
330
2F
100
AcDbDictionary
280
     1
281
     1
  3
ACAD_XREC_ROUNDTRIP
360
238
  0
DICTIONARY
  5
23D
330
32
100
AcDbDictionary
280
     1
281
     1
  3
ACAD_XREC_ROUNDTRIP
360
23E
  0
DICTIONARY
  5
245
330
36
100
AcDbDictionary
280
     1
281
     1
  3
ACAD_XREC_ROUNDTRIP
360
246
  0
DICTIONARY
  5
24D
330
3A
100
AcDbDictionary
280
     1
281
     1
  3
ACAD_XREC_ROUNDTRIP
360
24E
  0
DICTIONARY
  5
241
330
34
100
AcDbDictionary
280
     1
281
     1
  3
ACAD_XREC_ROUNDTRIP
360
242
  0
DICTIONARY
  5
243
330
35
100
AcDbDictionary
280
     1
281
     1
  3
ACAD_XREC_ROUNDTRIP
360
244
  0
DICTIONARY
  5
253
330
3D
100
AcDbDictionary
280
     1
281
     1
  3
ACAD_XREC_ROUNDTRIP
360
254
  0
DICTIONARY
  5
24B
330
39
100
AcDbDictionary
280
     1
281
     1
  3
ACAD_XREC_ROUNDTRIP
360
24C
  0
DICTIONARY
  5
22F
330
2B
100
AcDbDictionary
280
     1
281
     1
  3
ACAD_XREC_ROUNDTRIP
360
230
  0
DICTIONARY
  5
231
330
2C
100
AcDbDictionary
280
     1
281
     1
  3
ACAD_XREC_ROUNDTRIP
360
232
  0
DICTIONARY
  5
233
330
2D
100
AcDbDictionary
280
     1
281
     1
  3
ACAD_XREC_ROUNDTRIP
360
234
  0
DICTIONARY
  5
235
330
2E
100
AcDbDictionary
280
     1
281
     1
  3
ACAD_XREC_ROUNDTRIP
360
236
  0
DICTIONARY
  5
23B
330
31
100
AcDbDictionary
280
     1
281
     1
  3
ACAD_XREC_ROUNDTRIP
360
23C
  0
DICTIONARY
  5
24F
330
3B
100
AcDbDictionary
280
     1
281
     1
  3
ACAD_XREC_ROUNDTRIP
360
250
  0
DICTIONARY
  5
249
330
38
100
AcDbDictionary
280
     1
281
     1
  3
ACAD_XREC_ROUNDTRIP
360
24A
  0
DICTIONARY
  5
251
330
3C
100
AcDbDictionary
280
     1
281
     1
  3
ACAD_XREC_ROUNDTRIP
360
252
  0
DICTIONARY
  5
23F
330
33
100
AcDbDictionary
280
     1
281
     1
  3
ACAD_XREC_ROUNDTRIP
360
240
  0
DICTIONARY
  5
25D
330
42
100
AcDbDictionary
280
     1
281
     1
  3
ACAD_XREC_ROUNDTRIP
360
25E
  0
DICTIONARY
  5
25B
330
41
100
AcDbDictionary
280
     1
281
     1
  3
ACAD_XREC_ROUNDTRIP
360
25C
  0
DICTIONARY
  5
255
330
3E
100
AcDbDictionary
280
     1
281
     1
  3
ACAD_XREC_ROUNDTRIP
360
256
  0
DICTIONARY
  5
257
330
3F
100
AcDbDictionary
280
     1
281
     1
  3
ACAD_XREC_ROUNDTRIP
360
258
  0
DICTIONARY
  5
247
330
37
100
AcDbDictionary
280
     1
281
     1
  3
ACAD_XREC_ROUNDTRIP
360
248
  0
DICTIONARY
  5
239
330
30
100
AcDbDictionary
280
     1
281
     1
  3
ACAD_XREC_ROUNDTRIP
360
23A
  0
DICTIONARY
  5
259
330
40
100
AcDbDictionary
280
     1
281
     1
  3
ACAD_XREC_ROUNDTRIP
360
25A
  0
XRECORD
  5
262
102
{ACAD_REACTORS
330
261
102
}
330
261
100
AcDbXrecord
280
     1
102
MATERIAL
148
0.0
149
0.0
149
0.0
 93
        0
 94
      127
282
     0
 72
     1
 77
     1
171
     1
175
     1
179
     1
273
     0
  0
XRECORD
  5
260
102
{ACAD_REACTORS
330
25F
102
}
330
25F
100
AcDbXrecord
280
     1
102
MATERIAL
148
0.0
149
0.0
149
0.0
 93
        0
 94
      127
282
     0
 72
     1
 77
     1
171
     1
175
     1
179
     1
273
     0
  0
XRECORD
  5
264
102
{ACAD_REACTORS
330
263
102
}
330
263
100
AcDbXrecord
280
     1
102
MATERIAL
148
0.0
149
0.0
149
0.0
 93
        0
 94
      127
282
     0
 72
     1
 77
     1
171
     1
175
     1
179
     1
273
     0
  0
XRECORD
  5
26A
102
{ACAD_REACTORS
330
269
102
}
330
269
100
AcDbXrecord
280
     1
102
ACAD_ROUNDTRIP_2010_MLEADER_STYLE
  0
CELLSTYLEMAP
  5
267
102
{ACAD_REACTORS
330
265
102
}
330
265
100
AcDbCellStyleMap
 90
        3
300
CELLSTYLE
  1
TABLEFORMAT_BEGIN
 90
        5
170
     1
 91
        0
 92
    32768
 62
   257
 93
        1
300
CONTENTFORMAT
  1
CONTENTFORMAT_BEGIN
 90
        0
 91
        0
 92
        4
 93
        0
300

 40
0.0
140
1.0
 94
        5
 62
     0
340
11
144
0.25
309
CONTENTFORMAT_END
171
     1
301
MARGIN
  1
CELLMARGIN_BEGIN
 40
0.06
 40
0.06
 40
0.06
 40
0.06
 40
0.06
 40
0.06
309
CELLMARGIN_END
 94
        6
 95
        1
302
GRIDFORMAT
  1
GRIDFORMAT_BEGIN
 90
        0
 91
        1
 62
     0
 92
       -2
340
14
 93
        0
 40
0.045
309
GRIDFORMAT_END
 95
        2
302
GRIDFORMAT
  1
GRIDFORMAT_BEGIN
 90
        0
 91
        1
 62
     0
 92
       -2
340
14
 93
        0
 40
0.045
309
GRIDFORMAT_END
 95
        4
302
GRIDFORMAT
  1
GRIDFORMAT_BEGIN
 90
        0
 91
        1
 62
     0
 92
       -2
340
14
 93
        0
 40
0.045
309
GRIDFORMAT_END
 95
        8
302
GRIDFORMAT
  1
GRIDFORMAT_BEGIN
 90
        0
 91
        1
 62
     0
 92
       -2
340
14
 93
        0
 40
0.045
309
GRIDFORMAT_END
 95
       16
302
GRIDFORMAT
  1
GRIDFORMAT_BEGIN
 90
        0
 91
        1
 62
     0
 92
       -2
340
14
 93
        0
 40
0.045
309
GRIDFORMAT_END
 95
       32
302
GRIDFORMAT
  1
GRIDFORMAT_BEGIN
 90
        0
 91
        1
 62
     0
 92
       -2
340
14
 93
        0
 40
0.045
309
GRIDFORMAT_END
309
TABLEFORMAT_END
  1
CELLSTYLE_BEGIN
 90
        1
 91
        1
300
_TITLE
309
CELLSTYLE_END
300
CELLSTYLE
  1
TABLEFORMAT_BEGIN
 90
        5
170
     1
 91
        0
 92
        0
 62
   257
 93
        1
300
CONTENTFORMAT
  1
CONTENTFORMAT_BEGIN
 90
        0
 91
        0
 92
        4
 93
        0
300

 40
0.0
140
1.0
 94
        5
 62
     0
340
11
144
0.18
309
CONTENTFORMAT_END
171
     1
301
MARGIN
  1
CELLMARGIN_BEGIN
 40
0.06
 40
0.06
 40
0.06
 40
0.06
 40
0.06
 40
0.06
309
CELLMARGIN_END
 94
        6
 95
        1
302
GRIDFORMAT
  1
GRIDFORMAT_BEGIN
 90
        0
 91
        1
 62
     0
 92
       -2
340
14
 93
        0
 40
0.045
309
GRIDFORMAT_END
 95
        2
302
GRIDFORMAT
  1
GRIDFORMAT_BEGIN
 90
        0
 91
        1
 62
     0
 92
       -2
340
14
 93
        0
 40
0.045
309
GRIDFORMAT_END
 95
        4
302
GRIDFORMAT
  1
GRIDFORMAT_BEGIN
 90
        0
 91
        1
 62
     0
 92
       -2
340
14
 93
        0
 40
0.045
309
GRIDFORMAT_END
 95
        8
302
GRIDFORMAT
  1
GRIDFORMAT_BEGIN
 90
        0
 91
        1
 62
     0
 92
       -2
340
14
 93
        0
 40
0.045
309
GRIDFORMAT_END
 95
       16
302
GRIDFORMAT
  1
GRIDFORMAT_BEGIN
 90
        0
 91
        1
 62
     0
 92
       -2
340
14
 93
        0
 40
0.045
309
GRIDFORMAT_END
 95
       32
302
GRIDFORMAT
  1
GRIDFORMAT_BEGIN
 90
        0
 91
        1
 62
     0
 92
       -2
340
14
 93
        0
 40
0.045
309
GRIDFORMAT_END
309
TABLEFORMAT_END
  1
CELLSTYLE_BEGIN
 90
        2
 91
        1
300
_HEADER
309
CELLSTYLE_END
300
CELLSTYLE
  1
TABLEFORMAT_BEGIN
 90
        5
170
     1
 91
        0
 92
        0
 62
   257
 93
        1
300
CONTENTFORMAT
  1
CONTENTFORMAT_BEGIN
 90
        0
 91
        0
 92
        4
 93
        0
300

 40
0.0
140
1.0
 94
        2
 62
     0
340
11
144
0.18
309
CONTENTFORMAT_END
171
     1
301
MARGIN
  1
CELLMARGIN_BEGIN
 40
0.06
 40
0.06
 40
0.06
 40
0.06
 40
0.06
 40
0.06
309
CELLMARGIN_END
 94
        6
 95
        1
302
GRIDFORMAT
  1
GRIDFORMAT_BEGIN
 90
        0
 91
        1
 62
     0
 92
       -2
340
14
 93
        0
 40
0.045
309
GRIDFORMAT_END
 95
        2
302
GRIDFORMAT
  1
GRIDFORMAT_BEGIN
 90
        0
 91
        1
 62
     0
 92
       -2
340
14
 93
        0
 40
0.045
309
GRIDFORMAT_END
 95
        4
302
GRIDFORMAT
  1
GRIDFORMAT_BEGIN
 90
        0
 91
        1
 62
     0
 92
       -2
340
14
 93
        0
 40
0.045
309
GRIDFORMAT_END
 95
        8
302
GRIDFORMAT
  1
GRIDFORMAT_BEGIN
 90
        0
 91
        1
 62
     0
 92
       -2
340
14
 93
        0
 40
0.045
309
GRIDFORMAT_END
 95
       16
302
GRIDFORMAT
  1
GRIDFORMAT_BEGIN
 90
        0
 91
        1
 62
     0
 92
       -2
340
14
 93
        0
 40
0.045
309
GRIDFORMAT_END
 95
       32
302
GRIDFORMAT
  1
GRIDFORMAT_BEGIN
 90
        0
 91
        1
 62
     0
 92
       -2
340
14
 93
        0
 40
0.045
309
GRIDFORMAT_END
309
TABLEFORMAT_END
  1
CELLSTYLE_BEGIN
 90
        3
 91
        2
300
_DATA
309
CELLSTYLE_END
  0
XRECORD
  5
266
102
{ACAD_REACTORS
330
265
102
}
330
265
100
AcDbXrecord
280
     1
102
ACAD_ROUNDTRIP_PRE2007_TABLESTYLE
 90
        4
 91
        0
  1

 92
        4
 93
        0
  2

 94
        4
 95
        0
  3

  0
XRECORD
  5
238
102
{ACAD_REACTORS
330
237
102
}
330
237
100
AcDbXrecord
280
     1
102
RTVSPropertyOp0
 70
     1
102
RTVSPropertyOp1
 70
     1
102
RTVSPropertyOp2
 70
     1
102
RTVSPropertyOp3
 70
     1
102
RTVSPropertyOp4
 70
     1
102
RTVSPropertyOp5
 70
     1
102
RTVSPropertyOp6
 70
     1
102
RTVSPropertyOp7
 70
     1
102
RTVSPropertyOp8
 70
     1
102
RTVSPropertyOp9
 70
     1
102
RTVSPropertyOp10
 70
     1
102
RTVSPropertyOp11
 70
     1
102
RTVSPropertyOp12
 70
     1
102
RTVSPropertyOp13
 70
     1
102
RTVSPropertyOp14
 70
     1
102
RTVSPropertyOp15
 70
     1
102
RTVSPropertyOp16
 70
     1
102
RTVSPropertyOp17
 70
     1
102
RTVSPropertyOp18
 70
     1
102
RTVSPropertyOp19
 70
     1
102
RTVSPropertyOp20
 70
     1
102
RTVSPropertyOp21
 70
     1
102
RTVSPropertyOp22
 70
     1
102
RTVSPropertyOp23
 70
     1
102
RTVSPropertyOp24
 70
     1
102
RTVSPropertyOp25
 70
     1
102
RTVSPropertyOp26
 70
     1
102
RTVSPropertyOp27
 70
     1
102
RTVSPropertyOp28
 70
     1
102
RTVSPropertyOp29
 70
     1
102
RTVSPropertyOp30
 70
     1
102
RTVSPropertyOp31
 70
     1
102
RTVSPropertyOp32
 70
     1
102
RTVSPropertyOp33
 70
     1
102
RTVSPropertyOp34
 70
     1
102
RTVSPropertyOp35
 70
     1
102
RTVSPropertyOp36
 70
     1
102
RTVSPropertyOp37
 70
     1
102
RTVSPropertyOp38
 70
     1
102
RTVSPropertyOp39
 70
     1
102
RTVSPropertyOp40
 70
     1
102
RTVSPropertyOp41
 70
     1
102
RTVSPropertyOp42
 70
     1
102
RTVSPropertyOp43
 70
     1
102
RTVSPropertyOp44
 70
     1
102
RTVSPropertyOp45
 70
     1
102
RTVSPropertyOp46
 70
     1
102
RTVSPropertyOp47
 70
     1
102
RTVSPropertyOp48
 70
     1
102
RTVSPropertyOp49
 70
     1
102
RTVSPropertyOp50
 70
     1
102
RTVSPropertyOp51
 70
     0
102
RTVSPropertyOp52
 70
     0
102
RTVSPropertyOp53
 70
     1
102
RTVSPropertyOp54
 70
     1
102
RTVSPropertyOp55
 70
     1
102
RTVSPropertyOp56
 70
     1
102
RTVSPropertyOp57
 70
     1
102
RTVSPost2010Prop28
280
     1
102
RTVSPost2010PropOp28
 70
     1
102
RTVSPost2010Prop29
280
     1
102
RTVSPost2010PropOp29
 70
     1
102
RTVSPost2010Prop30
280
     0
102
RTVSPost2010PropOp30
 70
     1
102
RTVSPost2010Prop31
280
     0
102
RTVSPost2010PropOp31
 70
     1
102
RTVSPost2010Prop32
280
     0
102
RTVSPost2010PropOp32
 70
     1
102
RTVSPost2010Prop33
280
     0
102
RTVSPost2010PropOp33
 70
     1
102
RTVSPost2010Prop34
280
     0
102
RTVSPost2010PropOp34
 70
     1
102
RTVSPost2010Prop35
280
     0
102
RTVSPost2010PropOp35
 70
     1
102
RTVSPost2010Prop36
280
     0
102
RTVSPost2010PropOp36
 70
     1
102
RTVSPost2010Prop37
 90
       50
102
RTVSPost2010PropOp37
 70
     1
102
RTVSPost2010Prop38
140
0.0
102
RTVSPost2010PropOp38
 70
     1
102
RTVSPost2010Prop39
140
1.0
102
RTVSPost2010PropOp39
 70
     1
102
RTVSPost2010Prop40
 90
        0
102
RTVSPost2010PropOp40
 70
     1
102
RTVSPost2010Prop41ColorIndex
 90
       18
102
RTVSPost2010Prop41ColorRGB
 90
        0
102
RTVSPost2010PropOp41
 70
     1
102
RTVSPost2010Prop42
 90
       50
102
RTVSPost2010PropOp42
 70
     1
102
RTVSPost2010Prop43
 90
        3
102
RTVSPost2010PropOp43
 70
     1
102
RTVSPost2010Prop44ColorIndex
 90
        5
102
RTVSPost2010Prop44ColorRGB
 90
      255
102
RTVSPost2010PropOp44
 70
     1
102
RTVSPost2010Prop45
280
     0
102
RTVSPost2010PropOp45
 70
     1
102
RTVSPost2010Prop46
 90
       50
102
RTVSPost2010PropOp46
 70
     1
102
RTVSPost2010Prop47
 90
       50
102
RTVSPost2010PropOp47
 70
     1
102
RTVSPost2010Prop48
 90
       50
102
RTVSPost2010PropOp48
 70
     1
102
RTVSPost2010Prop49
280
     0
102
RTVSPost2010PropOp49
 70
     1
102
RTVSPost2010Prop50
 90
       50
102
RTVSPost2010PropOp50
 70
     1
102
RTVSPost2010Prop51ColorIndex
 90
      256
102
RTVSPost2010Prop51ColorRGB
 90
-16777216
102
RTVSPost2010PropOp51
 70
     0
102
RTVSPost2010Prop52
140
1.0
102
RTVSPost2010PropOp52
 70
     0
102
RTVSPost2010Prop53
 90
        2
102
RTVSPost2010PropOp53
 70
     1
102
RTVSPost2010Prop54
  1
strokes_ogs.tif
102
RTVSPost2010PropOp54
 70
     1
102
RTVSPost2010Prop55
280
     0
102
RTVSPost2010PropOp55
 70
     1
102
RTVSPost2010Prop56
140
1.0
102
RTVSPost2010PropOp56
 70
     1
102
RTVSPost2010Prop57
140
1.0
102
RTVSPost2010PropOp57
 70
     1
  0
XRECORD
  5
23E
102
{ACAD_REACTORS
330
23D
102
}
330
23D
100
AcDbXrecord
280
     1
102
RTVSPropertyOp0
 70
     1
102
RTVSPropertyOp1
 70
     1
102
RTVSPropertyOp2
 70
     1
102
RTVSPropertyOp3
 70
     1
102
RTVSPropertyOp4
 70
     1
102
RTVSPropertyOp5
 70
     1
102
RTVSPropertyOp6
 70
     1
102
RTVSPropertyOp7
 70
     1
102
RTVSPropertyOp8
 70
     1
102
RTVSPropertyOp9
 70
     1
102
RTVSPropertyOp10
 70
     1
102
RTVSPropertyOp11
 70
     1
102
RTVSPropertyOp12
 70
     1
102
RTVSPropertyOp13
 70
     1
102
RTVSPropertyOp14
 70
     1
102
RTVSPropertyOp15
 70
     1
102
RTVSPropertyOp16
 70
     1
102
RTVSPropertyOp17
 70
     1
102
RTVSPropertyOp18
 70
     1
102
RTVSPropertyOp19
 70
     1
102
RTVSPropertyOp20
 70
     1
102
RTVSPropertyOp21
 70
     1
102
RTVSPropertyOp22
 70
     1
102
RTVSPropertyOp23
 70
     1
102
RTVSPropertyOp24
 70
     1
102
RTVSPropertyOp25
 70
     1
102
RTVSPropertyOp26
 70
     1
102
RTVSPropertyOp27
 70
     1
102
RTVSPropertyOp28
 70
     1
102
RTVSPropertyOp29
 70
     1
102
RTVSPropertyOp30
 70
     1
102
RTVSPropertyOp31
 70
     1
102
RTVSPropertyOp32
 70
     1
102
RTVSPropertyOp33
 70
     1
102
RTVSPropertyOp34
 70
     1
102
RTVSPropertyOp35
 70
     1
102
RTVSPropertyOp36
 70
     1
102
RTVSPropertyOp37
 70
     1
102
RTVSPropertyOp38
 70
     1
102
RTVSPropertyOp39
 70
     1
102
RTVSPropertyOp40
 70
     1
102
RTVSPropertyOp41
 70
     1
102
RTVSPropertyOp42
 70
     1
102
RTVSPropertyOp43
 70
     1
102
RTVSPropertyOp44
 70
     1
102
RTVSPropertyOp45
 70
     1
102
RTVSPropertyOp46
 70
     1
102
RTVSPropertyOp47
 70
     1
102
RTVSPropertyOp48
 70
     1
102
RTVSPropertyOp49
 70
     1
102
RTVSPropertyOp50
 70
     1
102
RTVSPropertyOp51
 70
     0
102
RTVSPropertyOp52
 70
     0
102
RTVSPropertyOp53
 70
     1
102
RTVSPropertyOp54
 70
     1
102
RTVSPropertyOp55
 70
     1
102
RTVSPropertyOp56
 70
     1
102
RTVSPropertyOp57
 70
     1
102
RTVSPost2010Prop28
280
     0
102
RTVSPost2010PropOp28
 70
     1
102
RTVSPost2010Prop29
280
     1
102
RTVSPost2010PropOp29
 70
     1
102
RTVSPost2010Prop30
280
     1
102
RTVSPost2010PropOp30
 70
     1
102
RTVSPost2010Prop31
280
     0
102
RTVSPost2010PropOp31
 70
     1
102
RTVSPost2010Prop32
280
     0
102
RTVSPost2010PropOp32
 70
     1
102
RTVSPost2010Prop33
280
     0
102
RTVSPost2010PropOp33
 70
     1
102
RTVSPost2010Prop34
280
     0
102
RTVSPost2010PropOp34
 70
     1
102
RTVSPost2010Prop35
280
     0
102
RTVSPost2010PropOp35
 70
     1
102
RTVSPost2010Prop36
280
     0
102
RTVSPost2010PropOp36
 70
     1
102
RTVSPost2010Prop37
 90
       50
102
RTVSPost2010PropOp37
 70
     1
102
RTVSPost2010Prop38
140
0.0
102
RTVSPost2010PropOp38
 70
     1
102
RTVSPost2010Prop39
140
1.0
102
RTVSPost2010PropOp39
 70
     1
102
RTVSPost2010Prop40
 90
        0
102
RTVSPost2010PropOp40
 70
     1
102
RTVSPost2010Prop41ColorIndex
 90
       18
102
RTVSPost2010Prop41ColorRGB
 90
        0
102
RTVSPost2010PropOp41
 70
     1
102
RTVSPost2010Prop42
 90
       50
102
RTVSPost2010PropOp42
 70
     1
102
RTVSPost2010Prop43
 90
        3
102
RTVSPost2010PropOp43
 70
     1
102
RTVSPost2010Prop44ColorIndex
 90
        5
102
RTVSPost2010Prop44ColorRGB
 90
      255
102
RTVSPost2010PropOp44
 70
     1
102
RTVSPost2010Prop45
280
     0
102
RTVSPost2010PropOp45
 70
     1
102
RTVSPost2010Prop46
 90
       50
102
RTVSPost2010PropOp46
 70
     1
102
RTVSPost2010Prop47
 90
       50
102
RTVSPost2010PropOp47
 70
     1
102
RTVSPost2010Prop48
 90
       50
102
RTVSPost2010PropOp48
 70
     1
102
RTVSPost2010Prop49
280
     0
102
RTVSPost2010PropOp49
 70
     1
102
RTVSPost2010Prop50
 90
       50
102
RTVSPost2010PropOp50
 70
     1
102
RTVSPost2010Prop51ColorIndex
 90
      256
102
RTVSPost2010Prop51ColorRGB
 90
-16777216
102
RTVSPost2010PropOp51
 70
     0
102
RTVSPost2010Prop52
140
1.0
102
RTVSPost2010PropOp52
 70
     0
102
RTVSPost2010Prop53
 90
        2
102
RTVSPost2010PropOp53
 70
     1
102
RTVSPost2010Prop54
  1
strokes_ogs.tif
102
RTVSPost2010PropOp54
 70
     1
102
RTVSPost2010Prop55
280
     0
102
RTVSPost2010PropOp55
 70
     1
102
RTVSPost2010Prop56
140
1.0
102
RTVSPost2010PropOp56
 70
     1
102
RTVSPost2010Prop57
140
1.0
102
RTVSPost2010PropOp57
 70
     1
  0
XRECORD
  5
246
102
{ACAD_REACTORS
330
245
102
}
330
245
100
AcDbXrecord
280
     1
102
RTVSPropertyOp0
 70
     1
102
RTVSPropertyOp1
 70
     1
102
RTVSPropertyOp2
 70
     1
102
RTVSPropertyOp3
 70
     1
102
RTVSPropertyOp4
 70
     1
102
RTVSPropertyOp5
 70
     1
102
RTVSPropertyOp6
 70
     1
102
RTVSPropertyOp7
 70
     1
102
RTVSPropertyOp8
 70
     1
102
RTVSPropertyOp9
 70
     1
102
RTVSPropertyOp10
 70
     1
102
RTVSPropertyOp11
 70
     1
102
RTVSPropertyOp12
 70
     1
102
RTVSPropertyOp13
 70
     1
102
RTVSPropertyOp14
 70
     1
102
RTVSPropertyOp15
 70
     1
102
RTVSPropertyOp16
 70
     1
102
RTVSPropertyOp17
 70
     1
102
RTVSPropertyOp18
 70
     1
102
RTVSPropertyOp19
 70
     1
102
RTVSPropertyOp20
 70
     1
102
RTVSPropertyOp21
 70
     1
102
RTVSPropertyOp22
 70
     1
102
RTVSPropertyOp23
 70
     1
102
RTVSPropertyOp24
 70
     1
102
RTVSPropertyOp25
 70
     1
102
RTVSPropertyOp26
 70
     1
102
RTVSPropertyOp27
 70
     1
102
RTVSPropertyOp28
 70
     1
102
RTVSPropertyOp29
 70
     1
102
RTVSPropertyOp30
 70
     1
102
RTVSPropertyOp31
 70
     1
102
RTVSPropertyOp32
 70
     1
102
RTVSPropertyOp33
 70
     1
102
RTVSPropertyOp34
 70
     1
102
RTVSPropertyOp35
 70
     1
102
RTVSPropertyOp36
 70
     1
102
RTVSPropertyOp37
 70
     1
102
RTVSPropertyOp38
 70
     1
102
RTVSPropertyOp39
 70
     1
102
RTVSPropertyOp40
 70
     1
102
RTVSPropertyOp41
 70
     1
102
RTVSPropertyOp42
 70
     1
102
RTVSPropertyOp43
 70
     1
102
RTVSPropertyOp44
 70
     1
102
RTVSPropertyOp45
 70
     1
102
RTVSPropertyOp46
 70
     1
102
RTVSPropertyOp47
 70
     1
102
RTVSPropertyOp48
 70
     1
102
RTVSPropertyOp49
 70
     1
102
RTVSPropertyOp50
 70
     1
102
RTVSPropertyOp51
 70
     0
102
RTVSPropertyOp52
 70
     0
102
RTVSPropertyOp53
 70
     1
102
RTVSPropertyOp54
 70
     1
102
RTVSPropertyOp55
 70
     1
102
RTVSPropertyOp56
 70
     1
102
RTVSPropertyOp57
 70
     1
102
RTVSPost2010Prop28
280
     0
102
RTVSPost2010PropOp28
 70
     1
102
RTVSPost2010Prop29
280
     1
102
RTVSPost2010PropOp29
 70
     1
102
RTVSPost2010Prop30
280
     1
102
RTVSPost2010PropOp30
 70
     1
102
RTVSPost2010Prop31
280
     0
102
RTVSPost2010PropOp31
 70
     1
102
RTVSPost2010Prop32
280
     0
102
RTVSPost2010PropOp32
 70
     1
102
RTVSPost2010Prop33
280
     0
102
RTVSPost2010PropOp33
 70
     1
102
RTVSPost2010Prop34
280
     0
102
RTVSPost2010PropOp34
 70
     1
102
RTVSPost2010Prop35
280
     0
102
RTVSPost2010PropOp35
 70
     1
102
RTVSPost2010Prop36
280
     0
102
RTVSPost2010PropOp36
 70
     1
102
RTVSPost2010Prop37
 90
       50
102
RTVSPost2010PropOp37
 70
     1
102
RTVSPost2010Prop38
140
0.0
102
RTVSPost2010PropOp38
 70
     1
102
RTVSPost2010Prop39
140
1.0
102
RTVSPost2010PropOp39
 70
     1
102
RTVSPost2010Prop40
 90
        0
102
RTVSPost2010PropOp40
 70
     1
102
RTVSPost2010Prop41ColorIndex
 90
       18
102
RTVSPost2010Prop41ColorRGB
 90
        0
102
RTVSPost2010PropOp41
 70
     1
102
RTVSPost2010Prop42
 90
       50
102
RTVSPost2010PropOp42
 70
     1
102
RTVSPost2010Prop43
 90
        3
102
RTVSPost2010PropOp43
 70
     1
102
RTVSPost2010Prop44ColorIndex
 90
        5
102
RTVSPost2010Prop44ColorRGB
 90
      255
102
RTVSPost2010PropOp44
 70
     1
102
RTVSPost2010Prop45
280
     0
102
RTVSPost2010PropOp45
 70
     1
102
RTVSPost2010Prop46
 90
       50
102
RTVSPost2010PropOp46
 70
     1
102
RTVSPost2010Prop47
 90
       50
102
RTVSPost2010PropOp47
 70
     1
102
RTVSPost2010Prop48
 90
       50
102
RTVSPost2010PropOp48
 70
     1
102
RTVSPost2010Prop49
280
     0
102
RTVSPost2010PropOp49
 70
     1
102
RTVSPost2010Prop50
 90
       50
102
RTVSPost2010PropOp50
 70
     1
102
RTVSPost2010Prop51ColorIndex
 90
      256
102
RTVSPost2010Prop51ColorRGB
 90
-16777216
102
RTVSPost2010PropOp51
 70
     0
102
RTVSPost2010Prop52
140
1.0
102
RTVSPost2010PropOp52
 70
     0
102
RTVSPost2010Prop53
 90
        2
102
RTVSPost2010PropOp53
 70
     1
102
RTVSPost2010Prop54
  1
strokes_ogs.tif
102
RTVSPost2010PropOp54
 70
     1
102
RTVSPost2010Prop55
280
     0
102
RTVSPost2010PropOp55
 70
     1
102
RTVSPost2010Prop56
140
1.0
102
RTVSPost2010PropOp56
 70
     1
102
RTVSPost2010Prop57
140
1.0
102
RTVSPost2010PropOp57
 70
     1
  0
XRECORD
  5
24E
102
{ACAD_REACTORS
330
24D
102
}
330
24D
100
AcDbXrecord
280
     1
102
RTVSPropertyOp0
 70
     1
102
RTVSPropertyOp1
 70
     1
102
RTVSPropertyOp2
 70
     1
102
RTVSPropertyOp3
 70
     1
102
RTVSPropertyOp4
 70
     1
102
RTVSPropertyOp5
 70
     1
102
RTVSPropertyOp6
 70
     1
102
RTVSPropertyOp7
 70
     1
102
RTVSPropertyOp8
 70
     1
102
RTVSPropertyOp9
 70
     1
102
RTVSPropertyOp10
 70
     1
102
RTVSPropertyOp11
 70
     1
102
RTVSPropertyOp12
 70
     1
102
RTVSPropertyOp13
 70
     1
102
RTVSPropertyOp14
 70
     1
102
RTVSPropertyOp15
 70
     1
102
RTVSPropertyOp16
 70
     1
102
RTVSPropertyOp17
 70
     1
102
RTVSPropertyOp18
 70
     1
102
RTVSPropertyOp19
 70
     1
102
RTVSPropertyOp20
 70
     1
102
RTVSPropertyOp21
 70
     1
102
RTVSPropertyOp22
 70
     1
102
RTVSPropertyOp23
 70
     1
102
RTVSPropertyOp24
 70
     1
102
RTVSPropertyOp25
 70
     1
102
RTVSPropertyOp26
 70
     1
102
RTVSPropertyOp27
 70
     1
102
RTVSPropertyOp28
 70
     1
102
RTVSPropertyOp29
 70
     1
102
RTVSPropertyOp30
 70
     1
102
RTVSPropertyOp31
 70
     1
102
RTVSPropertyOp32
 70
     1
102
RTVSPropertyOp33
 70
     1
102
RTVSPropertyOp34
 70
     1
102
RTVSPropertyOp35
 70
     1
102
RTVSPropertyOp36
 70
     1
102
RTVSPropertyOp37
 70
     1
102
RTVSPropertyOp38
 70
     1
102
RTVSPropertyOp39
 70
     1
102
RTVSPropertyOp40
 70
     1
102
RTVSPropertyOp41
 70
     1
102
RTVSPropertyOp42
 70
     1
102
RTVSPropertyOp43
 70
     1
102
RTVSPropertyOp44
 70
     1
102
RTVSPropertyOp45
 70
     1
102
RTVSPropertyOp46
 70
     1
102
RTVSPropertyOp47
 70
     1
102
RTVSPropertyOp48
 70
     1
102
RTVSPropertyOp49
 70
     1
102
RTVSPropertyOp50
 70
     1
102
RTVSPropertyOp51
 70
     0
102
RTVSPropertyOp52
 70
     0
102
RTVSPropertyOp53
 70
     1
102
RTVSPropertyOp54
 70
     1
102
RTVSPropertyOp55
 70
     1
102
RTVSPropertyOp56
 70
     1
102
RTVSPropertyOp57
 70
     1
102
RTVSPost2010Prop28
280
     0
102
RTVSPost2010PropOp28
 70
     1
102
RTVSPost2010Prop29
280
     1
102
RTVSPost2010PropOp29
 70
     1
102
RTVSPost2010Prop30
280
     1
102
RTVSPost2010PropOp30
 70
     1
102
RTVSPost2010Prop31
280
     0
102
RTVSPost2010PropOp31
 70
     1
102
RTVSPost2010Prop32
280
     0
102
RTVSPost2010PropOp32
 70
     1
102
RTVSPost2010Prop33
280
     0
102
RTVSPost2010PropOp33
 70
     1
102
RTVSPost2010Prop34
280
     0
102
RTVSPost2010PropOp34
 70
     1
102
RTVSPost2010Prop35
280
     0
102
RTVSPost2010PropOp35
 70
     1
102
RTVSPost2010Prop36
280
     0
102
RTVSPost2010PropOp36
 70
     1
102
RTVSPost2010Prop37
 90
       50
102
RTVSPost2010PropOp37
 70
     1
102
RTVSPost2010Prop38
140
0.0
102
RTVSPost2010PropOp38
 70
     1
102
RTVSPost2010Prop39
140
1.0
102
RTVSPost2010PropOp39
 70
     1
102
RTVSPost2010Prop40
 90
        0
102
RTVSPost2010PropOp40
 70
     1
102
RTVSPost2010Prop41ColorIndex
 90
       18
102
RTVSPost2010Prop41ColorRGB
 90
        0
102
RTVSPost2010PropOp41
 70
     1
102
RTVSPost2010Prop42
 90
       50
102
RTVSPost2010PropOp42
 70
     1
102
RTVSPost2010Prop43
 90
        3
102
RTVSPost2010PropOp43
 70
     1
102
RTVSPost2010Prop44ColorIndex
 90
        5
102
RTVSPost2010Prop44ColorRGB
 90
      255
102
RTVSPost2010PropOp44
 70
     1
102
RTVSPost2010Prop45
280
     0
102
RTVSPost2010PropOp45
 70
     1
102
RTVSPost2010Prop46
 90
       50
102
RTVSPost2010PropOp46
 70
     1
102
RTVSPost2010Prop47
 90
       50
102
RTVSPost2010PropOp47
 70
     1
102
RTVSPost2010Prop48
 90
       50
102
RTVSPost2010PropOp48
 70
     1
102
RTVSPost2010Prop49
280
     0
102
RTVSPost2010PropOp49
 70
     1
102
RTVSPost2010Prop50
 90
       50
102
RTVSPost2010PropOp50
 70
     1
102
RTVSPost2010Prop51ColorIndex
 90
      256
102
RTVSPost2010Prop51ColorRGB
 90
-16777216
102
RTVSPost2010PropOp51
 70
     0
102
RTVSPost2010Prop52
140
1.0
102
RTVSPost2010PropOp52
 70
     0
102
RTVSPost2010Prop53
 90
        2
102
RTVSPost2010PropOp53
 70
     1
102
RTVSPost2010Prop54
  1
strokes_ogs.tif
102
RTVSPost2010PropOp54
 70
     1
102
RTVSPost2010Prop55
280
     0
102
RTVSPost2010PropOp55
 70
     1
102
RTVSPost2010Prop56
140
1.0
102
RTVSPost2010PropOp56
 70
     1
102
RTVSPost2010Prop57
140
1.0
102
RTVSPost2010PropOp57
 70
     1
  0
XRECORD
  5
242
102
{ACAD_REACTORS
330
241
102
}
330
241
100
AcDbXrecord
280
     1
102
RTVSPropertyOp0
 70
     1
102
RTVSPropertyOp1
 70
     1
102
RTVSPropertyOp2
 70
     1
102
RTVSPropertyOp3
 70
     1
102
RTVSPropertyOp4
 70
     1
102
RTVSPropertyOp5
 70
     1
102
RTVSPropertyOp6
 70
     1
102
RTVSPropertyOp7
 70
     1
102
RTVSPropertyOp8
 70
     1
102
RTVSPropertyOp9
 70
     1
102
RTVSPropertyOp10
 70
     1
102
RTVSPropertyOp11
 70
     1
102
RTVSPropertyOp12
 70
     1
102
RTVSPropertyOp13
 70
     1
102
RTVSPropertyOp14
 70
     1
102
RTVSPropertyOp15
 70
     1
102
RTVSPropertyOp16
 70
     1
102
RTVSPropertyOp17
 70
     1
102
RTVSPropertyOp18
 70
     1
102
RTVSPropertyOp19
 70
     1
102
RTVSPropertyOp20
 70
     1
102
RTVSPropertyOp21
 70
     1
102
RTVSPropertyOp22
 70
     1
102
RTVSPropertyOp23
 70
     1
102
RTVSPropertyOp24
 70
     1
102
RTVSPropertyOp25
 70
     1
102
RTVSPropertyOp26
 70
     1
102
RTVSPropertyOp27
 70
     1
102
RTVSPropertyOp28
 70
     1
102
RTVSPropertyOp29
 70
     1
102
RTVSPropertyOp30
 70
     1
102
RTVSPropertyOp31
 70
     1
102
RTVSPropertyOp32
 70
     1
102
RTVSPropertyOp33
 70
     1
102
RTVSPropertyOp34
 70
     1
102
RTVSPropertyOp35
 70
     1
102
RTVSPropertyOp36
 70
     1
102
RTVSPropertyOp37
 70
     1
102
RTVSPropertyOp38
 70
     1
102
RTVSPropertyOp39
 70
     1
102
RTVSPropertyOp40
 70
     1
102
RTVSPropertyOp41
 70
     1
102
RTVSPropertyOp42
 70
     1
102
RTVSPropertyOp43
 70
     1
102
RTVSPropertyOp44
 70
     1
102
RTVSPropertyOp45
 70
     1
102
RTVSPropertyOp46
 70
     1
102
RTVSPropertyOp47
 70
     1
102
RTVSPropertyOp48
 70
     1
102
RTVSPropertyOp49
 70
     1
102
RTVSPropertyOp50
 70
     1
102
RTVSPropertyOp51
 70
     0
102
RTVSPropertyOp52
 70
     0
102
RTVSPropertyOp53
 70
     1
102
RTVSPropertyOp54
 70
     1
102
RTVSPropertyOp55
 70
     1
102
RTVSPropertyOp56
 70
     1
102
RTVSPropertyOp57
 70
     1
102
RTVSPost2010Prop28
280
     0
102
RTVSPost2010PropOp28
 70
     1
102
RTVSPost2010Prop29
280
     1
102
RTVSPost2010PropOp29
 70
     1
102
RTVSPost2010Prop30
280
     1
102
RTVSPost2010PropOp30
 70
     1
102
RTVSPost2010Prop31
280
     0
102
RTVSPost2010PropOp31
 70
     1
102
RTVSPost2010Prop32
280
     0
102
RTVSPost2010PropOp32
 70
     1
102
RTVSPost2010Prop33
280
     0
102
RTVSPost2010PropOp33
 70
     1
102
RTVSPost2010Prop34
280
     0
102
RTVSPost2010PropOp34
 70
     1
102
RTVSPost2010Prop35
280
     0
102
RTVSPost2010PropOp35
 70
     1
102
RTVSPost2010Prop36
280
     0
102
RTVSPost2010PropOp36
 70
     1
102
RTVSPost2010Prop37
 90
       50
102
RTVSPost2010PropOp37
 70
     1
102
RTVSPost2010Prop38
140
0.0
102
RTVSPost2010PropOp38
 70
     1
102
RTVSPost2010Prop39
140
1.0
102
RTVSPost2010PropOp39
 70
     1
102
RTVSPost2010Prop40
 90
        0
102
RTVSPost2010PropOp40
 70
     1
102
RTVSPost2010Prop41ColorIndex
 90
       18
102
RTVSPost2010Prop41ColorRGB
 90
        0
102
RTVSPost2010PropOp41
 70
     1
102
RTVSPost2010Prop42
 90
       50
102
RTVSPost2010PropOp42
 70
     1
102
RTVSPost2010Prop43
 90
        3
102
RTVSPost2010PropOp43
 70
     1
102
RTVSPost2010Prop44ColorIndex
 90
        5
102
RTVSPost2010Prop44ColorRGB
 90
      255
102
RTVSPost2010PropOp44
 70
     1
102
RTVSPost2010Prop45
280
     0
102
RTVSPost2010PropOp45
 70
     1
102
RTVSPost2010Prop46
 90
       50
102
RTVSPost2010PropOp46
 70
     1
102
RTVSPost2010Prop47
 90
       50
102
RTVSPost2010PropOp47
 70
     1
102
RTVSPost2010Prop48
 90
       50
102
RTVSPost2010PropOp48
 70
     1
102
RTVSPost2010Prop49
280
     0
102
RTVSPost2010PropOp49
 70
     1
102
RTVSPost2010Prop50
 90
       50
102
RTVSPost2010PropOp50
 70
     1
102
RTVSPost2010Prop51ColorIndex
 90
      256
102
RTVSPost2010Prop51ColorRGB
 90
-16777216
102
RTVSPost2010PropOp51
 70
     0
102
RTVSPost2010Prop52
140
1.0
102
RTVSPost2010PropOp52
 70
     0
102
RTVSPost2010Prop53
 90
        2
102
RTVSPost2010PropOp53
 70
     1
102
RTVSPost2010Prop54
  1
strokes_ogs.tif
102
RTVSPost2010PropOp54
 70
     1
102
RTVSPost2010Prop55
280
     0
102
RTVSPost2010PropOp55
 70
     1
102
RTVSPost2010Prop56
140
1.0
102
RTVSPost2010PropOp56
 70
     1
102
RTVSPost2010Prop57
140
1.0
102
RTVSPost2010PropOp57
 70
     1
  0
XRECORD
  5
244
102
{ACAD_REACTORS
330
243
102
}
330
243
100
AcDbXrecord
280
     1
102
RTVSPropertyOp0
 70
     1
102
RTVSPropertyOp1
 70
     1
102
RTVSPropertyOp2
 70
     1
102
RTVSPropertyOp3
 70
     1
102
RTVSPropertyOp4
 70
     1
102
RTVSPropertyOp5
 70
     1
102
RTVSPropertyOp6
 70
     1
102
RTVSPropertyOp7
 70
     1
102
RTVSPropertyOp8
 70
     1
102
RTVSPropertyOp9
 70
     1
102
RTVSPropertyOp10
 70
     1
102
RTVSPropertyOp11
 70
     1
102
RTVSPropertyOp12
 70
     1
102
RTVSPropertyOp13
 70
     1
102
RTVSPropertyOp14
 70
     1
102
RTVSPropertyOp15
 70
     1
102
RTVSPropertyOp16
 70
     1
102
RTVSPropertyOp17
 70
     1
102
RTVSPropertyOp18
 70
     1
102
RTVSPropertyOp19
 70
     1
102
RTVSPropertyOp20
 70
     1
102
RTVSPropertyOp21
 70
     1
102
RTVSPropertyOp22
 70
     1
102
RTVSPropertyOp23
 70
     1
102
RTVSPropertyOp24
 70
     1
102
RTVSPropertyOp25
 70
     1
102
RTVSPropertyOp26
 70
     1
102
RTVSPropertyOp27
 70
     1
102
RTVSPropertyOp28
 70
     1
102
RTVSPropertyOp29
 70
     1
102
RTVSPropertyOp30
 70
     1
102
RTVSPropertyOp31
 70
     1
102
RTVSPropertyOp32
 70
     1
102
RTVSPropertyOp33
 70
     1
102
RTVSPropertyOp34
 70
     1
102
RTVSPropertyOp35
 70
     1
102
RTVSPropertyOp36
 70
     1
102
RTVSPropertyOp37
 70
     1
102
RTVSPropertyOp38
 70
     1
102
RTVSPropertyOp39
 70
     1
102
RTVSPropertyOp40
 70
     1
102
RTVSPropertyOp41
 70
     1
102
RTVSPropertyOp42
 70
     1
102
RTVSPropertyOp43
 70
     1
102
RTVSPropertyOp44
 70
     1
102
RTVSPropertyOp45
 70
     1
102
RTVSPropertyOp46
 70
     1
102
RTVSPropertyOp47
 70
     1
102
RTVSPropertyOp48
 70
     1
102
RTVSPropertyOp49
 70
     1
102
RTVSPropertyOp50
 70
     1
102
RTVSPropertyOp51
 70
     0
102
RTVSPropertyOp52
 70
     0
102
RTVSPropertyOp53
 70
     1
102
RTVSPropertyOp54
 70
     1
102
RTVSPropertyOp55
 70
     1
102
RTVSPropertyOp56
 70
     1
102
RTVSPropertyOp57
 70
     1
102
RTVSPost2010Prop28
280
     0
102
RTVSPost2010PropOp28
 70
     1
102
RTVSPost2010Prop29
280
     1
102
RTVSPost2010PropOp29
 70
     1
102
RTVSPost2010Prop30
280
     1
102
RTVSPost2010PropOp30
 70
     1
102
RTVSPost2010Prop31
280
     0
102
RTVSPost2010PropOp31
 70
     1
102
RTVSPost2010Prop32
280
     0
102
RTVSPost2010PropOp32
 70
     1
102
RTVSPost2010Prop33
280
     0
102
RTVSPost2010PropOp33
 70
     1
102
RTVSPost2010Prop34
280
     0
102
RTVSPost2010PropOp34
 70
     1
102
RTVSPost2010Prop35
280
     0
102
RTVSPost2010PropOp35
 70
     1
102
RTVSPost2010Prop36
280
     0
102
RTVSPost2010PropOp36
 70
     1
102
RTVSPost2010Prop37
 90
       50
102
RTVSPost2010PropOp37
 70
     1
102
RTVSPost2010Prop38
140
0.0
102
RTVSPost2010PropOp38
 70
     1
102
RTVSPost2010Prop39
140
1.0
102
RTVSPost2010PropOp39
 70
     1
102
RTVSPost2010Prop40
 90
        0
102
RTVSPost2010PropOp40
 70
     1
102
RTVSPost2010Prop41ColorIndex
 90
       18
102
RTVSPost2010Prop41ColorRGB
 90
        0
102
RTVSPost2010PropOp41
 70
     1
102
RTVSPost2010Prop42
 90
       50
102
RTVSPost2010PropOp42
 70
     1
102
RTVSPost2010Prop43
 90
        3
102
RTVSPost2010PropOp43
 70
     1
102
RTVSPost2010Prop44ColorIndex
 90
        5
102
RTVSPost2010Prop44ColorRGB
 90
      255
102
RTVSPost2010PropOp44
 70
     1
102
RTVSPost2010Prop45
280
     0
102
RTVSPost2010PropOp45
 70
     1
102
RTVSPost2010Prop46
 90
       50
102
RTVSPost2010PropOp46
 70
     1
102
RTVSPost2010Prop47
 90
       50
102
RTVSPost2010PropOp47
 70
     1
102
RTVSPost2010Prop48
 90
       50
102
RTVSPost2010PropOp48
 70
     1
102
RTVSPost2010Prop49
280
     0
102
RTVSPost2010PropOp49
 70
     1
102
RTVSPost2010Prop50
 90
       50
102
RTVSPost2010PropOp50
 70
     1
102
RTVSPost2010Prop51ColorIndex
 90
      256
102
RTVSPost2010Prop51ColorRGB
 90
-16777216
102
RTVSPost2010PropOp51
 70
     0
102
RTVSPost2010Prop52
140
1.0
102
RTVSPost2010PropOp52
 70
     0
102
RTVSPost2010Prop53
 90
        2
102
RTVSPost2010PropOp53
 70
     1
102
RTVSPost2010Prop54
  1
strokes_ogs.tif
102
RTVSPost2010PropOp54
 70
     1
102
RTVSPost2010Prop55
280
     0
102
RTVSPost2010PropOp55
 70
     1
102
RTVSPost2010Prop56
140
1.0
102
RTVSPost2010PropOp56
 70
     1
102
RTVSPost2010Prop57
140
1.0
102
RTVSPost2010PropOp57
 70
     1
  0
XRECORD
  5
254
102
{ACAD_REACTORS
330
253
102
}
330
253
100
AcDbXrecord
280
     1
102
RTVSPropertyOp0
 70
     0
102
RTVSPropertyOp1
 70
     0
102
RTVSPropertyOp2
 70
     0
102
RTVSPropertyOp3
 70
     0
102
RTVSPropertyOp4
 70
     0
102
RTVSPropertyOp5
 70
     0
102
RTVSPropertyOp6
 70
     0
102
RTVSPropertyOp7
 70
     0
102
RTVSPropertyOp8
 70
     0
102
RTVSPropertyOp9
 70
     0
102
RTVSPropertyOp10
 70
     0
102
RTVSPropertyOp11
 70
     0
102
RTVSPropertyOp12
 70
     0
102
RTVSPropertyOp13
 70
     0
102
RTVSPropertyOp14
 70
     2
102
RTVSPropertyOp15
 70
     0
102
RTVSPropertyOp16
 70
     0
102
RTVSPropertyOp17
 70
     0
102
RTVSPropertyOp18
 70
     0
102
RTVSPropertyOp19
 70
     0
102
RTVSPropertyOp20
 70
     0
102
RTVSPropertyOp21
 70
     0
102
RTVSPropertyOp22
 70
     0
102
RTVSPropertyOp23
 70
     0
102
RTVSPropertyOp24
 70
     0
102
RTVSPropertyOp25
 70
     0
102
RTVSPropertyOp26
 70
     0
102
RTVSPropertyOp27
 70
     0
102
RTVSPropertyOp28
 70
     0
102
RTVSPropertyOp29
 70
     0
102
RTVSPropertyOp30
 70
     0
102
RTVSPropertyOp31
 70
     0
102
RTVSPropertyOp32
 70
     0
102
RTVSPropertyOp33
 70
     0
102
RTVSPropertyOp34
 70
     0
102
RTVSPropertyOp35
 70
     0
102
RTVSPropertyOp36
 70
     0
102
RTVSPropertyOp37
 70
     0
102
RTVSPropertyOp38
 70
     0
102
RTVSPropertyOp39
 70
     0
102
RTVSPropertyOp40
 70
     0
102
RTVSPropertyOp41
 70
     0
102
RTVSPropertyOp42
 70
     0
102
RTVSPropertyOp43
 70
     0
102
RTVSPropertyOp44
 70
     0
102
RTVSPropertyOp45
 70
     0
102
RTVSPropertyOp46
 70
     0
102
RTVSPropertyOp47
 70
     0
102
RTVSPropertyOp48
 70
     0
102
RTVSPropertyOp49
 70
     0
102
RTVSPropertyOp50
 70
     0
102
RTVSPropertyOp51
 70
     0
102
RTVSPropertyOp52
 70
     0
102
RTVSPropertyOp53
 70
     0
102
RTVSPropertyOp54
 70
     0
102
RTVSPropertyOp55
 70
     0
102
RTVSPropertyOp56
 70
     0
102
RTVSPropertyOp57
 70
     0
102
RTVSPost2010Prop28
280
     0
102
RTVSPost2010PropOp28
 70
     0
102
RTVSPost2010Prop29
280
     1
102
RTVSPost2010PropOp29
 70
     0
102
RTVSPost2010Prop30
280
     1
102
RTVSPost2010PropOp30
 70
     0
102
RTVSPost2010Prop31
280
     0
102
RTVSPost2010PropOp31
 70
     0
102
RTVSPost2010Prop32
280
     0
102
RTVSPost2010PropOp32
 70
     0
102
RTVSPost2010Prop33
280
     0
102
RTVSPost2010PropOp33
 70
     0
102
RTVSPost2010Prop34
280
     0
102
RTVSPost2010PropOp34
 70
     0
102
RTVSPost2010Prop35
280
     0
102
RTVSPost2010PropOp35
 70
     0
102
RTVSPost2010Prop36
280
     0
102
RTVSPost2010PropOp36
 70
     0
102
RTVSPost2010Prop37
 90
       50
102
RTVSPost2010PropOp37
 70
     0
102
RTVSPost2010Prop38
140
0.0
102
RTVSPost2010PropOp38
 70
     0
102
RTVSPost2010Prop39
140
1.0
102
RTVSPost2010PropOp39
 70
     0
102
RTVSPost2010Prop40
 90
        0
102
RTVSPost2010PropOp40
 70
     0
102
RTVSPost2010Prop41ColorIndex
 90
       18
102
RTVSPost2010Prop41ColorRGB
 90
        0
102
RTVSPost2010PropOp41
 70
     0
102
RTVSPost2010Prop42
 90
       50
102
RTVSPost2010PropOp42
 70
     0
102
RTVSPost2010Prop43
 90
        3
102
RTVSPost2010PropOp43
 70
     0
102
RTVSPost2010Prop44ColorIndex
 90
        5
102
RTVSPost2010Prop44ColorRGB
 90
      255
102
RTVSPost2010PropOp44
 70
     0
102
RTVSPost2010Prop45
280
     0
102
RTVSPost2010PropOp45
 70
     0
102
RTVSPost2010Prop46
 90
       50
102
RTVSPost2010PropOp46
 70
     0
102
RTVSPost2010Prop47
 90
       50
102
RTVSPost2010PropOp47
 70
     0
102
RTVSPost2010Prop48
 90
       50
102
RTVSPost2010PropOp48
 70
     0
102
RTVSPost2010Prop49
280
     0
102
RTVSPost2010PropOp49
 70
     0
102
RTVSPost2010Prop50
 90
       50
102
RTVSPost2010PropOp50
 70
     0
102
RTVSPost2010Prop51ColorIndex
 90
      256
102
RTVSPost2010Prop51ColorRGB
 90
-16777216
102
RTVSPost2010PropOp51
 70
     0
102
RTVSPost2010Prop52
140
1.0
102
RTVSPost2010PropOp52
 70
     0
102
RTVSPost2010Prop53
 90
        2
102
RTVSPost2010PropOp53
 70
     0
102
RTVSPost2010Prop54
  1
strokes_ogs.tif
102
RTVSPost2010PropOp54
 70
     0
102
RTVSPost2010Prop55
280
     0
102
RTVSPost2010PropOp55
 70
     0
102
RTVSPost2010Prop56
140
1.0
102
RTVSPost2010PropOp56
 70
     0
102
RTVSPost2010Prop57
140
1.0
102
RTVSPost2010PropOp57
 70
     0
  0
XRECORD
  5
24C
102
{ACAD_REACTORS
330
24B
102
}
330
24B
100
AcDbXrecord
280
     1
102
RTVSPropertyOp0
 70
     1
102
RTVSPropertyOp1
 70
     1
102
RTVSPropertyOp2
 70
     1
102
RTVSPropertyOp3
 70
     1
102
RTVSPropertyOp4
 70
     1
102
RTVSPropertyOp5
 70
     1
102
RTVSPropertyOp6
 70
     1
102
RTVSPropertyOp7
 70
     1
102
RTVSPropertyOp8
 70
     1
102
RTVSPropertyOp9
 70
     1
102
RTVSPropertyOp10
 70
     1
102
RTVSPropertyOp11
 70
     1
102
RTVSPropertyOp12
 70
     1
102
RTVSPropertyOp13
 70
     1
102
RTVSPropertyOp14
 70
     1
102
RTVSPropertyOp15
 70
     1
102
RTVSPropertyOp16
 70
     1
102
RTVSPropertyOp17
 70
     1
102
RTVSPropertyOp18
 70
     1
102
RTVSPropertyOp19
 70
     1
102
RTVSPropertyOp20
 70
     1
102
RTVSPropertyOp21
 70
     1
102
RTVSPropertyOp22
 70
     1
102
RTVSPropertyOp23
 70
     1
102
RTVSPropertyOp24
 70
     1
102
RTVSPropertyOp25
 70
     1
102
RTVSPropertyOp26
 70
     1
102
RTVSPropertyOp27
 70
     1
102
RTVSPropertyOp28
 70
     1
102
RTVSPropertyOp29
 70
     1
102
RTVSPropertyOp30
 70
     1
102
RTVSPropertyOp31
 70
     1
102
RTVSPropertyOp32
 70
     1
102
RTVSPropertyOp33
 70
     1
102
RTVSPropertyOp34
 70
     1
102
RTVSPropertyOp35
 70
     1
102
RTVSPropertyOp36
 70
     1
102
RTVSPropertyOp37
 70
     1
102
RTVSPropertyOp38
 70
     1
102
RTVSPropertyOp39
 70
     1
102
RTVSPropertyOp40
 70
     1
102
RTVSPropertyOp41
 70
     1
102
RTVSPropertyOp42
 70
     1
102
RTVSPropertyOp43
 70
     1
102
RTVSPropertyOp44
 70
     1
102
RTVSPropertyOp45
 70
     1
102
RTVSPropertyOp46
 70
     1
102
RTVSPropertyOp47
 70
     1
102
RTVSPropertyOp48
 70
     1
102
RTVSPropertyOp49
 70
     1
102
RTVSPropertyOp50
 70
     1
102
RTVSPropertyOp51
 70
     0
102
RTVSPropertyOp52
 70
     0
102
RTVSPropertyOp53
 70
     1
102
RTVSPropertyOp54
 70
     1
102
RTVSPropertyOp55
 70
     1
102
RTVSPropertyOp56
 70
     1
102
RTVSPropertyOp57
 70
     1
102
RTVSPost2010Prop28
280
     0
102
RTVSPost2010PropOp28
 70
     1
102
RTVSPost2010Prop29
280
     1
102
RTVSPost2010PropOp29
 70
     1
102
RTVSPost2010Prop30
280
     1
102
RTVSPost2010PropOp30
 70
     1
102
RTVSPost2010Prop31
280
     0
102
RTVSPost2010PropOp31
 70
     1
102
RTVSPost2010Prop32
280
     0
102
RTVSPost2010PropOp32
 70
     1
102
RTVSPost2010Prop33
280
     0
102
RTVSPost2010PropOp33
 70
     1
102
RTVSPost2010Prop34
280
     0
102
RTVSPost2010PropOp34
 70
     1
102
RTVSPost2010Prop35
280
     0
102
RTVSPost2010PropOp35
 70
     1
102
RTVSPost2010Prop36
280
     0
102
RTVSPost2010PropOp36
 70
     1
102
RTVSPost2010Prop37
 90
       50
102
RTVSPost2010PropOp37
 70
     1
102
RTVSPost2010Prop38
140
0.0
102
RTVSPost2010PropOp38
 70
     1
102
RTVSPost2010Prop39
140
1.0
102
RTVSPost2010PropOp39
 70
     1
102
RTVSPost2010Prop40
 90
        0
102
RTVSPost2010PropOp40
 70
     1
102
RTVSPost2010Prop41ColorIndex
 90
       18
102
RTVSPost2010Prop41ColorRGB
 90
        0
102
RTVSPost2010PropOp41
 70
     1
102
RTVSPost2010Prop42
 90
       50
102
RTVSPost2010PropOp42
 70
     1
102
RTVSPost2010Prop43
 90
        3
102
RTVSPost2010PropOp43
 70
     1
102
RTVSPost2010Prop44ColorIndex
 90
        5
102
RTVSPost2010Prop44ColorRGB
 90
      255
102
RTVSPost2010PropOp44
 70
     1
102
RTVSPost2010Prop45
280
     0
102
RTVSPost2010PropOp45
 70
     1
102
RTVSPost2010Prop46
 90
       50
102
RTVSPost2010PropOp46
 70
     1
102
RTVSPost2010Prop47
 90
       50
102
RTVSPost2010PropOp47
 70
     1
102
RTVSPost2010Prop48
 90
       50
102
RTVSPost2010PropOp48
 70
     1
102
RTVSPost2010Prop49
280
     0
102
RTVSPost2010PropOp49
 70
     1
102
RTVSPost2010Prop50
 90
       50
102
RTVSPost2010PropOp50
 70
     1
102
RTVSPost2010Prop51ColorIndex
 90
      256
102
RTVSPost2010Prop51ColorRGB
 90
-16777216
102
RTVSPost2010PropOp51
 70
     0
102
RTVSPost2010Prop52
140
1.0
102
RTVSPost2010PropOp52
 70
     0
102
RTVSPost2010Prop53
 90
        2
102
RTVSPost2010PropOp53
 70
     1
102
RTVSPost2010Prop54
  1
strokes_ogs.tif
102
RTVSPost2010PropOp54
 70
     1
102
RTVSPost2010Prop55
280
     0
102
RTVSPost2010PropOp55
 70
     1
102
RTVSPost2010Prop56
140
1.0
102
RTVSPost2010PropOp56
 70
     1
102
RTVSPost2010Prop57
140
1.0
102
RTVSPost2010PropOp57
 70
     1
  0
XRECORD
  5
230
102
{ACAD_REACTORS
330
22F
102
}
330
22F
100
AcDbXrecord
280
     1
102
RTVSPropertyOp0
 70
     1
102
RTVSPropertyOp1
 70
     1
102
RTVSPropertyOp2
 70
     1
102
RTVSPropertyOp3
 70
     1
102
RTVSPropertyOp4
 70
     1
102
RTVSPropertyOp5
 70
     1
102
RTVSPropertyOp6
 70
     1
102
RTVSPropertyOp7
 70
     1
102
RTVSPropertyOp8
 70
     1
102
RTVSPropertyOp9
 70
     1
102
RTVSPropertyOp10
 70
     1
102
RTVSPropertyOp11
 70
     1
102
RTVSPropertyOp12
 70
     1
102
RTVSPropertyOp13
 70
     1
102
RTVSPropertyOp14
 70
     1
102
RTVSPropertyOp15
 70
     1
102
RTVSPropertyOp16
 70
     1
102
RTVSPropertyOp17
 70
     1
102
RTVSPropertyOp18
 70
     1
102
RTVSPropertyOp19
 70
     1
102
RTVSPropertyOp20
 70
     1
102
RTVSPropertyOp21
 70
     1
102
RTVSPropertyOp22
 70
     1
102
RTVSPropertyOp23
 70
     1
102
RTVSPropertyOp24
 70
     1
102
RTVSPropertyOp25
 70
     1
102
RTVSPropertyOp26
 70
     1
102
RTVSPropertyOp27
 70
     1
102
RTVSPropertyOp28
 70
     1
102
RTVSPropertyOp29
 70
     1
102
RTVSPropertyOp30
 70
     1
102
RTVSPropertyOp31
 70
     1
102
RTVSPropertyOp32
 70
     1
102
RTVSPropertyOp33
 70
     1
102
RTVSPropertyOp34
 70
     1
102
RTVSPropertyOp35
 70
     1
102
RTVSPropertyOp36
 70
     1
102
RTVSPropertyOp37
 70
     1
102
RTVSPropertyOp38
 70
     1
102
RTVSPropertyOp39
 70
     1
102
RTVSPropertyOp40
 70
     1
102
RTVSPropertyOp41
 70
     1
102
RTVSPropertyOp42
 70
     1
102
RTVSPropertyOp43
 70
     1
102
RTVSPropertyOp44
 70
     1
102
RTVSPropertyOp45
 70
     1
102
RTVSPropertyOp46
 70
     1
102
RTVSPropertyOp47
 70
     1
102
RTVSPropertyOp48
 70
     1
102
RTVSPropertyOp49
 70
     1
102
RTVSPropertyOp50
 70
     1
102
RTVSPropertyOp51
 70
     0
102
RTVSPropertyOp52
 70
     0
102
RTVSPropertyOp53
 70
     1
102
RTVSPropertyOp54
 70
     1
102
RTVSPropertyOp55
 70
     1
102
RTVSPropertyOp56
 70
     1
102
RTVSPropertyOp57
 70
     1
102
RTVSPost2010Prop28
280
     0
102
RTVSPost2010PropOp28
 70
     1
102
RTVSPost2010Prop29
280
     1
102
RTVSPost2010PropOp29
 70
     1
102
RTVSPost2010Prop30
280
     1
102
RTVSPost2010PropOp30
 70
     1
102
RTVSPost2010Prop31
280
     0
102
RTVSPost2010PropOp31
 70
     1
102
RTVSPost2010Prop32
280
     0
102
RTVSPost2010PropOp32
 70
     1
102
RTVSPost2010Prop33
280
     0
102
RTVSPost2010PropOp33
 70
     1
102
RTVSPost2010Prop34
280
     0
102
RTVSPost2010PropOp34
 70
     1
102
RTVSPost2010Prop35
280
     0
102
RTVSPost2010PropOp35
 70
     1
102
RTVSPost2010Prop36
280
     0
102
RTVSPost2010PropOp36
 70
     1
102
RTVSPost2010Prop37
 90
       50
102
RTVSPost2010PropOp37
 70
     1
102
RTVSPost2010Prop38
140
0.0
102
RTVSPost2010PropOp38
 70
     1
102
RTVSPost2010Prop39
140
1.0
102
RTVSPost2010PropOp39
 70
     1
102
RTVSPost2010Prop40
 90
        0
102
RTVSPost2010PropOp40
 70
     1
102
RTVSPost2010Prop41ColorIndex
 90
       18
102
RTVSPost2010Prop41ColorRGB
 90
        0
102
RTVSPost2010PropOp41
 70
     1
102
RTVSPost2010Prop42
 90
       50
102
RTVSPost2010PropOp42
 70
     1
102
RTVSPost2010Prop43
 90
        3
102
RTVSPost2010PropOp43
 70
     1
102
RTVSPost2010Prop44ColorIndex
 90
        5
102
RTVSPost2010Prop44ColorRGB
 90
      255
102
RTVSPost2010PropOp44
 70
     1
102
RTVSPost2010Prop45
280
     0
102
RTVSPost2010PropOp45
 70
     1
102
RTVSPost2010Prop46
 90
       50
102
RTVSPost2010PropOp46
 70
     1
102
RTVSPost2010Prop47
 90
       50
102
RTVSPost2010PropOp47
 70
     1
102
RTVSPost2010Prop48
 90
       50
102
RTVSPost2010PropOp48
 70
     1
102
RTVSPost2010Prop49
280
     0
102
RTVSPost2010PropOp49
 70
     1
102
RTVSPost2010Prop50
 90
       50
102
RTVSPost2010PropOp50
 70
     1
102
RTVSPost2010Prop51ColorIndex
 90
      256
102
RTVSPost2010Prop51ColorRGB
 90
-16777216
102
RTVSPost2010PropOp51
 70
     0
102
RTVSPost2010Prop52
140
1.0
102
RTVSPost2010PropOp52
 70
     0
102
RTVSPost2010Prop53
 90
        2
102
RTVSPost2010PropOp53
 70
     1
102
RTVSPost2010Prop54
  1
strokes_ogs.tif
102
RTVSPost2010PropOp54
 70
     1
102
RTVSPost2010Prop55
280
     0
102
RTVSPost2010PropOp55
 70
     1
102
RTVSPost2010Prop56
140
1.0
102
RTVSPost2010PropOp56
 70
     1
102
RTVSPost2010Prop57
140
1.0
102
RTVSPost2010PropOp57
 70
     1
  0
XRECORD
  5
232
102
{ACAD_REACTORS
330
231
102
}
330
231
100
AcDbXrecord
280
     1
102
RTVSPropertyOp0
 70
     1
102
RTVSPropertyOp1
 70
     1
102
RTVSPropertyOp2
 70
     1
102
RTVSPropertyOp3
 70
     1
102
RTVSPropertyOp4
 70
     1
102
RTVSPropertyOp5
 70
     1
102
RTVSPropertyOp6
 70
     1
102
RTVSPropertyOp7
 70
     1
102
RTVSPropertyOp8
 70
     1
102
RTVSPropertyOp9
 70
     1
102
RTVSPropertyOp10
 70
     1
102
RTVSPropertyOp11
 70
     1
102
RTVSPropertyOp12
 70
     1
102
RTVSPropertyOp13
 70
     1
102
RTVSPropertyOp14
 70
     1
102
RTVSPropertyOp15
 70
     1
102
RTVSPropertyOp16
 70
     1
102
RTVSPropertyOp17
 70
     1
102
RTVSPropertyOp18
 70
     1
102
RTVSPropertyOp19
 70
     1
102
RTVSPropertyOp20
 70
     1
102
RTVSPropertyOp21
 70
     1
102
RTVSPropertyOp22
 70
     1
102
RTVSPropertyOp23
 70
     1
102
RTVSPropertyOp24
 70
     1
102
RTVSPropertyOp25
 70
     1
102
RTVSPropertyOp26
 70
     1
102
RTVSPropertyOp27
 70
     1
102
RTVSPropertyOp28
 70
     1
102
RTVSPropertyOp29
 70
     1
102
RTVSPropertyOp30
 70
     1
102
RTVSPropertyOp31
 70
     1
102
RTVSPropertyOp32
 70
     1
102
RTVSPropertyOp33
 70
     1
102
RTVSPropertyOp34
 70
     1
102
RTVSPropertyOp35
 70
     1
102
RTVSPropertyOp36
 70
     1
102
RTVSPropertyOp37
 70
     1
102
RTVSPropertyOp38
 70
     1
102
RTVSPropertyOp39
 70
     1
102
RTVSPropertyOp40
 70
     1
102
RTVSPropertyOp41
 70
     1
102
RTVSPropertyOp42
 70
     1
102
RTVSPropertyOp43
 70
     1
102
RTVSPropertyOp44
 70
     1
102
RTVSPropertyOp45
 70
     1
102
RTVSPropertyOp46
 70
     1
102
RTVSPropertyOp47
 70
     1
102
RTVSPropertyOp48
 70
     1
102
RTVSPropertyOp49
 70
     1
102
RTVSPropertyOp50
 70
     1
102
RTVSPropertyOp51
 70
     0
102
RTVSPropertyOp52
 70
     0
102
RTVSPropertyOp53
 70
     1
102
RTVSPropertyOp54
 70
     1
102
RTVSPropertyOp55
 70
     1
102
RTVSPropertyOp56
 70
     1
102
RTVSPropertyOp57
 70
     1
102
RTVSPost2010Prop28
280
     0
102
RTVSPost2010PropOp28
 70
     1
102
RTVSPost2010Prop29
280
     1
102
RTVSPost2010PropOp29
 70
     1
102
RTVSPost2010Prop30
280
     1
102
RTVSPost2010PropOp30
 70
     1
102
RTVSPost2010Prop31
280
     0
102
RTVSPost2010PropOp31
 70
     1
102
RTVSPost2010Prop32
280
     0
102
RTVSPost2010PropOp32
 70
     1
102
RTVSPost2010Prop33
280
     0
102
RTVSPost2010PropOp33
 70
     1
102
RTVSPost2010Prop34
280
     0
102
RTVSPost2010PropOp34
 70
     1
102
RTVSPost2010Prop35
280
     0
102
RTVSPost2010PropOp35
 70
     1
102
RTVSPost2010Prop36
280
     0
102
RTVSPost2010PropOp36
 70
     1
102
RTVSPost2010Prop37
 90
       50
102
RTVSPost2010PropOp37
 70
     1
102
RTVSPost2010Prop38
140
0.0
102
RTVSPost2010PropOp38
 70
     1
102
RTVSPost2010Prop39
140
1.0
102
RTVSPost2010PropOp39
 70
     1
102
RTVSPost2010Prop40
 90
        0
102
RTVSPost2010PropOp40
 70
     1
102
RTVSPost2010Prop41ColorIndex
 90
       18
102
RTVSPost2010Prop41ColorRGB
 90
        0
102
RTVSPost2010PropOp41
 70
     1
102
RTVSPost2010Prop42
 90
       50
102
RTVSPost2010PropOp42
 70
     1
102
RTVSPost2010Prop43
 90
        3
102
RTVSPost2010PropOp43
 70
     1
102
RTVSPost2010Prop44ColorIndex
 90
        5
102
RTVSPost2010Prop44ColorRGB
 90
      255
102
RTVSPost2010PropOp44
 70
     1
102
RTVSPost2010Prop45
280
     0
102
RTVSPost2010PropOp45
 70
     1
102
RTVSPost2010Prop46
 90
       50
102
RTVSPost2010PropOp46
 70
     1
102
RTVSPost2010Prop47
 90
       50
102
RTVSPost2010PropOp47
 70
     1
102
RTVSPost2010Prop48
 90
       50
102
RTVSPost2010PropOp48
 70
     1
102
RTVSPost2010Prop49
280
     0
102
RTVSPost2010PropOp49
 70
     1
102
RTVSPost2010Prop50
 90
       50
102
RTVSPost2010PropOp50
 70
     1
102
RTVSPost2010Prop51ColorIndex
 90
      256
102
RTVSPost2010Prop51ColorRGB
 90
-16777216
102
RTVSPost2010PropOp51
 70
     0
102
RTVSPost2010Prop52
140
1.0
102
RTVSPost2010PropOp52
 70
     0
102
RTVSPost2010Prop53
 90
        2
102
RTVSPost2010PropOp53
 70
     1
102
RTVSPost2010Prop54
  1
strokes_ogs.tif
102
RTVSPost2010PropOp54
 70
     1
102
RTVSPost2010Prop55
280
     0
102
RTVSPost2010PropOp55
 70
     1
102
RTVSPost2010Prop56
140
1.0
102
RTVSPost2010PropOp56
 70
     1
102
RTVSPost2010Prop57
140
1.0
102
RTVSPost2010PropOp57
 70
     1
  0
XRECORD
  5
234
102
{ACAD_REACTORS
330
233
102
}
330
233
100
AcDbXrecord
280
     1
102
RTVSPropertyOp0
 70
     1
102
RTVSPropertyOp1
 70
     1
102
RTVSPropertyOp2
 70
     1
102
RTVSPropertyOp3
 70
     1
102
RTVSPropertyOp4
 70
     1
102
RTVSPropertyOp5
 70
     1
102
RTVSPropertyOp6
 70
     1
102
RTVSPropertyOp7
 70
     1
102
RTVSPropertyOp8
 70
     1
102
RTVSPropertyOp9
 70
     1
102
RTVSPropertyOp10
 70
     1
102
RTVSPropertyOp11
 70
     1
102
RTVSPropertyOp12
 70
     1
102
RTVSPropertyOp13
 70
     1
102
RTVSPropertyOp14
 70
     1
102
RTVSPropertyOp15
 70
     1
102
RTVSPropertyOp16
 70
     1
102
RTVSPropertyOp17
 70
     1
102
RTVSPropertyOp18
 70
     1
102
RTVSPropertyOp19
 70
     1
102
RTVSPropertyOp20
 70
     1
102
RTVSPropertyOp21
 70
     1
102
RTVSPropertyOp22
 70
     1
102
RTVSPropertyOp23
 70
     1
102
RTVSPropertyOp24
 70
     1
102
RTVSPropertyOp25
 70
     1
102
RTVSPropertyOp26
 70
     1
102
RTVSPropertyOp27
 70
     1
102
RTVSPropertyOp28
 70
     1
102
RTVSPropertyOp29
 70
     1
102
RTVSPropertyOp30
 70
     1
102
RTVSPropertyOp31
 70
     1
102
RTVSPropertyOp32
 70
     1
102
RTVSPropertyOp33
 70
     1
102
RTVSPropertyOp34
 70
     1
102
RTVSPropertyOp35
 70
     1
102
RTVSPropertyOp36
 70
     1
102
RTVSPropertyOp37
 70
     1
102
RTVSPropertyOp38
 70
     1
102
RTVSPropertyOp39
 70
     1
102
RTVSPropertyOp40
 70
     1
102
RTVSPropertyOp41
 70
     1
102
RTVSPropertyOp42
 70
     1
102
RTVSPropertyOp43
 70
     1
102
RTVSPropertyOp44
 70
     1
102
RTVSPropertyOp45
 70
     1
102
RTVSPropertyOp46
 70
     1
102
RTVSPropertyOp47
 70
     1
102
RTVSPropertyOp48
 70
     1
102
RTVSPropertyOp49
 70
     1
102
RTVSPropertyOp50
 70
     1
102
RTVSPropertyOp51
 70
     0
102
RTVSPropertyOp52
 70
     0
102
RTVSPropertyOp53
 70
     1
102
RTVSPropertyOp54
 70
     1
102
RTVSPropertyOp55
 70
     1
102
RTVSPropertyOp56
 70
     1
102
RTVSPropertyOp57
 70
     1
102
RTVSPost2010Prop28
280
     0
102
RTVSPost2010PropOp28
 70
     1
102
RTVSPost2010Prop29
280
     1
102
RTVSPost2010PropOp29
 70
     1
102
RTVSPost2010Prop30
280
     1
102
RTVSPost2010PropOp30
 70
     1
102
RTVSPost2010Prop31
280
     0
102
RTVSPost2010PropOp31
 70
     1
102
RTVSPost2010Prop32
280
     0
102
RTVSPost2010PropOp32
 70
     1
102
RTVSPost2010Prop33
280
     0
102
RTVSPost2010PropOp33
 70
     1
102
RTVSPost2010Prop34
280
     0
102
RTVSPost2010PropOp34
 70
     1
102
RTVSPost2010Prop35
280
     0
102
RTVSPost2010PropOp35
 70
     1
102
RTVSPost2010Prop36
280
     0
102
RTVSPost2010PropOp36
 70
     1
102
RTVSPost2010Prop37
 90
       50
102
RTVSPost2010PropOp37
 70
     1
102
RTVSPost2010Prop38
140
0.0
102
RTVSPost2010PropOp38
 70
     1
102
RTVSPost2010Prop39
140
1.0
102
RTVSPost2010PropOp39
 70
     1
102
RTVSPost2010Prop40
 90
        0
102
RTVSPost2010PropOp40
 70
     1
102
RTVSPost2010Prop41ColorIndex
 90
       18
102
RTVSPost2010Prop41ColorRGB
 90
        0
102
RTVSPost2010PropOp41
 70
     1
102
RTVSPost2010Prop42
 90
       50
102
RTVSPost2010PropOp42
 70
     1
102
RTVSPost2010Prop43
 90
        3
102
RTVSPost2010PropOp43
 70
     1
102
RTVSPost2010Prop44ColorIndex
 90
        5
102
RTVSPost2010Prop44ColorRGB
 90
      255
102
RTVSPost2010PropOp44
 70
     1
102
RTVSPost2010Prop45
280
     0
102
RTVSPost2010PropOp45
 70
     1
102
RTVSPost2010Prop46
 90
       50
102
RTVSPost2010PropOp46
 70
     1
102
RTVSPost2010Prop47
 90
       50
102
RTVSPost2010PropOp47
 70
     1
102
RTVSPost2010Prop48
 90
       50
102
RTVSPost2010PropOp48
 70
     1
102
RTVSPost2010Prop49
280
     0
102
RTVSPost2010PropOp49
 70
     1
102
RTVSPost2010Prop50
 90
       50
102
RTVSPost2010PropOp50
 70
     1
102
RTVSPost2010Prop51ColorIndex
 90
      256
102
RTVSPost2010Prop51ColorRGB
 90
-16777216
102
RTVSPost2010PropOp51
 70
     0
102
RTVSPost2010Prop52
140
1.0
102
RTVSPost2010PropOp52
 70
     0
102
RTVSPost2010Prop53
 90
        2
102
RTVSPost2010PropOp53
 70
     1
102
RTVSPost2010Prop54
  1
strokes_ogs.tif
102
RTVSPost2010PropOp54
 70
     1
102
RTVSPost2010Prop55
280
     0
102
RTVSPost2010PropOp55
 70
     1
102
RTVSPost2010Prop56
140
1.0
102
RTVSPost2010PropOp56
 70
     1
102
RTVSPost2010Prop57
140
1.0
102
RTVSPost2010PropOp57
 70
     1
  0
XRECORD
  5
236
102
{ACAD_REACTORS
330
235
102
}
330
235
100
AcDbXrecord
280
     1
102
RTVSPropertyOp0
 70
     1
102
RTVSPropertyOp1
 70
     1
102
RTVSPropertyOp2
 70
     1
102
RTVSPropertyOp3
 70
     1
102
RTVSPropertyOp4
 70
     1
102
RTVSPropertyOp5
 70
     1
102
RTVSPropertyOp6
 70
     1
102
RTVSPropertyOp7
 70
     1
102
RTVSPropertyOp8
 70
     1
102
RTVSPropertyOp9
 70
     1
102
RTVSPropertyOp10
 70
     1
102
RTVSPropertyOp11
 70
     1
102
RTVSPropertyOp12
 70
     1
102
RTVSPropertyOp13
 70
     1
102
RTVSPropertyOp14
 70
     1
102
RTVSPropertyOp15
 70
     1
102
RTVSPropertyOp16
 70
     1
102
RTVSPropertyOp17
 70
     1
102
RTVSPropertyOp18
 70
     1
102
RTVSPropertyOp19
 70
     1
102
RTVSPropertyOp20
 70
     1
102
RTVSPropertyOp21
 70
     1
102
RTVSPropertyOp22
 70
     1
102
RTVSPropertyOp23
 70
     1
102
RTVSPropertyOp24
 70
     1
102
RTVSPropertyOp25
 70
     1
102
RTVSPropertyOp26
 70
     1
102
RTVSPropertyOp27
 70
     1
102
RTVSPropertyOp28
 70
     1
102
RTVSPropertyOp29
 70
     1
102
RTVSPropertyOp30
 70
     1
102
RTVSPropertyOp31
 70
     1
102
RTVSPropertyOp32
 70
     1
102
RTVSPropertyOp33
 70
     1
102
RTVSPropertyOp34
 70
     1
102
RTVSPropertyOp35
 70
     1
102
RTVSPropertyOp36
 70
     1
102
RTVSPropertyOp37
 70
     1
102
RTVSPropertyOp38
 70
     1
102
RTVSPropertyOp39
 70
     1
102
RTVSPropertyOp40
 70
     1
102
RTVSPropertyOp41
 70
     1
102
RTVSPropertyOp42
 70
     1
102
RTVSPropertyOp43
 70
     1
102
RTVSPropertyOp44
 70
     1
102
RTVSPropertyOp45
 70
     1
102
RTVSPropertyOp46
 70
     1
102
RTVSPropertyOp47
 70
     1
102
RTVSPropertyOp48
 70
     1
102
RTVSPropertyOp49
 70
     1
102
RTVSPropertyOp50
 70
     1
102
RTVSPropertyOp51
 70
     0
102
RTVSPropertyOp52
 70
     0
102
RTVSPropertyOp53
 70
     1
102
RTVSPropertyOp54
 70
     1
102
RTVSPropertyOp55
 70
     1
102
RTVSPropertyOp56
 70
     1
102
RTVSPropertyOp57
 70
     1
102
RTVSPost2010Prop28
280
     0
102
RTVSPost2010PropOp28
 70
     1
102
RTVSPost2010Prop29
280
     1
102
RTVSPost2010PropOp29
 70
     1
102
RTVSPost2010Prop30
280
     1
102
RTVSPost2010PropOp30
 70
     1
102
RTVSPost2010Prop31
280
     0
102
RTVSPost2010PropOp31
 70
     1
102
RTVSPost2010Prop32
280
     0
102
RTVSPost2010PropOp32
 70
     1
102
RTVSPost2010Prop33
280
     0
102
RTVSPost2010PropOp33
 70
     1
102
RTVSPost2010Prop34
280
     0
102
RTVSPost2010PropOp34
 70
     1
102
RTVSPost2010Prop35
280
     0
102
RTVSPost2010PropOp35
 70
     1
102
RTVSPost2010Prop36
280
     0
102
RTVSPost2010PropOp36
 70
     1
102
RTVSPost2010Prop37
 90
       50
102
RTVSPost2010PropOp37
 70
     1
102
RTVSPost2010Prop38
140
0.0
102
RTVSPost2010PropOp38
 70
     1
102
RTVSPost2010Prop39
140
1.0
102
RTVSPost2010PropOp39
 70
     1
102
RTVSPost2010Prop40
 90
        0
102
RTVSPost2010PropOp40
 70
     1
102
RTVSPost2010Prop41ColorIndex
 90
       18
102
RTVSPost2010Prop41ColorRGB
 90
        0
102
RTVSPost2010PropOp41
 70
     1
102
RTVSPost2010Prop42
 90
       50
102
RTVSPost2010PropOp42
 70
     1
102
RTVSPost2010Prop43
 90
        3
102
RTVSPost2010PropOp43
 70
     1
102
RTVSPost2010Prop44ColorIndex
 90
        5
102
RTVSPost2010Prop44ColorRGB
 90
      255
102
RTVSPost2010PropOp44
 70
     1
102
RTVSPost2010Prop45
280
     0
102
RTVSPost2010PropOp45
 70
     1
102
RTVSPost2010Prop46
 90
       50
102
RTVSPost2010PropOp46
 70
     1
102
RTVSPost2010Prop47
 90
       50
102
RTVSPost2010PropOp47
 70
     1
102
RTVSPost2010Prop48
 90
       50
102
RTVSPost2010PropOp48
 70
     1
102
RTVSPost2010Prop49
280
     0
102
RTVSPost2010PropOp49
 70
     1
102
RTVSPost2010Prop50
 90
       50
102
RTVSPost2010PropOp50
 70
     1
102
RTVSPost2010Prop51ColorIndex
 90
      256
102
RTVSPost2010Prop51ColorRGB
 90
-16777216
102
RTVSPost2010PropOp51
 70
     0
102
RTVSPost2010Prop52
140
1.0
102
RTVSPost2010PropOp52
 70
     0
102
RTVSPost2010Prop53
 90
        2
102
RTVSPost2010PropOp53
 70
     1
102
RTVSPost2010Prop54
  1
strokes_ogs.tif
102
RTVSPost2010PropOp54
 70
     1
102
RTVSPost2010Prop55
280
     0
102
RTVSPost2010PropOp55
 70
     1
102
RTVSPost2010Prop56
140
1.0
102
RTVSPost2010PropOp56
 70
     1
102
RTVSPost2010Prop57
140
1.0
102
RTVSPost2010PropOp57
 70
     1
  0
XRECORD
  5
23C
102
{ACAD_REACTORS
330
23B
102
}
330
23B
100
AcDbXrecord
280
     1
102
RTVSPropertyOp0
 70
     1
102
RTVSPropertyOp1
 70
     1
102
RTVSPropertyOp2
 70
     1
102
RTVSPropertyOp3
 70
     1
102
RTVSPropertyOp4
 70
     1
102
RTVSPropertyOp5
 70
     1
102
RTVSPropertyOp6
 70
     1
102
RTVSPropertyOp7
 70
     1
102
RTVSPropertyOp8
 70
     1
102
RTVSPropertyOp9
 70
     1
102
RTVSPropertyOp10
 70
     1
102
RTVSPropertyOp11
 70
     1
102
RTVSPropertyOp12
 70
     1
102
RTVSPropertyOp13
 70
     1
102
RTVSPropertyOp14
 70
     1
102
RTVSPropertyOp15
 70
     1
102
RTVSPropertyOp16
 70
     1
102
RTVSPropertyOp17
 70
     1
102
RTVSPropertyOp18
 70
     1
102
RTVSPropertyOp19
 70
     1
102
RTVSPropertyOp20
 70
     1
102
RTVSPropertyOp21
 70
     1
102
RTVSPropertyOp22
 70
     1
102
RTVSPropertyOp23
 70
     1
102
RTVSPropertyOp24
 70
     1
102
RTVSPropertyOp25
 70
     1
102
RTVSPropertyOp26
 70
     1
102
RTVSPropertyOp27
 70
     1
102
RTVSPropertyOp28
 70
     1
102
RTVSPropertyOp29
 70
     1
102
RTVSPropertyOp30
 70
     1
102
RTVSPropertyOp31
 70
     1
102
RTVSPropertyOp32
 70
     1
102
RTVSPropertyOp33
 70
     1
102
RTVSPropertyOp34
 70
     1
102
RTVSPropertyOp35
 70
     1
102
RTVSPropertyOp36
 70
     1
102
RTVSPropertyOp37
 70
     1
102
RTVSPropertyOp38
 70
     1
102
RTVSPropertyOp39
 70
     1
102
RTVSPropertyOp40
 70
     1
102
RTVSPropertyOp41
 70
     1
102
RTVSPropertyOp42
 70
     1
102
RTVSPropertyOp43
 70
     1
102
RTVSPropertyOp44
 70
     1
102
RTVSPropertyOp45
 70
     1
102
RTVSPropertyOp46
 70
     1
102
RTVSPropertyOp47
 70
     1
102
RTVSPropertyOp48
 70
     1
102
RTVSPropertyOp49
 70
     1
102
RTVSPropertyOp50
 70
     1
102
RTVSPropertyOp51
 70
     0
102
RTVSPropertyOp52
 70
     0
102
RTVSPropertyOp53
 70
     1
102
RTVSPropertyOp54
 70
     1
102
RTVSPropertyOp55
 70
     1
102
RTVSPropertyOp56
 70
     1
102
RTVSPropertyOp57
 70
     1
102
RTVSPost2010Prop28
280
     0
102
RTVSPost2010PropOp28
 70
     1
102
RTVSPost2010Prop29
280
     1
102
RTVSPost2010PropOp29
 70
     1
102
RTVSPost2010Prop30
280
     1
102
RTVSPost2010PropOp30
 70
     1
102
RTVSPost2010Prop31
280
     0
102
RTVSPost2010PropOp31
 70
     1
102
RTVSPost2010Prop32
280
     0
102
RTVSPost2010PropOp32
 70
     1
102
RTVSPost2010Prop33
280
     0
102
RTVSPost2010PropOp33
 70
     1
102
RTVSPost2010Prop34
280
     0
102
RTVSPost2010PropOp34
 70
     1
102
RTVSPost2010Prop35
280
     0
102
RTVSPost2010PropOp35
 70
     1
102
RTVSPost2010Prop36
280
     0
102
RTVSPost2010PropOp36
 70
     1
102
RTVSPost2010Prop37
 90
       50
102
RTVSPost2010PropOp37
 70
     1
102
RTVSPost2010Prop38
140
0.0
102
RTVSPost2010PropOp38
 70
     1
102
RTVSPost2010Prop39
140
1.0
102
RTVSPost2010PropOp39
 70
     1
102
RTVSPost2010Prop40
 90
        0
102
RTVSPost2010PropOp40
 70
     1
102
RTVSPost2010Prop41ColorIndex
 90
       18
102
RTVSPost2010Prop41ColorRGB
 90
        0
102
RTVSPost2010PropOp41
 70
     1
102
RTVSPost2010Prop42
 90
       50
102
RTVSPost2010PropOp42
 70
     1
102
RTVSPost2010Prop43
 90
        3
102
RTVSPost2010PropOp43
 70
     1
102
RTVSPost2010Prop44ColorIndex
 90
        5
102
RTVSPost2010Prop44ColorRGB
 90
      255
102
RTVSPost2010PropOp44
 70
     1
102
RTVSPost2010Prop45
280
     0
102
RTVSPost2010PropOp45
 70
     1
102
RTVSPost2010Prop46
 90
       50
102
RTVSPost2010PropOp46
 70
     1
102
RTVSPost2010Prop47
 90
       50
102
RTVSPost2010PropOp47
 70
     1
102
RTVSPost2010Prop48
 90
       50
102
RTVSPost2010PropOp48
 70
     1
102
RTVSPost2010Prop49
280
     0
102
RTVSPost2010PropOp49
 70
     1
102
RTVSPost2010Prop50
 90
       50
102
RTVSPost2010PropOp50
 70
     1
102
RTVSPost2010Prop51ColorIndex
 90
      256
102
RTVSPost2010Prop51ColorRGB
 90
-16777216
102
RTVSPost2010PropOp51
 70
     0
102
RTVSPost2010Prop52
140
1.0
102
RTVSPost2010PropOp52
 70
     0
102
RTVSPost2010Prop53
 90
        2
102
RTVSPost2010PropOp53
 70
     1
102
RTVSPost2010Prop54
  1
strokes_ogs.tif
102
RTVSPost2010PropOp54
 70
     1
102
RTVSPost2010Prop55
280
     0
102
RTVSPost2010PropOp55
 70
     1
102
RTVSPost2010Prop56
140
1.0
102
RTVSPost2010PropOp56
 70
     1
102
RTVSPost2010Prop57
140
1.0
102
RTVSPost2010PropOp57
 70
     1
  0
XRECORD
  5
250
102
{ACAD_REACTORS
330
24F
102
}
330
24F
100
AcDbXrecord
280
     1
102
RTVSPropertyOp0
 70
     0
102
RTVSPropertyOp1
 70
     0
102
RTVSPropertyOp2
 70
     0
102
RTVSPropertyOp3
 70
     0
102
RTVSPropertyOp4
 70
     0
102
RTVSPropertyOp5
 70
     0
102
RTVSPropertyOp6
 70
     0
102
RTVSPropertyOp7
 70
     0
102
RTVSPropertyOp8
 70
     0
102
RTVSPropertyOp9
 70
     0
102
RTVSPropertyOp10
 70
     0
102
RTVSPropertyOp11
 70
     0
102
RTVSPropertyOp12
 70
     0
102
RTVSPropertyOp13
 70
     0
102
RTVSPropertyOp14
 70
     2
102
RTVSPropertyOp15
 70
     0
102
RTVSPropertyOp16
 70
     0
102
RTVSPropertyOp17
 70
     0
102
RTVSPropertyOp18
 70
     0
102
RTVSPropertyOp19
 70
     0
102
RTVSPropertyOp20
 70
     0
102
RTVSPropertyOp21
 70
     0
102
RTVSPropertyOp22
 70
     0
102
RTVSPropertyOp23
 70
     0
102
RTVSPropertyOp24
 70
     0
102
RTVSPropertyOp25
 70
     0
102
RTVSPropertyOp26
 70
     0
102
RTVSPropertyOp27
 70
     0
102
RTVSPropertyOp28
 70
     0
102
RTVSPropertyOp29
 70
     0
102
RTVSPropertyOp30
 70
     0
102
RTVSPropertyOp31
 70
     0
102
RTVSPropertyOp32
 70
     0
102
RTVSPropertyOp33
 70
     0
102
RTVSPropertyOp34
 70
     0
102
RTVSPropertyOp35
 70
     0
102
RTVSPropertyOp36
 70
     0
102
RTVSPropertyOp37
 70
     0
102
RTVSPropertyOp38
 70
     0
102
RTVSPropertyOp39
 70
     0
102
RTVSPropertyOp40
 70
     0
102
RTVSPropertyOp41
 70
     0
102
RTVSPropertyOp42
 70
     0
102
RTVSPropertyOp43
 70
     0
102
RTVSPropertyOp44
 70
     0
102
RTVSPropertyOp45
 70
     0
102
RTVSPropertyOp46
 70
     0
102
RTVSPropertyOp47
 70
     0
102
RTVSPropertyOp48
 70
     0
102
RTVSPropertyOp49
 70
     0
102
RTVSPropertyOp50
 70
     0
102
RTVSPropertyOp51
 70
     0
102
RTVSPropertyOp52
 70
     0
102
RTVSPropertyOp53
 70
     0
102
RTVSPropertyOp54
 70
     0
102
RTVSPropertyOp55
 70
     0
102
RTVSPropertyOp56
 70
     0
102
RTVSPropertyOp57
 70
     0
102
RTVSPost2010Prop28
280
     0
102
RTVSPost2010PropOp28
 70
     0
102
RTVSPost2010Prop29
280
     1
102
RTVSPost2010PropOp29
 70
     0
102
RTVSPost2010Prop30
280
     1
102
RTVSPost2010PropOp30
 70
     0
102
RTVSPost2010Prop31
280
     0
102
RTVSPost2010PropOp31
 70
     0
102
RTVSPost2010Prop32
280
     0
102
RTVSPost2010PropOp32
 70
     0
102
RTVSPost2010Prop33
280
     0
102
RTVSPost2010PropOp33
 70
     0
102
RTVSPost2010Prop34
280
     0
102
RTVSPost2010PropOp34
 70
     0
102
RTVSPost2010Prop35
280
     0
102
RTVSPost2010PropOp35
 70
     0
102
RTVSPost2010Prop36
280
     0
102
RTVSPost2010PropOp36
 70
     0
102
RTVSPost2010Prop37
 90
       50
102
RTVSPost2010PropOp37
 70
     0
102
RTVSPost2010Prop38
140
0.0
102
RTVSPost2010PropOp38
 70
     0
102
RTVSPost2010Prop39
140
1.0
102
RTVSPost2010PropOp39
 70
     0
102
RTVSPost2010Prop40
 90
        0
102
RTVSPost2010PropOp40
 70
     0
102
RTVSPost2010Prop41ColorIndex
 90
       18
102
RTVSPost2010Prop41ColorRGB
 90
        0
102
RTVSPost2010PropOp41
 70
     0
102
RTVSPost2010Prop42
 90
       50
102
RTVSPost2010PropOp42
 70
     0
102
RTVSPost2010Prop43
 90
        3
102
RTVSPost2010PropOp43
 70
     0
102
RTVSPost2010Prop44ColorIndex
 90
        5
102
RTVSPost2010Prop44ColorRGB
 90
      255
102
RTVSPost2010PropOp44
 70
     0
102
RTVSPost2010Prop45
280
     0
102
RTVSPost2010PropOp45
 70
     0
102
RTVSPost2010Prop46
 90
       50
102
RTVSPost2010PropOp46
 70
     0
102
RTVSPost2010Prop47
 90
       50
102
RTVSPost2010PropOp47
 70
     0
102
RTVSPost2010Prop48
 90
       50
102
RTVSPost2010PropOp48
 70
     0
102
RTVSPost2010Prop49
280
     0
102
RTVSPost2010PropOp49
 70
     0
102
RTVSPost2010Prop50
 90
       50
102
RTVSPost2010PropOp50
 70
     0
102
RTVSPost2010Prop51ColorIndex
 90
      256
102
RTVSPost2010Prop51ColorRGB
 90
-16777216
102
RTVSPost2010PropOp51
 70
     0
102
RTVSPost2010Prop52
140
1.0
102
RTVSPost2010PropOp52
 70
     0
102
RTVSPost2010Prop53
 90
        2
102
RTVSPost2010PropOp53
 70
     0
102
RTVSPost2010Prop54
  1
strokes_ogs.tif
102
RTVSPost2010PropOp54
 70
     0
102
RTVSPost2010Prop55
280
     0
102
RTVSPost2010PropOp55
 70
     0
102
RTVSPost2010Prop56
140
1.0
102
RTVSPost2010PropOp56
 70
     0
102
RTVSPost2010Prop57
140
1.0
102
RTVSPost2010PropOp57
 70
     0
  0
XRECORD
  5
24A
102
{ACAD_REACTORS
330
249
102
}
330
249
100
AcDbXrecord
280
     1
102
RTVSPropertyOp0
 70
     1
102
RTVSPropertyOp1
 70
     1
102
RTVSPropertyOp2
 70
     1
102
RTVSPropertyOp3
 70
     1
102
RTVSPropertyOp4
 70
     1
102
RTVSPropertyOp5
 70
     1
102
RTVSPropertyOp6
 70
     1
102
RTVSPropertyOp7
 70
     1
102
RTVSPropertyOp8
 70
     1
102
RTVSPropertyOp9
 70
     1
102
RTVSPropertyOp10
 70
     1
102
RTVSPropertyOp11
 70
     1
102
RTVSPropertyOp12
 70
     1
102
RTVSPropertyOp13
 70
     1
102
RTVSPropertyOp14
 70
     1
102
RTVSPropertyOp15
 70
     1
102
RTVSPropertyOp16
 70
     1
102
RTVSPropertyOp17
 70
     1
102
RTVSPropertyOp18
 70
     1
102
RTVSPropertyOp19
 70
     1
102
RTVSPropertyOp20
 70
     1
102
RTVSPropertyOp21
 70
     1
102
RTVSPropertyOp22
 70
     1
102
RTVSPropertyOp23
 70
     1
102
RTVSPropertyOp24
 70
     1
102
RTVSPropertyOp25
 70
     1
102
RTVSPropertyOp26
 70
     1
102
RTVSPropertyOp27
 70
     1
102
RTVSPropertyOp28
 70
     1
102
RTVSPropertyOp29
 70
     1
102
RTVSPropertyOp30
 70
     1
102
RTVSPropertyOp31
 70
     1
102
RTVSPropertyOp32
 70
     1
102
RTVSPropertyOp33
 70
     1
102
RTVSPropertyOp34
 70
     1
102
RTVSPropertyOp35
 70
     1
102
RTVSPropertyOp36
 70
     1
102
RTVSPropertyOp37
 70
     1
102
RTVSPropertyOp38
 70
     1
102
RTVSPropertyOp39
 70
     1
102
RTVSPropertyOp40
 70
     1
102
RTVSPropertyOp41
 70
     1
102
RTVSPropertyOp42
 70
     1
102
RTVSPropertyOp43
 70
     1
102
RTVSPropertyOp44
 70
     1
102
RTVSPropertyOp45
 70
     1
102
RTVSPropertyOp46
 70
     1
102
RTVSPropertyOp47
 70
     1
102
RTVSPropertyOp48
 70
     1
102
RTVSPropertyOp49
 70
     1
102
RTVSPropertyOp50
 70
     1
102
RTVSPropertyOp51
 70
     0
102
RTVSPropertyOp52
 70
     0
102
RTVSPropertyOp53
 70
     1
102
RTVSPropertyOp54
 70
     1
102
RTVSPropertyOp55
 70
     1
102
RTVSPropertyOp56
 70
     1
102
RTVSPropertyOp57
 70
     1
102
RTVSPost2010Prop28
280
     0
102
RTVSPost2010PropOp28
 70
     1
102
RTVSPost2010Prop29
280
     1
102
RTVSPost2010PropOp29
 70
     1
102
RTVSPost2010Prop30
280
     1
102
RTVSPost2010PropOp30
 70
     1
102
RTVSPost2010Prop31
280
     0
102
RTVSPost2010PropOp31
 70
     1
102
RTVSPost2010Prop32
280
     0
102
RTVSPost2010PropOp32
 70
     1
102
RTVSPost2010Prop33
280
     0
102
RTVSPost2010PropOp33
 70
     1
102
RTVSPost2010Prop34
280
     0
102
RTVSPost2010PropOp34
 70
     1
102
RTVSPost2010Prop35
280
     0
102
RTVSPost2010PropOp35
 70
     1
102
RTVSPost2010Prop36
280
     0
102
RTVSPost2010PropOp36
 70
     1
102
RTVSPost2010Prop37
 90
       50
102
RTVSPost2010PropOp37
 70
     1
102
RTVSPost2010Prop38
140
0.0
102
RTVSPost2010PropOp38
 70
     1
102
RTVSPost2010Prop39
140
1.0
102
RTVSPost2010PropOp39
 70
     1
102
RTVSPost2010Prop40
 90
        0
102
RTVSPost2010PropOp40
 70
     1
102
RTVSPost2010Prop41ColorIndex
 90
       18
102
RTVSPost2010Prop41ColorRGB
 90
        0
102
RTVSPost2010PropOp41
 70
     1
102
RTVSPost2010Prop42
 90
       50
102
RTVSPost2010PropOp42
 70
     1
102
RTVSPost2010Prop43
 90
        3
102
RTVSPost2010PropOp43
 70
     1
102
RTVSPost2010Prop44ColorIndex
 90
        5
102
RTVSPost2010Prop44ColorRGB
 90
      255
102
RTVSPost2010PropOp44
 70
     1
102
RTVSPost2010Prop45
280
     0
102
RTVSPost2010PropOp45
 70
     1
102
RTVSPost2010Prop46
 90
       50
102
RTVSPost2010PropOp46
 70
     1
102
RTVSPost2010Prop47
 90
       50
102
RTVSPost2010PropOp47
 70
     1
102
RTVSPost2010Prop48
 90
       50
102
RTVSPost2010PropOp48
 70
     1
102
RTVSPost2010Prop49
280
     0
102
RTVSPost2010PropOp49
 70
     1
102
RTVSPost2010Prop50
 90
       50
102
RTVSPost2010PropOp50
 70
     1
102
RTVSPost2010Prop51ColorIndex
 90
      256
102
RTVSPost2010Prop51ColorRGB
 90
-16777216
102
RTVSPost2010PropOp51
 70
     0
102
RTVSPost2010Prop52
140
1.0
102
RTVSPost2010PropOp52
 70
     0
102
RTVSPost2010Prop53
 90
        2
102
RTVSPost2010PropOp53
 70
     1
102
RTVSPost2010Prop54
  1
strokes_ogs.tif
102
RTVSPost2010PropOp54
 70
     1
102
RTVSPost2010Prop55
280
     0
102
RTVSPost2010PropOp55
 70
     1
102
RTVSPost2010Prop56
140
1.0
102
RTVSPost2010PropOp56
 70
     1
102
RTVSPost2010Prop57
140
1.0
102
RTVSPost2010PropOp57
 70
     1
  0
XRECORD
  5
252
102
{ACAD_REACTORS
330
251
102
}
330
251
100
AcDbXrecord
280
     1
102
RTVSPropertyOp0
 70
     0
102
RTVSPropertyOp1
 70
     0
102
RTVSPropertyOp2
 70
     0
102
RTVSPropertyOp3
 70
     0
102
RTVSPropertyOp4
 70
     0
102
RTVSPropertyOp5
 70
     0
102
RTVSPropertyOp6
 70
     0
102
RTVSPropertyOp7
 70
     0
102
RTVSPropertyOp8
 70
     0
102
RTVSPropertyOp9
 70
     0
102
RTVSPropertyOp10
 70
     0
102
RTVSPropertyOp11
 70
     0
102
RTVSPropertyOp12
 70
     0
102
RTVSPropertyOp13
 70
     0
102
RTVSPropertyOp14
 70
     2
102
RTVSPropertyOp15
 70
     0
102
RTVSPropertyOp16
 70
     0
102
RTVSPropertyOp17
 70
     0
102
RTVSPropertyOp18
 70
     0
102
RTVSPropertyOp19
 70
     0
102
RTVSPropertyOp20
 70
     0
102
RTVSPropertyOp21
 70
     0
102
RTVSPropertyOp22
 70
     0
102
RTVSPropertyOp23
 70
     0
102
RTVSPropertyOp24
 70
     0
102
RTVSPropertyOp25
 70
     0
102
RTVSPropertyOp26
 70
     0
102
RTVSPropertyOp27
 70
     0
102
RTVSPropertyOp28
 70
     0
102
RTVSPropertyOp29
 70
     0
102
RTVSPropertyOp30
 70
     0
102
RTVSPropertyOp31
 70
     0
102
RTVSPropertyOp32
 70
     0
102
RTVSPropertyOp33
 70
     0
102
RTVSPropertyOp34
 70
     0
102
RTVSPropertyOp35
 70
     0
102
RTVSPropertyOp36
 70
     0
102
RTVSPropertyOp37
 70
     0
102
RTVSPropertyOp38
 70
     0
102
RTVSPropertyOp39
 70
     0
102
RTVSPropertyOp40
 70
     0
102
RTVSPropertyOp41
 70
     0
102
RTVSPropertyOp42
 70
     0
102
RTVSPropertyOp43
 70
     0
102
RTVSPropertyOp44
 70
     0
102
RTVSPropertyOp45
 70
     0
102
RTVSPropertyOp46
 70
     0
102
RTVSPropertyOp47
 70
     0
102
RTVSPropertyOp48
 70
     0
102
RTVSPropertyOp49
 70
     0
102
RTVSPropertyOp50
 70
     0
102
RTVSPropertyOp51
 70
     0
102
RTVSPropertyOp52
 70
     0
102
RTVSPropertyOp53
 70
     0
102
RTVSPropertyOp54
 70
     0
102
RTVSPropertyOp55
 70
     0
102
RTVSPropertyOp56
 70
     0
102
RTVSPropertyOp57
 70
     0
102
RTVSPost2010Prop28
280
     0
102
RTVSPost2010PropOp28
 70
     0
102
RTVSPost2010Prop29
280
     1
102
RTVSPost2010PropOp29
 70
     0
102
RTVSPost2010Prop30
280
     1
102
RTVSPost2010PropOp30
 70
     0
102
RTVSPost2010Prop31
280
     0
102
RTVSPost2010PropOp31
 70
     0
102
RTVSPost2010Prop32
280
     0
102
RTVSPost2010PropOp32
 70
     0
102
RTVSPost2010Prop33
280
     0
102
RTVSPost2010PropOp33
 70
     0
102
RTVSPost2010Prop34
280
     0
102
RTVSPost2010PropOp34
 70
     0
102
RTVSPost2010Prop35
280
     0
102
RTVSPost2010PropOp35
 70
     0
102
RTVSPost2010Prop36
280
     0
102
RTVSPost2010PropOp36
 70
     0
102
RTVSPost2010Prop37
 90
       50
102
RTVSPost2010PropOp37
 70
     0
102
RTVSPost2010Prop38
140
0.0
102
RTVSPost2010PropOp38
 70
     0
102
RTVSPost2010Prop39
140
1.0
102
RTVSPost2010PropOp39
 70
     0
102
RTVSPost2010Prop40
 90
        0
102
RTVSPost2010PropOp40
 70
     0
102
RTVSPost2010Prop41ColorIndex
 90
       18
102
RTVSPost2010Prop41ColorRGB
 90
        0
102
RTVSPost2010PropOp41
 70
     0
102
RTVSPost2010Prop42
 90
       50
102
RTVSPost2010PropOp42
 70
     0
102
RTVSPost2010Prop43
 90
        3
102
RTVSPost2010PropOp43
 70
     0
102
RTVSPost2010Prop44ColorIndex
 90
        5
102
RTVSPost2010Prop44ColorRGB
 90
      255
102
RTVSPost2010PropOp44
 70
     0
102
RTVSPost2010Prop45
280
     0
102
RTVSPost2010PropOp45
 70
     0
102
RTVSPost2010Prop46
 90
       50
102
RTVSPost2010PropOp46
 70
     0
102
RTVSPost2010Prop47
 90
       50
102
RTVSPost2010PropOp47
 70
     0
102
RTVSPost2010Prop48
 90
       50
102
RTVSPost2010PropOp48
 70
     0
102
RTVSPost2010Prop49
280
     0
102
RTVSPost2010PropOp49
 70
     0
102
RTVSPost2010Prop50
 90
       50
102
RTVSPost2010PropOp50
 70
     0
102
RTVSPost2010Prop51ColorIndex
 90
      256
102
RTVSPost2010Prop51ColorRGB
 90
-16777216
102
RTVSPost2010PropOp51
 70
     0
102
RTVSPost2010Prop52
140
1.0
102
RTVSPost2010PropOp52
 70
     0
102
RTVSPost2010Prop53
 90
        2
102
RTVSPost2010PropOp53
 70
     0
102
RTVSPost2010Prop54
  1
strokes_ogs.tif
102
RTVSPost2010PropOp54
 70
     0
102
RTVSPost2010Prop55
280
     0
102
RTVSPost2010PropOp55
 70
     0
102
RTVSPost2010Prop56
140
1.0
102
RTVSPost2010PropOp56
 70
     0
102
RTVSPost2010Prop57
140
1.0
102
RTVSPost2010PropOp57
 70
     0
  0
XRECORD
  5
240
102
{ACAD_REACTORS
330
23F
102
}
330
23F
100
AcDbXrecord
280
     1
102
RTVSPropertyOp0
 70
     1
102
RTVSPropertyOp1
 70
     1
102
RTVSPropertyOp2
 70
     1
102
RTVSPropertyOp3
 70
     1
102
RTVSPropertyOp4
 70
     1
102
RTVSPropertyOp5
 70
     1
102
RTVSPropertyOp6
 70
     1
102
RTVSPropertyOp7
 70
     1
102
RTVSPropertyOp8
 70
     1
102
RTVSPropertyOp9
 70
     1
102
RTVSPropertyOp10
 70
     1
102
RTVSPropertyOp11
 70
     1
102
RTVSPropertyOp12
 70
     1
102
RTVSPropertyOp13
 70
     1
102
RTVSPropertyOp14
 70
     1
102
RTVSPropertyOp15
 70
     1
102
RTVSPropertyOp16
 70
     1
102
RTVSPropertyOp17
 70
     1
102
RTVSPropertyOp18
 70
     1
102
RTVSPropertyOp19
 70
     1
102
RTVSPropertyOp20
 70
     1
102
RTVSPropertyOp21
 70
     1
102
RTVSPropertyOp22
 70
     1
102
RTVSPropertyOp23
 70
     1
102
RTVSPropertyOp24
 70
     1
102
RTVSPropertyOp25
 70
     1
102
RTVSPropertyOp26
 70
     1
102
RTVSPropertyOp27
 70
     1
102
RTVSPropertyOp28
 70
     1
102
RTVSPropertyOp29
 70
     1
102
RTVSPropertyOp30
 70
     1
102
RTVSPropertyOp31
 70
     1
102
RTVSPropertyOp32
 70
     1
102
RTVSPropertyOp33
 70
     1
102
RTVSPropertyOp34
 70
     1
102
RTVSPropertyOp35
 70
     1
102
RTVSPropertyOp36
 70
     1
102
RTVSPropertyOp37
 70
     1
102
RTVSPropertyOp38
 70
     1
102
RTVSPropertyOp39
 70
     1
102
RTVSPropertyOp40
 70
     1
102
RTVSPropertyOp41
 70
     1
102
RTVSPropertyOp42
 70
     1
102
RTVSPropertyOp43
 70
     1
102
RTVSPropertyOp44
 70
     1
102
RTVSPropertyOp45
 70
     1
102
RTVSPropertyOp46
 70
     1
102
RTVSPropertyOp47
 70
     1
102
RTVSPropertyOp48
 70
     1
102
RTVSPropertyOp49
 70
     1
102
RTVSPropertyOp50
 70
     1
102
RTVSPropertyOp51
 70
     0
102
RTVSPropertyOp52
 70
     0
102
RTVSPropertyOp53
 70
     1
102
RTVSPropertyOp54
 70
     1
102
RTVSPropertyOp55
 70
     1
102
RTVSPropertyOp56
 70
     1
102
RTVSPropertyOp57
 70
     1
102
RTVSPost2010Prop28
280
     0
102
RTVSPost2010PropOp28
 70
     1
102
RTVSPost2010Prop29
280
     1
102
RTVSPost2010PropOp29
 70
     1
102
RTVSPost2010Prop30
280
     1
102
RTVSPost2010PropOp30
 70
     1
102
RTVSPost2010Prop31
280
     0
102
RTVSPost2010PropOp31
 70
     1
102
RTVSPost2010Prop32
280
     0
102
RTVSPost2010PropOp32
 70
     1
102
RTVSPost2010Prop33
280
     0
102
RTVSPost2010PropOp33
 70
     1
102
RTVSPost2010Prop34
280
     0
102
RTVSPost2010PropOp34
 70
     1
102
RTVSPost2010Prop35
280
     0
102
RTVSPost2010PropOp35
 70
     1
102
RTVSPost2010Prop36
280
     0
102
RTVSPost2010PropOp36
 70
     1
102
RTVSPost2010Prop37
 90
       50
102
RTVSPost2010PropOp37
 70
     1
102
RTVSPost2010Prop38
140
0.0
102
RTVSPost2010PropOp38
 70
     1
102
RTVSPost2010Prop39
140
1.0
102
RTVSPost2010PropOp39
 70
     1
102
RTVSPost2010Prop40
 90
        0
102
RTVSPost2010PropOp40
 70
     1
102
RTVSPost2010Prop41ColorIndex
 90
       18
102
RTVSPost2010Prop41ColorRGB
 90
        0
102
RTVSPost2010PropOp41
 70
     1
102
RTVSPost2010Prop42
 90
       50
102
RTVSPost2010PropOp42
 70
     1
102
RTVSPost2010Prop43
 90
        3
102
RTVSPost2010PropOp43
 70
     1
102
RTVSPost2010Prop44ColorIndex
 90
        5
102
RTVSPost2010Prop44ColorRGB
 90
      255
102
RTVSPost2010PropOp44
 70
     1
102
RTVSPost2010Prop45
280
     0
102
RTVSPost2010PropOp45
 70
     1
102
RTVSPost2010Prop46
 90
       50
102
RTVSPost2010PropOp46
 70
     1
102
RTVSPost2010Prop47
 90
       50
102
RTVSPost2010PropOp47
 70
     1
102
RTVSPost2010Prop48
 90
       50
102
RTVSPost2010PropOp48
 70
     1
102
RTVSPost2010Prop49
280
     0
102
RTVSPost2010PropOp49
 70
     1
102
RTVSPost2010Prop50
 90
       50
102
RTVSPost2010PropOp50
 70
     1
102
RTVSPost2010Prop51ColorIndex
 90
      256
102
RTVSPost2010Prop51ColorRGB
 90
-16777216
102
RTVSPost2010PropOp51
 70
     0
102
RTVSPost2010Prop52
140
1.0
102
RTVSPost2010PropOp52
 70
     0
102
RTVSPost2010Prop53
 90
        2
102
RTVSPost2010PropOp53
 70
     1
102
RTVSPost2010Prop54
  1
strokes_ogs.tif
102
RTVSPost2010PropOp54
 70
     1
102
RTVSPost2010Prop55
280
     0
102
RTVSPost2010PropOp55
 70
     1
102
RTVSPost2010Prop56
140
1.0
102
RTVSPost2010PropOp56
 70
     1
102
RTVSPost2010Prop57
140
1.0
102
RTVSPost2010PropOp57
 70
     1
  0
XRECORD
  5
25E
102
{ACAD_REACTORS
330
25D
102
}
330
25D
100
AcDbXrecord
280
     1
102
RTVSPropertyOp0
 70
     1
102
RTVSPropertyOp1
 70
     1
102
RTVSPropertyOp2
 70
     1
102
RTVSPropertyOp3
 70
     1
102
RTVSPropertyOp4
 70
     1
102
RTVSPropertyOp5
 70
     1
102
RTVSPropertyOp6
 70
     1
102
RTVSPropertyOp7
 70
     1
102
RTVSPropertyOp8
 70
     1
102
RTVSPropertyOp9
 70
     1
102
RTVSPropertyOp10
 70
     1
102
RTVSPropertyOp11
 70
     1
102
RTVSPropertyOp12
 70
     1
102
RTVSPropertyOp13
 70
     1
102
RTVSPropertyOp14
 70
     1
102
RTVSPropertyOp15
 70
     1
102
RTVSPropertyOp16
 70
     1
102
RTVSPropertyOp17
 70
     1
102
RTVSPropertyOp18
 70
     1
102
RTVSPropertyOp19
 70
     1
102
RTVSPropertyOp20
 70
     1
102
RTVSPropertyOp21
 70
     1
102
RTVSPropertyOp22
 70
     1
102
RTVSPropertyOp23
 70
     1
102
RTVSPropertyOp24
 70
     1
102
RTVSPropertyOp25
 70
     1
102
RTVSPropertyOp26
 70
     1
102
RTVSPropertyOp27
 70
     1
102
RTVSPropertyOp28
 70
     1
102
RTVSPropertyOp29
 70
     1
102
RTVSPropertyOp30
 70
     1
102
RTVSPropertyOp31
 70
     1
102
RTVSPropertyOp32
 70
     1
102
RTVSPropertyOp33
 70
     1
102
RTVSPropertyOp34
 70
     1
102
RTVSPropertyOp35
 70
     1
102
RTVSPropertyOp36
 70
     1
102
RTVSPropertyOp37
 70
     1
102
RTVSPropertyOp38
 70
     1
102
RTVSPropertyOp39
 70
     1
102
RTVSPropertyOp40
 70
     1
102
RTVSPropertyOp41
 70
     1
102
RTVSPropertyOp42
 70
     1
102
RTVSPropertyOp43
 70
     1
102
RTVSPropertyOp44
 70
     1
102
RTVSPropertyOp45
 70
     1
102
RTVSPropertyOp46
 70
     1
102
RTVSPropertyOp47
 70
     1
102
RTVSPropertyOp48
 70
     1
102
RTVSPropertyOp49
 70
     1
102
RTVSPropertyOp50
 70
     1
102
RTVSPropertyOp51
 70
     0
102
RTVSPropertyOp52
 70
     0
102
RTVSPropertyOp53
 70
     1
102
RTVSPropertyOp54
 70
     1
102
RTVSPropertyOp55
 70
     1
102
RTVSPropertyOp56
 70
     1
102
RTVSPropertyOp57
 70
     1
102
RTVSPost2010Prop28
280
     0
102
RTVSPost2010PropOp28
 70
     1
102
RTVSPost2010Prop29
280
     1
102
RTVSPost2010PropOp29
 70
     1
102
RTVSPost2010Prop30
280
     1
102
RTVSPost2010PropOp30
 70
     1
102
RTVSPost2010Prop31
280
     0
102
RTVSPost2010PropOp31
 70
     1
102
RTVSPost2010Prop32
280
     0
102
RTVSPost2010PropOp32
 70
     1
102
RTVSPost2010Prop33
280
     0
102
RTVSPost2010PropOp33
 70
     1
102
RTVSPost2010Prop34
280
     0
102
RTVSPost2010PropOp34
 70
     1
102
RTVSPost2010Prop35
280
     0
102
RTVSPost2010PropOp35
 70
     1
102
RTVSPost2010Prop36
280
     0
102
RTVSPost2010PropOp36
 70
     1
102
RTVSPost2010Prop37
 90
       50
102
RTVSPost2010PropOp37
 70
     1
102
RTVSPost2010Prop38
140
0.0
102
RTVSPost2010PropOp38
 70
     1
102
RTVSPost2010Prop39
140
1.0
102
RTVSPost2010PropOp39
 70
     1
102
RTVSPost2010Prop40
 90
        0
102
RTVSPost2010PropOp40
 70
     1
102
RTVSPost2010Prop41ColorIndex
 90
       18
102
RTVSPost2010Prop41ColorRGB
 90
        0
102
RTVSPost2010PropOp41
 70
     1
102
RTVSPost2010Prop42
 90
       50
102
RTVSPost2010PropOp42
 70
     1
102
RTVSPost2010Prop43
 90
        3
102
RTVSPost2010PropOp43
 70
     1
102
RTVSPost2010Prop44ColorIndex
 90
        5
102
RTVSPost2010Prop44ColorRGB
 90
      255
102
RTVSPost2010PropOp44
 70
     1
102
RTVSPost2010Prop45
280
     0
102
RTVSPost2010PropOp45
 70
     1
102
RTVSPost2010Prop46
 90
       50
102
RTVSPost2010PropOp46
 70
     1
102
RTVSPost2010Prop47
 90
       50
102
RTVSPost2010PropOp47
 70
     1
102
RTVSPost2010Prop48
 90
       50
102
RTVSPost2010PropOp48
 70
     1
102
RTVSPost2010Prop49
280
     0
102
RTVSPost2010PropOp49
 70
     1
102
RTVSPost2010Prop50
 90
       50
102
RTVSPost2010PropOp50
 70
     1
102
RTVSPost2010Prop51ColorIndex
 90
      256
102
RTVSPost2010Prop51ColorRGB
 90
-16777216
102
RTVSPost2010PropOp51
 70
     0
102
RTVSPost2010Prop52
140
1.0
102
RTVSPost2010PropOp52
 70
     0
102
RTVSPost2010Prop53
 90
        2
102
RTVSPost2010PropOp53
 70
     1
102
RTVSPost2010Prop54
  1
strokes_ogs.tif
102
RTVSPost2010PropOp54
 70
     1
102
RTVSPost2010Prop55
280
     0
102
RTVSPost2010PropOp55
 70
     1
102
RTVSPost2010Prop56
140
1.0
102
RTVSPost2010PropOp56
 70
     1
102
RTVSPost2010Prop57
140
1.0
102
RTVSPost2010PropOp57
 70
     1
  0
XRECORD
  5
25C
102
{ACAD_REACTORS
330
25B
102
}
330
25B
100
AcDbXrecord
280
     1
102
RTVSPropertyOp0
 70
     1
102
RTVSPropertyOp1
 70
     1
102
RTVSPropertyOp2
 70
     1
102
RTVSPropertyOp3
 70
     1
102
RTVSPropertyOp4
 70
     1
102
RTVSPropertyOp5
 70
     1
102
RTVSPropertyOp6
 70
     1
102
RTVSPropertyOp7
 70
     1
102
RTVSPropertyOp8
 70
     1
102
RTVSPropertyOp9
 70
     1
102
RTVSPropertyOp10
 70
     1
102
RTVSPropertyOp11
 70
     1
102
RTVSPropertyOp12
 70
     1
102
RTVSPropertyOp13
 70
     1
102
RTVSPropertyOp14
 70
     1
102
RTVSPropertyOp15
 70
     1
102
RTVSPropertyOp16
 70
     1
102
RTVSPropertyOp17
 70
     1
102
RTVSPropertyOp18
 70
     1
102
RTVSPropertyOp19
 70
     1
102
RTVSPropertyOp20
 70
     1
102
RTVSPropertyOp21
 70
     1
102
RTVSPropertyOp22
 70
     1
102
RTVSPropertyOp23
 70
     1
102
RTVSPropertyOp24
 70
     1
102
RTVSPropertyOp25
 70
     1
102
RTVSPropertyOp26
 70
     1
102
RTVSPropertyOp27
 70
     1
102
RTVSPropertyOp28
 70
     1
102
RTVSPropertyOp29
 70
     1
102
RTVSPropertyOp30
 70
     1
102
RTVSPropertyOp31
 70
     1
102
RTVSPropertyOp32
 70
     1
102
RTVSPropertyOp33
 70
     1
102
RTVSPropertyOp34
 70
     1
102
RTVSPropertyOp35
 70
     1
102
RTVSPropertyOp36
 70
     1
102
RTVSPropertyOp37
 70
     1
102
RTVSPropertyOp38
 70
     1
102
RTVSPropertyOp39
 70
     1
102
RTVSPropertyOp40
 70
     1
102
RTVSPropertyOp41
 70
     1
102
RTVSPropertyOp42
 70
     1
102
RTVSPropertyOp43
 70
     1
102
RTVSPropertyOp44
 70
     1
102
RTVSPropertyOp45
 70
     1
102
RTVSPropertyOp46
 70
     1
102
RTVSPropertyOp47
 70
     1
102
RTVSPropertyOp48
 70
     1
102
RTVSPropertyOp49
 70
     1
102
RTVSPropertyOp50
 70
     1
102
RTVSPropertyOp51
 70
     0
102
RTVSPropertyOp52
 70
     0
102
RTVSPropertyOp53
 70
     1
102
RTVSPropertyOp54
 70
     1
102
RTVSPropertyOp55
 70
     1
102
RTVSPropertyOp56
 70
     1
102
RTVSPropertyOp57
 70
     1
102
RTVSPost2010Prop28
280
     0
102
RTVSPost2010PropOp28
 70
     1
102
RTVSPost2010Prop29
280
     1
102
RTVSPost2010PropOp29
 70
     1
102
RTVSPost2010Prop30
280
     1
102
RTVSPost2010PropOp30
 70
     1
102
RTVSPost2010Prop31
280
     0
102
RTVSPost2010PropOp31
 70
     1
102
RTVSPost2010Prop32
280
     0
102
RTVSPost2010PropOp32
 70
     1
102
RTVSPost2010Prop33
280
     0
102
RTVSPost2010PropOp33
 70
     1
102
RTVSPost2010Prop34
280
     0
102
RTVSPost2010PropOp34
 70
     1
102
RTVSPost2010Prop35
280
     0
102
RTVSPost2010PropOp35
 70
     1
102
RTVSPost2010Prop36
280
     0
102
RTVSPost2010PropOp36
 70
     1
102
RTVSPost2010Prop37
 90
       50
102
RTVSPost2010PropOp37
 70
     1
102
RTVSPost2010Prop38
140
0.0
102
RTVSPost2010PropOp38
 70
     1
102
RTVSPost2010Prop39
140
1.0
102
RTVSPost2010PropOp39
 70
     1
102
RTVSPost2010Prop40
 90
        0
102
RTVSPost2010PropOp40
 70
     1
102
RTVSPost2010Prop41ColorIndex
 90
       18
102
RTVSPost2010Prop41ColorRGB
 90
        0
102
RTVSPost2010PropOp41
 70
     1
102
RTVSPost2010Prop42
 90
       50
102
RTVSPost2010PropOp42
 70
     1
102
RTVSPost2010Prop43
 90
        3
102
RTVSPost2010PropOp43
 70
     1
102
RTVSPost2010Prop44ColorIndex
 90
        5
102
RTVSPost2010Prop44ColorRGB
 90
      255
102
RTVSPost2010PropOp44
 70
     1
102
RTVSPost2010Prop45
280
     0
102
RTVSPost2010PropOp45
 70
     1
102
RTVSPost2010Prop46
 90
       50
102
RTVSPost2010PropOp46
 70
     1
102
RTVSPost2010Prop47
 90
       50
102
RTVSPost2010PropOp47
 70
     1
102
RTVSPost2010Prop48
 90
       50
102
RTVSPost2010PropOp48
 70
     1
102
RTVSPost2010Prop49
280
     0
102
RTVSPost2010PropOp49
 70
     1
102
RTVSPost2010Prop50
 90
       50
102
RTVSPost2010PropOp50
 70
     1
102
RTVSPost2010Prop51ColorIndex
 90
      256
102
RTVSPost2010Prop51ColorRGB
 90
-16777216
102
RTVSPost2010PropOp51
 70
     0
102
RTVSPost2010Prop52
140
1.0
102
RTVSPost2010PropOp52
 70
     0
102
RTVSPost2010Prop53
 90
        2
102
RTVSPost2010PropOp53
 70
     1
102
RTVSPost2010Prop54
  1
strokes_ogs.tif
102
RTVSPost2010PropOp54
 70
     1
102
RTVSPost2010Prop55
280
     0
102
RTVSPost2010PropOp55
 70
     1
102
RTVSPost2010Prop56
140
1.0
102
RTVSPost2010PropOp56
 70
     1
102
RTVSPost2010Prop57
140
1.0
102
RTVSPost2010PropOp57
 70
     1
  0
XRECORD
  5
256
102
{ACAD_REACTORS
330
255
102
}
330
255
100
AcDbXrecord
280
     1
102
RTVSPropertyOp0
 70
     1
102
RTVSPropertyOp1
 70
     1
102
RTVSPropertyOp2
 70
     1
102
RTVSPropertyOp3
 70
     1
102
RTVSPropertyOp4
 70
     1
102
RTVSPropertyOp5
 70
     1
102
RTVSPropertyOp6
 70
     1
102
RTVSPropertyOp7
 70
     1
102
RTVSPropertyOp8
 70
     1
102
RTVSPropertyOp9
 70
     1
102
RTVSPropertyOp10
 70
     1
102
RTVSPropertyOp11
 70
     1
102
RTVSPropertyOp12
 70
     1
102
RTVSPropertyOp13
 70
     1
102
RTVSPropertyOp14
 70
     1
102
RTVSPropertyOp15
 70
     1
102
RTVSPropertyOp16
 70
     1
102
RTVSPropertyOp17
 70
     1
102
RTVSPropertyOp18
 70
     1
102
RTVSPropertyOp19
 70
     1
102
RTVSPropertyOp20
 70
     1
102
RTVSPropertyOp21
 70
     1
102
RTVSPropertyOp22
 70
     1
102
RTVSPropertyOp23
 70
     1
102
RTVSPropertyOp24
 70
     1
102
RTVSPropertyOp25
 70
     1
102
RTVSPropertyOp26
 70
     1
102
RTVSPropertyOp27
 70
     1
102
RTVSPropertyOp28
 70
     1
102
RTVSPropertyOp29
 70
     1
102
RTVSPropertyOp30
 70
     1
102
RTVSPropertyOp31
 70
     1
102
RTVSPropertyOp32
 70
     1
102
RTVSPropertyOp33
 70
     1
102
RTVSPropertyOp34
 70
     1
102
RTVSPropertyOp35
 70
     1
102
RTVSPropertyOp36
 70
     1
102
RTVSPropertyOp37
 70
     1
102
RTVSPropertyOp38
 70
     1
102
RTVSPropertyOp39
 70
     1
102
RTVSPropertyOp40
 70
     1
102
RTVSPropertyOp41
 70
     1
102
RTVSPropertyOp42
 70
     1
102
RTVSPropertyOp43
 70
     1
102
RTVSPropertyOp44
 70
     1
102
RTVSPropertyOp45
 70
     1
102
RTVSPropertyOp46
 70
     1
102
RTVSPropertyOp47
 70
     1
102
RTVSPropertyOp48
 70
     1
102
RTVSPropertyOp49
 70
     1
102
RTVSPropertyOp50
 70
     1
102
RTVSPropertyOp51
 70
     0
102
RTVSPropertyOp52
 70
     0
102
RTVSPropertyOp53
 70
     1
102
RTVSPropertyOp54
 70
     1
102
RTVSPropertyOp55
 70
     1
102
RTVSPropertyOp56
 70
     1
102
RTVSPropertyOp57
 70
     1
102
RTVSPost2010Prop28
280
     0
102
RTVSPost2010PropOp28
 70
     1
102
RTVSPost2010Prop29
280
     1
102
RTVSPost2010PropOp29
 70
     1
102
RTVSPost2010Prop30
280
     1
102
RTVSPost2010PropOp30
 70
     1
102
RTVSPost2010Prop31
280
     0
102
RTVSPost2010PropOp31
 70
     1
102
RTVSPost2010Prop32
280
     0
102
RTVSPost2010PropOp32
 70
     1
102
RTVSPost2010Prop33
280
     0
102
RTVSPost2010PropOp33
 70
     1
102
RTVSPost2010Prop34
280
     0
102
RTVSPost2010PropOp34
 70
     1
102
RTVSPost2010Prop35
280
     0
102
RTVSPost2010PropOp35
 70
     1
102
RTVSPost2010Prop36
280
     0
102
RTVSPost2010PropOp36
 70
     1
102
RTVSPost2010Prop37
 90
       50
102
RTVSPost2010PropOp37
 70
     1
102
RTVSPost2010Prop38
140
0.0
102
RTVSPost2010PropOp38
 70
     1
102
RTVSPost2010Prop39
140
1.0
102
RTVSPost2010PropOp39
 70
     1
102
RTVSPost2010Prop40
 90
        0
102
RTVSPost2010PropOp40
 70
     1
102
RTVSPost2010Prop41ColorIndex
 90
       18
102
RTVSPost2010Prop41ColorRGB
 90
        0
102
RTVSPost2010PropOp41
 70
     1
102
RTVSPost2010Prop42
 90
       50
102
RTVSPost2010PropOp42
 70
     1
102
RTVSPost2010Prop43
 90
        3
102
RTVSPost2010PropOp43
 70
     1
102
RTVSPost2010Prop44ColorIndex
 90
        5
102
RTVSPost2010Prop44ColorRGB
 90
      255
102
RTVSPost2010PropOp44
 70
     1
102
RTVSPost2010Prop45
280
     0
102
RTVSPost2010PropOp45
 70
     1
102
RTVSPost2010Prop46
 90
       50
102
RTVSPost2010PropOp46
 70
     1
102
RTVSPost2010Prop47
 90
       50
102
RTVSPost2010PropOp47
 70
     1
102
RTVSPost2010Prop48
 90
       50
102
RTVSPost2010PropOp48
 70
     1
102
RTVSPost2010Prop49
280
     0
102
RTVSPost2010PropOp49
 70
     1
102
RTVSPost2010Prop50
 90
       50
102
RTVSPost2010PropOp50
 70
     1
102
RTVSPost2010Prop51ColorIndex
 90
      256
102
RTVSPost2010Prop51ColorRGB
 90
-16777216
102
RTVSPost2010PropOp51
 70
     0
102
RTVSPost2010Prop52
140
1.0
102
RTVSPost2010PropOp52
 70
     0
102
RTVSPost2010Prop53
 90
        2
102
RTVSPost2010PropOp53
 70
     1
102
RTVSPost2010Prop54
  1
strokes_ogs.tif
102
RTVSPost2010PropOp54
 70
     1
102
RTVSPost2010Prop55
280
     0
102
RTVSPost2010PropOp55
 70
     1
102
RTVSPost2010Prop56
140
1.0
102
RTVSPost2010PropOp56
 70
     1
102
RTVSPost2010Prop57
140
1.0
102
RTVSPost2010PropOp57
 70
     1
  0
XRECORD
  5
258
102
{ACAD_REACTORS
330
257
102
}
330
257
100
AcDbXrecord
280
     1
102
RTVSPropertyOp0
 70
     1
102
RTVSPropertyOp1
 70
     1
102
RTVSPropertyOp2
 70
     1
102
RTVSPropertyOp3
 70
     1
102
RTVSPropertyOp4
 70
     1
102
RTVSPropertyOp5
 70
     1
102
RTVSPropertyOp6
 70
     1
102
RTVSPropertyOp7
 70
     1
102
RTVSPropertyOp8
 70
     1
102
RTVSPropertyOp9
 70
     1
102
RTVSPropertyOp10
 70
     1
102
RTVSPropertyOp11
 70
     1
102
RTVSPropertyOp12
 70
     1
102
RTVSPropertyOp13
 70
     1
102
RTVSPropertyOp14
 70
     1
102
RTVSPropertyOp15
 70
     1
102
RTVSPropertyOp16
 70
     1
102
RTVSPropertyOp17
 70
     1
102
RTVSPropertyOp18
 70
     1
102
RTVSPropertyOp19
 70
     1
102
RTVSPropertyOp20
 70
     1
102
RTVSPropertyOp21
 70
     1
102
RTVSPropertyOp22
 70
     1
102
RTVSPropertyOp23
 70
     1
102
RTVSPropertyOp24
 70
     1
102
RTVSPropertyOp25
 70
     1
102
RTVSPropertyOp26
 70
     1
102
RTVSPropertyOp27
 70
     1
102
RTVSPropertyOp28
 70
     1
102
RTVSPropertyOp29
 70
     1
102
RTVSPropertyOp30
 70
     1
102
RTVSPropertyOp31
 70
     1
102
RTVSPropertyOp32
 70
     1
102
RTVSPropertyOp33
 70
     1
102
RTVSPropertyOp34
 70
     1
102
RTVSPropertyOp35
 70
     1
102
RTVSPropertyOp36
 70
     1
102
RTVSPropertyOp37
 70
     1
102
RTVSPropertyOp38
 70
     1
102
RTVSPropertyOp39
 70
     1
102
RTVSPropertyOp40
 70
     1
102
RTVSPropertyOp41
 70
     1
102
RTVSPropertyOp42
 70
     1
102
RTVSPropertyOp43
 70
     1
102
RTVSPropertyOp44
 70
     1
102
RTVSPropertyOp45
 70
     1
102
RTVSPropertyOp46
 70
     1
102
RTVSPropertyOp47
 70
     1
102
RTVSPropertyOp48
 70
     1
102
RTVSPropertyOp49
 70
     1
102
RTVSPropertyOp50
 70
     1
102
RTVSPropertyOp51
 70
     0
102
RTVSPropertyOp52
 70
     0
102
RTVSPropertyOp53
 70
     1
102
RTVSPropertyOp54
 70
     1
102
RTVSPropertyOp55
 70
     1
102
RTVSPropertyOp56
 70
     1
102
RTVSPropertyOp57
 70
     1
102
RTVSPost2010Prop28
280
     0
102
RTVSPost2010PropOp28
 70
     1
102
RTVSPost2010Prop29
280
     1
102
RTVSPost2010PropOp29
 70
     1
102
RTVSPost2010Prop30
280
     1
102
RTVSPost2010PropOp30
 70
     1
102
RTVSPost2010Prop31
280
     0
102
RTVSPost2010PropOp31
 70
     1
102
RTVSPost2010Prop32
280
     0
102
RTVSPost2010PropOp32
 70
     1
102
RTVSPost2010Prop33
280
     0
102
RTVSPost2010PropOp33
 70
     1
102
RTVSPost2010Prop34
280
     0
102
RTVSPost2010PropOp34
 70
     1
102
RTVSPost2010Prop35
280
     0
102
RTVSPost2010PropOp35
 70
     1
102
RTVSPost2010Prop36
280
     0
102
RTVSPost2010PropOp36
 70
     1
102
RTVSPost2010Prop37
 90
       50
102
RTVSPost2010PropOp37
 70
     1
102
RTVSPost2010Prop38
140
0.0
102
RTVSPost2010PropOp38
 70
     1
102
RTVSPost2010Prop39
140
1.0
102
RTVSPost2010PropOp39
 70
     1
102
RTVSPost2010Prop40
 90
        0
102
RTVSPost2010PropOp40
 70
     1
102
RTVSPost2010Prop41ColorIndex
 90
       18
102
RTVSPost2010Prop41ColorRGB
 90
        0
102
RTVSPost2010PropOp41
 70
     1
102
RTVSPost2010Prop42
 90
       50
102
RTVSPost2010PropOp42
 70
     1
102
RTVSPost2010Prop43
 90
        3
102
RTVSPost2010PropOp43
 70
     1
102
RTVSPost2010Prop44ColorIndex
 90
        5
102
RTVSPost2010Prop44ColorRGB
 90
      255
102
RTVSPost2010PropOp44
 70
     1
102
RTVSPost2010Prop45
280
     0
102
RTVSPost2010PropOp45
 70
     1
102
RTVSPost2010Prop46
 90
       50
102
RTVSPost2010PropOp46
 70
     1
102
RTVSPost2010Prop47
 90
       50
102
RTVSPost2010PropOp47
 70
     1
102
RTVSPost2010Prop48
 90
       50
102
RTVSPost2010PropOp48
 70
     1
102
RTVSPost2010Prop49
280
     0
102
RTVSPost2010PropOp49
 70
     1
102
RTVSPost2010Prop50
 90
       50
102
RTVSPost2010PropOp50
 70
     1
102
RTVSPost2010Prop51ColorIndex
 90
      256
102
RTVSPost2010Prop51ColorRGB
 90
-16777216
102
RTVSPost2010PropOp51
 70
     0
102
RTVSPost2010Prop52
140
1.0
102
RTVSPost2010PropOp52
 70
     0
102
RTVSPost2010Prop53
 90
        2
102
RTVSPost2010PropOp53
 70
     1
102
RTVSPost2010Prop54
  1
strokes_ogs.tif
102
RTVSPost2010PropOp54
 70
     1
102
RTVSPost2010Prop55
280
     0
102
RTVSPost2010PropOp55
 70
     1
102
RTVSPost2010Prop56
140
1.0
102
RTVSPost2010PropOp56
 70
     1
102
RTVSPost2010Prop57
140
1.0
102
RTVSPost2010PropOp57
 70
     1
  0
XRECORD
  5
248
102
{ACAD_REACTORS
330
247
102
}
330
247
100
AcDbXrecord
280
     1
102
RTVSPropertyOp0
 70
     1
102
RTVSPropertyOp1
 70
     1
102
RTVSPropertyOp2
 70
     1
102
RTVSPropertyOp3
 70
     1
102
RTVSPropertyOp4
 70
     1
102
RTVSPropertyOp5
 70
     1
102
RTVSPropertyOp6
 70
     1
102
RTVSPropertyOp7
 70
     1
102
RTVSPropertyOp8
 70
     1
102
RTVSPropertyOp9
 70
     1
102
RTVSPropertyOp10
 70
     1
102
RTVSPropertyOp11
 70
     1
102
RTVSPropertyOp12
 70
     1
102
RTVSPropertyOp13
 70
     1
102
RTVSPropertyOp14
 70
     1
102
RTVSPropertyOp15
 70
     1
102
RTVSPropertyOp16
 70
     1
102
RTVSPropertyOp17
 70
     1
102
RTVSPropertyOp18
 70
     1
102
RTVSPropertyOp19
 70
     1
102
RTVSPropertyOp20
 70
     1
102
RTVSPropertyOp21
 70
     1
102
RTVSPropertyOp22
 70
     1
102
RTVSPropertyOp23
 70
     1
102
RTVSPropertyOp24
 70
     1
102
RTVSPropertyOp25
 70
     1
102
RTVSPropertyOp26
 70
     1
102
RTVSPropertyOp27
 70
     1
102
RTVSPropertyOp28
 70
     1
102
RTVSPropertyOp29
 70
     1
102
RTVSPropertyOp30
 70
     1
102
RTVSPropertyOp31
 70
     1
102
RTVSPropertyOp32
 70
     1
102
RTVSPropertyOp33
 70
     1
102
RTVSPropertyOp34
 70
     1
102
RTVSPropertyOp35
 70
     1
102
RTVSPropertyOp36
 70
     1
102
RTVSPropertyOp37
 70
     1
102
RTVSPropertyOp38
 70
     1
102
RTVSPropertyOp39
 70
     1
102
RTVSPropertyOp40
 70
     1
102
RTVSPropertyOp41
 70
     1
102
RTVSPropertyOp42
 70
     1
102
RTVSPropertyOp43
 70
     1
102
RTVSPropertyOp44
 70
     1
102
RTVSPropertyOp45
 70
     1
102
RTVSPropertyOp46
 70
     1
102
RTVSPropertyOp47
 70
     1
102
RTVSPropertyOp48
 70
     1
102
RTVSPropertyOp49
 70
     1
102
RTVSPropertyOp50
 70
     1
102
RTVSPropertyOp51
 70
     0
102
RTVSPropertyOp52
 70
     0
102
RTVSPropertyOp53
 70
     1
102
RTVSPropertyOp54
 70
     1
102
RTVSPropertyOp55
 70
     1
102
RTVSPropertyOp56
 70
     1
102
RTVSPropertyOp57
 70
     1
102
RTVSPost2010Prop28
280
     0
102
RTVSPost2010PropOp28
 70
     1
102
RTVSPost2010Prop29
280
     1
102
RTVSPost2010PropOp29
 70
     1
102
RTVSPost2010Prop30
280
     1
102
RTVSPost2010PropOp30
 70
     1
102
RTVSPost2010Prop31
280
     0
102
RTVSPost2010PropOp31
 70
     1
102
RTVSPost2010Prop32
280
     0
102
RTVSPost2010PropOp32
 70
     1
102
RTVSPost2010Prop33
280
     0
102
RTVSPost2010PropOp33
 70
     1
102
RTVSPost2010Prop34
280
     0
102
RTVSPost2010PropOp34
 70
     1
102
RTVSPost2010Prop35
280
     0
102
RTVSPost2010PropOp35
 70
     1
102
RTVSPost2010Prop36
280
     0
102
RTVSPost2010PropOp36
 70
     1
102
RTVSPost2010Prop37
 90
       50
102
RTVSPost2010PropOp37
 70
     1
102
RTVSPost2010Prop38
140
0.0
102
RTVSPost2010PropOp38
 70
     1
102
RTVSPost2010Prop39
140
1.0
102
RTVSPost2010PropOp39
 70
     1
102
RTVSPost2010Prop40
 90
        0
102
RTVSPost2010PropOp40
 70
     1
102
RTVSPost2010Prop41ColorIndex
 90
       18
102
RTVSPost2010Prop41ColorRGB
 90
        0
102
RTVSPost2010PropOp41
 70
     1
102
RTVSPost2010Prop42
 90
       50
102
RTVSPost2010PropOp42
 70
     1
102
RTVSPost2010Prop43
 90
        3
102
RTVSPost2010PropOp43
 70
     1
102
RTVSPost2010Prop44ColorIndex
 90
        5
102
RTVSPost2010Prop44ColorRGB
 90
      255
102
RTVSPost2010PropOp44
 70
     1
102
RTVSPost2010Prop45
280
     0
102
RTVSPost2010PropOp45
 70
     1
102
RTVSPost2010Prop46
 90
       50
102
RTVSPost2010PropOp46
 70
     1
102
RTVSPost2010Prop47
 90
       50
102
RTVSPost2010PropOp47
 70
     1
102
RTVSPost2010Prop48
 90
       50
102
RTVSPost2010PropOp48
 70
     1
102
RTVSPost2010Prop49
280
     0
102
RTVSPost2010PropOp49
 70
     1
102
RTVSPost2010Prop50
 90
       50
102
RTVSPost2010PropOp50
 70
     1
102
RTVSPost2010Prop51ColorIndex
 90
      256
102
RTVSPost2010Prop51ColorRGB
 90
-16777216
102
RTVSPost2010PropOp51
 70
     0
102
RTVSPost2010Prop52
140
1.0
102
RTVSPost2010PropOp52
 70
     0
102
RTVSPost2010Prop53
 90
        2
102
RTVSPost2010PropOp53
 70
     1
102
RTVSPost2010Prop54
  1
strokes_ogs.tif
102
RTVSPost2010PropOp54
 70
     1
102
RTVSPost2010Prop55
280
     0
102
RTVSPost2010PropOp55
 70
     1
102
RTVSPost2010Prop56
140
1.0
102
RTVSPost2010PropOp56
 70
     1
102
RTVSPost2010Prop57
140
1.0
102
RTVSPost2010PropOp57
 70
     1
  0
XRECORD
  5
23A
102
{ACAD_REACTORS
330
239
102
}
330
239
100
AcDbXrecord
280
     1
102
RTVSPropertyOp0
 70
     1
102
RTVSPropertyOp1
 70
     1
102
RTVSPropertyOp2
 70
     1
102
RTVSPropertyOp3
 70
     1
102
RTVSPropertyOp4
 70
     1
102
RTVSPropertyOp5
 70
     1
102
RTVSPropertyOp6
 70
     1
102
RTVSPropertyOp7
 70
     1
102
RTVSPropertyOp8
 70
     1
102
RTVSPropertyOp9
 70
     1
102
RTVSPropertyOp10
 70
     1
102
RTVSPropertyOp11
 70
     1
102
RTVSPropertyOp12
 70
     1
102
RTVSPropertyOp13
 70
     1
102
RTVSPropertyOp14
 70
     1
102
RTVSPropertyOp15
 70
     1
102
RTVSPropertyOp16
 70
     1
102
RTVSPropertyOp17
 70
     1
102
RTVSPropertyOp18
 70
     1
102
RTVSPropertyOp19
 70
     1
102
RTVSPropertyOp20
 70
     1
102
RTVSPropertyOp21
 70
     1
102
RTVSPropertyOp22
 70
     1
102
RTVSPropertyOp23
 70
     1
102
RTVSPropertyOp24
 70
     1
102
RTVSPropertyOp25
 70
     1
102
RTVSPropertyOp26
 70
     1
102
RTVSPropertyOp27
 70
     1
102
RTVSPropertyOp28
 70
     1
102
RTVSPropertyOp29
 70
     1
102
RTVSPropertyOp30
 70
     1
102
RTVSPropertyOp31
 70
     1
102
RTVSPropertyOp32
 70
     1
102
RTVSPropertyOp33
 70
     1
102
RTVSPropertyOp34
 70
     1
102
RTVSPropertyOp35
 70
     1
102
RTVSPropertyOp36
 70
     1
102
RTVSPropertyOp37
 70
     1
102
RTVSPropertyOp38
 70
     1
102
RTVSPropertyOp39
 70
     1
102
RTVSPropertyOp40
 70
     1
102
RTVSPropertyOp41
 70
     1
102
RTVSPropertyOp42
 70
     1
102
RTVSPropertyOp43
 70
     1
102
RTVSPropertyOp44
 70
     1
102
RTVSPropertyOp45
 70
     1
102
RTVSPropertyOp46
 70
     1
102
RTVSPropertyOp47
 70
     1
102
RTVSPropertyOp48
 70
     1
102
RTVSPropertyOp49
 70
     1
102
RTVSPropertyOp50
 70
     1
102
RTVSPropertyOp51
 70
     0
102
RTVSPropertyOp52
 70
     0
102
RTVSPropertyOp53
 70
     1
102
RTVSPropertyOp54
 70
     1
102
RTVSPropertyOp55
 70
     1
102
RTVSPropertyOp56
 70
     1
102
RTVSPropertyOp57
 70
     1
102
RTVSPost2010Prop28
280
     0
102
RTVSPost2010PropOp28
 70
     1
102
RTVSPost2010Prop29
280
     1
102
RTVSPost2010PropOp29
 70
     1
102
RTVSPost2010Prop30
280
     1
102
RTVSPost2010PropOp30
 70
     1
102
RTVSPost2010Prop31
280
     0
102
RTVSPost2010PropOp31
 70
     1
102
RTVSPost2010Prop32
280
     0
102
RTVSPost2010PropOp32
 70
     1
102
RTVSPost2010Prop33
280
     0
102
RTVSPost2010PropOp33
 70
     1
102
RTVSPost2010Prop34
280
     0
102
RTVSPost2010PropOp34
 70
     1
102
RTVSPost2010Prop35
280
     0
102
RTVSPost2010PropOp35
 70
     1
102
RTVSPost2010Prop36
280
     0
102
RTVSPost2010PropOp36
 70
     1
102
RTVSPost2010Prop37
 90
       50
102
RTVSPost2010PropOp37
 70
     1
102
RTVSPost2010Prop38
140
0.0
102
RTVSPost2010PropOp38
 70
     1
102
RTVSPost2010Prop39
140
1.0
102
RTVSPost2010PropOp39
 70
     1
102
RTVSPost2010Prop40
 90
        0
102
RTVSPost2010PropOp40
 70
     1
102
RTVSPost2010Prop41ColorIndex
 90
       18
102
RTVSPost2010Prop41ColorRGB
 90
        0
102
RTVSPost2010PropOp41
 70
     1
102
RTVSPost2010Prop42
 90
       50
102
RTVSPost2010PropOp42
 70
     1
102
RTVSPost2010Prop43
 90
        3
102
RTVSPost2010PropOp43
 70
     1
102
RTVSPost2010Prop44ColorIndex
 90
        5
102
RTVSPost2010Prop44ColorRGB
 90
      255
102
RTVSPost2010PropOp44
 70
     1
102
RTVSPost2010Prop45
280
     0
102
RTVSPost2010PropOp45
 70
     1
102
RTVSPost2010Prop46
 90
       50
102
RTVSPost2010PropOp46
 70
     1
102
RTVSPost2010Prop47
 90
       50
102
RTVSPost2010PropOp47
 70
     1
102
RTVSPost2010Prop48
 90
       50
102
RTVSPost2010PropOp48
 70
     1
102
RTVSPost2010Prop49
280
     0
102
RTVSPost2010PropOp49
 70
     1
102
RTVSPost2010Prop50
 90
       50
102
RTVSPost2010PropOp50
 70
     1
102
RTVSPost2010Prop51ColorIndex
 90
      256
102
RTVSPost2010Prop51ColorRGB
 90
-16777216
102
RTVSPost2010PropOp51
 70
     0
102
RTVSPost2010Prop52
140
1.0
102
RTVSPost2010PropOp52
 70
     0
102
RTVSPost2010Prop53
 90
        2
102
RTVSPost2010PropOp53
 70
     1
102
RTVSPost2010Prop54
  1
strokes_ogs.tif
102
RTVSPost2010PropOp54
 70
     1
102
RTVSPost2010Prop55
280
     0
102
RTVSPost2010PropOp55
 70
     1
102
RTVSPost2010Prop56
140
1.0
102
RTVSPost2010PropOp56
 70
     1
102
RTVSPost2010Prop57
140
1.0
102
RTVSPost2010PropOp57
 70
     1
  0
XRECORD
  5
25A
102
{ACAD_REACTORS
330
259
102
}
330
259
100
AcDbXrecord
280
     1
102
RTVSPropertyOp0
 70
     1
102
RTVSPropertyOp1
 70
     1
102
RTVSPropertyOp2
 70
     1
102
RTVSPropertyOp3
 70
     1
102
RTVSPropertyOp4
 70
     1
102
RTVSPropertyOp5
 70
     1
102
RTVSPropertyOp6
 70
     1
102
RTVSPropertyOp7
 70
     1
102
RTVSPropertyOp8
 70
     1
102
RTVSPropertyOp9
 70
     1
102
RTVSPropertyOp10
 70
     1
102
RTVSPropertyOp11
 70
     1
102
RTVSPropertyOp12
 70
     1
102
RTVSPropertyOp13
 70
     1
102
RTVSPropertyOp14
 70
     1
102
RTVSPropertyOp15
 70
     1
102
RTVSPropertyOp16
 70
     1
102
RTVSPropertyOp17
 70
     1
102
RTVSPropertyOp18
 70
     1
102
RTVSPropertyOp19
 70
     1
102
RTVSPropertyOp20
 70
     1
102
RTVSPropertyOp21
 70
     1
102
RTVSPropertyOp22
 70
     1
102
RTVSPropertyOp23
 70
     1
102
RTVSPropertyOp24
 70
     1
102
RTVSPropertyOp25
 70
     1
102
RTVSPropertyOp26
 70
     1
102
RTVSPropertyOp27
 70
     1
102
RTVSPropertyOp28
 70
     1
102
RTVSPropertyOp29
 70
     1
102
RTVSPropertyOp30
 70
     1
102
RTVSPropertyOp31
 70
     1
102
RTVSPropertyOp32
 70
     1
102
RTVSPropertyOp33
 70
     1
102
RTVSPropertyOp34
 70
     1
102
RTVSPropertyOp35
 70
     1
102
RTVSPropertyOp36
 70
     1
102
RTVSPropertyOp37
 70
     1
102
RTVSPropertyOp38
 70
     1
102
RTVSPropertyOp39
 70
     1
102
RTVSPropertyOp40
 70
     1
102
RTVSPropertyOp41
 70
     1
102
RTVSPropertyOp42
 70
     1
102
RTVSPropertyOp43
 70
     1
102
RTVSPropertyOp44
 70
     1
102
RTVSPropertyOp45
 70
     1
102
RTVSPropertyOp46
 70
     1
102
RTVSPropertyOp47
 70
     1
102
RTVSPropertyOp48
 70
     1
102
RTVSPropertyOp49
 70
     1
102
RTVSPropertyOp50
 70
     1
102
RTVSPropertyOp51
 70
     0
102
RTVSPropertyOp52
 70
     0
102
RTVSPropertyOp53
 70
     1
102
RTVSPropertyOp54
 70
     1
102
RTVSPropertyOp55
 70
     1
102
RTVSPropertyOp56
 70
     1
102
RTVSPropertyOp57
 70
     1
102
RTVSPost2010Prop28
280
     0
102
RTVSPost2010PropOp28
 70
     1
102
RTVSPost2010Prop29
280
     1
102
RTVSPost2010PropOp29
 70
     1
102
RTVSPost2010Prop30
280
     1
102
RTVSPost2010PropOp30
 70
     1
102
RTVSPost2010Prop31
280
     0
102
RTVSPost2010PropOp31
 70
     1
102
RTVSPost2010Prop32
280
     0
102
RTVSPost2010PropOp32
 70
     1
102
RTVSPost2010Prop33
280
     0
102
RTVSPost2010PropOp33
 70
     1
102
RTVSPost2010Prop34
280
     0
102
RTVSPost2010PropOp34
 70
     1
102
RTVSPost2010Prop35
280
     0
102
RTVSPost2010PropOp35
 70
     1
102
RTVSPost2010Prop36
280
     0
102
RTVSPost2010PropOp36
 70
     1
102
RTVSPost2010Prop37
 90
       50
102
RTVSPost2010PropOp37
 70
     1
102
RTVSPost2010Prop38
140
0.0
102
RTVSPost2010PropOp38
 70
     1
102
RTVSPost2010Prop39
140
1.0
102
RTVSPost2010PropOp39
 70
     1
102
RTVSPost2010Prop40
 90
        0
102
RTVSPost2010PropOp40
 70
     1
102
RTVSPost2010Prop41ColorIndex
 90
       18
102
RTVSPost2010Prop41ColorRGB
 90
        0
102
RTVSPost2010PropOp41
 70
     1
102
RTVSPost2010Prop42
 90
       50
102
RTVSPost2010PropOp42
 70
     1
102
RTVSPost2010Prop43
 90
        3
102
RTVSPost2010PropOp43
 70
     1
102
RTVSPost2010Prop44ColorIndex
 90
        5
102
RTVSPost2010Prop44ColorRGB
 90
      255
102
RTVSPost2010PropOp44
 70
     1
102
RTVSPost2010Prop45
280
     0
102
RTVSPost2010PropOp45
 70
     1
102
RTVSPost2010Prop46
 90
       50
102
RTVSPost2010PropOp46
 70
     1
102
RTVSPost2010Prop47
 90
       50
102
RTVSPost2010PropOp47
 70
     1
102
RTVSPost2010Prop48
 90
       50
102
RTVSPost2010PropOp48
 70
     1
102
RTVSPost2010Prop49
280
     0
102
RTVSPost2010PropOp49
 70
     1
102
RTVSPost2010Prop50
 90
       50
102
RTVSPost2010PropOp50
 70
     1
102
RTVSPost2010Prop51ColorIndex
 90
      256
102
RTVSPost2010Prop51ColorRGB
 90
-16777216
102
RTVSPost2010PropOp51
 70
     0
102
RTVSPost2010Prop52
140
1.0
102
RTVSPost2010PropOp52
 70
     0
102
RTVSPost2010Prop53
 90
        2
102
RTVSPost2010PropOp53
 70
     1
102
RTVSPost2010Prop54
  1
strokes_ogs.tif
102
RTVSPost2010PropOp54
 70
     1
102
RTVSPost2010Prop55
280
     0
102
RTVSPost2010PropOp55
 70
     1
102
RTVSPost2010Prop56
140
1.0
102
RTVSPost2010PropOp56
 70
     1
102
RTVSPost2010Prop57
140
1.0
102
RTVSPost2010PropOp57
 70
     1
  0
ENDSEC
  0
EOF
