  0
SECTION
  2
HEADER
  9
$ACADVER
  1
AC1018
  9
$ACADMAINTVER
 70
     0
  9
$DWGCODEPAGE
  3
ANSI_1252
  9
$INSBASE
 10
0.0
 20
0.0
 30
0.0
  9
$EXTMIN
 10
-293.9038251652061
 20
-32.05077346226705
 30
0.0
  9
$EXTMAX
 10
126.0961748347924
 20
264.949226537733
 30
0.0
  9
$LIMMIN
 10
0.0
 20
0.0
  9
$LIMMAX
 10
12.0
 20
9.0
  9
$ORTHOMODE
 70
     0
  9
$REGENMODE
 70
     1
  9
$FILLMODE
 70
     1
  9
$QTEXTMODE
 70
     0
  9
$MIRRTEXT
 70
     1
  9
$LTSCALE
 40
1.0
  9
$ATTMODE
 70
     1
  9
$TEXTSIZE
 40
0.2
  9
$TRACEWID
 40
0.05
  9
$TEXTSTYLE
  7
Standard
  9
$CLAYER
  8
0
  9
$CELTYPE
  6
ByLayer
  9
$CECOLOR
 62
   256
  9
$CELTSCALE
 40
1.0
  9
$DISPSILH
 70
     0
  9
$DIMSCALE
 40
1.0
  9
$DIMASZ
 40
0.18
  9
$DIMEXO
 40
0.0625
  9
$DIMDLI
 40
0.38
  9
$DIMRND
 40
0.0
  9
$DIMDLE
 40
0.0
  9
$DIMEXE
 40
0.18
  9
$DIMTP
 40
0.0
  9
$DIMTM
 40
0.0
  9
$DIMTXT
 40
0.18
  9
$DIMCEN
 40
0.09
  9
$DIMTSZ
 40
0.0
  9
$DIMTOL
 70
     0
  9
$DIMLIM
 70
     0
  9
$DIMTIH
 70
     1
  9
$DIMTOH
 70
     1
  9
$DIMSE1
 70
     0
  9
$DIMSE2
 70
     0
  9
$DIMTAD
 70
     0
  9
$DIMZIN
 70
     0
  9
$DIMBLK
  1

  9
$DIMASO
 70
     1
  9
$DIMSHO
 70
     1
  9
$DIMPOST
  1

  9
$DIMAPOST
  1

  9
$DIMALT
 70
     0
  9
$DIMALTD
 70
     2
  9
$DIMALTF
 40
25.4
  9
$DIMLFAC
 40
1.0
  9
$DIMTOFL
 70
     0
  9
$DIMTVP
 40
0.0
  9
$DIMTIX
 70
     0
  9
$DIMSOXD
 70
     0
  9
$DIMSAH
 70
     0
  9
$DIMBLK1
  1

  9
$DIMBLK2
  1

  9
$DIMSTYLE
  2
Standard
  9
$DIMCLRD
 70
     0
  9
$DIMCLRE
 70
     0
  9
$DIMCLRT
 70
     0
  9
$DIMTFAC
 40
1.0
  9
$DIMGAP
 40
0.09
  9
$DIMJUST
 70
     0
  9
$DIMSD1
 70
     0
  9
$DIMSD2
 70
     0
  9
$DIMTOLJ
 70
     1
  9
$DIMTZIN
 70
     0
  9
$DIMALTZ
 70
     0
  9
$DIMALTTZ
 70
     0
  9
$DIMUPT
 70
     0
  9
$DIMDEC
 70
     4
  9
$DIMTDEC
 70
     4
  9
$DIMALTU
 70
     2
  9
$DIMALTTD
 70
     2
  9
$DIMTXSTY
  7
Standard
  9
$DIMAUNIT
 70
     0
  9
$DIMADEC
 70
     0
  9
$DIMALTRND
 40
0.0
  9
$DIMAZIN
 70
     0
  9
$DIMDSEP
 70
    46
  9
$DIMATFIT
 70
     3
  9
$DIMFRAC
 70
     0
  9
$DIMLDRBLK
  1

  9
$DIMLUNIT
 70
     2
  9
$DIMLWD
 70
    -2
  9
$DIMLWE
 70
    -2
  9
$DIMTMOVE
 70
     0
  9
$LUNITS
 70
     2
  9
$LUPREC
 70
     4
  9
$SKETCHINC
 40
0.1
  9
$FILLETRAD
 40
0.5
  9
$AUNITS
 70
     0
  9
$AUPREC
 70
     0
  9
$MENU
  1
.
  9
$ELEVATION
 40
0.0
  9
$PELEVATION
 40
0.0
  9
$THICKNESS
 40
0.0
  9
$LIMCHECK
 70
     0
  9
$CHAMFERA
 40
0.5
  9
$CHAMFERB
 40
0.5
  9
$CHAMFERC
 40
1.0
  9
$CHAMFERD
 40
0.0
  9
$SKPOLY
 70
     0
  9
$TDCREATE
 40
2458501.634037581
  9
$TDUCREATE
 40
2458501.592370914
  9
$TDUPDATE
 40
2458501.634038125
  9
$TDUUPDATE
 40
2458501.592371458
  9
$TDINDWG
 40
0.0000000116
  9
$TDUSRTIMER
 40
0.0000000116
  9
$USRTIMER
 70
     1
  9
$ANGBASE
 50
0.0
  9
$ANGDIR
 70
     0
  9
$PDMODE
 70
     0
  9
$PDSIZE
 40
0.0
  9
$PLINEWID
 40
0.0
  9
$SPLFRAME
 70
     0
  9
$SPLINETYPE
 70
     6
  9
$SPLINESEGS
 70
     8
  9
$HANDSEED
  5
3B9
  9
$SURFTAB1
 70
     6
  9
$SURFTAB2
 70
     6
  9
$SURFTYPE
 70
     6
  9
$SURFU
 70
     6
  9
$SURFV
 70
     6
  9
$UCSBASE
  2

  9
$UCSNAME
  2

  9
$UCSORG
 10
0.0
 20
0.0
 30
0.0
  9
$UCSXDIR
 10
1.0
 20
0.0
 30
0.0
  9
$UCSYDIR
 10
0.0
 20
1.0
 30
0.0
  9
$UCSORTHOREF
  2

  9
$UCSORTHOVIEW
 70
     0
  9
$UCSORGTOP
 10
0.0
 20
0.0
 30
0.0
  9
$UCSORGBOTTOM
 10
0.0
 20
0.0
 30
0.0
  9
$UCSORGLEFT
 10
0.0
 20
0.0
 30
0.0
  9
$UCSORGRIGHT
 10
0.0
 20
0.0
 30
0.0
  9
$UCSORGFRONT
 10
0.0
 20
0.0
 30
0.0
  9
$UCSORGBACK
 10
0.0
 20
0.0
 30
0.0
  9
$PUCSBASE
  2

  9
$PUCSNAME
  2

  9
$PUCSORG
 10
0.0
 20
0.0
 30
0.0
  9
$PUCSXDIR
 10
1.0
 20
0.0
 30
0.0
  9
$PUCSYDIR
 10
0.0
 20
1.0
 30
0.0
  9
$PUCSORTHOREF
  2

  9
$PUCSORTHOVIEW
 70
     0
  9
$PUCSORGTOP
 10
0.0
 20
0.0
 30
0.0
  9
$PUCSORGBOTTOM
 10
0.0
 20
0.0
 30
0.0
  9
$PUCSORGLEFT
 10
0.0
 20
0.0
 30
0.0
  9
$PUCSORGRIGHT
 10
0.0
 20
0.0
 30
0.0
  9
$PUCSORGFRONT
 10
0.0
 20
0.0
 30
0.0
  9
$PUCSORGBACK
 10
0.0
 20
0.0
 30
0.0
  9
$USERI1
 70
     0
  9
$USERI2
 70
     0
  9
$USERI3
 70
     0
  9
$USERI4
 70
     0
  9
$USERI5
 70
     0
  9
$USERR1
 40
18.1
  9
$USERR2
 40
0.0
  9
$USERR3
 40
0.0
  9
$USERR4
 40
0.0
  9
$USERR5
 40
0.0
  9
$WORLDVIEW
 70
     1
  9
$SHADEDGE
 70
     3
  9
$SHADEDIF
 70
    70
  9
$TILEMODE
 70
     1
  9
$MAXACTVP
 70
    64
  9
$PINSBASE
 10
0.0
 20
0.0
 30
0.0
  9
$PLIMCHECK
 70
     0
  9
$PEXTMIN
 10
1.00000000000000E+20
 20
1.00000000000000E+20
 30
1.00000000000000E+20
  9
$PEXTMAX
 10
-1.00000000000000E+20
 20
-1.00000000000000E+20
 30
-1.00000000000000E+20
  9
$PLIMMIN
 10
0.0
 20
0.0
  9
$PLIMMAX
 10
12.0
 20
9.0
  9
$UNITMODE
 70
     0
  9
$VISRETAIN
 70
     1
  9
$PLINEGEN
 70
     0
  9
$PSLTSCALE
 70
     1
  9
$TREEDEPTH
 70
  3020
  9
$CMLSTYLE
  2
Standard
  9
$CMLJUST
 70
     0
  9
$CMLSCALE
 40
1.0
  9
$PROXYGRAPHICS
 70
     1
  9
$MEASUREMENT
 70
     1
  9
$CELWEIGHT
370
    -1
  9
$ENDCAPS
280
     0
  9
$JOINSTYLE
280
     0
  9
$LWDISPLAY
290
     0
  9
$INSUNITS
 70
     4
  9
$HYPERLINKBASE
  1

  9
$STYLESHEET
  1

  9
$XEDIT
290
     1
  9
$CEPSNTYPE
380
     0
  9
$PSTYLEMODE
290
     1
  9
$FINGERPRINTGUID
  2
{A6F2D731-45D6-417D-BF64-BF359FE76308}
  9
$VERSIONGUID
  2
{FAEB1C32-E019-11D5-929B-00C0DF256EC4}
  9
$EXTNAMES
290
     1
  9
$PSVPSCALE
 40
0.0
  9
$OLESTARTUP
290
     0
  9
$SORTENTS
280
   127
  9
$INDEXCTL
280
     0
  9
$HIDETEXT
280
     1
  9
$XCLIPFRAME
290
     0
  9
$HALOGAP
280
     0
  9
$OBSCOLOR
 70
   257
  9
$OBSLTYPE
280
     0
  9
$INTERSECTIONDISPLAY
280
     0
  9
$INTERSECTIONCOLOR
 70
   257
  9
$DIMASSOC
280
     2
  9
$PROJECTNAME
  1

  0
ENDSEC
  0
SECTION
  2
CLASSES
  0
CLASS
  1
ACDBDICTIONARYWDFLT
  2
AcDbDictionaryWithDefault
  3
ObjectDBX Classes
 90
        0
 91
        4
280
     0
281
     0
  0
CLASS
  1
VISUALSTYLE
  2
AcDbVisualStyle
  3
ObjectDBX Classes
 90
     4095
 91
        4
280
     0
281
     0
  0
CLASS
  1
MATERIAL
  2
AcDbMaterial
  3
ObjectDBX Classes
 90
     1153
 91
        4
280
     0
281
     0
  0
ENDSEC
  0
SECTION
  2
TABLES
  0
TABLE
  2
VPORT
  5
8
330
0
100
AcDbSymbolTable
 70
     1
  0
VPORT
  5
29
330
8
100
AcDbSymbolTableRecord
100
AcDbViewportTableRecord
  2
*Active
 70
     0
 10
0.0
 20
0.0
 11
1.0
 21
1.0
 12
-83.90382516520685
 22
116.449226537733
 13
0.0
 23
0.0
 14
0.5
 24
0.5
 15
0.5
 25
0.5
 16
0.0
 26
0.0
 36
1.0
 17
0.0
 27
0.0
 37
0.0
 40
326.7000000000001
 41
1.60267857142857
 42
50.0
 43
0.0
 44
0.0
 50
0.0
 51
0.0
 71
     0
 72
   100
 73
     1
 74
     3
 75
     0
 76
     0
 77
     0
 78
     0
281
     0
 65
     1
110
0.0
120
0.0
130
0.0
111
1.0
121
0.0
131
0.0
112
0.0
122
1.0
132
0.0
 79
     0
146
0.0
  0
ENDTAB
  0
TABLE
  2
LTYPE
  5
5
330
0
100
AcDbSymbolTable
 70
     8
  0
LTYPE
  5
14
330
5
100
AcDbSymbolTableRecord
100
AcDbLinetypeTableRecord
  2
ByBlock
 70
     0
  3

 72
    65
 73
     0
 40
0.0
  0
LTYPE
  5
15
330
5
100
AcDbSymbolTableRecord
100
AcDbLinetypeTableRecord
  2
ByLayer
 70
     0
  3

 72
    65
 73
     0
 40
0.0
  0
LTYPE
  5
16
330
5
100
AcDbSymbolTableRecord
100
AcDbLinetypeTableRecord
  2
Continuous
 70
     0
  3
Solid line
 72
    65
 73
     0
 40
0.0
  0
LTYPE
  5
3F
330
5
100
AcDbSymbolTableRecord
100
AcDbLinetypeTableRecord
  2
DASHED
 70
     0
  3
Dashed
 72
    65
 73
     2
 40
15.0
 49
7.0
 74
     0
 49
-8.0
 74
     0
  0
LTYPE
  5
40
330
5
100
AcDbSymbolTableRecord
100
AcDbLinetypeTableRecord
  2
DOTTED
 70
     0
  3
Dotted
 72
    65
 73
     2
 40
1.0
 49
0.0
 74
     0
 49
-1.0
 74
     0
  0
LTYPE
  5
41
330
5
100
AcDbSymbolTableRecord
100
AcDbLinetypeTableRecord
  2
DOT_CENTER
 70
     0
  3
Dot_Center
 72
    65
 73
     4
 40
14.0
 49
12.0
 74
     0
 49
-1.0
 74
     0
 49
0.0
 74
     0
 49
-1.0
 74
     0
  0
LTYPE
  5
42
330
5
100
AcDbSymbolTableRecord
100
AcDbLinetypeTableRecord
  2
LONG_DASHED
 70
     0
  3
Long_Dashed
 72
    65
 73
     2
 40
15.0
 49
10.0
 74
     0
 49
-5.0
 74
     0
  0
LTYPE
  5
43
330
5
100
AcDbSymbolTableRecord
100
AcDbLinetypeTableRecord
  2
DASH_CENTER
 70
     0
  3
Dash_Center
 72
    65
 73
     4
 40
14.0
 49
11.0
 74
     0
 49
-1.0
 74
     0
 49
1.0
 74
     0
 49
-1.0
 74
     0
  0
LTYPE
  5
44
330
5
100
AcDbSymbolTableRecord
100
AcDbLinetypeTableRecord
  2
PHANTOM
 70
     0
  3
Phantom
 72
    65
 73
     6
 40
13.0
 49
10.0
 74
     0
 49
-1.0
 74
     0
 49
0.0
 74
     0
 49
-1.0
 74
     0
 49
0.0
 74
     0
 49
-1.0
 74
     0
  0
LTYPE
  5
45
330
5
100
AcDbSymbolTableRecord
100
AcDbLinetypeTableRecord
  2
CENTER_DASH_DASH
 70
     0
  3
Center_Dash_Dash
 72
    65
 73
     6
 40
14.0
 49
9.0
 74
     0
 49
-1.0
 74
     0
 49
1.0
 74
     0
 49
-1.0
 74
     0
 49
1.0
 74
     0
 49
-1.0
 74
     0
  0
ENDTAB
  0
TABLE
  2
LAYER
  5
2
330
0
100
AcDbSymbolTable
 70
     2
  0
LAYER
  5
10
330
2
100
AcDbSymbolTableRecord
100
AcDbLayerTableRecord
  2
0
 70
     0
 62
     7
  6
Continuous
370
    -3
390
F
  0
LAYER
  5
46
330
2
100
AcDbSymbolTableRecord
100
AcDbLayerTableRecord
  2
1
 70
     0
 62
     7
  6
Continuous
370
    -3
390
F
  0
ENDTAB
  0
TABLE
  2
STYLE
  5
3
330
0
100
AcDbSymbolTable
 70
     5
  0
STYLE
  5
11
330
3
100
AcDbSymbolTableRecord
100
AcDbTextStyleTableRecord
  2
Standard
 70
     0
 40
0.0
 41
1.0
 50
0.0
 71
     0
 42
0.2
  3
txt
  4

  0
STYLE
  5
E3
330
3
100
AcDbSymbolTableRecord
100
AcDbTextStyleTableRecord
  2
CONVERTER_11
 70
     0
 40
0.0
 41
0.9
 50
0.0
 71
     0
 42
0.2
  3
txt.shx
  4

  0
STYLE
  5
35F
330
3
100
AcDbSymbolTableRecord
100
AcDbTextStyleTableRecord
  2
CONVERTER_12
 70
     0
 40
0.0
 41
0.81
 50
0.0
 71
     0
 42
0.2
  3
txt.shx
  4

  0
STYLE
  5
365
330
3
100
AcDbSymbolTableRecord
100
AcDbTextStyleTableRecord
  2
CONVERTER_13
 70
     0
 40
0.0
 41
0.855
 50
0.0
 71
     0
 42
0.2
  3
txt.shx
  4

  0
STYLE
  5
368
330
3
100
AcDbSymbolTableRecord
100
AcDbTextStyleTableRecord
  2
CONVERTER_14
 70
     0
 40
0.0
 41
0.72
 50
0.0
 71
     0
 42
0.2
  3
txt.shx
  4

  0
ENDTAB
  0
TABLE
  2
VIEW
  5
6
330
0
100
AcDbSymbolTable
 70
     0
  0
ENDTAB
  0
TABLE
  2
UCS
  5
7
330
0
100
AcDbSymbolTable
 70
     0
  0
ENDTAB
  0
TABLE
  2
APPID
  5
9
330
0
100
AcDbSymbolTable
 70
     1
  0
APPID
  5
12
330
9
100
AcDbSymbolTableRecord
100
AcDbRegAppTableRecord
  2
ACAD
 70
     0
  0
ENDTAB
  0
TABLE
  2
DIMSTYLE
  5
A
330
0
100
AcDbSymbolTable
 70
     5
100
AcDbDimStyleTable
  0
DIMSTYLE
105
27
330
A
100
AcDbSymbolTableRecord
100
AcDbDimStyleTableRecord
  2
Standard
 70
     0
178
     0
340
11
  0
DIMSTYLE
105
EE
102
{ACAD_REACTORS
330
EF
102
}
330
A
100
AcDbSymbolTableRecord
100
AcDbDimStyleTableRecord
  2
ME10_DIM_10
 70
     0
 41
0.7
 42
0.0
 44
0.3
 73
     0
 74
     0
 77
     1
 78
     8
140
0.7
147
0.3
172
     1
173
     1
174
     1
175
     1
176
     2
177
     2
178
     3
340
E3
  0
DIMSTYLE
105
F9
102
{ACAD_REACTORS
330
FA
102
}
330
A
100
AcDbSymbolTableRecord
100
AcDbDimStyleTableRecord
  2
ME10_DIM_11
 70
     0
 41
0.7
 42
0.0
 44
0.3
 73
     0
 74
     0
 77
     1
 78
     8
140
0.7
147
0.3
172
     1
173
     1
174
     1
175
     1
176
     2
177
     2
271
     1
178
     3
271
     1
340
E3
  0
DIMSTYLE
105
23D
102
{ACAD_REACTORS
330
23E
102
}
330
A
100
AcDbSymbolTableRecord
100
AcDbDimStyleTableRecord
  2
ME10_DIM_12
 70
     0
 41
0.7
 42
0.0
 44
0.3
 73
     0
 74
     0
 77
     1
 78
     8
140
0.7
147
0.3
172
     1
173
     1
174
     1
175
     1
176
     2
177
     2
178
     3
340
E3
  0
DIMSTYLE
105
248
102
{ACAD_REACTORS
330
249
102
}
330
A
100
AcDbSymbolTableRecord
100
AcDbDimStyleTableRecord
  2
ME10_DIM_13
 70
     0
 41
0.7
 42
0.0
 44
0.3
 73
     0
 74
     0
 77
     1
 78
     8
140
0.7
147
0.3
172
     1
173
     1
174
     1
175
     1
176
     2
177
     2
178
     3
340
E3
  0
ENDTAB
  0
TABLE
  2
BLOCK_RECORD
  5
1
330
0
100
AcDbSymbolTable
 70
    16
  0
BLOCK_RECORD
  5
1F
330
1
100
AcDbSymbolTableRecord
100
AcDbBlockTableRecord
  2
*Model_Space
340
22
  0
BLOCK_RECORD
  5
1B
330
1
100
AcDbSymbolTableRecord
100
AcDbBlockTableRecord
  2
*Paper_Space
340
1E
  0
BLOCK_RECORD
  5
23
330
1
100
AcDbSymbolTableRecord
100
AcDbBlockTableRecord
  2
*Paper_Space0
340
26
  0
BLOCK_RECORD
  5
47
330
1
100
AcDbSymbolTableRecord
100
AcDbBlockTableRecord
  2
VS-08-BU-RJ45-6_LH-1_1__1
340
0
102
{BLKREFS
331
4B
102
}
  0
BLOCK_RECORD
  5
4A
330
1
100
AcDbSymbolTableRecord
100
AcDbBlockTableRecord
  2
VS-08-BU-RJ45-6_LH-1__2
340
0
102
{BLKREFS
331
4F
102
}
  0
BLOCK_RECORD
  5
4E
330
1
100
AcDbSymbolTableRecord
100
AcDbBlockTableRecord
  2
SA_Links1
340
0
102
{BLKREFS
331
69
102
}
  0
BLOCK_RECORD
  5
52
330
1
100
AcDbSymbolTableRecord
100
AcDbBlockTableRecord
  2
VS-08-BU-RJ45-6_LH-1_1__3
340
0
102
{BLKREFS
331
56
102
}
  0
BLOCK_RECORD
  5
55
330
1
100
AcDbSymbolTableRecord
100
AcDbBlockTableRecord
  2
VS-08-BU-RJ45-6_LH-1__4
340
0
102
{BLKREFS
331
5A
102
}
  0
BLOCK_RECORD
  5
59
330
1
100
AcDbSymbolTableRecord
100
AcDbBlockTableRecord
  2
Vordans1
340
0
102
{BLKREFS
331
6A
102
}
  0
BLOCK_RECORD
  5
5D
330
1
100
AcDbSymbolTableRecord
100
AcDbBlockTableRecord
  2
_rahmen
340
0
102
{BLKREFS
331
64
102
}
  0
BLOCK_RECORD
  5
60
330
1
100
AcDbSymbolTableRecord
100
AcDbBlockTableRecord
  2
_punkt
340
0
102
{BLKREFS
331
65
102
}
  0
BLOCK_RECORD
  5
63
330
1
100
AcDbSymbolTableRecord
100
AcDbBlockTableRecord
  2
A3I_TD_PRF
340
0
102
{BLKREFS
331
6B
102
}
  0
BLOCK_RECORD
  5
68
330
1
100
AcDbSymbolTableRecord
100
AcDbBlockTableRecord
  2
1
340
0
102
{BLKREFS
331
6E
102
}
  0
BLOCK_RECORD
  5
E5
330
1
100
AcDbSymbolTableRecord
100
AcDbBlockTableRecord
  2
*D11
340
0
  0
BLOCK_RECORD
  5
F0
330
1
100
AcDbSymbolTableRecord
100
AcDbBlockTableRecord
  2
*D12
340
0
  0
BLOCK_RECORD
  5
FB
330
1
100
AcDbSymbolTableRecord
100
AcDbBlockTableRecord
  2
*D13
340
0
102
{BLKREFS
331
104
102
}
  0
BLOCK_RECORD
  5
234
330
1
100
AcDbSymbolTableRecord
100
AcDbBlockTableRecord
  2
*D14
340
0
  0
BLOCK_RECORD
  5
23F
330
1
100
AcDbSymbolTableRecord
100
AcDbBlockTableRecord
  2
*D15
340
0
  0
ENDTAB
  0
ENDSEC
  0
SECTION
  2
BLOCKS
  0
BLOCK
  5
20
330
1F
100
AcDbEntity
  8
0
100
AcDbBlockBegin
  2
*Model_Space
 70
     0
 10
0.0
 20
0.0
 30
0.0
  3
*Model_Space
  1

  0
ENDBLK
  5
21
330
1F
100
AcDbEntity
  8
0
100
AcDbBlockEnd
  0
BLOCK
  5
1C
330
1B
100
AcDbEntity
 67
     1
  8
0
100
AcDbBlockBegin
  2
*Paper_Space
 70
     0
 10
0.0
 20
0.0
 30
0.0
  3
*Paper_Space
  1

  0
ENDBLK
  5
1D
330
1B
100
AcDbEntity
 67
     1
  8
0
100
AcDbBlockEnd
  0
BLOCK
  5
24
330
23
100
AcDbEntity
  8
0
100
AcDbBlockBegin
  2
*Paper_Space0
 70
     0
 10
0.0
 20
0.0
 30
0.0
  3
*Paper_Space0
  1

  0
ENDBLK
  5
25
330
23
100
AcDbEntity
  8
0
100
AcDbBlockEnd
  0
BLOCK
  5
48
330
47
100
AcDbEntity
  8
0
100
AcDbBlockBegin
  2
VS-08-BU-RJ45-6_LH-1_1__1
 70
     0
 10
-18.64326599991977
 20
14.44378267195405
 30
0.0
  3
VS-08-BU-RJ45-6_LH-1_1__1
  1

  0
LINE
  5
6F
330
47
100
AcDbEntity
  8
0
  6
Continuous
 62
     7
100
AcDbLine
 10
-0.67998003194836
 20
17.62780024087721
 30
0.0
 11
-0.60331550492602
 21
17.38984530754627
 31
0.0
  0
LINE
  5
70
330
47
100
AcDbEntity
  8
0
  6
Continuous
 62
     2
100
AcDbLine
 10
-0.3177695849291
 20
17.48184273997301
 30
0.0
 11
-0.39443411195141
 21
17.71979767330384
 31
0.0
  0
LINE
  5
71
330
47
100
AcDbEntity
  8
0
  6
Continuous
 62
     7
100
AcDbLine
 10
-9.44326697416646
 20
17.58984530754675
 30
0.0
 11
-9.49326599991977
 21
17.58984530754675
 31
0.0
  0
LINE
  5
72
330
47
100
AcDbEntity
  8
0
  6
Continuous
 62
     7
100
AcDbLine
 10
-4.34326599991977
 20
17.58984530754675
 30
0.0
 11
-5.34326599991977
 21
17.58984530754675
 31
0.0
  0
LINE
  5
73
330
47
100
AcDbEntity
  8
0
  6
Continuous
 62
     7
100
AcDbLine
 10
-16.78326599991977
 20
17.58984530754675
 30
0.0
 11
-16.95826599991977
 21
17.58984530754675
 31
0.0
  0
LINE
  5
74
330
47
100
AcDbEntity
  8
0
  6
Continuous
 62
     7
100
AcDbLine
 10
-16.95826599991977
 20
17.58984530754675
 30
0.0
 11
-17.28326599991977
 21
17.58984530754675
 31
0.0
  0
LINE
  5
75
330
47
100
AcDbEntity
  8
0
  6
Continuous
 62
     7
100
AcDbLine
 10
-4.34326599991977
 20
17.58984530754675
 30
0.0
 11
-4.34326599991977
 21
14.94378267195405
 31
0.0
  0
LINE
  5
76
330
47
100
AcDbEntity
  8
0
  6
Continuous
 62
     7
100
AcDbLine
 10
-0.3177695849291
 20
17.48184273997301
 30
0.0
 11
-0.60331550492602
 21
17.38984530754627
 31
0.0
  0
LINE
  5
77
330
47
100
AcDbEntity
  8
0
  6
Continuous
 62
     7
100
AcDbLine
 10
1.83672758114574
 20
18.17598050755402
 30
0.0
 11
-0.3177695849291
 21
17.48184273997301
 31
0.0
  0
LINE
  5
78
330
47
100
AcDbEntity
  8
0
  6
Continuous
 62
     2
100
AcDbLine
 10
-0.75077453234297
 20
20.05059616078905
 30
0.0
 11
-0.75077453234297
 21
21.52909445430445
 31
0.0
  0
LINE
  5
79
330
47
100
AcDbEntity
  8
0
  6
Continuous
 62
     7
100
AcDbLine
 10
1.91555752949202
 20
19.78984530754675
 30
0.0
 11
1.91555752949202
 21
21.78984530754677
 31
0.0
  0
LINE
  5
7A
330
47
100
AcDbEntity
  8
0
  6
Continuous
 62
     2
100
AcDbLine
 10
-2.14326599991977
 20
20.18984530754675
 30
0.0
 11
-2.14326599991977
 21
21.38984530754676
 31
0.0
  0
LINE
  5
7B
330
47
100
AcDbEntity
  8
0
  6
Continuous
 62
     7
100
AcDbLine
 10
-2.14326599991977
 20
21.38984530754676
 30
0.0
 11
-2.96316674372397
 21
21.30785523316635
 31
0.0
  0
LINE
  5
7C
330
47
100
AcDbEntity
  8
0
  6
Continuous
 62
     7
100
AcDbLine
 10
1.91555752949202
 20
21.78984530754677
 30
0.0
 11
1.85673400008023
 21
21.78984530754677
 31
0.0
  0
LINE
  5
7D
330
47
100
AcDbEntity
  8
0
  6
Continuous
 62
     7
100
AcDbLine
 10
1.85673400008023
 20
21.78984530754677
 30
0.0
 11
-0.75077453234297
 21
21.52909445430445
 31
0.0
  0
LINE
  5
7E
330
47
100
AcDbEntity
  8
0
  6
Continuous
 62
     7
100
AcDbLine
 10
2.35673400008023
 20
31.83984530754675
 30
0.0
 11
2.35673400008023
 21
18.38984530754675
 31
0.0
  0
LINE
  5
7F
330
47
100
AcDbEntity
  8
0
  6
Continuous
 62
     7
100
AcDbLine
 10
-9.44326697416646
 20
15.08984530754675
 30
0.0
 11
-6.34326502567309
 21
15.08984530754675
 31
0.0
  0
LINE
  5
80
330
47
100
AcDbEntity
  8
0
  6
Continuous
 62
     7
100
AcDbLine
 10
-9.44326697416646
 20
15.08984530754675
 30
0.0
 11
-9.44326697416646
 21
17.58984530754675
 31
0.0
  0
LINE
  5
81
330
47
100
AcDbEntity
  8
0
  6
Continuous
 62
     7
100
AcDbLine
 10
-16.60826599991977
 20
14.48984530754675
 30
0.0
 11
-16.95826599991977
 21
14.48984530754675
 31
0.0
  0
LINE
  5
82
330
47
100
AcDbEntity
  8
0
  6
Continuous
 62
     7
100
AcDbLine
 10
-16.60826599991977
 20
17.58984530754675
 30
0.0
 11
-16.78326599991977
 21
17.58984530754675
 31
0.0
  0
LINE
  5
83
330
47
100
AcDbEntity
  8
0
  6
Continuous
 62
     7
100
AcDbLine
 10
-16.28326599991977
 20
17.58984530754675
 30
0.0
 11
-16.60826599991977
 21
17.58984530754675
 31
0.0
  0
LINE
  5
84
330
47
100
AcDbEntity
  8
0
  6
Continuous
 62
     7
100
AcDbLine
 10
-16.60826599991977
 20
17.58984530754675
 30
0.0
 11
-16.60826599991977
 21
14.48984530754675
 31
0.0
  0
LINE
  5
85
330
47
100
AcDbEntity
  8
0
  6
Continuous
 62
     7
100
AcDbLine
 10
-2.96316674372397
 20
20.27183538192715
 30
0.0
 11
-2.14326599991977
 21
20.18984530754675
 31
0.0
  0
LINE
  5
86
330
47
100
AcDbEntity
  8
0
  6
Continuous
 62
     7
100
AcDbLine
 10
-3.14326599991977
 20
21.10884779512435
 30
0.0
 11
-3.14326599991977
 21
20.47084281996915
 31
0.0
  0
LINE
  5
87
330
47
100
AcDbEntity
  8
0
  6
Continuous
 62
     7
100
AcDbLine
 10
1.85673400008023
 20
19.78984530754675
 30
0.0
 11
1.91555752949202
 21
19.78984530754675
 31
0.0
  0
LINE
  5
88
330
47
100
AcDbEntity
  8
0
  6
Continuous
 62
     7
100
AcDbLine
 10
-0.75077453234297
 20
20.05059616078905
 30
0.0
 11
1.85673400008023
 21
19.78984530754675
 31
0.0
  0
LINE
  5
89
330
47
100
AcDbEntity
  8
0
  6
Continuous
 62
     7
100
AcDbLine
 10
1.68529097510519
 20
18.38984530754674
 30
0.0
 11
2.16575099445516
 21
18.38984530754674
 31
0.0
  0
LINE
  5
8A
330
47
100
AcDbEntity
  8
0
  6
Continuous
 62
     7
100
AcDbLine
 10
2.16575099445516
 20
18.38984530754674
 30
0.0
 11
2.35673400008023
 21
18.38984530754675
 31
0.0
  0
LINE
  5
8B
330
47
100
AcDbEntity
  8
0
  6
Continuous
 62
     7
100
AcDbLine
 10
-1.14326599991977
 20
18.38984530754674
 30
0.0
 11
1.68529097510519
 21
18.38984530754674
 31
0.0
  0
LINE
  5
8C
330
47
100
AcDbEntity
  8
0
  6
Continuous
 62
     7
100
AcDbLine
 10
-0.39443411195141
 20
17.71979767330384
 30
0.0
 11
-0.67998003194836
 21
17.62780024087721
 31
0.0
  0
LINE
  5
8D
330
47
100
AcDbEntity
  8
0
  6
Continuous
 62
     7
100
AcDbLine
 10
-1.14326599991977
 20
18.08984530754675
 30
0.0
 11
-1.14326599991977
 21
18.38984530754674
 31
0.0
  0
LINE
  5
8E
330
47
100
AcDbEntity
  8
0
  6
Continuous
 62
     7
100
AcDbLine
 10
-4.04326599991977
 20
18.08984530754675
 30
0.0
 11
-1.14326599991977
 21
18.08984530754675
 31
0.0
  0
LINE
  5
8F
330
47
100
AcDbEntity
  8
0
  6
Continuous
 62
     7
100
AcDbLine
 10
-4.04326599991977
 20
17.58984530754675
 30
0.0
 11
-4.34326599991977
 21
17.58984530754675
 31
0.0
  0
LINE
  5
90
330
47
100
AcDbEntity
  8
0
  6
Continuous
 62
     7
100
AcDbLine
 10
-7.89326599991977
 20
17.58984530754675
 30
0.0
 11
-9.44326697416646
 21
17.58984530754675
 31
0.0
  0
LINE
  5
91
330
47
100
AcDbEntity
  8
0
  6
Continuous
 62
     7
100
AcDbLine
 10
-6.29326599991977
 20
18.43984530754675
 30
0.0
 11
-5.64326599991977
 21
18.43984530754675
 31
0.0
  0
LINE
  5
92
330
47
100
AcDbEntity
  8
0
  6
Continuous
 62
     7
100
AcDbLine
 10
-11.24326599991977
 20
18.08984530754675
 30
0.0
 11
-11.24326599991977
 21
18.43984530754675
 31
0.0
  0
LINE
  5
93
330
47
100
AcDbEntity
  8
0
  6
Continuous
 62
     7
100
AcDbLine
 10
-13.74187049991977
 20
18.43984530754675
 30
0.0
 11
-13.24326599991977
 21
18.43984530754675
 31
0.0
  0
LINE
  5
94
330
47
100
AcDbEntity
  8
0
  6
Continuous
 62
     7
100
AcDbLine
 10
-11.24326599991977
 20
18.43984530754675
 30
0.0
 11
-9.49326599991977
 21
18.43984530754675
 31
0.0
  0
LINE
  5
95
330
47
100
AcDbEntity
  8
0
  6
Continuous
 62
     7
100
AcDbLine
 10
-16.28326599991977
 20
18.43984530754675
 30
0.0
 11
-14.74187049991977
 21
18.43984530754675
 31
0.0
  0
LINE
  5
96
330
47
100
AcDbEntity
  8
0
  6
Continuous
 62
     7
100
AcDbLine
 10
-9.49326599991977
 20
18.43984530754675
 30
0.0
 11
-9.49326599991977
 21
17.58984530754675
 31
0.0
  0
LINE
  5
97
330
47
100
AcDbEntity
  8
0
  6
Continuous
 62
     7
100
AcDbLine
 10
-13.24326599991977
 20
18.43984530754675
 30
0.0
 11
-13.24326599991977
 21
18.08984530754675
 31
0.0
  0
LINE
  5
98
330
47
100
AcDbEntity
  8
0
  6
Continuous
 62
     7
100
AcDbLine
 10
-4.04326599991977
 20
18.08984530754675
 30
0.0
 11
-4.04326599991977
 21
17.58984530754675
 31
0.0
  0
LINE
  5
99
330
47
100
AcDbEntity
  8
0
  6
Continuous
 62
     7
100
AcDbLine
 10
-5.63344003138373
 20
18.08984530754675
 30
0.0
 11
-4.04326599991977
 21
18.08984530754675
 31
0.0
  0
LINE
  5
9A
330
47
100
AcDbEntity
  8
0
  6
Continuous
 62
     7
100
AcDbLine
 10
-11.24326599991977
 20
18.08984530754675
 30
0.0
 11
-13.24326599991977
 21
18.08984530754675
 31
0.0
  0
LINE
  5
9B
330
47
100
AcDbEntity
  8
0
  6
Continuous
 62
     7
100
AcDbLine
 10
-16.28326599991977
 20
18.43984530754675
 30
0.0
 11
-16.28326599991977
 21
17.58984530754675
 31
0.0
  0
LINE
  5
9C
330
47
100
AcDbEntity
  8
0
  6
Continuous
 62
     7
100
AcDbLine
 10
-9.49326599991977
 20
18.43984530754675
 30
0.0
 11
-6.29326599991977
 21
18.43984530754675
 31
0.0
  0
LINE
  5
9D
330
47
100
AcDbEntity
  8
0
  6
Continuous
 62
     7
100
AcDbLine
 10
-0.39443411195141
 20
17.71979767330384
 30
0.0
 11
1.68529097510519
 21
18.38984530754674
 31
0.0
  0
LINE
  5
9E
330
47
100
AcDbEntity
  8
0
  6
Continuous
 62
     7
100
AcDbLine
 10
-14.06826599991977
 20
17.58984530754675
 30
0.0
 11
-14.06826599991977
 21
14.48984530754675
 31
0.0
  0
LINE
  5
9F
330
47
100
AcDbEntity
  8
0
  6
Continuous
 62
     7
100
AcDbLine
 10
-14.06826599991977
 20
14.48984530754675
 30
0.0
 11
-14.41547499991978
 21
14.48984530754675
 31
0.0
  0
LINE
  5
A0
330
47
100
AcDbEntity
  8
0
  6
Continuous
 62
     7
100
AcDbLine
 10
-14.74187049991977
 20
18.43984530754675
 30
0.0
 11
-14.74187049991977
 21
17.58984530754675
 31
0.0
  0
LINE
  5
A1
330
47
100
AcDbEntity
  8
0
  6
Continuous
 62
     7
100
AcDbLine
 10
-14.24187049991977
 20
17.58984530754675
 30
0.0
 11
-14.41547499991978
 21
17.58984530754675
 31
0.0
  0
LINE
  5
A2
330
47
100
AcDbEntity
  8
0
  6
Continuous
 62
     7
100
AcDbLine
 10
-14.41547499991978
 20
17.58984530754675
 30
0.0
 11
-14.74187049991977
 21
17.58984530754675
 31
0.0
  0
LINE
  5
A3
330
47
100
AcDbEntity
  8
0
  6
Continuous
 62
     7
100
AcDbLine
 10
-13.74187049991977
 20
18.43984530754675
 30
0.0
 11
-13.74187049991977
 21
17.58984530754675
 31
0.0
  0
LINE
  5
A4
330
47
100
AcDbEntity
  8
0
  6
Continuous
 62
     7
100
AcDbLine
 10
-14.06826599991977
 20
17.58984530754675
 30
0.0
 11
-14.24187049991977
 21
17.58984530754675
 31
0.0
  0
LINE
  5
A5
330
47
100
AcDbEntity
  8
0
  6
Continuous
 62
     7
100
AcDbLine
 10
-13.74187049991977
 20
17.58984530754675
 30
0.0
 11
-14.06826599991977
 21
17.58984530754675
 31
0.0
  0
LINE
  5
A6
330
47
100
AcDbEntity
  8
0
  6
Continuous
 62
     7
100
AcDbLine
 10
-14.74187049991977
 20
18.43984530754675
 30
0.0
 11
-13.74187049991977
 21
18.43984530754675
 31
0.0
  0
LINE
  5
A7
330
47
100
AcDbEntity
  8
0
  6
Continuous
 62
     7
100
AcDbLine
 10
-14.41547499991978
 20
17.58984530754675
 30
0.0
 11
-14.41547499991978
 21
14.48984530754675
 31
0.0
  0
LINE
  5
A8
330
47
100
AcDbEntity
  8
0
  6
Continuous
 62
     7
100
AcDbLine
 10
-17.28326599991977
 20
18.43984530754675
 30
0.0
 11
-16.28326599991977
 21
18.43984530754675
 31
0.0
  0
LINE
  5
A9
330
47
100
AcDbEntity
  8
0
  6
Continuous
 62
     7
100
AcDbLine
 10
-3.34326599991977
 20
32.33984530754675
 30
0.0
 11
-3.34326599991977
 21
32.58984530754675
 31
0.0
  0
LINE
  5
AA
330
47
100
AcDbEntity
  8
0
  6
Continuous
 62
     7
100
AcDbLine
 10
-3.34326599991977
 20
32.58984530754675
 30
0.0
 11
-3.16240848124862
 21
32.58984530754675
 31
0.0
  0
LINE
  5
AB
330
47
100
AcDbEntity
  8
0
  6
Continuous
 62
     2
100
AcDbLine
 10
-3.16240848124862
 20
32.33984530754675
 30
0.0
 11
-3.16240848124862
 21
32.58984530754675
 31
0.0
  0
LINE
  5
AC
330
47
100
AcDbEntity
  8
0
  6
Continuous
 62
     7
100
AcDbLine
 10
-3.16240848124862
 20
32.58984530754675
 30
0.0
 11
-2.14326599991978
 21
32.58984530754675
 31
0.0
  0
LINE
  5
AD
330
47
100
AcDbEntity
  8
0
  6
Continuous
 62
     2
100
AcDbLine
 10
-2.14326599991978
 20
32.33984530754675
 30
0.0
 11
-2.14326599991978
 21
32.58984530754675
 31
0.0
  0
LINE
  5
AE
330
47
100
AcDbEntity
  8
0
  6
Continuous
 62
     7
100
AcDbLine
 10
-3.34326599991977
 20
32.33984530754675
 30
0.0
 11
-3.16240848124862
 21
32.33984530754675
 31
0.0
  0
LINE
  5
AF
330
47
100
AcDbEntity
  8
0
  6
Continuous
 62
     7
100
AcDbLine
 10
-2.14326599991978
 20
32.33984530754675
 30
0.0
 11
-3.16240848124862
 21
32.33984530754675
 31
0.0
  0
LINE
  5
B0
330
47
100
AcDbEntity
  8
0
  6
Continuous
 62
     7
100
AcDbLine
 10
-0.80879501015867
 20
32.18284872051575
 30
0.0
 11
-0.75077453234297
 21
32.16900523808955
 31
0.0
  0
LINE
  5
B1
330
47
100
AcDbEntity
  8
0
  6
Continuous
 62
     2
100
AcDbLine
 10
-0.75077453234297
 20
32.16900523808955
 30
0.0
 11
-0.75077453234297
 21
32.42602278194975
 31
0.0
  0
LINE
  5
B2
330
47
100
AcDbEntity
  8
0
  6
Continuous
 62
     7
100
AcDbLine
 10
0.62879282360919
 20
31.83984530754675
 30
0.0
 11
-18.64326599991977
 21
31.83984530754675
 31
0.0
  0
LINE
  5
B3
330
47
100
AcDbEntity
  8
0
  6
Continuous
 62
     7
100
AcDbLine
 10
1.91555752949202
 20
26.98984530754675
 30
0.0
 11
1.91555752949202
 21
28.98984530754675
 31
0.0
  0
LINE
  5
B4
330
47
100
AcDbEntity
  8
0
  6
Continuous
 62
     7
100
AcDbLine
 10
0.62879282360919
 20
31.83984530754675
 30
0.0
 11
-0.75077453234297
 21
32.16900523808955
 31
0.0
  0
LINE
  5
B5
330
47
100
AcDbEntity
  8
0
  6
Continuous
 62
     7
100
AcDbLine
 10
-0.75077453234297
 20
32.42602278194975
 30
0.0
 11
1.70599870596311
 21
31.83984530754675
 31
0.0
  0
LINE
  5
B6
330
47
100
AcDbEntity
  8
0
  6
Continuous
 62
     7
100
AcDbLine
 10
1.70599870596311
 20
31.83984530754675
 30
0.0
 11
0.62879282360919
 21
31.83984530754675
 31
0.0
  0
LINE
  5
B7
330
47
100
AcDbEntity
  8
0
  6
Continuous
 62
     7
100
AcDbLine
 10
2.35673400008023
 20
31.83984530754675
 30
0.0
 11
1.70599870596311
 21
31.83984530754675
 31
0.0
  0
LINE
  5
B8
330
47
100
AcDbEntity
  8
0
  6
Continuous
 62
     2
100
AcDbLine
 10
-2.14326599991977
 20
27.38984530754675
 30
0.0
 11
-2.14326599991977
 21
28.58984530754675
 31
0.0
  0
LINE
  5
B9
330
47
100
AcDbEntity
  8
0
  6
Continuous
 62
     7
100
AcDbLine
 10
-2.14326599991977
 20
28.58984530754675
 30
0.0
 11
-2.96316674372397
 21
28.50785523316635
 31
0.0
  0
LINE
  5
BA
330
47
100
AcDbEntity
  8
0
  6
Continuous
 62
     2
100
AcDbLine
 10
-0.75077453234297
 20
27.25059616078905
 30
0.0
 11
-0.75077453234297
 21
28.72909445430444
 31
0.0
  0
LINE
  5
BB
330
47
100
AcDbEntity
  8
0
  6
Continuous
 62
     7
100
AcDbLine
 10
1.91555752949202
 20
28.98984530754675
 30
0.0
 11
1.85673400008023
 21
28.98984530754675
 31
0.0
  0
LINE
  5
BC
330
47
100
AcDbEntity
  8
0
  6
Continuous
 62
     7
100
AcDbLine
 10
1.85673400008023
 20
28.98984530754675
 30
0.0
 11
-0.75077453234297
 21
28.72909445430444
 31
0.0
  0
LINE
  5
BD
330
47
100
AcDbEntity
  8
0
  6
Continuous
 62
     7
100
AcDbLine
 10
-3.14326599991977
 20
28.30884779512435
 30
0.0
 11
-3.14326599991977
 21
27.67084281996915
 31
0.0
  0
LINE
  5
BE
330
47
100
AcDbEntity
  8
0
  6
Continuous
 62
     7
100
AcDbLine
 10
-2.96316674372397
 20
27.47183538192714
 30
0.0
 11
-2.14326599991977
 21
27.38984530754675
 31
0.0
  0
LINE
  5
BF
330
47
100
AcDbEntity
  8
0
  6
Continuous
 62
     7
100
AcDbLine
 10
1.85673400008023
 20
26.98984530754675
 30
0.0
 11
1.91555752949202
 21
26.98984530754675
 31
0.0
  0
LINE
  5
C0
330
47
100
AcDbEntity
  8
0
  6
Continuous
 62
     7
100
AcDbLine
 10
-0.75077453234297
 20
27.25059616078905
 30
0.0
 11
1.85673400008023
 21
26.98984530754675
 31
0.0
  0
LINE
  5
C1
330
47
100
AcDbEntity
  8
0
  6
Continuous
 62
     7
100
AcDbLine
 10
-18.64326599991977
 20
18.43984530754675
 30
0.0
 11
-17.28326599991977
 21
18.43984530754675
 31
0.0
  0
LINE
  5
C2
330
47
100
AcDbEntity
  8
0
  6
Continuous
 62
     7
100
AcDbLine
 10
-17.28326599991977
 20
18.43984530754675
 30
0.0
 11
-17.28326599991977
 21
17.58984530754675
 31
0.0
  0
LINE
  5
C3
330
47
100
AcDbEntity
  8
0
  6
Continuous
 62
     7
100
AcDbLine
 10
-16.95826599991977
 20
17.58984530754675
 30
0.0
 11
-16.95826599991977
 21
14.48984530754675
 31
0.0
  0
LINE
  5
C4
330
47
100
AcDbEntity
  8
0
  6
Continuous
 62
     7
100
AcDbLine
 10
-18.64326599991977
 20
31.83984530754675
 30
0.0
 11
-18.64326599991977
 21
18.43984530754675
 31
0.0
  0
LINE
  5
C5
330
47
100
AcDbEntity
  8
0
  6
Continuous
 62
     7
100
AcDbLine
 10
-6.34326502567309
 20
15.08984530754675
 30
0.0
 11
-6.34326502567309
 21
17.58984530754675
 31
0.0
  0
LINE
  5
C6
330
47
100
AcDbEntity
  8
0
  6
Continuous
 62
     7
100
AcDbLine
 10
-6.29326599991977
 20
18.43984530754675
 30
0.0
 11
-6.29326599991977
 21
17.58984530754675
 31
0.0
  0
LINE
  5
C7
330
47
100
AcDbEntity
  8
0
  6
Continuous
 62
     7
100
AcDbLine
 10
-6.29326599991977
 20
17.58984530754675
 30
0.0
 11
-6.34326502567309
 21
17.58984530754675
 31
0.0
  0
LINE
  5
C8
330
47
100
AcDbEntity
  8
0
  6
Continuous
 62
     7
100
AcDbLine
 10
-6.34326502567309
 20
17.58984530754675
 30
0.0
 11
-7.89326599991977
 21
17.58984530754675
 31
0.0
  0
LINE
  5
C9
330
47
100
AcDbEntity
  8
0
  6
Continuous
 62
     7
100
AcDbLine
 10
-5.64326599991977
 20
18.43984530754675
 30
0.0
 11
-5.63344003138373
 21
18.43984530754675
 31
0.0
  0
LINE
  5
CA
330
47
100
AcDbEntity
  8
0
  6
Continuous
 62
     7
100
AcDbLine
 10
-5.64326599991977
 20
18.08984530754675
 30
0.0
 11
-5.64326599991977
 21
17.58984530754675
 31
0.0
  0
LINE
  5
CB
330
47
100
AcDbEntity
  8
0
  6
Continuous
 62
     7
100
AcDbLine
 10
-5.64326599991977
 20
18.43984530754675
 30
0.0
 11
-5.64326599991977
 21
18.08984530754675
 31
0.0
  0
LINE
  5
CC
330
47
100
AcDbEntity
  8
0
  6
Continuous
 62
     7
100
AcDbLine
 10
-5.63344003138373
 20
18.08984530754675
 30
0.0
 11
-5.63344003138373
 21
18.43984530754675
 31
0.0
  0
LINE
  5
CD
330
47
100
AcDbEntity
  8
0
  6
Continuous
 62
     7
100
AcDbLine
 10
-5.34326599991977
 20
17.58984530754675
 30
0.0
 11
-5.64326599991977
 21
17.58984530754675
 31
0.0
  0
LINE
  5
CE
330
47
100
AcDbEntity
  8
0
  6
Continuous
 62
     7
100
AcDbLine
 10
-5.34326599991977
 20
17.58984530754675
 30
0.0
 11
-5.34326599991977
 21
14.94378267195405
 31
0.0
  0
LINE
  5
CF
330
47
100
AcDbEntity
  8
1
  6
DOT_CENTER
 62
     2
100
AcDbLine
 10
-7.89326599991977
 20
18.43984530754675
 30
0.0
 11
-7.89326599991984
 21
15.08984530754674
 31
0.0
  0
LINE
  5
D0
330
47
100
AcDbEntity
  8
1
  6
DOT_CENTER
 62
     2
100
AcDbLine
 10
-14.24187049991977
 20
18.43984530754675
 30
0.0
 11
-14.24187049991977
 21
17.58984530754675
 31
0.0
  0
LINE
  5
D1
330
47
100
AcDbEntity
  8
1
  6
DOT_CENTER
 62
     2
100
AcDbLine
 10
-4.84326599991977
 20
18.08984530754675
 30
0.0
 11
-4.84326599991977
 21
17.58984530754675
 31
0.0
  0
LINE
  5
D2
330
47
100
AcDbEntity
  8
1
  6
DOT_CENTER
 62
     2
100
AcDbLine
 10
-16.78326599991977
 20
18.43984530754675
 30
0.0
 11
-16.78326599991977
 21
17.58984530754675
 31
0.0
  0
ARC
  5
D3
330
47
100
AcDbEntity
  8
0
  6
Continuous
 62
     7
100
AcDbCircle
 10
-4.84326599991977
 20
14.94378267195405
 30
0.0
 40
0.5
100
AcDbArc
 50
180.0
 51
0.0
  0
ARC
  5
D4
330
47
100
AcDbEntity
  8
0
  6
Continuous
 62
     7
100
AcDbCircle
 10
-2.94326599991977
 20
21.10884779512435
 30
0.0
 40
0.2000000000000015
100
AcDbArc
 50
95.71059313750025
 51
180.0
  0
ARC
  5
D5
330
47
100
AcDbEntity
  8
0
  6
Continuous
 62
     7
100
AcDbCircle
 10
-2.94326599991973
 20
20.47084281996918
 30
0.0
 40
0.2000000000000379
100
AcDbArc
 50
180.0000000000092
 51
264.2894068624901
  0
ARC
  5
D6
330
47
100
AcDbEntity
  8
0
  6
Continuous
 62
     7
100
AcDbCircle
 10
1.60673400008018
 20
18.88984530754679
 30
0.0
 40
0.7500000000000536
100
AcDbArc
 50
287.8579475050742
 51
318.1896851042203
  0
ARC
  5
D7
330
47
100
AcDbEntity
  8
0
  6
Continuous
 62
     7
100
AcDbCircle
 10
-2.14326599991838
 20
26.58984530754875
 30
0.0
 40
5.999999999997994
100
AcDbArc
 50
76.58032638449511
 51
90.00000000001334
  0
ARC
  5
D8
330
47
100
AcDbEntity
  8
0
  6
Continuous
 62
     7
100
AcDbCircle
 10
-2.14326599992069
 20
26.58984530754902
 30
0.0
 40
5.749999999997732
100
AcDbArc
 50
76.58032638447126
 51
89.99999999999089
  0
ARC
  5
D9
330
47
100
AcDbEntity
  8
0
  6
Continuous
 62
     7
100
AcDbCircle
 10
-2.9432659999198
 20
28.30884779512438
 30
0.0
 40
0.1999999999999702
100
AcDbArc
 50
95.71059313749245
 51
180.0000000000082
  0
ARC
  5
DA
330
47
100
AcDbEntity
  8
0
  6
Continuous
 62
     7
100
AcDbCircle
 10
-2.94326599991974
 20
27.67084281996917
 30
0.0
 40
0.2000000000000268
100
AcDbArc
 50
180.0000000000061
 51
264.2894068624933
  0
SPLINE
  5
DB
330
47
100
AcDbEntity
  8
0
  6
Continuous
 62
     7
100
AcDbSpline
210
0.0
220
0.0
230
1.0
 70
    24
 71
     3
 72
    11
 73
     7
 74
     5
 42
0.000000001
 43
0.0000000001
 44
0.00000001
 40
0.0
 40
0.0
 40
0.0
 40
0.0
 40
0.0145853332218643
 40
0.0291706664437269
 40
0.0437402624981545
 40
0.0583098585525823
 40
0.0583098585525823
 40
0.0583098585525823
 40
0.0583098585525823
 10
-0.8087950101586738
 20
21.52329240652287
 30
0.0
 10
-0.8039573604962206
 20
21.52377617148912
 30
0.0
 10
-0.7942820611713158
 20
21.52474370142162
 30
0.0
 10
-0.7797743318729111
 20
21.52619447435146
 30
0.0
 10
-0.7652718222634636
 20
21.5276447253124
 30
0.0
 10
-0.7556069623164685
 20
21.5286112113071
 30
0.0
 10
-0.7507745323429713
 20
21.52909445430445
 30
0.0
 11
-0.8087950101586738
 21
21.52329240652287
 31
0.0
 11
-0.7942820611713148
 21
21.52474370142161
 31
0.0
 11
-0.7797691121839563
 21
21.52619499632035
 31
0.0
 11
-0.7652718222634637
 21
21.5276447253124
 31
0.0
 11
-0.7507745323429713
 21
21.52909445430445
 31
0.0
  0
SPLINE
  5
DC
330
47
100
AcDbEntity
  8
0
  6
Continuous
 62
     7
100
AcDbSpline
210
0.0
220
0.0
230
1.0
 70
    24
 71
     3
 72
    11
 73
     7
 74
     5
 42
0.000000001
 43
0.0000000001
 44
0.00000001
 40
0.0
 40
0.0
 40
0.0
 40
0.0
 40
0.3312871758545706
 40
0.6660033338923501
 40
1.002991332485718
 40
1.341126746709312
 40
1.341126746709312
 40
1.341126746709312
 40
1.341126746709312
 10
-0.8087950101586738
 20
21.52329240652287
 30
0.0
 10
-0.9186760303636538
 20
21.51230430450239
 30
0.0
 10
-1.139575392372566
 20
21.49021436830153
 30
0.0
 10
-1.472246618133088
 20
21.45694724572548
 30
0.0
 10
-1.807189261181807
 20
21.4234529814206
 30
0.0
 10
-2.031113562426594
 20
21.40106055129609
 30
0.0
 10
-2.143265999919771
 20
21.38984530754676
 30
0.0
 11
-0.8087950101586738
 21
21.52329240652287
 31
0.0
 11
-1.138438070773614
 21
21.49032810046144
 31
0.0
 11
-1.471493096185414
 21
21.45702259792031
 31
0.0
 11
-1.806808687440241
 21
21.42349103879477
 31
0.0
 11
-2.143265999919771
 21
21.38984530754676
 31
0.0
  0
SPLINE
  5
DD
330
47
100
AcDbEntity
  8
0
  6
Continuous
 62
     7
100
AcDbSpline
210
0.0
220
0.0
230
1.0
 70
    24
 71
     3
 72
    11
 73
     7
 74
     5
 42
0.000000001
 43
0.0000000001
 44
0.00000001
 40
0.0
 40
0.0
 40
0.0
 40
0.0
 40
0.3381354142235939
 40
0.6751234128169595
 40
1.00983957085474
 40
1.341126746709315
 40
1.341126746709315
 40
1.341126746709315
 40
1.341126746709315
 10
-2.143265999919771
 20
20.18984530754675
 30
0.0
 10
-2.031113562426594
 20
20.17863006379742
 30
0.0
 10
-1.807189261181806
 20
20.15623763367292
 30
0.0
 10
-1.472246618133086
 20
20.12274336936804
 30
0.0
 10
-1.139575392372566
 20
20.089476246792
 30
0.0
 10
-0.9186760303636528
 20
20.06738631059111
 30
0.0
 10
-0.8087950101586721
 20
20.05639820857062
 30
0.0
 11
-2.143265999919771
 21
20.18984530754675
 31
0.0
 11
-1.806808687440239
 21
20.15619957629875
 31
0.0
 11
-1.471493096185413
 21
20.12266801717321
 31
0.0
 11
-1.138438070773613
 21
20.08936251463208
 31
0.0
 11
-0.8087950101586721
 21
20.05639820857062
 31
0.0
  0
SPLINE
  5
DE
330
47
100
AcDbEntity
  8
0
  6
Continuous
 62
     7
100
AcDbSpline
210
0.0
220
0.0
230
1.0
 70
    24
 71
     3
 72
    11
 73
     7
 74
     5
 42
0.000000001
 43
0.0000000001
 44
0.00000001
 40
0.0
 40
0.0
 40
0.0
 40
0.0
 40
0.0145695960544287
 40
0.0291391921088568
 40
0.0437245253307173
 40
0.0583098585525798
 40
0.0583098585525798
 40
0.0583098585525798
 40
0.0583098585525798
 10
-0.7507745323429713
 20
20.05059616078905
 30
0.0
 10
-0.755606962316469
 20
20.0510794037864
 30
0.0
 10
-0.7652718222634632
 20
20.05204588978111
 30
0.0
 10
-0.7797743318729113
 20
20.05349614074204
 30
0.0
 10
-0.7942820611713143
 20
20.05494691367188
 30
0.0
 10
-0.8039573604962194
 20
20.05591444360437
 30
0.0
 10
-0.8087950101586721
 20
20.05639820857062
 30
0.0
 11
-0.7507745323429713
 21
20.05059616078905
 31
0.0
 11
-0.7652718222634635
 21
20.0520458897811
 31
0.0
 11
-0.7797691121839563
 21
20.05349561877315
 31
0.0
 11
-0.7942820611713137
 21
20.05494691367188
 31
0.0
 11
-0.8087950101586721
 21
20.05639820857062
 31
0.0
  0
SPLINE
  5
DF
330
47
100
AcDbEntity
  8
0
  6
Continuous
 62
     7
100
AcDbSpline
210
0.0
220
0.0
230
1.0
 70
    24
 71
     3
 72
    11
 73
     7
 74
     5
 42
0.000000001
 43
0.0000000001
 44
0.00000001
 40
0.0
 40
0.0
 40
0.0
 40
0.0
 40
0.0145695960544283
 40
0.0291391921088562
 40
0.0437245253307176
 40
0.0583098585525812
 40
0.0583098585525812
 40
0.0583098585525812
 40
0.0583098585525812
 10
-0.7507745323429713
 20
27.25059616078905
 30
0.0
 10
-0.7556069623164691
 20
27.25107940378641
 30
0.0
 10
-0.7652718222634621
 20
27.25204588978111
 30
0.0
 10
-0.7797743318729105
 20
27.25349614074205
 30
0.0
 10
-0.7942820611713142
 20
27.25494691367189
 30
0.0
 10
-0.8039573604962209
 20
27.25591444360438
 30
0.0
 10
-0.8087950101586738
 20
27.25639820857062
 30
0.0
 11
-0.7507745323429713
 21
27.25059616078905
 31
0.0
 11
-0.7652718222634629
 21
27.2520458897811
 31
0.0
 11
-0.7797691121839545
 21
27.25349561877315
 31
0.0
 11
-0.7942820611713133
 21
27.25494691367188
 31
0.0
 11
-0.8087950101586738
 21
27.25639820857062
 31
0.0
  0
SPLINE
  5
E0
330
47
100
AcDbEntity
  8
0
  6
Continuous
 62
     7
100
AcDbSpline
210
0.0
220
0.0
230
1.0
 70
    24
 71
     3
 72
    11
 73
     7
 74
     5
 42
0.000000001
 43
0.0000000001
 44
0.00000001
 40
0.0
 40
0.0
 40
0.0
 40
0.0
 40
0.0145853332631681
 40
0.0291706664909328
 40
0.0437402625453608
 40
0.0583098585997899
 40
0.0583098585997899
 40
0.0583098585997899
 40
0.0583098585997899
 10
-0.808795010205646
 20
28.72329240651818
 30
0.0
 10
-0.8039573605294923
 20
28.72377617148578
 30
0.0
 10
-0.794282061188928
 20
28.72474370141984
 30
0.0
 10
-0.7797743318748674
 20
28.72619447435124
 30
0.0
 10
-0.7652718222634631
 20
28.72764472531241
 30
0.0
 10
-0.7556069623164671
 20
28.7286112113071
 30
0.0
 10
-0.7507745323429686
 20
28.72909445430444
 30
0.0
 11
-0.808795010205646
 21
28.72329240651818
 31
0.0
 11
-0.7942820611771856
 21
28.72474370142102
 31
0.0
 11
-0.7797691121839554
 21
28.72619499632035
 31
0.0
 11
-0.7652718222634631
 21
28.7276447253124
 31
0.0
 11
-0.7507745323429686
 21
28.72909445430444
 31
0.0
  0
SPLINE
  5
E1
330
47
100
AcDbEntity
  8
0
  6
Continuous
 62
     7
100
AcDbSpline
210
0.0
220
0.0
230
1.0
 70
    24
 71
     3
 72
    11
 73
     7
 74
     5
 42
0.000000001
 43
0.0000000001
 44
0.00000001
 40
0.0
 40
0.0
 40
0.0
 40
0.0
 40
0.3312871758431974
 40
0.6660033338692339
 40
1.002991332450619
 40
1.341126746662107
 40
1.341126746662107
 40
1.341126746662107
 40
1.341126746662107
 10
-0.808795010205646
 20
28.72329240651818
 30
0.0
 10
-0.9186760304068532
 20
28.71230430449807
 30
0.0
 10
-1.139575392408097
 20
28.69021436829795
 30
0.0
 10
-1.472246618156977
 20
28.65694724572308
 30
0.0
 10
-1.807189261193812
 20
28.62345298141938
 30
0.0
 10
-2.031113562430609
 20
28.60106055129568
 30
0.0
 10
-2.143265999919771
 20
28.58984530754675
 30
0.0
 11
-0.808795010205646
 21
28.72329240651818
 31
0.0
 11
-1.138438070809267
 21
28.69032810045785
 31
0.0
 11
-1.471493096209382
 21
28.65702259791789
 31
0.0
 11
-1.806808687452286
 21
28.62349103879354
 31
0.0
 11
-2.143265999919771
 21
28.58984530754675
 31
0.0
  0
SPLINE
  5
E2
330
47
100
AcDbEntity
  8
0
  6
Continuous
 62
     7
100
AcDbSpline
210
0.0
220
0.0
230
1.0
 70
    24
 71
     3
 72
    11
 73
     7
 74
     5
 42
0.000000001
 43
0.0000000001
 44
0.00000001
 40
0.0
 40
0.0
 40
0.0
 40
0.0
 40
0.3381354142235924
 40
0.6751234128169599
 40
1.009839570854741
 40
1.341126746709313
 40
1.341126746709313
 40
1.341126746709313
 40
1.341126746709313
 10
-2.143265999919771
 20
27.38984530754675
 30
0.0
 10
-2.031113562426595
 20
27.37863006379742
 30
0.0
 10
-1.807189261181805
 20
27.35623763367292
 30
0.0
 10
-1.472246618133088
 20
27.32274336936804
 30
0.0
 10
-1.139575392372566
 20
27.28947624679198
 30
0.0
 10
-0.9186760303636531
 20
27.2673863105911
 30
0.0
 10
-0.8087950101586738
 20
27.25639820857062
 30
0.0
 11
-2.143265999919771
 21
27.38984530754675
 31
0.0
 11
-1.80680868744024
 21
27.35619957629874
 31
0.0
 11
-1.471493096185414
 21
27.32266801717321
 31
0.0
 11
-1.138438070773614
 21
27.28936251463208
 31
0.0
 11
-0.8087950101586738
 21
27.25639820857062
 31
0.0
  0
ENDBLK
  5
49
330
47
100
AcDbEntity
  8
0
100
AcDbBlockEnd
  0
BLOCK
  5
4C
330
4A
100
AcDbEntity
  8
0
100
AcDbBlockBegin
  2
VS-08-BU-RJ45-6_LH-1__2
 70
     0
 10
-18.64326599991977
 20
14.44378267195405
 30
0.0
  3
VS-08-BU-RJ45-6_LH-1__2
  1

  0
INSERT
  5
4B
330
4A
100
AcDbEntity
  8
0
100
AcDbBlockReference
  2
VS-08-BU-RJ45-6_LH-1_1__1
 10
-18.64326599991977
 20
14.44378267195405
 30
0.0
  0
ENDBLK
  5
4D
330
4A
100
AcDbEntity
  8
0
100
AcDbBlockEnd
  0
BLOCK
  5
50
330
4E
100
AcDbEntity
  8
0
100
AcDbBlockBegin
  2
SA_Links1
 70
     0
 10
2.10673400000007
 20
19.8707513644
 30
0.0
  3
SA_Links1
  1

  0
INSERT
  5
4F
330
4E
100
AcDbEntity
  8
0
100
AcDbBlockReference
  2
VS-08-BU-RJ45-6_LH-1__2
 10
-18.64326599991977
 20
14.44378267195405
 30
0.0
  0
MTEXT
  5
E4
330
4E
100
AcDbEntity
  8
1
 62
     6
100
AcDbMText
 10
-8.14326612813073
 20
13.44378053121923
 30
0.0
 40
1.0
 41
0.0
 71
     2
 72
     1
  1
 
  7
CONVERTER_11
 73
     1
 44
1.32052821128451
  0
DIMENSION
  5
EF
330
4E
100
AcDbEntity
  8
1
100
AcDbDimension
  2
*D11
 10
-18.64326599991978
 20
12.03984530754675
 30
0.0
 11
-7.21118072059178
 21
12.68984530754675
 31
0.0
 70
    32
  1
<>
 71
     5
 42
-1.0
 53
0.00013888888889
  3
ME10_DIM_10
100
AcDbAlignedDimension
 13
2.35673400008023
 23
31.83984530754675
 33
0.0
 14
-18.64326599991977
 24
31.83984530754675
 34
0.0
100
AcDbRotatedDimension
  0
DIMENSION
  5
FA
330
4E
100
AcDbEntity
  8
1
100
AcDbDimension
  2
*D12
 10
4.45281597150383
 20
31.83984530754674
 30
0.0
 11
3.76781597150383
 21
23.73363923249439
 31
0.0
 70
    32
  1
<>
 71
     5
 42
-1.0
 53
90.0
  3
ME10_DIM_11
100
AcDbAlignedDimension
 13
-1.14326599991977
 23
18.08984530754675
 33
0.0
 14
0.62879282360919
 24
31.83984530754675
 34
0.0
 50
90.0
100
AcDbRotatedDimension
  0
INSERT
  5
104
330
4E
100
AcDbEntity
  8
1
100
AcDbBlockReference
  2
*D13
 10
0.0
 20
0.0
 30
0.0
  0
ENDBLK
  5
51
330
4E
100
AcDbEntity
  8
0
100
AcDbBlockEnd
  0
BLOCK
  5
53
330
52
100
AcDbEntity
  8
0
100
AcDbBlockBegin
  2
VS-08-BU-RJ45-6_LH-1_1__3
 70
     0
 10
-40.28327100101996
 20
14.44378267195426
 30
0.0
  3
VS-08-BU-RJ45-6_LH-1_1__3
  1

  0
LINE
  5
105
330
52
100
AcDbEntity
  8
0
  6
Continuous
 62
     7
100
AcDbLine
 10
-40.28327100101996
 20
20.18984530754697
 30
0.0
 11
-40.28327100101996
 21
21.38984530754699
 31
0.0
  0
LINE
  5
106
330
52
100
AcDbEntity
  8
0
  6
Continuous
 62
     7
100
AcDbLine
 10
-40.11944847542266
 20
20.05059616078926
 30
0.0
 11
-39.49730608873926
 21
19.78984530754696
 31
0.0
  0
LINE
  5
107
330
52
100
AcDbEntity
  8
0
  6
Continuous
 62
     2
100
AcDbLine
 10
-40.11944847542266
 20
20.05059616078926
 30
0.0
 11
-40.11944847542266
 21
21.52909445430466
 31
0.0
  0
LINE
  5
108
330
52
100
AcDbEntity
  8
0
  6
Continuous
 62
     7
100
AcDbLine
 10
-39.48327100101996
 20
14.44378267195426
 30
0.0
 11
-39.48327100101996
 21
14.94378267195426
 31
0.0
  0
LINE
  5
109
330
52
100
AcDbEntity
  8
0
  6
Continuous
 62
     7
100
AcDbLine
 10
-39.23327100101996
 20
14.44378267195426
 30
0.0
 11
-39.48327100101996
 21
14.44378267195426
 31
0.0
  0
LINE
  5
10A
330
52
100
AcDbEntity
  8
0
  6
Continuous
 62
     7
100
AcDbLine
 10
-39.23327100101996
 20
14.44378267195426
 30
0.0
 11
-39.23327100101996
 21
14.94378267195426
 31
0.0
  0
LINE
  5
10B
330
52
100
AcDbEntity
  8
0
  6
Continuous
 62
     7
100
AcDbLine
 10
-39.23327100101996
 20
14.94378267195426
 30
0.0
 11
-39.23327100101996
 21
17.58984530754696
 31
0.0
  0
LINE
  5
10C
330
52
100
AcDbEntity
  8
0
  6
Continuous
 62
     2
100
AcDbLine
 10
-39.23327100101996
 20
14.94378267195426
 30
0.0
 11
-39.48327100101996
 21
14.94378267195426
 31
0.0
  0
LINE
  5
10D
330
52
100
AcDbEntity
  8
0
  6
Continuous
 62
     7
100
AcDbLine
 10
-38.74827197526663
 20
15.08984530754696
 30
0.0
 11
-38.74827197526663
 21
17.58984530754696
 31
0.0
  0
LINE
  5
10E
330
52
100
AcDbEntity
  8
0
  6
Continuous
 62
     7
100
AcDbLine
 10
-39.48327100101996
 20
18.08984530754696
 30
0.0
 11
-40.15827100101996
 21
18.08984530754696
 31
0.0
  0
LINE
  5
10F
330
52
100
AcDbEntity
  8
0
  6
Continuous
 62
     7
100
AcDbLine
 10
-40.15827100101996
 20
18.08984530754696
 30
0.0
 11
-40.15827100101996
 21
17.58984530754696
 31
0.0
  0
LINE
  5
110
330
52
100
AcDbEntity
  8
0
  6
Continuous
 62
     7
100
AcDbLine
 10
-34.15827100101996
 20
17.58984530754696
 30
0.0
 11
-34.43327100101996
 21
17.58984530754696
 31
0.0
  0
LINE
  5
111
330
52
100
AcDbEntity
  8
0
  6
Continuous
 62
     7
100
AcDbLine
 10
-34.88327100101996
 20
17.58984530754696
 30
0.0
 11
-35.15827100101996
 21
17.58984530754696
 31
0.0
  0
LINE
  5
112
330
52
100
AcDbEntity
  8
0
  6
Continuous
 62
     7
100
AcDbLine
 10
-31.61827100101996
 20
17.58984530754696
 30
0.0
 11
-31.89327100101996
 21
17.58984530754696
 31
0.0
  0
LINE
  5
113
330
52
100
AcDbEntity
  8
0
  6
Continuous
 62
     7
100
AcDbLine
 10
-32.34327100101996
 20
17.58984530754696
 30
0.0
 11
-32.61827100101996
 21
17.58984530754696
 31
0.0
  0
LINE
  5
114
330
52
100
AcDbEntity
  8
0
  6
Continuous
 62
     7
100
AcDbLine
 10
-32.88827100101995
 20
17.58984530754696
 30
0.0
 11
-33.16327100101996
 21
17.58984530754696
 31
0.0
  0
LINE
  5
115
330
52
100
AcDbEntity
  8
0
  6
Continuous
 62
     7
100
AcDbLine
 10
-33.61327100101995
 20
17.58984530754696
 30
0.0
 11
-33.88827100101995
 21
17.58984530754696
 31
0.0
  0
LINE
  5
116
330
52
100
AcDbEntity
  8
0
  6
Continuous
 62
     7
100
AcDbLine
 10
-33.16327100101996
 20
17.58984530754696
 30
0.0
 11
-33.61327100101995
 21
17.58984530754696
 31
0.0
  0
LINE
  5
117
330
52
100
AcDbEntity
  8
0
  6
Continuous
 62
     7
100
AcDbLine
 10
-31.89327100101996
 20
17.58984530754696
 30
0.0
 11
-32.34327100101996
 21
17.58984530754696
 31
0.0
  0
LINE
  5
118
330
52
100
AcDbEntity
  8
0
  6
Continuous
 62
     7
100
AcDbLine
 10
-34.43327100101996
 20
17.58984530754696
 30
0.0
 11
-34.88327100101996
 21
17.58984530754696
 31
0.0
  0
LINE
  5
119
330
52
100
AcDbEntity
  8
0
  6
Continuous
 62
     7
100
AcDbLine
 10
-39.48327100101996
 20
17.58984530754696
 30
0.0
 11
-40.15827100101996
 21
17.58984530754696
 31
0.0
  0
LINE
  5
11A
330
52
100
AcDbEntity
  8
0
  6
Continuous
 62
     7
100
AcDbLine
 10
-38.74827197526663
 20
15.08984530754696
 30
0.0
 11
-35.64827002677327
 21
15.08984530754696
 31
0.0
  0
LINE
  5
11B
330
52
100
AcDbEntity
  8
0
  6
Continuous
 62
     7
100
AcDbLine
 10
-39.48327100101996
 20
17.58984530754696
 30
0.0
 11
-39.48327100101996
 21
14.94378267195426
 31
0.0
  0
LINE
  5
11C
330
52
100
AcDbEntity
  8
0
  6
Continuous
 62
     7
100
AcDbLine
 10
-37.78327100101996
 20
18.38984530754696
 30
0.0
 11
-39.48327100101996
 21
18.38984530754696
 31
0.0
  0
LINE
  5
11D
330
52
100
AcDbEntity
  8
0
  6
Continuous
 62
     7
100
AcDbLine
 10
-39.49730608873926
 20
21.78984530754698
 30
0.0
 11
-40.11944847542266
 21
21.52909445430466
 31
0.0
  0
LINE
  5
11E
330
52
100
AcDbEntity
  8
0
  6
Continuous
 62
     7
100
AcDbLine
 10
-32.75727100101996
 20
24.53501107680544
 30
0.0
 11
-33.25727100101996
 21
24.53501107680544
 31
0.0
  0
LINE
  5
11F
330
52
100
AcDbEntity
  8
0
  6
Continuous
 62
     7
100
AcDbLine
 10
-32.24127100101995
 20
21.33984530754699
 30
0.0
 11
-32.24127100101995
 21
24.53501107680544
 31
0.0
  0
LINE
  5
120
330
52
100
AcDbEntity
  8
0
  6
Continuous
 62
     7
100
AcDbLine
 10
-31.74127100101996
 20
24.53501107680544
 30
0.0
 11
-32.24127100101995
 21
24.53501107680544
 31
0.0
  0
LINE
  5
121
330
52
100
AcDbEntity
  8
0
  6
Continuous
 62
     7
100
AcDbLine
 10
-31.74127100101996
 20
24.53501107680544
 30
0.0
 11
-31.74127100101996
 21
21.33984530754699
 31
0.0
  0
LINE
  5
122
330
52
100
AcDbEntity
  8
0
  6
Continuous
 62
     7
100
AcDbLine
 10
-31.22527100101996
 20
21.33984530754699
 30
0.0
 11
-31.22527100101996
 21
24.53501107680545
 31
0.0
  0
LINE
  5
123
330
52
100
AcDbEntity
  8
0
  6
Continuous
 62
     7
100
AcDbLine
 10
-30.72527100101996
 20
24.53501107680544
 30
0.0
 11
-31.22527100101996
 21
24.53501107680545
 31
0.0
  0
LINE
  5
124
330
52
100
AcDbEntity
  8
0
  6
Continuous
 62
     7
100
AcDbLine
 10
-30.72527100101996
 20
24.53501107680544
 30
0.0
 11
-30.72527100101996
 21
21.33984530754699
 31
0.0
  0
LINE
  5
125
330
52
100
AcDbEntity
  8
0
  6
Continuous
 62
     7
100
AcDbLine
 10
-30.20927100101996
 20
24.53501107680544
 30
0.0
 11
-30.20927100101996
 21
25.03984530754696
 31
0.0
  0
LINE
  5
126
330
52
100
AcDbEntity
  8
0
  6
Continuous
 62
     7
100
AcDbLine
 10
-30.72527100101996
 20
25.03984530754696
 30
0.0
 11
-30.72527100101996
 21
24.53501107680544
 31
0.0
  0
LINE
  5
127
330
52
100
AcDbEntity
  8
0
  6
Continuous
 62
     7
100
AcDbLine
 10
-31.22527100101996
 20
24.53501107680545
 30
0.0
 11
-31.22527100101996
 21
25.03984530754696
 31
0.0
  0
LINE
  5
128
330
52
100
AcDbEntity
  8
0
  6
Continuous
 62
     7
100
AcDbLine
 10
-31.74127100101996
 20
25.03984530754697
 30
0.0
 11
-31.74127100101996
 21
24.53501107680544
 31
0.0
  0
LINE
  5
129
330
52
100
AcDbEntity
  8
0
  6
Continuous
 62
     7
100
AcDbLine
 10
-32.24127100101995
 20
24.53501107680544
 30
0.0
 11
-32.24127100101995
 21
25.03984530754697
 31
0.0
  0
LINE
  5
12A
330
52
100
AcDbEntity
  8
0
  6
Continuous
 62
     7
100
AcDbLine
 10
-32.75727100101996
 20
24.53501107680544
 30
0.0
 11
-32.75727100101996
 21
21.33984530754699
 31
0.0
  0
LINE
  5
12B
330
52
100
AcDbEntity
  8
0
  6
Continuous
 62
     7
100
AcDbLine
 10
-33.25727100101996
 20
24.53501107680544
 30
0.0
 11
-33.25727100101996
 21
25.03984530754697
 31
0.0
  0
LINE
  5
12C
330
52
100
AcDbEntity
  8
0
  6
Continuous
 62
     7
100
AcDbLine
 10
-32.75727100101994
 20
25.03984530754697
 30
0.0
 11
-32.75727100101996
 21
24.53501107680544
 31
0.0
  0
LINE
  5
12D
330
52
100
AcDbEntity
  8
0
  6
Continuous
 62
     7
100
AcDbLine
 10
-30.20927100101996
 20
21.33984530754699
 30
0.0
 11
-30.20927100101996
 21
24.53501107680544
 31
0.0
  0
LINE
  5
12E
330
52
100
AcDbEntity
  8
0
  6
Continuous
 62
     7
100
AcDbLine
 10
-29.70927100101996
 20
24.53501107680544
 30
0.0
 11
-29.70927100101996
 21
21.33984530754699
 31
0.0
  0
LINE
  5
12F
330
52
100
AcDbEntity
  8
0
  6
Continuous
 62
     7
100
AcDbLine
 10
-29.70927100101996
 20
24.53501107680544
 30
0.0
 11
-30.20927100101996
 21
24.53501107680544
 31
0.0
  0
LINE
  5
130
330
52
100
AcDbEntity
  8
0
  6
Continuous
 62
     7
100
AcDbLine
 10
-29.60927100101996
 20
25.88984530754696
 30
0.0
 11
-29.70927100101996
 21
25.03984530754698
 31
0.0
  0
LINE
  5
131
330
52
100
AcDbEntity
  8
0
  6
Continuous
 62
     7
100
AcDbLine
 10
-30.20927100101996
 20
25.03984530754696
 30
0.0
 11
-30.30927100101996
 21
25.88984530754697
 31
0.0
  0
LINE
  5
132
330
52
100
AcDbEntity
  8
0
  6
Continuous
 62
     7
100
AcDbLine
 10
-30.30927100101996
 20
25.88984530754697
 30
0.0
 11
-30.62527100101996
 21
25.88984530754696
 31
0.0
  0
LINE
  5
133
330
52
100
AcDbEntity
  8
0
  6
Continuous
 62
     7
100
AcDbLine
 10
-30.62527100101996
 20
25.88984530754696
 30
0.0
 11
-30.72527100101996
 21
25.03984530754696
 31
0.0
  0
LINE
  5
134
330
52
100
AcDbEntity
  8
0
  6
Continuous
 62
     7
100
AcDbLine
 10
-31.22527100101996
 20
25.03984530754696
 30
0.0
 11
-31.32527100101996
 21
25.88984530754697
 31
0.0
  0
LINE
  5
135
330
52
100
AcDbEntity
  8
0
  6
Continuous
 62
     7
100
AcDbLine
 10
-31.32527100101996
 20
25.88984530754697
 30
0.0
 11
-31.64127100101995
 21
25.88984530754696
 31
0.0
  0
LINE
  5
136
330
52
100
AcDbEntity
  8
0
  6
Continuous
 62
     7
100
AcDbLine
 10
-31.64127100101995
 20
25.88984530754696
 30
0.0
 11
-31.74127100101996
 21
25.03984530754697
 31
0.0
  0
LINE
  5
137
330
52
100
AcDbEntity
  8
0
  6
Continuous
 62
     7
100
AcDbLine
 10
-32.34127100101996
 20
25.88984530754697
 30
0.0
 11
-32.65727100101996
 21
25.88984530754696
 31
0.0
  0
LINE
  5
138
330
52
100
AcDbEntity
  8
0
  6
Continuous
 62
     7
100
AcDbLine
 10
-32.24127100101995
 20
25.03984530754697
 30
0.0
 11
-32.34127100101996
 21
25.88984530754697
 31
0.0
  0
LINE
  5
139
330
52
100
AcDbEntity
  8
0
  6
Continuous
 62
     7
100
AcDbLine
 10
-32.65727100101996
 20
25.88984530754696
 30
0.0
 11
-32.75727100101994
 21
25.03984530754697
 31
0.0
  0
LINE
  5
13A
330
52
100
AcDbEntity
  8
0
  6
Continuous
 62
     7
100
AcDbLine
 10
-29.48327100101996
 20
31.03984530754696
 30
0.0
 11
-33.48327100101996
 21
31.03984530754696
 31
0.0
  0
LINE
  5
13B
330
52
100
AcDbEntity
  8
0
  6
Continuous
 62
     7
100
AcDbLine
 10
-31.89327100101996
 20
17.58984530754696
 30
0.0
 11
-31.89327100101996
 21
14.48984530754696
 31
0.0
  0
LINE
  5
13C
330
52
100
AcDbEntity
  8
0
  6
Continuous
 62
     7
100
AcDbLine
 10
-31.89327100101996
 20
14.48984530754696
 30
0.0
 11
-32.34327100101996
 21
14.48984530754696
 31
0.0
  0
LINE
  5
13D
330
52
100
AcDbEntity
  8
0
  6
Continuous
 62
     7
100
AcDbLine
 10
-31.61827100101996
 20
18.08984530754696
 30
0.0
 11
-31.61827100101996
 21
17.58984530754696
 31
0.0
  0
LINE
  5
13E
330
52
100
AcDbEntity
  8
0
  6
Continuous
 62
     7
100
AcDbLine
 10
-32.88827100101995
 20
18.08984530754696
 30
0.0
 11
-32.88827100101995
 21
17.58984530754696
 31
0.0
  0
LINE
  5
13F
330
52
100
AcDbEntity
  8
0
  6
Continuous
 62
     7
100
AcDbLine
 10
-32.61827100101996
 20
18.08984530754696
 30
0.0
 11
-32.61827100101996
 21
17.58984530754696
 31
0.0
  0
LINE
  5
140
330
52
100
AcDbEntity
  8
0
  6
Continuous
 62
     7
100
AcDbLine
 10
-32.34327100101996
 20
17.58984530754696
 30
0.0
 11
-32.34327100101996
 21
14.48984530754696
 31
0.0
  0
LINE
  5
141
330
52
100
AcDbEntity
  8
0
  6
Continuous
 62
     7
100
AcDbLine
 10
-30.62327100101996
 20
17.58984530754696
 30
0.0
 11
-30.62327100101996
 21
14.48984530754696
 31
0.0
  0
LINE
  5
142
330
52
100
AcDbEntity
  8
0
  6
Continuous
 62
     7
100
AcDbLine
 10
-30.62327100101996
 20
14.48984530754696
 30
0.0
 11
-31.07327100101996
 21
14.48984530754696
 31
0.0
  0
LINE
  5
143
330
52
100
AcDbEntity
  8
0
  6
Continuous
 62
     7
100
AcDbLine
 10
-30.07827100101996
 20
18.08984530754696
 30
0.0
 11
-30.07827100101996
 21
17.58984530754696
 31
0.0
  0
LINE
  5
144
330
52
100
AcDbEntity
  8
0
  6
Continuous
 62
     7
100
AcDbLine
 10
-30.34827100101996
 20
18.08984530754696
 30
0.0
 11
-30.34827100101996
 21
17.58984530754696
 31
0.0
  0
LINE
  5
145
330
52
100
AcDbEntity
  8
0
  6
Continuous
 62
     7
100
AcDbLine
 10
-31.34827100101996
 20
18.08984530754696
 30
0.0
 11
-31.34827100101996
 21
17.58984530754696
 31
0.0
  0
LINE
  5
146
330
52
100
AcDbEntity
  8
0
  6
Continuous
 62
     7
100
AcDbLine
 10
-31.07327100101996
 20
17.58984530754696
 30
0.0
 11
-31.07327100101996
 21
14.48984530754696
 31
0.0
  0
LINE
  5
147
330
52
100
AcDbEntity
  8
0
  6
Continuous
 62
     7
100
AcDbLine
 10
-33.25727100101996
 20
25.03984530754697
 30
0.0
 11
-33.35727100101995
 21
25.88984530754697
 31
0.0
  0
LINE
  5
148
330
52
100
AcDbEntity
  8
0
  6
Continuous
 62
     7
100
AcDbLine
 10
-24.66788638563536
 20
32.58984530754697
 30
0.0
 11
-25.89865561640456
 21
32.58984530754697
 31
0.0
  0
LINE
  5
149
330
52
100
AcDbEntity
  8
0
  6
Continuous
 62
     7
100
AcDbLine
 10
-26.03254902674846
 20
32.42602278194997
 30
0.0
 11
-26.26877722273947
 21
31.83984530754696
 31
0.0
  0
LINE
  5
14A
330
52
100
AcDbEntity
  8
0
  6
Continuous
 62
     2
100
AcDbLine
 10
-26.03254902674846
 20
32.42602278194997
 30
0.0
 11
-24.53399297529146
 21
32.42602278194997
 31
0.0
  0
LINE
  5
14B
330
52
100
AcDbEntity
  8
0
  6
Continuous
 62
     7
100
AcDbLine
 10
-23.48327100101996
 20
28.98984530754697
 30
0.0
 11
-23.48327100101996
 21
26.98984530754697
 31
0.0
  0
LINE
  5
14C
330
52
100
AcDbEntity
  8
0
  6
Continuous
 62
     7
100
AcDbLine
 10
-22.68327100101995
 20
21.38984530754699
 30
0.0
 11
-22.68327100101995
 21
20.18984530754697
 31
0.0
  0
LINE
  5
14D
330
52
100
AcDbEntity
  8
0
  6
Continuous
 62
     7
100
AcDbLine
 10
-22.68327100101995
 20
28.58984530754698
 30
0.0
 11
-22.68327100101995
 21
27.38984530754696
 31
0.0
  0
LINE
  5
14E
330
52
100
AcDbEntity
  8
0
  6
Continuous
 62
     7
100
AcDbLine
 10
-23.48327100101996
 20
19.78984530754696
 30
0.0
 11
-23.48327100101996
 21
18.38984530754696
 31
0.0
  0
LINE
  5
14F
330
52
100
AcDbEntity
  8
0
  6
Continuous
 62
     7
100
AcDbLine
 10
-25.53327100101996
 20
28.28984530754697
 30
0.0
 11
-25.53327100101996
 21
27.08984530754696
 31
0.0
  0
LINE
  5
150
330
52
100
AcDbEntity
  8
0
  6
Continuous
 62
     7
100
AcDbLine
 10
-23.48327100101996
 20
21.78984530754698
 30
0.0
 11
-23.48327100101996
 21
19.78984530754696
 31
0.0
  0
LINE
  5
151
330
52
100
AcDbEntity
  8
0
  6
Continuous
 62
     2
100
AcDbLine
 10
-22.84709352661724
 20
20.05059616078926
 30
0.0
 11
-22.84709352661724
 21
21.52909445430466
 31
0.0
  0
LINE
  5
152
330
52
100
AcDbEntity
  8
0
  6
Continuous
 62
     7
100
AcDbLine
 10
-23.46923591330066
 20
21.78984530754698
 30
0.0
 11
-23.48327100101996
 21
21.78984530754698
 31
0.0
  0
LINE
  5
153
330
52
100
AcDbEntity
  8
0
  6
Continuous
 62
     7
100
AcDbLine
 10
-23.48327100101996
 20
26.98984530754697
 30
0.0
 11
-23.46923591330066
 21
26.98984530754697
 31
0.0
  0
LINE
  5
154
330
52
100
AcDbEntity
  8
0
  6
Continuous
 62
     2
100
AcDbLine
 10
-22.84709352661724
 20
27.25059616078927
 30
0.0
 11
-22.84709352661724
 21
28.72909445430467
 31
0.0
  0
LINE
  5
155
330
52
100
AcDbEntity
  8
0
  6
Continuous
 62
     7
100
AcDbLine
 10
-23.73327100101996
 20
17.58984530754696
 30
0.0
 11
-24.21827002677327
 21
17.58984530754696
 31
0.0
  0
LINE
  5
156
330
52
100
AcDbEntity
  8
0
  6
Continuous
 62
     7
100
AcDbLine
 10
-24.21827002677327
 20
17.58984530754696
 30
0.0
 11
-24.40827100101996
 21
17.58984530754696
 31
0.0
  0
LINE
  5
157
330
52
100
AcDbEntity
  8
0
  6
Continuous
 62
     7
100
AcDbLine
 10
-25.18327100101996
 20
17.48184273997323
 30
0.0
 11
-25.18327100101996
 21
18.17598050755424
 31
0.0
  0
LINE
  5
158
330
52
100
AcDbEntity
  8
0
  6
Continuous
 62
     7
100
AcDbLine
 10
-23.48327100101996
 20
18.08984530754696
 30
0.0
 11
-23.48327100101996
 21
18.38984530754696
 31
0.0
  0
LINE
  5
159
330
52
100
AcDbEntity
  8
0
  6
Continuous
 62
     7
100
AcDbLine
 10
-24.21827002677327
 20
15.08984530754696
 30
0.0
 11
-24.21827002677327
 21
17.58984530754696
 31
0.0
  0
LINE
  5
15A
330
52
100
AcDbEntity
  8
0
  6
Continuous
 62
     7
100
AcDbLine
 10
-23.48327100101996
 20
18.08984530754696
 30
0.0
 11
-24.40827100101996
 21
18.08984530754696
 31
0.0
  0
LINE
  5
15B
330
52
100
AcDbEntity
  8
0
  6
Continuous
 62
     2
100
AcDbLine
 10
-23.48327100101996
 20
14.94378267195426
 30
0.0
 11
-23.73327100101996
 21
14.94378267195426
 31
0.0
  0
LINE
  5
15C
330
52
100
AcDbEntity
  8
0
  6
Continuous
 62
     7
100
AcDbLine
 10
-23.73327100101996
 20
17.58984530754696
 30
0.0
 11
-23.73327100101996
 21
14.94378267195426
 31
0.0
  0
LINE
  5
15D
330
52
100
AcDbEntity
  8
0
  6
Continuous
 62
     7
100
AcDbLine
 10
-23.48327100101996
 20
14.94378267195426
 30
0.0
 11
-23.48327100101996
 21
17.58984530754696
 31
0.0
  0
LINE
  5
15E
330
52
100
AcDbEntity
  8
0
  6
Continuous
 62
     7
100
AcDbLine
 10
-23.48327100101996
 20
26.98984530754697
 30
0.0
 11
-23.48327100101996
 21
21.78984530754698
 31
0.0
  0
LINE
  5
15F
330
52
100
AcDbEntity
  8
0
  6
Continuous
 62
     7
100
AcDbLine
 10
-23.46923591330066
 20
26.98984530754697
 30
0.0
 11
-22.84709352661724
 21
27.25059616078927
 31
0.0
  0
LINE
  5
160
330
52
100
AcDbEntity
  8
0
  6
Continuous
 62
     7
100
AcDbLine
 10
-25.53327100101996
 20
27.08984530754696
 30
0.0
 11
-25.53327100101996
 21
21.53984530754697
 31
0.0
  0
LINE
  5
161
330
52
100
AcDbEntity
  8
0
  6
Continuous
 62
     7
100
AcDbLine
 10
-24.2977647793005
 20
31.83984530754697
 30
0.0
 11
-24.53399297529146
 21
32.42602278194997
 31
0.0
  0
LINE
  5
162
330
52
100
AcDbEntity
  8
0
  6
Continuous
 62
     7
100
AcDbLine
 10
-39.49730608873926
 20
19.78984530754696
 30
0.0
 11
-39.48327100101996
 21
19.78984530754696
 31
0.0
  0
LINE
  5
163
330
52
100
AcDbEntity
  8
0
  6
Continuous
 62
     7
100
AcDbLine
 10
-39.48327100101996
 20
21.78984530754698
 30
0.0
 11
-39.49730608873926
 21
21.78984530754698
 31
0.0
  0
LINE
  5
164
330
52
100
AcDbEntity
  8
0
  6
Continuous
 62
     7
100
AcDbLine
 10
-34.68927100101996
 20
25.88984530754696
 30
0.0
 11
-34.78927100101996
 21
25.03984530754697
 31
0.0
  0
LINE
  5
165
330
52
100
AcDbEntity
  8
0
  6
Continuous
 62
     7
100
AcDbLine
 10
-33.67327100101996
 20
25.88984530754696
 30
0.0
 11
-33.77327100101996
 21
25.03984530754696
 31
0.0
  0
LINE
  5
166
330
52
100
AcDbEntity
  8
0
  6
Continuous
 62
     7
100
AcDbLine
 10
-33.77327100101996
 20
21.33984530754699
 30
0.0
 11
-33.77327100101996
 21
24.53501107680544
 31
0.0
  0
LINE
  5
167
330
52
100
AcDbEntity
  8
0
  6
Continuous
 62
     7
100
AcDbLine
 10
-33.25727100101996
 20
21.33984530754699
 30
0.0
 11
-33.25727100101996
 21
24.53501107680544
 31
0.0
  0
LINE
  5
168
330
52
100
AcDbEntity
  8
0
  6
Continuous
 62
     7
100
AcDbLine
 10
-33.77327100101996
 20
24.53501107680544
 30
0.0
 11
-34.27327100101996
 21
24.53501107680544
 31
0.0
  0
LINE
  5
169
330
52
100
AcDbEntity
  8
0
  6
Continuous
 62
     7
100
AcDbLine
 10
-34.27327100101996
 20
21.33984530754699
 30
0.0
 11
-34.27327100101996
 21
24.53501107680544
 31
0.0
  0
LINE
  5
16A
330
52
100
AcDbEntity
  8
0
  6
Continuous
 62
     7
100
AcDbLine
 10
-34.27327100101996
 20
24.53501107680544
 30
0.0
 11
-34.27327100101996
 21
25.03984530754696
 31
0.0
  0
LINE
  5
16B
330
52
100
AcDbEntity
  8
0
  6
Continuous
 62
     7
100
AcDbLine
 10
-34.37327100101996
 20
25.88984530754696
 30
0.0
 11
-34.68927100101996
 21
25.88984530754696
 31
0.0
  0
LINE
  5
16C
330
52
100
AcDbEntity
  8
0
  6
Continuous
 62
     7
100
AcDbLine
 10
-33.77327100101996
 20
25.03984530754696
 30
0.0
 11
-33.77327100101996
 21
24.53501107680544
 31
0.0
  0
LINE
  5
16D
330
52
100
AcDbEntity
  8
0
  6
Continuous
 62
     7
100
AcDbLine
 10
-34.78927100101996
 20
21.33984530754699
 30
0.0
 11
-34.78927100101996
 21
24.53501107680545
 31
0.0
  0
LINE
  5
16E
330
52
100
AcDbEntity
  8
0
  6
Continuous
 62
     7
100
AcDbLine
 10
-34.78927100101996
 20
25.03984530754697
 30
0.0
 11
-34.78927100101996
 21
24.53501107680545
 31
0.0
  0
LINE
  5
16F
330
52
100
AcDbEntity
  8
0
  6
Continuous
 62
     7
100
AcDbLine
 10
-33.35727100101995
 20
25.88984530754697
 30
0.0
 11
-33.67327100101996
 21
25.88984530754696
 31
0.0
  0
LINE
  5
170
330
52
100
AcDbEntity
  8
0
  6
Continuous
 62
     7
100
AcDbLine
 10
-34.43327100101996
 20
14.48984530754696
 30
0.0
 11
-34.88327100101996
 21
14.48984530754696
 31
0.0
  0
LINE
  5
171
330
52
100
AcDbEntity
  8
0
  6
Continuous
 62
     7
100
AcDbLine
 10
-33.16327100101996
 20
14.48984530754696
 30
0.0
 11
-33.61327100101995
 21
14.48984530754696
 31
0.0
  0
LINE
  5
172
330
52
100
AcDbEntity
  8
0
  6
Continuous
 62
     7
100
AcDbLine
 10
-34.15827100101996
 20
18.08984530754696
 30
0.0
 11
-34.15827100101996
 21
17.58984530754696
 31
0.0
  0
LINE
  5
173
330
52
100
AcDbEntity
  8
0
  6
Continuous
 62
     7
100
AcDbLine
 10
-33.88827100101995
 20
18.08984530754696
 30
0.0
 11
-33.88827100101995
 21
17.58984530754696
 31
0.0
  0
LINE
  5
174
330
52
100
AcDbEntity
  8
0
  6
Continuous
 62
     7
100
AcDbLine
 10
-33.16327100101996
 20
17.58984530754696
 30
0.0
 11
-33.16327100101996
 21
14.48984530754696
 31
0.0
  0
LINE
  5
175
330
52
100
AcDbEntity
  8
0
  6
Continuous
 62
     7
100
AcDbLine
 10
-34.43327100101996
 20
17.58984530754696
 30
0.0
 11
-34.43327100101996
 21
14.48984530754696
 31
0.0
  0
LINE
  5
176
330
52
100
AcDbEntity
  8
0
  6
Continuous
 62
     7
100
AcDbLine
 10
-33.61327100101995
 20
17.58984530754696
 30
0.0
 11
-33.61327100101995
 21
14.48984530754696
 31
0.0
  0
LINE
  5
177
330
52
100
AcDbEntity
  8
0
  6
Continuous
 62
     7
100
AcDbLine
 10
-34.27327100101996
 20
25.03984530754696
 30
0.0
 11
-34.37327100101996
 21
25.88984530754696
 31
0.0
  0
LINE
  5
178
330
52
100
AcDbEntity
  8
0
  6
Continuous
 62
     7
100
AcDbLine
 10
-39.49730608873926
 20
26.98984530754697
 30
0.0
 11
-39.48327100101996
 21
26.98984530754697
 31
0.0
  0
LINE
  5
179
330
52
100
AcDbEntity
  8
0
  6
Continuous
 62
     7
100
AcDbLine
 10
-27.31827197526664
 20
15.08984530754696
 30
0.0
 11
-24.21827002677327
 21
15.08984530754696
 31
0.0
  0
LINE
  5
17A
330
52
100
AcDbEntity
  8
0
  6
Continuous
 62
     7
100
AcDbLine
 10
-26.98327100101996
 20
17.38984530754648
 30
0.0
 11
-25.48327100101996
 21
17.38984530754648
 31
0.0
  0
LINE
  5
17B
330
52
100
AcDbEntity
  8
0
  6
Continuous
 62
     7
100
AcDbLine
 10
-23.48327100101996
 20
14.94378267195426
 30
0.0
 11
-23.48327100101996
 21
14.44378267195426
 31
0.0
  0
LINE
  5
17C
330
52
100
AcDbEntity
  8
0
  6
Continuous
 62
     7
100
AcDbLine
 10
-23.73327100101996
 20
14.94378267195426
 30
0.0
 11
-23.73327100101996
 21
14.44378267195426
 31
0.0
  0
LINE
  5
17D
330
52
100
AcDbEntity
  8
0
  6
Continuous
 62
     7
100
AcDbLine
 10
-23.73327100101996
 20
14.44378267195426
 30
0.0
 11
-23.48327100101996
 21
14.44378267195426
 31
0.0
  0
LINE
  5
17E
330
52
100
AcDbEntity
  8
0
  6
Continuous
 62
     7
100
AcDbLine
 10
-27.26327100101995
 20
15.08984530754696
 30
0.0
 11
-27.26327100101995
 21
14.48984530754696
 31
0.0
  0
LINE
  5
17F
330
52
100
AcDbEntity
  8
0
  6
Continuous
 62
     7
100
AcDbLine
 10
-28.08327100101995
 20
17.58984530754696
 30
0.0
 11
-28.08327100101995
 21
14.48984530754696
 31
0.0
  0
LINE
  5
180
330
52
100
AcDbEntity
  8
0
  6
Continuous
 62
     7
100
AcDbLine
 10
-28.08327100101995
 20
14.48984530754696
 30
0.0
 11
-28.53327100101996
 21
14.48984530754696
 31
0.0
  0
LINE
  5
181
330
52
100
AcDbEntity
  8
0
  6
Continuous
 62
     7
100
AcDbLine
 10
-28.53327100101996
 20
17.58984530754696
 30
0.0
 11
-28.53327100101996
 21
14.48984530754696
 31
0.0
  0
LINE
  5
182
330
52
100
AcDbEntity
  8
0
  6
Continuous
 62
     7
100
AcDbLine
 10
-26.81327100101996
 20
15.08984530754696
 30
0.0
 11
-26.81327100101996
 21
14.48984530754696
 31
0.0
  0
LINE
  5
183
330
52
100
AcDbEntity
  8
0
  6
Continuous
 62
     7
100
AcDbLine
 10
-26.81327100101996
 20
14.48984530754696
 30
0.0
 11
-27.26327100101995
 21
14.48984530754696
 31
0.0
  0
LINE
  5
184
330
52
100
AcDbEntity
  8
0
  6
Continuous
 62
     7
100
AcDbLine
 10
-27.80827100101996
 20
17.58984530754696
 30
0.0
 11
-28.08327100101995
 21
17.58984530754696
 31
0.0
  0
LINE
  5
185
330
52
100
AcDbEntity
  8
0
  6
Continuous
 62
     7
100
AcDbLine
 10
-28.53327100101996
 20
17.58984530754696
 30
0.0
 11
-28.80827100101996
 21
17.58984530754696
 31
0.0
  0
LINE
  5
186
330
52
100
AcDbEntity
  8
0
  6
Continuous
 62
     7
100
AcDbLine
 10
-27.36827100101996
 20
17.58984530754696
 30
0.0
 11
-27.53827100101996
 21
17.58984530754696
 31
0.0
  0
LINE
  5
187
330
52
100
AcDbEntity
  8
0
  6
Continuous
 62
     7
100
AcDbLine
 10
-28.08327100101995
 20
17.58984530754696
 30
0.0
 11
-28.53327100101996
 21
17.58984530754696
 31
0.0
  0
LINE
  5
188
330
52
100
AcDbEntity
  8
0
  6
Continuous
 62
     7
100
AcDbLine
 10
-36.69776477930044
 20
31.83984530754696
 30
0.0
 11
-36.93399297529146
 21
32.42602278194997
 31
0.0
  0
LINE
  5
189
330
52
100
AcDbEntity
  8
0
  6
Continuous
 62
     7
100
AcDbLine
 10
-37.06788638563536
 20
32.58984530754697
 30
0.0
 11
-38.29865561640459
 21
32.58984530754697
 31
0.0
  0
LINE
  5
18A
330
52
100
AcDbEntity
  8
0
  6
Continuous
 62
     2
100
AcDbLine
 10
-38.43254902674846
 20
32.42602278194997
 30
0.0
 11
-36.93399297529146
 21
32.42602278194997
 31
0.0
  0
LINE
  5
18B
330
52
100
AcDbEntity
  8
0
  6
Continuous
 62
     7
100
AcDbLine
 10
-37.78327100101996
 20
17.58984530754696
 30
0.0
 11
-38.55827100101996
 21
17.58984530754696
 31
0.0
  0
LINE
  5
18C
330
52
100
AcDbEntity
  8
0
  6
Continuous
 62
     7
100
AcDbLine
 10
-38.74827197526663
 20
17.58984530754696
 30
0.0
 11
-39.23327100101996
 21
17.58984530754696
 31
0.0
  0
LINE
  5
18D
330
52
100
AcDbEntity
  8
0
  6
Continuous
 62
     7
100
AcDbLine
 10
-38.55827100101996
 20
17.58984530754696
 30
0.0
 11
-38.74827197526663
 21
17.58984530754696
 31
0.0
  0
LINE
  5
18E
330
52
100
AcDbEntity
  8
0
  6
Continuous
 62
     7
100
AcDbLine
 10
-35.98327100101996
 20
17.38984530754648
 30
0.0
 11
-37.48327100101996
 21
17.38984530754648
 31
0.0
  0
LINE
  5
18F
330
52
100
AcDbEntity
  8
0
  6
Continuous
 62
     7
100
AcDbLine
 10
-39.48327100101996
 20
19.78984530754696
 30
0.0
 11
-39.48327100101996
 21
18.38984530754696
 31
0.0
  0
LINE
  5
190
330
52
100
AcDbEntity
  8
0
  6
Continuous
 62
     7
100
AcDbLine
 10
-39.48327100101996
 20
21.78984530754698
 30
0.0
 11
-39.48327100101996
 21
19.78984530754696
 31
0.0
  0
LINE
  5
191
330
52
100
AcDbEntity
  8
0
  6
Continuous
 62
     7
100
AcDbLine
 10
-39.48327100101996
 20
28.98984530754697
 30
0.0
 11
-39.48327100101996
 21
26.98984530754697
 31
0.0
  0
LINE
  5
192
330
52
100
AcDbEntity
  8
0
  6
Continuous
 62
     7
100
AcDbLine
 10
-39.48327100101996
 20
31.83984530754697
 30
0.0
 11
-39.48327100101996
 21
28.98984530754697
 31
0.0
  0
LINE
  5
193
330
52
100
AcDbEntity
  8
0
  6
Continuous
 62
     7
100
AcDbLine
 10
-37.78327100101996
 20
18.38984530754696
 30
0.0
 11
-37.78327100101996
 21
18.43984530754697
 31
0.0
  0
LINE
  5
194
330
52
100
AcDbEntity
  8
0
  6
Continuous
 62
     7
100
AcDbLine
 10
-38.55827100101996
 20
18.08984530754696
 30
0.0
 11
-39.48327100101996
 21
18.08984530754696
 31
0.0
  0
LINE
  5
195
330
52
100
AcDbEntity
  8
0
  6
Continuous
 62
     7
100
AcDbLine
 10
-39.48327100101996
 20
26.98984530754697
 30
0.0
 11
-39.48327100101996
 21
21.78984530754698
 31
0.0
  0
LINE
  5
196
330
52
100
AcDbEntity
  8
0
  6
Continuous
 62
     7
100
AcDbLine
 10
-35.98327100101996
 20
27.08984530754696
 30
0.0
 11
-35.98327100101996
 21
28.28984530754697
 31
0.0
  0
LINE
  5
197
330
52
100
AcDbEntity
  8
0
  6
Continuous
 62
     7
100
AcDbLine
 10
-37.43327100101996
 20
27.08984530754696
 30
0.0
 11
-35.98327100101996
 21
27.08984530754696
 31
0.0
  0
LINE
  5
198
330
52
100
AcDbEntity
  8
0
  6
Continuous
 62
     7
100
AcDbLine
 10
-35.98327100101996
 20
28.28984530754697
 30
0.0
 11
-35.98327100101996
 21
29.53984530754697
 31
0.0
  0
LINE
  5
199
330
52
100
AcDbEntity
  8
0
  6
Continuous
 62
     7
100
AcDbLine
 10
-37.43327100101996
 20
28.28984530754696
 30
0.0
 11
-35.98327100101996
 21
28.28984530754697
 31
0.0
  0
LINE
  5
19A
330
52
100
AcDbEntity
  8
0
  6
Continuous
 62
     7
100
AcDbLine
 10
-37.43327100101996
 20
27.08984530754696
 30
0.0
 11
-37.43327100101996
 21
28.28984530754696
 31
0.0
  0
LINE
  5
19B
330
52
100
AcDbEntity
  8
0
  6
Continuous
 62
     7
100
AcDbLine
 10
-37.43327100101996
 20
21.53984530754697
 30
0.0
 11
-37.43327100101996
 21
27.08984530754696
 31
0.0
  0
LINE
  5
19C
330
52
100
AcDbEntity
  8
0
  6
Continuous
 62
     7
100
AcDbLine
 10
-39.48327100101996
 20
18.08984530754696
 30
0.0
 11
-39.48327100101996
 21
18.38984530754696
 31
0.0
  0
LINE
  5
19D
330
52
100
AcDbEntity
  8
0
  6
Continuous
 62
     7
100
AcDbLine
 10
-37.78327100101996
 20
17.48184273997323
 30
0.0
 11
-37.78327100101996
 21
18.17598050755397
 31
0.0
  0
LINE
  5
19E
330
52
100
AcDbEntity
  8
0
  6
Continuous
 62
     7
100
AcDbLine
 10
-37.78327100101996
 20
18.08984530754696
 30
0.0
 11
-38.55827100101996
 21
18.08984530754696
 31
0.0
  0
LINE
  5
19F
330
52
100
AcDbEntity
  8
0
  6
Continuous
 62
     2
100
AcDbLine
 10
-35.68327100101996
 20
18.17598050755397
 30
0.0
 11
-37.78327100101996
 21
18.17598050755397
 31
0.0
  0
LINE
  5
1A0
330
52
100
AcDbEntity
  8
0
  6
Continuous
 62
     7
100
AcDbLine
 10
-35.68327100101996
 20
18.43984530754697
 30
0.0
 11
-37.78327100101996
 21
18.43984530754697
 31
0.0
  0
LINE
  5
1A1
330
52
100
AcDbEntity
  8
0
  6
Continuous
 62
     7
100
AcDbLine
 10
-35.98327100101996
 20
21.53984530754697
 30
0.0
 11
-37.43327100101996
 21
21.53984530754697
 31
0.0
  0
LINE
  5
1A2
330
52
100
AcDbEntity
  8
0
  6
Continuous
 62
     7
100
AcDbLine
 10
-37.43327100101996
 20
21.33984530754699
 30
0.0
 11
-37.43327100101996
 21
21.53984530754697
 31
0.0
  0
LINE
  5
1A3
330
52
100
AcDbEntity
  8
0
  6
Continuous
 62
     7
100
AcDbLine
 10
-35.98327100101996
 20
21.33984530754699
 30
0.0
 11
-37.43327100101996
 21
21.33984530754699
 31
0.0
  0
LINE
  5
1A4
330
52
100
AcDbEntity
  8
0
  6
Continuous
 62
     7
100
AcDbLine
 10
-35.98327100101996
 20
21.53984530754697
 30
0.0
 11
-35.98327100101996
 21
25.88984530754696
 31
0.0
  0
LINE
  5
1A5
330
52
100
AcDbEntity
  8
0
  6
Continuous
 62
     7
100
AcDbLine
 10
-35.38927100101996
 20
25.88984530754696
 30
0.0
 11
-35.98327100101996
 21
25.88984530754696
 31
0.0
  0
LINE
  5
1A6
330
52
100
AcDbEntity
  8
0
  6
Continuous
 62
     7
100
AcDbLine
 10
-35.28927100101996
 20
24.53501107680545
 30
0.0
 11
-35.28927100101996
 21
21.33984530754699
 31
0.0
  0
LINE
  5
1A7
330
52
100
AcDbEntity
  8
0
  6
Continuous
 62
     7
100
AcDbLine
 10
-35.28927100101996
 20
24.53501107680545
 30
0.0
 11
-35.28927100101996
 21
25.03984530754696
 31
0.0
  0
LINE
  5
1A8
330
52
100
AcDbEntity
  8
0
  6
Continuous
 62
     7
100
AcDbLine
 10
-34.78927100101996
 20
24.53501107680545
 30
0.0
 11
-35.28927100101996
 21
24.53501107680545
 31
0.0
  0
LINE
  5
1A9
330
52
100
AcDbEntity
  8
0
  6
Continuous
 62
     7
100
AcDbLine
 10
-35.98327100101996
 20
21.33984530754699
 30
0.0
 11
-35.98327100101996
 21
21.53984530754697
 31
0.0
  0
LINE
  5
1AA
330
52
100
AcDbEntity
  8
0
  6
Continuous
 62
     7
100
AcDbLine
 10
-35.68327100101996
 20
18.17598050755397
 30
0.0
 11
-35.68327100101996
 21
17.48184273997323
 31
0.0
  0
LINE
  5
1AB
330
52
100
AcDbEntity
  8
0
  6
Continuous
 62
     7
100
AcDbLine
 10
-35.70327100101996
 20
15.08984530754696
 30
0.0
 11
-35.70327100101996
 21
14.48984530754696
 31
0.0
  0
LINE
  5
1AC
330
52
100
AcDbEntity
  8
0
  6
Continuous
 62
     7
100
AcDbLine
 10
-35.70327100101996
 20
14.48984530754696
 30
0.0
 11
-36.15327100101996
 21
14.48984530754696
 31
0.0
  0
LINE
  5
1AD
330
52
100
AcDbEntity
  8
0
  6
Continuous
 62
     7
100
AcDbLine
 10
-36.15327100101996
 20
15.08984530754696
 30
0.0
 11
-36.15327100101996
 21
14.48984530754696
 31
0.0
  0
LINE
  5
1AE
330
52
100
AcDbEntity
  8
0
  6
Continuous
 62
     7
100
AcDbLine
 10
-35.68327100101996
 20
18.38984530754696
 30
0.0
 11
-35.68327100101996
 21
18.43984530754697
 31
0.0
  0
LINE
  5
1AF
330
52
100
AcDbEntity
  8
0
  6
Continuous
 62
     7
100
AcDbLine
 10
-35.15827100101996
 20
18.08984530754696
 30
0.0
 11
-35.15827100101996
 21
17.58984530754696
 31
0.0
  0
LINE
  5
1B0
330
52
100
AcDbEntity
  8
0
  6
Continuous
 62
     7
100
AcDbLine
 10
-35.42827100101996
 20
18.08984530754696
 30
0.0
 11
-35.42827100101996
 21
17.58984530754696
 31
0.0
  0
LINE
  5
1B1
330
52
100
AcDbEntity
  8
0
  6
Continuous
 62
     7
100
AcDbLine
 10
-34.88327100101996
 20
17.58984530754696
 30
0.0
 11
-34.88327100101996
 21
14.48984530754696
 31
0.0
  0
LINE
  5
1B2
330
52
100
AcDbEntity
  8
0
  6
Continuous
 62
     7
100
AcDbLine
 10
-35.64827002677327
 20
15.08984530754696
 30
0.0
 11
-35.64827002677327
 21
17.58984530754696
 31
0.0
  0
LINE
  5
1B3
330
52
100
AcDbEntity
  8
0
  6
Continuous
 62
     7
100
AcDbLine
 10
-35.28927100101996
 20
25.03984530754696
 30
0.0
 11
-35.38927100101996
 21
25.88984530754696
 31
0.0
  0
LINE
  5
1B4
330
52
100
AcDbEntity
  8
0
  6
Continuous
 62
     7
100
AcDbLine
 10
-38.43254902674846
 20
32.42602278194997
 30
0.0
 11
-38.66877722273947
 21
31.83984530754696
 31
0.0
  0
LINE
  5
1B5
330
52
100
AcDbEntity
  8
0
  6
Continuous
 62
     7
100
AcDbLine
 10
-40.28327100101996
 20
27.38984530754696
 30
0.0
 11
-40.28327100101996
 21
28.58984530754696
 31
0.0
  0
LINE
  5
1B6
330
52
100
AcDbEntity
  8
0
  6
Continuous
 62
     2
100
AcDbLine
 10
-40.11944847542266
 20
27.25059616078928
 30
0.0
 11
-40.11944847542266
 21
28.72909445430467
 31
0.0
  0
LINE
  5
1B7
330
52
100
AcDbEntity
  8
0
  6
Continuous
 62
     7
100
AcDbLine
 10
-39.48327100101996
 20
28.98984530754697
 30
0.0
 11
-39.49730608873926
 21
28.98984530754697
 31
0.0
  0
LINE
  5
1B8
330
52
100
AcDbEntity
  8
0
  6
Continuous
 62
     7
100
AcDbLine
 10
-34.63327100101996
 20
30.03984530754697
 30
0.0
 11
-33.48327100101996
 21
30.03984530754696
 31
0.0
  0
LINE
  5
1B9
330
52
100
AcDbEntity
  8
0
  6
Continuous
 62
     7
100
AcDbLine
 10
-34.63327100101996
 20
30.03984530754697
 30
0.0
 11
-34.63327100101996
 21
29.53984530754697
 31
0.0
  0
LINE
  5
1BA
330
52
100
AcDbEntity
  8
0
  6
Continuous
 62
     7
100
AcDbLine
 10
-35.98327100101996
 20
29.53984530754697
 30
0.0
 11
-34.63327100101996
 21
29.53984530754697
 31
0.0
  0
LINE
  5
1BB
330
52
100
AcDbEntity
  8
0
  6
Continuous
 62
     7
100
AcDbLine
 10
-24.2977647793005
 20
31.83984530754697
 30
0.0
 11
-26.26877722273947
 21
31.83984530754696
 31
0.0
  0
LINE
  5
1BC
330
52
100
AcDbEntity
  8
0
  6
Continuous
 62
     7
100
AcDbLine
 10
-23.48327100101996
 20
31.83984530754696
 30
0.0
 11
-24.2977647793005
 21
31.83984530754697
 31
0.0
  0
LINE
  5
1BD
330
52
100
AcDbEntity
  8
0
  6
Continuous
 62
     7
100
AcDbLine
 10
-26.26877722273947
 20
31.83984530754696
 30
0.0
 11
-29.48327100101996
 21
31.83984530754697
 31
0.0
  0
LINE
  5
1BE
330
52
100
AcDbEntity
  8
0
  6
Continuous
 62
     7
100
AcDbLine
 10
-33.48327100101996
 20
30.03984530754696
 30
0.0
 11
-33.48327100101996
 21
31.03984530754696
 31
0.0
  0
LINE
  5
1BF
330
52
100
AcDbEntity
  8
0
  6
Continuous
 62
     7
100
AcDbLine
 10
-29.48327100101996
 20
31.83984530754697
 30
0.0
 11
-29.48327100101996
 21
31.03984530754696
 31
0.0
  0
LINE
  5
1C0
330
52
100
AcDbEntity
  8
0
  6
Continuous
 62
     7
100
AcDbLine
 10
-29.48327100101996
 20
31.83984530754697
 30
0.0
 11
-33.48327100101996
 21
31.83984530754697
 31
0.0
  0
LINE
  5
1C1
330
52
100
AcDbEntity
  8
0
  6
Continuous
 62
     7
100
AcDbLine
 10
-33.48327100101996
 20
31.03984530754696
 30
0.0
 11
-33.48327100101996
 21
31.83984530754697
 31
0.0
  0
LINE
  5
1C2
330
52
100
AcDbEntity
  8
0
  6
Continuous
 62
     7
100
AcDbLine
 10
-28.33327100101996
 20
29.53984530754697
 30
0.0
 11
-28.33327100101996
 21
30.03984530754697
 31
0.0
  0
LINE
  5
1C3
330
52
100
AcDbEntity
  8
0
  6
Continuous
 62
     7
100
AcDbLine
 10
-29.48327100101996
 20
30.03984530754696
 30
0.0
 11
-28.33327100101996
 21
30.03984530754697
 31
0.0
  0
LINE
  5
1C4
330
52
100
AcDbEntity
  8
0
  6
Continuous
 62
     7
100
AcDbLine
 10
-28.33327100101996
 20
29.53984530754697
 30
0.0
 11
-26.98327100101996
 21
29.53984530754697
 31
0.0
  0
LINE
  5
1C5
330
52
100
AcDbEntity
  8
0
  6
Continuous
 62
     7
100
AcDbLine
 10
-29.48327100101996
 20
31.03984530754696
 30
0.0
 11
-29.48327100101996
 21
30.03984530754696
 31
0.0
  0
LINE
  5
1C6
330
52
100
AcDbEntity
  8
0
  6
Continuous
 62
     7
100
AcDbLine
 10
-23.48327100101996
 20
31.83984530754696
 30
0.0
 11
-23.48327100101996
 21
28.98984530754697
 31
0.0
  0
LINE
  5
1C7
330
52
100
AcDbEntity
  8
0
  6
Continuous
 62
     7
100
AcDbLine
 10
-23.46923591330066
 20
28.98984530754697
 30
0.0
 11
-23.48327100101996
 21
28.98984530754697
 31
0.0
  0
LINE
  5
1C8
330
52
100
AcDbEntity
  8
0
  6
Continuous
 62
     7
100
AcDbLine
 10
-26.98327100101996
 20
29.53984530754697
 30
0.0
 11
-26.98327100101996
 21
28.28984530754697
 31
0.0
  0
LINE
  5
1C9
330
52
100
AcDbEntity
  8
0
  6
Continuous
 62
     7
100
AcDbLine
 10
-26.98327100101996
 20
28.28984530754697
 30
0.0
 11
-25.53327100101996
 21
28.28984530754697
 31
0.0
  0
LINE
  5
1CA
330
52
100
AcDbEntity
  8
0
  6
Continuous
 62
     7
100
AcDbLine
 10
-22.84709352661724
 20
28.72909445430467
 30
0.0
 11
-23.46923591330066
 21
28.98984530754697
 31
0.0
  0
LINE
  5
1CB
330
52
100
AcDbEntity
  8
0
  6
Continuous
 62
     7
100
AcDbLine
 10
-38.66877722273947
 20
31.83984530754696
 30
0.0
 11
-39.48327100101996
 21
31.83984530754697
 31
0.0
  0
LINE
  5
1CC
330
52
100
AcDbEntity
  8
0
  6
Continuous
 62
     7
100
AcDbLine
 10
-36.69776477930044
 20
31.83984530754696
 30
0.0
 11
-38.66877722273947
 21
31.83984530754696
 31
0.0
  0
LINE
  5
1CD
330
52
100
AcDbEntity
  8
0
  6
Continuous
 62
     7
100
AcDbLine
 10
-39.49730608873926
 20
28.98984530754697
 30
0.0
 11
-40.11944847542266
 21
28.72909445430467
 31
0.0
  0
LINE
  5
1CE
330
52
100
AcDbEntity
  8
0
  6
Continuous
 62
     7
100
AcDbLine
 10
-33.48327100101996
 20
31.83984530754697
 30
0.0
 11
-36.69776477930044
 21
31.83984530754696
 31
0.0
  0
LINE
  5
1CF
330
52
100
AcDbEntity
  8
0
  6
Continuous
 62
     7
100
AcDbLine
 10
-40.11944847542266
 20
27.25059616078928
 30
0.0
 11
-39.49730608873926
 21
26.98984530754697
 31
0.0
  0
LINE
  5
1D0
330
52
100
AcDbEntity
  8
0
  6
Continuous
 62
     7
100
AcDbLine
 10
-37.78327100101996
 20
18.17598050755397
 30
0.0
 11
-37.78327100101996
 21
18.38984530754696
 31
0.0
  0
LINE
  5
1D1
330
52
100
AcDbEntity
  8
0
  6
Continuous
 62
     7
100
AcDbLine
 10
-39.23327100101996
 20
17.58984530754696
 30
0.0
 11
-39.48327100101996
 21
17.58984530754696
 31
0.0
  0
LINE
  5
1D2
330
52
100
AcDbEntity
  8
0
  6
Continuous
 62
     7
100
AcDbLine
 10
-38.55827100101996
 20
18.08984530754696
 30
0.0
 11
-38.55827100101996
 21
17.58984530754696
 31
0.0
  0
LINE
  5
1D3
330
52
100
AcDbEntity
  8
0
  6
Continuous
 62
     7
100
AcDbLine
 10
-30.34827100101996
 20
17.58984530754696
 30
0.0
 11
-30.62327100101996
 21
17.58984530754696
 31
0.0
  0
LINE
  5
1D4
330
52
100
AcDbEntity
  8
0
  6
Continuous
 62
     7
100
AcDbLine
 10
-31.07327100101996
 20
17.58984530754696
 30
0.0
 11
-31.34827100101996
 21
17.58984530754696
 31
0.0
  0
LINE
  5
1D5
330
52
100
AcDbEntity
  8
0
  6
Continuous
 62
     7
100
AcDbLine
 10
-29.07827100101996
 20
17.58984530754696
 30
0.0
 11
-29.35327100101996
 21
17.58984530754696
 31
0.0
  0
LINE
  5
1D6
330
52
100
AcDbEntity
  8
0
  6
Continuous
 62
     7
100
AcDbLine
 10
-29.80327100101996
 20
17.58984530754696
 30
0.0
 11
-30.07827100101996
 21
17.58984530754696
 31
0.0
  0
LINE
  5
1D7
330
52
100
AcDbEntity
  8
0
  6
Continuous
 62
     7
100
AcDbLine
 10
-29.35327100101996
 20
17.58984530754696
 30
0.0
 11
-29.80327100101996
 21
17.58984530754696
 31
0.0
  0
LINE
  5
1D8
330
52
100
AcDbEntity
  8
0
  6
Continuous
 62
     7
100
AcDbLine
 10
-30.62327100101996
 20
17.58984530754696
 30
0.0
 11
-31.07327100101996
 21
17.58984530754696
 31
0.0
  0
LINE
  5
1D9
330
52
100
AcDbEntity
  8
0
  6
Continuous
 62
     7
100
AcDbLine
 10
-35.68327100101996
 20
18.38984530754696
 30
0.0
 11
-27.28327100101996
 21
18.38984530754696
 31
0.0
  0
LINE
  5
1DA
330
52
100
AcDbEntity
  8
0
  6
Continuous
 62
     7
100
AcDbLine
 10
-35.68327100101996
 20
18.17598050755397
 30
0.0
 11
-35.68327100101996
 21
18.38984530754696
 31
0.0
  0
LINE
  5
1DB
330
52
100
AcDbEntity
  8
0
  6
Continuous
 62
     7
100
AcDbLine
 10
-35.59827100101995
 20
18.08984530754696
 30
0.0
 11
-35.68327100101996
 21
18.08984530754696
 31
0.0
  0
LINE
  5
1DC
330
52
100
AcDbEntity
  8
0
  6
Continuous
 62
     7
100
AcDbLine
 10
-27.36827100101996
 20
18.08984530754696
 30
0.0
 11
-35.59827100101995
 21
18.08984530754696
 31
0.0
  0
LINE
  5
1DD
330
52
100
AcDbEntity
  8
0
  6
Continuous
 62
     7
100
AcDbLine
 10
-35.59827100101995
 20
18.08984530754696
 30
0.0
 11
-35.59827100101995
 21
17.58984530754696
 31
0.0
  0
LINE
  5
1DE
330
52
100
AcDbEntity
  8
0
  6
Continuous
 62
     7
100
AcDbLine
 10
-35.59827100101995
 20
17.58984530754696
 30
0.0
 11
-35.64827002677327
 21
17.58984530754696
 31
0.0
  0
LINE
  5
1DF
330
52
100
AcDbEntity
  8
0
  6
Continuous
 62
     7
100
AcDbLine
 10
-35.42827100101996
 20
17.58984530754696
 30
0.0
 11
-35.59827100101995
 21
17.58984530754696
 31
0.0
  0
LINE
  5
1E0
330
52
100
AcDbEntity
  8
0
  6
Continuous
 62
     7
100
AcDbLine
 10
-35.64827002677327
 20
17.58984530754696
 30
0.0
 11
-35.68327100101996
 21
17.58984530754696
 31
0.0
  0
LINE
  5
1E1
330
52
100
AcDbEntity
  8
0
  6
Continuous
 62
     7
100
AcDbLine
 10
-24.40827100101996
 20
17.58984530754696
 30
0.0
 11
-25.18327100101996
 21
17.58984530754696
 31
0.0
  0
LINE
  5
1E2
330
52
100
AcDbEntity
  8
0
  6
Continuous
 62
     7
100
AcDbLine
 10
-22.80827100101995
 20
18.08984530754696
 30
0.0
 11
-22.80827100101995
 21
17.58984530754696
 31
0.0
  0
LINE
  5
1E3
330
52
100
AcDbEntity
  8
0
  6
Continuous
 62
     7
100
AcDbLine
 10
-23.48327100101996
 20
17.58984530754696
 30
0.0
 11
-23.73327100101996
 21
17.58984530754696
 31
0.0
  0
LINE
  5
1E4
330
52
100
AcDbEntity
  8
0
  6
Continuous
 62
     7
100
AcDbLine
 10
-22.80827100101995
 20
17.58984530754696
 30
0.0
 11
-23.48327100101996
 21
17.58984530754696
 31
0.0
  0
LINE
  5
1E5
330
52
100
AcDbEntity
  8
0
  6
Continuous
 62
     2
100
AcDbLine
 10
-25.18327100101996
 20
18.17598050755424
 30
0.0
 11
-27.28327100101996
 21
18.17598050755424
 31
0.0
  0
LINE
  5
1E6
330
52
100
AcDbEntity
  8
0
  6
Continuous
 62
     7
100
AcDbLine
 10
-22.80827100101995
 20
18.08984530754696
 30
0.0
 11
-23.48327100101996
 21
18.08984530754696
 31
0.0
  0
LINE
  5
1E7
330
52
100
AcDbEntity
  8
0
  6
Continuous
 62
     7
100
AcDbLine
 10
-27.28327100101996
 20
18.08984530754696
 30
0.0
 11
-27.36827100101996
 21
18.08984530754696
 31
0.0
  0
LINE
  5
1E8
330
52
100
AcDbEntity
  8
0
  6
Continuous
 62
     7
100
AcDbLine
 10
-25.53327100101996
 20
21.53984530754697
 30
0.0
 11
-25.53327100101996
 21
21.33984530754699
 31
0.0
  0
LINE
  5
1E9
330
52
100
AcDbEntity
  8
0
  6
Continuous
 62
     7
100
AcDbLine
 10
-25.53327100101996
 20
21.33984530754699
 30
0.0
 11
-26.98327100101996
 21
21.33984530754699
 31
0.0
  0
LINE
  5
1EA
330
52
100
AcDbEntity
  8
0
  6
Continuous
 62
     7
100
AcDbLine
 10
-24.40827100101996
 20
18.08984530754696
 30
0.0
 11
-24.40827100101996
 21
17.58984530754696
 31
0.0
  0
LINE
  5
1EB
330
52
100
AcDbEntity
  8
0
  6
Continuous
 62
     7
100
AcDbLine
 10
-23.48327100101996
 20
19.78984530754696
 30
0.0
 11
-23.46923591330066
 21
19.78984530754696
 31
0.0
  0
LINE
  5
1EC
330
52
100
AcDbEntity
  8
0
  6
Continuous
 62
     7
100
AcDbLine
 10
-24.40827100101996
 20
18.08984530754696
 30
0.0
 11
-25.18327100101996
 21
18.08984530754696
 31
0.0
  0
LINE
  5
1ED
330
52
100
AcDbEntity
  8
0
  6
Continuous
 62
     7
100
AcDbLine
 10
-25.18327100101996
 20
18.38984530754696
 30
0.0
 11
-25.18327100101996
 21
18.43984530754697
 31
0.0
  0
LINE
  5
1EE
330
52
100
AcDbEntity
  8
0
  6
Continuous
 62
     7
100
AcDbLine
 10
-25.18327100101996
 20
18.17598050755424
 30
0.0
 11
-25.18327100101996
 21
18.38984530754696
 31
0.0
  0
LINE
  5
1EF
330
52
100
AcDbEntity
  8
0
  6
Continuous
 62
     7
100
AcDbLine
 10
-25.18327100101996
 20
18.43984530754697
 30
0.0
 11
-27.28327100101996
 21
18.43984530754697
 31
0.0
  0
LINE
  5
1F0
330
52
100
AcDbEntity
  8
0
  6
Continuous
 62
     7
100
AcDbLine
 10
-23.48327100101996
 20
18.38984530754696
 30
0.0
 11
-25.18327100101996
 21
18.38984530754696
 31
0.0
  0
LINE
  5
1F1
330
52
100
AcDbEntity
  8
0
  6
Continuous
 62
     7
100
AcDbLine
 10
-27.36827100101996
 20
18.08984530754696
 30
0.0
 11
-27.36827100101996
 21
17.58984530754696
 31
0.0
  0
LINE
  5
1F2
330
52
100
AcDbEntity
  8
0
  6
Continuous
 62
     7
100
AcDbLine
 10
-27.31827197526664
 20
17.58984530754696
 30
0.0
 11
-27.36827100101996
 21
17.58984530754696
 31
0.0
  0
LINE
  5
1F3
330
52
100
AcDbEntity
  8
0
  6
Continuous
 62
     7
100
AcDbLine
 10
-27.28327100101996
 20
18.38984530754696
 30
0.0
 11
-27.28327100101996
 21
18.43984530754697
 31
0.0
  0
LINE
  5
1F4
330
52
100
AcDbEntity
  8
0
  6
Continuous
 62
     7
100
AcDbLine
 10
-27.28327100101996
 20
17.58984530754696
 30
0.0
 11
-27.31827197526664
 21
17.58984530754696
 31
0.0
  0
LINE
  5
1F5
330
52
100
AcDbEntity
  8
0
  6
Continuous
 62
     7
100
AcDbLine
 10
-26.98327100101996
 20
21.53984530754697
 30
0.0
 11
-26.98327100101996
 21
21.33984530754699
 31
0.0
  0
LINE
  5
1F6
330
52
100
AcDbEntity
  8
0
  6
Continuous
 62
     7
100
AcDbLine
 10
-27.53827100101996
 20
18.08984530754696
 30
0.0
 11
-27.53827100101996
 21
17.58984530754696
 31
0.0
  0
LINE
  5
1F7
330
52
100
AcDbEntity
  8
0
  6
Continuous
 62
     7
100
AcDbLine
 10
-27.80827100101996
 20
18.08984530754696
 30
0.0
 11
-27.80827100101996
 21
17.58984530754696
 31
0.0
  0
LINE
  5
1F8
330
52
100
AcDbEntity
  8
0
  6
Continuous
 62
     7
100
AcDbLine
 10
-26.98327100101996
 20
21.53984530754697
 30
0.0
 11
-25.53327100101996
 21
21.53984530754697
 31
0.0
  0
LINE
  5
1F9
330
52
100
AcDbEntity
  8
0
  6
Continuous
 62
     7
100
AcDbLine
 10
-23.46923591330066
 20
19.78984530754696
 30
0.0
 11
-22.84709352661724
 21
20.05059616078926
 31
0.0
  0
LINE
  5
1FA
330
52
100
AcDbEntity
  8
0
  6
Continuous
 62
     7
100
AcDbLine
 10
-26.98327100101996
 20
21.33984530754699
 30
0.0
 11
-35.98327100101996
 21
21.33984530754699
 31
0.0
  0
LINE
  5
1FB
330
52
100
AcDbEntity
  8
0
  6
Continuous
 62
     7
100
AcDbLine
 10
-26.98327100101996
 20
27.08984530754696
 30
0.0
 11
-25.53327100101996
 21
27.08984530754696
 31
0.0
  0
LINE
  5
1FC
330
52
100
AcDbEntity
  8
0
  6
Continuous
 62
     7
100
AcDbLine
 10
-29.19327100101996
 20
25.03984530754696
 30
0.0
 11
-29.29327100101996
 21
25.88984530754696
 31
0.0
  0
LINE
  5
1FD
330
52
100
AcDbEntity
  8
0
  6
Continuous
 62
     7
100
AcDbLine
 10
-28.59327100101996
 20
25.88984530754696
 30
0.0
 11
-28.69327100101995
 21
25.03984530754697
 31
0.0
  0
LINE
  5
1FE
330
52
100
AcDbEntity
  8
0
  6
Continuous
 62
     7
100
AcDbLine
 10
-27.57727100101995
 20
25.88984530754699
 30
0.0
 11
-27.67727100101996
 21
25.03984530754698
 31
0.0
  0
LINE
  5
1FF
330
52
100
AcDbEntity
  8
0
  6
Continuous
 62
     7
100
AcDbLine
 10
-28.69327100101996
 20
24.53501107680545
 30
0.0
 11
-28.69327100101996
 21
21.33984530754699
 31
0.0
  0
LINE
  5
200
330
52
100
AcDbEntity
  8
0
  6
Continuous
 62
     7
100
AcDbLine
 10
-29.19327100101995
 20
21.33984530754699
 30
0.0
 11
-29.19327100101996
 21
24.53501107680545
 31
0.0
  0
LINE
  5
201
330
52
100
AcDbEntity
  8
0
  6
Continuous
 62
     7
100
AcDbLine
 10
-28.69327100101996
 20
24.53501107680545
 30
0.0
 11
-29.19327100101996
 21
24.53501107680545
 31
0.0
  0
LINE
  5
202
330
52
100
AcDbEntity
  8
0
  6
Continuous
 62
     7
100
AcDbLine
 10
-29.19327100101996
 20
24.53501107680545
 30
0.0
 11
-29.19327100101996
 21
25.03984530754696
 31
0.0
  0
LINE
  5
203
330
52
100
AcDbEntity
  8
0
  6
Continuous
 62
     7
100
AcDbLine
 10
-28.69327100101995
 20
25.03984530754697
 30
0.0
 11
-28.69327100101996
 21
24.53501107680545
 31
0.0
  0
LINE
  5
204
330
52
100
AcDbEntity
  8
0
  6
Continuous
 62
     7
100
AcDbLine
 10
-29.70927100101996
 20
25.03984530754698
 30
0.0
 11
-29.70927100101996
 21
24.53501107680544
 31
0.0
  0
LINE
  5
205
330
52
100
AcDbEntity
  8
0
  6
Continuous
 62
     7
100
AcDbLine
 10
-28.17727100101996
 20
21.33984530754699
 30
0.0
 11
-28.17727100101996
 21
24.53501107680545
 31
0.0
  0
LINE
  5
206
330
52
100
AcDbEntity
  8
0
  6
Continuous
 62
     7
100
AcDbLine
 10
-27.67727100101996
 20
24.53501107680545
 30
0.0
 11
-27.67727100101996
 21
21.33984530754699
 31
0.0
  0
LINE
  5
207
330
52
100
AcDbEntity
  8
0
  6
Continuous
 62
     7
100
AcDbLine
 10
-27.67727100101996
 20
25.03984530754698
 30
0.0
 11
-27.67727100101996
 21
24.53501107680545
 31
0.0
  0
LINE
  5
208
330
52
100
AcDbEntity
  8
0
  6
Continuous
 62
     7
100
AcDbLine
 10
-28.17727100101996
 20
24.53501107680545
 30
0.0
 11
-28.17727100101996
 21
25.03984530754696
 31
0.0
  0
LINE
  5
209
330
52
100
AcDbEntity
  8
0
  6
Continuous
 62
     7
100
AcDbLine
 10
-27.67727100101996
 20
24.53501107680545
 30
0.0
 11
-28.17727100101996
 21
24.53501107680545
 31
0.0
  0
LINE
  5
20A
330
52
100
AcDbEntity
  8
0
  6
Continuous
 62
     7
100
AcDbLine
 10
-28.27727100101996
 20
25.88984530754697
 30
0.0
 11
-28.59327100101996
 21
25.88984530754696
 31
0.0
  0
LINE
  5
20B
330
52
100
AcDbEntity
  8
0
  6
Continuous
 62
     7
100
AcDbLine
 10
-29.29327100101996
 20
25.88984530754696
 30
0.0
 11
-29.60927100101996
 21
25.88984530754696
 31
0.0
  0
LINE
  5
20C
330
52
100
AcDbEntity
  8
0
  6
Continuous
 62
     7
100
AcDbLine
 10
-27.28327100101996
 20
18.17598050755424
 30
0.0
 11
-27.28327100101996
 21
17.48184273997323
 31
0.0
  0
LINE
  5
20D
330
52
100
AcDbEntity
  8
0
  6
Continuous
 62
     7
100
AcDbLine
 10
-27.28327100101996
 20
18.17598050755424
 30
0.0
 11
-27.28327100101996
 21
18.38984530754696
 31
0.0
  0
LINE
  5
20E
330
52
100
AcDbEntity
  8
0
  6
Continuous
 62
     7
100
AcDbLine
 10
-27.31827197526664
 20
15.08984530754696
 30
0.0
 11
-27.31827197526664
 21
17.58984530754696
 31
0.0
  0
LINE
  5
20F
330
52
100
AcDbEntity
  8
0
  6
Continuous
 62
     7
100
AcDbLine
 10
-26.98327100101996
 20
25.88984530754696
 30
0.0
 11
-27.57727100101995
 21
25.88984530754699
 31
0.0
  0
LINE
  5
210
330
52
100
AcDbEntity
  8
0
  6
Continuous
 62
     7
100
AcDbLine
 10
-29.35327100101996
 20
17.58984530754696
 30
0.0
 11
-29.35327100101996
 21
14.48984530754696
 31
0.0
  0
LINE
  5
211
330
52
100
AcDbEntity
  8
0
  6
Continuous
 62
     7
100
AcDbLine
 10
-29.35327100101996
 20
14.48984530754696
 30
0.0
 11
-29.80327100101996
 21
14.48984530754696
 31
0.0
  0
LINE
  5
212
330
52
100
AcDbEntity
  8
0
  6
Continuous
 62
     7
100
AcDbLine
 10
-29.07827100101996
 20
18.08984530754696
 30
0.0
 11
-29.07827100101996
 21
17.58984530754696
 31
0.0
  0
LINE
  5
213
330
52
100
AcDbEntity
  8
0
  6
Continuous
 62
     7
100
AcDbLine
 10
-28.80827100101996
 20
18.08984530754696
 30
0.0
 11
-28.80827100101996
 21
17.58984530754696
 31
0.0
  0
LINE
  5
214
330
52
100
AcDbEntity
  8
0
  6
Continuous
 62
     7
100
AcDbLine
 10
-29.80327100101996
 20
17.58984530754696
 30
0.0
 11
-29.80327100101996
 21
14.48984530754696
 31
0.0
  0
LINE
  5
215
330
52
100
AcDbEntity
  8
0
  6
Continuous
 62
     7
100
AcDbLine
 10
-26.98327100101996
 20
25.88984530754696
 30
0.0
 11
-26.98327100101996
 21
21.53984530754697
 31
0.0
  0
LINE
  5
216
330
52
100
AcDbEntity
  8
0
  6
Continuous
 62
     7
100
AcDbLine
 10
-28.17727100101996
 20
25.03984530754696
 30
0.0
 11
-28.27727100101996
 21
25.88984530754697
 31
0.0
  0
LINE
  5
217
330
52
100
AcDbEntity
  8
0
  6
Continuous
 62
     7
100
AcDbLine
 10
-26.98327100101996
 20
28.28984530754697
 30
0.0
 11
-26.98327100101996
 21
27.08984530754696
 31
0.0
  0
LINE
  5
218
330
52
100
AcDbEntity
  8
0
  6
Continuous
 62
     7
100
AcDbLine
 10
-22.84709352661724
 20
21.52909445430466
 30
0.0
 11
-23.46923591330066
 21
21.78984530754698
 31
0.0
  0
LINE
  5
219
330
52
100
AcDbEntity
  8
1
  6
DOT_CENTER
 62
     2
100
AcDbLine
 10
-37.19827100101995
 20
15.08984530754696
 30
0.0
 11
-37.19827100101995
 21
17.58984530754696
 31
0.0
  0
LINE
  5
21A
330
52
100
AcDbEntity
  8
1
  6
DOT_CENTER
 62
     2
100
AcDbLine
 10
-33.38827100101995
 20
18.08984530754696
 30
0.0
 11
-33.38827100101995
 21
17.58984530754696
 31
0.0
  0
LINE
  5
21B
330
52
100
AcDbEntity
  8
1
  6
DOT_CENTER
 62
     2
100
AcDbLine
 10
-30.84827100101996
 20
18.08984530754696
 30
0.0
 11
-30.84827100101996
 21
17.58984530754696
 31
0.0
  0
LINE
  5
21C
330
52
100
AcDbEntity
  8
1
  6
DOT_CENTER
 62
     2
100
AcDbLine
 10
-32.11827100101996
 20
18.08984530754696
 30
0.0
 11
-32.11827100101996
 21
17.58984530754696
 31
0.0
  0
LINE
  5
21D
330
52
100
AcDbEntity
  8
1
  6
DOT_CENTER
 62
     2
100
AcDbLine
 10
-34.65827100101996
 20
18.08984530754696
 30
0.0
 11
-34.65827100101996
 21
17.58984530754696
 31
0.0
  0
LINE
  5
21E
330
52
100
AcDbEntity
  8
1
  6
DOT_CENTER
 62
     2
100
AcDbLine
 10
-39.35827100101996
 20
18.08984530754696
 30
0.0
 11
-39.35827100101996
 21
17.58984530754696
 31
0.0
  0
LINE
  5
21F
330
52
100
AcDbEntity
  8
1
  6
DOT_CENTER
 62
     2
100
AcDbLine
 10
-25.76827100101995
 20
15.08984530754696
 30
0.0
 11
-25.76827100101995
 21
17.58984530754696
 31
0.0
  0
LINE
  5
220
330
52
100
AcDbEntity
  8
1
  6
DOT_CENTER
 62
     2
100
AcDbLine
 10
-28.30827100101996
 20
18.08984530754696
 30
0.0
 11
-28.30827100101996
 21
17.58984530754696
 31
0.0
  0
LINE
  5
221
330
52
100
AcDbEntity
  8
1
  6
DOT_CENTER
 62
     2
100
AcDbLine
 10
-23.60827100101996
 20
18.08984530754696
 30
0.0
 11
-23.60827100101996
 21
17.58984530754696
 31
0.0
  0
LINE
  5
222
330
52
100
AcDbEntity
  8
1
  6
DOT_CENTER
 62
     2
100
AcDbLine
 10
-29.57827100101996
 20
18.08984530754696
 30
0.0
 11
-29.57827100101996
 21
17.58984530754696
 31
0.0
  0
SPLINE
  5
223
330
52
100
AcDbEntity
  8
0
  6
Continuous
 62
     7
100
AcDbSpline
210
0.0
220
0.0
230
1.0
 70
     8
 71
     3
 72
    11
 73
     7
 74
     5
 42
0.000000001
 43
0.0000000001
 44
0.00000001
 40
0.0
 40
0.0
 40
0.0
 40
0.0
 40
0.0757727764132154
 40
0.1412470949062203
 40
0.1899008648003992
 40
0.2244685027416657
 40
0.2244685027416657
 40
0.2244685027416657
 40
0.2244685027416657
 10
-40.11944847542266
 20
21.52909445430466
 30
0.0
 10
-40.14262633198165
 20
21.51882389037038
 30
0.0
 10
-40.18583188694573
 20
21.4996786608182
 30
0.0
 10
-40.238510455584
 20
21.46533185245017
 30
0.0
 10
-40.27582423598558
 20
21.42914952270955
 30
0.0
 10
-40.28108559820795
 20
21.40137994613543
 30
0.0
 10
-40.28327100101996
 20
21.38984530754699
 30
0.0
 11
-40.11944847542266
 21
21.52909445430466
 31
0.0
 11
-40.18782411694955
 21
21.49644045323496
 31
0.0
 11
-40.24218258787825
 21
21.45994328897473
 31
0.0
 11
-40.27401944919546
 21
21.42315192352421
 31
0.0
 11
-40.28327100101996
 21
21.38984530754699
 31
0.0
  0
SPLINE
  5
224
330
52
100
AcDbEntity
  8
0
  6
Continuous
 62
     7
100
AcDbSpline
210
0.0
220
0.0
230
1.0
 70
     8
 71
     3
 72
    11
 73
     7
 74
     5
 42
0.000000001
 43
0.0000000001
 44
0.00000001
 40
0.0
 40
0.0
 40
0.0
 40
0.0
 40
0.0752405466242152
 40
0.1399418855484975
 40
0.1875359483215148
 40
0.2208702581187457
 40
0.2208702581187457
 40
0.2208702581187457
 40
0.2208702581187457
 10
-26.03254902674846
 20
32.42602278194997
 30
0.0
 10
-26.02268520713686
 20
32.44918785736366
 30
0.0
 10
-26.00433923003911
 20
32.49227319414167
 30
0.0
 10
-25.9713775652311
 20
32.54482356057515
 30
0.0
 10
-25.93674609324678
 20
32.58226854999379
 30
0.0
 10
-25.90976790546554
 20
32.58763491455881
 30
0.0
 10
-25.89865561640456
 20
32.58984530754697
 30
0.0
 11
-26.03254902674846
 21
32.42602278194997
 31
0.0
 11
-26.00115072747559
 21
32.49439883905367
 31
0.0
 11
-25.96605785674886
 21
32.54875648440844
 31
0.0
 11
-25.93068049594451
 21
32.58059416805087
 31
0.0
 11
-25.89865561640456
 21
32.58984530754697
 31
0.0
  0
SPLINE
  5
225
330
52
100
AcDbEntity
  8
0
  6
Continuous
 62
     7
100
AcDbSpline
210
0.0
220
0.0
230
1.0
 70
     8
 71
     3
 72
    11
 73
     7
 74
     5
 42
0.000000001
 43
0.0000000001
 44
0.00000001
 40
0.0
 40
0.0
 40
0.0
 40
0.0
 40
0.0793361871347987
 40
0.1412527709402938
 40
0.1858438374697345
 40
0.22442644365825
 40
0.22442644365825
 40
0.22442644365825
 40
0.22442644365825
 10
-22.84709352661724
 20
28.72909445430467
 30
0.0
 10
-22.82282536548974
 20
28.71833528804924
 30
0.0
 10
-22.77961752906773
 20
28.69917931445164
 30
0.0
 10
-22.7282409600728
 20
28.66514373192035
 30
0.0
 10
-22.69179118045895
 20
28.63039931399427
 30
0.0
 10
-22.68597090408453
 20
28.60269622156341
 30
0.0
 10
-22.68327100101995
 20
28.58984530754698
 30
0.0
 11
-22.84709352661724
 21
28.72909445430467
 31
0.0
 11
-22.77560089913022
 21
28.6946992043545
 31
0.0
 11
-22.72435941416165
 21
28.6599432889747
 31
0.0
 11
-22.69461456786675
 21
28.6267226895024
 31
0.0
 11
-22.68327100101995
 21
28.58984530754698
 31
0.0
  0
SPLINE
  5
226
330
52
100
AcDbEntity
  8
0
  6
Continuous
 62
     7
100
AcDbSpline
210
0.0
220
0.0
230
1.0
 70
     8
 71
     3
 72
    11
 73
     7
 74
     5
 42
0.000000001
 43
0.0000000001
 44
0.00000001
 40
0.0
 40
0.0
 40
0.0
 40
0.0
 40
0.0385826061907743
 40
0.0831736727179382
 40
0.1450902565281846
 40
0.2244264436582257
 40
0.2244264436582257
 40
0.2244264436582257
 40
0.2244264436582257
 10
-22.68327100101995
 20
20.18984530754697
 30
0.0
 10
-22.68597090408483
 20
20.1769943935298
 30
0.0
 10
-22.69179118045956
 20
20.14929130109897
 30
0.0
 10
-22.7282409600746
 20
20.11454688317207
 30
0.0
 10
-22.77961752906921
 20
20.08051130064158
 30
0.0
 10
-22.82282536549119
 20
20.06135532704403
 30
0.0
 10
-22.84709352661724
 20
20.05059616078926
 30
0.0
 11
-22.68327100101995
 21
20.18984530754697
 31
0.0
 11
-22.69461456786797
 21
20.15296792558956
 31
0.0
 11
-22.72435941416165
 21
20.11974732611923
 31
0.0
 11
-22.77560089913437
 21
20.08499141073709
 31
0.0
 11
-22.84709352661724
 21
20.05059616078926
 31
0.0
  0
SPLINE
  5
227
330
52
100
AcDbEntity
  8
0
  6
Continuous
 62
     7
100
AcDbSpline
210
0.0
220
0.0
230
1.0
 70
     8
 71
     3
 72
    11
 73
     7
 74
     5
 42
0.000000001
 43
0.0000000001
 44
0.00000001
 40
0.0
 40
0.0
 40
0.0
 40
0.0
 40
0.037228507621104
 40
0.0808772899582385
 40
0.1384911428104769
 40
0.2208284731060038
 40
0.2208284731060038
 40
0.2208284731060038
 40
0.2208284731060038
 10
-24.66788638563536
 20
32.58984530754697
 30
0.0
 10
-24.6555035295962
 20
32.58711454035041
 30
0.0
 10
-24.62860232725446
 20
32.58118205388553
 30
0.0
 10
-24.59619735452761
 20
32.54555971134771
 30
0.0
 10
-24.56318298730076
 20
32.49447729473707
 30
0.0
 10
-24.54480517533344
 20
32.45137884618256
 30
0.0
 10
-24.53399297529146
 20
32.42602278194997
 30
0.0
 11
-24.66788638563536
 21
32.58984530754697
 31
0.0
 11
-24.6324280269389
 21
32.57850216499553
 31
0.0
 11
-24.60048414529105
 21
32.54875648440844
 31
0.0
 11
-24.56877902621355
 21
32.50065096021834
 31
0.0
 11
-24.53399297529146
 21
32.42602278194997
 31
0.0
  0
SPLINE
  5
228
330
52
100
AcDbEntity
  8
0
  6
Continuous
 62
     7
100
AcDbSpline
210
0.0
220
0.0
230
1.0
 70
     8
 71
     3
 72
    11
 73
     7
 74
     5
 42
0.000000001
 43
0.0000000001
 44
0.00000001
 40
0.0
 40
0.0
 40
0.0
 40
0.0
 40
0.1150180885363176
 40
0.2143675136423486
 40
0.2859204641395653
 40
0.3278844339704647
 40
0.3278844339704647
 40
0.3278844339704647
 40
0.3278844339704647
 10
-25.48327100101996
 20
17.38984530754648
 30
0.0
 10
-25.44464550939183
 20
17.39091742771273
 30
0.0
 10
-25.37265639473386
 20
17.39291561185376
 30
0.0
 10
-25.28160397788465
 20
17.41312532373088
 30
0.0
 10
-25.20787033439627
 20
17.43443955878156
 30
0.0
 10
-25.18991030606826
 20
17.46904871641228
 30
0.0
 10
-25.18327100101996
 20
17.48184273997323
 30
0.0
 11
-25.48327100101996
 21
17.38984530754648
 31
0.0
 11
-25.36846632037454
 21
17.39684845353605
 31
0.0
 11
-25.27113896666399
 21
17.41679073165253
 31
0.0
 11
-25.20610798398188
 21
17.44663695380673
 31
0.0
 11
-25.18327100101996
 21
17.48184273997323
 31
0.0
  0
SPLINE
  5
229
330
52
100
AcDbEntity
  8
0
  6
Continuous
 62
     7
100
AcDbSpline
210
0.0
220
0.0
230
1.0
 70
     8
 71
     3
 72
    11
 73
     7
 74
     5
 42
0.000000001
 43
0.0000000001
 44
0.00000001
 40
0.0
 40
0.0
 40
0.0
 40
0.0
 40
0.0372285076491945
 40
0.080877289954916
 40
0.1455786283590719
 40
0.2208191750749771
 40
0.2208191750749771
 40
0.2208191750749771
 40
0.2208191750749771
 10
-38.29865561640459
 20
32.58984530754697
 30
0.0
 10
-38.31103887154914
 20
32.58711342426477
 30
0.0
 10
-38.33794094090955
 20
32.58117851316565
 30
0.0
 10
-38.3719956746326
 20
32.54375722501291
 30
0.0
 10
-38.40436513587046
 20
32.49225971405703
 30
0.0
 10
-38.42269426524248
 20
32.44918314381291
 30
0.0
 10
-38.43254902674846
 20
32.42602278194997
 30
0.0
 11
-38.29865561640459
 21
32.58984530754697
 31
0.0
 11
-38.33411397509981
 21
32.57850216499631
 31
0.0
 11
-38.36605785674887
 21
32.54875648440844
 31
0.0
 11
-38.40115072747383
 21
32.49439883905696
 31
0.0
 11
-38.43254902674846
 21
32.42602278194997
 31
0.0
  0
SPLINE
  5
22A
330
52
100
AcDbEntity
  8
0
  6
Continuous
 62
     7
100
AcDbSpline
210
0.0
220
0.0
230
1.0
 70
     8
 71
     3
 72
    11
 73
     7
 74
     5
 42
0.000000001
 43
0.0000000001
 44
0.00000001
 40
0.0
 40
0.0
 40
0.0
 40
0.0
 40
0.0823373302073238
 40
0.139951183566853
 40
0.1875452463657007
 40
0.2208795561328109
 40
0.2208795561328109
 40
0.2208795561328109
 40
0.2208795561328109
 10
-36.93399297529146
 20
32.42602278194997
 30
0.0
 10
-36.94481536777953
 20
32.4513840458112
 30
0.0
 10
-36.96321050456596
 20
32.49449133190826
 30
0.0
 10
-36.99683912990214
 20
32.54662288468328
 30
0.0
 10
-37.02979753248995
 20
32.58227203165386
 30
0.0
 10
-37.05677457026615
 20
32.58763593028241
 30
0.0
 10
-37.06788638563536
 20
32.58984530754697
 30
0.0
 11
-36.93399297529146
 21
32.42602278194997
 31
0.0
 11
-36.96877902621526
 21
32.50065096022143
 31
0.0
 11
-37.00048414529105
 21
32.54875648440844
 31
0.0
 11
-37.03586150609561
 21
32.58059416805099
 31
0.0
 11
-37.06788638563536
 21
32.58984530754697
 31
0.0
  0
SPLINE
  5
22B
330
52
100
AcDbEntity
  8
0
  6
Continuous
 62
     7
100
AcDbSpline
210
0.0
220
0.0
230
1.0
 70
     8
 71
     3
 72
    11
 73
     7
 74
     5
 42
0.000000001
 43
0.0000000001
 44
0.00000001
 40
0.0
 40
0.0
 40
0.0
 40
0.0
 40
0.0419639698309013
 40
0.1135169203281212
 40
0.2128663454341522
 40
0.3278844339704592
 40
0.3278844339704592
 40
0.3278844339704592
 40
0.3278844339704592
 10
-35.68327100101996
 20
17.48184273997323
 30
0.0
 10
-35.68991030606824
 20
17.46904871641227
 30
0.0
 10
-35.7078703343963
 20
17.43443955878156
 30
0.0
 10
-35.78160397788465
 20
17.41312532373088
 30
0.0
 10
-35.87265639473385
 20
17.39291561185375
 30
0.0
 10
-35.94464550939184
 20
17.39091742771273
 30
0.0
 10
-35.98327100101996
 20
17.38984530754648
 30
0.0
 11
-35.68327100101996
 21
17.48184273997323
 31
0.0
 11
-35.70610798398188
 21
17.44663695380673
 31
0.0
 11
-35.771138966664
 21
17.41679073165253
 31
0.0
 11
-35.86846632037454
 21
17.39684845353605
 31
0.0
 11
-35.98327100101996
 21
17.38984530754648
 31
0.0
  0
SPLINE
  5
22C
330
52
100
AcDbEntity
  8
0
  6
Continuous
 62
     7
100
AcDbSpline
210
0.0
220
0.0
230
1.0
 70
     8
 71
     3
 72
    11
 73
     7
 74
     5
 42
0.000000001
 43
0.0000000001
 44
0.00000001
 40
0.0
 40
0.0
 40
0.0
 40
0.0
 40
0.0419639698309013
 40
0.1135169203281277
 40
0.2128663454341517
 40
0.3278844339704657
 40
0.3278844339704657
 40
0.3278844339704657
 40
0.3278844339704657
 10
-37.78327100101996
 20
17.48184273997323
 30
0.0
 10
-37.77663169597167
 20
17.46904871641228
 30
0.0
 10
-37.75867166764363
 20
17.43443955878154
 30
0.0
 10
-37.68493802415527
 20
17.41312532373089
 30
0.0
 10
-37.59388560730606
 20
17.39291561185374
 30
0.0
 10
-37.52189649264808
 20
17.39091742771273
 30
0.0
 10
-37.48327100101996
 20
17.38984530754648
 30
0.0
 11
-37.78327100101996
 21
17.48184273997323
 31
0.0
 11
-37.76043401805804
 21
17.44663695380673
 31
0.0
 11
-37.69540303537592
 21
17.41679073165253
 31
0.0
 11
-37.59807568166538
 21
17.39684845353605
 31
0.0
 11
-37.48327100101996
 21
17.38984530754648
 31
0.0
  0
SPLINE
  5
22D
330
52
100
AcDbEntity
  8
0
  6
Continuous
 62
     7
100
AcDbSpline
210
0.0
220
0.0
230
1.0
 70
     8
 71
     3
 72
    11
 73
     7
 74
     5
 42
0.000000001
 43
0.0000000001
 44
0.00000001
 40
0.0
 40
0.0
 40
0.0
 40
0.0
 40
0.0345676379253172
 40
0.0832214078355838
 40
0.1451379924998446
 40
0.2244741795801985
 40
0.2244741795801985
 40
0.2244741795801985
 40
0.2244741795801985
 10
-40.28327100101996
 20
27.38984530754696
 30
0.0
 10
-40.28108605320894
 20
27.37831091847357
 30
0.0
 10
-40.27582578639349
 20
27.35054194259377
 30
0.0
 10
-40.23939289819456
 20
27.31521880223335
 30
0.0
 10
-40.18693590005172
 20
27.28053764835244
 30
0.0
 10
-40.14372074645507
 20
27.26136480306621
 30
0.0
 10
-40.11944847542266
 20
27.25059616078928
 30
0.0
 11
-40.28327100101996
 21
27.38984530754696
 31
0.0
 11
-40.27401944919583
 21
27.35653869157044
 31
0.0
 11
-40.24218258787825
 21
27.31974732611923
 31
0.0
 11
-40.19094110290823
 21
27.28499141073862
 31
0.0
 11
-40.11944847542266
 21
27.25059616078928
 31
0.0
  0
SPLINE
  5
22E
330
52
100
AcDbEntity
  8
0
  6
Continuous
 62
     7
100
AcDbSpline
210
0.0
220
0.0
230
1.0
 70
     8
 71
     3
 72
    11
 73
     7
 74
     5
 42
0.000000001
 43
0.0000000001
 44
0.00000001
 40
0.0
 40
0.0
 40
0.0
 40
0.0
 40
0.0385826062064157
 40
0.0831736727156737
 40
0.1486479903434725
 40
0.2244207668103536
 40
0.2244207668103536
 40
0.2244207668103536
 40
0.2244207668103536
 10
-22.68327100101995
 20
27.38984530754696
 30
0.0
 10
-22.68597140571368
 20
27.37699417809376
 30
0.0
 10
-22.69179276346094
 20
27.3492906212553
 30
0.0
 10
-22.72912575598765
 20
27.31369877902625
 30
0.0
 10
-22.78072129624156
 20
27.2799864384737
 30
0.0
 10
-22.82391957403732
 20
27.26085781592293
 30
0.0
 10
-22.84709352661724
 20
27.25059616078927
 30
0.0
 11
-22.68327100101995
 21
27.38984530754696
 31
0.0
 11
-22.69461456786829
 21
27.35296792558904
 31
0.0
 11
-22.72435941416165
 21
27.31974732611922
 31
0.0
 11
-22.7787178850901
 21
27.28325016185913
 31
0.0
 11
-22.84709352661724
 21
27.25059616078927
 31
0.0
  0
SPLINE
  5
22F
330
52
100
AcDbEntity
  8
0
  6
Continuous
 62
     7
100
AcDbSpline
210
0.0
220
0.0
230
1.0
 70
     8
 71
     3
 72
    11
 73
     7
 74
     5
 42
0.000000001
 43
0.0000000001
 44
0.00000001
 40
0.0
 40
0.0
 40
0.0
 40
0.0
 40
0.0757727764182279
 40
0.1412470949062504
 40
0.1899008647989436
 40
0.2244685027416847
 40
0.2244685027416847
 40
0.2244685027416847
 40
0.2244685027416847
 10
-40.11944847542266
 20
28.72909445430467
 30
0.0
 10
-40.14262633198318
 20
28.71882389036968
 30
0.0
 10
-40.18583188694729
 20
28.69967866081748
 30
0.0
 10
-40.23851045558483
 20
28.66533185244916
 30
0.0
 10
-40.2758242359852
 20
28.62914952270999
 30
0.0
 10
-40.28108559820777
 20
28.60137994613588
 30
0.0
 10
-40.28327100101996
 20
28.58984530754696
 30
0.0
 11
-40.11944847542266
 21
28.72909445430467
 31
0.0
 11
-40.18782411695393
 21
28.69644045323252
 31
0.0
 11
-40.24218258787825
 21
28.6599432889747
 31
0.0
 11
-40.27401944919472
 21
28.6231519235255
 31
0.0
 11
-40.28327100101996
 21
28.58984530754696
 31
0.0
  0
SPLINE
  5
230
330
52
100
AcDbEntity
  8
0
  6
Continuous
 62
     7
100
AcDbSpline
210
0.0
220
0.0
230
1.0
 70
     8
 71
     3
 72
    11
 73
     7
 74
     5
 42
0.000000001
 43
0.0000000001
 44
0.00000001
 40
0.0
 40
0.0
 40
0.0
 40
0.0
 40
0.0365840508775
 40
0.0832023242292013
 40
0.1415246308335093
 40
0.2244590027754782
 40
0.2244590027754782
 40
0.2244590027754782
 40
0.2244590027754782
 10
-40.28327100101996
 20
20.18984530754697
 30
0.0
 10
-40.2808337146304
 20
20.1776488590895
 30
0.0
 10
-40.27529063066753
 20
20.14991074285997
 30
0.0
 10
-40.2397376196934
 20
20.11574716526783
 30
0.0
 10
-40.18804790477533
 20
20.08105297141457
 30
0.0
 10
-40.14482527169912
 20
20.06186296471213
 30
0.0
 10
-40.11944847542266
 20
20.05059616078926
 30
0.0
 11
-40.28327100101996
 21
20.18984530754697
 31
0.0
 11
-40.27298977941362
 21
20.15473562853822
 31
0.0
 11
-40.24218258787825
 21
20.11974732611923
 31
0.0
 11
-40.19407629931327
 21
20.08677345058662
 31
0.0
 11
-40.11944847542266
 21
20.05059616078926
 31
0.0
  0
SPLINE
  5
231
330
52
100
AcDbEntity
  8
0
  6
Continuous
 62
     7
100
AcDbSpline
210
0.0
220
0.0
230
1.0
 70
     8
 71
     3
 72
    11
 73
     7
 74
     5
 42
0.000000001
 43
0.0000000001
 44
0.00000001
 40
0.0
 40
0.0
 40
0.0
 40
0.0
 40
0.0829343719172317
 40
0.1412566788518705
 40
0.1899104487745075
 40
0.2244780866878772
 40
0.2244780866878772
 40
0.2244780866878772
 40
0.2244780866878772
 10
-22.84709352661724
 20
21.52909445430466
 30
0.0
 10
-22.82171466421705
 20
21.51782240497533
 30
0.0
 10
-22.77848851220755
 20
21.49862346397461
 30
0.0
 10
-22.72625821699356
 20
21.46360274689889
 30
0.0
 10
-22.69071446224565
 20
21.42914779314898
 30
0.0
 10
-22.68545543425718
 20
21.40137943855422
 30
0.0
 10
-22.68327100101995
 20
21.38984530754699
 30
0.0
 11
-22.84709352661724
 21
21.52909445430466
 31
0.0
 11
-22.7724657027224
 21
21.49291716450488
 31
0.0
 11
-22.72435941416165
 21
21.45994328897473
 31
0.0
 11
-22.69252255284571
 21
21.42315192352645
 31
0.0
 11
-22.68327100101995
 21
21.38984530754699
 31
0.0
  0
SPLINE
  5
232
330
52
100
AcDbEntity
  8
0
  6
Continuous
 62
     7
100
AcDbSpline
210
0.0
220
0.0
230
1.0
 70
     8
 71
     3
 72
    11
 73
     7
 74
     5
 42
0.000000001
 43
0.0000000001
 44
0.00000001
 40
0.0
 40
0.0
 40
0.0
 40
0.0
 40
0.1150180885363105
 40
0.2143675136423346
 40
0.2859204641395545
 40
0.3278844339704577
 40
0.3278844339704577
 40
0.3278844339704577
 40
0.3278844339704577
 10
-26.98327100101996
 20
17.38984530754648
 30
0.0
 10
-27.02189649264809
 20
17.39091742771273
 30
0.0
 10
-27.09388560730605
 20
17.39291561185375
 30
0.0
 10
-27.18493802415527
 20
17.41312532373088
 30
0.0
 10
-27.25867166764363
 20
17.43443955878156
 30
0.0
 10
-27.27663169597167
 20
17.46904871641227
 30
0.0
 10
-27.28327100101996
 20
17.48184273997323
 30
0.0
 11
-26.98327100101996
 21
17.38984530754648
 31
0.0
 11
-27.09807568166538
 21
17.39684845353605
 31
0.0
 11
-27.19540303537592
 21
17.41679073165253
 31
0.0
 11
-27.26043401805804
 21
17.44663695380673
 31
0.0
 11
-27.28327100101996
 21
17.48184273997323
 31
0.0
  0
ENDBLK
  5
54
330
52
100
AcDbEntity
  8
0
100
AcDbBlockEnd
  0
BLOCK
  5
57
330
55
100
AcDbEntity
  8
0
100
AcDbBlockBegin
  2
VS-08-BU-RJ45-6_LH-1__4
 70
     0
 10
-40.28327100101996
 20
14.44378267195426
 30
0.0
  3
VS-08-BU-RJ45-6_LH-1__4
  1

  0
INSERT
  5
56
330
55
100
AcDbEntity
  8
0
100
AcDbBlockReference
  2
VS-08-BU-RJ45-6_LH-1_1__3
 10
-40.28327100101996
 20
14.44378267195426
 30
0.0
  0
ENDBLK
  5
58
330
55
100
AcDbEntity
  8
0
100
AcDbBlockEnd
  0
BLOCK
  5
5B
330
59
100
AcDbEntity
  8
0
100
AcDbBlockBegin
  2
Vordans1
 70
     0
 10
-40.28327099998437
 20
19.87075136440022
 30
0.0
  3
Vordans1
  1

  0
INSERT
  5
5A
330
59
100
AcDbEntity
  8
0
100
AcDbBlockReference
  2
VS-08-BU-RJ45-6_LH-1__4
 10
-40.28327100101996
 20
14.44378267195426
 30
0.0
  0
MTEXT
  5
233
330
59
100
AcDbEntity
  8
1
 62
     6
100
AcDbMText
 10
-31.48327043591942
 20
13.44378053121923
 30
0.0
 40
1.0
 41
0.0
 71
     2
 72
     1
  1
 
  7
CONVERTER_11
 73
     1
 44
1.32052821128451
  0
DIMENSION
  5
23E
330
59
100
AcDbEntity
  8
1
100
AcDbDimension
  2
*D14
 10
-23.48327100101994
 20
33.83984530754695
 30
0.0
 11
-31.29822993853344
 21
34.48984530754695
 31
0.0
 70
    32
  1
<>
 71
     5
 42
-1.0
 53
0.00013888888889
  3
ME10_DIM_12
100
AcDbAlignedDimension
 13
-39.48327100101996
 23
31.83984530754697
 33
0.0
 14
-23.48327100101996
 24
31.83984530754696
 34
0.0
100
AcDbRotatedDimension
  0
DIMENSION
  5
249
330
59
100
AcDbEntity
  8
1
100
AcDbDimension
  2
*D15
 10
-40.28327100101994
 20
12.03984530754689
 30
0.0
 11
-31.97640861503803
 21
12.72484530754689
 31
0.0
 70
    32
  1
<>
 71
     5
 42
-1.0
 53
0.00013888888889
  3
ME10_DIM_13
100
AcDbAlignedDimension
 13
-22.68327100101995
 23
21.38984530754699
 33
0.0
 14
-40.28327100101996
 24
21.38984530754699
 34
0.0
100
AcDbRotatedDimension
  0
ENDBLK
  5
5C
330
59
100
AcDbEntity
  8
0
100
AcDbBlockEnd
  0
BLOCK
  5
5E
330
5D
100
AcDbEntity
  8
0
100
AcDbBlockBegin
  2
_rahmen
 70
     0
 10
121.0961748347948
 20
-32.05077346226705
 30
0.0
  3
_rahmen
  1

  0
POINT
  5
24A
330
5D
100
AcDbEntity
  8
1
 62
     3
 60
     1
100
AcDbPoint
 10
121.0961748347947
 20
-27.05077346226756
 30
0.0
  0
LINE
  5
24B
330
5D
100
AcDbEntity
  8
1
  6
Continuous
 62
     2
100
AcDbLine
 10
-83.90382516520523
 20
-32.05077346226705
 30
0.0
 11
-152.2371584985383
 21
-32.05077346226705
 31
0.0
  0
LINE
  5
24C
330
5D
100
AcDbEntity
  8
1
  6
Continuous
 62
     2
100
AcDbLine
 10
52.76284150146135
 20
-32.05077346226705
 30
0.0
 11
121.0961748347948
 21
-32.05077346226705
 31
0.0
  0
LINE
  5
24D
330
5D
100
AcDbEntity
  8
1
  6
Continuous
 62
     2
100
AcDbLine
 10
52.76284150146135
 20
-32.05077346226705
 30
0.0
 11
52.76284150146135
 21
-27.05077346226705
 31
0.0
  0
LINE
  5
24E
330
5D
100
AcDbEntity
  8
1
  6
Continuous
 62
     2
100
AcDbLine
 10
-15.57049183187183
 20
-32.05077346226705
 30
0.0
 11
-15.57049183187183
 21
-27.05077346226995
 31
0.0
  0
LINE
  5
24F
330
5D
100
AcDbEntity
  8
1
  6
Continuous
 62
     2
100
AcDbLine
 10
-83.90382516520523
 20
-32.05077346226705
 30
0.0
 11
-83.90382516520523
 21
-27.05077346226705
 31
0.0
  0
LINE
  5
250
330
5D
100
AcDbEntity
  8
1
  6
Continuous
 62
     2
100
AcDbLine
 10
126.0961748347923
 20
30.34922653773307
 30
0.0
 11
126.0961748347923
 21
87.74922653773316
 31
0.0
  0
LINE
  5
251
330
5D
100
AcDbEntity
  8
1
  6
Continuous
 62
     2
100
AcDbLine
 10
126.0961748347923
 20
30.34922653773307
 30
0.0
 11
121.0961748347947
 21
30.34922653773307
 31
0.0
  0
LINE
  5
252
330
5D
100
AcDbEntity
  8
1
  6
Continuous
 62
     2
100
AcDbLine
 10
-273.9038251652059
 20
-32.05077346226705
 30
0.0
 11
-293.9038251652061
 21
-32.05077346226705
 31
0.0
  0
LINE
  5
253
330
5D
100
AcDbEntity
  8
1
  6
Continuous
 62
     2
100
AcDbLine
 10
-220.5704918318719
 20
-32.05077346226705
 30
0.0
 11
-220.5704918318719
 21
-27.05077346226705
 31
0.0
  0
LINE
  5
254
330
5D
100
AcDbEntity
  8
1
  6
Continuous
 62
     2
100
AcDbLine
 10
-220.5704918318719
 20
-32.05077346226705
 30
0.0
 11
-152.2371584985383
 21
-32.05077346226705
 31
0.0
  0
LINE
  5
255
330
5D
100
AcDbEntity
  8
1
  6
Continuous
 62
     6
100
AcDbLine
 10
-220.5704918318719
 20
-27.05077346226705
 30
0.0
 11
-152.2371584985383
 21
-27.05077346226705
 31
0.0
  0
LINE
  5
256
330
5D
100
AcDbEntity
  8
1
  6
Continuous
 62
     6
100
AcDbLine
 10
-220.5704918318719
 20
-27.05077346226705
 30
0.0
 11
-273.9038251652049
 21
-27.05077346226705
 31
0.0
  0
LINE
  5
257
330
5D
100
AcDbEntity
  8
1
  6
Continuous
 62
     2
100
AcDbLine
 10
-152.2371584985383
 20
-32.05077346226705
 30
0.0
 11
-152.2371584985383
 21
-27.05077346226705
 31
0.0
  0
LINE
  5
258
330
5D
100
AcDbEntity
  8
1
  6
Continuous
 62
     2
100
AcDbLine
 10
-273.9038251652059
 20
-32.05077346226705
 30
0.0
 11
-273.9038251652059
 21
-28.05077346226705
 31
0.0
  0
LINE
  5
259
330
5D
100
AcDbEntity
  8
1
  6
Continuous
 62
     2
100
AcDbLine
 10
-273.9038251652059
 20
-32.05077346226705
 30
0.0
 11
-220.5704918318719
 21
-32.05077346226705
 31
0.0
  0
LINE
  5
25A
330
5D
100
AcDbEntity
  8
1
  6
Continuous
 62
     2
100
AcDbLine
 10
-63.90382516520805
 20
-32.05077346226705
 30
0.0
 11
-83.90382516520523
 21
-32.05077346226705
 31
0.0
  0
LINE
  5
25B
330
5D
100
AcDbEntity
  8
1
  6
Continuous
 62
     2
100
AcDbLine
 10
-63.90382516520805
 20
-32.05077346226705
 30
0.0
 11
-63.90382516520805
 21
-28.05077346226705
 31
0.0
  0
LINE
  5
25C
330
5D
100
AcDbEntity
  8
1
  6
Continuous
 62
     2
100
AcDbLine
 10
-63.90382516520805
 20
-32.05077346226705
 30
0.0
 11
-15.57049183187183
 21
-32.05077346226705
 31
0.0
  0
LINE
  5
25D
330
5D
100
AcDbEntity
  8
1
  6
Continuous
 62
     2
100
AcDbLine
 10
-15.57049183187183
 20
-32.05077346226705
 30
0.0
 11
52.76284150146135
 21
-32.05077346226705
 31
0.0
  0
LINE
  5
25E
330
5D
100
AcDbEntity
  8
1
  6
Continuous
 62
     2
100
AcDbLine
 10
126.0961748347923
 20
-32.05077346226705
 30
0.0
 11
121.0961748347948
 21
-32.05077346226705
 31
0.0
  0
LINE
  5
25F
330
5D
100
AcDbEntity
  8
1
  6
Continuous
 62
     2
100
AcDbLine
 10
126.0961748347923
 20
-27.05077346226705
 30
0.0
 11
126.0961748347923
 21
-32.05077346226705
 31
0.0
  0
LINE
  5
260
330
5D
100
AcDbEntity
  8
1
  6
Continuous
 62
     2
100
AcDbLine
 10
126.0961748347923
 20
-27.05077346226705
 30
0.0
 11
126.0961748347923
 21
30.34922653773307
 31
0.0
  0
LINE
  5
261
330
5D
100
AcDbEntity
  8
1
  6
Continuous
 62
     2
100
AcDbLine
 10
126.0961748347923
 20
264.949226537733
 30
0.0
 11
121.0961748347923
 21
264.949226537733
 31
0.0
  0
LINE
  5
262
330
5D
100
AcDbEntity
  8
1
  6
Continuous
 62
     6
100
AcDbLine
 10
121.0961748347923
 20
259.949226537733
 30
0.0
 11
121.0961748347928
 21
202.5492265377329
 31
0.0
  0
LINE
  5
263
330
5D
100
AcDbEntity
  8
1
  6
Continuous
 62
     2
100
AcDbLine
 10
126.0961748347923
 20
264.949226537733
 30
0.0
 11
126.0961748347923
 21
259.949226537733
 31
0.0
  0
LINE
  5
264
330
5D
100
AcDbEntity
  8
1
  6
Continuous
 62
     2
100
AcDbLine
 10
121.0961748347923
 20
259.949226537733
 30
0.0
 11
121.0961748347923
 21
264.949226537733
 31
0.0
  0
LINE
  5
265
330
5D
100
AcDbEntity
  8
1
  6
Continuous
 62
     2
100
AcDbLine
 10
121.0961748347923
 20
259.949226537733
 30
0.0
 11
126.0961748347923
 21
259.949226537733
 31
0.0
  0
LINE
  5
266
330
5D
100
AcDbEntity
  8
1
  6
Continuous
 62
     2
100
AcDbLine
 10
126.0961748347923
 20
259.949226537733
 30
0.0
 11
126.0961748347923
 21
202.5492265377329
 31
0.0
  0
LINE
  5
267
330
5D
100
AcDbEntity
  8
1
  6
Continuous
 62
     2
100
AcDbLine
 10
121.0961748347928
 20
202.5492265377329
 30
0.0
 11
126.0961748347923
 21
202.5492265377329
 31
0.0
  0
LINE
  5
268
330
5D
100
AcDbEntity
  8
1
  6
Continuous
 62
     6
100
AcDbLine
 10
121.0961748347928
 20
202.5492265377329
 30
0.0
 11
121.0961748347948
 21
145.149226537733
 31
0.0
  0
LINE
  5
269
330
5D
100
AcDbEntity
  8
1
  6
Continuous
 62
     2
100
AcDbLine
 10
126.0961748347923
 20
202.5492265377329
 30
0.0
 11
126.0961748347923
 21
145.149226537733
 31
0.0
  0
LINE
  5
26A
330
5D
100
AcDbEntity
  8
1
  6
Continuous
 62
     2
100
AcDbLine
 10
121.0961748347948
 20
145.149226537733
 30
0.0
 11
126.0961748347923
 21
145.149226537733
 31
0.0
  0
LINE
  5
26B
330
5D
100
AcDbEntity
  8
1
  6
Continuous
 62
     6
100
AcDbLine
 10
121.0961748347948
 20
145.149226537733
 30
0.0
 11
121.0961748347948
 21
87.74922653773316
 31
0.0
  0
LINE
  5
26C
330
5D
100
AcDbEntity
  8
1
  6
Continuous
 62
     2
100
AcDbLine
 10
126.0961748347923
 20
145.149226537733
 30
0.0
 11
126.0961748347923
 21
87.74922653773316
 31
0.0
  0
LINE
  5
26D
330
5D
100
AcDbEntity
  8
1
  6
Continuous
 62
     2
100
AcDbLine
 10
121.0961748347948
 20
87.74922653773316
 30
0.0
 11
126.0961748347923
 21
87.74922653773316
 31
0.0
  0
LINE
  5
26E
330
5D
100
AcDbEntity
  8
1
  6
Continuous
 62
     6
100
AcDbLine
 10
121.0961748347948
 20
87.74922653773316
 30
0.0
 11
121.0961748347947
 21
30.34922653773307
 31
0.0
  0
LINE
  5
26F
330
5D
100
AcDbEntity
  8
1
  6
Continuous
 62
     6
100
AcDbLine
 10
-273.9038251652059
 20
259.9492265377332
 30
0.0
 11
-220.5704918318719
 21
259.9492265377332
 31
0.0
  0
LINE
  5
270
330
5D
100
AcDbEntity
  8
1
  6
Continuous
 62
     2
100
AcDbLine
 10
121.0961748347923
 20
264.949226537733
 30
0.0
 11
52.76284150146135
 21
264.949226537733
 31
0.0
  0
LINE
  5
271
330
5D
100
AcDbEntity
  8
1
  6
Continuous
 62
     2
100
AcDbLine
 10
52.76284150146135
 20
259.949226537733
 30
0.0
 11
52.76284150146135
 21
264.949226537733
 31
0.0
  0
LINE
  5
272
330
5D
100
AcDbEntity
  8
1
  6
Continuous
 62
     6
100
AcDbLine
 10
52.76284150146135
 20
259.949226537733
 30
0.0
 11
121.0961748347923
 21
259.949226537733
 31
0.0
  0
LINE
  5
273
330
5D
100
AcDbEntity
  8
1
  6
Continuous
 62
     2
100
AcDbLine
 10
52.76284150146135
 20
264.949226537733
 30
0.0
 11
-15.57049183187183
 21
264.949226537733
 31
0.0
  0
LINE
  5
274
330
5D
100
AcDbEntity
  8
1
  6
Continuous
 62
     2
100
AcDbLine
 10
-15.57049183187183
 20
259.949226537733
 30
0.0
 11
-15.57049183187183
 21
264.949226537733
 31
0.0
  0
LINE
  5
275
330
5D
100
AcDbEntity
  8
1
  6
Continuous
 62
     6
100
AcDbLine
 10
-15.57049183187183
 20
259.949226537733
 30
0.0
 11
52.76284150146135
 21
259.949226537733
 31
0.0
  0
LINE
  5
276
330
5D
100
AcDbEntity
  8
1
  6
Continuous
 62
     2
100
AcDbLine
 10
-15.57049183187183
 20
264.949226537733
 30
0.0
 11
-63.90382516520805
 21
264.949226537733
 31
0.0
  0
LINE
  5
277
330
5D
100
AcDbEntity
  8
1
  6
Continuous
 62
     2
100
AcDbLine
 10
-83.90382516520523
 20
259.949226537733
 30
0.0
 11
-83.90382516520523
 21
264.949226537733
 31
0.0
  0
LINE
  5
278
330
5D
100
AcDbEntity
  8
1
  6
Continuous
 62
     6
100
AcDbLine
 10
-83.90382516520523
 20
259.949226537733
 30
0.0
 11
-15.57049183187183
 21
259.949226537733
 31
0.0
  0
LINE
  5
279
330
5D
100
AcDbEntity
  8
1
  6
Continuous
 62
     2
100
AcDbLine
 10
-83.90382516520523
 20
264.949226537733
 30
0.0
 11
-152.2371584985383
 21
264.949226537733
 31
0.0
  0
LINE
  5
27A
330
5D
100
AcDbEntity
  8
1
  6
Continuous
 62
     2
100
AcDbLine
 10
-152.2371584985383
 20
259.949226537733
 30
0.0
 11
-152.2371584985383
 21
264.949226537733
 31
0.0
  0
LINE
  5
27B
330
5D
100
AcDbEntity
  8
1
  6
Continuous
 62
     6
100
AcDbLine
 10
-152.2371584985383
 20
259.949226537733
 30
0.0
 11
-83.90382516520523
 21
259.949226537733
 31
0.0
  0
LINE
  5
27C
330
5D
100
AcDbEntity
  8
1
  6
Continuous
 62
     2
100
AcDbLine
 10
-152.2371584985383
 20
264.949226537733
 30
0.0
 11
-220.5704918318719
 21
264.949226537733
 31
0.0
  0
LINE
  5
27D
330
5D
100
AcDbEntity
  8
1
  6
Continuous
 62
     2
100
AcDbLine
 10
-220.5704918318719
 20
259.9492265377332
 30
0.0
 11
-220.5704918318719
 21
264.949226537733
 31
0.0
  0
LINE
  5
27E
330
5D
100
AcDbEntity
  8
1
  6
Continuous
 62
     6
100
AcDbLine
 10
-220.5704918318719
 20
259.9492265377332
 30
0.0
 11
-152.2371584985383
 21
259.949226537733
 31
0.0
  0
LINE
  5
27F
330
5D
100
AcDbEntity
  8
1
  6
Continuous
 62
     2
100
AcDbLine
 10
-220.5704918318719
 20
264.949226537733
 30
0.0
 11
-273.9038251652059
 21
264.949226537733
 31
0.0
  0
LINE
  5
280
330
5D
100
AcDbEntity
  8
1
  6
Continuous
 62
     2
100
AcDbLine
 10
-273.9038251652059
 20
264.949226537733
 30
0.0
 11
-273.9038251652059
 21
260.9492265377332
 31
0.0
  0
LINE
  5
281
330
5D
100
AcDbEntity
  8
1
  6
Continuous
 62
     2
100
AcDbLine
 10
-273.9038251652059
 20
264.949226537733
 30
0.0
 11
-293.9038251652061
 21
264.949226537733
 31
0.0
  0
LINE
  5
282
330
5D
100
AcDbEntity
  8
1
  6
Continuous
 62
     2
100
AcDbLine
 10
-63.90382516520805
 20
264.949226537733
 30
0.0
 11
-63.90382516520805
 21
260.9492265377332
 31
0.0
  0
LINE
  5
283
330
5D
100
AcDbEntity
  8
1
  6
Continuous
 62
     2
100
AcDbLine
 10
-63.90382516520805
 20
264.949226537733
 30
0.0
 11
-83.90382516520523
 21
264.949226537733
 31
0.0
  0
LINE
  5
284
330
5D
100
AcDbEntity
  8
1
  6
Continuous
 62
     2
100
AcDbLine
 10
-293.9038251652061
 20
264.949226537733
 30
0.0
 11
-293.9038251652061
 21
116.449226537733
 31
0.0
  0
LINE
  5
285
330
5D
100
AcDbEntity
  8
1
  6
Continuous
 62
     2
100
AcDbLine
 10
-293.9038251652061
 20
116.449226537733
 30
0.0
 11
-283.9038251652059
 21
116.449226537733
 31
0.0
  0
LINE
  5
286
330
5D
100
AcDbEntity
  8
1
  6
Continuous
 62
     2
100
AcDbLine
 10
-293.9038251652061
 20
116.449226537733
 30
0.0
 11
-293.9038251652061
 21
-32.05077346226705
 31
0.0
  0
LINE
  5
287
330
5D
100
AcDbEntity
  8
1
  6
Continuous
 62
     6
100
AcDbLine
 10
-273.9038251652049
 20
-27.05077346226705
 30
0.0
 11
-273.9038251652059
 21
259.9492265377332
 31
0.0
  0
LINE
  5
288
330
5D
100
AcDbEntity
  8
1
  6
Continuous
 62
     6
100
AcDbLine
 10
-152.2371584985383
 20
-27.05077346226705
 30
0.0
 11
-8.44862969195515
 21
-27.05077346227012
 31
0.0
  0
LINE
  5
289
330
5D
100
AcDbEntity
  8
1
  6
Continuous
 62
     2
100
AcDbLine
 10
-15.57049183187183
 20
-27.05077346226995
 30
0.0
 11
-15.57049183187183
 21
-27.05077346226705
 31
0.0
  0
LINE
  5
28A
330
5D
100
AcDbEntity
  8
1
  6
Continuous
 62
     7
100
AcDbLine
 10
27.95137030804477
 20
-10.05077346226761
 30
0.0
 11
83.97776655311726
 21
-10.05077346226761
 31
0.0
  0
LINE
  5
28B
330
5D
100
AcDbEntity
  8
1
  6
Continuous
 62
     6
100
AcDbLine
 10
-8.44862969195515
 20
-10.05077346226761
 30
0.0
 11
-8.44862969195515
 21
-1.55077346226761
 31
0.0
  0
LINE
  5
28C
330
5D
100
AcDbEntity
  8
1
  6
Continuous
 62
     6
100
AcDbLine
 10
27.95137030804477
 20
-10.05077346226761
 30
0.0
 11
27.95137030804477
 21
-1.55077346226761
 31
0.0
  0
LINE
  5
28D
330
5D
100
AcDbEntity
  8
1
  6
Continuous
 62
     7
100
AcDbLine
 10
54.07776655311766
 20
-1.55077346226761
 30
0.0
 11
54.07776655311766
 21
-10.05077346226761
 31
0.0
  0
LINE
  5
28E
330
5D
100
AcDbEntity
  8
1
  6
Continuous
 62
     7
100
AcDbLine
 10
74.57776655311726
 20
-1.55077346226761
 30
0.0
 11
74.57776655311726
 21
-10.05077346226761
 31
0.0
  0
LINE
  5
28F
102
{ACAD_REACTORS
330
375
330
376
102
}
330
5D
100
AcDbEntity
  8
0
  6
Continuous
 62
     2
100
AcDbLine
 10
5.25879924981226
 20
-17.75048434660431
 30
0.0
 11
5.25879924981226
 21
-16.87796733980105
 31
0.0
  0
LINE
  5
290
102
{ACAD_REACTORS
330
375
330
376
102
}
330
5D
100
AcDbEntity
  8
0
  6
Continuous
 62
     2
100
AcDbLine
 10
5.25879924981226
 20
-18.7102530540871
 30
0.0
 11
5.25879924981226
 21
-19.58277006089043
 31
0.0
  0
LINE
  5
291
102
{ACAD_REACTORS
330
377
330
378
102
}
330
5D
100
AcDbEntity
  8
0
  6
Continuous
 62
     2
100
AcDbLine
 10
20.59184338610265
 20
-17.48872924456384
 30
0.0
 11
21.69548268567075
 21
-17.48872924456384
 31
0.0
  0
LINE
  5
292
102
{ACAD_REACTORS
330
377
330
378
102
}
330
5D
100
AcDbEntity
  8
0
  6
Continuous
 62
     2
100
AcDbLine
 10
21.36150072906406
 20
-18.71025305408762
 30
0.0
 11
21.36150072906406
 21
-19.58277006089094
 31
0.0
  0
LINE
  5
293
102
{ACAD_REACTORS
330
381
330
382
102
}
330
5D
100
AcDbEntity
  8
0
  6
Continuous
 62
     2
100
AcDbLine
 10
19.50074411368425
 20
-16.39808298607693
 30
0.0
 11
20.89869716062455
 21
-14.81722399230205
 31
0.0
  0
LINE
  5
294
102
{ACAD_REACTORS
330
381
330
382
102
}
330
5D
100
AcDbEntity
  8
0
  6
Continuous
 62
     2
100
AcDbLine
 10
19.59616752985707
 20
-13.34427346226585
 30
0.0
 11
20.89869716062455
 21
-14.81722399230205
 31
0.0
  0
LINE
  5
295
102
{ACAD_REACTORS
330
381
330
382
102
}
330
5D
100
AcDbEntity
  8
0
  6
Continuous
 62
     2
100
AcDbLine
 10
22.20122679139095
 20
-13.34427346226585
 30
0.0
 11
23.60395100913817
 21
-13.34427346226585
 31
0.0
  0
LINE
  5
296
102
{ACAD_REACTORS
330
381
330
382
102
}
330
5D
100
AcDbEntity
  8
0
  6
Continuous
 62
     2
100
AcDbLine
 10
20.90346833143235
 20
-16.39808298607693
 30
0.0
 11
21.60005926949816
 21
-15.61035120078321
 31
0.0
  0
LINE
  5
297
102
{ACAD_REACTORS
330
381
330
382
102
}
330
5D
100
AcDbEntity
  8
0
  6
Continuous
 62
     2
100
AcDbLine
 10
20.90346833143235
 20
-16.39808298607693
 30
0.0
 11
19.50074411368425
 21
-16.39808298607693
 31
0.0
  0
LINE
  5
298
102
{ACAD_REACTORS
330
383
330
384
102
}
330
5D
100
AcDbEntity
  8
0
  6
Continuous
 62
     2
100
AcDbLine
 10
19.38146484346737
 20
-16.39808298607693
 30
0.0
 11
18.14096043321445
 21
-16.39808298607693
 31
0.0
  0
LINE
  5
299
102
{ACAD_REACTORS
330
385
330
386
102
}
330
5D
100
AcDbEntity
  8
0
  6
Continuous
 62
     2
100
AcDbLine
 10
17.27298082505936
 20
-18.53574965272685
 30
0.0
 11
16.97281558786915
 21
-17.76793468674015
 31
0.0
  0
LINE
  5
29A
102
{ACAD_REACTORS
330
385
330
386
102
}
330
5D
100
AcDbEntity
  8
0
  6
Continuous
 62
     2
100
AcDbLine
 10
16.67265035067686
 20
-18.53574965272685
 30
0.0
 11
17.27298082505936
 21
-18.53574965272685
 31
0.0
  0
LINE
  5
29B
102
{ACAD_REACTORS
330
385
330
386
102
}
330
5D
100
AcDbEntity
  8
0
  6
Continuous
 62
     2
100
AcDbLine
 10
14.95461033580307
 20
-19.75727346225125
 30
0.0
 11
16.19511474605596
 21
-19.75727346225125
 31
0.0
  0
LINE
  5
29C
102
{ACAD_REACTORS
330
385
330
386
102
}
330
5D
100
AcDbEntity
  8
0
  6
Continuous
 62
     2
100
AcDbLine
 10
16.35256338274226
 20
-16.70346393844011
 30
0.0
 11
17.59306779299507
 21
-16.70346393844011
 31
0.0
  0
LINE
  5
29D
102
{ACAD_REACTORS
330
385
330
386
102
}
330
5D
100
AcDbEntity
  8
0
  6
Continuous
 62
     2
100
AcDbLine
 10
17.59306779299507
 20
-16.70346393844011
 30
0.0
 11
18.99102083993535
 21
-19.75727346225125
 31
0.0
  0
LINE
  5
29E
102
{ACAD_REACTORS
330
385
330
386
102
}
330
5D
100
AcDbEntity
  8
0
  6
Continuous
 62
     2
100
AcDbLine
 10
17.75051642968145
 20
-19.75727346225125
 30
0.0
 11
17.53903637620567
 21
-19.21631291803345
 31
0.0
  0
LINE
  5
29F
102
{ACAD_REACTORS
330
387
330
388
102
}
330
5D
100
AcDbEntity
  8
0
  6
Continuous
 62
     2
100
AcDbLine
 10
13.60819723409546
 20
-19.75727346225125
 30
0.0
 11
14.80098993626186
 21
-19.75727346225125
 31
0.0
  0
LINE
  5
2A0
102
{ACAD_REACTORS
330
387
330
388
102
}
330
5D
100
AcDbEntity
  8
0
  6
Continuous
 62
     2
100
AcDbLine
 10
13.60819723409546
 20
-17.48872924456384
 30
0.0
 11
13.60819723409546
 21
-19.75727346225125
 31
0.0
  0
LINE
  5
2A1
102
{ACAD_REACTORS
330
387
330
388
102
}
330
5D
100
AcDbEntity
  8
0
  6
Continuous
 62
     2
100
AcDbLine
 10
12.79709819662077
 20
-16.70346393844011
 30
0.0
 11
12.79709819662077
 21
-17.48872924456384
 31
0.0
  0
LINE
  5
2A2
102
{ACAD_REACTORS
330
389
330
38A
102
}
330
5D
100
AcDbEntity
  8
0
  6
Continuous
 62
     2
100
AcDbLine
 10
14.27631207819346
 20
-16.39808298607693
 30
0.0
 11
15.46910478035986
 21
-16.39808298607693
 31
0.0
  0
LINE
  5
2A3
102
{ACAD_REACTORS
330
389
330
38A
102
}
330
5D
100
AcDbEntity
  8
0
  6
Continuous
 62
     2
100
AcDbLine
 10
16.70960919061395
 20
-14.65304897247091
 30
0.0
 11
15.46910478035986
 21
-13.34427346226585
 31
0.0
  0
LINE
  5
2A4
102
{ACAD_REACTORS
330
389
330
38A
102
}
330
5D
100
AcDbEntity
  8
0
  6
Continuous
 62
     2
100
AcDbLine
 10
17.90240189278055
 20
-13.34427346226585
 30
0.0
 11
16.70960919061395
 21
-13.34427346226585
 31
0.0
  0
LINE
  5
2A5
102
{ACAD_REACTORS
330
389
330
38A
102
}
330
5D
100
AcDbEntity
  8
0
  6
Continuous
 62
     2
100
AcDbLine
 10
17.90240189278055
 20
-16.39808298607693
 30
0.0
 11
17.90240189278055
 21
-13.34427346226585
 31
0.0
  0
LINE
  5
2A6
102
{ACAD_REACTORS
330
389
330
38A
102
}
330
5D
100
AcDbEntity
  8
0
  6
Continuous
 62
     2
100
AcDbLine
 10
16.70960919061395
 20
-16.39808298607693
 30
0.0
 11
17.90240189278055
 21
-16.39808298607693
 31
0.0
  0
LINE
  5
2A7
102
{ACAD_REACTORS
330
389
330
38A
102
}
330
5D
100
AcDbEntity
  8
0
  6
Continuous
 62
     2
100
AcDbLine
 10
15.46910478035986
 20
-15.0893074758722
 30
0.0
 11
16.70960919061395
 21
-16.39808298607693
 31
0.0
  0
LINE
  5
2A8
102
{ACAD_REACTORS
330
38B
330
38C
102
}
330
5D
100
AcDbEntity
  8
0
  6
Continuous
 62
     2
100
AcDbLine
 10
11.46117037019425
 20
-18.01223944864535
 30
0.0
 11
10.22066595994127
 21
-16.70346393844011
 31
0.0
  0
LINE
  5
2A9
102
{ACAD_REACTORS
330
38B
330
38C
102
}
330
5D
100
AcDbEntity
  8
0
  6
Continuous
 62
     2
100
AcDbLine
 10
11.46117037019425
 20
-16.70346393844011
 30
0.0
 11
11.46117037019425
 21
-18.01223944864535
 31
0.0
  0
LINE
  5
2AA
102
{ACAD_REACTORS
330
38B
330
38C
102
}
330
5D
100
AcDbEntity
  8
0
  6
Continuous
 62
     2
100
AcDbLine
 10
12.65396307236065
 20
-16.70346393844011
 30
0.0
 11
11.46117037019425
 21
-16.70346393844011
 31
0.0
  0
LINE
  5
2AB
102
{ACAD_REACTORS
330
38B
330
38C
102
}
330
5D
100
AcDbEntity
  8
0
  6
Continuous
 62
     2
100
AcDbLine
 10
12.65396307236065
 20
-19.75727346225125
 30
0.0
 11
12.65396307236065
 21
-16.70346393844011
 31
0.0
  0
LINE
  5
2AC
102
{ACAD_REACTORS
330
38B
330
38C
102
}
330
5D
100
AcDbEntity
  8
0
  6
Continuous
 62
     2
100
AcDbLine
 10
10.22066595994127
 20
-18.44849795204675
 30
0.0
 11
11.46117037019425
 21
-19.75727346225125
 31
0.0
  0
LINE
  5
2AD
102
{ACAD_REACTORS
330
38B
330
38C
102
}
330
5D
100
AcDbEntity
  8
0
  6
Continuous
 62
     2
100
AcDbLine
 10
10.22066595994127
 20
-19.75727346225125
 30
0.0
 11
10.22066595994127
 21
-18.44849795204675
 31
0.0
  0
LINE
  5
2AE
102
{ACAD_REACTORS
330
37B
330
37C
102
}
330
5D
100
AcDbEntity
  8
0
  6
Continuous
 62
     2
100
AcDbLine
 10
12.70182571133285
 20
-14.04228706770874
 30
0.0
 11
14.03775353776047
 21
-14.04228706770874
 31
0.0
  0
LINE
  5
2AF
102
{ACAD_REACTORS
330
37B
330
37C
102
}
330
5D
100
AcDbEntity
  8
0
  6
Continuous
 62
     2
100
AcDbLine
 10
12.70182571133285
 20
-15.70006938063455
 30
0.0
 11
12.70182571133285
 21
-15.22018502689281
 31
0.0
  0
LINE
  5
2B0
102
{ACAD_REACTORS
330
37B
330
37C
102
}
330
5D
100
AcDbEntity
  8
0
  6
Continuous
 62
     2
100
AcDbLine
 10
14.03775353776047
 20
-15.70006938063455
 30
0.0
 11
12.70182571133285
 21
-15.70006938063455
 31
0.0
  0
LINE
  5
2B1
102
{ACAD_REACTORS
330
37B
330
37C
102
}
330
5D
100
AcDbEntity
  8
0
  6
Continuous
 62
     2
100
AcDbLine
 10
14.03775353776047
 20
-16.39808298607693
 30
0.0
 11
14.03775353776047
 21
-15.70006938063455
 31
0.0
  0
LINE
  5
2B2
102
{ACAD_REACTORS
330
37B
330
37C
102
}
330
5D
100
AcDbEntity
  8
0
  6
Continuous
 62
     2
100
AcDbLine
 10
10.88743381397956
 20
-16.39808298607693
 30
0.0
 11
14.03775353776047
 21
-16.39808298607693
 31
0.0
  0
LINE
  5
2B3
102
{ACAD_REACTORS
330
37B
330
37C
102
}
330
5D
100
AcDbEntity
  8
0
  6
Continuous
 62
     2
100
AcDbLine
 10
10.88743381397956
 20
-13.34427346226585
 30
0.0
 11
14.03775353776047
 21
-13.34427346226585
 31
0.0
  0
LINE
  5
2B4
102
{ACAD_REACTORS
330
37B
330
37C
102
}
330
5D
100
AcDbEntity
  8
0
  6
Continuous
 62
     2
100
AcDbLine
 10
14.03775353776047
 20
-14.04228706770874
 30
0.0
 11
14.03775353776047
 21
-13.34427346226585
 31
0.0
  0
LINE
  5
2B5
102
{ACAD_REACTORS
330
38D
330
38E
102
}
330
5D
100
AcDbEntity
  8
0
  6
Continuous
 62
     2
100
AcDbLine
 10
8.02607831883947
 20
-14.41310679560041
 30
0.0
 11
8.02607831883947
 21
-13.34427346226585
 31
0.0
  0
LINE
  5
2B6
102
{ACAD_REACTORS
330
38D
330
38E
102
}
330
5D
100
AcDbEntity
  8
0
  6
Continuous
 62
     2
100
AcDbLine
 10
8.02607831883947
 20
-13.34427346226585
 30
0.0
 11
9.21887102100595
 21
-13.34427346226585
 31
0.0
  0
LINE
  5
2B7
102
{ACAD_REACTORS
330
38D
330
38E
102
}
330
5D
100
AcDbEntity
  8
0
  6
Continuous
 62
     2
100
AcDbLine
 10
8.02607831883947
 20
-15.26381087723325
 30
0.0
 11
6.97642074093207
 21
-15.26381087723325
 31
0.0
  0
LINE
  5
2B8
102
{ACAD_REACTORS
330
38D
330
38E
102
}
330
5D
100
AcDbEntity
  8
0
  6
Continuous
 62
     2
100
AcDbLine
 10
6.97642074093207
 20
-15.26381087723325
 30
0.0
 11
6.97642074093207
 21
-16.39808298607693
 31
0.0
  0
LINE
  5
2B9
102
{ACAD_REACTORS
330
38D
330
38E
102
}
330
5D
100
AcDbEntity
  8
0
  6
Continuous
 62
     2
100
AcDbLine
 10
5.78362803876547
 20
-13.34427346226585
 30
0.0
 11
5.78362803876547
 21
-16.39808298607693
 31
0.0
  0
LINE
  5
2BA
102
{ACAD_REACTORS
330
37F
330
380
102
}
330
5D
100
AcDbEntity
  8
0
  6
Continuous
 62
     2
100
AcDbLine
 10
3.82744800721176
 20
-14.71310695704813
 30
0.0
 11
3.82744800721176
 21
-14.00737930770583
 31
0.0
  0
LINE
  5
2BB
102
{ACAD_REACTORS
330
37F
330
380
102
}
330
5D
100
AcDbEntity
  8
0
  6
Continuous
 62
     2
100
AcDbLine
 10
2.58694359695775
 20
-16.39808298607693
 30
0.0
 11
3.82744800721176
 21
-16.39808298607693
 31
0.0
  0
LINE
  5
2BC
102
{ACAD_REACTORS
330
37F
330
380
102
}
330
5D
100
AcDbEntity
  8
0
  6
Continuous
 62
     2
100
AcDbLine
 10
3.82744800721176
 20
-16.39808298607693
 30
0.0
 11
3.82744800721176
 21
-15.45500474493321
 31
0.0
  0
LINE
  5
2BD
102
{ACAD_REACTORS
330
379
330
37A
102
}
330
5D
100
AcDbEntity
  8
0
  6
Continuous
 62
     2
100
AcDbLine
 10
-1.71800225225374
 20
-19.04471790669436
 30
0.0
 11
-3.19383551326334
 21
-19.04471790669436
 31
0.0
  0
LINE
  5
2BE
102
{ACAD_REACTORS
330
379
330
37A
102
}
330
5D
100
AcDbEntity
  8
0
  6
Continuous
 62
     2
100
AcDbLine
 10
-4.21197480539263
 20
-13.76851807766781
 30
0.0
 11
-4.21197480539263
 21
-19.33302884686805
 31
0.0
  0
LINE
  5
2BF
102
{ACAD_REACTORS
330
379
330
37A
102
}
330
5D
100
AcDbEntity
  8
0
  6
Continuous
 62
     2
100
AcDbLine
 10
-3.78773019000985
 20
-13.34427346228392
 30
0.0
 11
1.68558190070706
 21
-13.34427346228392
 31
0.0
  0
LINE
  5
2C0
102
{ACAD_REACTORS
330
379
330
37A
102
}
330
5D
100
AcDbEntity
  8
0
  6
Continuous
 62
     2
100
AcDbLine
 10
2.10982651609095
 20
-13.76851807766781
 30
0.0
 11
2.10982651609095
 21
-19.33302884686805
 31
0.0
  0
LINE
  5
2C1
102
{ACAD_REACTORS
330
379
330
37A
102
}
330
5D
100
AcDbEntity
  8
0
  6
Continuous
 62
     2
100
AcDbLine
 10
1.68558190070706
 20
-19.75727346225125
 30
0.0
 11
-3.78773019000985
 21
-19.75727346225125
 31
0.0
  0
LINE
  5
2C2
102
{ACAD_REACTORS
330
379
330
37A
102
}
330
5D
100
AcDbEntity
  8
0
  6
Continuous
 62
     2
100
AcDbLine
 10
-1.40228532917715
 20
-18.72900098361765
 30
0.0
 11
-1.40228532917715
 21
-17.19823005208605
 31
0.0
  0
LINE
  5
2C3
102
{ACAD_REACTORS
330
379
330
37A
102
}
330
5D
100
AcDbEntity
  8
0
  6
Continuous
 62
     2
100
AcDbLine
 10
-1.40228532917715
 20
-14.97657055996115
 30
0.0
 11
-1.40228532917715
 21
-14.37254594090052
 31
0.0
  0
LINE
  5
2C4
102
{ACAD_REACTORS
330
379
330
37A
102
}
330
5D
100
AcDbEntity
  8
0
  6
Continuous
 62
     2
100
AcDbLine
 10
-3.19383551326334
 20
-14.05682901782444
 30
0.0
 11
-1.71800225225374
 21
-14.05682901782444
 31
0.0
  0
LINE
  5
2C5
102
{ACAD_REACTORS
330
379
330
37A
102
}
330
5D
100
AcDbEntity
  8
0
  6
Continuous
 62
     2
100
AcDbLine
 10
-3.50955243633894
 20
-14.37254594090052
 30
0.0
 11
-3.50955243633894
 21
-18.72900098361765
 31
0.0
  0
LINE
  5
2C6
102
{ACAD_REACTORS
330
37F
330
380
102
}
330
5D
100
AcDbEntity
  8
0
  6
Continuous
 62
     2
100
AcDbLine
 10
3.82744800721176
 20
-15.45500474493321
 30
0.0
 11
4.58621559499215
 21
-15.45500474493321
 31
0.0
  0
LINE
  5
2C7
102
{ACAD_REACTORS
330
37F
330
380
102
}
330
5D
100
AcDbEntity
  8
0
  6
Continuous
 62
     2
100
AcDbLine
 10
2.58694359695775
 20
-13.34427346226585
 30
0.0
 11
4.58621559499215
 21
-13.34427346226585
 31
0.0
  0
LINE
  5
2C8
102
{ACAD_REACTORS
330
37F
330
380
102
}
330
5D
100
AcDbEntity
  8
0
  6
Continuous
 62
     2
100
AcDbLine
 10
2.58694359695775
 20
-13.34427346226585
 30
0.0
 11
2.58694359695775
 21
-16.39808298607693
 31
0.0
  0
LINE
  5
2C9
102
{ACAD_REACTORS
330
37F
330
380
102
}
330
5D
100
AcDbEntity
  8
0
  6
Continuous
 62
     2
100
AcDbLine
 10
3.82744800721176
 20
-14.71310695704813
 30
0.0
 11
4.14474306875377
 21
-14.71310695704813
 31
0.0
  0
LINE
  5
2CA
102
{ACAD_REACTORS
330
37F
330
380
102
}
330
5D
100
AcDbEntity
  8
0
  6
Continuous
 62
     2
100
AcDbLine
 10
3.82744800721176
 20
-14.00737930770583
 30
0.0
 11
4.14474306875377
 21
-14.00737930770583
 31
0.0
  0
LINE
  5
2CB
102
{ACAD_REACTORS
330
38D
330
38E
102
}
330
5D
100
AcDbEntity
  8
0
  6
Continuous
 62
     2
100
AcDbLine
 10
6.97642074093207
 20
-14.41310679560041
 30
0.0
 11
8.02607831883947
 21
-14.41310679560041
 31
0.0
  0
LINE
  5
2CC
102
{ACAD_REACTORS
330
38D
330
38E
102
}
330
5D
100
AcDbEntity
  8
0
  6
Continuous
 62
     2
100
AcDbLine
 10
6.97642074093207
 20
-13.34427346226585
 30
0.0
 11
6.97642074093207
 21
-14.41310679560041
 31
0.0
  0
LINE
  5
2CD
102
{ACAD_REACTORS
330
38D
330
38E
102
}
330
5D
100
AcDbEntity
  8
0
  6
Continuous
 62
     2
100
AcDbLine
 10
5.78362803876547
 20
-13.34427346226585
 30
0.0
 11
6.97642074093207
 21
-13.34427346226585
 31
0.0
  0
LINE
  5
2CE
102
{ACAD_REACTORS
330
38D
330
38E
102
}
330
5D
100
AcDbEntity
  8
0
  6
Continuous
 62
     2
100
AcDbLine
 10
6.97642074093207
 20
-16.39808298607693
 30
0.0
 11
5.78362803876547
 21
-16.39808298607693
 31
0.0
  0
LINE
  5
2CF
102
{ACAD_REACTORS
330
38D
330
38E
102
}
330
5D
100
AcDbEntity
  8
0
  6
Continuous
 62
     2
100
AcDbLine
 10
8.02607831883947
 20
-16.39808298607693
 30
0.0
 11
8.02607831883947
 21
-15.26381087723325
 31
0.0
  0
LINE
  5
2D0
102
{ACAD_REACTORS
330
38D
330
38E
102
}
330
5D
100
AcDbEntity
  8
0
  6
Continuous
 62
     2
100
AcDbLine
 10
9.21887102100595
 20
-16.39808298607693
 30
0.0
 11
8.02607831883947
 21
-16.39808298607693
 31
0.0
  0
LINE
  5
2D1
102
{ACAD_REACTORS
330
38D
330
38E
102
}
330
5D
100
AcDbEntity
  8
0
  6
Continuous
 62
     2
100
AcDbLine
 10
9.21887102100595
 20
-13.34427346226585
 30
0.0
 11
9.21887102100595
 21
-16.39808298607693
 31
0.0
  0
LINE
  5
2D2
102
{ACAD_REACTORS
330
37B
330
37C
102
}
330
5D
100
AcDbEntity
  8
0
  6
Continuous
 62
     2
100
AcDbLine
 10
12.70182571133285
 20
-15.22018502689281
 30
0.0
 11
14.03775353776047
 21
-15.22018502689281
 31
0.0
  0
LINE
  5
2D3
102
{ACAD_REACTORS
330
37B
330
37C
102
}
330
5D
100
AcDbEntity
  8
0
  6
Continuous
 62
     2
100
AcDbLine
 10
14.03775353776047
 20
-15.22018502689281
 30
0.0
 11
14.03775353776047
 21
-14.52217142145042
 31
0.0
  0
LINE
  5
2D4
102
{ACAD_REACTORS
330
37B
330
37C
102
}
330
5D
100
AcDbEntity
  8
0
  6
Continuous
 62
     2
100
AcDbLine
 10
14.03775353776047
 20
-14.52217142145042
 30
0.0
 11
12.70182571133285
 21
-14.52217142145042
 31
0.0
  0
LINE
  5
2D5
102
{ACAD_REACTORS
330
37B
330
37C
102
}
330
5D
100
AcDbEntity
  8
0
  6
Continuous
 62
     2
100
AcDbLine
 10
12.70182571133285
 20
-14.52217142145042
 30
0.0
 11
12.70182571133285
 21
-14.04228706770874
 31
0.0
  0
LINE
  5
2D6
102
{ACAD_REACTORS
330
38B
330
38C
102
}
330
5D
100
AcDbEntity
  8
0
  6
Continuous
 62
     2
100
AcDbLine
 10
9.02787325777376
 20
-19.75727346225125
 30
0.0
 11
10.22066595994127
 21
-19.75727346225125
 31
0.0
  0
LINE
  5
2D7
102
{ACAD_REACTORS
330
38B
330
38C
102
}
330
5D
100
AcDbEntity
  8
0
  6
Continuous
 62
     2
100
AcDbLine
 10
11.46117037019425
 20
-19.75727346225125
 30
0.0
 11
12.65396307236065
 21
-19.75727346225125
 31
0.0
  0
LINE
  5
2D8
102
{ACAD_REACTORS
330
38B
330
38C
102
}
330
5D
100
AcDbEntity
  8
0
  6
Continuous
 62
     2
100
AcDbLine
 10
10.22066595994127
 20
-16.70346393844011
 30
0.0
 11
9.02787325777376
 21
-16.70346393844011
 31
0.0
  0
LINE
  5
2D9
102
{ACAD_REACTORS
330
38B
330
38C
102
}
330
5D
100
AcDbEntity
  8
0
  6
Continuous
 62
     2
100
AcDbLine
 10
9.02787325777376
 20
-16.70346393844011
 30
0.0
 11
9.02787325777376
 21
-19.75727346225125
 31
0.0
  0
LINE
  5
2DA
102
{ACAD_REACTORS
330
389
330
38A
102
}
330
5D
100
AcDbEntity
  8
0
  6
Continuous
 62
     2
100
AcDbLine
 10
16.70960919061395
 20
-13.34427346226585
 30
0.0
 11
16.70960919061395
 21
-14.65304897247091
 31
0.0
  0
LINE
  5
2DB
102
{ACAD_REACTORS
330
389
330
38A
102
}
330
5D
100
AcDbEntity
  8
0
  6
Continuous
 62
     2
100
AcDbLine
 10
15.46910478035986
 20
-13.34427346226585
 30
0.0
 11
14.27631207819346
 21
-13.34427346226585
 31
0.0
  0
LINE
  5
2DC
102
{ACAD_REACTORS
330
389
330
38A
102
}
330
5D
100
AcDbEntity
  8
0
  6
Continuous
 62
     2
100
AcDbLine
 10
14.27631207819346
 20
-13.34427346226585
 30
0.0
 11
14.27631207819346
 21
-16.39808298607693
 31
0.0
  0
LINE
  5
2DD
102
{ACAD_REACTORS
330
389
330
38A
102
}
330
5D
100
AcDbEntity
  8
0
  6
Continuous
 62
     2
100
AcDbLine
 10
15.46910478035986
 20
-16.39808298607693
 30
0.0
 11
15.46910478035986
 21
-15.0893074758722
 31
0.0
  0
LINE
  5
2DE
102
{ACAD_REACTORS
330
387
330
388
102
}
330
5D
100
AcDbEntity
  8
0
  6
Continuous
 62
     2
100
AcDbLine
 10
14.80098993626186
 20
-19.75727346225125
 30
0.0
 11
14.80098993626186
 21
-17.48872924456384
 31
0.0
  0
LINE
  5
2DF
102
{ACAD_REACTORS
330
387
330
388
102
}
330
5D
100
AcDbEntity
  8
0
  6
Continuous
 62
     2
100
AcDbLine
 10
14.80098993626186
 20
-17.48872924456384
 30
0.0
 11
15.61208897373447
 21
-17.48872924456384
 31
0.0
  0
LINE
  5
2E0
102
{ACAD_REACTORS
330
387
330
388
102
}
330
5D
100
AcDbEntity
  8
0
  6
Continuous
 62
     2
100
AcDbLine
 10
15.61208897373447
 20
-17.48872924456384
 30
0.0
 11
15.61208897373447
 21
-16.70346393844011
 31
0.0
  0
LINE
  5
2E1
102
{ACAD_REACTORS
330
387
330
388
102
}
330
5D
100
AcDbEntity
  8
0
  6
Continuous
 62
     2
100
AcDbLine
 10
15.61208897373447
 20
-16.70346393844011
 30
0.0
 11
12.79709819662077
 21
-16.70346393844011
 31
0.0
  0
LINE
  5
2E2
102
{ACAD_REACTORS
330
387
330
388
102
}
330
5D
100
AcDbEntity
  8
0
  6
Continuous
 62
     2
100
AcDbLine
 10
12.79709819662077
 20
-17.48872924456384
 30
0.0
 11
13.60819723409546
 21
-17.48872924456384
 31
0.0
  0
LINE
  5
2E3
102
{ACAD_REACTORS
330
385
330
386
102
}
330
5D
100
AcDbEntity
  8
0
  6
Continuous
 62
     2
100
AcDbLine
 10
16.40659479953175
 20
-19.21631291803345
 30
0.0
 11
17.53903637620567
 21
-19.21631291803345
 31
0.0
  0
LINE
  5
2E4
102
{ACAD_REACTORS
330
385
330
386
102
}
330
5D
100
AcDbEntity
  8
0
  6
Continuous
 62
     2
100
AcDbLine
 10
18.99102083993535
 20
-19.75727346225125
 30
0.0
 11
17.75051642968145
 21
-19.75727346225125
 31
0.0
  0
LINE
  5
2E5
102
{ACAD_REACTORS
330
385
330
386
102
}
330
5D
100
AcDbEntity
  8
0
  6
Continuous
 62
     2
100
AcDbLine
 10
16.35256338274226
 20
-16.70346393844011
 30
0.0
 11
14.95461033580307
 21
-19.75727346225125
 31
0.0
  0
LINE
  5
2E6
102
{ACAD_REACTORS
330
385
330
386
102
}
330
5D
100
AcDbEntity
  8
0
  6
Continuous
 62
     2
100
AcDbLine
 10
16.19511474605596
 20
-19.75727346225125
 30
0.0
 11
16.40659479953175
 21
-19.21631291803345
 31
0.0
  0
LINE
  5
2E7
102
{ACAD_REACTORS
330
385
330
386
102
}
330
5D
100
AcDbEntity
  8
0
  6
Continuous
 62
     2
100
AcDbLine
 10
16.67265035067686
 20
-18.53574965272685
 30
0.0
 11
16.97281558786915
 21
-17.76793468674015
 31
0.0
  0
LINE
  5
2E8
102
{ACAD_REACTORS
330
383
330
384
102
}
330
5D
100
AcDbEntity
  8
0
  6
Continuous
 62
     2
100
AcDbLine
 10
18.14096043321445
 20
-16.39808298607693
 30
0.0
 11
18.14096043321445
 21
-13.34427346226585
 31
0.0
  0
LINE
  5
2E9
102
{ACAD_REACTORS
330
383
330
384
102
}
330
5D
100
AcDbEntity
  8
0
  6
Continuous
 62
     2
100
AcDbLine
 10
19.38146484346737
 20
-13.34427346226585
 30
0.0
 11
19.38146484346737
 21
-16.39808298607693
 31
0.0
  0
LINE
  5
2EA
102
{ACAD_REACTORS
330
383
330
384
102
}
330
5D
100
AcDbEntity
  8
0
  6
Continuous
 62
     2
100
AcDbLine
 10
18.14096043321445
 20
-13.34427346226585
 30
0.0
 11
19.38146484346737
 21
-13.34427346226585
 31
0.0
  0
LINE
  5
2EB
102
{ACAD_REACTORS
330
381
330
382
102
}
330
5D
100
AcDbEntity
  8
0
  6
Continuous
 62
     2
100
AcDbLine
 10
21.60005926949816
 20
-15.61035120078321
 30
0.0
 11
22.29665020756355
 21
-16.39808298607693
 31
0.0
  0
LINE
  5
2EC
102
{ACAD_REACTORS
330
381
330
382
102
}
330
5D
100
AcDbEntity
  8
0
  6
Continuous
 62
     2
100
AcDbLine
 10
22.29665020756355
 20
-16.39808298607693
 30
0.0
 11
23.69937442531185
 21
-16.39808298607693
 31
0.0
  0
LINE
  5
2ED
102
{ACAD_REACTORS
330
381
330
382
102
}
330
5D
100
AcDbEntity
  8
0
  6
Continuous
 62
     2
100
AcDbLine
 10
22.30142137837157
 20
-14.81722399230205
 30
0.0
 11
23.69937442531185
 21
-16.39808298607693
 31
0.0
  0
LINE
  5
2EE
102
{ACAD_REACTORS
330
381
330
382
102
}
330
5D
100
AcDbEntity
  8
0
  6
Continuous
 62
     2
100
AcDbLine
 10
22.30142137837157
 20
-14.81722399230205
 30
0.0
 11
23.60395100913817
 21
-13.34427346226585
 31
0.0
  0
LINE
  5
2EF
102
{ACAD_REACTORS
330
381
330
382
102
}
330
5D
100
AcDbEntity
  8
0
  6
Continuous
 62
     2
100
AcDbLine
 10
21.60005926949816
 20
-14.02409678382134
 30
0.0
 11
22.20122679139095
 21
-13.34427346226585
 31
0.0
  0
LINE
  5
2F0
102
{ACAD_REACTORS
330
381
330
382
102
}
330
5D
100
AcDbEntity
  8
0
  6
Continuous
 62
     2
100
AcDbLine
 10
20.99889174760625
 20
-13.34427346226585
 30
0.0
 11
21.60005926949816
 21
-14.02409678382134
 31
0.0
  0
LINE
  5
2F1
102
{ACAD_REACTORS
330
381
330
382
102
}
330
5D
100
AcDbEntity
  8
0
  6
Continuous
 62
     2
100
AcDbLine
 10
20.99889174760625
 20
-13.34427346226585
 30
0.0
 11
19.59616752985707
 21
-13.34427346226585
 31
0.0
  0
LINE
  5
2F2
102
{ACAD_REACTORS
330
377
330
378
102
}
330
5D
100
AcDbEntity
  8
0
  6
Continuous
 62
     2
100
AcDbLine
 10
21.69548268567075
 20
-19.75727346225125
 30
0.0
 11
22.88827538783846
 21
-19.75727346225125
 31
0.0
  0
LINE
  5
2F3
102
{ACAD_REACTORS
330
377
330
378
102
}
330
5D
100
AcDbEntity
  8
0
  6
Continuous
 62
     2
100
AcDbLine
 10
22.88827538783846
 20
-19.75727346225125
 30
0.0
 11
22.88827538783846
 21
-17.48872924456384
 31
0.0
  0
LINE
  5
2F4
102
{ACAD_REACTORS
330
377
330
378
102
}
330
5D
100
AcDbEntity
  8
0
  6
Continuous
 62
     2
100
AcDbLine
 10
22.88827538783846
 20
-17.48872924456384
 30
0.0
 11
23.69937442531185
 21
-17.48872924456384
 31
0.0
  0
LINE
  5
2F5
102
{ACAD_REACTORS
330
377
330
378
102
}
330
5D
100
AcDbEntity
  8
0
  6
Continuous
 62
     2
100
AcDbLine
 10
23.69937442531185
 20
-17.48872924456384
 30
0.0
 11
23.69937442531185
 21
-16.70346393844011
 31
0.0
  0
LINE
  5
2F6
102
{ACAD_REACTORS
330
377
330
378
102
}
330
5D
100
AcDbEntity
  8
0
  6
Continuous
 62
     2
100
AcDbLine
 10
20.31442890668325
 20
-16.70346393844073
 30
0.0
 11
23.69937442531185
 21
-16.70346393844011
 31
0.0
  0
LINE
  5
2F7
102
{ACAD_REACTORS
330
377
330
378
102
}
330
5D
100
AcDbEntity
  8
0
  6
Continuous
 62
     2
100
AcDbLine
 10
21.69548268567075
 20
-17.48872924456384
 30
0.0
 11
21.69548268567075
 21
-19.75727346225125
 31
0.0
  0
LINE
  5
2F8
102
{ACAD_REACTORS
330
379
330
37A
102
}
330
5D
100
AcDbEntity
  8
0
  6
Continuous
 62
     2
100
AcDbLine
 10
-0.93400374980834
 20
-17.77839331268672
 30
0.0
 11
-0.93400374980834
 21
-17.19654190599164
 31
0.0
  0
LINE
  5
2F9
102
{ACAD_REACTORS
330
379
330
37A
102
}
330
5D
100
AcDbEntity
  8
0
  6
Continuous
 62
     2
100
AcDbLine
 10
-0.93400374980834
 20
-14.97825870605556
 30
0.0
 11
-0.93400374980834
 21
-14.37272341754874
 31
0.0
  0
LINE
  5
2FA
330
5D
100
AcDbEntity
  8
1
  6
Continuous
 62
     6
100
AcDbLine
 10
27.59617483479477
 20
-27.05077346226756
 30
0.0
 11
9.75137030804476
 21
-27.05077346226756
 31
0.0
  0
LINE
  5
2FB
330
5D
100
AcDbEntity
  8
1
  6
Continuous
 62
     7
100
AcDbLine
 10
-8.44862969195515
 20
-10.05077346226761
 30
0.0
 11
27.95137030804477
 21
-10.05077346226761
 31
0.0
  0
LINE
  5
2FC
330
5D
100
AcDbEntity
  8
1
  6
Continuous
 62
     6
100
AcDbLine
 10
-8.44862969195515
 20
-10.05077346226761
 30
0.0
 11
-8.44862969195515
 21
-22.80077346226761
 31
0.0
  0
LINE
  5
2FD
330
5D
100
AcDbEntity
  8
1
  6
Continuous
 62
     6
100
AcDbLine
 10
27.95137030804477
 20
-10.05077346226761
 30
0.0
 11
27.95137030804477
 21
-22.80077346226756
 31
0.0
  0
LINE
  5
2FE
330
5D
100
AcDbEntity
  8
1
  6
Continuous
 62
     6
100
AcDbLine
 10
27.95137030804477
 20
-27.05077346226761
 30
0.0
 11
27.59617483479477
 21
-27.05077346226756
 31
0.0
  0
LINE
  5
2FF
330
5D
100
AcDbEntity
  8
1
  6
Continuous
 62
     2
100
AcDbLine
 10
-4.21197480539263
 20
-4.67577346226773
 30
0.0
 11
0.78802519460737
 21
-3.42577346226773
 31
0.0
  0
LINE
  5
300
330
5D
100
AcDbEntity
  8
1
  6
Continuous
 62
     2
100
AcDbLine
 10
-4.21197480539263
 20
-7.17577346226773
 30
0.0
 11
-4.21197480539263
 21
-4.67577346226773
 31
0.0
  0
LINE
  5
301
330
5D
100
AcDbEntity
  8
1
  6
Continuous
 62
     2
100
AcDbLine
 10
0.78802519460737
 20
-8.42577346226773
 30
0.0
 11
-4.21197480539263
 21
-7.17577346226773
 31
0.0
  0
LINE
  5
302
330
5D
100
AcDbEntity
  8
1
  6
Continuous
 62
     2
100
AcDbLine
 10
0.78802519460737
 20
-3.42577346226773
 30
0.0
 11
0.78802519460737
 21
-8.42577346226773
 31
0.0
  0
LINE
  5
303
330
5D
100
AcDbEntity
  8
1
  6
Continuous
 62
     7
100
AcDbLine
 10
-8.44862969195515
 20
-22.80077346226761
 30
0.0
 11
9.75137030804476
 21
-22.80077346226756
 31
0.0
  0
LINE
  5
304
330
5D
100
AcDbEntity
  8
1
  6
Continuous
 62
     6
100
AcDbLine
 10
-8.44862969195515
 20
-22.80077346226761
 30
0.0
 11
-8.44862969195515
 21
-27.05077346226761
 31
0.0
  0
LINE
  5
305
330
5D
100
AcDbEntity
  8
1
  6
Continuous
 62
     6
100
AcDbLine
 10
27.95137030804477
 20
-22.80077346226756
 30
0.0
 11
27.95137030804477
 21
-27.05077346226761
 31
0.0
  0
LINE
  5
306
330
5D
100
AcDbEntity
  8
1
  6
Continuous
 62
     7
100
AcDbLine
 10
9.75137030804476
 20
-22.80077346226756
 30
0.0
 11
9.75137030804476
 21
-27.05077346226756
 31
0.0
  0
LINE
  5
307
330
5D
100
AcDbEntity
  8
1
  6
Continuous
 62
     6
100
AcDbLine
 10
9.75137030804476
 20
-27.05077346226756
 30
0.0
 11
-8.44862969195515
 21
-27.05077346226761
 31
0.0
  0
LINE
  5
308
330
5D
100
AcDbEntity
  8
1
  6
Continuous
 62
     7
100
AcDbLine
 10
9.75137030804476
 20
-22.80077346226756
 30
0.0
 11
27.95137030804477
 21
-22.80077346226756
 31
0.0
  0
LINE
  5
309
330
5D
100
AcDbEntity
  8
1
  6
Continuous
 62
     6
100
AcDbLine
 10
-8.44862969195515
 20
-1.55077346226761
 30
0.0
 11
121.0961748347966
 21
-1.55077346226761
 31
0.0
  0
LINE
  5
30A
330
5D
100
AcDbEntity
  8
1
  6
PHANTOM
 62
     2
100
AcDbLine
 10
7.03802519460737
 20
-5.92577346226773
 30
0.0
 11
1.53802519460737
 21
-5.92577346226773
 31
0.0
  0
LINE
  5
30B
330
5D
100
AcDbEntity
  8
1
  6
PHANTOM
 62
     2
100
AcDbLine
 10
4.28802519460737
 20
-3.17577346226761
 30
0.0
 11
4.28802519460737
 21
-8.67577346226761
 31
0.0
  0
LINE
  5
30C
330
5D
100
AcDbEntity
  8
1
  6
DOT_CENTER
 62
     2
100
AcDbLine
 10
-4.46197480539263
 20
-5.92577346226773
 30
0.0
 11
1.03802519460737
 21
-5.92577346226773
 31
0.0
  0
LINE
  5
30D
330
5D
100
AcDbEntity
  8
1
  6
Continuous
 62
     6
100
AcDbLine
 10
121.0961748347947
 20
30.34922653773307
 30
0.0
 11
121.0961748347966
 21
-1.55077346226761
 31
0.0
  0
LINE
  5
30E
330
5D
100
AcDbEntity
  8
1
  6
Continuous
 62
     7
100
AcDbLine
 10
83.97776655311726
 20
-1.55077346226761
 30
0.0
 11
83.97776655311726
 21
-10.05077346226761
 31
0.0
  0
LINE
  5
30F
330
5D
100
AcDbEntity
  8
1
  6
Continuous
 62
     6
100
AcDbLine
 10
121.0961748347943
 20
-18.55077346226761
 30
0.0
 11
27.95137030804477
 21
-18.55077346226761
 31
0.0
  0
LINE
  5
310
330
5D
100
AcDbEntity
  8
1
  6
Continuous
 62
     7
100
AcDbLine
 10
83.97776655311726
 20
-10.05077346226761
 30
0.0
 11
83.97776655311726
 21
-18.55077346226761
 31
0.0
  0
LINE
  5
311
330
5D
100
AcDbEntity
  8
1
  6
Continuous
 62
     6
100
AcDbLine
 10
27.95137030804477
 20
-27.05077346226761
 30
0.0
 11
121.0961748347947
 21
-27.05077346226756
 31
0.0
  0
LINE
  5
312
330
5D
100
AcDbEntity
  8
1
  6
Continuous
 62
     6
100
AcDbLine
 10
121.0961748347966
 20
-1.55077346226761
 30
0.0
 11
121.0961748347943
 21
-18.55077346226761
 31
0.0
  0
LINE
  5
313
330
5D
100
AcDbEntity
  8
1
  6
Continuous
 62
     6
100
AcDbLine
 10
121.0961748347943
 20
-18.55077346226761
 30
0.0
 11
121.0961748347947
 21
-27.05077346226756
 31
0.0
  0
ARC
  5
314
102
{ACAD_REACTORS
330
37D
330
37E
102
}
330
5D
100
AcDbEntity
  8
0
  6
Continuous
 62
     2
100
AcDbCircle
 10
6.94301830700485
 20
-18.23036870034605
 30
0.0
 40
0.7717997786795308
100
AcDbArc
 50
321.8795802028436
 51
38.12041979716722
  0
ARC
  5
315
102
{ACAD_REACTORS
330
37D
330
37E
102
}
330
5D
100
AcDbEntity
  8
0
  6
Continuous
 62
     2
100
AcDbCircle
 10
7.14275834335126
 20
-18.3870998784659
 30
0.0
 40
0.5179085730138424
100
AcDbArc
 50
218.1204197971879
 51
321.8795802027908
  0
ARC
  5
316
102
{ACAD_REACTORS
330
37D
330
37E
102
}
330
5D
100
AcDbEntity
  8
0
  6
Continuous
 62
     2
100
AcDbCircle
 10
7.34249837969725
 20
-18.23036870034605
 30
0.0
 40
0.7717997786795553
100
AcDbArc
 50
141.8795802028276
 51
218.1204197971616
  0
ARC
  5
317
102
{ACAD_REACTORS
330
37D
330
37E
102
}
330
5D
100
AcDbEntity
  8
0
  6
Continuous
 62
     2
100
AcDbCircle
 10
7.14275834335126
 20
-18.07363752222551
 30
0.0
 40
0.5179085730132827
100
AcDbArc
 50
38.120419797165
 51
141.8795802028564
  0
ARC
  5
318
102
{ACAD_REACTORS
330
375
330
376
102
}
330
5D
100
AcDbEntity
  8
0
  6
Continuous
 62
     2
100
AcDbCircle
 10
4.08074420778726
 20
-19.64083506575412
 30
0.0
 40
2.227384008973468
100
AcDbArc
 50
58.06909105003712
 51
71.55192388186678
  0
ARC
  5
319
102
{ACAD_REACTORS
330
375
330
376
102
}
330
5D
100
AcDbEntity
  8
0
  6
Continuous
 62
     2
100
AcDbCircle
 10
4.34247190874606
 20
-18.02529727100693
 30
0.0
 40
0.5115800601948293
100
AcDbArc
 50
113.3722778881945
 51
151.4785267423159
  0
ARC
  5
31A
102
{ACAD_REACTORS
330
375
330
376
102
}
330
5D
100
AcDbEntity
  8
0
  6
Continuous
 62
     2
100
AcDbCircle
 10
4.71982916682646
 20
-18.23036870034605
 30
0.0
 40
0.9410597353333308
100
AcDbArc
 50
151.4785267422692
 51
208.5214732576968
  0
ARC
  5
31B
102
{ACAD_REACTORS
330
375
330
376
102
}
330
5D
100
AcDbEntity
  8
0
  6
Continuous
 62
     2
100
AcDbCircle
 10
3.92287133269446
 20
-14.9176877550895
 30
0.0
 40
4.852596863498279
100
AcDbArc
 50
275.1581447696238
 51
285.9799912583525
  0
ARC
  5
31C
102
{ACAD_REACTORS
330
375
330
376
102
}
330
5D
100
AcDbEntity
  8
0
  6
Continuous
 62
     2
100
AcDbCircle
 10
4.21172742743036
 20
-18.11757833831115
 30
0.0
 40
1.639695123939437
100
AcDbArc
 50
195.0618917770922
 51
275.1581447696363
  0
ARC
  5
31D
102
{ACAD_REACTORS
330
375
330
376
102
}
330
5D
100
AcDbEntity
  8
0
  6
Continuous
 62
     2
100
AcDbCircle
 10
3.79259958396756
 20
-18.23036870034605
 30
0.0
 40
1.205656168390971
100
AcDbArc
 50
164.9381082228768
 51
195.0618917770945
  0
ARC
  5
31E
102
{ACAD_REACTORS
330
375
330
376
102
}
330
5D
100
AcDbEntity
  8
0
  6
Continuous
 62
     2
100
AcDbCircle
 10
4.21172742743036
 20
-18.34315906238084
 30
0.0
 40
1.639695123940506
100
AcDbArc
 50
84.84185523036534
 51
164.9381082228905
  0
ARC
  5
31F
102
{ACAD_REACTORS
330
379
330
37A
102
}
330
5D
100
AcDbEntity
  8
0
  6
Continuous
 62
     2
100
AcDbCircle
 10
-0.61828682673155
 20
-17.19654190599164
 30
0.0
 40
0.315716923076536
100
AcDbArc
 50
115.3740086783516
 51
180.0
  0
ARC
  5
320
102
{ACAD_REACTORS
330
379
330
37A
102
}
330
5D
100
AcDbEntity
  8
0
  6
Continuous
 62
     2
100
AcDbCircle
 10
-0.61828682673155
 20
-14.97825870605556
 30
0.0
 40
0.315716923076792
100
AcDbArc
 50
180.0
 51
244.6259913216343
  0
ARC
  5
321
102
{ACAD_REACTORS
330
379
330
37A
102
}
330
5D
100
AcDbEntity
  8
0
  6
Continuous
 62
     2
100
AcDbCircle
 10
-0.61267069142153
 20
-16.07555836511773
 30
0.0
 40
2.01856113193327
100
AcDbArc
 50
269.8110329575827
 51
90.18896704241737
  0
ARC
  5
322
102
{ACAD_REACTORS
330
379
330
37A
102
}
330
5D
100
AcDbEntity
  8
0
  6
Continuous
 62
     2
100
AcDbCircle
 10
-0.61828682673155
 20
-17.77839331268672
 30
0.0
 40
0.315716923076792
100
AcDbArc
 50
180.0
 51
269.8110329574335
  0
ARC
  5
323
102
{ACAD_REACTORS
330
377
330
378
102
}
330
5D
100
AcDbEntity
  8
0
  6
Continuous
 62
     2
100
AcDbCircle
 10
20.44517338799895
 20
-18.02529727100693
 30
0.0
 40
0.5115800601944015
100
AcDbArc
 50
109.3371432194824
 51
151.4785267424182
  0
ARC
  5
324
102
{ACAD_REACTORS
330
377
330
378
102
}
330
5D
100
AcDbEntity
  8
0
  6
Continuous
 62
     2
100
AcDbCircle
 10
20.44517338799895
 20
-18.43544012968454
 30
0.0
 40
0.5115800601959967
100
AcDbArc
 50
208.5214732576881
 51
246.6277221118401
  0
ARC
  5
325
102
{ACAD_REACTORS
330
377
330
378
102
}
330
5D
100
AcDbEntity
  8
0
  6
Continuous
 62
     2
100
AcDbCircle
 10
19.89530106322155
 20
-18.23036870034605
 30
0.0
 40
1.205656168392968
100
AcDbArc
 50
164.9381082229023
 51
195.0618917770924
  0
ARC
  5
326
102
{ACAD_REACTORS
330
377
330
378
102
}
330
5D
100
AcDbEntity
  8
0
  6
Continuous
 62
     2
100
AcDbCircle
 10
20.31442890668325
 20
-18.34315906238084
 30
0.0
 40
1.639695123940108
100
AcDbArc
 50
90.0
 51
164.9381082228993
  0
ARC
  5
327
102
{ACAD_REACTORS
330
37B
330
37C
102
}
330
5D
100
AcDbEntity
  8
0
  6
Continuous
 62
     2
100
AcDbCircle
 10
10.88743381397956
 20
-14.87117822417162
 30
0.0
 40
1.526904761905771
100
AcDbArc
 50
90.0
 51
270.0
  0
ARC
  5
328
102
{ACAD_REACTORS
330
37F
330
380
102
}
330
5D
100
AcDbEntity
  8
0
  6
Continuous
 62
     2
100
AcDbCircle
 10
4.14474306875377
 20
-14.36024313237704
 30
0.0
 40
0.3528638246710898
100
AcDbArc
 50
270.0
 51
90.0
  0
ARC
  5
329
102
{ACAD_REACTORS
330
379
330
37A
102
}
330
5D
100
AcDbEntity
  8
0
  6
Continuous
 62
     2
100
AcDbCircle
 10
-3.19383551326334
 20
-14.37254594090052
 30
0.0
 40
0.3157169230760815
100
AcDbArc
 50
90.0
 51
180.0
  0
ARC
  5
32A
102
{ACAD_REACTORS
330
379
330
37A
102
}
330
5D
100
AcDbEntity
  8
0
  6
Continuous
 62
     2
100
AcDbCircle
 10
-1.19541780467875
 20
-16.08740030602331
 30
0.0
 40
0.9118975235576432
100
AcDbArc
 50
115.1944106485195
 51
244.8055893514912
  0
ARC
  5
32B
102
{ACAD_REACTORS
330
379
330
37A
102
}
330
5D
100
AcDbEntity
  8
0
  6
Continuous
 62
     2
100
AcDbCircle
 10
-1.71800225225374
 20
-17.19823005208605
 30
0.0
 40
0.3157169230765928
100
AcDbArc
 50
0.0
 51
64.80558935144623
  0
ARC
  5
32C
102
{ACAD_REACTORS
330
379
330
37A
102
}
330
5D
100
AcDbEntity
  8
0
  6
Continuous
 62
     2
100
AcDbCircle
 10
-3.78773019000985
 20
-19.33302884686805
 30
0.0
 40
0.4242446153827757
100
AcDbArc
 50
180.0
 51
270.0
  0
ARC
  5
32D
102
{ACAD_REACTORS
330
37B
330
37C
102
}
330
5D
100
AcDbEntity
  8
0
  6
Continuous
 62
     2
100
AcDbCircle
 10
11.10370582414475
 20
-14.71444704605113
 30
0.0
 40
0.5179085730133703
100
AcDbArc
 50
38.12041979714041
 51
141.8795802028665
  0
ARC
  5
32E
102
{ACAD_REACTORS
330
37B
330
37C
102
}
330
5D
100
AcDbEntity
  8
0
  6
Continuous
 62
     2
100
AcDbCircle
 10
11.30344586049097
 20
-14.87117822417162
 30
0.0
 40
0.7717997786796292
100
AcDbArc
 50
141.8795802028482
 51
218.1204197971547
  0
ARC
  5
32F
102
{ACAD_REACTORS
330
37D
330
37E
102
}
330
5D
100
AcDbEntity
  8
0
  6
Continuous
 62
     2
100
AcDbCircle
 10
7.14275834335126
 20
-17.69179369004263
 30
0.0
 40
2.065479772208637
100
AcDbArc
 50
242.4518518243384
 51
297.548148175686
  0
ARC
  5
330
102
{ACAD_REACTORS
330
37D
330
37E
102
}
330
5D
100
AcDbEntity
  8
0
  6
Continuous
 62
     2
100
AcDbCircle
 10
7.14275834335126
 20
-18.76894371064884
 30
0.0
 40
2.065479772208691
100
AcDbArc
 50
62.45185182430815
 51
117.5481481756674
  0
ARC
  5
331
102
{ACAD_REACTORS
330
37D
330
37E
102
}
330
5D
100
AcDbEntity
  8
0
  6
Continuous
 62
     2
100
AcDbCircle
 10
6.86181845151785
 20
-18.23036870034605
 30
0.0
 40
1.458034083651616
100
AcDbArc
 50
117.5481481756598
 51
242.451851824337
  0
ARC
  5
332
102
{ACAD_REACTORS
330
37D
330
37E
102
}
330
5D
100
AcDbEntity
  8
0
  6
Continuous
 62
     2
100
AcDbCircle
 10
7.42369823518445
 20
-18.23036870034605
 30
0.0
 40
1.458034083652027
100
AcDbArc
 50
297.5481481757056
 51
62.45185182429758
  0
ARC
  5
333
102
{ACAD_REACTORS
330
37B
330
37C
102
}
330
5D
100
AcDbEntity
  8
0
  6
Continuous
 62
     2
100
AcDbCircle
 10
11.10370582414475
 20
-15.02790940229215
 30
0.0
 40
0.5179085730134544
100
AcDbArc
 50
218.1204197971341
 51
321.879580202859
  0
ARC
  5
334
102
{ACAD_REACTORS
330
37B
330
37C
102
}
330
5D
100
AcDbEntity
  8
0
  6
Continuous
 62
     2
100
AcDbCircle
 10
10.90396578779857
 20
-14.87117822417162
 30
0.0
 40
0.7717997786795471
100
AcDbArc
 50
321.8795802028388
 51
38.12041979715837
  0
ARC
  5
335
102
{ACAD_REACTORS
330
379
330
37A
102
}
330
5D
100
AcDbEntity
  8
0
  6
Continuous
 62
     2
100
AcDbCircle
 10
1.68558190070706
 20
-19.33302884686805
 30
0.0
 40
0.4242446153831985
100
AcDbArc
 50
270.0
 51
0.0
  0
ARC
  5
336
102
{ACAD_REACTORS
330
379
330
37A
102
}
330
5D
100
AcDbEntity
  8
0
  6
Continuous
 62
     2
100
AcDbCircle
 10
1.68558190070706
 20
-13.76851807766781
 30
0.0
 40
0.4242446153838841
100
AcDbArc
 50
0.0
 51
90.0
  0
ARC
  5
337
102
{ACAD_REACTORS
330
379
330
37A
102
}
330
5D
100
AcDbEntity
  8
0
  6
Continuous
 62
     2
100
AcDbCircle
 10
-3.78773019000985
 20
-13.76851807766781
 30
0.0
 40
0.4242446153838895
100
AcDbArc
 50
90.0
 51
180.0
  0
ARC
  5
338
102
{ACAD_REACTORS
330
379
330
37A
102
}
330
5D
100
AcDbEntity
  8
0
  6
Continuous
 62
     2
100
AcDbCircle
 10
-1.71800225225374
 20
-18.72900098361765
 30
0.0
 40
0.3157169230767103
100
AcDbArc
 50
270.0
 51
0.0
  0
ARC
  5
339
102
{ACAD_REACTORS
330
379
330
37A
102
}
330
5D
100
AcDbEntity
  8
0
  6
Continuous
 62
     2
100
AcDbCircle
 10
-1.71800225225374
 20
-14.97657055996115
 30
0.0
 40
0.3157169230760594
100
AcDbArc
 50
295.1944106485678
 51
0.0
  0
ARC
  5
33A
102
{ACAD_REACTORS
330
379
330
37A
102
}
330
5D
100
AcDbEntity
  8
0
  6
Continuous
 62
     2
100
AcDbCircle
 10
-1.71800225225374
 20
-14.37254594090052
 30
0.0
 40
0.3157169230765928
100
AcDbArc
 50
0.0
 51
90.0
  0
ARC
  5
33B
102
{ACAD_REACTORS
330
379
330
37A
102
}
330
5D
100
AcDbEntity
  8
0
  6
Continuous
 62
     2
100
AcDbCircle
 10
-3.19383551326334
 20
-18.72900098361765
 30
0.0
 40
0.3157169230755978
100
AcDbArc
 50
180.0
 51
270.0
  0
ARC
  5
33C
102
{ACAD_REACTORS
330
37F
330
380
102
}
330
5D
100
AcDbEntity
  8
0
  6
Continuous
 62
     2
100
AcDbCircle
 10
4.58621559499215
 20
-14.39963910359955
 30
0.0
 40
1.05536564133366
100
AcDbArc
 50
270.0
 51
90.0
  0
ARC
  5
33D
102
{ACAD_REACTORS
330
377
330
378
102
}
330
5D
100
AcDbEntity
  8
0
  6
Continuous
 62
     2
100
AcDbCircle
 10
20.31442890668325
 20
-18.11757833831115
 30
0.0
 40
1.639695123940503
100
AcDbArc
 50
195.0618917771007
 51
275.1581447696771
  0
ARC
  5
33E
102
{ACAD_REACTORS
330
377
330
378
102
}
330
5D
100
AcDbEntity
  8
0
  6
Continuous
 62
     2
100
AcDbCircle
 10
20.02557281194737
 20
-14.9176877550895
 30
0.0
 40
4.852596863498893
100
AcDbArc
 50
275.1581447696373
 51
285.9799912583382
  0
ARC
  5
33F
102
{ACAD_REACTORS
330
377
330
378
102
}
330
5D
100
AcDbEntity
  8
0
  6
Continuous
 62
     2
100
AcDbCircle
 10
20.18344568704015
 20
-16.81990233493781
 30
0.0
 40
2.227384008972772
100
AcDbArc
 50
288.4480761181332
 51
301.9309089499392
  0
ARC
  5
340
102
{ACAD_REACTORS
330
377
330
378
102
}
330
5D
100
AcDbEntity
  8
0
  6
Continuous
 62
     2
100
AcDbCircle
 10
20.60161342070217
 20
-18.07344811097454
 30
0.0
 40
0.9059297849852208
100
AcDbArc
 50
246.6277221118088
 51
288.4480761180769
  0
ARC
  5
341
102
{ACAD_REACTORS
330
377
330
378
102
}
330
5D
100
AcDbEntity
  8
0
  6
Continuous
 62
     2
100
AcDbCircle
 10
20.82253064608045
 20
-18.23036870034605
 30
0.0
 40
0.9410597353350354
100
AcDbArc
 50
151.4785267423568
 51
208.5214732576671
  0
ARC
  5
342
102
{ACAD_REACTORS
330
377
330
378
102
}
330
5D
100
AcDbEntity
  8
0
  6
Continuous
 62
     2
100
AcDbCircle
 10
20.59184338610265
 20
-18.44325225138994
 30
0.0
 40
0.9545230068261006
100
AcDbArc
 50
90.0
 51
109.3371432194279
  0
ARC
  5
343
102
{ACAD_REACTORS
330
379
330
37A
102
}
330
5D
100
AcDbEntity
  8
0
  6
Continuous
 62
     2
100
AcDbCircle
 10
-0.61828682673155
 20
-14.37272341754874
 30
0.0
 40
0.3157169230761833
100
AcDbArc
 50
90.1889670425665
 51
180.0
  0
ARC
  5
344
102
{ACAD_REACTORS
330
379
330
37A
102
}
330
5D
100
AcDbEntity
  8
0
  6
Continuous
 62
     2
100
AcDbCircle
 10
-1.14432952481945
 20
-16.08740030602331
 30
0.0
 40
0.9118481501443975
100
AcDbArc
 50
295.3740086781804
 51
64.6259913218089
  0
ARC
  5
345
102
{ACAD_REACTORS
330
375
330
376
102
}
330
5D
100
AcDbEntity
  8
0
  6
Continuous
 62
     2
100
AcDbCircle
 10
4.08074420778726
 20
-16.81990233493735
 30
0.0
 40
2.227384008972719
100
AcDbArc
 50
288.4480761181337
 51
301.9309089499637
  0
ARC
  5
346
102
{ACAD_REACTORS
330
375
330
376
102
}
330
5D
100
AcDbEntity
  8
0
  6
Continuous
 62
     2
100
AcDbCircle
 10
4.49891194144817
 20
-18.07344811097454
 30
0.0
 40
0.9059297849848262
100
AcDbArc
 50
246.6277221118665
 51
288.4480761181539
  0
ARC
  5
347
102
{ACAD_REACTORS
330
375
330
376
102
}
330
5D
100
AcDbEntity
  8
0
  6
Continuous
 62
     2
100
AcDbCircle
 10
4.34247190874606
 20
-18.43544012968454
 30
0.0
 40
0.5115800601947453
100
AcDbArc
 50
208.5214732576837
 51
246.627722111828
  0
ARC
  5
348
102
{ACAD_REACTORS
330
375
330
376
102
}
330
5D
100
AcDbEntity
  8
0
  6
Continuous
 62
     2
100
AcDbCircle
 10
4.49891194144817
 20
-18.38728928971756
 30
0.0
 40
0.9059297849853531
100
AcDbArc
 50
71.55192388185979
 51
113.3722778881304
  0
ARC
  5
349
102
{ACAD_REACTORS
330
375
330
376
102
}
330
5D
100
AcDbEntity
  8
0
  6
Continuous
 62
     2
100
AcDbCircle
 10
3.92287133269446
 20
-21.54304964560186
 30
0.0
 40
4.85259686349799
100
AcDbArc
 50
74.02000874164712
 51
84.84185523037611
  0
CIRCLE
  5
34A
102
{ACAD_REACTORS
330
379
330
37A
102
}
330
5D
100
AcDbEntity
  8
0
  6
Continuous
 62
     2
100
AcDbCircle
 10
-1.16814453949223
 20
-16.08740030602331
 30
0.0
 40
0.470978932778479
  0
CIRCLE
  5
34B
330
5D
100
AcDbEntity
  8
1
  6
Continuous
 62
     2
100
AcDbCircle
 10
4.28802519460737
 20
-5.92577346226773
 30
0.0
 40
1.25
  0
CIRCLE
  5
34C
330
5D
100
AcDbEntity
  8
1
  6
Continuous
 62
     2
100
AcDbCircle
 10
4.28802519460737
 20
-5.92577346226773
 30
0.0
 40
2.5
  0
TEXT
  5
34D
330
5D
100
AcDbEntity
  8
1
 62
     7
100
AcDbText
 10
85.7628415014614
 20
-31.05077346226705
 30
0.0
 40
2.5
  1
6
 41
0.9
  7
CONVERTER_11
100
AcDbText
  0
TEXT
  5
34E
330
5D
100
AcDbEntity
  8
1
 62
     7
100
AcDbText
 10
17.42950816812797
 20
-31.05077346226705
 30
0.0
 40
2.5
  1
5
 41
0.9
  7
CONVERTER_11
100
AcDbText
  0
TEXT
  5
34F
330
5D
100
AcDbEntity
  8
1
 62
     7
100
AcDbText
 10
-50.90382516520523
 20
-31.05077346226705
 30
0.0
 40
2.5
  1
4
 41
0.9
  7
CONVERTER_11
100
AcDbText
  0
TEXT
  5
350
330
5D
100
AcDbEntity
  8
1
 62
     7
100
AcDbText
 10
-119.2371584985383
 20
-31.05077346226705
 30
0.0
 40
2.5
  1
3
 41
0.9
  7
CONVERTER_11
100
AcDbText
  0
TEXT
  5
351
330
5D
100
AcDbEntity
  8
1
 62
     7
100
AcDbText
 10
122.0961748347948
 20
0.44922653773295
 30
0.0
 40
2.5
  1
E
 41
0.9
  7
CONVERTER_11
100
AcDbText
  0
TEXT
  5
352
330
5D
100
AcDbEntity
  8
1
 62
     7
100
AcDbText
 10
-255.903825165205
 20
-31.05077346226705
 30
0.0
 40
2.5
  1
1
 41
0.9
  7
CONVERTER_11
100
AcDbText
  0
TEXT
  5
353
330
5D
100
AcDbEntity
  8
1
 62
     7
100
AcDbText
 10
-187.5704918318719
 20
-31.05077346226705
 30
0.0
 40
2.5
  1
2
 41
0.9
  7
CONVERTER_11
100
AcDbText
  0
TEXT
  5
354
330
5D
100
AcDbEntity
  8
1
 62
     7
100
AcDbText
 10
122.0961748347948
 20
57.84922653773307
 30
0.0
 40
2.5
  1
D
 41
0.9
  7
CONVERTER_11
100
AcDbText
  0
TEXT
  5
355
330
5D
100
AcDbEntity
  8
1
 62
     7
100
AcDbText
 10
122.0961748347948
 20
115.2492265377332
 30
0.0
 40
2.5
  1
C
 41
0.9
  7
CONVERTER_11
100
AcDbText
  0
TEXT
  5
356
330
5D
100
AcDbEntity
  8
1
 62
     7
100
AcDbText
 10
122.0961748347948
 20
172.649226537733
 30
0.0
 40
2.5
  1
B
 41
0.9
  7
CONVERTER_11
100
AcDbText
  0
TEXT
  5
357
330
5D
100
AcDbEntity
  8
1
 62
     7
100
AcDbText
 10
122.0961748347948
 20
230.0492265377329
 30
0.0
 40
2.5
  1
A
 41
0.9
  7
CONVERTER_11
100
AcDbText
  0
TEXT
  5
358
330
5D
100
AcDbEntity
  8
1
 62
     7
100
AcDbText
 10
85.7628415014614
 20
260.9492265377332
 30
0.0
 40
2.5
  1
6
 41
0.9
  7
CONVERTER_11
100
AcDbText
  0
TEXT
  5
359
330
5D
100
AcDbEntity
  8
1
 62
     7
100
AcDbText
 10
17.42950816812817
 20
260.9492265377332
 30
0.0
 40
2.5
  1
5
 41
0.9
  7
CONVERTER_11
100
AcDbText
  0
TEXT
  5
35A
330
5D
100
AcDbEntity
  8
1
 62
     7
100
AcDbText
 10
-50.90382516520523
 20
260.9492265377332
 30
0.0
 40
2.5
  1
4
 41
0.9
  7
CONVERTER_11
100
AcDbText
  0
TEXT
  5
35B
330
5D
100
AcDbEntity
  8
1
 62
     7
100
AcDbText
 10
-119.2371584985383
 20
260.9492265377332
 30
0.0
 40
2.5
  1
3
 41
0.9
  7
CONVERTER_11
100
AcDbText
  0
TEXT
  5
35C
330
5D
100
AcDbEntity
  8
1
 62
     7
100
AcDbText
 10
-187.5704918318719
 20
260.9492265377332
 30
0.0
 40
2.5
  1
2
 41
0.9
  7
CONVERTER_11
100
AcDbText
  0
TEXT
  5
35D
330
5D
100
AcDbEntity
  8
1
 62
     7
100
AcDbText
 10
-255.903825165205
 20
260.9492265377332
 30
0.0
 40
2.5
  1
1
 41
0.9
  7
CONVERTER_11
100
AcDbText
  0
TEXT
  5
35E
330
5D
100
AcDbEntity
  8
1
 62
     7
100
AcDbText
 10
46.92491803005856
 20
-8.7507734622676
 30
0.0
 40
2.5
  1
/
 41
0.9
  7
CONVERTER_11
100
AcDbText
  0
TEXT
  5
360
330
5D
100
AcDbEntity
  8
1
 62
     7
100
AcDbText
 10
49.08128252710056
 20
-8.7507734622676
 30
0.0
 40
2.5
  1
00
 41
0.81
  7
CONVERTER_12
100
AcDbText
  0
TEXT
  5
361
330
5D
100
AcDbEntity
  8
1
 62
     3
100
AcDbText
 10
55.17776655311766
 20
-8.7507734622676
 30
0.0
 40
2.5
  1
17.01.2019
 41
0.81
  7
CONVERTER_12
100
AcDbText
  0
MTEXT
  5
362
330
5D
100
AcDbEntity
  8
1
 62
     2
100
AcDbMText
 10
55.17776655311766
 20
-2.55077346226761
 30
0.0
 40
1.8
 41
0.0
 71
     1
 72
     1
  1
date
  7
CONVERTER_11
 73
     1
 44
1.32052821128451
  0
MTEXT
  5
363
330
5D
100
AcDbEntity
  8
1
 62
     2
100
AcDbMText
 10
28.95137030804477
 20
-11.05077346226761
 30
0.0
 40
1.8
 41
0.0
 71
     1
 72
     1
  1
document-type
  7
CONVERTER_11
 73
     1
 44
1.20048019207683
  0
TEXT
  5
364
330
5D
100
AcDbEntity
  8
1
 62
     3
100
AcDbText
 10
28.95137030804477
 20
-17.2507734622676
 30
0.0
 40
2.5
  1
TECDOC 2D_Productdrawing
 41
0.81
  7
CONVERTER_12
100
AcDbText
  0
MTEXT
  5
366
330
5D
100
AcDbEntity
  8
1
 62
     2
100
AcDbMText
 10
29.05137030804477
 20
-2.55077346226761
 30
0.0
 40
1.8
 41
0.0
 71
     1
 72
     1
  1
document-No. / RI
  7
CONVERTER_13
 73
     1
 44
1.32052821128451
  0
TEXT
  5
367
330
5D
100
AcDbEntity
  8
1
 62
     7
100
AcDbText
 10
29.05137030804477
 20
-8.7507734622676
 30
0.0
 40
2.5
  1
01138006
 41
0.81
  7
CONVERTER_12
100
AcDbText
  0
MTEXT
  5
369
330
5D
100
AcDbEntity
  8
1
 62
     3
100
AcDbMText
 10
78.83697069395676
 20
-8.75077346226755
 30
0.0
 40
2.5
 41
0.0
 71
     8
 72
     1
  1
5:1
  7
CONVERTER_14
 73
     1
 44
1.32052821128451
  0
MTEXT
  5
36A
330
5D
100
AcDbEntity
  8
1
 62
     2
100
AcDbMText
 10
75.67776655311725
 20
-2.55077346226761
 30
0.0
 40
1.8
 41
0.0
 71
     1
 72
     1
  1
scale
  7
CONVERTER_11
 73
     1
 44
1.20048019207683
  0
MTEXT
  5
36B
330
5D
100
AcDbEntity
  8
1
 62
     2
100
AcDbMText
 10
85.07776655311726
 20
-10.05077346226761
 30
0.0
 40
1.5
 41
0.0
 71
     4
 72
     1
  1
- Simplified representation\P- Document excluded\P  from change process\P- Linear dimensions [mm]\P- EN ISO 291  23/50
  7
CONVERTER_11
 73
     1
 44
1.20048019207683
  0
MTEXT
  5
36C
330
5D
100
AcDbEntity
  8
1
 62
     3
100
AcDbMText
 10
17.75137030804476
 20
-5.92577346226761
 30
0.0
 40
2.5
 41
0.0
 71
     5
 72
     1
  1
DIN A3
  7
CONVERTER_11
 73
     1
 44
1.20048019207683
  0
MTEXT
  5
36D
330
5D
100
AcDbEntity
  8
1
 62
     2
100
AcDbMText
 10
28.95137030804477
 20
-19.55077346226761
 30
0.0
 40
1.8
 41
0.0
 71
     1
 72
     1
  1
description
  7
CONVERTER_11
 73
     1
 44
1.20048019207683
  0
MTEXT
  5
36E
330
5D
100
AcDbEntity
  8
1
 62
     7
100
AcDbMText
 10
74.52377257142027
 20
-23.80077346226744
 30
0.0
 40
3.0
 41
0.0
 71
     5
 72
     1
  1
VS-08-BU-RJ45-6/LH-1
  7
CONVERTER_12
 73
     1
 44
1.20048019207683
  0
TEXT
  5
36F
330
5D
100
AcDbEntity
  8
1
 62
     2
100
AcDbText
 10
15.98667911785836
 20
-25.80077346226761
 30
0.0
 40
1.8
  1
1
 41
0.9
  7
CONVERTER_11
100
AcDbText
  0
TEXT
  5
370
330
5D
100
AcDbEntity
  8
1
 62
     2
100
AcDbText
 10
1.19763527838685
 20
-25.85002211606951
 30
0.0
 40
1.8
  1
1
 41
0.9
  7
CONVERTER_11
100
AcDbText
  0
TEXT
  5
371
330
5D
100
AcDbEntity
  8
1
 62
     2
100
AcDbText
 10
-7.44862969195515
 20
-25.80979067725934
 30
0.0
 40
1.8
  1
page
 41
0.9
  7
CONVERTER_11
100
AcDbText
  0
TEXT
  5
372
330
5D
100
AcDbEntity
  8
1
 62
     2
100
AcDbText
 10
10.75137030804467
 20
-25.80979067725912
 30
0.0
 40
1.8
  1
of
 41
0.9
  7
CONVERTER_11
100
AcDbText
  0
MTEXT
  5
373
330
5D
100
AcDbEntity
  8
1
 62
     3
100
AcDbMText
 10
-275.635358164946
 20
145.9355106513867
 30
0.0
 40
1.8
 41
0.0
 71
     7
 72
     1
  3
Transfer or duplication of this document as well as the utilisation or\Pcommunication of its content are not permitted unless express consent\Pis granted. Violations give rise to claims for damages. All rights reserved\Pin case of patent, utility mo
  1
del or design patent registrations.\PTolerance specifications do not include clearances inherent in the design.
  7
CONVERTER_11
 11
0.0
 21
1.0
 31
0.0
 73
     1
 44
0.99639855942377
  0
MTEXT
  5
374
330
5D
100
AcDbEntity
  8
1
 62
     3
100
AcDbMText
 10
-275.481151853852
 20
-27.02385936276642
 30
0.0
 40
1.8
 41
0.0
 71
     7
 72
     1
  3
Weitergabe sowie Vervielf\U+00e4ltigung dieses Dokuments, Verwertung und\PMitteilung seines Inhalts sind verboten, soweit nicht ausdr\U+00fccklich gestattet.\PZuwiderhandlungen verpflichten zu Schadenersatz. Alle Rechte f\U+00fcr den Fall\Pder Paten
  1
t-, Gebrauchsmuster- oder Designeintragung vorbehalten.\PBauartbedingtes Spiel ist in den Toleranzangaben nicht ber\U+00fccksichtigt.
  7
CONVERTER_11
 11
0.0
 21
1.0
 31
0.0
 73
     1
 44
0.99639855942377
  0
HATCH
  5
375
330
5D
100
AcDbEntity
  8
1
  6
Continuous
 62
     2
100
AcDbHatch
 10
0.0
 20
0.0
 30
0.0
210
0.0
220
0.0
230
1.0
  2
CUSTOM0
 70
     0
 71
     1
 91
        1
 92
        1
 93
       14
 72
     2
 10
3.792599583967558
 20
-18.23036870034605
 40
1.205656168390971
 50
164.9381082228768
 51
195.0618917770945
 73
     1
 72
     2
 10
4.211727427430361
 20
-18.11757833831115
 40
1.639695123939437
 50
195.0618917770922
 51
275.1581447696363
 73
     1
 72
     2
 10
3.922871332694456
 20
-14.9176877550895
 40
4.852596863498279
 50
275.1581447696238
 51
285.9799912583525
 73
     1
 72
     1
 10
5.258799249812256
 20
-19.58277006089043
 11
5.258799249812256
 21
-18.7102530540871
 72
     2
 10
4.080744207787262
 20
-16.81990233493735
 40
2.227384008972719
 50
58.06909105003628
 51
71.55192388186632
 73
     0
 72
     2
 10
4.498911941448171
 20
-18.07344811097454
 40
0.9059297849848262
 50
71.55192388184601
 51
113.3722778881334
 73
     0
 72
     2
 10
4.342471908746063
 20
-18.43544012968454
 40
0.5115800601947453
 50
113.372277888172
 51
151.4785267423163
 73
     0
 72
     2
 10
4.719829166826457
 20
-18.23036870034605
 40
0.9410597353333308
 50
151.4785267423032
 51
208.5214732577308
 73
     0
 72
     2
 10
4.342471908746063
 20
-18.02529727100693
 40
0.5115800601948293
 50
208.5214732576841
 51
246.6277221118054
 73
     0
 72
     2
 10
4.498911941448171
 20
-18.38728928971756
 40
0.9059297849853531
 50
246.6277221118695
 51
288.4480761181402
 73
     0
 72
     2
 10
4.080744207787262
 20
-19.64083506575412
 40
2.227384008973468
 50
288.4480761181333
 51
301.9309089499629
 73
     0
 72
     1
 10
5.258799249812256
 20
-17.75048434660431
 11
5.258799249812256
 21
-16.87796733980105
 72
     2
 10
3.922871332694456
 20
-21.54304964560186
 40
4.85259686349799
 50
74.02000874164712
 51
84.84185523037611
 73
     1
 72
     2
 10
4.211727427430361
 20
-18.34315906238084
 40
1.639695123940506
 50
84.84185523036534
 51
164.9381082228905
 73
     1
 97
       14
330
349
330
28F
330
318
330
348
330
319
330
31A
330
347
330
346
330
345
330
290
330
31B
330
31C
330
31D
330
31E
 75
     1
 76
     2
 52
45.0
 41
0.1
 77
     0
 78
     1
 53
45.0
 43
62.7811309658083
 44
-72.3161373035813
 45
-0.1414213562373095
 46
0.0
 79
     0
 98
        1
 10
0.0
 20
0.0
  0
HATCH
  5
376
330
5D
100
AcDbEntity
  8
1
  6
Continuous
 62
     2
100
AcDbHatch
 10
0.0
 20
0.0
 30
0.0
210
0.0
220
0.0
230
1.0
  2
CUSTOM1
 70
     0
 71
     1
 91
        1
 92
        1
 93
       14
 72
     2
 10
3.792599583967558
 20
-18.23036870034605
 40
1.205656168390971
 50
164.9381082228768
 51
195.0618917770945
 73
     1
 72
     2
 10
4.211727427430361
 20
-18.11757833831115
 40
1.639695123939437
 50
195.0618917770922
 51
275.1581447696363
 73
     1
 72
     2
 10
3.922871332694456
 20
-14.9176877550895
 40
4.852596863498279
 50
275.1581447696238
 51
285.9799912583525
 73
     1
 72
     1
 10
5.258799249812256
 20
-19.58277006089043
 11
5.258799249812256
 21
-18.7102530540871
 72
     2
 10
4.080744207787262
 20
-16.81990233493735
 40
2.227384008972719
 50
58.06909105003628
 51
71.55192388186632
 73
     0
 72
     2
 10
4.498911941448171
 20
-18.07344811097454
 40
0.9059297849848262
 50
71.55192388184601
 51
113.3722778881334
 73
     0
 72
     2
 10
4.342471908746063
 20
-18.43544012968454
 40
0.5115800601947453
 50
113.372277888172
 51
151.4785267423163
 73
     0
 72
     2
 10
4.719829166826457
 20
-18.23036870034605
 40
0.9410597353333308
 50
151.4785267423032
 51
208.5214732577308
 73
     0
 72
     2
 10
4.342471908746063
 20
-18.02529727100693
 40
0.5115800601948293
 50
208.5214732576841
 51
246.6277221118054
 73
     0
 72
     2
 10
4.498911941448171
 20
-18.38728928971756
 40
0.9059297849853531
 50
246.6277221118695
 51
288.4480761181402
 73
     0
 72
     2
 10
4.080744207787262
 20
-19.64083506575412
 40
2.227384008973468
 50
288.4480761181333
 51
301.9309089499629
 73
     0
 72
     1
 10
5.258799249812256
 20
-17.75048434660431
 11
5.258799249812256
 21
-16.87796733980105
 72
     2
 10
3.922871332694456
 20
-21.54304964560186
 40
4.85259686349799
 50
74.02000874164712
 51
84.84185523037611
 73
     1
 72
     2
 10
4.211727427430361
 20
-18.34315906238084
 40
1.639695123940506
 50
84.84185523036534
 51
164.9381082228905
 73
     1
 97
       14
330
349
330
28F
330
318
330
348
330
319
330
31A
330
347
330
346
330
345
330
290
330
31B
330
31C
330
31D
330
31E
 75
     1
 76
     2
 52
45.0
 41
0.1
 77
     0
 78
     1
 53
45.0
 43
62.7811309658083
 44
-72.3161373035813
 45
-0.1414213562373095
 46
0.0
 79
     0
 98
        1
 10
0.0
 20
0.0
  0
HATCH
  5
377
330
5D
100
AcDbEntity
  8
1
  6
Continuous
 62
     2
100
AcDbHatch
 10
0.0
 20
0.0
 30
0.0
210
0.0
220
0.0
230
1.0
  2
CUSTOM2
 70
     0
 71
     1
 91
        1
 92
        1
 93
       18
 72
     2
 10
20.31442890668325
 20
-18.34315906238084
 40
1.639695123940108
 50
90.0
 51
164.9381082228993
 73
     1
 72
     2
 10
19.89530106322155
 20
-18.23036870034605
 40
1.205656168392968
 50
164.9381082229023
 51
195.0618917770924
 73
     1
 72
     2
 10
20.31442890668325
 20
-18.11757833831115
 40
1.639695123940503
 50
195.0618917771007
 51
275.1581447696771
 73
     1
 72
     2
 10
20.02557281194737
 20
-14.9176877550895
 40
4.852596863498893
 50
275.1581447696373
 51
285.9799912583382
 73
     1
 72
     1
 10
21.36150072906406
 20
-19.58277006089094
 11
21.36150072906406
 21
-18.71025305408762
 72
     2
 10
20.18344568704015
 20
-16.81990233493781
 40
2.227384008972772
 50
58.06909105006081
 51
71.55192388186683
 73
     0
 72
     2
 10
20.60161342070217
 20
-18.07344811097454
 40
0.9059297849852208
 50
71.5519238819231
 51
113.3722778881912
 73
     0
 72
     2
 10
20.44517338799895
 20
-18.43544012968454
 40
0.5115800601959967
 50
113.3722778881599
 51
151.4785267423119
 73
     0
 72
     2
 10
20.82253064608045
 20
-18.23036870034605
 40
0.9410597353350354
 50
151.4785267423329
 51
208.5214732576432
 73
     0
 72
     2
 10
20.44517338799895
 20
-18.02529727100693
 40
0.5115800601944015
 50
208.5214732575818
 51
250.6628567805176
 73
     0
 72
     2
 10
20.59184338610265
 20
-18.44325225138994
 40
0.9545230068261006
 50
250.6628567805721
 51
270.0
 73
     0
 72
     1
 10
20.59184338610265
 20
-17.48872924456384
 11
21.69548268567075
 21
-17.48872924456384
 72
     1
 10
21.69548268567075
 20
-17.48872924456384
 11
21.69548268567075
 21
-19.75727346225125
 72
     1
 10
21.69548268567075
 20
-19.75727346225125
 11
22.88827538783846
 21
-19.75727346225125
 72
     1
 10
22.88827538783846
 20
-19.75727346225125
 11
22.88827538783846
 21
-17.48872924456384
 72
     1
 10
22.88827538783846
 20
-17.48872924456384
 11
23.69937442531185
 21
-17.48872924456384
 72
     1
 10
23.69937442531185
 20
-17.48872924456384
 11
23.69937442531185
 21
-16.70346393844011
 72
     1
 10
23.69937442531185
 20
-16.70346393844011
 11
20.31442890668325
 21
-16.70346393844073
 97
       18
330
2F5
330
2F4
330
2F3
330
2F2
330
2F7
330
291
330
342
330
323
330
341
330
324
330
340
330
33F
330
292
330
33E
330
33D
330
325
330
326
330
2F6
 75
     1
 76
     2
 52
45.0
 41
0.1
 77
     0
 78
     1
 53
45.0
 43
62.7811309658083
 44
-72.3161373035813
 45
-0.1414213562373095
 46
0.0
 79
     0
 98
        1
 10
0.0
 20
0.0
  0
HATCH
  5
378
330
5D
100
AcDbEntity
  8
1
  6
Continuous
 62
     2
100
AcDbHatch
 10
0.0
 20
0.0
 30
0.0
210
0.0
220
0.0
230
1.0
  2
CUSTOM3
 70
     0
 71
     1
 91
        1
 92
        1
 93
       18
 72
     2
 10
20.31442890668325
 20
-18.34315906238084
 40
1.639695123940108
 50
90.0
 51
164.9381082228993
 73
     1
 72
     2
 10
19.89530106322155
 20
-18.23036870034605
 40
1.205656168392968
 50
164.9381082229023
 51
195.0618917770924
 73
     1
 72
     2
 10
20.31442890668325
 20
-18.11757833831115
 40
1.639695123940503
 50
195.0618917771007
 51
275.1581447696771
 73
     1
 72
     2
 10
20.02557281194737
 20
-14.9176877550895
 40
4.852596863498893
 50
275.1581447696373
 51
285.9799912583382
 73
     1
 72
     1
 10
21.36150072906406
 20
-19.58277006089094
 11
21.36150072906406
 21
-18.71025305408762
 72
     2
 10
20.18344568704015
 20
-16.81990233493781
 40
2.227384008972772
 50
58.06909105006081
 51
71.55192388186683
 73
     0
 72
     2
 10
20.60161342070217
 20
-18.07344811097454
 40
0.9059297849852208
 50
71.5519238819231
 51
113.3722778881912
 73
     0
 72
     2
 10
20.44517338799895
 20
-18.43544012968454
 40
0.5115800601959967
 50
113.3722778881599
 51
151.4785267423119
 73
     0
 72
     2
 10
20.82253064608045
 20
-18.23036870034605
 40
0.9410597353350354
 50
151.4785267423329
 51
208.5214732576432
 73
     0
 72
     2
 10
20.44517338799895
 20
-18.02529727100693
 40
0.5115800601944015
 50
208.5214732575818
 51
250.6628567805176
 73
     0
 72
     2
 10
20.59184338610265
 20
-18.44325225138994
 40
0.9545230068261006
 50
250.6628567805721
 51
270.0
 73
     0
 72
     1
 10
20.59184338610265
 20
-17.48872924456384
 11
21.69548268567075
 21
-17.48872924456384
 72
     1
 10
21.69548268567075
 20
-17.48872924456384
 11
21.69548268567075
 21
-19.75727346225125
 72
     1
 10
21.69548268567075
 20
-19.75727346225125
 11
22.88827538783846
 21
-19.75727346225125
 72
     1
 10
22.88827538783846
 20
-19.75727346225125
 11
22.88827538783846
 21
-17.48872924456384
 72
     1
 10
22.88827538783846
 20
-17.48872924456384
 11
23.69937442531185
 21
-17.48872924456384
 72
     1
 10
23.69937442531185
 20
-17.48872924456384
 11
23.69937442531185
 21
-16.70346393844011
 72
     1
 10
23.69937442531185
 20
-16.70346393844011
 11
20.31442890668325
 21
-16.70346393844073
 97
       18
330
2F5
330
2F4
330
2F3
330
2F2
330
2F7
330
291
330
342
330
323
330
341
330
324
330
340
330
33F
330
292
330
33E
330
33D
330
325
330
326
330
2F6
 75
     1
 76
     2
 52
45.0
 41
0.1
 77
     0
 78
     1
 53
45.0
 43
62.7811309658083
 44
-72.3161373035813
 45
-0.1414213562373095
 46
0.0
 79
     0
 98
        1
 10
0.0
 20
0.0
  0
HATCH
  5
379
330
5D
100
AcDbEntity
  8
1
  6
Continuous
 62
     2
100
AcDbHatch
 10
0.0
 20
0.0
 30
0.0
210
0.0
220
0.0
230
1.0
  2
CUSTOM4
 70
     0
 71
     1
 91
        4
 92
        1
 93
        8
 72
     2
 10
-3.787730190009853
 20
-13.76851807766781
 40
0.4242446153838895
 50
90.0
 51
180.0
 73
     1
 72
     1
 10
-4.211974805392629
 20
-13.76851807766781
 11
-4.211974805392629
 21
-19.33302884686805
 72
     2
 10
-3.787730190009853
 20
-19.33302884686805
 40
0.4242446153827757
 50
180.0
 51
270.0
 73
     1
 72
     1
 10
-3.787730190009853
 20
-19.75727346225125
 11
1.685581900707064
 21
-19.75727346225125
 72
     2
 10
1.685581900707064
 20
-19.33302884686805
 40
0.4242446153831985
 50
270.0
 51
360.0
 73
     1
 72
     1
 10
2.109826516090948
 20
-19.33302884686805
 11
2.109826516090948
 21
-13.76851807766781
 72
     2
 10
1.685581900707064
 20
-13.76851807766781
 40
0.4242446153838841
 50
0.0
 51
90.0
 73
     1
 72
     1
 10
1.685581900707064
 20
-13.34427346228392
 11
-3.787730190009853
 21
-13.34427346228392
 97
        8
330
336
330
2C0
330
335
330
2C1
330
32C
330
2BE
330
337
330
2BF
 92
       16
 93
       12
 72
     1
 10
-3.193835513263338
 20
-19.04471790669436
 11
-1.71800225225374
 21
-19.04471790669436
 72
     2
 10
-1.71800225225374
 20
-18.72900098361765
 40
0.3157169230767103
 50
270.0
 51
360.0
 73
     1
 72
     1
 10
-1.402285329177147
 20
-18.72900098361765
 11
-1.402285329177147
 21
-17.19823005208605
 72
     2
 10
-1.71800225225374
 20
-17.19823005208605
 40
0.3157169230765928
 50
0.0
 51
64.80558935144623
 73
     1
 72
     2
 10
-1.195417804678755
 20
-16.08740030602331
 40
0.9118975235576432
 50
115.1944106485087
 51
244.8055893514805
 73
     0
 72
     2
 10
-1.71800225225374
 20
-14.97657055996115
 40
0.3157169230760594
 50
295.1944106485678
 51
360.0
 73
     1
 72
     1
 10
-1.402285329177147
 20
-14.97657055996115
 11
-1.402285329177147
 21
-14.37254594090052
 72
     2
 10
-1.71800225225374
 20
-14.37254594090052
 40
0.3157169230765928
 50
0.0
 51
90.0
 73
     1
 72
     1
 10
-1.71800225225374
 20
-14.05682901782444
 11
-3.193835513263338
 21
-14.05682901782444
 72
     2
 10
-3.193835513263338
 20
-14.37254594090052
 40
0.3157169230760815
 50
90.0
 51
180.0
 73
     1
 72
     1
 10
-3.509552436338936
 20
-14.37254594090052
 11
-3.509552436338936
 21
-18.72900098361765
 72
     2
 10
-3.193835513263338
 20
-18.72900098361765
 40
0.3157169230755978
 50
180.0
 51
270.0
 73
     1
 97
       12
330
2C5
330
329
330
2C4
330
33A
330
2C3
330
339
330
32A
330
32B
330
2C2
330
338
330
2BD
330
33B
 92
       16
 93
        8
 72
     2
 10
-1.144329524819455
 20
-16.08740030602331
 40
0.9118481501443975
 50
295.3740086781804
 51
424.6259913218089
 73
     1
 72
     2
 10
-0.6182868267315484
 20
-14.97825870605556
 40
0.315716923076792
 50
115.3740086783657
 51
180.0
 73
     0
 72
     1
 10
-0.9340037498083404
 20
-14.97825870605556
 11
-0.9340037498083404
 21
-14.37272341754874
 72
     2
 10
-0.6182868267315484
 20
-14.37272341754874
 40
0.3157169230761833
 50
180.0
 51
269.8110329574335
 73
     0
 72
     2
 10
-0.6126706914215276
 20
-16.07555836511773
 40
2.01856113193327
 50
269.8110329575827
 51
450.1889670424174
 73
     0
 72
     2
 10
-0.6182868267315484
 20
-17.77839331268672
 40
0.315716923076792
 50
90.18896704256652
 51
180.0
 73
     0
 72
     1
 10
-0.9340037498083404
 20
-17.77839331268672
 11
-0.9340037498083404
 21
-17.19654190599164
 72
     2
 10
-0.6182868267315484
 20
-17.19654190599164
 40
0.315716923076536
 50
180.0
 51
244.6259913216484
 73
     0
 97
        8
330
344
330
320
330
2F9
330
343
330
321
330
322
330
2F8
330
31F
 92
       16
 93
        1
 72
     2
 10
-1.168144539492232
 20
-16.08740030602331
 40
0.470978932778479
 50
0.0
 51
360.0
 73
     1
 97
        1
330
34A
 75
     1
 76
     2
 52
45.0
 41
0.1
 77
     0
 78
     1
 53
45.0
 43
62.7811309658083
 44
-72.3161373035813
 45
-0.1414213562373095
 46
0.0
 79
     0
 98
        1
 10
0.0
 20
0.0
  0
HATCH
  5
37A
330
5D
100
AcDbEntity
  8
1
  6
Continuous
 62
     2
100
AcDbHatch
 10
0.0
 20
0.0
 30
0.0
210
0.0
220
0.0
230
1.0
  2
CUSTOM5
 70
     0
 71
     1
 91
        4
 92
        1
 93
        8
 72
     2
 10
-3.787730190009853
 20
-13.76851807766781
 40
0.4242446153838895
 50
90.0
 51
180.0
 73
     1
 72
     1
 10
-4.211974805392629
 20
-13.76851807766781
 11
-4.211974805392629
 21
-19.33302884686805
 72
     2
 10
-3.787730190009853
 20
-19.33302884686805
 40
0.4242446153827757
 50
180.0
 51
270.0
 73
     1
 72
     1
 10
-3.787730190009853
 20
-19.75727346225125
 11
1.685581900707064
 21
-19.75727346225125
 72
     2
 10
1.685581900707064
 20
-19.33302884686805
 40
0.4242446153831985
 50
270.0
 51
360.0
 73
     1
 72
     1
 10
2.109826516090948
 20
-19.33302884686805
 11
2.109826516090948
 21
-13.76851807766781
 72
     2
 10
1.685581900707064
 20
-13.76851807766781
 40
0.4242446153838841
 50
0.0
 51
90.0
 73
     1
 72
     1
 10
1.685581900707064
 20
-13.34427346228392
 11
-3.787730190009853
 21
-13.34427346228392
 97
        8
330
336
330
2C0
330
335
330
2C1
330
32C
330
2BE
330
337
330
2BF
 92
       16
 93
       12
 72
     1
 10
-3.193835513263338
 20
-19.04471790669436
 11
-1.71800225225374
 21
-19.04471790669436
 72
     2
 10
-1.71800225225374
 20
-18.72900098361765
 40
0.3157169230767103
 50
270.0
 51
360.0
 73
     1
 72
     1
 10
-1.402285329177147
 20
-18.72900098361765
 11
-1.402285329177147
 21
-17.19823005208605
 72
     2
 10
-1.71800225225374
 20
-17.19823005208605
 40
0.3157169230765928
 50
0.0
 51
64.80558935144623
 73
     1
 72
     2
 10
-1.195417804678755
 20
-16.08740030602331
 40
0.9118975235576432
 50
115.1944106485087
 51
244.8055893514805
 73
     0
 72
     2
 10
-1.71800225225374
 20
-14.97657055996115
 40
0.3157169230760594
 50
295.1944106485678
 51
360.0
 73
     1
 72
     1
 10
-1.402285329177147
 20
-14.97657055996115
 11
-1.402285329177147
 21
-14.37254594090052
 72
     2
 10
-1.71800225225374
 20
-14.37254594090052
 40
0.3157169230765928
 50
0.0
 51
90.0
 73
     1
 72
     1
 10
-1.71800225225374
 20
-14.05682901782444
 11
-3.193835513263338
 21
-14.05682901782444
 72
     2
 10
-3.193835513263338
 20
-14.37254594090052
 40
0.3157169230760815
 50
90.0
 51
180.0
 73
     1
 72
     1
 10
-3.509552436338936
 20
-14.37254594090052
 11
-3.509552436338936
 21
-18.72900098361765
 72
     2
 10
-3.193835513263338
 20
-18.72900098361765
 40
0.3157169230755978
 50
180.0
 51
270.0
 73
     1
 97
       12
330
2C5
330
329
330
2C4
330
33A
330
2C3
330
339
330
32A
330
32B
330
2C2
330
338
330
2BD
330
33B
 92
       16
 93
        8
 72
     2
 10
-1.144329524819455
 20
-16.08740030602331
 40
0.9118481501443975
 50
295.3740086781804
 51
424.6259913218089
 73
     1
 72
     2
 10
-0.6182868267315484
 20
-14.97825870605556
 40
0.315716923076792
 50
115.3740086783657
 51
180.0
 73
     0
 72
     1
 10
-0.9340037498083404
 20
-14.97825870605556
 11
-0.9340037498083404
 21
-14.37272341754874
 72
     2
 10
-0.6182868267315484
 20
-14.37272341754874
 40
0.3157169230761833
 50
180.0
 51
269.8110329574335
 73
     0
 72
     2
 10
-0.6126706914215276
 20
-16.07555836511773
 40
2.01856113193327
 50
269.8110329575827
 51
450.1889670424174
 73
     0
 72
     2
 10
-0.6182868267315484
 20
-17.77839331268672
 40
0.315716923076792
 50
90.18896704256652
 51
180.0
 73
     0
 72
     1
 10
-0.9340037498083404
 20
-17.77839331268672
 11
-0.9340037498083404
 21
-17.19654190599164
 72
     2
 10
-0.6182868267315484
 20
-17.19654190599164
 40
0.315716923076536
 50
180.0
 51
244.6259913216484
 73
     0
 97
        8
330
344
330
320
330
2F9
330
343
330
321
330
322
330
2F8
330
31F
 92
       16
 93
        1
 72
     2
 10
-1.168144539492232
 20
-16.08740030602331
 40
0.470978932778479
 50
0.0
 51
360.0
 73
     1
 97
        1
330
34A
 75
     1
 76
     2
 52
45.0
 41
0.1
 77
     0
 78
     1
 53
45.0
 43
62.7811309658083
 44
-72.3161373035813
 45
-0.1414213562373095
 46
0.0
 79
     0
 98
        1
 10
0.0
 20
0.0
  0
HATCH
  5
37B
330
5D
100
AcDbEntity
  8
1
  6
Continuous
 62
     2
100
AcDbHatch
 10
0.0
 20
0.0
 30
0.0
210
0.0
220
0.0
230
1.0
  2
CUSTOM6
 70
     0
 71
     1
 91
        2
 92
        1
 93
       12
 72
     2
 10
10.88743381397956
 20
-14.87117822417162
 40
1.526904761905771
 50
90.0
 51
270.0
 73
     1
 72
     1
 10
10.88743381397956
 20
-16.39808298607693
 11
14.03775353776047
 21
-16.39808298607693
 72
     1
 10
14.03775353776047
 20
-16.39808298607693
 11
14.03775353776047
 21
-15.70006938063455
 72
     1
 10
14.03775353776047
 20
-15.70006938063455
 11
12.70182571133285
 21
-15.70006938063455
 72
     1
 10
12.70182571133285
 20
-15.70006938063455
 11
12.70182571133285
 21
-15.22018502689281
 72
     1
 10
12.70182571133285
 20
-15.22018502689281
 11
14.03775353776047
 21
-15.22018502689281
 72
     1
 10
14.03775353776047
 20
-15.22018502689281
 11
14.03775353776047
 21
-14.52217142145042
 72
     1
 10
14.03775353776047
 20
-14.52217142145042
 11
12.70182571133285
 21
-14.52217142145042
 72
     1
 10
12.70182571133285
 20
-14.52217142145042
 11
12.70182571133285
 21
-14.04228706770874
 72
     1
 10
12.70182571133285
 20
-14.04228706770874
 11
14.03775353776047
 21
-14.04228706770874
 72
     1
 10
14.03775353776047
 20
-14.04228706770874
 11
14.03775353776047
 21
-13.34427346226585
 72
     1
 10
14.03775353776047
 20
-13.34427346226585
 11
10.88743381397956
 21
-13.34427346226585
 97
       12
330
2B4
330
2AE
330
2D5
330
2D4
330
2D3
330
2D2
330
2AF
330
2B0
330
2B1
330
2B2
330
327
330
2B3
 92
       16
 93
        4
 72
     2
 10
11.30344586049097
 20
-14.87117822417162
 40
0.7717997786796292
 50
141.8795802028482
 51
218.1204197971547
 73
     1
 72
     2
 10
11.10370582414475
 20
-15.02790940229215
 40
0.5179085730134544
 50
218.1204197971341
 51
321.879580202859
 73
     1
 72
     2
 10
10.90396578779857
 20
-14.87117822417162
 40
0.7717997786795471
 50
321.8795802028388
 51
398.1204197971584
 73
     1
 72
     2
 10
11.10370582414475
 20
-14.71444704605113
 40
0.5179085730133703
 50
38.12041979714041
 51
141.8795802028665
 73
     1
 97
        4
330
334
330
333
330
32E
330
32D
 75
     1
 76
     2
 52
45.0
 41
0.1
 77
     0
 78
     1
 53
45.0
 43
62.7811309658083
 44
-72.3161373035813
 45
-0.1414213562373095
 46
0.0
 79
     0
 98
        1
 10
0.0
 20
0.0
  0
HATCH
  5
37C
330
5D
100
AcDbEntity
  8
1
  6
Continuous
 62
     2
100
AcDbHatch
 10
0.0
 20
0.0
 30
0.0
210
0.0
220
0.0
230
1.0
  2
CUSTOM7
 70
     0
 71
     1
 91
        2
 92
        1
 93
       12
 72
     2
 10
10.88743381397956
 20
-14.87117822417162
 40
1.526904761905771
 50
90.0
 51
270.0
 73
     1
 72
     1
 10
10.88743381397956
 20
-16.39808298607693
 11
14.03775353776047
 21
-16.39808298607693
 72
     1
 10
14.03775353776047
 20
-16.39808298607693
 11
14.03775353776047
 21
-15.70006938063455
 72
     1
 10
14.03775353776047
 20
-15.70006938063455
 11
12.70182571133285
 21
-15.70006938063455
 72
     1
 10
12.70182571133285
 20
-15.70006938063455
 11
12.70182571133285
 21
-15.22018502689281
 72
     1
 10
12.70182571133285
 20
-15.22018502689281
 11
14.03775353776047
 21
-15.22018502689281
 72
     1
 10
14.03775353776047
 20
-15.22018502689281
 11
14.03775353776047
 21
-14.52217142145042
 72
     1
 10
14.03775353776047
 20
-14.52217142145042
 11
12.70182571133285
 21
-14.52217142145042
 72
     1
 10
12.70182571133285
 20
-14.52217142145042
 11
12.70182571133285
 21
-14.04228706770874
 72
     1
 10
12.70182571133285
 20
-14.04228706770874
 11
14.03775353776047
 21
-14.04228706770874
 72
     1
 10
14.03775353776047
 20
-14.04228706770874
 11
14.03775353776047
 21
-13.34427346226585
 72
     1
 10
14.03775353776047
 20
-13.34427346226585
 11
10.88743381397956
 21
-13.34427346226585
 97
       12
330
2B4
330
2AE
330
2D5
330
2D4
330
2D3
330
2D2
330
2AF
330
2B0
330
2B1
330
2B2
330
327
330
2B3
 92
       16
 93
        4
 72
     2
 10
11.30344586049097
 20
-14.87117822417162
 40
0.7717997786796292
 50
141.8795802028482
 51
218.1204197971547
 73
     1
 72
     2
 10
11.10370582414475
 20
-15.02790940229215
 40
0.5179085730134544
 50
218.1204197971341
 51
321.879580202859
 73
     1
 72
     2
 10
10.90396578779857
 20
-14.87117822417162
 40
0.7717997786795471
 50
321.8795802028388
 51
398.1204197971584
 73
     1
 72
     2
 10
11.10370582414475
 20
-14.71444704605113
 40
0.5179085730133703
 50
38.12041979714041
 51
141.8795802028665
 73
     1
 97
        4
330
334
330
333
330
32E
330
32D
 75
     1
 76
     2
 52
45.0
 41
0.1
 77
     0
 78
     1
 53
45.0
 43
62.7811309658083
 44
-72.3161373035813
 45
-0.1414213562373095
 46
0.0
 79
     0
 98
        1
 10
0.0
 20
0.0
  0
HATCH
  5
37D
330
5D
100
AcDbEntity
  8
1
  6
Continuous
 62
     2
100
AcDbHatch
 10
0.0
 20
0.0
 30
0.0
210
0.0
220
0.0
230
1.0
  2
CUSTOM8
 70
     0
 71
     1
 91
        2
 92
        1
 93
        4
 72
     2
 10
6.861818451517848
 20
-18.23036870034605
 40
1.458034083651616
 50
117.5481481756598
 51
242.451851824337
 73
     1
 72
     2
 10
7.142758343351261
 20
-17.69179369004263
 40
2.065479772208637
 50
242.4518518243384
 51
297.548148175686
 73
     1
 72
     2
 10
7.423698235184446
 20
-18.23036870034605
 40
1.458034083652027
 50
297.5481481757056
 51
422.4518518242976
 73
     1
 72
     2
 10
7.142758343351261
 20
-18.76894371064884
 40
2.065479772208691
 50
62.45185182430815
 51
117.5481481756674
 73
     1
 97
        4
330
332
330
32F
330
331
330
330
 92
       16
 93
        4
 72
     2
 10
7.142758343351261
 20
-18.07363752222551
 40
0.5179085730132827
 50
38.120419797165
 51
141.8795802028564
 73
     1
 72
     2
 10
7.342498379697247
 20
-18.23036870034605
 40
0.7717997786795553
 50
141.8795802028276
 51
218.1204197971616
 73
     1
 72
     2
 10
7.142758343351261
 20
-18.3870998784659
 40
0.5179085730138424
 50
218.1204197971879
 51
321.8795802027908
 73
     1
 72
     2
 10
6.943018307004849
 20
-18.23036870034605
 40
0.7717997786795308
 50
321.8795802028436
 51
398.1204197971672
 73
     1
 97
        4
330
315
330
316
330
317
330
314
 75
     1
 76
     2
 52
45.0
 41
0.1
 77
     0
 78
     1
 53
45.0
 43
62.7811309658083
 44
-72.3161373035813
 45
-0.1414213562373095
 46
0.0
 79
     0
 98
        1
 10
0.0
 20
0.0
  0
HATCH
  5
37E
330
5D
100
AcDbEntity
  8
1
  6
Continuous
 62
     2
100
AcDbHatch
 10
0.0
 20
0.0
 30
0.0
210
0.0
220
0.0
230
1.0
  2
CUSTOM9
 70
     0
 71
     1
 91
        2
 92
        1
 93
        4
 72
     2
 10
6.861818451517848
 20
-18.23036870034605
 40
1.458034083651616
 50
117.5481481756598
 51
242.451851824337
 73
     1
 72
     2
 10
7.142758343351261
 20
-17.69179369004263
 40
2.065479772208637
 50
242.4518518243384
 51
297.548148175686
 73
     1
 72
     2
 10
7.423698235184446
 20
-18.23036870034605
 40
1.458034083652027
 50
297.5481481757056
 51
422.4518518242976
 73
     1
 72
     2
 10
7.142758343351261
 20
-18.76894371064884
 40
2.065479772208691
 50
62.45185182430815
 51
117.5481481756674
 73
     1
 97
        4
330
332
330
32F
330
331
330
330
 92
       16
 93
        4
 72
     2
 10
7.142758343351261
 20
-18.07363752222551
 40
0.5179085730132827
 50
38.120419797165
 51
141.8795802028564
 73
     1
 72
     2
 10
7.342498379697247
 20
-18.23036870034605
 40
0.7717997786795553
 50
141.8795802028276
 51
218.1204197971616
 73
     1
 72
     2
 10
7.142758343351261
 20
-18.3870998784659
 40
0.5179085730138424
 50
218.1204197971879
 51
321.8795802027908
 73
     1
 72
     2
 10
6.943018307004849
 20
-18.23036870034605
 40
0.7717997786795308
 50
321.8795802028436
 51
398.1204197971672
 73
     1
 97
        4
330
315
330
316
330
317
330
314
 75
     1
 76
     2
 52
45.0
 41
0.1
 77
     0
 78
     1
 53
45.0
 43
62.7811309658083
 44
-72.3161373035813
 45
-0.1414213562373095
 46
0.0
 79
     0
 98
        1
 10
0.0
 20
0.0
  0
HATCH
  5
37F
330
5D
100
AcDbEntity
  8
1
  6
Continuous
 62
     2
100
AcDbHatch
 10
0.0
 20
0.0
 30
0.0
210
0.0
220
0.0
230
1.0
  2
CUSTOM10
 70
     0
 71
     1
 91
        2
 92
        1
 93
        6
 72
     1
 10
2.586943596957752
 20
-13.34427346226585
 11
2.586943596957752
 21
-16.39808298607693
 72
     1
 10
2.586943596957752
 20
-16.39808298607693
 11
3.827448007211757
 21
-16.39808298607693
 72
     1
 10
3.827448007211757
 20
-16.39808298607693
 11
3.827448007211757
 21
-15.45500474493321
 72
     1
 10
3.827448007211757
 20
-15.45500474493321
 11
4.586215594992154
 21
-15.45500474493321
 72
     2
 10
4.586215594992154
 20
-14.39963910359955
 40
1.05536564133366
 50
270.0
 51
450.0
 73
     1
 72
     1
 10
4.586215594992154
 20
-13.34427346226585
 11
2.586943596957752
 21
-13.34427346226585
 97
        6
330
33C
330
2C6
330
2BC
330
2BB
330
2C8
330
2C7
 92
       16
 93
        4
 72
     1
 10
4.144743068753769
 20
-14.00737930770583
 11
3.827448007211757
 21
-14.00737930770583
 72
     1
 10
3.827448007211757
 20
-14.00737930770583
 11
3.827448007211757
 21
-14.71310695704813
 72
     1
 10
3.827448007211757
 20
-14.71310695704813
 11
4.144743068753769
 21
-14.71310695704813
 72
     2
 10
4.144743068753769
 20
-14.36024313237704
 40
0.3528638246710898
 50
270.0
 51
450.0
 73
     1
 97
        4
330
2C9
330
2BA
330
2CA
330
328
 75
     1
 76
     2
 52
45.0
 41
0.1
 77
     0
 78
     1
 53
45.0
 43
62.7811309658083
 44
-72.3161373035813
 45
-0.1414213562373095
 46
0.0
 79
     0
 98
        1
 10
0.0
 20
0.0
  0
HATCH
  5
380
330
5D
100
AcDbEntity
  8
1
  6
Continuous
 62
     2
100
AcDbHatch
 10
0.0
 20
0.0
 30
0.0
210
0.0
220
0.0
230
1.0
  2
CUSTOM11
 70
     0
 71
     1
 91
        2
 92
        1
 93
        6
 72
     1
 10
2.586943596957752
 20
-13.34427346226585
 11
2.586943596957752
 21
-16.39808298607693
 72
     1
 10
2.586943596957752
 20
-16.39808298607693
 11
3.827448007211757
 21
-16.39808298607693
 72
     1
 10
3.827448007211757
 20
-16.39808298607693
 11
3.827448007211757
 21
-15.45500474493321
 72
     1
 10
3.827448007211757
 20
-15.45500474493321
 11
4.586215594992154
 21
-15.45500474493321
 72
     2
 10
4.586215594992154
 20
-14.39963910359955
 40
1.05536564133366
 50
270.0
 51
450.0
 73
     1
 72
     1
 10
4.586215594992154
 20
-13.34427346226585
 11
2.586943596957752
 21
-13.34427346226585
 97
        6
330
33C
330
2C6
330
2BC
330
2BB
330
2C8
330
2C7
 92
       16
 93
        4
 72
     1
 10
4.144743068753769
 20
-14.00737930770583
 11
3.827448007211757
 21
-14.00737930770583
 72
     1
 10
3.827448007211757
 20
-14.00737930770583
 11
3.827448007211757
 21
-14.71310695704813
 72
     1
 10
3.827448007211757
 20
-14.71310695704813
 11
4.144743068753769
 21
-14.71310695704813
 72
     2
 10
4.144743068753769
 20
-14.36024313237704
 40
0.3528638246710898
 50
270.0
 51
450.0
 73
     1
 97
        4
330
2C9
330
2BA
330
2CA
330
328
 75
     1
 76
     2
 52
45.0
 41
0.1
 77
     0
 78
     1
 53
45.0
 43
62.7811309658083
 44
-72.3161373035813
 45
-0.1414213562373095
 46
0.0
 79
     0
 98
        1
 10
0.0
 20
0.0
  0
HATCH
  5
381
330
5D
100
AcDbEntity
  8
1
  6
Continuous
 62
     2
100
AcDbHatch
 10
0.0
 20
0.0
 30
0.0
210
0.0
220
0.0
230
1.0
  2
CUSTOM12
 70
     0
 71
     1
 91
        1
 92
        1
 93
       12
 72
     1
 10
22.20122679139095
 20
-13.34427346226585
 11
23.60395100913817
 21
-13.34427346226585
 72
     1
 10
23.60395100913817
 20
-13.34427346226585
 11
22.30142137837157
 21
-14.81722399230205
 72
     1
 10
22.30142137837157
 20
-14.81722399230205
 11
23.69937442531185
 21
-16.39808298607693
 72
     1
 10
23.69937442531185
 20
-16.39808298607693
 11
22.29665020756355
 21
-16.39808298607693
 72
     1
 10
22.29665020756355
 20
-16.39808298607693
 11
21.60005926949816
 21
-15.61035120078321
 72
     1
 10
21.60005926949816
 20
-15.61035120078321
 11
20.90346833143235
 21
-16.39808298607693
 72
     1
 10
20.90346833143235
 20
-16.39808298607693
 11
19.50074411368425
 21
-16.39808298607693
 72
     1
 10
19.50074411368425
 20
-16.39808298607693
 11
20.89869716062455
 21
-14.81722399230205
 72
     1
 10
20.89869716062455
 20
-14.81722399230205
 11
19.59616752985707
 21
-13.34427346226585
 72
     1
 10
19.59616752985707
 20
-13.34427346226585
 11
20.99889174760625
 21
-13.34427346226585
 72
     1
 10
20.99889174760625
 20
-13.34427346226585
 11
21.60005926949816
 21
-14.02409678382134
 72
     1
 10
21.60005926949816
 20
-14.02409678382134
 11
22.20122679139095
 21
-13.34427346226585
 97
       12
330
295
330
2EE
330
2ED
330
2EC
330
2EB
330
296
330
297
330
293
330
294
330
2F1
330
2F0
330
2EF
 75
     1
 76
     2
 52
45.0
 41
0.1
 77
     0
 78
     1
 53
45.0
 43
62.7811309658083
 44
-72.3161373035813
 45
-0.1414213562373095
 46
0.0
 79
     0
 98
        1
 10
0.0
 20
0.0
  0
HATCH
  5
382
330
5D
100
AcDbEntity
  8
1
  6
Continuous
 62
     2
100
AcDbHatch
 10
0.0
 20
0.0
 30
0.0
210
0.0
220
0.0
230
1.0
  2
CUSTOM13
 70
     0
 71
     1
 91
        1
 92
        1
 93
       12
 72
     1
 10
22.20122679139095
 20
-13.34427346226585
 11
23.60395100913817
 21
-13.34427346226585
 72
     1
 10
23.60395100913817
 20
-13.34427346226585
 11
22.30142137837157
 21
-14.81722399230205
 72
     1
 10
22.30142137837157
 20
-14.81722399230205
 11
23.69937442531185
 21
-16.39808298607693
 72
     1
 10
23.69937442531185
 20
-16.39808298607693
 11
22.29665020756355
 21
-16.39808298607693
 72
     1
 10
22.29665020756355
 20
-16.39808298607693
 11
21.60005926949816
 21
-15.61035120078321
 72
     1
 10
21.60005926949816
 20
-15.61035120078321
 11
20.90346833143235
 21
-16.39808298607693
 72
     1
 10
20.90346833143235
 20
-16.39808298607693
 11
19.50074411368425
 21
-16.39808298607693
 72
     1
 10
19.50074411368425
 20
-16.39808298607693
 11
20.89869716062455
 21
-14.81722399230205
 72
     1
 10
20.89869716062455
 20
-14.81722399230205
 11
19.59616752985707
 21
-13.34427346226585
 72
     1
 10
19.59616752985707
 20
-13.34427346226585
 11
20.99889174760625
 21
-13.34427346226585
 72
     1
 10
20.99889174760625
 20
-13.34427346226585
 11
21.60005926949816
 21
-14.02409678382134
 72
     1
 10
21.60005926949816
 20
-14.02409678382134
 11
22.20122679139095
 21
-13.34427346226585
 97
       12
330
295
330
2EE
330
2ED
330
2EC
330
2EB
330
296
330
297
330
293
330
294
330
2F1
330
2F0
330
2EF
 75
     1
 76
     2
 52
45.0
 41
0.1
 77
     0
 78
     1
 53
45.0
 43
62.7811309658083
 44
-72.3161373035813
 45
-0.1414213562373095
 46
0.0
 79
     0
 98
        1
 10
0.0
 20
0.0
  0
HATCH
  5
383
330
5D
100
AcDbEntity
  8
1
  6
Continuous
 62
     2
100
AcDbHatch
 10
0.0
 20
0.0
 30
0.0
210
0.0
220
0.0
230
1.0
  2
CUSTOM14
 70
     0
 71
     1
 91
        1
 92
        1
 93
        4
 72
     1
 10
19.38146484346737
 20
-13.34427346226585
 11
19.38146484346737
 21
-16.39808298607693
 72
     1
 10
19.38146484346737
 20
-16.39808298607693
 11
18.14096043321445
 21
-16.39808298607693
 72
     1
 10
18.14096043321445
 20
-16.39808298607693
 11
18.14096043321445
 21
-13.34427346226585
 72
     1
 10
18.14096043321445
 20
-13.34427346226585
 11
19.38146484346737
 21
-13.34427346226585
 97
        4
330
2E9
330
298
330
2E8
330
2EA
 75
     1
 76
     2
 52
45.0
 41
0.1
 77
     0
 78
     1
 53
45.0
 43
62.7811309658083
 44
-72.3161373035813
 45
-0.1414213562373095
 46
0.0
 79
     0
 98
        1
 10
0.0
 20
0.0
  0
HATCH
  5
384
330
5D
100
AcDbEntity
  8
1
  6
Continuous
 62
     2
100
AcDbHatch
 10
0.0
 20
0.0
 30
0.0
210
0.0
220
0.0
230
1.0
  2
CUSTOM15
 70
     0
 71
     1
 91
        1
 92
        1
 93
        4
 72
     1
 10
19.38146484346737
 20
-13.34427346226585
 11
19.38146484346737
 21
-16.39808298607693
 72
     1
 10
19.38146484346737
 20
-16.39808298607693
 11
18.14096043321445
 21
-16.39808298607693
 72
     1
 10
18.14096043321445
 20
-16.39808298607693
 11
18.14096043321445
 21
-13.34427346226585
 72
     1
 10
18.14096043321445
 20
-13.34427346226585
 11
19.38146484346737
 21
-13.34427346226585
 97
        4
330
2E9
330
298
330
2E8
330
2EA
 75
     1
 76
     2
 52
45.0
 41
0.1
 77
     0
 78
     1
 53
45.0
 43
62.7811309658083
 44
-72.3161373035813
 45
-0.1414213562373095
 46
0.0
 79
     0
 98
        1
 10
0.0
 20
0.0
  0
HATCH
  5
385
330
5D
100
AcDbEntity
  8
1
  6
Continuous
 62
     2
100
AcDbHatch
 10
0.0
 20
0.0
 30
0.0
210
0.0
220
0.0
230
1.0
  2
CUSTOM16
 70
     0
 71
     1
 91
        2
 92
        1
 93
        8
 72
     1
 10
18.99102083993535
 20
-19.75727346225125
 11
17.75051642968145
 21
-19.75727346225125
 72
     1
 10
17.75051642968145
 20
-19.75727346225125
 11
17.53903637620567
 21
-19.21631291803345
 72
     1
 10
17.53903637620567
 20
-19.21631291803345
 11
16.40659479953175
 21
-19.21631291803345
 72
     1
 10
16.40659479953175
 20
-19.21631291803345
 11
16.19511474605596
 21
-19.75727346225125
 72
     1
 10
16.19511474605596
 20
-19.75727346225125
 11
14.95461033580307
 21
-19.75727346225125
 72
     1
 10
14.95461033580307
 20
-19.75727346225125
 11
16.35256338274226
 21
-16.70346393844011
 72
     1
 10
16.35256338274226
 20
-16.70346393844011
 11
17.59306779299507
 21
-16.70346393844011
 72
     1
 10
17.59306779299507
 20
-16.70346393844011
 11
18.99102083993535
 21
-19.75727346225125
 97
        8
330
2E4
330
29E
330
2E3
330
2E6
330
29B
330
2E5
330
29C
330
29D
 92
       16
 93
        3
 72
     1
 10
16.67265035067686
 20
-18.53574965272685
 11
17.27298082505936
 21
-18.53574965272685
 72
     1
 10
17.27298082505936
 20
-18.53574965272685
 11
16.97281558786915
 21
-17.76793468674015
 72
     1
 10
16.97281558786915
 20
-17.76793468674015
 11
16.67265035067686
 21
-18.53574965272685
 97
        3
330
29A
330
299
330
2E7
 75
     1
 76
     2
 52
45.0
 41
0.1
 77
     0
 78
     1
 53
45.0
 43
62.7811309658083
 44
-72.3161373035813
 45
-0.1414213562373095
 46
0.0
 79
     0
 98
        1
 10
0.0
 20
0.0
  0
HATCH
  5
386
330
5D
100
AcDbEntity
  8
1
  6
Continuous
 62
     2
100
AcDbHatch
 10
0.0
 20
0.0
 30
0.0
210
0.0
220
0.0
230
1.0
  2
CUSTOM17
 70
     0
 71
     1
 91
        2
 92
        1
 93
        8
 72
     1
 10
18.99102083993535
 20
-19.75727346225125
 11
17.75051642968145
 21
-19.75727346225125
 72
     1
 10
17.75051642968145
 20
-19.75727346225125
 11
17.53903637620567
 21
-19.21631291803345
 72
     1
 10
17.53903637620567
 20
-19.21631291803345
 11
16.40659479953175
 21
-19.21631291803345
 72
     1
 10
16.40659479953175
 20
-19.21631291803345
 11
16.19511474605596
 21
-19.75727346225125
 72
     1
 10
16.19511474605596
 20
-19.75727346225125
 11
14.95461033580307
 21
-19.75727346225125
 72
     1
 10
14.95461033580307
 20
-19.75727346225125
 11
16.35256338274226
 21
-16.70346393844011
 72
     1
 10
16.35256338274226
 20
-16.70346393844011
 11
17.59306779299507
 21
-16.70346393844011
 72
     1
 10
17.59306779299507
 20
-16.70346393844011
 11
18.99102083993535
 21
-19.75727346225125
 97
        8
330
2E4
330
29E
330
2E3
330
2E6
330
29B
330
2E5
330
29C
330
29D
 92
       16
 93
        3
 72
     1
 10
16.67265035067686
 20
-18.53574965272685
 11
17.27298082505936
 21
-18.53574965272685
 72
     1
 10
17.27298082505936
 20
-18.53574965272685
 11
16.97281558786915
 21
-17.76793468674015
 72
     1
 10
16.97281558786915
 20
-17.76793468674015
 11
16.67265035067686
 21
-18.53574965272685
 97
        3
330
29A
330
299
330
2E7
 75
     1
 76
     2
 52
45.0
 41
0.1
 77
     0
 78
     1
 53
45.0
 43
62.7811309658083
 44
-72.3161373035813
 45
-0.1414213562373095
 46
0.0
 79
     0
 98
        1
 10
0.0
 20
0.0
  0
HATCH
  5
387
330
5D
100
AcDbEntity
  8
1
  6
Continuous
 62
     2
100
AcDbHatch
 10
0.0
 20
0.0
 30
0.0
210
0.0
220
0.0
230
1.0
  2
CUSTOM18
 70
     0
 71
     1
 91
        1
 92
        1
 93
        8
 72
     1
 10
12.79709819662077
 20
-16.70346393844011
 11
12.79709819662077
 21
-17.48872924456384
 72
     1
 10
12.79709819662077
 20
-17.48872924456384
 11
13.60819723409546
 21
-17.48872924456384
 72
     1
 10
13.60819723409546
 20
-17.48872924456384
 11
13.60819723409546
 21
-19.75727346225125
 72
     1
 10
13.60819723409546
 20
-19.75727346225125
 11
14.80098993626186
 21
-19.75727346225125
 72
     1
 10
14.80098993626186
 20
-19.75727346225125
 11
14.80098993626186
 21
-17.48872924456384
 72
     1
 10
14.80098993626186
 20
-17.48872924456384
 11
15.61208897373447
 21
-17.48872924456384
 72
     1
 10
15.61208897373447
 20
-17.48872924456384
 11
15.61208897373447
 21
-16.70346393844011
 72
     1
 10
15.61208897373447
 20
-16.70346393844011
 11
12.79709819662077
 21
-16.70346393844011
 97
        8
330
2E0
330
2DF
330
2DE
330
29F
330
2A0
330
2E2
330
2A1
330
2E1
 75
     1
 76
     2
 52
45.0
 41
0.1
 77
     0
 78
     1
 53
45.0
 43
62.7811309658083
 44
-72.3161373035813
 45
-0.1414213562373095
 46
0.0
 79
     0
 98
        1
 10
0.0
 20
0.0
  0
HATCH
  5
388
330
5D
100
AcDbEntity
  8
1
  6
Continuous
 62
     2
100
AcDbHatch
 10
0.0
 20
0.0
 30
0.0
210
0.0
220
0.0
230
1.0
  2
CUSTOM19
 70
     0
 71
     1
 91
        1
 92
        1
 93
        8
 72
     1
 10
12.79709819662077
 20
-16.70346393844011
 11
12.79709819662077
 21
-17.48872924456384
 72
     1
 10
12.79709819662077
 20
-17.48872924456384
 11
13.60819723409546
 21
-17.48872924456384
 72
     1
 10
13.60819723409546
 20
-17.48872924456384
 11
13.60819723409546
 21
-19.75727346225125
 72
     1
 10
13.60819723409546
 20
-19.75727346225125
 11
14.80098993626186
 21
-19.75727346225125
 72
     1
 10
14.80098993626186
 20
-19.75727346225125
 11
14.80098993626186
 21
-17.48872924456384
 72
     1
 10
14.80098993626186
 20
-17.48872924456384
 11
15.61208897373447
 21
-17.48872924456384
 72
     1
 10
15.61208897373447
 20
-17.48872924456384
 11
15.61208897373447
 21
-16.70346393844011
 72
     1
 10
15.61208897373447
 20
-16.70346393844011
 11
12.79709819662077
 21
-16.70346393844011
 97
        8
330
2E0
330
2DF
330
2DE
330
29F
330
2A0
330
2E2
330
2A1
330
2E1
 75
     1
 76
     2
 52
45.0
 41
0.1
 77
     0
 78
     1
 53
45.0
 43
62.7811309658083
 44
-72.3161373035813
 45
-0.1414213562373095
 46
0.0
 79
     0
 98
        1
 10
0.0
 20
0.0
  0
HATCH
  5
389
330
5D
100
AcDbEntity
  8
1
  6
Continuous
 62
     2
100
AcDbHatch
 10
0.0
 20
0.0
 30
0.0
210
0.0
220
0.0
230
1.0
  2
CUSTOM20
 70
     0
 71
     1
 91
        1
 92
        1
 93
       10
 72
     1
 10
15.46910478035986
 20
-13.34427346226585
 11
14.27631207819346
 21
-13.34427346226585
 72
     1
 10
14.27631207819346
 20
-13.34427346226585
 11
14.27631207819346
 21
-16.39808298607693
 72
     1
 10
14.27631207819346
 20
-16.39808298607693
 11
15.46910478035986
 21
-16.39808298607693
 72
     1
 10
15.46910478035986
 20
-16.39808298607693
 11
15.46910478035986
 21
-15.0893074758722
 72
     1
 10
15.46910478035986
 20
-15.0893074758722
 11
16.70960919061395
 21
-16.39808298607693
 72
     1
 10
16.70960919061395
 20
-16.39808298607693
 11
17.90240189278055
 21
-16.39808298607693
 72
     1
 10
17.90240189278055
 20
-16.39808298607693
 11
17.90240189278055
 21
-13.34427346226585
 72
     1
 10
17.90240189278055
 20
-13.34427346226585
 11
16.70960919061395
 21
-13.34427346226585
 72
     1
 10
16.70960919061395
 20
-13.34427346226585
 11
16.70960919061395
 21
-14.65304897247091
 72
     1
 10
16.70960919061395
 20
-14.65304897247091
 11
15.46910478035986
 21
-13.34427346226585
 97
       10
330
2DA
330
2A4
330
2A5
330
2A6
330
2A7
330
2DD
330
2A2
330
2DC
330
2DB
330
2A3
 75
     1
 76
     2
 52
45.0
 41
0.1
 77
     0
 78
     1
 53
45.0
 43
62.7811309658083
 44
-72.3161373035813
 45
-0.1414213562373095
 46
0.0
 79
     0
 98
        1
 10
0.0
 20
0.0
  0
HATCH
  5
38A
330
5D
100
AcDbEntity
  8
1
  6
Continuous
 62
     2
100
AcDbHatch
 10
0.0
 20
0.0
 30
0.0
210
0.0
220
0.0
230
1.0
  2
CUSTOM21
 70
     0
 71
     1
 91
        1
 92
        1
 93
       10
 72
     1
 10
15.46910478035986
 20
-13.34427346226585
 11
14.27631207819346
 21
-13.34427346226585
 72
     1
 10
14.27631207819346
 20
-13.34427346226585
 11
14.27631207819346
 21
-16.39808298607693
 72
     1
 10
14.27631207819346
 20
-16.39808298607693
 11
15.46910478035986
 21
-16.39808298607693
 72
     1
 10
15.46910478035986
 20
-16.39808298607693
 11
15.46910478035986
 21
-15.0893074758722
 72
     1
 10
15.46910478035986
 20
-15.0893074758722
 11
16.70960919061395
 21
-16.39808298607693
 72
     1
 10
16.70960919061395
 20
-16.39808298607693
 11
17.90240189278055
 21
-16.39808298607693
 72
     1
 10
17.90240189278055
 20
-16.39808298607693
 11
17.90240189278055
 21
-13.34427346226585
 72
     1
 10
17.90240189278055
 20
-13.34427346226585
 11
16.70960919061395
 21
-13.34427346226585
 72
     1
 10
16.70960919061395
 20
-13.34427346226585
 11
16.70960919061395
 21
-14.65304897247091
 72
     1
 10
16.70960919061395
 20
-14.65304897247091
 11
15.46910478035986
 21
-13.34427346226585
 97
       10
330
2DA
330
2A4
330
2A5
330
2A6
330
2A7
330
2DD
330
2A2
330
2DC
330
2DB
330
2A3
 75
     1
 76
     2
 52
45.0
 41
0.1
 77
     0
 78
     1
 53
45.0
 43
62.7811309658083
 44
-72.3161373035813
 45
-0.1414213562373095
 46
0.0
 79
     0
 98
        1
 10
0.0
 20
0.0
  0
HATCH
  5
38B
330
5D
100
AcDbEntity
  8
1
  6
Continuous
 62
     2
100
AcDbHatch
 10
0.0
 20
0.0
 30
0.0
210
0.0
220
0.0
230
1.0
  2
CUSTOM22
 70
     0
 71
     1
 91
        1
 92
        1
 93
       10
 72
     1
 10
10.22066595994127
 20
-16.70346393844011
 11
9.027873257773763
 21
-16.70346393844011
 72
     1
 10
9.027873257773763
 20
-16.70346393844011
 11
9.027873257773763
 21
-19.75727346225125
 72
     1
 10
9.027873257773763
 20
-19.75727346225125
 11
10.22066595994127
 21
-19.75727346225125
 72
     1
 10
10.22066595994127
 20
-19.75727346225125
 11
10.22066595994127
 21
-18.44849795204675
 72
     1
 10
10.22066595994127
 20
-18.44849795204675
 11
11.46117037019425
 21
-19.75727346225125
 72
     1
 10
11.46117037019425
 20
-19.75727346225125
 11
12.65396307236065
 21
-19.75727346225125
 72
     1
 10
12.65396307236065
 20
-19.75727346225125
 11
12.65396307236065
 21
-16.70346393844011
 72
     1
 10
12.65396307236065
 20
-16.70346393844011
 11
11.46117037019425
 21
-16.70346393844011
 72
     1
 10
11.46117037019425
 20
-16.70346393844011
 11
11.46117037019425
 21
-18.01223944864535
 72
     1
 10
11.46117037019425
 20
-18.01223944864535
 11
10.22066595994127
 21
-16.70346393844011
 97
       10
330
2A9
330
2AA
330
2AB
330
2D7
330
2AC
330
2AD
330
2D6
330
2D9
330
2D8
330
2A8
 75
     1
 76
     2
 52
45.0
 41
0.1
 77
     0
 78
     1
 53
45.0
 43
62.7811309658083
 44
-72.3161373035813
 45
-0.1414213562373095
 46
0.0
 79
     0
 98
        1
 10
0.0
 20
0.0
  0
HATCH
  5
38C
330
5D
100
AcDbEntity
  8
1
  6
Continuous
 62
     2
100
AcDbHatch
 10
0.0
 20
0.0
 30
0.0
210
0.0
220
0.0
230
1.0
  2
CUSTOM23
 70
     0
 71
     1
 91
        1
 92
        1
 93
       10
 72
     1
 10
10.22066595994127
 20
-16.70346393844011
 11
9.027873257773763
 21
-16.70346393844011
 72
     1
 10
9.027873257773763
 20
-16.70346393844011
 11
9.027873257773763
 21
-19.75727346225125
 72
     1
 10
9.027873257773763
 20
-19.75727346225125
 11
10.22066595994127
 21
-19.75727346225125
 72
     1
 10
10.22066595994127
 20
-19.75727346225125
 11
10.22066595994127
 21
-18.44849795204675
 72
     1
 10
10.22066595994127
 20
-18.44849795204675
 11
11.46117037019425
 21
-19.75727346225125
 72
     1
 10
11.46117037019425
 20
-19.75727346225125
 11
12.65396307236065
 21
-19.75727346225125
 72
     1
 10
12.65396307236065
 20
-19.75727346225125
 11
12.65396307236065
 21
-16.70346393844011
 72
     1
 10
12.65396307236065
 20
-16.70346393844011
 11
11.46117037019425
 21
-16.70346393844011
 72
     1
 10
11.46117037019425
 20
-16.70346393844011
 11
11.46117037019425
 21
-18.01223944864535
 72
     1
 10
11.46117037019425
 20
-18.01223944864535
 11
10.22066595994127
 21
-16.70346393844011
 97
       10
330
2A9
330
2AA
330
2AB
330
2D7
330
2AC
330
2AD
330
2D6
330
2D9
330
2D8
330
2A8
 75
     1
 76
     2
 52
45.0
 41
0.1
 77
     0
 78
     1
 53
45.0
 43
62.7811309658083
 44
-72.3161373035813
 45
-0.1414213562373095
 46
0.0
 79
     0
 98
        1
 10
0.0
 20
0.0
  0
HATCH
  5
38D
330
5D
100
AcDbEntity
  8
1
  6
Continuous
 62
     2
100
AcDbHatch
 10
0.0
 20
0.0
 30
0.0
210
0.0
220
0.0
230
1.0
  2
CUSTOM24
 70
     0
 71
     1
 91
        1
 92
        1
 93
       12
 72
     1
 10
9.218871021005953
 20
-13.34427346226585
 11
9.218871021005953
 21
-16.39808298607693
 72
     1
 10
9.218871021005953
 20
-16.39808298607693
 11
8.026078318839467
 21
-16.39808298607693
 72
     1
 10
8.026078318839467
 20
-16.39808298607693
 11
8.026078318839467
 21
-15.26381087723325
 72
     1
 10
8.026078318839467
 20
-15.26381087723325
 11
6.97642074093207
 21
-15.26381087723325
 72
     1
 10
6.97642074093207
 20
-15.26381087723325
 11
6.97642074093207
 21
-16.39808298607693
 72
     1
 10
6.97642074093207
 20
-16.39808298607693
 11
5.783628038765471
 21
-16.39808298607693
 72
     1
 10
5.783628038765471
 20
-16.39808298607693
 11
5.783628038765471
 21
-13.34427346226585
 72
     1
 10
5.783628038765471
 20
-13.34427346226585
 11
6.97642074093207
 21
-13.34427346226585
 72
     1
 10
6.97642074093207
 20
-13.34427346226585
 11
6.97642074093207
 21
-14.41310679560041
 72
     1
 10
6.97642074093207
 20
-14.41310679560041
 11
8.026078318839467
 21
-14.41310679560041
 72
     1
 10
8.026078318839467
 20
-14.41310679560041
 11
8.026078318839467
 21
-13.34427346226585
 72
     1
 10
8.026078318839467
 20
-13.34427346226585
 11
9.218871021005953
 21
-13.34427346226585
 97
       12
330
2D1
330
2D0
330
2CF
330
2B7
330
2B8
330
2CE
330
2B9
330
2CD
330
2CC
330
2CB
330
2B5
330
2B6
 75
     1
 76
     2
 52
45.0
 41
0.1
 77
     0
 78
     1
 53
45.0
 43
62.7811309658083
 44
-72.3161373035813
 45
-0.1414213562373095
 46
0.0
 79
     0
 98
        1
 10
0.0
 20
0.0
  0
HATCH
  5
38E
330
5D
100
AcDbEntity
  8
1
  6
Continuous
 62
     2
100
AcDbHatch
 10
0.0
 20
0.0
 30
0.0
210
0.0
220
0.0
230
1.0
  2
CUSTOM25
 70
     0
 71
     1
 91
        1
 92
        1
 93
       12
 72
     1
 10
9.218871021005953
 20
-13.34427346226585
 11
9.218871021005953
 21
-16.39808298607693
 72
     1
 10
9.218871021005953
 20
-16.39808298607693
 11
8.026078318839467
 21
-16.39808298607693
 72
     1
 10
8.026078318839467
 20
-16.39808298607693
 11
8.026078318839467
 21
-15.26381087723325
 72
     1
 10
8.026078318839467
 20
-15.26381087723325
 11
6.97642074093207
 21
-15.26381087723325
 72
     1
 10
6.97642074093207
 20
-15.26381087723325
 11
6.97642074093207
 21
-16.39808298607693
 72
     1
 10
6.97642074093207
 20
-16.39808298607693
 11
5.783628038765471
 21
-16.39808298607693
 72
     1
 10
5.783628038765471
 20
-16.39808298607693
 11
5.783628038765471
 21
-13.34427346226585
 72
     1
 10
5.783628038765471
 20
-13.34427346226585
 11
6.97642074093207
 21
-13.34427346226585
 72
     1
 10
6.97642074093207
 20
-13.34427346226585
 11
6.97642074093207
 21
-14.41310679560041
 72
     1
 10
6.97642074093207
 20
-14.41310679560041
 11
8.026078318839467
 21
-14.41310679560041
 72
     1
 10
8.026078318839467
 20
-14.41310679560041
 11
8.026078318839467
 21
-13.34427346226585
 72
     1
 10
8.026078318839467
 20
-13.34427346226585
 11
9.218871021005953
 21
-13.34427346226585
 97
       12
330
2D1
330
2D0
330
2CF
330
2B7
330
2B8
330
2CE
330
2B9
330
2CD
330
2CC
330
2CB
330
2B5
330
2B6
 75
     1
 76
     2
 52
45.0
 41
0.1
 77
     0
 78
     1
 53
45.0
 43
62.7811309658083
 44
-72.3161373035813
 45
-0.1414213562373095
 46
0.0
 79
     0
 98
        1
 10
0.0
 20
0.0
  0
ENDBLK
  5
5F
330
5D
100
AcDbEntity
  8
0
100
AcDbBlockEnd
  0
BLOCK
  5
61
330
60
100
AcDbEntity
  8
0
100
AcDbBlockBegin
  2
_punkt
 70
     0
 10
121.0961748347947
 20
-27.05077346226756
 30
0.0
  3
_punkt
  1

  0
LINE
  5
38F
330
60
100
AcDbEntity
  8
1
  6
Continuous
 62
     2
100
AcDbLine
 10
121.0961748347948
 20
-27.05077346226756
 30
0.0
 11
121.0961748347948
 21
-32.05077346226705
 31
0.0
  0
LINE
  5
390
330
60
100
AcDbEntity
  8
1
  6
Continuous
 62
     2
100
AcDbLine
 10
121.0961748347948
 20
-27.05077346226756
 30
0.0
 11
126.0961748347924
 21
-27.05077346226756
 31
0.0
  0
ENDBLK
  5
62
330
60
100
AcDbEntity
  8
0
100
AcDbBlockEnd
  0
BLOCK
  5
66
330
63
100
AcDbEntity
  8
0
100
AcDbBlockBegin
  2
A3I_TD_PRF
 70
     0
 10
121.0961748347948
 20
-32.05077346226705
 30
0.0
  3
A3I_TD_PRF
  1

  0
INSERT
  5
64
330
63
100
AcDbEntity
  8
1
100
AcDbBlockReference
  2
_rahmen
 10
121.0961748347948
 20
-32.05077346226705
 30
0.0
  0
INSERT
  5
65
330
63
100
AcDbEntity
  8
1
100
AcDbBlockReference
  2
_punkt
 10
121.0961748347947
 20
-27.05077346226756
 30
0.0
  0
ENDBLK
  5
67
330
63
100
AcDbEntity
  8
0
100
AcDbBlockEnd
  0
BLOCK
  5
6C
330
68
100
AcDbEntity
  8
0
100
AcDbBlockBegin
  2
1
 70
     0
 10
0.0
 20
0.0
 30
0.0
  3
1
  1

  0
INSERT
  5
69
330
68
100
AcDbEntity
  8
0
100
AcDbBlockReference
  2
SA_Links1
 10
10.53367000000035
 20
99.35375682200001
 30
0.0
 41
5.0
 42
5.0
 43
5.0
  0
INSERT
  5
6A
330
68
100
AcDbEntity
  8
0
100
AcDbBlockReference
  2
Vordans1
 10
-201.4163549999219
 20
99.3537568220011
 30
0.0
 41
5.0
 42
5.0
 43
5.0
  0
INSERT
  5
6B
330
68
100
AcDbEntity
  8
0
100
AcDbBlockReference
  2
A3I_TD_PRF
 10
121.0961748347948
 20
-32.05077346226705
 30
0.0
  0
ENDBLK
  5
6D
330
68
100
AcDbEntity
  8
0
100
AcDbBlockEnd
  0
BLOCK
  5
EC
330
E5
100
AcDbEntity
  8
0
100
AcDbBlockBegin
  2
*D11
 70
     1
 10
0.0
 20
0.0
 30
0.0
  3
*D11
  1

  0
LINE
  5
E6
330
E5
100
AcDbEntity
  8
1
  6
Continuous
 62
     2
100
AcDbLine
 10
-18.64326599991978
 20
12.03984530754675
 30
0.0
 11
2.35673400008023
 21
12.03984530754675
 31
0.0
  0
LINE
  5
E7
330
E5
100
AcDbEntity
  8
1
  6
Continuous
 62
     2
100
AcDbLine
 10
-18.64326599991978
 20
31.83984530754675
 30
0.0
 11
-18.64326599991978
 21
11.73984530754675
 31
0.0
  0
LINE
  5
E8
330
E5
100
AcDbEntity
  8
1
  6
Continuous
 62
     2
100
AcDbLine
 10
2.35673400008023
 20
31.83984530754674
 30
0.0
 11
2.35673400008023
 21
11.73984530754675
 31
0.0
  0
SOLID
  5
E9
330
E5
100
AcDbEntity
  8
1
 62
     2
100
AcDbTrace
 10
-17.94326599991978
 20
12.13200205585793
 30
0.0
 11
-17.94326599991978
 21
11.94768855923557
 31
0.0
 12
-18.64326599991978
 22
12.03984530754675
 32
0.0
 13
-18.64326599991978
 23
12.03984530754675
 33
0.0
  0
SOLID
  5
EA
330
E5
100
AcDbEntity
  8
1
 62
     2
100
AcDbTrace
 10
1.65673400008023
 20
11.94768855923557
 30
0.0
 11
1.65673400008023
 21
12.13200205585793
 31
0.0
 12
2.35673400008023
 22
12.03984530754675
 32
0.0
 13
2.35673400008023
 23
12.03984530754675
 33
0.0
  0
MTEXT
  5
EB
330
E5
100
AcDbEntity
  8
1
 62
     3
100
AcDbMText
 10
-7.63118072059178
 20
12.33984530754675
 30
0.0
 40
0.7
 41
0.0
 71
     7
 72
     1
  1
21
  7
CONVERTER_11
 11
0.9999999999970619
 21
2.424068405545306E-6
 31
0.0
 73
     1
 44
0.60024009603842
  0
ENDBLK
  5
ED
330
E5
100
AcDbEntity
  8
0
100
AcDbBlockEnd
  0
BLOCK
  5
F7
330
F0
100
AcDbEntity
  8
0
100
AcDbBlockBegin
  2
*D12
 70
     1
 10
0.0
 20
0.0
 30
0.0
  3
*D12
  1

  0
LINE
  5
F1
330
F0
100
AcDbEntity
  8
1
  6
Continuous
 62
     2
100
AcDbLine
 10
4.45281597150383
 20
31.83984530754674
 30
0.0
 11
4.45281597150383
 21
18.08984530754674
 31
0.0
  0
LINE
  5
F2
330
F0
100
AcDbEntity
  8
1
  6
Continuous
 62
     2
100
AcDbLine
 10
0.62879282360919
 20
31.83984530754674
 30
0.0
 11
4.75281597150383
 21
31.83984530754674
 31
0.0
  0
LINE
  5
F3
330
F0
100
AcDbEntity
  8
1
  6
Continuous
 62
     2
100
AcDbLine
 10
-1.14326599991977
 20
18.08984530754674
 30
0.0
 11
4.75281597150383
 21
18.08984530754674
 31
0.0
  0
SOLID
  5
F4
330
F0
100
AcDbEntity
  8
1
 62
     2
100
AcDbTrace
 10
4.54497271981501
 20
31.13984530754674
 30
0.0
 11
4.36065922319266
 21
31.13984530754674
 31
0.0
 12
4.45281597150383
 22
31.83984530754674
 32
0.0
 13
4.45281597150383
 23
31.83984530754674
 33
0.0
  0
SOLID
  5
F5
330
F0
100
AcDbEntity
  8
1
 62
     2
100
AcDbTrace
 10
4.36065922319266
 20
18.78984530754674
 30
0.0
 11
4.54497271981501
 21
18.78984530754674
 31
0.0
 12
4.45281597150383
 22
18.08984530754674
 32
0.0
 13
4.45281597150383
 23
18.08984530754674
 33
0.0
  0
MTEXT
  5
F6
330
F0
100
AcDbEntity
  8
1
 62
     3
100
AcDbMText
 10
4.08281597150383
 20
22.87613923249439
 30
0.0
 40
0.7
 41
0.0
 71
     7
 72
     1
  1
13,8
  7
CONVERTER_11
 11
0.0
 21
1.0
 31
0.0
 73
     1
 44
0.60024009603842
  0
ENDBLK
  5
F8
330
F0
100
AcDbEntity
  8
0
100
AcDbBlockEnd
  0
BLOCK
  5
102
330
FB
100
AcDbEntity
  8
0
100
AcDbBlockBegin
  2
*D13
 70
     1
 10
0.0
 20
0.0
 30
0.0
  3
*D13
  1

  0
LINE
  5
FC
330
FB
100
AcDbEntity
  8
1
  6
Continuous
 62
     2
100
AcDbLine
 10
6.42281597150377
 20
14.44378267195404
 30
0.0
 11
6.42281597150377
 21
32.58984530754674
 31
0.0
  0
LINE
  5
FD
330
FB
100
AcDbEntity
  8
1
  6
Continuous
 62
     2
100
AcDbLine
 10
-4.84326599991977
 20
14.44378267195404
 30
0.0
 11
6.72281597150377
 21
14.44378267195404
 31
0.0
  0
LINE
  5
FE
330
FB
100
AcDbEntity
  8
1
  6
Continuous
 62
     2
100
AcDbLine
 10
-2.14326599991978
 20
32.58984530754674
 30
0.0
 11
6.72281597150377
 21
32.58984530754674
 31
0.0
  0
SOLID
  5
FF
330
FB
100
AcDbEntity
  8
1
 62
     2
100
AcDbTrace
 10
6.33065922319259
 20
15.14378267195404
 30
0.0
 11
6.51497271981495
 21
15.14378267195404
 31
0.0
 12
6.42281597150377
 22
14.44378267195404
 32
0.0
 13
6.42281597150377
 23
14.44378267195404
 33
0.0
  0
SOLID
  5
100
330
FB
100
AcDbEntity
  8
1
 62
     2
100
AcDbTrace
 10
6.51497271981495
 20
31.88984530754674
 30
0.0
 11
6.33065922319259
 21
31.88984530754674
 31
0.0
 12
6.42281597150377
 22
32.58984530754674
 32
0.0
 13
6.42281597150377
 23
32.58984530754674
 33
0.0
  0
MTEXT
  5
101
330
FB
100
AcDbEntity
  8
1
 62
     3
100
AcDbMText
 10
6.05281597150377
 20
22.9811392324944
 30
0.0
 40
0.7
 41
0.0
 71
     7
 72
     1
  1
18,1
  7
CONVERTER_11
 11
0.0
 21
1.0
 31
0.0
 73
     1
 44
0.60024009603842
  0
ENDBLK
  5
103
330
FB
100
AcDbEntity
  8
0
100
AcDbBlockEnd
  0
BLOCK
  5
23B
330
234
100
AcDbEntity
  8
0
100
AcDbBlockBegin
  2
*D14
 70
     1
 10
0.0
 20
0.0
 30
0.0
  3
*D14
  1

  0
LINE
  5
235
330
234
100
AcDbEntity
  8
1
  6
Continuous
 62
     2
100
AcDbLine
 10
-23.48327100101994
 20
33.83984530754695
 30
0.0
 11
-39.48327100101996
 21
33.83984530754695
 31
0.0
  0
LINE
  5
236
330
234
100
AcDbEntity
  8
1
  6
Continuous
 62
     2
100
AcDbLine
 10
-23.48327100101994
 20
31.83984530754696
 30
0.0
 11
-23.48327100101994
 21
34.13984530754695
 31
0.0
  0
LINE
  5
237
330
234
100
AcDbEntity
  8
1
  6
Continuous
 62
     2
100
AcDbLine
 10
-39.48327100101996
 20
31.83984530754697
 30
0.0
 11
-39.48327100101996
 21
34.13984530754695
 31
0.0
  0
SOLID
  5
238
330
234
100
AcDbEntity
  8
1
 62
     2
100
AcDbTrace
 10
-24.18327100101994
 20
33.74768855923578
 30
0.0
 11
-24.18327100101994
 21
33.93200205585813
 31
0.0
 12
-23.48327100101994
 22
33.83984530754695
 32
0.0
 13
-23.48327100101994
 23
33.83984530754695
 33
0.0
  0
SOLID
  5
239
330
234
100
AcDbEntity
  8
1
 62
     2
100
AcDbTrace
 10
-38.78327100101995
 20
33.93200205585813
 30
0.0
 11
-38.78327100101995
 21
33.74768855923578
 31
0.0
 12
-39.48327100101996
 22
33.83984530754695
 32
0.0
 13
-39.48327100101996
 23
33.83984530754695
 33
0.0
  0
MTEXT
  5
23A
330
234
100
AcDbEntity
  8
1
 62
     3
100
AcDbMText
 10
-31.71822993853344
 20
34.13984530754695
 30
0.0
 40
0.7
 41
0.0
 71
     7
 72
     1
  1
16
  7
CONVERTER_11
 11
0.9999999999970619
 21
2.424068405545306E-6
 31
0.0
 73
     1
 44
0.60024009603842
  0
ENDBLK
  5
23C
330
234
100
AcDbEntity
  8
0
100
AcDbBlockEnd
  0
BLOCK
  5
246
330
23F
100
AcDbEntity
  8
0
100
AcDbBlockBegin
  2
*D15
 70
     1
 10
0.0
 20
0.0
 30
0.0
  3
*D15
  1

  0
LINE
  5
240
330
23F
100
AcDbEntity
  8
1
  6
Continuous
 62
     2
100
AcDbLine
 10
-40.28327100101994
 20
12.03984530754689
 30
0.0
 11
-22.68327100101995
 21
12.03984530754689
 31
0.0
  0
LINE
  5
241
330
23F
100
AcDbEntity
  8
1
  6
Continuous
 62
     2
100
AcDbLine
 10
-40.28327100101994
 20
21.38984530754698
 30
0.0
 11
-40.28327100101994
 21
11.73984530754689
 31
0.0
  0
LINE
  5
242
330
23F
100
AcDbEntity
  8
1
  6
Continuous
 62
     2
100
AcDbLine
 10
-22.68327100101995
 20
21.38984530754699
 30
0.0
 11
-22.68327100101995
 21
11.73984530754689
 31
0.0
  0
SOLID
  5
243
330
23F
100
AcDbEntity
  8
1
 62
     2
100
AcDbTrace
 10
-39.58327100101994
 20
12.13200205585807
 30
0.0
 11
-39.58327100101994
 21
11.94768855923571
 31
0.0
 12
-40.28327100101994
 22
12.03984530754689
 32
0.0
 13
-40.28327100101994
 23
12.03984530754689
 33
0.0
  0
SOLID
  5
244
330
23F
100
AcDbEntity
  8
1
 62
     2
100
AcDbTrace
 10
-23.38327100101995
 20
11.94768855923571
 30
0.0
 11
-23.38327100101995
 21
12.13200205585807
 31
0.0
 12
-22.68327100101995
 22
12.03984530754689
 32
0.0
 13
-22.68327100101995
 23
12.03984530754689
 33
0.0
  0
MTEXT
  5
245
330
23F
100
AcDbEntity
  8
1
 62
     3
100
AcDbMText
 10
-32.83390861503803
 20
12.40984530754689
 30
0.0
 40
0.7
 41
0.0
 71
     7
 72
     1
  1
17,6
  7
CONVERTER_11
 11
0.9999999999970619
 21
2.424068405545306E-6
 31
0.0
 73
     1
 44
0.60024009603842
  0
ENDBLK
  5
247
330
23F
100
AcDbEntity
  8
0
100
AcDbBlockEnd
  0
ENDSEC
  0
SECTION
  2
ENTITIES
  0
INSERT
  5
6E
330
1F
100
AcDbEntity
  8
1
100
AcDbBlockReference
  2
1
 10
0.0
 20
0.0
 30
0.0
  0
ENDSEC
  0
SECTION
  2
OBJECTS
  0
DICTIONARY
  5
C
330
0
100
AcDbDictionary
281
     1
  3
ACAD_GROUP
350
D
  3
ACAD_LAYOUT
350
1A
  3
ACAD_MATERIAL
350
3B
  3
ACAD_MLEADERSTYLE
350
3B8
  3
ACAD_MLINESTYLE
350
17
  3
ACAD_PLOTSETTINGS
350
19
  3
ACAD_PLOTSTYLENAME
350
E
  3
ACAD_TABLESTYLE
350
3B7
  3
ACAD_VISUALSTYLE
350
2A
  0
DICTIONARY
  5
D
102
{ACAD_REACTORS
330
C
102
}
330
C
100
AcDbDictionary
281
     1
  0
DICTIONARY
  5
1A
102
{ACAD_REACTORS
330
C
102
}
330
C
100
AcDbDictionary
281
     1
  3
Layout1
350
1E
  3
Layout2
350
26
  3
Model
350
22
  0
DICTIONARY
  5
3B
102
{ACAD_REACTORS
330
C
102
}
330
C
100
AcDbDictionary
281
     1
  3
ByBlock
350
3D
  3
ByLayer
350
3C
  3
Global
350
3E
  0
DICTIONARY
  5
3B8
102
{ACAD_REACTORS
330
C
102
}
330
C
100
AcDbDictionary
281
     1
  0
DICTIONARY
  5
17
102
{ACAD_REACTORS
330
C
102
}
330
C
100
AcDbDictionary
281
     1
  3
Standard
350
18
  0
DICTIONARY
  5
19
102
{ACAD_REACTORS
330
C
102
}
330
C
100
AcDbDictionary
281
     1
  0
ACDBDICTIONARYWDFLT
  5
E
102
{ACAD_REACTORS
330
C
102
}
330
C
100
AcDbDictionary
281
     1
  3
Normal
350
F
100
AcDbDictionaryWithDefault
340
F
  0
DICTIONARY
  5
3B7
102
{ACAD_REACTORS
330
C
102
}
330
C
100
AcDbDictionary
281
     1
  0
DICTIONARY
  5
2A
102
{ACAD_REACTORS
330
C
102
}
330
C
100
AcDbDictionary
281
     1
  3
2dWireframe
350
2F
  3
3D Hidden
350
31
  3
3dWireframe
350
30
  3
Basic
350
32
  3
Brighten
350
36
  3
ColorChange
350
3A
  3
Conceptual
350
34
  3
Dim
350
35
  3
Facepattern
350
39
  3
Flat
350
2B
  3
FlatWithEdges
350
2C
  3
Gouraud
350
2D
  3
GouraudWithEdges
350
2E
  3
Linepattern
350
38
  3
Realistic
350
33
  3
Thicken
350
37
  0
LAYOUT
  5
1E
102
{ACAD_REACTORS
330
1A
102
}
330
1A
100
AcDbPlotSettings
  1

  2
none_device
  4

  6

 40
0.0
 41
0.0
 42
0.0
 43
0.0
 44
0.0
 45
0.0
 46
0.0
 47
0.0
 48
0.0
 49
0.0
140
0.0
141
0.0
142
1.0
143
1.0
 70
   688
 72
     0
 73
     0
 74
     5
  7

 75
    16
 76
     0
 77
     2
 78
   300
147
1.0
148
0.0
149
0.0
100
AcDbLayout
  1
Layout1
 70
     1
 71
     1
 10
0.0
 20
0.0
 11
12.0
 21
9.0
 12
0.0
 22
0.0
 32
0.0
 14
1.00000000000000E+20
 24
1.00000000000000E+20
 34
1.00000000000000E+20
 15
-1.00000000000000E+20
 25
-1.00000000000000E+20
 35
-1.00000000000000E+20
146
0.0
 13
0.0
 23
0.0
 33
0.0
 16
1.0
 26
0.0
 36
0.0
 17
0.0
 27
1.0
 37
0.0
 76
     0
330
1B
  0
LAYOUT
  5
26
102
{ACAD_REACTORS
330
1A
102
}
330
1A
100
AcDbPlotSettings
  1

  2
none_device
  4

  6

 40
0.0
 41
0.0
 42
0.0
 43
0.0
 44
0.0
 45
0.0
 46
0.0
 47
0.0
 48
0.0
 49
0.0
140
0.0
141
0.0
142
1.0
143
1.0
 70
   688
 72
     0
 73
     0
 74
     5
  7

 75
    16
 76
     0
 77
     2
 78
   300
147
1.0
148
0.0
149
0.0
100
AcDbLayout
  1
Layout2
 70
     1
 71
     2
 10
0.0
 20
0.0
 11
0.0
 21
0.0
 12
0.0
 22
0.0
 32
0.0
 14
0.0
 24
0.0
 34
0.0
 15
0.0
 25
0.0
 35
0.0
146
0.0
 13
0.0
 23
0.0
 33
0.0
 16
1.0
 26
0.0
 36
0.0
 17
0.0
 27
1.0
 37
0.0
 76
     0
330
23
  0
LAYOUT
  5
22
102
{ACAD_REACTORS
330
1A
102
}
330
1A
100
AcDbPlotSettings
  1

  2
none_device
  4

  6

 40
0.0
 41
0.0
 42
0.0
 43
0.0
 44
0.0
 45
0.0
 46
0.0
 47
0.0
 48
0.0
 49
0.0
140
0.0
141
0.0
142
1.0
143
1.0
 70
  1712
 72
     0
 73
     0
 74
     0
  7

 75
     0
 76
     0
 77
     2
 78
   300
147
1.0
148
0.0
149
0.0
100
AcDbLayout
  1
Model
 70
     1
 71
     0
 10
0.0
 20
0.0
 11
12.0
 21
9.0
 12
0.0
 22
0.0
 32
0.0
 14
-293.9038251652061
 24
-32.05077346226705
 34
0.0
 15
126.0961748347924
 25
264.949226537733
 35
0.0
146
0.0
 13
0.0
 23
0.0
 33
0.0
 16
1.0
 26
0.0
 36
0.0
 17
0.0
 27
1.0
 37
0.0
 76
     0
330
1F
331
29
  0
MATERIAL
  5
3D
102
{ACAD_REACTORS
330
3B
102
}
102
{ACAD_XDICTIONARY
360
3B3
102
}
330
3B
100
AcDbMaterial
  1
ByBlock
  0
MATERIAL
  5
3C
102
{ACAD_REACTORS
330
3B
102
}
102
{ACAD_XDICTIONARY
360
3B1
102
}
330
3B
100
AcDbMaterial
  1
ByLayer
  0
MATERIAL
  5
3E
102
{ACAD_REACTORS
330
3B
102
}
102
{ACAD_XDICTIONARY
360
3B5
102
}
330
3B
100
AcDbMaterial
  1
Global
  0
MLINESTYLE
  5
18
102
{ACAD_REACTORS
330
17
102
}
330
17
100
AcDbMlineStyle
  2
Standard
 70
     0
  3

 62
   256
 51
90.0
 52
90.0
 71
     2
 49
0.5
 62
   256
  6
BYLAYER
 49
-0.5
 62
   256
  6
BYLAYER
  0
ACDBPLACEHOLDER
  5
F
102
{ACAD_REACTORS
330
E
102
}
330
E
  0
VISUALSTYLE
  5
2F
102
{ACAD_REACTORS
330
2A
102
}
102
{ACAD_XDICTIONARY
360
399
102
}
330
2A
100
AcDbVisualStyle
  2
2dWireframe
 70
     4
 71
     0
 72
     2
 73
     0
 90
        0
 40
-0.6
 41
-30.0
 62
     5
 63
     7
421
 16777215
 74
     1
 91
        4
 64
     7
 65
   257
 75
     1
175
     1
 42
1.0
 92
        0
 66
   257
 43
1.0
 76
     1
 77
     6
 78
     2
 67
     7
 79
     5
170
     0
171
     0
290
     0
174
     0
 93
        1
 44
0.0
173
     0
291
     0
 45
0.0
1001
ACAD
1000
AcDbSavedByObjectVersion
1070
     0
  0
VISUALSTYLE
  5
31
102
{ACAD_REACTORS
330
2A
102
}
102
{ACAD_XDICTIONARY
360
39D
102
}
330
2A
100
AcDbVisualStyle
  2
3D Hidden
 70
     6
 71
     1
 72
     2
 73
     2
 90
        0
 40
-0.6
 41
-30.0
 62
     5
 63
     7
421
 16777215
 74
     2
 91
        2
 64
     7
 65
   257
 75
     2
175
     1
 42
40.0
 92
        0
 66
   257
 43
1.0
 76
     1
 77
     6
 78
     2
 67
     7
 79
     3
170
     0
171
     0
290
     0
174
     0
 93
        1
 44
0.0
173
     0
291
     0
 45
0.0
1001
ACAD
1000
AcDbSavedByObjectVersion
1070
     0
  0
VISUALSTYLE
  5
30
102
{ACAD_REACTORS
330
2A
102
}
102
{ACAD_XDICTIONARY
360
39B
102
}
330
2A
100
AcDbVisualStyle
  2
3dWireframe
 70
     5
 71
     0
 72
     2
 73
     0
 90
        0
 40
-0.6
 41
-30.0
 62
     5
 63
     7
421
 16777215
 74
     1
 91
        4
 64
     7
 65
   257
 75
     1
175
     1
 42
1.0
 92
        0
 66
   257
 43
1.0
 76
     1
 77
     6
 78
     2
 67
     7
 79
     5
170
     0
171
     0
290
     0
174
     0
 93
        1
 44
0.0
173
     0
291
     0
 45
0.0
1001
ACAD
1000
AcDbSavedByObjectVersion
1070
     0
  0
VISUALSTYLE
  5
32
102
{ACAD_REACTORS
330
2A
102
}
102
{ACAD_XDICTIONARY
360
39F
102
}
330
2A
100
AcDbVisualStyle
  2
Basic
 70
     7
 71
     1
 72
     0
 73
     1
 90
        0
 40
-0.6
 41
-30.0
 62
     5
 63
     7
421
 16777215
 74
     0
 91
        4
 64
     7
 65
   257
 75
     1
175
     1
 42
1.0
 92
        8
 66
     7
 43
1.0
 76
     1
 77
     6
 78
     2
 67
     7
 79
     5
170
     0
171
     0
290
     0
174
     0
 93
        1
 44
0.0
173
     0
291
     1
 45
0.0
1001
ACAD
1000
AcDbSavedByObjectVersion
1070
     0
  0
VISUALSTYLE
  5
36
102
{ACAD_REACTORS
330
2A
102
}
102
{ACAD_XDICTIONARY
360
3A7
102
}
330
2A
100
AcDbVisualStyle
  2
Brighten
 70
    12
 71
     2
 72
     2
 73
     0
 90
        0
 40
-0.6
 41
-30.0
 62
     5
 63
     7
421
 16777215
 74
     1
 91
        4
 64
     7
 65
   257
 75
     1
175
     1
 42
1.0
 92
        8
 66
     7
 43
1.0
 76
     1
 77
     6
 78
     2
 67
     7
 79
     5
170
     0
171
     0
290
     0
174
     0
 93
        1
 44
50.0
173
     0
291
     1
 45
0.0
1001
ACAD
1000
AcDbSavedByObjectVersion
1070
     0
  0
VISUALSTYLE
  5
3A
102
{ACAD_REACTORS
330
2A
102
}
102
{ACAD_XDICTIONARY
360
3AF
102
}
330
2A
100
AcDbVisualStyle
  2
ColorChange
 70
    16
 71
     2
 72
     2
 73
     3
 90
        0
 40
-0.6
 41
-30.0
 62
     5
 63
     8
421
  8421504
 74
     1
 91
        4
 64
     7
 65
   257
 75
     1
175
     1
 42
1.0
 92
        8
 66
     8
424
  8421504
 43
1.0
 76
     1
 77
     6
 78
     2
 67
     7
 79
     5
170
     0
171
     0
290
     0
174
     0
 93
        1
 44
0.0
173
     0
291
     1
 45
0.0
1001
ACAD
1000
AcDbSavedByObjectVersion
1070
     0
  0
VISUALSTYLE
  5
34
102
{ACAD_REACTORS
330
2A
102
}
102
{ACAD_XDICTIONARY
360
3A3
102
}
330
2A
100
AcDbVisualStyle
  2
Conceptual
 70
     9
 71
     3
 72
     2
 73
     0
 90
        0
 40
-0.6
 41
-30.0
 62
     5
 63
     7
421
 16777215
 74
     2
 91
        2
 64
     7
 65
   257
 75
     1
175
     1
 42
40.0
 92
        8
 66
     7
 43
1.0
 76
     1
 77
     6
 78
     2
 67
     7
 79
     3
170
     0
171
     0
290
     0
174
     0
 93
        1
 44
0.0
173
     0
291
     0
 45
0.0
1001
ACAD
1000
AcDbSavedByObjectVersion
1070
     0
  0
VISUALSTYLE
  5
35
102
{ACAD_REACTORS
330
2A
102
}
102
{ACAD_XDICTIONARY
360
3A5
102
}
330
2A
100
AcDbVisualStyle
  2
Dim
 70
    11
 71
     2
 72
     2
 73
     0
 90
        0
 40
-0.6
 41
-30.0
 62
     5
 63
     7
421
 16777215
 74
     1
 91
        4
 64
     7
 65
   257
 75
     1
175
     1
 42
1.0
 92
        8
 66
     7
 43
1.0
 76
     1
 77
     6
 78
     2
 67
     7
 79
     5
170
     0
171
     0
290
     0
174
     0
 93
        1
 44
-50.0
173
     0
291
     1
 45
0.0
1001
ACAD
1000
AcDbSavedByObjectVersion
1070
     0
  0
VISUALSTYLE
  5
39
102
{ACAD_REACTORS
330
2A
102
}
102
{ACAD_XDICTIONARY
360
3AD
102
}
330
2A
100
AcDbVisualStyle
  2
Facepattern
 70
    15
 71
     2
 72
     2
 73
     0
 90
        0
 40
-0.6
 41
-30.0
 62
     5
 63
     7
421
 16777215
 74
     1
 91
        4
 64
     7
 65
   257
 75
     1
175
     1
 42
1.0
 92
        8
 66
     7
 43
1.0
 76
     1
 77
     6
 78
     2
 67
     7
 79
     5
170
     0
171
     0
290
     0
174
     0
 93
        1
 44
0.0
173
     0
291
     1
 45
0.0
1001
ACAD
1000
AcDbSavedByObjectVersion
1070
     0
  0
VISUALSTYLE
  5
2B
102
{ACAD_REACTORS
330
2A
102
}
102
{ACAD_XDICTIONARY
360
391
102
}
330
2A
100
AcDbVisualStyle
  2
Flat
 70
     0
 71
     2
 72
     1
 73
     1
 90
        2
 40
-0.6
 41
30.0
 62
     5
 63
     7
421
 16777215
 74
     0
 91
        4
 64
     7
 65
   257
 75
     1
175
     1
 42
1.0
 92
        8
 66
     7
 43
1.0
 76
     1
 77
     6
 78
     2
 67
     7
 79
     5
170
     0
171
     0
290
     0
174
     0
 93
       13
 44
0.0
173
     0
291
     1
 45
0.0
1001
ACAD
1000
AcDbSavedByObjectVersion
1070
     0
  0
VISUALSTYLE
  5
2C
102
{ACAD_REACTORS
330
2A
102
}
102
{ACAD_XDICTIONARY
360
393
102
}
330
2A
100
AcDbVisualStyle
  2
FlatWithEdges
 70
     1
 71
     2
 72
     1
 73
     1
 90
        2
 40
-0.6
 41
30.0
 62
     5
 63
     7
421
 16777215
 74
     1
 91
        4
 64
     7
 65
   257
 75
     1
175
     1
 42
1.0
 92
        0
 66
   257
 43
1.0
 76
     1
 77
     6
 78
     2
 67
     7
 79
     5
170
     0
171
     0
290
     0
174
     0
 93
       13
 44
0.0
173
     0
291
     1
 45
0.0
1001
ACAD
1000
AcDbSavedByObjectVersion
1070
     0
  0
VISUALSTYLE
  5
2D
102
{ACAD_REACTORS
330
2A
102
}
102
{ACAD_XDICTIONARY
360
395
102
}
330
2A
100
AcDbVisualStyle
  2
Gouraud
 70
     2
 71
     2
 72
     2
 73
     1
 90
        2
 40
-0.6
 41
30.0
 62
     5
 63
     7
421
 16777215
 74
     0
 91
        4
 64
     7
 65
   257
 75
     1
175
     1
 42
1.0
 92
        0
 66
     7
 43
1.0
 76
     1
 77
     6
 78
     2
 67
     7
 79
     5
170
     0
171
     0
290
     0
174
     0
 93
       13
 44
0.0
173
     0
291
     1
 45
0.0
1001
ACAD
1000
AcDbSavedByObjectVersion
1070
     0
  0
VISUALSTYLE
  5
2E
102
{ACAD_REACTORS
330
2A
102
}
102
{ACAD_XDICTIONARY
360
397
102
}
330
2A
100
AcDbVisualStyle
  2
GouraudWithEdges
 70
     3
 71
     2
 72
     2
 73
     1
 90
        2
 40
-0.6
 41
30.0
 62
     5
 63
     7
421
 16777215
 74
     1
 91
        4
 64
     7
 65
   257
 75
     1
175
     1
 42
1.0
 92
        0
 66
   257
 43
1.0
 76
     1
 77
     6
 78
     2
 67
     7
 79
     5
170
     0
171
     0
290
     0
174
     0
 93
       13
 44
0.0
173
     0
291
     1
 45
0.0
1001
ACAD
1000
AcDbSavedByObjectVersion
1070
     0
  0
VISUALSTYLE
  5
38
102
{ACAD_REACTORS
330
2A
102
}
102
{ACAD_XDICTIONARY
360
3AB
102
}
330
2A
100
AcDbVisualStyle
  2
Linepattern
 70
    14
 71
     2
 72
     2
 73
     0
 90
        0
 40
-0.6
 41
-30.0
 62
     5
 63
     7
421
 16777215
 74
     1
 91
        4
 64
     7
 65
   257
 75
     7
175
     7
 42
1.0
 92
        8
 66
     7
 43
1.0
 76
     1
 77
     6
 78
     2
 67
     7
 79
     5
170
     0
171
     0
290
     0
174
     0
 93
        1
 44
0.0
173
     0
291
     1
 45
0.0
1001
ACAD
1000
AcDbSavedByObjectVersion
1070
     0
  0
VISUALSTYLE
  5
33
102
{ACAD_REACTORS
330
2A
102
}
102
{ACAD_XDICTIONARY
360
3A1
102
}
330
2A
100
AcDbVisualStyle
  2
Realistic
 70
     8
 71
     2
 72
     2
 73
     0
 90
        0
 40
-0.6
 41
-30.0
 62
     5
 63
     7
421
 16777215
 74
     1
 91
        0
 64
     7
 65
   257
 75
     1
175
     1
 42
1.0
 92
        8
 66
     8
424
  7895160
 43
1.0
 76
     1
 77
     6
 78
     2
 67
     7
 79
     5
170
     0
171
     0
290
     0
174
     0
 93
       13
 44
0.0
173
     0
291
     0
 45
0.0
1001
ACAD
1000
AcDbSavedByObjectVersion
1070
     0
  0
VISUALSTYLE
  5
37
102
{ACAD_REACTORS
330
2A
102
}
102
{ACAD_XDICTIONARY
360
3A9
102
}
330
2A
100
AcDbVisualStyle
  2
Thicken
 70
    13
 71
     2
 72
     2
 73
     0
 90
        0
 40
-0.6
 41
-30.0
 62
     5
 63
     7
421
 16777215
 74
     1
 91
        4
 64
     7
 65
   257
 75
     1
175
     1
 42
1.0
 92
       12
 66
     7
 43
1.0
 76
     1
 77
     6
 78
     2
 67
     7
 79
     5
170
     0
171
     0
290
     0
174
     0
 93
        1
 44
0.0
173
     0
291
     1
 45
0.0
1001
ACAD
1000
AcDbSavedByObjectVersion
1070
     0
  0
DICTIONARY
  5
3B3
330
3D
100
AcDbDictionary
280
     1
281
     1
  3
ACAD_XREC_ROUNDTRIP
360
3B4
  0
DICTIONARY
  5
3B1
330
3C
100
AcDbDictionary
280
     1
281
     1
  3
ACAD_XREC_ROUNDTRIP
360
3B2
  0
DICTIONARY
  5
3B5
330
3E
100
AcDbDictionary
280
     1
281
     1
  3
ACAD_XREC_ROUNDTRIP
360
3B6
  0
DICTIONARY
  5
399
330
2F
100
AcDbDictionary
280
     1
281
     1
  3
ACAD_XREC_ROUNDTRIP
360
39A
  0
DICTIONARY
  5
39D
330
31
100
AcDbDictionary
280
     1
281
     1
  3
ACAD_XREC_ROUNDTRIP
360
39E
  0
DICTIONARY
  5
39B
330
30
100
AcDbDictionary
280
     1
281
     1
  3
ACAD_XREC_ROUNDTRIP
360
39C
  0
DICTIONARY
  5
39F
330
32
100
AcDbDictionary
280
     1
281
     1
  3
ACAD_XREC_ROUNDTRIP
360
3A0
  0
DICTIONARY
  5
3A7
330
36
100
AcDbDictionary
280
     1
281
     1
  3
ACAD_XREC_ROUNDTRIP
360
3A8
  0
DICTIONARY
  5
3AF
330
3A
100
AcDbDictionary
280
     1
281
     1
  3
ACAD_XREC_ROUNDTRIP
360
3B0
  0
DICTIONARY
  5
3A3
330
34
100
AcDbDictionary
280
     1
281
     1
  3
ACAD_XREC_ROUNDTRIP
360
3A4
  0
DICTIONARY
  5
3A5
330
35
100
AcDbDictionary
280
     1
281
     1
  3
ACAD_XREC_ROUNDTRIP
360
3A6
  0
DICTIONARY
  5
3AD
330
39
100
AcDbDictionary
280
     1
281
     1
  3
ACAD_XREC_ROUNDTRIP
360
3AE
  0
DICTIONARY
  5
391
330
2B
100
AcDbDictionary
280
     1
281
     1
  3
ACAD_XREC_ROUNDTRIP
360
392
  0
DICTIONARY
  5
393
330
2C
100
AcDbDictionary
280
     1
281
     1
  3
ACAD_XREC_ROUNDTRIP
360
394
  0
DICTIONARY
  5
395
330
2D
100
AcDbDictionary
280
     1
281
     1
  3
ACAD_XREC_ROUNDTRIP
360
396
  0
DICTIONARY
  5
397
330
2E
100
AcDbDictionary
280
     1
281
     1
  3
ACAD_XREC_ROUNDTRIP
360
398
  0
DICTIONARY
  5
3AB
330
38
100
AcDbDictionary
280
     1
281
     1
  3
ACAD_XREC_ROUNDTRIP
360
3AC
  0
DICTIONARY
  5
3A1
330
33
100
AcDbDictionary
280
     1
281
     1
  3
ACAD_XREC_ROUNDTRIP
360
3A2
  0
DICTIONARY
  5
3A9
330
37
100
AcDbDictionary
280
     1
281
     1
  3
ACAD_XREC_ROUNDTRIP
360
3AA
  0
XRECORD
  5
3B4
102
{ACAD_REACTORS
330
3B3
102
}
330
3B3
100
AcDbXrecord
280
     1
102
MATERIAL
148
0.0
149
0.0
149
0.0
 93
        0
 94
      127
282
     0
 72
     1
 77
     1
171
     1
175
     1
179
     1
273
     0
  0
XRECORD
  5
3B2
102
{ACAD_REACTORS
330
3B1
102
}
330
3B1
100
AcDbXrecord
280
     1
102
MATERIAL
148
0.0
149
0.0
149
0.0
 93
        0
 94
      127
282
     0
 72
     1
 77
     1
171
     1
175
     1
179
     1
273
     0
  0
XRECORD
  5
3B6
102
{ACAD_REACTORS
330
3B5
102
}
330
3B5
100
AcDbXrecord
280
     1
102
MATERIAL
148
0.0
149
0.0
149
0.0
 93
        0
 94
      127
282
     0
 72
     1
 77
     1
171
     1
175
     1
179
     1
273
     0
  0
XRECORD
  5
39A
102
{ACAD_REACTORS
330
399
102
}
330
399
100
AcDbXrecord
280
     1
102
RTVSPropertyOp0
 70
     1
102
RTVSPropertyOp1
 70
     1
102
RTVSPropertyOp2
 70
     1
102
RTVSPropertyOp3
 70
     1
102
RTVSPropertyOp4
 70
     1
102
RTVSPropertyOp5
 70
     1
102
RTVSPropertyOp6
 70
     1
102
RTVSPropertyOp7
 70
     1
102
RTVSPropertyOp8
 70
     1
102
RTVSPropertyOp9
 70
     1
102
RTVSPropertyOp10
 70
     1
102
RTVSPropertyOp11
 70
     1
102
RTVSPropertyOp12
 70
     1
102
RTVSPropertyOp13
 70
     1
102
RTVSPropertyOp14
 70
     1
102
RTVSPropertyOp15
 70
     1
102
RTVSPropertyOp16
 70
     1
102
RTVSPropertyOp17
 70
     1
102
RTVSPropertyOp18
 70
     1
102
RTVSPropertyOp19
 70
     1
102
RTVSPropertyOp20
 70
     1
102
RTVSPropertyOp21
 70
     1
102
RTVSPropertyOp22
 70
     1
102
RTVSPropertyOp23
 70
     1
102
RTVSPropertyOp24
 70
     1
102
RTVSPropertyOp25
 70
     1
102
RTVSPropertyOp26
 70
     1
102
RTVSPropertyOp27
 70
     1
102
RTVSPropertyOp28
 70
     1
102
RTVSPropertyOp29
 70
     1
102
RTVSPropertyOp30
 70
     1
102
RTVSPropertyOp31
 70
     1
102
RTVSPropertyOp32
 70
     1
  0
XRECORD
  5
39E
102
{ACAD_REACTORS
330
39D
102
}
330
39D
100
AcDbXrecord
280
     1
102
RTVSPropertyOp0
 70
     1
102
RTVSPropertyOp1
 70
     1
102
RTVSPropertyOp2
 70
     1
102
RTVSPropertyOp3
 70
     1
102
RTVSPropertyOp4
 70
     1
102
RTVSPropertyOp5
 70
     1
102
RTVSPropertyOp6
 70
     1
102
RTVSPropertyOp7
 70
     1
102
RTVSPropertyOp8
 70
     1
102
RTVSPropertyOp9
 70
     1
102
RTVSPropertyOp10
 70
     1
102
RTVSPropertyOp11
 70
     1
102
RTVSPropertyOp12
 70
     1
102
RTVSPropertyOp13
 70
     1
102
RTVSPropertyOp14
 70
     1
102
RTVSPropertyOp15
 70
     1
102
RTVSPropertyOp16
 70
     1
102
RTVSPropertyOp17
 70
     1
102
RTVSPropertyOp18
 70
     1
102
RTVSPropertyOp19
 70
     1
102
RTVSPropertyOp20
 70
     1
102
RTVSPropertyOp21
 70
     1
102
RTVSPropertyOp22
 70
     1
102
RTVSPropertyOp23
 70
     1
102
RTVSPropertyOp24
 70
     1
102
RTVSPropertyOp25
 70
     1
102
RTVSPropertyOp26
 70
     1
102
RTVSPropertyOp27
 70
     1
102
RTVSPropertyOp28
 70
     1
102
RTVSPropertyOp29
 70
     1
102
RTVSPropertyOp30
 70
     1
102
RTVSPropertyOp31
 70
     1
102
RTVSPropertyOp32
 70
     1
  0
XRECORD
  5
39C
102
{ACAD_REACTORS
330
39B
102
}
330
39B
100
AcDbXrecord
280
     1
102
RTVSPropertyOp0
 70
     1
102
RTVSPropertyOp1
 70
     1
102
RTVSPropertyOp2
 70
     1
102
RTVSPropertyOp3
 70
     1
102
RTVSPropertyOp4
 70
     1
102
RTVSPropertyOp5
 70
     1
102
RTVSPropertyOp6
 70
     1
102
RTVSPropertyOp7
 70
     1
102
RTVSPropertyOp8
 70
     1
102
RTVSPropertyOp9
 70
     1
102
RTVSPropertyOp10
 70
     1
102
RTVSPropertyOp11
 70
     1
102
RTVSPropertyOp12
 70
     1
102
RTVSPropertyOp13
 70
     1
102
RTVSPropertyOp14
 70
     1
102
RTVSPropertyOp15
 70
     1
102
RTVSPropertyOp16
 70
     1
102
RTVSPropertyOp17
 70
     1
102
RTVSPropertyOp18
 70
     1
102
RTVSPropertyOp19
 70
     1
102
RTVSPropertyOp20
 70
     1
102
RTVSPropertyOp21
 70
     1
102
RTVSPropertyOp22
 70
     1
102
RTVSPropertyOp23
 70
     1
102
RTVSPropertyOp24
 70
     1
102
RTVSPropertyOp25
 70
     1
102
RTVSPropertyOp26
 70
     1
102
RTVSPropertyOp27
 70
     1
102
RTVSPropertyOp28
 70
     1
102
RTVSPropertyOp29
 70
     1
102
RTVSPropertyOp30
 70
     1
102
RTVSPropertyOp31
 70
     1
102
RTVSPropertyOp32
 70
     1
  0
XRECORD
  5
3A0
102
{ACAD_REACTORS
330
39F
102
}
330
39F
100
AcDbXrecord
280
     1
102
RTVSPropertyOp0
 70
     1
102
RTVSPropertyOp1
 70
     1
102
RTVSPropertyOp2
 70
     1
102
RTVSPropertyOp3
 70
     1
102
RTVSPropertyOp4
 70
     1
102
RTVSPropertyOp5
 70
     1
102
RTVSPropertyOp6
 70
     1
102
RTVSPropertyOp7
 70
     1
102
RTVSPropertyOp8
 70
     1
102
RTVSPropertyOp9
 70
     1
102
RTVSPropertyOp10
 70
     1
102
RTVSPropertyOp11
 70
     1
102
RTVSPropertyOp12
 70
     1
102
RTVSPropertyOp13
 70
     1
102
RTVSPropertyOp14
 70
     1
102
RTVSPropertyOp15
 70
     1
102
RTVSPropertyOp16
 70
     1
102
RTVSPropertyOp17
 70
     1
102
RTVSPropertyOp18
 70
     1
102
RTVSPropertyOp19
 70
     1
102
RTVSPropertyOp20
 70
     1
102
RTVSPropertyOp21
 70
     1
102
RTVSPropertyOp22
 70
     1
102
RTVSPropertyOp23
 70
     1
102
RTVSPropertyOp24
 70
     1
102
RTVSPropertyOp25
 70
     1
102
RTVSPropertyOp26
 70
     1
102
RTVSPropertyOp27
 70
     1
102
RTVSPropertyOp28
 70
     1
102
RTVSPropertyOp29
 70
     1
102
RTVSPropertyOp30
 70
     1
102
RTVSPropertyOp31
 70
     1
102
RTVSPropertyOp32
 70
     1
  0
XRECORD
  5
3A8
102
{ACAD_REACTORS
330
3A7
102
}
330
3A7
100
AcDbXrecord
280
     1
102
RTVSPropertyOp0
 70
     1
102
RTVSPropertyOp1
 70
     1
102
RTVSPropertyOp2
 70
     1
102
RTVSPropertyOp3
 70
     1
102
RTVSPropertyOp4
 70
     1
102
RTVSPropertyOp5
 70
     1
102
RTVSPropertyOp6
 70
     1
102
RTVSPropertyOp7
 70
     1
102
RTVSPropertyOp8
 70
     1
102
RTVSPropertyOp9
 70
     1
102
RTVSPropertyOp10
 70
     1
102
RTVSPropertyOp11
 70
     1
102
RTVSPropertyOp12
 70
     1
102
RTVSPropertyOp13
 70
     1
102
RTVSPropertyOp14
 70
     1
102
RTVSPropertyOp15
 70
     1
102
RTVSPropertyOp16
 70
     1
102
RTVSPropertyOp17
 70
     1
102
RTVSPropertyOp18
 70
     1
102
RTVSPropertyOp19
 70
     1
102
RTVSPropertyOp20
 70
     1
102
RTVSPropertyOp21
 70
     1
102
RTVSPropertyOp22
 70
     1
102
RTVSPropertyOp23
 70
     1
102
RTVSPropertyOp24
 70
     1
102
RTVSPropertyOp25
 70
     1
102
RTVSPropertyOp26
 70
     1
102
RTVSPropertyOp27
 70
     1
102
RTVSPropertyOp28
 70
     1
102
RTVSPropertyOp29
 70
     1
102
RTVSPropertyOp30
 70
     1
102
RTVSPropertyOp31
 70
     1
102
RTVSPropertyOp32
 70
     1
  0
XRECORD
  5
3B0
102
{ACAD_REACTORS
330
3AF
102
}
330
3AF
100
AcDbXrecord
280
     1
102
RTVSPropertyOp0
 70
     1
102
RTVSPropertyOp1
 70
     1
102
RTVSPropertyOp2
 70
     1
102
RTVSPropertyOp3
 70
     1
102
RTVSPropertyOp4
 70
     1
102
RTVSPropertyOp5
 70
     1
102
RTVSPropertyOp6
 70
     1
102
RTVSPropertyOp7
 70
     1
102
RTVSPropertyOp8
 70
     1
102
RTVSPropertyOp9
 70
     1
102
RTVSPropertyOp10
 70
     1
102
RTVSPropertyOp11
 70
     1
102
RTVSPropertyOp12
 70
     1
102
RTVSPropertyOp13
 70
     1
102
RTVSPropertyOp14
 70
     1
102
RTVSPropertyOp15
 70
     1
102
RTVSPropertyOp16
 70
     1
102
RTVSPropertyOp17
 70
     1
102
RTVSPropertyOp18
 70
     1
102
RTVSPropertyOp19
 70
     1
102
RTVSPropertyOp20
 70
     1
102
RTVSPropertyOp21
 70
     1
102
RTVSPropertyOp22
 70
     1
102
RTVSPropertyOp23
 70
     1
102
RTVSPropertyOp24
 70
     1
102
RTVSPropertyOp25
 70
     1
102
RTVSPropertyOp26
 70
     1
102
RTVSPropertyOp27
 70
     1
102
RTVSPropertyOp28
 70
     1
102
RTVSPropertyOp29
 70
     1
102
RTVSPropertyOp30
 70
     1
102
RTVSPropertyOp31
 70
     1
102
RTVSPropertyOp32
 70
     1
  0
XRECORD
  5
3A4
102
{ACAD_REACTORS
330
3A3
102
}
330
3A3
100
AcDbXrecord
280
     1
102
RTVSPropertyOp0
 70
     1
102
RTVSPropertyOp1
 70
     1
102
RTVSPropertyOp2
 70
     1
102
RTVSPropertyOp3
 70
     1
102
RTVSPropertyOp4
 70
     1
102
RTVSPropertyOp5
 70
     1
102
RTVSPropertyOp6
 70
     1
102
RTVSPropertyOp7
 70
     1
102
RTVSPropertyOp8
 70
     1
102
RTVSPropertyOp9
 70
     1
102
RTVSPropertyOp10
 70
     1
102
RTVSPropertyOp11
 70
     1
102
RTVSPropertyOp12
 70
     1
102
RTVSPropertyOp13
 70
     1
102
RTVSPropertyOp14
 70
     1
102
RTVSPropertyOp15
 70
     1
102
RTVSPropertyOp16
 70
     1
102
RTVSPropertyOp17
 70
     1
102
RTVSPropertyOp18
 70
     1
102
RTVSPropertyOp19
 70
     1
102
RTVSPropertyOp20
 70
     1
102
RTVSPropertyOp21
 70
     1
102
RTVSPropertyOp22
 70
     1
102
RTVSPropertyOp23
 70
     1
102
RTVSPropertyOp24
 70
     1
102
RTVSPropertyOp25
 70
     1
102
RTVSPropertyOp26
 70
     1
102
RTVSPropertyOp27
 70
     1
102
RTVSPropertyOp28
 70
     1
102
RTVSPropertyOp29
 70
     1
102
RTVSPropertyOp30
 70
     1
102
RTVSPropertyOp31
 70
     1
102
RTVSPropertyOp32
 70
     1
  0
XRECORD
  5
3A6
102
{ACAD_REACTORS
330
3A5
102
}
330
3A5
100
AcDbXrecord
280
     1
102
RTVSPropertyOp0
 70
     1
102
RTVSPropertyOp1
 70
     1
102
RTVSPropertyOp2
 70
     1
102
RTVSPropertyOp3
 70
     1
102
RTVSPropertyOp4
 70
     1
102
RTVSPropertyOp5
 70
     1
102
RTVSPropertyOp6
 70
     1
102
RTVSPropertyOp7
 70
     1
102
RTVSPropertyOp8
 70
     1
102
RTVSPropertyOp9
 70
     1
102
RTVSPropertyOp10
 70
     1
102
RTVSPropertyOp11
 70
     1
102
RTVSPropertyOp12
 70
     1
102
RTVSPropertyOp13
 70
     1
102
RTVSPropertyOp14
 70
     1
102
RTVSPropertyOp15
 70
     1
102
RTVSPropertyOp16
 70
     1
102
RTVSPropertyOp17
 70
     1
102
RTVSPropertyOp18
 70
     1
102
RTVSPropertyOp19
 70
     1
102
RTVSPropertyOp20
 70
     1
102
RTVSPropertyOp21
 70
     1
102
RTVSPropertyOp22
 70
     1
102
RTVSPropertyOp23
 70
     1
102
RTVSPropertyOp24
 70
     1
102
RTVSPropertyOp25
 70
     1
102
RTVSPropertyOp26
 70
     1
102
RTVSPropertyOp27
 70
     1
102
RTVSPropertyOp28
 70
     1
102
RTVSPropertyOp29
 70
     1
102
RTVSPropertyOp30
 70
     1
102
RTVSPropertyOp31
 70
     1
102
RTVSPropertyOp32
 70
     1
  0
XRECORD
  5
3AE
102
{ACAD_REACTORS
330
3AD
102
}
330
3AD
100
AcDbXrecord
280
     1
102
RTVSPropertyOp0
 70
     1
102
RTVSPropertyOp1
 70
     1
102
RTVSPropertyOp2
 70
     1
102
RTVSPropertyOp3
 70
     1
102
RTVSPropertyOp4
 70
     1
102
RTVSPropertyOp5
 70
     1
102
RTVSPropertyOp6
 70
     1
102
RTVSPropertyOp7
 70
     1
102
RTVSPropertyOp8
 70
     1
102
RTVSPropertyOp9
 70
     1
102
RTVSPropertyOp10
 70
     1
102
RTVSPropertyOp11
 70
     1
102
RTVSPropertyOp12
 70
     1
102
RTVSPropertyOp13
 70
     1
102
RTVSPropertyOp14
 70
     1
102
RTVSPropertyOp15
 70
     1
102
RTVSPropertyOp16
 70
     1
102
RTVSPropertyOp17
 70
     1
102
RTVSPropertyOp18
 70
     1
102
RTVSPropertyOp19
 70
     1
102
RTVSPropertyOp20
 70
     1
102
RTVSPropertyOp21
 70
     1
102
RTVSPropertyOp22
 70
     1
102
RTVSPropertyOp23
 70
     1
102
RTVSPropertyOp24
 70
     1
102
RTVSPropertyOp25
 70
     1
102
RTVSPropertyOp26
 70
     1
102
RTVSPropertyOp27
 70
     1
102
RTVSPropertyOp28
 70
     1
102
RTVSPropertyOp29
 70
     1
102
RTVSPropertyOp30
 70
     1
102
RTVSPropertyOp31
 70
     1
102
RTVSPropertyOp32
 70
     1
  0
XRECORD
  5
392
102
{ACAD_REACTORS
330
391
102
}
330
391
100
AcDbXrecord
280
     1
102
RTVSPropertyOp0
 70
     1
102
RTVSPropertyOp1
 70
     1
102
RTVSPropertyOp2
 70
     1
102
RTVSPropertyOp3
 70
     1
102
RTVSPropertyOp4
 70
     1
102
RTVSPropertyOp5
 70
     1
102
RTVSPropertyOp6
 70
     1
102
RTVSPropertyOp7
 70
     1
102
RTVSPropertyOp8
 70
     1
102
RTVSPropertyOp9
 70
     1
102
RTVSPropertyOp10
 70
     1
102
RTVSPropertyOp11
 70
     1
102
RTVSPropertyOp12
 70
     1
102
RTVSPropertyOp13
 70
     1
102
RTVSPropertyOp14
 70
     1
102
RTVSPropertyOp15
 70
     1
102
RTVSPropertyOp16
 70
     1
102
RTVSPropertyOp17
 70
     1
102
RTVSPropertyOp18
 70
     1
102
RTVSPropertyOp19
 70
     1
102
RTVSPropertyOp20
 70
     1
102
RTVSPropertyOp21
 70
     1
102
RTVSPropertyOp22
 70
     1
102
RTVSPropertyOp23
 70
     1
102
RTVSPropertyOp24
 70
     1
102
RTVSPropertyOp25
 70
     1
102
RTVSPropertyOp26
 70
     1
102
RTVSPropertyOp27
 70
     1
102
RTVSPropertyOp28
 70
     1
102
RTVSPropertyOp29
 70
     1
102
RTVSPropertyOp30
 70
     1
102
RTVSPropertyOp31
 70
     1
102
RTVSPropertyOp32
 70
     1
  0
XRECORD
  5
394
102
{ACAD_REACTORS
330
393
102
}
330
393
100
AcDbXrecord
280
     1
102
RTVSPropertyOp0
 70
     1
102
RTVSPropertyOp1
 70
     1
102
RTVSPropertyOp2
 70
     1
102
RTVSPropertyOp3
 70
     1
102
RTVSPropertyOp4
 70
     1
102
RTVSPropertyOp5
 70
     1
102
RTVSPropertyOp6
 70
     1
102
RTVSPropertyOp7
 70
     1
102
RTVSPropertyOp8
 70
     1
102
RTVSPropertyOp9
 70
     1
102
RTVSPropertyOp10
 70
     1
102
RTVSPropertyOp11
 70
     1
102
RTVSPropertyOp12
 70
     1
102
RTVSPropertyOp13
 70
     1
102
RTVSPropertyOp14
 70
     1
102
RTVSPropertyOp15
 70
     1
102
RTVSPropertyOp16
 70
     1
102
RTVSPropertyOp17
 70
     1
102
RTVSPropertyOp18
 70
     1
102
RTVSPropertyOp19
 70
     1
102
RTVSPropertyOp20
 70
     1
102
RTVSPropertyOp21
 70
     1
102
RTVSPropertyOp22
 70
     1
102
RTVSPropertyOp23
 70
     1
102
RTVSPropertyOp24
 70
     1
102
RTVSPropertyOp25
 70
     1
102
RTVSPropertyOp26
 70
     1
102
RTVSPropertyOp27
 70
     1
102
RTVSPropertyOp28
 70
     1
102
RTVSPropertyOp29
 70
     1
102
RTVSPropertyOp30
 70
     1
102
RTVSPropertyOp31
 70
     1
102
RTVSPropertyOp32
 70
     1
  0
XRECORD
  5
396
102
{ACAD_REACTORS
330
395
102
}
330
395
100
AcDbXrecord
280
     1
102
RTVSPropertyOp0
 70
     1
102
RTVSPropertyOp1
 70
     1
102
RTVSPropertyOp2
 70
     1
102
RTVSPropertyOp3
 70
     1
102
RTVSPropertyOp4
 70
     1
102
RTVSPropertyOp5
 70
     1
102
RTVSPropertyOp6
 70
     1
102
RTVSPropertyOp7
 70
     1
102
RTVSPropertyOp8
 70
     1
102
RTVSPropertyOp9
 70
     1
102
RTVSPropertyOp10
 70
     1
102
RTVSPropertyOp11
 70
     1
102
RTVSPropertyOp12
 70
     1
102
RTVSPropertyOp13
 70
     1
102
RTVSPropertyOp14
 70
     1
102
RTVSPropertyOp15
 70
     1
102
RTVSPropertyOp16
 70
     1
102
RTVSPropertyOp17
 70
     1
102
RTVSPropertyOp18
 70
     1
102
RTVSPropertyOp19
 70
     1
102
RTVSPropertyOp20
 70
     1
102
RTVSPropertyOp21
 70
     1
102
RTVSPropertyOp22
 70
     1
102
RTVSPropertyOp23
 70
     1
102
RTVSPropertyOp24
 70
     1
102
RTVSPropertyOp25
 70
     1
102
RTVSPropertyOp26
 70
     1
102
RTVSPropertyOp27
 70
     1
102
RTVSPropertyOp28
 70
     1
102
RTVSPropertyOp29
 70
     1
102
RTVSPropertyOp30
 70
     1
102
RTVSPropertyOp31
 70
     1
102
RTVSPropertyOp32
 70
     1
  0
XRECORD
  5
398
102
{ACAD_REACTORS
330
397
102
}
330
397
100
AcDbXrecord
280
     1
102
RTVSPropertyOp0
 70
     1
102
RTVSPropertyOp1
 70
     1
102
RTVSPropertyOp2
 70
     1
102
RTVSPropertyOp3
 70
     1
102
RTVSPropertyOp4
 70
     1
102
RTVSPropertyOp5
 70
     1
102
RTVSPropertyOp6
 70
     1
102
RTVSPropertyOp7
 70
     1
102
RTVSPropertyOp8
 70
     1
102
RTVSPropertyOp9
 70
     1
102
RTVSPropertyOp10
 70
     1
102
RTVSPropertyOp11
 70
     1
102
RTVSPropertyOp12
 70
     1
102
RTVSPropertyOp13
 70
     1
102
RTVSPropertyOp14
 70
     1
102
RTVSPropertyOp15
 70
     1
102
RTVSPropertyOp16
 70
     1
102
RTVSPropertyOp17
 70
     1
102
RTVSPropertyOp18
 70
     1
102
RTVSPropertyOp19
 70
     1
102
RTVSPropertyOp20
 70
     1
102
RTVSPropertyOp21
 70
     1
102
RTVSPropertyOp22
 70
     1
102
RTVSPropertyOp23
 70
     1
102
RTVSPropertyOp24
 70
     1
102
RTVSPropertyOp25
 70
     1
102
RTVSPropertyOp26
 70
     1
102
RTVSPropertyOp27
 70
     1
102
RTVSPropertyOp28
 70
     1
102
RTVSPropertyOp29
 70
     1
102
RTVSPropertyOp30
 70
     1
102
RTVSPropertyOp31
 70
     1
102
RTVSPropertyOp32
 70
     1
  0
XRECORD
  5
3AC
102
{ACAD_REACTORS
330
3AB
102
}
330
3AB
100
AcDbXrecord
280
     1
102
RTVSPropertyOp0
 70
     1
102
RTVSPropertyOp1
 70
     1
102
RTVSPropertyOp2
 70
     1
102
RTVSPropertyOp3
 70
     1
102
RTVSPropertyOp4
 70
     1
102
RTVSPropertyOp5
 70
     1
102
RTVSPropertyOp6
 70
     1
102
RTVSPropertyOp7
 70
     1
102
RTVSPropertyOp8
 70
     1
102
RTVSPropertyOp9
 70
     1
102
RTVSPropertyOp10
 70
     1
102
RTVSPropertyOp11
 70
     1
102
RTVSPropertyOp12
 70
     1
102
RTVSPropertyOp13
 70
     1
102
RTVSPropertyOp14
 70
     1
102
RTVSPropertyOp15
 70
     1
102
RTVSPropertyOp16
 70
     1
102
RTVSPropertyOp17
 70
     1
102
RTVSPropertyOp18
 70
     1
102
RTVSPropertyOp19
 70
     1
102
RTVSPropertyOp20
 70
     1
102
RTVSPropertyOp21
 70
     1
102
RTVSPropertyOp22
 70
     1
102
RTVSPropertyOp23
 70
     1
102
RTVSPropertyOp24
 70
     1
102
RTVSPropertyOp25
 70
     1
102
RTVSPropertyOp26
 70
     1
102
RTVSPropertyOp27
 70
     1
102
RTVSPropertyOp28
 70
     1
102
RTVSPropertyOp29
 70
     1
102
RTVSPropertyOp30
 70
     1
102
RTVSPropertyOp31
 70
     1
102
RTVSPropertyOp32
 70
     1
  0
XRECORD
  5
3A2
102
{ACAD_REACTORS
330
3A1
102
}
330
3A1
100
AcDbXrecord
280
     1
102
RTVSPropertyOp0
 70
     1
102
RTVSPropertyOp1
 70
     1
102
RTVSPropertyOp2
 70
     1
102
RTVSPropertyOp3
 70
     1
102
RTVSPropertyOp4
 70
     1
102
RTVSPropertyOp5
 70
     1
102
RTVSPropertyOp6
 70
     1
102
RTVSPropertyOp7
 70
     1
102
RTVSPropertyOp8
 70
     1
102
RTVSPropertyOp9
 70
     1
102
RTVSPropertyOp10
 70
     1
102
RTVSPropertyOp11
 70
     1
102
RTVSPropertyOp12
 70
     1
102
RTVSPropertyOp13
 70
     1
102
RTVSPropertyOp14
 70
     1
102
RTVSPropertyOp15
 70
     1
102
RTVSPropertyOp16
 70
     1
102
RTVSPropertyOp17
 70
     1
102
RTVSPropertyOp18
 70
     1
102
RTVSPropertyOp19
 70
     1
102
RTVSPropertyOp20
 70
     1
102
RTVSPropertyOp21
 70
     1
102
RTVSPropertyOp22
 70
     1
102
RTVSPropertyOp23
 70
     1
102
RTVSPropertyOp24
 70
     1
102
RTVSPropertyOp25
 70
     1
102
RTVSPropertyOp26
 70
     1
102
RTVSPropertyOp27
 70
     1
102
RTVSPropertyOp28
 70
     1
102
RTVSPropertyOp29
 70
     1
102
RTVSPropertyOp30
 70
     1
102
RTVSPropertyOp31
 70
     1
102
RTVSPropertyOp32
 70
     1
  0
XRECORD
  5
3AA
102
{ACAD_REACTORS
330
3A9
102
}
330
3A9
100
AcDbXrecord
280
     1
102
RTVSPropertyOp0
 70
     1
102
RTVSPropertyOp1
 70
     1
102
RTVSPropertyOp2
 70
     1
102
RTVSPropertyOp3
 70
     1
102
RTVSPropertyOp4
 70
     1
102
RTVSPropertyOp5
 70
     1
102
RTVSPropertyOp6
 70
     1
102
RTVSPropertyOp7
 70
     1
102
RTVSPropertyOp8
 70
     1
102
RTVSPropertyOp9
 70
     1
102
RTVSPropertyOp10
 70
     1
102
RTVSPropertyOp11
 70
     1
102
RTVSPropertyOp12
 70
     1
102
RTVSPropertyOp13
 70
     1
102
RTVSPropertyOp14
 70
     1
102
RTVSPropertyOp15
 70
     1
102
RTVSPropertyOp16
 70
     1
102
RTVSPropertyOp17
 70
     1
102
RTVSPropertyOp18
 70
     1
102
RTVSPropertyOp19
 70
     1
102
RTVSPropertyOp20
 70
     1
102
RTVSPropertyOp21
 70
     1
102
RTVSPropertyOp22
 70
     1
102
RTVSPropertyOp23
 70
     1
102
RTVSPropertyOp24
 70
     1
102
RTVSPropertyOp25
 70
     1
102
RTVSPropertyOp26
 70
     1
102
RTVSPropertyOp27
 70
     1
102
RTVSPropertyOp28
 70
     1
102
RTVSPropertyOp29
 70
     1
102
RTVSPropertyOp30
 70
     1
102
RTVSPropertyOp31
 70
     1
102
RTVSPropertyOp32
 70
     1
  0
ENDSEC
  0
EOF
