  0
SECTION
  2
HEADER
  9
$ACADVER
  1
AC1018
  9
$ACADMAINTVER
 70
     0
  9
$DWGCODEPAGE
  3
ANSI_1252
  9
$INSBASE
 10
0.0
 20
0.0
 30
0.0
  9
$EXTMIN
 10
-375.895096440408
 20
-265.3967024721918
 30
0.0
  9
$EXTMAX
 10
-78.89509644040996
 20
-55.39670247219164
 30
0.0
  9
$LIMMIN
 10
0.0
 20
0.0
  9
$LIMMAX
 10
12.0
 20
9.0
  9
$ORTHOMODE
 70
     0
  9
$REGENMODE
 70
     1
  9
$FILLMODE
 70
     1
  9
$QTEXTMODE
 70
     0
  9
$MIRRTEXT
 70
     1
  9
$LTSCALE
 40
1.0
  9
$ATTMODE
 70
     1
  9
$TEXTSIZE
 40
0.2
  9
$TRACEWID
 40
0.05
  9
$TEXTSTYLE
  7
Standard
  9
$CLAYER
  8
0
  9
$CELTYPE
  6
ByLayer
  9
$CECOLOR
 62
   256
  9
$CELTSCALE
 40
1.0
  9
$DISPSILH
 70
     0
  9
$DIMSCALE
 40
1.0
  9
$DIMASZ
 40
0.18
  9
$DIMEXO
 40
0.0625
  9
$DIMDLI
 40
0.38
  9
$DIMRND
 40
0.0
  9
$DIMDLE
 40
0.0
  9
$DIMEXE
 40
0.18
  9
$DIMTP
 40
0.0
  9
$DIMTM
 40
0.0
  9
$DIMTXT
 40
0.18
  9
$DIMCEN
 40
0.09
  9
$DIMTSZ
 40
0.0
  9
$DIMTOL
 70
     0
  9
$DIMLIM
 70
     0
  9
$DIMTIH
 70
     1
  9
$DIMTOH
 70
     1
  9
$DIMSE1
 70
     0
  9
$DIMSE2
 70
     0
  9
$DIMTAD
 70
     0
  9
$DIMZIN
 70
     0
  9
$DIMBLK
  1

  9
$DIMASO
 70
     1
  9
$DIMSHO
 70
     1
  9
$DIMPOST
  1

  9
$DIMAPOST
  1

  9
$DIMALT
 70
     0
  9
$DIMALTD
 70
     2
  9
$DIMALTF
 40
25.4
  9
$DIMLFAC
 40
1.0
  9
$DIMTOFL
 70
     0
  9
$DIMTVP
 40
0.0
  9
$DIMTIX
 70
     0
  9
$DIMSOXD
 70
     0
  9
$DIMSAH
 70
     0
  9
$DIMBLK1
  1

  9
$DIMBLK2
  1

  9
$DIMSTYLE
  2
Standard
  9
$DIMCLRD
 70
     0
  9
$DIMCLRE
 70
     0
  9
$DIMCLRT
 70
     0
  9
$DIMTFAC
 40
1.0
  9
$DIMGAP
 40
0.09
  9
$DIMJUST
 70
     0
  9
$DIMSD1
 70
     0
  9
$DIMSD2
 70
     0
  9
$DIMTOLJ
 70
     1
  9
$DIMTZIN
 70
     0
  9
$DIMALTZ
 70
     0
  9
$DIMALTTZ
 70
     0
  9
$DIMUPT
 70
     0
  9
$DIMDEC
 70
     4
  9
$DIMTDEC
 70
     4
  9
$DIMALTU
 70
     2
  9
$DIMALTTD
 70
     2
  9
$DIMTXSTY
  7
Standard
  9
$DIMAUNIT
 70
     0
  9
$DIMADEC
 70
     0
  9
$DIMALTRND
 40
0.0
  9
$DIMAZIN
 70
     0
  9
$DIMDSEP
 70
    46
  9
$DIMATFIT
 70
     3
  9
$DIMFRAC
 70
     0
  9
$DIMLDRBLK
  1

  9
$DIMLUNIT
 70
     2
  9
$DIMLWD
 70
    -2
  9
$DIMLWE
 70
    -2
  9
$DIMTMOVE
 70
     0
  9
$LUNITS
 70
     2
  9
$LUPREC
 70
     4
  9
$SKETCHINC
 40
0.1
  9
$FILLETRAD
 40
0.5
  9
$AUNITS
 70
     0
  9
$AUPREC
 70
     0
  9
$MENU
  1
.
  9
$ELEVATION
 40
0.0
  9
$PELEVATION
 40
0.0
  9
$THICKNESS
 40
0.0
  9
$LIMCHECK
 70
     0
  9
$CHAMFERA
 40
0.5
  9
$CHAMFERB
 40
0.5
  9
$CHAMFERC
 40
1.0
  9
$CHAMFERD
 40
0.0
  9
$SKPOLY
 70
     0
  9
$TDCREATE
 40
2458275.607338704
  9
$TDUCREATE
 40
2458275.52400537
  9
$TDUPDATE
 40
2458275.607339248
  9
$TDUUPDATE
 40
2458275.524005915
  9
$TDINDWG
 40
0.0000000116
  9
$TDUSRTIMER
 40
0.0000000116
  9
$USRTIMER
 70
     1
  9
$ANGBASE
 50
0.0
  9
$ANGDIR
 70
     0
  9
$PDMODE
 70
     0
  9
$PDSIZE
 40
0.0
  9
$PLINEWID
 40
0.0
  9
$SPLFRAME
 70
     0
  9
$SPLINETYPE
 70
     6
  9
$SPLINESEGS
 70
     8
  9
$HANDSEED
  5
238
  9
$SURFTAB1
 70
     6
  9
$SURFTAB2
 70
     6
  9
$SURFTYPE
 70
     6
  9
$SURFU
 70
     6
  9
$SURFV
 70
     6
  9
$UCSBASE
  2

  9
$UCSNAME
  2

  9
$UCSORG
 10
0.0
 20
0.0
 30
0.0
  9
$UCSXDIR
 10
1.0
 20
0.0
 30
0.0
  9
$UCSYDIR
 10
0.0
 20
1.0
 30
0.0
  9
$UCSORTHOREF
  2

  9
$UCSORTHOVIEW
 70
     0
  9
$UCSORGTOP
 10
0.0
 20
0.0
 30
0.0
  9
$UCSORGBOTTOM
 10
0.0
 20
0.0
 30
0.0
  9
$UCSORGLEFT
 10
0.0
 20
0.0
 30
0.0
  9
$UCSORGRIGHT
 10
0.0
 20
0.0
 30
0.0
  9
$UCSORGFRONT
 10
0.0
 20
0.0
 30
0.0
  9
$UCSORGBACK
 10
0.0
 20
0.0
 30
0.0
  9
$PUCSBASE
  2

  9
$PUCSNAME
  2

  9
$PUCSORG
 10
0.0
 20
0.0
 30
0.0
  9
$PUCSXDIR
 10
1.0
 20
0.0
 30
0.0
  9
$PUCSYDIR
 10
0.0
 20
1.0
 30
0.0
  9
$PUCSORTHOREF
  2

  9
$PUCSORTHOVIEW
 70
     0
  9
$PUCSORGTOP
 10
0.0
 20
0.0
 30
0.0
  9
$PUCSORGBOTTOM
 10
0.0
 20
0.0
 30
0.0
  9
$PUCSORGLEFT
 10
0.0
 20
0.0
 30
0.0
  9
$PUCSORGRIGHT
 10
0.0
 20
0.0
 30
0.0
  9
$PUCSORGFRONT
 10
0.0
 20
0.0
 30
0.0
  9
$PUCSORGBACK
 10
0.0
 20
0.0
 30
0.0
  9
$USERI1
 70
     0
  9
$USERI2
 70
     0
  9
$USERI3
 70
     0
  9
$USERI4
 70
     0
  9
$USERI5
 70
     0
  9
$USERR1
 40
18.1
  9
$USERR2
 40
0.0
  9
$USERR3
 40
0.0
  9
$USERR4
 40
0.0
  9
$USERR5
 40
0.0
  9
$WORLDVIEW
 70
     1
  9
$SHADEDGE
 70
     3
  9
$SHADEDIF
 70
    70
  9
$TILEMODE
 70
     1
  9
$MAXACTVP
 70
    64
  9
$PINSBASE
 10
0.0
 20
0.0
 30
0.0
  9
$PLIMCHECK
 70
     0
  9
$PEXTMIN
 10
1.00000000000000E+20
 20
1.00000000000000E+20
 30
1.00000000000000E+20
  9
$PEXTMAX
 10
-1.00000000000000E+20
 20
-1.00000000000000E+20
 30
-1.00000000000000E+20
  9
$PLIMMIN
 10
0.0
 20
0.0
  9
$PLIMMAX
 10
12.0
 20
9.0
  9
$UNITMODE
 70
     0
  9
$VISRETAIN
 70
     1
  9
$PLINEGEN
 70
     0
  9
$PSLTSCALE
 70
     1
  9
$TREEDEPTH
 70
  3020
  9
$CMLSTYLE
  2
Standard
  9
$CMLJUST
 70
     0
  9
$CMLSCALE
 40
1.0
  9
$PROXYGRAPHICS
 70
     1
  9
$MEASUREMENT
 70
     1
  9
$CELWEIGHT
370
    -1
  9
$ENDCAPS
280
     0
  9
$JOINSTYLE
280
     0
  9
$LWDISPLAY
290
     0
  9
$INSUNITS
 70
     4
  9
$HYPERLINKBASE
  1

  9
$STYLESHEET
  1

  9
$XEDIT
290
     1
  9
$CEPSNTYPE
380
     0
  9
$PSTYLEMODE
290
     1
  9
$FINGERPRINTGUID
  2
{80EFB5B7-7A24-46A0-BD38-98B582646F5D}
  9
$VERSIONGUID
  2
{FAEB1C32-E019-11D5-929B-00C0DF256EC4}
  9
$EXTNAMES
290
     1
  9
$PSVPSCALE
 40
0.0
  9
$OLESTARTUP
290
     0
  9
$SORTENTS
280
   127
  9
$INDEXCTL
280
     0
  9
$HIDETEXT
280
     1
  9
$XCLIPFRAME
290
     0
  9
$HALOGAP
280
     0
  9
$OBSCOLOR
 70
   257
  9
$OBSLTYPE
280
     0
  9
$INTERSECTIONDISPLAY
280
     0
  9
$INTERSECTIONCOLOR
 70
   257
  9
$DIMASSOC
280
     2
  9
$PROJECTNAME
  1

  0
ENDSEC
  0
SECTION
  2
CLASSES
  0
CLASS
  1
ACDBDICTIONARYWDFLT
  2
AcDbDictionaryWithDefault
  3
ObjectDBX Classes
 90
        0
 91
        4
280
     0
281
     0
  0
CLASS
  1
VISUALSTYLE
  2
AcDbVisualStyle
  3
ObjectDBX Classes
 90
     4095
 91
        4
280
     0
281
     0
  0
CLASS
  1
MATERIAL
  2
AcDbMaterial
  3
ObjectDBX Classes
 90
     1153
 91
        4
280
     0
281
     0
  0
ENDSEC
  0
SECTION
  2
TABLES
  0
TABLE
  2
VPORT
  5
8
330
0
100
AcDbSymbolTable
 70
     1
  0
VPORT
  5
29
330
8
100
AcDbSymbolTableRecord
100
AcDbViewportTableRecord
  2
*Active
 70
     0
 10
0.0
 20
0.0
 11
1.0
 21
1.0
 12
-227.395096440409
 22
-160.3967024721917
 13
0.0
 23
0.0
 14
0.5
 24
0.5
 15
0.5
 25
0.5
 16
0.0
 26
0.0
 36
1.0
 17
0.0
 27
0.0
 37
0.0
 40
231.0000000000002
 41
1.60267857142857
 42
50.0
 43
0.0
 44
0.0
 50
0.0
 51
0.0
 71
     0
 72
   100
 73
     1
 74
     3
 75
     0
 76
     0
 77
     0
 78
     0
281
     0
 65
     1
110
0.0
120
0.0
130
0.0
111
1.0
121
0.0
131
0.0
112
0.0
122
1.0
132
0.0
 79
     0
146
0.0
  0
ENDTAB
  0
TABLE
  2
LTYPE
  5
5
330
0
100
AcDbSymbolTable
 70
     8
  0
LTYPE
  5
14
330
5
100
AcDbSymbolTableRecord
100
AcDbLinetypeTableRecord
  2
ByBlock
 70
     0
  3

 72
    65
 73
     0
 40
0.0
  0
LTYPE
  5
15
330
5
100
AcDbSymbolTableRecord
100
AcDbLinetypeTableRecord
  2
ByLayer
 70
     0
  3

 72
    65
 73
     0
 40
0.0
  0
LTYPE
  5
16
330
5
100
AcDbSymbolTableRecord
100
AcDbLinetypeTableRecord
  2
Continuous
 70
     0
  3
Solid line
 72
    65
 73
     0
 40
0.0
  0
LTYPE
  5
3F
330
5
100
AcDbSymbolTableRecord
100
AcDbLinetypeTableRecord
  2
DASHED
 70
     0
  3
Dashed
 72
    65
 73
     2
 40
15.0
 49
7.0
 74
     0
 49
-8.0
 74
     0
  0
LTYPE
  5
40
330
5
100
AcDbSymbolTableRecord
100
AcDbLinetypeTableRecord
  2
DOTTED
 70
     0
  3
Dotted
 72
    65
 73
     2
 40
1.0
 49
0.0
 74
     0
 49
-1.0
 74
     0
  0
LTYPE
  5
41
330
5
100
AcDbSymbolTableRecord
100
AcDbLinetypeTableRecord
  2
DOT_CENTER
 70
     0
  3
Dot_Center
 72
    65
 73
     4
 40
14.0
 49
12.0
 74
     0
 49
-1.0
 74
     0
 49
0.0
 74
     0
 49
-1.0
 74
     0
  0
LTYPE
  5
42
330
5
100
AcDbSymbolTableRecord
100
AcDbLinetypeTableRecord
  2
LONG_DASHED
 70
     0
  3
Long_Dashed
 72
    65
 73
     2
 40
15.0
 49
10.0
 74
     0
 49
-5.0
 74
     0
  0
LTYPE
  5
43
330
5
100
AcDbSymbolTableRecord
100
AcDbLinetypeTableRecord
  2
DASH_CENTER
 70
     0
  3
Dash_Center
 72
    65
 73
     4
 40
14.0
 49
11.0
 74
     0
 49
-1.0
 74
     0
 49
1.0
 74
     0
 49
-1.0
 74
     0
  0
LTYPE
  5
44
330
5
100
AcDbSymbolTableRecord
100
AcDbLinetypeTableRecord
  2
PHANTOM
 70
     0
  3
Phantom
 72
    65
 73
     6
 40
13.0
 49
10.0
 74
     0
 49
-1.0
 74
     0
 49
0.0
 74
     0
 49
-1.0
 74
     0
 49
0.0
 74
     0
 49
-1.0
 74
     0
  0
LTYPE
  5
45
330
5
100
AcDbSymbolTableRecord
100
AcDbLinetypeTableRecord
  2
CENTER_DASH_DASH
 70
     0
  3
Center_Dash_Dash
 72
    65
 73
     6
 40
14.0
 49
9.0
 74
     0
 49
-1.0
 74
     0
 49
1.0
 74
     0
 49
-1.0
 74
     0
 49
1.0
 74
     0
 49
-1.0
 74
     0
  0
ENDTAB
  0
TABLE
  2
LAYER
  5
2
330
0
100
AcDbSymbolTable
 70
     2
  0
LAYER
  5
10
330
2
100
AcDbSymbolTableRecord
100
AcDbLayerTableRecord
  2
0
 70
     0
 62
     7
  6
Continuous
370
    -3
390
F
  0
LAYER
  5
46
330
2
100
AcDbSymbolTableRecord
100
AcDbLayerTableRecord
  2
1
 70
     0
 62
     7
  6
Continuous
370
    -3
390
F
  0
ENDTAB
  0
TABLE
  2
STYLE
  5
3
330
0
100
AcDbSymbolTable
 70
     5
  0
STYLE
  5
11
330
3
100
AcDbSymbolTableRecord
100
AcDbTextStyleTableRecord
  2
Standard
 70
     0
 40
0.0
 41
1.0
 50
0.0
 71
     0
 42
0.2
  3
txt
  4

  0
STYLE
  5
93
330
3
100
AcDbSymbolTableRecord
100
AcDbTextStyleTableRecord
  2
CONVERTER_11
 70
     0
 40
0.0
 41
0.9
 50
0.0
 71
     0
 42
0.2
  3
txt.shx
  4

  0
STYLE
  5
1D3
330
3
100
AcDbSymbolTableRecord
100
AcDbTextStyleTableRecord
  2
CONVERTER_12
 70
     0
 40
0.0
 41
0.81
 50
0.0
 71
     0
 42
0.2
  3
txt.shx
  4

  0
STYLE
  5
1E9
330
3
100
AcDbSymbolTableRecord
100
AcDbTextStyleTableRecord
  2
CONVERTER_13
 70
     0
 40
0.0
 41
0.72
 50
0.0
 71
     0
 42
0.2
  3
txt.shx
  4

  0
STYLE
  5
1EC
330
3
100
AcDbSymbolTableRecord
100
AcDbTextStyleTableRecord
  2
CONVERTER_14
 70
     0
 40
0.0
 41
0.855
 50
0.0
 71
     0
 42
0.2
  3
txt.shx
  4

  0
ENDTAB
  0
TABLE
  2
VIEW
  5
6
330
0
100
AcDbSymbolTable
 70
     0
  0
ENDTAB
  0
TABLE
  2
UCS
  5
7
330
0
100
AcDbSymbolTable
 70
     0
  0
ENDTAB
  0
TABLE
  2
APPID
  5
9
330
0
100
AcDbSymbolTable
 70
     1
  0
APPID
  5
12
330
9
100
AcDbSymbolTableRecord
100
AcDbRegAppTableRecord
  2
ACAD
 70
     0
  0
ENDTAB
  0
TABLE
  2
DIMSTYLE
  5
A
330
0
100
AcDbSymbolTable
 70
     3
100
AcDbDimStyleTable
  0
DIMSTYLE
105
27
330
A
100
AcDbSymbolTableRecord
100
AcDbDimStyleTableRecord
  2
Standard
 70
     0
178
     0
340
11
  0
DIMSTYLE
105
A9
102
{ACAD_REACTORS
330
AA
102
}
330
A
100
AcDbSymbolTableRecord
100
AcDbDimStyleTableRecord
  2
ME10_DIM_10
 70
     0
 41
1.75
 42
0.0
 44
0.75
 73
     0
 74
     0
 77
     1
 78
     8
140
1.75
147
0.75
172
     1
173
     1
174
     1
175
     1
176
     2
177
     2
271
     2
178
     3
271
     2
340
93
  0
DIMSTYLE
105
B4
102
{ACAD_REACTORS
330
B5
102
}
330
A
100
AcDbSymbolTableRecord
100
AcDbDimStyleTableRecord
  2
ME10_DIM_11
 70
     0
  3
{\Fgdt;n}<>
 41
1.75
 42
0.0
 44
0.75
 73
     0
 74
     0
 77
     1
 78
     8
140
1.75
147
0.75
172
     1
173
     1
174
     1
175
     1
176
     2
177
     2
271
     2
178
     3
271
     2
340
93
  0
ENDTAB
  0
TABLE
  2
BLOCK_RECORD
  5
1
330
0
100
AcDbSymbolTable
 70
    19
  0
BLOCK_RECORD
  5
1F
330
1
100
AcDbSymbolTableRecord
100
AcDbBlockTableRecord
  2
*Model_Space
340
22
  0
BLOCK_RECORD
  5
1B
330
1
100
AcDbSymbolTableRecord
100
AcDbBlockTableRecord
  2
*Paper_Space
340
1E
  0
BLOCK_RECORD
  5
23
330
1
100
AcDbSymbolTableRecord
100
AcDbBlockTableRecord
  2
*Paper_Space0
340
26
  0
BLOCK_RECORD
  5
47
330
1
100
AcDbSymbolTableRecord
100
AcDbBlockTableRecord
  2
REDUC_M_KV_M25_M20-select__1
340
0
102
{BLKREFS
331
4B
102
}
  0
BLOCK_RECORD
  5
4A
330
1
100
AcDbSymbolTableRecord
100
AcDbBlockTableRecord
  2
Allg1
340
0
102
{BLKREFS
331
7D
102
}
  0
BLOCK_RECORD
  5
4E
330
1
100
AcDbSymbolTableRecord
100
AcDbBlockTableRecord
  2
REDUC_M_KV_M25_M20-select__2
340
0
102
{BLKREFS
331
52
102
}
  0
BLOCK_RECORD
  5
51
330
1
100
AcDbSymbolTableRecord
100
AcDbBlockTableRecord
  2
Drfsicht1
340
0
102
{BLKREFS
331
7E
102
}
  0
BLOCK_RECORD
  5
55
330
1
100
AcDbSymbolTableRecord
100
AcDbBlockTableRecord
  2
REDUC_M_KV_M25_M20-select__3
340
0
102
{BLKREFS
331
59
102
}
  0
BLOCK_RECORD
  5
58
330
1
100
AcDbSymbolTableRecord
100
AcDbBlockTableRecord
  2
Rckans1
340
0
102
{BLKREFS
331
7F
102
}
  0
BLOCK_RECORD
  5
5C
330
1
100
AcDbSymbolTableRecord
100
AcDbBlockTableRecord
  2
REDUC_M_KV_M25_M20-select__4
340
0
102
{BLKREFS
331
60
102
}
  0
BLOCK_RECORD
  5
5F
330
1
100
AcDbSymbolTableRecord
100
AcDbBlockTableRecord
  2
SA_Links1
340
0
102
{BLKREFS
331
80
102
}
  0
BLOCK_RECORD
  5
63
330
1
100
AcDbSymbolTableRecord
100
AcDbBlockTableRecord
  2
REDUC_M_KV_M25_M20-select__5
340
0
102
{BLKREFS
331
67
102
}
  0
BLOCK_RECORD
  5
66
330
1
100
AcDbSymbolTableRecord
100
AcDbBlockTableRecord
  2
SA_Rechts1
340
0
102
{BLKREFS
331
81
102
}
  0
BLOCK_RECORD
  5
6A
330
1
100
AcDbSymbolTableRecord
100
AcDbBlockTableRecord
  2
REDUC_M_KV_M25_M20-select__6
340
0
102
{BLKREFS
331
6E
102
}
  0
BLOCK_RECORD
  5
6D
330
1
100
AcDbSymbolTableRecord
100
AcDbBlockTableRecord
  2
Vordans1
340
0
102
{BLKREFS
331
82
102
}
  0
BLOCK_RECORD
  5
71
330
1
100
AcDbSymbolTableRecord
100
AcDbBlockTableRecord
  2
_rahmen
340
0
102
{BLKREFS
331
78
102
}
  0
BLOCK_RECORD
  5
74
330
1
100
AcDbSymbolTableRecord
100
AcDbBlockTableRecord
  2
_punkt
340
0
102
{BLKREFS
331
79
102
}
  0
BLOCK_RECORD
  5
77
330
1
100
AcDbSymbolTableRecord
100
AcDbBlockTableRecord
  2
A4I_CS
340
0
102
{BLKREFS
331
83
102
}
  0
BLOCK_RECORD
  5
7C
330
1
100
AcDbSymbolTableRecord
100
AcDbBlockTableRecord
  2
1
340
0
102
{BLKREFS
331
86
102
}
  0
BLOCK_RECORD
  5
A0
330
1
100
AcDbSymbolTableRecord
100
AcDbBlockTableRecord
  2
*D17
340
0
  0
BLOCK_RECORD
  5
AB
330
1
100
AcDbSymbolTableRecord
100
AcDbBlockTableRecord
  2
*D18
340
0
  0
ENDTAB
  0
ENDSEC
  0
SECTION
  2
BLOCKS
  0
BLOCK
  5
20
330
1F
100
AcDbEntity
  8
0
100
AcDbBlockBegin
  2
*Model_Space
 70
     0
 10
0.0
 20
0.0
 30
0.0
  3
*Model_Space
  1

  0
ENDBLK
  5
21
330
1F
100
AcDbEntity
  8
0
100
AcDbBlockEnd
  0
BLOCK
  5
1C
330
1B
100
AcDbEntity
 67
     1
  8
0
100
AcDbBlockBegin
  2
*Paper_Space
 70
     0
 10
0.0
 20
0.0
 30
0.0
  3
*Paper_Space
  1

  0
ENDBLK
  5
1D
330
1B
100
AcDbEntity
 67
     1
  8
0
100
AcDbBlockEnd
  0
BLOCK
  5
24
330
23
100
AcDbEntity
  8
0
100
AcDbBlockBegin
  2
*Paper_Space0
 70
     0
 10
0.0
 20
0.0
 30
0.0
  3
*Paper_Space0
  1

  0
ENDBLK
  5
25
330
23
100
AcDbEntity
  8
0
100
AcDbBlockEnd
  0
BLOCK
  5
48
330
47
100
AcDbEntity
  8
0
100
AcDbBlockBegin
  2
REDUC_M_KV_M25_M20-select__1
 70
     0
 10
-77.05454238301601
 20
-112.6917391385126
 30
0.0
  3
REDUC_M_KV_M25_M20-select__1
  1

  0
LINE
  5
87
330
47
100
AcDbEntity
  8
0
  6
Continuous
 62
     7
100
AcDbLine
 10
-73.81980506062972
 20
-87.82612931919259
 30
0.0
 11
-72.31980506062972
 21
-86.52709121351593
 31
0.0
  0
LINE
  5
88
330
47
100
AcDbEntity
  8
0
  6
Continuous
 62
     7
100
AcDbLine
 10
-54.18019493939041
 20
-110.5039976997462
 30
0.0
 11
-52.6801949393904
 21
-109.2049595940696
 31
0.0
  0
SPLINE
  5
89
330
47
100
AcDbEntity
  8
0
  6
Continuous
 62
     7
100
AcDbSpline
210
0.0
220
0.0
230
1.0
 70
     8
 71
     3
 72
    11
 73
     7
 74
     5
 42
0.000000001
 43
0.0000000001
 44
0.00000001
 40
0.0
 40
0.0
 40
0.0
 40
0.0
 40
1.490224614271783
 40
3.030367388357431
 40
4.657396940219958
 40
6.388452957966283
 40
6.388452957966283
 40
6.388452957966283
 40
6.388452957966283
 10
-57.94445354596128
 20
-106.1574062601401
 30
0.0
 10
-58.34879550907982
 20
-106.452017524023
 30
0.0
 10
-59.17102371458945
 20
-107.0511086537193
 30
0.0
 10
-60.69241266715907
 20
-107.4759539151563
 30
0.0
 10
-62.33950979793621
 20
-107.5587135824381
 30
0.0
 10
-63.43518931369734
 20
-107.3060459008083
 30
0.0
 10
-64.00000000001006
 20
-107.1757984944755
 30
0.0
 11
-57.94445354596128
 21
-106.1574062601401
 31
0.0
 11
-59.19802829500876
 21
-106.963210054763
 31
0.0
 11
-60.67122233583387
 21
-107.4123638050569
 31
0.0
 11
-62.2966598388821
 21
-107.484322777668
 31
0.0
 11
-64.00000000001006
 21
-107.1757984944755
 31
0.0
  0
SPLINE
  5
8A
330
47
100
AcDbEntity
  8
0
  6
Continuous
 62
     7
100
AcDbSpline
210
0.0
220
0.0
230
1.0
 70
     8
 71
     3
 72
    19
 73
    15
 74
    13
 42
0.000000001
 43
0.0000000001
 44
0.00000001
 40
0.0
 40
0.0
 40
0.0
 40
0.0
 40
1.623864536786741
 40
3.314584855701227
 40
5.051439723603404
 40
6.808902309924726
 40
8.55940266889093
 40
10.27605448689359
 40
11.93539438477349
 40
13.52016950295793
 40
15.0221176679842
 40
16.44445309344603
 40
17.8032853464839
 40
19.12665494848917
 40
19.12665494848917
 40
19.12665494848917
 40
19.12665494848917
 10
-64.00000000001006
 20
-107.1757984944755
 30
0.0
 10
-64.51270396709188
 20
-106.9984651446312
 30
0.0
 10
-65.55922032216073
 20
-106.6364974775214
 30
0.0
 10
-67.01283729956154
 20
-105.7653358643138
 30
0.0
 10
-68.36431774142187
 20
-104.6811696754226
 30
0.0
 10
-69.55836977448122
 20
-103.395208571188
 30
0.0
 10
-70.55530315674206
 20
-101.9602379249624
 30
0.0
 10
-71.31923779007924
 20
-100.4245785406569
 30
0.0
 10
-71.8231204397958
 20
-98.84216723953303
 30
0.0
 10
-72.04756766923833
 20
-97.26841350907046
 30
0.0
 10
-71.98431197704184
 20
-95.75596696314744
 30
0.0
 10
-71.62571384303634
 20
-94.36568936318353
 30
0.0
 10
-71.00191755146278
 20
-93.1246394388013
 30
0.0
 10
-70.36821064429115
 20
-92.48721776542264
 30
0.0
 10
-70.05554645405886
 20
-92.1727207587987
 30
0.0
 11
-64.00000000001006
 21
-107.1757984944755
 31
0.0
 11
-65.515861929555
 21
-106.593476729011
 31
0.0
 11
-66.97694987443045
 21
-105.7427375147832
 31
0.0
 11
-68.33046858622855
 21
-104.65432034895
 31
0.0
 11
-69.52751063261923
 21
-103.3675549931448
 31
0.0
 11
-70.52482137527325
 21
-101.9289366317524
 31
0.0
 11
-71.2863649553552
 21
-100.3904487894544
 31
0.0
 11
-71.78462271497277
 21
-98.80768282345505
 31
0.0
 11
-72.00159179193626
 21
-97.2378304110158
 31
0.0
 11
-71.92943101157454
 21
-95.73761672113056
 31
0.0
 11
-71.57074906183718
 21
-94.36125000845408
 31
0.0
 11
-70.93850534426511
 21
-93.15846449665402
 31
0.0
 11
-70.05554645405886
 21
-92.1727207587987
 31
0.0
  0
SPLINE
  5
8B
330
47
100
AcDbEntity
  8
0
  6
Continuous
 62
     7
100
AcDbSpline
210
0.0
220
0.0
230
1.0
 70
     8
 71
     3
 72
    23
 73
    19
 74
    17
 42
0.000000001
 43
0.0000000001
 44
0.00000001
 40
0.0
 40
0.0
 40
0.0
 40
0.0
 40
1.365059532316514
 40
2.768906547512139
 40
4.241738759048728
 40
5.800109266144879
 40
7.446063968207521
 40
9.16898323342105
 40
10.94856157450543
 40
12.75806371230861
 40
14.56756585011177
 40
16.34714419119615
 40
18.0700634564097
 40
19.71601815847236
 40
21.27438866556853
 40
22.74722087710512
 40
24.15106789230071
 40
25.5161274246172
 40
25.5161274246172
 40
25.5161274246172
 40
25.5161274246172
 10
-70.05554645405886
 20
-92.1727207587987
 30
0.0
 10
-69.68761180878376
 20
-91.90066014858034
 30
0.0
 10
-68.94128783247584
 20
-91.3488084733402
 30
0.0
 10
-67.57324156227034
 20
-90.90998848603626
 30
0.0
 10
-66.0924476140495
 20
-90.77380447312666
 30
0.0
 10
-64.5337073286406
 20
-90.96678223082266
 30
0.0
 10
-62.9616533936744
 20
-91.46994072302468
 30
0.0
 10
-61.4319039196663
 20
-92.2645335348781
 30
0.0
 10
-60.00120506108292
 20
-93.31924373008448
 30
0.0
 10
-58.72231613351
 20
-94.59445520793706
 30
0.0
 10
-57.64288251171431
 20
-96.04240004751233
 30
0.0
 10
-56.80337569416432
 20
-97.6090975687688
 30
0.0
 10
-56.23546840676025
 20
-99.23667014865289
 30
0.0
 10
-55.96204978446762
 20
-100.8644798118818
 30
0.0
 10
-55.99372852177743
 20
-102.4348008459142
 30
0.0
 10
-56.34005773125918
 20
-103.880951903418
 30
0.0
 10
-56.96981206322415
 20
-105.1722779892894
 30
0.0
 10
-57.62262128255833
 20
-105.8321112047534
 30
0.0
 10
-57.94445354596128
 20
-106.1574062601401
 30
0.0
 11
-70.05554645405886
 21
-92.1727207587987
 31
0.0
 11
-68.91608679460931
 21
-91.42104315060321
 31
0.0
 11
-67.58770513400216
 21
-90.96696318140984
 31
0.0
 11
-66.12144964330903
 21
-90.82793237301553
 31
0.0
 11
-64.57366822992321
 21
-91.00929206300353
 31
0.0
 11
-63.00384101480542
 21
-91.50407423467102
 31
0.0
 11
-61.47229553815545
 21
-92.29326321506936
 31
0.0
 11
-60.03788856159551
 21
-93.34653226637383
 31
0.0
 11
-58.75574293700703
 21
-94.62340366893281
 31
0.0
 11
-57.6751316582546
 21
-96.07480893472088
 31
0.0
 11
-56.83758093439218
 21
-97.64497066326899
 31
0.0
 11
-56.27527862487166
 21
-99.27354884884595
 31
0.0
 11
-56.00983230702712
 21
-100.8979580137632
 31
0.0
 11
-56.0514443960799
 21
-102.455772853473
 31
0.0
 11
-56.39851427986823
 21
-103.8871278847066
 31
0.0
 11
-57.03770570415053
 21
-105.1370161908299
 31
0.0
 11
-57.94445354596128
 21
-106.1574062601401
 31
0.0
  0
SPLINE
  5
8C
330
47
100
AcDbEntity
  8
0
  6
Continuous
 62
     7
100
AcDbSpline
210
0.0
220
0.0
230
1.0
 70
     8
 71
     3
 72
    23
 73
    19
 74
    17
 42
0.000000001
 43
0.0000000001
 44
0.00000001
 40
0.0
 40
0.0
 40
0.0
 40
0.0
 40
2.213610055913211
 40
4.490118731990015
 40
6.878495292574517
 40
9.4055826020548
 40
12.0746983354093
 40
14.8686214680771
 40
17.75442418278721
 40
20.68875197289358
 40
23.62307976299993
 40
26.50888247771004
 40
29.30280561037782
 40
31.97192134373234
 40
34.49900865321264
 40
36.88738521379712
 40
39.1638938898739
 40
41.37750394578711
 40
41.37750394578711
 40
41.37750394578711
 40
41.37750394578711
 10
-73.81980506062972
 20
-87.82612931919259
 30
0.0
 10
-73.22315428356238
 20
-87.38494995057175
 30
0.0
 10
-72.01289918956593
 20
-86.4900553338787
 30
0.0
 10
-69.7944457731607
 20
-85.77845535906062
 30
0.0
 10
-67.39315828851598
 20
-85.55761641952502
 30
0.0
 10
-64.8654713383904
 20
-85.87055332498434
 30
0.0
 10
-62.31619468697447
 20
-86.68648601527045
 30
0.0
 10
-59.83551986431437
 20
-87.97501489919583
 30
0.0
 10
-57.51546766145292
 20
-89.68535575570627
 30
0.0
 10
-55.44159372528281
 20
-91.75326625964746
 30
0.0
 10
-53.69116082568907
 20
-94.10128491789021
 30
0.0
 10
-52.32979841939105
 20
-96.64187549257348
 30
0.0
 10
-51.40886768321177
 20
-99.2811823787938
 30
0.0
 10
-50.96548613333871
 20
-101.9208737247212
 30
0.0
 10
-51.0168570577458
 20
-104.4673402673561
 30
0.0
 10
-51.57847199187524
 20
-106.8124500914134
 30
0.0
 10
-52.5996952291043
 20
-108.9064923986899
 30
0.0
 10
-53.6583047816937
 20
-109.9764922036886
 30
0.0
 10
-54.18019493939041
 20
-110.5039976997462
 30
0.0
 11
-73.81980506062972
 21
-87.82612931919259
 31
0.0
 11
-71.97203263990073
 21
-86.60719265725398
 31
0.0
 11
-69.81790021729456
 21
-85.87084676126472
 31
0.0
 11
-67.44018861076516
 21
-85.64539139630098
 31
0.0
 11
-64.93027280527465
 21
-85.93948819087606
 31
0.0
 11
-62.38460705102957
 21
-86.741837658445
 31
0.0
 11
-59.90101979159718
 21
-88.02160357260448
 31
0.0
 11
-57.57495442420269
 21
-89.72960743958471
 31
0.0
 11
-55.49579935730245
 21
-91.80020971400467
 31
0.0
 11
-53.74345674310931
 21
-94.15383987474208
 31
0.0
 11
-52.38526638008916
 21
-96.70004808319847
 31
0.0
 11
-51.47342479708292
 21
-99.34098568143132
 31
0.0
 11
-51.04297130868639
 21
-101.9751627056216
 31
0.0
 11
-51.1104503720152
 21
-104.5013489321779
 31
0.0
 11
-51.67326639978005
 21
-106.8224651990431
 31
0.0
 11
-52.70979303375136
 21
-108.8493111008648
 31
0.0
 11
-54.18019493939041
 21
-110.5039976997462
 31
0.0
  0
SPLINE
  5
8D
330
47
100
AcDbEntity
  8
0
  6
Continuous
 62
     7
100
AcDbSpline
210
0.0
220
0.0
230
1.0
 70
     8
 71
     3
 72
    19
 73
    15
 74
    13
 42
0.000000001
 43
0.0000000001
 44
0.00000001
 40
0.0
 40
0.0
 40
0.0
 40
0.0
 40
2.633293842317061
 40
5.375002466939444
 40
8.191523873974814
 40
11.04146320303989
 40
13.88011243386825
 40
16.66387213892051
 40
19.35469359521339
 40
21.9245991926582
 40
24.36019081226447
 40
26.66668069277011
 40
28.87019245763472
 40
31.01619722116705
 40
31.01619722116705
 40
31.01619722116705
 40
31.01619722116705
 10
-64.00000000001006
 20
-112.155444566236
 30
0.0
 10
-64.83141183816726
 20
-111.8678769720163
 30
0.0
 10
-66.5284653896561
 20
-111.2809023854242
 30
0.0
 10
-68.88568210761436
 20
-109.8682078740184
 30
0.0
 10
-71.07727201322422
 20
-108.1101005416783
 30
0.0
 10
-73.01357260707596
 20
-106.0247582102338
 30
0.0
 10
-74.63022133520234
 20
-103.6977787840196
 30
0.0
 10
-75.86903425448912
 20
-101.2075203229728
 30
0.0
 10
-76.68614125469644
 20
-98.6414479426851
 30
0.0
 10
-77.05010973577272
 20
-96.08941486604208
 30
0.0
 10
-76.94753293920805
 20
-93.63679884458564
 30
0.0
 10
-76.36602245252462
 20
-91.3822946270295
 30
0.0
 10
-75.35446090302278
 20
-89.36978122967531
 30
0.0
 10
-74.32682807264979
 20
-88.33612446590668
 30
0.0
 10
-73.81980506062972
 20
-87.82612931919259
 30
0.0
 11
-64.00000000001006
 21
-112.155444566236
 31
0.0
 11
-66.45815448035322
 21
-111.2111390006179
 31
0.0
 11
-68.82748628285393
 21
-109.8315618964647
 31
0.0
 11
-71.02238149117517
 21
-108.0665610870055
 31
0.0
 11
-72.9635307555925
 21
-105.9799145640781
 31
0.0
 11
-74.58079141935579
 21
-103.6470199239825
 31
0.0
 11
-75.8157269546238
 21
-101.15217477431
 31
0.0
 11
-76.6237125107604
 21
-98.58552726187855
 31
0.0
 11
-76.97555425718767
 21
-96.03982064711221
 31
0.0
 11
-76.85853677552002
 21
-93.60704169054155
 31
0.0
 11
-76.27689037054051
 21
-91.37509566998509
 31
0.0
 11
-75.25163028799119
 21
-89.42463267787689
 31
0.0
 11
-73.81980506062972
 21
-87.82612931919259
 31
0.0
  0
SPLINE
  5
8E
330
47
100
AcDbEntity
  8
0
  6
Continuous
 62
     7
100
AcDbSpline
210
0.0
220
0.0
230
1.0
 70
     8
 71
     3
 72
    17
 73
    13
 74
    11
 42
0.000000001
 43
0.0000000001
 44
0.00000001
 40
0.0
 40
0.0
 40
0.0
 40
0.0
 40
1.52290600468078
 40
3.10572559914535
 40
4.731757527099433
 40
6.380299809214778
 40
8.028672262911027
 40
9.654209378691583
 40
11.23625344163571
 40
12.75817759118329
 40
14.20943179282202
 40
15.58750799980175
 40
15.58750799980175
 40
15.58750799980175
 40
15.58750799980175
 10
-59.00000000001006
 20
-102.8456714755533
 30
0.0
 10
-59.48124251236567
 20
-102.6809562425289
 30
0.0
 10
-60.46266039202981
 20
-102.3450455984745
 30
0.0
 10
-61.8353956449137
 20
-101.5500670383791
 30
0.0
 10
-63.12344710075993
 20
-100.5630888831699
 30
0.0
 10
-64.27988178749354
 20
-99.39117433608828
 30
0.0
 10
-65.27092120120057
 20
-98.07743674396978
 30
0.0
 10
-66.0644850987222
 20
-96.66103474304623
 30
0.0
 10
-66.63802054349561
 20
-95.18576662393926
 30
0.0
 10
-66.9650086848922
 20
-93.69878188602172
 30
0.0
 10
-67.06222342799603
 20
-92.23949579110717
 30
0.0
 10
-66.9014793362131
 20
-91.30733828381639
 30
0.0
 10
-66.82318603130838
 20
-90.85331422377523
 30
0.0
 11
-59.00000000001006
 21
-102.8456714755533
 31
0.0
 11
-60.42439256215973
 21
-102.3068314933208
 31
0.0
 11
-61.80338910040042
 21
-101.5298588970852
 31
0.0
 11
-63.09304008425797
 21
-100.5395154370331
 31
0.0
 11
-64.25224406181799
 21
-99.36736451102891
 31
0.0
 11
-65.24405612885354
 21
-98.0507626081214
 31
0.0
 11
-66.03686735240944
 21
-96.63167089783934
 31
0.0
 11
-66.60540973842396
 21
-95.15531627258183
 31
0.0
 11
-66.93156433648099
 21
-93.66875100130461
 31
0.0
 11
-67.00493561142784
 21
-92.21935270375768
 31
0.0
 11
-66.82318603130838
 21
-90.85331422377523
 31
0.0
  0
SPLINE
  5
8F
330
47
100
AcDbEntity
  8
0
  6
Continuous
 62
     7
100
AcDbSpline
210
0.0
220
0.0
230
1.0
 70
     8
 71
     3
 72
     9
 73
     5
 74
     3
 42
0.000000001
 43
0.0000000001
 44
0.00000001
 40
0.0
 40
0.0
 40
0.0
 40
0.0
 40
1.388487768210253
 40
2.851245863375841
 40
2.851245863375841
 40
2.851245863375841
 40
2.851245863375841
 10
-56.17681396871175
 20
-103.1466857762414
 30
0.0
 10
-56.64175759729262
 20
-103.1618325673758
 30
0.0
 10
-57.59651472696974
 20
-103.1929363329316
 30
0.0
 10
-58.52411739534747
 20
-102.9634192836028
 30
0.0
 10
-59.00000000001006
 20
-102.8456714755533
 30
0.0
 11
-56.17681396871175
 21
-103.1466857762414
 31
0.0
 11
-57.56520529771972
 21
-103.1303211021833
 31
0.0
 11
-59.00000000001006
 21
-102.8456714755533
 31
0.0
  0
SPLINE
  5
90
330
47
100
AcDbEntity
  8
0
  6
Continuous
 62
     7
100
AcDbSpline
210
0.0
220
0.0
230
1.0
 70
     8
 71
     3
 72
    21
 73
    17
 74
    15
 42
0.000000001
 43
0.0000000001
 44
0.00000001
 40
0.0
 40
0.0
 40
0.0
 40
0.0
 40
1.893528497897687
 40
3.880297876574527
 40
5.982232482280589
 40
8.20186055460578
 40
10.52480527237828
 40
12.92376412233043
 40
15.36285748965165
 40
17.80195085697284
 40
20.200909706925
 40
22.5238544246975
 40
24.7434824970227
 40
26.84541710272874
 40
28.83218648140562
 40
30.72571497930331
 40
30.72571497930331
 40
30.72571497930331
 40
30.72571497930331
 10
-65.6134099226968
 20
-84.35549390785101
 30
0.0
 10
-65.02312507795013
 20
-84.1234343577563
 30
0.0
 10
-63.81348865541879
 20
-83.64788822540575
 30
0.0
 10
-61.79736536139037
 20
-83.50386619489589
 30
0.0
 10
-59.70103186738158
 20
-83.75912126364383
 30
0.0
 10
-57.58066675724633
 20
-84.44373821840114
 30
0.0
 10
-55.51972752989737
 20
-85.51632188554136
 30
0.0
 10
-53.59175920740493
 20
-86.9394459633559
 30
0.0
 10
-51.86821880880952
 20
-88.65863280473553
 30
0.0
 10
-50.41288517605265
 20
-90.61009351879818
 30
0.0
 10
-49.27978167455193
 20
-92.7215907241661
 30
0.0
 10
-48.51261904597013
 20
-94.9146177926605
 30
0.0
 10
-48.13793329063931
 20
-97.11103741554048
 30
0.0
 10
-48.18477250523435
 20
-99.22233449463681
 30
0.0
 10
-48.61533496109685
 20
-101.1972044786099
 30
0.0
 10
-49.25880877150079
 20
-102.3264988839943
 30
0.0
 10
-49.57281456711924
 20
-102.8775780008602
 30
0.0
 11
-65.6134099226968
 21
-84.35549390785101
 31
0.0
 11
-63.81919583029234
 21
-83.7503113098459
 31
0.0
 11
-61.84072203861395
 21
-83.56894417281995
 31
0.0
 11
-59.75363404739761
 21
-83.81832904917725
 31
0.0
 11
-57.63773121075381
 21
-84.48892876005326
 31
0.0
 11
-55.57391433397863
 21
-85.55510513516825
 31
0.0
 11
-53.64109224071957
 21
-86.97609152321328
 31
0.0
 11
-51.91316646211689
 21
-88.6975586143402
 31
0.0
 11
-50.45620245026606
 21
-90.65368547892851
 31
0.0
 11
-49.32590810875578
 21
-92.76968128723
 31
0.0
 11
-48.56549814742149
 21
-94.96464116258514
 31
0.0
 11
-48.2040483979259
 21
-97.15464181667951
 31
0.0
 11
-48.25537681010532
 21
-99.25594962224687
 31
0.0
 11
-48.71752283528922
 21
-101.1882212476034
 31
0.0
 11
-49.57281456711924
 21
-102.8775780008602
 31
0.0
  0
SPLINE
  5
91
330
47
100
AcDbEntity
  8
0
  6
Continuous
 62
     7
100
AcDbSpline
210
0.0
220
0.0
230
1.0
 70
     8
 71
     3
 72
    13
 73
     9
 74
     7
 42
0.000000001
 43
0.0000000001
 44
0.00000001
 40
0.0
 40
0.0
 40
0.0
 40
0.0
 40
1.608820687769412
 40
3.242452149402294
 40
4.922668184051358
 40
6.665915638746728
 40
8.482125106342462
 40
10.37452769040586
 40
10.37452769040586
 40
10.37452769040586
 40
10.37452769040586
 10
-54.18019493939041
 20
-110.5039976997462
 30
0.0
 10
-54.60572296842284
 20
-110.8330297006337
 30
0.0
 10
-55.46334140679393
 20
-111.4961679282626
 30
0.0
 10
-56.97559447717986
 20
-112.1691750787936
 30
0.0
 10
-58.61448478308852
 20
-112.5915312474815
 30
0.0
 10
-60.36289577378782
 20
-112.7292124102038
 30
0.0
 10
-62.1852987785249
 20
-112.6070721580517
 30
0.0
 10
-63.3868708620875
 20
-112.3080349992259
 30
0.0
 10
-64.00000000001006
 20
-112.155444566236
 30
0.0
 11
-54.18019493939041
 21
-110.5039976997462
 31
0.0
 11
-55.49086854915815
 21
-111.4369707436134
 31
0.0
 11
-56.97487401892418
 21
-112.1199638078662
 31
0.0
 11
-58.60198220416016
 21
-112.539063894778
 31
0.0
 11
-60.33904855260736
 21
-112.6857342541915
 31
0.0
 11
-62.15068895064989
 21
-112.5569868198525
 31
0.0
 11
-64.00000000001006
 21
-112.155444566236
 31
0.0
  0
SPLINE
  5
92
330
47
100
AcDbEntity
  8
0
  6
Continuous
 62
     7
100
AcDbSpline
210
0.0
220
0.0
230
1.0
 70
     8
 71
     3
 72
    23
 73
    19
 74
    17
 42
0.000000001
 43
0.0000000001
 44
0.00000001
 40
0.0
 40
0.0
 40
0.0
 40
0.0
 40
2.213610055913218
 40
4.490118731990018
 40
6.878495292574518
 40
9.405582602054814
 40
12.0746983354093
 40
14.8686214680771
 40
17.75442418278721
 40
20.68875197289358
 40
23.62307976299993
 40
26.50888247771004
 40
29.30280561037785
 40
31.97192134373233
 40
34.49900865321261
 40
36.88738521379712
 40
39.16389388987393
 40
41.37750394578715
 40
41.37750394578715
 40
41.37750394578715
 40
41.37750394578715
 10
-72.31980506062972
 20
-86.52709121351593
 30
0.0
 10
-71.7231542835624
 20
-86.08591184489511
 30
0.0
 10
-70.51289918956591
 20
-85.19101722820199
 30
0.0
 10
-68.29444577316075
 20
-84.47941725338401
 30
0.0
 10
-65.89315828851596
 20
-84.25857831384837
 30
0.0
 10
-63.36547133839041
 20
-84.57151521930768
 30
0.0
 10
-60.81619468697446
 20
-85.38744790959379
 30
0.0
 10
-58.33551986431438
 20
-86.6759767935192
 30
0.0
 10
-56.01546766145292
 20
-88.38631765002957
 30
0.0
 10
-53.94159372528279
 20
-90.4542281539708
 30
0.0
 10
-52.19116082568908
 20
-92.80224681221353
 30
0.0
 10
-50.82979841939105
 20
-95.34283738689685
 30
0.0
 10
-49.90886768321177
 20
-97.98214427311711
 30
0.0
 10
-49.46548613333871
 20
-100.6218356190446
 30
0.0
 10
-49.5168570577458
 20
-103.1683021616795
 30
0.0
 10
-50.07847199187526
 20
-105.5134119857367
 30
0.0
 10
-51.09969522910428
 20
-107.6074542930132
 30
0.0
 10
-52.15830478169372
 20
-108.677454098012
 30
0.0
 10
-52.6801949393904
 20
-109.2049595940696
 30
0.0
 11
-72.31980506062972
 21
-86.52709121351593
 31
0.0
 11
-70.47203263990073
 21
-85.3081545515773
 31
0.0
 11
-68.31790021729456
 21
-84.57180865558806
 31
0.0
 11
-65.94018861076516
 21
-84.34635329062434
 31
0.0
 11
-63.43027280527465
 21
-84.6404500851994
 31
0.0
 11
-60.88460705102957
 21
-85.44279955276834
 31
0.0
 11
-58.40101979159718
 21
-86.72256546692782
 31
0.0
 11
-56.07495442420269
 21
-88.43056933390805
 31
0.0
 11
-53.99579935730245
 21
-90.50117160832801
 31
0.0
 11
-52.24345674310931
 21
-92.85480176906542
 31
0.0
 11
-50.88526638008916
 21
-95.40100997752181
 31
0.0
 11
-49.97342479708292
 21
-98.04194757575469
 31
0.0
 11
-49.54297130868639
 21
-100.6761245999449
 31
0.0
 11
-49.6104503720152
 21
-103.2023108265012
 31
0.0
 11
-50.17326639978005
 21
-105.5234270933665
 31
0.0
 11
-51.20979303375136
 21
-107.5502729951882
 31
0.0
 11
-52.6801949393904
 21
-109.2049595940696
 31
0.0
  0
ENDBLK
  5
49
330
47
100
AcDbEntity
  8
0
100
AcDbBlockEnd
  0
BLOCK
  5
4C
330
4A
100
AcDbEntity
  8
0
100
AcDbBlockBegin
  2
Allg1
 70
     0
 10
-61.50000000000507
 20
-97.00000000000398
 30
0.0
  3
Allg1
  1

  0
INSERT
  5
4B
330
4A
100
AcDbEntity
  8
0
100
AcDbBlockReference
  2
REDUC_M_KV_M25_M20-select__1
 10
-77.05454238301601
 20
-112.6917391385126
 30
0.0
  0
MTEXT
  5
94
330
4A
100
AcDbEntity
  8
1
 62
     6
100
AcDbMText
 10
-61.50000000000495
 20
-118.3967024721917
 30
0.0
 40
2.5
 41
0.0
 71
     2
 72
     1
  1
 
  7
CONVERTER_11
 73
     1
 44
1.32052821128451
  0
ENDBLK
  5
4D
330
4A
100
AcDbEntity
  8
0
100
AcDbBlockEnd
  0
BLOCK
  5
4F
330
4E
100
AcDbEntity
  8
0
100
AcDbBlockBegin
  2
REDUC_M_KV_M25_M20-select__2
 70
     0
 10
-149.4300628761595
 20
-96.50000000000989
 30
0.0
  3
REDUC_M_KV_M25_M20-select__2
  1

  0
LINE
  5
95
330
4E
100
AcDbEntity
  8
0
  6
Continuous
 62
     7
100
AcDbLine
 10
-149.4300628761595
 20
-93.50000000000989
 30
0.0
 11
-146.9300628761595
 21
-93.50000000000989
 31
0.0
  0
LINE
  5
96
330
4E
100
AcDbEntity
  8
0
  6
Continuous
 62
     7
100
AcDbLine
 10
-121.9300628761595
 20
-93.50000000000989
 30
0.0
 11
-119.4300628761595
 21
-93.50000000000989
 31
0.0
  0
LINE
  5
97
330
4E
100
AcDbEntity
  8
0
  6
Continuous
 62
     7
100
AcDbLine
 10
-146.9300628761595
 20
-93.50000000000989
 30
0.0
 11
-121.9300628761595
 21
-93.50000000000989
 31
0.0
  0
LINE
  5
98
330
4E
100
AcDbEntity
  8
0
  6
Continuous
 62
     7
100
AcDbLine
 10
-119.4300628761595
 20
-96.50000000000989
 30
0.0
 11
-119.4300628761595
 21
-93.50000000000989
 31
0.0
  0
LINE
  5
99
330
4E
100
AcDbEntity
  8
0
  6
Continuous
 62
     7
100
AcDbLine
 10
-146.9300628761595
 20
-86.50000000000989
 30
0.0
 11
-121.9300628761595
 21
-86.50000000000989
 31
0.0
  0
LINE
  5
9A
330
4E
100
AcDbEntity
  8
0
  6
Continuous
 62
     7
100
AcDbLine
 10
-149.4300628761595
 20
-96.50000000000989
 30
0.0
 11
-149.4300628761595
 21
-93.50000000000989
 31
0.0
  0
LINE
  5
9B
330
4E
100
AcDbEntity
  8
0
  6
Continuous
 62
     7
100
AcDbLine
 10
-146.9300628761595
 20
-93.50000000000989
 30
0.0
 11
-146.9300628761595
 21
-86.50000000000989
 31
0.0
  0
LINE
  5
9C
330
4E
100
AcDbEntity
  8
0
  6
Continuous
 62
     7
100
AcDbLine
 10
-121.9300628761595
 20
-93.50000000000989
 30
0.0
 11
-121.9300628761595
 21
-86.50000000000989
 31
0.0
  0
LINE
  5
9D
330
4E
100
AcDbEntity
  8
0
  6
Continuous
 62
     7
100
AcDbLine
 10
-149.4300628761595
 20
-96.50000000000989
 30
0.0
 11
-119.4300628761595
 21
-96.50000000000989
 31
0.0
  0
LINE
  5
9E
330
4E
100
AcDbEntity
  8
1
  6
DOT_CENTER
 62
     2
100
AcDbLine
 10
-134.4300628761595
 20
-96.50000000000989
 30
0.0
 11
-134.4300628761595
 21
-86.50000000000989
 31
0.0
  0
ENDBLK
  5
50
330
4E
100
AcDbEntity
  8
0
100
AcDbBlockEnd
  0
BLOCK
  5
53
330
51
100
AcDbEntity
  8
0
100
AcDbBlockBegin
  2
Drfsicht1
 70
     0
 10
-134.4300628761595
 20
-91.49999999999989
 30
0.0
  3
Drfsicht1
  1

  0
INSERT
  5
52
330
51
100
AcDbEntity
  8
0
100
AcDbBlockReference
  2
REDUC_M_KV_M25_M20-select__2
 10
-149.4300628761595
 20
-96.50000000000989
 30
0.0
  0
MTEXT
  5
9F
330
51
100
AcDbEntity
  8
1
 62
     6
100
AcDbMText
 10
-134.4300628761595
 20
-98.99999999999989
 30
0.0
 40
2.5
 41
0.0
 71
     2
 72
     1
  1
 
  7
CONVERTER_11
 73
     1
 44
1.32052821128451
  0
DIMENSION
  5
AA
330
51
100
AcDbEntity
  8
1
100
AcDbDimension
  2
*D17
 10
-154.4300628761595
 20
-96.50000000000989
 30
0.0
 11
-156.0550628761595
 21
-91.3334497007285
 31
0.0
 70
    32
  1
<>
 71
     5
 42
-1.0
 53
90.0
  3
ME10_DIM_10
100
AcDbAlignedDimension
 13
-146.9300628761595
 23
-86.50000000000989
 33
0.0
 14
-149.4300628761595
 24
-96.50000000000989
 34
0.0
 50
90.0
100
AcDbRotatedDimension
  0
DIMENSION
  5
B5
330
51
100
AcDbEntity
  8
1
100
AcDbDimension
  2
*D18
 10
-149.4300628761595
 20
-101.5000000000099
 30
0.0
 11
-134.4300628761595
 21
-99.87500000000989
 31
0.0
 70
    32
  1
<>
 71
     5
 42
-1.0
 53
0.00013888888889
  3
ME10_DIM_11
100
AcDbAlignedDimension
 13
-119.4300628761595
 23
-96.50000000000989
 33
0.0
 14
-149.4300628761595
 24
-96.50000000000989
 34
0.0
100
AcDbRotatedDimension
  0
ENDBLK
  5
54
330
51
100
AcDbEntity
  8
0
100
AcDbBlockEnd
  0
BLOCK
  5
56
330
55
100
AcDbEntity
  8
0
100
AcDbBlockBegin
  2
REDUC_M_KV_M25_M20-select__3
 70
     0
 10
-89.5
 20
-76.49999999999997
 30
0.0
  3
REDUC_M_KV_M25_M20-select__3
  1

  0
LINE
  5
B6
330
55
100
AcDbEntity
  8
1
  6
DOT_CENTER
 62
     2
100
AcDbLine
 10
-58.0
 20
-61.49999999999997
 30
0.0
 11
-91.0
 21
-61.49999999999997
 31
0.0
  0
LINE
  5
B7
330
55
100
AcDbEntity
  8
1
  6
DOT_CENTER
 62
     2
100
AcDbLine
 10
-74.5
 20
-44.99999999999997
 30
0.0
 11
-74.5
 21
-77.99999999999997
 31
0.0
  0
CIRCLE
  5
B8
330
55
100
AcDbEntity
  8
0
  6
Continuous
 62
     7
100
AcDbCircle
 10
-74.5
 20
-61.49999999999997
 30
0.0
 40
12.5
  0
CIRCLE
  5
B9
330
55
100
AcDbEntity
  8
0
  6
Continuous
 62
     7
100
AcDbCircle
 10
-74.5
 20
-61.49999999999997
 30
0.0
 40
9.25
  0
CIRCLE
  5
BA
330
55
100
AcDbEntity
  8
0
  6
Continuous
 62
     7
100
AcDbCircle
 10
-74.5
 20
-61.49999999999997
 30
0.0
 40
15.0
  0
ENDBLK
  5
57
330
55
100
AcDbEntity
  8
0
100
AcDbBlockEnd
  0
BLOCK
  5
5A
330
58
100
AcDbEntity
  8
0
100
AcDbBlockBegin
  2
Rckans1
 70
     0
 10
-74.5
 20
-61.49999999999997
 30
0.0
  3
Rckans1
  1

  0
INSERT
  5
59
330
58
100
AcDbEntity
  8
0
100
AcDbBlockReference
  2
REDUC_M_KV_M25_M20-select__3
 10
-89.5
 20
-76.49999999999997
 30
0.0
  0
MTEXT
  5
BB
330
58
100
AcDbEntity
  8
1
 62
     6
100
AcDbMText
 10
-74.5
 20
-79.0
 30
0.0
 40
2.5
 41
0.0
 71
     2
 72
     1
  1
 
  7
CONVERTER_11
 73
     1
 44
1.32052821128451
  0
ENDBLK
  5
5B
330
58
100
AcDbEntity
  8
0
100
AcDbBlockEnd
  0
BLOCK
  5
5D
330
5C
100
AcDbEntity
  8
0
100
AcDbBlockBegin
  2
REDUC_M_KV_M25_M20-select__4
 70
     0
 10
-109.4650325642295
 20
-76.50000000000001
 30
0.0
  3
REDUC_M_KV_M25_M20-select__4
  1

  0
LINE
  5
BC
330
5C
100
AcDbEntity
  8
0
  6
Continuous
 62
     7
100
AcDbLine
 10
-109.4650325642295
 20
-74.00000000000001
 30
0.0
 11
-109.4650325642295
 21
-49.0
 31
0.0
  0
LINE
  5
BD
330
5C
100
AcDbEntity
  8
0
  6
Continuous
 62
     7
100
AcDbLine
 10
-102.4650325642295
 20
-49.0
 30
0.0
 11
-109.4650325642295
 21
-49.0
 31
0.0
  0
LINE
  5
BE
330
5C
100
AcDbEntity
  8
0
  6
Continuous
 62
     7
100
AcDbLine
 10
-102.4650325642295
 20
-74.00000000000001
 30
0.0
 11
-109.4650325642295
 21
-74.00000000000001
 31
0.0
  0
LINE
  5
BF
330
5C
100
AcDbEntity
  8
0
  6
Continuous
 62
     7
100
AcDbLine
 10
-102.4650325642295
 20
-49.0
 30
0.0
 11
-102.4650325642295
 21
-46.5
 31
0.0
  0
LINE
  5
C0
330
5C
100
AcDbEntity
  8
0
  6
Continuous
 62
     7
100
AcDbLine
 10
-102.4650325642295
 20
-76.50000000000001
 30
0.0
 11
-102.4650325642295
 21
-74.00000000000001
 31
0.0
  0
LINE
  5
C1
330
5C
100
AcDbEntity
  8
0
  6
Continuous
 62
     7
100
AcDbLine
 10
-102.4650325642295
 20
-74.00000000000001
 30
0.0
 11
-102.4650325642295
 21
-49.0
 31
0.0
  0
LINE
  5
C2
330
5C
100
AcDbEntity
  8
0
  6
Continuous
 62
     7
100
AcDbLine
 10
-99.46503256422947
 20
-46.5
 30
0.0
 11
-102.4650325642295
 21
-46.5
 31
0.0
  0
LINE
  5
C3
330
5C
100
AcDbEntity
  8
0
  6
Continuous
 62
     7
100
AcDbLine
 10
-99.46503256422947
 20
-76.50000000000001
 30
0.0
 11
-102.4650325642295
 21
-76.50000000000001
 31
0.0
  0
LINE
  5
C4
330
5C
100
AcDbEntity
  8
0
  6
Continuous
 62
     7
100
AcDbLine
 10
-99.46503256422947
 20
-76.50000000000001
 30
0.0
 11
-99.46503256422947
 21
-46.5
 31
0.0
  0
LINE
  5
C5
330
5C
100
AcDbEntity
  8
1
  6
DOT_CENTER
 62
     2
100
AcDbLine
 10
-99.46503256422952
 20
-61.50000000000001
 30
0.0
 11
-109.4650325642295
 21
-61.50000000000001
 31
0.0
  0
ENDBLK
  5
5E
330
5C
100
AcDbEntity
  8
0
100
AcDbBlockEnd
  0
BLOCK
  5
61
330
5F
100
AcDbEntity
  8
0
100
AcDbBlockBegin
  2
SA_Links1
 70
     0
 10
-104.4650325642395
 20
-61.5
 30
0.0
  3
SA_Links1
  1

  0
INSERT
  5
60
330
5F
100
AcDbEntity
  8
0
100
AcDbBlockReference
  2
REDUC_M_KV_M25_M20-select__4
 10
-109.4650325642295
 20
-76.50000000000001
 30
0.0
  0
MTEXT
  5
C6
330
5F
100
AcDbEntity
  8
1
 62
     6
100
AcDbMText
 10
-104.4650325642396
 20
-79.0
 30
0.0
 40
2.5
 41
0.0
 71
     2
 72
     1
  1
 
  7
CONVERTER_11
 73
     1
 44
1.32052821128451
  0
ENDBLK
  5
62
330
5F
100
AcDbEntity
  8
0
100
AcDbBlockEnd
  0
BLOCK
  5
64
330
63
100
AcDbEntity
  8
0
100
AcDbBlockBegin
  2
REDUC_M_KV_M25_M20-select__5
 70
     0
 10
-169.395096440409
 20
-76.49999999999997
 30
0.0
  3
REDUC_M_KV_M25_M20-select__5
  1

  0
LINE
  5
C7
330
63
100
AcDbEntity
  8
0
  6
Continuous
 62
     7
100
AcDbLine
 10
-169.395096440409
 20
-76.49999999999997
 30
0.0
 11
-166.395096440409
 21
-76.49999999999997
 31
0.0
  0
LINE
  5
C8
330
63
100
AcDbEntity
  8
0
  6
Continuous
 62
     7
100
AcDbLine
 10
-159.395096440409
 20
-48.99999999999997
 30
0.0
 11
-159.395096440409
 21
-73.99999999999997
 31
0.0
  0
LINE
  5
C9
330
63
100
AcDbEntity
  8
0
  6
Continuous
 62
     7
100
AcDbLine
 10
-169.395096440409
 20
-46.49999999999997
 30
0.0
 11
-166.395096440409
 21
-46.49999999999997
 31
0.0
  0
LINE
  5
CA
330
63
100
AcDbEntity
  8
0
  6
Continuous
 62
     7
100
AcDbLine
 10
-166.395096440409
 20
-46.49999999999997
 30
0.0
 11
-166.395096440409
 21
-48.99999999999997
 31
0.0
  0
LINE
  5
CB
330
63
100
AcDbEntity
  8
0
  6
Continuous
 62
     7
100
AcDbLine
 10
-166.395096440409
 20
-73.99999999999997
 30
0.0
 11
-166.395096440409
 21
-76.49999999999997
 31
0.0
  0
LINE
  5
CC
330
63
100
AcDbEntity
  8
0
  6
Continuous
 62
     7
100
AcDbLine
 10
-166.395096440409
 20
-48.99999999999997
 30
0.0
 11
-166.395096440409
 21
-73.99999999999997
 31
0.0
  0
LINE
  5
CD
330
63
100
AcDbEntity
  8
0
  6
Continuous
 62
     7
100
AcDbLine
 10
-166.395096440409
 20
-73.99999999999997
 30
0.0
 11
-159.395096440409
 21
-73.99999999999997
 31
0.0
  0
LINE
  5
CE
330
63
100
AcDbEntity
  8
0
  6
Continuous
 62
     7
100
AcDbLine
 10
-166.395096440409
 20
-48.99999999999997
 30
0.0
 11
-159.395096440409
 21
-48.99999999999997
 31
0.0
  0
LINE
  5
CF
330
63
100
AcDbEntity
  8
0
  6
Continuous
 62
     7
100
AcDbLine
 10
-169.395096440409
 20
-46.49999999999997
 30
0.0
 11
-169.395096440409
 21
-76.49999999999997
 31
0.0
  0
LINE
  5
D0
330
63
100
AcDbEntity
  8
1
  6
DOT_CENTER
 62
     2
100
AcDbLine
 10
-169.395096440409
 20
-61.50000000000001
 30
0.0
 11
-159.395096440409
 21
-61.49999999999997
 31
0.0
  0
ENDBLK
  5
65
330
63
100
AcDbEntity
  8
0
100
AcDbBlockEnd
  0
BLOCK
  5
68
330
66
100
AcDbEntity
  8
0
100
AcDbBlockBegin
  2
SA_Rechts1
 70
     0
 10
-164.395096440399
 20
-61.49999999999997
 30
0.0
  3
SA_Rechts1
  1

  0
INSERT
  5
67
330
66
100
AcDbEntity
  8
0
100
AcDbBlockReference
  2
REDUC_M_KV_M25_M20-select__5
 10
-169.395096440409
 20
-76.49999999999997
 30
0.0
  0
MTEXT
  5
D1
330
66
100
AcDbEntity
  8
1
 62
     6
100
AcDbMText
 10
-164.395096440399
 20
-79.0
 30
0.0
 40
2.5
 41
0.0
 71
     2
 72
     1
  1
 
  7
CONVERTER_11
 73
     1
 44
1.32052821128451
  0
ENDBLK
  5
69
330
66
100
AcDbEntity
  8
0
100
AcDbBlockEnd
  0
BLOCK
  5
6B
330
6A
100
AcDbEntity
  8
0
100
AcDbBlockBegin
  2
REDUC_M_KV_M25_M20-select__6
 70
     0
 10
-149.4300632476807
 20
-76.49999999999997
 30
0.0
  3
REDUC_M_KV_M25_M20-select__6
  1

  0
LINE
  5
D2
330
6A
100
AcDbEntity
  8
1
  6
DOT_CENTER
 62
     2
100
AcDbLine
 10
-117.9300632476807
 20
-61.49999999999997
 30
0.0
 11
-150.9300632476807
 21
-61.49999999999997
 31
0.0
  0
LINE
  5
D3
330
6A
100
AcDbEntity
  8
1
  6
DOT_CENTER
 62
     2
100
AcDbLine
 10
-134.4300632476807
 20
-44.99999999999997
 30
0.0
 11
-134.4300632476807
 21
-77.99999999999997
 31
0.0
  0
CIRCLE
  5
D4
330
6A
100
AcDbEntity
  8
0
  6
Continuous
 62
     7
100
AcDbCircle
 10
-134.4300632476807
 20
-61.49999999999997
 30
0.0
 40
9.25
  0
CIRCLE
  5
D5
330
6A
100
AcDbEntity
  8
0
  6
Continuous
 62
     7
100
AcDbCircle
 10
-134.4300632476807
 20
-61.49999999999997
 30
0.0
 40
15.0
  0
ENDBLK
  5
6C
330
6A
100
AcDbEntity
  8
0
100
AcDbBlockEnd
  0
BLOCK
  5
6F
330
6D
100
AcDbEntity
  8
0
100
AcDbBlockBegin
  2
Vordans1
 70
     0
 10
-134.4300632476807
 20
-61.49999999999997
 30
0.0
  3
Vordans1
  1

  0
INSERT
  5
6E
330
6D
100
AcDbEntity
  8
0
100
AcDbBlockReference
  2
REDUC_M_KV_M25_M20-select__6
 10
-149.4300632476807
 20
-76.49999999999997
 30
0.0
  0
MTEXT
  5
D6
330
6D
100
AcDbEntity
  8
1
 62
     6
100
AcDbMText
 10
-134.4300632476807
 20
-79.0
 30
0.0
 40
2.5
 41
0.0
 71
     2
 72
     1
  1
 
  7
CONVERTER_11
 73
     1
 44
1.32052821128451
  0
ENDBLK
  5
70
330
6D
100
AcDbEntity
  8
0
100
AcDbBlockEnd
  0
BLOCK
  5
72
330
71
100
AcDbEntity
  8
0
100
AcDbBlockBegin
  2
_rahmen
 70
     0
 10
-83.89509644040895
 20
-265.3967024721918
 30
0.0
  3
_rahmen
  1

  0
LINE
  5
D7
330
71
100
AcDbEntity
  8
1
  6
Continuous
 62
     6
100
AcDbLine
 10
-213.439900967159
 20
-234.8967024721916
 30
0.0
 11
-83.89509644040726
 21
-234.8967024721916
 31
0.0
  0
LINE
  5
D8
330
71
100
AcDbEntity
  8
1
  6
Continuous
 62
     7
100
AcDbLine
 10
-195.239900967159
 20
-256.1467024721916
 30
0.0
 11
-177.039900967159
 21
-256.1467024721916
 31
0.0
  0
LINE
  5
D9
330
71
100
AcDbEntity
  8
1
  6
Continuous
 62
     6
100
AcDbLine
 10
-195.239900967159
 20
-260.3967024721916
 30
0.0
 11
-213.439900967159
 21
-260.3967024721918
 31
0.0
  0
LINE
  5
DA
330
71
100
AcDbEntity
  8
1
  6
Continuous
 62
     7
100
AcDbLine
 10
-195.239900967159
 20
-256.1467024721916
 30
0.0
 11
-195.239900967159
 21
-260.3967024721916
 31
0.0
  0
LINE
  5
DB
330
71
100
AcDbEntity
  8
1
  6
Continuous
 62
     7
100
AcDbLine
 10
-177.039900967159
 20
-256.1467024721916
 30
0.0
 11
-177.039900967159
 21
-260.3967024721918
 31
0.0
  0
LINE
  5
DC
330
71
100
AcDbEntity
  8
1
  6
Continuous
 62
     7
100
AcDbLine
 10
-213.439900967159
 20
-256.1467024721918
 30
0.0
 11
-213.439900967159
 21
-260.3967024721918
 31
0.0
  0
LINE
  5
DD
330
71
100
AcDbEntity
  8
1
  6
Continuous
 62
     7
100
AcDbLine
 10
-213.439900967159
 20
-256.1467024721918
 30
0.0
 11
-195.239900967159
 21
-256.1467024721916
 31
0.0
  0
LINE
  5
DE
330
71
100
AcDbEntity
  8
1
  6
Continuous
 62
     2
100
AcDbLine
 10
-204.2032460805964
 20
-236.7717024721917
 30
0.0
 11
-204.2032460805964
 21
-241.7717024721917
 31
0.0
  0
LINE
  5
DF
330
71
100
AcDbEntity
  8
1
  6
Continuous
 62
     2
100
AcDbLine
 10
-204.2032460805964
 20
-241.7717024721917
 30
0.0
 11
-209.2032460805964
 21
-240.5217024721917
 31
0.0
  0
LINE
  5
E0
330
71
100
AcDbEntity
  8
1
  6
Continuous
 62
     2
100
AcDbLine
 10
-209.2032460805964
 20
-240.5217024721917
 30
0.0
 11
-209.2032460805964
 21
-238.0217024721917
 31
0.0
  0
LINE
  5
E1
330
71
100
AcDbEntity
  8
1
  6
Continuous
 62
     2
100
AcDbLine
 10
-209.2032460805964
 20
-238.0217024721917
 30
0.0
 11
-204.2032460805964
 21
-236.7717024721917
 31
0.0
  0
LINE
  5
E2
330
71
100
AcDbEntity
  8
1
  6
Continuous
 62
     6
100
AcDbLine
 10
-335.8950964404072
 20
-260.3967024721916
 30
0.0
 11
-370.8950964404071
 21
-260.3967024721916
 31
0.0
  0
LINE
  5
E3
330
71
100
AcDbEntity
  8
1
  6
Continuous
 62
     6
100
AcDbLine
 10
-83.89509644040726
 20
-243.3967024721916
 30
0.0
 11
-83.89509644040766
 21
-251.8967024721916
 31
0.0
  0
LINE
  5
E4
330
71
100
AcDbEntity
  8
1
  6
Continuous
 62
     6
100
AcDbLine
 10
-177.039900967159
 20
-260.3967024721918
 30
0.0
 11
-177.395096440409
 21
-260.3967024721916
 31
0.0
  0
LINE
  5
E5
330
71
100
AcDbEntity
  8
1
  6
Continuous
 62
     6
100
AcDbLine
 10
-329.6950964404092
 20
-260.3967024721918
 30
0.0
 11
-335.8950964404072
 21
-260.3967024721916
 31
0.0
  0
LINE
  5
E6
330
71
100
AcDbEntity
  8
1
  6
Continuous
 62
     7
100
AcDbLine
 10
-177.039900967159
 20
-243.3967024721916
 30
0.0
 11
-177.039900967159
 21
-256.1467024721916
 31
0.0
  0
LINE
  5
E7
330
71
100
AcDbEntity
  8
1
  6
Continuous
 62
     7
100
AcDbLine
 10
-213.439900967159
 20
-243.3967024721916
 30
0.0
 11
-213.439900967159
 21
-256.1467024721918
 31
0.0
  0
LINE
  5
E8
330
71
100
AcDbEntity
  8
1
  6
Continuous
 62
     6
100
AcDbLine
 10
-227.3950964404089
 20
-260.3967024721916
 30
0.0
 11
-277.3950964404091
 21
-260.3967024721916
 31
0.0
  0
LINE
  5
E9
330
71
100
AcDbEntity
  8
1
  6
Continuous
 62
     6
100
AcDbLine
 10
-329.6950964404092
 20
-260.3967024721918
 30
0.0
 11
-327.3950964404089
 21
-260.3967024721916
 31
0.0
  0
LINE
  5
EA
330
71
100
AcDbEntity
  8
1
  6
Continuous
 62
     6
100
AcDbLine
 10
-177.039900967159
 20
-260.3967024721918
 30
0.0
 11
-127.395096440409
 21
-260.3967024721916
 31
0.0
  0
LINE
  5
EB
330
71
100
AcDbEntity
  8
1
  6
Continuous
 62
     6
100
AcDbLine
 10
-83.89509644040895
 20
-260.3967024721916
 30
0.0
 11
-83.89509644040766
 21
-251.8967024721916
 31
0.0
  0
LINE
  5
EC
330
71
100
AcDbEntity
  8
1
  6
Continuous
 62
     2
100
AcDbLine
 10
-375.895096440408
 20
-260.3967024721916
 30
0.0
 11
-375.895096440408
 21
-265.3967024721918
 31
0.0
  0
LINE
  5
ED
330
71
100
AcDbEntity
  8
1
  6
Continuous
 62
     2
100
AcDbLine
 10
-370.8950964404071
 20
-260.3967024721916
 30
0.0
 11
-375.895096440408
 21
-260.3967024721916
 31
0.0
  0
LINE
  5
EE
330
71
100
AcDbEntity
  8
1
  6
Continuous
 62
     2
100
AcDbLine
 10
-370.8950964404071
 20
-265.3967024721918
 30
0.0
 11
-327.3950964404089
 21
-265.3967024721918
 31
0.0
  0
LINE
  5
EF
330
71
100
AcDbEntity
  8
1
  6
Continuous
 62
     2
100
AcDbLine
 10
-370.8950964404071
 20
-260.3967024721916
 30
0.0
 11
-370.8950964404071
 21
-265.3967024721918
 31
0.0
  0
LINE
  5
F0
330
71
100
AcDbEntity
  8
1
  6
Continuous
 62
     2
100
AcDbLine
 10
-127.395096440409
 20
-265.3967024721918
 30
0.0
 11
-177.395096440409
 21
-265.3967024721918
 31
0.0
  0
LINE
  5
F1
330
71
100
AcDbEntity
  8
1
  6
Continuous
 62
     2
100
AcDbLine
 10
-127.395096440409
 20
-265.3967024721918
 30
0.0
 11
-127.395096440409
 21
-260.3967024721916
 31
0.0
  0
LINE
  5
F2
330
71
100
AcDbEntity
  8
1
  6
Continuous
 62
     2
100
AcDbLine
 10
-177.395096440409
 20
-265.3967024721918
 30
0.0
 11
-177.395096440409
 21
-260.3967024721916
 31
0.0
  0
LINE
  5
F3
330
71
100
AcDbEntity
  8
1
  6
Continuous
 62
     2
100
AcDbLine
 10
-227.3950964404089
 20
-265.3967024721918
 30
0.0
 11
-177.395096440409
 21
-265.3967024721918
 31
0.0
  0
LINE
  5
F4
330
71
100
AcDbEntity
  8
1
  6
Continuous
 62
     2
100
AcDbLine
 10
-227.3950964404089
 20
-265.3967024721918
 30
0.0
 11
-227.3950964404089
 21
-260.3967024721916
 31
0.0
  0
LINE
  5
F5
330
71
100
AcDbEntity
  8
1
  6
Continuous
 62
     2
100
AcDbLine
 10
-277.3950964404091
 20
-265.3967024721918
 30
0.0
 11
-227.3950964404089
 21
-265.3967024721918
 31
0.0
  0
LINE
  5
F6
330
71
100
AcDbEntity
  8
1
  6
Continuous
 62
     2
100
AcDbLine
 10
-277.3950964404091
 20
-265.3967024721918
 30
0.0
 11
-277.3950964404091
 21
-260.3967024721916
 31
0.0
  0
LINE
  5
F7
330
71
100
AcDbEntity
  8
1
  6
Continuous
 62
     2
100
AcDbLine
 10
-327.3950964404089
 20
-265.3967024721918
 30
0.0
 11
-277.3950964404091
 21
-265.3967024721918
 31
0.0
  0
LINE
  5
F8
330
71
100
AcDbEntity
  8
1
  6
Continuous
 62
     2
100
AcDbLine
 10
-327.3950964404089
 20
-265.3967024721918
 30
0.0
 11
-327.3950964404089
 21
-260.3967024721916
 31
0.0
  0
LINE
  5
F9
330
71
100
AcDbEntity
  8
1
  6
Continuous
 62
     6
100
AcDbLine
 10
-370.8950964404072
 20
-210.3967024721915
 30
0.0
 11
-370.8950964404071
 21
-260.3967024721916
 31
0.0
  0
LINE
  5
FA
330
71
100
AcDbEntity
  8
1
  6
Continuous
 62
     2
100
AcDbLine
 10
-375.895096440408
 20
-210.3967024721915
 30
0.0
 11
-375.895096440408
 21
-260.3967024721916
 31
0.0
  0
LINE
  5
FB
330
71
100
AcDbEntity
  8
1
  6
Continuous
 62
     2
100
AcDbLine
 10
-375.895096440408
 20
-210.3967024721915
 30
0.0
 11
-370.8950964404072
 21
-210.3967024721915
 31
0.0
  0
LINE
  5
FC
330
71
100
AcDbEntity
  8
1
  6
Continuous
 62
     6
100
AcDbLine
 10
-370.8950964404074
 20
-160.3967024721917
 30
0.0
 11
-370.8950964404072
 21
-210.3967024721915
 31
0.0
  0
LINE
  5
FD
330
71
100
AcDbEntity
  8
1
  6
Continuous
 62
     2
100
AcDbLine
 10
-375.895096440408
 20
-160.3967024721917
 30
0.0
 11
-375.895096440408
 21
-210.3967024721915
 31
0.0
  0
LINE
  5
FE
330
71
100
AcDbEntity
  8
1
  6
Continuous
 62
     2
100
AcDbLine
 10
-375.895096440408
 20
-160.3967024721917
 30
0.0
 11
-370.8950964404074
 21
-160.3967024721917
 31
0.0
  0
LINE
  5
FF
330
71
100
AcDbEntity
  8
1
  6
Continuous
 62
     6
100
AcDbLine
 10
-370.895096440408
 20
-110.3967024721916
 30
0.0
 11
-370.8950964404074
 21
-160.3967024721917
 31
0.0
  0
LINE
  5
100
330
71
100
AcDbEntity
  8
1
  6
Continuous
 62
     2
100
AcDbLine
 10
-375.895096440408
 20
-110.3967024721916
 30
0.0
 11
-375.895096440408
 21
-160.3967024721917
 31
0.0
  0
LINE
  5
101
330
71
100
AcDbEntity
  8
1
  6
Continuous
 62
     2
100
AcDbLine
 10
-375.895096440408
 20
-110.3967024721916
 30
0.0
 11
-370.895096440408
 21
-110.3967024721916
 31
0.0
  0
LINE
  5
102
330
71
100
AcDbEntity
  8
1
  6
Continuous
 62
     6
100
AcDbLine
 10
-370.895096440408
 20
-75.39670247219163
 30
0.0
 11
-370.895096440408
 21
-110.3967024721916
 31
0.0
  0
LINE
  5
103
330
71
100
AcDbEntity
  8
1
  6
Continuous
 62
     2
100
AcDbLine
 10
-375.895096440408
 20
-55.39670247219164
 30
0.0
 11
-375.895096440408
 21
-110.3967024721916
 31
0.0
  0
LINE
  5
104
330
71
100
AcDbEntity
  8
1
  6
Continuous
 62
     2
100
AcDbLine
 10
-375.895096440408
 20
-265.3967024721918
 30
0.0
 11
-370.8950964404071
 21
-265.3967024721918
 31
0.0
  0
LINE
  5
105
330
71
100
AcDbEntity
  8
1
  6
Continuous
 62
     2
100
AcDbLine
 10
-227.3950964404089
 20
-55.39670247219164
 30
0.0
 11
-227.3950964404089
 21
-64.60539431689295
 31
0.0
  0
LINE
  5
106
330
71
100
AcDbEntity
  8
1
  6
Continuous
 62
     2
100
AcDbLine
 10
-227.3950964404089
 20
-55.39670247219164
 30
0.0
 11
-375.895096440408
 21
-55.39670247219164
 31
0.0
  0
LINE
  5
107
330
71
100
AcDbEntity
  8
1
  6
Continuous
 62
     2
100
AcDbLine
 10
-78.89509644040996
 20
-260.3967024721916
 30
0.0
 11
-78.89509644040996
 21
-210.3967024721915
 31
0.0
  0
LINE
  5
108
330
71
100
AcDbEntity
  8
1
  6
Continuous
 62
     2
100
AcDbLine
 10
-78.89509644040996
 20
-110.3967024721916
 30
0.0
 11
-78.89509644040996
 21
-55.39670247219164
 31
0.0
  0
LINE
  5
109
330
71
100
AcDbEntity
  8
1
  6
Continuous
 62
     6
100
AcDbLine
 10
-83.89509644040976
 20
-110.3967024721916
 30
0.0
 11
-83.89509644040996
 21
-75.39670247219163
 31
0.0
  0
LINE
  5
10A
330
71
100
AcDbEntity
  8
1
  6
Continuous
 62
     2
100
AcDbLine
 10
-83.89509644040976
 20
-110.3967024721916
 30
0.0
 11
-78.89509644040996
 21
-110.3967024721916
 31
0.0
  0
LINE
  5
10B
330
71
100
AcDbEntity
  8
1
  6
Continuous
 62
     2
100
AcDbLine
 10
-78.89509644040996
 20
-160.3967024721917
 30
0.0
 11
-78.89509644040996
 21
-110.3967024721916
 31
0.0
  0
LINE
  5
10C
330
71
100
AcDbEntity
  8
1
  6
Continuous
 62
     6
100
AcDbLine
 10
-83.89509644040855
 20
-160.3967024721917
 30
0.0
 11
-83.89509644040976
 21
-110.3967024721916
 31
0.0
  0
LINE
  5
10D
330
71
100
AcDbEntity
  8
1
  6
Continuous
 62
     2
100
AcDbLine
 10
-83.89509644040855
 20
-160.3967024721917
 30
0.0
 11
-78.89509644040996
 21
-160.3967024721917
 31
0.0
  0
LINE
  5
10E
330
71
100
AcDbEntity
  8
1
  6
Continuous
 62
     2
100
AcDbLine
 10
-78.89509644040996
 20
-210.3967024721915
 30
0.0
 11
-78.89509644040996
 21
-160.3967024721917
 31
0.0
  0
LINE
  5
10F
330
71
100
AcDbEntity
  8
1
  6
Continuous
 62
     6
100
AcDbLine
 10
-83.89509644040805
 20
-210.3967024721915
 30
0.0
 11
-83.89509644040855
 21
-160.3967024721917
 31
0.0
  0
LINE
  5
110
330
71
100
AcDbEntity
  8
1
  6
Continuous
 62
     2
100
AcDbLine
 10
-83.89509644040805
 20
-210.3967024721915
 30
0.0
 11
-78.89509644040996
 21
-210.3967024721915
 31
0.0
  0
LINE
  5
111
330
71
100
AcDbEntity
  8
1
  6
Continuous
 62
     6
100
AcDbLine
 10
-83.89509644040996
 20
-75.39670247219163
 30
0.0
 11
-370.895096440408
 21
-75.39670247219163
 31
0.0
  0
LINE
  5
112
330
71
100
AcDbEntity
  8
1
  6
Continuous
 62
     2
100
AcDbLine
 10
-78.89509644040996
 20
-55.39670247219164
 30
0.0
 11
-227.3950964404089
 21
-55.39670247219164
 31
0.0
  0
LINE
  5
113
330
71
100
AcDbEntity
  8
1
  6
Continuous
 62
     6
100
AcDbLine
 10
-83.89509644040726
 20
-243.3967024721916
 30
0.0
 11
-83.89509644040805
 21
-210.3967024721915
 31
0.0
  0
LINE
  5
114
330
71
100
AcDbEntity
  8
1
  6
Continuous
 62
     2
100
AcDbLine
 10
-83.89509644040895
 20
-265.3967024721918
 30
0.0
 11
-127.395096440409
 21
-265.3967024721918
 31
0.0
  0
LINE
  5
115
330
71
100
AcDbEntity
  8
1
  6
Continuous
 62
     2
100
AcDbLine
 10
-78.89509644040996
 20
-265.3967024721918
 30
0.0
 11
-83.89509644040895
 21
-265.3967024721918
 31
0.0
  0
LINE
  5
116
330
71
100
AcDbEntity
  8
1
  6
Continuous
 62
     2
100
AcDbLine
 10
-78.89509644040996
 20
-265.3967024721918
 30
0.0
 11
-78.89509644040996
 21
-260.3967024721916
 31
0.0
  0
LINE
  5
117
330
71
100
AcDbEntity
  8
1
  6
Continuous
 62
     6
100
AcDbLine
 10
-213.439900967159
 20
-243.3967024721916
 30
0.0
 11
-177.039900967159
 21
-243.3967024721916
 31
0.0
  0
LINE
  5
118
330
71
100
AcDbEntity
  8
1
  6
Continuous
 62
     2
100
AcDbLine
 10
-83.89509644040895
 20
-260.3967024721916
 30
0.0
 11
-83.89509644040895
 21
-265.3967024721918
 31
0.0
  0
LINE
  5
119
330
71
100
AcDbEntity
  8
1
  6
Continuous
 62
     2
100
AcDbLine
 10
-83.89509644040895
 20
-260.3967024721916
 30
0.0
 11
-78.89509644040996
 21
-260.3967024721916
 31
0.0
  0
LINE
  5
11A
330
71
100
AcDbEntity
  8
1
  6
Continuous
 62
     6
100
AcDbLine
 10
-177.395096440409
 20
-260.3967024721916
 30
0.0
 11
-195.239900967159
 21
-260.3967024721916
 31
0.0
  0
LINE
  5
11B
330
71
100
AcDbEntity
  8
1
  6
Continuous
 62
     6
100
AcDbLine
 10
-127.395096440409
 20
-260.3967024721916
 30
0.0
 11
-83.89509644040895
 21
-260.3967024721916
 31
0.0
  0
LINE
  5
11C
330
71
100
AcDbEntity
  8
1
  6
Continuous
 62
     6
100
AcDbLine
 10
-277.3950964404091
 20
-260.3967024721916
 30
0.0
 11
-282.4399009671589
 21
-260.3967024721916
 31
0.0
  0
LINE
  5
11D
330
71
100
AcDbEntity
  8
1
  6
Continuous
 62
     6
100
AcDbLine
 10
-227.3950964404089
 20
-260.3967024721916
 30
0.0
 11
-213.439900967159
 21
-260.3967024721918
 31
0.0
  0
LINE
  5
11E
102
{ACAD_REACTORS
330
208
330
209
102
}
330
71
100
AcDbEntity
  8
0
  6
Continuous
 62
     2
100
AcDbLine
 10
-205.9252750250122
 20
-248.3241877159795
 30
0.0
 11
-205.9252750250122
 21
-247.7186524274727
 31
0.0
  0
LINE
  5
11F
102
{ACAD_REACTORS
330
208
330
209
102
}
330
71
100
AcDbEntity
  8
0
  6
Continuous
 62
     2
100
AcDbLine
 10
-205.9252750250122
 20
-251.1243223226108
 30
0.0
 11
-205.9252750250122
 21
-250.5424709159157
 31
0.0
  0
LINE
  5
120
102
{ACAD_REACTORS
330
20A
330
20B
102
}
330
71
100
AcDbEntity
  8
0
  6
Continuous
 62
     2
100
AcDbLine
 10
-183.295788589533
 20
-250.8346582544878
 30
0.0
 11
-183.295788589533
 21
-253.1032024721753
 31
0.0
  0
LINE
  5
121
102
{ACAD_REACTORS
330
20A
330
20B
102
}
330
71
100
AcDbEntity
  8
0
  6
Continuous
 62
     2
100
AcDbLine
 10
-184.6768423685205
 20
-250.0493929483647
 30
0.0
 11
-181.2918968498919
 21
-250.0493929483642
 31
0.0
  0
LINE
  5
122
102
{ACAD_REACTORS
330
20A
330
20B
102
}
330
71
100
AcDbEntity
  8
0
  6
Continuous
 62
     2
100
AcDbLine
 10
-181.2918968498919
 20
-250.8346582544878
 30
0.0
 11
-181.2918968498919
 21
-250.0493929483642
 31
0.0
  0
LINE
  5
123
102
{ACAD_REACTORS
330
20A
330
20B
102
}
330
71
100
AcDbEntity
  8
0
  6
Continuous
 62
     2
100
AcDbLine
 10
-182.1029958873652
 20
-250.8346582544878
 30
0.0
 11
-181.2918968498919
 21
-250.8346582544878
 31
0.0
  0
LINE
  5
124
102
{ACAD_REACTORS
330
20A
330
20B
102
}
330
71
100
AcDbEntity
  8
0
  6
Continuous
 62
     2
100
AcDbLine
 10
-182.1029958873652
 20
-253.1032024721753
 30
0.0
 11
-182.1029958873652
 21
-250.8346582544878
 31
0.0
  0
LINE
  5
125
102
{ACAD_REACTORS
330
20A
330
20B
102
}
330
71
100
AcDbEntity
  8
0
  6
Continuous
 62
     2
100
AcDbLine
 10
-183.295788589533
 20
-253.1032024721753
 30
0.0
 11
-182.1029958873652
 21
-253.1032024721753
 31
0.0
  0
LINE
  5
126
102
{ACAD_REACTORS
330
200
330
201
102
}
330
71
100
AcDbEntity
  8
0
  6
Continuous
 62
     2
100
AcDbLine
 10
-183.9923795275975
 20
-246.6902024721898
 30
0.0
 11
-185.3951037453467
 21
-246.6902024721898
 31
0.0
  0
LINE
  5
127
102
{ACAD_REACTORS
330
200
330
201
102
}
330
71
100
AcDbEntity
  8
0
  6
Continuous
 62
     2
100
AcDbLine
 10
-183.9923795275975
 20
-246.6902024721898
 30
0.0
 11
-183.3912120057057
 21
-247.3700257937453
 31
0.0
  0
LINE
  5
128
102
{ACAD_REACTORS
330
200
330
201
102
}
330
71
100
AcDbEntity
  8
0
  6
Continuous
 62
     2
100
AcDbLine
 10
-183.3912120057057
 20
-247.3700257937453
 30
0.0
 11
-182.7900444838129
 21
-246.6902024721898
 31
0.0
  0
LINE
  5
129
102
{ACAD_REACTORS
330
200
330
201
102
}
330
71
100
AcDbEntity
  8
0
  6
Continuous
 62
     2
100
AcDbLine
 10
-182.6898498968322
 20
-248.163153002226
 30
0.0
 11
-181.3873202660656
 21
-246.6902024721898
 31
0.0
  0
LINE
  5
12A
102
{ACAD_REACTORS
330
200
330
201
102
}
330
71
100
AcDbEntity
  8
0
  6
Continuous
 62
     2
100
AcDbLine
 10
-182.6898498968322
 20
-248.163153002226
 30
0.0
 11
-181.2918968498919
 21
-249.744011996001
 31
0.0
  0
LINE
  5
12B
102
{ACAD_REACTORS
330
200
330
201
102
}
330
71
100
AcDbEntity
  8
0
  6
Continuous
 62
     2
100
AcDbLine
 10
-182.6946210676402
 20
-249.744011996001
 30
0.0
 11
-181.2918968498919
 21
-249.744011996001
 31
0.0
  0
LINE
  5
12C
102
{ACAD_REACTORS
330
200
330
201
102
}
330
71
100
AcDbEntity
  8
0
  6
Continuous
 62
     2
100
AcDbLine
 10
-183.3912120057057
 20
-248.9562802107073
 30
0.0
 11
-182.6946210676402
 21
-249.744011996001
 31
0.0
  0
LINE
  5
12D
102
{ACAD_REACTORS
330
1FE
330
1FF
102
}
330
71
100
AcDbEntity
  8
0
  6
Continuous
 62
     2
100
AcDbLine
 10
-186.8503108419893
 20
-246.6902024721898
 30
0.0
 11
-185.6098064317364
 21
-246.6902024721898
 31
0.0
  0
LINE
  5
12E
102
{ACAD_REACTORS
330
1FE
330
1FF
102
}
330
71
100
AcDbEntity
  8
0
  6
Continuous
 62
     2
100
AcDbLine
 10
-185.6098064317364
 20
-246.6902024721898
 30
0.0
 11
-185.6098064317364
 21
-249.744011996001
 31
0.0
  0
LINE
  5
12F
102
{ACAD_REACTORS
330
1FE
330
1FF
102
}
330
71
100
AcDbEntity
  8
0
  6
Continuous
 62
     2
100
AcDbLine
 10
-186.8503108419893
 20
-249.744011996001
 30
0.0
 11
-186.8503108419893
 21
-246.6902024721898
 31
0.0
  0
LINE
  5
130
102
{ACAD_REACTORS
330
1FC
330
1FD
102
}
330
71
100
AcDbEntity
  8
0
  6
Continuous
 62
     2
100
AcDbLine
 10
-188.318620924527
 20
-251.8816786626508
 30
0.0
 11
-188.0184556873346
 21
-251.1138636966641
 31
0.0
  0
LINE
  5
131
102
{ACAD_REACTORS
330
1FC
330
1FD
102
}
330
71
100
AcDbEntity
  8
0
  6
Continuous
 62
     2
100
AcDbLine
 10
-188.7961565291478
 20
-253.1032024721753
 30
0.0
 11
-188.584676475672
 21
-252.5622419279574
 31
0.0
  0
LINE
  5
132
102
{ACAD_REACTORS
330
1FC
330
1FD
102
}
330
71
100
AcDbEntity
  8
0
  6
Continuous
 62
     2
100
AcDbLine
 10
-188.6387078924614
 20
-250.0493929483642
 30
0.0
 11
-190.0366609394008
 21
-253.1032024721753
 31
0.0
  0
LINE
  5
133
102
{ACAD_REACTORS
330
1FC
330
1FD
102
}
330
71
100
AcDbEntity
  8
0
  6
Continuous
 62
     2
100
AcDbLine
 10
-186.0002504352684
 20
-253.1032024721753
 30
0.0
 11
-187.2407548455224
 21
-253.1032024721753
 31
0.0
  0
LINE
  5
134
102
{ACAD_REACTORS
330
1FC
330
1FD
102
}
330
71
100
AcDbEntity
  8
0
  6
Continuous
 62
     2
100
AcDbLine
 10
-188.584676475672
 20
-252.5622419279574
 30
0.0
 11
-187.4522348989981
 21
-252.5622419279574
 31
0.0
  0
LINE
  5
135
102
{ACAD_REACTORS
330
1FA
330
1FB
102
}
330
71
100
AcDbEntity
  8
0
  6
Continuous
 62
     2
100
AcDbLine
 10
-192.194173078583
 20
-250.8346582544878
 30
0.0
 11
-191.3830740411084
 21
-250.8346582544878
 31
0.0
  0
LINE
  5
136
102
{ACAD_REACTORS
330
1FA
330
1FB
102
}
330
71
100
AcDbEntity
  8
0
  6
Continuous
 62
     2
100
AcDbLine
 10
-189.3791823014693
 20
-250.0493929483642
 30
0.0
 11
-192.194173078583
 21
-250.0493929483642
 31
0.0
  0
LINE
  5
137
102
{ACAD_REACTORS
330
1FA
330
1FB
102
}
330
71
100
AcDbEntity
  8
0
  6
Continuous
 62
     2
100
AcDbLine
 10
-189.3791823014693
 20
-250.8346582544878
 30
0.0
 11
-189.3791823014693
 21
-250.0493929483642
 31
0.0
  0
LINE
  5
138
102
{ACAD_REACTORS
330
1FA
330
1FB
102
}
330
71
100
AcDbEntity
  8
0
  6
Continuous
 62
     2
100
AcDbLine
 10
-190.1902813389418
 20
-250.8346582544878
 30
0.0
 11
-189.3791823014693
 21
-250.8346582544878
 31
0.0
  0
LINE
  5
139
102
{ACAD_REACTORS
330
1FA
330
1FB
102
}
330
71
100
AcDbEntity
  8
0
  6
Continuous
 62
     2
100
AcDbLine
 10
-190.1902813389418
 20
-253.1032024721753
 30
0.0
 11
-190.1902813389418
 21
-250.8346582544878
 31
0.0
  0
LINE
  5
13A
102
{ACAD_REACTORS
330
1F8
330
1F9
102
}
330
71
100
AcDbEntity
  8
0
  6
Continuous
 62
     2
100
AcDbLine
 10
-189.5221664948438
 20
-249.744011996001
 30
0.0
 11
-189.5221664948438
 21
-248.4352364857963
 31
0.0
  0
LINE
  5
13B
102
{ACAD_REACTORS
330
1F8
330
1F9
102
}
330
71
100
AcDbEntity
  8
0
  6
Continuous
 62
     2
100
AcDbLine
 10
-190.7149591970104
 20
-246.6902024721898
 30
0.0
 11
-190.7149591970104
 21
-249.744011996001
 31
0.0
  0
LINE
  5
13C
102
{ACAD_REACTORS
330
1F8
330
1F9
102
}
330
71
100
AcDbEntity
  8
0
  6
Continuous
 62
     2
100
AcDbLine
 10
-189.5221664948438
 20
-246.6902024721898
 30
0.0
 11
-190.7149591970104
 21
-246.6902024721898
 31
0.0
  0
LINE
  5
13D
102
{ACAD_REACTORS
330
1F8
330
1F9
102
}
330
71
100
AcDbEntity
  8
0
  6
Continuous
 62
     2
100
AcDbLine
 10
-188.2816620845898
 20
-246.6902024721898
 30
0.0
 11
-188.2816620845898
 21
-247.998977982395
 31
0.0
  0
LINE
  5
13E
102
{ACAD_REACTORS
330
1F6
330
1F7
102
}
330
71
100
AcDbEntity
  8
0
  6
Continuous
 62
     2
100
AcDbLine
 10
-195.9633980174301
 20
-250.0493929483642
 30
0.0
 11
-195.9633980174301
 21
-253.1032024721753
 31
0.0
  0
LINE
  5
13F
102
{ACAD_REACTORS
330
1F6
330
1F7
102
}
330
71
100
AcDbEntity
  8
0
  6
Continuous
 62
     2
100
AcDbLine
 10
-194.7706053152625
 20
-250.0493929483642
 30
0.0
 11
-195.9633980174301
 21
-250.0493929483642
 31
0.0
  0
LINE
  5
140
102
{ACAD_REACTORS
330
1F6
330
1F7
102
}
330
71
100
AcDbEntity
  8
0
  6
Continuous
 62
     2
100
AcDbLine
 10
-193.5301009050096
 20
-253.1032024721753
 30
0.0
 11
-192.3373082028432
 21
-253.1032024721753
 31
0.0
  0
LINE
  5
141
102
{ACAD_REACTORS
330
1F6
330
1F7
102
}
330
71
100
AcDbEntity
  8
0
  6
Continuous
 62
     2
100
AcDbLine
 10
-195.9633980174301
 20
-253.1032024721753
 30
0.0
 11
-194.7706053152625
 21
-253.1032024721753
 31
0.0
  0
LINE
  5
142
102
{ACAD_REACTORS
330
206
330
207
102
}
330
71
100
AcDbEntity
  8
0
  6
Continuous
 62
     2
100
AcDbLine
 10
-192.2894455638709
 20
-247.8681004313745
 30
0.0
 11
-192.2894455638709
 21
-247.3882160776328
 31
0.0
  0
LINE
  5
143
102
{ACAD_REACTORS
330
206
330
207
102
}
330
71
100
AcDbEntity
  8
0
  6
Continuous
 62
     2
100
AcDbLine
 10
-190.9535177374433
 20
-247.8681004313745
 30
0.0
 11
-192.2894455638709
 21
-247.8681004313745
 31
0.0
  0
LINE
  5
144
102
{ACAD_REACTORS
330
206
330
207
102
}
330
71
100
AcDbEntity
  8
0
  6
Continuous
 62
     2
100
AcDbLine
 10
-190.9535177374433
 20
-248.5661140368168
 30
0.0
 11
-190.9535177374433
 21
-247.8681004313745
 31
0.0
  0
LINE
  5
145
102
{ACAD_REACTORS
330
206
330
207
102
}
330
71
100
AcDbEntity
  8
0
  6
Continuous
 62
     2
100
AcDbLine
 10
-192.2894455638709
 20
-248.5661140368168
 30
0.0
 11
-190.9535177374433
 21
-248.5661140368168
 31
0.0
  0
LINE
  5
146
102
{ACAD_REACTORS
330
1F4
330
1F5
102
}
330
71
100
AcDbEntity
  8
0
  6
Continuous
 62
     2
100
AcDbLine
 10
-195.7724002541979
 20
-246.6902024721898
 30
0.0
 11
-195.7724002541979
 21
-249.744011996001
 31
0.0
  0
LINE
  5
147
102
{ACAD_REACTORS
330
1F4
330
1F5
102
}
330
71
100
AcDbEntity
  8
0
  6
Continuous
 62
     2
100
AcDbLine
 10
-195.7724002541979
 20
-249.744011996001
 30
0.0
 11
-196.9651929563643
 21
-249.744011996001
 31
0.0
  0
LINE
  5
148
102
{ACAD_REACTORS
330
1F4
330
1F5
102
}
330
71
100
AcDbEntity
  8
0
  6
Continuous
 62
     2
100
AcDbLine
 10
-196.9651929563643
 20
-249.744011996001
 30
0.0
 11
-196.9651929563643
 21
-248.6097398871572
 31
0.0
  0
LINE
  5
149
102
{ACAD_REACTORS
330
1F4
330
1F5
102
}
330
71
100
AcDbEntity
  8
0
  6
Continuous
 62
     2
100
AcDbLine
 10
-198.0148505342717
 20
-249.744011996001
 30
0.0
 11
-199.2076432364383
 21
-249.744011996001
 31
0.0
  0
LINE
  5
14A
102
{ACAD_REACTORS
330
1F4
330
1F5
102
}
330
71
100
AcDbEntity
  8
0
  6
Continuous
 62
     2
100
AcDbLine
 10
-199.2076432364383
 20
-246.6902024721898
 30
0.0
 11
-198.0148505342717
 21
-246.6902024721898
 31
0.0
  0
LINE
  5
14B
102
{ACAD_REACTORS
330
1F4
330
1F5
102
}
330
71
100
AcDbEntity
  8
0
  6
Continuous
 62
     2
100
AcDbLine
 10
-198.0148505342717
 20
-246.6902024721898
 30
0.0
 11
-198.0148505342717
 21
-247.7590358055244
 31
0.0
  0
LINE
  5
14C
102
{ACAD_REACTORS
330
1F4
330
1F5
102
}
330
71
100
AcDbEntity
  8
0
  6
Continuous
 62
     2
100
AcDbLine
 10
-198.0148505342717
 20
-247.7590358055244
 30
0.0
 11
-196.9651929563643
 21
-247.7590358055244
 31
0.0
  0
LINE
  5
14D
102
{ACAD_REACTORS
330
202
330
203
102
}
330
71
100
AcDbEntity
  8
0
  6
Continuous
 62
     2
100
AcDbLine
 10
-201.1638232679919
 20
-247.3533083176299
 30
0.0
 11
-200.8465282064501
 21
-247.3533083176299
 31
0.0
  0
LINE
  5
14E
102
{ACAD_REACTORS
330
202
330
203
102
}
330
71
100
AcDbEntity
  8
0
  6
Continuous
 62
     2
100
AcDbLine
 10
-201.1638232679919
 20
-248.0590359669722
 30
0.0
 11
-200.8465282064501
 21
-248.0590359669722
 31
0.0
  0
LINE
  5
14F
102
{ACAD_REACTORS
330
202
330
203
102
}
330
71
100
AcDbEntity
  8
0
  6
Continuous
 62
     2
100
AcDbLine
 10
-202.4043276782461
 20
-246.6902024721898
 30
0.0
 11
-202.4043276782461
 21
-249.744011996001
 31
0.0
  0
LINE
  5
150
102
{ACAD_REACTORS
330
202
330
203
102
}
330
71
100
AcDbEntity
  8
0
  6
Continuous
 62
     2
100
AcDbLine
 10
-202.4043276782461
 20
-246.6902024721898
 30
0.0
 11
-200.4050556802117
 21
-246.6902024721898
 31
0.0
  0
LINE
  5
151
102
{ACAD_REACTORS
330
202
330
203
102
}
330
71
100
AcDbEntity
  8
0
  6
Continuous
 62
     2
100
AcDbLine
 10
-201.1638232679919
 20
-248.8009337548572
 30
0.0
 11
-200.4050556802117
 21
-248.8009337548572
 31
0.0
  0
LINE
  5
152
102
{ACAD_REACTORS
330
208
330
209
102
}
330
71
100
AcDbEntity
  8
0
  6
Continuous
 62
     2
100
AcDbLine
 10
-208.5008237115428
 20
-247.7184749508246
 30
0.0
 11
-208.5008237115428
 21
-252.0749299935417
 31
0.0
  0
LINE
  5
153
102
{ACAD_REACTORS
330
208
330
209
102
}
330
71
100
AcDbEntity
  8
0
  6
Continuous
 62
     2
100
AcDbLine
 10
-208.1851067884671
 20
-247.4027580277484
 30
0.0
 11
-206.7092735274574
 21
-247.4027580277484
 31
0.0
  0
LINE
  5
154
102
{ACAD_REACTORS
330
208
330
209
102
}
330
71
100
AcDbEntity
  8
0
  6
Continuous
 62
     2
100
AcDbLine
 10
-206.3935566043809
 20
-248.3224995698851
 30
0.0
 11
-206.3935566043809
 21
-247.7184749508246
 31
0.0
  0
LINE
  5
155
102
{ACAD_REACTORS
330
208
330
209
102
}
330
71
100
AcDbEntity
  8
0
  6
Continuous
 62
     2
100
AcDbLine
 10
-206.3935566043809
 20
-252.0749299935417
 30
0.0
 11
-206.3935566043809
 21
-250.5441590620101
 31
0.0
  0
LINE
  5
156
102
{ACAD_REACTORS
330
208
330
209
102
}
330
71
100
AcDbEntity
  8
0
  6
Continuous
 62
     2
100
AcDbLine
 10
-203.3056893744968
 20
-253.1032024721753
 30
0.0
 11
-208.7790014652136
 21
-253.1032024721753
 31
0.0
  0
LINE
  5
157
102
{ACAD_REACTORS
330
208
330
209
102
}
330
71
100
AcDbEntity
  8
0
  6
Continuous
 62
     2
100
AcDbLine
 10
-202.8814447591129
 20
-247.1144470875918
 30
0.0
 11
-202.8814447591129
 21
-252.678957856792
 31
0.0
  0
LINE
  5
158
102
{ACAD_REACTORS
330
208
330
209
102
}
330
71
100
AcDbEntity
  8
0
  6
Continuous
 62
     2
100
AcDbLine
 10
-208.7790014652136
 20
-246.690202472208
 30
0.0
 11
-203.3056893744968
 21
-246.690202472208
 31
0.0
  0
LINE
  5
159
102
{ACAD_REACTORS
330
208
330
209
102
}
330
71
100
AcDbEntity
  8
0
  6
Continuous
 62
     2
100
AcDbLine
 10
-209.2032460805964
 20
-247.1144470875918
 30
0.0
 11
-209.2032460805964
 21
-252.678957856792
 31
0.0
  0
LINE
  5
15A
102
{ACAD_REACTORS
330
208
330
209
102
}
330
71
100
AcDbEntity
  8
0
  6
Continuous
 62
     2
100
AcDbLine
 10
-206.7092735274574
 20
-252.3906469166184
 30
0.0
 11
-208.1851067884671
 21
-252.3906469166184
 31
0.0
  0
LINE
  5
15B
102
{ACAD_REACTORS
330
202
330
203
102
}
330
71
100
AcDbEntity
  8
0
  6
Continuous
 62
     2
100
AcDbLine
 10
-201.1638232679919
 20
-249.744011996001
 30
0.0
 11
-201.1638232679919
 21
-248.8009337548572
 31
0.0
  0
LINE
  5
15C
102
{ACAD_REACTORS
330
202
330
203
102
}
330
71
100
AcDbEntity
  8
0
  6
Continuous
 62
     2
100
AcDbLine
 10
-202.4043276782461
 20
-249.744011996001
 30
0.0
 11
-201.1638232679919
 21
-249.744011996001
 31
0.0
  0
LINE
  5
15D
102
{ACAD_REACTORS
330
202
330
203
102
}
330
71
100
AcDbEntity
  8
0
  6
Continuous
 62
     2
100
AcDbLine
 10
-201.1638232679919
 20
-248.0590359669722
 30
0.0
 11
-201.1638232679919
 21
-247.3533083176299
 31
0.0
  0
LINE
  5
15E
102
{ACAD_REACTORS
330
1F4
330
1F5
102
}
330
71
100
AcDbEntity
  8
0
  6
Continuous
 62
     2
100
AcDbLine
 10
-199.2076432364383
 20
-246.6902024721898
 30
0.0
 11
-199.2076432364383
 21
-249.744011996001
 31
0.0
  0
LINE
  5
15F
102
{ACAD_REACTORS
330
1F4
330
1F5
102
}
330
71
100
AcDbEntity
  8
0
  6
Continuous
 62
     2
100
AcDbLine
 10
-198.0148505342717
 20
-248.6097398871572
 30
0.0
 11
-198.0148505342717
 21
-249.744011996001
 31
0.0
  0
LINE
  5
160
102
{ACAD_REACTORS
330
1F4
330
1F5
102
}
330
71
100
AcDbEntity
  8
0
  6
Continuous
 62
     2
100
AcDbLine
 10
-196.9651929563643
 20
-248.6097398871572
 30
0.0
 11
-198.0148505342717
 21
-248.6097398871572
 31
0.0
  0
LINE
  5
161
102
{ACAD_REACTORS
330
1F4
330
1F5
102
}
330
71
100
AcDbEntity
  8
0
  6
Continuous
 62
     2
100
AcDbLine
 10
-196.9651929563643
 20
-246.6902024721898
 30
0.0
 11
-195.7724002541979
 21
-246.6902024721898
 31
0.0
  0
LINE
  5
162
102
{ACAD_REACTORS
330
1F4
330
1F5
102
}
330
71
100
AcDbEntity
  8
0
  6
Continuous
 62
     2
100
AcDbLine
 10
-196.9651929563643
 20
-247.7590358055244
 30
0.0
 11
-196.9651929563643
 21
-246.6902024721898
 31
0.0
  0
LINE
  5
163
102
{ACAD_REACTORS
330
206
330
207
102
}
330
71
100
AcDbEntity
  8
0
  6
Continuous
 62
     2
100
AcDbLine
 10
-190.9535177374433
 20
-247.3882160776328
 30
0.0
 11
-190.9535177374433
 21
-246.6902024721898
 31
0.0
  0
LINE
  5
164
102
{ACAD_REACTORS
330
206
330
207
102
}
330
71
100
AcDbEntity
  8
0
  6
Continuous
 62
     2
100
AcDbLine
 10
-194.1038374612243
 20
-246.6902024721898
 30
0.0
 11
-190.9535177374433
 21
-246.6902024721898
 31
0.0
  0
LINE
  5
165
102
{ACAD_REACTORS
330
206
330
207
102
}
330
71
100
AcDbEntity
  8
0
  6
Continuous
 62
     2
100
AcDbLine
 10
-194.1038374612243
 20
-249.744011996001
 30
0.0
 11
-190.9535177374433
 21
-249.744011996001
 31
0.0
  0
LINE
  5
166
102
{ACAD_REACTORS
330
206
330
207
102
}
330
71
100
AcDbEntity
  8
0
  6
Continuous
 62
     2
100
AcDbLine
 10
-190.9535177374433
 20
-249.744011996001
 30
0.0
 11
-190.9535177374433
 21
-249.0459983905585
 31
0.0
  0
LINE
  5
167
102
{ACAD_REACTORS
330
206
330
207
102
}
330
71
100
AcDbEntity
  8
0
  6
Continuous
 62
     2
100
AcDbLine
 10
-190.9535177374433
 20
-249.0459983905585
 30
0.0
 11
-192.2894455638709
 21
-249.0459983905585
 31
0.0
  0
LINE
  5
168
102
{ACAD_REACTORS
330
206
330
207
102
}
330
71
100
AcDbEntity
  8
0
  6
Continuous
 62
     2
100
AcDbLine
 10
-192.2894455638709
 20
-249.0459983905585
 30
0.0
 11
-192.2894455638709
 21
-248.5661140368168
 31
0.0
  0
LINE
  5
169
102
{ACAD_REACTORS
330
206
330
207
102
}
330
71
100
AcDbEntity
  8
0
  6
Continuous
 62
     2
100
AcDbLine
 10
-192.2894455638709
 20
-247.3882160776328
 30
0.0
 11
-190.9535177374433
 21
-247.3882160776328
 31
0.0
  0
LINE
  5
16A
102
{ACAD_REACTORS
330
1F6
330
1F7
102
}
330
71
100
AcDbEntity
  8
0
  6
Continuous
 62
     2
100
AcDbLine
 10
-194.7706053152625
 20
-253.1032024721753
 30
0.0
 11
-194.7706053152625
 21
-251.7944269619707
 31
0.0
  0
LINE
  5
16B
102
{ACAD_REACTORS
330
1F6
330
1F7
102
}
330
71
100
AcDbEntity
  8
0
  6
Continuous
 62
     2
100
AcDbLine
 10
-194.7706053152625
 20
-251.7944269619707
 30
0.0
 11
-193.5301009050096
 21
-253.1032024721753
 31
0.0
  0
LINE
  5
16C
102
{ACAD_REACTORS
330
1F6
330
1F7
102
}
330
71
100
AcDbEntity
  8
0
  6
Continuous
 62
     2
100
AcDbLine
 10
-192.3373082028432
 20
-253.1032024721753
 30
0.0
 11
-192.3373082028432
 21
-250.0493929483642
 31
0.0
  0
LINE
  5
16D
102
{ACAD_REACTORS
330
1F6
330
1F7
102
}
330
71
100
AcDbEntity
  8
0
  6
Continuous
 62
     2
100
AcDbLine
 10
-192.3373082028432
 20
-250.0493929483642
 30
0.0
 11
-193.5301009050096
 21
-250.0493929483642
 31
0.0
  0
LINE
  5
16E
102
{ACAD_REACTORS
330
1F6
330
1F7
102
}
330
71
100
AcDbEntity
  8
0
  6
Continuous
 62
     2
100
AcDbLine
 10
-193.5301009050096
 20
-250.0493929483642
 30
0.0
 11
-193.5301009050096
 21
-251.3581684585693
 31
0.0
  0
LINE
  5
16F
102
{ACAD_REACTORS
330
1F6
330
1F7
102
}
330
71
100
AcDbEntity
  8
0
  6
Continuous
 62
     2
100
AcDbLine
 10
-193.5301009050096
 20
-251.3581684585693
 30
0.0
 11
-194.7706053152625
 21
-250.0493929483642
 31
0.0
  0
LINE
  5
170
102
{ACAD_REACTORS
330
1F8
330
1F9
102
}
330
71
100
AcDbEntity
  8
0
  6
Continuous
 62
     2
100
AcDbLine
 10
-189.5221664948438
 20
-248.4352364857963
 30
0.0
 11
-188.2816620845898
 21
-249.744011996001
 31
0.0
  0
LINE
  5
171
102
{ACAD_REACTORS
330
1F8
330
1F9
102
}
330
71
100
AcDbEntity
  8
0
  6
Continuous
 62
     2
100
AcDbLine
 10
-188.2816620845898
 20
-249.744011996001
 30
0.0
 11
-187.0888693824232
 21
-249.744011996001
 31
0.0
  0
LINE
  5
172
102
{ACAD_REACTORS
330
1F8
330
1F9
102
}
330
71
100
AcDbEntity
  8
0
  6
Continuous
 62
     2
100
AcDbLine
 10
-187.0888693824232
 20
-249.744011996001
 30
0.0
 11
-187.0888693824232
 21
-246.6902024721898
 31
0.0
  0
LINE
  5
173
102
{ACAD_REACTORS
330
1F8
330
1F9
102
}
330
71
100
AcDbEntity
  8
0
  6
Continuous
 62
     2
100
AcDbLine
 10
-187.0888693824232
 20
-246.6902024721898
 30
0.0
 11
-188.2816620845898
 21
-246.6902024721898
 31
0.0
  0
LINE
  5
174
102
{ACAD_REACTORS
330
1F8
330
1F9
102
}
330
71
100
AcDbEntity
  8
0
  6
Continuous
 62
     2
100
AcDbLine
 10
-188.2816620845898
 20
-247.998977982395
 30
0.0
 11
-189.5221664948438
 21
-246.6902024721898
 31
0.0
  0
LINE
  5
175
102
{ACAD_REACTORS
330
1F8
330
1F9
102
}
330
71
100
AcDbEntity
  8
0
  6
Continuous
 62
     2
100
AcDbLine
 10
-190.7149591970104
 20
-249.744011996001
 30
0.0
 11
-189.5221664948438
 21
-249.744011996001
 31
0.0
  0
LINE
  5
176
102
{ACAD_REACTORS
330
1FA
330
1FB
102
}
330
71
100
AcDbEntity
  8
0
  6
Continuous
 62
     2
100
AcDbLine
 10
-192.194173078583
 20
-250.0493929483642
 30
0.0
 11
-192.194173078583
 21
-250.8346582544878
 31
0.0
  0
LINE
  5
177
102
{ACAD_REACTORS
330
1FA
330
1FB
102
}
330
71
100
AcDbEntity
  8
0
  6
Continuous
 62
     2
100
AcDbLine
 10
-191.3830740411084
 20
-250.8346582544878
 30
0.0
 11
-191.3830740411084
 21
-253.1032024721753
 31
0.0
  0
LINE
  5
178
102
{ACAD_REACTORS
330
1FA
330
1FB
102
}
330
71
100
AcDbEntity
  8
0
  6
Continuous
 62
     2
100
AcDbLine
 10
-191.3830740411084
 20
-253.1032024721753
 30
0.0
 11
-190.1902813389418
 21
-253.1032024721753
 31
0.0
  0
LINE
  5
179
102
{ACAD_REACTORS
330
1FC
330
1FD
102
}
330
71
100
AcDbEntity
  8
0
  6
Continuous
 62
     2
100
AcDbLine
 10
-187.2407548455224
 20
-253.1032024721753
 30
0.0
 11
-187.4522348989981
 21
-252.5622419279574
 31
0.0
  0
LINE
  5
17A
102
{ACAD_REACTORS
330
1FC
330
1FD
102
}
330
71
100
AcDbEntity
  8
0
  6
Continuous
 62
     2
100
AcDbLine
 10
-187.3982034822087
 20
-250.0493929483642
 30
0.0
 11
-186.0002504352684
 21
-253.1032024721753
 31
0.0
  0
LINE
  5
17B
102
{ACAD_REACTORS
330
1FC
330
1FD
102
}
330
71
100
AcDbEntity
  8
0
  6
Continuous
 62
     2
100
AcDbLine
 10
-188.6387078924614
 20
-250.0493929483642
 30
0.0
 11
-187.3982034822087
 21
-250.0493929483642
 31
0.0
  0
LINE
  5
17C
102
{ACAD_REACTORS
330
1FC
330
1FD
102
}
330
71
100
AcDbEntity
  8
0
  6
Continuous
 62
     2
100
AcDbLine
 10
-190.0366609394008
 20
-253.1032024721753
 30
0.0
 11
-188.7961565291478
 21
-253.1032024721753
 31
0.0
  0
LINE
  5
17D
102
{ACAD_REACTORS
330
1FC
330
1FD
102
}
330
71
100
AcDbEntity
  8
0
  6
Continuous
 62
     2
100
AcDbLine
 10
-188.318620924527
 20
-251.8816786626508
 30
0.0
 11
-187.7182904501445
 21
-251.8816786626508
 31
0.0
  0
LINE
  5
17E
102
{ACAD_REACTORS
330
1FC
330
1FD
102
}
330
71
100
AcDbEntity
  8
0
  6
Continuous
 62
     2
100
AcDbLine
 10
-187.7182904501445
 20
-251.8816786626508
 30
0.0
 11
-188.0184556873346
 21
-251.1138636966641
 31
0.0
  0
LINE
  5
17F
102
{ACAD_REACTORS
330
1FE
330
1FF
102
}
330
71
100
AcDbEntity
  8
0
  6
Continuous
 62
     2
100
AcDbLine
 10
-185.6098064317364
 20
-249.744011996001
 30
0.0
 11
-186.8503108419893
 21
-249.744011996001
 31
0.0
  0
LINE
  5
180
102
{ACAD_REACTORS
330
200
330
201
102
}
330
71
100
AcDbEntity
  8
0
  6
Continuous
 62
     2
100
AcDbLine
 10
-184.0878029437714
 20
-249.744011996001
 30
0.0
 11
-185.4905271615196
 21
-249.744011996001
 31
0.0
  0
LINE
  5
181
102
{ACAD_REACTORS
330
200
330
201
102
}
330
71
100
AcDbEntity
  8
0
  6
Continuous
 62
     2
100
AcDbLine
 10
-184.0878029437714
 20
-249.744011996001
 30
0.0
 11
-183.3912120057057
 21
-248.9562802107073
 31
0.0
  0
LINE
  5
182
102
{ACAD_REACTORS
330
200
330
201
102
}
330
71
100
AcDbEntity
  8
0
  6
Continuous
 62
     2
100
AcDbLine
 10
-182.7900444838129
 20
-246.6902024721898
 30
0.0
 11
-181.3873202660656
 21
-246.6902024721898
 31
0.0
  0
LINE
  5
183
102
{ACAD_REACTORS
330
200
330
201
102
}
330
71
100
AcDbEntity
  8
0
  6
Continuous
 62
     2
100
AcDbLine
 10
-185.3951037453467
 20
-246.6902024721898
 30
0.0
 11
-184.0925741145793
 21
-248.163153002226
 31
0.0
  0
LINE
  5
184
102
{ACAD_REACTORS
330
200
330
201
102
}
330
71
100
AcDbEntity
  8
0
  6
Continuous
 62
     2
100
AcDbLine
 10
-185.4905271615196
 20
-249.744011996001
 30
0.0
 11
-184.0925741145793
 21
-248.163153002226
 31
0.0
  0
LINE
  5
185
102
{ACAD_REACTORS
330
20A
330
20B
102
}
330
71
100
AcDbEntity
  8
0
  6
Continuous
 62
     2
100
AcDbLine
 10
-183.6297705461396
 20
-252.0561820640117
 30
0.0
 11
-183.6297705461396
 21
-252.928699070815
 31
0.0
  0
LINE
  5
186
102
{ACAD_REACTORS
330
20A
330
20B
102
}
330
71
100
AcDbEntity
  8
0
  6
Continuous
 62
     2
100
AcDbLine
 10
-184.3994278891011
 20
-250.8346582544878
 30
0.0
 11
-183.295788589533
 21
-250.8346582544878
 31
0.0
  0
LINE
  5
187
102
{ACAD_REACTORS
330
20C
330
20D
102
}
330
71
100
AcDbEntity
  8
0
  6
Continuous
 62
     2
100
AcDbLine
 10
-199.7324720253916
 20
-252.0561820640112
 30
0.0
 11
-199.7324720253916
 21
-252.9286990708145
 31
0.0
  0
LINE
  5
188
102
{ACAD_REACTORS
330
20C
330
20D
102
}
330
71
100
AcDbEntity
  8
0
  6
Continuous
 62
     2
100
AcDbLine
 10
-199.7324720253916
 20
-251.0964133565283
 30
0.0
 11
-199.7324720253916
 21
-250.223896349725
 31
0.0
  0
LINE
  5
189
330
71
100
AcDbEntity
  8
1
  6
Continuous
 62
     7
100
AcDbLine
 10
-83.89509644040766
 20
-251.8967024721916
 30
0.0
 11
-177.039900967159
 21
-251.8967024721916
 31
0.0
  0
LINE
  5
18A
330
71
100
AcDbEntity
  8
1
  6
Continuous
 62
     6
100
AcDbLine
 10
-282.4399009671589
 20
-260.3967024721916
 30
0.0
 11
-327.3950964404089
 21
-260.3967024721916
 31
0.0
  0
LINE
  5
18B
330
71
100
AcDbEntity
  8
1
  6
Continuous
 62
     7
100
AcDbLine
 10
-92.81350472208646
 20
-234.8967024721916
 30
0.0
 11
-92.81350472208646
 21
-243.3967024721916
 31
0.0
  0
LINE
  5
18C
330
71
100
AcDbEntity
  8
1
  6
Continuous
 62
     7
100
AcDbLine
 10
-119.3135047220861
 20
-234.8967024721916
 30
0.0
 11
-119.3135047220861
 21
-243.3967024721916
 31
0.0
  0
LINE
  5
18D
330
71
100
AcDbEntity
  8
1
  6
Continuous
 62
     7
100
AcDbLine
 10
-177.039900967159
 20
-243.3967024721916
 30
0.0
 11
-177.039900967159
 21
-234.8967024721916
 31
0.0
  0
LINE
  5
18E
330
71
100
AcDbEntity
  8
1
  6
Continuous
 62
     7
100
AcDbLine
 10
-213.439900967159
 20
-243.3967024721916
 30
0.0
 11
-213.439900967159
 21
-234.8967024721916
 31
0.0
  0
LINE
  5
18F
330
71
100
AcDbEntity
  8
1
  6
Continuous
 62
     6
100
AcDbLine
 10
-177.039900967159
 20
-243.3967024721916
 30
0.0
 11
-83.89509644040726
 21
-243.3967024721916
 31
0.0
  0
LINE
  5
190
330
71
100
AcDbEntity
  8
1
  6
Continuous
 62
     7
100
AcDbLine
 10
-149.139900967159
 20
-251.8967024721917
 30
0.0
 11
-149.139900967159
 21
-243.3967024721916
 31
0.0
  0
LINE
  5
191
330
71
100
AcDbEntity
  8
1
  6
PHANTOM
 62
     2
100
AcDbLine
 10
-197.9532460805964
 20
-239.2717024721917
 30
0.0
 11
-203.4532460805964
 21
-239.2717024721917
 31
0.0
  0
LINE
  5
192
330
71
100
AcDbEntity
  8
1
  6
PHANTOM
 62
     2
100
AcDbLine
 10
-200.7032460805964
 20
-236.5217024721917
 30
0.0
 11
-200.7032460805964
 21
-242.0217024721917
 31
0.0
  0
LINE
  5
193
330
71
100
AcDbEntity
  8
1
  6
DOT_CENTER
 62
     2
100
AcDbLine
 10
-209.4532460805964
 20
-239.2717024721917
 30
0.0
 11
-203.9532460805964
 21
-239.2717024721917
 31
0.0
  0
ARC
  5
194
102
{ACAD_REACTORS
330
20C
330
20D
102
}
330
71
100
AcDbEntity
  8
0
  6
Continuous
 62
     2
100
AcDbCircle
 10
-201.0683999425094
 20
-254.8889786555259
 30
0.0
 40
4.852596863498068
100
AcDbArc
 50
74.02000874164739
 51
84.84185523037506
  0
ARC
  5
195
102
{ACAD_REACTORS
330
20C
330
20D
102
}
330
71
100
AcDbEntity
  8
0
  6
Continuous
 62
     2
100
AcDbCircle
 10
-200.4923593337556
 20
-251.7332182996416
 30
0.0
 40
0.9059297849853228
100
AcDbArc
 50
71.55192388185917
 51
113.3722778881306
  0
ARC
  5
196
102
{ACAD_REACTORS
330
20C
330
20D
102
}
330
71
100
AcDbEntity
  8
0
  6
Continuous
 62
     2
100
AcDbCircle
 10
-200.6487993664577
 20
-251.7813691396085
 30
0.0
 40
0.5115800601948034
100
AcDbArc
 50
208.5214732576956
 51
246.6277221118332
  0
ARC
  5
197
102
{ACAD_REACTORS
330
20C
330
20D
102
}
330
71
100
AcDbEntity
  8
0
  6
Continuous
 62
     2
100
AcDbCircle
 10
-200.4923593337556
 20
-251.4193771208985
 30
0.0
 40
0.9059297849849305
100
AcDbArc
 50
246.6277221118694
 51
288.4480761181533
  0
ARC
  5
198
102
{ACAD_REACTORS
330
20C
330
20D
102
}
330
71
100
AcDbEntity
  8
0
  6
Continuous
 62
     2
100
AcDbCircle
 10
-200.9105270674164
 20
-250.1658313448614
 30
0.0
 40
2.227384008972638
100
AcDbArc
 50
288.4480761181321
 51
301.9309089499592
  0
ARC
  5
199
102
{ACAD_REACTORS
330
208
330
209
102
}
330
71
100
AcDbEntity
  8
0
  6
Continuous
 62
     2
100
AcDbCircle
 10
-206.1356008000232
 20
-249.4333293159473
 30
0.0
 40
0.9118481501444224
100
AcDbArc
 50
295.3740086781716
 51
64.6259913218123
  0
ARC
  5
19A
102
{ACAD_REACTORS
330
208
330
209
102
}
330
71
100
AcDbEntity
  8
0
  6
Continuous
 62
     2
100
AcDbCircle
 10
-205.6095581019354
 20
-247.7186524274727
 30
0.0
 40
0.3157169230760711
100
AcDbArc
 50
90.18896704255108
 51
180.0
  0
ARC
  5
19B
102
{ACAD_REACTORS
330
20A
330
20B
102
}
330
71
100
AcDbEntity
  8
0
  6
Continuous
 62
     2
100
AcDbCircle
 10
-184.3994278891011
 20
-251.7891812613139
 30
0.0
 40
0.9545230068260935
100
AcDbArc
 50
90.0
 51
109.3371432194321
  0
ARC
  5
19C
102
{ACAD_REACTORS
330
20A
330
20B
102
}
330
71
100
AcDbEntity
  8
0
  6
Continuous
 62
     2
100
AcDbCircle
 10
-184.1687406291234
 20
-251.57629771027
 30
0.0
 40
0.9410597353348924
100
AcDbArc
 50
151.4785267423624
 51
208.5214732576695
  0
ARC
  5
19D
102
{ACAD_REACTORS
330
20A
330
20B
102
}
330
71
100
AcDbEntity
  8
0
  6
Continuous
 62
     2
100
AcDbCircle
 10
-184.3896578545017
 20
-251.4193771208985
 30
0.0
 40
0.9059297849852801
100
AcDbArc
 50
246.6277221118183
 51
288.4480761180817
  0
ARC
  5
19E
102
{ACAD_REACTORS
330
20A
330
20B
102
}
330
71
100
AcDbEntity
  8
0
  6
Continuous
 62
     2
100
AcDbCircle
 10
-184.8078255881636
 20
-250.1658313448619
 30
0.0
 40
2.227384008972746
100
AcDbArc
 50
288.4480761181335
 51
301.9309089499416
  0
ARC
  5
19F
102
{ACAD_REACTORS
330
20A
330
20B
102
}
330
71
100
AcDbEntity
  8
0
  6
Continuous
 62
     2
100
AcDbCircle
 10
-184.9656984632564
 20
-248.2636167650136
 30
0.0
 40
4.852596863498833
100
AcDbArc
 50
275.1581447696374
 51
285.9799912583394
  0
ARC
  5
1A0
102
{ACAD_REACTORS
330
20A
330
20B
102
}
330
71
100
AcDbEntity
  8
0
  6
Continuous
 62
     2
100
AcDbCircle
 10
-184.6768423685205
 20
-251.4635073482352
 30
0.0
 40
1.639695123940503
100
AcDbArc
 50
195.0618917771007
 51
275.1581447696772
  0
ARC
  5
1A1
102
{ACAD_REACTORS
330
202
330
203
102
}
330
71
100
AcDbEntity
  8
0
  6
Continuous
 62
     2
100
AcDbCircle
 10
-200.4050556802117
 20
-247.7455681135235
 30
0.0
 40
1.055365641333708
100
AcDbArc
 50
270.0
 51
90.0
  0
ARC
  5
1A2
102
{ACAD_REACTORS
330
208
330
209
102
}
330
71
100
AcDbEntity
  8
0
  6
Continuous
 62
     2
100
AcDbCircle
 10
-208.1851067884671
 20
-252.0749299935417
 30
0.0
 40
0.315716923075712
100
AcDbArc
 50
180.0
 51
270.0
  0
ARC
  5
1A3
102
{ACAD_REACTORS
330
208
330
209
102
}
330
71
100
AcDbEntity
  8
0
  6
Continuous
 62
     2
100
AcDbCircle
 10
-206.7092735274574
 20
-247.7184749508246
 30
0.0
 40
0.3157169230765078
100
AcDbArc
 50
0.0
 51
90.0
  0
ARC
  5
1A4
102
{ACAD_REACTORS
330
208
330
209
102
}
330
71
100
AcDbEntity
  8
0
  6
Continuous
 62
     2
100
AcDbCircle
 10
-206.7092735274574
 20
-248.3224995698851
 30
0.0
 40
0.3157169230761324
100
AcDbArc
 50
295.1944106485444
 51
0.0
  0
ARC
  5
1A5
102
{ACAD_REACTORS
330
208
330
209
102
}
330
71
100
AcDbEntity
  8
0
  6
Continuous
 62
     2
100
AcDbCircle
 10
-206.7092735274574
 20
-252.0749299935417
 30
0.0
 40
0.3157169230767067
100
AcDbArc
 50
270.0
 51
0.0
  0
ARC
  5
1A6
102
{ACAD_REACTORS
330
208
330
209
102
}
330
71
100
AcDbEntity
  8
0
  6
Continuous
 62
     2
100
AcDbCircle
 10
-208.7790014652136
 20
-247.1144470875918
 30
0.0
 40
0.4242446153837989
100
AcDbArc
 50
90.0
 51
180.0
  0
ARC
  5
1A7
102
{ACAD_REACTORS
330
208
330
209
102
}
330
71
100
AcDbEntity
  8
0
  6
Continuous
 62
     2
100
AcDbCircle
 10
-203.3056893744968
 20
-247.1144470875918
 30
0.0
 40
0.4242446153839126
100
AcDbArc
 50
0.0
 51
90.0
  0
ARC
  5
1A8
102
{ACAD_REACTORS
330
208
330
209
102
}
330
71
100
AcDbEntity
  8
0
  6
Continuous
 62
     2
100
AcDbCircle
 10
-203.3056893744968
 20
-252.678957856792
 30
0.0
 40
0.4242446153832873
100
AcDbArc
 50
270.0
 51
0.0
  0
ARC
  5
1A9
102
{ACAD_REACTORS
330
206
330
207
102
}
330
71
100
AcDbEntity
  8
0
  6
Continuous
 62
     2
100
AcDbCircle
 10
-194.0873054874053
 20
-248.2171072340957
 30
0.0
 40
0.7717997786796198
100
AcDbArc
 50
321.8795802028454
 51
38.12041979715956
  0
ARC
  5
1AA
102
{ACAD_REACTORS
330
206
330
207
102
}
330
71
100
AcDbEntity
  8
0
  6
Continuous
 62
     2
100
AcDbCircle
 10
-193.8875654510591
 20
-248.3738384122161
 30
0.0
 40
0.5179085730134595
100
AcDbArc
 50
218.1204197971492
 51
321.8795802028547
  0
ARC
  5
1AB
102
{ACAD_REACTORS
330
204
330
205
102
}
330
71
100
AcDbEntity
  8
0
  6
Continuous
 62
     2
100
AcDbCircle
 10
-197.5675730400193
 20
-251.57629771027
 30
0.0
 40
1.458034083652016
100
AcDbArc
 50
297.5481481757021
 51
62.45185182429795
  0
ARC
  5
1AC
102
{ACAD_REACTORS
330
204
330
205
102
}
330
71
100
AcDbEntity
  8
0
  6
Continuous
 62
     2
100
AcDbCircle
 10
-198.1294528236859
 20
-251.57629771027
 30
0.0
 40
1.458034083651451
100
AcDbArc
 50
117.5481481756595
 51
242.4518518243405
  0
ARC
  5
1AD
102
{ACAD_REACTORS
330
204
330
205
102
}
330
71
100
AcDbEntity
  8
0
  6
Continuous
 62
     2
100
AcDbCircle
 10
-197.8485129318526
 20
-252.1148727205728
 30
0.0
 40
2.065479772208581
100
AcDbArc
 50
62.45185182430567
 51
117.5481481756643
  0
ARC
  5
1AE
102
{ACAD_REACTORS
330
204
330
205
102
}
330
71
100
AcDbEntity
  8
0
  6
Continuous
 62
     2
100
AcDbCircle
 10
-197.8485129318526
 20
-251.0377226999667
 30
0.0
 40
2.065479772208469
100
AcDbArc
 50
242.4518518243423
 51
297.5481481756877
  0
ARC
  5
1AF
102
{ACAD_REACTORS
330
206
330
207
102
}
330
71
100
AcDbEntity
  8
0
  6
Continuous
 62
     2
100
AcDbCircle
 10
-193.6878254147128
 20
-248.2171072340957
 30
0.0
 40
0.7717997786796947
100
AcDbArc
 50
141.8795802028417
 51
218.1204197971533
  0
ARC
  5
1B0
102
{ACAD_REACTORS
330
206
330
207
102
}
330
71
100
AcDbEntity
  8
0
  6
Continuous
 62
     2
100
AcDbCircle
 10
-193.8875654510591
 20
-248.0603760559752
 30
0.0
 40
0.5179085730135041
100
AcDbArc
 50
38.12041979714528
 51
141.8795802028508
  0
ARC
  5
1B1
102
{ACAD_REACTORS
330
208
330
209
102
}
330
71
100
AcDbEntity
  8
0
  6
Continuous
 62
     2
100
AcDbCircle
 10
-208.7790014652136
 20
-252.678957856792
 30
0.0
 40
0.4242446153827757
100
AcDbArc
 50
180.0
 51
270.0
  0
ARC
  5
1B2
102
{ACAD_REACTORS
330
208
330
209
102
}
330
71
100
AcDbEntity
  8
0
  6
Continuous
 62
     2
100
AcDbCircle
 10
-206.7092735274574
 20
-250.5441590620101
 30
0.0
 40
0.3157169230765078
100
AcDbArc
 50
0.0
 51
64.80558935145781
  0
ARC
  5
1B3
102
{ACAD_REACTORS
330
208
330
209
102
}
330
71
100
AcDbEntity
  8
0
  6
Continuous
 62
     2
100
AcDbCircle
 10
-206.1866890798825
 20
-249.4333293159473
 30
0.0
 40
0.9118975235575663
100
AcDbArc
 50
115.1944106485218
 51
244.8055893514935
  0
ARC
  5
1B4
102
{ACAD_REACTORS
330
208
330
209
102
}
330
71
100
AcDbEntity
  8
0
  6
Continuous
 62
     2
100
AcDbCircle
 10
-208.1851067884671
 20
-247.7184749508246
 30
0.0
 40
0.3157169230761951
100
AcDbArc
 50
90.0
 51
180.0
  0
ARC
  5
1B5
102
{ACAD_REACTORS
330
202
330
203
102
}
330
71
100
AcDbEntity
  8
0
  6
Continuous
 62
     2
100
AcDbCircle
 10
-200.8465282064501
 20
-247.706172142301
 30
0.0
 40
0.3528638246712035
100
AcDbArc
 50
270.0
 51
90.0
  0
ARC
  5
1B6
102
{ACAD_REACTORS
330
206
330
207
102
}
330
71
100
AcDbEntity
  8
0
  6
Continuous
 62
     2
100
AcDbCircle
 10
-194.1038374612243
 20
-248.2171072340957
 30
0.0
 40
1.526904761905882
100
AcDbArc
 50
90.0
 51
270.0
  0
ARC
  5
1B7
102
{ACAD_REACTORS
330
20A
330
20B
102
}
330
71
100
AcDbEntity
  8
0
  6
Continuous
 62
     2
100
AcDbCircle
 10
-184.6768423685205
 20
-251.6890880723049
 30
0.0
 40
1.639695123940214
100
AcDbArc
 50
90.0
 51
164.9381082228955
  0
ARC
  5
1B8
102
{ACAD_REACTORS
330
20A
330
20B
102
}
330
71
100
AcDbEntity
  8
0
  6
Continuous
 62
     2
100
AcDbCircle
 10
-185.0959702119822
 20
-251.57629771027
 30
0.0
 40
1.205656168392975
100
AcDbArc
 50
164.9381082229024
 51
195.0618917770962
  0
ARC
  5
1B9
102
{ACAD_REACTORS
330
20A
330
20B
102
}
330
71
100
AcDbEntity
  8
0
  6
Continuous
 62
     2
100
AcDbCircle
 10
-184.5460978872048
 20
-251.7813691396085
 30
0.0
 40
0.5115800601959967
100
AcDbArc
 50
208.5214732576881
 51
246.6277221118449
  0
ARC
  5
1BA
102
{ACAD_REACTORS
330
20A
330
20B
102
}
330
71
100
AcDbEntity
  8
0
  6
Continuous
 62
     2
100
AcDbCircle
 10
-184.5460978872048
 20
-251.371226280931
 30
0.0
 40
0.5115800601943244
100
AcDbArc
 50
109.3371432194854
 51
151.4785267424209
  0
ARC
  5
1BB
102
{ACAD_REACTORS
330
208
330
209
102
}
330
71
100
AcDbEntity
  8
0
  6
Continuous
 62
     2
100
AcDbCircle
 10
-205.6095581019354
 20
-251.1243223226108
 30
0.0
 40
0.3157169230768204
100
AcDbArc
 50
180.0
 51
269.811032957449
  0
ARC
  5
1BC
102
{ACAD_REACTORS
330
208
330
209
102
}
330
71
100
AcDbEntity
  8
0
  6
Continuous
 62
     2
100
AcDbCircle
 10
-205.6039419666253
 20
-249.4214873750418
 30
0.0
 40
2.018561131933238
100
AcDbArc
 50
269.8110329575834
 51
90.18896704241658
  0
ARC
  5
1BD
102
{ACAD_REACTORS
330
208
330
209
102
}
330
71
100
AcDbEntity
  8
0
  6
Continuous
 62
     2
100
AcDbCircle
 10
-205.6095581019354
 20
-248.3241877159795
 30
0.0
 40
0.3157169230768204
100
AcDbArc
 50
180.0
 51
244.6259913216435
  0
ARC
  5
1BE
102
{ACAD_REACTORS
330
208
330
209
102
}
330
71
100
AcDbEntity
  8
0
  6
Continuous
 62
     2
100
AcDbCircle
 10
-205.6095581019354
 20
-250.5424709159157
 30
0.0
 40
0.3157169230765193
100
AcDbArc
 50
115.3740086783587
 51
180.0
  0
ARC
  5
1BF
102
{ACAD_REACTORS
330
20C
330
20D
102
}
330
71
100
AcDbEntity
  8
0
  6
Continuous
 62
     2
100
AcDbCircle
 10
-200.7795438477735
 20
-251.6890880723049
 30
0.0
 40
1.639695123940509
100
AcDbArc
 50
84.84185523036136
 51
164.9381082228857
  0
ARC
  5
1C0
102
{ACAD_REACTORS
330
20C
330
20D
102
}
330
71
100
AcDbEntity
  8
0
  6
Continuous
 62
     2
100
AcDbCircle
 10
-201.1986716912363
 20
-251.57629771027
 30
0.0
 40
1.205656168390862
100
AcDbArc
 50
164.9381082228754
 51
195.0618917770959
  0
ARC
  5
1C1
102
{ACAD_REACTORS
330
20C
330
20D
102
}
330
71
100
AcDbEntity
  8
0
  6
Continuous
 62
     2
100
AcDbCircle
 10
-200.7795438477735
 20
-251.4635073482352
 30
0.0
 40
1.639695123939305
100
AcDbArc
 50
195.0618917770904
 51
275.1581447696406
  0
ARC
  5
1C2
102
{ACAD_REACTORS
330
20C
330
20D
102
}
330
71
100
AcDbEntity
  8
0
  6
Continuous
 62
     2
100
AcDbCircle
 10
-201.0683999425094
 20
-248.2636167650136
 30
0.0
 40
4.852596863498138
100
AcDbArc
 50
275.1581447696249
 51
285.9799912583526
  0
ARC
  5
1C3
102
{ACAD_REACTORS
330
20C
330
20D
102
}
330
71
100
AcDbEntity
  8
0
  6
Continuous
 62
     2
100
AcDbCircle
 10
-200.2714421083774
 20
-251.57629771027
 30
0.0
 40
0.9410597353332295
100
AcDbArc
 50
151.4785267422661
 51
208.5214732577066
  0
ARC
  5
1C4
102
{ACAD_REACTORS
330
20C
330
20D
102
}
330
71
100
AcDbEntity
  8
0
  6
Continuous
 62
     2
100
AcDbCircle
 10
-200.6487993664577
 20
-251.371226280931
 30
0.0
 40
0.5115800601948554
100
AcDbArc
 50
113.3722778881933
 51
151.4785267423044
  0
ARC
  5
1C5
102
{ACAD_REACTORS
330
20C
330
20D
102
}
330
71
100
AcDbEntity
  8
0
  6
Continuous
 62
     2
100
AcDbCircle
 10
-200.9105270674164
 20
-252.9867640756782
 30
0.0
 40
2.227384008973448
100
AcDbArc
 50
58.06909105004196
 51
71.55192388186885
  0
ARC
  5
1C6
102
{ACAD_REACTORS
330
204
330
205
102
}
330
71
100
AcDbEntity
  8
0
  6
Continuous
 62
     2
100
AcDbCircle
 10
-197.8485129318526
 20
-251.4195665321495
 30
0.0
 40
0.5179085730132472
100
AcDbArc
 50
38.12041979713961
 51
141.8795802028662
  0
ARC
  5
1C7
102
{ACAD_REACTORS
330
204
330
205
102
}
330
71
100
AcDbEntity
  8
0
  6
Continuous
 62
     2
100
AcDbCircle
 10
-197.6487728955065
 20
-251.57629771027
 30
0.0
 40
0.7717997786794106
100
AcDbArc
 50
141.8795802028413
 51
218.1204197971687
  0
ARC
  5
1C8
102
{ACAD_REACTORS
330
204
330
205
102
}
330
71
100
AcDbEntity
  8
0
  6
Continuous
 62
     2
100
AcDbCircle
 10
-197.8485129318526
 20
-251.73302888839
 30
0.0
 40
0.5179085730137354
100
AcDbArc
 50
218.1204197971931
 51
321.879580202801
  0
ARC
  5
1C9
102
{ACAD_REACTORS
330
204
330
205
102
}
330
71
100
AcDbEntity
  8
0
  6
Continuous
 62
     2
100
AcDbCircle
 10
-198.048252968199
 20
-251.57629771027
 30
0.0
 40
0.7717997786796724
100
AcDbArc
 50
321.8795802028404
 51
38.1204197971496
  0
CIRCLE
  5
1CA
330
71
100
AcDbEntity
  8
1
  6
Continuous
 62
     2
100
AcDbCircle
 10
-200.7032460805964
 20
-239.2717024721917
 30
0.0
 40
2.5
  0
CIRCLE
  5
1CB
330
71
100
AcDbEntity
  8
1
  6
Continuous
 62
     2
100
AcDbCircle
 10
-200.7032460805964
 20
-239.2717024721917
 30
0.0
 40
1.25
  0
CIRCLE
  5
1CC
102
{ACAD_REACTORS
330
208
330
209
102
}
330
71
100
AcDbEntity
  8
0
  6
Continuous
 62
     2
100
AcDbCircle
 10
-206.1594158146961
 20
-249.4333293159473
 30
0.0
 40
0.4709789327785927
  0
MTEXT
  5
1CD
330
71
100
AcDbEntity
  8
1
 62
     3
100
AcDbMText
 10
-370.8900286543371
 20
-73.60539431689284
 30
0.0
 40
1.8
 41
0.0
 71
     7
 72
     1
  3
Weitergabe sowie Vervielf\U+00e4ltigung dieses Dokuments, Verwertung und \PMitteilung seines Inhalts sind verboten, soweit nicht ausdr\U+00fccklich gestattet. \PZuwiderhandlungen verpflichten zu Schadenersatz. Alle Rechte f\U+00fcr den Fall\Pder Pat
  1
ent-, Gebrauchsmuster- oder Designeintragung vorbehalten.
  7
CONVERTER_11
 73
     1
 44
0.99639855942377
  0
MTEXT
  5
1CE
330
71
100
AcDbEntity
  8
1
 62
     3
100
AcDbMText
 10
-188.0369188155491
 20
-73.60539431689284
 30
0.0
 40
1.8
 41
0.0
 71
     7
 72
     1
  3
Transfer or duplication of this document as well as the utilisation or\Pcommunication of its content are not permitted unless express consent\Pis granted. Violations give rise to claims for damages. All rights reserved\Pin case of patent, utility mo
  1
del or design patent registrations.
  7
CONVERTER_11
 73
     1
 44
0.99639855942377
  0
TEXT
  5
1CF
330
71
100
AcDbEntity
  8
1
 62
     2
100
AcDbText
 10
-194.2399009671591
 20
-259.1557196871833
 30
0.0
 40
1.8
  1
of
 41
0.9
  7
CONVERTER_11
100
AcDbText
  0
TEXT
  5
1D0
330
71
100
AcDbEntity
  8
1
 62
     2
100
AcDbText
 10
-212.439900967159
 20
-259.1557196871833
 30
0.0
 40
1.8
  1
page
 41
0.9
  7
CONVERTER_11
100
AcDbText
  0
TEXT
  5
1D1
330
71
100
AcDbEntity
  8
1
 62
     2
100
AcDbText
 10
-203.793635996817
 20
-259.1959511259936
 30
0.0
 40
1.8
  1
1
 41
0.9
  7
CONVERTER_11
100
AcDbText
  0
TEXT
  5
1D2
330
71
100
AcDbEntity
  8
1
 62
     2
100
AcDbText
 10
-189.0045921573455
 20
-259.1467024721918
 30
0.0
 40
1.8
  1
1
 41
0.9
  7
CONVERTER_11
100
AcDbText
  0
MTEXT
  5
1D4
330
71
100
AcDbEntity
  8
1
 62
     7
100
AcDbMText
 10
-130.4674987037835
 20
-257.1467024721914
 30
0.0
 40
3.0
 41
0.0
 71
     5
 72
     1
  1
REDUC-M-KV-M25/M20
  7
CONVERTER_12
 73
     1
 44
1.20048019207683
  0
MTEXT
  5
1D5
330
71
100
AcDbEntity
  8
1
 62
     2
100
AcDbMText
 10
-176.039900967159
 20
-252.8967024721916
 30
0.0
 40
1.8
 41
0.0
 71
     1
 72
     1
  1
description
  7
CONVERTER_11
 73
     1
 44
1.20048019207683
  0
MTEXT
  5
1D6
330
71
100
AcDbEntity
  8
1
 62
     3
100
AcDbMText
 10
-187.2399009671591
 20
-239.2717024721916
 30
0.0
 40
2.5
 41
0.0
 71
     5
 72
     1
  1
DIN A4
  7
CONVERTER_11
 73
     1
 44
1.20048019207683
  0
MTEXT
  5
1D7
330
71
100
AcDbEntity
  8
1
 62
     7
100
AcDbMText
 10
-373.395096440408
 20
-237.8967024721916
 30
0.0
 40
3.5
 41
0.0
 71
     5
 72
     1
  1
D
  7
CONVERTER_11
 73
     1
 44
1.20048019207683
  0
MTEXT
  5
1D8
330
71
100
AcDbEntity
  8
1
 62
     7
100
AcDbMText
 10
-373.395096440408
 20
-185.3967024721916
 30
0.0
 40
3.5
 41
0.0
 71
     5
 72
     1
  1
C
  7
CONVERTER_11
 73
     1
 44
1.20048019207683
  0
MTEXT
  5
1D9
330
71
100
AcDbEntity
  8
1
 62
     7
100
AcDbMText
 10
-373.395096440408
 20
-135.3967024721916
 30
0.0
 40
3.5
 41
0.0
 71
     5
 72
     1
  1
B
  7
CONVERTER_11
 73
     1
 44
1.20048019207683
  0
MTEXT
  5
1DA
330
71
100
AcDbEntity
  8
1
 62
     7
100
AcDbMText
 10
-373.395096440408
 20
-82.89670247219163
 30
0.0
 40
3.5
 41
0.0
 71
     5
 72
     1
  1
A
  7
CONVERTER_11
 73
     1
 44
1.20048019207683
  0
MTEXT
  5
1DB
330
71
100
AcDbEntity
  8
1
 62
     7
100
AcDbMText
 10
-103.1450964404098
 20
-262.8967024721918
 30
0.0
 40
3.5
 41
0.0
 71
     5
 72
     1
  1
6
  7
CONVERTER_11
 73
     1
 44
1.20048019207683
  0
MTEXT
  5
1DC
330
71
100
AcDbEntity
  8
1
 62
     7
100
AcDbMText
 10
-152.395096440409
 20
-262.8967024721918
 30
0.0
 40
3.5
 41
0.0
 71
     5
 72
     1
  1
5
  7
CONVERTER_11
 73
     1
 44
1.20048019207683
  0
MTEXT
  5
1DD
330
71
100
AcDbEntity
  8
1
 62
     7
100
AcDbMText
 10
-202.3950964404091
 20
-262.8967024721918
 30
0.0
 40
3.5
 41
0.0
 71
     5
 72
     1
  1
4
  7
CONVERTER_11
 73
     1
 44
1.20048019207683
  0
MTEXT
  5
1DE
330
71
100
AcDbEntity
  8
1
 62
     7
100
AcDbMText
 10
-252.3950964404089
 20
-262.8967024721918
 30
0.0
 40
3.5
 41
0.0
 71
     5
 72
     1
  1
3
  7
CONVERTER_11
 73
     1
 44
1.20048019207683
  0
MTEXT
  5
1DF
330
71
100
AcDbEntity
  8
1
 62
     7
100
AcDbMText
 10
-302.3950964404089
 20
-262.8967024721918
 30
0.0
 40
3.5
 41
0.0
 71
     5
 72
     1
  1
2
  7
CONVERTER_11
 73
     1
 44
1.20048019207683
  0
MTEXT
  5
1E0
330
71
100
AcDbEntity
  8
1
 62
     7
100
AcDbMText
 10
-351.6450964404086
 20
-262.8967024721918
 30
0.0
 40
3.5
 41
0.0
 71
     5
 72
     1
  1
1
  7
CONVERTER_11
 73
     1
 44
1.20048019207683
  0
MTEXT
  5
1E1
330
71
100
AcDbEntity
  8
1
 62
     7
100
AcDbMText
 10
-81.39509644040996
 20
-237.8967024721916
 30
0.0
 40
3.5
 41
0.0
 71
     5
 72
     1
  1
D
  7
CONVERTER_11
 73
     1
 44
1.20048019207683
  0
MTEXT
  5
1E2
330
71
100
AcDbEntity
  8
1
 62
     7
100
AcDbMText
 10
-81.39509644040996
 20
-135.3967024721897
 30
0.0
 40
3.5
 41
0.0
 71
     5
 72
     1
  1
B
  7
CONVERTER_11
 73
     1
 44
1.20048019207683
  0
MTEXT
  5
1E3
330
71
100
AcDbEntity
  8
1
 62
     7
100
AcDbMText
 10
-81.39509644040996
 20
-82.89670247219163
 30
0.0
 40
3.5
 41
0.0
 71
     5
 72
     1
  1
A
  7
CONVERTER_11
 73
     1
 44
1.20048019207683
  0
MTEXT
  5
1E4
330
71
100
AcDbEntity
  8
1
 62
     7
100
AcDbMText
 10
-81.39509644040996
 20
-185.3967024721897
 30
0.0
 40
3.5
 41
0.0
 71
     5
 72
     1
  1
C
  7
CONVERTER_11
 73
     1
 44
1.20048019207683
  0
MTEXT
  5
1E5
330
71
100
AcDbEntity
  8
1
 62
     2
100
AcDbMText
 10
-247.8779156922065
 20
-247.6467024721917
 30
0.0
 40
2.0
 41
0.0
 71
     5
 72
     1
  1
General Information\P- Simplified representation\P- Document excluded from change process\P- Linear dimensions [mm]
  7
CONVERTER_11
 73
     1
 44
1.20048019207683
  0
TEXT
  5
1E6
330
71
100
AcDbEntity
  8
1
 62
     7
100
AcDbText
 10
-175.5399009671592
 20
-250.5967024721917
 30
0.0
 40
2.5
  1
1647624
 41
0.81
  7
CONVERTER_12
100
AcDbText
  0
MTEXT
  5
1E7
330
71
100
AcDbEntity
  8
1
 62
     2
100
AcDbMText
 10
-175.939900967159
 20
-244.3967024721916
 30
0.0
 40
1.8
 41
0.0
 71
     1
 72
     1
  1
ident.-No.
  7
CONVERTER_11
 73
     1
 44
1.20048019207683
  0
MTEXT
  5
1E8
330
71
100
AcDbEntity
  8
1
 62
     2
100
AcDbMText
 10
-91.71350472208624
 20
-235.8967024721916
 30
0.0
 40
1.8
 41
0.0
 71
     1
 72
     1
  1
scale
  7
CONVERTER_11
 73
     1
 44
1.20048019207683
  0
MTEXT
  5
1EA
330
71
100
AcDbEntity
  8
1
 62
     3
100
AcDbMText
 10
-88.35430058124665
 20
-242.0967024721915
 30
0.0
 40
2.5
 41
0.0
 71
     8
 72
     1
  1
2:1
  7
CONVERTER_13
 73
     1
 44
1.32052821128451
  0
TEXT
  5
1EB
330
71
100
AcDbEntity
  8
1
 62
     7
100
AcDbText
 10
-175.939900967159
 20
-242.0967024721917
 30
0.0
 40
2.5
  1
01145479
 41
0.81
  7
CONVERTER_12
100
AcDbText
  0
MTEXT
  5
1ED
330
71
100
AcDbEntity
  8
1
 62
     2
100
AcDbMText
 10
-175.939900967159
 20
-235.8967024721916
 30
0.0
 40
1.8
 41
0.0
 71
     1
 72
     1
  1
document-No. / RI
  7
CONVERTER_14
 73
     1
 44
1.32052821128451
  0
TEXT
  5
1EE
330
71
100
AcDbEntity
  8
1
 62
     3
100
AcDbText
 10
-148.139900967159
 20
-250.5967024721917
 30
0.0
 40
2.5
  1
TECDOC 2D_Productdrawing
 41
0.81
  7
CONVERTER_12
100
AcDbText
  0
MTEXT
  5
1EF
330
71
100
AcDbEntity
  8
1
 62
     2
100
AcDbMText
 10
-148.139900967159
 20
-244.3967024721917
 30
0.0
 40
1.8
 41
0.0
 71
     1
 72
     1
  1
document-type
  7
CONVERTER_11
 73
     1
 44
1.20048019207683
  0
MTEXT
  5
1F0
330
71
100
AcDbEntity
  8
1
 62
     2
100
AcDbMText
 10
-118.3135047220861
 20
-235.8967024721917
 30
0.0
 40
1.8
 41
0.0
 71
     1
 72
     1
  1
date
  7
CONVERTER_11
 73
     1
 44
1.32052821128451
  0
TEXT
  5
1F1
330
71
100
AcDbEntity
  8
1
 62
     3
100
AcDbText
 10
-118.3135047220861
 20
-242.0967024721917
 30
0.0
 40
2.5
  1
05.06.2018
 41
0.81
  7
CONVERTER_12
100
AcDbText
  0
TEXT
  5
1F2
330
71
100
AcDbEntity
  8
1
 62
     7
100
AcDbText
 10
-155.9099887481032
 20
-242.0967024721917
 30
0.0
 40
2.5
  1
00
 41
0.81
  7
CONVERTER_12
100
AcDbText
  0
TEXT
  5
1F3
330
71
100
AcDbEntity
  8
1
 62
     7
100
AcDbText
 10
-158.0663532451452
 20
-242.0967024721917
 30
0.0
 40
2.5
  1
/
 41
0.9
  7
CONVERTER_11
100
AcDbText
  0
HATCH
  5
1F4
330
71
100
AcDbEntity
  8
1
  6
Continuous
 62
     2
100
AcDbHatch
 10
0.0
 20
0.0
 30
0.0
210
0.0
220
0.0
230
1.0
  2
_USER
 70
     0
 71
     1
 91
        1
 92
        1
 93
       12
 72
     1
 10
-195.7724002541979
 20
-249.744011996001
 11
-196.9651929563643
 21
-249.744011996001
 72
     1
 10
-196.9651929563643
 20
-249.744011996001
 11
-196.9651929563643
 21
-248.6097398871572
 72
     1
 10
-196.9651929563643
 20
-248.6097398871572
 11
-198.0148505342717
 21
-248.6097398871572
 72
     1
 10
-198.0148505342717
 20
-248.6097398871572
 11
-198.0148505342717
 21
-249.744011996001
 72
     1
 10
-198.0148505342717
 20
-249.744011996001
 11
-199.2076432364383
 21
-249.744011996001
 72
     1
 10
-199.2076432364383
 20
-249.744011996001
 11
-199.2076432364383
 21
-246.6902024721898
 72
     1
 10
-199.2076432364383
 20
-246.6902024721898
 11
-198.0148505342717
 21
-246.6902024721898
 72
     1
 10
-198.0148505342717
 20
-246.6902024721898
 11
-198.0148505342717
 21
-247.7590358055244
 72
     1
 10
-198.0148505342717
 20
-247.7590358055244
 11
-196.9651929563643
 21
-247.7590358055244
 72
     1
 10
-196.9651929563643
 20
-247.7590358055244
 11
-196.9651929563643
 21
-246.6902024721898
 72
     1
 10
-196.9651929563643
 20
-246.6902024721898
 11
-195.7724002541979
 21
-246.6902024721898
 72
     1
 10
-195.7724002541979
 20
-246.6902024721898
 11
-195.7724002541979
 21
-249.744011996001
 97
       12
330
161
330
162
330
14C
330
14B
330
14A
330
15E
330
149
330
15F
330
160
330
148
330
147
330
146
 75
     1
 76
     0
 52
45.0
 41
0.1
 77
     0
 78
     1
 53
45.0
 43
0.0
 44
0.0
 45
-0.0707106781186548
 46
0.0707106781186548
 79
     0
 98
        1
 10
0.0
 20
0.0
  0
HATCH
  5
1F5
330
71
100
AcDbEntity
  8
1
  6
Continuous
 62
     2
100
AcDbHatch
 10
0.0
 20
0.0
 30
0.0
210
0.0
220
0.0
230
1.0
  2
_USER
 70
     0
 71
     1
 91
        1
 92
        1
 93
       12
 72
     1
 10
-195.7724002541979
 20
-249.744011996001
 11
-196.9651929563643
 21
-249.744011996001
 72
     1
 10
-196.9651929563643
 20
-249.744011996001
 11
-196.9651929563643
 21
-248.6097398871572
 72
     1
 10
-196.9651929563643
 20
-248.6097398871572
 11
-198.0148505342717
 21
-248.6097398871572
 72
     1
 10
-198.0148505342717
 20
-248.6097398871572
 11
-198.0148505342717
 21
-249.744011996001
 72
     1
 10
-198.0148505342717
 20
-249.744011996001
 11
-199.2076432364383
 21
-249.744011996001
 72
     1
 10
-199.2076432364383
 20
-249.744011996001
 11
-199.2076432364383
 21
-246.6902024721898
 72
     1
 10
-199.2076432364383
 20
-246.6902024721898
 11
-198.0148505342717
 21
-246.6902024721898
 72
     1
 10
-198.0148505342717
 20
-246.6902024721898
 11
-198.0148505342717
 21
-247.7590358055244
 72
     1
 10
-198.0148505342717
 20
-247.7590358055244
 11
-196.9651929563643
 21
-247.7590358055244
 72
     1
 10
-196.9651929563643
 20
-247.7590358055244
 11
-196.9651929563643
 21
-246.6902024721898
 72
     1
 10
-196.9651929563643
 20
-246.6902024721898
 11
-195.7724002541979
 21
-246.6902024721898
 72
     1
 10
-195.7724002541979
 20
-246.6902024721898
 11
-195.7724002541979
 21
-249.744011996001
 97
       12
330
161
330
162
330
14C
330
14B
330
14A
330
15E
330
149
330
15F
330
160
330
148
330
147
330
146
 75
     1
 76
     0
 52
45.0
 41
0.1
 77
     0
 78
     1
 53
45.0
 43
0.0
 44
0.0
 45
-0.0707106781186548
 46
0.0707106781186548
 79
     0
 98
        1
 10
0.0
 20
0.0
  0
HATCH
  5
1F6
330
71
100
AcDbEntity
  8
1
  6
Continuous
 62
     2
100
AcDbHatch
 10
0.0
 20
0.0
 30
0.0
210
0.0
220
0.0
230
1.0
  2
_USER
 70
     0
 71
     1
 91
        1
 92
        1
 93
       10
 72
     1
 10
-193.5301009050096
 20
-251.3581684585693
 11
-194.7706053152625
 21
-250.0493929483642
 72
     1
 10
-194.7706053152625
 20
-250.0493929483642
 11
-195.9633980174301
 21
-250.0493929483642
 72
     1
 10
-195.9633980174301
 20
-250.0493929483642
 11
-195.9633980174301
 21
-253.1032024721753
 72
     1
 10
-195.9633980174301
 20
-253.1032024721753
 11
-194.7706053152625
 21
-253.1032024721753
 72
     1
 10
-194.7706053152625
 20
-253.1032024721753
 11
-194.7706053152625
 21
-251.7944269619707
 72
     1
 10
-194.7706053152625
 20
-251.7944269619707
 11
-193.5301009050096
 21
-253.1032024721753
 72
     1
 10
-193.5301009050096
 20
-253.1032024721753
 11
-192.3373082028432
 21
-253.1032024721753
 72
     1
 10
-192.3373082028432
 20
-253.1032024721753
 11
-192.3373082028432
 21
-250.0493929483642
 72
     1
 10
-192.3373082028432
 20
-250.0493929483642
 11
-193.5301009050096
 21
-250.0493929483642
 72
     1
 10
-193.5301009050096
 20
-250.0493929483642
 11
-193.5301009050096
 21
-251.3581684585693
 97
       10
330
16F
330
13F
330
13E
330
141
330
16A
330
16B
330
140
330
16C
330
16D
330
16E
 75
     1
 76
     0
 52
45.0
 41
0.1
 77
     0
 78
     1
 53
45.0
 43
0.0
 44
0.0
 45
-0.0707106781186548
 46
0.0707106781186548
 79
     0
 98
        1
 10
0.0
 20
0.0
  0
HATCH
  5
1F7
330
71
100
AcDbEntity
  8
1
  6
Continuous
 62
     2
100
AcDbHatch
 10
0.0
 20
0.0
 30
0.0
210
0.0
220
0.0
230
1.0
  2
_USER
 70
     0
 71
     1
 91
        1
 92
        1
 93
       10
 72
     1
 10
-193.5301009050096
 20
-251.3581684585693
 11
-194.7706053152625
 21
-250.0493929483642
 72
     1
 10
-194.7706053152625
 20
-250.0493929483642
 11
-195.9633980174301
 21
-250.0493929483642
 72
     1
 10
-195.9633980174301
 20
-250.0493929483642
 11
-195.9633980174301
 21
-253.1032024721753
 72
     1
 10
-195.9633980174301
 20
-253.1032024721753
 11
-194.7706053152625
 21
-253.1032024721753
 72
     1
 10
-194.7706053152625
 20
-253.1032024721753
 11
-194.7706053152625
 21
-251.7944269619707
 72
     1
 10
-194.7706053152625
 20
-251.7944269619707
 11
-193.5301009050096
 21
-253.1032024721753
 72
     1
 10
-193.5301009050096
 20
-253.1032024721753
 11
-192.3373082028432
 21
-253.1032024721753
 72
     1
 10
-192.3373082028432
 20
-253.1032024721753
 11
-192.3373082028432
 21
-250.0493929483642
 72
     1
 10
-192.3373082028432
 20
-250.0493929483642
 11
-193.5301009050096
 21
-250.0493929483642
 72
     1
 10
-193.5301009050096
 20
-250.0493929483642
 11
-193.5301009050096
 21
-251.3581684585693
 97
       10
330
16F
330
13F
330
13E
330
141
330
16A
330
16B
330
140
330
16C
330
16D
330
16E
 75
     1
 76
     0
 52
45.0
 41
0.1
 77
     0
 78
     1
 53
45.0
 43
0.0
 44
0.0
 45
-0.0707106781186548
 46
0.0707106781186548
 79
     0
 98
        1
 10
0.0
 20
0.0
  0
HATCH
  5
1F8
330
71
100
AcDbEntity
  8
1
  6
Continuous
 62
     2
100
AcDbHatch
 10
0.0
 20
0.0
 30
0.0
210
0.0
220
0.0
230
1.0
  2
_USER
 70
     0
 71
     1
 91
        1
 92
        1
 93
       10
 72
     1
 10
-188.2816620845898
 20
-247.998977982395
 11
-189.5221664948438
 21
-246.6902024721898
 72
     1
 10
-189.5221664948438
 20
-246.6902024721898
 11
-190.7149591970104
 21
-246.6902024721898
 72
     1
 10
-190.7149591970104
 20
-246.6902024721898
 11
-190.7149591970104
 21
-249.744011996001
 72
     1
 10
-190.7149591970104
 20
-249.744011996001
 11
-189.5221664948438
 21
-249.744011996001
 72
     1
 10
-189.5221664948438
 20
-249.744011996001
 11
-189.5221664948438
 21
-248.4352364857963
 72
     1
 10
-189.5221664948438
 20
-248.4352364857963
 11
-188.2816620845898
 21
-249.744011996001
 72
     1
 10
-188.2816620845898
 20
-249.744011996001
 11
-187.0888693824232
 21
-249.744011996001
 72
     1
 10
-187.0888693824232
 20
-249.744011996001
 11
-187.0888693824232
 21
-246.6902024721898
 72
     1
 10
-187.0888693824232
 20
-246.6902024721898
 11
-188.2816620845898
 21
-246.6902024721898
 72
     1
 10
-188.2816620845898
 20
-246.6902024721898
 11
-188.2816620845898
 21
-247.998977982395
 97
       10
330
174
330
13C
330
13B
330
175
330
13A
330
170
330
171
330
172
330
173
330
13D
 75
     1
 76
     0
 52
45.0
 41
0.1
 77
     0
 78
     1
 53
45.0
 43
0.0
 44
0.0
 45
-0.0707106781186548
 46
0.0707106781186548
 79
     0
 98
        1
 10
0.0
 20
0.0
  0
HATCH
  5
1F9
330
71
100
AcDbEntity
  8
1
  6
Continuous
 62
     2
100
AcDbHatch
 10
0.0
 20
0.0
 30
0.0
210
0.0
220
0.0
230
1.0
  2
_USER
 70
     0
 71
     1
 91
        1
 92
        1
 93
       10
 72
     1
 10
-188.2816620845898
 20
-247.998977982395
 11
-189.5221664948438
 21
-246.6902024721898
 72
     1
 10
-189.5221664948438
 20
-246.6902024721898
 11
-190.7149591970104
 21
-246.6902024721898
 72
     1
 10
-190.7149591970104
 20
-246.6902024721898
 11
-190.7149591970104
 21
-249.744011996001
 72
     1
 10
-190.7149591970104
 20
-249.744011996001
 11
-189.5221664948438
 21
-249.744011996001
 72
     1
 10
-189.5221664948438
 20
-249.744011996001
 11
-189.5221664948438
 21
-248.4352364857963
 72
     1
 10
-189.5221664948438
 20
-248.4352364857963
 11
-188.2816620845898
 21
-249.744011996001
 72
     1
 10
-188.2816620845898
 20
-249.744011996001
 11
-187.0888693824232
 21
-249.744011996001
 72
     1
 10
-187.0888693824232
 20
-249.744011996001
 11
-187.0888693824232
 21
-246.6902024721898
 72
     1
 10
-187.0888693824232
 20
-246.6902024721898
 11
-188.2816620845898
 21
-246.6902024721898
 72
     1
 10
-188.2816620845898
 20
-246.6902024721898
 11
-188.2816620845898
 21
-247.998977982395
 97
       10
330
174
330
13C
330
13B
330
175
330
13A
330
170
330
171
330
172
330
173
330
13D
 75
     1
 76
     0
 52
45.0
 41
0.1
 77
     0
 78
     1
 53
45.0
 43
0.0
 44
0.0
 45
-0.0707106781186548
 46
0.0707106781186548
 79
     0
 98
        1
 10
0.0
 20
0.0
  0
HATCH
  5
1FA
330
71
100
AcDbEntity
  8
1
  6
Continuous
 62
     2
100
AcDbHatch
 10
0.0
 20
0.0
 30
0.0
210
0.0
220
0.0
230
1.0
  2
_USER
 70
     0
 71
     1
 91
        1
 92
        1
 93
        8
 72
     1
 10
-189.3791823014693
 20
-250.0493929483642
 11
-192.194173078583
 21
-250.0493929483642
 72
     1
 10
-192.194173078583
 20
-250.0493929483642
 11
-192.194173078583
 21
-250.8346582544878
 72
     1
 10
-192.194173078583
 20
-250.8346582544878
 11
-191.3830740411084
 21
-250.8346582544878
 72
     1
 10
-191.3830740411084
 20
-250.8346582544878
 11
-191.3830740411084
 21
-253.1032024721753
 72
     1
 10
-191.3830740411084
 20
-253.1032024721753
 11
-190.1902813389418
 21
-253.1032024721753
 72
     1
 10
-190.1902813389418
 20
-253.1032024721753
 11
-190.1902813389418
 21
-250.8346582544878
 72
     1
 10
-190.1902813389418
 20
-250.8346582544878
 11
-189.3791823014693
 21
-250.8346582544878
 72
     1
 10
-189.3791823014693
 20
-250.8346582544878
 11
-189.3791823014693
 21
-250.0493929483642
 97
        8
330
136
330
176
330
135
330
177
330
178
330
139
330
138
330
137
 75
     1
 76
     0
 52
45.0
 41
0.1
 77
     0
 78
     1
 53
45.0
 43
0.0
 44
0.0
 45
-0.0707106781186548
 46
0.0707106781186548
 79
     0
 98
        1
 10
0.0
 20
0.0
  0
HATCH
  5
1FB
330
71
100
AcDbEntity
  8
1
  6
Continuous
 62
     2
100
AcDbHatch
 10
0.0
 20
0.0
 30
0.0
210
0.0
220
0.0
230
1.0
  2
_USER
 70
     0
 71
     1
 91
        1
 92
        1
 93
        8
 72
     1
 10
-189.3791823014693
 20
-250.0493929483642
 11
-192.194173078583
 21
-250.0493929483642
 72
     1
 10
-192.194173078583
 20
-250.0493929483642
 11
-192.194173078583
 21
-250.8346582544878
 72
     1
 10
-192.194173078583
 20
-250.8346582544878
 11
-191.3830740411084
 21
-250.8346582544878
 72
     1
 10
-191.3830740411084
 20
-250.8346582544878
 11
-191.3830740411084
 21
-253.1032024721753
 72
     1
 10
-191.3830740411084
 20
-253.1032024721753
 11
-190.1902813389418
 21
-253.1032024721753
 72
     1
 10
-190.1902813389418
 20
-253.1032024721753
 11
-190.1902813389418
 21
-250.8346582544878
 72
     1
 10
-190.1902813389418
 20
-250.8346582544878
 11
-189.3791823014693
 21
-250.8346582544878
 72
     1
 10
-189.3791823014693
 20
-250.8346582544878
 11
-189.3791823014693
 21
-250.0493929483642
 97
        8
330
136
330
176
330
135
330
177
330
178
330
139
330
138
330
137
 75
     1
 76
     0
 52
45.0
 41
0.1
 77
     0
 78
     1
 53
45.0
 43
0.0
 44
0.0
 45
-0.0707106781186548
 46
0.0707106781186548
 79
     0
 98
        1
 10
0.0
 20
0.0
  0
HATCH
  5
1FC
330
71
100
AcDbEntity
  8
1
  6
Continuous
 62
     2
100
AcDbHatch
 10
0.0
 20
0.0
 30
0.0
210
0.0
220
0.0
230
1.0
  2
_USER
 70
     0
 71
     1
 91
        2
 92
        1
 93
        8
 72
     1
 10
-187.2407548455224
 20
-253.1032024721753
 11
-187.4522348989981
 21
-252.5622419279574
 72
     1
 10
-187.4522348989981
 20
-252.5622419279574
 11
-188.584676475672
 21
-252.5622419279574
 72
     1
 10
-188.584676475672
 20
-252.5622419279574
 11
-188.7961565291478
 21
-253.1032024721753
 72
     1
 10
-188.7961565291478
 20
-253.1032024721753
 11
-190.0366609394008
 21
-253.1032024721753
 72
     1
 10
-190.0366609394008
 20
-253.1032024721753
 11
-188.6387078924614
 21
-250.0493929483642
 72
     1
 10
-188.6387078924614
 20
-250.0493929483642
 11
-187.3982034822087
 21
-250.0493929483642
 72
     1
 10
-187.3982034822087
 20
-250.0493929483642
 11
-186.0002504352684
 21
-253.1032024721753
 72
     1
 10
-186.0002504352684
 20
-253.1032024721753
 11
-187.2407548455224
 21
-253.1032024721753
 97
        8
330
17A
330
17B
330
132
330
17C
330
131
330
134
330
179
330
133
 92
       16
 93
        3
 72
     1
 10
-188.318620924527
 20
-251.8816786626508
 11
-188.0184556873346
 21
-251.1138636966641
 72
     1
 10
-188.0184556873346
 20
-251.1138636966641
 11
-187.7182904501445
 21
-251.8816786626508
 72
     1
 10
-187.7182904501445
 20
-251.8816786626508
 11
-188.318620924527
 21
-251.8816786626508
 97
        3
330
130
330
17E
330
17D
 75
     1
 76
     0
 52
45.0
 41
0.1
 77
     0
 78
     1
 53
45.0
 43
0.0
 44
0.0
 45
-0.0707106781186548
 46
0.0707106781186548
 79
     0
 98
        1
 10
0.0
 20
0.0
  0
HATCH
  5
1FD
330
71
100
AcDbEntity
  8
1
  6
Continuous
 62
     2
100
AcDbHatch
 10
0.0
 20
0.0
 30
0.0
210
0.0
220
0.0
230
1.0
  2
_USER
 70
     0
 71
     1
 91
        2
 92
        1
 93
        8
 72
     1
 10
-187.2407548455224
 20
-253.1032024721753
 11
-187.4522348989981
 21
-252.5622419279574
 72
     1
 10
-187.4522348989981
 20
-252.5622419279574
 11
-188.584676475672
 21
-252.5622419279574
 72
     1
 10
-188.584676475672
 20
-252.5622419279574
 11
-188.7961565291478
 21
-253.1032024721753
 72
     1
 10
-188.7961565291478
 20
-253.1032024721753
 11
-190.0366609394008
 21
-253.1032024721753
 72
     1
 10
-190.0366609394008
 20
-253.1032024721753
 11
-188.6387078924614
 21
-250.0493929483642
 72
     1
 10
-188.6387078924614
 20
-250.0493929483642
 11
-187.3982034822087
 21
-250.0493929483642
 72
     1
 10
-187.3982034822087
 20
-250.0493929483642
 11
-186.0002504352684
 21
-253.1032024721753
 72
     1
 10
-186.0002504352684
 20
-253.1032024721753
 11
-187.2407548455224
 21
-253.1032024721753
 97
        8
330
17A
330
17B
330
132
330
17C
330
131
330
134
330
179
330
133
 92
       16
 93
        3
 72
     1
 10
-188.318620924527
 20
-251.8816786626508
 11
-188.0184556873346
 21
-251.1138636966641
 72
     1
 10
-188.0184556873346
 20
-251.1138636966641
 11
-187.7182904501445
 21
-251.8816786626508
 72
     1
 10
-187.7182904501445
 20
-251.8816786626508
 11
-188.318620924527
 21
-251.8816786626508
 97
        3
330
130
330
17E
330
17D
 75
     1
 76
     0
 52
45.0
 41
0.1
 77
     0
 78
     1
 53
45.0
 43
0.0
 44
0.0
 45
-0.0707106781186548
 46
0.0707106781186548
 79
     0
 98
        1
 10
0.0
 20
0.0
  0
HATCH
  5
1FE
330
71
100
AcDbEntity
  8
1
  6
Continuous
 62
     2
100
AcDbHatch
 10
0.0
 20
0.0
 30
0.0
210
0.0
220
0.0
230
1.0
  2
_USER
 70
     0
 71
     1
 91
        1
 92
        1
 93
        4
 72
     1
 10
-185.6098064317364
 20
-249.744011996001
 11
-186.8503108419893
 21
-249.744011996001
 72
     1
 10
-186.8503108419893
 20
-249.744011996001
 11
-186.8503108419893
 21
-246.6902024721898
 72
     1
 10
-186.8503108419893
 20
-246.6902024721898
 11
-185.6098064317364
 21
-246.6902024721898
 72
     1
 10
-185.6098064317364
 20
-246.6902024721898
 11
-185.6098064317364
 21
-249.744011996001
 97
        4
330
12D
330
12F
330
17F
330
12E
 75
     1
 76
     0
 52
45.0
 41
0.1
 77
     0
 78
     1
 53
45.0
 43
0.0
 44
0.0
 45
-0.0707106781186548
 46
0.0707106781186548
 79
     0
 98
        1
 10
0.0
 20
0.0
  0
HATCH
  5
1FF
330
71
100
AcDbEntity
  8
1
  6
Continuous
 62
     2
100
AcDbHatch
 10
0.0
 20
0.0
 30
0.0
210
0.0
220
0.0
230
1.0
  2
_USER
 70
     0
 71
     1
 91
        1
 92
        1
 93
        4
 72
     1
 10
-185.6098064317364
 20
-249.744011996001
 11
-186.8503108419893
 21
-249.744011996001
 72
     1
 10
-186.8503108419893
 20
-249.744011996001
 11
-186.8503108419893
 21
-246.6902024721898
 72
     1
 10
-186.8503108419893
 20
-246.6902024721898
 11
-185.6098064317364
 21
-246.6902024721898
 72
     1
 10
-185.6098064317364
 20
-246.6902024721898
 11
-185.6098064317364
 21
-249.744011996001
 97
        4
330
12D
330
12F
330
17F
330
12E
 75
     1
 76
     0
 52
45.0
 41
0.1
 77
     0
 78
     1
 53
45.0
 43
0.0
 44
0.0
 45
-0.0707106781186548
 46
0.0707106781186548
 79
     0
 98
        1
 10
0.0
 20
0.0
  0
HATCH
  5
200
330
71
100
AcDbEntity
  8
1
  6
Continuous
 62
     2
100
AcDbHatch
 10
0.0
 20
0.0
 30
0.0
210
0.0
220
0.0
230
1.0
  2
_USER
 70
     0
 71
     1
 91
        1
 92
        1
 93
       12
 72
     1
 10
-181.3873202660656
 20
-246.6902024721898
 11
-182.6898498968322
 21
-248.163153002226
 72
     1
 10
-182.6898498968322
 20
-248.163153002226
 11
-181.2918968498919
 21
-249.744011996001
 72
     1
 10
-181.2918968498919
 20
-249.744011996001
 11
-182.6946210676402
 21
-249.744011996001
 72
     1
 10
-182.6946210676402
 20
-249.744011996001
 11
-183.3912120057057
 21
-248.9562802107073
 72
     1
 10
-183.3912120057057
 20
-248.9562802107073
 11
-184.0878029437714
 21
-249.744011996001
 72
     1
 10
-184.0878029437714
 20
-249.744011996001
 11
-185.4905271615196
 21
-249.744011996001
 72
     1
 10
-185.4905271615196
 20
-249.744011996001
 11
-184.0925741145793
 21
-248.163153002226
 72
     1
 10
-184.0925741145793
 20
-248.163153002226
 11
-185.3951037453467
 21
-246.6902024721898
 72
     1
 10
-185.3951037453467
 20
-246.6902024721898
 11
-183.9923795275975
 21
-246.6902024721898
 72
     1
 10
-183.9923795275975
 20
-246.6902024721898
 11
-183.3912120057057
 21
-247.3700257937453
 72
     1
 10
-183.3912120057057
 20
-247.3700257937453
 11
-182.7900444838129
 21
-246.6902024721898
 72
     1
 10
-182.7900444838129
 20
-246.6902024721898
 11
-181.3873202660656
 21
-246.6902024721898
 97
       12
330
128
330
127
330
126
330
183
330
184
330
180
330
181
330
12C
330
12B
330
12A
330
129
330
182
 75
     1
 76
     0
 52
45.0
 41
0.1
 77
     0
 78
     1
 53
45.0
 43
0.0
 44
0.0
 45
-0.0707106781186548
 46
0.0707106781186548
 79
     0
 98
        1
 10
0.0
 20
0.0
  0
HATCH
  5
201
330
71
100
AcDbEntity
  8
1
  6
Continuous
 62
     2
100
AcDbHatch
 10
0.0
 20
0.0
 30
0.0
210
0.0
220
0.0
230
1.0
  2
_USER
 70
     0
 71
     1
 91
        1
 92
        1
 93
       12
 72
     1
 10
-181.3873202660656
 20
-246.6902024721898
 11
-182.6898498968322
 21
-248.163153002226
 72
     1
 10
-182.6898498968322
 20
-248.163153002226
 11
-181.2918968498919
 21
-249.744011996001
 72
     1
 10
-181.2918968498919
 20
-249.744011996001
 11
-182.6946210676402
 21
-249.744011996001
 72
     1
 10
-182.6946210676402
 20
-249.744011996001
 11
-183.3912120057057
 21
-248.9562802107073
 72
     1
 10
-183.3912120057057
 20
-248.9562802107073
 11
-184.0878029437714
 21
-249.744011996001
 72
     1
 10
-184.0878029437714
 20
-249.744011996001
 11
-185.4905271615196
 21
-249.744011996001
 72
     1
 10
-185.4905271615196
 20
-249.744011996001
 11
-184.0925741145793
 21
-248.163153002226
 72
     1
 10
-184.0925741145793
 20
-248.163153002226
 11
-185.3951037453467
 21
-246.6902024721898
 72
     1
 10
-185.3951037453467
 20
-246.6902024721898
 11
-183.9923795275975
 21
-246.6902024721898
 72
     1
 10
-183.9923795275975
 20
-246.6902024721898
 11
-183.3912120057057
 21
-247.3700257937453
 72
     1
 10
-183.3912120057057
 20
-247.3700257937453
 11
-182.7900444838129
 21
-246.6902024721898
 72
     1
 10
-182.7900444838129
 20
-246.6902024721898
 11
-181.3873202660656
 21
-246.6902024721898
 97
       12
330
128
330
127
330
126
330
183
330
184
330
180
330
181
330
12C
330
12B
330
12A
330
129
330
182
 75
     1
 76
     0
 52
45.0
 41
0.1
 77
     0
 78
     1
 53
45.0
 43
0.0
 44
0.0
 45
-0.0707106781186548
 46
0.0707106781186548
 79
     0
 98
        1
 10
0.0
 20
0.0
  0
HATCH
  5
202
330
71
100
AcDbEntity
  8
1
  6
Continuous
 62
     2
100
AcDbHatch
 10
0.0
 20
0.0
 30
0.0
210
0.0
220
0.0
230
1.0
  2
_USER
 70
     0
 71
     1
 91
        2
 92
        1
 93
        6
 72
     1
 10
-200.4050556802117
 20
-248.8009337548572
 11
-201.1638232679919
 21
-248.8009337548572
 72
     1
 10
-201.1638232679919
 20
-248.8009337548572
 11
-201.1638232679919
 21
-249.744011996001
 72
     1
 10
-201.1638232679919
 20
-249.744011996001
 11
-202.4043276782461
 21
-249.744011996001
 72
     1
 10
-202.4043276782461
 20
-249.744011996001
 11
-202.4043276782461
 21
-246.6902024721898
 72
     1
 10
-202.4043276782461
 20
-246.6902024721898
 11
-200.4050556802117
 21
-246.6902024721898
 72
     2
 10
-200.4050556802117
 20
-247.7455681135235
 40
1.055365641333708
 50
270.0
 51
450.0
 73
     0
 97
        6
330
150
330
14F
330
15C
330
15B
330
151
330
1A1
 92
       16
 93
        4
 72
     2
 10
-200.8465282064501
 20
-247.706172142301
 40
0.3528638246712035
 50
270.0
 51
450.0
 73
     1
 72
     1
 10
-200.8465282064501
 20
-247.3533083176299
 11
-201.1638232679919
 21
-247.3533083176299
 72
     1
 10
-201.1638232679919
 20
-247.3533083176299
 11
-201.1638232679919
 21
-248.0590359669722
 72
     1
 10
-201.1638232679919
 20
-248.0590359669722
 11
-200.8465282064501
 21
-248.0590359669722
 97
        4
330
1B5
330
14D
330
15D
330
14E
 75
     1
 76
     0
 52
45.0
 41
0.1
 77
     0
 78
     1
 53
45.0
 43
0.0
 44
0.0
 45
-0.0707106781186548
 46
0.0707106781186548
 79
     0
 98
        1
 10
0.0
 20
0.0
  0
HATCH
  5
203
330
71
100
AcDbEntity
  8
1
  6
Continuous
 62
     2
100
AcDbHatch
 10
0.0
 20
0.0
 30
0.0
210
0.0
220
0.0
230
1.0
  2
_USER
 70
     0
 71
     1
 91
        2
 92
        1
 93
        6
 72
     1
 10
-200.4050556802117
 20
-248.8009337548572
 11
-201.1638232679919
 21
-248.8009337548572
 72
     1
 10
-201.1638232679919
 20
-248.8009337548572
 11
-201.1638232679919
 21
-249.744011996001
 72
     1
 10
-201.1638232679919
 20
-249.744011996001
 11
-202.4043276782461
 21
-249.744011996001
 72
     1
 10
-202.4043276782461
 20
-249.744011996001
 11
-202.4043276782461
 21
-246.6902024721898
 72
     1
 10
-202.4043276782461
 20
-246.6902024721898
 11
-200.4050556802117
 21
-246.6902024721898
 72
     2
 10
-200.4050556802117
 20
-247.7455681135235
 40
1.055365641333708
 50
270.0
 51
450.0
 73
     0
 97
        6
330
150
330
14F
330
15C
330
15B
330
151
330
1A1
 92
       16
 93
        4
 72
     2
 10
-200.8465282064501
 20
-247.706172142301
 40
0.3528638246712035
 50
270.0
 51
450.0
 73
     1
 72
     1
 10
-200.8465282064501
 20
-247.3533083176299
 11
-201.1638232679919
 21
-247.3533083176299
 72
     1
 10
-201.1638232679919
 20
-247.3533083176299
 11
-201.1638232679919
 21
-248.0590359669722
 72
     1
 10
-201.1638232679919
 20
-248.0590359669722
 11
-200.8465282064501
 21
-248.0590359669722
 97
        4
330
1B5
330
14D
330
15D
330
14E
 75
     1
 76
     0
 52
45.0
 41
0.1
 77
     0
 78
     1
 53
45.0
 43
0.0
 44
0.0
 45
-0.0707106781186548
 46
0.0707106781186548
 79
     0
 98
        1
 10
0.0
 20
0.0
  0
HATCH
  5
204
330
71
100
AcDbEntity
  8
1
  6
Continuous
 62
     2
100
AcDbHatch
 10
0.0
 20
0.0
 30
0.0
210
0.0
220
0.0
230
1.0
  2
_USER
 70
     0
 71
     1
 91
        2
 92
        1
 93
        4
 72
     2
 10
-197.8485129318526
 20
-252.1148727205728
 40
2.065479772208581
 50
62.45185182430567
 51
117.5481481756643
 73
     1
 72
     2
 10
-198.1294528236859
 20
-251.57629771027
 40
1.458034083651451
 50
117.5481481756595
 51
242.4518518243405
 73
     1
 72
     2
 10
-197.8485129318526
 20
-251.0377226999667
 40
2.065479772208469
 50
242.4518518243423
 51
297.5481481756877
 73
     1
 72
     2
 10
-197.5675730400193
 20
-251.57629771027
 40
1.458034083652016
 50
297.5481481757021
 51
422.4518518242979
 73
     1
 97
        4
330
1AD
330
1AC
330
1AE
330
1AB
 92
       16
 93
        4
 72
     2
 10
-198.048252968199
 20
-251.57629771027
 40
0.7717997786796724
 50
321.8795802028404
 51
398.1204197971496
 73
     1
 72
     2
 10
-197.8485129318526
 20
-251.4195665321495
 40
0.5179085730132472
 50
38.12041979713961
 51
141.8795802028662
 73
     1
 72
     2
 10
-197.6487728955065
 20
-251.57629771027
 40
0.7717997786794106
 50
141.8795802028413
 51
218.1204197971687
 73
     1
 72
     2
 10
-197.8485129318526
 20
-251.73302888839
 40
0.5179085730137354
 50
218.1204197971931
 51
321.879580202801
 73
     1
 97
        4
330
1C9
330
1C6
330
1C7
330
1C8
 75
     1
 76
     0
 52
45.0
 41
0.1
 77
     0
 78
     1
 53
45.0
 43
0.0
 44
0.0
 45
-0.0707106781186548
 46
0.0707106781186548
 79
     0
 98
        1
 10
0.0
 20
0.0
  0
HATCH
  5
205
330
71
100
AcDbEntity
  8
1
  6
Continuous
 62
     2
100
AcDbHatch
 10
0.0
 20
0.0
 30
0.0
210
0.0
220
0.0
230
1.0
  2
_USER
 70
     0
 71
     1
 91
        2
 92
        1
 93
        4
 72
     2
 10
-197.8485129318526
 20
-252.1148727205728
 40
2.065479772208581
 50
62.45185182430567
 51
117.5481481756643
 73
     1
 72
     2
 10
-198.1294528236859
 20
-251.57629771027
 40
1.458034083651451
 50
117.5481481756595
 51
242.4518518243405
 73
     1
 72
     2
 10
-197.8485129318526
 20
-251.0377226999667
 40
2.065479772208469
 50
242.4518518243423
 51
297.5481481756877
 73
     1
 72
     2
 10
-197.5675730400193
 20
-251.57629771027
 40
1.458034083652016
 50
297.5481481757021
 51
422.4518518242979
 73
     1
 97
        4
330
1AD
330
1AC
330
1AE
330
1AB
 92
       16
 93
        4
 72
     2
 10
-198.048252968199
 20
-251.57629771027
 40
0.7717997786796724
 50
321.8795802028404
 51
398.1204197971496
 73
     1
 72
     2
 10
-197.8485129318526
 20
-251.4195665321495
 40
0.5179085730132472
 50
38.12041979713961
 51
141.8795802028662
 73
     1
 72
     2
 10
-197.6487728955065
 20
-251.57629771027
 40
0.7717997786794106
 50
141.8795802028413
 51
218.1204197971687
 73
     1
 72
     2
 10
-197.8485129318526
 20
-251.73302888839
 40
0.5179085730137354
 50
218.1204197971931
 51
321.879580202801
 73
     1
 97
        4
330
1C9
330
1C6
330
1C7
330
1C8
 75
     1
 76
     0
 52
45.0
 41
0.1
 77
     0
 78
     1
 53
45.0
 43
0.0
 44
0.0
 45
-0.0707106781186548
 46
0.0707106781186548
 79
     0
 98
        1
 10
0.0
 20
0.0
  0
HATCH
  5
206
330
71
100
AcDbEntity
  8
1
  6
Continuous
 62
     2
100
AcDbHatch
 10
0.0
 20
0.0
 30
0.0
210
0.0
220
0.0
230
1.0
  2
_USER
 70
     0
 71
     1
 91
        2
 92
        1
 93
       12
 72
     1
 10
-190.9535177374433
 20
-247.3882160776328
 11
-192.2894455638709
 21
-247.3882160776328
 72
     1
 10
-192.2894455638709
 20
-247.3882160776328
 11
-192.2894455638709
 21
-247.8681004313745
 72
     1
 10
-192.2894455638709
 20
-247.8681004313745
 11
-190.9535177374433
 21
-247.8681004313745
 72
     1
 10
-190.9535177374433
 20
-247.8681004313745
 11
-190.9535177374433
 21
-248.5661140368168
 72
     1
 10
-190.9535177374433
 20
-248.5661140368168
 11
-192.2894455638709
 21
-248.5661140368168
 72
     1
 10
-192.2894455638709
 20
-248.5661140368168
 11
-192.2894455638709
 21
-249.0459983905585
 72
     1
 10
-192.2894455638709
 20
-249.0459983905585
 11
-190.9535177374433
 21
-249.0459983905585
 72
     1
 10
-190.9535177374433
 20
-249.0459983905585
 11
-190.9535177374433
 21
-249.744011996001
 72
     1
 10
-190.9535177374433
 20
-249.744011996001
 11
-194.1038374612243
 21
-249.744011996001
 72
     2
 10
-194.1038374612243
 20
-248.2171072340957
 40
1.526904761905882
 50
90.0
 51
270.0
 73
     0
 72
     1
 10
-194.1038374612243
 20
-246.6902024721898
 11
-190.9535177374433
 21
-246.6902024721898
 72
     1
 10
-190.9535177374433
 20
-246.6902024721898
 11
-190.9535177374433
 21
-247.3882160776328
 97
       12
330
164
330
1B6
330
165
330
166
330
167
330
168
330
145
330
144
330
143
330
142
330
169
330
163
 92
       16
 93
        4
 72
     2
 10
-193.8875654510591
 20
-248.0603760559752
 40
0.5179085730135041
 50
38.12041979714528
 51
141.8795802028508
 73
     1
 72
     2
 10
-193.6878254147128
 20
-248.2171072340957
 40
0.7717997786796947
 50
141.8795802028417
 51
218.1204197971533
 73
     1
 72
     2
 10
-193.8875654510591
 20
-248.3738384122161
 40
0.5179085730134595
 50
218.1204197971492
 51
321.8795802028547
 73
     1
 72
     2
 10
-194.0873054874053
 20
-248.2171072340957
 40
0.7717997786796198
 50
321.8795802028454
 51
398.1204197971596
 73
     1
 97
        4
330
1B0
330
1AF
330
1AA
330
1A9
 75
     1
 76
     0
 52
45.0
 41
0.1
 77
     0
 78
     1
 53
45.0
 43
0.0
 44
0.0
 45
-0.0707106781186548
 46
0.0707106781186548
 79
     0
 98
        1
 10
0.0
 20
0.0
  0
HATCH
  5
207
330
71
100
AcDbEntity
  8
1
  6
Continuous
 62
     2
100
AcDbHatch
 10
0.0
 20
0.0
 30
0.0
210
0.0
220
0.0
230
1.0
  2
_USER
 70
     0
 71
     1
 91
        2
 92
        1
 93
       12
 72
     1
 10
-190.9535177374433
 20
-247.3882160776328
 11
-192.2894455638709
 21
-247.3882160776328
 72
     1
 10
-192.2894455638709
 20
-247.3882160776328
 11
-192.2894455638709
 21
-247.8681004313745
 72
     1
 10
-192.2894455638709
 20
-247.8681004313745
 11
-190.9535177374433
 21
-247.8681004313745
 72
     1
 10
-190.9535177374433
 20
-247.8681004313745
 11
-190.9535177374433
 21
-248.5661140368168
 72
     1
 10
-190.9535177374433
 20
-248.5661140368168
 11
-192.2894455638709
 21
-248.5661140368168
 72
     1
 10
-192.2894455638709
 20
-248.5661140368168
 11
-192.2894455638709
 21
-249.0459983905585
 72
     1
 10
-192.2894455638709
 20
-249.0459983905585
 11
-190.9535177374433
 21
-249.0459983905585
 72
     1
 10
-190.9535177374433
 20
-249.0459983905585
 11
-190.9535177374433
 21
-249.744011996001
 72
     1
 10
-190.9535177374433
 20
-249.744011996001
 11
-194.1038374612243
 21
-249.744011996001
 72
     2
 10
-194.1038374612243
 20
-248.2171072340957
 40
1.526904761905882
 50
90.0
 51
270.0
 73
     0
 72
     1
 10
-194.1038374612243
 20
-246.6902024721898
 11
-190.9535177374433
 21
-246.6902024721898
 72
     1
 10
-190.9535177374433
 20
-246.6902024721898
 11
-190.9535177374433
 21
-247.3882160776328
 97
       12
330
164
330
1B6
330
165
330
166
330
167
330
168
330
145
330
144
330
143
330
142
330
169
330
163
 92
       16
 93
        4
 72
     2
 10
-193.8875654510591
 20
-248.0603760559752
 40
0.5179085730135041
 50
38.12041979714528
 51
141.8795802028508
 73
     1
 72
     2
 10
-193.6878254147128
 20
-248.2171072340957
 40
0.7717997786796947
 50
141.8795802028417
 51
218.1204197971533
 73
     1
 72
     2
 10
-193.8875654510591
 20
-248.3738384122161
 40
0.5179085730134595
 50
218.1204197971492
 51
321.8795802028547
 73
     1
 72
     2
 10
-194.0873054874053
 20
-248.2171072340957
 40
0.7717997786796198
 50
321.8795802028454
 51
398.1204197971596
 73
     1
 97
        4
330
1B0
330
1AF
330
1AA
330
1A9
 75
     1
 76
     0
 52
45.0
 41
0.1
 77
     0
 78
     1
 53
45.0
 43
0.0
 44
0.0
 45
-0.0707106781186548
 46
0.0707106781186548
 79
     0
 98
        1
 10
0.0
 20
0.0
  0
HATCH
  5
208
330
71
100
AcDbEntity
  8
1
  6
Continuous
 62
     2
100
AcDbHatch
 10
0.0
 20
0.0
 30
0.0
210
0.0
220
0.0
230
1.0
  2
_USER
 70
     0
 71
     1
 91
        4
 92
        1
 93
        8
 72
     1
 10
-202.8814447591129
 20
-247.1144470875918
 11
-202.8814447591129
 21
-252.678957856792
 72
     2
 10
-203.3056893744968
 20
-252.678957856792
 40
0.4242446153832873
 50
0.0
 51
90.0
 73
     0
 72
     1
 10
-203.3056893744968
 20
-253.1032024721753
 11
-208.7790014652136
 21
-253.1032024721753
 72
     2
 10
-208.7790014652136
 20
-252.678957856792
 40
0.4242446153827757
 50
90.0
 51
180.0
 73
     0
 72
     1
 10
-209.2032460805964
 20
-252.678957856792
 11
-209.2032460805964
 21
-247.1144470875918
 72
     2
 10
-208.7790014652136
 20
-247.1144470875918
 40
0.4242446153837989
 50
180.0
 51
270.0
 73
     0
 72
     1
 10
-208.7790014652136
 20
-246.690202472208
 11
-203.3056893744968
 21
-246.690202472208
 72
     2
 10
-203.3056893744968
 20
-247.1144470875918
 40
0.4242446153839126
 50
270.0
 51
360.0
 73
     0
 97
        8
330
158
330
1A6
330
159
330
1B1
330
156
330
1A8
330
157
330
1A7
 92
       16
 93
        1
 72
     2
 10
-206.1594158146961
 20
-249.4333293159473
 40
0.4709789327785927
 50
0.0
 51
360.0
 73
     1
 97
        1
330
1CC
 92
       16
 93
        8
 72
     2
 10
-205.6095581019354
 20
-250.5424709159157
 40
0.3157169230765193
 50
115.3740086783587
 51
180.0
 73
     1
 72
     1
 10
-205.9252750250122
 20
-250.5424709159157
 11
-205.9252750250122
 21
-251.1243223226108
 72
     2
 10
-205.6095581019354
 20
-251.1243223226108
 40
0.3157169230768204
 50
180.0
 51
269.811032957449
 73
     1
 72
     2
 10
-205.6039419666253
 20
-249.4214873750418
 40
2.018561131933238
 50
269.8110329575834
 51
450.1889670424166
 73
     1
 72
     2
 10
-205.6095581019354
 20
-247.7186524274727
 40
0.3157169230760711
 50
90.18896704255108
 51
180.0
 73
     1
 72
     1
 10
-205.9252750250122
 20
-247.7186524274727
 11
-205.9252750250122
 21
-248.3241877159795
 72
     2
 10
-205.6095581019354
 20
-248.3241877159795
 40
0.3157169230768204
 50
180.0
 51
244.6259913216435
 73
     1
 72
     2
 10
-206.1356008000232
 20
-249.4333293159473
 40
0.9118481501444224
 50
295.3740086781877
 51
424.6259913218283
 73
     0
 97
        8
330
1BE
330
11F
330
1BB
330
1BC
330
19A
330
11E
330
1BD
330
199
 92
       16
 93
       12
 72
     2
 10
-208.1851067884671
 20
-252.0749299935417
 40
0.315716923075712
 50
180.0
 51
270.0
 73
     1
 72
     1
 10
-208.1851067884671
 20
-252.3906469166184
 11
-206.7092735274574
 21
-252.3906469166184
 72
     2
 10
-206.7092735274574
 20
-252.0749299935417
 40
0.3157169230767067
 50
270.0
 51
360.0
 73
     1
 72
     1
 10
-206.3935566043809
 20
-252.0749299935417
 11
-206.3935566043809
 21
-250.5441590620101
 72
     2
 10
-206.7092735274574
 20
-250.5441590620101
 40
0.3157169230765078
 50
0.0
 51
64.80558935145781
 73
     1
 72
     2
 10
-206.1866890798825
 20
-249.4333293159473
 40
0.9118975235575663
 50
115.1944106485065
 51
244.8055893514782
 73
     0
 72
     2
 10
-206.7092735274574
 20
-248.3224995698851
 40
0.3157169230761324
 50
295.1944106485444
 51
360.0
 73
     1
 72
     1
 10
-206.3935566043809
 20
-248.3224995698851
 11
-206.3935566043809
 21
-247.7184749508246
 72
     2
 10
-206.7092735274574
 20
-247.7184749508246
 40
0.3157169230765078
 50
0.0
 51
90.0
 73
     1
 72
     1
 10
-206.7092735274574
 20
-247.4027580277484
 11
-208.1851067884671
 21
-247.4027580277484
 72
     2
 10
-208.1851067884671
 20
-247.7184749508246
 40
0.3157169230761951
 50
90.0
 51
180.0
 73
     1
 72
     1
 10
-208.5008237115428
 20
-247.7184749508246
 11
-208.5008237115428
 21
-252.0749299935417
 97
       12
330
1A2
330
15A
330
1A5
330
155
330
1B2
330
1B3
330
1A4
330
154
330
1A3
330
153
330
1B4
330
152
 75
     1
 76
     0
 52
45.0
 41
0.1
 77
     0
 78
     1
 53
45.0
 43
0.0
 44
0.0
 45
-0.0707106781186548
 46
0.0707106781186548
 79
     0
 98
        1
 10
0.0
 20
0.0
  0
HATCH
  5
209
330
71
100
AcDbEntity
  8
1
  6
Continuous
 62
     2
100
AcDbHatch
 10
0.0
 20
0.0
 30
0.0
210
0.0
220
0.0
230
1.0
  2
_USER
 70
     0
 71
     1
 91
        4
 92
        1
 93
        8
 72
     1
 10
-202.8814447591129
 20
-247.1144470875918
 11
-202.8814447591129
 21
-252.678957856792
 72
     2
 10
-203.3056893744968
 20
-252.678957856792
 40
0.4242446153832873
 50
0.0
 51
90.0
 73
     0
 72
     1
 10
-203.3056893744968
 20
-253.1032024721753
 11
-208.7790014652136
 21
-253.1032024721753
 72
     2
 10
-208.7790014652136
 20
-252.678957856792
 40
0.4242446153827757
 50
90.0
 51
180.0
 73
     0
 72
     1
 10
-209.2032460805964
 20
-252.678957856792
 11
-209.2032460805964
 21
-247.1144470875918
 72
     2
 10
-208.7790014652136
 20
-247.1144470875918
 40
0.4242446153837989
 50
180.0
 51
270.0
 73
     0
 72
     1
 10
-208.7790014652136
 20
-246.690202472208
 11
-203.3056893744968
 21
-246.690202472208
 72
     2
 10
-203.3056893744968
 20
-247.1144470875918
 40
0.4242446153839126
 50
270.0
 51
360.0
 73
     0
 97
        8
330
158
330
1A6
330
159
330
1B1
330
156
330
1A8
330
157
330
1A7
 92
       16
 93
        1
 72
     2
 10
-206.1594158146961
 20
-249.4333293159473
 40
0.4709789327785927
 50
0.0
 51
360.0
 73
     1
 97
        1
330
1CC
 92
       16
 93
        8
 72
     2
 10
-205.6095581019354
 20
-250.5424709159157
 40
0.3157169230765193
 50
115.3740086783587
 51
180.0
 73
     1
 72
     1
 10
-205.9252750250122
 20
-250.5424709159157
 11
-205.9252750250122
 21
-251.1243223226108
 72
     2
 10
-205.6095581019354
 20
-251.1243223226108
 40
0.3157169230768204
 50
180.0
 51
269.811032957449
 73
     1
 72
     2
 10
-205.6039419666253
 20
-249.4214873750418
 40
2.018561131933238
 50
269.8110329575834
 51
450.1889670424166
 73
     1
 72
     2
 10
-205.6095581019354
 20
-247.7186524274727
 40
0.3157169230760711
 50
90.18896704255108
 51
180.0
 73
     1
 72
     1
 10
-205.9252750250122
 20
-247.7186524274727
 11
-205.9252750250122
 21
-248.3241877159795
 72
     2
 10
-205.6095581019354
 20
-248.3241877159795
 40
0.3157169230768204
 50
180.0
 51
244.6259913216435
 73
     1
 72
     2
 10
-206.1356008000232
 20
-249.4333293159473
 40
0.9118481501444224
 50
295.3740086781877
 51
424.6259913218283
 73
     0
 97
        8
330
1BE
330
11F
330
1BB
330
1BC
330
19A
330
11E
330
1BD
330
199
 92
       16
 93
       12
 72
     2
 10
-208.1851067884671
 20
-252.0749299935417
 40
0.315716923075712
 50
180.0
 51
270.0
 73
     1
 72
     1
 10
-208.1851067884671
 20
-252.3906469166184
 11
-206.7092735274574
 21
-252.3906469166184
 72
     2
 10
-206.7092735274574
 20
-252.0749299935417
 40
0.3157169230767067
 50
270.0
 51
360.0
 73
     1
 72
     1
 10
-206.3935566043809
 20
-252.0749299935417
 11
-206.3935566043809
 21
-250.5441590620101
 72
     2
 10
-206.7092735274574
 20
-250.5441590620101
 40
0.3157169230765078
 50
0.0
 51
64.80558935145781
 73
     1
 72
     2
 10
-206.1866890798825
 20
-249.4333293159473
 40
0.9118975235575663
 50
115.1944106485065
 51
244.8055893514782
 73
     0
 72
     2
 10
-206.7092735274574
 20
-248.3224995698851
 40
0.3157169230761324
 50
295.1944106485444
 51
360.0
 73
     1
 72
     1
 10
-206.3935566043809
 20
-248.3224995698851
 11
-206.3935566043809
 21
-247.7184749508246
 72
     2
 10
-206.7092735274574
 20
-247.7184749508246
 40
0.3157169230765078
 50
0.0
 51
90.0
 73
     1
 72
     1
 10
-206.7092735274574
 20
-247.4027580277484
 11
-208.1851067884671
 21
-247.4027580277484
 72
     2
 10
-208.1851067884671
 20
-247.7184749508246
 40
0.3157169230761951
 50
90.0
 51
180.0
 73
     1
 72
     1
 10
-208.5008237115428
 20
-247.7184749508246
 11
-208.5008237115428
 21
-252.0749299935417
 97
       12
330
1A2
330
15A
330
1A5
330
155
330
1B2
330
1B3
330
1A4
330
154
330
1A3
330
153
330
1B4
330
152
 75
     1
 76
     0
 52
45.0
 41
0.1
 77
     0
 78
     1
 53
45.0
 43
0.0
 44
0.0
 45
-0.0707106781186548
 46
0.0707106781186548
 79
     0
 98
        1
 10
0.0
 20
0.0
  0
HATCH
  5
20A
330
71
100
AcDbEntity
  8
1
  6
Continuous
 62
     2
100
AcDbHatch
 10
0.0
 20
0.0
 30
0.0
210
0.0
220
0.0
230
1.0
  2
_USER
 70
     0
 71
     1
 91
        1
 92
        1
 93
       18
 72
     1
 10
-181.2918968498919
 20
-250.8346582544878
 11
-182.1029958873652
 21
-250.8346582544878
 72
     1
 10
-182.1029958873652
 20
-250.8346582544878
 11
-182.1029958873652
 21
-253.1032024721753
 72
     1
 10
-182.1029958873652
 20
-253.1032024721753
 11
-183.295788589533
 21
-253.1032024721753
 72
     1
 10
-183.295788589533
 20
-253.1032024721753
 11
-183.295788589533
 21
-250.8346582544878
 72
     1
 10
-183.295788589533
 20
-250.8346582544878
 11
-184.3994278891011
 21
-250.8346582544878
 72
     2
 10
-184.3994278891011
 20
-251.7891812613139
 40
0.9545230068260935
 50
90.0
 51
109.3371432194321
 73
     1
 72
     2
 10
-184.5460978872048
 20
-251.371226280931
 40
0.5115800601943244
 50
109.3371432194854
 51
151.4785267424209
 73
     1
 72
     2
 10
-184.1687406291234
 20
-251.57629771027
 40
0.9410597353348924
 50
151.4785267423624
 51
208.5214732576695
 73
     1
 72
     2
 10
-184.5460978872048
 20
-251.7813691396085
 40
0.5115800601959967
 50
208.5214732576881
 51
246.6277221118449
 73
     1
 72
     2
 10
-184.3896578545017
 20
-251.4193771208985
 40
0.9059297849852801
 50
246.6277221118183
 51
288.4480761180817
 73
     1
 72
     2
 10
-184.8078255881636
 20
-250.1658313448619
 40
2.227384008972746
 50
288.4480761181335
 51
301.9309089499416
 73
     1
 72
     1
 10
-183.6297705461396
 20
-252.0561820640117
 11
-183.6297705461396
 21
-252.928699070815
 72
     2
 10
-184.9656984632564
 20
-248.2636167650136
 40
4.852596863498833
 50
74.02000874166058
 51
84.84185523036264
 73
     0
 72
     2
 10
-184.6768423685205
 20
-251.4635073482352
 40
1.639695123940503
 50
84.84185523032279
 51
164.9381082228993
 73
     0
 72
     2
 10
-185.0959702119822
 20
-251.57629771027
 40
1.205656168392975
 50
164.9381082229037
 51
195.0618917770975
 73
     0
 72
     2
 10
-184.6768423685205
 20
-251.6890880723049
 40
1.639695123940214
 50
195.0618917771045
 51
270.0
 73
     0
 72
     1
 10
-184.6768423685205
 20
-250.0493929483647
 11
-181.2918968498919
 21
-250.0493929483642
 72
     1
 10
-181.2918968498919
 20
-250.0493929483642
 11
-181.2918968498919
 21
-250.8346582544878
 97
       18
330
121
330
1B7
330
1B8
330
1A0
330
19F
330
185
330
19E
330
19D
330
1B9
330
19C
330
1BA
330
19B
330
186
330
120
330
125
330
124
330
123
330
122
 75
     1
 76
     0
 52
45.0
 41
0.1
 77
     0
 78
     1
 53
45.0
 43
0.0
 44
0.0
 45
-0.0707106781186548
 46
0.0707106781186548
 79
     0
 98
        1
 10
0.0
 20
0.0
  0
HATCH
  5
20B
330
71
100
AcDbEntity
  8
1
  6
Continuous
 62
     2
100
AcDbHatch
 10
0.0
 20
0.0
 30
0.0
210
0.0
220
0.0
230
1.0
  2
_USER
 70
     0
 71
     1
 91
        1
 92
        1
 93
       18
 72
     1
 10
-181.2918968498919
 20
-250.8346582544878
 11
-182.1029958873652
 21
-250.8346582544878
 72
     1
 10
-182.1029958873652
 20
-250.8346582544878
 11
-182.1029958873652
 21
-253.1032024721753
 72
     1
 10
-182.1029958873652
 20
-253.1032024721753
 11
-183.295788589533
 21
-253.1032024721753
 72
     1
 10
-183.295788589533
 20
-253.1032024721753
 11
-183.295788589533
 21
-250.8346582544878
 72
     1
 10
-183.295788589533
 20
-250.8346582544878
 11
-184.3994278891011
 21
-250.8346582544878
 72
     2
 10
-184.3994278891011
 20
-251.7891812613139
 40
0.9545230068260935
 50
90.0
 51
109.3371432194321
 73
     1
 72
     2
 10
-184.5460978872048
 20
-251.371226280931
 40
0.5115800601943244
 50
109.3371432194854
 51
151.4785267424209
 73
     1
 72
     2
 10
-184.1687406291234
 20
-251.57629771027
 40
0.9410597353348924
 50
151.4785267423624
 51
208.5214732576695
 73
     1
 72
     2
 10
-184.5460978872048
 20
-251.7813691396085
 40
0.5115800601959967
 50
208.5214732576881
 51
246.6277221118449
 73
     1
 72
     2
 10
-184.3896578545017
 20
-251.4193771208985
 40
0.9059297849852801
 50
246.6277221118183
 51
288.4480761180817
 73
     1
 72
     2
 10
-184.8078255881636
 20
-250.1658313448619
 40
2.227384008972746
 50
288.4480761181335
 51
301.9309089499416
 73
     1
 72
     1
 10
-183.6297705461396
 20
-252.0561820640117
 11
-183.6297705461396
 21
-252.928699070815
 72
     2
 10
-184.9656984632564
 20
-248.2636167650136
 40
4.852596863498833
 50
74.02000874166058
 51
84.84185523036264
 73
     0
 72
     2
 10
-184.6768423685205
 20
-251.4635073482352
 40
1.639695123940503
 50
84.84185523032279
 51
164.9381082228993
 73
     0
 72
     2
 10
-185.0959702119822
 20
-251.57629771027
 40
1.205656168392975
 50
164.9381082229037
 51
195.0618917770975
 73
     0
 72
     2
 10
-184.6768423685205
 20
-251.6890880723049
 40
1.639695123940214
 50
195.0618917771045
 51
270.0
 73
     0
 72
     1
 10
-184.6768423685205
 20
-250.0493929483647
 11
-181.2918968498919
 21
-250.0493929483642
 72
     1
 10
-181.2918968498919
 20
-250.0493929483642
 11
-181.2918968498919
 21
-250.8346582544878
 97
       18
330
121
330
1B7
330
1B8
330
1A0
330
19F
330
185
330
19E
330
19D
330
1B9
330
19C
330
1BA
330
19B
330
186
330
120
330
125
330
124
330
123
330
122
 75
     1
 76
     0
 52
45.0
 41
0.1
 77
     0
 78
     1
 53
45.0
 43
0.0
 44
0.0
 45
-0.0707106781186548
 46
0.0707106781186548
 79
     0
 98
        1
 10
0.0
 20
0.0
  0
HATCH
  5
20C
330
71
100
AcDbEntity
  8
1
  6
Continuous
 62
     2
100
AcDbHatch
 10
0.0
 20
0.0
 30
0.0
210
0.0
220
0.0
230
1.0
  2
_USER
 70
     0
 71
     1
 91
        1
 92
        1
 93
       14
 72
     2
 10
-200.7795438477735
 20
-251.6890880723049
 40
1.639695123940509
 50
84.84185523036136
 51
164.9381082228857
 73
     1
 72
     2
 10
-201.1986716912363
 20
-251.57629771027
 40
1.205656168390862
 50
164.9381082228754
 51
195.0618917770959
 73
     1
 72
     2
 10
-200.7795438477735
 20
-251.4635073482352
 40
1.639695123939305
 50
195.0618917770904
 51
275.1581447696406
 73
     1
 72
     2
 10
-201.0683999425094
 20
-248.2636167650136
 40
4.852596863498138
 50
275.1581447696249
 51
285.9799912583526
 73
     1
 72
     1
 10
-199.7324720253916
 20
-252.9286990708145
 11
-199.7324720253916
 21
-252.0561820640112
 72
     2
 10
-200.9105270674164
 20
-250.1658313448614
 40
2.227384008972638
 50
58.0690910500408
 51
71.55192388186794
 73
     0
 72
     2
 10
-200.4923593337556
 20
-251.4193771208985
 40
0.9059297849849305
 50
71.55192388184666
 51
113.3722778881306
 73
     0
 72
     2
 10
-200.6487993664577
 20
-251.7813691396085
 40
0.5115800601948034
 50
113.3722778881668
 51
151.4785267423044
 73
     0
 72
     2
 10
-200.2714421083774
 20
-251.57629771027
 40
0.9410597353332295
 50
151.4785267422934
 51
208.5214732577339
 73
     0
 72
     2
 10
-200.6487993664577
 20
-251.371226280931
 40
0.5115800601948554
 50
208.5214732576956
 51
246.6277221118067
 73
     0
 72
     2
 10
-200.4923593337556
 20
-251.7332182996416
 40
0.9059297849853228
 50
246.6277221118694
 51
288.4480761181409
 73
     0
 72
     2
 10
-200.9105270674164
 20
-252.9867640756782
 40
2.227384008973448
 50
288.4480761181312
 51
301.930908949958
 73
     0
 72
     1
 10
-199.7324720253916
 20
-251.0964133565283
 11
-199.7324720253916
 21
-250.223896349725
 72
     2
 10
-201.0683999425094
 20
-254.8889786555259
 40
4.852596863498068
 50
74.02000874164739
 51
84.84185523037506
 73
     1
 97
       14
330
1BF
330
1C0
330
1C1
330
1C2
330
187
330
198
330
197
330
196
330
1C3
330
1C4
330
195
330
1C5
330
188
330
194
 75
     1
 76
     0
 52
45.0
 41
0.1
 77
     0
 78
     1
 53
45.0
 43
0.0
 44
0.0
 45
-0.0707106781186548
 46
0.0707106781186548
 79
     0
 98
        1
 10
0.0
 20
0.0
  0
HATCH
  5
20D
330
71
100
AcDbEntity
  8
1
  6
Continuous
 62
     2
100
AcDbHatch
 10
0.0
 20
0.0
 30
0.0
210
0.0
220
0.0
230
1.0
  2
_USER
 70
     0
 71
     1
 91
        1
 92
        1
 93
       14
 72
     2
 10
-200.7795438477735
 20
-251.6890880723049
 40
1.639695123940509
 50
84.84185523036136
 51
164.9381082228857
 73
     1
 72
     2
 10
-201.1986716912363
 20
-251.57629771027
 40
1.205656168390862
 50
164.9381082228754
 51
195.0618917770959
 73
     1
 72
     2
 10
-200.7795438477735
 20
-251.4635073482352
 40
1.639695123939305
 50
195.0618917770904
 51
275.1581447696406
 73
     1
 72
     2
 10
-201.0683999425094
 20
-248.2636167650136
 40
4.852596863498138
 50
275.1581447696249
 51
285.9799912583526
 73
     1
 72
     1
 10
-199.7324720253916
 20
-252.9286990708145
 11
-199.7324720253916
 21
-252.0561820640112
 72
     2
 10
-200.9105270674164
 20
-250.1658313448614
 40
2.227384008972638
 50
58.0690910500408
 51
71.55192388186794
 73
     0
 72
     2
 10
-200.4923593337556
 20
-251.4193771208985
 40
0.9059297849849305
 50
71.55192388184666
 51
113.3722778881306
 73
     0
 72
     2
 10
-200.6487993664577
 20
-251.7813691396085
 40
0.5115800601948034
 50
113.3722778881668
 51
151.4785267423044
 73
     0
 72
     2
 10
-200.2714421083774
 20
-251.57629771027
 40
0.9410597353332295
 50
151.4785267422934
 51
208.5214732577339
 73
     0
 72
     2
 10
-200.6487993664577
 20
-251.371226280931
 40
0.5115800601948554
 50
208.5214732576956
 51
246.6277221118067
 73
     0
 72
     2
 10
-200.4923593337556
 20
-251.7332182996416
 40
0.9059297849853228
 50
246.6277221118694
 51
288.4480761181409
 73
     0
 72
     2
 10
-200.9105270674164
 20
-252.9867640756782
 40
2.227384008973448
 50
288.4480761181312
 51
301.930908949958
 73
     0
 72
     1
 10
-199.7324720253916
 20
-251.0964133565283
 11
-199.7324720253916
 21
-250.223896349725
 72
     2
 10
-201.0683999425094
 20
-254.8889786555259
 40
4.852596863498068
 50
74.02000874164739
 51
84.84185523037506
 73
     1
 97
       14
330
1BF
330
1C0
330
1C1
330
1C2
330
187
330
198
330
197
330
196
330
1C3
330
1C4
330
195
330
1C5
330
188
330
194
 75
     1
 76
     0
 52
45.0
 41
0.1
 77
     0
 78
     1
 53
45.0
 43
0.0
 44
0.0
 45
-0.0707106781186548
 46
0.0707106781186548
 79
     0
 98
        1
 10
0.0
 20
0.0
  0
ENDBLK
  5
73
330
71
100
AcDbEntity
  8
0
100
AcDbBlockEnd
  0
BLOCK
  5
75
330
74
100
AcDbEntity
  8
0
100
AcDbBlockBegin
  2
_punkt
 70
     0
 10
-83.89509644040895
 20
-260.3967024721916
 30
0.0
  3
_punkt
  1

  0
LINE
  5
20E
330
74
100
AcDbEntity
  8
1
  6
Continuous
 62
     2
100
AcDbLine
 10
-83.89509644040895
 20
-260.3967024721916
 30
0.0
 11
-78.89509644040996
 21
-260.3967024721916
 31
0.0
  0
LINE
  5
20F
330
74
100
AcDbEntity
  8
1
  6
Continuous
 62
     2
100
AcDbLine
 10
-83.89509644040895
 20
-260.3967024721916
 30
0.0
 11
-83.89509644040895
 21
-265.3967024721918
 31
0.0
  0
ENDBLK
  5
76
330
74
100
AcDbEntity
  8
0
100
AcDbBlockEnd
  0
BLOCK
  5
7A
330
77
100
AcDbEntity
  8
0
100
AcDbBlockBegin
  2
A4I_CS
 70
     0
 10
-83.89509644040895
 20
-265.3967024721918
 30
0.0
  3
A4I_CS
  1

  0
INSERT
  5
78
330
77
100
AcDbEntity
  8
1
100
AcDbBlockReference
  2
_rahmen
 10
-83.89509644040895
 20
-265.3967024721918
 30
0.0
  0
INSERT
  5
79
330
77
100
AcDbEntity
  8
1
100
AcDbBlockReference
  2
_punkt
 10
-83.89509644040895
 20
-260.3967024721916
 30
0.0
  0
ENDBLK
  5
7B
330
77
100
AcDbEntity
  8
0
100
AcDbBlockEnd
  0
BLOCK
  5
84
330
7C
100
AcDbEntity
  8
0
100
AcDbBlockBegin
  2
1
 70
     0
 10
0.0
 20
0.0
 30
0.0
  3
1
  1

  0
INSERT
  5
7D
330
7C
100
AcDbEntity
  8
0
100
AcDbBlockReference
  2
Allg1
 10
-123.0000000000101
 20
-194.000000000008
 30
0.0
 41
2.0
 42
2.0
 43
2.0
  0
INSERT
  5
7E
330
7C
100
AcDbEntity
  8
0
100
AcDbBlockReference
  2
Drfsicht1
 10
-268.860125752319
 20
-182.9999999999998
 30
0.0
 41
2.0
 42
2.0
 43
2.0
  0
INSERT
  5
7F
330
7C
100
AcDbEntity
  8
0
100
AcDbBlockReference
  2
Rckans1
 10
-149.0
 20
-122.9999999999999
 30
0.0
 41
2.0
 42
2.0
 43
2.0
  0
INSERT
  5
80
330
7C
100
AcDbEntity
  8
0
100
AcDbBlockReference
  2
SA_Links1
 10
-208.930065128479
 20
-123.0
 30
0.0
 41
2.0
 42
2.0
 43
2.0
  0
INSERT
  5
81
330
7C
100
AcDbEntity
  8
0
100
AcDbBlockReference
  2
SA_Rechts1
 10
-328.790192880798
 20
-122.9999999999999
 30
0.0
 41
2.0
 42
2.0
 43
2.0
  0
INSERT
  5
82
330
7C
100
AcDbEntity
  8
0
100
AcDbBlockReference
  2
Vordans1
 10
-268.8601264953614
 20
-122.9999999999999
 30
0.0
 41
2.0
 42
2.0
 43
2.0
  0
INSERT
  5
83
330
7C
100
AcDbEntity
  8
0
100
AcDbBlockReference
  2
A4I_CS
 10
-83.89509644040895
 20
-265.3967024721918
 30
0.0
  0
ENDBLK
  5
85
330
7C
100
AcDbEntity
  8
0
100
AcDbBlockEnd
  0
BLOCK
  5
A7
330
A0
100
AcDbEntity
  8
0
100
AcDbBlockBegin
  2
*D17
 70
     1
 10
0.0
 20
0.0
 30
0.0
  3
*D17
  1

  0
LINE
  5
A1
330
A0
100
AcDbEntity
  8
1
  6
Continuous
 62
     2
100
AcDbLine
 10
-154.4300628761595
 20
-96.50000000000989
 30
0.0
 11
-154.4300628761595
 21
-86.50000000000989
 31
0.0
  0
LINE
  5
A2
330
A0
100
AcDbEntity
  8
1
  6
Continuous
 62
     2
100
AcDbLine
 10
-149.4300628761595
 20
-96.50000000000989
 30
0.0
 11
-155.1800628761595
 21
-96.50000000000989
 31
0.0
  0
LINE
  5
A3
330
A0
100
AcDbEntity
  8
1
  6
Continuous
 62
     2
100
AcDbLine
 10
-146.9300628761595
 20
-86.50000000000989
 30
0.0
 11
-155.1800628761595
 21
-86.50000000000989
 31
0.0
  0
SOLID
  5
A4
330
A0
100
AcDbEntity
  8
1
 62
     2
100
AcDbTrace
 10
-154.6604547469374
 20
-94.75000000000989
 30
0.0
 11
-154.1996710053816
 21
-94.75000000000989
 31
0.0
 12
-154.4300628761595
 22
-96.50000000000989
 32
0.0
 13
-154.4300628761595
 23
-96.50000000000989
 33
0.0
  0
SOLID
  5
A5
330
A0
100
AcDbEntity
  8
1
 62
     2
100
AcDbTrace
 10
-154.1996710053816
 20
-88.25000000000989
 30
0.0
 11
-154.6604547469374
 21
-88.25000000000989
 31
0.0
 12
-154.4300628761595
 22
-86.50000000000989
 32
0.0
 13
-154.4300628761595
 23
-86.50000000000989
 33
0.0
  0
MTEXT
  5
A6
330
A0
100
AcDbEntity
  8
1
 62
     3
100
AcDbMText
 10
-155.1800628761595
 20
-92.38344970072849
 30
0.0
 40
1.75
 41
0.0
 71
     7
 72
     1
  1
10
  7
CONVERTER_11
 11
0.0
 21
1.0
 31
0.0
 73
     1
 44
0.60024009603842
  0
ENDBLK
  5
A8
330
A0
100
AcDbEntity
  8
0
100
AcDbBlockEnd
  0
BLOCK
  5
B2
330
AB
100
AcDbEntity
  8
0
100
AcDbBlockBegin
  2
*D18
 70
     1
 10
0.0
 20
0.0
 30
0.0
  3
*D18
  1

  0
LINE
  5
AC
330
AB
100
AcDbEntity
  8
1
  6
Continuous
 62
     2
100
AcDbLine
 10
-149.4300628761595
 20
-101.5000000000099
 30
0.0
 11
-119.4300628761595
 21
-101.5000000000099
 31
0.0
  0
LINE
  5
AD
330
AB
100
AcDbEntity
  8
1
  6
Continuous
 62
     2
100
AcDbLine
 10
-149.4300628761595
 20
-96.50000000000989
 30
0.0
 11
-149.4300628761595
 21
-102.2500000000099
 31
0.0
  0
LINE
  5
AE
330
AB
100
AcDbEntity
  8
1
  6
Continuous
 62
     2
100
AcDbLine
 10
-119.4300628761595
 20
-96.50000000000989
 30
0.0
 11
-119.4300628761595
 21
-102.2500000000099
 31
0.0
  0
SOLID
  5
AF
330
AB
100
AcDbEntity
  8
1
 62
     2
100
AcDbTrace
 10
-147.6800628761595
 20
-101.269608129232
 30
0.0
 11
-147.6800628761595
 21
-101.7303918707878
 31
0.0
 12
-149.4300628761595
 22
-101.5000000000099
 32
0.0
 13
-149.4300628761595
 23
-101.5000000000099
 33
0.0
  0
SOLID
  5
B0
330
AB
100
AcDbEntity
  8
1
 62
     2
100
AcDbTrace
 10
-121.1800628761595
 20
-101.7303918707878
 30
0.0
 11
-121.1800628761595
 21
-101.269608129232
 31
0.0
 12
-119.4300628761595
 22
-101.5000000000099
 32
0.0
 13
-119.4300628761595
 23
-101.5000000000099
 33
0.0
  0
MTEXT
  5
B1
330
AB
100
AcDbEntity
  8
1
 62
     3
100
AcDbMText
 10
-136.1275628761553
 20
-100.7500034785481
 30
0.0
 40
1.75
 41
0.0
 71
     7
 72
     1
  1
\C3;{\Fgdt;n}\C3;30
  7
CONVERTER_11
 11
0.9999999999970619
 21
2.424068405545306E-6
 31
0.0
 73
     1
 44
0.60024009603842
  0
ENDBLK
  5
B3
330
AB
100
AcDbEntity
  8
0
100
AcDbBlockEnd
  0
ENDSEC
  0
SECTION
  2
ENTITIES
  0
INSERT
  5
86
330
1F
100
AcDbEntity
  8
1
100
AcDbBlockReference
  2
1
 10
0.0
 20
0.0
 30
0.0
  0
ENDSEC
  0
SECTION
  2
OBJECTS
  0
DICTIONARY
  5
C
330
0
100
AcDbDictionary
281
     1
  3
ACAD_GROUP
350
D
  3
ACAD_LAYOUT
350
1A
  3
ACAD_MATERIAL
350
3B
  3
ACAD_MLEADERSTYLE
350
237
  3
ACAD_MLINESTYLE
350
17
  3
ACAD_PLOTSETTINGS
350
19
  3
ACAD_PLOTSTYLENAME
350
E
  3
ACAD_TABLESTYLE
350
236
  3
ACAD_VISUALSTYLE
350
2A
  0
DICTIONARY
  5
D
102
{ACAD_REACTORS
330
C
102
}
330
C
100
AcDbDictionary
281
     1
  0
DICTIONARY
  5
1A
102
{ACAD_REACTORS
330
C
102
}
330
C
100
AcDbDictionary
281
     1
  3
Layout1
350
1E
  3
Layout2
350
26
  3
Model
350
22
  0
DICTIONARY
  5
3B
102
{ACAD_REACTORS
330
C
102
}
330
C
100
AcDbDictionary
281
     1
  3
ByBlock
350
3D
  3
ByLayer
350
3C
  3
Global
350
3E
  0
DICTIONARY
  5
237
102
{ACAD_REACTORS
330
C
102
}
330
C
100
AcDbDictionary
281
     1
  0
DICTIONARY
  5
17
102
{ACAD_REACTORS
330
C
102
}
330
C
100
AcDbDictionary
281
     1
  3
Standard
350
18
  0
DICTIONARY
  5
19
102
{ACAD_REACTORS
330
C
102
}
330
C
100
AcDbDictionary
281
     1
  0
ACDBDICTIONARYWDFLT
  5
E
102
{ACAD_REACTORS
330
C
102
}
330
C
100
AcDbDictionary
281
     1
  3
Normal
350
F
100
AcDbDictionaryWithDefault
340
F
  0
DICTIONARY
  5
236
102
{ACAD_REACTORS
330
C
102
}
330
C
100
AcDbDictionary
281
     1
  0
DICTIONARY
  5
2A
102
{ACAD_REACTORS
330
C
102
}
330
C
100
AcDbDictionary
281
     1
  3
2dWireframe
350
2F
  3
3D Hidden
350
31
  3
3dWireframe
350
30
  3
Basic
350
32
  3
Brighten
350
36
  3
ColorChange
350
3A
  3
Conceptual
350
34
  3
Dim
350
35
  3
Facepattern
350
39
  3
Flat
350
2B
  3
FlatWithEdges
350
2C
  3
Gouraud
350
2D
  3
GouraudWithEdges
350
2E
  3
Linepattern
350
38
  3
Realistic
350
33
  3
Thicken
350
37
  0
LAYOUT
  5
1E
102
{ACAD_REACTORS
330
1A
102
}
330
1A
100
AcDbPlotSettings
  1

  2
none_device
  4

  6

 40
0.0
 41
0.0
 42
0.0
 43
0.0
 44
0.0
 45
0.0
 46
0.0
 47
0.0
 48
0.0
 49
0.0
140
0.0
141
0.0
142
1.0
143
1.0
 70
   688
 72
     0
 73
     0
 74
     5
  7

 75
    16
 76
     0
 77
     2
 78
   300
147
1.0
148
0.0
149
0.0
100
AcDbLayout
  1
Layout1
 70
     1
 71
     1
 10
0.0
 20
0.0
 11
12.0
 21
9.0
 12
0.0
 22
0.0
 32
0.0
 14
1.00000000000000E+20
 24
1.00000000000000E+20
 34
1.00000000000000E+20
 15
-1.00000000000000E+20
 25
-1.00000000000000E+20
 35
-1.00000000000000E+20
146
0.0
 13
0.0
 23
0.0
 33
0.0
 16
1.0
 26
0.0
 36
0.0
 17
0.0
 27
1.0
 37
0.0
 76
     0
330
1B
  0
LAYOUT
  5
26
102
{ACAD_REACTORS
330
1A
102
}
330
1A
100
AcDbPlotSettings
  1

  2
none_device
  4

  6

 40
0.0
 41
0.0
 42
0.0
 43
0.0
 44
0.0
 45
0.0
 46
0.0
 47
0.0
 48
0.0
 49
0.0
140
0.0
141
0.0
142
1.0
143
1.0
 70
   688
 72
     0
 73
     0
 74
     5
  7

 75
    16
 76
     0
 77
     2
 78
   300
147
1.0
148
0.0
149
0.0
100
AcDbLayout
  1
Layout2
 70
     1
 71
     2
 10
0.0
 20
0.0
 11
0.0
 21
0.0
 12
0.0
 22
0.0
 32
0.0
 14
0.0
 24
0.0
 34
0.0
 15
0.0
 25
0.0
 35
0.0
146
0.0
 13
0.0
 23
0.0
 33
0.0
 16
1.0
 26
0.0
 36
0.0
 17
0.0
 27
1.0
 37
0.0
 76
     0
330
23
  0
LAYOUT
  5
22
102
{ACAD_REACTORS
330
1A
102
}
330
1A
100
AcDbPlotSettings
  1

  2
none_device
  4

  6

 40
0.0
 41
0.0
 42
0.0
 43
0.0
 44
0.0
 45
0.0
 46
0.0
 47
0.0
 48
0.0
 49
0.0
140
0.0
141
0.0
142
1.0
143
1.0
 70
  1712
 72
     0
 73
     0
 74
     0
  7

 75
     0
 76
     0
 77
     2
 78
   300
147
1.0
148
0.0
149
0.0
100
AcDbLayout
  1
Model
 70
     1
 71
     0
 10
0.0
 20
0.0
 11
12.0
 21
9.0
 12
0.0
 22
0.0
 32
0.0
 14
-375.895096440408
 24
-265.3967024721918
 34
0.0
 15
-78.89509644040996
 25
-55.39670247219164
 35
0.0
146
0.0
 13
0.0
 23
0.0
 33
0.0
 16
1.0
 26
0.0
 36
0.0
 17
0.0
 27
1.0
 37
0.0
 76
     0
330
1F
331
29
  0
MATERIAL
  5
3D
102
{ACAD_REACTORS
330
3B
102
}
102
{ACAD_XDICTIONARY
360
232
102
}
330
3B
100
AcDbMaterial
  1
ByBlock
  0
MATERIAL
  5
3C
102
{ACAD_REACTORS
330
3B
102
}
102
{ACAD_XDICTIONARY
360
230
102
}
330
3B
100
AcDbMaterial
  1
ByLayer
  0
MATERIAL
  5
3E
102
{ACAD_REACTORS
330
3B
102
}
102
{ACAD_XDICTIONARY
360
234
102
}
330
3B
100
AcDbMaterial
  1
Global
  0
MLINESTYLE
  5
18
102
{ACAD_REACTORS
330
17
102
}
330
17
100
AcDbMlineStyle
  2
Standard
 70
     0
  3

 62
   256
 51
90.0
 52
90.0
 71
     2
 49
0.5
 62
   256
  6
BYLAYER
 49
-0.5
 62
   256
  6
BYLAYER
  0
ACDBPLACEHOLDER
  5
F
102
{ACAD_REACTORS
330
E
102
}
330
E
  0
VISUALSTYLE
  5
2F
102
{ACAD_REACTORS
330
2A
102
}
102
{ACAD_XDICTIONARY
360
218
102
}
330
2A
100
AcDbVisualStyle
  2
2dWireframe
 70
     4
 71
     0
 72
     2
 73
     0
 90
        0
 40
-0.6
 41
-30.0
 62
     5
 63
     7
421
 16777215
 74
     1
 91
        4
 64
     7
 65
   257
 75
     1
175
     1
 42
1.0
 92
        0
 66
   257
 43
1.0
 76
     1
 77
     6
 78
     2
 67
     7
 79
     5
170
     0
171
     0
290
     0
174
     0
 93
        1
 44
0.0
173
     0
291
     0
 45
0.0
1001
ACAD
1000
AcDbSavedByObjectVersion
1070
     0
  0
VISUALSTYLE
  5
31
102
{ACAD_REACTORS
330
2A
102
}
102
{ACAD_XDICTIONARY
360
21C
102
}
330
2A
100
AcDbVisualStyle
  2
3D Hidden
 70
     6
 71
     1
 72
     2
 73
     2
 90
        0
 40
-0.6
 41
-30.0
 62
     5
 63
     7
421
 16777215
 74
     2
 91
        2
 64
     7
 65
   257
 75
     2
175
     1
 42
40.0
 92
        0
 66
   257
 43
1.0
 76
     1
 77
     6
 78
     2
 67
     7
 79
     3
170
     0
171
     0
290
     0
174
     0
 93
        1
 44
0.0
173
     0
291
     0
 45
0.0
1001
ACAD
1000
AcDbSavedByObjectVersion
1070
     0
  0
VISUALSTYLE
  5
30
102
{ACAD_REACTORS
330
2A
102
}
102
{ACAD_XDICTIONARY
360
21A
102
}
330
2A
100
AcDbVisualStyle
  2
3dWireframe
 70
     5
 71
     0
 72
     2
 73
     0
 90
        0
 40
-0.6
 41
-30.0
 62
     5
 63
     7
421
 16777215
 74
     1
 91
        4
 64
     7
 65
   257
 75
     1
175
     1
 42
1.0
 92
        0
 66
   257
 43
1.0
 76
     1
 77
     6
 78
     2
 67
     7
 79
     5
170
     0
171
     0
290
     0
174
     0
 93
        1
 44
0.0
173
     0
291
     0
 45
0.0
1001
ACAD
1000
AcDbSavedByObjectVersion
1070
     0
  0
VISUALSTYLE
  5
32
102
{ACAD_REACTORS
330
2A
102
}
102
{ACAD_XDICTIONARY
360
21E
102
}
330
2A
100
AcDbVisualStyle
  2
Basic
 70
     7
 71
     1
 72
     0
 73
     1
 90
        0
 40
-0.6
 41
-30.0
 62
     5
 63
     7
421
 16777215
 74
     0
 91
        4
 64
     7
 65
   257
 75
     1
175
     1
 42
1.0
 92
        8
 66
     7
 43
1.0
 76
     1
 77
     6
 78
     2
 67
     7
 79
     5
170
     0
171
     0
290
     0
174
     0
 93
        1
 44
0.0
173
     0
291
     1
 45
0.0
1001
ACAD
1000
AcDbSavedByObjectVersion
1070
     0
  0
VISUALSTYLE
  5
36
102
{ACAD_REACTORS
330
2A
102
}
102
{ACAD_XDICTIONARY
360
226
102
}
330
2A
100
AcDbVisualStyle
  2
Brighten
 70
    12
 71
     2
 72
     2
 73
     0
 90
        0
 40
-0.6
 41
-30.0
 62
     5
 63
     7
421
 16777215
 74
     1
 91
        4
 64
     7
 65
   257
 75
     1
175
     1
 42
1.0
 92
        8
 66
     7
 43
1.0
 76
     1
 77
     6
 78
     2
 67
     7
 79
     5
170
     0
171
     0
290
     0
174
     0
 93
        1
 44
50.0
173
     0
291
     1
 45
0.0
1001
ACAD
1000
AcDbSavedByObjectVersion
1070
     0
  0
VISUALSTYLE
  5
3A
102
{ACAD_REACTORS
330
2A
102
}
102
{ACAD_XDICTIONARY
360
22E
102
}
330
2A
100
AcDbVisualStyle
  2
ColorChange
 70
    16
 71
     2
 72
     2
 73
     3
 90
        0
 40
-0.6
 41
-30.0
 62
     5
 63
     8
421
  8421504
 74
     1
 91
        4
 64
     7
 65
   257
 75
     1
175
     1
 42
1.0
 92
        8
 66
     8
424
  8421504
 43
1.0
 76
     1
 77
     6
 78
     2
 67
     7
 79
     5
170
     0
171
     0
290
     0
174
     0
 93
        1
 44
0.0
173
     0
291
     1
 45
0.0
1001
ACAD
1000
AcDbSavedByObjectVersion
1070
     0
  0
VISUALSTYLE
  5
34
102
{ACAD_REACTORS
330
2A
102
}
102
{ACAD_XDICTIONARY
360
222
102
}
330
2A
100
AcDbVisualStyle
  2
Conceptual
 70
     9
 71
     3
 72
     2
 73
     0
 90
        0
 40
-0.6
 41
-30.0
 62
     5
 63
     7
421
 16777215
 74
     2
 91
        2
 64
     7
 65
   257
 75
     1
175
     1
 42
40.0
 92
        8
 66
     7
 43
1.0
 76
     1
 77
     6
 78
     2
 67
     7
 79
     3
170
     0
171
     0
290
     0
174
     0
 93
        1
 44
0.0
173
     0
291
     0
 45
0.0
1001
ACAD
1000
AcDbSavedByObjectVersion
1070
     0
  0
VISUALSTYLE
  5
35
102
{ACAD_REACTORS
330
2A
102
}
102
{ACAD_XDICTIONARY
360
224
102
}
330
2A
100
AcDbVisualStyle
  2
Dim
 70
    11
 71
     2
 72
     2
 73
     0
 90
        0
 40
-0.6
 41
-30.0
 62
     5
 63
     7
421
 16777215
 74
     1
 91
        4
 64
     7
 65
   257
 75
     1
175
     1
 42
1.0
 92
        8
 66
     7
 43
1.0
 76
     1
 77
     6
 78
     2
 67
     7
 79
     5
170
     0
171
     0
290
     0
174
     0
 93
        1
 44
-50.0
173
     0
291
     1
 45
0.0
1001
ACAD
1000
AcDbSavedByObjectVersion
1070
     0
  0
VISUALSTYLE
  5
39
102
{ACAD_REACTORS
330
2A
102
}
102
{ACAD_XDICTIONARY
360
22C
102
}
330
2A
100
AcDbVisualStyle
  2
Facepattern
 70
    15
 71
     2
 72
     2
 73
     0
 90
        0
 40
-0.6
 41
-30.0
 62
     5
 63
     7
421
 16777215
 74
     1
 91
        4
 64
     7
 65
   257
 75
     1
175
     1
 42
1.0
 92
        8
 66
     7
 43
1.0
 76
     1
 77
     6
 78
     2
 67
     7
 79
     5
170
     0
171
     0
290
     0
174
     0
 93
        1
 44
0.0
173
     0
291
     1
 45
0.0
1001
ACAD
1000
AcDbSavedByObjectVersion
1070
     0
  0
VISUALSTYLE
  5
2B
102
{ACAD_REACTORS
330
2A
102
}
102
{ACAD_XDICTIONARY
360
210
102
}
330
2A
100
AcDbVisualStyle
  2
Flat
 70
     0
 71
     2
 72
     1
 73
     1
 90
        2
 40
-0.6
 41
30.0
 62
     5
 63
     7
421
 16777215
 74
     0
 91
        4
 64
     7
 65
   257
 75
     1
175
     1
 42
1.0
 92
        8
 66
     7
 43
1.0
 76
     1
 77
     6
 78
     2
 67
     7
 79
     5
170
     0
171
     0
290
     0
174
     0
 93
       13
 44
0.0
173
     0
291
     1
 45
0.0
1001
ACAD
1000
AcDbSavedByObjectVersion
1070
     0
  0
VISUALSTYLE
  5
2C
102
{ACAD_REACTORS
330
2A
102
}
102
{ACAD_XDICTIONARY
360
212
102
}
330
2A
100
AcDbVisualStyle
  2
FlatWithEdges
 70
     1
 71
     2
 72
     1
 73
     1
 90
        2
 40
-0.6
 41
30.0
 62
     5
 63
     7
421
 16777215
 74
     1
 91
        4
 64
     7
 65
   257
 75
     1
175
     1
 42
1.0
 92
        0
 66
   257
 43
1.0
 76
     1
 77
     6
 78
     2
 67
     7
 79
     5
170
     0
171
     0
290
     0
174
     0
 93
       13
 44
0.0
173
     0
291
     1
 45
0.0
1001
ACAD
1000
AcDbSavedByObjectVersion
1070
     0
  0
VISUALSTYLE
  5
2D
102
{ACAD_REACTORS
330
2A
102
}
102
{ACAD_XDICTIONARY
360
214
102
}
330
2A
100
AcDbVisualStyle
  2
Gouraud
 70
     2
 71
     2
 72
     2
 73
     1
 90
        2
 40
-0.6
 41
30.0
 62
     5
 63
     7
421
 16777215
 74
     0
 91
        4
 64
     7
 65
   257
 75
     1
175
     1
 42
1.0
 92
        0
 66
     7
 43
1.0
 76
     1
 77
     6
 78
     2
 67
     7
 79
     5
170
     0
171
     0
290
     0
174
     0
 93
       13
 44
0.0
173
     0
291
     1
 45
0.0
1001
ACAD
1000
AcDbSavedByObjectVersion
1070
     0
  0
VISUALSTYLE
  5
2E
102
{ACAD_REACTORS
330
2A
102
}
102
{ACAD_XDICTIONARY
360
216
102
}
330
2A
100
AcDbVisualStyle
  2
GouraudWithEdges
 70
     3
 71
     2
 72
     2
 73
     1
 90
        2
 40
-0.6
 41
30.0
 62
     5
 63
     7
421
 16777215
 74
     1
 91
        4
 64
     7
 65
   257
 75
     1
175
     1
 42
1.0
 92
        0
 66
   257
 43
1.0
 76
     1
 77
     6
 78
     2
 67
     7
 79
     5
170
     0
171
     0
290
     0
174
     0
 93
       13
 44
0.0
173
     0
291
     1
 45
0.0
1001
ACAD
1000
AcDbSavedByObjectVersion
1070
     0
  0
VISUALSTYLE
  5
38
102
{ACAD_REACTORS
330
2A
102
}
102
{ACAD_XDICTIONARY
360
22A
102
}
330
2A
100
AcDbVisualStyle
  2
Linepattern
 70
    14
 71
     2
 72
     2
 73
     0
 90
        0
 40
-0.6
 41
-30.0
 62
     5
 63
     7
421
 16777215
 74
     1
 91
        4
 64
     7
 65
   257
 75
     7
175
     7
 42
1.0
 92
        8
 66
     7
 43
1.0
 76
     1
 77
     6
 78
     2
 67
     7
 79
     5
170
     0
171
     0
290
     0
174
     0
 93
        1
 44
0.0
173
     0
291
     1
 45
0.0
1001
ACAD
1000
AcDbSavedByObjectVersion
1070
     0
  0
VISUALSTYLE
  5
33
102
{ACAD_REACTORS
330
2A
102
}
102
{ACAD_XDICTIONARY
360
220
102
}
330
2A
100
AcDbVisualStyle
  2
Realistic
 70
     8
 71
     2
 72
     2
 73
     0
 90
        0
 40
-0.6
 41
-30.0
 62
     5
 63
     7
421
 16777215
 74
     1
 91
        0
 64
     7
 65
   257
 75
     1
175
     1
 42
1.0
 92
        8
 66
     8
424
  7895160
 43
1.0
 76
     1
 77
     6
 78
     2
 67
     7
 79
     5
170
     0
171
     0
290
     0
174
     0
 93
       13
 44
0.0
173
     0
291
     0
 45
0.0
1001
ACAD
1000
AcDbSavedByObjectVersion
1070
     0
  0
VISUALSTYLE
  5
37
102
{ACAD_REACTORS
330
2A
102
}
102
{ACAD_XDICTIONARY
360
228
102
}
330
2A
100
AcDbVisualStyle
  2
Thicken
 70
    13
 71
     2
 72
     2
 73
     0
 90
        0
 40
-0.6
 41
-30.0
 62
     5
 63
     7
421
 16777215
 74
     1
 91
        4
 64
     7
 65
   257
 75
     1
175
     1
 42
1.0
 92
       12
 66
     7
 43
1.0
 76
     1
 77
     6
 78
     2
 67
     7
 79
     5
170
     0
171
     0
290
     0
174
     0
 93
        1
 44
0.0
173
     0
291
     1
 45
0.0
1001
ACAD
1000
AcDbSavedByObjectVersion
1070
     0
  0
DICTIONARY
  5
232
330
3D
100
AcDbDictionary
280
     1
281
     1
  3
ACAD_XREC_ROUNDTRIP
360
233
  0
DICTIONARY
  5
230
330
3C
100
AcDbDictionary
280
     1
281
     1
  3
ACAD_XREC_ROUNDTRIP
360
231
  0
DICTIONARY
  5
234
330
3E
100
AcDbDictionary
280
     1
281
     1
  3
ACAD_XREC_ROUNDTRIP
360
235
  0
DICTIONARY
  5
218
330
2F
100
AcDbDictionary
280
     1
281
     1
  3
ACAD_XREC_ROUNDTRIP
360
219
  0
DICTIONARY
  5
21C
330
31
100
AcDbDictionary
280
     1
281
     1
  3
ACAD_XREC_ROUNDTRIP
360
21D
  0
DICTIONARY
  5
21A
330
30
100
AcDbDictionary
280
     1
281
     1
  3
ACAD_XREC_ROUNDTRIP
360
21B
  0
DICTIONARY
  5
21E
330
32
100
AcDbDictionary
280
     1
281
     1
  3
ACAD_XREC_ROUNDTRIP
360
21F
  0
DICTIONARY
  5
226
330
36
100
AcDbDictionary
280
     1
281
     1
  3
ACAD_XREC_ROUNDTRIP
360
227
  0
DICTIONARY
  5
22E
330
3A
100
AcDbDictionary
280
     1
281
     1
  3
ACAD_XREC_ROUNDTRIP
360
22F
  0
DICTIONARY
  5
222
330
34
100
AcDbDictionary
280
     1
281
     1
  3
ACAD_XREC_ROUNDTRIP
360
223
  0
DICTIONARY
  5
224
330
35
100
AcDbDictionary
280
     1
281
     1
  3
ACAD_XREC_ROUNDTRIP
360
225
  0
DICTIONARY
  5
22C
330
39
100
AcDbDictionary
280
     1
281
     1
  3
ACAD_XREC_ROUNDTRIP
360
22D
  0
DICTIONARY
  5
210
330
2B
100
AcDbDictionary
280
     1
281
     1
  3
ACAD_XREC_ROUNDTRIP
360
211
  0
DICTIONARY
  5
212
330
2C
100
AcDbDictionary
280
     1
281
     1
  3
ACAD_XREC_ROUNDTRIP
360
213
  0
DICTIONARY
  5
214
330
2D
100
AcDbDictionary
280
     1
281
     1
  3
ACAD_XREC_ROUNDTRIP
360
215
  0
DICTIONARY
  5
216
330
2E
100
AcDbDictionary
280
     1
281
     1
  3
ACAD_XREC_ROUNDTRIP
360
217
  0
DICTIONARY
  5
22A
330
38
100
AcDbDictionary
280
     1
281
     1
  3
ACAD_XREC_ROUNDTRIP
360
22B
  0
DICTIONARY
  5
220
330
33
100
AcDbDictionary
280
     1
281
     1
  3
ACAD_XREC_ROUNDTRIP
360
221
  0
DICTIONARY
  5
228
330
37
100
AcDbDictionary
280
     1
281
     1
  3
ACAD_XREC_ROUNDTRIP
360
229
  0
XRECORD
  5
233
102
{ACAD_REACTORS
330
232
102
}
330
232
100
AcDbXrecord
280
     1
102
MATERIAL
148
0.0
149
0.0
149
0.0
 93
        0
 94
      127
282
     0
 72
     1
 77
     1
171
     1
175
     1
179
     1
273
     0
  0
XRECORD
  5
231
102
{ACAD_REACTORS
330
230
102
}
330
230
100
AcDbXrecord
280
     1
102
MATERIAL
148
0.0
149
0.0
149
0.0
 93
        0
 94
      127
282
     0
 72
     1
 77
     1
171
     1
175
     1
179
     1
273
     0
  0
XRECORD
  5
235
102
{ACAD_REACTORS
330
234
102
}
330
234
100
AcDbXrecord
280
     1
102
MATERIAL
148
0.0
149
0.0
149
0.0
 93
        0
 94
      127
282
     0
 72
     1
 77
     1
171
     1
175
     1
179
     1
273
     0
  0
XRECORD
  5
219
102
{ACAD_REACTORS
330
218
102
}
330
218
100
AcDbXrecord
280
     1
102
RTVSPropertyOp0
 70
     1
102
RTVSPropertyOp1
 70
     1
102
RTVSPropertyOp2
 70
     1
102
RTVSPropertyOp3
 70
     1
102
RTVSPropertyOp4
 70
     1
102
RTVSPropertyOp5
 70
     1
102
RTVSPropertyOp6
 70
     1
102
RTVSPropertyOp7
 70
     1
102
RTVSPropertyOp8
 70
     1
102
RTVSPropertyOp9
 70
     1
102
RTVSPropertyOp10
 70
     1
102
RTVSPropertyOp11
 70
     1
102
RTVSPropertyOp12
 70
     1
102
RTVSPropertyOp13
 70
     1
102
RTVSPropertyOp14
 70
     1
102
RTVSPropertyOp15
 70
     1
102
RTVSPropertyOp16
 70
     1
102
RTVSPropertyOp17
 70
     1
102
RTVSPropertyOp18
 70
     1
102
RTVSPropertyOp19
 70
     1
102
RTVSPropertyOp20
 70
     1
102
RTVSPropertyOp21
 70
     1
102
RTVSPropertyOp22
 70
     1
102
RTVSPropertyOp23
 70
     1
102
RTVSPropertyOp24
 70
     1
102
RTVSPropertyOp25
 70
     1
102
RTVSPropertyOp26
 70
     1
102
RTVSPropertyOp27
 70
     1
102
RTVSPropertyOp28
 70
     1
102
RTVSPropertyOp29
 70
     1
102
RTVSPropertyOp30
 70
     1
102
RTVSPropertyOp31
 70
     1
102
RTVSPropertyOp32
 70
     1
  0
XRECORD
  5
21D
102
{ACAD_REACTORS
330
21C
102
}
330
21C
100
AcDbXrecord
280
     1
102
RTVSPropertyOp0
 70
     1
102
RTVSPropertyOp1
 70
     1
102
RTVSPropertyOp2
 70
     1
102
RTVSPropertyOp3
 70
     1
102
RTVSPropertyOp4
 70
     1
102
RTVSPropertyOp5
 70
     1
102
RTVSPropertyOp6
 70
     1
102
RTVSPropertyOp7
 70
     1
102
RTVSPropertyOp8
 70
     1
102
RTVSPropertyOp9
 70
     1
102
RTVSPropertyOp10
 70
     1
102
RTVSPropertyOp11
 70
     1
102
RTVSPropertyOp12
 70
     1
102
RTVSPropertyOp13
 70
     1
102
RTVSPropertyOp14
 70
     1
102
RTVSPropertyOp15
 70
     1
102
RTVSPropertyOp16
 70
     1
102
RTVSPropertyOp17
 70
     1
102
RTVSPropertyOp18
 70
     1
102
RTVSPropertyOp19
 70
     1
102
RTVSPropertyOp20
 70
     1
102
RTVSPropertyOp21
 70
     1
102
RTVSPropertyOp22
 70
     1
102
RTVSPropertyOp23
 70
     1
102
RTVSPropertyOp24
 70
     1
102
RTVSPropertyOp25
 70
     1
102
RTVSPropertyOp26
 70
     1
102
RTVSPropertyOp27
 70
     1
102
RTVSPropertyOp28
 70
     1
102
RTVSPropertyOp29
 70
     1
102
RTVSPropertyOp30
 70
     1
102
RTVSPropertyOp31
 70
     1
102
RTVSPropertyOp32
 70
     1
  0
XRECORD
  5
21B
102
{ACAD_REACTORS
330
21A
102
}
330
21A
100
AcDbXrecord
280
     1
102
RTVSPropertyOp0
 70
     1
102
RTVSPropertyOp1
 70
     1
102
RTVSPropertyOp2
 70
     1
102
RTVSPropertyOp3
 70
     1
102
RTVSPropertyOp4
 70
     1
102
RTVSPropertyOp5
 70
     1
102
RTVSPropertyOp6
 70
     1
102
RTVSPropertyOp7
 70
     1
102
RTVSPropertyOp8
 70
     1
102
RTVSPropertyOp9
 70
     1
102
RTVSPropertyOp10
 70
     1
102
RTVSPropertyOp11
 70
     1
102
RTVSPropertyOp12
 70
     1
102
RTVSPropertyOp13
 70
     1
102
RTVSPropertyOp14
 70
     1
102
RTVSPropertyOp15
 70
     1
102
RTVSPropertyOp16
 70
     1
102
RTVSPropertyOp17
 70
     1
102
RTVSPropertyOp18
 70
     1
102
RTVSPropertyOp19
 70
     1
102
RTVSPropertyOp20
 70
     1
102
RTVSPropertyOp21
 70
     1
102
RTVSPropertyOp22
 70
     1
102
RTVSPropertyOp23
 70
     1
102
RTVSPropertyOp24
 70
     1
102
RTVSPropertyOp25
 70
     1
102
RTVSPropertyOp26
 70
     1
102
RTVSPropertyOp27
 70
     1
102
RTVSPropertyOp28
 70
     1
102
RTVSPropertyOp29
 70
     1
102
RTVSPropertyOp30
 70
     1
102
RTVSPropertyOp31
 70
     1
102
RTVSPropertyOp32
 70
     1
  0
XRECORD
  5
21F
102
{ACAD_REACTORS
330
21E
102
}
330
21E
100
AcDbXrecord
280
     1
102
RTVSPropertyOp0
 70
     1
102
RTVSPropertyOp1
 70
     1
102
RTVSPropertyOp2
 70
     1
102
RTVSPropertyOp3
 70
     1
102
RTVSPropertyOp4
 70
     1
102
RTVSPropertyOp5
 70
     1
102
RTVSPropertyOp6
 70
     1
102
RTVSPropertyOp7
 70
     1
102
RTVSPropertyOp8
 70
     1
102
RTVSPropertyOp9
 70
     1
102
RTVSPropertyOp10
 70
     1
102
RTVSPropertyOp11
 70
     1
102
RTVSPropertyOp12
 70
     1
102
RTVSPropertyOp13
 70
     1
102
RTVSPropertyOp14
 70
     1
102
RTVSPropertyOp15
 70
     1
102
RTVSPropertyOp16
 70
     1
102
RTVSPropertyOp17
 70
     1
102
RTVSPropertyOp18
 70
     1
102
RTVSPropertyOp19
 70
     1
102
RTVSPropertyOp20
 70
     1
102
RTVSPropertyOp21
 70
     1
102
RTVSPropertyOp22
 70
     1
102
RTVSPropertyOp23
 70
     1
102
RTVSPropertyOp24
 70
     1
102
RTVSPropertyOp25
 70
     1
102
RTVSPropertyOp26
 70
     1
102
RTVSPropertyOp27
 70
     1
102
RTVSPropertyOp28
 70
     1
102
RTVSPropertyOp29
 70
     1
102
RTVSPropertyOp30
 70
     1
102
RTVSPropertyOp31
 70
     1
102
RTVSPropertyOp32
 70
     1
  0
XRECORD
  5
227
102
{ACAD_REACTORS
330
226
102
}
330
226
100
AcDbXrecord
280
     1
102
RTVSPropertyOp0
 70
     1
102
RTVSPropertyOp1
 70
     1
102
RTVSPropertyOp2
 70
     1
102
RTVSPropertyOp3
 70
     1
102
RTVSPropertyOp4
 70
     1
102
RTVSPropertyOp5
 70
     1
102
RTVSPropertyOp6
 70
     1
102
RTVSPropertyOp7
 70
     1
102
RTVSPropertyOp8
 70
     1
102
RTVSPropertyOp9
 70
     1
102
RTVSPropertyOp10
 70
     1
102
RTVSPropertyOp11
 70
     1
102
RTVSPropertyOp12
 70
     1
102
RTVSPropertyOp13
 70
     1
102
RTVSPropertyOp14
 70
     1
102
RTVSPropertyOp15
 70
     1
102
RTVSPropertyOp16
 70
     1
102
RTVSPropertyOp17
 70
     1
102
RTVSPropertyOp18
 70
     1
102
RTVSPropertyOp19
 70
     1
102
RTVSPropertyOp20
 70
     1
102
RTVSPropertyOp21
 70
     1
102
RTVSPropertyOp22
 70
     1
102
RTVSPropertyOp23
 70
     1
102
RTVSPropertyOp24
 70
     1
102
RTVSPropertyOp25
 70
     1
102
RTVSPropertyOp26
 70
     1
102
RTVSPropertyOp27
 70
     1
102
RTVSPropertyOp28
 70
     1
102
RTVSPropertyOp29
 70
     1
102
RTVSPropertyOp30
 70
     1
102
RTVSPropertyOp31
 70
     1
102
RTVSPropertyOp32
 70
     1
  0
XRECORD
  5
22F
102
{ACAD_REACTORS
330
22E
102
}
330
22E
100
AcDbXrecord
280
     1
102
RTVSPropertyOp0
 70
     1
102
RTVSPropertyOp1
 70
     1
102
RTVSPropertyOp2
 70
     1
102
RTVSPropertyOp3
 70
     1
102
RTVSPropertyOp4
 70
     1
102
RTVSPropertyOp5
 70
     1
102
RTVSPropertyOp6
 70
     1
102
RTVSPropertyOp7
 70
     1
102
RTVSPropertyOp8
 70
     1
102
RTVSPropertyOp9
 70
     1
102
RTVSPropertyOp10
 70
     1
102
RTVSPropertyOp11
 70
     1
102
RTVSPropertyOp12
 70
     1
102
RTVSPropertyOp13
 70
     1
102
RTVSPropertyOp14
 70
     1
102
RTVSPropertyOp15
 70
     1
102
RTVSPropertyOp16
 70
     1
102
RTVSPropertyOp17
 70
     1
102
RTVSPropertyOp18
 70
     1
102
RTVSPropertyOp19
 70
     1
102
RTVSPropertyOp20
 70
     1
102
RTVSPropertyOp21
 70
     1
102
RTVSPropertyOp22
 70
     1
102
RTVSPropertyOp23
 70
     1
102
RTVSPropertyOp24
 70
     1
102
RTVSPropertyOp25
 70
     1
102
RTVSPropertyOp26
 70
     1
102
RTVSPropertyOp27
 70
     1
102
RTVSPropertyOp28
 70
     1
102
RTVSPropertyOp29
 70
     1
102
RTVSPropertyOp30
 70
     1
102
RTVSPropertyOp31
 70
     1
102
RTVSPropertyOp32
 70
     1
  0
XRECORD
  5
223
102
{ACAD_REACTORS
330
222
102
}
330
222
100
AcDbXrecord
280
     1
102
RTVSPropertyOp0
 70
     1
102
RTVSPropertyOp1
 70
     1
102
RTVSPropertyOp2
 70
     1
102
RTVSPropertyOp3
 70
     1
102
RTVSPropertyOp4
 70
     1
102
RTVSPropertyOp5
 70
     1
102
RTVSPropertyOp6
 70
     1
102
RTVSPropertyOp7
 70
     1
102
RTVSPropertyOp8
 70
     1
102
RTVSPropertyOp9
 70
     1
102
RTVSPropertyOp10
 70
     1
102
RTVSPropertyOp11
 70
     1
102
RTVSPropertyOp12
 70
     1
102
RTVSPropertyOp13
 70
     1
102
RTVSPropertyOp14
 70
     1
102
RTVSPropertyOp15
 70
     1
102
RTVSPropertyOp16
 70
     1
102
RTVSPropertyOp17
 70
     1
102
RTVSPropertyOp18
 70
     1
102
RTVSPropertyOp19
 70
     1
102
RTVSPropertyOp20
 70
     1
102
RTVSPropertyOp21
 70
     1
102
RTVSPropertyOp22
 70
     1
102
RTVSPropertyOp23
 70
     1
102
RTVSPropertyOp24
 70
     1
102
RTVSPropertyOp25
 70
     1
102
RTVSPropertyOp26
 70
     1
102
RTVSPropertyOp27
 70
     1
102
RTVSPropertyOp28
 70
     1
102
RTVSPropertyOp29
 70
     1
102
RTVSPropertyOp30
 70
     1
102
RTVSPropertyOp31
 70
     1
102
RTVSPropertyOp32
 70
     1
  0
XRECORD
  5
225
102
{ACAD_REACTORS
330
224
102
}
330
224
100
AcDbXrecord
280
     1
102
RTVSPropertyOp0
 70
     1
102
RTVSPropertyOp1
 70
     1
102
RTVSPropertyOp2
 70
     1
102
RTVSPropertyOp3
 70
     1
102
RTVSPropertyOp4
 70
     1
102
RTVSPropertyOp5
 70
     1
102
RTVSPropertyOp6
 70
     1
102
RTVSPropertyOp7
 70
     1
102
RTVSPropertyOp8
 70
     1
102
RTVSPropertyOp9
 70
     1
102
RTVSPropertyOp10
 70
     1
102
RTVSPropertyOp11
 70
     1
102
RTVSPropertyOp12
 70
     1
102
RTVSPropertyOp13
 70
     1
102
RTVSPropertyOp14
 70
     1
102
RTVSPropertyOp15
 70
     1
102
RTVSPropertyOp16
 70
     1
102
RTVSPropertyOp17
 70
     1
102
RTVSPropertyOp18
 70
     1
102
RTVSPropertyOp19
 70
     1
102
RTVSPropertyOp20
 70
     1
102
RTVSPropertyOp21
 70
     1
102
RTVSPropertyOp22
 70
     1
102
RTVSPropertyOp23
 70
     1
102
RTVSPropertyOp24
 70
     1
102
RTVSPropertyOp25
 70
     1
102
RTVSPropertyOp26
 70
     1
102
RTVSPropertyOp27
 70
     1
102
RTVSPropertyOp28
 70
     1
102
RTVSPropertyOp29
 70
     1
102
RTVSPropertyOp30
 70
     1
102
RTVSPropertyOp31
 70
     1
102
RTVSPropertyOp32
 70
     1
  0
XRECORD
  5
22D
102
{ACAD_REACTORS
330
22C
102
}
330
22C
100
AcDbXrecord
280
     1
102
RTVSPropertyOp0
 70
     1
102
RTVSPropertyOp1
 70
     1
102
RTVSPropertyOp2
 70
     1
102
RTVSPropertyOp3
 70
     1
102
RTVSPropertyOp4
 70
     1
102
RTVSPropertyOp5
 70
     1
102
RTVSPropertyOp6
 70
     1
102
RTVSPropertyOp7
 70
     1
102
RTVSPropertyOp8
 70
     1
102
RTVSPropertyOp9
 70
     1
102
RTVSPropertyOp10
 70
     1
102
RTVSPropertyOp11
 70
     1
102
RTVSPropertyOp12
 70
     1
102
RTVSPropertyOp13
 70
     1
102
RTVSPropertyOp14
 70
     1
102
RTVSPropertyOp15
 70
     1
102
RTVSPropertyOp16
 70
     1
102
RTVSPropertyOp17
 70
     1
102
RTVSPropertyOp18
 70
     1
102
RTVSPropertyOp19
 70
     1
102
RTVSPropertyOp20
 70
     1
102
RTVSPropertyOp21
 70
     1
102
RTVSPropertyOp22
 70
     1
102
RTVSPropertyOp23
 70
     1
102
RTVSPropertyOp24
 70
     1
102
RTVSPropertyOp25
 70
     1
102
RTVSPropertyOp26
 70
     1
102
RTVSPropertyOp27
 70
     1
102
RTVSPropertyOp28
 70
     1
102
RTVSPropertyOp29
 70
     1
102
RTVSPropertyOp30
 70
     1
102
RTVSPropertyOp31
 70
     1
102
RTVSPropertyOp32
 70
     1
  0
XRECORD
  5
211
102
{ACAD_REACTORS
330
210
102
}
330
210
100
AcDbXrecord
280
     1
102
RTVSPropertyOp0
 70
     1
102
RTVSPropertyOp1
 70
     1
102
RTVSPropertyOp2
 70
     1
102
RTVSPropertyOp3
 70
     1
102
RTVSPropertyOp4
 70
     1
102
RTVSPropertyOp5
 70
     1
102
RTVSPropertyOp6
 70
     1
102
RTVSPropertyOp7
 70
     1
102
RTVSPropertyOp8
 70
     1
102
RTVSPropertyOp9
 70
     1
102
RTVSPropertyOp10
 70
     1
102
RTVSPropertyOp11
 70
     1
102
RTVSPropertyOp12
 70
     1
102
RTVSPropertyOp13
 70
     1
102
RTVSPropertyOp14
 70
     1
102
RTVSPropertyOp15
 70
     1
102
RTVSPropertyOp16
 70
     1
102
RTVSPropertyOp17
 70
     1
102
RTVSPropertyOp18
 70
     1
102
RTVSPropertyOp19
 70
     1
102
RTVSPropertyOp20
 70
     1
102
RTVSPropertyOp21
 70
     1
102
RTVSPropertyOp22
 70
     1
102
RTVSPropertyOp23
 70
     1
102
RTVSPropertyOp24
 70
     1
102
RTVSPropertyOp25
 70
     1
102
RTVSPropertyOp26
 70
     1
102
RTVSPropertyOp27
 70
     1
102
RTVSPropertyOp28
 70
     1
102
RTVSPropertyOp29
 70
     1
102
RTVSPropertyOp30
 70
     1
102
RTVSPropertyOp31
 70
     1
102
RTVSPropertyOp32
 70
     1
  0
XRECORD
  5
213
102
{ACAD_REACTORS
330
212
102
}
330
212
100
AcDbXrecord
280
     1
102
RTVSPropertyOp0
 70
     1
102
RTVSPropertyOp1
 70
     1
102
RTVSPropertyOp2
 70
     1
102
RTVSPropertyOp3
 70
     1
102
RTVSPropertyOp4
 70
     1
102
RTVSPropertyOp5
 70
     1
102
RTVSPropertyOp6
 70
     1
102
RTVSPropertyOp7
 70
     1
102
RTVSPropertyOp8
 70
     1
102
RTVSPropertyOp9
 70
     1
102
RTVSPropertyOp10
 70
     1
102
RTVSPropertyOp11
 70
     1
102
RTVSPropertyOp12
 70
     1
102
RTVSPropertyOp13
 70
     1
102
RTVSPropertyOp14
 70
     1
102
RTVSPropertyOp15
 70
     1
102
RTVSPropertyOp16
 70
     1
102
RTVSPropertyOp17
 70
     1
102
RTVSPropertyOp18
 70
     1
102
RTVSPropertyOp19
 70
     1
102
RTVSPropertyOp20
 70
     1
102
RTVSPropertyOp21
 70
     1
102
RTVSPropertyOp22
 70
     1
102
RTVSPropertyOp23
 70
     1
102
RTVSPropertyOp24
 70
     1
102
RTVSPropertyOp25
 70
     1
102
RTVSPropertyOp26
 70
     1
102
RTVSPropertyOp27
 70
     1
102
RTVSPropertyOp28
 70
     1
102
RTVSPropertyOp29
 70
     1
102
RTVSPropertyOp30
 70
     1
102
RTVSPropertyOp31
 70
     1
102
RTVSPropertyOp32
 70
     1
  0
XRECORD
  5
215
102
{ACAD_REACTORS
330
214
102
}
330
214
100
AcDbXrecord
280
     1
102
RTVSPropertyOp0
 70
     1
102
RTVSPropertyOp1
 70
     1
102
RTVSPropertyOp2
 70
     1
102
RTVSPropertyOp3
 70
     1
102
RTVSPropertyOp4
 70
     1
102
RTVSPropertyOp5
 70
     1
102
RTVSPropertyOp6
 70
     1
102
RTVSPropertyOp7
 70
     1
102
RTVSPropertyOp8
 70
     1
102
RTVSPropertyOp9
 70
     1
102
RTVSPropertyOp10
 70
     1
102
RTVSPropertyOp11
 70
     1
102
RTVSPropertyOp12
 70
     1
102
RTVSPropertyOp13
 70
     1
102
RTVSPropertyOp14
 70
     1
102
RTVSPropertyOp15
 70
     1
102
RTVSPropertyOp16
 70
     1
102
RTVSPropertyOp17
 70
     1
102
RTVSPropertyOp18
 70
     1
102
RTVSPropertyOp19
 70
     1
102
RTVSPropertyOp20
 70
     1
102
RTVSPropertyOp21
 70
     1
102
RTVSPropertyOp22
 70
     1
102
RTVSPropertyOp23
 70
     1
102
RTVSPropertyOp24
 70
     1
102
RTVSPropertyOp25
 70
     1
102
RTVSPropertyOp26
 70
     1
102
RTVSPropertyOp27
 70
     1
102
RTVSPropertyOp28
 70
     1
102
RTVSPropertyOp29
 70
     1
102
RTVSPropertyOp30
 70
     1
102
RTVSPropertyOp31
 70
     1
102
RTVSPropertyOp32
 70
     1
  0
XRECORD
  5
217
102
{ACAD_REACTORS
330
216
102
}
330
216
100
AcDbXrecord
280
     1
102
RTVSPropertyOp0
 70
     1
102
RTVSPropertyOp1
 70
     1
102
RTVSPropertyOp2
 70
     1
102
RTVSPropertyOp3
 70
     1
102
RTVSPropertyOp4
 70
     1
102
RTVSPropertyOp5
 70
     1
102
RTVSPropertyOp6
 70
     1
102
RTVSPropertyOp7
 70
     1
102
RTVSPropertyOp8
 70
     1
102
RTVSPropertyOp9
 70
     1
102
RTVSPropertyOp10
 70
     1
102
RTVSPropertyOp11
 70
     1
102
RTVSPropertyOp12
 70
     1
102
RTVSPropertyOp13
 70
     1
102
RTVSPropertyOp14
 70
     1
102
RTVSPropertyOp15
 70
     1
102
RTVSPropertyOp16
 70
     1
102
RTVSPropertyOp17
 70
     1
102
RTVSPropertyOp18
 70
     1
102
RTVSPropertyOp19
 70
     1
102
RTVSPropertyOp20
 70
     1
102
RTVSPropertyOp21
 70
     1
102
RTVSPropertyOp22
 70
     1
102
RTVSPropertyOp23
 70
     1
102
RTVSPropertyOp24
 70
     1
102
RTVSPropertyOp25
 70
     1
102
RTVSPropertyOp26
 70
     1
102
RTVSPropertyOp27
 70
     1
102
RTVSPropertyOp28
 70
     1
102
RTVSPropertyOp29
 70
     1
102
RTVSPropertyOp30
 70
     1
102
RTVSPropertyOp31
 70
     1
102
RTVSPropertyOp32
 70
     1
  0
XRECORD
  5
22B
102
{ACAD_REACTORS
330
22A
102
}
330
22A
100
AcDbXrecord
280
     1
102
RTVSPropertyOp0
 70
     1
102
RTVSPropertyOp1
 70
     1
102
RTVSPropertyOp2
 70
     1
102
RTVSPropertyOp3
 70
     1
102
RTVSPropertyOp4
 70
     1
102
RTVSPropertyOp5
 70
     1
102
RTVSPropertyOp6
 70
     1
102
RTVSPropertyOp7
 70
     1
102
RTVSPropertyOp8
 70
     1
102
RTVSPropertyOp9
 70
     1
102
RTVSPropertyOp10
 70
     1
102
RTVSPropertyOp11
 70
     1
102
RTVSPropertyOp12
 70
     1
102
RTVSPropertyOp13
 70
     1
102
RTVSPropertyOp14
 70
     1
102
RTVSPropertyOp15
 70
     1
102
RTVSPropertyOp16
 70
     1
102
RTVSPropertyOp17
 70
     1
102
RTVSPropertyOp18
 70
     1
102
RTVSPropertyOp19
 70
     1
102
RTVSPropertyOp20
 70
     1
102
RTVSPropertyOp21
 70
     1
102
RTVSPropertyOp22
 70
     1
102
RTVSPropertyOp23
 70
     1
102
RTVSPropertyOp24
 70
     1
102
RTVSPropertyOp25
 70
     1
102
RTVSPropertyOp26
 70
     1
102
RTVSPropertyOp27
 70
     1
102
RTVSPropertyOp28
 70
     1
102
RTVSPropertyOp29
 70
     1
102
RTVSPropertyOp30
 70
     1
102
RTVSPropertyOp31
 70
     1
102
RTVSPropertyOp32
 70
     1
  0
XRECORD
  5
221
102
{ACAD_REACTORS
330
220
102
}
330
220
100
AcDbXrecord
280
     1
102
RTVSPropertyOp0
 70
     1
102
RTVSPropertyOp1
 70
     1
102
RTVSPropertyOp2
 70
     1
102
RTVSPropertyOp3
 70
     1
102
RTVSPropertyOp4
 70
     1
102
RTVSPropertyOp5
 70
     1
102
RTVSPropertyOp6
 70
     1
102
RTVSPropertyOp7
 70
     1
102
RTVSPropertyOp8
 70
     1
102
RTVSPropertyOp9
 70
     1
102
RTVSPropertyOp10
 70
     1
102
RTVSPropertyOp11
 70
     1
102
RTVSPropertyOp12
 70
     1
102
RTVSPropertyOp13
 70
     1
102
RTVSPropertyOp14
 70
     1
102
RTVSPropertyOp15
 70
     1
102
RTVSPropertyOp16
 70
     1
102
RTVSPropertyOp17
 70
     1
102
RTVSPropertyOp18
 70
     1
102
RTVSPropertyOp19
 70
     1
102
RTVSPropertyOp20
 70
     1
102
RTVSPropertyOp21
 70
     1
102
RTVSPropertyOp22
 70
     1
102
RTVSPropertyOp23
 70
     1
102
RTVSPropertyOp24
 70
     1
102
RTVSPropertyOp25
 70
     1
102
RTVSPropertyOp26
 70
     1
102
RTVSPropertyOp27
 70
     1
102
RTVSPropertyOp28
 70
     1
102
RTVSPropertyOp29
 70
     1
102
RTVSPropertyOp30
 70
     1
102
RTVSPropertyOp31
 70
     1
102
RTVSPropertyOp32
 70
     1
  0
XRECORD
  5
229
102
{ACAD_REACTORS
330
228
102
}
330
228
100
AcDbXrecord
280
     1
102
RTVSPropertyOp0
 70
     1
102
RTVSPropertyOp1
 70
     1
102
RTVSPropertyOp2
 70
     1
102
RTVSPropertyOp3
 70
     1
102
RTVSPropertyOp4
 70
     1
102
RTVSPropertyOp5
 70
     1
102
RTVSPropertyOp6
 70
     1
102
RTVSPropertyOp7
 70
     1
102
RTVSPropertyOp8
 70
     1
102
RTVSPropertyOp9
 70
     1
102
RTVSPropertyOp10
 70
     1
102
RTVSPropertyOp11
 70
     1
102
RTVSPropertyOp12
 70
     1
102
RTVSPropertyOp13
 70
     1
102
RTVSPropertyOp14
 70
     1
102
RTVSPropertyOp15
 70
     1
102
RTVSPropertyOp16
 70
     1
102
RTVSPropertyOp17
 70
     1
102
RTVSPropertyOp18
 70
     1
102
RTVSPropertyOp19
 70
     1
102
RTVSPropertyOp20
 70
     1
102
RTVSPropertyOp21
 70
     1
102
RTVSPropertyOp22
 70
     1
102
RTVSPropertyOp23
 70
     1
102
RTVSPropertyOp24
 70
     1
102
RTVSPropertyOp25
 70
     1
102
RTVSPropertyOp26
 70
     1
102
RTVSPropertyOp27
 70
     1
102
RTVSPropertyOp28
 70
     1
102
RTVSPropertyOp29
 70
     1
102
RTVSPropertyOp30
 70
     1
102
RTVSPropertyOp31
 70
     1
102
RTVSPropertyOp32
 70
     1
  0
ENDSEC
  0
EOF
