  0
SECTION
  2
HEADER
  9
$ACADVER
  1
AC1018
  9
$ACADMAINTVER
 70
     0
  9
$DWGCODEPAGE
  3
ANSI_1252
  9
$INSBASE
 10
0.0
 20
0.0
 30
0.0
  9
$EXTMIN
 10
-404.763245824975
 20
-266.5000057220947
 30
0.0
  9
$EXTMAX
 10
-107.7632458249769
 20
-56.50000572209456
 30
0.0
  9
$LIMMIN
 10
0.0
 20
0.0
  9
$LIMMAX
 10
12.0
 20
9.0
  9
$ORTHOMODE
 70
     0
  9
$REGENMODE
 70
     1
  9
$FILLMODE
 70
     1
  9
$QTEXTMODE
 70
     0
  9
$MIRRTEXT
 70
     1
  9
$LTSCALE
 40
1.0
  9
$ATTMODE
 70
     1
  9
$TEXTSIZE
 40
0.2
  9
$TRACEWID
 40
0.05
  9
$TEXTSTYLE
  7
Standard
  9
$CLAYER
  8
0
  9
$CELTYPE
  6
ByLayer
  9
$CECOLOR
 62
   256
  9
$CELTSCALE
 40
1.0
  9
$DISPSILH
 70
     0
  9
$DIMSCALE
 40
1.0
  9
$DIMASZ
 40
0.18
  9
$DIMEXO
 40
0.0625
  9
$DIMDLI
 40
0.38
  9
$DIMRND
 40
0.0
  9
$DIMDLE
 40
0.0
  9
$DIMEXE
 40
0.18
  9
$DIMTP
 40
0.0
  9
$DIMTM
 40
0.0
  9
$DIMTXT
 40
0.18
  9
$DIMCEN
 40
0.09
  9
$DIMTSZ
 40
0.0
  9
$DIMTOL
 70
     0
  9
$DIMLIM
 70
     0
  9
$DIMTIH
 70
     1
  9
$DIMTOH
 70
     1
  9
$DIMSE1
 70
     0
  9
$DIMSE2
 70
     0
  9
$DIMTAD
 70
     0
  9
$DIMZIN
 70
     0
  9
$DIMBLK
  1

  9
$DIMASO
 70
     1
  9
$DIMSHO
 70
     1
  9
$DIMPOST
  1

  9
$DIMAPOST
  1

  9
$DIMALT
 70
     0
  9
$DIMALTD
 70
     2
  9
$DIMALTF
 40
25.4
  9
$DIMLFAC
 40
1.0
  9
$DIMTOFL
 70
     0
  9
$DIMTVP
 40
0.0
  9
$DIMTIX
 70
     0
  9
$DIMSOXD
 70
     0
  9
$DIMSAH
 70
     0
  9
$DIMBLK1
  1

  9
$DIMBLK2
  1

  9
$DIMSTYLE
  2
Standard
  9
$DIMCLRD
 70
     0
  9
$DIMCLRE
 70
     0
  9
$DIMCLRT
 70
     0
  9
$DIMTFAC
 40
1.0
  9
$DIMGAP
 40
0.09
  9
$DIMJUST
 70
     0
  9
$DIMSD1
 70
     0
  9
$DIMSD2
 70
     0
  9
$DIMTOLJ
 70
     1
  9
$DIMTZIN
 70
     0
  9
$DIMALTZ
 70
     0
  9
$DIMALTTZ
 70
     0
  9
$DIMUPT
 70
     0
  9
$DIMDEC
 70
     4
  9
$DIMTDEC
 70
     4
  9
$DIMALTU
 70
     2
  9
$DIMALTTD
 70
     2
  9
$DIMTXSTY
  7
Standard
  9
$DIMAUNIT
 70
     0
  9
$DIMADEC
 70
     0
  9
$DIMALTRND
 40
0.0
  9
$DIMAZIN
 70
     0
  9
$DIMDSEP
 70
    46
  9
$DIMATFIT
 70
     3
  9
$DIMFRAC
 70
     0
  9
$DIMLDRBLK
  1

  9
$DIMLUNIT
 70
     2
  9
$DIMLWD
 70
    -2
  9
$DIMLWE
 70
    -2
  9
$DIMTMOVE
 70
     0
  9
$LUNITS
 70
     2
  9
$LUPREC
 70
     4
  9
$SKETCHINC
 40
0.1
  9
$FILLETRAD
 40
0.5
  9
$AUNITS
 70
     0
  9
$AUPREC
 70
     0
  9
$MENU
  1
.
  9
$ELEVATION
 40
0.0
  9
$PELEVATION
 40
0.0
  9
$THICKNESS
 40
0.0
  9
$LIMCHECK
 70
     0
  9
$CHAMFERA
 40
0.0
  9
$CHAMFERB
 40
0.0
  9
$CHAMFERC
 40
0.0
  9
$CHAMFERD
 40
0.0
  9
$SKPOLY
 70
     0
  9
$TDCREATE
 40
2458948.386386759
  9
$TDUCREATE
 40
2458948.303053426
  9
$TDUPDATE
 40
2458948.386386944
  9
$TDUUPDATE
 40
2458948.303053611
  9
$TDINDWG
 40
0.0000000116
  9
$TDUSRTIMER
 40
0.0000000116
  9
$USRTIMER
 70
     1
  9
$ANGBASE
 50
0.0
  9
$ANGDIR
 70
     0
  9
$PDMODE
 70
     0
  9
$PDSIZE
 40
0.0
  9
$PLINEWID
 40
0.0
  9
$SPLFRAME
 70
     0
  9
$SPLINETYPE
 70
     6
  9
$SPLINESEGS
 70
     8
  9
$HANDSEED
  5
2EF
  9
$SURFTAB1
 70
     6
  9
$SURFTAB2
 70
     6
  9
$SURFTYPE
 70
     6
  9
$SURFU
 70
     6
  9
$SURFV
 70
     6
  9
$UCSBASE
  2

  9
$UCSNAME
  2

  9
$UCSORG
 10
0.0
 20
0.0
 30
0.0
  9
$UCSXDIR
 10
1.0
 20
0.0
 30
0.0
  9
$UCSYDIR
 10
0.0
 20
1.0
 30
0.0
  9
$UCSORTHOREF
  2

  9
$UCSORTHOVIEW
 70
     0
  9
$UCSORGTOP
 10
0.0
 20
0.0
 30
0.0
  9
$UCSORGBOTTOM
 10
0.0
 20
0.0
 30
0.0
  9
$UCSORGLEFT
 10
0.0
 20
0.0
 30
0.0
  9
$UCSORGRIGHT
 10
0.0
 20
0.0
 30
0.0
  9
$UCSORGFRONT
 10
0.0
 20
0.0
 30
0.0
  9
$UCSORGBACK
 10
0.0
 20
0.0
 30
0.0
  9
$PUCSBASE
  2

  9
$PUCSNAME
  2

  9
$PUCSORG
 10
0.0
 20
0.0
 30
0.0
  9
$PUCSXDIR
 10
1.0
 20
0.0
 30
0.0
  9
$PUCSYDIR
 10
0.0
 20
1.0
 30
0.0
  9
$PUCSORTHOREF
  2

  9
$PUCSORTHOVIEW
 70
     0
  9
$PUCSORGTOP
 10
0.0
 20
0.0
 30
0.0
  9
$PUCSORGBOTTOM
 10
0.0
 20
0.0
 30
0.0
  9
$PUCSORGLEFT
 10
0.0
 20
0.0
 30
0.0
  9
$PUCSORGRIGHT
 10
0.0
 20
0.0
 30
0.0
  9
$PUCSORGFRONT
 10
0.0
 20
0.0
 30
0.0
  9
$PUCSORGBACK
 10
0.0
 20
0.0
 30
0.0
  9
$USERI1
 70
     0
  9
$USERI2
 70
     0
  9
$USERI3
 70
     0
  9
$USERI4
 70
     0
  9
$USERI5
 70
     0
  9
$USERR1
 40
20.1
  9
$USERR2
 40
0.0
  9
$USERR3
 40
0.0
  9
$USERR4
 40
0.0
  9
$USERR5
 40
0.0
  9
$WORLDVIEW
 70
     1
  9
$SHADEDGE
 70
     3
  9
$SHADEDIF
 70
    70
  9
$TILEMODE
 70
     1
  9
$MAXACTVP
 70
    64
  9
$PINSBASE
 10
0.0
 20
0.0
 30
0.0
  9
$PLIMCHECK
 70
     0
  9
$PEXTMIN
 10
1.00000000000000E+20
 20
1.00000000000000E+20
 30
1.00000000000000E+20
  9
$PEXTMAX
 10
-1.00000000000000E+20
 20
-1.00000000000000E+20
 30
-1.00000000000000E+20
  9
$PLIMMIN
 10
0.0
 20
0.0
  9
$PLIMMAX
 10
12.0
 20
9.0
  9
$UNITMODE
 70
     0
  9
$VISRETAIN
 70
     1
  9
$PLINEGEN
 70
     0
  9
$PSLTSCALE
 70
     1
  9
$TREEDEPTH
 70
  3020
  9
$CMLSTYLE
  2
Standard
  9
$CMLJUST
 70
     0
  9
$CMLSCALE
 40
1.0
  9
$PROXYGRAPHICS
 70
     1
  9
$MEASUREMENT
 70
     1
  9
$CELWEIGHT
370
    -1
  9
$ENDCAPS
280
     0
  9
$JOINSTYLE
280
     0
  9
$LWDISPLAY
290
     0
  9
$INSUNITS
 70
     4
  9
$HYPERLINKBASE
  1

  9
$STYLESHEET
  1

  9
$XEDIT
290
     1
  9
$CEPSNTYPE
380
     0
  9
$PSTYLEMODE
290
     1
  9
$FINGERPRINTGUID
  2
{9060d2c7-f4eb-48ad-8c77-324ec74e104a}
  9
$VERSIONGUID
  2
{FAEB1C32-E019-11D5-929B-00C0DF256EC4}
  9
$EXTNAMES
290
     1
  9
$PSVPSCALE
 40
0.0
  9
$OLESTARTUP
290
     0
  9
$SORTENTS
280
   127
  9
$INDEXCTL
280
     0
  9
$HIDETEXT
280
     1
  9
$XCLIPFRAME
290
     0
  9
$HALOGAP
280
     0
  9
$OBSCOLOR
 70
   257
  9
$OBSLTYPE
280
     0
  9
$INTERSECTIONDISPLAY
280
     0
  9
$INTERSECTIONCOLOR
 70
   257
  9
$DIMASSOC
280
     2
  9
$PROJECTNAME
  1

  0
ENDSEC
  0
SECTION
  2
CLASSES
  0
CLASS
  1
ACDBDICTIONARYWDFLT
  2
AcDbDictionaryWithDefault
  3
ObjectDBX Classes
 90
        0
 91
        3
280
     0
281
     0
  0
CLASS
  1
VISUALSTYLE
  2
AcDbVisualStyle
  3
ObjectDBX Classes
 90
     4095
 91
        3
280
     0
281
     0
  0
CLASS
  1
MATERIAL
  2
AcDbMaterial
  3
ObjectDBX Classes
 90
     1153
 91
        3
280
     0
281
     0
  0
CLASS
  1
SCALE
  2
AcDbScale
  3
ObjectDBX Classes
 90
     1153
 91
        3
280
     0
281
     0
  0
CLASS
  1
TABLESTYLE
  2
AcDbTableStyle
  3
ObjectDBX Classes
 90
     4095
 91
        3
280
     0
281
     0
  0
CLASS
  1
MLEADERSTYLE
  2
AcDbMLeaderStyle
  3
ACDB_MLEADERSTYLE_CLASS
 90
     4095
 91
        3
280
     0
281
     0
  0
CLASS
  1
SUN
  2
AcDbSun
  3
SCENEOE
 90
     1153
 91
        3
280
     0
281
     0
  0
CLASS
  1
DICTIONARYVAR
  2
AcDbDictionaryVar
  3
ObjectDBX Classes
 90
        0
 91
        3
280
     0
281
     0
  0
CLASS
  1
CELLSTYLEMAP
  2
AcDbCellStyleMap
  3
ObjectDBX Classes
 90
     1152
 91
        3
280
     0
281
     0
  0
ENDSEC
  0
SECTION
  2
TABLES
  0
TABLE
  2
VPORT
  5
8
102
{ACAD_XDICTIONARY
360
2A8
102
}
330
0
100
AcDbSymbolTable
 70
     1
  0
VPORT
  5
29
330
8
100
AcDbSymbolTableRecord
100
AcDbViewportTableRecord
  2
*Active
 70
     0
 10
0.0
 20
0.0
 11
1.0
 21
1.0
 12
-256.263245824976
 22
-161.5000057220946
 13
0.0
 23
0.0
 14
0.5
 24
0.5
 15
0.5
 25
0.5
 16
0.0
 26
0.0
 36
1.0
 17
0.0
 27
0.0
 37
0.0
 40
231.0000000000002
 41
1.60267857142857
 42
50.0
 43
0.0
 44
0.0
 50
0.0
 51
0.0
 71
     0
 72
   100
 73
     1
 74
     3
 75
     0
 76
     0
 77
     0
 78
     0
281
     0
 65
     1
110
0.0
120
0.0
130
0.0
111
1.0
121
0.0
131
0.0
112
0.0
122
1.0
132
0.0
 79
     0
146
0.0
  0
ENDTAB
  0
TABLE
  2
LTYPE
  5
5
330
0
100
AcDbSymbolTable
 70
     8
  0
LTYPE
  5
14
330
5
100
AcDbSymbolTableRecord
100
AcDbLinetypeTableRecord
  2
ByBlock
 70
     0
  3

 72
    65
 73
     0
 40
0.0
  0
LTYPE
  5
15
330
5
100
AcDbSymbolTableRecord
100
AcDbLinetypeTableRecord
  2
ByLayer
 70
     0
  3

 72
    65
 73
     0
 40
0.0
  0
LTYPE
  5
16
330
5
100
AcDbSymbolTableRecord
100
AcDbLinetypeTableRecord
  2
Continuous
 70
     0
  3
Solid line
 72
    65
 73
     0
 40
0.0
  0
LTYPE
  5
6E
330
5
100
AcDbSymbolTableRecord
100
AcDbLinetypeTableRecord
  2
DASHED
 70
     0
  3
Dashed
 72
    65
 73
     2
 40
15.0
 49
7.0
 74
     0
 49
-8.0
 74
     0
  0
LTYPE
  5
6F
330
5
100
AcDbSymbolTableRecord
100
AcDbLinetypeTableRecord
  2
DOTTED
 70
     0
  3
Dotted
 72
    65
 73
     2
 40
1.0
 49
0.0
 74
     0
 49
-1.0
 74
     0
  0
LTYPE
  5
70
330
5
100
AcDbSymbolTableRecord
100
AcDbLinetypeTableRecord
  2
DOT_CENTER
 70
     0
  3
Dot_Center
 72
    65
 73
     4
 40
14.0
 49
12.0
 74
     0
 49
-1.0
 74
     0
 49
0.0
 74
     0
 49
-1.0
 74
     0
  0
LTYPE
  5
71
330
5
100
AcDbSymbolTableRecord
100
AcDbLinetypeTableRecord
  2
LONG_DASHED
 70
     0
  3
Long_Dashed
 72
    65
 73
     2
 40
15.0
 49
10.0
 74
     0
 49
-5.0
 74
     0
  0
LTYPE
  5
72
330
5
100
AcDbSymbolTableRecord
100
AcDbLinetypeTableRecord
  2
DASH_CENTER
 70
     0
  3
Dash_Center
 72
    65
 73
     4
 40
14.0
 49
11.0
 74
     0
 49
-1.0
 74
     0
 49
1.0
 74
     0
 49
-1.0
 74
     0
  0
LTYPE
  5
73
330
5
100
AcDbSymbolTableRecord
100
AcDbLinetypeTableRecord
  2
PHANTOM
 70
     0
  3
Phantom
 72
    65
 73
     6
 40
13.0
 49
10.0
 74
     0
 49
-1.0
 74
     0
 49
0.0
 74
     0
 49
-1.0
 74
     0
 49
0.0
 74
     0
 49
-1.0
 74
     0
  0
LTYPE
  5
74
330
5
100
AcDbSymbolTableRecord
100
AcDbLinetypeTableRecord
  2
CENTER_DASH_DASH
 70
     0
  3
Center_Dash_Dash
 72
    65
 73
     6
 40
14.0
 49
9.0
 74
     0
 49
-1.0
 74
     0
 49
1.0
 74
     0
 49
-1.0
 74
     0
 49
1.0
 74
     0
 49
-1.0
 74
     0
  0
ENDTAB
  0
TABLE
  2
LAYER
  5
2
330
0
100
AcDbSymbolTable
 70
     2
  0
LAYER
  5
10
330
2
100
AcDbSymbolTableRecord
100
AcDbLayerTableRecord
  2
0
 70
     0
 62
     7
  6
Continuous
370
    -3
390
F
  0
LAYER
  5
75
330
2
100
AcDbSymbolTableRecord
100
AcDbLayerTableRecord
  2
1
 70
     0
 62
     7
  6
Continuous
370
    -3
390
F
  0
ENDTAB
  0
TABLE
  2
STYLE
  5
3
330
0
100
AcDbSymbolTable
 70
     5
  0
STYLE
  5
11
330
3
100
AcDbSymbolTableRecord
100
AcDbTextStyleTableRecord
  2
Standard
 70
     0
 40
0.0
 41
1.0
 50
0.0
 71
     0
 42
0.2
  3
txt
  4

  0
STYLE
  5
D6
330
3
100
AcDbSymbolTableRecord
100
AcDbTextStyleTableRecord
  2
CONVERTER_11
 70
     0
 40
0.0
 41
0.9
 50
0.0
 71
     0
 42
0.2
  3
txt.shx
  4

  0
STYLE
  5
266
330
3
100
AcDbSymbolTableRecord
100
AcDbTextStyleTableRecord
  2
CONVERTER_12
 70
     0
 40
0.0
 41
0.81
 50
0.0
 71
     0
 42
0.2
  3
txt.shx
  4

  0
STYLE
  5
26C
330
3
100
AcDbSymbolTableRecord
100
AcDbTextStyleTableRecord
  2
CONVERTER_13
 70
     0
 40
0.0
 41
0.855
 50
0.0
 71
     0
 42
0.2
  3
txt.shx
  4

  0
STYLE
  5
26F
330
3
100
AcDbSymbolTableRecord
100
AcDbTextStyleTableRecord
  2
CONVERTER_14
 70
     0
 40
0.0
 41
0.72
 50
0.0
 71
     0
 42
0.2
  3
txt.shx
  4

  0
ENDTAB
  0
TABLE
  2
VIEW
  5
6
330
0
100
AcDbSymbolTable
 70
     0
  0
ENDTAB
  0
TABLE
  2
UCS
  5
7
330
0
100
AcDbSymbolTable
 70
     0
  0
ENDTAB
  0
TABLE
  2
APPID
  5
9
330
0
100
AcDbSymbolTable
 70
     2
  0
APPID
  5
12
330
9
100
AcDbSymbolTableRecord
100
AcDbRegAppTableRecord
  2
ACAD
 70
     0
  0
APPID
  5
2E7
330
9
100
AcDbSymbolTableRecord
100
AcDbRegAppTableRecord
  2
ACAD_MLEADERVER
 70
     0
  0
ENDTAB
  0
TABLE
  2
DIMSTYLE
  5
A
330
0
100
AcDbSymbolTable
 70
     3
100
AcDbDimStyleTable
  0
DIMSTYLE
105
27
330
A
100
AcDbSymbolTableRecord
100
AcDbDimStyleTableRecord
  2
Standard
 70
     0
178
     0
340
11
  0
DIMSTYLE
105
EE
102
{ACAD_REACTORS
330
EF
102
}
330
A
100
AcDbSymbolTableRecord
100
AcDbDimStyleTableRecord
  2
ME10_DIM_10
 70
     0
 41
1.75
 42
0.0
 44
0.75
 73
     0
 74
     0
 77
     1
 78
     8
140
1.75
147
0.75
172
     1
173
     1
174
     1
175
     1
176
     2
177
     2
271
     2
178
     3
271
     2
340
D6
  0
DIMSTYLE
105
16D
102
{ACAD_REACTORS
330
16E
102
}
330
A
100
AcDbSymbolTableRecord
100
AcDbDimStyleTableRecord
  2
ME10_DIM_11
 70
     0
 41
1.75
 42
0.0
 44
0.75
 73
     0
 74
     0
 77
     1
 78
     8
140
1.75
147
0.75
172
     1
173
     1
174
     1
175
     1
176
     2
177
     2
271
     2
178
     3
271
     2
340
D6
  0
ENDTAB
  0
TABLE
  2
BLOCK_RECORD
  5
1
330
0
100
AcDbSymbolTable
 70
    20
  0
BLOCK_RECORD
  5
1F
330
1
100
AcDbSymbolTableRecord
100
AcDbBlockTableRecord
  2
*Model_Space
340
22
  0
BLOCK_RECORD
  5
1B
330
1
100
AcDbSymbolTableRecord
100
AcDbBlockTableRecord
  2
*Paper_Space
340
1E
  0
BLOCK_RECORD
  5
23
330
1
100
AcDbSymbolTableRecord
100
AcDbBlockTableRecord
  2
*Paper_Space0
340
26
  0
BLOCK_RECORD
  5
76
330
1
100
AcDbSymbolTableRecord
100
AcDbBlockTableRecord
  2
HC_M_BS_M20-select__1
340
0
102
{BLKREFS
331
7A
102
}
  0
BLOCK_RECORD
  5
79
330
1
100
AcDbSymbolTableRecord
100
AcDbBlockTableRecord
  2
Allg1
340
0
102
{BLKREFS
331
AC
102
}
  0
BLOCK_RECORD
  5
7D
330
1
100
AcDbSymbolTableRecord
100
AcDbBlockTableRecord
  2
HC_M_BS_M20-select__2
340
0
102
{BLKREFS
331
81
102
}
  0
BLOCK_RECORD
  5
80
330
1
100
AcDbSymbolTableRecord
100
AcDbBlockTableRecord
  2
Drfsicht1
340
0
102
{BLKREFS
331
AD
102
}
  0
BLOCK_RECORD
  5
84
330
1
100
AcDbSymbolTableRecord
100
AcDbBlockTableRecord
  2
HC_M_BS_M20-select__3
340
0
102
{BLKREFS
331
88
102
}
  0
BLOCK_RECORD
  5
87
330
1
100
AcDbSymbolTableRecord
100
AcDbBlockTableRecord
  2
Rckans1
340
0
102
{BLKREFS
331
AE
102
}
  0
BLOCK_RECORD
  5
8B
330
1
100
AcDbSymbolTableRecord
100
AcDbBlockTableRecord
  2
HC_M_BS_M20-select__4
340
0
102
{BLKREFS
331
8F
102
}
  0
BLOCK_RECORD
  5
8E
330
1
100
AcDbSymbolTableRecord
100
AcDbBlockTableRecord
  2
SA_Links1
340
0
102
{BLKREFS
331
AF
102
}
  0
BLOCK_RECORD
  5
92
330
1
100
AcDbSymbolTableRecord
100
AcDbBlockTableRecord
  2
HC_M_BS_M20-select__5
340
0
102
{BLKREFS
331
96
102
}
  0
BLOCK_RECORD
  5
95
330
1
100
AcDbSymbolTableRecord
100
AcDbBlockTableRecord
  2
SA_Rechts1
340
0
102
{BLKREFS
331
B0
102
}
  0
BLOCK_RECORD
  5
99
330
1
100
AcDbSymbolTableRecord
100
AcDbBlockTableRecord
  2
HC_M_BS_M20-select__6
340
0
102
{BLKREFS
331
9D
102
}
  0
BLOCK_RECORD
  5
9C
330
1
100
AcDbSymbolTableRecord
100
AcDbBlockTableRecord
  2
Vordans1
340
0
102
{BLKREFS
331
B1
102
}
  0
BLOCK_RECORD
  5
A0
330
1
100
AcDbSymbolTableRecord
100
AcDbBlockTableRecord
  2
_rahmen
340
0
102
{BLKREFS
331
A7
102
}
  0
BLOCK_RECORD
  5
A3
330
1
100
AcDbSymbolTableRecord
100
AcDbBlockTableRecord
  2
_punkt
340
0
102
{BLKREFS
331
A8
102
}
  0
BLOCK_RECORD
  5
A6
330
1
100
AcDbSymbolTableRecord
100
AcDbBlockTableRecord
  2
A4I_CS
340
0
102
{BLKREFS
331
B2
102
}
  0
BLOCK_RECORD
  5
AB
330
1
100
AcDbSymbolTableRecord
100
AcDbBlockTableRecord
  2
1
340
0
102
{BLKREFS
331
B5
102
}
  0
BLOCK_RECORD
  5
E5
330
1
100
AcDbSymbolTableRecord
100
AcDbBlockTableRecord
  2
*D17
340
0
  0
BLOCK_RECORD
  5
F0
330
1
100
AcDbSymbolTableRecord
100
AcDbBlockTableRecord
  2
*D18
340
0
102
{BLKREFS
331
F9
102
}
  0
BLOCK_RECORD
  5
164
330
1
100
AcDbSymbolTableRecord
100
AcDbBlockTableRecord
  2
*D19
340
0
  0
ENDTAB
  0
ENDSEC
  0
SECTION
  2
BLOCKS
  0
BLOCK
  5
20
330
1F
100
AcDbEntity
  8
0
100
AcDbBlockBegin
  2
*Model_Space
 70
     0
 10
0.0
 20
0.0
 30
0.0
  3
*Model_Space
  1

  0
ENDBLK
  5
21
330
1F
100
AcDbEntity
  8
0
100
AcDbBlockEnd
  0
BLOCK
  5
1C
330
1B
100
AcDbEntity
 67
     1
  8
0
100
AcDbBlockBegin
  2
*Paper_Space
 70
     0
 10
0.0
 20
0.0
 30
0.0
  3
*Paper_Space
  1

  0
ENDBLK
  5
1D
330
1B
100
AcDbEntity
 67
     1
  8
0
100
AcDbBlockEnd
  0
BLOCK
  5
24
330
23
100
AcDbEntity
  8
0
100
AcDbBlockBegin
  2
*Paper_Space0
 70
     0
 10
0.0
 20
0.0
 30
0.0
  3
*Paper_Space0
  1

  0
ENDBLK
  5
25
330
23
100
AcDbEntity
  8
0
100
AcDbBlockEnd
  0
BLOCK
  5
77
330
76
100
AcDbEntity
  8
0
100
AcDbBlockBegin
  2
HC_M_BS_M20-select__1
 70
     0
 10
-88.63162308751195
 20
-105.8411719664205
 30
0.0
  3
HC_M_BS_M20-select__1
  1

  0
LINE
  5
B6
330
76
100
AcDbEntity
  8
0
  6
Continuous
 62
     7
100
AcDbLine
 10
-88.63162308751195
 20
-95.64501954371381
 30
0.0
 11
-88.63162308751194
 21
-93.0469433323605
 31
0.0
  0
LINE
  5
B7
330
76
100
AcDbEntity
  8
0
  6
Continuous
 62
     7
100
AcDbLine
 10
-81.70798547082111
 20
-98.5469433323605
 30
0.0
 11
-71.15526070420277
 21
-98.5469433323605
 31
0.0
  0
LINE
  5
B8
330
76
100
AcDbEntity
  8
0
  6
Continuous
 62
     7
100
AcDbLine
 10
-71.15526070420276
 20
-87.54694333236051
 30
0.0
 11
-81.7079854708211
 21
-87.54694333236051
 31
0.0
  0
LINE
  5
B9
330
76
100
AcDbEntity
  8
0
  6
Continuous
 62
     7
100
AcDbLine
 10
-69.5435248375377
 20
-100.679751475473
 30
0.0
 11
-69.5435248375377
 21
-98.08167526411968
 31
0.0
  0
LINE
  5
BA
330
76
100
AcDbEntity
  8
0
  6
Continuous
 62
     7
100
AcDbLine
 10
-69.5435248375377
 20
-100.679751475473
 30
0.0
 11
-64.26716245422854
 21
-96.11028761195465
 31
0.0
  0
LINE
  5
BB
330
76
100
AcDbEntity
  8
0
  6
Continuous
 62
     7
100
AcDbLine
 10
-64.23162308751195
 20
-95.64501954371383
 30
0.0
 11
-64.23162308751195
 21
-93.04694333236051
 31
0.0
  0
LINE
  5
BC
330
76
100
AcDbEntity
  8
0
  6
Continuous
 62
     7
100
AcDbLine
 10
-66.43162308751195
 20
-97.98476550586943
 30
0.0
 11
-66.43162308751195
 21
-100.8411719664205
 31
0.0
  0
LINE
  5
BD
330
76
100
AcDbEntity
  8
0
  6
Continuous
 62
     7
100
AcDbLine
 10
-81.70798547082111
 20
-101.1450195437138
 30
0.0
 11
-71.15526070420279
 21
-101.1450195437138
 31
0.0
  0
LINE
  5
BE
330
76
100
AcDbEntity
  8
0
  6
Continuous
 62
     7
100
AcDbLine
 10
-64.26716245422854
 20
-93.51221140060133
 30
0.0
 11
-64.26716245422854
 21
-96.11028761195465
 31
0.0
  0
LINE
  5
BF
330
76
100
AcDbEntity
  8
0
  6
Continuous
 62
     7
100
AcDbLine
 10
-69.5435248375377
 20
-98.08167526411968
 30
0.0
 11
-64.26716245422854
 21
-93.51221140060133
 31
0.0
  0
LINE
  5
C0
330
76
100
AcDbEntity
  8
0
  6
Continuous
 62
     7
100
AcDbLine
 10
-64.26716245422854
 20
-92.58167526411968
 30
0.0
 11
-69.54352483753769
 21
-88.01221140060134
 31
0.0
  0
LINE
  5
C1
330
76
100
AcDbEntity
  8
0
  6
Continuous
 62
     7
100
AcDbLine
 10
-81.70798547082111
 20
-101.1450195437138
 30
0.0
 11
-81.70798547082111
 21
-98.5469433323605
 31
0.0
  0
LINE
  5
C2
330
76
100
AcDbEntity
  8
0
  6
Continuous
 62
     7
100
AcDbLine
 10
-86.43162308751195
 20
-97.98476550586943
 30
0.0
 11
-86.43162308751195
 21
-100.8411719664205
 31
0.0
  0
LINE
  5
C3
330
76
100
AcDbEntity
  8
0
  6
Continuous
 62
     7
100
AcDbLine
 10
-88.59608372079536
 20
-93.51221140060133
 30
0.0
 11
-83.31972133748619
 21
-98.08167526411968
 31
0.0
  0
LINE
  5
C4
330
76
100
AcDbEntity
  8
0
  6
Continuous
 62
     7
100
AcDbLine
 10
-88.59608372079536
 20
-96.11028761195465
 30
0.0
 11
-88.59608372079536
 21
-93.51221140060133
 31
0.0
  0
LINE
  5
C5
330
76
100
AcDbEntity
  8
0
  6
Continuous
 62
     7
100
AcDbLine
 10
-83.31972133748619
 20
-98.08167526411968
 30
0.0
 11
-83.31972133748619
 21
-100.679751475473
 31
0.0
  0
LINE
  5
C6
330
76
100
AcDbEntity
  8
0
  6
Continuous
 62
     7
100
AcDbLine
 10
-88.59608372079536
 20
-96.11028761195465
 30
0.0
 11
-83.31972133748619
 21
-100.679751475473
 31
0.0
  0
LINE
  5
C7
330
76
100
AcDbEntity
  8
0
  6
Continuous
 62
     7
100
AcDbLine
 10
-83.31972133748619
 20
-88.01221140060133
 30
0.0
 11
-88.59608372079536
 21
-92.58167526411967
 31
0.0
  0
LINE
  5
C8
330
76
100
AcDbEntity
  8
0
  6
Continuous
 62
     7
100
AcDbLine
 10
-71.15526070420277
 20
-98.5469433323605
 30
0.0
 11
-71.15526070420279
 21
-101.1450195437138
 31
0.0
  0
SPLINE
  5
C9
330
76
100
AcDbEntity
  8
0
  6
Continuous
 62
     7
100
AcDbSpline
210
0.0
220
0.0
230
1.0
 70
  1064
 71
     3
 72
     9
 73
     5
 74
     3
 42
0.000000001
 43
0.0000000001
 44
0.00000001
 40
0.0
 40
0.0
 40
0.0
 40
0.0
 40
0.2329732431412199
 40
0.4669604263217912
 40
0.4669604263217912
 40
0.4669604263217912
 40
0.4669604263217912
 10
-88.63162308751194
 20
-93.0469433323605
 30
0.0
 10
-88.630127844409
 20
-93.12465651408618
 30
0.0
 10
-88.62713083070291
 20
-93.2804210976698
 30
0.0
 10
-88.60644773423577
 20
-93.43483620323623
 30
0.0
 10
-88.59608372079536
 20
-93.51221140060133
 30
0.0
 11
-88.63162308751194
 21
-93.0469433323605
 31
0.0
 11
-88.62273500818054
 21
-93.2797469711691
 31
0.0
 11
-88.59608372079536
 21
-93.51221140060133
 31
0.0
  0
SPLINE
  5
CA
330
76
100
AcDbEntity
  8
0
  6
Continuous
 62
     7
100
AcDbSpline
210
0.0
220
0.0
230
1.0
 70
  1064
 71
     3
 72
     9
 73
     5
 74
     3
 42
0.000000001
 43
0.0000000001
 44
0.00000001
 40
0.0
 40
0.0
 40
0.0
 40
0.0
 40
0.2339871831805713
 40
0.4669604263217912
 40
0.4669604263217912
 40
0.4669604263217912
 40
0.4669604263217912
 10
-88.59608372079536
 20
-92.58167526411967
 30
0.0
 10
-88.60644773423579
 20
-92.65905046148475
 30
0.0
 10
-88.6271308307029
 20
-92.81346556705118
 30
0.0
 10
-88.63012784440897
 20
-92.96923015063481
 30
0.0
 10
-88.63162308751194
 20
-93.0469433323605
 30
0.0
 11
-88.59608372079536
 21
-92.58167526411967
 31
0.0
 11
-88.62273500818054
 21
-92.8141396935519
 31
0.0
 11
-88.63162308751194
 21
-93.0469433323605
 31
0.0
  0
SPLINE
  5
CB
330
76
100
AcDbEntity
  8
0
  6
Continuous
 62
     7
100
AcDbSpline
210
0.0
220
0.0
230
1.0
 70
  1064
 71
     3
 72
     9
 73
     5
 74
     3
 42
0.000000001
 43
0.0000000001
 44
0.00000001
 40
0.0
 40
0.0
 40
0.0
 40
0.0
 40
0.2339871831805713
 40
0.4669604263217918
 40
0.4669604263217918
 40
0.4669604263217918
 40
0.4669604263217918
 10
-88.59608372079536
 20
-96.11028761195465
 30
0.0
 10
-88.60644773423579
 20
-96.0329124145896
 30
0.0
 10
-88.62713083070287
 20
-95.87849730902307
 30
0.0
 10
-88.63012784440899
 20
-95.7227327254395
 30
0.0
 10
-88.63162308751195
 20
-95.64501954371381
 30
0.0
 11
-88.59608372079536
 21
-96.11028761195465
 31
0.0
 11
-88.62273500818054
 21
-95.87782318252242
 31
0.0
 11
-88.63162308751195
 21
-95.64501954371381
 31
0.0
  0
SPLINE
  5
CC
330
76
100
AcDbEntity
  8
0
  6
Continuous
 62
     7
100
AcDbSpline
210
0.0
220
0.0
230
1.0
 70
  1064
 71
     3
 72
     9
 73
     5
 74
     3
 42
0.000000001
 43
0.0000000001
 44
0.00000001
 40
0.0
 40
0.0
 40
0.0
 40
0.0
 40
0.8518065085578599
 40
1.678011251002657
 40
1.678011251002657
 40
1.678011251002657
 40
1.678011251002657
 10
-71.15526070420277
 20
-98.5469433323605
 30
0.0
 10
-70.87977416173591
 20
-98.47778251781524
 30
0.0
 10
-70.33708106351234
 20
-98.34153955631612
 30
0.0
 10
-69.8053392793562
 20
-98.16741112994761
 30
0.0
 10
-69.5435248375377
 20
-98.08167526411968
 30
0.0
 11
-71.15526070420277
 21
-98.5469433323605
 31
0.0
 11
-70.33162308851148
 21
-98.32969829457997
 31
0.0
 11
-69.5435248375377
 21
-98.08167526411968
 31
0.0
  0
SPLINE
  5
CD
330
76
100
AcDbEntity
  8
0
  6
Continuous
 62
     7
100
AcDbSpline
210
0.0
220
0.0
230
1.0
 70
  1064
 71
     3
 72
     9
 73
     5
 74
     3
 42
0.000000001
 43
0.0000000001
 44
0.00000001
 40
0.0
 40
0.0
 40
0.0
 40
0.0
 40
0.8262047424447794
 40
1.678011251002667
 40
1.678011251002667
 40
1.678011251002667
 40
1.678011251002667
 10
-69.5435248375377
 20
-100.679751475473
 30
0.0
 10
-69.8053392793562
 20
-100.7654873413009
 30
0.0
 10
-70.33708106351233
 20
-100.9396157676694
 30
0.0
 10
-70.87977416173592
 20
-101.0758587291686
 30
0.0
 10
-71.15526070420279
 20
-101.1450195437138
 30
0.0
 11
-69.5435248375377
 21
-100.679751475473
 31
0.0
 11
-70.33162308851146
 21
-100.9277745059333
 31
0.0
 11
-71.15526070420279
 21
-101.1450195437138
 31
0.0
  0
SPLINE
  5
CE
330
76
100
AcDbEntity
  8
0
  6
Continuous
 62
     7
100
AcDbSpline
210
0.0
220
0.0
230
1.0
 70
  1064
 71
     3
 72
     9
 73
     5
 74
     3
 42
0.000000001
 43
0.0000000001
 44
0.00000001
 40
0.0
 40
0.0
 40
0.0
 40
0.0
 40
0.2329732431412063
 40
0.4669604263217776
 40
0.4669604263217776
 40
0.4669604263217776
 40
0.4669604263217776
 10
-64.23162308751195
 20
-95.64501954371383
 30
0.0
 10
-64.2331183306149
 20
-95.7227327254395
 30
0.0
 10
-64.236115344321
 20
-95.8784973090231
 30
0.0
 10
-64.25679844078813
 20
-96.03291241458957
 30
0.0
 10
-64.26716245422854
 20
-96.11028761195465
 30
0.0
 11
-64.23162308751195
 21
-95.64501954371383
 31
0.0
 11
-64.24051116684336
 21
-95.87782318252242
 31
0.0
 11
-64.26716245422854
 21
-96.11028761195465
 31
0.0
  0
SPLINE
  5
CF
330
76
100
AcDbEntity
  8
0
  6
Continuous
 62
     7
100
AcDbSpline
210
0.0
220
0.0
230
1.0
 70
  1064
 71
     3
 72
     9
 73
     5
 74
     3
 42
0.000000001
 43
0.0000000001
 44
0.00000001
 40
0.0
 40
0.0
 40
0.0
 40
0.0
 40
0.2339871831805572
 40
0.4669604263217777
 40
0.4669604263217777
 40
0.4669604263217777
 40
0.4669604263217777
 10
-64.26716245422854
 20
-93.51221140060133
 30
0.0
 10
-64.25679844078813
 20
-93.43483620323626
 30
0.0
 10
-64.23611534432101
 20
-93.28042109766986
 30
0.0
 10
-64.2331183306149
 20
-93.1246565140862
 30
0.0
 10
-64.23162308751195
 20
-93.04694333236051
 30
0.0
 11
-64.26716245422854
 21
-93.51221140060133
 31
0.0
 11
-64.24051116684336
 21
-93.27974697116912
 31
0.0
 11
-64.23162308751195
 21
-93.04694333236051
 31
0.0
  0
SPLINE
  5
D0
330
76
100
AcDbEntity
  8
0
  6
Continuous
 62
     7
100
AcDbSpline
210
0.0
220
0.0
230
1.0
 70
  1064
 71
     3
 72
     9
 73
     5
 74
     3
 42
0.000000001
 43
0.0000000001
 44
0.00000001
 40
0.0
 40
0.0
 40
0.0
 40
0.0
 40
0.2329732431412205
 40
0.4669604263217918
 40
0.4669604263217918
 40
0.4669604263217918
 40
0.4669604263217918
 10
-64.23162308751195
 20
-93.04694333236051
 30
0.0
 10
-64.23311833061489
 20
-92.96923015063481
 30
0.0
 10
-64.23611534432101
 20
-92.81346556705121
 30
0.0
 10
-64.25679844078813
 20
-92.65905046148478
 30
0.0
 10
-64.26716245422854
 20
-92.58167526411968
 30
0.0
 11
-64.23162308751195
 21
-93.04694333236051
 31
0.0
 11
-64.24051116684336
 21
-92.81413969355191
 31
0.0
 11
-64.26716245422854
 21
-92.58167526411968
 31
0.0
  0
SPLINE
  5
D1
330
76
100
AcDbEntity
  8
0
  6
Continuous
 62
     7
100
AcDbSpline
210
0.0
220
0.0
230
1.0
 70
  1064
 71
     3
 72
     9
 73
     5
 74
     3
 42
0.000000001
 43
0.0000000001
 44
0.00000001
 40
0.0
 40
0.0
 40
0.0
 40
0.0
 40
0.8262047424447794
 40
1.678011251002657
 40
1.678011251002657
 40
1.678011251002657
 40
1.678011251002657
 10
-83.31972133748619
 20
-98.08167526411968
 30
0.0
 10
-83.05790689566768
 20
-98.16741112994761
 30
0.0
 10
-82.52616511151159
 20
-98.34153955631612
 30
0.0
 10
-81.98347201328794
 20
-98.47778251781523
 30
0.0
 10
-81.70798547082111
 20
-98.5469433323605
 30
0.0
 11
-83.31972133748619
 21
-98.08167526411968
 31
0.0
 11
-82.53162308651243
 21
-98.32969829457996
 31
0.0
 11
-81.70798547082111
 21
-98.5469433323605
 31
0.0
  0
SPLINE
  5
D2
330
76
100
AcDbEntity
  8
0
  6
Continuous
 62
     7
100
AcDbSpline
210
0.0
220
0.0
230
1.0
 70
  1064
 71
     3
 72
     9
 73
     5
 74
     3
 42
0.000000001
 43
0.0000000001
 44
0.00000001
 40
0.0
 40
0.0
 40
0.0
 40
0.0
 40
0.8518065085578874
 40
1.678011251002671
 40
1.678011251002671
 40
1.678011251002671
 40
1.678011251002671
 10
-81.7079854708211
 20
-87.54694333236051
 30
0.0
 10
-81.98347201328797
 20
-87.61610414690576
 30
0.0
 10
-82.52616511151157
 20
-87.75234710840488
 30
0.0
 10
-83.05790689566766
 20
-87.92647553477342
 30
0.0
 10
-83.31972133748619
 20
-88.01221140060133
 30
0.0
 11
-81.7079854708211
 21
-87.54694333236051
 31
0.0
 11
-82.53162308651243
 21
-87.76418837014104
 31
0.0
 11
-83.31972133748619
 21
-88.01221140060133
 31
0.0
  0
SPLINE
  5
D3
330
76
100
AcDbEntity
  8
0
  6
Continuous
 62
     7
100
AcDbSpline
210
0.0
220
0.0
230
1.0
 70
  1064
 71
     3
 72
     9
 73
     5
 74
     3
 42
0.000000001
 43
0.0000000001
 44
0.00000001
 40
0.0
 40
0.0
 40
0.0
 40
0.0
 40
0.8262047424447836
 40
1.678011251002661
 40
1.678011251002661
 40
1.678011251002661
 40
1.678011251002661
 10
-69.54352483753769
 20
-88.01221140060134
 30
0.0
 10
-69.8053392793562
 20
-87.9264755347734
 30
0.0
 10
-70.33708106351233
 20
-87.75234710840493
 30
0.0
 10
-70.87977416173588
 20
-87.61610414690577
 30
0.0
 10
-71.15526070420276
 20
-87.54694333236051
 30
0.0
 11
-69.54352483753769
 21
-88.01221140060134
 31
0.0
 11
-70.33162308851145
 21
-87.76418837014106
 31
0.0
 11
-71.15526070420276
 21
-87.54694333236051
 31
0.0
  0
SPLINE
  5
D4
330
76
100
AcDbEntity
  8
0
  6
Continuous
 62
     7
100
AcDbSpline
210
0.0
220
0.0
230
1.0
 70
  1064
 71
     3
 72
     9
 73
     5
 74
     3
 42
0.000000001
 43
0.0000000001
 44
0.00000001
 40
0.0
 40
0.0
 40
0.0
 40
0.0
 40
0.8262047424447794
 40
1.678011251002653
 40
1.678011251002653
 40
1.678011251002653
 40
1.678011251002653
 10
-83.31972133748619
 20
-100.679751475473
 30
0.0
 10
-83.05790689566768
 20
-100.7654873413009
 30
0.0
 10
-82.52616511151157
 20
-100.9396157676694
 30
0.0
 10
-81.98347201328795
 20
-101.0758587291685
 30
0.0
 10
-81.70798547082111
 20
-101.1450195437138
 30
0.0
 11
-83.31972133748619
 21
-100.679751475473
 31
0.0
 11
-82.53162308651243
 21
-100.9277745059333
 31
0.0
 11
-81.70798547082111
 21
-101.1450195437138
 31
0.0
  0
SPLINE
  5
D5
330
76
100
AcDbEntity
  8
0
  6
Continuous
 62
     7
100
AcDbSpline
210
0.0
220
0.0
230
1.0
 70
  1064
 71
     3
 72
    23
 73
    19
 74
    17
 42
0.000000001
 43
0.0000000001
 44
0.00000001
 40
0.0
 40
0.0
 40
0.0
 40
0.0
 40
0.9941963909298241
 40
2.091285879278043
 40
3.356673562195705
 40
4.812933750390586
 40
6.450916029371786
 40
8.240461697006115
 40
10.13784788163798
 40
12.09111519736617
 40
14.04438251309437
 40
15.94176869772623
 40
17.73131436536055
 40
19.36929664434176
 40
20.82555683253665
 40
22.09094451545431
 40
23.18803400380254
 40
24.18223039473235
 40
24.18223039473235
 40
24.18223039473235
 40
24.18223039473235
 10
-66.43162308751195
 20
-100.8411719664205
 30
0.0
 10
-66.47211923325266
 20
-101.1740530986688
 30
0.0
 10
-66.5573026386096
 20
-101.8742664693179
 30
0.0
 10
-67.1958473385735
 20
-102.8334549470369
 30
0.0
 10
-68.13963205465373
 20
-103.6940153993967
 30
0.0
 10
-69.39841537712638
 20
-104.4394948641172
 30
0.0
 10
-70.91264744198841
 20
-105.0486071004893
 30
0.0
 10
-72.63348888408149
 20
-105.5006041325405
 30
0.0
 10
-74.49615796653218
 20
-105.7788425759757
 30
0.0
 10
-76.43162308751195
 20
-105.8727889423943
 30
0.0
 10
-78.36708820849177
 20
-105.7788425759757
 30
0.0
 10
-80.22975729094237
 20
-105.5006041325405
 30
0.0
 10
-81.9505987330355
 20
-105.0486071004893
 30
0.0
 10
-83.46483079789749
 20
-104.4394948641172
 30
0.0
 10
-84.72361412037019
 20
-103.6940153993967
 30
0.0
 10
-85.66739883645042
 20
-102.8334549470369
 30
0.0
 10
-86.3059435364143
 20
-101.8742664693179
 30
0.0
 10
-86.39112694177123
 20
-101.1740530986688
 30
0.0
 10
-86.43162308751195
 20
-100.8411719664205
 30
0.0
 11
-66.43162308751195
 21
-100.8411719664205
 31
0.0
 11
-66.62377074867241
 21
-101.8166235302348
 31
0.0
 11
-67.19282776239909
 21
-102.7545891282459
 31
0.0
 11
-68.11692735885788
 21
-103.6190229997632
 31
0.0
 11
-69.36055527564648
 21
-104.3767058723532
 31
0.0
 11
-70.87592102082647
 21
-104.9985198307475
 31
0.0
 11
-72.60478876386105
 21
-105.4605696289769
 31
0.0
 11
-74.48071995988327
 21
-105.7450981358403
 31
0.0
 11
-76.43162308751195
 21
-105.8411719664205
 31
0.0
 11
-78.38252621514064
 21
-105.7450981358403
 31
0.0
 11
-80.25845741116285
 21
-105.4605696289769
 31
0.0
 11
-81.98732515419744
 21
-104.9985198307475
 31
0.0
 11
-83.50269089937743
 21
-104.3767058723532
 31
0.0
 11
-84.74631881616604
 21
-103.6190229997632
 31
0.0
 11
-85.67041841262483
 21
-102.7545891282459
 31
0.0
 11
-86.23947542635149
 21
-101.8166235302348
 31
0.0
 11
-86.43162308751195
 21
-100.8411719664205
 31
0.0
  0
ENDBLK
  5
78
330
76
100
AcDbEntity
  8
0
100
AcDbBlockEnd
  0
BLOCK
  5
7B
330
79
100
AcDbEntity
  8
0
100
AcDbBlockBegin
  2
Allg1
 70
     0
 10
-76.42565599999995
 20
-96.93889
 30
0.0
  3
Allg1
  1

  0
INSERT
  5
7A
330
79
100
AcDbEntity
  8
0
100
AcDbBlockReference
  2
HC_M_BS_M20-select__1
 10
-88.63162308751195
 20
-105.8411719664205
 30
0.0
  0
MTEXT
  5
D7
330
79
100
AcDbEntity
  8
1
 62
     6
100
AcDbMText
 10
-76.43162326654407
 20
-111.3287593413329
 30
0.0
 40
2.5
 41
0.0
 71
     2
 72
     1
  1
 
  7
CONVERTER_11
 73
     1
 44
1.32052821128451
  0
ENDBLK
  5
7C
330
79
100
AcDbEntity
  8
0
100
AcDbBlockEnd
  0
BLOCK
  5
7E
330
7D
100
AcDbEntity
  8
0
100
AcDbBlockBegin
  2
HC_M_BS_M20-select__2
 70
     0
 10
-155.031622912488
 20
-98.00000370126234
 30
0.0
  3
HC_M_BS_M20-select__2
  1

  0
LINE
  5
D8
330
7D
100
AcDbEntity
  8
0
  6
Continuous
 62
     7
100
AcDbLine
 10
-154.9960835457714
 20
-87.93053983774398
 30
0.0
 11
-149.7197211624623
 21
-97.06946756478067
 31
0.0
  0
LINE
  5
D9
330
7D
100
AcDbEntity
  8
0
  6
Continuous
 62
     7
100
AcDbLine
 10
-149.7197211624622
 20
-76.93053983774399
 30
0.0
 11
-154.9960835457714
 21
-86.06946756478067
 31
0.0
  0
LINE
  5
DA
330
7D
100
AcDbEntity
  8
0
  6
Continuous
 62
     7
100
AcDbLine
 10
-137.5552605291788
 20
-76.00000370126234
 30
0.0
 11
-148.1079852957972
 21
-76.00000370126233
 31
0.0
  0
LINE
  5
DB
330
7D
100
AcDbEntity
  8
0
  6
Continuous
 62
     7
100
AcDbLine
 10
-130.6671622792046
 20
-86.06946756478071
 30
0.0
 11
-135.9435246625138
 21
-76.93053983774399
 31
0.0
  0
LINE
  5
DC
330
7D
100
AcDbEntity
  8
0
  6
Continuous
 62
     7
100
AcDbLine
 10
-148.1079852957972
 20
-98.00000370126233
 30
0.0
 11
-137.5552605291788
 21
-98.00000370126234
 31
0.0
  0
LINE
  5
DD
330
7D
100
AcDbEntity
  8
0
  6
Continuous
 62
     7
100
AcDbLine
 10
-135.9435246625138
 20
-97.0694675647807
 30
0.0
 11
-130.6671622792046
 21
-87.930539837744
 31
0.0
  0
ARC
  5
DE
330
7D
100
AcDbEntity
  8
0
  6
Continuous
 62
     7
100
AcDbCircle
 10
-142.831622912488
 20
-87.00000370126234
 30
0.0
 40
12.20000000000001
100
AcDbArc
 50
235.6256045527057
 51
244.3743954472939
  0
ARC
  5
DF
330
7D
100
AcDbEntity
  8
0
  6
Continuous
 62
     7
100
AcDbCircle
 10
-142.831622912488
 20
-87.00000370126234
 30
0.0
 40
12.19999999999999
100
AcDbArc
 50
175.6256045527058
 51
184.3743954472939
  0
ARC
  5
E0
330
7D
100
AcDbEntity
  8
0
  6
Continuous
 62
     7
100
AcDbCircle
 10
-142.831622912488
 20
-87.00000370126234
 30
0.0
 40
12.20000000000002
100
AcDbArc
 50
115.625604552706
 51
124.3743954472939
  0
ARC
  5
E1
330
7D
100
AcDbEntity
  8
0
  6
Continuous
 62
     7
100
AcDbCircle
 10
-142.831622912488
 20
-87.00000370126234
 30
0.0
 40
12.19999999999999
100
AcDbArc
 50
55.6256045527061
 51
64.37439544729396
  0
ARC
  5
E2
330
7D
100
AcDbEntity
  8
0
  6
Continuous
 62
     7
100
AcDbCircle
 10
-142.831622912488
 20
-87.00000370126234
 30
0.0
 40
12.19999999999999
100
AcDbArc
 50
355.6256045527059
 51
4.37439544729397
  0
ARC
  5
E3
330
7D
100
AcDbEntity
  8
0
  6
Continuous
 62
     7
100
AcDbCircle
 10
-142.831622912488
 20
-87.00000370126234
 30
0.0
 40
12.20000000000001
100
AcDbArc
 50
295.625604552706
 51
304.3743954472939
  0
ENDBLK
  5
7F
330
7D
100
AcDbEntity
  8
0
100
AcDbBlockEnd
  0
BLOCK
  5
82
330
80
100
AcDbEntity
  8
0
100
AcDbBlockBegin
  2
Drfsicht1
 70
     0
 10
-142.83759
 20
-87.010339
 30
0.0
  3
Drfsicht1
  1

  0
INSERT
  5
81
330
80
100
AcDbEntity
  8
0
100
AcDbBlockReference
  2
HC_M_BS_M20-select__2
 10
-155.031622912488
 20
-98.00000370126234
 30
0.0
  0
MTEXT
  5
E4
330
80
100
AcDbEntity
  8
1
 62
     6
100
AcDbMText
 10
-142.8316228893283
 20
-103.5000057220696
 30
0.0
 40
2.5
 41
0.0
 71
     2
 72
     1
  1
 
  7
CONVERTER_11
 73
     1
 44
1.32052821128451
  0
DIMENSION
  5
EF
330
80
100
AcDbEntity
  8
1
100
AcDbDimension
  2
*D17
 10
-160.031622912488
 20
-76.00000370126233
 30
0.0
 11
-161.656622912488
 21
-87.00000370126233
 31
0.0
 70
    32
  1
<>
 71
     5
 42
-1.0
 53
90.0
  3
ME10_DIM_10
100
AcDbAlignedDimension
 13
-148.1079852957972
 23
-98.00000370126233
 33
0.0
 14
-148.1079852957972
 24
-76.00000370126233
 34
0.0
 50
90.0
100
AcDbRotatedDimension
  0
INSERT
  5
F9
330
80
100
AcDbEntity
  8
1
100
AcDbBlockReference
  2
*D18
 10
0.0
 20
0.0
 30
0.0
  0
ENDBLK
  5
83
330
80
100
AcDbEntity
  8
0
100
AcDbBlockEnd
  0
BLOCK
  5
85
330
84
100
AcDbEntity
  8
0
100
AcDbBlockBegin
  2
HC_M_BS_M20-select__3
 70
     0
 10
-88.63162291248797
 20
-59.50000000002502
 30
0.0
  3
HC_M_BS_M20-select__3
  1

  0
LINE
  5
FA
330
84
100
AcDbEntity
  8
0
  6
Continuous
 62
     7
100
AcDbLine
 10
-71.1552605291788
 20
-50.50000000002502
 30
0.0
 11
-69.54352466251373
 21
-50.50000000002502
 31
0.0
  0
LINE
  5
FB
330
84
100
AcDbEntity
  8
0
  6
Continuous
 62
     7
100
AcDbLine
 10
-69.54352466251373
 20
-50.50000000002502
 30
0.0
 11
-64.26716227920456
 21
-50.50000000002502
 31
0.0
  0
LINE
  5
FC
330
84
100
AcDbEntity
  8
0
  6
Continuous
 62
     7
100
AcDbLine
 10
-81.70798529579716
 20
-50.50000000002501
 30
0.0
 11
-71.1552605291788
 21
-50.50000000002502
 31
0.0
  0
LINE
  5
FD
330
84
100
AcDbEntity
  8
0
  6
Continuous
 62
     7
100
AcDbLine
 10
-71.1552605291788
 20
-50.50000000002502
 30
0.0
 11
-71.1552605291788
 21
-53.50000000002502
 31
0.0
  0
LINE
  5
FE
330
84
100
AcDbEntity
  8
0
  6
Continuous
 62
     7
100
AcDbLine
 10
-64.23162291248796
 20
-53.50000000002502
 30
0.0
 11
-64.26716227920456
 21
-53.50000000002502
 31
0.0
  0
LINE
  5
FF
330
84
100
AcDbEntity
  8
0
  6
Continuous
 62
     7
100
AcDbLine
 10
-64.26716227920456
 20
-50.50000000002502
 30
0.0
 11
-64.23162291248796
 21
-50.50000000002502
 31
0.0
  0
LINE
  5
100
330
84
100
AcDbEntity
  8
0
  6
Continuous
 62
     7
100
AcDbLine
 10
-64.26716227920456
 20
-50.50000000002502
 30
0.0
 11
-64.26716227920456
 21
-53.50000000002502
 31
0.0
  0
LINE
  5
101
330
84
100
AcDbEntity
  8
0
  6
Continuous
 62
     7
100
AcDbLine
 10
-64.23162291248796
 20
-53.50000000002502
 30
0.0
 11
-64.23162291248796
 21
-50.50000000002502
 31
0.0
  0
LINE
  5
102
330
84
100
AcDbEntity
  8
0
  6
Continuous
 62
     7
100
AcDbLine
 10
-66.43162291248797
 20
-53.50000000002502
 30
0.0
 11
-66.43162291248797
 21
-59.50000000002502
 31
0.0
  0
LINE
  5
103
330
84
100
AcDbEntity
  8
0
  6
Continuous
 62
     7
100
AcDbLine
 10
-88.59608354577138
 20
-53.50000000002501
 30
0.0
 11
-88.63162291248797
 21
-53.50000000002501
 31
0.0
  0
LINE
  5
104
330
84
100
AcDbEntity
  8
0
  6
Continuous
 62
     7
100
AcDbLine
 10
-86.43162291248797
 20
-53.50000000002501
 30
0.0
 11
-83.31972116246222
 21
-53.50000000002501
 31
0.0
  0
LINE
  5
105
330
84
100
AcDbEntity
  8
0
  6
Continuous
 62
     7
100
AcDbLine
 10
-83.31972116246222
 20
-53.50000000002501
 30
0.0
 11
-81.70798529579716
 21
-53.50000000002501
 31
0.0
  0
LINE
  5
106
330
84
100
AcDbEntity
  8
0
  6
Continuous
 62
     7
100
AcDbLine
 10
-88.59608354577138
 20
-53.50000000002501
 30
0.0
 11
-86.43162291248797
 21
-53.50000000002501
 31
0.0
  0
LINE
  5
107
330
84
100
AcDbEntity
  8
0
  6
Continuous
 62
     7
100
AcDbLine
 10
-69.54352466251373
 20
-53.50000000002502
 30
0.0
 11
-71.1552605291788
 21
-53.50000000002502
 31
0.0
  0
LINE
  5
108
330
84
100
AcDbEntity
  8
0
  6
Continuous
 62
     7
100
AcDbLine
 10
-81.70798529579716
 20
-53.50000000002501
 30
0.0
 11
-71.1552605291788
 21
-53.50000000002502
 31
0.0
  0
LINE
  5
109
330
84
100
AcDbEntity
  8
0
  6
Continuous
 62
     7
100
AcDbLine
 10
-83.31972116246222
 20
-50.50000000002501
 30
0.0
 11
-83.31972116246222
 21
-53.50000000002501
 31
0.0
  0
LINE
  5
10A
330
84
100
AcDbEntity
  8
0
  6
Continuous
 62
     7
100
AcDbLine
 10
-81.70798529579716
 20
-53.50000000002501
 30
0.0
 11
-81.70798529579716
 21
-50.50000000002501
 31
0.0
  0
LINE
  5
10B
330
84
100
AcDbEntity
  8
0
  6
Continuous
 62
     7
100
AcDbLine
 10
-88.59608354577138
 20
-53.50000000002501
 30
0.0
 11
-88.59608354577138
 21
-50.50000000002501
 31
0.0
  0
LINE
  5
10C
330
84
100
AcDbEntity
  8
0
  6
Continuous
 62
     7
100
AcDbLine
 10
-88.63162291248797
 20
-53.50000000002501
 30
0.0
 11
-88.63162291248797
 21
-50.50000000002501
 31
0.0
  0
LINE
  5
10D
330
84
100
AcDbEntity
  8
0
  6
Continuous
 62
     7
100
AcDbLine
 10
-86.43162291248797
 20
-53.50000000002501
 30
0.0
 11
-86.43162291248797
 21
-59.50000000002502
 31
0.0
  0
LINE
  5
10E
330
84
100
AcDbEntity
  8
0
  6
Continuous
 62
     7
100
AcDbLine
 10
-66.43162291248797
 20
-53.50000000002502
 30
0.0
 11
-64.26716227920456
 21
-53.50000000002502
 31
0.0
  0
LINE
  5
10F
330
84
100
AcDbEntity
  8
0
  6
Continuous
 62
     7
100
AcDbLine
 10
-69.54352466251373
 20
-53.50000000002502
 30
0.0
 11
-66.43162291248797
 21
-53.50000000002502
 31
0.0
  0
LINE
  5
110
330
84
100
AcDbEntity
  8
0
  6
Continuous
 62
     7
100
AcDbLine
 10
-69.54352466251373
 20
-53.50000000002502
 30
0.0
 11
-69.54352466251373
 21
-50.50000000002502
 31
0.0
  0
LINE
  5
111
330
84
100
AcDbEntity
  8
0
  6
Continuous
 62
     7
100
AcDbLine
 10
-88.59608354577138
 20
-50.50000000002501
 30
0.0
 11
-83.31972116246222
 21
-50.50000000002501
 31
0.0
  0
LINE
  5
112
330
84
100
AcDbEntity
  8
0
  6
Continuous
 62
     7
100
AcDbLine
 10
-83.31972116246222
 20
-50.50000000002501
 30
0.0
 11
-81.70798529579716
 21
-50.50000000002501
 31
0.0
  0
LINE
  5
113
330
84
100
AcDbEntity
  8
0
  6
Continuous
 62
     7
100
AcDbLine
 10
-88.63162291248797
 20
-50.50000000002501
 30
0.0
 11
-88.59608354577138
 21
-50.50000000002501
 31
0.0
  0
LINE
  5
114
330
84
100
AcDbEntity
  8
0
  6
Continuous
 62
     7
100
AcDbLine
 10
-66.43162291248797
 20
-59.50000000002502
 30
0.0
 11
-86.43162291248797
 21
-59.50000000002502
 31
0.0
  0
LINE
  5
115
330
84
100
AcDbEntity
  8
1
  6
DOT_CENTER
 62
     2
100
AcDbLine
 10
-76.43162291248797
 20
-53.50000000002501
 30
0.0
 11
-76.43162291248797
 21
-59.50000000002502
 31
0.0
  0
ENDBLK
  5
86
330
84
100
AcDbEntity
  8
0
100
AcDbBlockEnd
  0
BLOCK
  5
89
330
87
100
AcDbEntity
  8
0
100
AcDbBlockBegin
  2
Rckans1
 70
     0
 10
-76.42565582497596
 20
-55.00000000000001
 30
0.0
  3
Rckans1
  1

  0
INSERT
  5
88
330
87
100
AcDbEntity
  8
0
100
AcDbBlockReference
  2
HC_M_BS_M20-select__3
 10
-88.63162291248797
 20
-59.50000000002502
 30
0.0
  0
MTEXT
  5
116
330
87
100
AcDbEntity
  8
1
 62
     6
100
AcDbMText
 10
-76.43162282496345
 20
-63.00000190741116
 30
0.0
 40
2.5
 41
0.0
 71
     2
 72
     1
  1
 
  7
CONVERTER_11
 73
     1
 44
1.32052821128451
  0
ENDBLK
  5
8A
330
87
100
AcDbEntity
  8
0
100
AcDbBlockEnd
  0
BLOCK
  5
8C
330
8B
100
AcDbEntity
  8
0
100
AcDbBlockBegin
  2
HC_M_BS_M20-select__4
 70
     0
 10
-120.6316229124879
 20
-59.500000000025
 30
0.0
  3
HC_M_BS_M20-select__4
  1

  0
LINE
  5
117
330
8B
100
AcDbEntity
  8
0
  6
Continuous
 62
     7
100
AcDbLine
 10
-119.7010867760063
 20
-53.500000000025
 30
0.0
 11
-120.6316229124879
 21
-53.500000000025
 31
0.0
  0
LINE
  5
118
330
8B
100
AcDbEntity
  8
0
  6
Continuous
 62
     7
100
AcDbLine
 10
-119.6316229124879
 20
-53.500000000025
 30
0.0
 11
-119.6316229124879
 21
-59.500000000025
 31
0.0
  0
LINE
  5
119
330
8B
100
AcDbEntity
  8
0
  6
Continuous
 62
     7
100
AcDbLine
 10
-119.7010867760063
 20
-53.500000000025
 30
0.0
 11
-119.7010867760063
 21
-50.500000000025
 31
0.0
  0
LINE
  5
11A
330
8B
100
AcDbEntity
  8
0
  6
Continuous
 62
     7
100
AcDbLine
 10
-120.6316229124879
 20
-50.500000000025
 30
0.0
 11
-120.6316229124879
 21
-53.500000000025
 31
0.0
  0
LINE
  5
11B
330
8B
100
AcDbEntity
  8
0
  6
Continuous
 62
     7
100
AcDbLine
 10
-99.63162291248793
 20
-59.500000000025
 30
0.0
 11
-104.631622912488
 21
-59.500000000025
 31
0.0
  0
LINE
  5
11C
330
8B
100
AcDbEntity
  8
0
  6
Continuous
 62
     7
100
AcDbLine
 10
-99.63162291248793
 20
-53.500000000025
 30
0.0
 11
-99.63162291248793
 21
-59.500000000025
 31
0.0
  0
LINE
  5
11D
330
8B
100
AcDbEntity
  8
0
  6
Continuous
 62
     7
100
AcDbLine
 10
-98.63162291248796
 20
-53.500000000025
 30
0.0
 11
-99.5621590489696
 21
-53.500000000025
 31
0.0
  0
LINE
  5
11E
330
8B
100
AcDbEntity
  8
0
  6
Continuous
 62
     7
100
AcDbLine
 10
-98.63162291248796
 20
-53.500000000025
 30
0.0
 11
-98.63162291248796
 21
-50.500000000025
 31
0.0
  0
LINE
  5
11F
330
8B
100
AcDbEntity
  8
0
  6
Continuous
 62
     7
100
AcDbLine
 10
-99.56215904896962
 20
-50.500000000025
 30
0.0
 11
-98.63162291248796
 21
-50.500000000025
 31
0.0
  0
LINE
  5
120
330
8B
100
AcDbEntity
  8
0
  6
Continuous
 62
     7
100
AcDbLine
 10
-110.5621590489696
 20
-50.500000000025
 30
0.0
 11
-108.7010867760063
 21
-50.500000000025
 31
0.0
  0
LINE
  5
121
330
8B
100
AcDbEntity
  8
0
  6
Continuous
 62
     7
100
AcDbLine
 10
-108.7010867760063
 20
-50.500000000025
 30
0.0
 11
-99.56215904896962
 21
-50.500000000025
 31
0.0
  0
LINE
  5
122
330
8B
100
AcDbEntity
  8
0
  6
Continuous
 62
     7
100
AcDbLine
 10
-119.7010867760063
 20
-50.500000000025
 30
0.0
 11
-110.5621590489696
 21
-50.500000000025
 31
0.0
  0
LINE
  5
123
330
8B
100
AcDbEntity
  8
0
  6
Continuous
 62
     7
100
AcDbLine
 10
-120.6316229124879
 20
-50.500000000025
 30
0.0
 11
-119.7010867760063
 21
-50.500000000025
 31
0.0
  0
LINE
  5
124
330
8B
100
AcDbEntity
  8
0
  6
Continuous
 62
     7
100
AcDbLine
 10
-99.56215904896962
 20
-50.500000000025
 30
0.0
 11
-99.5621590489696
 21
-53.500000000025
 31
0.0
  0
LINE
  5
125
330
8B
100
AcDbEntity
  8
0
  6
Continuous
 62
     7
100
AcDbLine
 10
-108.7010867760063
 20
-53.500000000025
 30
0.0
 11
-108.7010867760063
 21
-50.500000000025
 31
0.0
  0
LINE
  5
126
330
8B
100
AcDbEntity
  8
0
  6
Continuous
 62
     7
100
AcDbLine
 10
-110.5621590489696
 20
-50.500000000025
 30
0.0
 11
-110.5621590489696
 21
-53.500000000025
 31
0.0
  0
LINE
  5
127
330
8B
100
AcDbEntity
  8
0
  6
Continuous
 62
     7
100
AcDbLine
 10
-99.63162291248793
 20
-53.500000000025
 30
0.0
 11
-99.5621590489696
 21
-53.500000000025
 31
0.0
  0
LINE
  5
128
330
8B
100
AcDbEntity
  8
0
  6
Continuous
 62
     7
100
AcDbLine
 10
-108.7010867760063
 20
-53.500000000025
 30
0.0
 11
-110.5621590489696
 21
-53.500000000025
 31
0.0
  0
LINE
  5
129
330
8B
100
AcDbEntity
  8
0
  6
Continuous
 62
     7
100
AcDbLine
 10
-108.7010867760063
 20
-53.500000000025
 30
0.0
 11
-99.63162291248793
 21
-53.500000000025
 31
0.0
  0
LINE
  5
12A
330
8B
100
AcDbEntity
  8
0
  6
Continuous
 62
     7
100
AcDbLine
 10
-119.6316229124879
 20
-53.500000000025
 30
0.0
 11
-110.5621590489696
 21
-53.500000000025
 31
0.0
  0
LINE
  5
12B
330
8B
100
AcDbEntity
  8
0
  6
Continuous
 62
     7
100
AcDbLine
 10
-119.7010867760063
 20
-53.500000000025
 30
0.0
 11
-119.6316229124879
 21
-53.500000000025
 31
0.0
  0
LINE
  5
12C
330
8B
100
AcDbEntity
  8
0
  6
Continuous
 62
     7
100
AcDbLine
 10
-104.631622912488
 20
-59.500000000025
 30
0.0
 11
-119.6316229124879
 21
-59.500000000025
 31
0.0
  0
LINE
  5
12D
330
8B
100
AcDbEntity
  8
1
  6
DOT_CENTER
 62
     2
100
AcDbLine
 10
-109.6316229124879
 20
-53.500000000025
 30
0.0
 11
-109.6316229124879
 21
-59.500000000025
 31
0.0
  0
ENDBLK
  5
8D
330
8B
100
AcDbEntity
  8
0
100
AcDbBlockEnd
  0
BLOCK
  5
90
330
8E
100
AcDbEntity
  8
0
100
AcDbBlockBegin
  2
SA_Links1
 70
     0
 10
-109.6212876137503
 20
-55.0
 30
0.0
  3
SA_Links1
  1

  0
INSERT
  5
8F
330
8E
100
AcDbEntity
  8
0
100
AcDbBlockReference
  2
HC_M_BS_M20-select__4
 10
-120.6316229124879
 20
-59.500000000025
 30
0.0
  0
MTEXT
  5
12E
330
8E
100
AcDbEntity
  8
1
 62
     6
100
AcDbMText
 10
-109.6316224467578
 20
-63.00000190737364
 30
0.0
 40
2.5
 41
0.0
 71
     2
 72
     1
  1
 
  7
CONVERTER_11
 73
     1
 44
1.32052821128451
  0
ENDBLK
  5
91
330
8E
100
AcDbEntity
  8
0
100
AcDbBlockEnd
  0
BLOCK
  5
93
330
92
100
AcDbEntity
  8
0
100
AcDbBlockBegin
  2
HC_M_BS_M20-select__5
 70
     0
 10
-192.031622912488
 20
-59.50000000002502
 30
0.0
  3
HC_M_BS_M20-select__5
  1

  0
LINE
  5
12F
330
92
100
AcDbEntity
  8
0
  6
Continuous
 62
     7
100
AcDbLine
 10
-170.9621590489697
 20
-50.50000000002501
 30
0.0
 11
-170.031622912488
 21
-50.50000000002501
 31
0.0
  0
LINE
  5
130
330
92
100
AcDbEntity
  8
0
  6
Continuous
 62
     7
100
AcDbLine
 10
-180.1010867760064
 20
-50.50000000002501
 30
0.0
 11
-170.9621590489697
 21
-50.50000000002501
 31
0.0
  0
LINE
  5
131
330
92
100
AcDbEntity
  8
0
  6
Continuous
 62
     7
100
AcDbLine
 10
-170.031622912488
 20
-53.50000000002501
 30
0.0
 11
-170.031622912488
 21
-50.50000000002501
 31
0.0
  0
LINE
  5
132
330
92
100
AcDbEntity
  8
0
  6
Continuous
 62
     7
100
AcDbLine
 10
-191.1010867760064
 20
-53.50000000002501
 30
0.0
 11
-191.1010867760064
 21
-50.50000000002501
 31
0.0
  0
LINE
  5
133
330
92
100
AcDbEntity
  8
0
  6
Continuous
 62
     7
100
AcDbLine
 10
-191.031622912488
 20
-53.50000000002502
 30
0.0
 11
-191.031622912488
 21
-59.50000000002502
 31
0.0
  0
LINE
  5
134
330
92
100
AcDbEntity
  8
0
  6
Continuous
 62
     7
100
AcDbLine
 10
-181.9621590489697
 20
-50.50000000002501
 30
0.0
 11
-180.1010867760064
 21
-50.50000000002501
 31
0.0
  0
LINE
  5
135
330
92
100
AcDbEntity
  8
0
  6
Continuous
 62
     7
100
AcDbLine
 10
-192.031622912488
 20
-50.50000000002501
 30
0.0
 11
-191.1010867760064
 21
-50.50000000002501
 31
0.0
  0
LINE
  5
136
330
92
100
AcDbEntity
  8
0
  6
Continuous
 62
     7
100
AcDbLine
 10
-191.1010867760064
 20
-50.50000000002501
 30
0.0
 11
-181.9621590489697
 21
-50.50000000002501
 31
0.0
  0
LINE
  5
137
330
92
100
AcDbEntity
  8
0
  6
Continuous
 62
     7
100
AcDbLine
 10
-180.1010867760064
 20
-53.50000000002501
 30
0.0
 11
-180.1010867760064
 21
-50.50000000002501
 31
0.0
  0
LINE
  5
138
330
92
100
AcDbEntity
  8
0
  6
Continuous
 62
     7
100
AcDbLine
 10
-191.1010867760064
 20
-53.50000000002501
 30
0.0
 11
-191.031622912488
 21
-53.50000000002502
 31
0.0
  0
LINE
  5
139
330
92
100
AcDbEntity
  8
0
  6
Continuous
 62
     7
100
AcDbLine
 10
-180.1010867760064
 20
-53.50000000002501
 30
0.0
 11
-181.9621590489697
 21
-53.50000000002501
 31
0.0
  0
LINE
  5
13A
330
92
100
AcDbEntity
  8
0
  6
Continuous
 62
     7
100
AcDbLine
 10
-191.1010867760064
 20
-53.50000000002501
 30
0.0
 11
-192.031622912488
 21
-53.50000000002501
 31
0.0
  0
LINE
  5
13B
330
92
100
AcDbEntity
  8
0
  6
Continuous
 62
     7
100
AcDbLine
 10
-191.031622912488
 20
-53.50000000002502
 30
0.0
 11
-181.9621590489697
 21
-53.50000000002501
 31
0.0
  0
LINE
  5
13C
330
92
100
AcDbEntity
  8
0
  6
Continuous
 62
     7
100
AcDbLine
 10
-192.031622912488
 20
-50.50000000002501
 30
0.0
 11
-192.031622912488
 21
-53.50000000002501
 31
0.0
  0
LINE
  5
13D
330
92
100
AcDbEntity
  8
0
  6
Continuous
 62
     7
100
AcDbLine
 10
-181.9621590489697
 20
-50.50000000002501
 30
0.0
 11
-181.9621590489697
 21
-53.50000000002501
 31
0.0
  0
LINE
  5
13E
330
92
100
AcDbEntity
  8
0
  6
Continuous
 62
     7
100
AcDbLine
 10
-170.9621590489697
 20
-50.50000000002501
 30
0.0
 11
-170.9621590489697
 21
-53.50000000002501
 31
0.0
  0
LINE
  5
13F
330
92
100
AcDbEntity
  8
0
  6
Continuous
 62
     7
100
AcDbLine
 10
-171.031622912488
 20
-53.50000000002501
 30
0.0
 11
-171.031622912488
 21
-59.50000000002502
 31
0.0
  0
LINE
  5
140
330
92
100
AcDbEntity
  8
0
  6
Continuous
 62
     7
100
AcDbLine
 10
-170.9621590489697
 20
-53.50000000002501
 30
0.0
 11
-170.031622912488
 21
-53.50000000002501
 31
0.0
  0
LINE
  5
141
330
92
100
AcDbEntity
  8
0
  6
Continuous
 62
     7
100
AcDbLine
 10
-171.031622912488
 20
-53.50000000002501
 30
0.0
 11
-170.9621590489697
 21
-53.50000000002501
 31
0.0
  0
LINE
  5
142
330
92
100
AcDbEntity
  8
0
  6
Continuous
 62
     7
100
AcDbLine
 10
-180.1010867760064
 20
-53.50000000002501
 30
0.0
 11
-171.031622912488
 21
-53.50000000002501
 31
0.0
  0
LINE
  5
143
330
92
100
AcDbEntity
  8
0
  6
Continuous
 62
     7
100
AcDbLine
 10
-171.031622912488
 20
-59.50000000002502
 30
0.0
 11
-191.031622912488
 21
-59.50000000002502
 31
0.0
  0
LINE
  5
144
330
92
100
AcDbEntity
  8
1
  6
DOT_CENTER
 62
     2
100
AcDbLine
 10
-181.031622912488
 20
-53.50000000002501
 30
0.0
 11
-181.031622912488
 21
-59.50000000002502
 31
0.0
  0
ENDBLK
  5
94
330
92
100
AcDbEntity
  8
0
100
AcDbBlockEnd
  0
BLOCK
  5
97
330
95
100
AcDbEntity
  8
0
100
AcDbBlockBegin
  2
SA_Rechts1
 70
     0
 10
-181.0419582112257
 20
-55.00000000000001
 30
0.0
  3
SA_Rechts1
  1

  0
INSERT
  5
96
330
95
100
AcDbEntity
  8
0
100
AcDbBlockReference
  2
HC_M_BS_M20-select__5
 10
-192.031622912488
 20
-59.50000000002502
 30
0.0
  0
MTEXT
  5
145
330
95
100
AcDbEntity
  8
1
 62
     6
100
AcDbMText
 10
-181.031622508446
 20
-63.00000190737364
 30
0.0
 40
2.5
 41
0.0
 71
     2
 72
     1
  1
 
  7
CONVERTER_11
 73
     1
 44
1.32052821128451
  0
ENDBLK
  5
98
330
95
100
AcDbEntity
  8
0
100
AcDbBlockEnd
  0
BLOCK
  5
9A
330
99
100
AcDbEntity
  8
0
100
AcDbBlockBegin
  2
HC_M_BS_M20-select__6
 70
     0
 10
-155.031622912488
 20
-59.50000000002502
 30
0.0
  3
HC_M_BS_M20-select__6
  1

  0
LINE
  5
146
330
99
100
AcDbEntity
  8
0
  6
Continuous
 62
     7
100
AcDbLine
 10
-137.5552605291788
 20
-50.50000000002502
 30
0.0
 11
-135.9435246625138
 21
-50.50000000002501
 31
0.0
  0
LINE
  5
147
330
99
100
AcDbEntity
  8
0
  6
Continuous
 62
     7
100
AcDbLine
 10
-149.7197211624622
 20
-50.50000000002502
 30
0.0
 11
-148.1079852957972
 21
-50.50000000002502
 31
0.0
  0
LINE
  5
148
330
99
100
AcDbEntity
  8
0
  6
Continuous
 62
     7
100
AcDbLine
 10
-155.031622912488
 20
-50.50000000002502
 30
0.0
 11
-154.9960835457714
 21
-50.50000000002502
 31
0.0
  0
LINE
  5
149
330
99
100
AcDbEntity
  8
0
  6
Continuous
 62
     7
100
AcDbLine
 10
-154.9960835457714
 20
-50.50000000002502
 30
0.0
 11
-149.7197211624622
 21
-50.50000000002502
 31
0.0
  0
LINE
  5
14A
330
99
100
AcDbEntity
  8
0
  6
Continuous
 62
     7
100
AcDbLine
 10
-148.1079852957972
 20
-50.50000000002502
 30
0.0
 11
-137.5552605291788
 21
-50.50000000002502
 31
0.0
  0
LINE
  5
14B
330
99
100
AcDbEntity
  8
0
  6
Continuous
 62
     7
100
AcDbLine
 10
-135.9435246625138
 20
-50.50000000002501
 30
0.0
 11
-130.6671622792046
 21
-50.50000000002501
 31
0.0
  0
LINE
  5
14C
330
99
100
AcDbEntity
  8
0
  6
Continuous
 62
     7
100
AcDbLine
 10
-152.831622912488
 20
-53.50000000002502
 30
0.0
 11
-152.831622912488
 21
-59.50000000002502
 31
0.0
  0
LINE
  5
14D
330
99
100
AcDbEntity
  8
0
  6
Continuous
 62
     7
100
AcDbLine
 10
-151.4918769503324
 20
-59.50000000002502
 30
0.0
 11
-152.831622912488
 21
-59.50000000002502
 31
0.0
  0
LINE
  5
14E
330
99
100
AcDbEntity
  8
0
  6
Continuous
 62
     7
100
AcDbLine
 10
-135.9435246625137
 20
-53.50000000002501
 30
0.0
 11
-132.831622912488
 21
-53.50000000002501
 31
0.0
  0
LINE
  5
14F
330
99
100
AcDbEntity
  8
0
  6
Continuous
 62
     7
100
AcDbLine
 10
-130.631622912488
 20
-53.50000000002501
 30
0.0
 11
-130.6671622792046
 21
-53.50000000002501
 31
0.0
  0
LINE
  5
150
330
99
100
AcDbEntity
  8
0
  6
Continuous
 62
     7
100
AcDbLine
 10
-148.1079852957972
 20
-53.50000000002502
 30
0.0
 11
-149.7197211624622
 21
-53.50000000002502
 31
0.0
  0
LINE
  5
151
330
99
100
AcDbEntity
  8
0
  6
Continuous
 62
     7
100
AcDbLine
 10
-135.9435246625137
 20
-53.50000000002501
 30
0.0
 11
-137.5552605291788
 21
-53.50000000002502
 31
0.0
  0
LINE
  5
152
330
99
100
AcDbEntity
  8
0
  6
Continuous
 62
     7
100
AcDbLine
 10
-148.1079852957972
 20
-53.50000000002502
 30
0.0
 11
-137.5552605291788
 21
-53.50000000002502
 31
0.0
  0
LINE
  5
153
330
99
100
AcDbEntity
  8
0
  6
Continuous
 62
     7
100
AcDbLine
 10
-130.6671622792046
 20
-50.50000000002501
 30
0.0
 11
-130.631622912488
 21
-50.50000000002501
 31
0.0
  0
LINE
  5
154
330
99
100
AcDbEntity
  8
0
  6
Continuous
 62
     7
100
AcDbLine
 10
-132.831622912488
 20
-53.50000000002501
 30
0.0
 11
-130.6671622792046
 21
-53.50000000002501
 31
0.0
  0
LINE
  5
155
330
99
100
AcDbEntity
  8
0
  6
Continuous
 62
     7
100
AcDbLine
 10
-132.831622912488
 20
-53.50000000002501
 30
0.0
 11
-132.831622912488
 21
-59.50000000002502
 31
0.0
  0
LINE
  5
156
330
99
100
AcDbEntity
  8
0
  6
Continuous
 62
     7
100
AcDbLine
 10
-135.9435246625137
 20
-53.50000000002501
 30
0.0
 11
-135.9435246625138
 21
-50.50000000002501
 31
0.0
  0
LINE
  5
157
330
99
100
AcDbEntity
  8
0
  6
Continuous
 62
     7
100
AcDbLine
 10
-130.6671622792046
 20
-50.50000000002501
 30
0.0
 11
-130.6671622792046
 21
-53.50000000002501
 31
0.0
  0
LINE
  5
158
330
99
100
AcDbEntity
  8
0
  6
Continuous
 62
     7
100
AcDbLine
 10
-130.631622912488
 20
-53.50000000002501
 30
0.0
 11
-130.631622912488
 21
-50.50000000002501
 31
0.0
  0
LINE
  5
159
330
99
100
AcDbEntity
  8
0
  6
Continuous
 62
     7
100
AcDbLine
 10
-154.9960835457714
 20
-53.50000000002502
 30
0.0
 11
-152.831622912488
 21
-53.50000000002502
 31
0.0
  0
LINE
  5
15A
330
99
100
AcDbEntity
  8
0
  6
Continuous
 62
     7
100
AcDbLine
 10
-154.9960835457714
 20
-53.50000000002502
 30
0.0
 11
-155.031622912488
 21
-53.50000000002502
 31
0.0
  0
LINE
  5
15B
330
99
100
AcDbEntity
  8
0
  6
Continuous
 62
     7
100
AcDbLine
 10
-152.831622912488
 20
-53.50000000002502
 30
0.0
 11
-149.7197211624622
 21
-53.50000000002502
 31
0.0
  0
LINE
  5
15C
330
99
100
AcDbEntity
  8
0
  6
Continuous
 62
     7
100
AcDbLine
 10
-154.9960835457714
 20
-53.50000000002502
 30
0.0
 11
-154.9960835457714
 21
-50.50000000002502
 31
0.0
  0
LINE
  5
15D
330
99
100
AcDbEntity
  8
0
  6
Continuous
 62
     7
100
AcDbLine
 10
-149.7197211624622
 20
-50.50000000002502
 30
0.0
 11
-149.7197211624622
 21
-53.50000000002502
 31
0.0
  0
LINE
  5
15E
330
99
100
AcDbEntity
  8
0
  6
Continuous
 62
     7
100
AcDbLine
 10
-155.031622912488
 20
-53.50000000002502
 30
0.0
 11
-155.031622912488
 21
-50.50000000002502
 31
0.0
  0
LINE
  5
15F
330
99
100
AcDbEntity
  8
0
  6
Continuous
 62
     7
100
AcDbLine
 10
-148.1079852957972
 20
-53.50000000002502
 30
0.0
 11
-148.1079852957972
 21
-50.50000000002502
 31
0.0
  0
LINE
  5
160
330
99
100
AcDbEntity
  8
0
  6
Continuous
 62
     7
100
AcDbLine
 10
-137.5552605291788
 20
-50.50000000002502
 30
0.0
 11
-137.5552605291788
 21
-53.50000000002502
 31
0.0
  0
LINE
  5
161
330
99
100
AcDbEntity
  8
0
  6
Continuous
 62
     7
100
AcDbLine
 10
-132.831622912488
 20
-59.50000000002502
 30
0.0
 11
-151.4918769503324
 21
-59.50000000002502
 31
0.0
  0
LINE
  5
162
330
99
100
AcDbEntity
  8
1
  6
DOT_CENTER
 62
     2
100
AcDbLine
 10
-142.831622912488
 20
-53.50000000002501
 30
0.0
 11
-142.831622912488
 21
-59.50000000002502
 31
0.0
  0
ENDBLK
  5
9B
330
99
100
AcDbEntity
  8
0
100
AcDbBlockEnd
  0
BLOCK
  5
9E
330
9C
100
AcDbEntity
  8
0
100
AcDbBlockBegin
  2
Vordans1
 70
     0
 10
-142.83759
 20
-55.00000000000001
 30
0.0
  3
Vordans1
  1

  0
INSERT
  5
9D
330
9C
100
AcDbEntity
  8
0
100
AcDbBlockReference
  2
HC_M_BS_M20-select__6
 10
-155.031622912488
 20
-59.50000000002502
 30
0.0
  0
MTEXT
  5
163
330
9C
100
AcDbEntity
  8
1
 62
     6
100
AcDbMText
 10
-142.8316228893283
 20
-63.00000190737364
 30
0.0
 40
2.5
 41
0.0
 71
     2
 72
     1
  1
 
  7
CONVERTER_11
 73
     1
 44
1.32052821128451
  0
DIMENSION
  5
16E
330
9C
100
AcDbEntity
  8
1
100
AcDbDimension
  2
*D19
 10
-160.031622912488
 20
-50.50000000002502
 30
0.0
 11
-161.656622912488
 21
-55.00000000002502
 31
0.0
 70
    32
  1
<>
 71
     5
 42
-1.0
 53
90.00000000000001
  3
ME10_DIM_11
100
AcDbAlignedDimension
 13
-152.831622912488
 23
-59.50000000002502
 33
0.0
 14
-155.031622912488
 24
-50.50000000002502
 34
0.0
 50
90.00000000000001
100
AcDbRotatedDimension
  0
ENDBLK
  5
9F
330
9C
100
AcDbEntity
  8
0
100
AcDbBlockEnd
  0
BLOCK
  5
A1
330
A0
100
AcDbEntity
  8
0
100
AcDbBlockBegin
  2
_rahmen
 70
     0
 10
-112.7632458249759
 20
-266.5000057220947
 30
0.0
  3
_rahmen
  1

  0
LINE
  5
16F
330
A0
100
AcDbEntity
  8
1
  6
DOT_CENTER
 62
     2
100
AcDbLine
 10
-238.3213954651633
 20
-240.3750057220946
 30
0.0
 11
-232.8213954651633
 21
-240.3750057220946
 31
0.0
  0
LINE
  5
170
330
A0
100
AcDbEntity
  8
1
  6
PHANTOM
 62
     2
100
AcDbLine
 10
-229.5713954651633
 20
-237.6250057220946
 30
0.0
 11
-229.5713954651633
 21
-243.1250057220946
 31
0.0
  0
LINE
  5
171
330
A0
100
AcDbEntity
  8
1
  6
PHANTOM
 62
     2
100
AcDbLine
 10
-226.8213954651633
 20
-240.3750057220946
 30
0.0
 11
-232.3213954651633
 21
-240.3750057220946
 31
0.0
  0
LINE
  5
172
330
A0
100
AcDbEntity
  8
1
  6
Continuous
 62
     7
100
AcDbLine
 10
-178.0080503517259
 20
-253.0000057220946
 30
0.0
 11
-178.0080503517259
 21
-244.5000057220946
 31
0.0
  0
LINE
  5
173
330
A0
100
AcDbEntity
  8
1
  6
Continuous
 62
     6
100
AcDbLine
 10
-205.908050351726
 20
-244.5000057220946
 30
0.0
 11
-112.7632458249742
 21
-244.5000057220946
 31
0.0
  0
LINE
  5
174
330
A0
100
AcDbEntity
  8
1
  6
Continuous
 62
     7
100
AcDbLine
 10
-242.3080503517259
 20
-244.5000057220946
 30
0.0
 11
-242.3080503517259
 21
-236.0000057220946
 31
0.0
  0
LINE
  5
175
330
A0
100
AcDbEntity
  8
1
  6
Continuous
 62
     7
100
AcDbLine
 10
-205.908050351726
 20
-244.5000057220946
 30
0.0
 11
-205.908050351726
 21
-236.0000057220946
 31
0.0
  0
LINE
  5
176
330
A0
100
AcDbEntity
  8
1
  6
Continuous
 62
     7
100
AcDbLine
 10
-148.181654106653
 20
-236.0000057220946
 30
0.0
 11
-148.181654106653
 21
-244.5000057220946
 31
0.0
  0
LINE
  5
177
330
A0
100
AcDbEntity
  8
1
  6
Continuous
 62
     7
100
AcDbLine
 10
-121.6816541066534
 20
-236.0000057220946
 30
0.0
 11
-121.6816541066534
 21
-244.5000057220946
 31
0.0
  0
LINE
  5
178
330
A0
100
AcDbEntity
  8
1
  6
Continuous
 62
     6
100
AcDbLine
 10
-311.3080503517259
 20
-261.5000057220946
 30
0.0
 11
-356.2632458249759
 21
-261.5000057220946
 31
0.0
  0
LINE
  5
179
330
A0
100
AcDbEntity
  8
1
  6
Continuous
 62
     7
100
AcDbLine
 10
-112.7632458249746
 20
-253.0000057220946
 30
0.0
 11
-205.908050351726
 21
-253.0000057220946
 31
0.0
  0
LINE
  5
17A
102
{ACAD_REACTORS
330
28C
330
28D
102
}
330
A0
100
AcDbEntity
  8
0
  6
Continuous
 62
     2
100
AcDbLine
 10
-228.6006214099585
 20
-252.1997166064313
 30
0.0
 11
-228.6006214099585
 21
-251.327199599628
 31
0.0
  0
LINE
  5
17B
102
{ACAD_REACTORS
330
28C
330
28D
102
}
330
A0
100
AcDbEntity
  8
0
  6
Continuous
 62
     2
100
AcDbLine
 10
-228.6006214099585
 20
-253.1594853139142
 30
0.0
 11
-228.6006214099585
 21
-254.0320023207174
 31
0.0
  0
LINE
  5
17C
102
{ACAD_REACTORS
330
28E
330
28F
102
}
330
A0
100
AcDbEntity
  8
0
  6
Continuous
 62
     2
100
AcDbLine
 10
-213.267577273668
 20
-251.9379615043908
 30
0.0
 11
-212.1639379740999
 21
-251.9379615043908
 31
0.0
  0
LINE
  5
17D
102
{ACAD_REACTORS
330
28E
330
28F
102
}
330
A0
100
AcDbEntity
  8
0
  6
Continuous
 62
     2
100
AcDbLine
 10
-212.4979199307066
 20
-253.1594853139146
 30
0.0
 11
-212.4979199307066
 21
-254.032002320718
 31
0.0
  0
LINE
  5
17E
102
{ACAD_REACTORS
330
298
330
299
102
}
330
A0
100
AcDbEntity
  8
0
  6
Continuous
 62
     2
100
AcDbLine
 10
-214.3586765460865
 20
-250.847315245904
 30
0.0
 11
-212.9607234991462
 21
-249.266456252129
 31
0.0
  0
LINE
  5
17F
102
{ACAD_REACTORS
330
298
330
299
102
}
330
A0
100
AcDbEntity
  8
0
  6
Continuous
 62
     2
100
AcDbLine
 10
-214.2632531299137
 20
-247.7935057220928
 30
0.0
 11
-212.9607234991462
 21
-249.266456252129
 31
0.0
  0
LINE
  5
180
102
{ACAD_REACTORS
330
298
330
299
102
}
330
A0
100
AcDbEntity
  8
0
  6
Continuous
 62
     2
100
AcDbLine
 10
-211.6581938683798
 20
-247.7935057220928
 30
0.0
 11
-210.2554696506326
 21
-247.7935057220928
 31
0.0
  0
LINE
  5
181
102
{ACAD_REACTORS
330
298
330
299
102
}
330
A0
100
AcDbEntity
  8
0
  6
Continuous
 62
     2
100
AcDbLine
 10
-212.9559523283383
 20
-250.847315245904
 30
0.0
 11
-212.2593613902726
 21
-250.0595834606102
 31
0.0
  0
LINE
  5
182
102
{ACAD_REACTORS
330
298
330
299
102
}
330
A0
100
AcDbEntity
  8
0
  6
Continuous
 62
     2
100
AcDbLine
 10
-212.9559523283383
 20
-250.847315245904
 30
0.0
 11
-214.3586765460865
 21
-250.847315245904
 31
0.0
  0
LINE
  5
183
102
{ACAD_REACTORS
330
29A
330
29B
102
}
330
A0
100
AcDbEntity
  8
0
  6
Continuous
 62
     2
100
AcDbLine
 10
-214.4779558163034
 20
-250.847315245904
 30
0.0
 11
-215.7184602265563
 21
-250.847315245904
 31
0.0
  0
LINE
  5
184
102
{ACAD_REACTORS
330
29C
330
29D
102
}
330
A0
100
AcDbEntity
  8
0
  6
Continuous
 62
     2
100
AcDbLine
 10
-216.5864398347114
 20
-252.9849819125538
 30
0.0
 11
-216.8866050719015
 21
-252.2171669465671
 31
0.0
  0
LINE
  5
185
102
{ACAD_REACTORS
330
29C
330
29D
102
}
330
A0
100
AcDbEntity
  8
0
  6
Continuous
 62
     2
100
AcDbLine
 10
-217.1867703090939
 20
-252.9849819125538
 30
0.0
 11
-216.5864398347114
 21
-252.9849819125538
 31
0.0
  0
LINE
  5
186
102
{ACAD_REACTORS
330
29C
330
29D
102
}
330
A0
100
AcDbEntity
  8
0
  6
Continuous
 62
     2
100
AcDbLine
 10
-218.9048103239677
 20
-254.2065057220783
 30
0.0
 11
-217.6643059137147
 21
-254.2065057220783
 31
0.0
  0
LINE
  5
187
102
{ACAD_REACTORS
330
29C
330
29D
102
}
330
A0
100
AcDbEntity
  8
0
  6
Continuous
 62
     2
100
AcDbLine
 10
-217.5068572770284
 20
-251.1526961982672
 30
0.0
 11
-216.2663528667757
 21
-251.1526961982672
 31
0.0
  0
LINE
  5
188
102
{ACAD_REACTORS
330
29C
330
29D
102
}
330
A0
100
AcDbEntity
  8
0
  6
Continuous
 62
     2
100
AcDbLine
 10
-216.2663528667757
 20
-251.1526961982672
 30
0.0
 11
-214.8683998198354
 21
-254.2065057220783
 31
0.0
  0
LINE
  5
189
102
{ACAD_REACTORS
330
29C
330
29D
102
}
330
A0
100
AcDbEntity
  8
0
  6
Continuous
 62
     2
100
AcDbLine
 10
-216.1089042300893
 20
-254.2065057220783
 30
0.0
 11
-216.3203842835651
 21
-253.6655451778604
 31
0.0
  0
LINE
  5
18A
102
{ACAD_REACTORS
330
29E
330
29F
102
}
330
A0
100
AcDbEntity
  8
0
  6
Continuous
 62
     2
100
AcDbLine
 10
-220.2512234256753
 20
-254.2065057220783
 30
0.0
 11
-219.0584307235088
 21
-254.2065057220783
 31
0.0
  0
LINE
  5
18B
102
{ACAD_REACTORS
330
29E
330
29F
102
}
330
A0
100
AcDbEntity
  8
0
  6
Continuous
 62
     2
100
AcDbLine
 10
-220.2512234256753
 20
-251.9379615043908
 30
0.0
 11
-220.2512234256753
 21
-254.2065057220783
 31
0.0
  0
LINE
  5
18C
102
{ACAD_REACTORS
330
29E
330
29F
102
}
330
A0
100
AcDbEntity
  8
0
  6
Continuous
 62
     2
100
AcDbLine
 10
-221.0623224631499
 20
-251.1526961982672
 30
0.0
 11
-221.0623224631499
 21
-251.9379615043908
 31
0.0
  0
LINE
  5
18D
102
{ACAD_REACTORS
330
2A0
330
2A1
102
}
330
A0
100
AcDbEntity
  8
0
  6
Continuous
 62
     2
100
AcDbLine
 10
-219.5831085815773
 20
-250.847315245904
 30
0.0
 11
-218.3903158794108
 21
-250.847315245904
 31
0.0
  0
LINE
  5
18E
102
{ACAD_REACTORS
330
2A0
330
2A1
102
}
330
A0
100
AcDbEntity
  8
0
  6
Continuous
 62
     2
100
AcDbLine
 10
-217.1498114691568
 20
-249.1022812322979
 30
0.0
 11
-218.3903158794108
 21
-247.7935057220928
 31
0.0
  0
LINE
  5
18F
102
{ACAD_REACTORS
330
2A0
330
2A1
102
}
330
A0
100
AcDbEntity
  8
0
  6
Continuous
 62
     2
100
AcDbLine
 10
-215.9570187669902
 20
-247.7935057220928
 30
0.0
 11
-217.1498114691568
 21
-247.7935057220928
 31
0.0
  0
LINE
  5
190
102
{ACAD_REACTORS
330
2A0
330
2A1
102
}
330
A0
100
AcDbEntity
  8
0
  6
Continuous
 62
     2
100
AcDbLine
 10
-215.9570187669902
 20
-250.847315245904
 30
0.0
 11
-215.9570187669902
 21
-247.7935057220928
 31
0.0
  0
LINE
  5
191
102
{ACAD_REACTORS
330
2A0
330
2A1
102
}
330
A0
100
AcDbEntity
  8
0
  6
Continuous
 62
     2
100
AcDbLine
 10
-217.1498114691568
 20
-250.847315245904
 30
0.0
 11
-215.9570187669902
 21
-250.847315245904
 31
0.0
  0
LINE
  5
192
102
{ACAD_REACTORS
330
2A0
330
2A1
102
}
330
A0
100
AcDbEntity
  8
0
  6
Continuous
 62
     2
100
AcDbLine
 10
-218.3903158794108
 20
-249.5385397356993
 30
0.0
 11
-217.1498114691568
 21
-250.847315245904
 31
0.0
  0
LINE
  5
193
102
{ACAD_REACTORS
330
2A2
330
2A3
102
}
330
A0
100
AcDbEntity
  8
0
  6
Continuous
 62
     2
100
AcDbLine
 10
-222.3982502895765
 20
-252.4614717084723
 30
0.0
 11
-223.6387546998294
 21
-251.1526961982672
 31
0.0
  0
LINE
  5
194
102
{ACAD_REACTORS
330
2A2
330
2A3
102
}
330
A0
100
AcDbEntity
  8
0
  6
Continuous
 62
     2
100
AcDbLine
 10
-222.3982502895765
 20
-251.1526961982672
 30
0.0
 11
-222.3982502895765
 21
-252.4614717084723
 31
0.0
  0
LINE
  5
195
102
{ACAD_REACTORS
330
2A2
330
2A3
102
}
330
A0
100
AcDbEntity
  8
0
  6
Continuous
 62
     2
100
AcDbLine
 10
-221.2054575874101
 20
-251.1526961982672
 30
0.0
 11
-222.3982502895765
 21
-251.1526961982672
 31
0.0
  0
LINE
  5
196
102
{ACAD_REACTORS
330
2A2
330
2A3
102
}
330
A0
100
AcDbEntity
  8
0
  6
Continuous
 62
     2
100
AcDbLine
 10
-221.2054575874101
 20
-254.2065057220783
 30
0.0
 11
-221.2054575874101
 21
-251.1526961982672
 31
0.0
  0
LINE
  5
197
102
{ACAD_REACTORS
330
2A2
330
2A3
102
}
330
A0
100
AcDbEntity
  8
0
  6
Continuous
 62
     2
100
AcDbLine
 10
-223.6387546998294
 20
-252.8977302118737
 30
0.0
 11
-222.3982502895765
 21
-254.2065057220783
 31
0.0
  0
LINE
  5
198
102
{ACAD_REACTORS
330
2A2
330
2A3
102
}
330
A0
100
AcDbEntity
  8
0
  6
Continuous
 62
     2
100
AcDbLine
 10
-223.6387546998294
 20
-254.2065057220783
 30
0.0
 11
-223.6387546998294
 21
-252.8977302118737
 31
0.0
  0
LINE
  5
199
102
{ACAD_REACTORS
330
292
330
293
102
}
330
A0
100
AcDbEntity
  8
0
  6
Continuous
 62
     2
100
AcDbLine
 10
-221.1575949484379
 20
-248.4915193275357
 30
0.0
 11
-219.8216671220102
 21
-248.4915193275357
 31
0.0
  0
LINE
  5
19A
102
{ACAD_REACTORS
330
292
330
293
102
}
330
A0
100
AcDbEntity
  8
0
  6
Continuous
 62
     2
100
AcDbLine
 10
-221.1575949484379
 20
-250.1493016404615
 30
0.0
 11
-221.1575949484379
 21
-249.6694172867198
 31
0.0
  0
LINE
  5
19B
102
{ACAD_REACTORS
330
292
330
293
102
}
330
A0
100
AcDbEntity
  8
0
  6
Continuous
 62
     2
100
AcDbLine
 10
-219.8216671220102
 20
-250.1493016404615
 30
0.0
 11
-221.1575949484379
 21
-250.1493016404615
 31
0.0
  0
LINE
  5
19C
102
{ACAD_REACTORS
330
292
330
293
102
}
330
A0
100
AcDbEntity
  8
0
  6
Continuous
 62
     2
100
AcDbLine
 10
-219.8216671220102
 20
-250.847315245904
 30
0.0
 11
-219.8216671220102
 21
-250.1493016404615
 31
0.0
  0
LINE
  5
19D
102
{ACAD_REACTORS
330
292
330
293
102
}
330
A0
100
AcDbEntity
  8
0
  6
Continuous
 62
     2
100
AcDbLine
 10
-222.9719868457912
 20
-250.847315245904
 30
0.0
 11
-219.8216671220102
 21
-250.847315245904
 31
0.0
  0
LINE
  5
19E
102
{ACAD_REACTORS
330
292
330
293
102
}
330
A0
100
AcDbEntity
  8
0
  6
Continuous
 62
     2
100
AcDbLine
 10
-222.9719868457912
 20
-247.7935057220928
 30
0.0
 11
-219.8216671220102
 21
-247.7935057220928
 31
0.0
  0
LINE
  5
19F
102
{ACAD_REACTORS
330
292
330
293
102
}
330
A0
100
AcDbEntity
  8
0
  6
Continuous
 62
     2
100
AcDbLine
 10
-219.8216671220102
 20
-248.4915193275357
 30
0.0
 11
-219.8216671220102
 21
-247.7935057220928
 31
0.0
  0
LINE
  5
1A0
102
{ACAD_REACTORS
330
2A4
330
2A5
102
}
330
A0
100
AcDbEntity
  8
0
  6
Continuous
 62
     2
100
AcDbLine
 10
-225.8333423409312
 20
-248.8623390554274
 30
0.0
 11
-225.8333423409312
 21
-247.7935057220928
 31
0.0
  0
LINE
  5
1A1
102
{ACAD_REACTORS
330
2A4
330
2A5
102
}
330
A0
100
AcDbEntity
  8
0
  6
Continuous
 62
     2
100
AcDbLine
 10
-225.8333423409312
 20
-247.7935057220928
 30
0.0
 11
-224.6405496387648
 21
-247.7935057220928
 31
0.0
  0
LINE
  5
1A2
102
{ACAD_REACTORS
330
2A4
330
2A5
102
}
330
A0
100
AcDbEntity
  8
0
  6
Continuous
 62
     2
100
AcDbLine
 10
-225.8333423409312
 20
-249.7130431370601
 30
0.0
 11
-226.8829999188387
 21
-249.7130431370601
 31
0.0
  0
LINE
  5
1A3
102
{ACAD_REACTORS
330
2A4
330
2A5
102
}
330
A0
100
AcDbEntity
  8
0
  6
Continuous
 62
     2
100
AcDbLine
 10
-226.8829999188387
 20
-249.7130431370601
 30
0.0
 11
-226.8829999188387
 21
-250.847315245904
 31
0.0
  0
LINE
  5
1A4
102
{ACAD_REACTORS
330
2A4
330
2A5
102
}
330
A0
100
AcDbEntity
  8
0
  6
Continuous
 62
     2
100
AcDbLine
 10
-228.0757926210053
 20
-247.7935057220928
 30
0.0
 11
-228.0757926210053
 21
-250.847315245904
 31
0.0
  0
LINE
  5
1A5
102
{ACAD_REACTORS
330
296
330
297
102
}
330
A0
100
AcDbEntity
  8
0
  6
Continuous
 62
     2
100
AcDbLine
 10
-230.0319726525589
 20
-249.1623392168751
 30
0.0
 11
-230.0319726525589
 21
-248.4566115675329
 31
0.0
  0
LINE
  5
1A6
102
{ACAD_REACTORS
330
296
330
297
102
}
330
A0
100
AcDbEntity
  8
0
  6
Continuous
 62
     2
100
AcDbLine
 10
-231.272477062813
 20
-250.847315245904
 30
0.0
 11
-230.0319726525589
 21
-250.847315245904
 31
0.0
  0
LINE
  5
1A7
102
{ACAD_REACTORS
330
296
330
297
102
}
330
A0
100
AcDbEntity
  8
0
  6
Continuous
 62
     2
100
AcDbLine
 10
-230.0319726525589
 20
-250.847315245904
 30
0.0
 11
-230.0319726525589
 21
-249.9042370047602
 31
0.0
  0
LINE
  5
1A8
102
{ACAD_REACTORS
330
290
330
291
102
}
330
A0
100
AcDbEntity
  8
0
  6
Continuous
 62
     2
100
AcDbLine
 10
-235.5774229120244
 20
-253.4939501665214
 30
0.0
 11
-237.053256173034
 21
-253.4939501665214
 31
0.0
  0
LINE
  5
1A9
102
{ACAD_REACTORS
330
290
330
291
102
}
330
A0
100
AcDbEntity
  8
0
  6
Continuous
 62
     2
100
AcDbLine
 10
-238.0713954651633
 20
-248.2177503374948
 30
0.0
 11
-238.0713954651633
 21
-253.782261106695
 31
0.0
  0
LINE
  5
1AA
102
{ACAD_REACTORS
330
290
330
291
102
}
330
A0
100
AcDbEntity
  8
0
  6
Continuous
 62
     2
100
AcDbLine
 10
-237.6471508497805
 20
-247.793505722111
 30
0.0
 11
-232.1738387590637
 21
-247.793505722111
 31
0.0
  0
LINE
  5
1AB
102
{ACAD_REACTORS
330
290
330
291
102
}
330
A0
100
AcDbEntity
  8
0
  6
Continuous
 62
     2
100
AcDbLine
 10
-231.7495941436798
 20
-248.2177503374948
 30
0.0
 11
-231.7495941436798
 21
-253.782261106695
 31
0.0
  0
LINE
  5
1AC
102
{ACAD_REACTORS
330
290
330
291
102
}
330
A0
100
AcDbEntity
  8
0
  6
Continuous
 62
     2
100
AcDbLine
 10
-232.1738387590637
 20
-254.2065057220783
 30
0.0
 11
-237.6471508497805
 21
-254.2065057220783
 31
0.0
  0
LINE
  5
1AD
102
{ACAD_REACTORS
330
290
330
291
102
}
330
A0
100
AcDbEntity
  8
0
  6
Continuous
 62
     2
100
AcDbLine
 10
-235.2617059889478
 20
-253.1782332434447
 30
0.0
 11
-235.2617059889478
 21
-251.6474623119131
 31
0.0
  0
LINE
  5
1AE
102
{ACAD_REACTORS
330
290
330
291
102
}
330
A0
100
AcDbEntity
  8
0
  6
Continuous
 62
     2
100
AcDbLine
 10
-235.2617059889478
 20
-249.4258028197881
 30
0.0
 11
-235.2617059889478
 21
-248.8217782007276
 31
0.0
  0
LINE
  5
1AF
102
{ACAD_REACTORS
330
290
330
291
102
}
330
A0
100
AcDbEntity
  8
0
  6
Continuous
 62
     2
100
AcDbLine
 10
-237.053256173034
 20
-248.5060612776514
 30
0.0
 11
-235.5774229120244
 21
-248.5060612776514
 31
0.0
  0
LINE
  5
1B0
102
{ACAD_REACTORS
330
290
330
291
102
}
330
A0
100
AcDbEntity
  8
0
  6
Continuous
 62
     2
100
AcDbLine
 10
-237.3689730961097
 20
-248.8217782007276
 30
0.0
 11
-237.3689730961097
 21
-253.1782332434447
 31
0.0
  0
LINE
  5
1B1
102
{ACAD_REACTORS
330
296
330
297
102
}
330
A0
100
AcDbEntity
  8
0
  6
Continuous
 62
     2
100
AcDbLine
 10
-230.0319726525589
 20
-249.9042370047602
 30
0.0
 11
-229.2732050647786
 21
-249.9042370047602
 31
0.0
  0
LINE
  5
1B2
102
{ACAD_REACTORS
330
296
330
297
102
}
330
A0
100
AcDbEntity
  8
0
  6
Continuous
 62
     2
100
AcDbLine
 10
-231.272477062813
 20
-247.7935057220928
 30
0.0
 11
-229.2732050647786
 21
-247.7935057220928
 31
0.0
  0
LINE
  5
1B3
102
{ACAD_REACTORS
330
296
330
297
102
}
330
A0
100
AcDbEntity
  8
0
  6
Continuous
 62
     2
100
AcDbLine
 10
-231.272477062813
 20
-247.7935057220928
 30
0.0
 11
-231.272477062813
 21
-250.847315245904
 31
0.0
  0
LINE
  5
1B4
102
{ACAD_REACTORS
330
296
330
297
102
}
330
A0
100
AcDbEntity
  8
0
  6
Continuous
 62
     2
100
AcDbLine
 10
-230.0319726525589
 20
-249.1623392168751
 30
0.0
 11
-229.714677591017
 21
-249.1623392168751
 31
0.0
  0
LINE
  5
1B5
102
{ACAD_REACTORS
330
296
330
297
102
}
330
A0
100
AcDbEntity
  8
0
  6
Continuous
 62
     2
100
AcDbLine
 10
-230.0319726525589
 20
-248.4566115675329
 30
0.0
 11
-229.714677591017
 21
-248.4566115675329
 31
0.0
  0
LINE
  5
1B6
102
{ACAD_REACTORS
330
2A4
330
2A5
102
}
330
A0
100
AcDbEntity
  8
0
  6
Continuous
 62
     2
100
AcDbLine
 10
-226.8829999188387
 20
-248.8623390554274
 30
0.0
 11
-225.8333423409312
 21
-248.8623390554274
 31
0.0
  0
LINE
  5
1B7
102
{ACAD_REACTORS
330
2A4
330
2A5
102
}
330
A0
100
AcDbEntity
  8
0
  6
Continuous
 62
     2
100
AcDbLine
 10
-226.8829999188387
 20
-247.7935057220928
 30
0.0
 11
-226.8829999188387
 21
-248.8623390554274
 31
0.0
  0
LINE
  5
1B8
102
{ACAD_REACTORS
330
2A4
330
2A5
102
}
330
A0
100
AcDbEntity
  8
0
  6
Continuous
 62
     2
100
AcDbLine
 10
-228.0757926210053
 20
-247.7935057220928
 30
0.0
 11
-226.8829999188387
 21
-247.7935057220928
 31
0.0
  0
LINE
  5
1B9
102
{ACAD_REACTORS
330
2A4
330
2A5
102
}
330
A0
100
AcDbEntity
  8
0
  6
Continuous
 62
     2
100
AcDbLine
 10
-226.8829999188387
 20
-250.847315245904
 30
0.0
 11
-228.0757926210053
 21
-250.847315245904
 31
0.0
  0
LINE
  5
1BA
102
{ACAD_REACTORS
330
2A4
330
2A5
102
}
330
A0
100
AcDbEntity
  8
0
  6
Continuous
 62
     2
100
AcDbLine
 10
-225.8333423409312
 20
-250.847315245904
 30
0.0
 11
-225.8333423409312
 21
-249.7130431370601
 31
0.0
  0
LINE
  5
1BB
102
{ACAD_REACTORS
330
2A4
330
2A5
102
}
330
A0
100
AcDbEntity
  8
0
  6
Continuous
 62
     2
100
AcDbLine
 10
-224.6405496387648
 20
-250.847315245904
 30
0.0
 11
-225.8333423409312
 21
-250.847315245904
 31
0.0
  0
LINE
  5
1BC
102
{ACAD_REACTORS
330
2A4
330
2A5
102
}
330
A0
100
AcDbEntity
  8
0
  6
Continuous
 62
     2
100
AcDbLine
 10
-224.6405496387648
 20
-247.7935057220928
 30
0.0
 11
-224.6405496387648
 21
-250.847315245904
 31
0.0
  0
LINE
  5
1BD
102
{ACAD_REACTORS
330
292
330
293
102
}
330
A0
100
AcDbEntity
  8
0
  6
Continuous
 62
     2
100
AcDbLine
 10
-221.1575949484379
 20
-249.6694172867198
 30
0.0
 11
-219.8216671220102
 21
-249.6694172867198
 31
0.0
  0
LINE
  5
1BE
102
{ACAD_REACTORS
330
292
330
293
102
}
330
A0
100
AcDbEntity
  8
0
  6
Continuous
 62
     2
100
AcDbLine
 10
-219.8216671220102
 20
-249.6694172867198
 30
0.0
 11
-219.8216671220102
 21
-248.9714036812775
 31
0.0
  0
LINE
  5
1BF
102
{ACAD_REACTORS
330
292
330
293
102
}
330
A0
100
AcDbEntity
  8
0
  6
Continuous
 62
     2
100
AcDbLine
 10
-219.8216671220102
 20
-248.9714036812775
 30
0.0
 11
-221.1575949484379
 21
-248.9714036812775
 31
0.0
  0
LINE
  5
1C0
102
{ACAD_REACTORS
330
292
330
293
102
}
330
A0
100
AcDbEntity
  8
0
  6
Continuous
 62
     2
100
AcDbLine
 10
-221.1575949484379
 20
-248.9714036812775
 30
0.0
 11
-221.1575949484379
 21
-248.4915193275357
 31
0.0
  0
LINE
  5
1C1
102
{ACAD_REACTORS
330
2A2
330
2A3
102
}
330
A0
100
AcDbEntity
  8
0
  6
Continuous
 62
     2
100
AcDbLine
 10
-224.831547401997
 20
-254.2065057220783
 30
0.0
 11
-223.6387546998294
 21
-254.2065057220783
 31
0.0
  0
LINE
  5
1C2
102
{ACAD_REACTORS
330
2A2
330
2A3
102
}
330
A0
100
AcDbEntity
  8
0
  6
Continuous
 62
     2
100
AcDbLine
 10
-222.3982502895765
 20
-254.2065057220783
 30
0.0
 11
-221.2054575874101
 21
-254.2065057220783
 31
0.0
  0
LINE
  5
1C3
102
{ACAD_REACTORS
330
2A2
330
2A3
102
}
330
A0
100
AcDbEntity
  8
0
  6
Continuous
 62
     2
100
AcDbLine
 10
-223.6387546998294
 20
-251.1526961982672
 30
0.0
 11
-224.831547401997
 21
-251.1526961982672
 31
0.0
  0
LINE
  5
1C4
102
{ACAD_REACTORS
330
2A2
330
2A3
102
}
330
A0
100
AcDbEntity
  8
0
  6
Continuous
 62
     2
100
AcDbLine
 10
-224.831547401997
 20
-251.1526961982672
 30
0.0
 11
-224.831547401997
 21
-254.2065057220783
 31
0.0
  0
LINE
  5
1C5
102
{ACAD_REACTORS
330
2A0
330
2A1
102
}
330
A0
100
AcDbEntity
  8
0
  6
Continuous
 62
     2
100
AcDbLine
 10
-217.1498114691568
 20
-247.7935057220928
 30
0.0
 11
-217.1498114691568
 21
-249.1022812322979
 31
0.0
  0
LINE
  5
1C6
102
{ACAD_REACTORS
330
2A0
330
2A1
102
}
330
A0
100
AcDbEntity
  8
0
  6
Continuous
 62
     2
100
AcDbLine
 10
-218.3903158794108
 20
-247.7935057220928
 30
0.0
 11
-219.5831085815773
 21
-247.7935057220928
 31
0.0
  0
LINE
  5
1C7
102
{ACAD_REACTORS
330
2A0
330
2A1
102
}
330
A0
100
AcDbEntity
  8
0
  6
Continuous
 62
     2
100
AcDbLine
 10
-219.5831085815773
 20
-247.7935057220928
 30
0.0
 11
-219.5831085815773
 21
-250.847315245904
 31
0.0
  0
LINE
  5
1C8
102
{ACAD_REACTORS
330
2A0
330
2A1
102
}
330
A0
100
AcDbEntity
  8
0
  6
Continuous
 62
     2
100
AcDbLine
 10
-218.3903158794108
 20
-250.847315245904
 30
0.0
 11
-218.3903158794108
 21
-249.5385397356993
 31
0.0
  0
LINE
  5
1C9
102
{ACAD_REACTORS
330
29E
330
29F
102
}
330
A0
100
AcDbEntity
  8
0
  6
Continuous
 62
     2
100
AcDbLine
 10
-219.0584307235088
 20
-254.2065057220783
 30
0.0
 11
-219.0584307235088
 21
-251.9379615043908
 31
0.0
  0
LINE
  5
1CA
102
{ACAD_REACTORS
330
29E
330
29F
102
}
330
A0
100
AcDbEntity
  8
0
  6
Continuous
 62
     2
100
AcDbLine
 10
-219.0584307235088
 20
-251.9379615043908
 30
0.0
 11
-218.2473316860363
 21
-251.9379615043908
 31
0.0
  0
LINE
  5
1CB
102
{ACAD_REACTORS
330
29E
330
29F
102
}
330
A0
100
AcDbEntity
  8
0
  6
Continuous
 62
     2
100
AcDbLine
 10
-218.2473316860363
 20
-251.9379615043908
 30
0.0
 11
-218.2473316860363
 21
-251.1526961982672
 31
0.0
  0
LINE
  5
1CC
102
{ACAD_REACTORS
330
29E
330
29F
102
}
330
A0
100
AcDbEntity
  8
0
  6
Continuous
 62
     2
100
AcDbLine
 10
-218.2473316860363
 20
-251.1526961982672
 30
0.0
 11
-221.0623224631499
 21
-251.1526961982672
 31
0.0
  0
LINE
  5
1CD
102
{ACAD_REACTORS
330
29E
330
29F
102
}
330
A0
100
AcDbEntity
  8
0
  6
Continuous
 62
     2
100
AcDbLine
 10
-221.0623224631499
 20
-251.9379615043908
 30
0.0
 11
-220.2512234256753
 21
-251.9379615043908
 31
0.0
  0
LINE
  5
1CE
102
{ACAD_REACTORS
330
29C
330
29D
102
}
330
A0
100
AcDbEntity
  8
0
  6
Continuous
 62
     2
100
AcDbLine
 10
-217.4528258602389
 20
-253.6655451778604
 30
0.0
 11
-216.3203842835651
 21
-253.6655451778604
 31
0.0
  0
LINE
  5
1CF
102
{ACAD_REACTORS
330
29C
330
29D
102
}
330
A0
100
AcDbEntity
  8
0
  6
Continuous
 62
     2
100
AcDbLine
 10
-214.8683998198354
 20
-254.2065057220783
 30
0.0
 11
-216.1089042300893
 21
-254.2065057220783
 31
0.0
  0
LINE
  5
1D0
102
{ACAD_REACTORS
330
29C
330
29D
102
}
330
A0
100
AcDbEntity
  8
0
  6
Continuous
 62
     2
100
AcDbLine
 10
-217.5068572770284
 20
-251.1526961982672
 30
0.0
 11
-218.9048103239677
 21
-254.2065057220783
 31
0.0
  0
LINE
  5
1D1
102
{ACAD_REACTORS
330
29C
330
29D
102
}
330
A0
100
AcDbEntity
  8
0
  6
Continuous
 62
     2
100
AcDbLine
 10
-217.6643059137147
 20
-254.2065057220783
 30
0.0
 11
-217.4528258602389
 21
-253.6655451778604
 31
0.0
  0
LINE
  5
1D2
102
{ACAD_REACTORS
330
29C
330
29D
102
}
330
A0
100
AcDbEntity
  8
0
  6
Continuous
 62
     2
100
AcDbLine
 10
-217.1867703090939
 20
-252.9849819125538
 30
0.0
 11
-216.8866050719015
 21
-252.2171669465671
 31
0.0
  0
LINE
  5
1D3
102
{ACAD_REACTORS
330
29A
330
29B
102
}
330
A0
100
AcDbEntity
  8
0
  6
Continuous
 62
     2
100
AcDbLine
 10
-215.7184602265563
 20
-250.847315245904
 30
0.0
 11
-215.7184602265563
 21
-247.7935057220928
 31
0.0
  0
LINE
  5
1D4
102
{ACAD_REACTORS
330
29A
330
29B
102
}
330
A0
100
AcDbEntity
  8
0
  6
Continuous
 62
     2
100
AcDbLine
 10
-214.4779558163034
 20
-247.7935057220928
 30
0.0
 11
-214.4779558163034
 21
-250.847315245904
 31
0.0
  0
LINE
  5
1D5
102
{ACAD_REACTORS
330
29A
330
29B
102
}
330
A0
100
AcDbEntity
  8
0
  6
Continuous
 62
     2
100
AcDbLine
 10
-215.7184602265563
 20
-247.7935057220928
 30
0.0
 11
-214.4779558163034
 21
-247.7935057220928
 31
0.0
  0
LINE
  5
1D6
102
{ACAD_REACTORS
330
298
330
299
102
}
330
A0
100
AcDbEntity
  8
0
  6
Continuous
 62
     2
100
AcDbLine
 10
-212.2593613902726
 20
-250.0595834606102
 30
0.0
 11
-211.5627704522071
 21
-250.847315245904
 31
0.0
  0
LINE
  5
1D7
102
{ACAD_REACTORS
330
298
330
299
102
}
330
A0
100
AcDbEntity
  8
0
  6
Continuous
 62
     2
100
AcDbLine
 10
-211.5627704522071
 20
-250.847315245904
 30
0.0
 11
-210.1600462344588
 21
-250.847315245904
 31
0.0
  0
LINE
  5
1D8
102
{ACAD_REACTORS
330
298
330
299
102
}
330
A0
100
AcDbEntity
  8
0
  6
Continuous
 62
     2
100
AcDbLine
 10
-211.5579992813991
 20
-249.266456252129
 30
0.0
 11
-210.1600462344588
 21
-250.847315245904
 31
0.0
  0
LINE
  5
1D9
102
{ACAD_REACTORS
330
298
330
299
102
}
330
A0
100
AcDbEntity
  8
0
  6
Continuous
 62
     2
100
AcDbLine
 10
-211.5579992813991
 20
-249.266456252129
 30
0.0
 11
-210.2554696506326
 21
-247.7935057220928
 31
0.0
  0
LINE
  5
1DA
102
{ACAD_REACTORS
330
298
330
299
102
}
330
A0
100
AcDbEntity
  8
0
  6
Continuous
 62
     2
100
AcDbLine
 10
-212.2593613902726
 20
-248.4733290436483
 30
0.0
 11
-211.6581938683798
 21
-247.7935057220928
 31
0.0
  0
LINE
  5
1DB
102
{ACAD_REACTORS
330
298
330
299
102
}
330
A0
100
AcDbEntity
  8
0
  6
Continuous
 62
     2
100
AcDbLine
 10
-212.8605289121644
 20
-247.7935057220928
 30
0.0
 11
-212.2593613902726
 21
-248.4733290436483
 31
0.0
  0
LINE
  5
1DC
102
{ACAD_REACTORS
330
298
330
299
102
}
330
A0
100
AcDbEntity
  8
0
  6
Continuous
 62
     2
100
AcDbLine
 10
-212.8605289121644
 20
-247.7935057220928
 30
0.0
 11
-214.2632531299137
 21
-247.7935057220928
 31
0.0
  0
LINE
  5
1DD
102
{ACAD_REACTORS
330
28E
330
28F
102
}
330
A0
100
AcDbEntity
  8
0
  6
Continuous
 62
     2
100
AcDbLine
 10
-212.1639379740999
 20
-254.2065057220783
 30
0.0
 11
-210.9711452719322
 21
-254.2065057220783
 31
0.0
  0
LINE
  5
1DE
102
{ACAD_REACTORS
330
28E
330
28F
102
}
330
A0
100
AcDbEntity
  8
0
  6
Continuous
 62
     2
100
AcDbLine
 10
-210.9711452719322
 20
-254.2065057220783
 30
0.0
 11
-210.9711452719322
 21
-251.9379615043908
 31
0.0
  0
LINE
  5
1DF
102
{ACAD_REACTORS
330
28E
330
28F
102
}
330
A0
100
AcDbEntity
  8
0
  6
Continuous
 62
     2
100
AcDbLine
 10
-210.9711452719322
 20
-251.9379615043908
 30
0.0
 11
-210.1600462344588
 21
-251.9379615043908
 31
0.0
  0
LINE
  5
1E0
102
{ACAD_REACTORS
330
28E
330
28F
102
}
330
A0
100
AcDbEntity
  8
0
  6
Continuous
 62
     2
100
AcDbLine
 10
-210.1600462344588
 20
-251.9379615043908
 30
0.0
 11
-210.1600462344588
 21
-251.1526961982672
 31
0.0
  0
LINE
  5
1E1
102
{ACAD_REACTORS
330
28E
330
28F
102
}
330
A0
100
AcDbEntity
  8
0
  6
Continuous
 62
     2
100
AcDbLine
 10
-213.5449917530875
 20
-251.1526961982677
 30
0.0
 11
-210.1600462344588
 21
-251.1526961982672
 31
0.0
  0
LINE
  5
1E2
102
{ACAD_REACTORS
330
28E
330
28F
102
}
330
A0
100
AcDbEntity
  8
0
  6
Continuous
 62
     2
100
AcDbLine
 10
-212.1639379740999
 20
-251.9379615043908
 30
0.0
 11
-212.1639379740999
 21
-254.2065057220783
 31
0.0
  0
LINE
  5
1E3
102
{ACAD_REACTORS
330
290
330
291
102
}
330
A0
100
AcDbEntity
  8
0
  6
Continuous
 62
     2
100
AcDbLine
 10
-234.7934244095791
 20
-252.2276255725137
 30
0.0
 11
-234.7934244095791
 21
-251.6457741658187
 31
0.0
  0
LINE
  5
1E4
102
{ACAD_REACTORS
330
290
330
291
102
}
330
A0
100
AcDbEntity
  8
0
  6
Continuous
 62
     2
100
AcDbLine
 10
-234.7934244095791
 20
-249.4274909658824
 30
0.0
 11
-234.7934244095791
 21
-248.8219556773757
 31
0.0
  0
LINE
  5
1E5
330
A0
100
AcDbEntity
  8
1
  6
Continuous
 62
     6
100
AcDbLine
 10
-256.2632458249759
 20
-261.5000057220946
 30
0.0
 11
-242.3080503517259
 21
-261.5000057220947
 31
0.0
  0
LINE
  5
1E6
330
A0
100
AcDbEntity
  8
1
  6
Continuous
 62
     6
100
AcDbLine
 10
-306.2632458249761
 20
-261.5000057220946
 30
0.0
 11
-311.3080503517259
 21
-261.5000057220946
 31
0.0
  0
LINE
  5
1E7
330
A0
100
AcDbEntity
  8
1
  6
Continuous
 62
     6
100
AcDbLine
 10
-156.2632458249759
 20
-261.5000057220946
 30
0.0
 11
-112.7632458249759
 21
-261.5000057220946
 31
0.0
  0
LINE
  5
1E8
330
A0
100
AcDbEntity
  8
1
  6
Continuous
 62
     6
100
AcDbLine
 10
-206.2632458249759
 20
-261.5000057220946
 30
0.0
 11
-224.1080503517259
 21
-261.5000057220946
 31
0.0
  0
LINE
  5
1E9
330
A0
100
AcDbEntity
  8
1
  6
Continuous
 62
     2
100
AcDbLine
 10
-112.7632458249759
 20
-261.5000057220946
 30
0.0
 11
-107.7632458249769
 21
-261.5000057220946
 31
0.0
  0
LINE
  5
1EA
330
A0
100
AcDbEntity
  8
1
  6
Continuous
 62
     2
100
AcDbLine
 10
-112.7632458249759
 20
-261.5000057220946
 30
0.0
 11
-112.7632458249759
 21
-266.5000057220947
 31
0.0
  0
LINE
  5
1EB
330
A0
100
AcDbEntity
  8
1
  6
Continuous
 62
     6
100
AcDbLine
 10
-242.3080503517259
 20
-244.5000057220946
 30
0.0
 11
-205.908050351726
 21
-244.5000057220946
 31
0.0
  0
LINE
  5
1EC
330
A0
100
AcDbEntity
  8
1
  6
Continuous
 62
     2
100
AcDbLine
 10
-107.7632458249769
 20
-266.5000057220947
 30
0.0
 11
-107.7632458249769
 21
-261.5000057220946
 31
0.0
  0
LINE
  5
1ED
330
A0
100
AcDbEntity
  8
1
  6
Continuous
 62
     2
100
AcDbLine
 10
-107.7632458249769
 20
-266.5000057220947
 30
0.0
 11
-112.7632458249759
 21
-266.5000057220947
 31
0.0
  0
LINE
  5
1EE
330
A0
100
AcDbEntity
  8
1
  6
Continuous
 62
     2
100
AcDbLine
 10
-112.7632458249759
 20
-266.5000057220947
 30
0.0
 11
-156.2632458249759
 21
-266.5000057220947
 31
0.0
  0
LINE
  5
1EF
330
A0
100
AcDbEntity
  8
1
  6
Continuous
 62
     6
100
AcDbLine
 10
-112.7632458249742
 20
-244.5000057220946
 30
0.0
 11
-112.763245824975
 21
-211.5000057220944
 31
0.0
  0
LINE
  5
1F0
330
A0
100
AcDbEntity
  8
1
  6
Continuous
 62
     2
100
AcDbLine
 10
-107.7632458249769
 20
-56.50000572209456
 30
0.0
 11
-256.2632458249759
 21
-56.50000572209456
 31
0.0
  0
LINE
  5
1F1
330
A0
100
AcDbEntity
  8
1
  6
Continuous
 62
     6
100
AcDbLine
 10
-112.7632458249769
 20
-76.50000572209456
 30
0.0
 11
-399.763245824975
 21
-76.50000572209456
 31
0.0
  0
LINE
  5
1F2
330
A0
100
AcDbEntity
  8
1
  6
Continuous
 62
     2
100
AcDbLine
 10
-112.763245824975
 20
-211.5000057220944
 30
0.0
 11
-107.7632458249769
 21
-211.5000057220944
 31
0.0
  0
LINE
  5
1F3
330
A0
100
AcDbEntity
  8
1
  6
Continuous
 62
     6
100
AcDbLine
 10
-112.763245824975
 20
-211.5000057220944
 30
0.0
 11
-112.7632458249755
 21
-161.5000057220946
 31
0.0
  0
LINE
  5
1F4
330
A0
100
AcDbEntity
  8
1
  6
Continuous
 62
     2
100
AcDbLine
 10
-107.7632458249769
 20
-211.5000057220944
 30
0.0
 11
-107.7632458249769
 21
-161.5000057220946
 31
0.0
  0
LINE
  5
1F5
330
A0
100
AcDbEntity
  8
1
  6
Continuous
 62
     2
100
AcDbLine
 10
-112.7632458249755
 20
-161.5000057220946
 30
0.0
 11
-107.7632458249769
 21
-161.5000057220946
 31
0.0
  0
LINE
  5
1F6
330
A0
100
AcDbEntity
  8
1
  6
Continuous
 62
     6
100
AcDbLine
 10
-112.7632458249755
 20
-161.5000057220946
 30
0.0
 11
-112.7632458249767
 21
-111.5000057220946
 31
0.0
  0
LINE
  5
1F7
330
A0
100
AcDbEntity
  8
1
  6
Continuous
 62
     2
100
AcDbLine
 10
-107.7632458249769
 20
-161.5000057220946
 30
0.0
 11
-107.7632458249769
 21
-111.5000057220946
 31
0.0
  0
LINE
  5
1F8
330
A0
100
AcDbEntity
  8
1
  6
Continuous
 62
     2
100
AcDbLine
 10
-112.7632458249767
 20
-111.5000057220946
 30
0.0
 11
-107.7632458249769
 21
-111.5000057220946
 31
0.0
  0
LINE
  5
1F9
330
A0
100
AcDbEntity
  8
1
  6
Continuous
 62
     6
100
AcDbLine
 10
-112.7632458249767
 20
-111.5000057220946
 30
0.0
 11
-112.7632458249769
 21
-76.50000572209456
 31
0.0
  0
LINE
  5
1FA
330
A0
100
AcDbEntity
  8
1
  6
Continuous
 62
     2
100
AcDbLine
 10
-107.7632458249769
 20
-111.5000057220946
 30
0.0
 11
-107.7632458249769
 21
-56.50000572209456
 31
0.0
  0
LINE
  5
1FB
330
A0
100
AcDbEntity
  8
1
  6
Continuous
 62
     2
100
AcDbLine
 10
-107.7632458249769
 20
-261.5000057220946
 30
0.0
 11
-107.7632458249769
 21
-211.5000057220944
 31
0.0
  0
LINE
  5
1FC
330
A0
100
AcDbEntity
  8
1
  6
Continuous
 62
     2
100
AcDbLine
 10
-256.2632458249759
 20
-56.50000572209456
 30
0.0
 11
-404.763245824975
 21
-56.50000572209456
 31
0.0
  0
LINE
  5
1FD
330
A0
100
AcDbEntity
  8
1
  6
Continuous
 62
     2
100
AcDbLine
 10
-256.2632458249759
 20
-56.50000572209456
 30
0.0
 11
-256.2632458249759
 21
-65.70869756679588
 31
0.0
  0
LINE
  5
1FE
330
A0
100
AcDbEntity
  8
1
  6
Continuous
 62
     2
100
AcDbLine
 10
-404.763245824975
 20
-266.5000057220947
 30
0.0
 11
-399.763245824974
 21
-266.5000057220947
 31
0.0
  0
LINE
  5
1FF
330
A0
100
AcDbEntity
  8
1
  6
Continuous
 62
     2
100
AcDbLine
 10
-404.763245824975
 20
-56.50000572209456
 30
0.0
 11
-404.763245824975
 21
-111.5000057220946
 31
0.0
  0
LINE
  5
200
330
A0
100
AcDbEntity
  8
1
  6
Continuous
 62
     6
100
AcDbLine
 10
-399.763245824975
 20
-76.50000572209456
 30
0.0
 11
-399.7632458249749
 21
-111.5000057220946
 31
0.0
  0
LINE
  5
201
330
A0
100
AcDbEntity
  8
1
  6
Continuous
 62
     2
100
AcDbLine
 10
-404.763245824975
 20
-111.5000057220946
 30
0.0
 11
-399.7632458249749
 21
-111.5000057220946
 31
0.0
  0
LINE
  5
202
330
A0
100
AcDbEntity
  8
1
  6
Continuous
 62
     2
100
AcDbLine
 10
-404.763245824975
 20
-111.5000057220946
 30
0.0
 11
-404.763245824975
 21
-161.5000057220946
 31
0.0
  0
LINE
  5
203
330
A0
100
AcDbEntity
  8
1
  6
Continuous
 62
     6
100
AcDbLine
 10
-399.7632458249749
 20
-111.5000057220946
 30
0.0
 11
-399.7632458249744
 21
-161.5000057220946
 31
0.0
  0
LINE
  5
204
330
A0
100
AcDbEntity
  8
1
  6
Continuous
 62
     2
100
AcDbLine
 10
-404.763245824975
 20
-161.5000057220946
 30
0.0
 11
-399.7632458249744
 21
-161.5000057220946
 31
0.0
  0
LINE
  5
205
330
A0
100
AcDbEntity
  8
1
  6
Continuous
 62
     2
100
AcDbLine
 10
-404.763245824975
 20
-161.5000057220946
 30
0.0
 11
-404.763245824975
 21
-211.5000057220944
 31
0.0
  0
LINE
  5
206
330
A0
100
AcDbEntity
  8
1
  6
Continuous
 62
     6
100
AcDbLine
 10
-399.7632458249744
 20
-161.5000057220946
 30
0.0
 11
-399.7632458249742
 21
-211.5000057220944
 31
0.0
  0
LINE
  5
207
330
A0
100
AcDbEntity
  8
1
  6
Continuous
 62
     2
100
AcDbLine
 10
-404.763245824975
 20
-211.5000057220944
 30
0.0
 11
-399.7632458249742
 21
-211.5000057220944
 31
0.0
  0
LINE
  5
208
330
A0
100
AcDbEntity
  8
1
  6
Continuous
 62
     2
100
AcDbLine
 10
-404.763245824975
 20
-211.5000057220944
 30
0.0
 11
-404.763245824975
 21
-261.5000057220946
 31
0.0
  0
LINE
  5
209
330
A0
100
AcDbEntity
  8
1
  6
Continuous
 62
     6
100
AcDbLine
 10
-399.7632458249742
 20
-211.5000057220944
 30
0.0
 11
-399.763245824974
 21
-261.5000057220946
 31
0.0
  0
LINE
  5
20A
330
A0
100
AcDbEntity
  8
1
  6
Continuous
 62
     2
100
AcDbLine
 10
-356.2632458249759
 20
-266.5000057220947
 30
0.0
 11
-356.2632458249759
 21
-261.5000057220946
 31
0.0
  0
LINE
  5
20B
330
A0
100
AcDbEntity
  8
1
  6
Continuous
 62
     2
100
AcDbLine
 10
-356.2632458249759
 20
-266.5000057220947
 30
0.0
 11
-306.2632458249761
 21
-266.5000057220947
 31
0.0
  0
LINE
  5
20C
330
A0
100
AcDbEntity
  8
1
  6
Continuous
 62
     2
100
AcDbLine
 10
-306.2632458249761
 20
-266.5000057220947
 30
0.0
 11
-306.2632458249761
 21
-261.5000057220946
 31
0.0
  0
LINE
  5
20D
330
A0
100
AcDbEntity
  8
1
  6
Continuous
 62
     2
100
AcDbLine
 10
-306.2632458249761
 20
-266.5000057220947
 30
0.0
 11
-256.2632458249759
 21
-266.5000057220947
 31
0.0
  0
LINE
  5
20E
330
A0
100
AcDbEntity
  8
1
  6
Continuous
 62
     2
100
AcDbLine
 10
-256.2632458249759
 20
-266.5000057220947
 30
0.0
 11
-256.2632458249759
 21
-261.5000057220946
 31
0.0
  0
LINE
  5
20F
330
A0
100
AcDbEntity
  8
1
  6
Continuous
 62
     2
100
AcDbLine
 10
-256.2632458249759
 20
-266.5000057220947
 30
0.0
 11
-206.2632458249759
 21
-266.5000057220947
 31
0.0
  0
LINE
  5
210
330
A0
100
AcDbEntity
  8
1
  6
Continuous
 62
     2
100
AcDbLine
 10
-206.2632458249759
 20
-266.5000057220947
 30
0.0
 11
-206.2632458249759
 21
-261.5000057220946
 31
0.0
  0
LINE
  5
211
330
A0
100
AcDbEntity
  8
1
  6
Continuous
 62
     2
100
AcDbLine
 10
-156.2632458249759
 20
-266.5000057220947
 30
0.0
 11
-156.2632458249759
 21
-261.5000057220946
 31
0.0
  0
LINE
  5
212
330
A0
100
AcDbEntity
  8
1
  6
Continuous
 62
     2
100
AcDbLine
 10
-156.2632458249759
 20
-266.5000057220947
 30
0.0
 11
-206.2632458249759
 21
-266.5000057220947
 31
0.0
  0
LINE
  5
213
330
A0
100
AcDbEntity
  8
1
  6
Continuous
 62
     2
100
AcDbLine
 10
-399.763245824974
 20
-261.5000057220946
 30
0.0
 11
-399.763245824974
 21
-266.5000057220947
 31
0.0
  0
LINE
  5
214
330
A0
100
AcDbEntity
  8
1
  6
Continuous
 62
     2
100
AcDbLine
 10
-399.763245824974
 20
-266.5000057220947
 30
0.0
 11
-356.2632458249759
 21
-266.5000057220947
 31
0.0
  0
LINE
  5
215
330
A0
100
AcDbEntity
  8
1
  6
Continuous
 62
     2
100
AcDbLine
 10
-399.763245824974
 20
-261.5000057220946
 30
0.0
 11
-404.763245824975
 21
-261.5000057220946
 31
0.0
  0
LINE
  5
216
330
A0
100
AcDbEntity
  8
1
  6
Continuous
 62
     2
100
AcDbLine
 10
-404.763245824975
 20
-261.5000057220946
 30
0.0
 11
-404.763245824975
 21
-266.5000057220947
 31
0.0
  0
LINE
  5
217
330
A0
100
AcDbEntity
  8
1
  6
Continuous
 62
     6
100
AcDbLine
 10
-112.7632458249759
 20
-261.5000057220946
 30
0.0
 11
-112.7632458249746
 21
-253.0000057220946
 31
0.0
  0
LINE
  5
218
330
A0
100
AcDbEntity
  8
1
  6
Continuous
 62
     6
100
AcDbLine
 10
-205.908050351726
 20
-261.5000057220947
 30
0.0
 11
-156.2632458249759
 21
-261.5000057220946
 31
0.0
  0
LINE
  5
219
330
A0
100
AcDbEntity
  8
1
  6
Continuous
 62
     6
100
AcDbLine
 10
-358.5632458249762
 20
-261.5000057220947
 30
0.0
 11
-356.2632458249759
 21
-261.5000057220946
 31
0.0
  0
LINE
  5
21A
330
A0
100
AcDbEntity
  8
1
  6
Continuous
 62
     6
100
AcDbLine
 10
-256.2632458249759
 20
-261.5000057220946
 30
0.0
 11
-306.2632458249761
 21
-261.5000057220946
 31
0.0
  0
LINE
  5
21B
330
A0
100
AcDbEntity
  8
1
  6
Continuous
 62
     7
100
AcDbLine
 10
-242.3080503517259
 20
-244.5000057220946
 30
0.0
 11
-242.3080503517259
 21
-257.2500057220947
 31
0.0
  0
LINE
  5
21C
330
A0
100
AcDbEntity
  8
1
  6
Continuous
 62
     7
100
AcDbLine
 10
-205.908050351726
 20
-244.5000057220946
 30
0.0
 11
-205.908050351726
 21
-257.2500057220946
 31
0.0
  0
LINE
  5
21D
330
A0
100
AcDbEntity
  8
1
  6
Continuous
 62
     6
100
AcDbLine
 10
-358.5632458249762
 20
-261.5000057220947
 30
0.0
 11
-364.7632458249742
 21
-261.5000057220946
 31
0.0
  0
LINE
  5
21E
330
A0
100
AcDbEntity
  8
1
  6
Continuous
 62
     6
100
AcDbLine
 10
-205.908050351726
 20
-261.5000057220947
 30
0.0
 11
-206.2632458249759
 21
-261.5000057220946
 31
0.0
  0
LINE
  5
21F
330
A0
100
AcDbEntity
  8
1
  6
Continuous
 62
     6
100
AcDbLine
 10
-112.7632458249742
 20
-244.5000057220946
 30
0.0
 11
-112.7632458249746
 21
-253.0000057220946
 31
0.0
  0
LINE
  5
220
330
A0
100
AcDbEntity
  8
1
  6
Continuous
 62
     6
100
AcDbLine
 10
-364.7632458249742
 20
-261.5000057220946
 30
0.0
 11
-399.763245824974
 21
-261.5000057220946
 31
0.0
  0
LINE
  5
221
330
A0
100
AcDbEntity
  8
1
  6
Continuous
 62
     2
100
AcDbLine
 10
-238.0713954651633
 20
-239.1250057220946
 30
0.0
 11
-233.0713954651633
 21
-237.8750057220946
 31
0.0
  0
LINE
  5
222
330
A0
100
AcDbEntity
  8
1
  6
Continuous
 62
     2
100
AcDbLine
 10
-238.0713954651633
 20
-241.6250057220946
 30
0.0
 11
-238.0713954651633
 21
-239.1250057220946
 31
0.0
  0
LINE
  5
223
330
A0
100
AcDbEntity
  8
1
  6
Continuous
 62
     2
100
AcDbLine
 10
-233.0713954651633
 20
-242.8750057220946
 30
0.0
 11
-238.0713954651633
 21
-241.6250057220946
 31
0.0
  0
LINE
  5
224
330
A0
100
AcDbEntity
  8
1
  6
Continuous
 62
     2
100
AcDbLine
 10
-233.0713954651633
 20
-237.8750057220946
 30
0.0
 11
-233.0713954651633
 21
-242.8750057220946
 31
0.0
  0
LINE
  5
225
330
A0
100
AcDbEntity
  8
1
  6
Continuous
 62
     7
100
AcDbLine
 10
-242.3080503517259
 20
-257.2500057220947
 30
0.0
 11
-224.1080503517259
 21
-257.2500057220946
 31
0.0
  0
LINE
  5
226
330
A0
100
AcDbEntity
  8
1
  6
Continuous
 62
     7
100
AcDbLine
 10
-242.3080503517259
 20
-257.2500057220947
 30
0.0
 11
-242.3080503517259
 21
-261.5000057220947
 31
0.0
  0
LINE
  5
227
330
A0
100
AcDbEntity
  8
1
  6
Continuous
 62
     7
100
AcDbLine
 10
-205.908050351726
 20
-257.2500057220946
 30
0.0
 11
-205.908050351726
 21
-261.5000057220947
 31
0.0
  0
LINE
  5
228
330
A0
100
AcDbEntity
  8
1
  6
Continuous
 62
     7
100
AcDbLine
 10
-224.1080503517259
 20
-257.2500057220946
 30
0.0
 11
-224.1080503517259
 21
-261.5000057220946
 31
0.0
  0
LINE
  5
229
330
A0
100
AcDbEntity
  8
1
  6
Continuous
 62
     6
100
AcDbLine
 10
-224.1080503517259
 20
-261.5000057220946
 30
0.0
 11
-242.3080503517259
 21
-261.5000057220947
 31
0.0
  0
LINE
  5
22A
330
A0
100
AcDbEntity
  8
1
  6
Continuous
 62
     7
100
AcDbLine
 10
-224.1080503517259
 20
-257.2500057220946
 30
0.0
 11
-205.908050351726
 21
-257.2500057220946
 31
0.0
  0
LINE
  5
22B
330
A0
100
AcDbEntity
  8
1
  6
Continuous
 62
     6
100
AcDbLine
 10
-242.3080503517259
 20
-236.0000057220946
 30
0.0
 11
-112.7632458249742
 21
-236.0000057220946
 31
0.0
  0
ARC
  5
22C
102
{ACAD_REACTORS
330
294
330
295
102
}
330
A0
100
AcDbEntity
  8
0
  6
Continuous
 62
     2
100
AcDbCircle
 10
-226.9164023527659
 20
-252.679600960173
 30
0.0
 40
0.7717997786796597
100
AcDbArc
 50
321.879580202845
 51
38.12041979715329
  0
ARC
  5
22D
102
{ACAD_REACTORS
330
294
330
295
102
}
330
A0
100
AcDbEntity
  8
0
  6
Continuous
 62
     2
100
AcDbCircle
 10
-226.7166623164195
 20
-252.836332138293
 30
0.0
 40
0.5179085730137003
100
AcDbArc
 50
218.1204197971882
 51
321.8795802028059
  0
ARC
  5
22E
102
{ACAD_REACTORS
330
294
330
295
102
}
330
A0
100
AcDbEntity
  8
0
  6
Continuous
 62
     2
100
AcDbCircle
 10
-226.5169222800734
 20
-252.679600960173
 30
0.0
 40
0.7717997786794633
100
AcDbArc
 50
141.8795802028363
 51
218.1204197971654
  0
ARC
  5
22F
102
{ACAD_REACTORS
330
294
330
295
102
}
330
A0
100
AcDbEntity
  8
0
  6
Continuous
 62
     2
100
AcDbCircle
 10
-226.7166623164195
 20
-252.5228697820525
 30
0.0
 40
0.5179085730133174
100
AcDbArc
 50
38.1204197971495
 51
141.8795802028563
  0
ARC
  5
230
102
{ACAD_REACTORS
330
28C
330
28D
102
}
330
A0
100
AcDbEntity
  8
0
  6
Continuous
 62
     2
100
AcDbCircle
 10
-229.7786764519834
 20
-254.0900673255812
 30
0.0
 40
2.227384008973478
100
AcDbArc
 50
58.06909105004071
 51
71.55192388186745
  0
ARC
  5
231
102
{ACAD_REACTORS
330
28C
330
28D
102
}
330
A0
100
AcDbEntity
  8
0
  6
Continuous
 62
     2
100
AcDbCircle
 10
-229.5169487510246
 20
-252.474529530834
 30
0.0
 40
0.511580060194863
100
AcDbArc
 50
113.3722778882033
 51
151.4785267423059
  0
ARC
  5
232
102
{ACAD_REACTORS
330
28C
330
28D
102
}
330
A0
100
AcDbEntity
  8
0
  6
Continuous
 62
     2
100
AcDbCircle
 10
-229.1395914929443
 20
-252.679600960173
 30
0.0
 40
0.9410597353332545
100
AcDbArc
 50
151.4785267422669
 51
208.5214732577073
  0
ARC
  5
233
102
{ACAD_REACTORS
330
28C
330
28D
102
}
330
A0
100
AcDbEntity
  8
0
  6
Continuous
 62
     2
100
AcDbCircle
 10
-229.9365493270763
 20
-249.3669200149166
 30
0.0
 40
4.852596863498169
100
AcDbArc
 50
275.1581447696253
 51
285.9799912583529
  0
ARC
  5
234
102
{ACAD_REACTORS
330
28C
330
28D
102
}
330
A0
100
AcDbEntity
  8
0
  6
Continuous
 62
     2
100
AcDbCircle
 10
-229.6476932323404
 20
-252.5668105981382
 30
0.0
 40
1.63969512393938
100
AcDbArc
 50
195.0618917770886
 51
275.1581447696406
  0
ARC
  5
235
102
{ACAD_REACTORS
330
28C
330
28D
102
}
330
A0
100
AcDbEntity
  8
0
  6
Continuous
 62
     2
100
AcDbCircle
 10
-230.0668210758032
 20
-252.679600960173
 30
0.0
 40
1.205656168390959
100
AcDbArc
 50
164.9381082228738
 51
195.0618917770948
  0
ARC
  5
236
102
{ACAD_REACTORS
330
28C
330
28D
102
}
330
A0
100
AcDbEntity
  8
0
  6
Continuous
 62
     2
100
AcDbCircle
 10
-229.6476932323404
 20
-252.7923913222079
 30
0.0
 40
1.639695123940509
100
AcDbArc
 50
84.84185523036136
 51
164.9381082228846
  0
ARC
  5
237
102
{ACAD_REACTORS
330
290
330
291
102
}
330
A0
100
AcDbEntity
  8
0
  6
Continuous
 62
     2
100
AcDbCircle
 10
-234.4777074865023
 20
-251.6457741658187
 30
0.0
 40
0.3157169230765071
100
AcDbArc
 50
115.3740086783541
 51
180.0
  0
ARC
  5
238
102
{ACAD_REACTORS
330
290
330
291
102
}
330
A0
100
AcDbEntity
  8
0
  6
Continuous
 62
     2
100
AcDbCircle
 10
-234.4777074865023
 20
-249.4274909658824
 30
0.0
 40
0.315716923076792
100
AcDbArc
 50
180.0
 51
244.6259913216525
  0
ARC
  5
239
102
{ACAD_REACTORS
330
290
330
291
102
}
330
A0
100
AcDbEntity
  8
0
  6
Continuous
 62
     2
100
AcDbCircle
 10
-234.4720913511923
 20
-250.5247906249448
 30
0.0
 40
2.018561131933237
100
AcDbArc
 50
269.8110329575858
 51
90.18896704241416
  0
ARC
  5
23A
102
{ACAD_REACTORS
330
290
330
291
102
}
330
A0
100
AcDbEntity
  8
0
  6
Continuous
 62
     2
100
AcDbCircle
 10
-234.4777074865023
 20
-252.2276255725137
 30
0.0
 40
0.315716923076792
100
AcDbArc
 50
180.0
 51
269.8110329574542
  0
ARC
  5
23B
102
{ACAD_REACTORS
330
28E
330
28F
102
}
330
A0
100
AcDbEntity
  8
0
  6
Continuous
 62
     2
100
AcDbCircle
 10
-213.4142472717717
 20
-252.474529530834
 30
0.0
 40
0.5115800601944143
100
AcDbArc
 50
109.3371432194853
 51
151.4785267424225
  0
ARC
  5
23C
102
{ACAD_REACTORS
330
28E
330
28F
102
}
330
A0
100
AcDbEntity
  8
0
  6
Continuous
 62
     2
100
AcDbCircle
 10
-213.4142472717717
 20
-252.8846723895115
 30
0.0
 40
0.511580060196008
100
AcDbArc
 50
208.5214732576838
 51
246.6277221118449
  0
ARC
  5
23D
102
{ACAD_REACTORS
330
28E
330
28F
102
}
330
A0
100
AcDbEntity
  8
0
  6
Continuous
 62
     2
100
AcDbCircle
 10
-213.9641195965491
 20
-252.679600960173
 30
0.0
 40
1.205656168393017
100
AcDbArc
 50
164.9381082229002
 51
195.0618917770972
  0
ARC
  5
23E
102
{ACAD_REACTORS
330
28E
330
28F
102
}
330
A0
100
AcDbEntity
  8
0
  6
Continuous
 62
     2
100
AcDbCircle
 10
-213.5449917530875
 20
-252.7923913222079
 30
0.0
 40
1.639695123940186
100
AcDbArc
 50
90.0
 51
164.938108222893
  0
ARC
  5
23F
102
{ACAD_REACTORS
330
292
330
293
102
}
330
A0
100
AcDbEntity
  8
0
  6
Continuous
 62
     2
100
AcDbCircle
 10
-222.9719868457912
 20
-249.3204104839986
 30
0.0
 40
1.526904761905797
100
AcDbArc
 50
90.0
 51
270.0
  0
ARC
  5
240
102
{ACAD_REACTORS
330
296
330
297
102
}
330
A0
100
AcDbEntity
  8
0
  6
Continuous
 62
     2
100
AcDbCircle
 10
-229.714677591017
 20
-248.809475392204
 30
0.0
 40
0.3528638246710898
100
AcDbArc
 50
270.0
 51
90.0
  0
ARC
  5
241
102
{ACAD_REACTORS
330
290
330
291
102
}
330
A0
100
AcDbEntity
  8
0
  6
Continuous
 62
     2
100
AcDbCircle
 10
-237.053256173034
 20
-248.8217782007276
 30
0.0
 40
0.3157169230761951
100
AcDbArc
 50
90.0
 51
180.0
  0
ARC
  5
242
102
{ACAD_REACTORS
330
290
330
291
102
}
330
A0
100
AcDbEntity
  8
0
  6
Continuous
 62
     2
100
AcDbCircle
 10
-235.0548384644494
 20
-250.5366325658503
 30
0.0
 40
0.9118975235576917
100
AcDbArc
 50
115.194410648526
 51
244.8055893514869
  0
ARC
  5
243
102
{ACAD_REACTORS
330
290
330
291
102
}
330
A0
100
AcDbEntity
  8
0
  6
Continuous
 62
     2
100
AcDbCircle
 10
-235.5774229120244
 20
-251.6474623119131
 30
0.0
 40
0.315716923076593
100
AcDbArc
 50
0.0
 51
64.80558935146249
  0
ARC
  5
244
102
{ACAD_REACTORS
330
290
330
291
102
}
330
A0
100
AcDbEntity
  8
0
  6
Continuous
 62
     2
100
AcDbCircle
 10
-237.6471508497805
 20
-253.782261106695
 30
0.0
 40
0.4242446153828041
100
AcDbArc
 50
180.0
 51
270.0
  0
ARC
  5
245
102
{ACAD_REACTORS
330
292
330
293
102
}
330
A0
100
AcDbEntity
  8
0
  6
Continuous
 62
     2
100
AcDbCircle
 10
-222.755714835626
 20
-249.1636793058782
 30
0.0
 40
0.5179085730135266
100
AcDbArc
 50
38.12041979714334
 51
141.8795802028489
  0
ARC
  5
246
102
{ACAD_REACTORS
330
292
330
293
102
}
330
A0
100
AcDbEntity
  8
0
  6
Continuous
 62
     2
100
AcDbCircle
 10
-222.5559747992797
 20
-249.3204104839986
 30
0.0
 40
0.7717997786796198
100
AcDbArc
 50
141.8795802028454
 51
218.1204197971612
  0
ARC
  5
247
102
{ACAD_REACTORS
330
294
330
295
102
}
330
A0
100
AcDbEntity
  8
0
  6
Continuous
 62
     2
100
AcDbCircle
 10
-226.7166623164195
 20
-252.1410259498697
 30
0.0
 40
2.065479772208509
100
AcDbArc
 50
242.4518518243402
 51
297.5481481756871
  0
ARC
  5
248
102
{ACAD_REACTORS
330
294
330
295
102
}
330
A0
100
AcDbEntity
  8
0
  6
Continuous
 62
     2
100
AcDbCircle
 10
-226.7166623164195
 20
-253.2181759704758
 30
0.0
 40
2.065479772208593
100
AcDbArc
 50
62.45185182430674
 51
117.548148175666
  0
ARC
  5
249
102
{ACAD_REACTORS
330
294
330
295
102
}
330
A0
100
AcDbEntity
  8
0
  6
Continuous
 62
     2
100
AcDbCircle
 10
-226.9976022082528
 20
-252.679600960173
 30
0.0
 40
1.45803408365149
100
AcDbArc
 50
117.5481481756624
 51
242.4518518243375
  0
ARC
  5
24A
102
{ACAD_REACTORS
330
294
330
295
102
}
330
A0
100
AcDbEntity
  8
0
  6
Continuous
 62
     2
100
AcDbCircle
 10
-226.4357224245862
 20
-252.679600960173
 30
0.0
 40
1.458034083652003
100
AcDbArc
 50
297.548148175701
 51
62.45185182429896
  0
ARC
  5
24B
102
{ACAD_REACTORS
330
292
330
293
102
}
330
A0
100
AcDbEntity
  8
0
  6
Continuous
 62
     2
100
AcDbCircle
 10
-222.755714835626
 20
-249.4771416621191
 30
0.0
 40
0.5179085730134372
100
AcDbArc
 50
218.1204197971511
 51
321.8795802028566
  0
ARC
  5
24C
102
{ACAD_REACTORS
330
292
330
293
102
}
330
A0
100
AcDbEntity
  8
0
  6
Continuous
 62
     2
100
AcDbCircle
 10
-222.9554548719722
 20
-249.3204104839986
 30
0.0
 40
0.77179977867969
100
AcDbArc
 50
321.8795802028388
 51
38.12041979715458
  0
ARC
  5
24D
102
{ACAD_REACTORS
330
290
330
291
102
}
330
A0
100
AcDbEntity
  8
0
  6
Continuous
 62
     2
100
AcDbCircle
 10
-232.1738387590637
 20
-253.782261106695
 30
0.0
 40
0.4242446153833157
100
AcDbArc
 50
270.0
 51
0.0
  0
ARC
  5
24E
102
{ACAD_REACTORS
330
290
330
291
102
}
330
A0
100
AcDbEntity
  8
0
  6
Continuous
 62
     2
100
AcDbCircle
 10
-232.1738387590637
 20
-248.2177503374948
 30
0.0
 40
0.4242446153839126
100
AcDbArc
 50
0.0
 51
90.0
  0
ARC
  5
24F
102
{ACAD_REACTORS
330
290
330
291
102
}
330
A0
100
AcDbEntity
  8
0
  6
Continuous
 62
     2
100
AcDbCircle
 10
-237.6471508497805
 20
-248.2177503374948
 30
0.0
 40
0.4242446153837989
100
AcDbArc
 50
90.0
 51
180.0
  0
ARC
  5
250
102
{ACAD_REACTORS
330
290
330
291
102
}
330
A0
100
AcDbEntity
  8
0
  6
Continuous
 62
     2
100
AcDbCircle
 10
-235.5774229120244
 20
-253.1782332434447
 30
0.0
 40
0.3157169230766783
100
AcDbArc
 50
270.0
 51
0.0
  0
ARC
  5
251
102
{ACAD_REACTORS
330
290
330
291
102
}
330
A0
100
AcDbEntity
  8
0
  6
Continuous
 62
     2
100
AcDbCircle
 10
-235.5774229120244
 20
-249.4258028197881
 30
0.0
 40
0.3157169230760688
100
AcDbArc
 50
295.1944106485441
 51
0.0
  0
ARC
  5
252
102
{ACAD_REACTORS
330
290
330
291
102
}
330
A0
100
AcDbEntity
  8
0
  6
Continuous
 62
     2
100
AcDbCircle
 10
-235.5774229120244
 20
-248.8217782007276
 30
0.0
 40
0.315716923076593
100
AcDbArc
 50
0.0
 51
90.0
  0
ARC
  5
253
102
{ACAD_REACTORS
330
290
330
291
102
}
330
A0
100
AcDbEntity
  8
0
  6
Continuous
 62
     2
100
AcDbCircle
 10
-237.053256173034
 20
-253.1782332434447
 30
0.0
 40
0.315716923075712
100
AcDbArc
 50
180.0
 51
270.0
  0
ARC
  5
254
102
{ACAD_REACTORS
330
296
330
297
102
}
330
A0
100
AcDbEntity
  8
0
  6
Continuous
 62
     2
100
AcDbCircle
 10
-229.2732050647786
 20
-248.8488713634264
 30
0.0
 40
1.055365641333793
100
AcDbArc
 50
270.0
 51
90.0
  0
ARC
  5
255
102
{ACAD_REACTORS
330
28E
330
28F
102
}
330
A0
100
AcDbEntity
  8
0
  6
Continuous
 62
     2
100
AcDbCircle
 10
-213.5449917530875
 20
-252.5668105981382
 30
0.0
 40
1.639695123940448
100
AcDbArc
 50
195.0618917771012
 51
275.1581447696762
  0
ARC
  5
256
102
{ACAD_REACTORS
330
28E
330
28F
102
}
330
A0
100
AcDbEntity
  8
0
  6
Continuous
 62
     2
100
AcDbCircle
 10
-213.8338478478233
 20
-249.3669200149166
 30
0.0
 40
4.852596863498853
100
AcDbArc
 50
275.1581447696363
 51
285.9799912583387
  0
ARC
  5
257
102
{ACAD_REACTORS
330
28E
330
28F
102
}
330
A0
100
AcDbEntity
  8
0
  6
Continuous
 62
     2
100
AcDbCircle
 10
-213.6759749727305
 20
-251.2691345947649
 30
0.0
 40
2.227384008972665
100
AcDbArc
 50
288.4480761181342
 51
301.9309089499409
  0
ARC
  5
258
102
{ACAD_REACTORS
330
28E
330
28F
102
}
330
A0
100
AcDbEntity
  8
0
  6
Continuous
 62
     2
100
AcDbCircle
 10
-213.2578072390686
 20
-252.5226803708015
 30
0.0
 40
0.9059297849852801
100
AcDbArc
 50
246.6277221118183
 51
288.448076118084
  0
ARC
  5
259
102
{ACAD_REACTORS
330
28E
330
28F
102
}
330
A0
100
AcDbEntity
  8
0
  6
Continuous
 62
     2
100
AcDbCircle
 10
-213.0368900136903
 20
-252.679600960173
 30
0.0
 40
0.9410597353348924
100
AcDbArc
 50
151.4785267423624
 51
208.5214732576695
  0
ARC
  5
25A
102
{ACAD_REACTORS
330
28E
330
28F
102
}
330
A0
100
AcDbEntity
  8
0
  6
Continuous
 62
     2
100
AcDbCircle
 10
-213.267577273668
 20
-252.8924845112169
 30
0.0
 40
0.9545230068260935
100
AcDbArc
 50
90.0
 51
109.3371432194314
  0
ARC
  5
25B
102
{ACAD_REACTORS
330
290
330
291
102
}
330
A0
100
AcDbEntity
  8
0
  6
Continuous
 62
     2
100
AcDbCircle
 10
-234.4777074865023
 20
-248.8219556773757
 30
0.0
 40
0.3157169230760711
100
AcDbArc
 50
90.18896704254594
 51
180.0
  0
ARC
  5
25C
102
{ACAD_REACTORS
330
290
330
291
102
}
330
A0
100
AcDbEntity
  8
0
  6
Continuous
 62
     2
100
AcDbCircle
 10
-235.0037501845902
 20
-250.5366325658503
 30
0.0
 40
0.911848150144459
100
AcDbArc
 50
295.3740086781764
 51
64.62599132180823
  0
ARC
  5
25D
102
{ACAD_REACTORS
330
28C
330
28D
102
}
330
A0
100
AcDbEntity
  8
0
  6
Continuous
 62
     2
100
AcDbCircle
 10
-229.7786764519834
 20
-251.2691345947643
 30
0.0
 40
2.227384008972764
100
AcDbArc
 50
288.4480761181326
 51
301.9309089499593
  0
ARC
  5
25E
102
{ACAD_REACTORS
330
28C
330
28D
102
}
330
A0
100
AcDbEntity
  8
0
  6
Continuous
 62
     2
100
AcDbCircle
 10
-229.3605087183226
 20
-252.5226803708015
 30
0.0
 40
0.9059297849849192
100
AcDbArc
 50
246.627722111871
 51
288.4480761181584
  0
ARC
  5
25F
102
{ACAD_REACTORS
330
28C
330
28D
102
}
330
A0
100
AcDbEntity
  8
0
  6
Continuous
 62
     2
100
AcDbCircle
 10
-229.5169487510246
 20
-252.8846723895115
 30
0.0
 40
0.5115800601948284
100
AcDbArc
 50
208.521473257694
 51
246.6277221118245
  0
ARC
  5
260
102
{ACAD_REACTORS
330
28C
330
28D
102
}
330
A0
100
AcDbEntity
  8
0
  6
Continuous
 62
     2
100
AcDbCircle
 10
-229.3605087183226
 20
-252.8365215495446
 30
0.0
 40
0.9059297849853498
100
AcDbArc
 50
71.55192388185405
 51
113.372277888129
  0
ARC
  5
261
102
{ACAD_REACTORS
330
28C
330
28D
102
}
330
A0
100
AcDbEntity
  8
0
  6
Continuous
 62
     2
100
AcDbCircle
 10
-229.9365493270763
 20
-255.9922819054289
 30
0.0
 40
4.852596863498095
100
AcDbArc
 50
74.02000874164747
 51
84.84185523037475
  0
CIRCLE
  5
262
102
{ACAD_REACTORS
330
290
330
291
102
}
330
A0
100
AcDbEntity
  8
0
  6
Continuous
 62
     2
100
AcDbCircle
 10
-235.027565199263
 20
-250.5366325658503
 30
0.0
 40
0.4709789327785074
  0
CIRCLE
  5
263
330
A0
100
AcDbEntity
  8
1
  6
Continuous
 62
     2
100
AcDbCircle
 10
-229.5713954651633
 20
-240.3750057220946
 30
0.0
 40
1.249999999999915
  0
CIRCLE
  5
264
330
A0
100
AcDbEntity
  8
1
  6
Continuous
 62
     2
100
AcDbCircle
 10
-229.5713954651633
 20
-240.3750057220946
 30
0.0
 40
2.5
  0
TEXT
  5
265
330
A0
100
AcDbEntity
  8
1
 62
     7
100
AcDbText
 10
-186.9345026297121
 20
-243.2000057220947
 30
0.0
 40
2.5
  1
/
 41
0.9
  7
CONVERTER_11
100
AcDbText
  0
TEXT
  5
267
330
A0
100
AcDbEntity
  8
1
 62
     7
100
AcDbText
 10
-184.7781381326701
 20
-243.2000057220947
 30
0.0
 40
2.5
  1
01
 41
0.81
  7
CONVERTER_12
100
AcDbText
  0
TEXT
  5
268
330
A0
100
AcDbEntity
  8
1
 62
     3
100
AcDbText
 10
-147.181654106653
 20
-243.2000057220947
 30
0.0
 40
2.5
  1
08.04.2020
 41
0.81
  7
CONVERTER_12
100
AcDbText
  0
MTEXT
  5
269
330
A0
100
AcDbEntity
  8
1
 62
     2
100
AcDbMText
 10
-147.181654106653
 20
-237.0000057220946
 30
0.0
 40
1.8
 41
0.0
 71
     1
 72
     1
  1
date
  7
CONVERTER_11
 73
     1
 44
1.32052821128451
  0
MTEXT
  5
26A
330
A0
100
AcDbEntity
  8
1
 62
     2
100
AcDbMText
 10
-177.0080503517259
 20
-245.5000057220946
 30
0.0
 40
1.8
 41
0.0
 71
     1
 72
     1
  1
document-type
  7
CONVERTER_11
 73
     1
 44
1.20048019207683
  0
TEXT
  5
26B
330
A0
100
AcDbEntity
  8
1
 62
     3
100
AcDbText
 10
-177.0080503517259
 20
-251.7000057220947
 30
0.0
 40
2.5
  1
TECDOC 2D_Productdrawing
 41
0.81
  7
CONVERTER_12
100
AcDbText
  0
MTEXT
  5
26D
330
A0
100
AcDbEntity
  8
1
 62
     2
100
AcDbMText
 10
-204.8080503517259
 20
-237.0000057220946
 30
0.0
 40
1.8
 41
0.0
 71
     1
 72
     1
  1
document-No. / RI
  7
CONVERTER_13
 73
     1
 44
1.32052821128451
  0
TEXT
  5
26E
330
A0
100
AcDbEntity
  8
1
 62
     7
100
AcDbText
 10
-204.8080503517259
 20
-243.2000057220947
 30
0.0
 40
2.5
  1
01143708
 41
0.81
  7
CONVERTER_12
100
AcDbText
  0
MTEXT
  5
270
330
A0
100
AcDbEntity
  8
1
 62
     3
100
AcDbMText
 10
-117.2224499658136
 20
-243.2000057220945
 30
0.0
 40
2.5
 41
0.0
 71
     8
 72
     1
  1
2:1
  7
CONVERTER_14
 73
     1
 44
1.32052821128451
  0
MTEXT
  5
271
330
A0
100
AcDbEntity
  8
1
 62
     2
100
AcDbMText
 10
-120.5816541066532
 20
-237.0000057220946
 30
0.0
 40
1.8
 41
0.0
 71
     1
 72
     1
  1
scale
  7
CONVERTER_11
 73
     1
 44
1.20048019207683
  0
MTEXT
  5
272
330
A0
100
AcDbEntity
  8
1
 62
     2
100
AcDbMText
 10
-204.8080503517259
 20
-245.5000057220946
 30
0.0
 40
1.8
 41
0.0
 71
     1
 72
     1
  1
ident.-No.
  7
CONVERTER_11
 73
     1
 44
1.20048019207683
  0
TEXT
  5
273
330
A0
100
AcDbEntity
  8
1
 62
     7
100
AcDbText
 10
-204.4080503517262
 20
-251.7000057220947
 30
0.0
 40
2.5
  1
1645846
 41
0.81
  7
CONVERTER_12
100
AcDbText
  0
MTEXT
  5
274
330
A0
100
AcDbEntity
  8
1
 62
     2
100
AcDbMText
 10
-276.7460650767735
 20
-248.7500057220946
 30
0.0
 40
2.0
 41
0.0
 71
     5
 72
     1
  1
General Information\P- Simplified representation\P- Document excluded from change process\P- Linear dimensions [mm]
  7
CONVERTER_11
 73
     1
 44
1.20048019207683
  0
MTEXT
  5
275
330
A0
100
AcDbEntity
  8
1
 62
     7
100
AcDbMText
 10
-110.2632458249769
 20
-186.5000057220927
 30
0.0
 40
3.5
 41
0.0
 71
     5
 72
     1
  1
C
  7
CONVERTER_11
 73
     1
 44
1.20048019207683
  0
MTEXT
  5
276
330
A0
100
AcDbEntity
  8
1
 62
     7
100
AcDbMText
 10
-110.2632458249769
 20
-84.00000572209456
 30
0.0
 40
3.5
 41
0.0
 71
     5
 72
     1
  1
A
  7
CONVERTER_11
 73
     1
 44
1.20048019207683
  0
MTEXT
  5
277
330
A0
100
AcDbEntity
  8
1
 62
     7
100
AcDbMText
 10
-110.2632458249769
 20
-136.5000057220927
 30
0.0
 40
3.5
 41
0.0
 71
     5
 72
     1
  1
B
  7
CONVERTER_11
 73
     1
 44
1.20048019207683
  0
MTEXT
  5
278
330
A0
100
AcDbEntity
  8
1
 62
     7
100
AcDbMText
 10
-110.2632458249769
 20
-239.0000057220946
 30
0.0
 40
3.5
 41
0.0
 71
     5
 72
     1
  1
D
  7
CONVERTER_11
 73
     1
 44
1.20048019207683
  0
MTEXT
  5
279
330
A0
100
AcDbEntity
  8
1
 62
     7
100
AcDbMText
 10
-380.5132458249755
 20
-264.0000057220947
 30
0.0
 40
3.5
 41
0.0
 71
     5
 72
     1
  1
1
  7
CONVERTER_11
 73
     1
 44
1.20048019207683
  0
MTEXT
  5
27A
330
A0
100
AcDbEntity
  8
1
 62
     7
100
AcDbMText
 10
-331.2632458249759
 20
-264.0000057220947
 30
0.0
 40
3.5
 41
0.0
 71
     5
 72
     1
  1
2
  7
CONVERTER_11
 73
     1
 44
1.20048019207683
  0
MTEXT
  5
27B
330
A0
100
AcDbEntity
  8
1
 62
     7
100
AcDbMText
 10
-281.2632458249759
 20
-264.0000057220947
 30
0.0
 40
3.5
 41
0.0
 71
     5
 72
     1
  1
3
  7
CONVERTER_11
 73
     1
 44
1.20048019207683
  0
MTEXT
  5
27C
330
A0
100
AcDbEntity
  8
1
 62
     7
100
AcDbMText
 10
-231.263245824976
 20
-264.0000057220947
 30
0.0
 40
3.5
 41
0.0
 71
     5
 72
     1
  1
4
  7
CONVERTER_11
 73
     1
 44
1.20048019207683
  0
MTEXT
  5
27D
330
A0
100
AcDbEntity
  8
1
 62
     7
100
AcDbMText
 10
-181.2632458249759
 20
-264.0000057220947
 30
0.0
 40
3.5
 41
0.0
 71
     5
 72
     1
  1
5
  7
CONVERTER_11
 73
     1
 44
1.20048019207683
  0
MTEXT
  5
27E
330
A0
100
AcDbEntity
  8
1
 62
     7
100
AcDbMText
 10
-132.0132458249767
 20
-264.0000057220947
 30
0.0
 40
3.5
 41
0.0
 71
     5
 72
     1
  1
6
  7
CONVERTER_11
 73
     1
 44
1.20048019207683
  0
MTEXT
  5
27F
330
A0
100
AcDbEntity
  8
1
 62
     7
100
AcDbMText
 10
-402.263245824975
 20
-84.00000572209456
 30
0.0
 40
3.5
 41
0.0
 71
     5
 72
     1
  1
A
  7
CONVERTER_11
 73
     1
 44
1.20048019207683
  0
MTEXT
  5
280
330
A0
100
AcDbEntity
  8
1
 62
     7
100
AcDbMText
 10
-402.263245824975
 20
-136.5000057220946
 30
0.0
 40
3.5
 41
0.0
 71
     5
 72
     1
  1
B
  7
CONVERTER_11
 73
     1
 44
1.20048019207683
  0
MTEXT
  5
281
330
A0
100
AcDbEntity
  8
1
 62
     7
100
AcDbMText
 10
-402.263245824975
 20
-186.5000057220946
 30
0.0
 40
3.5
 41
0.0
 71
     5
 72
     1
  1
C
  7
CONVERTER_11
 73
     1
 44
1.20048019207683
  0
MTEXT
  5
282
330
A0
100
AcDbEntity
  8
1
 62
     7
100
AcDbMText
 10
-402.263245824975
 20
-239.0000057220946
 30
0.0
 40
3.5
 41
0.0
 71
     5
 72
     1
  1
D
  7
CONVERTER_11
 73
     1
 44
1.20048019207683
  0
MTEXT
  5
283
330
A0
100
AcDbEntity
  8
1
 62
     3
100
AcDbMText
 10
-216.108050351726
 20
-240.3750057220946
 30
0.0
 40
2.5
 41
0.0
 71
     5
 72
     1
  1
DIN A4
  7
CONVERTER_11
 73
     1
 44
1.20048019207683
  0
MTEXT
  5
284
330
A0
100
AcDbEntity
  8
1
 62
     2
100
AcDbMText
 10
-204.908050351726
 20
-254.0000057220946
 30
0.0
 40
1.8
 41
0.0
 71
     1
 72
     1
  1
description
  7
CONVERTER_11
 73
     1
 44
1.20048019207683
  0
MTEXT
  5
285
330
A0
100
AcDbEntity
  8
1
 62
     7
100
AcDbMText
 10
-159.3356480883504
 20
-258.2500057220943
 30
0.0
 40
3.0
 41
0.0
 71
     5
 72
     1
  1
HC-M-BS-M20
  7
CONVERTER_12
 73
     1
 44
1.20048019207683
  0
TEXT
  5
286
330
A0
100
AcDbEntity
  8
1
 62
     2
100
AcDbText
 10
-217.8727415419124
 20
-260.2500057220947
 30
0.0
 40
1.8
  1
1
 41
0.9
  7
CONVERTER_11
100
AcDbText
  0
TEXT
  5
287
330
A0
100
AcDbEntity
  8
1
 62
     2
100
AcDbText
 10
-232.6617853813839
 20
-260.2992543758966
 30
0.0
 40
1.8
  1
1
 41
0.9
  7
CONVERTER_11
100
AcDbText
  0
TEXT
  5
288
330
A0
100
AcDbEntity
  8
1
 62
     2
100
AcDbText
 10
-241.3080503517259
 20
-260.2590229370862
 30
0.0
 40
1.8
  1
page
 41
0.9
  7
CONVERTER_11
100
AcDbText
  0
TEXT
  5
289
330
A0
100
AcDbEntity
  8
1
 62
     2
100
AcDbText
 10
-223.1080503517261
 20
-260.2590229370862
 30
0.0
 40
1.8
  1
of
 41
0.9
  7
CONVERTER_11
100
AcDbText
  0
MTEXT
  5
28A
330
A0
100
AcDbEntity
  8
1
 62
     3
100
AcDbMText
 10
-216.905068200116
 20
-74.70869756679576
 30
0.0
 40
1.8
 41
0.0
 71
     7
 72
     1
  3
Transfer or duplication of this document as well as the utilisation or\Pcommunication of its content are not permitted unless express consent\Pis granted. Violations give rise to claims for damages. All rights reserved\Pin case of patent, utility mo
  1
del or design patent registrations.
  7
CONVERTER_11
 73
     1
 44
0.99639855942377
  0
MTEXT
  5
28B
330
A0
100
AcDbEntity
  8
1
 62
     3
100
AcDbMText
 10
-399.7581780389041
 20
-74.70869756679576
 30
0.0
 40
1.8
 41
0.0
 71
     7
 72
     1
  3
Weitergabe sowie Vervielfältigung dieses Dokuments, Verwertung und \PMitteilung seines Inhalts sind verboten, soweit nicht ausdrücklich gestattet. \PZuwiderhandlungen verpflichten zu Schadenersatz. Alle Rechte für den Fall\Pder Patent-, Gebrauchsmus
  1
ter- oder Designeintragung vorbehalten.
  7
CONVERTER_11
 73
     1
 44
0.99639855942377
  0
HATCH
  5
28C
330
A0
100
AcDbEntity
  8
1
  6
Continuous
 62
     2
100
AcDbHatch
 10
0.0
 20
0.0
 30
0.0
210
0.0
220
0.0
230
1.0
  2
_USER
 70
     0
 71
     1
 91
        1
 92
        1
 93
       14
 72
     2
 10
-230.0668210758032
 20
-252.679600960173
 40
1.205656168390959
 50
164.9381082228738
 51
195.0618917770948
 73
     1
 72
     2
 10
-229.6476932323404
 20
-252.5668105981382
 40
1.63969512393938
 50
195.0618917770886
 51
275.1581447696406
 73
     1
 72
     2
 10
-229.9365493270763
 20
-249.3669200149166
 40
4.852596863498169
 50
275.1581447696253
 51
285.9799912583529
 73
     1
 72
     1
 10
-228.6006214099585
 20
-254.0320023207174
 11
-228.6006214099585
 21
-253.1594853139142
 72
     2
 10
-229.7786764519834
 20
-251.2691345947643
 40
2.227384008972764
 50
58.0690910500407
 51
71.55192388186742
 73
     0
 72
     2
 10
-229.3605087183226
 20
-252.5226803708015
 40
0.9059297849849192
 50
71.55192388184153
 51
113.372277888129
 73
     0
 72
     2
 10
-229.5169487510246
 20
-252.8846723895115
 40
0.5115800601948284
 50
113.3722778881755
 51
151.4785267423059
 73
     0
 72
     2
 10
-229.1395914929443
 20
-252.679600960173
 40
0.9410597353332545
 50
151.4785267422927
 51
208.5214732577331
 73
     0
 72
     2
 10
-229.5169487510246
 20
-252.474529530834
 40
0.511580060194863
 50
208.521473257694
 51
246.6277221117967
 73
     0
 72
     2
 10
-229.3605087183226
 20
-252.8365215495446
 40
0.9059297849853498
 50
246.627722111871
 51
288.4480761181459
 73
     0
 72
     2
 10
-229.7786764519834
 20
-254.0900673255812
 40
2.227384008973478
 50
288.4480761181326
 51
301.9309089499593
 73
     0
 72
     1
 10
-228.6006214099585
 20
-252.1997166064313
 11
-228.6006214099585
 21
-251.327199599628
 72
     2
 10
-229.9365493270763
 20
-255.9922819054289
 40
4.852596863498095
 50
74.02000874164747
 51
84.84185523037475
 73
     1
 72
     2
 10
-229.6476932323404
 20
-252.7923913222079
 40
1.639695123940509
 50
84.84185523036136
 51
164.9381082228846
 73
     1
 97
       14
330
261
330
17A
330
230
330
260
330
231
330
232
330
25F
330
25E
330
25D
330
17B
330
233
330
234
330
235
330
236
 75
     1
 76
     0
 52
45.0
 41
0.1
 77
     0
 78
     1
 53
45.0
 43
0.0
 44
0.0
 45
-0.0707106781186548
 46
0.0707106781186548
 79
     0
 98
        1
 10
0.0
 20
0.0
  0
HATCH
  5
28D
330
A0
100
AcDbEntity
  8
1
  6
Continuous
 62
     2
100
AcDbHatch
 10
0.0
 20
0.0
 30
0.0
210
0.0
220
0.0
230
1.0
  2
_USER
 70
     0
 71
     1
 91
        1
 92
        1
 93
       14
 72
     2
 10
-230.0668210758032
 20
-252.679600960173
 40
1.205656168390959
 50
164.9381082228738
 51
195.0618917770948
 73
     1
 72
     2
 10
-229.6476932323404
 20
-252.5668105981382
 40
1.63969512393938
 50
195.0618917770886
 51
275.1581447696406
 73
     1
 72
     2
 10
-229.9365493270763
 20
-249.3669200149166
 40
4.852596863498169
 50
275.1581447696253
 51
285.9799912583529
 73
     1
 72
     1
 10
-228.6006214099585
 20
-254.0320023207174
 11
-228.6006214099585
 21
-253.1594853139142
 72
     2
 10
-229.7786764519834
 20
-251.2691345947643
 40
2.227384008972764
 50
58.0690910500407
 51
71.55192388186742
 73
     0
 72
     2
 10
-229.3605087183226
 20
-252.5226803708015
 40
0.9059297849849192
 50
71.55192388184153
 51
113.372277888129
 73
     0
 72
     2
 10
-229.5169487510246
 20
-252.8846723895115
 40
0.5115800601948284
 50
113.3722778881755
 51
151.4785267423059
 73
     0
 72
     2
 10
-229.1395914929443
 20
-252.679600960173
 40
0.9410597353332545
 50
151.4785267422927
 51
208.5214732577331
 73
     0
 72
     2
 10
-229.5169487510246
 20
-252.474529530834
 40
0.511580060194863
 50
208.521473257694
 51
246.6277221117967
 73
     0
 72
     2
 10
-229.3605087183226
 20
-252.8365215495446
 40
0.9059297849853498
 50
246.627722111871
 51
288.4480761181459
 73
     0
 72
     2
 10
-229.7786764519834
 20
-254.0900673255812
 40
2.227384008973478
 50
288.4480761181326
 51
301.9309089499593
 73
     0
 72
     1
 10
-228.6006214099585
 20
-252.1997166064313
 11
-228.6006214099585
 21
-251.327199599628
 72
     2
 10
-229.9365493270763
 20
-255.9922819054289
 40
4.852596863498095
 50
74.02000874164747
 51
84.84185523037475
 73
     1
 72
     2
 10
-229.6476932323404
 20
-252.7923913222079
 40
1.639695123940509
 50
84.84185523036136
 51
164.9381082228846
 73
     1
 97
       14
330
261
330
17A
330
230
330
260
330
231
330
232
330
25F
330
25E
330
25D
330
17B
330
233
330
234
330
235
330
236
 75
     1
 76
     0
 52
45.0
 41
0.1
 77
     0
 78
     1
 53
45.0
 43
0.0
 44
0.0
 45
-0.0707106781186548
 46
0.0707106781186548
 79
     0
 98
        1
 10
0.0
 20
0.0
  0
HATCH
  5
28E
330
A0
100
AcDbEntity
  8
1
  6
Continuous
 62
     2
100
AcDbHatch
 10
0.0
 20
0.0
 30
0.0
210
0.0
220
0.0
230
1.0
  2
_USER
 70
     0
 71
     1
 91
        1
 92
        1
 93
       18
 72
     2
 10
-213.5449917530875
 20
-252.7923913222079
 40
1.639695123940186
 50
90.0
 51
164.938108222893
 73
     1
 72
     2
 10
-213.9641195965491
 20
-252.679600960173
 40
1.205656168393017
 50
164.9381082229002
 51
195.0618917770972
 73
     1
 72
     2
 10
-213.5449917530875
 20
-252.5668105981382
 40
1.639695123940448
 50
195.0618917771012
 51
275.1581447696762
 73
     1
 72
     2
 10
-213.8338478478233
 20
-249.3669200149166
 40
4.852596863498853
 50
275.1581447696363
 51
285.9799912583387
 73
     1
 72
     1
 10
-212.4979199307066
 20
-254.032002320718
 11
-212.4979199307066
 21
-253.1594853139146
 72
     2
 10
-213.6759749727305
 20
-251.2691345947649
 40
2.227384008972665
 50
58.06909105005913
 51
71.5519238818658
 73
     0
 72
     2
 10
-213.2578072390686
 20
-252.5226803708015
 40
0.9059297849852801
 50
71.55192388191598
 51
113.3722778881817
 73
     0
 72
     2
 10
-213.4142472717717
 20
-252.8846723895115
 40
0.511580060196008
 50
113.3722778881551
 51
151.4785267423162
 73
     0
 72
     2
 10
-213.0368900136903
 20
-252.679600960173
 40
0.9410597353348924
 50
151.4785267423305
 51
208.5214732576376
 73
     0
 72
     2
 10
-213.4142472717717
 20
-252.474529530834
 40
0.5115800601944143
 50
208.5214732575775
 51
250.6628567805147
 73
     0
 72
     2
 10
-213.267577273668
 20
-252.8924845112169
 40
0.9545230068260935
 50
250.6628567805685
 51
270.0
 73
     0
 72
     1
 10
-213.267577273668
 20
-251.9379615043908
 11
-212.1639379740999
 21
-251.9379615043908
 72
     1
 10
-212.1639379740999
 20
-251.9379615043908
 11
-212.1639379740999
 21
-254.2065057220783
 72
     1
 10
-212.1639379740999
 20
-254.2065057220783
 11
-210.9711452719322
 21
-254.2065057220783
 72
     1
 10
-210.9711452719322
 20
-254.2065057220783
 11
-210.9711452719322
 21
-251.9379615043908
 72
     1
 10
-210.9711452719322
 20
-251.9379615043908
 11
-210.1600462344588
 21
-251.9379615043908
 72
     1
 10
-210.1600462344588
 20
-251.9379615043908
 11
-210.1600462344588
 21
-251.1526961982672
 72
     1
 10
-210.1600462344588
 20
-251.1526961982672
 11
-213.5449917530875
 21
-251.1526961982677
 97
       18
330
1E0
330
1DF
330
1DE
330
1DD
330
1E2
330
17C
330
25A
330
23B
330
259
330
23C
330
258
330
257
330
17D
330
256
330
255
330
23D
330
23E
330
1E1
 75
     1
 76
     0
 52
45.0
 41
0.1
 77
     0
 78
     1
 53
45.0
 43
0.0
 44
0.0
 45
-0.0707106781186548
 46
0.0707106781186548
 79
     0
 98
        1
 10
0.0
 20
0.0
  0
HATCH
  5
28F
330
A0
100
AcDbEntity
  8
1
  6
Continuous
 62
     2
100
AcDbHatch
 10
0.0
 20
0.0
 30
0.0
210
0.0
220
0.0
230
1.0
  2
_USER
 70
     0
 71
     1
 91
        1
 92
        1
 93
       18
 72
     2
 10
-213.5449917530875
 20
-252.7923913222079
 40
1.639695123940186
 50
90.0
 51
164.938108222893
 73
     1
 72
     2
 10
-213.9641195965491
 20
-252.679600960173
 40
1.205656168393017
 50
164.9381082229002
 51
195.0618917770972
 73
     1
 72
     2
 10
-213.5449917530875
 20
-252.5668105981382
 40
1.639695123940448
 50
195.0618917771012
 51
275.1581447696762
 73
     1
 72
     2
 10
-213.8338478478233
 20
-249.3669200149166
 40
4.852596863498853
 50
275.1581447696363
 51
285.9799912583387
 73
     1
 72
     1
 10
-212.4979199307066
 20
-254.032002320718
 11
-212.4979199307066
 21
-253.1594853139146
 72
     2
 10
-213.6759749727305
 20
-251.2691345947649
 40
2.227384008972665
 50
58.06909105005913
 51
71.5519238818658
 73
     0
 72
     2
 10
-213.2578072390686
 20
-252.5226803708015
 40
0.9059297849852801
 50
71.55192388191598
 51
113.3722778881817
 73
     0
 72
     2
 10
-213.4142472717717
 20
-252.8846723895115
 40
0.511580060196008
 50
113.3722778881551
 51
151.4785267423162
 73
     0
 72
     2
 10
-213.0368900136903
 20
-252.679600960173
 40
0.9410597353348924
 50
151.4785267423305
 51
208.5214732576376
 73
     0
 72
     2
 10
-213.4142472717717
 20
-252.474529530834
 40
0.5115800601944143
 50
208.5214732575775
 51
250.6628567805147
 73
     0
 72
     2
 10
-213.267577273668
 20
-252.8924845112169
 40
0.9545230068260935
 50
250.6628567805685
 51
270.0
 73
     0
 72
     1
 10
-213.267577273668
 20
-251.9379615043908
 11
-212.1639379740999
 21
-251.9379615043908
 72
     1
 10
-212.1639379740999
 20
-251.9379615043908
 11
-212.1639379740999
 21
-254.2065057220783
 72
     1
 10
-212.1639379740999
 20
-254.2065057220783
 11
-210.9711452719322
 21
-254.2065057220783
 72
     1
 10
-210.9711452719322
 20
-254.2065057220783
 11
-210.9711452719322
 21
-251.9379615043908
 72
     1
 10
-210.9711452719322
 20
-251.9379615043908
 11
-210.1600462344588
 21
-251.9379615043908
 72
     1
 10
-210.1600462344588
 20
-251.9379615043908
 11
-210.1600462344588
 21
-251.1526961982672
 72
     1
 10
-210.1600462344588
 20
-251.1526961982672
 11
-213.5449917530875
 21
-251.1526961982677
 97
       18
330
1E0
330
1DF
330
1DE
330
1DD
330
1E2
330
17C
330
25A
330
23B
330
259
330
23C
330
258
330
257
330
17D
330
256
330
255
330
23D
330
23E
330
1E1
 75
     1
 76
     0
 52
45.0
 41
0.1
 77
     0
 78
     1
 53
45.0
 43
0.0
 44
0.0
 45
-0.0707106781186548
 46
0.0707106781186548
 79
     0
 98
        1
 10
0.0
 20
0.0
  0
HATCH
  5
290
330
A0
100
AcDbEntity
  8
1
  6
Continuous
 62
     2
100
AcDbHatch
 10
0.0
 20
0.0
 30
0.0
210
0.0
220
0.0
230
1.0
  2
_USER
 70
     0
 71
     1
 91
        4
 92
        1
 93
        8
 72
     2
 10
-237.6471508497805
 20
-248.2177503374948
 40
0.4242446153837989
 50
90.0
 51
180.0
 73
     1
 72
     1
 10
-238.0713954651633
 20
-248.2177503374948
 11
-238.0713954651633
 21
-253.782261106695
 72
     2
 10
-237.6471508497805
 20
-253.782261106695
 40
0.4242446153828041
 50
180.0
 51
270.0
 73
     1
 72
     1
 10
-237.6471508497805
 20
-254.2065057220783
 11
-232.1738387590637
 21
-254.2065057220783
 72
     2
 10
-232.1738387590637
 20
-253.782261106695
 40
0.4242446153833157
 50
270.0
 51
360.0
 73
     1
 72
     1
 10
-231.7495941436798
 20
-253.782261106695
 11
-231.7495941436798
 21
-248.2177503374948
 72
     2
 10
-232.1738387590637
 20
-248.2177503374948
 40
0.4242446153839126
 50
0.0
 51
90.0
 73
     1
 72
     1
 10
-232.1738387590637
 20
-247.793505722111
 11
-237.6471508497805
 21
-247.793505722111
 97
        8
330
24E
330
1AB
330
24D
330
1AC
330
244
330
1A9
330
24F
330
1AA
 92
       16
 93
        1
 72
     2
 10
-235.027565199263
 20
-250.5366325658503
 40
0.4709789327785074
 50
0.0
 51
360.0
 73
     1
 97
        1
330
262
 92
       16
 93
        8
 72
     2
 10
-235.0037501845902
 20
-250.5366325658503
 40
0.911848150144459
 50
295.3740086781764
 51
424.6259913218082
 73
     1
 72
     2
 10
-234.4777074865023
 20
-249.4274909658824
 40
0.315716923076792
 50
115.3740086783475
 51
180.0
 73
     0
 72
     1
 10
-234.7934244095791
 20
-249.4274909658824
 11
-234.7934244095791
 21
-248.8219556773757
 72
     2
 10
-234.4777074865023
 20
-248.8219556773757
 40
0.3157169230760711
 50
180.0
 51
269.8110329574541
 73
     0
 72
     2
 10
-234.4720913511923
 20
-250.5247906249448
 40
2.018561131933237
 50
269.8110329575858
 51
450.1889670424142
 73
     0
 72
     2
 10
-234.4777074865023
 20
-252.2276255725137
 40
0.315716923076792
 50
90.1889670425458
 51
180.0
 73
     0
 72
     1
 10
-234.7934244095791
 20
-252.2276255725137
 11
-234.7934244095791
 21
-251.6457741658187
 72
     2
 10
-234.4777074865023
 20
-251.6457741658187
 40
0.3157169230765071
 50
180.0
 51
244.6259913216459
 73
     0
 97
        8
330
25C
330
238
330
1E4
330
25B
330
239
330
23A
330
1E3
330
237
 92
       16
 93
       12
 72
     1
 10
-237.053256173034
 20
-253.4939501665214
 11
-235.5774229120244
 21
-253.4939501665214
 72
     2
 10
-235.5774229120244
 20
-253.1782332434447
 40
0.3157169230766783
 50
270.0
 51
360.0
 73
     1
 72
     1
 10
-235.2617059889478
 20
-253.1782332434447
 11
-235.2617059889478
 21
-251.6474623119131
 72
     2
 10
-235.5774229120244
 20
-251.6474623119131
 40
0.315716923076593
 50
0.0
 51
64.80558935146249
 73
     1
 72
     2
 10
-235.0548384644494
 20
-250.5366325658503
 40
0.9118975235576917
 50
115.1944106485131
 51
244.805589351474
 73
     0
 72
     2
 10
-235.5774229120244
 20
-249.4258028197881
 40
0.3157169230760688
 50
295.1944106485441
 51
360.0
 73
     1
 72
     1
 10
-235.2617059889478
 20
-249.4258028197881
 11
-235.2617059889478
 21
-248.8217782007276
 72
     2
 10
-235.5774229120244
 20
-248.8217782007276
 40
0.315716923076593
 50
0.0
 51
90.0
 73
     1
 72
     1
 10
-235.5774229120244
 20
-248.5060612776514
 11
-237.053256173034
 21
-248.5060612776514
 72
     2
 10
-237.053256173034
 20
-248.8217782007276
 40
0.3157169230761951
 50
90.0
 51
180.0
 73
     1
 72
     1
 10
-237.3689730961097
 20
-248.8217782007276
 11
-237.3689730961097
 21
-253.1782332434447
 72
     2
 10
-237.053256173034
 20
-253.1782332434447
 40
0.315716923075712
 50
180.0
 51
270.0
 73
     1
 97
       12
330
1B0
330
241
330
1AF
330
252
330
1AE
330
251
330
242
330
243
330
1AD
330
250
330
1A8
330
253
 75
     1
 76
     0
 52
45.0
 41
0.1
 77
     0
 78
     1
 53
45.0
 43
0.0
 44
0.0
 45
-0.0707106781186548
 46
0.0707106781186548
 79
     0
 98
        1
 10
0.0
 20
0.0
  0
HATCH
  5
291
330
A0
100
AcDbEntity
  8
1
  6
Continuous
 62
     2
100
AcDbHatch
 10
0.0
 20
0.0
 30
0.0
210
0.0
220
0.0
230
1.0
  2
_USER
 70
     0
 71
     1
 91
        4
 92
        1
 93
        8
 72
     2
 10
-237.6471508497805
 20
-248.2177503374948
 40
0.4242446153837989
 50
90.0
 51
180.0
 73
     1
 72
     1
 10
-238.0713954651633
 20
-248.2177503374948
 11
-238.0713954651633
 21
-253.782261106695
 72
     2
 10
-237.6471508497805
 20
-253.782261106695
 40
0.4242446153828041
 50
180.0
 51
270.0
 73
     1
 72
     1
 10
-237.6471508497805
 20
-254.2065057220783
 11
-232.1738387590637
 21
-254.2065057220783
 72
     2
 10
-232.1738387590637
 20
-253.782261106695
 40
0.4242446153833157
 50
270.0
 51
360.0
 73
     1
 72
     1
 10
-231.7495941436798
 20
-253.782261106695
 11
-231.7495941436798
 21
-248.2177503374948
 72
     2
 10
-232.1738387590637
 20
-248.2177503374948
 40
0.4242446153839126
 50
0.0
 51
90.0
 73
     1
 72
     1
 10
-232.1738387590637
 20
-247.793505722111
 11
-237.6471508497805
 21
-247.793505722111
 97
        8
330
24E
330
1AB
330
24D
330
1AC
330
244
330
1A9
330
24F
330
1AA
 92
       16
 93
        1
 72
     2
 10
-235.027565199263
 20
-250.5366325658503
 40
0.4709789327785074
 50
0.0
 51
360.0
 73
     1
 97
        1
330
262
 92
       16
 93
        8
 72
     2
 10
-235.0037501845902
 20
-250.5366325658503
 40
0.911848150144459
 50
295.3740086781764
 51
424.6259913218082
 73
     1
 72
     2
 10
-234.4777074865023
 20
-249.4274909658824
 40
0.315716923076792
 50
115.3740086783475
 51
180.0
 73
     0
 72
     1
 10
-234.7934244095791
 20
-249.4274909658824
 11
-234.7934244095791
 21
-248.8219556773757
 72
     2
 10
-234.4777074865023
 20
-248.8219556773757
 40
0.3157169230760711
 50
180.0
 51
269.8110329574541
 73
     0
 72
     2
 10
-234.4720913511923
 20
-250.5247906249448
 40
2.018561131933237
 50
269.8110329575858
 51
450.1889670424142
 73
     0
 72
     2
 10
-234.4777074865023
 20
-252.2276255725137
 40
0.315716923076792
 50
90.1889670425458
 51
180.0
 73
     0
 72
     1
 10
-234.7934244095791
 20
-252.2276255725137
 11
-234.7934244095791
 21
-251.6457741658187
 72
     2
 10
-234.4777074865023
 20
-251.6457741658187
 40
0.3157169230765071
 50
180.0
 51
244.6259913216459
 73
     0
 97
        8
330
25C
330
238
330
1E4
330
25B
330
239
330
23A
330
1E3
330
237
 92
       16
 93
       12
 72
     1
 10
-237.053256173034
 20
-253.4939501665214
 11
-235.5774229120244
 21
-253.4939501665214
 72
     2
 10
-235.5774229120244
 20
-253.1782332434447
 40
0.3157169230766783
 50
270.0
 51
360.0
 73
     1
 72
     1
 10
-235.2617059889478
 20
-253.1782332434447
 11
-235.2617059889478
 21
-251.6474623119131
 72
     2
 10
-235.5774229120244
 20
-251.6474623119131
 40
0.315716923076593
 50
0.0
 51
64.80558935146249
 73
     1
 72
     2
 10
-235.0548384644494
 20
-250.5366325658503
 40
0.9118975235576917
 50
115.1944106485131
 51
244.805589351474
 73
     0
 72
     2
 10
-235.5774229120244
 20
-249.4258028197881
 40
0.3157169230760688
 50
295.1944106485441
 51
360.0
 73
     1
 72
     1
 10
-235.2617059889478
 20
-249.4258028197881
 11
-235.2617059889478
 21
-248.8217782007276
 72
     2
 10
-235.5774229120244
 20
-248.8217782007276
 40
0.315716923076593
 50
0.0
 51
90.0
 73
     1
 72
     1
 10
-235.5774229120244
 20
-248.5060612776514
 11
-237.053256173034
 21
-248.5060612776514
 72
     2
 10
-237.053256173034
 20
-248.8217782007276
 40
0.3157169230761951
 50
90.0
 51
180.0
 73
     1
 72
     1
 10
-237.3689730961097
 20
-248.8217782007276
 11
-237.3689730961097
 21
-253.1782332434447
 72
     2
 10
-237.053256173034
 20
-253.1782332434447
 40
0.315716923075712
 50
180.0
 51
270.0
 73
     1
 97
       12
330
1B0
330
241
330
1AF
330
252
330
1AE
330
251
330
242
330
243
330
1AD
330
250
330
1A8
330
253
 75
     1
 76
     0
 52
45.0
 41
0.1
 77
     0
 78
     1
 53
45.0
 43
0.0
 44
0.0
 45
-0.0707106781186548
 46
0.0707106781186548
 79
     0
 98
        1
 10
0.0
 20
0.0
  0
HATCH
  5
292
330
A0
100
AcDbEntity
  8
1
  6
Continuous
 62
     2
100
AcDbHatch
 10
0.0
 20
0.0
 30
0.0
210
0.0
220
0.0
230
1.0
  2
_USER
 70
     0
 71
     1
 91
        2
 92
        1
 93
       12
 72
     2
 10
-222.9719868457912
 20
-249.3204104839986
 40
1.526904761905797
 50
90.0
 51
270.0
 73
     1
 72
     1
 10
-222.9719868457912
 20
-250.847315245904
 11
-219.8216671220102
 21
-250.847315245904
 72
     1
 10
-219.8216671220102
 20
-250.847315245904
 11
-219.8216671220102
 21
-250.1493016404615
 72
     1
 10
-219.8216671220102
 20
-250.1493016404615
 11
-221.1575949484379
 21
-250.1493016404615
 72
     1
 10
-221.1575949484379
 20
-250.1493016404615
 11
-221.1575949484379
 21
-249.6694172867198
 72
     1
 10
-221.1575949484379
 20
-249.6694172867198
 11
-219.8216671220102
 21
-249.6694172867198
 72
     1
 10
-219.8216671220102
 20
-249.6694172867198
 11
-219.8216671220102
 21
-248.9714036812775
 72
     1
 10
-219.8216671220102
 20
-248.9714036812775
 11
-221.1575949484379
 21
-248.9714036812775
 72
     1
 10
-221.1575949484379
 20
-248.9714036812775
 11
-221.1575949484379
 21
-248.4915193275357
 72
     1
 10
-221.1575949484379
 20
-248.4915193275357
 11
-219.8216671220102
 21
-248.4915193275357
 72
     1
 10
-219.8216671220102
 20
-248.4915193275357
 11
-219.8216671220102
 21
-247.7935057220928
 72
     1
 10
-219.8216671220102
 20
-247.7935057220928
 11
-222.9719868457912
 21
-247.7935057220928
 97
       12
330
19F
330
199
330
1C0
330
1BF
330
1BE
330
1BD
330
19A
330
19B
330
19C
330
19D
330
23F
330
19E
 92
       16
 93
        4
 72
     2
 10
-222.5559747992797
 20
-249.3204104839986
 40
0.7717997786796198
 50
141.8795802028454
 51
218.1204197971612
 73
     1
 72
     2
 10
-222.755714835626
 20
-249.4771416621191
 40
0.5179085730134372
 50
218.1204197971511
 51
321.8795802028566
 73
     1
 72
     2
 10
-222.9554548719722
 20
-249.3204104839986
 40
0.77179977867969
 50
321.8795802028388
 51
398.1204197971546
 73
     1
 72
     2
 10
-222.755714835626
 20
-249.1636793058782
 40
0.5179085730135266
 50
38.12041979714334
 51
141.8795802028489
 73
     1
 97
        4
330
24C
330
24B
330
246
330
245
 75
     1
 76
     0
 52
45.0
 41
0.1
 77
     0
 78
     1
 53
45.0
 43
0.0
 44
0.0
 45
-0.0707106781186548
 46
0.0707106781186548
 79
     0
 98
        1
 10
0.0
 20
0.0
  0
HATCH
  5
293
330
A0
100
AcDbEntity
  8
1
  6
Continuous
 62
     2
100
AcDbHatch
 10
0.0
 20
0.0
 30
0.0
210
0.0
220
0.0
230
1.0
  2
_USER
 70
     0
 71
     1
 91
        2
 92
        1
 93
       12
 72
     2
 10
-222.9719868457912
 20
-249.3204104839986
 40
1.526904761905797
 50
90.0
 51
270.0
 73
     1
 72
     1
 10
-222.9719868457912
 20
-250.847315245904
 11
-219.8216671220102
 21
-250.847315245904
 72
     1
 10
-219.8216671220102
 20
-250.847315245904
 11
-219.8216671220102
 21
-250.1493016404615
 72
     1
 10
-219.8216671220102
 20
-250.1493016404615
 11
-221.1575949484379
 21
-250.1493016404615
 72
     1
 10
-221.1575949484379
 20
-250.1493016404615
 11
-221.1575949484379
 21
-249.6694172867198
 72
     1
 10
-221.1575949484379
 20
-249.6694172867198
 11
-219.8216671220102
 21
-249.6694172867198
 72
     1
 10
-219.8216671220102
 20
-249.6694172867198
 11
-219.8216671220102
 21
-248.9714036812775
 72
     1
 10
-219.8216671220102
 20
-248.9714036812775
 11
-221.1575949484379
 21
-248.9714036812775
 72
     1
 10
-221.1575949484379
 20
-248.9714036812775
 11
-221.1575949484379
 21
-248.4915193275357
 72
     1
 10
-221.1575949484379
 20
-248.4915193275357
 11
-219.8216671220102
 21
-248.4915193275357
 72
     1
 10
-219.8216671220102
 20
-248.4915193275357
 11
-219.8216671220102
 21
-247.7935057220928
 72
     1
 10
-219.8216671220102
 20
-247.7935057220928
 11
-222.9719868457912
 21
-247.7935057220928
 97
       12
330
19F
330
199
330
1C0
330
1BF
330
1BE
330
1BD
330
19A
330
19B
330
19C
330
19D
330
23F
330
19E
 92
       16
 93
        4
 72
     2
 10
-222.5559747992797
 20
-249.3204104839986
 40
0.7717997786796198
 50
141.8795802028454
 51
218.1204197971612
 73
     1
 72
     2
 10
-222.755714835626
 20
-249.4771416621191
 40
0.5179085730134372
 50
218.1204197971511
 51
321.8795802028566
 73
     1
 72
     2
 10
-222.9554548719722
 20
-249.3204104839986
 40
0.77179977867969
 50
321.8795802028388
 51
398.1204197971546
 73
     1
 72
     2
 10
-222.755714835626
 20
-249.1636793058782
 40
0.5179085730135266
 50
38.12041979714334
 51
141.8795802028489
 73
     1
 97
        4
330
24C
330
24B
330
246
330
245
 75
     1
 76
     0
 52
45.0
 41
0.1
 77
     0
 78
     1
 53
45.0
 43
0.0
 44
0.0
 45
-0.0707106781186548
 46
0.0707106781186548
 79
     0
 98
        1
 10
0.0
 20
0.0
  0
HATCH
  5
294
330
A0
100
AcDbEntity
  8
1
  6
Continuous
 62
     2
100
AcDbHatch
 10
0.0
 20
0.0
 30
0.0
210
0.0
220
0.0
230
1.0
  2
_USER
 70
     0
 71
     1
 91
        2
 92
        1
 93
        4
 72
     2
 10
-226.9976022082528
 20
-252.679600960173
 40
1.45803408365149
 50
117.5481481756624
 51
242.4518518243375
 73
     1
 72
     2
 10
-226.7166623164195
 20
-252.1410259498697
 40
2.065479772208509
 50
242.4518518243402
 51
297.5481481756871
 73
     1
 72
     2
 10
-226.4357224245862
 20
-252.679600960173
 40
1.458034083652003
 50
297.548148175701
 51
422.451851824299
 73
     1
 72
     2
 10
-226.7166623164195
 20
-253.2181759704758
 40
2.065479772208593
 50
62.45185182430674
 51
117.548148175666
 73
     1
 97
        4
330
24A
330
247
330
249
330
248
 92
       16
 93
        4
 72
     2
 10
-226.7166623164195
 20
-252.5228697820525
 40
0.5179085730133174
 50
38.1204197971495
 51
141.8795802028563
 73
     1
 72
     2
 10
-226.5169222800734
 20
-252.679600960173
 40
0.7717997786794633
 50
141.8795802028363
 51
218.1204197971654
 73
     1
 72
     2
 10
-226.7166623164195
 20
-252.836332138293
 40
0.5179085730137003
 50
218.1204197971882
 51
321.8795802028059
 73
     1
 72
     2
 10
-226.9164023527659
 20
-252.679600960173
 40
0.7717997786796597
 50
321.879580202845
 51
398.1204197971533
 73
     1
 97
        4
330
22D
330
22E
330
22F
330
22C
 75
     1
 76
     0
 52
45.0
 41
0.1
 77
     0
 78
     1
 53
45.0
 43
0.0
 44
0.0
 45
-0.0707106781186548
 46
0.0707106781186548
 79
     0
 98
        1
 10
0.0
 20
0.0
  0
HATCH
  5
295
330
A0
100
AcDbEntity
  8
1
  6
Continuous
 62
     2
100
AcDbHatch
 10
0.0
 20
0.0
 30
0.0
210
0.0
220
0.0
230
1.0
  2
_USER
 70
     0
 71
     1
 91
        2
 92
        1
 93
        4
 72
     2
 10
-226.9976022082528
 20
-252.679600960173
 40
1.45803408365149
 50
117.5481481756624
 51
242.4518518243375
 73
     1
 72
     2
 10
-226.7166623164195
 20
-252.1410259498697
 40
2.065479772208509
 50
242.4518518243402
 51
297.5481481756871
 73
     1
 72
     2
 10
-226.4357224245862
 20
-252.679600960173
 40
1.458034083652003
 50
297.548148175701
 51
422.451851824299
 73
     1
 72
     2
 10
-226.7166623164195
 20
-253.2181759704758
 40
2.065479772208593
 50
62.45185182430674
 51
117.548148175666
 73
     1
 97
        4
330
24A
330
247
330
249
330
248
 92
       16
 93
        4
 72
     2
 10
-226.7166623164195
 20
-252.5228697820525
 40
0.5179085730133174
 50
38.1204197971495
 51
141.8795802028563
 73
     1
 72
     2
 10
-226.5169222800734
 20
-252.679600960173
 40
0.7717997786794633
 50
141.8795802028363
 51
218.1204197971654
 73
     1
 72
     2
 10
-226.7166623164195
 20
-252.836332138293
 40
0.5179085730137003
 50
218.1204197971882
 51
321.8795802028059
 73
     1
 72
     2
 10
-226.9164023527659
 20
-252.679600960173
 40
0.7717997786796597
 50
321.879580202845
 51
398.1204197971533
 73
     1
 97
        4
330
22D
330
22E
330
22F
330
22C
 75
     1
 76
     0
 52
45.0
 41
0.1
 77
     0
 78
     1
 53
45.0
 43
0.0
 44
0.0
 45
-0.0707106781186548
 46
0.0707106781186548
 79
     0
 98
        1
 10
0.0
 20
0.0
  0
HATCH
  5
296
330
A0
100
AcDbEntity
  8
1
  6
Continuous
 62
     2
100
AcDbHatch
 10
0.0
 20
0.0
 30
0.0
210
0.0
220
0.0
230
1.0
  2
_USER
 70
     0
 71
     1
 91
        2
 92
        1
 93
        6
 72
     1
 10
-231.272477062813
 20
-247.7935057220928
 11
-231.272477062813
 21
-250.847315245904
 72
     1
 10
-231.272477062813
 20
-250.847315245904
 11
-230.0319726525589
 21
-250.847315245904
 72
     1
 10
-230.0319726525589
 20
-250.847315245904
 11
-230.0319726525589
 21
-249.9042370047602
 72
     1
 10
-230.0319726525589
 20
-249.9042370047602
 11
-229.2732050647786
 21
-249.9042370047602
 72
     2
 10
-229.2732050647786
 20
-248.8488713634264
 40
1.055365641333793
 50
270.0
 51
450.0
 73
     1
 72
     1
 10
-229.2732050647786
 20
-247.7935057220928
 11
-231.272477062813
 21
-247.7935057220928
 97
        6
330
254
330
1B1
330
1A7
330
1A6
330
1B3
330
1B2
 92
       16
 93
        4
 72
     1
 10
-229.714677591017
 20
-248.4566115675329
 11
-230.0319726525589
 21
-248.4566115675329
 72
     1
 10
-230.0319726525589
 20
-248.4566115675329
 11
-230.0319726525589
 21
-249.1623392168751
 72
     1
 10
-230.0319726525589
 20
-249.1623392168751
 11
-229.714677591017
 21
-249.1623392168751
 72
     2
 10
-229.714677591017
 20
-248.809475392204
 40
0.3528638246710898
 50
270.0
 51
450.0
 73
     1
 97
        4
330
1B4
330
1A5
330
1B5
330
240
 75
     1
 76
     0
 52
45.0
 41
0.1
 77
     0
 78
     1
 53
45.0
 43
0.0
 44
0.0
 45
-0.0707106781186548
 46
0.0707106781186548
 79
     0
 98
        1
 10
0.0
 20
0.0
  0
HATCH
  5
297
330
A0
100
AcDbEntity
  8
1
  6
Continuous
 62
     2
100
AcDbHatch
 10
0.0
 20
0.0
 30
0.0
210
0.0
220
0.0
230
1.0
  2
_USER
 70
     0
 71
     1
 91
        2
 92
        1
 93
        6
 72
     1
 10
-231.272477062813
 20
-247.7935057220928
 11
-231.272477062813
 21
-250.847315245904
 72
     1
 10
-231.272477062813
 20
-250.847315245904
 11
-230.0319726525589
 21
-250.847315245904
 72
     1
 10
-230.0319726525589
 20
-250.847315245904
 11
-230.0319726525589
 21
-249.9042370047602
 72
     1
 10
-230.0319726525589
 20
-249.9042370047602
 11
-229.2732050647786
 21
-249.9042370047602
 72
     2
 10
-229.2732050647786
 20
-248.8488713634264
 40
1.055365641333793
 50
270.0
 51
450.0
 73
     1
 72
     1
 10
-229.2732050647786
 20
-247.7935057220928
 11
-231.272477062813
 21
-247.7935057220928
 97
        6
330
254
330
1B1
330
1A7
330
1A6
330
1B3
330
1B2
 92
       16
 93
        4
 72
     1
 10
-229.714677591017
 20
-248.4566115675329
 11
-230.0319726525589
 21
-248.4566115675329
 72
     1
 10
-230.0319726525589
 20
-248.4566115675329
 11
-230.0319726525589
 21
-249.1623392168751
 72
     1
 10
-230.0319726525589
 20
-249.1623392168751
 11
-229.714677591017
 21
-249.1623392168751
 72
     2
 10
-229.714677591017
 20
-248.809475392204
 40
0.3528638246710898
 50
270.0
 51
450.0
 73
     1
 97
        4
330
1B4
330
1A5
330
1B5
330
240
 75
     1
 76
     0
 52
45.0
 41
0.1
 77
     0
 78
     1
 53
45.0
 43
0.0
 44
0.0
 45
-0.0707106781186548
 46
0.0707106781186548
 79
     0
 98
        1
 10
0.0
 20
0.0
  0
HATCH
  5
298
330
A0
100
AcDbEntity
  8
1
  6
Continuous
 62
     2
100
AcDbHatch
 10
0.0
 20
0.0
 30
0.0
210
0.0
220
0.0
230
1.0
  2
_USER
 70
     0
 71
     1
 91
        1
 92
        1
 93
       12
 72
     1
 10
-211.6581938683798
 20
-247.7935057220928
 11
-210.2554696506326
 21
-247.7935057220928
 72
     1
 10
-210.2554696506326
 20
-247.7935057220928
 11
-211.5579992813991
 21
-249.266456252129
 72
     1
 10
-211.5579992813991
 20
-249.266456252129
 11
-210.1600462344588
 21
-250.847315245904
 72
     1
 10
-210.1600462344588
 20
-250.847315245904
 11
-211.5627704522071
 21
-250.847315245904
 72
     1
 10
-211.5627704522071
 20
-250.847315245904
 11
-212.2593613902726
 21
-250.0595834606102
 72
     1
 10
-212.2593613902726
 20
-250.0595834606102
 11
-212.9559523283383
 21
-250.847315245904
 72
     1
 10
-212.9559523283383
 20
-250.847315245904
 11
-214.3586765460865
 21
-250.847315245904
 72
     1
 10
-214.3586765460865
 20
-250.847315245904
 11
-212.9607234991462
 21
-249.266456252129
 72
     1
 10
-212.9607234991462
 20
-249.266456252129
 11
-214.2632531299137
 21
-247.7935057220928
 72
     1
 10
-214.2632531299137
 20
-247.7935057220928
 11
-212.8605289121644
 21
-247.7935057220928
 72
     1
 10
-212.8605289121644
 20
-247.7935057220928
 11
-212.2593613902726
 21
-248.4733290436483
 72
     1
 10
-212.2593613902726
 20
-248.4733290436483
 11
-211.6581938683798
 21
-247.7935057220928
 97
       12
330
180
330
1D9
330
1D8
330
1D7
330
1D6
330
181
330
182
330
17E
330
17F
330
1DC
330
1DB
330
1DA
 75
     1
 76
     0
 52
45.0
 41
0.1
 77
     0
 78
     1
 53
45.0
 43
0.0
 44
0.0
 45
-0.0707106781186548
 46
0.0707106781186548
 79
     0
 98
        1
 10
0.0
 20
0.0
  0
HATCH
  5
299
330
A0
100
AcDbEntity
  8
1
  6
Continuous
 62
     2
100
AcDbHatch
 10
0.0
 20
0.0
 30
0.0
210
0.0
220
0.0
230
1.0
  2
_USER
 70
     0
 71
     1
 91
        1
 92
        1
 93
       12
 72
     1
 10
-211.6581938683798
 20
-247.7935057220928
 11
-210.2554696506326
 21
-247.7935057220928
 72
     1
 10
-210.2554696506326
 20
-247.7935057220928
 11
-211.5579992813991
 21
-249.266456252129
 72
     1
 10
-211.5579992813991
 20
-249.266456252129
 11
-210.1600462344588
 21
-250.847315245904
 72
     1
 10
-210.1600462344588
 20
-250.847315245904
 11
-211.5627704522071
 21
-250.847315245904
 72
     1
 10
-211.5627704522071
 20
-250.847315245904
 11
-212.2593613902726
 21
-250.0595834606102
 72
     1
 10
-212.2593613902726
 20
-250.0595834606102
 11
-212.9559523283383
 21
-250.847315245904
 72
     1
 10
-212.9559523283383
 20
-250.847315245904
 11
-214.3586765460865
 21
-250.847315245904
 72
     1
 10
-214.3586765460865
 20
-250.847315245904
 11
-212.9607234991462
 21
-249.266456252129
 72
     1
 10
-212.9607234991462
 20
-249.266456252129
 11
-214.2632531299137
 21
-247.7935057220928
 72
     1
 10
-214.2632531299137
 20
-247.7935057220928
 11
-212.8605289121644
 21
-247.7935057220928
 72
     1
 10
-212.8605289121644
 20
-247.7935057220928
 11
-212.2593613902726
 21
-248.4733290436483
 72
     1
 10
-212.2593613902726
 20
-248.4733290436483
 11
-211.6581938683798
 21
-247.7935057220928
 97
       12
330
180
330
1D9
330
1D8
330
1D7
330
1D6
330
181
330
182
330
17E
330
17F
330
1DC
330
1DB
330
1DA
 75
     1
 76
     0
 52
45.0
 41
0.1
 77
     0
 78
     1
 53
45.0
 43
0.0
 44
0.0
 45
-0.0707106781186548
 46
0.0707106781186548
 79
     0
 98
        1
 10
0.0
 20
0.0
  0
HATCH
  5
29A
330
A0
100
AcDbEntity
  8
1
  6
Continuous
 62
     2
100
AcDbHatch
 10
0.0
 20
0.0
 30
0.0
210
0.0
220
0.0
230
1.0
  2
_USER
 70
     0
 71
     1
 91
        1
 92
        1
 93
        4
 72
     1
 10
-214.4779558163034
 20
-247.7935057220928
 11
-214.4779558163034
 21
-250.847315245904
 72
     1
 10
-214.4779558163034
 20
-250.847315245904
 11
-215.7184602265563
 21
-250.847315245904
 72
     1
 10
-215.7184602265563
 20
-250.847315245904
 11
-215.7184602265563
 21
-247.7935057220928
 72
     1
 10
-215.7184602265563
 20
-247.7935057220928
 11
-214.4779558163034
 21
-247.7935057220928
 97
        4
330
1D4
330
183
330
1D3
330
1D5
 75
     1
 76
     0
 52
45.0
 41
0.1
 77
     0
 78
     1
 53
45.0
 43
0.0
 44
0.0
 45
-0.0707106781186548
 46
0.0707106781186548
 79
     0
 98
        1
 10
0.0
 20
0.0
  0
HATCH
  5
29B
330
A0
100
AcDbEntity
  8
1
  6
Continuous
 62
     2
100
AcDbHatch
 10
0.0
 20
0.0
 30
0.0
210
0.0
220
0.0
230
1.0
  2
_USER
 70
     0
 71
     1
 91
        1
 92
        1
 93
        4
 72
     1
 10
-214.4779558163034
 20
-247.7935057220928
 11
-214.4779558163034
 21
-250.847315245904
 72
     1
 10
-214.4779558163034
 20
-250.847315245904
 11
-215.7184602265563
 21
-250.847315245904
 72
     1
 10
-215.7184602265563
 20
-250.847315245904
 11
-215.7184602265563
 21
-247.7935057220928
 72
     1
 10
-215.7184602265563
 20
-247.7935057220928
 11
-214.4779558163034
 21
-247.7935057220928
 97
        4
330
1D4
330
183
330
1D3
330
1D5
 75
     1
 76
     0
 52
45.0
 41
0.1
 77
     0
 78
     1
 53
45.0
 43
0.0
 44
0.0
 45
-0.0707106781186548
 46
0.0707106781186548
 79
     0
 98
        1
 10
0.0
 20
0.0
  0
HATCH
  5
29C
330
A0
100
AcDbEntity
  8
1
  6
Continuous
 62
     2
100
AcDbHatch
 10
0.0
 20
0.0
 30
0.0
210
0.0
220
0.0
230
1.0
  2
_USER
 70
     0
 71
     1
 91
        2
 92
        1
 93
        8
 72
     1
 10
-214.8683998198354
 20
-254.2065057220783
 11
-216.1089042300893
 21
-254.2065057220783
 72
     1
 10
-216.1089042300893
 20
-254.2065057220783
 11
-216.3203842835651
 21
-253.6655451778604
 72
     1
 10
-216.3203842835651
 20
-253.6655451778604
 11
-217.4528258602389
 21
-253.6655451778604
 72
     1
 10
-217.4528258602389
 20
-253.6655451778604
 11
-217.6643059137147
 21
-254.2065057220783
 72
     1
 10
-217.6643059137147
 20
-254.2065057220783
 11
-218.9048103239677
 21
-254.2065057220783
 72
     1
 10
-218.9048103239677
 20
-254.2065057220783
 11
-217.5068572770284
 21
-251.1526961982672
 72
     1
 10
-217.5068572770284
 20
-251.1526961982672
 11
-216.2663528667757
 21
-251.1526961982672
 72
     1
 10
-216.2663528667757
 20
-251.1526961982672
 11
-214.8683998198354
 21
-254.2065057220783
 97
        8
330
1CF
330
189
330
1CE
330
1D1
330
186
330
1D0
330
187
330
188
 92
       16
 93
        3
 72
     1
 10
-217.1867703090939
 20
-252.9849819125538
 11
-216.5864398347114
 21
-252.9849819125538
 72
     1
 10
-216.5864398347114
 20
-252.9849819125538
 11
-216.8866050719015
 21
-252.2171669465671
 72
     1
 10
-216.8866050719015
 20
-252.2171669465671
 11
-217.1867703090939
 21
-252.9849819125538
 97
        3
330
185
330
184
330
1D2
 75
     1
 76
     0
 52
45.0
 41
0.1
 77
     0
 78
     1
 53
45.0
 43
0.0
 44
0.0
 45
-0.0707106781186548
 46
0.0707106781186548
 79
     0
 98
        1
 10
0.0
 20
0.0
  0
HATCH
  5
29D
330
A0
100
AcDbEntity
  8
1
  6
Continuous
 62
     2
100
AcDbHatch
 10
0.0
 20
0.0
 30
0.0
210
0.0
220
0.0
230
1.0
  2
_USER
 70
     0
 71
     1
 91
        2
 92
        1
 93
        8
 72
     1
 10
-214.8683998198354
 20
-254.2065057220783
 11
-216.1089042300893
 21
-254.2065057220783
 72
     1
 10
-216.1089042300893
 20
-254.2065057220783
 11
-216.3203842835651
 21
-253.6655451778604
 72
     1
 10
-216.3203842835651
 20
-253.6655451778604
 11
-217.4528258602389
 21
-253.6655451778604
 72
     1
 10
-217.4528258602389
 20
-253.6655451778604
 11
-217.6643059137147
 21
-254.2065057220783
 72
     1
 10
-217.6643059137147
 20
-254.2065057220783
 11
-218.9048103239677
 21
-254.2065057220783
 72
     1
 10
-218.9048103239677
 20
-254.2065057220783
 11
-217.5068572770284
 21
-251.1526961982672
 72
     1
 10
-217.5068572770284
 20
-251.1526961982672
 11
-216.2663528667757
 21
-251.1526961982672
 72
     1
 10
-216.2663528667757
 20
-251.1526961982672
 11
-214.8683998198354
 21
-254.2065057220783
 97
        8
330
1CF
330
189
330
1CE
330
1D1
330
186
330
1D0
330
187
330
188
 92
       16
 93
        3
 72
     1
 10
-217.1867703090939
 20
-252.9849819125538
 11
-216.5864398347114
 21
-252.9849819125538
 72
     1
 10
-216.5864398347114
 20
-252.9849819125538
 11
-216.8866050719015
 21
-252.2171669465671
 72
     1
 10
-216.8866050719015
 20
-252.2171669465671
 11
-217.1867703090939
 21
-252.9849819125538
 97
        3
330
185
330
184
330
1D2
 75
     1
 76
     0
 52
45.0
 41
0.1
 77
     0
 78
     1
 53
45.0
 43
0.0
 44
0.0
 45
-0.0707106781186548
 46
0.0707106781186548
 79
     0
 98
        1
 10
0.0
 20
0.0
  0
HATCH
  5
29E
330
A0
100
AcDbEntity
  8
1
  6
Continuous
 62
     2
100
AcDbHatch
 10
0.0
 20
0.0
 30
0.0
210
0.0
220
0.0
230
1.0
  2
_USER
 70
     0
 71
     1
 91
        1
 92
        1
 93
        8
 72
     1
 10
-221.0623224631499
 20
-251.1526961982672
 11
-221.0623224631499
 21
-251.9379615043908
 72
     1
 10
-221.0623224631499
 20
-251.9379615043908
 11
-220.2512234256753
 21
-251.9379615043908
 72
     1
 10
-220.2512234256753
 20
-251.9379615043908
 11
-220.2512234256753
 21
-254.2065057220783
 72
     1
 10
-220.2512234256753
 20
-254.2065057220783
 11
-219.0584307235088
 21
-254.2065057220783
 72
     1
 10
-219.0584307235088
 20
-254.2065057220783
 11
-219.0584307235088
 21
-251.9379615043908
 72
     1
 10
-219.0584307235088
 20
-251.9379615043908
 11
-218.2473316860363
 21
-251.9379615043908
 72
     1
 10
-218.2473316860363
 20
-251.9379615043908
 11
-218.2473316860363
 21
-251.1526961982672
 72
     1
 10
-218.2473316860363
 20
-251.1526961982672
 11
-221.0623224631499
 21
-251.1526961982672
 97
        8
330
1CB
330
1CA
330
1C9
330
18A
330
18B
330
1CD
330
18C
330
1CC
 75
     1
 76
     0
 52
45.0
 41
0.1
 77
     0
 78
     1
 53
45.0
 43
0.0
 44
0.0
 45
-0.0707106781186548
 46
0.0707106781186548
 79
     0
 98
        1
 10
0.0
 20
0.0
  0
HATCH
  5
29F
330
A0
100
AcDbEntity
  8
1
  6
Continuous
 62
     2
100
AcDbHatch
 10
0.0
 20
0.0
 30
0.0
210
0.0
220
0.0
230
1.0
  2
_USER
 70
     0
 71
     1
 91
        1
 92
        1
 93
        8
 72
     1
 10
-221.0623224631499
 20
-251.1526961982672
 11
-221.0623224631499
 21
-251.9379615043908
 72
     1
 10
-221.0623224631499
 20
-251.9379615043908
 11
-220.2512234256753
 21
-251.9379615043908
 72
     1
 10
-220.2512234256753
 20
-251.9379615043908
 11
-220.2512234256753
 21
-254.2065057220783
 72
     1
 10
-220.2512234256753
 20
-254.2065057220783
 11
-219.0584307235088
 21
-254.2065057220783
 72
     1
 10
-219.0584307235088
 20
-254.2065057220783
 11
-219.0584307235088
 21
-251.9379615043908
 72
     1
 10
-219.0584307235088
 20
-251.9379615043908
 11
-218.2473316860363
 21
-251.9379615043908
 72
     1
 10
-218.2473316860363
 20
-251.9379615043908
 11
-218.2473316860363
 21
-251.1526961982672
 72
     1
 10
-218.2473316860363
 20
-251.1526961982672
 11
-221.0623224631499
 21
-251.1526961982672
 97
        8
330
1CB
330
1CA
330
1C9
330
18A
330
18B
330
1CD
330
18C
330
1CC
 75
     1
 76
     0
 52
45.0
 41
0.1
 77
     0
 78
     1
 53
45.0
 43
0.0
 44
0.0
 45
-0.0707106781186548
 46
0.0707106781186548
 79
     0
 98
        1
 10
0.0
 20
0.0
  0
HATCH
  5
2A0
330
A0
100
AcDbEntity
  8
1
  6
Continuous
 62
     2
100
AcDbHatch
 10
0.0
 20
0.0
 30
0.0
210
0.0
220
0.0
230
1.0
  2
_USER
 70
     0
 71
     1
 91
        1
 92
        1
 93
       10
 72
     1
 10
-218.3903158794108
 20
-247.7935057220928
 11
-219.5831085815773
 21
-247.7935057220928
 72
     1
 10
-219.5831085815773
 20
-247.7935057220928
 11
-219.5831085815773
 21
-250.847315245904
 72
     1
 10
-219.5831085815773
 20
-250.847315245904
 11
-218.3903158794108
 21
-250.847315245904
 72
     1
 10
-218.3903158794108
 20
-250.847315245904
 11
-218.3903158794108
 21
-249.5385397356993
 72
     1
 10
-218.3903158794108
 20
-249.5385397356993
 11
-217.1498114691568
 21
-250.847315245904
 72
     1
 10
-217.1498114691568
 20
-250.847315245904
 11
-215.9570187669902
 21
-250.847315245904
 72
     1
 10
-215.9570187669902
 20
-250.847315245904
 11
-215.9570187669902
 21
-247.7935057220928
 72
     1
 10
-215.9570187669902
 20
-247.7935057220928
 11
-217.1498114691568
 21
-247.7935057220928
 72
     1
 10
-217.1498114691568
 20
-247.7935057220928
 11
-217.1498114691568
 21
-249.1022812322979
 72
     1
 10
-217.1498114691568
 20
-249.1022812322979
 11
-218.3903158794108
 21
-247.7935057220928
 97
       10
330
1C5
330
18F
330
190
330
191
330
192
330
1C8
330
18D
330
1C7
330
1C6
330
18E
 75
     1
 76
     0
 52
45.0
 41
0.1
 77
     0
 78
     1
 53
45.0
 43
0.0
 44
0.0
 45
-0.0707106781186548
 46
0.0707106781186548
 79
     0
 98
        1
 10
0.0
 20
0.0
  0
HATCH
  5
2A1
330
A0
100
AcDbEntity
  8
1
  6
Continuous
 62
     2
100
AcDbHatch
 10
0.0
 20
0.0
 30
0.0
210
0.0
220
0.0
230
1.0
  2
_USER
 70
     0
 71
     1
 91
        1
 92
        1
 93
       10
 72
     1
 10
-218.3903158794108
 20
-247.7935057220928
 11
-219.5831085815773
 21
-247.7935057220928
 72
     1
 10
-219.5831085815773
 20
-247.7935057220928
 11
-219.5831085815773
 21
-250.847315245904
 72
     1
 10
-219.5831085815773
 20
-250.847315245904
 11
-218.3903158794108
 21
-250.847315245904
 72
     1
 10
-218.3903158794108
 20
-250.847315245904
 11
-218.3903158794108
 21
-249.5385397356993
 72
     1
 10
-218.3903158794108
 20
-249.5385397356993
 11
-217.1498114691568
 21
-250.847315245904
 72
     1
 10
-217.1498114691568
 20
-250.847315245904
 11
-215.9570187669902
 21
-250.847315245904
 72
     1
 10
-215.9570187669902
 20
-250.847315245904
 11
-215.9570187669902
 21
-247.7935057220928
 72
     1
 10
-215.9570187669902
 20
-247.7935057220928
 11
-217.1498114691568
 21
-247.7935057220928
 72
     1
 10
-217.1498114691568
 20
-247.7935057220928
 11
-217.1498114691568
 21
-249.1022812322979
 72
     1
 10
-217.1498114691568
 20
-249.1022812322979
 11
-218.3903158794108
 21
-247.7935057220928
 97
       10
330
1C5
330
18F
330
190
330
191
330
192
330
1C8
330
18D
330
1C7
330
1C6
330
18E
 75
     1
 76
     0
 52
45.0
 41
0.1
 77
     0
 78
     1
 53
45.0
 43
0.0
 44
0.0
 45
-0.0707106781186548
 46
0.0707106781186548
 79
     0
 98
        1
 10
0.0
 20
0.0
  0
HATCH
  5
2A2
330
A0
100
AcDbEntity
  8
1
  6
Continuous
 62
     2
100
AcDbHatch
 10
0.0
 20
0.0
 30
0.0
210
0.0
220
0.0
230
1.0
  2
_USER
 70
     0
 71
     1
 91
        1
 92
        1
 93
       10
 72
     1
 10
-223.6387546998294
 20
-251.1526961982672
 11
-224.831547401997
 21
-251.1526961982672
 72
     1
 10
-224.831547401997
 20
-251.1526961982672
 11
-224.831547401997
 21
-254.2065057220783
 72
     1
 10
-224.831547401997
 20
-254.2065057220783
 11
-223.6387546998294
 21
-254.2065057220783
 72
     1
 10
-223.6387546998294
 20
-254.2065057220783
 11
-223.6387546998294
 21
-252.8977302118737
 72
     1
 10
-223.6387546998294
 20
-252.8977302118737
 11
-222.3982502895765
 21
-254.2065057220783
 72
     1
 10
-222.3982502895765
 20
-254.2065057220783
 11
-221.2054575874101
 21
-254.2065057220783
 72
     1
 10
-221.2054575874101
 20
-254.2065057220783
 11
-221.2054575874101
 21
-251.1526961982672
 72
     1
 10
-221.2054575874101
 20
-251.1526961982672
 11
-222.3982502895765
 21
-251.1526961982672
 72
     1
 10
-222.3982502895765
 20
-251.1526961982672
 11
-222.3982502895765
 21
-252.4614717084723
 72
     1
 10
-222.3982502895765
 20
-252.4614717084723
 11
-223.6387546998294
 21
-251.1526961982672
 97
       10
330
194
330
195
330
196
330
1C2
330
197
330
198
330
1C1
330
1C4
330
1C3
330
193
 75
     1
 76
     0
 52
45.0
 41
0.1
 77
     0
 78
     1
 53
45.0
 43
0.0
 44
0.0
 45
-0.0707106781186548
 46
0.0707106781186548
 79
     0
 98
        1
 10
0.0
 20
0.0
  0
HATCH
  5
2A3
330
A0
100
AcDbEntity
  8
1
  6
Continuous
 62
     2
100
AcDbHatch
 10
0.0
 20
0.0
 30
0.0
210
0.0
220
0.0
230
1.0
  2
_USER
 70
     0
 71
     1
 91
        1
 92
        1
 93
       10
 72
     1
 10
-223.6387546998294
 20
-251.1526961982672
 11
-224.831547401997
 21
-251.1526961982672
 72
     1
 10
-224.831547401997
 20
-251.1526961982672
 11
-224.831547401997
 21
-254.2065057220783
 72
     1
 10
-224.831547401997
 20
-254.2065057220783
 11
-223.6387546998294
 21
-254.2065057220783
 72
     1
 10
-223.6387546998294
 20
-254.2065057220783
 11
-223.6387546998294
 21
-252.8977302118737
 72
     1
 10
-223.6387546998294
 20
-252.8977302118737
 11
-222.3982502895765
 21
-254.2065057220783
 72
     1
 10
-222.3982502895765
 20
-254.2065057220783
 11
-221.2054575874101
 21
-254.2065057220783
 72
     1
 10
-221.2054575874101
 20
-254.2065057220783
 11
-221.2054575874101
 21
-251.1526961982672
 72
     1
 10
-221.2054575874101
 20
-251.1526961982672
 11
-222.3982502895765
 21
-251.1526961982672
 72
     1
 10
-222.3982502895765
 20
-251.1526961982672
 11
-222.3982502895765
 21
-252.4614717084723
 72
     1
 10
-222.3982502895765
 20
-252.4614717084723
 11
-223.6387546998294
 21
-251.1526961982672
 97
       10
330
194
330
195
330
196
330
1C2
330
197
330
198
330
1C1
330
1C4
330
1C3
330
193
 75
     1
 76
     0
 52
45.0
 41
0.1
 77
     0
 78
     1
 53
45.0
 43
0.0
 44
0.0
 45
-0.0707106781186548
 46
0.0707106781186548
 79
     0
 98
        1
 10
0.0
 20
0.0
  0
HATCH
  5
2A4
330
A0
100
AcDbEntity
  8
1
  6
Continuous
 62
     2
100
AcDbHatch
 10
0.0
 20
0.0
 30
0.0
210
0.0
220
0.0
230
1.0
  2
_USER
 70
     0
 71
     1
 91
        1
 92
        1
 93
       12
 72
     1
 10
-224.6405496387648
 20
-247.7935057220928
 11
-224.6405496387648
 21
-250.847315245904
 72
     1
 10
-224.6405496387648
 20
-250.847315245904
 11
-225.8333423409312
 21
-250.847315245904
 72
     1
 10
-225.8333423409312
 20
-250.847315245904
 11
-225.8333423409312
 21
-249.7130431370601
 72
     1
 10
-225.8333423409312
 20
-249.7130431370601
 11
-226.8829999188387
 21
-249.7130431370601
 72
     1
 10
-226.8829999188387
 20
-249.7130431370601
 11
-226.8829999188387
 21
-250.847315245904
 72
     1
 10
-226.8829999188387
 20
-250.847315245904
 11
-228.0757926210053
 21
-250.847315245904
 72
     1
 10
-228.0757926210053
 20
-250.847315245904
 11
-228.0757926210053
 21
-247.7935057220928
 72
     1
 10
-228.0757926210053
 20
-247.7935057220928
 11
-226.8829999188387
 21
-247.7935057220928
 72
     1
 10
-226.8829999188387
 20
-247.7935057220928
 11
-226.8829999188387
 21
-248.8623390554274
 72
     1
 10
-226.8829999188387
 20
-248.8623390554274
 11
-225.8333423409312
 21
-248.8623390554274
 72
     1
 10
-225.8333423409312
 20
-248.8623390554274
 11
-225.8333423409312
 21
-247.7935057220928
 72
     1
 10
-225.8333423409312
 20
-247.7935057220928
 11
-224.6405496387648
 21
-247.7935057220928
 97
       12
330
1BC
330
1BB
330
1BA
330
1A2
330
1A3
330
1B9
330
1A4
330
1B8
330
1B7
330
1B6
330
1A0
330
1A1
 75
     1
 76
     0
 52
45.0
 41
0.1
 77
     0
 78
     1
 53
45.0
 43
0.0
 44
0.0
 45
-0.0707106781186548
 46
0.0707106781186548
 79
     0
 98
        1
 10
0.0
 20
0.0
  0
HATCH
  5
2A5
330
A0
100
AcDbEntity
  8
1
  6
Continuous
 62
     2
100
AcDbHatch
 10
0.0
 20
0.0
 30
0.0
210
0.0
220
0.0
230
1.0
  2
_USER
 70
     0
 71
     1
 91
        1
 92
        1
 93
       12
 72
     1
 10
-224.6405496387648
 20
-247.7935057220928
 11
-224.6405496387648
 21
-250.847315245904
 72
     1
 10
-224.6405496387648
 20
-250.847315245904
 11
-225.8333423409312
 21
-250.847315245904
 72
     1
 10
-225.8333423409312
 20
-250.847315245904
 11
-225.8333423409312
 21
-249.7130431370601
 72
     1
 10
-225.8333423409312
 20
-249.7130431370601
 11
-226.8829999188387
 21
-249.7130431370601
 72
     1
 10
-226.8829999188387
 20
-249.7130431370601
 11
-226.8829999188387
 21
-250.847315245904
 72
     1
 10
-226.8829999188387
 20
-250.847315245904
 11
-228.0757926210053
 21
-250.847315245904
 72
     1
 10
-228.0757926210053
 20
-250.847315245904
 11
-228.0757926210053
 21
-247.7935057220928
 72
     1
 10
-228.0757926210053
 20
-247.7935057220928
 11
-226.8829999188387
 21
-247.7935057220928
 72
     1
 10
-226.8829999188387
 20
-247.7935057220928
 11
-226.8829999188387
 21
-248.8623390554274
 72
     1
 10
-226.8829999188387
 20
-248.8623390554274
 11
-225.8333423409312
 21
-248.8623390554274
 72
     1
 10
-225.8333423409312
 20
-248.8623390554274
 11
-225.8333423409312
 21
-247.7935057220928
 72
     1
 10
-225.8333423409312
 20
-247.7935057220928
 11
-224.6405496387648
 21
-247.7935057220928
 97
       12
330
1BC
330
1BB
330
1BA
330
1A2
330
1A3
330
1B9
330
1A4
330
1B8
330
1B7
330
1B6
330
1A0
330
1A1
 75
     1
 76
     0
 52
45.0
 41
0.1
 77
     0
 78
     1
 53
45.0
 43
0.0
 44
0.0
 45
-0.0707106781186548
 46
0.0707106781186548
 79
     0
 98
        1
 10
0.0
 20
0.0
  0
ENDBLK
  5
A2
330
A0
100
AcDbEntity
  8
0
100
AcDbBlockEnd
  0
BLOCK
  5
A4
330
A3
100
AcDbEntity
  8
0
100
AcDbBlockBegin
  2
_punkt
 70
     0
 10
-112.7632458249759
 20
-261.5000057220946
 30
0.0
  3
_punkt
  1

  0
LINE
  5
2A6
330
A3
100
AcDbEntity
  8
1
  6
Continuous
 62
     2
100
AcDbLine
 10
-112.7632458249759
 20
-261.5000057220946
 30
0.0
 11
-112.7632458249759
 21
-266.5000057220947
 31
0.0
  0
LINE
  5
2A7
330
A3
100
AcDbEntity
  8
1
  6
Continuous
 62
     2
100
AcDbLine
 10
-112.7632458249759
 20
-261.5000057220946
 30
0.0
 11
-107.7632458249769
 21
-261.5000057220946
 31
0.0
  0
ENDBLK
  5
A5
330
A3
100
AcDbEntity
  8
0
100
AcDbBlockEnd
  0
BLOCK
  5
A9
330
A6
100
AcDbEntity
  8
0
100
AcDbBlockBegin
  2
A4I_CS
 70
     0
 10
-112.7632458249759
 20
-266.5000057220947
 30
0.0
  3
A4I_CS
  1

  0
INSERT
  5
A7
330
A6
100
AcDbEntity
  8
1
100
AcDbBlockReference
  2
_rahmen
 10
-112.7632458249759
 20
-266.5000057220947
 30
0.0
  0
INSERT
  5
A8
330
A6
100
AcDbEntity
  8
1
100
AcDbBlockReference
  2
_punkt
 10
-112.7632458249759
 20
-261.5000057220946
 30
0.0
  0
ENDBLK
  5
AA
330
A6
100
AcDbEntity
  8
0
100
AcDbBlockEnd
  0
BLOCK
  5
B3
330
AB
100
AcDbEntity
  8
0
100
AcDbBlockBegin
  2
1
 70
     0
 10
0.0
 20
0.0
 30
0.0
  3
1
  1

  0
INSERT
  5
AC
330
AB
100
AcDbEntity
  8
0
100
AcDbBlockReference
  2
Allg1
 10
-152.8513119999999
 20
-193.87778
 30
0.0
 41
2.0
 42
2.0
 43
2.0
  0
INSERT
  5
AD
330
AB
100
AcDbEntity
  8
0
100
AcDbBlockReference
  2
Drfsicht1
 10
-285.67518
 20
-174.020678
 30
0.0
 41
2.0
 42
2.0
 43
2.0
  0
INSERT
  5
AE
330
AB
100
AcDbEntity
  8
0
100
AcDbBlockReference
  2
Rckans1
 10
-152.8513116499519
 20
-110.0
 30
0.0
 41
2.0
 42
2.0
 43
2.0
  0
INSERT
  5
AF
330
AB
100
AcDbEntity
  8
0
100
AcDbBlockReference
  2
SA_Links1
 10
-219.2425752275006
 20
-110.0
 30
0.0
 41
2.0
 42
2.0
 43
2.0
  0
INSERT
  5
B0
330
AB
100
AcDbEntity
  8
0
100
AcDbBlockReference
  2
SA_Rechts1
 10
-362.0839164224514
 20
-110.0
 30
0.0
 41
2.0
 42
2.0
 43
2.0
  0
INSERT
  5
B1
330
AB
100
AcDbEntity
  8
0
100
AcDbBlockReference
  2
Vordans1
 10
-285.67518
 20
-110.0
 30
0.0
 41
2.0
 42
2.0
 43
2.0
  0
INSERT
  5
B2
330
AB
100
AcDbEntity
  8
0
100
AcDbBlockReference
  2
A4I_CS
 10
-112.7632458249759
 20
-266.5000057220947
 30
0.0
  0
ENDBLK
  5
B4
330
AB
100
AcDbEntity
  8
0
100
AcDbBlockEnd
  0
BLOCK
  5
EC
330
E5
100
AcDbEntity
  8
0
100
AcDbBlockBegin
  2
*D17
 70
     1
 10
0.0
 20
0.0
 30
0.0
  3
*D17
  1

  0
LINE
  5
E6
330
E5
100
AcDbEntity
  8
1
  6
Continuous
 62
     2
100
AcDbLine
 10
-160.031622912488
 20
-76.00000370126233
 30
0.0
 11
-160.031622912488
 21
-98.00000370126233
 31
0.0
  0
LINE
  5
E7
330
E5
100
AcDbEntity
  8
1
  6
Continuous
 62
     2
100
AcDbLine
 10
-148.1079852957972
 20
-76.00000370126233
 30
0.0
 11
-160.781622912488
 21
-76.00000370126233
 31
0.0
  0
LINE
  5
E8
330
E5
100
AcDbEntity
  8
1
  6
Continuous
 62
     2
100
AcDbLine
 10
-148.1079852957972
 20
-98.00000370126233
 30
0.0
 11
-160.781622912488
 21
-98.00000370126233
 31
0.0
  0
SOLID
  5
E9
330
E5
100
AcDbEntity
  8
1
 62
     2
100
AcDbTrace
 10
-159.8012310417101
 20
-77.75000370126233
 30
0.0
 11
-160.2620147832659
 21
-77.75000370126233
 31
0.0
 12
-160.031622912488
 22
-76.00000370126233
 32
0.0
 13
-160.031622912488
 23
-76.00000370126233
 33
0.0
  0
SOLID
  5
EA
330
E5
100
AcDbEntity
  8
1
 62
     2
100
AcDbTrace
 10
-160.2620147832659
 20
-96.25000370126233
 30
0.0
 11
-159.8012310417101
 21
-96.25000370126233
 31
0.0
 12
-160.031622912488
 22
-98.00000370126233
 32
0.0
 13
-160.031622912488
 23
-98.00000370126233
 33
0.0
  0
MTEXT
  5
EB
330
E5
100
AcDbEntity
  8
1
 62
     3
100
AcDbMText
 10
-160.781622912488
 20
-88.31250370126233
 30
0.0
 40
1.75
 41
0.0
 71
     7
 72
     1
  1
22
  7
CONVERTER_11
 11
0.0
 21
1.0
 31
0.0
 73
     1
 44
0.60024009603842
  0
ENDBLK
  5
ED
330
E5
100
AcDbEntity
  8
0
100
AcDbBlockEnd
  0
BLOCK
  5
F7
330
F0
100
AcDbEntity
  8
0
100
AcDbBlockBegin
  2
*D18
 70
     1
 10
0.0
 20
0.0
 30
0.0
  3
*D18
  1

  0
LINE
  5
F1
330
F0
100
AcDbEntity
  8
1
  6
Continuous
 62
     2
100
AcDbLine
 10
-155.031622912488
 20
-71.00000370126233
 30
0.0
 11
-130.631622912488
 21
-71.00000370126233
 31
0.0
  0
LINE
  5
F2
330
F0
100
AcDbEntity
  8
1
  6
Continuous
 62
     2
100
AcDbLine
 10
-155.031622912488
 20
-87.00000370126234
 30
0.0
 11
-155.031622912488
 21
-70.25000370126233
 31
0.0
  0
LINE
  5
F3
330
F0
100
AcDbEntity
  8
1
  6
Continuous
 62
     2
100
AcDbLine
 10
-130.631622912488
 20
-87.00000370126234
 30
0.0
 11
-130.631622912488
 21
-70.25000370126233
 31
0.0
  0
SOLID
  5
F4
330
F0
100
AcDbEntity
  8
1
 62
     2
100
AcDbTrace
 10
-153.281622912488
 20
-70.7696118304844
 30
0.0
 11
-153.281622912488
 21
-71.23039557204027
 31
0.0
 12
-155.031622912488
 22
-71.00000370126233
 32
0.0
 13
-155.031622912488
 23
-71.00000370126233
 33
0.0
  0
SOLID
  5
F5
330
F0
100
AcDbEntity
  8
1
 62
     2
100
AcDbTrace
 10
-132.381622912488
 20
-71.23039557204027
 30
0.0
 11
-132.381622912488
 21
-70.7696118304844
 31
0.0
 12
-130.631622912488
 22
-71.00000370126233
 32
0.0
 13
-130.631622912488
 23
-71.00000370126233
 33
0.0
  0
MTEXT
  5
F6
330
F0
100
AcDbEntity
  8
1
 62
     3
100
AcDbMText
 10
-145.237872912488
 20
-70.07500370126232
 30
0.0
 40
1.75
 41
0.0
 71
     7
 72
     1
  1
24,4
  7
CONVERTER_11
 11
0.9999999999970619
 21
2.424068405545306E-6
 31
0.0
 73
     1
 44
0.60024009603842
  0
ENDBLK
  5
F8
330
F0
100
AcDbEntity
  8
0
100
AcDbBlockEnd
  0
BLOCK
  5
16B
330
164
100
AcDbEntity
  8
0
100
AcDbBlockBegin
  2
*D19
 70
     1
 10
0.0
 20
0.0
 30
0.0
  3
*D19
  1

  0
LINE
  5
165
330
164
100
AcDbEntity
  8
1
  6
Continuous
 62
     2
100
AcDbLine
 10
-160.031622912488
 20
-50.50000000002502
 30
0.0
 11
-160.031622912488
 21
-59.50000000002502
 31
0.0
  0
LINE
  5
166
330
164
100
AcDbEntity
  8
1
  6
Continuous
 62
     2
100
AcDbLine
 10
-155.031622912488
 20
-50.50000000002502
 30
0.0
 11
-160.781622912488
 21
-50.50000000002502
 31
0.0
  0
LINE
  5
167
330
164
100
AcDbEntity
  8
1
  6
Continuous
 62
     2
100
AcDbLine
 10
-152.8316229124879
 20
-59.50000000002502
 30
0.0
 11
-160.781622912488
 21
-59.50000000002502
 31
0.0
  0
SOLID
  5
168
330
164
100
AcDbEntity
  8
1
 62
     2
100
AcDbTrace
 10
-159.8012310417101
 20
-52.25000000002502
 30
0.0
 11
-160.2620147832659
 21
-52.25000000002502
 31
0.0
 12
-160.031622912488
 22
-50.50000000002502
 32
0.0
 13
-160.031622912488
 23
-50.50000000002502
 33
0.0
  0
SOLID
  5
169
330
164
100
AcDbEntity
  8
1
 62
     2
100
AcDbTrace
 10
-160.2620147832659
 20
-57.75000000002502
 30
0.0
 11
-159.8012310417101
 21
-57.75000000002502
 31
0.0
 12
-160.031622912488
 22
-59.50000000002502
 32
0.0
 13
-160.031622912488
 23
-59.50000000002502
 33
0.0
  0
MTEXT
  5
16A
330
164
100
AcDbEntity
  8
1
 62
     3
100
AcDbMText
 10
-160.781622912488
 20
-55.52500000002502
 30
0.0
 40
1.75
 41
0.0
 71
     7
 72
     1
  1
9
  7
CONVERTER_11
 11
0.0
 21
1.0
 31
0.0
 73
     1
 44
0.60024009603842
  0
ENDBLK
  5
16C
330
164
100
AcDbEntity
  8
0
100
AcDbBlockEnd
  0
ENDSEC
  0
SECTION
  2
ENTITIES
  0
INSERT
  5
B5
330
1F
100
AcDbEntity
  8
1
100
AcDbBlockReference
  2
1
 10
0.0
 20
0.0
 30
0.0
  0
ENDSEC
  0
SECTION
  2
OBJECTS
  0
DICTIONARY
  5
C
330
0
100
AcDbDictionary
281
     1
  3
ACAD_DETAILVIEWSTYLE
350
2ED
  3
ACAD_GROUP
350
D
  3
ACAD_LAYOUT
350
1A
  3
ACAD_MATERIAL
350
43
  3
ACAD_MLEADERSTYLE
350
6B
  3
ACAD_MLINESTYLE
350
17
  3
ACAD_PLOTSETTINGS
350
19
  3
ACAD_PLOTSTYLENAME
350
E
  3
ACAD_SCALELIST
350
47
  3
ACAD_SECTIONVIEWSTYLE
350
2EE
  3
ACAD_TABLESTYLE
350
69
  3
ACAD_VISUALSTYLE
350
2A
  3
ACDB_RECOMPOSE_DATA
350
2EA
  3
AcDbVariableDictionary
350
2AA
  0
DICTIONARY
  5
2A8
330
8
100
AcDbDictionary
280
     1
281
     1
  3
ACAD_XREC_ROUNDTRIP
360
2A9
  0
DICTIONARY
  5
2ED
102
{ACAD_REACTORS
330
C
102
}
330
C
100
AcDbDictionary
281
     1
  0
DICTIONARY
  5
D
102
{ACAD_REACTORS
330
C
102
}
330
C
100
AcDbDictionary
281
     1
  0
DICTIONARY
  5
1A
102
{ACAD_REACTORS
330
C
102
}
330
C
100
AcDbDictionary
281
     1
  3
Layout1
350
1E
  3
Layout2
350
26
  3
Model
350
22
  0
DICTIONARY
  5
43
102
{ACAD_REACTORS
330
C
102
}
330
C
100
AcDbDictionary
281
     1
  3
ByBlock
350
45
  3
ByLayer
350
44
  3
Global
350
46
  0
DICTIONARY
  5
6B
102
{ACAD_REACTORS
330
C
102
}
330
C
100
AcDbDictionary
281
     1
  3
Standard
350
6C
  0
DICTIONARY
  5
17
102
{ACAD_REACTORS
330
C
102
}
330
C
100
AcDbDictionary
281
     1
  3
Standard
350
18
  0
DICTIONARY
  5
19
102
{ACAD_REACTORS
330
C
102
}
330
C
100
AcDbDictionary
281
     1
  0
ACDBDICTIONARYWDFLT
  5
E
102
{ACAD_REACTORS
330
C
102
}
330
C
100
AcDbDictionary
281
     1
  3
Normal
350
F
100
AcDbDictionaryWithDefault
340
F
  0
DICTIONARY
  5
47
102
{ACAD_REACTORS
330
C
102
}
330
C
100
AcDbDictionary
281
     1
  3
A0
350
48
  3
A1
350
49
  3
A2
350
4A
  3
A3
350
4B
  3
A4
350
4C
  3
A5
350
4D
  3
A6
350
4E
  3
A7
350
4F
  3
A8
350
50
  3
A9
350
51
  3
B0
350
52
  3
B1
350
53
  3
B2
350
54
  3
B3
350
55
  3
B4
350
56
  3
B5
350
57
  3
B6
350
58
  3
B7
350
59
  3
B8
350
5A
  3
B9
350
5B
  3
C0
350
5C
  3
C1
350
5D
  3
C2
350
5E
  3
C3
350
5F
  3
C4
350
60
  3
C5
350
61
  3
C6
350
62
  3
C7
350
63
  3
C8
350
64
  3
C9
350
65
  3
D0
350
66
  3
D1
350
67
  3
D2
350
68
  0
DICTIONARY
  5
2EE
102
{ACAD_REACTORS
330
C
102
}
330
C
100
AcDbDictionary
281
     1
  0
DICTIONARY
  5
69
102
{ACAD_REACTORS
330
C
102
}
330
C
100
AcDbDictionary
281
     1
  3
Standard
350
6A
  0
DICTIONARY
  5
2A
102
{ACAD_REACTORS
330
C
102
}
330
C
100
AcDbDictionary
281
     1
  3
2dWireframe
350
2F
  3
Basic
350
32
  3
Brighten
350
36
  3
ColorChange
350
3A
  3
Conceptual
350
34
  3
Dim
350
35
  3
EdgeColorOff
350
3D
  3
Facepattern
350
39
  3
Flat
350
2B
  3
FlatWithEdges
350
2C
  3
Gouraud
350
2D
  3
GouraudWithEdges
350
2E
  3
Hidden
350
31
  3
JitterOff
350
3B
  3
Linepattern
350
38
  3
OverhangOff
350
3C
  3
Realistic
350
33
  3
Shaded
350
42
  3
Shaded with edges
350
41
  3
Shades of Gray
350
3E
  3
Sketchy
350
3F
  3
Thicken
350
37
  3
Wireframe
350
30
  3
X-Ray
350
40
  0
XRECORD
  5
2EA
102
{ACAD_REACTORS
330
C
102
}
330
C
100
AcDbXrecord
280
     1
 90
        1
330
6A
  0
DICTIONARY
  5
2AA
102
{ACAD_REACTORS
330
C
102
}
330
C
100
AcDbDictionary
281
     1
  3
CANNOSCALE
350
2AB
  3
CMLEADERSTYLE
350
2EC
  3
CTABLESTYLE
350
2EB
  3
MSLTSCALE
350
2AC
  3
XCLIPFRAME
350
2AD
  0
XRECORD
  5
2A9
102
{ACAD_REACTORS
330
2A8
102
}
330
2A8
100
AcDbXrecord
280
     1
102
VTR_0.000_0.000_1.000_1.000_VISUALSTYLE
340
2F
102
VTR_0.000_0.000_1.000_1.000_GRIDDISPLAY
 70
     3
102
VTR_0.000_0.000_1.000_1.000_GRIDMAJOR
 70
     5
102
VTR_0.000_0.000_1.000_1.000_DEFAULTLIGHTING
280
     1
102
VTR_0.000_0.000_1.000_1.000_DEFAULTLIGHTINGTYPE
 70
     1
102
VTR_0.000_0.000_1.000_1.000_BRIGHTNESS
141
0.0
102
VTR_0.000_0.000_1.000_1.000_CONTRAST
142
0.0
  0
LAYOUT
  5
1E
102
{ACAD_REACTORS
330
1A
102
}
330
1A
100
AcDbPlotSettings
  1

  2
none_device
  4

  6

 40
0.0
 41
0.0
 42
0.0
 43
0.0
 44
0.0
 45
0.0
 46
0.0
 47
0.0
 48
0.0
 49
0.0
140
0.0
141
0.0
142
1.0
143
1.0
 70
   688
 72
     0
 73
     0
 74
     5
  7

 75
    16
 76
     0
 77
     2
 78
   300
147
1.0
148
0.0
149
0.0
100
AcDbLayout
  1
Layout1
 70
     1
 71
     1
 10
0.0
 20
0.0
 11
12.0
 21
9.0
 12
0.0
 22
0.0
 32
0.0
 14
1.00000000000000E+20
 24
1.00000000000000E+20
 34
1.00000000000000E+20
 15
-1.00000000000000E+20
 25
-1.00000000000000E+20
 35
-1.00000000000000E+20
146
0.0
 13
0.0
 23
0.0
 33
0.0
 16
1.0
 26
0.0
 36
0.0
 17
0.0
 27
1.0
 37
0.0
 76
     0
330
1B
  0
LAYOUT
  5
26
102
{ACAD_REACTORS
330
1A
102
}
330
1A
100
AcDbPlotSettings
  1

  2
none_device
  4

  6

 40
0.0
 41
0.0
 42
0.0
 43
0.0
 44
0.0
 45
0.0
 46
0.0
 47
0.0
 48
0.0
 49
0.0
140
0.0
141
0.0
142
1.0
143
1.0
 70
   688
 72
     0
 73
     0
 74
     5
  7

 75
    16
 76
     0
 77
     2
 78
   300
147
1.0
148
0.0
149
0.0
100
AcDbLayout
  1
Layout2
 70
     1
 71
     2
 10
0.0
 20
0.0
 11
0.0
 21
0.0
 12
0.0
 22
0.0
 32
0.0
 14
0.0
 24
0.0
 34
0.0
 15
0.0
 25
0.0
 35
0.0
146
0.0
 13
0.0
 23
0.0
 33
0.0
 16
1.0
 26
0.0
 36
0.0
 17
0.0
 27
1.0
 37
0.0
 76
     0
330
23
  0
LAYOUT
  5
22
102
{ACAD_REACTORS
330
1A
102
}
330
1A
100
AcDbPlotSettings
  1

  2
none_device
  4
Letter_(8.50_x_11.00_Inches)
  6

 40
6.35
 41
6.35
 42
6.35000508
 43
6.35000508
 44
215.9
 45
279.4
 46
0.0
 47
0.0
 48
0.0
 49
0.0
140
0.0
141
0.0
142
1.0
143
1.0
 70
  1712
 72
     0
 73
     0
 74
     0
  7

 75
     0
 76
     0
 77
     2
 78
   300
147
1.0
148
0.0
149
0.0
100
AcDbLayout
  1
Model
 70
     1
 71
     0
 10
0.0
 20
0.0
 11
12.0
 21
9.0
 12
0.0
 22
0.0
 32
0.0
 14
-404.763245824975
 24
-266.5000057220947
 34
0.0
 15
-107.7632458249769
 25
-56.50000572209456
 35
0.0
146
0.0
 13
0.0
 23
0.0
 33
0.0
 16
1.0
 26
0.0
 36
0.0
 17
0.0
 27
1.0
 37
0.0
 76
     0
330
1F
331
29
  0
MATERIAL
  5
45
102
{ACAD_REACTORS
330
43
102
}
102
{ACAD_XDICTIONARY
360
2E0
102
}
330
43
100
AcDbMaterial
  1
ByBlock
  0
MATERIAL
  5
44
102
{ACAD_REACTORS
330
43
102
}
102
{ACAD_XDICTIONARY
360
2DE
102
}
330
43
100
AcDbMaterial
  1
ByLayer
  0
MATERIAL
  5
46
102
{ACAD_REACTORS
330
43
102
}
102
{ACAD_XDICTIONARY
360
2E2
102
}
330
43
100
AcDbMaterial
  1
Global
  0
MLEADERSTYLE
  5
6C
102
{ACAD_REACTORS
330
6B
102
}
102
{ACAD_XDICTIONARY
360
2E8
102
}
330
6B
100
AcDbMLeaderStyle
170
     2
171
     1
172
     0
 90
        2
 40
0.0
 41
0.0
173
     1
 91
-1056964608
340
14
 92
       -2
290
     1
 42
0.09
291
     1
 43
0.36
  3
Standard
341
0
 44
0.18
300

342
11
174
     1
178
     6
175
     1
176
     0
 93
-1056964608
 45
0.18
292
     0
297
     0
 46
0.18
343
0
 94
-1056964608
 47
1.0
 49
1.0
140
1.0
293
     1
141
0.0
294
     1
177
     0
142
1.0
295
     0
296
     0
143
0.125
1001
ACAD_MLEADERVER
1070
     2
  0
MLINESTYLE
  5
18
102
{ACAD_REACTORS
330
17
102
}
330
17
100
AcDbMlineStyle
  2
Standard
 70
     0
  3

 62
   256
 51
90.0
 52
90.0
 71
     2
 49
0.5
 62
   256
  6
BYLAYER
 49
-0.5
 62
   256
  6
BYLAYER
  0
ACDBPLACEHOLDER
  5
F
102
{ACAD_REACTORS
330
E
102
}
330
E
  0
SCALE
  5
48
102
{ACAD_REACTORS
330
47
102
}
330
47
100
AcDbScale
 70
     0
300
1:1
140
1.0
141
1.0
290
     1
  0
SCALE
  5
49
102
{ACAD_REACTORS
330
47
102
}
330
47
100
AcDbScale
 70
     0
300
1:2
140
1.0
141
2.0
290
     0
  0
SCALE
  5
4A
102
{ACAD_REACTORS
330
47
102
}
330
47
100
AcDbScale
 70
     0
300
1:4
140
1.0
141
4.0
290
     0
  0
SCALE
  5
4B
102
{ACAD_REACTORS
330
47
102
}
330
47
100
AcDbScale
 70
     0
300
1:5
140
1.0
141
5.0
290
     0
  0
SCALE
  5
4C
102
{ACAD_REACTORS
330
47
102
}
330
47
100
AcDbScale
 70
     0
300
1:8
140
1.0
141
8.0
290
     0
  0
SCALE
  5
4D
102
{ACAD_REACTORS
330
47
102
}
330
47
100
AcDbScale
 70
     0
300
1:10
140
1.0
141
10.0
290
     0
  0
SCALE
  5
4E
102
{ACAD_REACTORS
330
47
102
}
330
47
100
AcDbScale
 70
     0
300
1:16
140
1.0
141
16.0
290
     0
  0
SCALE
  5
4F
102
{ACAD_REACTORS
330
47
102
}
330
47
100
AcDbScale
 70
     0
300
1:20
140
1.0
141
20.0
290
     0
  0
SCALE
  5
50
102
{ACAD_REACTORS
330
47
102
}
330
47
100
AcDbScale
 70
     0
300
1:30
140
1.0
141
30.0
290
     0
  0
SCALE
  5
51
102
{ACAD_REACTORS
330
47
102
}
330
47
100
AcDbScale
 70
     0
300
1:40
140
1.0
141
40.0
290
     0
  0
SCALE
  5
52
102
{ACAD_REACTORS
330
47
102
}
330
47
100
AcDbScale
 70
     0
300
1:50
140
1.0
141
50.0
290
     0
  0
SCALE
  5
53
102
{ACAD_REACTORS
330
47
102
}
330
47
100
AcDbScale
 70
     0
300
1:100
140
1.0
141
100.0
290
     0
  0
SCALE
  5
54
102
{ACAD_REACTORS
330
47
102
}
330
47
100
AcDbScale
 70
     0
300
2:1
140
2.0
141
1.0
290
     0
  0
SCALE
  5
55
102
{ACAD_REACTORS
330
47
102
}
330
47
100
AcDbScale
 70
     0
300
4:1
140
4.0
141
1.0
290
     0
  0
SCALE
  5
56
102
{ACAD_REACTORS
330
47
102
}
330
47
100
AcDbScale
 70
     0
300
8:1
140
8.0
141
1.0
290
     0
  0
SCALE
  5
57
102
{ACAD_REACTORS
330
47
102
}
330
47
100
AcDbScale
 70
     0
300
10:1
140
10.0
141
1.0
290
     0
  0
SCALE
  5
58
102
{ACAD_REACTORS
330
47
102
}
330
47
100
AcDbScale
 70
     0
300
100:1
140
100.0
141
1.0
290
     0
  0
SCALE
  5
59
102
{ACAD_REACTORS
330
47
102
}
330
47
100
AcDbScale
 70
     0
300
1/128" = 1'-0"
140
0.0078125
141
12.0
290
     0
  0
SCALE
  5
5A
102
{ACAD_REACTORS
330
47
102
}
330
47
100
AcDbScale
 70
     0
300
1/64" = 1'-0"
140
0.015625
141
12.0
290
     0
  0
SCALE
  5
5B
102
{ACAD_REACTORS
330
47
102
}
330
47
100
AcDbScale
 70
     0
300
1/32" = 1'-0"
140
0.03125
141
12.0
290
     0
  0
SCALE
  5
5C
102
{ACAD_REACTORS
330
47
102
}
330
47
100
AcDbScale
 70
     0
300
1/16" = 1'-0"
140
0.0625
141
12.0
290
     0
  0
SCALE
  5
5D
102
{ACAD_REACTORS
330
47
102
}
330
47
100
AcDbScale
 70
     0
300
3/32" = 1'-0"
140
0.09375
141
12.0
290
     0
  0
SCALE
  5
5E
102
{ACAD_REACTORS
330
47
102
}
330
47
100
AcDbScale
 70
     0
300
1/8" = 1'-0"
140
0.125
141
12.0
290
     0
  0
SCALE
  5
5F
102
{ACAD_REACTORS
330
47
102
}
330
47
100
AcDbScale
 70
     0
300
3/16" = 1'-0"
140
0.1875
141
12.0
290
     0
  0
SCALE
  5
60
102
{ACAD_REACTORS
330
47
102
}
330
47
100
AcDbScale
 70
     0
300
1/4" = 1'-0"
140
0.25
141
12.0
290
     0
  0
SCALE
  5
61
102
{ACAD_REACTORS
330
47
102
}
330
47
100
AcDbScale
 70
     0
300
3/8" = 1'-0"
140
0.375
141
12.0
290
     0
  0
SCALE
  5
62
102
{ACAD_REACTORS
330
47
102
}
330
47
100
AcDbScale
 70
     0
300
1/2" = 1'-0"
140
0.5
141
12.0
290
     0
  0
SCALE
  5
63
102
{ACAD_REACTORS
330
47
102
}
330
47
100
AcDbScale
 70
     0
300
3/4" = 1'-0"
140
0.75
141
12.0
290
     0
  0
SCALE
  5
64
102
{ACAD_REACTORS
330
47
102
}
330
47
100
AcDbScale
 70
     0
300
1" = 1'-0"
140
1.0
141
12.0
290
     0
  0
SCALE
  5
65
102
{ACAD_REACTORS
330
47
102
}
330
47
100
AcDbScale
 70
     0
300
1-1/2" = 1'-0"
140
1.5
141
12.0
290
     0
  0
SCALE
  5
66
102
{ACAD_REACTORS
330
47
102
}
330
47
100
AcDbScale
 70
     0
300
3" = 1'-0"
140
3.0
141
12.0
290
     0
  0
SCALE
  5
67
102
{ACAD_REACTORS
330
47
102
}
330
47
100
AcDbScale
 70
     0
300
6" = 1'-0"
140
6.0
141
12.0
290
     0
  0
SCALE
  5
68
102
{ACAD_REACTORS
330
47
102
}
330
47
100
AcDbScale
 70
     0
300
1'-0" = 1'-0"
140
12.0
141
12.0
290
     0
  0
TABLESTYLE
  5
6A
102
{ACAD_REACTORS
330
69
102
}
102
{ACAD_XDICTIONARY
360
2E4
102
}
330
69
100
AcDbTableStyle
  3
Standard
 70
     0
 71
     0
 40
0.06
 41
0.06
280
     0
281
     0
  7
Standard
140
0.18
170
     2
 62
     0
 63
   257
283
     0
274
    -2
284
     1
 64
     0
275
    -2
285
     1
 65
     0
276
    -2
286
     1
 66
     0
277
    -2
287
     1
 67
     0
278
    -2
288
     1
 68
     0
279
    -2
289
     1
 69
     0
  7
Standard
140
0.25
170
     5
 62
     0
 63
   257
283
     0
274
    -2
284
     1
 64
     0
275
    -2
285
     1
 65
     0
276
    -2
286
     1
 66
     0
277
    -2
287
     1
 67
     0
278
    -2
288
     1
 68
     0
279
    -2
289
     1
 69
     0
  7
Standard
140
0.18
170
     5
 62
     0
 63
   257
283
     0
274
    -2
284
     1
 64
     0
275
    -2
285
     1
 65
     0
276
    -2
286
     1
 66
     0
277
    -2
287
     1
 67
     0
278
    -2
288
     1
 68
     0
279
    -2
289
     1
 69
     0
  0
VISUALSTYLE
  5
2F
102
{ACAD_REACTORS
330
2A
102
}
102
{ACAD_XDICTIONARY
360
2B6
102
}
330
2A
100
AcDbVisualStyle
  2
2dWireframe
 70
     4
 71
     0
 72
     2
 73
     0
 90
        0
 40
0.6
 41
30.0
 62
     5
 63
     7
421
 16777215
 74
     1
 91
        4
 64
     7
 65
   257
 75
     1
175
     1
 42
1.0
 92
        0
 66
   257
 43
1.0
 76
     1
 77
     6
 78
     2
 67
     7
 79
     5
170
     0
171
     0
290
     0
174
     0
 93
        1
 44
0.0
173
     0
291
     0
 45
0.0
1001
ACAD
1000
AcDbSavedByObjectVersion
1070
     0
  0
VISUALSTYLE
  5
32
102
{ACAD_REACTORS
330
2A
102
}
102
{ACAD_XDICTIONARY
360
2BC
102
}
330
2A
100
AcDbVisualStyle
  2
Basic
 70
     7
 71
     1
 72
     0
 73
     1
 90
        0
 40
0.6
 41
30.0
 62
     5
 63
     7
421
 16777215
 74
     0
 91
        4
 64
     7
 65
   257
 75
     1
175
     1
 42
1.0
 92
        8
 66
     7
 43
1.0
 76
     1
 77
     6
 78
     2
 67
     7
 79
     5
170
     0
171
     0
290
     0
174
     0
 93
        1
 44
0.0
173
     0
291
     1
 45
0.0
1001
ACAD
1000
AcDbSavedByObjectVersion
1070
     0
  0
VISUALSTYLE
  5
36
102
{ACAD_REACTORS
330
2A
102
}
102
{ACAD_XDICTIONARY
360
2C4
102
}
330
2A
100
AcDbVisualStyle
  2
Brighten
 70
    12
 71
     2
 72
     2
 73
     0
 90
        0
 40
0.6
 41
30.0
 62
     5
 63
     7
421
 16777215
 74
     1
 91
        4
 64
     7
 65
   257
 75
     1
175
     1
 42
1.0
 92
        8
 66
     7
 43
1.0
 76
     1
 77
     6
 78
     2
 67
     7
 79
     5
170
     0
171
     0
290
     0
174
     0
 93
        1
 44
50.0
173
     0
291
     1
 45
0.0
1001
ACAD
1000
AcDbSavedByObjectVersion
1070
     0
  0
VISUALSTYLE
  5
3A
102
{ACAD_REACTORS
330
2A
102
}
102
{ACAD_XDICTIONARY
360
2CC
102
}
330
2A
100
AcDbVisualStyle
  2
ColorChange
 70
    16
 71
     2
 72
     2
 73
     3
 90
        0
 40
0.6
 41
30.0
 62
     5
 63
     8
421
  8421504
 74
     1
 91
        4
 64
     7
 65
   257
 75
     1
175
     1
 42
1.0
 92
        8
 66
     8
424
  8421504
 43
1.0
 76
     1
 77
     6
 78
     2
 67
     7
 79
     5
170
     0
171
     0
290
     0
174
     0
 93
        1
 44
0.0
173
     0
291
     1
 45
0.0
1001
ACAD
1000
AcDbSavedByObjectVersion
1070
     0
  0
VISUALSTYLE
  5
34
102
{ACAD_REACTORS
330
2A
102
}
102
{ACAD_XDICTIONARY
360
2C0
102
}
330
2A
100
AcDbVisualStyle
  2
Conceptual
 70
     9
 71
     3
 72
     2
 73
     0
 90
        0
 40
0.6
 41
30.0
 62
     5
 63
     7
421
 16777215
 74
     2
 91
        2
 64
     7
 65
   257
 75
     1
175
     1
 42
179.0
 92
        8
 66
     7
 43
1.0
 76
     1
 77
     6
 78
     2
 67
     7
 79
     3
170
     0
171
     0
290
     0
174
     0
 93
        1
 44
0.0
173
     0
291
     0
 45
0.0
1001
ACAD
1000
AcDbSavedByObjectVersion
1070
     0
  0
VISUALSTYLE
  5
35
102
{ACAD_REACTORS
330
2A
102
}
102
{ACAD_XDICTIONARY
360
2C2
102
}
330
2A
100
AcDbVisualStyle
  2
Dim
 70
    11
 71
     2
 72
     2
 73
     0
 90
        0
 40
0.6
 41
30.0
 62
     5
 63
     7
421
 16777215
 74
     1
 91
        4
 64
     7
 65
   257
 75
     1
175
     1
 42
1.0
 92
        8
 66
     7
 43
1.0
 76
     1
 77
     6
 78
     2
 67
     7
 79
     5
170
     0
171
     0
290
     0
174
     0
 93
        1
 44
-50.0
173
     0
291
     1
 45
0.0
1001
ACAD
1000
AcDbSavedByObjectVersion
1070
     0
  0
VISUALSTYLE
  5
3D
102
{ACAD_REACTORS
330
2A
102
}
102
{ACAD_XDICTIONARY
360
2D2
102
}
330
2A
100
AcDbVisualStyle
  2
EdgeColorOff
 70
    22
 71
     2
 72
     2
 73
     0
 90
        0
 40
0.6
 41
30.0
 62
     5
 63
     7
421
 16777215
 74
     1
 91
        4
 64
     7
 65
   257
 75
     1
175
     1
 42
1.0
 92
        8
 66
     7
 43
1.0
 76
     1
 77
     6
 78
     2
 67
     7
 79
     5
170
     0
171
     0
290
     0
174
     0
 93
        1
 44
0.0
173
     0
291
     1
 45
0.0
1001
ACAD
1000
AcDbSavedByObjectVersion
1070
     0
  0
VISUALSTYLE
  5
39
102
{ACAD_REACTORS
330
2A
102
}
102
{ACAD_XDICTIONARY
360
2CA
102
}
330
2A
100
AcDbVisualStyle
  2
Facepattern
 70
    15
 71
     2
 72
     2
 73
     0
 90
        0
 40
0.6
 41
30.0
 62
     5
 63
     7
421
 16777215
 74
     1
 91
        4
 64
     7
 65
   257
 75
     1
175
     1
 42
1.0
 92
        8
 66
     7
 43
1.0
 76
     1
 77
     6
 78
     2
 67
     7
 79
     5
170
     0
171
     0
290
     0
174
     0
 93
        1
 44
0.0
173
     0
291
     1
 45
0.0
1001
ACAD
1000
AcDbSavedByObjectVersion
1070
     0
  0
VISUALSTYLE
  5
2B
102
{ACAD_REACTORS
330
2A
102
}
102
{ACAD_XDICTIONARY
360
2AE
102
}
330
2A
100
AcDbVisualStyle
  2
Flat
 70
     0
 71
     2
 72
     1
 73
     1
 90
        2
 40
0.6
 41
30.0
 62
     5
 63
     7
421
 16777215
 74
     0
 91
        0
 64
     7
 65
   257
 75
     1
175
     1
 42
1.0
 92
        8
 66
     7
 43
1.0
 76
     1
 77
     6
 78
     2
 67
     7
 79
     5
170
     0
171
     0
290
     0
174
     0
 93
       13
 44
0.0
173
     0
291
     1
 45
0.0
1001
ACAD
1000
AcDbSavedByObjectVersion
1070
     0
  0
VISUALSTYLE
  5
2C
102
{ACAD_REACTORS
330
2A
102
}
102
{ACAD_XDICTIONARY
360
2B0
102
}
330
2A
100
AcDbVisualStyle
  2
FlatWithEdges
 70
     1
 71
     2
 72
     1
 73
     1
 90
        2
 40
0.6
 41
30.0
 62
     5
 63
     7
421
 16777215
 74
     1
 91
        0
 64
     7
 65
   257
 75
     1
175
     1
 42
1.0
 92
        0
 66
   257
 43
1.0
 76
     1
 77
     6
 78
     2
 67
     7
 79
     5
170
     0
171
     0
290
     0
174
     0
 93
       13
 44
0.0
173
     0
291
     1
 45
0.0
1001
ACAD
1000
AcDbSavedByObjectVersion
1070
     0
  0
VISUALSTYLE
  5
2D
102
{ACAD_REACTORS
330
2A
102
}
102
{ACAD_XDICTIONARY
360
2B2
102
}
330
2A
100
AcDbVisualStyle
  2
Gouraud
 70
     2
 71
     2
 72
     2
 73
     1
 90
        2
 40
0.6
 41
30.0
 62
     5
 63
     7
421
 16777215
 74
     0
 91
        0
 64
     7
 65
   257
 75
     1
175
     1
 42
1.0
 92
        0
 66
     7
 43
1.0
 76
     1
 77
     6
 78
     2
 67
     7
 79
     5
170
     0
171
     0
290
     0
174
     0
 93
       13
 44
0.0
173
     0
291
     1
 45
0.0
1001
ACAD
1000
AcDbSavedByObjectVersion
1070
     0
  0
VISUALSTYLE
  5
2E
102
{ACAD_REACTORS
330
2A
102
}
102
{ACAD_XDICTIONARY
360
2B4
102
}
330
2A
100
AcDbVisualStyle
  2
GouraudWithEdges
 70
     3
 71
     2
 72
     2
 73
     1
 90
        2
 40
0.6
 41
30.0
 62
     5
 63
     7
421
 16777215
 74
     1
 91
        0
 64
     7
 65
   257
 75
     1
175
     1
 42
1.0
 92
        0
 66
   257
 43
1.0
 76
     1
 77
     6
 78
     2
 67
     7
 79
     5
170
     0
171
     0
290
     0
174
     0
 93
       13
 44
0.0
173
     0
291
     1
 45
0.0
1001
ACAD
1000
AcDbSavedByObjectVersion
1070
     0
  0
VISUALSTYLE
  5
31
102
{ACAD_REACTORS
330
2A
102
}
102
{ACAD_XDICTIONARY
360
2BA
102
}
330
2A
100
AcDbVisualStyle
  2
Hidden
 70
     6
 71
     1
 72
     2
 73
     2
 90
        0
 40
0.6
 41
30.0
 62
     5
 63
     7
421
 16777215
 74
     2
 91
        2
 64
     7
 65
   257
 75
     2
175
     1
 42
40.0
 92
        0
 66
   257
 43
1.0
 76
     1
 77
     6
 78
     2
 67
     7
 79
     3
170
     0
171
     0
290
     0
174
     0
 93
        1
 44
0.0
173
     0
291
     0
 45
0.0
1001
ACAD
1000
AcDbSavedByObjectVersion
1070
     0
  0
VISUALSTYLE
  5
3B
102
{ACAD_REACTORS
330
2A
102
}
102
{ACAD_XDICTIONARY
360
2CE
102
}
330
2A
100
AcDbVisualStyle
  2
JitterOff
 70
    20
 71
     2
 72
     2
 73
     0
 90
        0
 40
0.6
 41
30.0
 62
     5
 63
     7
421
 16777215
 74
     1
 91
        4
 64
     7
 65
   257
 75
     1
175
     1
 42
1.0
 92
       10
 66
     7
 43
1.0
 76
     1
 77
     6
 78
     2
 67
     7
 79
     5
170
     0
171
     0
290
     0
174
     0
 93
        1
 44
0.0
173
     0
291
     1
 45
0.0
1001
ACAD
1000
AcDbSavedByObjectVersion
1070
     0
  0
VISUALSTYLE
  5
38
102
{ACAD_REACTORS
330
2A
102
}
102
{ACAD_XDICTIONARY
360
2C8
102
}
330
2A
100
AcDbVisualStyle
  2
Linepattern
 70
    14
 71
     2
 72
     2
 73
     0
 90
        0
 40
0.6
 41
30.0
 62
     5
 63
     7
421
 16777215
 74
     1
 91
        4
 64
     7
 65
   257
 75
     7
175
     7
 42
1.0
 92
        8
 66
     7
 43
1.0
 76
     1
 77
     6
 78
     2
 67
     7
 79
     5
170
     0
171
     0
290
     0
174
     0
 93
        1
 44
0.0
173
     0
291
     1
 45
0.0
1001
ACAD
1000
AcDbSavedByObjectVersion
1070
     0
  0
VISUALSTYLE
  5
3C
102
{ACAD_REACTORS
330
2A
102
}
102
{ACAD_XDICTIONARY
360
2D0
102
}
330
2A
100
AcDbVisualStyle
  2
OverhangOff
 70
    21
 71
     2
 72
     2
 73
     0
 90
        0
 40
0.6
 41
30.0
 62
     5
 63
     7
421
 16777215
 74
     1
 91
        4
 64
     7
 65
   257
 75
     1
175
     1
 42
1.0
 92
        9
 66
     7
 43
1.0
 76
     1
 77
     6
 78
     2
 67
     7
 79
     5
170
     0
171
     0
290
     0
174
     0
 93
        1
 44
0.0
173
     0
291
     1
 45
0.0
1001
ACAD
1000
AcDbSavedByObjectVersion
1070
     0
  0
VISUALSTYLE
  5
33
102
{ACAD_REACTORS
330
2A
102
}
102
{ACAD_XDICTIONARY
360
2BE
102
}
330
2A
100
AcDbVisualStyle
  2
Realistic
 70
     8
 71
     2
 72
     3
 73
     0
 90
        2
 40
0.6
 41
30.0
 62
     5
 63
     7
421
 16777215
 74
     0
 91
        0
 64
     7
 65
   257
 75
     1
175
     1
 42
1.0
 92
        8
 66
   257
 43
1.0
 76
     1
 77
     6
 78
     2
 67
     7
 79
     3
170
     0
171
     0
290
     0
174
     0
 93
       13
 44
0.0
173
     0
291
     0
 45
0.0
1001
ACAD
1000
AcDbSavedByObjectVersion
1070
     0
  0
VISUALSTYLE
  5
42
102
{ACAD_REACTORS
330
2A
102
}
102
{ACAD_XDICTIONARY
360
2DC
102
}
330
2A
100
AcDbVisualStyle
  2
Shaded
 70
    27
 71
     2
 72
     2
 73
     1
 90
        2
 40
0.6
 41
30.0
 62
     5
 63
     7
421
 16777215
 74
     0
 91
        4
 64
     7
 65
   257
 75
     1
175
     1
 42
1.0
 92
        8
 66
   257
 43
1.0
 76
     1
 77
     6
 78
     2
 67
     8
425
  7895160
 79
     3
170
     0
171
     0
290
     0
174
     0
 93
        5
 44
0.0
173
     0
291
     0
 45
0.0
1001
ACAD
1000
AcDbSavedByObjectVersion
1070
     0
  0
VISUALSTYLE
  5
41
102
{ACAD_REACTORS
330
2A
102
}
102
{ACAD_XDICTIONARY
360
2DA
102
}
330
2A
100
AcDbVisualStyle
  2
Shaded with edges
 70
    26
 71
     2
 72
     2
 73
     1
 90
        2
 40
0.6
 41
30.0
 62
     5
 63
     7
421
 16777215
 74
     1
 91
       10
 64
     7
 65
   257
 75
     2
175
     1
 42
1.0
 92
        8
 66
   257
 43
1.0
 76
     1
 77
     6
 78
     2
 67
     7
 79
     3
170
     0
171
     0
290
     0
174
     0
 93
        5
 44
0.0
173
     0
291
     0
 45
0.0
1001
ACAD
1000
AcDbSavedByObjectVersion
1070
     0
  0
VISUALSTYLE
  5
3E
102
{ACAD_REACTORS
330
2A
102
}
102
{ACAD_XDICTIONARY
360
2D4
102
}
330
2A
100
AcDbVisualStyle
  2
Shades of Gray
 70
    23
 71
     2
 72
     2
 73
     3
 90
        0
 40
0.6
 41
30.0
 62
     5
 63
     7
421
 16777215
 74
     2
 91
        2
 64
     7
 65
     7
 75
     1
175
     1
 42
40.0
 92
        8
 66
     7
 43
1.0
 76
     1
 77
     6
 78
     2
 67
     7
 79
     3
170
     0
171
     0
290
     0
174
     0
 93
        1
 44
0.0
173
     0
291
     0
 45
0.0
1001
ACAD
1000
AcDbSavedByObjectVersion
1070
     0
  0
VISUALSTYLE
  5
3F
102
{ACAD_REACTORS
330
2A
102
}
102
{ACAD_XDICTIONARY
360
2D6
102
}
330
2A
100
AcDbVisualStyle
  2
Sketchy
 70
    24
 71
     1
 72
     2
 73
     2
 90
        0
 40
0.6
 41
30.0
 62
     5
 63
     7
421
 16777215
 74
     2
 91
        2
 64
     7
 65
     7
 75
     1
175
     1
 42
40.0
 92
       11
 66
     7
 43
1.0
 76
     1
 77
     6
 78
     2
 67
     7
 79
     6
170
     0
171
     0
290
     0
174
     0
 93
        1
 44
0.0
173
     0
291
     0
 45
0.0
1001
ACAD
1000
AcDbSavedByObjectVersion
1070
     0
  0
VISUALSTYLE
  5
37
102
{ACAD_REACTORS
330
2A
102
}
102
{ACAD_XDICTIONARY
360
2C6
102
}
330
2A
100
AcDbVisualStyle
  2
Thicken
 70
    13
 71
     2
 72
     2
 73
     0
 90
        0
 40
0.6
 41
30.0
 62
     5
 63
     7
421
 16777215
 74
     1
 91
        4
 64
     7
 65
   257
 75
     1
175
     1
 42
1.0
 92
       12
 66
     7
 43
1.0
 76
     1
 77
     6
 78
     2
 67
     7
 79
     5
170
     0
171
     0
290
     0
174
     0
 93
        1
 44
0.0
173
     0
291
     1
 45
0.0
1001
ACAD
1000
AcDbSavedByObjectVersion
1070
     0
  0
VISUALSTYLE
  5
30
102
{ACAD_REACTORS
330
2A
102
}
102
{ACAD_XDICTIONARY
360
2B8
102
}
330
2A
100
AcDbVisualStyle
  2
Wireframe
 70
     5
 71
     0
 72
     2
 73
     0
 90
        0
 40
0.6
 41
30.0
 62
     5
 63
     7
421
 16777215
 74
     1
 91
        4
 64
     7
 65
   257
 75
     1
175
     1
 42
1.0
 92
        0
 66
   257
 43
1.0
 76
     1
 77
     6
 78
     2
 67
     7
 79
     3
170
     0
171
     0
290
     0
174
     0
 93
        1
 44
0.0
173
     0
291
     0
 45
0.0
1001
ACAD
1000
AcDbSavedByObjectVersion
1070
     0
  0
VISUALSTYLE
  5
40
102
{ACAD_REACTORS
330
2A
102
}
102
{ACAD_XDICTIONARY
360
2D8
102
}
330
2A
100
AcDbVisualStyle
  2
X-Ray
 70
    25
 71
     2
 72
     2
 73
     1
 90
        1
 40
0.5
 41
30.0
 62
     5
 63
     7
421
 16777215
 74
     1
 91
        0
 64
     7
 65
   257
 75
     1
175
     1
 42
1.0
 92
        8
 66
     7
 43
1.0
 76
     1
 77
     6
 78
     2
 67
     7
 79
     3
170
     0
171
     0
290
     0
174
     0
 93
       13
 44
0.0
173
     0
291
     0
 45
0.0
1001
ACAD
1000
AcDbSavedByObjectVersion
1070
     0
  0
DICTIONARYVAR
  5
2AB
102
{ACAD_REACTORS
330
2AA
102
}
330
2AA
100
DictionaryVariables
280
     0
  1
1:1
  0
DICTIONARYVAR
  5
2EC
102
{ACAD_REACTORS
330
2AA
102
}
330
2AA
100
DictionaryVariables
280
     0
  1
Standard
  0
DICTIONARYVAR
  5
2EB
102
{ACAD_REACTORS
330
2AA
102
}
330
2AA
100
DictionaryVariables
280
     0
  1
Standard
  0
DICTIONARYVAR
  5
2AC
102
{ACAD_REACTORS
330
2AA
102
}
330
2AA
100
DictionaryVariables
280
     0
  1
1
  0
DICTIONARYVAR
  5
2AD
102
{ACAD_REACTORS
330
2AA
102
}
330
2AA
100
DictionaryVariables
280
     0
  1
2
  0
DICTIONARY
  5
2E0
330
45
100
AcDbDictionary
280
     1
281
     1
  3
ACAD_XREC_ROUNDTRIP
360
2E1
  0
DICTIONARY
  5
2DE
330
44
100
AcDbDictionary
280
     1
281
     1
  3
ACAD_XREC_ROUNDTRIP
360
2DF
  0
DICTIONARY
  5
2E2
330
46
100
AcDbDictionary
280
     1
281
     1
  3
ACAD_XREC_ROUNDTRIP
360
2E3
  0
DICTIONARY
  5
2E8
330
6C
100
AcDbDictionary
280
     1
281
     1
  3
ACAD_XREC_ROUNDTRIP
360
2E9
  0
DICTIONARY
  5
2E4
330
6A
100
AcDbDictionary
280
     1
281
     1
  3
ACAD_ROUNDTRIP_2008_TABLESTYLE_CELLSTYLEMAP
360
2E6
  3
ACAD_XREC_ROUNDTRIP
360
2E5
  0
DICTIONARY
  5
2B6
330
2F
100
AcDbDictionary
280
     1
281
     1
  3
ACAD_XREC_ROUNDTRIP
360
2B7
  0
DICTIONARY
  5
2BC
330
32
100
AcDbDictionary
280
     1
281
     1
  3
ACAD_XREC_ROUNDTRIP
360
2BD
  0
DICTIONARY
  5
2C4
330
36
100
AcDbDictionary
280
     1
281
     1
  3
ACAD_XREC_ROUNDTRIP
360
2C5
  0
DICTIONARY
  5
2CC
330
3A
100
AcDbDictionary
280
     1
281
     1
  3
ACAD_XREC_ROUNDTRIP
360
2CD
  0
DICTIONARY
  5
2C0
330
34
100
AcDbDictionary
280
     1
281
     1
  3
ACAD_XREC_ROUNDTRIP
360
2C1
  0
DICTIONARY
  5
2C2
330
35
100
AcDbDictionary
280
     1
281
     1
  3
ACAD_XREC_ROUNDTRIP
360
2C3
  0
DICTIONARY
  5
2D2
330
3D
100
AcDbDictionary
280
     1
281
     1
  3
ACAD_XREC_ROUNDTRIP
360
2D3
  0
DICTIONARY
  5
2CA
330
39
100
AcDbDictionary
280
     1
281
     1
  3
ACAD_XREC_ROUNDTRIP
360
2CB
  0
DICTIONARY
  5
2AE
330
2B
100
AcDbDictionary
280
     1
281
     1
  3
ACAD_XREC_ROUNDTRIP
360
2AF
  0
DICTIONARY
  5
2B0
330
2C
100
AcDbDictionary
280
     1
281
     1
  3
ACAD_XREC_ROUNDTRIP
360
2B1
  0
DICTIONARY
  5
2B2
330
2D
100
AcDbDictionary
280
     1
281
     1
  3
ACAD_XREC_ROUNDTRIP
360
2B3
  0
DICTIONARY
  5
2B4
330
2E
100
AcDbDictionary
280
     1
281
     1
  3
ACAD_XREC_ROUNDTRIP
360
2B5
  0
DICTIONARY
  5
2BA
330
31
100
AcDbDictionary
280
     1
281
     1
  3
ACAD_XREC_ROUNDTRIP
360
2BB
  0
DICTIONARY
  5
2CE
330
3B
100
AcDbDictionary
280
     1
281
     1
  3
ACAD_XREC_ROUNDTRIP
360
2CF
  0
DICTIONARY
  5
2C8
330
38
100
AcDbDictionary
280
     1
281
     1
  3
ACAD_XREC_ROUNDTRIP
360
2C9
  0
DICTIONARY
  5
2D0
330
3C
100
AcDbDictionary
280
     1
281
     1
  3
ACAD_XREC_ROUNDTRIP
360
2D1
  0
DICTIONARY
  5
2BE
330
33
100
AcDbDictionary
280
     1
281
     1
  3
ACAD_XREC_ROUNDTRIP
360
2BF
  0
DICTIONARY
  5
2DC
330
42
100
AcDbDictionary
280
     1
281
     1
  3
ACAD_XREC_ROUNDTRIP
360
2DD
  0
DICTIONARY
  5
2DA
330
41
100
AcDbDictionary
280
     1
281
     1
  3
ACAD_XREC_ROUNDTRIP
360
2DB
  0
DICTIONARY
  5
2D4
330
3E
100
AcDbDictionary
280
     1
281
     1
  3
ACAD_XREC_ROUNDTRIP
360
2D5
  0
DICTIONARY
  5
2D6
330
3F
100
AcDbDictionary
280
     1
281
     1
  3
ACAD_XREC_ROUNDTRIP
360
2D7
  0
DICTIONARY
  5
2C6
330
37
100
AcDbDictionary
280
     1
281
     1
  3
ACAD_XREC_ROUNDTRIP
360
2C7
  0
DICTIONARY
  5
2B8
330
30
100
AcDbDictionary
280
     1
281
     1
  3
ACAD_XREC_ROUNDTRIP
360
2B9
  0
DICTIONARY
  5
2D8
330
40
100
AcDbDictionary
280
     1
281
     1
  3
ACAD_XREC_ROUNDTRIP
360
2D9
  0
XRECORD
  5
2E1
102
{ACAD_REACTORS
330
2E0
102
}
330
2E0
100
AcDbXrecord
280
     1
102
MATERIAL
148
0.0
149
0.0
149
0.0
 93
        0
 94
      127
282
     0
 72
     1
 77
     1
171
     1
175
     1
179
     1
273
     0
  0
XRECORD
  5
2DF
102
{ACAD_REACTORS
330
2DE
102
}
330
2DE
100
AcDbXrecord
280
     1
102
MATERIAL
148
0.0
149
0.0
149
0.0
 93
        0
 94
      127
282
     0
 72
     1
 77
     1
171
     1
175
     1
179
     1
273
     0
  0
XRECORD
  5
2E3
102
{ACAD_REACTORS
330
2E2
102
}
330
2E2
100
AcDbXrecord
280
     1
102
MATERIAL
148
0.0
149
0.0
149
0.0
 93
        0
 94
      127
282
     0
 72
     1
 77
     1
171
     1
175
     1
179
     1
273
     0
  0
XRECORD
  5
2E9
102
{ACAD_REACTORS
330
2E8
102
}
330
2E8
100
AcDbXrecord
280
     1
102
ACAD_ROUNDTRIP_2010_MLEADER_STYLE
  0
CELLSTYLEMAP
  5
2E6
102
{ACAD_REACTORS
330
2E4
102
}
330
2E4
100
AcDbCellStyleMap
 90
        3
300
CELLSTYLE
  1
TABLEFORMAT_BEGIN
 90
        5
170
     1
 91
        0
 92
    32768
 62
   257
 93
        1
300
CONTENTFORMAT
  1
CONTENTFORMAT_BEGIN
 90
        0
 91
        0
 92
        4
 93
        0
300

 40
0.0
140
1.0
 94
        5
 62
     0
340
11
144
0.25
309
CONTENTFORMAT_END
171
     1
301
MARGIN
  1
CELLMARGIN_BEGIN
 40
0.06
 40
0.06
 40
0.06
 40
0.06
 40
0.06
 40
0.06
309
CELLMARGIN_END
 94
        6
 95
        1
302
GRIDFORMAT
  1
GRIDFORMAT_BEGIN
 90
        0
 91
        1
 62
     0
 92
       -2
340
14
 93
        0
 40
0.045
309
GRIDFORMAT_END
 95
        2
302
GRIDFORMAT
  1
GRIDFORMAT_BEGIN
 90
        0
 91
        1
 62
     0
 92
       -2
340
14
 93
        0
 40
0.045
309
GRIDFORMAT_END
 95
        4
302
GRIDFORMAT
  1
GRIDFORMAT_BEGIN
 90
        0
 91
        1
 62
     0
 92
       -2
340
14
 93
        0
 40
0.045
309
GRIDFORMAT_END
 95
        8
302
GRIDFORMAT
  1
GRIDFORMAT_BEGIN
 90
        0
 91
        1
 62
     0
 92
       -2
340
14
 93
        0
 40
0.045
309
GRIDFORMAT_END
 95
       16
302
GRIDFORMAT
  1
GRIDFORMAT_BEGIN
 90
        0
 91
        1
 62
     0
 92
       -2
340
14
 93
        0
 40
0.045
309
GRIDFORMAT_END
 95
       32
302
GRIDFORMAT
  1
GRIDFORMAT_BEGIN
 90
        0
 91
        1
 62
     0
 92
       -2
340
14
 93
        0
 40
0.045
309
GRIDFORMAT_END
309
TABLEFORMAT_END
  1
CELLSTYLE_BEGIN
 90
        1
 91
        1
300
_TITLE
309
CELLSTYLE_END
300
CELLSTYLE
  1
TABLEFORMAT_BEGIN
 90
        5
170
     1
 91
        0
 92
        0
 62
   257
 93
        1
300
CONTENTFORMAT
  1
CONTENTFORMAT_BEGIN
 90
        0
 91
        0
 92
        4
 93
        0
300

 40
0.0
140
1.0
 94
        5
 62
     0
340
11
144
0.18
309
CONTENTFORMAT_END
171
     1
301
MARGIN
  1
CELLMARGIN_BEGIN
 40
0.06
 40
0.06
 40
0.06
 40
0.06
 40
0.06
 40
0.06
309
CELLMARGIN_END
 94
        6
 95
        1
302
GRIDFORMAT
  1
GRIDFORMAT_BEGIN
 90
        0
 91
        1
 62
     0
 92
       -2
340
14
 93
        0
 40
0.045
309
GRIDFORMAT_END
 95
        2
302
GRIDFORMAT
  1
GRIDFORMAT_BEGIN
 90
        0
 91
        1
 62
     0
 92
       -2
340
14
 93
        0
 40
0.045
309
GRIDFORMAT_END
 95
        4
302
GRIDFORMAT
  1
GRIDFORMAT_BEGIN
 90
        0
 91
        1
 62
     0
 92
       -2
340
14
 93
        0
 40
0.045
309
GRIDFORMAT_END
 95
        8
302
GRIDFORMAT
  1
GRIDFORMAT_BEGIN
 90
        0
 91
        1
 62
     0
 92
       -2
340
14
 93
        0
 40
0.045
309
GRIDFORMAT_END
 95
       16
302
GRIDFORMAT
  1
GRIDFORMAT_BEGIN
 90
        0
 91
        1
 62
     0
 92
       -2
340
14
 93
        0
 40
0.045
309
GRIDFORMAT_END
 95
       32
302
GRIDFORMAT
  1
GRIDFORMAT_BEGIN
 90
        0
 91
        1
 62
     0
 92
       -2
340
14
 93
        0
 40
0.045
309
GRIDFORMAT_END
309
TABLEFORMAT_END
  1
CELLSTYLE_BEGIN
 90
        2
 91
        1
300
_HEADER
309
CELLSTYLE_END
300
CELLSTYLE
  1
TABLEFORMAT_BEGIN
 90
        5
170
     1
 91
        0
 92
        0
 62
   257
 93
        1
300
CONTENTFORMAT
  1
CONTENTFORMAT_BEGIN
 90
        0
 91
        0
 92
        4
 93
        0
300

 40
0.0
140
1.0
 94
        2
 62
     0
340
11
144
0.18
309
CONTENTFORMAT_END
171
     1
301
MARGIN
  1
CELLMARGIN_BEGIN
 40
0.06
 40
0.06
 40
0.06
 40
0.06
 40
0.06
 40
0.06
309
CELLMARGIN_END
 94
        6
 95
        1
302
GRIDFORMAT
  1
GRIDFORMAT_BEGIN
 90
        0
 91
        1
 62
     0
 92
       -2
340
14
 93
        0
 40
0.045
309
GRIDFORMAT_END
 95
        2
302
GRIDFORMAT
  1
GRIDFORMAT_BEGIN
 90
        0
 91
        1
 62
     0
 92
       -2
340
14
 93
        0
 40
0.045
309
GRIDFORMAT_END
 95
        4
302
GRIDFORMAT
  1
GRIDFORMAT_BEGIN
 90
        0
 91
        1
 62
     0
 92
       -2
340
14
 93
        0
 40
0.045
309
GRIDFORMAT_END
 95
        8
302
GRIDFORMAT
  1
GRIDFORMAT_BEGIN
 90
        0
 91
        1
 62
     0
 92
       -2
340
14
 93
        0
 40
0.045
309
GRIDFORMAT_END
 95
       16
302
GRIDFORMAT
  1
GRIDFORMAT_BEGIN
 90
        0
 91
        1
 62
     0
 92
       -2
340
14
 93
        0
 40
0.045
309
GRIDFORMAT_END
 95
       32
302
GRIDFORMAT
  1
GRIDFORMAT_BEGIN
 90
        0
 91
        1
 62
     0
 92
       -2
340
14
 93
        0
 40
0.045
309
GRIDFORMAT_END
309
TABLEFORMAT_END
  1
CELLSTYLE_BEGIN
 90
        3
 91
        2
300
_DATA
309
CELLSTYLE_END
  0
XRECORD
  5
2E5
102
{ACAD_REACTORS
330
2E4
102
}
330
2E4
100
AcDbXrecord
280
     1
102
ACAD_ROUNDTRIP_PRE2007_TABLESTYLE
 90
        4
 91
        0
  1

 92
        4
 93
        0
  2

 94
        4
 95
        0
  3

  0
XRECORD
  5
2B7
102
{ACAD_REACTORS
330
2B6
102
}
330
2B6
100
AcDbXrecord
280
     1
102
RTVSPropertyOp0
 70
     1
102
RTVSPropertyOp1
 70
     1
102
RTVSPropertyOp2
 70
     1
102
RTVSPropertyOp3
 70
     1
102
RTVSPropertyOp4
 70
     1
102
RTVSPropertyOp5
 70
     1
102
RTVSPropertyOp6
 70
     1
102
RTVSPropertyOp7
 70
     1
102
RTVSPropertyOp8
 70
     1
102
RTVSPropertyOp9
 70
     1
102
RTVSPropertyOp10
 70
     1
102
RTVSPropertyOp11
 70
     1
102
RTVSPropertyOp12
 70
     1
102
RTVSPropertyOp13
 70
     1
102
RTVSPropertyOp14
 70
     1
102
RTVSPropertyOp15
 70
     1
102
RTVSPropertyOp16
 70
     1
102
RTVSPropertyOp17
 70
     1
102
RTVSPropertyOp18
 70
     1
102
RTVSPropertyOp19
 70
     1
102
RTVSPropertyOp20
 70
     1
102
RTVSPropertyOp21
 70
     1
102
RTVSPropertyOp22
 70
     1
102
RTVSPropertyOp23
 70
     1
102
RTVSPropertyOp24
 70
     1
102
RTVSPropertyOp25
 70
     1
102
RTVSPropertyOp26
 70
     1
102
RTVSPropertyOp27
 70
     1
102
RTVSPropertyOp28
 70
     1
102
RTVSPropertyOp29
 70
     1
102
RTVSPropertyOp30
 70
     1
102
RTVSPropertyOp31
 70
     1
102
RTVSPropertyOp32
 70
     1
102
RTVSPropertyOp33
 70
     1
102
RTVSPropertyOp34
 70
     1
102
RTVSPropertyOp35
 70
     1
102
RTVSPropertyOp36
 70
     1
102
RTVSPropertyOp37
 70
     1
102
RTVSPropertyOp38
 70
     1
102
RTVSPropertyOp39
 70
     1
102
RTVSPropertyOp40
 70
     1
102
RTVSPropertyOp41
 70
     1
102
RTVSPropertyOp42
 70
     1
102
RTVSPropertyOp43
 70
     1
102
RTVSPropertyOp44
 70
     1
102
RTVSPropertyOp45
 70
     1
102
RTVSPropertyOp46
 70
     1
102
RTVSPropertyOp47
 70
     1
102
RTVSPropertyOp48
 70
     1
102
RTVSPropertyOp49
 70
     1
102
RTVSPropertyOp50
 70
     1
102
RTVSPropertyOp51
 70
     0
102
RTVSPropertyOp52
 70
     0
102
RTVSPropertyOp53
 70
     1
102
RTVSPropertyOp54
 70
     1
102
RTVSPropertyOp55
 70
     1
102
RTVSPropertyOp56
 70
     1
102
RTVSPropertyOp57
 70
     1
102
RTVSPost2010Prop28
280
     1
102
RTVSPost2010PropOp28
 70
     1
102
RTVSPost2010Prop29
280
     1
102
RTVSPost2010PropOp29
 70
     1
102
RTVSPost2010Prop30
280
     0
102
RTVSPost2010PropOp30
 70
     1
102
RTVSPost2010Prop31
280
     0
102
RTVSPost2010PropOp31
 70
     1
102
RTVSPost2010Prop32
280
     0
102
RTVSPost2010PropOp32
 70
     1
102
RTVSPost2010Prop33
280
     0
102
RTVSPost2010PropOp33
 70
     1
102
RTVSPost2010Prop34
280
     0
102
RTVSPost2010PropOp34
 70
     1
102
RTVSPost2010Prop35
280
     0
102
RTVSPost2010PropOp35
 70
     1
102
RTVSPost2010Prop36
280
     0
102
RTVSPost2010PropOp36
 70
     1
102
RTVSPost2010Prop37
 90
       50
102
RTVSPost2010PropOp37
 70
     1
102
RTVSPost2010Prop38
140
0.0
102
RTVSPost2010PropOp38
 70
     1
102
RTVSPost2010Prop39
140
1.0
102
RTVSPost2010PropOp39
 70
     1
102
RTVSPost2010Prop40
 90
        0
102
RTVSPost2010PropOp40
 70
     1
102
RTVSPost2010Prop41ColorIndex
 90
       18
102
RTVSPost2010Prop41ColorRGB
 90
        0
102
RTVSPost2010PropOp41
 70
     1
102
RTVSPost2010Prop42
 90
       50
102
RTVSPost2010PropOp42
 70
     1
102
RTVSPost2010Prop43
 90
        3
102
RTVSPost2010PropOp43
 70
     1
102
RTVSPost2010Prop44ColorIndex
 90
        5
102
RTVSPost2010Prop44ColorRGB
 90
      255
102
RTVSPost2010PropOp44
 70
     1
102
RTVSPost2010Prop45
280
     0
102
RTVSPost2010PropOp45
 70
     1
102
RTVSPost2010Prop46
 90
       50
102
RTVSPost2010PropOp46
 70
     1
102
RTVSPost2010Prop47
 90
       50
102
RTVSPost2010PropOp47
 70
     1
102
RTVSPost2010Prop48
 90
       50
102
RTVSPost2010PropOp48
 70
     1
102
RTVSPost2010Prop49
280
     0
102
RTVSPost2010PropOp49
 70
     1
102
RTVSPost2010Prop50
 90
       50
102
RTVSPost2010PropOp50
 70
     1
102
RTVSPost2010Prop51ColorIndex
 90
      256
102
RTVSPost2010Prop51ColorRGB
 90
-16777216
102
RTVSPost2010PropOp51
 70
     0
102
RTVSPost2010Prop52
140
1.0
102
RTVSPost2010PropOp52
 70
     0
102
RTVSPost2010Prop53
 90
        2
102
RTVSPost2010PropOp53
 70
     1
102
RTVSPost2010Prop54
  1
strokes_ogs.tif
102
RTVSPost2010PropOp54
 70
     1
102
RTVSPost2010Prop55
280
     0
102
RTVSPost2010PropOp55
 70
     1
102
RTVSPost2010Prop56
140
1.0
102
RTVSPost2010PropOp56
 70
     1
102
RTVSPost2010Prop57
140
1.0
102
RTVSPost2010PropOp57
 70
     1
  0
XRECORD
  5
2BD
102
{ACAD_REACTORS
330
2BC
102
}
330
2BC
100
AcDbXrecord
280
     1
102
RTVSPropertyOp0
 70
     1
102
RTVSPropertyOp1
 70
     1
102
RTVSPropertyOp2
 70
     1
102
RTVSPropertyOp3
 70
     1
102
RTVSPropertyOp4
 70
     1
102
RTVSPropertyOp5
 70
     1
102
RTVSPropertyOp6
 70
     1
102
RTVSPropertyOp7
 70
     1
102
RTVSPropertyOp8
 70
     1
102
RTVSPropertyOp9
 70
     1
102
RTVSPropertyOp10
 70
     1
102
RTVSPropertyOp11
 70
     1
102
RTVSPropertyOp12
 70
     1
102
RTVSPropertyOp13
 70
     1
102
RTVSPropertyOp14
 70
     1
102
RTVSPropertyOp15
 70
     1
102
RTVSPropertyOp16
 70
     1
102
RTVSPropertyOp17
 70
     1
102
RTVSPropertyOp18
 70
     1
102
RTVSPropertyOp19
 70
     1
102
RTVSPropertyOp20
 70
     1
102
RTVSPropertyOp21
 70
     1
102
RTVSPropertyOp22
 70
     1
102
RTVSPropertyOp23
 70
     1
102
RTVSPropertyOp24
 70
     1
102
RTVSPropertyOp25
 70
     1
102
RTVSPropertyOp26
 70
     1
102
RTVSPropertyOp27
 70
     1
102
RTVSPropertyOp28
 70
     1
102
RTVSPropertyOp29
 70
     1
102
RTVSPropertyOp30
 70
     1
102
RTVSPropertyOp31
 70
     1
102
RTVSPropertyOp32
 70
     1
102
RTVSPropertyOp33
 70
     1
102
RTVSPropertyOp34
 70
     1
102
RTVSPropertyOp35
 70
     1
102
RTVSPropertyOp36
 70
     1
102
RTVSPropertyOp37
 70
     1
102
RTVSPropertyOp38
 70
     1
102
RTVSPropertyOp39
 70
     1
102
RTVSPropertyOp40
 70
     1
102
RTVSPropertyOp41
 70
     1
102
RTVSPropertyOp42
 70
     1
102
RTVSPropertyOp43
 70
     1
102
RTVSPropertyOp44
 70
     1
102
RTVSPropertyOp45
 70
     1
102
RTVSPropertyOp46
 70
     1
102
RTVSPropertyOp47
 70
     1
102
RTVSPropertyOp48
 70
     1
102
RTVSPropertyOp49
 70
     1
102
RTVSPropertyOp50
 70
     1
102
RTVSPropertyOp51
 70
     0
102
RTVSPropertyOp52
 70
     0
102
RTVSPropertyOp53
 70
     1
102
RTVSPropertyOp54
 70
     1
102
RTVSPropertyOp55
 70
     1
102
RTVSPropertyOp56
 70
     1
102
RTVSPropertyOp57
 70
     1
102
RTVSPost2010Prop28
280
     0
102
RTVSPost2010PropOp28
 70
     1
102
RTVSPost2010Prop29
280
     1
102
RTVSPost2010PropOp29
 70
     1
102
RTVSPost2010Prop30
280
     1
102
RTVSPost2010PropOp30
 70
     1
102
RTVSPost2010Prop31
280
     0
102
RTVSPost2010PropOp31
 70
     1
102
RTVSPost2010Prop32
280
     0
102
RTVSPost2010PropOp32
 70
     1
102
RTVSPost2010Prop33
280
     0
102
RTVSPost2010PropOp33
 70
     1
102
RTVSPost2010Prop34
280
     0
102
RTVSPost2010PropOp34
 70
     1
102
RTVSPost2010Prop35
280
     0
102
RTVSPost2010PropOp35
 70
     1
102
RTVSPost2010Prop36
280
     0
102
RTVSPost2010PropOp36
 70
     1
102
RTVSPost2010Prop37
 90
       50
102
RTVSPost2010PropOp37
 70
     1
102
RTVSPost2010Prop38
140
0.0
102
RTVSPost2010PropOp38
 70
     1
102
RTVSPost2010Prop39
140
1.0
102
RTVSPost2010PropOp39
 70
     1
102
RTVSPost2010Prop40
 90
        0
102
RTVSPost2010PropOp40
 70
     1
102
RTVSPost2010Prop41ColorIndex
 90
       18
102
RTVSPost2010Prop41ColorRGB
 90
        0
102
RTVSPost2010PropOp41
 70
     1
102
RTVSPost2010Prop42
 90
       50
102
RTVSPost2010PropOp42
 70
     1
102
RTVSPost2010Prop43
 90
        3
102
RTVSPost2010PropOp43
 70
     1
102
RTVSPost2010Prop44ColorIndex
 90
        5
102
RTVSPost2010Prop44ColorRGB
 90
      255
102
RTVSPost2010PropOp44
 70
     1
102
RTVSPost2010Prop45
280
     0
102
RTVSPost2010PropOp45
 70
     1
102
RTVSPost2010Prop46
 90
       50
102
RTVSPost2010PropOp46
 70
     1
102
RTVSPost2010Prop47
 90
       50
102
RTVSPost2010PropOp47
 70
     1
102
RTVSPost2010Prop48
 90
       50
102
RTVSPost2010PropOp48
 70
     1
102
RTVSPost2010Prop49
280
     0
102
RTVSPost2010PropOp49
 70
     1
102
RTVSPost2010Prop50
 90
       50
102
RTVSPost2010PropOp50
 70
     1
102
RTVSPost2010Prop51ColorIndex
 90
      256
102
RTVSPost2010Prop51ColorRGB
 90
-16777216
102
RTVSPost2010PropOp51
 70
     0
102
RTVSPost2010Prop52
140
1.0
102
RTVSPost2010PropOp52
 70
     0
102
RTVSPost2010Prop53
 90
        2
102
RTVSPost2010PropOp53
 70
     1
102
RTVSPost2010Prop54
  1
strokes_ogs.tif
102
RTVSPost2010PropOp54
 70
     1
102
RTVSPost2010Prop55
280
     0
102
RTVSPost2010PropOp55
 70
     1
102
RTVSPost2010Prop56
140
1.0
102
RTVSPost2010PropOp56
 70
     1
102
RTVSPost2010Prop57
140
1.0
102
RTVSPost2010PropOp57
 70
     1
  0
XRECORD
  5
2C5
102
{ACAD_REACTORS
330
2C4
102
}
330
2C4
100
AcDbXrecord
280
     1
102
RTVSPropertyOp0
 70
     1
102
RTVSPropertyOp1
 70
     1
102
RTVSPropertyOp2
 70
     1
102
RTVSPropertyOp3
 70
     1
102
RTVSPropertyOp4
 70
     1
102
RTVSPropertyOp5
 70
     1
102
RTVSPropertyOp6
 70
     1
102
RTVSPropertyOp7
 70
     1
102
RTVSPropertyOp8
 70
     1
102
RTVSPropertyOp9
 70
     1
102
RTVSPropertyOp10
 70
     1
102
RTVSPropertyOp11
 70
     1
102
RTVSPropertyOp12
 70
     1
102
RTVSPropertyOp13
 70
     1
102
RTVSPropertyOp14
 70
     1
102
RTVSPropertyOp15
 70
     1
102
RTVSPropertyOp16
 70
     1
102
RTVSPropertyOp17
 70
     1
102
RTVSPropertyOp18
 70
     1
102
RTVSPropertyOp19
 70
     1
102
RTVSPropertyOp20
 70
     1
102
RTVSPropertyOp21
 70
     1
102
RTVSPropertyOp22
 70
     1
102
RTVSPropertyOp23
 70
     1
102
RTVSPropertyOp24
 70
     1
102
RTVSPropertyOp25
 70
     1
102
RTVSPropertyOp26
 70
     1
102
RTVSPropertyOp27
 70
     1
102
RTVSPropertyOp28
 70
     1
102
RTVSPropertyOp29
 70
     1
102
RTVSPropertyOp30
 70
     1
102
RTVSPropertyOp31
 70
     1
102
RTVSPropertyOp32
 70
     1
102
RTVSPropertyOp33
 70
     1
102
RTVSPropertyOp34
 70
     1
102
RTVSPropertyOp35
 70
     1
102
RTVSPropertyOp36
 70
     1
102
RTVSPropertyOp37
 70
     1
102
RTVSPropertyOp38
 70
     1
102
RTVSPropertyOp39
 70
     1
102
RTVSPropertyOp40
 70
     1
102
RTVSPropertyOp41
 70
     1
102
RTVSPropertyOp42
 70
     1
102
RTVSPropertyOp43
 70
     1
102
RTVSPropertyOp44
 70
     1
102
RTVSPropertyOp45
 70
     1
102
RTVSPropertyOp46
 70
     1
102
RTVSPropertyOp47
 70
     1
102
RTVSPropertyOp48
 70
     1
102
RTVSPropertyOp49
 70
     1
102
RTVSPropertyOp50
 70
     1
102
RTVSPropertyOp51
 70
     0
102
RTVSPropertyOp52
 70
     0
102
RTVSPropertyOp53
 70
     1
102
RTVSPropertyOp54
 70
     1
102
RTVSPropertyOp55
 70
     1
102
RTVSPropertyOp56
 70
     1
102
RTVSPropertyOp57
 70
     1
102
RTVSPost2010Prop28
280
     0
102
RTVSPost2010PropOp28
 70
     1
102
RTVSPost2010Prop29
280
     1
102
RTVSPost2010PropOp29
 70
     1
102
RTVSPost2010Prop30
280
     1
102
RTVSPost2010PropOp30
 70
     1
102
RTVSPost2010Prop31
280
     0
102
RTVSPost2010PropOp31
 70
     1
102
RTVSPost2010Prop32
280
     0
102
RTVSPost2010PropOp32
 70
     1
102
RTVSPost2010Prop33
280
     0
102
RTVSPost2010PropOp33
 70
     1
102
RTVSPost2010Prop34
280
     0
102
RTVSPost2010PropOp34
 70
     1
102
RTVSPost2010Prop35
280
     0
102
RTVSPost2010PropOp35
 70
     1
102
RTVSPost2010Prop36
280
     0
102
RTVSPost2010PropOp36
 70
     1
102
RTVSPost2010Prop37
 90
       50
102
RTVSPost2010PropOp37
 70
     1
102
RTVSPost2010Prop38
140
0.0
102
RTVSPost2010PropOp38
 70
     1
102
RTVSPost2010Prop39
140
1.0
102
RTVSPost2010PropOp39
 70
     1
102
RTVSPost2010Prop40
 90
        0
102
RTVSPost2010PropOp40
 70
     1
102
RTVSPost2010Prop41ColorIndex
 90
       18
102
RTVSPost2010Prop41ColorRGB
 90
        0
102
RTVSPost2010PropOp41
 70
     1
102
RTVSPost2010Prop42
 90
       50
102
RTVSPost2010PropOp42
 70
     1
102
RTVSPost2010Prop43
 90
        3
102
RTVSPost2010PropOp43
 70
     1
102
RTVSPost2010Prop44ColorIndex
 90
        5
102
RTVSPost2010Prop44ColorRGB
 90
      255
102
RTVSPost2010PropOp44
 70
     1
102
RTVSPost2010Prop45
280
     0
102
RTVSPost2010PropOp45
 70
     1
102
RTVSPost2010Prop46
 90
       50
102
RTVSPost2010PropOp46
 70
     1
102
RTVSPost2010Prop47
 90
       50
102
RTVSPost2010PropOp47
 70
     1
102
RTVSPost2010Prop48
 90
       50
102
RTVSPost2010PropOp48
 70
     1
102
RTVSPost2010Prop49
280
     0
102
RTVSPost2010PropOp49
 70
     1
102
RTVSPost2010Prop50
 90
       50
102
RTVSPost2010PropOp50
 70
     1
102
RTVSPost2010Prop51ColorIndex
 90
      256
102
RTVSPost2010Prop51ColorRGB
 90
-16777216
102
RTVSPost2010PropOp51
 70
     0
102
RTVSPost2010Prop52
140
1.0
102
RTVSPost2010PropOp52
 70
     0
102
RTVSPost2010Prop53
 90
        2
102
RTVSPost2010PropOp53
 70
     1
102
RTVSPost2010Prop54
  1
strokes_ogs.tif
102
RTVSPost2010PropOp54
 70
     1
102
RTVSPost2010Prop55
280
     0
102
RTVSPost2010PropOp55
 70
     1
102
RTVSPost2010Prop56
140
1.0
102
RTVSPost2010PropOp56
 70
     1
102
RTVSPost2010Prop57
140
1.0
102
RTVSPost2010PropOp57
 70
     1
  0
XRECORD
  5
2CD
102
{ACAD_REACTORS
330
2CC
102
}
330
2CC
100
AcDbXrecord
280
     1
102
RTVSPropertyOp0
 70
     1
102
RTVSPropertyOp1
 70
     1
102
RTVSPropertyOp2
 70
     1
102
RTVSPropertyOp3
 70
     1
102
RTVSPropertyOp4
 70
     1
102
RTVSPropertyOp5
 70
     1
102
RTVSPropertyOp6
 70
     1
102
RTVSPropertyOp7
 70
     1
102
RTVSPropertyOp8
 70
     1
102
RTVSPropertyOp9
 70
     1
102
RTVSPropertyOp10
 70
     1
102
RTVSPropertyOp11
 70
     1
102
RTVSPropertyOp12
 70
     1
102
RTVSPropertyOp13
 70
     1
102
RTVSPropertyOp14
 70
     1
102
RTVSPropertyOp15
 70
     1
102
RTVSPropertyOp16
 70
     1
102
RTVSPropertyOp17
 70
     1
102
RTVSPropertyOp18
 70
     1
102
RTVSPropertyOp19
 70
     1
102
RTVSPropertyOp20
 70
     1
102
RTVSPropertyOp21
 70
     1
102
RTVSPropertyOp22
 70
     1
102
RTVSPropertyOp23
 70
     1
102
RTVSPropertyOp24
 70
     1
102
RTVSPropertyOp25
 70
     1
102
RTVSPropertyOp26
 70
     1
102
RTVSPropertyOp27
 70
     1
102
RTVSPropertyOp28
 70
     1
102
RTVSPropertyOp29
 70
     1
102
RTVSPropertyOp30
 70
     1
102
RTVSPropertyOp31
 70
     1
102
RTVSPropertyOp32
 70
     1
102
RTVSPropertyOp33
 70
     1
102
RTVSPropertyOp34
 70
     1
102
RTVSPropertyOp35
 70
     1
102
RTVSPropertyOp36
 70
     1
102
RTVSPropertyOp37
 70
     1
102
RTVSPropertyOp38
 70
     1
102
RTVSPropertyOp39
 70
     1
102
RTVSPropertyOp40
 70
     1
102
RTVSPropertyOp41
 70
     1
102
RTVSPropertyOp42
 70
     1
102
RTVSPropertyOp43
 70
     1
102
RTVSPropertyOp44
 70
     1
102
RTVSPropertyOp45
 70
     1
102
RTVSPropertyOp46
 70
     1
102
RTVSPropertyOp47
 70
     1
102
RTVSPropertyOp48
 70
     1
102
RTVSPropertyOp49
 70
     1
102
RTVSPropertyOp50
 70
     1
102
RTVSPropertyOp51
 70
     0
102
RTVSPropertyOp52
 70
     0
102
RTVSPropertyOp53
 70
     1
102
RTVSPropertyOp54
 70
     1
102
RTVSPropertyOp55
 70
     1
102
RTVSPropertyOp56
 70
     1
102
RTVSPropertyOp57
 70
     1
102
RTVSPost2010Prop28
280
     0
102
RTVSPost2010PropOp28
 70
     1
102
RTVSPost2010Prop29
280
     1
102
RTVSPost2010PropOp29
 70
     1
102
RTVSPost2010Prop30
280
     1
102
RTVSPost2010PropOp30
 70
     1
102
RTVSPost2010Prop31
280
     0
102
RTVSPost2010PropOp31
 70
     1
102
RTVSPost2010Prop32
280
     0
102
RTVSPost2010PropOp32
 70
     1
102
RTVSPost2010Prop33
280
     0
102
RTVSPost2010PropOp33
 70
     1
102
RTVSPost2010Prop34
280
     0
102
RTVSPost2010PropOp34
 70
     1
102
RTVSPost2010Prop35
280
     0
102
RTVSPost2010PropOp35
 70
     1
102
RTVSPost2010Prop36
280
     0
102
RTVSPost2010PropOp36
 70
     1
102
RTVSPost2010Prop37
 90
       50
102
RTVSPost2010PropOp37
 70
     1
102
RTVSPost2010Prop38
140
0.0
102
RTVSPost2010PropOp38
 70
     1
102
RTVSPost2010Prop39
140
1.0
102
RTVSPost2010PropOp39
 70
     1
102
RTVSPost2010Prop40
 90
        0
102
RTVSPost2010PropOp40
 70
     1
102
RTVSPost2010Prop41ColorIndex
 90
       18
102
RTVSPost2010Prop41ColorRGB
 90
        0
102
RTVSPost2010PropOp41
 70
     1
102
RTVSPost2010Prop42
 90
       50
102
RTVSPost2010PropOp42
 70
     1
102
RTVSPost2010Prop43
 90
        3
102
RTVSPost2010PropOp43
 70
     1
102
RTVSPost2010Prop44ColorIndex
 90
        5
102
RTVSPost2010Prop44ColorRGB
 90
      255
102
RTVSPost2010PropOp44
 70
     1
102
RTVSPost2010Prop45
280
     0
102
RTVSPost2010PropOp45
 70
     1
102
RTVSPost2010Prop46
 90
       50
102
RTVSPost2010PropOp46
 70
     1
102
RTVSPost2010Prop47
 90
       50
102
RTVSPost2010PropOp47
 70
     1
102
RTVSPost2010Prop48
 90
       50
102
RTVSPost2010PropOp48
 70
     1
102
RTVSPost2010Prop49
280
     0
102
RTVSPost2010PropOp49
 70
     1
102
RTVSPost2010Prop50
 90
       50
102
RTVSPost2010PropOp50
 70
     1
102
RTVSPost2010Prop51ColorIndex
 90
      256
102
RTVSPost2010Prop51ColorRGB
 90
-16777216
102
RTVSPost2010PropOp51
 70
     0
102
RTVSPost2010Prop52
140
1.0
102
RTVSPost2010PropOp52
 70
     0
102
RTVSPost2010Prop53
 90
        2
102
RTVSPost2010PropOp53
 70
     1
102
RTVSPost2010Prop54
  1
strokes_ogs.tif
102
RTVSPost2010PropOp54
 70
     1
102
RTVSPost2010Prop55
280
     0
102
RTVSPost2010PropOp55
 70
     1
102
RTVSPost2010Prop56
140
1.0
102
RTVSPost2010PropOp56
 70
     1
102
RTVSPost2010Prop57
140
1.0
102
RTVSPost2010PropOp57
 70
     1
  0
XRECORD
  5
2C1
102
{ACAD_REACTORS
330
2C0
102
}
330
2C0
100
AcDbXrecord
280
     1
102
RTVSPropertyOp0
 70
     1
102
RTVSPropertyOp1
 70
     1
102
RTVSPropertyOp2
 70
     1
102
RTVSPropertyOp3
 70
     1
102
RTVSPropertyOp4
 70
     1
102
RTVSPropertyOp5
 70
     1
102
RTVSPropertyOp6
 70
     1
102
RTVSPropertyOp7
 70
     1
102
RTVSPropertyOp8
 70
     1
102
RTVSPropertyOp9
 70
     1
102
RTVSPropertyOp10
 70
     1
102
RTVSPropertyOp11
 70
     1
102
RTVSPropertyOp12
 70
     1
102
RTVSPropertyOp13
 70
     1
102
RTVSPropertyOp14
 70
     1
102
RTVSPropertyOp15
 70
     1
102
RTVSPropertyOp16
 70
     1
102
RTVSPropertyOp17
 70
     1
102
RTVSPropertyOp18
 70
     1
102
RTVSPropertyOp19
 70
     1
102
RTVSPropertyOp20
 70
     1
102
RTVSPropertyOp21
 70
     1
102
RTVSPropertyOp22
 70
     1
102
RTVSPropertyOp23
 70
     1
102
RTVSPropertyOp24
 70
     1
102
RTVSPropertyOp25
 70
     1
102
RTVSPropertyOp26
 70
     1
102
RTVSPropertyOp27
 70
     1
102
RTVSPropertyOp28
 70
     1
102
RTVSPropertyOp29
 70
     1
102
RTVSPropertyOp30
 70
     1
102
RTVSPropertyOp31
 70
     1
102
RTVSPropertyOp32
 70
     1
102
RTVSPropertyOp33
 70
     1
102
RTVSPropertyOp34
 70
     1
102
RTVSPropertyOp35
 70
     1
102
RTVSPropertyOp36
 70
     1
102
RTVSPropertyOp37
 70
     1
102
RTVSPropertyOp38
 70
     1
102
RTVSPropertyOp39
 70
     1
102
RTVSPropertyOp40
 70
     1
102
RTVSPropertyOp41
 70
     1
102
RTVSPropertyOp42
 70
     1
102
RTVSPropertyOp43
 70
     1
102
RTVSPropertyOp44
 70
     1
102
RTVSPropertyOp45
 70
     1
102
RTVSPropertyOp46
 70
     1
102
RTVSPropertyOp47
 70
     1
102
RTVSPropertyOp48
 70
     1
102
RTVSPropertyOp49
 70
     1
102
RTVSPropertyOp50
 70
     1
102
RTVSPropertyOp51
 70
     0
102
RTVSPropertyOp52
 70
     0
102
RTVSPropertyOp53
 70
     1
102
RTVSPropertyOp54
 70
     1
102
RTVSPropertyOp55
 70
     1
102
RTVSPropertyOp56
 70
     1
102
RTVSPropertyOp57
 70
     1
102
RTVSPost2010Prop28
280
     0
102
RTVSPost2010PropOp28
 70
     1
102
RTVSPost2010Prop29
280
     1
102
RTVSPost2010PropOp29
 70
     1
102
RTVSPost2010Prop30
280
     1
102
RTVSPost2010PropOp30
 70
     1
102
RTVSPost2010Prop31
280
     0
102
RTVSPost2010PropOp31
 70
     1
102
RTVSPost2010Prop32
280
     0
102
RTVSPost2010PropOp32
 70
     1
102
RTVSPost2010Prop33
280
     0
102
RTVSPost2010PropOp33
 70
     1
102
RTVSPost2010Prop34
280
     0
102
RTVSPost2010PropOp34
 70
     1
102
RTVSPost2010Prop35
280
     0
102
RTVSPost2010PropOp35
 70
     1
102
RTVSPost2010Prop36
280
     0
102
RTVSPost2010PropOp36
 70
     1
102
RTVSPost2010Prop37
 90
       50
102
RTVSPost2010PropOp37
 70
     1
102
RTVSPost2010Prop38
140
0.0
102
RTVSPost2010PropOp38
 70
     1
102
RTVSPost2010Prop39
140
1.0
102
RTVSPost2010PropOp39
 70
     1
102
RTVSPost2010Prop40
 90
        0
102
RTVSPost2010PropOp40
 70
     1
102
RTVSPost2010Prop41ColorIndex
 90
       18
102
RTVSPost2010Prop41ColorRGB
 90
        0
102
RTVSPost2010PropOp41
 70
     1
102
RTVSPost2010Prop42
 90
       50
102
RTVSPost2010PropOp42
 70
     1
102
RTVSPost2010Prop43
 90
        3
102
RTVSPost2010PropOp43
 70
     1
102
RTVSPost2010Prop44ColorIndex
 90
        5
102
RTVSPost2010Prop44ColorRGB
 90
      255
102
RTVSPost2010PropOp44
 70
     1
102
RTVSPost2010Prop45
280
     0
102
RTVSPost2010PropOp45
 70
     1
102
RTVSPost2010Prop46
 90
       50
102
RTVSPost2010PropOp46
 70
     1
102
RTVSPost2010Prop47
 90
       50
102
RTVSPost2010PropOp47
 70
     1
102
RTVSPost2010Prop48
 90
       50
102
RTVSPost2010PropOp48
 70
     1
102
RTVSPost2010Prop49
280
     0
102
RTVSPost2010PropOp49
 70
     1
102
RTVSPost2010Prop50
 90
       50
102
RTVSPost2010PropOp50
 70
     1
102
RTVSPost2010Prop51ColorIndex
 90
      256
102
RTVSPost2010Prop51ColorRGB
 90
-16777216
102
RTVSPost2010PropOp51
 70
     0
102
RTVSPost2010Prop52
140
1.0
102
RTVSPost2010PropOp52
 70
     0
102
RTVSPost2010Prop53
 90
        2
102
RTVSPost2010PropOp53
 70
     1
102
RTVSPost2010Prop54
  1
strokes_ogs.tif
102
RTVSPost2010PropOp54
 70
     1
102
RTVSPost2010Prop55
280
     0
102
RTVSPost2010PropOp55
 70
     1
102
RTVSPost2010Prop56
140
1.0
102
RTVSPost2010PropOp56
 70
     1
102
RTVSPost2010Prop57
140
1.0
102
RTVSPost2010PropOp57
 70
     1
  0
XRECORD
  5
2C3
102
{ACAD_REACTORS
330
2C2
102
}
330
2C2
100
AcDbXrecord
280
     1
102
RTVSPropertyOp0
 70
     1
102
RTVSPropertyOp1
 70
     1
102
RTVSPropertyOp2
 70
     1
102
RTVSPropertyOp3
 70
     1
102
RTVSPropertyOp4
 70
     1
102
RTVSPropertyOp5
 70
     1
102
RTVSPropertyOp6
 70
     1
102
RTVSPropertyOp7
 70
     1
102
RTVSPropertyOp8
 70
     1
102
RTVSPropertyOp9
 70
     1
102
RTVSPropertyOp10
 70
     1
102
RTVSPropertyOp11
 70
     1
102
RTVSPropertyOp12
 70
     1
102
RTVSPropertyOp13
 70
     1
102
RTVSPropertyOp14
 70
     1
102
RTVSPropertyOp15
 70
     1
102
RTVSPropertyOp16
 70
     1
102
RTVSPropertyOp17
 70
     1
102
RTVSPropertyOp18
 70
     1
102
RTVSPropertyOp19
 70
     1
102
RTVSPropertyOp20
 70
     1
102
RTVSPropertyOp21
 70
     1
102
RTVSPropertyOp22
 70
     1
102
RTVSPropertyOp23
 70
     1
102
RTVSPropertyOp24
 70
     1
102
RTVSPropertyOp25
 70
     1
102
RTVSPropertyOp26
 70
     1
102
RTVSPropertyOp27
 70
     1
102
RTVSPropertyOp28
 70
     1
102
RTVSPropertyOp29
 70
     1
102
RTVSPropertyOp30
 70
     1
102
RTVSPropertyOp31
 70
     1
102
RTVSPropertyOp32
 70
     1
102
RTVSPropertyOp33
 70
     1
102
RTVSPropertyOp34
 70
     1
102
RTVSPropertyOp35
 70
     1
102
RTVSPropertyOp36
 70
     1
102
RTVSPropertyOp37
 70
     1
102
RTVSPropertyOp38
 70
     1
102
RTVSPropertyOp39
 70
     1
102
RTVSPropertyOp40
 70
     1
102
RTVSPropertyOp41
 70
     1
102
RTVSPropertyOp42
 70
     1
102
RTVSPropertyOp43
 70
     1
102
RTVSPropertyOp44
 70
     1
102
RTVSPropertyOp45
 70
     1
102
RTVSPropertyOp46
 70
     1
102
RTVSPropertyOp47
 70
     1
102
RTVSPropertyOp48
 70
     1
102
RTVSPropertyOp49
 70
     1
102
RTVSPropertyOp50
 70
     1
102
RTVSPropertyOp51
 70
     0
102
RTVSPropertyOp52
 70
     0
102
RTVSPropertyOp53
 70
     1
102
RTVSPropertyOp54
 70
     1
102
RTVSPropertyOp55
 70
     1
102
RTVSPropertyOp56
 70
     1
102
RTVSPropertyOp57
 70
     1
102
RTVSPost2010Prop28
280
     0
102
RTVSPost2010PropOp28
 70
     1
102
RTVSPost2010Prop29
280
     1
102
RTVSPost2010PropOp29
 70
     1
102
RTVSPost2010Prop30
280
     1
102
RTVSPost2010PropOp30
 70
     1
102
RTVSPost2010Prop31
280
     0
102
RTVSPost2010PropOp31
 70
     1
102
RTVSPost2010Prop32
280
     0
102
RTVSPost2010PropOp32
 70
     1
102
RTVSPost2010Prop33
280
     0
102
RTVSPost2010PropOp33
 70
     1
102
RTVSPost2010Prop34
280
     0
102
RTVSPost2010PropOp34
 70
     1
102
RTVSPost2010Prop35
280
     0
102
RTVSPost2010PropOp35
 70
     1
102
RTVSPost2010Prop36
280
     0
102
RTVSPost2010PropOp36
 70
     1
102
RTVSPost2010Prop37
 90
       50
102
RTVSPost2010PropOp37
 70
     1
102
RTVSPost2010Prop38
140
0.0
102
RTVSPost2010PropOp38
 70
     1
102
RTVSPost2010Prop39
140
1.0
102
RTVSPost2010PropOp39
 70
     1
102
RTVSPost2010Prop40
 90
        0
102
RTVSPost2010PropOp40
 70
     1
102
RTVSPost2010Prop41ColorIndex
 90
       18
102
RTVSPost2010Prop41ColorRGB
 90
        0
102
RTVSPost2010PropOp41
 70
     1
102
RTVSPost2010Prop42
 90
       50
102
RTVSPost2010PropOp42
 70
     1
102
RTVSPost2010Prop43
 90
        3
102
RTVSPost2010PropOp43
 70
     1
102
RTVSPost2010Prop44ColorIndex
 90
        5
102
RTVSPost2010Prop44ColorRGB
 90
      255
102
RTVSPost2010PropOp44
 70
     1
102
RTVSPost2010Prop45
280
     0
102
RTVSPost2010PropOp45
 70
     1
102
RTVSPost2010Prop46
 90
       50
102
RTVSPost2010PropOp46
 70
     1
102
RTVSPost2010Prop47
 90
       50
102
RTVSPost2010PropOp47
 70
     1
102
RTVSPost2010Prop48
 90
       50
102
RTVSPost2010PropOp48
 70
     1
102
RTVSPost2010Prop49
280
     0
102
RTVSPost2010PropOp49
 70
     1
102
RTVSPost2010Prop50
 90
       50
102
RTVSPost2010PropOp50
 70
     1
102
RTVSPost2010Prop51ColorIndex
 90
      256
102
RTVSPost2010Prop51ColorRGB
 90
-16777216
102
RTVSPost2010PropOp51
 70
     0
102
RTVSPost2010Prop52
140
1.0
102
RTVSPost2010PropOp52
 70
     0
102
RTVSPost2010Prop53
 90
        2
102
RTVSPost2010PropOp53
 70
     1
102
RTVSPost2010Prop54
  1
strokes_ogs.tif
102
RTVSPost2010PropOp54
 70
     1
102
RTVSPost2010Prop55
280
     0
102
RTVSPost2010PropOp55
 70
     1
102
RTVSPost2010Prop56
140
1.0
102
RTVSPost2010PropOp56
 70
     1
102
RTVSPost2010Prop57
140
1.0
102
RTVSPost2010PropOp57
 70
     1
  0
XRECORD
  5
2D3
102
{ACAD_REACTORS
330
2D2
102
}
330
2D2
100
AcDbXrecord
280
     1
102
RTVSPropertyOp0
 70
     0
102
RTVSPropertyOp1
 70
     0
102
RTVSPropertyOp2
 70
     0
102
RTVSPropertyOp3
 70
     0
102
RTVSPropertyOp4
 70
     0
102
RTVSPropertyOp5
 70
     0
102
RTVSPropertyOp6
 70
     0
102
RTVSPropertyOp7
 70
     0
102
RTVSPropertyOp8
 70
     0
102
RTVSPropertyOp9
 70
     0
102
RTVSPropertyOp10
 70
     0
102
RTVSPropertyOp11
 70
     0
102
RTVSPropertyOp12
 70
     0
102
RTVSPropertyOp13
 70
     0
102
RTVSPropertyOp14
 70
     2
102
RTVSPropertyOp15
 70
     0
102
RTVSPropertyOp16
 70
     0
102
RTVSPropertyOp17
 70
     0
102
RTVSPropertyOp18
 70
     0
102
RTVSPropertyOp19
 70
     0
102
RTVSPropertyOp20
 70
     0
102
RTVSPropertyOp21
 70
     0
102
RTVSPropertyOp22
 70
     0
102
RTVSPropertyOp23
 70
     0
102
RTVSPropertyOp24
 70
     0
102
RTVSPropertyOp25
 70
     0
102
RTVSPropertyOp26
 70
     0
102
RTVSPropertyOp27
 70
     0
102
RTVSPropertyOp28
 70
     0
102
RTVSPropertyOp29
 70
     0
102
RTVSPropertyOp30
 70
     0
102
RTVSPropertyOp31
 70
     0
102
RTVSPropertyOp32
 70
     0
102
RTVSPropertyOp33
 70
     0
102
RTVSPropertyOp34
 70
     0
102
RTVSPropertyOp35
 70
     0
102
RTVSPropertyOp36
 70
     0
102
RTVSPropertyOp37
 70
     0
102
RTVSPropertyOp38
 70
     0
102
RTVSPropertyOp39
 70
     0
102
RTVSPropertyOp40
 70
     0
102
RTVSPropertyOp41
 70
     0
102
RTVSPropertyOp42
 70
     0
102
RTVSPropertyOp43
 70
     0
102
RTVSPropertyOp44
 70
     0
102
RTVSPropertyOp45
 70
     0
102
RTVSPropertyOp46
 70
     0
102
RTVSPropertyOp47
 70
     0
102
RTVSPropertyOp48
 70
     0
102
RTVSPropertyOp49
 70
     0
102
RTVSPropertyOp50
 70
     0
102
RTVSPropertyOp51
 70
     0
102
RTVSPropertyOp52
 70
     0
102
RTVSPropertyOp53
 70
     0
102
RTVSPropertyOp54
 70
     0
102
RTVSPropertyOp55
 70
     0
102
RTVSPropertyOp56
 70
     0
102
RTVSPropertyOp57
 70
     0
102
RTVSPost2010Prop28
280
     0
102
RTVSPost2010PropOp28
 70
     0
102
RTVSPost2010Prop29
280
     1
102
RTVSPost2010PropOp29
 70
     0
102
RTVSPost2010Prop30
280
     1
102
RTVSPost2010PropOp30
 70
     0
102
RTVSPost2010Prop31
280
     0
102
RTVSPost2010PropOp31
 70
     0
102
RTVSPost2010Prop32
280
     0
102
RTVSPost2010PropOp32
 70
     0
102
RTVSPost2010Prop33
280
     0
102
RTVSPost2010PropOp33
 70
     0
102
RTVSPost2010Prop34
280
     0
102
RTVSPost2010PropOp34
 70
     0
102
RTVSPost2010Prop35
280
     0
102
RTVSPost2010PropOp35
 70
     0
102
RTVSPost2010Prop36
280
     0
102
RTVSPost2010PropOp36
 70
     0
102
RTVSPost2010Prop37
 90
       50
102
RTVSPost2010PropOp37
 70
     0
102
RTVSPost2010Prop38
140
0.0
102
RTVSPost2010PropOp38
 70
     0
102
RTVSPost2010Prop39
140
1.0
102
RTVSPost2010PropOp39
 70
     0
102
RTVSPost2010Prop40
 90
        0
102
RTVSPost2010PropOp40
 70
     0
102
RTVSPost2010Prop41ColorIndex
 90
       18
102
RTVSPost2010Prop41ColorRGB
 90
        0
102
RTVSPost2010PropOp41
 70
     0
102
RTVSPost2010Prop42
 90
       50
102
RTVSPost2010PropOp42
 70
     0
102
RTVSPost2010Prop43
 90
        3
102
RTVSPost2010PropOp43
 70
     0
102
RTVSPost2010Prop44ColorIndex
 90
        5
102
RTVSPost2010Prop44ColorRGB
 90
      255
102
RTVSPost2010PropOp44
 70
     0
102
RTVSPost2010Prop45
280
     0
102
RTVSPost2010PropOp45
 70
     0
102
RTVSPost2010Prop46
 90
       50
102
RTVSPost2010PropOp46
 70
     0
102
RTVSPost2010Prop47
 90
       50
102
RTVSPost2010PropOp47
 70
     0
102
RTVSPost2010Prop48
 90
       50
102
RTVSPost2010PropOp48
 70
     0
102
RTVSPost2010Prop49
280
     0
102
RTVSPost2010PropOp49
 70
     0
102
RTVSPost2010Prop50
 90
       50
102
RTVSPost2010PropOp50
 70
     0
102
RTVSPost2010Prop51ColorIndex
 90
      256
102
RTVSPost2010Prop51ColorRGB
 90
-16777216
102
RTVSPost2010PropOp51
 70
     0
102
RTVSPost2010Prop52
140
1.0
102
RTVSPost2010PropOp52
 70
     0
102
RTVSPost2010Prop53
 90
        2
102
RTVSPost2010PropOp53
 70
     0
102
RTVSPost2010Prop54
  1
strokes_ogs.tif
102
RTVSPost2010PropOp54
 70
     0
102
RTVSPost2010Prop55
280
     0
102
RTVSPost2010PropOp55
 70
     0
102
RTVSPost2010Prop56
140
1.0
102
RTVSPost2010PropOp56
 70
     0
102
RTVSPost2010Prop57
140
1.0
102
RTVSPost2010PropOp57
 70
     0
  0
XRECORD
  5
2CB
102
{ACAD_REACTORS
330
2CA
102
}
330
2CA
100
AcDbXrecord
280
     1
102
RTVSPropertyOp0
 70
     1
102
RTVSPropertyOp1
 70
     1
102
RTVSPropertyOp2
 70
     1
102
RTVSPropertyOp3
 70
     1
102
RTVSPropertyOp4
 70
     1
102
RTVSPropertyOp5
 70
     1
102
RTVSPropertyOp6
 70
     1
102
RTVSPropertyOp7
 70
     1
102
RTVSPropertyOp8
 70
     1
102
RTVSPropertyOp9
 70
     1
102
RTVSPropertyOp10
 70
     1
102
RTVSPropertyOp11
 70
     1
102
RTVSPropertyOp12
 70
     1
102
RTVSPropertyOp13
 70
     1
102
RTVSPropertyOp14
 70
     1
102
RTVSPropertyOp15
 70
     1
102
RTVSPropertyOp16
 70
     1
102
RTVSPropertyOp17
 70
     1
102
RTVSPropertyOp18
 70
     1
102
RTVSPropertyOp19
 70
     1
102
RTVSPropertyOp20
 70
     1
102
RTVSPropertyOp21
 70
     1
102
RTVSPropertyOp22
 70
     1
102
RTVSPropertyOp23
 70
     1
102
RTVSPropertyOp24
 70
     1
102
RTVSPropertyOp25
 70
     1
102
RTVSPropertyOp26
 70
     1
102
RTVSPropertyOp27
 70
     1
102
RTVSPropertyOp28
 70
     1
102
RTVSPropertyOp29
 70
     1
102
RTVSPropertyOp30
 70
     1
102
RTVSPropertyOp31
 70
     1
102
RTVSPropertyOp32
 70
     1
102
RTVSPropertyOp33
 70
     1
102
RTVSPropertyOp34
 70
     1
102
RTVSPropertyOp35
 70
     1
102
RTVSPropertyOp36
 70
     1
102
RTVSPropertyOp37
 70
     1
102
RTVSPropertyOp38
 70
     1
102
RTVSPropertyOp39
 70
     1
102
RTVSPropertyOp40
 70
     1
102
RTVSPropertyOp41
 70
     1
102
RTVSPropertyOp42
 70
     1
102
RTVSPropertyOp43
 70
     1
102
RTVSPropertyOp44
 70
     1
102
RTVSPropertyOp45
 70
     1
102
RTVSPropertyOp46
 70
     1
102
RTVSPropertyOp47
 70
     1
102
RTVSPropertyOp48
 70
     1
102
RTVSPropertyOp49
 70
     1
102
RTVSPropertyOp50
 70
     1
102
RTVSPropertyOp51
 70
     0
102
RTVSPropertyOp52
 70
     0
102
RTVSPropertyOp53
 70
     1
102
RTVSPropertyOp54
 70
     1
102
RTVSPropertyOp55
 70
     1
102
RTVSPropertyOp56
 70
     1
102
RTVSPropertyOp57
 70
     1
102
RTVSPost2010Prop28
280
     0
102
RTVSPost2010PropOp28
 70
     1
102
RTVSPost2010Prop29
280
     1
102
RTVSPost2010PropOp29
 70
     1
102
RTVSPost2010Prop30
280
     1
102
RTVSPost2010PropOp30
 70
     1
102
RTVSPost2010Prop31
280
     0
102
RTVSPost2010PropOp31
 70
     1
102
RTVSPost2010Prop32
280
     0
102
RTVSPost2010PropOp32
 70
     1
102
RTVSPost2010Prop33
280
     0
102
RTVSPost2010PropOp33
 70
     1
102
RTVSPost2010Prop34
280
     0
102
RTVSPost2010PropOp34
 70
     1
102
RTVSPost2010Prop35
280
     0
102
RTVSPost2010PropOp35
 70
     1
102
RTVSPost2010Prop36
280
     0
102
RTVSPost2010PropOp36
 70
     1
102
RTVSPost2010Prop37
 90
       50
102
RTVSPost2010PropOp37
 70
     1
102
RTVSPost2010Prop38
140
0.0
102
RTVSPost2010PropOp38
 70
     1
102
RTVSPost2010Prop39
140
1.0
102
RTVSPost2010PropOp39
 70
     1
102
RTVSPost2010Prop40
 90
        0
102
RTVSPost2010PropOp40
 70
     1
102
RTVSPost2010Prop41ColorIndex
 90
       18
102
RTVSPost2010Prop41ColorRGB
 90
        0
102
RTVSPost2010PropOp41
 70
     1
102
RTVSPost2010Prop42
 90
       50
102
RTVSPost2010PropOp42
 70
     1
102
RTVSPost2010Prop43
 90
        3
102
RTVSPost2010PropOp43
 70
     1
102
RTVSPost2010Prop44ColorIndex
 90
        5
102
RTVSPost2010Prop44ColorRGB
 90
      255
102
RTVSPost2010PropOp44
 70
     1
102
RTVSPost2010Prop45
280
     0
102
RTVSPost2010PropOp45
 70
     1
102
RTVSPost2010Prop46
 90
       50
102
RTVSPost2010PropOp46
 70
     1
102
RTVSPost2010Prop47
 90
       50
102
RTVSPost2010PropOp47
 70
     1
102
RTVSPost2010Prop48
 90
       50
102
RTVSPost2010PropOp48
 70
     1
102
RTVSPost2010Prop49
280
     0
102
RTVSPost2010PropOp49
 70
     1
102
RTVSPost2010Prop50
 90
       50
102
RTVSPost2010PropOp50
 70
     1
102
RTVSPost2010Prop51ColorIndex
 90
      256
102
RTVSPost2010Prop51ColorRGB
 90
-16777216
102
RTVSPost2010PropOp51
 70
     0
102
RTVSPost2010Prop52
140
1.0
102
RTVSPost2010PropOp52
 70
     0
102
RTVSPost2010Prop53
 90
        2
102
RTVSPost2010PropOp53
 70
     1
102
RTVSPost2010Prop54
  1
strokes_ogs.tif
102
RTVSPost2010PropOp54
 70
     1
102
RTVSPost2010Prop55
280
     0
102
RTVSPost2010PropOp55
 70
     1
102
RTVSPost2010Prop56
140
1.0
102
RTVSPost2010PropOp56
 70
     1
102
RTVSPost2010Prop57
140
1.0
102
RTVSPost2010PropOp57
 70
     1
  0
XRECORD
  5
2AF
102
{ACAD_REACTORS
330
2AE
102
}
330
2AE
100
AcDbXrecord
280
     1
102
RTVSPropertyOp0
 70
     1
102
RTVSPropertyOp1
 70
     1
102
RTVSPropertyOp2
 70
     1
102
RTVSPropertyOp3
 70
     1
102
RTVSPropertyOp4
 70
     1
102
RTVSPropertyOp5
 70
     1
102
RTVSPropertyOp6
 70
     1
102
RTVSPropertyOp7
 70
     1
102
RTVSPropertyOp8
 70
     1
102
RTVSPropertyOp9
 70
     1
102
RTVSPropertyOp10
 70
     1
102
RTVSPropertyOp11
 70
     1
102
RTVSPropertyOp12
 70
     1
102
RTVSPropertyOp13
 70
     1
102
RTVSPropertyOp14
 70
     1
102
RTVSPropertyOp15
 70
     1
102
RTVSPropertyOp16
 70
     1
102
RTVSPropertyOp17
 70
     1
102
RTVSPropertyOp18
 70
     1
102
RTVSPropertyOp19
 70
     1
102
RTVSPropertyOp20
 70
     1
102
RTVSPropertyOp21
 70
     1
102
RTVSPropertyOp22
 70
     1
102
RTVSPropertyOp23
 70
     1
102
RTVSPropertyOp24
 70
     1
102
RTVSPropertyOp25
 70
     1
102
RTVSPropertyOp26
 70
     1
102
RTVSPropertyOp27
 70
     1
102
RTVSPropertyOp28
 70
     1
102
RTVSPropertyOp29
 70
     1
102
RTVSPropertyOp30
 70
     1
102
RTVSPropertyOp31
 70
     1
102
RTVSPropertyOp32
 70
     1
102
RTVSPropertyOp33
 70
     1
102
RTVSPropertyOp34
 70
     1
102
RTVSPropertyOp35
 70
     1
102
RTVSPropertyOp36
 70
     1
102
RTVSPropertyOp37
 70
     1
102
RTVSPropertyOp38
 70
     1
102
RTVSPropertyOp39
 70
     1
102
RTVSPropertyOp40
 70
     1
102
RTVSPropertyOp41
 70
     1
102
RTVSPropertyOp42
 70
     1
102
RTVSPropertyOp43
 70
     1
102
RTVSPropertyOp44
 70
     1
102
RTVSPropertyOp45
 70
     1
102
RTVSPropertyOp46
 70
     1
102
RTVSPropertyOp47
 70
     1
102
RTVSPropertyOp48
 70
     1
102
RTVSPropertyOp49
 70
     1
102
RTVSPropertyOp50
 70
     1
102
RTVSPropertyOp51
 70
     0
102
RTVSPropertyOp52
 70
     0
102
RTVSPropertyOp53
 70
     1
102
RTVSPropertyOp54
 70
     1
102
RTVSPropertyOp55
 70
     1
102
RTVSPropertyOp56
 70
     1
102
RTVSPropertyOp57
 70
     1
102
RTVSPost2010Prop28
280
     0
102
RTVSPost2010PropOp28
 70
     1
102
RTVSPost2010Prop29
280
     1
102
RTVSPost2010PropOp29
 70
     1
102
RTVSPost2010Prop30
280
     1
102
RTVSPost2010PropOp30
 70
     1
102
RTVSPost2010Prop31
280
     0
102
RTVSPost2010PropOp31
 70
     1
102
RTVSPost2010Prop32
280
     0
102
RTVSPost2010PropOp32
 70
     1
102
RTVSPost2010Prop33
280
     0
102
RTVSPost2010PropOp33
 70
     1
102
RTVSPost2010Prop34
280
     0
102
RTVSPost2010PropOp34
 70
     1
102
RTVSPost2010Prop35
280
     0
102
RTVSPost2010PropOp35
 70
     1
102
RTVSPost2010Prop36
280
     0
102
RTVSPost2010PropOp36
 70
     1
102
RTVSPost2010Prop37
 90
       50
102
RTVSPost2010PropOp37
 70
     1
102
RTVSPost2010Prop38
140
0.0
102
RTVSPost2010PropOp38
 70
     1
102
RTVSPost2010Prop39
140
1.0
102
RTVSPost2010PropOp39
 70
     1
102
RTVSPost2010Prop40
 90
        0
102
RTVSPost2010PropOp40
 70
     1
102
RTVSPost2010Prop41ColorIndex
 90
       18
102
RTVSPost2010Prop41ColorRGB
 90
        0
102
RTVSPost2010PropOp41
 70
     1
102
RTVSPost2010Prop42
 90
       50
102
RTVSPost2010PropOp42
 70
     1
102
RTVSPost2010Prop43
 90
        3
102
RTVSPost2010PropOp43
 70
     1
102
RTVSPost2010Prop44ColorIndex
 90
        5
102
RTVSPost2010Prop44ColorRGB
 90
      255
102
RTVSPost2010PropOp44
 70
     1
102
RTVSPost2010Prop45
280
     0
102
RTVSPost2010PropOp45
 70
     1
102
RTVSPost2010Prop46
 90
       50
102
RTVSPost2010PropOp46
 70
     1
102
RTVSPost2010Prop47
 90
       50
102
RTVSPost2010PropOp47
 70
     1
102
RTVSPost2010Prop48
 90
       50
102
RTVSPost2010PropOp48
 70
     1
102
RTVSPost2010Prop49
280
     0
102
RTVSPost2010PropOp49
 70
     1
102
RTVSPost2010Prop50
 90
       50
102
RTVSPost2010PropOp50
 70
     1
102
RTVSPost2010Prop51ColorIndex
 90
      256
102
RTVSPost2010Prop51ColorRGB
 90
-16777216
102
RTVSPost2010PropOp51
 70
     0
102
RTVSPost2010Prop52
140
1.0
102
RTVSPost2010PropOp52
 70
     0
102
RTVSPost2010Prop53
 90
        2
102
RTVSPost2010PropOp53
 70
     1
102
RTVSPost2010Prop54
  1
strokes_ogs.tif
102
RTVSPost2010PropOp54
 70
     1
102
RTVSPost2010Prop55
280
     0
102
RTVSPost2010PropOp55
 70
     1
102
RTVSPost2010Prop56
140
1.0
102
RTVSPost2010PropOp56
 70
     1
102
RTVSPost2010Prop57
140
1.0
102
RTVSPost2010PropOp57
 70
     1
  0
XRECORD
  5
2B1
102
{ACAD_REACTORS
330
2B0
102
}
330
2B0
100
AcDbXrecord
280
     1
102
RTVSPropertyOp0
 70
     1
102
RTVSPropertyOp1
 70
     1
102
RTVSPropertyOp2
 70
     1
102
RTVSPropertyOp3
 70
     1
102
RTVSPropertyOp4
 70
     1
102
RTVSPropertyOp5
 70
     1
102
RTVSPropertyOp6
 70
     1
102
RTVSPropertyOp7
 70
     1
102
RTVSPropertyOp8
 70
     1
102
RTVSPropertyOp9
 70
     1
102
RTVSPropertyOp10
 70
     1
102
RTVSPropertyOp11
 70
     1
102
RTVSPropertyOp12
 70
     1
102
RTVSPropertyOp13
 70
     1
102
RTVSPropertyOp14
 70
     1
102
RTVSPropertyOp15
 70
     1
102
RTVSPropertyOp16
 70
     1
102
RTVSPropertyOp17
 70
     1
102
RTVSPropertyOp18
 70
     1
102
RTVSPropertyOp19
 70
     1
102
RTVSPropertyOp20
 70
     1
102
RTVSPropertyOp21
 70
     1
102
RTVSPropertyOp22
 70
     1
102
RTVSPropertyOp23
 70
     1
102
RTVSPropertyOp24
 70
     1
102
RTVSPropertyOp25
 70
     1
102
RTVSPropertyOp26
 70
     1
102
RTVSPropertyOp27
 70
     1
102
RTVSPropertyOp28
 70
     1
102
RTVSPropertyOp29
 70
     1
102
RTVSPropertyOp30
 70
     1
102
RTVSPropertyOp31
 70
     1
102
RTVSPropertyOp32
 70
     1
102
RTVSPropertyOp33
 70
     1
102
RTVSPropertyOp34
 70
     1
102
RTVSPropertyOp35
 70
     1
102
RTVSPropertyOp36
 70
     1
102
RTVSPropertyOp37
 70
     1
102
RTVSPropertyOp38
 70
     1
102
RTVSPropertyOp39
 70
     1
102
RTVSPropertyOp40
 70
     1
102
RTVSPropertyOp41
 70
     1
102
RTVSPropertyOp42
 70
     1
102
RTVSPropertyOp43
 70
     1
102
RTVSPropertyOp44
 70
     1
102
RTVSPropertyOp45
 70
     1
102
RTVSPropertyOp46
 70
     1
102
RTVSPropertyOp47
 70
     1
102
RTVSPropertyOp48
 70
     1
102
RTVSPropertyOp49
 70
     1
102
RTVSPropertyOp50
 70
     1
102
RTVSPropertyOp51
 70
     0
102
RTVSPropertyOp52
 70
     0
102
RTVSPropertyOp53
 70
     1
102
RTVSPropertyOp54
 70
     1
102
RTVSPropertyOp55
 70
     1
102
RTVSPropertyOp56
 70
     1
102
RTVSPropertyOp57
 70
     1
102
RTVSPost2010Prop28
280
     0
102
RTVSPost2010PropOp28
 70
     1
102
RTVSPost2010Prop29
280
     1
102
RTVSPost2010PropOp29
 70
     1
102
RTVSPost2010Prop30
280
     1
102
RTVSPost2010PropOp30
 70
     1
102
RTVSPost2010Prop31
280
     0
102
RTVSPost2010PropOp31
 70
     1
102
RTVSPost2010Prop32
280
     0
102
RTVSPost2010PropOp32
 70
     1
102
RTVSPost2010Prop33
280
     0
102
RTVSPost2010PropOp33
 70
     1
102
RTVSPost2010Prop34
280
     0
102
RTVSPost2010PropOp34
 70
     1
102
RTVSPost2010Prop35
280
     0
102
RTVSPost2010PropOp35
 70
     1
102
RTVSPost2010Prop36
280
     0
102
RTVSPost2010PropOp36
 70
     1
102
RTVSPost2010Prop37
 90
       50
102
RTVSPost2010PropOp37
 70
     1
102
RTVSPost2010Prop38
140
0.0
102
RTVSPost2010PropOp38
 70
     1
102
RTVSPost2010Prop39
140
1.0
102
RTVSPost2010PropOp39
 70
     1
102
RTVSPost2010Prop40
 90
        0
102
RTVSPost2010PropOp40
 70
     1
102
RTVSPost2010Prop41ColorIndex
 90
       18
102
RTVSPost2010Prop41ColorRGB
 90
        0
102
RTVSPost2010PropOp41
 70
     1
102
RTVSPost2010Prop42
 90
       50
102
RTVSPost2010PropOp42
 70
     1
102
RTVSPost2010Prop43
 90
        3
102
RTVSPost2010PropOp43
 70
     1
102
RTVSPost2010Prop44ColorIndex
 90
        5
102
RTVSPost2010Prop44ColorRGB
 90
      255
102
RTVSPost2010PropOp44
 70
     1
102
RTVSPost2010Prop45
280
     0
102
RTVSPost2010PropOp45
 70
     1
102
RTVSPost2010Prop46
 90
       50
102
RTVSPost2010PropOp46
 70
     1
102
RTVSPost2010Prop47
 90
       50
102
RTVSPost2010PropOp47
 70
     1
102
RTVSPost2010Prop48
 90
       50
102
RTVSPost2010PropOp48
 70
     1
102
RTVSPost2010Prop49
280
     0
102
RTVSPost2010PropOp49
 70
     1
102
RTVSPost2010Prop50
 90
       50
102
RTVSPost2010PropOp50
 70
     1
102
RTVSPost2010Prop51ColorIndex
 90
      256
102
RTVSPost2010Prop51ColorRGB
 90
-16777216
102
RTVSPost2010PropOp51
 70
     0
102
RTVSPost2010Prop52
140
1.0
102
RTVSPost2010PropOp52
 70
     0
102
RTVSPost2010Prop53
 90
        2
102
RTVSPost2010PropOp53
 70
     1
102
RTVSPost2010Prop54
  1
strokes_ogs.tif
102
RTVSPost2010PropOp54
 70
     1
102
RTVSPost2010Prop55
280
     0
102
RTVSPost2010PropOp55
 70
     1
102
RTVSPost2010Prop56
140
1.0
102
RTVSPost2010PropOp56
 70
     1
102
RTVSPost2010Prop57
140
1.0
102
RTVSPost2010PropOp57
 70
     1
  0
XRECORD
  5
2B3
102
{ACAD_REACTORS
330
2B2
102
}
330
2B2
100
AcDbXrecord
280
     1
102
RTVSPropertyOp0
 70
     1
102
RTVSPropertyOp1
 70
     1
102
RTVSPropertyOp2
 70
     1
102
RTVSPropertyOp3
 70
     1
102
RTVSPropertyOp4
 70
     1
102
RTVSPropertyOp5
 70
     1
102
RTVSPropertyOp6
 70
     1
102
RTVSPropertyOp7
 70
     1
102
RTVSPropertyOp8
 70
     1
102
RTVSPropertyOp9
 70
     1
102
RTVSPropertyOp10
 70
     1
102
RTVSPropertyOp11
 70
     1
102
RTVSPropertyOp12
 70
     1
102
RTVSPropertyOp13
 70
     1
102
RTVSPropertyOp14
 70
     1
102
RTVSPropertyOp15
 70
     1
102
RTVSPropertyOp16
 70
     1
102
RTVSPropertyOp17
 70
     1
102
RTVSPropertyOp18
 70
     1
102
RTVSPropertyOp19
 70
     1
102
RTVSPropertyOp20
 70
     1
102
RTVSPropertyOp21
 70
     1
102
RTVSPropertyOp22
 70
     1
102
RTVSPropertyOp23
 70
     1
102
RTVSPropertyOp24
 70
     1
102
RTVSPropertyOp25
 70
     1
102
RTVSPropertyOp26
 70
     1
102
RTVSPropertyOp27
 70
     1
102
RTVSPropertyOp28
 70
     1
102
RTVSPropertyOp29
 70
     1
102
RTVSPropertyOp30
 70
     1
102
RTVSPropertyOp31
 70
     1
102
RTVSPropertyOp32
 70
     1
102
RTVSPropertyOp33
 70
     1
102
RTVSPropertyOp34
 70
     1
102
RTVSPropertyOp35
 70
     1
102
RTVSPropertyOp36
 70
     1
102
RTVSPropertyOp37
 70
     1
102
RTVSPropertyOp38
 70
     1
102
RTVSPropertyOp39
 70
     1
102
RTVSPropertyOp40
 70
     1
102
RTVSPropertyOp41
 70
     1
102
RTVSPropertyOp42
 70
     1
102
RTVSPropertyOp43
 70
     1
102
RTVSPropertyOp44
 70
     1
102
RTVSPropertyOp45
 70
     1
102
RTVSPropertyOp46
 70
     1
102
RTVSPropertyOp47
 70
     1
102
RTVSPropertyOp48
 70
     1
102
RTVSPropertyOp49
 70
     1
102
RTVSPropertyOp50
 70
     1
102
RTVSPropertyOp51
 70
     0
102
RTVSPropertyOp52
 70
     0
102
RTVSPropertyOp53
 70
     1
102
RTVSPropertyOp54
 70
     1
102
RTVSPropertyOp55
 70
     1
102
RTVSPropertyOp56
 70
     1
102
RTVSPropertyOp57
 70
     1
102
RTVSPost2010Prop28
280
     0
102
RTVSPost2010PropOp28
 70
     1
102
RTVSPost2010Prop29
280
     1
102
RTVSPost2010PropOp29
 70
     1
102
RTVSPost2010Prop30
280
     1
102
RTVSPost2010PropOp30
 70
     1
102
RTVSPost2010Prop31
280
     0
102
RTVSPost2010PropOp31
 70
     1
102
RTVSPost2010Prop32
280
     0
102
RTVSPost2010PropOp32
 70
     1
102
RTVSPost2010Prop33
280
     0
102
RTVSPost2010PropOp33
 70
     1
102
RTVSPost2010Prop34
280
     0
102
RTVSPost2010PropOp34
 70
     1
102
RTVSPost2010Prop35
280
     0
102
RTVSPost2010PropOp35
 70
     1
102
RTVSPost2010Prop36
280
     0
102
RTVSPost2010PropOp36
 70
     1
102
RTVSPost2010Prop37
 90
       50
102
RTVSPost2010PropOp37
 70
     1
102
RTVSPost2010Prop38
140
0.0
102
RTVSPost2010PropOp38
 70
     1
102
RTVSPost2010Prop39
140
1.0
102
RTVSPost2010PropOp39
 70
     1
102
RTVSPost2010Prop40
 90
        0
102
RTVSPost2010PropOp40
 70
     1
102
RTVSPost2010Prop41ColorIndex
 90
       18
102
RTVSPost2010Prop41ColorRGB
 90
        0
102
RTVSPost2010PropOp41
 70
     1
102
RTVSPost2010Prop42
 90
       50
102
RTVSPost2010PropOp42
 70
     1
102
RTVSPost2010Prop43
 90
        3
102
RTVSPost2010PropOp43
 70
     1
102
RTVSPost2010Prop44ColorIndex
 90
        5
102
RTVSPost2010Prop44ColorRGB
 90
      255
102
RTVSPost2010PropOp44
 70
     1
102
RTVSPost2010Prop45
280
     0
102
RTVSPost2010PropOp45
 70
     1
102
RTVSPost2010Prop46
 90
       50
102
RTVSPost2010PropOp46
 70
     1
102
RTVSPost2010Prop47
 90
       50
102
RTVSPost2010PropOp47
 70
     1
102
RTVSPost2010Prop48
 90
       50
102
RTVSPost2010PropOp48
 70
     1
102
RTVSPost2010Prop49
280
     0
102
RTVSPost2010PropOp49
 70
     1
102
RTVSPost2010Prop50
 90
       50
102
RTVSPost2010PropOp50
 70
     1
102
RTVSPost2010Prop51ColorIndex
 90
      256
102
RTVSPost2010Prop51ColorRGB
 90
-16777216
102
RTVSPost2010PropOp51
 70
     0
102
RTVSPost2010Prop52
140
1.0
102
RTVSPost2010PropOp52
 70
     0
102
RTVSPost2010Prop53
 90
        2
102
RTVSPost2010PropOp53
 70
     1
102
RTVSPost2010Prop54
  1
strokes_ogs.tif
102
RTVSPost2010PropOp54
 70
     1
102
RTVSPost2010Prop55
280
     0
102
RTVSPost2010PropOp55
 70
     1
102
RTVSPost2010Prop56
140
1.0
102
RTVSPost2010PropOp56
 70
     1
102
RTVSPost2010Prop57
140
1.0
102
RTVSPost2010PropOp57
 70
     1
  0
XRECORD
  5
2B5
102
{ACAD_REACTORS
330
2B4
102
}
330
2B4
100
AcDbXrecord
280
     1
102
RTVSPropertyOp0
 70
     1
102
RTVSPropertyOp1
 70
     1
102
RTVSPropertyOp2
 70
     1
102
RTVSPropertyOp3
 70
     1
102
RTVSPropertyOp4
 70
     1
102
RTVSPropertyOp5
 70
     1
102
RTVSPropertyOp6
 70
     1
102
RTVSPropertyOp7
 70
     1
102
RTVSPropertyOp8
 70
     1
102
RTVSPropertyOp9
 70
     1
102
RTVSPropertyOp10
 70
     1
102
RTVSPropertyOp11
 70
     1
102
RTVSPropertyOp12
 70
     1
102
RTVSPropertyOp13
 70
     1
102
RTVSPropertyOp14
 70
     1
102
RTVSPropertyOp15
 70
     1
102
RTVSPropertyOp16
 70
     1
102
RTVSPropertyOp17
 70
     1
102
RTVSPropertyOp18
 70
     1
102
RTVSPropertyOp19
 70
     1
102
RTVSPropertyOp20
 70
     1
102
RTVSPropertyOp21
 70
     1
102
RTVSPropertyOp22
 70
     1
102
RTVSPropertyOp23
 70
     1
102
RTVSPropertyOp24
 70
     1
102
RTVSPropertyOp25
 70
     1
102
RTVSPropertyOp26
 70
     1
102
RTVSPropertyOp27
 70
     1
102
RTVSPropertyOp28
 70
     1
102
RTVSPropertyOp29
 70
     1
102
RTVSPropertyOp30
 70
     1
102
RTVSPropertyOp31
 70
     1
102
RTVSPropertyOp32
 70
     1
102
RTVSPropertyOp33
 70
     1
102
RTVSPropertyOp34
 70
     1
102
RTVSPropertyOp35
 70
     1
102
RTVSPropertyOp36
 70
     1
102
RTVSPropertyOp37
 70
     1
102
RTVSPropertyOp38
 70
     1
102
RTVSPropertyOp39
 70
     1
102
RTVSPropertyOp40
 70
     1
102
RTVSPropertyOp41
 70
     1
102
RTVSPropertyOp42
 70
     1
102
RTVSPropertyOp43
 70
     1
102
RTVSPropertyOp44
 70
     1
102
RTVSPropertyOp45
 70
     1
102
RTVSPropertyOp46
 70
     1
102
RTVSPropertyOp47
 70
     1
102
RTVSPropertyOp48
 70
     1
102
RTVSPropertyOp49
 70
     1
102
RTVSPropertyOp50
 70
     1
102
RTVSPropertyOp51
 70
     0
102
RTVSPropertyOp52
 70
     0
102
RTVSPropertyOp53
 70
     1
102
RTVSPropertyOp54
 70
     1
102
RTVSPropertyOp55
 70
     1
102
RTVSPropertyOp56
 70
     1
102
RTVSPropertyOp57
 70
     1
102
RTVSPost2010Prop28
280
     0
102
RTVSPost2010PropOp28
 70
     1
102
RTVSPost2010Prop29
280
     1
102
RTVSPost2010PropOp29
 70
     1
102
RTVSPost2010Prop30
280
     1
102
RTVSPost2010PropOp30
 70
     1
102
RTVSPost2010Prop31
280
     0
102
RTVSPost2010PropOp31
 70
     1
102
RTVSPost2010Prop32
280
     0
102
RTVSPost2010PropOp32
 70
     1
102
RTVSPost2010Prop33
280
     0
102
RTVSPost2010PropOp33
 70
     1
102
RTVSPost2010Prop34
280
     0
102
RTVSPost2010PropOp34
 70
     1
102
RTVSPost2010Prop35
280
     0
102
RTVSPost2010PropOp35
 70
     1
102
RTVSPost2010Prop36
280
     0
102
RTVSPost2010PropOp36
 70
     1
102
RTVSPost2010Prop37
 90
       50
102
RTVSPost2010PropOp37
 70
     1
102
RTVSPost2010Prop38
140
0.0
102
RTVSPost2010PropOp38
 70
     1
102
RTVSPost2010Prop39
140
1.0
102
RTVSPost2010PropOp39
 70
     1
102
RTVSPost2010Prop40
 90
        0
102
RTVSPost2010PropOp40
 70
     1
102
RTVSPost2010Prop41ColorIndex
 90
       18
102
RTVSPost2010Prop41ColorRGB
 90
        0
102
RTVSPost2010PropOp41
 70
     1
102
RTVSPost2010Prop42
 90
       50
102
RTVSPost2010PropOp42
 70
     1
102
RTVSPost2010Prop43
 90
        3
102
RTVSPost2010PropOp43
 70
     1
102
RTVSPost2010Prop44ColorIndex
 90
        5
102
RTVSPost2010Prop44ColorRGB
 90
      255
102
RTVSPost2010PropOp44
 70
     1
102
RTVSPost2010Prop45
280
     0
102
RTVSPost2010PropOp45
 70
     1
102
RTVSPost2010Prop46
 90
       50
102
RTVSPost2010PropOp46
 70
     1
102
RTVSPost2010Prop47
 90
       50
102
RTVSPost2010PropOp47
 70
     1
102
RTVSPost2010Prop48
 90
       50
102
RTVSPost2010PropOp48
 70
     1
102
RTVSPost2010Prop49
280
     0
102
RTVSPost2010PropOp49
 70
     1
102
RTVSPost2010Prop50
 90
       50
102
RTVSPost2010PropOp50
 70
     1
102
RTVSPost2010Prop51ColorIndex
 90
      256
102
RTVSPost2010Prop51ColorRGB
 90
-16777216
102
RTVSPost2010PropOp51
 70
     0
102
RTVSPost2010Prop52
140
1.0
102
RTVSPost2010PropOp52
 70
     0
102
RTVSPost2010Prop53
 90
        2
102
RTVSPost2010PropOp53
 70
     1
102
RTVSPost2010Prop54
  1
strokes_ogs.tif
102
RTVSPost2010PropOp54
 70
     1
102
RTVSPost2010Prop55
280
     0
102
RTVSPost2010PropOp55
 70
     1
102
RTVSPost2010Prop56
140
1.0
102
RTVSPost2010PropOp56
 70
     1
102
RTVSPost2010Prop57
140
1.0
102
RTVSPost2010PropOp57
 70
     1
  0
XRECORD
  5
2BB
102
{ACAD_REACTORS
330
2BA
102
}
330
2BA
100
AcDbXrecord
280
     1
102
RTVSPropertyOp0
 70
     1
102
RTVSPropertyOp1
 70
     1
102
RTVSPropertyOp2
 70
     1
102
RTVSPropertyOp3
 70
     1
102
RTVSPropertyOp4
 70
     1
102
RTVSPropertyOp5
 70
     1
102
RTVSPropertyOp6
 70
     1
102
RTVSPropertyOp7
 70
     1
102
RTVSPropertyOp8
 70
     1
102
RTVSPropertyOp9
 70
     1
102
RTVSPropertyOp10
 70
     1
102
RTVSPropertyOp11
 70
     1
102
RTVSPropertyOp12
 70
     1
102
RTVSPropertyOp13
 70
     1
102
RTVSPropertyOp14
 70
     1
102
RTVSPropertyOp15
 70
     1
102
RTVSPropertyOp16
 70
     1
102
RTVSPropertyOp17
 70
     1
102
RTVSPropertyOp18
 70
     1
102
RTVSPropertyOp19
 70
     1
102
RTVSPropertyOp20
 70
     1
102
RTVSPropertyOp21
 70
     1
102
RTVSPropertyOp22
 70
     1
102
RTVSPropertyOp23
 70
     1
102
RTVSPropertyOp24
 70
     1
102
RTVSPropertyOp25
 70
     1
102
RTVSPropertyOp26
 70
     1
102
RTVSPropertyOp27
 70
     1
102
RTVSPropertyOp28
 70
     1
102
RTVSPropertyOp29
 70
     1
102
RTVSPropertyOp30
 70
     1
102
RTVSPropertyOp31
 70
     1
102
RTVSPropertyOp32
 70
     1
102
RTVSPropertyOp33
 70
     1
102
RTVSPropertyOp34
 70
     1
102
RTVSPropertyOp35
 70
     1
102
RTVSPropertyOp36
 70
     1
102
RTVSPropertyOp37
 70
     1
102
RTVSPropertyOp38
 70
     1
102
RTVSPropertyOp39
 70
     1
102
RTVSPropertyOp40
 70
     1
102
RTVSPropertyOp41
 70
     1
102
RTVSPropertyOp42
 70
     1
102
RTVSPropertyOp43
 70
     1
102
RTVSPropertyOp44
 70
     1
102
RTVSPropertyOp45
 70
     1
102
RTVSPropertyOp46
 70
     1
102
RTVSPropertyOp47
 70
     1
102
RTVSPropertyOp48
 70
     1
102
RTVSPropertyOp49
 70
     1
102
RTVSPropertyOp50
 70
     1
102
RTVSPropertyOp51
 70
     0
102
RTVSPropertyOp52
 70
     0
102
RTVSPropertyOp53
 70
     1
102
RTVSPropertyOp54
 70
     1
102
RTVSPropertyOp55
 70
     1
102
RTVSPropertyOp56
 70
     1
102
RTVSPropertyOp57
 70
     1
102
RTVSPost2010Prop28
280
     0
102
RTVSPost2010PropOp28
 70
     1
102
RTVSPost2010Prop29
280
     1
102
RTVSPost2010PropOp29
 70
     1
102
RTVSPost2010Prop30
280
     1
102
RTVSPost2010PropOp30
 70
     1
102
RTVSPost2010Prop31
280
     0
102
RTVSPost2010PropOp31
 70
     1
102
RTVSPost2010Prop32
280
     0
102
RTVSPost2010PropOp32
 70
     1
102
RTVSPost2010Prop33
280
     0
102
RTVSPost2010PropOp33
 70
     1
102
RTVSPost2010Prop34
280
     0
102
RTVSPost2010PropOp34
 70
     1
102
RTVSPost2010Prop35
280
     0
102
RTVSPost2010PropOp35
 70
     1
102
RTVSPost2010Prop36
280
     0
102
RTVSPost2010PropOp36
 70
     1
102
RTVSPost2010Prop37
 90
       50
102
RTVSPost2010PropOp37
 70
     1
102
RTVSPost2010Prop38
140
0.0
102
RTVSPost2010PropOp38
 70
     1
102
RTVSPost2010Prop39
140
1.0
102
RTVSPost2010PropOp39
 70
     1
102
RTVSPost2010Prop40
 90
        0
102
RTVSPost2010PropOp40
 70
     1
102
RTVSPost2010Prop41ColorIndex
 90
       18
102
RTVSPost2010Prop41ColorRGB
 90
        0
102
RTVSPost2010PropOp41
 70
     1
102
RTVSPost2010Prop42
 90
       50
102
RTVSPost2010PropOp42
 70
     1
102
RTVSPost2010Prop43
 90
        3
102
RTVSPost2010PropOp43
 70
     1
102
RTVSPost2010Prop44ColorIndex
 90
        5
102
RTVSPost2010Prop44ColorRGB
 90
      255
102
RTVSPost2010PropOp44
 70
     1
102
RTVSPost2010Prop45
280
     0
102
RTVSPost2010PropOp45
 70
     1
102
RTVSPost2010Prop46
 90
       50
102
RTVSPost2010PropOp46
 70
     1
102
RTVSPost2010Prop47
 90
       50
102
RTVSPost2010PropOp47
 70
     1
102
RTVSPost2010Prop48
 90
       50
102
RTVSPost2010PropOp48
 70
     1
102
RTVSPost2010Prop49
280
     0
102
RTVSPost2010PropOp49
 70
     1
102
RTVSPost2010Prop50
 90
       50
102
RTVSPost2010PropOp50
 70
     1
102
RTVSPost2010Prop51ColorIndex
 90
      256
102
RTVSPost2010Prop51ColorRGB
 90
-16777216
102
RTVSPost2010PropOp51
 70
     0
102
RTVSPost2010Prop52
140
1.0
102
RTVSPost2010PropOp52
 70
     0
102
RTVSPost2010Prop53
 90
        2
102
RTVSPost2010PropOp53
 70
     1
102
RTVSPost2010Prop54
  1
strokes_ogs.tif
102
RTVSPost2010PropOp54
 70
     1
102
RTVSPost2010Prop55
280
     0
102
RTVSPost2010PropOp55
 70
     1
102
RTVSPost2010Prop56
140
1.0
102
RTVSPost2010PropOp56
 70
     1
102
RTVSPost2010Prop57
140
1.0
102
RTVSPost2010PropOp57
 70
     1
  0
XRECORD
  5
2CF
102
{ACAD_REACTORS
330
2CE
102
}
330
2CE
100
AcDbXrecord
280
     1
102
RTVSPropertyOp0
 70
     0
102
RTVSPropertyOp1
 70
     0
102
RTVSPropertyOp2
 70
     0
102
RTVSPropertyOp3
 70
     0
102
RTVSPropertyOp4
 70
     0
102
RTVSPropertyOp5
 70
     0
102
RTVSPropertyOp6
 70
     0
102
RTVSPropertyOp7
 70
     0
102
RTVSPropertyOp8
 70
     0
102
RTVSPropertyOp9
 70
     0
102
RTVSPropertyOp10
 70
     0
102
RTVSPropertyOp11
 70
     0
102
RTVSPropertyOp12
 70
     0
102
RTVSPropertyOp13
 70
     0
102
RTVSPropertyOp14
 70
     2
102
RTVSPropertyOp15
 70
     0
102
RTVSPropertyOp16
 70
     0
102
RTVSPropertyOp17
 70
     0
102
RTVSPropertyOp18
 70
     0
102
RTVSPropertyOp19
 70
     0
102
RTVSPropertyOp20
 70
     0
102
RTVSPropertyOp21
 70
     0
102
RTVSPropertyOp22
 70
     0
102
RTVSPropertyOp23
 70
     0
102
RTVSPropertyOp24
 70
     0
102
RTVSPropertyOp25
 70
     0
102
RTVSPropertyOp26
 70
     0
102
RTVSPropertyOp27
 70
     0
102
RTVSPropertyOp28
 70
     0
102
RTVSPropertyOp29
 70
     0
102
RTVSPropertyOp30
 70
     0
102
RTVSPropertyOp31
 70
     0
102
RTVSPropertyOp32
 70
     0
102
RTVSPropertyOp33
 70
     0
102
RTVSPropertyOp34
 70
     0
102
RTVSPropertyOp35
 70
     0
102
RTVSPropertyOp36
 70
     0
102
RTVSPropertyOp37
 70
     0
102
RTVSPropertyOp38
 70
     0
102
RTVSPropertyOp39
 70
     0
102
RTVSPropertyOp40
 70
     0
102
RTVSPropertyOp41
 70
     0
102
RTVSPropertyOp42
 70
     0
102
RTVSPropertyOp43
 70
     0
102
RTVSPropertyOp44
 70
     0
102
RTVSPropertyOp45
 70
     0
102
RTVSPropertyOp46
 70
     0
102
RTVSPropertyOp47
 70
     0
102
RTVSPropertyOp48
 70
     0
102
RTVSPropertyOp49
 70
     0
102
RTVSPropertyOp50
 70
     0
102
RTVSPropertyOp51
 70
     0
102
RTVSPropertyOp52
 70
     0
102
RTVSPropertyOp53
 70
     0
102
RTVSPropertyOp54
 70
     0
102
RTVSPropertyOp55
 70
     0
102
RTVSPropertyOp56
 70
     0
102
RTVSPropertyOp57
 70
     0
102
RTVSPost2010Prop28
280
     0
102
RTVSPost2010PropOp28
 70
     0
102
RTVSPost2010Prop29
280
     1
102
RTVSPost2010PropOp29
 70
     0
102
RTVSPost2010Prop30
280
     1
102
RTVSPost2010PropOp30
 70
     0
102
RTVSPost2010Prop31
280
     0
102
RTVSPost2010PropOp31
 70
     0
102
RTVSPost2010Prop32
280
     0
102
RTVSPost2010PropOp32
 70
     0
102
RTVSPost2010Prop33
280
     0
102
RTVSPost2010PropOp33
 70
     0
102
RTVSPost2010Prop34
280
     0
102
RTVSPost2010PropOp34
 70
     0
102
RTVSPost2010Prop35
280
     0
102
RTVSPost2010PropOp35
 70
     0
102
RTVSPost2010Prop36
280
     0
102
RTVSPost2010PropOp36
 70
     0
102
RTVSPost2010Prop37
 90
       50
102
RTVSPost2010PropOp37
 70
     0
102
RTVSPost2010Prop38
140
0.0
102
RTVSPost2010PropOp38
 70
     0
102
RTVSPost2010Prop39
140
1.0
102
RTVSPost2010PropOp39
 70
     0
102
RTVSPost2010Prop40
 90
        0
102
RTVSPost2010PropOp40
 70
     0
102
RTVSPost2010Prop41ColorIndex
 90
       18
102
RTVSPost2010Prop41ColorRGB
 90
        0
102
RTVSPost2010PropOp41
 70
     0
102
RTVSPost2010Prop42
 90
       50
102
RTVSPost2010PropOp42
 70
     0
102
RTVSPost2010Prop43
 90
        3
102
RTVSPost2010PropOp43
 70
     0
102
RTVSPost2010Prop44ColorIndex
 90
        5
102
RTVSPost2010Prop44ColorRGB
 90
      255
102
RTVSPost2010PropOp44
 70
     0
102
RTVSPost2010Prop45
280
     0
102
RTVSPost2010PropOp45
 70
     0
102
RTVSPost2010Prop46
 90
       50
102
RTVSPost2010PropOp46
 70
     0
102
RTVSPost2010Prop47
 90
       50
102
RTVSPost2010PropOp47
 70
     0
102
RTVSPost2010Prop48
 90
       50
102
RTVSPost2010PropOp48
 70
     0
102
RTVSPost2010Prop49
280
     0
102
RTVSPost2010PropOp49
 70
     0
102
RTVSPost2010Prop50
 90
       50
102
RTVSPost2010PropOp50
 70
     0
102
RTVSPost2010Prop51ColorIndex
 90
      256
102
RTVSPost2010Prop51ColorRGB
 90
-16777216
102
RTVSPost2010PropOp51
 70
     0
102
RTVSPost2010Prop52
140
1.0
102
RTVSPost2010PropOp52
 70
     0
102
RTVSPost2010Prop53
 90
        2
102
RTVSPost2010PropOp53
 70
     0
102
RTVSPost2010Prop54
  1
strokes_ogs.tif
102
RTVSPost2010PropOp54
 70
     0
102
RTVSPost2010Prop55
280
     0
102
RTVSPost2010PropOp55
 70
     0
102
RTVSPost2010Prop56
140
1.0
102
RTVSPost2010PropOp56
 70
     0
102
RTVSPost2010Prop57
140
1.0
102
RTVSPost2010PropOp57
 70
     0
  0
XRECORD
  5
2C9
102
{ACAD_REACTORS
330
2C8
102
}
330
2C8
100
AcDbXrecord
280
     1
102
RTVSPropertyOp0
 70
     1
102
RTVSPropertyOp1
 70
     1
102
RTVSPropertyOp2
 70
     1
102
RTVSPropertyOp3
 70
     1
102
RTVSPropertyOp4
 70
     1
102
RTVSPropertyOp5
 70
     1
102
RTVSPropertyOp6
 70
     1
102
RTVSPropertyOp7
 70
     1
102
RTVSPropertyOp8
 70
     1
102
RTVSPropertyOp9
 70
     1
102
RTVSPropertyOp10
 70
     1
102
RTVSPropertyOp11
 70
     1
102
RTVSPropertyOp12
 70
     1
102
RTVSPropertyOp13
 70
     1
102
RTVSPropertyOp14
 70
     1
102
RTVSPropertyOp15
 70
     1
102
RTVSPropertyOp16
 70
     1
102
RTVSPropertyOp17
 70
     1
102
RTVSPropertyOp18
 70
     1
102
RTVSPropertyOp19
 70
     1
102
RTVSPropertyOp20
 70
     1
102
RTVSPropertyOp21
 70
     1
102
RTVSPropertyOp22
 70
     1
102
RTVSPropertyOp23
 70
     1
102
RTVSPropertyOp24
 70
     1
102
RTVSPropertyOp25
 70
     1
102
RTVSPropertyOp26
 70
     1
102
RTVSPropertyOp27
 70
     1
102
RTVSPropertyOp28
 70
     1
102
RTVSPropertyOp29
 70
     1
102
RTVSPropertyOp30
 70
     1
102
RTVSPropertyOp31
 70
     1
102
RTVSPropertyOp32
 70
     1
102
RTVSPropertyOp33
 70
     1
102
RTVSPropertyOp34
 70
     1
102
RTVSPropertyOp35
 70
     1
102
RTVSPropertyOp36
 70
     1
102
RTVSPropertyOp37
 70
     1
102
RTVSPropertyOp38
 70
     1
102
RTVSPropertyOp39
 70
     1
102
RTVSPropertyOp40
 70
     1
102
RTVSPropertyOp41
 70
     1
102
RTVSPropertyOp42
 70
     1
102
RTVSPropertyOp43
 70
     1
102
RTVSPropertyOp44
 70
     1
102
RTVSPropertyOp45
 70
     1
102
RTVSPropertyOp46
 70
     1
102
RTVSPropertyOp47
 70
     1
102
RTVSPropertyOp48
 70
     1
102
RTVSPropertyOp49
 70
     1
102
RTVSPropertyOp50
 70
     1
102
RTVSPropertyOp51
 70
     0
102
RTVSPropertyOp52
 70
     0
102
RTVSPropertyOp53
 70
     1
102
RTVSPropertyOp54
 70
     1
102
RTVSPropertyOp55
 70
     1
102
RTVSPropertyOp56
 70
     1
102
RTVSPropertyOp57
 70
     1
102
RTVSPost2010Prop28
280
     0
102
RTVSPost2010PropOp28
 70
     1
102
RTVSPost2010Prop29
280
     1
102
RTVSPost2010PropOp29
 70
     1
102
RTVSPost2010Prop30
280
     1
102
RTVSPost2010PropOp30
 70
     1
102
RTVSPost2010Prop31
280
     0
102
RTVSPost2010PropOp31
 70
     1
102
RTVSPost2010Prop32
280
     0
102
RTVSPost2010PropOp32
 70
     1
102
RTVSPost2010Prop33
280
     0
102
RTVSPost2010PropOp33
 70
     1
102
RTVSPost2010Prop34
280
     0
102
RTVSPost2010PropOp34
 70
     1
102
RTVSPost2010Prop35
280
     0
102
RTVSPost2010PropOp35
 70
     1
102
RTVSPost2010Prop36
280
     0
102
RTVSPost2010PropOp36
 70
     1
102
RTVSPost2010Prop37
 90
       50
102
RTVSPost2010PropOp37
 70
     1
102
RTVSPost2010Prop38
140
0.0
102
RTVSPost2010PropOp38
 70
     1
102
RTVSPost2010Prop39
140
1.0
102
RTVSPost2010PropOp39
 70
     1
102
RTVSPost2010Prop40
 90
        0
102
RTVSPost2010PropOp40
 70
     1
102
RTVSPost2010Prop41ColorIndex
 90
       18
102
RTVSPost2010Prop41ColorRGB
 90
        0
102
RTVSPost2010PropOp41
 70
     1
102
RTVSPost2010Prop42
 90
       50
102
RTVSPost2010PropOp42
 70
     1
102
RTVSPost2010Prop43
 90
        3
102
RTVSPost2010PropOp43
 70
     1
102
RTVSPost2010Prop44ColorIndex
 90
        5
102
RTVSPost2010Prop44ColorRGB
 90
      255
102
RTVSPost2010PropOp44
 70
     1
102
RTVSPost2010Prop45
280
     0
102
RTVSPost2010PropOp45
 70
     1
102
RTVSPost2010Prop46
 90
       50
102
RTVSPost2010PropOp46
 70
     1
102
RTVSPost2010Prop47
 90
       50
102
RTVSPost2010PropOp47
 70
     1
102
RTVSPost2010Prop48
 90
       50
102
RTVSPost2010PropOp48
 70
     1
102
RTVSPost2010Prop49
280
     0
102
RTVSPost2010PropOp49
 70
     1
102
RTVSPost2010Prop50
 90
       50
102
RTVSPost2010PropOp50
 70
     1
102
RTVSPost2010Prop51ColorIndex
 90
      256
102
RTVSPost2010Prop51ColorRGB
 90
-16777216
102
RTVSPost2010PropOp51
 70
     0
102
RTVSPost2010Prop52
140
1.0
102
RTVSPost2010PropOp52
 70
     0
102
RTVSPost2010Prop53
 90
        2
102
RTVSPost2010PropOp53
 70
     1
102
RTVSPost2010Prop54
  1
strokes_ogs.tif
102
RTVSPost2010PropOp54
 70
     1
102
RTVSPost2010Prop55
280
     0
102
RTVSPost2010PropOp55
 70
     1
102
RTVSPost2010Prop56
140
1.0
102
RTVSPost2010PropOp56
 70
     1
102
RTVSPost2010Prop57
140
1.0
102
RTVSPost2010PropOp57
 70
     1
  0
XRECORD
  5
2D1
102
{ACAD_REACTORS
330
2D0
102
}
330
2D0
100
AcDbXrecord
280
     1
102
RTVSPropertyOp0
 70
     0
102
RTVSPropertyOp1
 70
     0
102
RTVSPropertyOp2
 70
     0
102
RTVSPropertyOp3
 70
     0
102
RTVSPropertyOp4
 70
     0
102
RTVSPropertyOp5
 70
     0
102
RTVSPropertyOp6
 70
     0
102
RTVSPropertyOp7
 70
     0
102
RTVSPropertyOp8
 70
     0
102
RTVSPropertyOp9
 70
     0
102
RTVSPropertyOp10
 70
     0
102
RTVSPropertyOp11
 70
     0
102
RTVSPropertyOp12
 70
     0
102
RTVSPropertyOp13
 70
     0
102
RTVSPropertyOp14
 70
     2
102
RTVSPropertyOp15
 70
     0
102
RTVSPropertyOp16
 70
     0
102
RTVSPropertyOp17
 70
     0
102
RTVSPropertyOp18
 70
     0
102
RTVSPropertyOp19
 70
     0
102
RTVSPropertyOp20
 70
     0
102
RTVSPropertyOp21
 70
     0
102
RTVSPropertyOp22
 70
     0
102
RTVSPropertyOp23
 70
     0
102
RTVSPropertyOp24
 70
     0
102
RTVSPropertyOp25
 70
     0
102
RTVSPropertyOp26
 70
     0
102
RTVSPropertyOp27
 70
     0
102
RTVSPropertyOp28
 70
     0
102
RTVSPropertyOp29
 70
     0
102
RTVSPropertyOp30
 70
     0
102
RTVSPropertyOp31
 70
     0
102
RTVSPropertyOp32
 70
     0
102
RTVSPropertyOp33
 70
     0
102
RTVSPropertyOp34
 70
     0
102
RTVSPropertyOp35
 70
     0
102
RTVSPropertyOp36
 70
     0
102
RTVSPropertyOp37
 70
     0
102
RTVSPropertyOp38
 70
     0
102
RTVSPropertyOp39
 70
     0
102
RTVSPropertyOp40
 70
     0
102
RTVSPropertyOp41
 70
     0
102
RTVSPropertyOp42
 70
     0
102
RTVSPropertyOp43
 70
     0
102
RTVSPropertyOp44
 70
     0
102
RTVSPropertyOp45
 70
     0
102
RTVSPropertyOp46
 70
     0
102
RTVSPropertyOp47
 70
     0
102
RTVSPropertyOp48
 70
     0
102
RTVSPropertyOp49
 70
     0
102
RTVSPropertyOp50
 70
     0
102
RTVSPropertyOp51
 70
     0
102
RTVSPropertyOp52
 70
     0
102
RTVSPropertyOp53
 70
     0
102
RTVSPropertyOp54
 70
     0
102
RTVSPropertyOp55
 70
     0
102
RTVSPropertyOp56
 70
     0
102
RTVSPropertyOp57
 70
     0
102
RTVSPost2010Prop28
280
     0
102
RTVSPost2010PropOp28
 70
     0
102
RTVSPost2010Prop29
280
     1
102
RTVSPost2010PropOp29
 70
     0
102
RTVSPost2010Prop30
280
     1
102
RTVSPost2010PropOp30
 70
     0
102
RTVSPost2010Prop31
280
     0
102
RTVSPost2010PropOp31
 70
     0
102
RTVSPost2010Prop32
280
     0
102
RTVSPost2010PropOp32
 70
     0
102
RTVSPost2010Prop33
280
     0
102
RTVSPost2010PropOp33
 70
     0
102
RTVSPost2010Prop34
280
     0
102
RTVSPost2010PropOp34
 70
     0
102
RTVSPost2010Prop35
280
     0
102
RTVSPost2010PropOp35
 70
     0
102
RTVSPost2010Prop36
280
     0
102
RTVSPost2010PropOp36
 70
     0
102
RTVSPost2010Prop37
 90
       50
102
RTVSPost2010PropOp37
 70
     0
102
RTVSPost2010Prop38
140
0.0
102
RTVSPost2010PropOp38
 70
     0
102
RTVSPost2010Prop39
140
1.0
102
RTVSPost2010PropOp39
 70
     0
102
RTVSPost2010Prop40
 90
        0
102
RTVSPost2010PropOp40
 70
     0
102
RTVSPost2010Prop41ColorIndex
 90
       18
102
RTVSPost2010Prop41ColorRGB
 90
        0
102
RTVSPost2010PropOp41
 70
     0
102
RTVSPost2010Prop42
 90
       50
102
RTVSPost2010PropOp42
 70
     0
102
RTVSPost2010Prop43
 90
        3
102
RTVSPost2010PropOp43
 70
     0
102
RTVSPost2010Prop44ColorIndex
 90
        5
102
RTVSPost2010Prop44ColorRGB
 90
      255
102
RTVSPost2010PropOp44
 70
     0
102
RTVSPost2010Prop45
280
     0
102
RTVSPost2010PropOp45
 70
     0
102
RTVSPost2010Prop46
 90
       50
102
RTVSPost2010PropOp46
 70
     0
102
RTVSPost2010Prop47
 90
       50
102
RTVSPost2010PropOp47
 70
     0
102
RTVSPost2010Prop48
 90
       50
102
RTVSPost2010PropOp48
 70
     0
102
RTVSPost2010Prop49
280
     0
102
RTVSPost2010PropOp49
 70
     0
102
RTVSPost2010Prop50
 90
       50
102
RTVSPost2010PropOp50
 70
     0
102
RTVSPost2010Prop51ColorIndex
 90
      256
102
RTVSPost2010Prop51ColorRGB
 90
-16777216
102
RTVSPost2010PropOp51
 70
     0
102
RTVSPost2010Prop52
140
1.0
102
RTVSPost2010PropOp52
 70
     0
102
RTVSPost2010Prop53
 90
        2
102
RTVSPost2010PropOp53
 70
     0
102
RTVSPost2010Prop54
  1
strokes_ogs.tif
102
RTVSPost2010PropOp54
 70
     0
102
RTVSPost2010Prop55
280
     0
102
RTVSPost2010PropOp55
 70
     0
102
RTVSPost2010Prop56
140
1.0
102
RTVSPost2010PropOp56
 70
     0
102
RTVSPost2010Prop57
140
1.0
102
RTVSPost2010PropOp57
 70
     0
  0
XRECORD
  5
2BF
102
{ACAD_REACTORS
330
2BE
102
}
330
2BE
100
AcDbXrecord
280
     1
102
RTVSPropertyOp0
 70
     1
102
RTVSPropertyOp1
 70
     1
102
RTVSPropertyOp2
 70
     1
102
RTVSPropertyOp3
 70
     1
102
RTVSPropertyOp4
 70
     1
102
RTVSPropertyOp5
 70
     1
102
RTVSPropertyOp6
 70
     1
102
RTVSPropertyOp7
 70
     1
102
RTVSPropertyOp8
 70
     1
102
RTVSPropertyOp9
 70
     1
102
RTVSPropertyOp10
 70
     1
102
RTVSPropertyOp11
 70
     1
102
RTVSPropertyOp12
 70
     1
102
RTVSPropertyOp13
 70
     1
102
RTVSPropertyOp14
 70
     1
102
RTVSPropertyOp15
 70
     1
102
RTVSPropertyOp16
 70
     1
102
RTVSPropertyOp17
 70
     1
102
RTVSPropertyOp18
 70
     1
102
RTVSPropertyOp19
 70
     1
102
RTVSPropertyOp20
 70
     1
102
RTVSPropertyOp21
 70
     1
102
RTVSPropertyOp22
 70
     1
102
RTVSPropertyOp23
 70
     1
102
RTVSPropertyOp24
 70
     1
102
RTVSPropertyOp25
 70
     1
102
RTVSPropertyOp26
 70
     1
102
RTVSPropertyOp27
 70
     1
102
RTVSPropertyOp28
 70
     1
102
RTVSPropertyOp29
 70
     1
102
RTVSPropertyOp30
 70
     1
102
RTVSPropertyOp31
 70
     1
102
RTVSPropertyOp32
 70
     1
102
RTVSPropertyOp33
 70
     1
102
RTVSPropertyOp34
 70
     1
102
RTVSPropertyOp35
 70
     1
102
RTVSPropertyOp36
 70
     1
102
RTVSPropertyOp37
 70
     1
102
RTVSPropertyOp38
 70
     1
102
RTVSPropertyOp39
 70
     1
102
RTVSPropertyOp40
 70
     1
102
RTVSPropertyOp41
 70
     1
102
RTVSPropertyOp42
 70
     1
102
RTVSPropertyOp43
 70
     1
102
RTVSPropertyOp44
 70
     1
102
RTVSPropertyOp45
 70
     1
102
RTVSPropertyOp46
 70
     1
102
RTVSPropertyOp47
 70
     1
102
RTVSPropertyOp48
 70
     1
102
RTVSPropertyOp49
 70
     1
102
RTVSPropertyOp50
 70
     1
102
RTVSPropertyOp51
 70
     0
102
RTVSPropertyOp52
 70
     0
102
RTVSPropertyOp53
 70
     1
102
RTVSPropertyOp54
 70
     1
102
RTVSPropertyOp55
 70
     1
102
RTVSPropertyOp56
 70
     1
102
RTVSPropertyOp57
 70
     1
102
RTVSPost2010Prop28
280
     0
102
RTVSPost2010PropOp28
 70
     1
102
RTVSPost2010Prop29
280
     1
102
RTVSPost2010PropOp29
 70
     1
102
RTVSPost2010Prop30
280
     1
102
RTVSPost2010PropOp30
 70
     1
102
RTVSPost2010Prop31
280
     0
102
RTVSPost2010PropOp31
 70
     1
102
RTVSPost2010Prop32
280
     0
102
RTVSPost2010PropOp32
 70
     1
102
RTVSPost2010Prop33
280
     0
102
RTVSPost2010PropOp33
 70
     1
102
RTVSPost2010Prop34
280
     0
102
RTVSPost2010PropOp34
 70
     1
102
RTVSPost2010Prop35
280
     0
102
RTVSPost2010PropOp35
 70
     1
102
RTVSPost2010Prop36
280
     0
102
RTVSPost2010PropOp36
 70
     1
102
RTVSPost2010Prop37
 90
       50
102
RTVSPost2010PropOp37
 70
     1
102
RTVSPost2010Prop38
140
0.0
102
RTVSPost2010PropOp38
 70
     1
102
RTVSPost2010Prop39
140
1.0
102
RTVSPost2010PropOp39
 70
     1
102
RTVSPost2010Prop40
 90
        0
102
RTVSPost2010PropOp40
 70
     1
102
RTVSPost2010Prop41ColorIndex
 90
       18
102
RTVSPost2010Prop41ColorRGB
 90
        0
102
RTVSPost2010PropOp41
 70
     1
102
RTVSPost2010Prop42
 90
       50
102
RTVSPost2010PropOp42
 70
     1
102
RTVSPost2010Prop43
 90
        3
102
RTVSPost2010PropOp43
 70
     1
102
RTVSPost2010Prop44ColorIndex
 90
        5
102
RTVSPost2010Prop44ColorRGB
 90
      255
102
RTVSPost2010PropOp44
 70
     1
102
RTVSPost2010Prop45
280
     0
102
RTVSPost2010PropOp45
 70
     1
102
RTVSPost2010Prop46
 90
       50
102
RTVSPost2010PropOp46
 70
     1
102
RTVSPost2010Prop47
 90
       50
102
RTVSPost2010PropOp47
 70
     1
102
RTVSPost2010Prop48
 90
       50
102
RTVSPost2010PropOp48
 70
     1
102
RTVSPost2010Prop49
280
     0
102
RTVSPost2010PropOp49
 70
     1
102
RTVSPost2010Prop50
 90
       50
102
RTVSPost2010PropOp50
 70
     1
102
RTVSPost2010Prop51ColorIndex
 90
      256
102
RTVSPost2010Prop51ColorRGB
 90
-16777216
102
RTVSPost2010PropOp51
 70
     0
102
RTVSPost2010Prop52
140
1.0
102
RTVSPost2010PropOp52
 70
     0
102
RTVSPost2010Prop53
 90
        2
102
RTVSPost2010PropOp53
 70
     1
102
RTVSPost2010Prop54
  1
strokes_ogs.tif
102
RTVSPost2010PropOp54
 70
     1
102
RTVSPost2010Prop55
280
     0
102
RTVSPost2010PropOp55
 70
     1
102
RTVSPost2010Prop56
140
1.0
102
RTVSPost2010PropOp56
 70
     1
102
RTVSPost2010Prop57
140
1.0
102
RTVSPost2010PropOp57
 70
     1
  0
XRECORD
  5
2DD
102
{ACAD_REACTORS
330
2DC
102
}
330
2DC
100
AcDbXrecord
280
     1
102
RTVSPropertyOp0
 70
     1
102
RTVSPropertyOp1
 70
     1
102
RTVSPropertyOp2
 70
     1
102
RTVSPropertyOp3
 70
     1
102
RTVSPropertyOp4
 70
     1
102
RTVSPropertyOp5
 70
     1
102
RTVSPropertyOp6
 70
     1
102
RTVSPropertyOp7
 70
     1
102
RTVSPropertyOp8
 70
     1
102
RTVSPropertyOp9
 70
     1
102
RTVSPropertyOp10
 70
     1
102
RTVSPropertyOp11
 70
     1
102
RTVSPropertyOp12
 70
     1
102
RTVSPropertyOp13
 70
     1
102
RTVSPropertyOp14
 70
     1
102
RTVSPropertyOp15
 70
     1
102
RTVSPropertyOp16
 70
     1
102
RTVSPropertyOp17
 70
     1
102
RTVSPropertyOp18
 70
     1
102
RTVSPropertyOp19
 70
     1
102
RTVSPropertyOp20
 70
     1
102
RTVSPropertyOp21
 70
     1
102
RTVSPropertyOp22
 70
     1
102
RTVSPropertyOp23
 70
     1
102
RTVSPropertyOp24
 70
     1
102
RTVSPropertyOp25
 70
     1
102
RTVSPropertyOp26
 70
     1
102
RTVSPropertyOp27
 70
     1
102
RTVSPropertyOp28
 70
     1
102
RTVSPropertyOp29
 70
     1
102
RTVSPropertyOp30
 70
     1
102
RTVSPropertyOp31
 70
     1
102
RTVSPropertyOp32
 70
     1
102
RTVSPropertyOp33
 70
     1
102
RTVSPropertyOp34
 70
     1
102
RTVSPropertyOp35
 70
     1
102
RTVSPropertyOp36
 70
     1
102
RTVSPropertyOp37
 70
     1
102
RTVSPropertyOp38
 70
     1
102
RTVSPropertyOp39
 70
     1
102
RTVSPropertyOp40
 70
     1
102
RTVSPropertyOp41
 70
     1
102
RTVSPropertyOp42
 70
     1
102
RTVSPropertyOp43
 70
     1
102
RTVSPropertyOp44
 70
     1
102
RTVSPropertyOp45
 70
     1
102
RTVSPropertyOp46
 70
     1
102
RTVSPropertyOp47
 70
     1
102
RTVSPropertyOp48
 70
     1
102
RTVSPropertyOp49
 70
     1
102
RTVSPropertyOp50
 70
     1
102
RTVSPropertyOp51
 70
     0
102
RTVSPropertyOp52
 70
     0
102
RTVSPropertyOp53
 70
     1
102
RTVSPropertyOp54
 70
     1
102
RTVSPropertyOp55
 70
     1
102
RTVSPropertyOp56
 70
     1
102
RTVSPropertyOp57
 70
     1
102
RTVSPost2010Prop28
280
     0
102
RTVSPost2010PropOp28
 70
     1
102
RTVSPost2010Prop29
280
     1
102
RTVSPost2010PropOp29
 70
     1
102
RTVSPost2010Prop30
280
     1
102
RTVSPost2010PropOp30
 70
     1
102
RTVSPost2010Prop31
280
     0
102
RTVSPost2010PropOp31
 70
     1
102
RTVSPost2010Prop32
280
     0
102
RTVSPost2010PropOp32
 70
     1
102
RTVSPost2010Prop33
280
     0
102
RTVSPost2010PropOp33
 70
     1
102
RTVSPost2010Prop34
280
     0
102
RTVSPost2010PropOp34
 70
     1
102
RTVSPost2010Prop35
280
     0
102
RTVSPost2010PropOp35
 70
     1
102
RTVSPost2010Prop36
280
     0
102
RTVSPost2010PropOp36
 70
     1
102
RTVSPost2010Prop37
 90
       50
102
RTVSPost2010PropOp37
 70
     1
102
RTVSPost2010Prop38
140
0.0
102
RTVSPost2010PropOp38
 70
     1
102
RTVSPost2010Prop39
140
1.0
102
RTVSPost2010PropOp39
 70
     1
102
RTVSPost2010Prop40
 90
        0
102
RTVSPost2010PropOp40
 70
     1
102
RTVSPost2010Prop41ColorIndex
 90
       18
102
RTVSPost2010Prop41ColorRGB
 90
        0
102
RTVSPost2010PropOp41
 70
     1
102
RTVSPost2010Prop42
 90
       50
102
RTVSPost2010PropOp42
 70
     1
102
RTVSPost2010Prop43
 90
        3
102
RTVSPost2010PropOp43
 70
     1
102
RTVSPost2010Prop44ColorIndex
 90
        5
102
RTVSPost2010Prop44ColorRGB
 90
      255
102
RTVSPost2010PropOp44
 70
     1
102
RTVSPost2010Prop45
280
     0
102
RTVSPost2010PropOp45
 70
     1
102
RTVSPost2010Prop46
 90
       50
102
RTVSPost2010PropOp46
 70
     1
102
RTVSPost2010Prop47
 90
       50
102
RTVSPost2010PropOp47
 70
     1
102
RTVSPost2010Prop48
 90
       50
102
RTVSPost2010PropOp48
 70
     1
102
RTVSPost2010Prop49
280
     0
102
RTVSPost2010PropOp49
 70
     1
102
RTVSPost2010Prop50
 90
       50
102
RTVSPost2010PropOp50
 70
     1
102
RTVSPost2010Prop51ColorIndex
 90
      256
102
RTVSPost2010Prop51ColorRGB
 90
-16777216
102
RTVSPost2010PropOp51
 70
     0
102
RTVSPost2010Prop52
140
1.0
102
RTVSPost2010PropOp52
 70
     0
102
RTVSPost2010Prop53
 90
        2
102
RTVSPost2010PropOp53
 70
     1
102
RTVSPost2010Prop54
  1
strokes_ogs.tif
102
RTVSPost2010PropOp54
 70
     1
102
RTVSPost2010Prop55
280
     0
102
RTVSPost2010PropOp55
 70
     1
102
RTVSPost2010Prop56
140
1.0
102
RTVSPost2010PropOp56
 70
     1
102
RTVSPost2010Prop57
140
1.0
102
RTVSPost2010PropOp57
 70
     1
  0
XRECORD
  5
2DB
102
{ACAD_REACTORS
330
2DA
102
}
330
2DA
100
AcDbXrecord
280
     1
102
RTVSPropertyOp0
 70
     1
102
RTVSPropertyOp1
 70
     1
102
RTVSPropertyOp2
 70
     1
102
RTVSPropertyOp3
 70
     1
102
RTVSPropertyOp4
 70
     1
102
RTVSPropertyOp5
 70
     1
102
RTVSPropertyOp6
 70
     1
102
RTVSPropertyOp7
 70
     1
102
RTVSPropertyOp8
 70
     1
102
RTVSPropertyOp9
 70
     1
102
RTVSPropertyOp10
 70
     1
102
RTVSPropertyOp11
 70
     1
102
RTVSPropertyOp12
 70
     1
102
RTVSPropertyOp13
 70
     1
102
RTVSPropertyOp14
 70
     1
102
RTVSPropertyOp15
 70
     1
102
RTVSPropertyOp16
 70
     1
102
RTVSPropertyOp17
 70
     1
102
RTVSPropertyOp18
 70
     1
102
RTVSPropertyOp19
 70
     1
102
RTVSPropertyOp20
 70
     1
102
RTVSPropertyOp21
 70
     1
102
RTVSPropertyOp22
 70
     1
102
RTVSPropertyOp23
 70
     1
102
RTVSPropertyOp24
 70
     1
102
RTVSPropertyOp25
 70
     1
102
RTVSPropertyOp26
 70
     1
102
RTVSPropertyOp27
 70
     1
102
RTVSPropertyOp28
 70
     1
102
RTVSPropertyOp29
 70
     1
102
RTVSPropertyOp30
 70
     1
102
RTVSPropertyOp31
 70
     1
102
RTVSPropertyOp32
 70
     1
102
RTVSPropertyOp33
 70
     1
102
RTVSPropertyOp34
 70
     1
102
RTVSPropertyOp35
 70
     1
102
RTVSPropertyOp36
 70
     1
102
RTVSPropertyOp37
 70
     1
102
RTVSPropertyOp38
 70
     1
102
RTVSPropertyOp39
 70
     1
102
RTVSPropertyOp40
 70
     1
102
RTVSPropertyOp41
 70
     1
102
RTVSPropertyOp42
 70
     1
102
RTVSPropertyOp43
 70
     1
102
RTVSPropertyOp44
 70
     1
102
RTVSPropertyOp45
 70
     1
102
RTVSPropertyOp46
 70
     1
102
RTVSPropertyOp47
 70
     1
102
RTVSPropertyOp48
 70
     1
102
RTVSPropertyOp49
 70
     1
102
RTVSPropertyOp50
 70
     1
102
RTVSPropertyOp51
 70
     0
102
RTVSPropertyOp52
 70
     0
102
RTVSPropertyOp53
 70
     1
102
RTVSPropertyOp54
 70
     1
102
RTVSPropertyOp55
 70
     1
102
RTVSPropertyOp56
 70
     1
102
RTVSPropertyOp57
 70
     1
102
RTVSPost2010Prop28
280
     0
102
RTVSPost2010PropOp28
 70
     1
102
RTVSPost2010Prop29
280
     1
102
RTVSPost2010PropOp29
 70
     1
102
RTVSPost2010Prop30
280
     1
102
RTVSPost2010PropOp30
 70
     1
102
RTVSPost2010Prop31
280
     0
102
RTVSPost2010PropOp31
 70
     1
102
RTVSPost2010Prop32
280
     0
102
RTVSPost2010PropOp32
 70
     1
102
RTVSPost2010Prop33
280
     0
102
RTVSPost2010PropOp33
 70
     1
102
RTVSPost2010Prop34
280
     0
102
RTVSPost2010PropOp34
 70
     1
102
RTVSPost2010Prop35
280
     0
102
RTVSPost2010PropOp35
 70
     1
102
RTVSPost2010Prop36
280
     0
102
RTVSPost2010PropOp36
 70
     1
102
RTVSPost2010Prop37
 90
       50
102
RTVSPost2010PropOp37
 70
     1
102
RTVSPost2010Prop38
140
0.0
102
RTVSPost2010PropOp38
 70
     1
102
RTVSPost2010Prop39
140
1.0
102
RTVSPost2010PropOp39
 70
     1
102
RTVSPost2010Prop40
 90
        0
102
RTVSPost2010PropOp40
 70
     1
102
RTVSPost2010Prop41ColorIndex
 90
       18
102
RTVSPost2010Prop41ColorRGB
 90
        0
102
RTVSPost2010PropOp41
 70
     1
102
RTVSPost2010Prop42
 90
       50
102
RTVSPost2010PropOp42
 70
     1
102
RTVSPost2010Prop43
 90
        3
102
RTVSPost2010PropOp43
 70
     1
102
RTVSPost2010Prop44ColorIndex
 90
        5
102
RTVSPost2010Prop44ColorRGB
 90
      255
102
RTVSPost2010PropOp44
 70
     1
102
RTVSPost2010Prop45
280
     0
102
RTVSPost2010PropOp45
 70
     1
102
RTVSPost2010Prop46
 90
       50
102
RTVSPost2010PropOp46
 70
     1
102
RTVSPost2010Prop47
 90
       50
102
RTVSPost2010PropOp47
 70
     1
102
RTVSPost2010Prop48
 90
       50
102
RTVSPost2010PropOp48
 70
     1
102
RTVSPost2010Prop49
280
     0
102
RTVSPost2010PropOp49
 70
     1
102
RTVSPost2010Prop50
 90
       50
102
RTVSPost2010PropOp50
 70
     1
102
RTVSPost2010Prop51ColorIndex
 90
      256
102
RTVSPost2010Prop51ColorRGB
 90
-16777216
102
RTVSPost2010PropOp51
 70
     0
102
RTVSPost2010Prop52
140
1.0
102
RTVSPost2010PropOp52
 70
     0
102
RTVSPost2010Prop53
 90
        2
102
RTVSPost2010PropOp53
 70
     1
102
RTVSPost2010Prop54
  1
strokes_ogs.tif
102
RTVSPost2010PropOp54
 70
     1
102
RTVSPost2010Prop55
280
     0
102
RTVSPost2010PropOp55
 70
     1
102
RTVSPost2010Prop56
140
1.0
102
RTVSPost2010PropOp56
 70
     1
102
RTVSPost2010Prop57
140
1.0
102
RTVSPost2010PropOp57
 70
     1
  0
XRECORD
  5
2D5
102
{ACAD_REACTORS
330
2D4
102
}
330
2D4
100
AcDbXrecord
280
     1
102
RTVSPropertyOp0
 70
     1
102
RTVSPropertyOp1
 70
     1
102
RTVSPropertyOp2
 70
     1
102
RTVSPropertyOp3
 70
     1
102
RTVSPropertyOp4
 70
     1
102
RTVSPropertyOp5
 70
     1
102
RTVSPropertyOp6
 70
     1
102
RTVSPropertyOp7
 70
     1
102
RTVSPropertyOp8
 70
     1
102
RTVSPropertyOp9
 70
     1
102
RTVSPropertyOp10
 70
     1
102
RTVSPropertyOp11
 70
     1
102
RTVSPropertyOp12
 70
     1
102
RTVSPropertyOp13
 70
     1
102
RTVSPropertyOp14
 70
     1
102
RTVSPropertyOp15
 70
     1
102
RTVSPropertyOp16
 70
     1
102
RTVSPropertyOp17
 70
     1
102
RTVSPropertyOp18
 70
     1
102
RTVSPropertyOp19
 70
     1
102
RTVSPropertyOp20
 70
     1
102
RTVSPropertyOp21
 70
     1
102
RTVSPropertyOp22
 70
     1
102
RTVSPropertyOp23
 70
     1
102
RTVSPropertyOp24
 70
     1
102
RTVSPropertyOp25
 70
     1
102
RTVSPropertyOp26
 70
     1
102
RTVSPropertyOp27
 70
     1
102
RTVSPropertyOp28
 70
     1
102
RTVSPropertyOp29
 70
     1
102
RTVSPropertyOp30
 70
     1
102
RTVSPropertyOp31
 70
     1
102
RTVSPropertyOp32
 70
     1
102
RTVSPropertyOp33
 70
     1
102
RTVSPropertyOp34
 70
     1
102
RTVSPropertyOp35
 70
     1
102
RTVSPropertyOp36
 70
     1
102
RTVSPropertyOp37
 70
     1
102
RTVSPropertyOp38
 70
     1
102
RTVSPropertyOp39
 70
     1
102
RTVSPropertyOp40
 70
     1
102
RTVSPropertyOp41
 70
     1
102
RTVSPropertyOp42
 70
     1
102
RTVSPropertyOp43
 70
     1
102
RTVSPropertyOp44
 70
     1
102
RTVSPropertyOp45
 70
     1
102
RTVSPropertyOp46
 70
     1
102
RTVSPropertyOp47
 70
     1
102
RTVSPropertyOp48
 70
     1
102
RTVSPropertyOp49
 70
     1
102
RTVSPropertyOp50
 70
     1
102
RTVSPropertyOp51
 70
     0
102
RTVSPropertyOp52
 70
     0
102
RTVSPropertyOp53
 70
     1
102
RTVSPropertyOp54
 70
     1
102
RTVSPropertyOp55
 70
     1
102
RTVSPropertyOp56
 70
     1
102
RTVSPropertyOp57
 70
     1
102
RTVSPost2010Prop28
280
     0
102
RTVSPost2010PropOp28
 70
     1
102
RTVSPost2010Prop29
280
     1
102
RTVSPost2010PropOp29
 70
     1
102
RTVSPost2010Prop30
280
     1
102
RTVSPost2010PropOp30
 70
     1
102
RTVSPost2010Prop31
280
     0
102
RTVSPost2010PropOp31
 70
     1
102
RTVSPost2010Prop32
280
     0
102
RTVSPost2010PropOp32
 70
     1
102
RTVSPost2010Prop33
280
     0
102
RTVSPost2010PropOp33
 70
     1
102
RTVSPost2010Prop34
280
     0
102
RTVSPost2010PropOp34
 70
     1
102
RTVSPost2010Prop35
280
     0
102
RTVSPost2010PropOp35
 70
     1
102
RTVSPost2010Prop36
280
     0
102
RTVSPost2010PropOp36
 70
     1
102
RTVSPost2010Prop37
 90
       50
102
RTVSPost2010PropOp37
 70
     1
102
RTVSPost2010Prop38
140
0.0
102
RTVSPost2010PropOp38
 70
     1
102
RTVSPost2010Prop39
140
1.0
102
RTVSPost2010PropOp39
 70
     1
102
RTVSPost2010Prop40
 90
        0
102
RTVSPost2010PropOp40
 70
     1
102
RTVSPost2010Prop41ColorIndex
 90
       18
102
RTVSPost2010Prop41ColorRGB
 90
        0
102
RTVSPost2010PropOp41
 70
     1
102
RTVSPost2010Prop42
 90
       50
102
RTVSPost2010PropOp42
 70
     1
102
RTVSPost2010Prop43
 90
        3
102
RTVSPost2010PropOp43
 70
     1
102
RTVSPost2010Prop44ColorIndex
 90
        5
102
RTVSPost2010Prop44ColorRGB
 90
      255
102
RTVSPost2010PropOp44
 70
     1
102
RTVSPost2010Prop45
280
     0
102
RTVSPost2010PropOp45
 70
     1
102
RTVSPost2010Prop46
 90
       50
102
RTVSPost2010PropOp46
 70
     1
102
RTVSPost2010Prop47
 90
       50
102
RTVSPost2010PropOp47
 70
     1
102
RTVSPost2010Prop48
 90
       50
102
RTVSPost2010PropOp48
 70
     1
102
RTVSPost2010Prop49
280
     0
102
RTVSPost2010PropOp49
 70
     1
102
RTVSPost2010Prop50
 90
       50
102
RTVSPost2010PropOp50
 70
     1
102
RTVSPost2010Prop51ColorIndex
 90
      256
102
RTVSPost2010Prop51ColorRGB
 90
-16777216
102
RTVSPost2010PropOp51
 70
     0
102
RTVSPost2010Prop52
140
1.0
102
RTVSPost2010PropOp52
 70
     0
102
RTVSPost2010Prop53
 90
        2
102
RTVSPost2010PropOp53
 70
     1
102
RTVSPost2010Prop54
  1
strokes_ogs.tif
102
RTVSPost2010PropOp54
 70
     1
102
RTVSPost2010Prop55
280
     0
102
RTVSPost2010PropOp55
 70
     1
102
RTVSPost2010Prop56
140
1.0
102
RTVSPost2010PropOp56
 70
     1
102
RTVSPost2010Prop57
140
1.0
102
RTVSPost2010PropOp57
 70
     1
  0
XRECORD
  5
2D7
102
{ACAD_REACTORS
330
2D6
102
}
330
2D6
100
AcDbXrecord
280
     1
102
RTVSPropertyOp0
 70
     1
102
RTVSPropertyOp1
 70
     1
102
RTVSPropertyOp2
 70
     1
102
RTVSPropertyOp3
 70
     1
102
RTVSPropertyOp4
 70
     1
102
RTVSPropertyOp5
 70
     1
102
RTVSPropertyOp6
 70
     1
102
RTVSPropertyOp7
 70
     1
102
RTVSPropertyOp8
 70
     1
102
RTVSPropertyOp9
 70
     1
102
RTVSPropertyOp10
 70
     1
102
RTVSPropertyOp11
 70
     1
102
RTVSPropertyOp12
 70
     1
102
RTVSPropertyOp13
 70
     1
102
RTVSPropertyOp14
 70
     1
102
RTVSPropertyOp15
 70
     1
102
RTVSPropertyOp16
 70
     1
102
RTVSPropertyOp17
 70
     1
102
RTVSPropertyOp18
 70
     1
102
RTVSPropertyOp19
 70
     1
102
RTVSPropertyOp20
 70
     1
102
RTVSPropertyOp21
 70
     1
102
RTVSPropertyOp22
 70
     1
102
RTVSPropertyOp23
 70
     1
102
RTVSPropertyOp24
 70
     1
102
RTVSPropertyOp25
 70
     1
102
RTVSPropertyOp26
 70
     1
102
RTVSPropertyOp27
 70
     1
102
RTVSPropertyOp28
 70
     1
102
RTVSPropertyOp29
 70
     1
102
RTVSPropertyOp30
 70
     1
102
RTVSPropertyOp31
 70
     1
102
RTVSPropertyOp32
 70
     1
102
RTVSPropertyOp33
 70
     1
102
RTVSPropertyOp34
 70
     1
102
RTVSPropertyOp35
 70
     1
102
RTVSPropertyOp36
 70
     1
102
RTVSPropertyOp37
 70
     1
102
RTVSPropertyOp38
 70
     1
102
RTVSPropertyOp39
 70
     1
102
RTVSPropertyOp40
 70
     1
102
RTVSPropertyOp41
 70
     1
102
RTVSPropertyOp42
 70
     1
102
RTVSPropertyOp43
 70
     1
102
RTVSPropertyOp44
 70
     1
102
RTVSPropertyOp45
 70
     1
102
RTVSPropertyOp46
 70
     1
102
RTVSPropertyOp47
 70
     1
102
RTVSPropertyOp48
 70
     1
102
RTVSPropertyOp49
 70
     1
102
RTVSPropertyOp50
 70
     1
102
RTVSPropertyOp51
 70
     0
102
RTVSPropertyOp52
 70
     0
102
RTVSPropertyOp53
 70
     1
102
RTVSPropertyOp54
 70
     1
102
RTVSPropertyOp55
 70
     1
102
RTVSPropertyOp56
 70
     1
102
RTVSPropertyOp57
 70
     1
102
RTVSPost2010Prop28
280
     0
102
RTVSPost2010PropOp28
 70
     1
102
RTVSPost2010Prop29
280
     1
102
RTVSPost2010PropOp29
 70
     1
102
RTVSPost2010Prop30
280
     1
102
RTVSPost2010PropOp30
 70
     1
102
RTVSPost2010Prop31
280
     0
102
RTVSPost2010PropOp31
 70
     1
102
RTVSPost2010Prop32
280
     0
102
RTVSPost2010PropOp32
 70
     1
102
RTVSPost2010Prop33
280
     0
102
RTVSPost2010PropOp33
 70
     1
102
RTVSPost2010Prop34
280
     0
102
RTVSPost2010PropOp34
 70
     1
102
RTVSPost2010Prop35
280
     0
102
RTVSPost2010PropOp35
 70
     1
102
RTVSPost2010Prop36
280
     0
102
RTVSPost2010PropOp36
 70
     1
102
RTVSPost2010Prop37
 90
       50
102
RTVSPost2010PropOp37
 70
     1
102
RTVSPost2010Prop38
140
0.0
102
RTVSPost2010PropOp38
 70
     1
102
RTVSPost2010Prop39
140
1.0
102
RTVSPost2010PropOp39
 70
     1
102
RTVSPost2010Prop40
 90
        0
102
RTVSPost2010PropOp40
 70
     1
102
RTVSPost2010Prop41ColorIndex
 90
       18
102
RTVSPost2010Prop41ColorRGB
 90
        0
102
RTVSPost2010PropOp41
 70
     1
102
RTVSPost2010Prop42
 90
       50
102
RTVSPost2010PropOp42
 70
     1
102
RTVSPost2010Prop43
 90
        3
102
RTVSPost2010PropOp43
 70
     1
102
RTVSPost2010Prop44ColorIndex
 90
        5
102
RTVSPost2010Prop44ColorRGB
 90
      255
102
RTVSPost2010PropOp44
 70
     1
102
RTVSPost2010Prop45
280
     0
102
RTVSPost2010PropOp45
 70
     1
102
RTVSPost2010Prop46
 90
       50
102
RTVSPost2010PropOp46
 70
     1
102
RTVSPost2010Prop47
 90
       50
102
RTVSPost2010PropOp47
 70
     1
102
RTVSPost2010Prop48
 90
       50
102
RTVSPost2010PropOp48
 70
     1
102
RTVSPost2010Prop49
280
     0
102
RTVSPost2010PropOp49
 70
     1
102
RTVSPost2010Prop50
 90
       50
102
RTVSPost2010PropOp50
 70
     1
102
RTVSPost2010Prop51ColorIndex
 90
      256
102
RTVSPost2010Prop51ColorRGB
 90
-16777216
102
RTVSPost2010PropOp51
 70
     0
102
RTVSPost2010Prop52
140
1.0
102
RTVSPost2010PropOp52
 70
     0
102
RTVSPost2010Prop53
 90
        2
102
RTVSPost2010PropOp53
 70
     1
102
RTVSPost2010Prop54
  1
strokes_ogs.tif
102
RTVSPost2010PropOp54
 70
     1
102
RTVSPost2010Prop55
280
     0
102
RTVSPost2010PropOp55
 70
     1
102
RTVSPost2010Prop56
140
1.0
102
RTVSPost2010PropOp56
 70
     1
102
RTVSPost2010Prop57
140
1.0
102
RTVSPost2010PropOp57
 70
     1
  0
XRECORD
  5
2C7
102
{ACAD_REACTORS
330
2C6
102
}
330
2C6
100
AcDbXrecord
280
     1
102
RTVSPropertyOp0
 70
     1
102
RTVSPropertyOp1
 70
     1
102
RTVSPropertyOp2
 70
     1
102
RTVSPropertyOp3
 70
     1
102
RTVSPropertyOp4
 70
     1
102
RTVSPropertyOp5
 70
     1
102
RTVSPropertyOp6
 70
     1
102
RTVSPropertyOp7
 70
     1
102
RTVSPropertyOp8
 70
     1
102
RTVSPropertyOp9
 70
     1
102
RTVSPropertyOp10
 70
     1
102
RTVSPropertyOp11
 70
     1
102
RTVSPropertyOp12
 70
     1
102
RTVSPropertyOp13
 70
     1
102
RTVSPropertyOp14
 70
     1
102
RTVSPropertyOp15
 70
     1
102
RTVSPropertyOp16
 70
     1
102
RTVSPropertyOp17
 70
     1
102
RTVSPropertyOp18
 70
     1
102
RTVSPropertyOp19
 70
     1
102
RTVSPropertyOp20
 70
     1
102
RTVSPropertyOp21
 70
     1
102
RTVSPropertyOp22
 70
     1
102
RTVSPropertyOp23
 70
     1
102
RTVSPropertyOp24
 70
     1
102
RTVSPropertyOp25
 70
     1
102
RTVSPropertyOp26
 70
     1
102
RTVSPropertyOp27
 70
     1
102
RTVSPropertyOp28
 70
     1
102
RTVSPropertyOp29
 70
     1
102
RTVSPropertyOp30
 70
     1
102
RTVSPropertyOp31
 70
     1
102
RTVSPropertyOp32
 70
     1
102
RTVSPropertyOp33
 70
     1
102
RTVSPropertyOp34
 70
     1
102
RTVSPropertyOp35
 70
     1
102
RTVSPropertyOp36
 70
     1
102
RTVSPropertyOp37
 70
     1
102
RTVSPropertyOp38
 70
     1
102
RTVSPropertyOp39
 70
     1
102
RTVSPropertyOp40
 70
     1
102
RTVSPropertyOp41
 70
     1
102
RTVSPropertyOp42
 70
     1
102
RTVSPropertyOp43
 70
     1
102
RTVSPropertyOp44
 70
     1
102
RTVSPropertyOp45
 70
     1
102
RTVSPropertyOp46
 70
     1
102
RTVSPropertyOp47
 70
     1
102
RTVSPropertyOp48
 70
     1
102
RTVSPropertyOp49
 70
     1
102
RTVSPropertyOp50
 70
     1
102
RTVSPropertyOp51
 70
     0
102
RTVSPropertyOp52
 70
     0
102
RTVSPropertyOp53
 70
     1
102
RTVSPropertyOp54
 70
     1
102
RTVSPropertyOp55
 70
     1
102
RTVSPropertyOp56
 70
     1
102
RTVSPropertyOp57
 70
     1
102
RTVSPost2010Prop28
280
     0
102
RTVSPost2010PropOp28
 70
     1
102
RTVSPost2010Prop29
280
     1
102
RTVSPost2010PropOp29
 70
     1
102
RTVSPost2010Prop30
280
     1
102
RTVSPost2010PropOp30
 70
     1
102
RTVSPost2010Prop31
280
     0
102
RTVSPost2010PropOp31
 70
     1
102
RTVSPost2010Prop32
280
     0
102
RTVSPost2010PropOp32
 70
     1
102
RTVSPost2010Prop33
280
     0
102
RTVSPost2010PropOp33
 70
     1
102
RTVSPost2010Prop34
280
     0
102
RTVSPost2010PropOp34
 70
     1
102
RTVSPost2010Prop35
280
     0
102
RTVSPost2010PropOp35
 70
     1
102
RTVSPost2010Prop36
280
     0
102
RTVSPost2010PropOp36
 70
     1
102
RTVSPost2010Prop37
 90
       50
102
RTVSPost2010PropOp37
 70
     1
102
RTVSPost2010Prop38
140
0.0
102
RTVSPost2010PropOp38
 70
     1
102
RTVSPost2010Prop39
140
1.0
102
RTVSPost2010PropOp39
 70
     1
102
RTVSPost2010Prop40
 90
        0
102
RTVSPost2010PropOp40
 70
     1
102
RTVSPost2010Prop41ColorIndex
 90
       18
102
RTVSPost2010Prop41ColorRGB
 90
        0
102
RTVSPost2010PropOp41
 70
     1
102
RTVSPost2010Prop42
 90
       50
102
RTVSPost2010PropOp42
 70
     1
102
RTVSPost2010Prop43
 90
        3
102
RTVSPost2010PropOp43
 70
     1
102
RTVSPost2010Prop44ColorIndex
 90
        5
102
RTVSPost2010Prop44ColorRGB
 90
      255
102
RTVSPost2010PropOp44
 70
     1
102
RTVSPost2010Prop45
280
     0
102
RTVSPost2010PropOp45
 70
     1
102
RTVSPost2010Prop46
 90
       50
102
RTVSPost2010PropOp46
 70
     1
102
RTVSPost2010Prop47
 90
       50
102
RTVSPost2010PropOp47
 70
     1
102
RTVSPost2010Prop48
 90
       50
102
RTVSPost2010PropOp48
 70
     1
102
RTVSPost2010Prop49
280
     0
102
RTVSPost2010PropOp49
 70
     1
102
RTVSPost2010Prop50
 90
       50
102
RTVSPost2010PropOp50
 70
     1
102
RTVSPost2010Prop51ColorIndex
 90
      256
102
RTVSPost2010Prop51ColorRGB
 90
-16777216
102
RTVSPost2010PropOp51
 70
     0
102
RTVSPost2010Prop52
140
1.0
102
RTVSPost2010PropOp52
 70
     0
102
RTVSPost2010Prop53
 90
        2
102
RTVSPost2010PropOp53
 70
     1
102
RTVSPost2010Prop54
  1
strokes_ogs.tif
102
RTVSPost2010PropOp54
 70
     1
102
RTVSPost2010Prop55
280
     0
102
RTVSPost2010PropOp55
 70
     1
102
RTVSPost2010Prop56
140
1.0
102
RTVSPost2010PropOp56
 70
     1
102
RTVSPost2010Prop57
140
1.0
102
RTVSPost2010PropOp57
 70
     1
  0
XRECORD
  5
2B9
102
{ACAD_REACTORS
330
2B8
102
}
330
2B8
100
AcDbXrecord
280
     1
102
RTVSPropertyOp0
 70
     1
102
RTVSPropertyOp1
 70
     1
102
RTVSPropertyOp2
 70
     1
102
RTVSPropertyOp3
 70
     1
102
RTVSPropertyOp4
 70
     1
102
RTVSPropertyOp5
 70
     1
102
RTVSPropertyOp6
 70
     1
102
RTVSPropertyOp7
 70
     1
102
RTVSPropertyOp8
 70
     1
102
RTVSPropertyOp9
 70
     1
102
RTVSPropertyOp10
 70
     1
102
RTVSPropertyOp11
 70
     1
102
RTVSPropertyOp12
 70
     1
102
RTVSPropertyOp13
 70
     1
102
RTVSPropertyOp14
 70
     1
102
RTVSPropertyOp15
 70
     1
102
RTVSPropertyOp16
 70
     1
102
RTVSPropertyOp17
 70
     1
102
RTVSPropertyOp18
 70
     1
102
RTVSPropertyOp19
 70
     1
102
RTVSPropertyOp20
 70
     1
102
RTVSPropertyOp21
 70
     1
102
RTVSPropertyOp22
 70
     1
102
RTVSPropertyOp23
 70
     1
102
RTVSPropertyOp24
 70
     1
102
RTVSPropertyOp25
 70
     1
102
RTVSPropertyOp26
 70
     1
102
RTVSPropertyOp27
 70
     1
102
RTVSPropertyOp28
 70
     1
102
RTVSPropertyOp29
 70
     1
102
RTVSPropertyOp30
 70
     1
102
RTVSPropertyOp31
 70
     1
102
RTVSPropertyOp32
 70
     1
102
RTVSPropertyOp33
 70
     1
102
RTVSPropertyOp34
 70
     1
102
RTVSPropertyOp35
 70
     1
102
RTVSPropertyOp36
 70
     1
102
RTVSPropertyOp37
 70
     1
102
RTVSPropertyOp38
 70
     1
102
RTVSPropertyOp39
 70
     1
102
RTVSPropertyOp40
 70
     1
102
RTVSPropertyOp41
 70
     1
102
RTVSPropertyOp42
 70
     1
102
RTVSPropertyOp43
 70
     1
102
RTVSPropertyOp44
 70
     1
102
RTVSPropertyOp45
 70
     1
102
RTVSPropertyOp46
 70
     1
102
RTVSPropertyOp47
 70
     1
102
RTVSPropertyOp48
 70
     1
102
RTVSPropertyOp49
 70
     1
102
RTVSPropertyOp50
 70
     1
102
RTVSPropertyOp51
 70
     0
102
RTVSPropertyOp52
 70
     0
102
RTVSPropertyOp53
 70
     1
102
RTVSPropertyOp54
 70
     1
102
RTVSPropertyOp55
 70
     1
102
RTVSPropertyOp56
 70
     1
102
RTVSPropertyOp57
 70
     1
102
RTVSPost2010Prop28
280
     0
102
RTVSPost2010PropOp28
 70
     1
102
RTVSPost2010Prop29
280
     1
102
RTVSPost2010PropOp29
 70
     1
102
RTVSPost2010Prop30
280
     1
102
RTVSPost2010PropOp30
 70
     1
102
RTVSPost2010Prop31
280
     0
102
RTVSPost2010PropOp31
 70
     1
102
RTVSPost2010Prop32
280
     0
102
RTVSPost2010PropOp32
 70
     1
102
RTVSPost2010Prop33
280
     0
102
RTVSPost2010PropOp33
 70
     1
102
RTVSPost2010Prop34
280
     0
102
RTVSPost2010PropOp34
 70
     1
102
RTVSPost2010Prop35
280
     0
102
RTVSPost2010PropOp35
 70
     1
102
RTVSPost2010Prop36
280
     0
102
RTVSPost2010PropOp36
 70
     1
102
RTVSPost2010Prop37
 90
       50
102
RTVSPost2010PropOp37
 70
     1
102
RTVSPost2010Prop38
140
0.0
102
RTVSPost2010PropOp38
 70
     1
102
RTVSPost2010Prop39
140
1.0
102
RTVSPost2010PropOp39
 70
     1
102
RTVSPost2010Prop40
 90
        0
102
RTVSPost2010PropOp40
 70
     1
102
RTVSPost2010Prop41ColorIndex
 90
       18
102
RTVSPost2010Prop41ColorRGB
 90
        0
102
RTVSPost2010PropOp41
 70
     1
102
RTVSPost2010Prop42
 90
       50
102
RTVSPost2010PropOp42
 70
     1
102
RTVSPost2010Prop43
 90
        3
102
RTVSPost2010PropOp43
 70
     1
102
RTVSPost2010Prop44ColorIndex
 90
        5
102
RTVSPost2010Prop44ColorRGB
 90
      255
102
RTVSPost2010PropOp44
 70
     1
102
RTVSPost2010Prop45
280
     0
102
RTVSPost2010PropOp45
 70
     1
102
RTVSPost2010Prop46
 90
       50
102
RTVSPost2010PropOp46
 70
     1
102
RTVSPost2010Prop47
 90
       50
102
RTVSPost2010PropOp47
 70
     1
102
RTVSPost2010Prop48
 90
       50
102
RTVSPost2010PropOp48
 70
     1
102
RTVSPost2010Prop49
280
     0
102
RTVSPost2010PropOp49
 70
     1
102
RTVSPost2010Prop50
 90
       50
102
RTVSPost2010PropOp50
 70
     1
102
RTVSPost2010Prop51ColorIndex
 90
      256
102
RTVSPost2010Prop51ColorRGB
 90
-16777216
102
RTVSPost2010PropOp51
 70
     0
102
RTVSPost2010Prop52
140
1.0
102
RTVSPost2010PropOp52
 70
     0
102
RTVSPost2010Prop53
 90
        2
102
RTVSPost2010PropOp53
 70
     1
102
RTVSPost2010Prop54
  1
strokes_ogs.tif
102
RTVSPost2010PropOp54
 70
     1
102
RTVSPost2010Prop55
280
     0
102
RTVSPost2010PropOp55
 70
     1
102
RTVSPost2010Prop56
140
1.0
102
RTVSPost2010PropOp56
 70
     1
102
RTVSPost2010Prop57
140
1.0
102
RTVSPost2010PropOp57
 70
     1
  0
XRECORD
  5
2D9
102
{ACAD_REACTORS
330
2D8
102
}
330
2D8
100
AcDbXrecord
280
     1
102
RTVSPropertyOp0
 70
     1
102
RTVSPropertyOp1
 70
     1
102
RTVSPropertyOp2
 70
     1
102
RTVSPropertyOp3
 70
     1
102
RTVSPropertyOp4
 70
     1
102
RTVSPropertyOp5
 70
     1
102
RTVSPropertyOp6
 70
     1
102
RTVSPropertyOp7
 70
     1
102
RTVSPropertyOp8
 70
     1
102
RTVSPropertyOp9
 70
     1
102
RTVSPropertyOp10
 70
     1
102
RTVSPropertyOp11
 70
     1
102
RTVSPropertyOp12
 70
     1
102
RTVSPropertyOp13
 70
     1
102
RTVSPropertyOp14
 70
     1
102
RTVSPropertyOp15
 70
     1
102
RTVSPropertyOp16
 70
     1
102
RTVSPropertyOp17
 70
     1
102
RTVSPropertyOp18
 70
     1
102
RTVSPropertyOp19
 70
     1
102
RTVSPropertyOp20
 70
     1
102
RTVSPropertyOp21
 70
     1
102
RTVSPropertyOp22
 70
     1
102
RTVSPropertyOp23
 70
     1
102
RTVSPropertyOp24
 70
     1
102
RTVSPropertyOp25
 70
     1
102
RTVSPropertyOp26
 70
     1
102
RTVSPropertyOp27
 70
     1
102
RTVSPropertyOp28
 70
     1
102
RTVSPropertyOp29
 70
     1
102
RTVSPropertyOp30
 70
     1
102
RTVSPropertyOp31
 70
     1
102
RTVSPropertyOp32
 70
     1
102
RTVSPropertyOp33
 70
     1
102
RTVSPropertyOp34
 70
     1
102
RTVSPropertyOp35
 70
     1
102
RTVSPropertyOp36
 70
     1
102
RTVSPropertyOp37
 70
     1
102
RTVSPropertyOp38
 70
     1
102
RTVSPropertyOp39
 70
     1
102
RTVSPropertyOp40
 70
     1
102
RTVSPropertyOp41
 70
     1
102
RTVSPropertyOp42
 70
     1
102
RTVSPropertyOp43
 70
     1
102
RTVSPropertyOp44
 70
     1
102
RTVSPropertyOp45
 70
     1
102
RTVSPropertyOp46
 70
     1
102
RTVSPropertyOp47
 70
     1
102
RTVSPropertyOp48
 70
     1
102
RTVSPropertyOp49
 70
     1
102
RTVSPropertyOp50
 70
     1
102
RTVSPropertyOp51
 70
     0
102
RTVSPropertyOp52
 70
     0
102
RTVSPropertyOp53
 70
     1
102
RTVSPropertyOp54
 70
     1
102
RTVSPropertyOp55
 70
     1
102
RTVSPropertyOp56
 70
     1
102
RTVSPropertyOp57
 70
     1
102
RTVSPost2010Prop28
280
     0
102
RTVSPost2010PropOp28
 70
     1
102
RTVSPost2010Prop29
280
     1
102
RTVSPost2010PropOp29
 70
     1
102
RTVSPost2010Prop30
280
     1
102
RTVSPost2010PropOp30
 70
     1
102
RTVSPost2010Prop31
280
     0
102
RTVSPost2010PropOp31
 70
     1
102
RTVSPost2010Prop32
280
     0
102
RTVSPost2010PropOp32
 70
     1
102
RTVSPost2010Prop33
280
     0
102
RTVSPost2010PropOp33
 70
     1
102
RTVSPost2010Prop34
280
     0
102
RTVSPost2010PropOp34
 70
     1
102
RTVSPost2010Prop35
280
     0
102
RTVSPost2010PropOp35
 70
     1
102
RTVSPost2010Prop36
280
     0
102
RTVSPost2010PropOp36
 70
     1
102
RTVSPost2010Prop37
 90
       50
102
RTVSPost2010PropOp37
 70
     1
102
RTVSPost2010Prop38
140
0.0
102
RTVSPost2010PropOp38
 70
     1
102
RTVSPost2010Prop39
140
1.0
102
RTVSPost2010PropOp39
 70
     1
102
RTVSPost2010Prop40
 90
        0
102
RTVSPost2010PropOp40
 70
     1
102
RTVSPost2010Prop41ColorIndex
 90
       18
102
RTVSPost2010Prop41ColorRGB
 90
        0
102
RTVSPost2010PropOp41
 70
     1
102
RTVSPost2010Prop42
 90
       50
102
RTVSPost2010PropOp42
 70
     1
102
RTVSPost2010Prop43
 90
        3
102
RTVSPost2010PropOp43
 70
     1
102
RTVSPost2010Prop44ColorIndex
 90
        5
102
RTVSPost2010Prop44ColorRGB
 90
      255
102
RTVSPost2010PropOp44
 70
     1
102
RTVSPost2010Prop45
280
     0
102
RTVSPost2010PropOp45
 70
     1
102
RTVSPost2010Prop46
 90
       50
102
RTVSPost2010PropOp46
 70
     1
102
RTVSPost2010Prop47
 90
       50
102
RTVSPost2010PropOp47
 70
     1
102
RTVSPost2010Prop48
 90
       50
102
RTVSPost2010PropOp48
 70
     1
102
RTVSPost2010Prop49
280
     0
102
RTVSPost2010PropOp49
 70
     1
102
RTVSPost2010Prop50
 90
       50
102
RTVSPost2010PropOp50
 70
     1
102
RTVSPost2010Prop51ColorIndex
 90
      256
102
RTVSPost2010Prop51ColorRGB
 90
-16777216
102
RTVSPost2010PropOp51
 70
     0
102
RTVSPost2010Prop52
140
1.0
102
RTVSPost2010PropOp52
 70
     0
102
RTVSPost2010Prop53
 90
        2
102
RTVSPost2010PropOp53
 70
     1
102
RTVSPost2010Prop54
  1
strokes_ogs.tif
102
RTVSPost2010PropOp54
 70
     1
102
RTVSPost2010Prop55
280
     0
102
RTVSPost2010PropOp55
 70
     1
102
RTVSPost2010Prop56
140
1.0
102
RTVSPost2010PropOp56
 70
     1
102
RTVSPost2010Prop57
140
1.0
102
RTVSPost2010PropOp57
 70
     1
  0
ENDSEC
  0
EOF
