  0
SECTION
  2
HEADER
  9
$ACADVER
  1
AC1018
  9
$ACADMAINTVER
 70
     0
  9
$DWGCODEPAGE
  3
ANSI_1252
  9
$INSBASE
 10
0.0
 20
0.0
 30
0.0
  9
$EXTMIN
 10
-403.5059999999866
 20
-266.002999574687
 30
0.0
  9
$EXTMAX
 10
-106.5059999999885
 20
-56.00299957468701
 30
0.0
  9
$LIMMIN
 10
0.0
 20
0.0
  9
$LIMMAX
 10
12.0
 20
9.0
  9
$ORTHOMODE
 70
     0
  9
$REGENMODE
 70
     1
  9
$FILLMODE
 70
     1
  9
$QTEXTMODE
 70
     0
  9
$MIRRTEXT
 70
     1
  9
$LTSCALE
 40
1.0
  9
$ATTMODE
 70
     1
  9
$TEXTSIZE
 40
0.2
  9
$TRACEWID
 40
0.05
  9
$TEXTSTYLE
  7
Standard
  9
$CLAYER
  8
0
  9
$CELTYPE
  6
ByLayer
  9
$CECOLOR
 62
   256
  9
$CELTSCALE
 40
1.0
  9
$DISPSILH
 70
     0
  9
$DIMSCALE
 40
1.0
  9
$DIMASZ
 40
0.18
  9
$DIMEXO
 40
0.0625
  9
$DIMDLI
 40
0.38
  9
$DIMRND
 40
0.0
  9
$DIMDLE
 40
0.0
  9
$DIMEXE
 40
0.18
  9
$DIMTP
 40
0.0
  9
$DIMTM
 40
0.0
  9
$DIMTXT
 40
0.18
  9
$DIMCEN
 40
0.09
  9
$DIMTSZ
 40
0.0
  9
$DIMTOL
 70
     0
  9
$DIMLIM
 70
     0
  9
$DIMTIH
 70
     1
  9
$DIMTOH
 70
     1
  9
$DIMSE1
 70
     0
  9
$DIMSE2
 70
     0
  9
$DIMTAD
 70
     0
  9
$DIMZIN
 70
     0
  9
$DIMBLK
  1

  9
$DIMASO
 70
     1
  9
$DIMSHO
 70
     1
  9
$DIMPOST
  1

  9
$DIMAPOST
  1

  9
$DIMALT
 70
     0
  9
$DIMALTD
 70
     2
  9
$DIMALTF
 40
25.4
  9
$DIMLFAC
 40
1.0
  9
$DIMTOFL
 70
     0
  9
$DIMTVP
 40
0.0
  9
$DIMTIX
 70
     0
  9
$DIMSOXD
 70
     0
  9
$DIMSAH
 70
     0
  9
$DIMBLK1
  1

  9
$DIMBLK2
  1

  9
$DIMSTYLE
  2
Standard
  9
$DIMCLRD
 70
     0
  9
$DIMCLRE
 70
     0
  9
$DIMCLRT
 70
     0
  9
$DIMTFAC
 40
1.0
  9
$DIMGAP
 40
0.09
  9
$DIMJUST
 70
     0
  9
$DIMSD1
 70
     0
  9
$DIMSD2
 70
     0
  9
$DIMTOLJ
 70
     1
  9
$DIMTZIN
 70
     0
  9
$DIMALTZ
 70
     0
  9
$DIMALTTZ
 70
     0
  9
$DIMUPT
 70
     0
  9
$DIMDEC
 70
     4
  9
$DIMTDEC
 70
     4
  9
$DIMALTU
 70
     2
  9
$DIMALTTD
 70
     2
  9
$DIMTXSTY
  7
Standard
  9
$DIMAUNIT
 70
     0
  9
$DIMADEC
 70
     0
  9
$DIMALTRND
 40
0.0
  9
$DIMAZIN
 70
     0
  9
$DIMDSEP
 70
    46
  9
$DIMATFIT
 70
     3
  9
$DIMFRAC
 70
     0
  9
$DIMLDRBLK
  1

  9
$DIMLUNIT
 70
     2
  9
$DIMLWD
 70
    -2
  9
$DIMLWE
 70
    -2
  9
$DIMTMOVE
 70
     0
  9
$LUNITS
 70
     2
  9
$LUPREC
 70
     4
  9
$SKETCHINC
 40
0.1
  9
$FILLETRAD
 40
0.5
  9
$AUNITS
 70
     0
  9
$AUPREC
 70
     0
  9
$MENU
  1
.
  9
$ELEVATION
 40
0.0
  9
$PELEVATION
 40
0.0
  9
$THICKNESS
 40
0.0
  9
$LIMCHECK
 70
     0
  9
$CHAMFERA
 40
0.5
  9
$CHAMFERB
 40
0.5
  9
$CHAMFERC
 40
1.0
  9
$CHAMFERD
 40
0.0
  9
$SKPOLY
 70
     0
  9
$TDCREATE
 40
2458263.654905232
  9
$TDUCREATE
 40
2458263.571571898
  9
$TDUPDATE
 40
2458263.654905776
  9
$TDUUPDATE
 40
2458263.571572442
  9
$TDINDWG
 40
0.0000000116
  9
$TDUSRTIMER
 40
0.0000000116
  9
$USRTIMER
 70
     1
  9
$ANGBASE
 50
0.0
  9
$ANGDIR
 70
     0
  9
$PDMODE
 70
     0
  9
$PDSIZE
 40
0.0
  9
$PLINEWID
 40
0.0
  9
$SPLFRAME
 70
     0
  9
$SPLINETYPE
 70
     6
  9
$SPLINESEGS
 70
     8
  9
$HANDSEED
  5
408
  9
$SURFTAB1
 70
     6
  9
$SURFTAB2
 70
     6
  9
$SURFTYPE
 70
     6
  9
$SURFU
 70
     6
  9
$SURFV
 70
     6
  9
$UCSBASE
  2

  9
$UCSNAME
  2

  9
$UCSORG
 10
0.0
 20
0.0
 30
0.0
  9
$UCSXDIR
 10
1.0
 20
0.0
 30
0.0
  9
$UCSYDIR
 10
0.0
 20
1.0
 30
0.0
  9
$UCSORTHOREF
  2

  9
$UCSORTHOVIEW
 70
     0
  9
$UCSORGTOP
 10
0.0
 20
0.0
 30
0.0
  9
$UCSORGBOTTOM
 10
0.0
 20
0.0
 30
0.0
  9
$UCSORGLEFT
 10
0.0
 20
0.0
 30
0.0
  9
$UCSORGRIGHT
 10
0.0
 20
0.0
 30
0.0
  9
$UCSORGFRONT
 10
0.0
 20
0.0
 30
0.0
  9
$UCSORGBACK
 10
0.0
 20
0.0
 30
0.0
  9
$PUCSBASE
  2

  9
$PUCSNAME
  2

  9
$PUCSORG
 10
0.0
 20
0.0
 30
0.0
  9
$PUCSXDIR
 10
1.0
 20
0.0
 30
0.0
  9
$PUCSYDIR
 10
0.0
 20
1.0
 30
0.0
  9
$PUCSORTHOREF
  2

  9
$PUCSORTHOVIEW
 70
     0
  9
$PUCSORGTOP
 10
0.0
 20
0.0
 30
0.0
  9
$PUCSORGBOTTOM
 10
0.0
 20
0.0
 30
0.0
  9
$PUCSORGLEFT
 10
0.0
 20
0.0
 30
0.0
  9
$PUCSORGRIGHT
 10
0.0
 20
0.0
 30
0.0
  9
$PUCSORGFRONT
 10
0.0
 20
0.0
 30
0.0
  9
$PUCSORGBACK
 10
0.0
 20
0.0
 30
0.0
  9
$USERI1
 70
     0
  9
$USERI2
 70
     0
  9
$USERI3
 70
     0
  9
$USERI4
 70
     0
  9
$USERI5
 70
     0
  9
$USERR1
 40
18.1
  9
$USERR2
 40
0.0
  9
$USERR3
 40
0.0
  9
$USERR4
 40
0.0
  9
$USERR5
 40
0.0
  9
$WORLDVIEW
 70
     1
  9
$SHADEDGE
 70
     3
  9
$SHADEDIF
 70
    70
  9
$TILEMODE
 70
     1
  9
$MAXACTVP
 70
    64
  9
$PINSBASE
 10
0.0
 20
0.0
 30
0.0
  9
$PLIMCHECK
 70
     0
  9
$PEXTMIN
 10
1.00000000000000E+20
 20
1.00000000000000E+20
 30
1.00000000000000E+20
  9
$PEXTMAX
 10
-1.00000000000000E+20
 20
-1.00000000000000E+20
 30
-1.00000000000000E+20
  9
$PLIMMIN
 10
0.0
 20
0.0
  9
$PLIMMAX
 10
12.0
 20
9.0
  9
$UNITMODE
 70
     0
  9
$VISRETAIN
 70
     1
  9
$PLINEGEN
 70
     0
  9
$PSLTSCALE
 70
     1
  9
$TREEDEPTH
 70
  3020
  9
$CMLSTYLE
  2
Standard
  9
$CMLJUST
 70
     0
  9
$CMLSCALE
 40
1.0
  9
$PROXYGRAPHICS
 70
     1
  9
$MEASUREMENT
 70
     1
  9
$CELWEIGHT
370
    -1
  9
$ENDCAPS
280
     0
  9
$JOINSTYLE
280
     0
  9
$LWDISPLAY
290
     0
  9
$INSUNITS
 70
     4
  9
$HYPERLINKBASE
  1

  9
$STYLESHEET
  1

  9
$XEDIT
290
     1
  9
$CEPSNTYPE
380
     0
  9
$PSTYLEMODE
290
     1
  9
$FINGERPRINTGUID
  2
{C1422B50-C39F-4A42-8300-A9B57249A310}
  9
$VERSIONGUID
  2
{FAEB1C32-E019-11D5-929B-00C0DF256EC4}
  9
$EXTNAMES
290
     1
  9
$PSVPSCALE
 40
0.0
  9
$OLESTARTUP
290
     0
  9
$SORTENTS
280
   127
  9
$INDEXCTL
280
     0
  9
$HIDETEXT
280
     1
  9
$XCLIPFRAME
290
     0
  9
$HALOGAP
280
     0
  9
$OBSCOLOR
 70
   257
  9
$OBSLTYPE
280
     0
  9
$INTERSECTIONDISPLAY
280
     0
  9
$INTERSECTIONCOLOR
 70
   257
  9
$DIMASSOC
280
     2
  9
$PROJECTNAME
  1

  0
ENDSEC
  0
SECTION
  2
CLASSES
  0
CLASS
  1
ACDBDICTIONARYWDFLT
  2
AcDbDictionaryWithDefault
  3
ObjectDBX Classes
 90
        0
 91
        4
280
     0
281
     0
  0
CLASS
  1
VISUALSTYLE
  2
AcDbVisualStyle
  3
ObjectDBX Classes
 90
     4095
 91
        4
280
     0
281
     0
  0
CLASS
  1
MATERIAL
  2
AcDbMaterial
  3
ObjectDBX Classes
 90
     1153
 91
        4
280
     0
281
     0
  0
ENDSEC
  0
SECTION
  2
TABLES
  0
TABLE
  2
VPORT
  5
8
330
0
100
AcDbSymbolTable
 70
     1
  0
VPORT
  5
29
330
8
100
AcDbSymbolTableRecord
100
AcDbViewportTableRecord
  2
*Active
 70
     0
 10
0.0
 20
0.0
 11
1.0
 21
1.0
 12
-255.0059999999876
 22
-161.002999574687
 13
0.0
 23
0.0
 14
0.5
 24
0.5
 15
0.5
 25
0.5
 16
0.0
 26
0.0
 36
1.0
 17
0.0
 27
0.0
 37
0.0
 40
231.0
 41
1.60267857142857
 42
50.0
 43
0.0
 44
0.0
 50
0.0
 51
0.0
 71
     0
 72
   100
 73
     1
 74
     3
 75
     0
 76
     0
 77
     0
 78
     0
281
     0
 65
     1
110
0.0
120
0.0
130
0.0
111
1.0
121
0.0
131
0.0
112
0.0
122
1.0
132
0.0
 79
     0
146
0.0
  0
ENDTAB
  0
TABLE
  2
LTYPE
  5
5
330
0
100
AcDbSymbolTable
 70
     8
  0
LTYPE
  5
14
330
5
100
AcDbSymbolTableRecord
100
AcDbLinetypeTableRecord
  2
ByBlock
 70
     0
  3

 72
    65
 73
     0
 40
0.0
  0
LTYPE
  5
15
330
5
100
AcDbSymbolTableRecord
100
AcDbLinetypeTableRecord
  2
ByLayer
 70
     0
  3

 72
    65
 73
     0
 40
0.0
  0
LTYPE
  5
16
330
5
100
AcDbSymbolTableRecord
100
AcDbLinetypeTableRecord
  2
Continuous
 70
     0
  3
Solid line
 72
    65
 73
     0
 40
0.0
  0
LTYPE
  5
3F
330
5
100
AcDbSymbolTableRecord
100
AcDbLinetypeTableRecord
  2
DASHED
 70
     0
  3
Dashed
 72
    65
 73
     2
 40
15.0
 49
7.0
 74
     0
 49
-8.0
 74
     0
  0
LTYPE
  5
40
330
5
100
AcDbSymbolTableRecord
100
AcDbLinetypeTableRecord
  2
DOTTED
 70
     0
  3
Dotted
 72
    65
 73
     2
 40
1.0
 49
0.0
 74
     0
 49
-1.0
 74
     0
  0
LTYPE
  5
41
330
5
100
AcDbSymbolTableRecord
100
AcDbLinetypeTableRecord
  2
DOT_CENTER
 70
     0
  3
Dot_Center
 72
    65
 73
     4
 40
14.0
 49
12.0
 74
     0
 49
-1.0
 74
     0
 49
0.0
 74
     0
 49
-1.0
 74
     0
  0
LTYPE
  5
42
330
5
100
AcDbSymbolTableRecord
100
AcDbLinetypeTableRecord
  2
LONG_DASHED
 70
     0
  3
Long_Dashed
 72
    65
 73
     2
 40
15.0
 49
10.0
 74
     0
 49
-5.0
 74
     0
  0
LTYPE
  5
43
330
5
100
AcDbSymbolTableRecord
100
AcDbLinetypeTableRecord
  2
DASH_CENTER
 70
     0
  3
Dash_Center
 72
    65
 73
     4
 40
14.0
 49
11.0
 74
     0
 49
-1.0
 74
     0
 49
1.0
 74
     0
 49
-1.0
 74
     0
  0
LTYPE
  5
44
330
5
100
AcDbSymbolTableRecord
100
AcDbLinetypeTableRecord
  2
PHANTOM
 70
     0
  3
Phantom
 72
    65
 73
     6
 40
13.0
 49
10.0
 74
     0
 49
-1.0
 74
     0
 49
0.0
 74
     0
 49
-1.0
 74
     0
 49
0.0
 74
     0
 49
-1.0
 74
     0
  0
LTYPE
  5
45
330
5
100
AcDbSymbolTableRecord
100
AcDbLinetypeTableRecord
  2
CENTER_DASH_DASH
 70
     0
  3
Center_Dash_Dash
 72
    65
 73
     6
 40
14.0
 49
9.0
 74
     0
 49
-1.0
 74
     0
 49
1.0
 74
     0
 49
-1.0
 74
     0
 49
1.0
 74
     0
 49
-1.0
 74
     0
  0
ENDTAB
  0
TABLE
  2
LAYER
  5
2
330
0
100
AcDbSymbolTable
 70
     2
  0
LAYER
  5
10
330
2
100
AcDbSymbolTableRecord
100
AcDbLayerTableRecord
  2
0
 70
     0
 62
     7
  6
Continuous
370
    -3
390
F
  0
LAYER
  5
46
330
2
100
AcDbSymbolTableRecord
100
AcDbLayerTableRecord
  2
1
 70
     0
 62
     7
  6
Continuous
370
    -3
390
F
  0
ENDTAB
  0
TABLE
  2
STYLE
  5
3
330
0
100
AcDbSymbolTable
 70
     5
  0
STYLE
  5
11
330
3
100
AcDbSymbolTableRecord
100
AcDbTextStyleTableRecord
  2
Standard
 70
     0
 40
0.0
 41
1.0
 50
0.0
 71
     0
 42
0.2
  3
txt
  4

  0
STYLE
  5
F4
330
3
100
AcDbSymbolTableRecord
100
AcDbTextStyleTableRecord
  2
CONVERTER_11
 70
     0
 40
0.0
 41
0.9
 50
0.0
 71
     0
 42
0.2
  3
txt.shx
  4

  0
STYLE
  5
3A3
330
3
100
AcDbSymbolTableRecord
100
AcDbTextStyleTableRecord
  2
CONVERTER_12
 70
     0
 40
0.0
 41
0.81
 50
0.0
 71
     0
 42
0.2
  3
txt.shx
  4

  0
STYLE
  5
3B9
330
3
100
AcDbSymbolTableRecord
100
AcDbTextStyleTableRecord
  2
CONVERTER_13
 70
     0
 40
0.0
 41
0.72
 50
0.0
 71
     0
 42
0.2
  3
txt.shx
  4

  0
STYLE
  5
3BC
330
3
100
AcDbSymbolTableRecord
100
AcDbTextStyleTableRecord
  2
CONVERTER_14
 70
     0
 40
0.0
 41
0.855
 50
0.0
 71
     0
 42
0.2
  3
txt.shx
  4

  0
ENDTAB
  0
TABLE
  2
VIEW
  5
6
330
0
100
AcDbSymbolTable
 70
     0
  0
ENDTAB
  0
TABLE
  2
UCS
  5
7
330
0
100
AcDbSymbolTable
 70
     0
  0
ENDTAB
  0
TABLE
  2
APPID
  5
9
330
0
100
AcDbSymbolTable
 70
     1
  0
APPID
  5
12
330
9
100
AcDbSymbolTableRecord
100
AcDbRegAppTableRecord
  2
ACAD
 70
     0
  0
ENDTAB
  0
TABLE
  2
DIMSTYLE
  5
A
330
0
100
AcDbSymbolTable
 70
     3
100
AcDbDimStyleTable
  0
DIMSTYLE
105
27
330
A
100
AcDbSymbolTableRecord
100
AcDbDimStyleTableRecord
  2
Standard
 70
     0
178
     0
340
11
  0
DIMSTYLE
105
29A
102
{ACAD_REACTORS
330
29B
102
}
330
A
100
AcDbSymbolTableRecord
100
AcDbDimStyleTableRecord
  2
ME10_DIM_10
 70
     0
  3
{\Fgdt;n}<>
 41
3.5
 42
0.0
 44
1.5
 73
     0
 74
     0
 77
     1
 78
     8
140
3.5
147
1.5
172
     1
173
     1
174
     1
175
     1
176
     2
177
     2
271
     2
178
     3
271
     2
340
F4
  0
DIMSTYLE
105
2A5
102
{ACAD_REACTORS
330
2A6
102
}
330
A
100
AcDbSymbolTableRecord
100
AcDbDimStyleTableRecord
  2
ME10_DIM_11
 70
     0
 41
3.5
 42
0.0
 44
1.5
 73
     0
 74
     0
 77
     1
 78
     8
140
3.5
147
1.5
172
     1
173
     1
174
     1
175
     1
176
     2
177
     2
271
     2
178
     3
271
     2
340
F4
  0
ENDTAB
  0
TABLE
  2
BLOCK_RECORD
  5
1
330
0
100
AcDbSymbolTable
 70
    19
  0
BLOCK_RECORD
  5
1F
330
1
100
AcDbSymbolTableRecord
100
AcDbBlockTableRecord
  2
*Model_Space
340
22
  0
BLOCK_RECORD
  5
1B
330
1
100
AcDbSymbolTableRecord
100
AcDbBlockTableRecord
  2
*Paper_Space
340
1E
  0
BLOCK_RECORD
  5
23
330
1
100
AcDbSymbolTableRecord
100
AcDbBlockTableRecord
  2
*Paper_Space0
340
26
  0
BLOCK_RECORD
  5
47
330
1
100
AcDbSymbolTableRecord
100
AcDbBlockTableRecord
  2
G_INS_M25_M68L_PEPDS_LG-select__1
340
0
102
{BLKREFS
331
4B
102
}
  0
BLOCK_RECORD
  5
4A
330
1
100
AcDbSymbolTableRecord
100
AcDbBlockTableRecord
  2
Allg1
340
0
102
{BLKREFS
331
7D
102
}
  0
BLOCK_RECORD
  5
4E
330
1
100
AcDbSymbolTableRecord
100
AcDbBlockTableRecord
  2
G_INS_M25_M68L_PEPDS_LG-select__2
340
0
102
{BLKREFS
331
52
102
}
  0
BLOCK_RECORD
  5
51
330
1
100
AcDbSymbolTableRecord
100
AcDbBlockTableRecord
  2
Drfsicht1
340
0
102
{BLKREFS
331
7E
102
}
  0
BLOCK_RECORD
  5
55
330
1
100
AcDbSymbolTableRecord
100
AcDbBlockTableRecord
  2
G_INS_M25_M68L_PEPDS_LG-select__3
340
0
102
{BLKREFS
331
59
102
}
  0
BLOCK_RECORD
  5
58
330
1
100
AcDbSymbolTableRecord
100
AcDbBlockTableRecord
  2
Rckans1
340
0
102
{BLKREFS
331
7F
102
}
  0
BLOCK_RECORD
  5
5C
330
1
100
AcDbSymbolTableRecord
100
AcDbBlockTableRecord
  2
G_INS_M25_M68L_PEPDS_LG-select__4
340
0
102
{BLKREFS
331
60
102
}
  0
BLOCK_RECORD
  5
5F
330
1
100
AcDbSymbolTableRecord
100
AcDbBlockTableRecord
  2
SA_Links1
340
0
102
{BLKREFS
331
80
102
}
  0
BLOCK_RECORD
  5
63
330
1
100
AcDbSymbolTableRecord
100
AcDbBlockTableRecord
  2
G_INS_M25_M68L_PEPDS_LG-select__5
340
0
102
{BLKREFS
331
67
102
}
  0
BLOCK_RECORD
  5
66
330
1
100
AcDbSymbolTableRecord
100
AcDbBlockTableRecord
  2
SA_Rechts1
340
0
102
{BLKREFS
331
81
102
}
  0
BLOCK_RECORD
  5
6A
330
1
100
AcDbSymbolTableRecord
100
AcDbBlockTableRecord
  2
G_INS_M25_M68L_PEPDS_LG-select__6
340
0
102
{BLKREFS
331
6E
102
}
  0
BLOCK_RECORD
  5
6D
330
1
100
AcDbSymbolTableRecord
100
AcDbBlockTableRecord
  2
Vordans1
340
0
102
{BLKREFS
331
82
102
}
  0
BLOCK_RECORD
  5
71
330
1
100
AcDbSymbolTableRecord
100
AcDbBlockTableRecord
  2
_rahmen
340
0
102
{BLKREFS
331
78
102
}
  0
BLOCK_RECORD
  5
74
330
1
100
AcDbSymbolTableRecord
100
AcDbBlockTableRecord
  2
_punkt
340
0
102
{BLKREFS
331
79
102
}
  0
BLOCK_RECORD
  5
77
330
1
100
AcDbSymbolTableRecord
100
AcDbBlockTableRecord
  2
A4I_CS
340
0
102
{BLKREFS
331
83
102
}
  0
BLOCK_RECORD
  5
7C
330
1
100
AcDbSymbolTableRecord
100
AcDbBlockTableRecord
  2
1
340
0
102
{BLKREFS
331
86
102
}
  0
BLOCK_RECORD
  5
291
330
1
100
AcDbSymbolTableRecord
100
AcDbBlockTableRecord
  2
*D17
340
0
  0
BLOCK_RECORD
  5
29C
330
1
100
AcDbSymbolTableRecord
100
AcDbBlockTableRecord
  2
*D18
340
0
  0
ENDTAB
  0
ENDSEC
  0
SECTION
  2
BLOCKS
  0
BLOCK
  5
20
330
1F
100
AcDbEntity
  8
0
100
AcDbBlockBegin
  2
*Model_Space
 70
     0
 10
0.0
 20
0.0
 30
0.0
  3
*Model_Space
  1

  0
ENDBLK
  5
21
330
1F
100
AcDbEntity
  8
0
100
AcDbBlockEnd
  0
BLOCK
  5
1C
330
1B
100
AcDbEntity
 67
     1
  8
0
100
AcDbBlockBegin
  2
*Paper_Space
 70
     0
 10
0.0
 20
0.0
 30
0.0
  3
*Paper_Space
  1

  0
ENDBLK
  5
1D
330
1B
100
AcDbEntity
 67
     1
  8
0
100
AcDbBlockEnd
  0
BLOCK
  5
24
330
23
100
AcDbEntity
  8
0
100
AcDbBlockBegin
  2
*Paper_Space0
 70
     0
 10
0.0
 20
0.0
 30
0.0
  3
*Paper_Space0
  1

  0
ENDBLK
  5
25
330
23
100
AcDbEntity
  8
0
100
AcDbBlockEnd
  0
BLOCK
  5
48
330
47
100
AcDbEntity
  8
0
100
AcDbBlockBegin
  2
G_INS_M25_M68L_PEPDS_LG-select__1
 70
     0
 10
-163.9999999999783
 20
-215.2572556239466
 30
0.0
  3
G_INS_M25_M68L_PEPDS_LG-select__1
  1

  0
LINE
  5
87
330
47
100
AcDbEntity
  8
0
  6
Continuous
 62
     7
100
AcDbLine
 10
-138.5572170415491
 20
-212.6386820790272
 30
0.0
 11
-137.7937927383817
 21
-212.0988595773349
 31
0.0
  0
LINE
  5
88
330
47
100
AcDbEntity
  8
0
  6
Continuous
 62
     7
100
AcDbLine
 10
-135.4999999999783
 20
-208.4904203948997
 30
0.0
 11
-135.4999999999783
 21
-200.8705088742691
 31
0.0
  0
LINE
  5
89
330
47
100
AcDbEntity
  8
0
  6
Continuous
 62
     7
100
AcDbLine
 10
-142.9999999999783
 20
-200.4045172023458
 30
0.0
 11
-152.9999999999783
 21
-200.4045172023458
 31
0.0
  0
LINE
  5
8A
330
47
100
AcDbEntity
  8
0
  6
Continuous
 62
     7
100
AcDbLine
 10
-152.9999999999783
 20
-201.6545172023458
 30
0.0
 11
-152.9999999999783
 21
-200.4045172023458
 31
0.0
  0
LINE
  5
8B
330
47
100
AcDbEntity
  8
0
  6
Continuous
 62
     7
100
AcDbLine
 10
-152.9999999999783
 20
-200.4045172023458
 30
0.0
 11
-152.9999999999783
 21
-197.3243901834236
 31
0.0
  0
LINE
  5
8C
330
47
100
AcDbEntity
  8
0
  6
Continuous
 62
     7
100
AcDbLine
 10
-152.9999999999783
 20
-197.3243901834236
 30
0.0
 11
-142.9999999999783
 21
-197.3243901834236
 31
0.0
  0
LINE
  5
8D
330
47
100
AcDbEntity
  8
0
  6
Continuous
 62
     7
100
AcDbLine
 10
-142.9999999999783
 20
-201.6545172023458
 30
0.0
 11
-152.9999999999783
 21
-201.6545172023458
 31
0.0
  0
LINE
  5
8E
330
47
100
AcDbEntity
  8
0
  6
Continuous
 62
     7
100
AcDbLine
 10
-154.7638746292126
 20
-202.6071451465087
 30
0.0
 11
-141.2361253707439
 21
-202.6071451465087
 31
0.0
  0
LINE
  5
8F
330
47
100
AcDbEntity
  8
0
  6
Continuous
 62
     7
100
AcDbLine
 10
-131.9999999999783
 20
-195.8767603887794
 30
0.0
 11
-131.9999999999783
 21
-189.4075506225096
 31
0.0
  0
LINE
  5
90
330
47
100
AcDbEntity
  8
0
  6
Continuous
 62
     7
100
AcDbLine
 10
-141.2361253707439
 20
-189.2703539282283
 30
0.0
 11
-154.7638746292126
 21
-189.2703539282283
 31
0.0
  0
LINE
  5
91
330
47
100
AcDbEntity
  8
0
  6
Continuous
 62
     7
100
AcDbLine
 10
-141.2361253707439
 20
-178.0120236790306
 30
0.0
 11
-141.2361253707439
 21
-189.2703539282283
 31
0.0
  0
LINE
  5
92
330
47
100
AcDbEntity
  8
0
  6
Continuous
 62
     7
100
AcDbLine
 10
-154.7638746292126
 20
-178.0120236790306
 30
0.0
 11
-154.7638746292126
 21
-189.2703539282283
 31
0.0
  0
LINE
  5
93
330
47
100
AcDbEntity
  8
0
  6
Continuous
 62
     7
100
AcDbLine
 10
-132.0606943304868
 20
-171.4581800505656
 30
0.0
 11
-132.0606943304868
 21
-182.7165102997633
 31
0.0
  0
LINE
  5
94
330
47
100
AcDbEntity
  8
0
  6
Continuous
 62
     7
100
AcDbLine
 10
-162.4999999999783
 20
-169.8959982752462
 30
0.0
 11
-162.4999999999783
 21
-168.4237550888126
 31
0.0
  0
LINE
  5
95
330
47
100
AcDbEntity
  8
0
  6
Continuous
 62
     7
100
AcDbLine
 10
-157.1754310402355
 20
-177.3158673074956
 30
0.0
 11
-157.1754310402355
 21
-188.5741975566933
 31
0.0
  0
LINE
  5
96
330
47
100
AcDbEntity
  8
0
  6
Continuous
 62
     7
100
AcDbLine
 10
-163.9393056694699
 20
-171.4581800505656
 30
0.0
 11
-163.9393056694698
 21
-182.7165102997633
 31
0.0
  0
LINE
  5
97
330
47
100
AcDbEntity
  8
0
  6
Continuous
 62
     7
100
AcDbLine
 10
-157.1754310402355
 20
-188.5741975566933
 30
0.0
 11
-163.9393056694698
 21
-182.7165102997633
 31
0.0
  0
LINE
  5
98
330
47
100
AcDbEntity
  8
0
  6
Continuous
 62
     7
100
AcDbLine
 10
-160.9999999999783
 20
-189.1802484070398
 30
0.0
 11
-160.9999999999783
 21
-185.2620236790306
 31
0.0
  0
LINE
  5
99
330
47
100
AcDbEntity
  8
0
  6
Continuous
 62
     7
100
AcDbLine
 10
-157.4427829584075
 20
-212.6386820790272
 30
0.0
 11
-158.2062072615749
 21
-212.0988595773349
 31
0.0
  0
LINE
  5
9A
330
47
100
AcDbEntity
  8
0
  6
Continuous
 62
     7
100
AcDbLine
 10
-160.4999999999783
 20
-208.4904203948997
 30
0.0
 11
-160.4999999999783
 21
-200.8705081115451
 31
0.0
  0
LINE
  5
9B
330
47
100
AcDbEntity
  8
0
  6
Continuous
 62
     7
100
AcDbLine
 10
-163.9393056694699
 20
-196.0533015180437
 30
0.0
 11
-157.1754310402355
 21
-201.9109887749737
 31
0.0
  0
LINE
  5
9C
330
47
100
AcDbEntity
  8
0
  6
Continuous
 62
     7
100
AcDbLine
 10
-158.0573683548527
 20
-195.8644536928847
 30
0.0
 11
-158.0573683548527
 21
-200.1945807118069
 31
0.0
  0
LINE
  5
9D
330
47
100
AcDbEntity
  8
0
  6
Continuous
 62
     7
100
AcDbLine
 10
-154.7638746292128
 20
-196.6575506225096
 30
0.0
 11
-154.7638746292126
 21
-202.6071451465087
 31
0.0
  0
LINE
  5
9E
330
47
100
AcDbEntity
  8
0
  6
Continuous
 62
     7
100
AcDbLine
 10
-157.1754310402051
 20
-195.961394250968
 30
0.0
 11
-157.1754310402355
 21
-201.9109887749737
 31
0.0
  0
LINE
  5
9F
330
47
100
AcDbEntity
  8
0
  6
Continuous
 62
     7
100
AcDbLine
 10
-158.0573683548527
 20
-200.1945807118069
 30
0.0
 11
-163.0573683548527
 21
-195.8644536928847
 31
0.0
  0
LINE
  5
A0
330
47
100
AcDbEntity
  8
0
  6
Continuous
 62
     7
100
AcDbLine
 10
-138.8245689597211
 20
-177.3158673074956
 30
0.0
 11
-138.8245689597211
 21
-188.5741975566933
 31
0.0
  0
LINE
  5
A1
330
47
100
AcDbEntity
  8
0
  6
Continuous
 62
     7
100
AcDbLine
 10
-138.8245689597211
 20
-195.9613942509746
 30
0.0
 11
-138.8245689597211
 21
-201.9109887749737
 31
0.0
  0
LINE
  5
A2
330
47
100
AcDbEntity
  8
0
  6
Continuous
 62
     7
100
AcDbLine
 10
-142.9999999999783
 20
-200.4045172023458
 30
0.0
 11
-142.9999999999783
 21
-201.6545172023458
 31
0.0
  0
LINE
  5
A3
330
47
100
AcDbEntity
  8
0
  6
Continuous
 62
     7
100
AcDbLine
 10
-142.9999999999783
 20
-197.3243901834236
 30
0.0
 11
-142.9999999999783
 21
-200.4045172023458
 31
0.0
  0
LINE
  5
A4
330
47
100
AcDbEntity
  8
0
  6
Continuous
 62
     7
100
AcDbLine
 10
-141.2361253707439
 20
-196.6575506225096
 30
0.0
 11
-141.2361253707439
 21
-202.6071451465087
 31
0.0
  0
LINE
  5
A5
330
47
100
AcDbEntity
  8
0
  6
Continuous
 62
     7
100
AcDbLine
 10
-131.9999999999783
 20
-182.0203539282283
 30
0.0
 11
-131.9999999999783
 21
-170.7620236790306
 31
0.0
  0
LINE
  5
A6
330
47
100
AcDbEntity
  8
0
  6
Continuous
 62
     7
100
AcDbLine
 10
-133.4999999999783
 20
-169.8959982752462
 30
0.0
 11
-133.4999999999783
 21
-168.4237550888126
 31
0.0
  0
LINE
  5
A7
330
47
100
AcDbEntity
  8
0
  6
Continuous
 62
     7
100
AcDbLine
 10
-134.9999999999783
 20
-189.1802484070398
 30
0.0
 11
-134.9999999999783
 21
-185.2620236790306
 31
0.0
  0
LINE
  5
A8
330
47
100
AcDbEntity
  8
0
  6
Continuous
 62
     7
100
AcDbLine
 10
-135.107695154565
 20
-195.2394536928847
 30
0.0
 11
-137.9426316451039
 21
-197.6945807118069
 31
0.0
  0
LINE
  5
A9
330
47
100
AcDbEntity
  8
0
  6
Continuous
 62
     7
100
AcDbLine
 10
-135.107695154565
 20
-193.4093266739625
 30
0.0
 11
-135.107695154565
 21
-195.2394536928847
 31
0.0
  0
LINE
  5
AA
330
47
100
AcDbEntity
  8
0
  6
Continuous
 62
     7
100
AcDbLine
 10
-137.9426316451039
 20
-200.1945807118069
 30
0.0
 11
-137.9426316451039
 21
-195.8644536928847
 31
0.0
  0
LINE
  5
AB
330
47
100
AcDbEntity
  8
0
  6
Continuous
 62
     7
100
AcDbLine
 10
-132.9426316451039
 20
-191.5343266739625
 30
0.0
 11
-132.9426316451039
 21
-195.8644536928847
 31
0.0
  0
LINE
  5
AC
330
47
100
AcDbEntity
  8
0
  6
Continuous
 62
     7
100
AcDbLine
 10
-132.9426316451039
 20
-195.8644536928847
 30
0.0
 11
-135.107695154565
 21
-195.2394536928847
 31
0.0
  0
LINE
  5
AD
330
47
100
AcDbEntity
  8
0
  6
Continuous
 62
     7
100
AcDbLine
 10
-132.0606943304868
 20
-190.1037069940446
 30
0.0
 11
-132.0606943304868
 21
-196.0533015180437
 31
0.0
  0
LINE
  5
AE
330
47
100
AcDbEntity
  8
0
  6
Continuous
 62
     7
100
AcDbLine
 10
-137.9426316451039
 20
-195.8644536928847
 30
0.0
 11
-132.9426316451039
 21
-191.5343266739625
 31
0.0
  0
LINE
  5
AF
330
47
100
AcDbEntity
  8
0
  6
Continuous
 62
     7
100
AcDbLine
 10
-132.9426316451039
 20
-195.8644536928847
 30
0.0
 11
-137.9426316451039
 21
-200.1945807118069
 31
0.0
  0
LINE
  5
B0
330
47
100
AcDbEntity
  8
0
  6
Continuous
 62
     7
100
AcDbLine
 10
-132.0606943304868
 20
-182.7165102997633
 30
0.0
 11
-138.8245689597211
 21
-188.5741975566933
 31
0.0
  0
LINE
  5
B1
330
47
100
AcDbEntity
  8
0
  6
Continuous
 62
     7
100
AcDbLine
 10
-138.8245689597211
 20
-201.9109887749737
 30
0.0
 11
-132.0606943304868
 21
-196.0533015180437
 31
0.0
  0
LINE
  5
B2
330
47
100
AcDbEntity
  8
0
  6
Continuous
 62
     7
100
AcDbLine
 10
-163.9999999999783
 20
-182.0203539282283
 30
0.0
 11
-163.9999999999783
 21
-170.7620236790306
 31
0.0
  0
LINE
  5
B3
330
47
100
AcDbEntity
  8
0
  6
Continuous
 62
     7
100
AcDbLine
 10
-163.9999999999783
 20
-195.8767603887793
 30
0.0
 11
-163.9999999999783
 21
-189.4075506225096
 31
0.0
  0
LINE
  5
B4
330
47
100
AcDbEntity
  8
0
  6
Continuous
 62
     7
100
AcDbLine
 10
-163.9393056694695
 20
-190.103706994045
 30
0.0
 11
-163.9393056694699
 21
-196.0533015180437
 31
0.0
  0
LINE
  5
B5
330
47
100
AcDbEntity
  8
0
  6
Continuous
 62
     7
100
AcDbLine
 10
-160.8923048453916
 20
-195.2394536928847
 30
0.0
 11
-160.8923048453916
 21
-193.4093266739625
 31
0.0
  0
LINE
  5
B6
330
47
100
AcDbEntity
  8
0
  6
Continuous
 62
     7
100
AcDbLine
 10
-163.0573683548527
 20
-195.8644536928847
 30
0.0
 11
-163.0573683548527
 21
-191.5343266739625
 31
0.0
  0
LINE
  5
B7
330
47
100
AcDbEntity
  8
0
  6
Continuous
 62
     7
100
AcDbLine
 10
-163.0573683548527
 20
-191.5343266739625
 30
0.0
 11
-158.0573683548527
 21
-195.8644536928847
 31
0.0
  0
LINE
  5
B8
330
47
100
AcDbEntity
  8
0
  6
Continuous
 62
     7
100
AcDbLine
 10
-163.0573683548527
 20
-195.8644536928847
 30
0.0
 11
-160.8923048453916
 21
-195.2394536928847
 31
0.0
  0
LINE
  5
B9
330
47
100
AcDbEntity
  8
0
  6
Continuous
 62
     7
100
AcDbLine
 10
-158.0573683548527
 20
-197.6945807118069
 30
0.0
 11
-160.8923048453916
 21
-195.2394536928847
 31
0.0
  0
ARC
  5
BA
330
47
100
AcDbEntity
  8
0
  6
Continuous
 62
     7
100
AcDbCircle
 10
-136.0453490466483
 20
-189.4055812311136
 30
0.0
 40
4.045349526047928
100
AcDbArc
 50
350.0624373308427
 51
359.9721067811491
  0
ARC
  5
BB
330
47
100
AcDbEntity
  8
0
  6
Continuous
 62
     7
100
AcDbCircle
 10
-136.0453490466485
 20
-189.4095200139056
 30
0.0
 40
4.045349526048172
100
AcDbArc
 50
0.02789321885045
 51
9.93756266915684
  0
ARC
  5
BC
330
47
100
AcDbEntity
  8
0
  6
Continuous
 62
     7
100
AcDbCircle
 10
-159.9546509533078
 20
-189.4095200139057
 30
0.0
 40
4.045349526048423
100
AcDbArc
 50
170.0624373308423
 51
179.972106781148
  0
ARC
  5
BD
330
47
100
AcDbEntity
  8
0
  6
Continuous
 62
     7
100
AcDbCircle
 10
-136.0453490466484
 20
-170.7639930704266
 30
0.0
 40
4.045349526048058
100
AcDbArc
 50
0.02789321885086
 51
9.93756266915691
  0
ARC
  5
BE
330
47
100
AcDbEntity
  8
0
  6
Continuous
 62
     7
100
AcDbCircle
 10
-136.0453490466484
 20
-182.0183845368323
 30
0.0
 40
4.045349526048017
100
AcDbArc
 50
350.0624373308424
 51
359.9721067811491
  0
ARC
  5
BF
330
47
100
AcDbEntity
  8
0
  6
Continuous
 62
     7
100
AcDbCircle
 10
-136.0453490466482
 20
-170.7600542876346
 30
0.0
 40
4.045349526047816
100
AcDbArc
 50
350.0624373308424
 51
359.9721067811495
  0
ARC
  5
C0
330
47
100
AcDbEntity
  8
0
  6
Continuous
 62
     7
100
AcDbCircle
 10
-159.9546509533085
 20
-182.0183845368323
 30
0.0
 40
4.045349526047746
100
AcDbArc
 50
180.0278932188509
 51
189.9375626691582
  0
ARC
  5
C1
330
47
100
AcDbEntity
  8
0
  6
Continuous
 62
     7
100
AcDbCircle
 10
-159.9546509533086
 20
-170.7639930704266
 30
0.0
 40
4.04534952604762
100
AcDbArc
 50
170.0624373308419
 51
179.9721067811491
  0
ARC
  5
C2
330
47
100
AcDbEntity
  8
0
  6
Continuous
 62
     7
100
AcDbCircle
 10
-159.954650953308
 20
-170.7600542876346
 30
0.0
 40
4.045349526048229
100
AcDbArc
 50
180.0278932188505
 51
189.9375626691564
  0
ARC
  5
C3
330
47
100
AcDbEntity
  8
0
  6
Continuous
 62
     7
100
AcDbCircle
 10
-159.9546509533084
 20
-189.405581231112
 30
0.0
 40
4.045349526047831
100
AcDbArc
 50
180.0278932188734
 51
189.9375626691865
  0
SPLINE
  5
C4
330
47
100
AcDbEntity
  8
0
  6
Continuous
 62
     7
100
AcDbSpline
210
0.0
220
0.0
230
1.0
 70
     8
 71
     3
 72
     9
 73
     5
 74
     3
 42
0.000000001
 43
0.0000000001
 44
0.00000001
 40
0.0
 40
0.0
 40
0.0
 40
0.0
 40
1.98214769764484
 40
4.401750190378983
 40
4.401750190378983
 40
4.401750190378983
 40
4.401750190378983
 10
-135.4999999999783
 20
-208.4904203948997
 30
0.0
 10
-135.6349018498373
 20
-209.1580975328179
 30
0.0
 10
-135.934478051574
 20
-210.6408063933444
 30
0.0
 10
-137.1342750888644
 20
-211.5816734333488
 30
0.0
 10
-137.7937927383817
 20
-212.0988595773349
 30
0.0
 11
-135.4999999999783
 21
-208.4904203948997
 31
0.0
 11
-136.0872507082574
 21
-210.383578103694
 31
0.0
 11
-137.7937927383817
 21
-212.0988595773349
 31
0.0
  0
SPLINE
  5
C5
330
47
100
AcDbEntity
  8
0
  6
Continuous
 62
     7
100
AcDbSpline
210
0.0
220
0.0
230
1.0
 70
     8
 71
     3
 72
    11
 73
     7
 74
     5
 42
0.000000001
 43
0.0000000001
 44
0.00000001
 40
0.0
 40
0.0
 40
0.0
 40
0.0
 40
3.467382043718642
 40
6.76504054519996
 40
10.06270892679048
 40
13.53010140636954
 40
13.53010140636954
 40
13.53010140636954
 40
13.53010140636954
 10
-141.2361253707439
 20
-196.6575506225096
 30
0.0
 10
-142.3914875754175
 20
-196.6249943352371
 30
0.0
 10
-144.6456586075284
 20
-196.561475360553
 30
0.0
 10
-147.9999931344626
 20
-196.5353321417648
 30
0.0
 10
-151.3543311440655
 20
-196.5614751115018
 30
0.0
 10
-153.6085089466825
 20
-196.6249942507001
 30
0.0
 10
-154.7638746292128
 20
-196.6575506225096
 30
0.0
 11
-141.2361253707439
 21
-196.6575506225096
 31
0.0
 11
-144.7024506529092
 21
-196.5719511134508
 31
0.0
 11
-147.9999898416431
 21
-196.543899514775
 31
0.0
 11
-151.2975389123352
 21
-196.5719509381261
 31
0.0
 11
-154.7638746292128
 21
-196.6575506225096
 31
0.0
  0
SPLINE
  5
C6
330
47
100
AcDbEntity
  8
0
  6
Continuous
 62
     7
100
AcDbSpline
210
0.0
220
0.0
230
1.0
 70
     8
 71
     3
 72
    11
 73
     7
 74
     5
 42
0.000000001
 43
0.0000000001
 44
0.00000001
 40
0.0
 40
0.0
 40
0.0
 40
0.0
 40
3.346996101359132
 40
6.816290452661967
 40
10.2855848039648
 40
13.63258090532399
 40
13.63258090532399
 40
13.63258090532399
 40
13.63258090532399
 10
-154.7638746292126
 20
-202.6071451465087
 30
0.0
 10
-153.6674048055692
 20
-202.8206806747229
 30
0.0
 10
-151.4344004720465
 20
-203.2555542414043
 30
0.0
 10
-147.9999999999783
 20
-203.4088519587132
 30
0.0
 10
-144.5655995279099
 20
-203.2555542414042
 30
0.0
 10
-142.3325951943874
 20
-202.8206806747228
 30
0.0
 10
-141.2361253707439
 20
-202.6071451465087
 30
0.0
 11
-154.7638746292126
 21
-202.6071451465087
 31
0.0
 11
-151.4641013053281
 21
-203.1673941239598
 31
0.0
 11
-147.9999999999783
 21
-203.3571451465087
 31
0.0
 11
-144.5358986946284
 21
-203.1673941239598
 31
0.0
 11
-141.2361253707439
 21
-202.6071451465087
 31
0.0
  0
SPLINE
  5
C7
330
47
100
AcDbEntity
  8
0
  6
Continuous
 62
     7
100
AcDbSpline
210
0.0
220
0.0
230
1.0
 70
     8
 71
     3
 72
    11
 73
     7
 74
     5
 42
0.000000001
 43
0.0000000001
 44
0.00000001
 40
0.0
 40
0.0
 40
0.0
 40
0.0
 40
3.665366063390037
 40
7.990524526650439
 40
12.5841967805991
 40
16.98513911812407
 40
16.98513911812407
 40
16.98513911812407
 40
16.98513911812407
 10
-137.7937927383817
 20
-212.0988595773349
 30
0.0
 10
-138.8712858907578
 20
-212.6901688813937
 30
0.0
 10
-141.2202287621691
 20
-213.9792274265794
 30
0.0
 10
-145.4069942128119
 20
-214.7092327386572
 30
0.0
 10
-149.8702964818652
 20
-214.8577851992368
 30
0.0
 10
-152.8111033023307
 20
-214.2167358741502
 30
0.0
 10
-154.2499999999783
 20
-213.9030791685524
 30
0.0
 11
-137.7937927383817
 21
-212.0988595773349
 31
0.0
 11
-141.0913981571622
 21
-213.6990804657139
 31
0.0
 11
-145.3226688087525
 21
-214.5953753024418
 31
0.0
 11
-149.9157893932767
 21
-214.6665658221922
 31
0.0
 11
-154.2499999999783
 21
-213.9030791685524
 31
0.0
  0
SPLINE
  5
C8
330
47
100
AcDbEntity
  8
0
  6
Continuous
 62
     7
100
AcDbSpline
210
0.0
220
0.0
230
1.0
 70
     8
 71
     3
 72
    11
 73
     7
 74
     5
 42
0.000000001
 43
0.0000000001
 44
0.00000001
 40
0.0
 40
0.0
 40
0.0
 40
0.0
 40
3.391196681737041
 40
7.392833291694397
 40
11.64289886090618
 40
15.71465071162414
 40
15.71465071162414
 40
15.71465071162414
 40
15.71465071162414
 10
-138.5572170415491
 20
-212.6386820790272
 30
0.0
 10
-139.5541137060948
 20
-213.1857614471244
 30
0.0
 10
-141.7273556511148
 20
-214.3783984120172
 30
0.0
 10
-145.6009510456616
 20
-215.0537993273414
 30
0.0
 10
-149.7303983048637
 20
-215.1912400632903
 30
0.0
 10
-152.4512327753018
 20
-214.5981412288436
 30
0.0
 10
-153.7824999999783
 20
-214.3079460448217
 30
0.0
 11
-138.5572170415491
 21
-212.6386820790272
 31
0.0
 11
-141.6081615750049
 21
-214.1192064449555
 31
0.0
 11
-145.5229331818562
 21
-214.9484584278961
 31
0.0
 11
-149.772488346658
 21
-215.0143238967692
 31
0.0
 11
-153.7824999999783
 21
-214.3079460448217
 31
0.0
  0
SPLINE
  5
C9
330
47
100
AcDbEntity
  8
0
  6
Continuous
 62
     7
100
AcDbSpline
210
0.0
220
0.0
230
1.0
 70
     8
 71
     3
 72
    11
 73
     7
 74
     5
 42
0.000000001
 43
0.0000000001
 44
0.00000001
 40
0.0
 40
0.0
 40
0.0
 40
0.0
 40
2.237618529948608
 40
4.400513434962426
 40
6.600064985474646
 40
8.94979816741065
 40
8.94979816741065
 40
8.94979816741065
 40
8.94979816741065
 10
-132.0606943304868
 20
-190.1037069940446
 30
0.0
 10
-132.6403596896263
 20
-190.5731222615996
 30
0.0
 10
-133.7803329002299
 20
-191.4962770305808
 30
0.0
 10
-135.4561032395782
 20
-192.9220074197943
 30
0.0
 10
-137.1342418670415
 20
-194.4020397047203
 30
0.0
 10
-138.2488612743687
 20
-195.4302944349235
 30
0.0
 10
-138.8245689597211
 20
-195.9613942509746
 30
0.0
 11
-132.0606943304868
 21
-190.1037069940446
 31
0.0
 11
-133.7938278582714
 21
-191.5190461268961
 31
0.0
 11
-135.4426265659363
 21
-192.9188951160868
 31
0.0
 11
-137.0913726084603
 21
-194.3748015386952
 31
0.0
 11
-138.8245689597211
 21
-195.9613942509746
 31
0.0
  0
SPLINE
  5
CA
330
47
100
AcDbEntity
  8
0
  6
Continuous
 62
     7
100
AcDbSpline
210
0.0
220
0.0
230
1.0
 70
     8
 71
     3
 72
    13
 73
     9
 74
     7
 42
0.000000001
 43
0.0000000001
 44
0.00000001
 40
0.0
 40
0.0
 40
0.0
 40
0.0
 40
4.312257084099115
 40
8.82710631946577
 40
13.13935370725105
 40
16.88999852601413
 40
19.87628116748913
 40
22.23360478168261
 40
22.23360478168261
 40
22.23360478168261
 40
22.23360478168261
 10
-154.4999999999783
 20
-194.8094135316387
 30
0.0
 10
-153.0921718468109
 20
-195.1203356100496
 30
0.0
 10
-150.2103750178021
 20
-195.7567870467655
 30
0.0
 10
-145.8016704954058
 20
-195.701915942728
 30
0.0
 10
-141.6297896322917
 20
-194.9981216322816
 30
0.0
 10
-138.2355831073815
 20
-193.6262964733129
 30
0.0
 10
-135.6189289811672
 20
-191.743599804725
 30
0.0
 10
-135.1894597008828
 20
-189.9649132332735
 30
0.0
 10
-134.9999999999783
 20
-189.1802484070398
 30
0.0
 11
-154.4999999999783
 21
-194.8094135316387
 31
0.0
 11
-150.2574229255706
 21
-195.5814892055897
 31
0.0
 11
-145.7425736903082
 21
-195.5814988016192
 31
0.0
 11
-141.5000097440419
 21
-194.809405093032
 31
0.0
 11
-138.0414222394315
 21
-193.3583678700024
 31
0.0
 11
-135.7840142426109
 21
-191.4033760059907
 31
0.0
 11
-134.9999999999783
 21
-189.1802484070398
 31
0.0
  0
SPLINE
  5
CB
330
47
100
AcDbEntity
  8
0
  6
Continuous
 62
     7
100
AcDbSpline
210
0.0
220
0.0
230
1.0
 70
     8
 71
     3
 72
    11
 73
     7
 74
     5
 42
0.000000001
 43
0.0000000001
 44
0.00000001
 40
0.0
 40
0.0
 40
0.0
 40
0.0
 40
1.712751898670691
 40
3.419020395185538
 40
5.123992744276947
 40
6.834685825452977
 40
6.834685825452977
 40
6.834685825452977
 40
6.834685825452977
 10
-154.7638746292126
 20
-178.0120236790306
 30
0.0
 10
-154.2073454861441
 20
-177.8839936035259
 30
0.0
 10
-153.0963938664137
 20
-177.6284181085499
 30
0.0
 10
-151.40873394781
 20
-177.3589013326514
 30
0.0
 10
-149.7091507465055
 20
-177.1798040090999
 30
0.0
 10
-148.5703526881923
 20
-177.157279423316
 30
0.0
 10
-147.9999999999783
 20
-177.1459982752462
 30
0.0
 11
-154.7638746292126
 21
-178.0120236790306
 31
0.0
 11
-153.0904849705983
 21
-177.6469399660475
 31
0.0
 11
-151.4062072992869
 21
-177.3738815289354
 31
0.0
 11
-149.7097044017634
 21
-177.2041504708429
 31
0.0
 11
-147.9999999999783
 21
-177.1459982752462
 31
0.0
  0
SPLINE
  5
CC
330
47
100
AcDbEntity
  8
0
  6
Continuous
 62
     7
100
AcDbSpline
210
0.0
220
0.0
230
1.0
 70
     8
 71
     3
 72
    15
 73
    11
 74
     9
 42
0.000000001
 43
0.0000000001
 44
0.00000001
 40
0.0
 40
0.0
 40
0.0
 40
0.0
 40
1.781273875668917
 40
4.123204843814012
 40
7.081941945816426
 40
10.40847607430572
 40
13.73501020279501
 40
16.6937473047974
 40
19.03567827294254
 40
20.81695214861147
 40
20.81695214861147
 40
20.81695214861147
 40
20.81695214861147
 10
-156.6499999999783
 20
-164.6998458525395
 30
0.0
 10
-156.4853177362785
 20
-165.289176326843
 30
0.0
 10
-156.1041193430634
 20
-166.6533294093956
 30
0.0
 10
-153.9362391742879
 20
-167.9574502643586
 30
0.0
 10
-151.2238085419299
 20
-168.8308723294166
 30
0.0
 10
-147.9999999999783
 20
-169.127508031648
 30
0.0
 10
-144.7761914580268
 20
-168.8308723294167
 30
0.0
 10
-142.0637608256688
 20
-167.9574502643585
 30
0.0
 10
-139.8958806568933
 20
-166.6533294093956
 30
0.0
 10
-139.5146822636781
 20
-165.289176326843
 30
0.0
 10
-139.3499999999783
 20
-164.6998458525395
 30
0.0
 11
-156.6499999999783
 21
-164.6998458525395
 31
0.0
 11
-155.9915336579096
 21
-166.3549466651776
 31
0.0
 11
-154.116473657242
 21
-167.7580826811713
 31
0.0
 11
-151.3102016252546
 21
-168.6956126815052
 31
0.0
 11
-147.9999999999783
 21
-169.0248458525396
 31
0.0
 11
-144.6897983747021
 21
-168.6956126815052
 31
0.0
 11
-141.8835263427147
 21
-167.7580826811713
 31
0.0
 11
-140.008466342047
 21
-166.3549466651776
 31
0.0
 11
-139.3499999999783
 21
-164.6998458525395
 31
0.0
  0
SPLINE
  5
CD
330
47
100
AcDbEntity
  8
0
  6
Continuous
 62
     7
100
AcDbSpline
210
0.0
220
0.0
230
1.0
 70
     8
 71
     3
 72
    13
 73
     9
 74
     7
 42
0.000000001
 43
0.0000000001
 44
0.00000001
 40
0.0
 40
0.0
 40
0.0
 40
0.0
 40
2.869309524476507
 40
5.873420746501921
 40
8.742723816084666
 40
11.23834517656724
 40
13.22537170128344
 40
14.79389856539125
 40
14.79389856539125
 40
14.79389856539125
 40
14.79389856539125
 10
-143.6749999999782
 20
-160.9542859811719
 30
0.0
 10
-144.6117471952242
 20
-160.7474032133879
 30
0.0
 10
-146.5292504711988
 20
-160.3239182207889
 30
0.0
 10
-149.4627346353397
 20
-160.3604286066062
 30
0.0
 10
-152.2386399782407
 20
-160.8287225144304
 30
0.0
 10
-154.4970927831064
 20
-161.7415138683172
 30
0.0
 10
-156.2381741737232
 20
-162.9942312733058
 30
0.0
 10
-156.5239364299427
 20
-164.1777419496822
 30
0.0
 10
-156.6499999999783
 20
-164.6998458525395
 30
0.0
 11
-143.6749999999782
 21
-160.9542859811719
 31
0.0
 11
-146.4979455148726
 21
-160.4405587058121
 31
0.0
 11
-149.5020567367972
 21
-160.4405523207618
 31
0.0
 11
-152.3249935164282
 21
-160.9542915960909
 31
0.0
 11
-154.6262844329574
 21
-161.9197894406453
 31
0.0
 11
-156.1283289846882
 21
-163.2206109501607
 31
0.0
 11
-156.6499999999783
 21
-164.6998458525395
 31
0.0
  0
SPLINE
  5
CE
330
47
100
AcDbEntity
  8
0
  6
Continuous
 62
     7
100
AcDbSpline
210
0.0
220
0.0
230
1.0
 70
     8
 71
     3
 72
    15
 73
    11
 74
     9
 42
0.000000001
 43
0.0000000001
 44
0.00000001
 40
0.0
 40
0.0
 40
0.0
 40
0.0
 40
3.763752959809907
 40
6.658413994353785
 40
8.945508624807552
 40
11.51308827253191
 40
14.9270206601205
 40
19.09942300671507
 40
23.61997378856494
 40
27.97143931949222
 40
27.97143931949222
 40
27.97143931949222
 40
27.97143931949222
 10
-142.4817263137011
 20
-159.6436848700514
 30
0.0
 10
-141.292126064018
 20
-160.046658240834
 30
0.0
 10
-139.18761733986
 20
-160.7595540083339
 30
0.0
 10
-136.7695784359801
 20
-162.7489382118083
 30
0.0
 10
-136.2218744718894
 20
-165.5497442120564
 30
0.0
 10
-138.059169481866
 20
-167.9038309505704
 30
0.0
 10
-141.0864725193257
 20
-169.4748781560778
 30
0.0
 10
-145.0471980860223
 20
-170.4039536682563
 30
0.0
 10
-149.4332617957911
 20
-170.6055777237679
 30
0.0
 10
-152.3361955611233
 20
-169.9900504036744
 30
0.0
 10
-153.7599999999783
 20
-169.6881521783379
 30
0.0
 11
-142.4817263137011
 21
-159.6436848700514
 31
0.0
 11
-139.0102803230899
 21
-161.0979541521613
 31
0.0
 11
-136.9281567105858
 21
-163.1088802514709
 31
0.0
 11
-136.5572687700318
 21
-165.3657019092917
 31
0.0
 11
-137.9548055563688
 21
-167.5196183872521
 31
0.0
 11
-140.9049018049634
 21
-169.2377180619882
 31
0.0
 11
-144.951514858475
 21
-170.2545091713653
 31
0.0
 11
-149.4692939484991
 21
-170.412785779733
 31
0.0
 11
-153.7599999999783
 21
-169.6881521783379
 31
0.0
  0
SPLINE
  5
CF
330
47
100
AcDbEntity
  8
0
  6
Continuous
 62
     7
100
AcDbSpline
210
0.0
220
0.0
230
1.0
 70
     8
 71
     3
 72
    11
 73
     7
 74
     5
 42
0.000000001
 43
0.0000000001
 44
0.00000001
 40
0.0
 40
0.0
 40
0.0
 40
0.0
 40
2.721910976637805
 40
5.575008946654641
 40
8.428106916671421
 40
11.15001789330914
 40
11.15001789330914
 40
11.15001789330914
 40
11.15001789330914
 10
-153.5182736862556
 20
-159.6436848700514
 30
0.0
 10
-152.6317394378145
 20
-159.4435183119312
 30
0.0
 10
-150.8159429563721
 20
-159.0335378528647
 30
0.0
 10
-147.9999999999783
 20
-158.8918975220148
 30
0.0
 10
-145.1840570435846
 20
-159.0335378528647
 30
0.0
 10
-143.3682605621422
 20
-159.4435183119312
 30
0.0
 10
-142.4817263137011
 20
-159.6436848700514
 30
0.0
 11
-153.5182736862556
 21
-159.6436848700514
 31
0.0
 11
-150.8474940248981
 21
-159.1185797680401
 31
0.0
 11
-147.9999999999783
 21
-158.9398458525396
 31
0.0
 11
-145.1525059750585
 21
-159.1185797680401
 31
0.0
 11
-142.4817263137011
 21
-159.6436848700514
 31
0.0
  0
SPLINE
  5
D0
330
47
100
AcDbEntity
  8
0
  6
Continuous
 62
     7
100
AcDbSpline
210
0.0
220
0.0
230
1.0
 70
     8
 71
     3
 72
    11
 73
     7
 74
     5
 42
0.000000001
 43
0.0000000001
 44
0.00000001
 40
0.0
 40
0.0
 40
0.0
 40
0.0
 40
2.750358901712937
 40
5.96684124497027
 40
9.53817967593825
 40
13.29917695127004
 40
13.29917695127004
 40
13.29917695127004
 40
13.29917695127004
 10
-135.4426316451039
 20
-173.5209982752462
 30
0.0
 10
-136.1913674675299
 20
-174.0570727098777
 30
0.0
 10
-137.815732857457
 20
-175.2200740218246
 30
0.0
 10
-140.8495727893593
 20
-176.2763853091917
 30
0.0
 10
-144.296902015694
 20
-177.0127184506281
 30
0.0
 10
-146.7445304799676
 20
-177.1008121257548
 30
0.0
 10
-147.9999999999783
 20
-177.1459982752462
 30
0.0
 11
-135.4426316451039
 21
-173.5209982752462
 31
0.0
 11
-137.7469544062951
 21
-175.0225210720878
 31
0.0
 11
-140.7499999999783
 21
-176.1746824526833
 31
0.0
 11
-144.2471248465302
 21
-176.8989586488118
 31
0.0
 11
-147.9999999999783
 21
-177.1459982752462
 31
0.0
  0
SPLINE
  5
D1
330
47
100
AcDbEntity
  8
0
  6
Continuous
 62
     7
100
AcDbSpline
210
0.0
220
0.0
230
1.0
 70
     8
 71
     3
 72
     9
 73
     5
 74
     3
 42
0.000000001
 43
0.0000000001
 44
0.00000001
 40
0.0
 40
0.0
 40
0.0
 40
0.0
 40
1.940394877104901
 40
4.211027954336894
 40
4.211027954336894
 40
4.211027954336894
 40
4.211027954336894
 10
-133.4999999999783
 20
-169.8959982752462
 30
0.0
 10
-133.6075708227492
 20
-170.5508284909378
 30
0.0
 10
-133.8410200976439
 20
-171.9719352787002
 30
0.0
 10
-134.8815606209164
 20
-172.9783358869991
 30
0.0
 10
-135.4426316451039
 20
-173.5209982752462
 30
0.0
 11
-133.4999999999783
 21
-169.8959982752462
 31
0.0
 11
-133.9940792528471
 21
-171.7724358519702
 31
0.0
 11
-135.4426316451039
 21
-173.5209982752462
 31
0.0
  0
SPLINE
  5
D2
330
47
100
AcDbEntity
  8
0
  6
Continuous
 62
     7
100
AcDbSpline
210
0.0
220
0.0
230
1.0
 70
     8
 71
     3
 72
    11
 73
     7
 74
     5
 42
0.000000001
 43
0.0000000001
 44
0.00000001
 40
0.0
 40
0.0
 40
0.0
 40
0.0
 40
1.109977485972126
 40
2.123980016357244
 40
3.081176062621405
 40
3.98127515337687
 40
3.98127515337687
 40
3.98127515337687
 40
3.98127515337687
 10
-135.4426316451039
 20
-173.5209982752462
 30
0.0
 10
-135.157565794658
 20
-173.2847200237449
 30
0.0
 10
-134.6120824966732
 20
-172.8325934914395
 30
0.0
 10
-133.7530279858733
 20
-172.2667195864954
 30
0.0
 10
-132.9126282451229
 20
-171.804918727908
 30
0.0
 10
-132.338792014041
 20
-171.5713663162576
 30
0.0
 10
-132.0606943304868
 20
-171.4581800505656
 30
0.0
 11
-135.4426316451039
 21
-173.5209982752462
 31
0.0
 11
-134.5746807166821
 21
-172.8291086845699
 31
0.0
 11
-133.7299486315244
 21
-172.2681908317174
 31
0.0
 11
-132.8878886336005
 21
-171.8130433471047
 31
0.0
 11
-132.0606943304868
 21
-171.4581800505656
 31
0.0
  0
SPLINE
  5
D3
330
47
100
AcDbEntity
  8
0
  6
Continuous
 62
     7
100
AcDbSpline
210
0.0
220
0.0
230
1.0
 70
     8
 71
     3
 72
    11
 73
     7
 74
     5
 42
0.000000001
 43
0.0000000001
 44
0.00000001
 40
0.0
 40
0.0
 40
0.0
 40
0.0
 40
1.696731897383882
 40
3.422502181395423
 40
5.129984922013957
 40
6.834697200940838
 40
6.834697200940838
 40
6.834697200940838
 40
6.834697200940838
 10
-147.9999999999783
 20
-177.1459982752462
 30
0.0
 10
-147.4343005825183
 20
-177.1570255369228
 30
0.0
 10
-146.29322019599
 20
-177.1792687992483
 30
0.0
 10
-144.5909423627485
 20
-177.3588175785838
 30
0.0
 10
-142.8987399444636
 20
-177.6293758367313
 30
0.0
 10
-141.7900301628913
 20
-177.8845434527486
 30
0.0
 10
-141.2361253707439
 20
-178.0120236790306
 30
0.0
 11
-147.9999999999783
 21
-177.1459982752462
 31
0.0
 11
-146.3042276744683
 21
-177.2030539758663
 31
0.0
 11
-144.5870222344807
 21
-177.3747762876093
 31
0.0
 11
-142.90161002947
 21
-177.6484238906874
 31
0.0
 11
-141.2361253707439
 21
-178.0120236790306
 31
0.0
  0
SPLINE
  5
D4
330
47
100
AcDbEntity
  8
0
  6
Continuous
 62
     7
100
AcDbSpline
210
0.0
220
0.0
230
1.0
 70
     8
 71
     3
 72
     9
 73
     5
 74
     3
 42
0.000000001
 43
0.0000000001
 44
0.00000001
 40
0.0
 40
0.0
 40
0.0
 40
0.0
 40
1.920707312004335
 40
3.962411636931197
 40
3.962411636931197
 40
3.962411636931197
 40
3.962411636931197
 10
-134.9999999999783
 20
-186.0542752411918
 30
0.0
 10
-134.5201299546571
 20
-186.4781326697767
 30
0.0
 10
-133.530159950248
 20
-187.3525488942367
 30
0.0
 10
-132.5603872582631
 20
-188.249317820471
 30
0.0
 10
-132.0606943304868
 20
-188.7113942509746
 30
0.0
 11
-134.9999999999783
 21
-186.0542752411918
 31
0.0
 11
-133.5651355320311
 21
-187.3310996368319
 31
0.0
 11
-132.0606943304868
 21
-188.7113942509746
 31
0.0
  0
SPLINE
  5
D5
330
47
100
AcDbEntity
  8
0
  6
Continuous
 62
     7
100
AcDbSpline
210
0.0
220
0.0
230
1.0
 70
     8
 71
     3
 72
    13
 73
     9
 74
     7
 42
0.000000001
 43
0.0000000001
 44
0.00000001
 40
0.0
 40
0.0
 40
0.0
 40
0.0
 40
2.629322493533329
 40
5.960176209752755
 40
10.14358773826775
 40
14.95340213232976
 40
19.98919551022782
 40
24.79902071833479
 40
24.79902071833479
 40
24.79902071833479
 40
24.79902071833479
 10
-133.4999999999783
 20
-168.4237550888126
 30
0.0
 10
-133.7113204356652
 20
-169.2989581644864
 30
0.0
 10
-134.1903438621789
 20
-171.2828778032051
 30
0.0
 10
-137.1089196213579
 20
-173.3828087006205
 30
0.0
 10
-140.8947653600765
 20
-174.9129213785827
 30
0.0
 10
-145.5480170922297
 20
-175.6979227244163
 30
0.0
 10
-150.4654182898863
 20
-175.7591251105986
 30
0.0
 10
-153.6797301371828
 20
-175.0492369690149
 30
0.0
 10
-155.2499999999783
 20
-174.7024392662498
 30
0.0
 11
-133.4999999999783
 21
-168.4237550888126
 31
0.0
 11
-134.3744774244531
 21
-170.9033974107193
 31
0.0
 11
-136.8923555747531
 21
-173.08396525904
 31
0.0
 11
-140.750010868357
 21
-174.7024298539578
 31
0.0
 11
-145.4821014238078
 21
-175.5636112981512
 31
0.0
 11
-150.5178948016004
 21
-175.5636005948875
 31
0.0
 11
-155.2499999999783
 21
-174.7024392662498
 31
0.0
  0
SPLINE
  5
D6
330
47
100
AcDbEntity
  8
0
  6
Continuous
 62
     7
100
AcDbSpline
210
0.0
220
0.0
230
1.0
 70
     8
 71
     3
 72
     9
 73
     5
 74
     3
 42
0.000000001
 43
0.0000000001
 44
0.00000001
 40
0.0
 40
0.0
 40
0.0
 40
0.0
 40
1.238280992220928
 40
2.325408461335531
 40
2.325408461335531
 40
2.325408461335531
 40
2.325408461335531
 10
-163.9393056694698
 20
-170.0658673074956
 30
0.0
 10
-163.6917564748494
 20
-169.7354611911699
 30
0.0
 10
-163.226875712748
 20
-169.1149807282535
 30
0.0
 10
-162.7285041229825
 20
-168.5210983699687
 30
0.0
 10
-162.4955156089123
 20
-168.2434586253402
 30
0.0
 11
-163.9393056694698
 21
-170.0658673074956
 31
0.0
 11
-163.1871615279549
 21
-169.0821910362885
 31
0.0
 11
-162.4955156089123
 21
-168.2434586253402
 31
0.0
  0
SPLINE
  5
D7
330
47
100
AcDbEntity
  8
0
  6
Continuous
 62
     7
100
AcDbSpline
210
0.0
220
0.0
230
1.0
 70
     8
 71
     3
 72
     9
 73
     5
 74
     3
 42
0.000000001
 43
0.0000000001
 44
0.00000001
 40
0.0
 40
0.0
 40
0.0
 40
0.0
 40
0.476754594109606
 40
0.9595955519729377
 40
0.9595955519729377
 40
0.9595955519729377
 40
0.9595955519729377
 10
-162.4999999999783
 20
-168.4237550888126
 30
0.0
 10
-162.4946497636149
 20
-168.2645144381395
 30
0.0
 10
-162.4838809686513
 20
-167.9440002343078
 30
0.0
 10
-162.4115364054354
 20
-167.6315586558649
 30
0.0
 10
-162.3751346863751
 20
-167.4743470169132
 30
0.0
 11
-162.4999999999783
 21
-168.4237550888126
 31
0.0
 11
-162.4687499960425
 21
-167.9480257741013
 31
0.0
 11
-162.3751346863751
 21
-167.4743470169132
 31
0.0
  0
SPLINE
  5
D8
330
47
100
AcDbEntity
  8
0
  6
Continuous
 62
     7
100
AcDbSpline
210
0.0
220
0.0
230
1.0
 70
     8
 71
     3
 72
    11
 73
     7
 74
     5
 42
0.000000001
 43
0.0000000001
 44
0.00000001
 40
0.0
 40
0.0
 40
0.0
 40
0.0
 40
3.216482352055575
 40
5.966841252122915
 40
8.237474324556619
 40
10.17786919999328
 40
10.17786919999328
 40
10.17786919999328
 40
10.17786919999328
 10
-155.2499999999783
 20
-174.7024392662498
 30
0.0
 10
-156.271977251695
 20
-174.3610906435076
 30
0.0
 10
-158.1678297211349
 20
-173.7278606570782
 30
0.0
 10
-160.4863674277184
 20
-172.2449956981106
 30
0.0
 10
-162.1499009543848
 20
-170.4841100249005
 30
0.0
 10
-162.3895653272462
 20
-169.0736701218572
 30
0.0
 10
-162.4999999999783
 20
-168.4237550888126
 30
0.0
 11
-155.2499999999783
 21
-174.7024392662498
 31
0.0
 11
-158.2530455936614
 21
-173.5502778856542
 31
0.0
 11
-160.5573683548527
 21
-172.0487550888126
 31
0.0
 11
-162.0059207471095
 21
-170.3001926655367
 31
0.0
 11
-162.4999999999783
 21
-168.4237550888126
 31
0.0
  0
SPLINE
  5
D9
330
47
100
AcDbEntity
  8
0
  6
Continuous
 62
     7
100
AcDbSpline
210
0.0
220
0.0
230
1.0
 70
     8
 71
     3
 72
     9
 73
     5
 74
     3
 42
0.000000001
 43
0.0000000001
 44
0.00000001
 40
0.0
 40
0.0
 40
0.0
 40
0.0
 40
2.270633077231957
 40
4.211027954336865
 40
4.211027954336865
 40
4.211027954336865
 40
4.211027954336865
 10
-160.5573683548527
 20
-173.5209982752462
 30
0.0
 10
-161.1184393790402
 20
-172.978335886999
 30
0.0
 10
-162.1589799023126
 20
-171.9719352787002
 30
0.0
 10
-162.3924291772074
 20
-170.5508284909378
 30
0.0
 10
-162.4999999999783
 20
-169.8959982752462
 30
0.0
 11
-160.5573683548527
 21
-173.5209982752462
 31
0.0
 11
-162.0059207471095
 21
-171.7724358519702
 31
0.0
 11
-162.4999999999783
 21
-169.8959982752462
 31
0.0
  0
SPLINE
  5
DA
330
47
100
AcDbEntity
  8
0
  6
Continuous
 62
     7
100
AcDbSpline
210
0.0
220
0.0
230
1.0
 70
     8
 71
     3
 72
     9
 73
     5
 74
     3
 42
0.000000001
 43
0.0000000001
 44
0.00000001
 40
0.0
 40
0.0
 40
0.0
 40
0.0
 40
1.27732497314703
 40
2.510930763558316
 40
2.510930763558316
 40
2.510930763558316
 40
2.510930763558316
 10
-154.7638746292126
 20
-178.0120236790306
 30
0.0
 10
-155.1775304455296
 20
-177.9103394545809
 30
0.0
 10
-155.9906838166561
 20
-177.7104513467545
 30
0.0
 10
-156.7851261234757
 20
-177.4458596769689
 30
0.0
 10
-157.1754310402355
 20
-177.3158673074956
 30
0.0
 11
-154.7638746292126
 21
-178.0120236790306
 31
0.0
 11
-155.9999999970824
 21
-177.6902269067982
 31
0.0
 11
-157.1754310402355
 21
-177.3158673074956
 31
0.0
  0
SPLINE
  5
DB
330
47
100
AcDbEntity
  8
0
  6
Continuous
 62
     7
100
AcDbSpline
210
0.0
220
0.0
230
1.0
 70
     8
 71
     3
 72
    11
 73
     7
 74
     5
 42
0.000000001
 43
0.0000000001
 44
0.00000001
 40
0.0
 40
0.0
 40
0.0
 40
0.0
 40
1.106948582530766
 40
2.414778996095638
 40
3.725149357865853
 40
5.092701303803539
 40
5.092701303803539
 40
5.092701303803539
 40
5.092701303803539
 10
-160.5573683548527
 20
-173.5209982752462
 30
0.0
 10
-160.2837545270445
 20
-173.7687690712226
 30
0.0
 10
-159.6868732238645
 20
-174.3092745076702
 30
0.0
 10
-158.8424495511415
 20
-175.2215661264493
 30
0.0
 10
-157.9868711517529
 20
-176.2385263168308
 30
0.0
 10
-157.4497342288963
 20
-176.9516776752448
 30
0.0
 10
-157.1754310402355
 20
-177.3158673074956
 30
0.0
 11
-160.5573683548527
 21
-173.5209982752462
 31
0.0
 11
-159.7469275013854
 21
-174.2750014506408
 31
0.0
 11
-158.8508794721039
 21
-175.2276390113455
 31
0.0
 11
-158.0081733696113
 21
-176.2310915071014
 31
0.0
 11
-157.1754310402355
 21
-177.3158673074956
 31
0.0
  0
SPLINE
  5
DC
330
47
100
AcDbEntity
  8
0
  6
Continuous
 62
     7
100
AcDbSpline
210
0.0
220
0.0
230
1.0
 70
     8
 71
     3
 72
    11
 73
     7
 74
     5
 42
0.000000001
 43
0.0000000001
 44
0.00000001
 40
0.0
 40
0.0
 40
0.0
 40
0.0
 40
0.9106642968610319
 40
1.86845687008338
 40
2.887581833535025
 40
3.981259243440779
 40
3.981259243440779
 40
3.981259243440779
 40
3.981259243440779
 10
-163.9393056694699
 20
-171.4581800505656
 30
0.0
 10
-163.6579861051038
 20
-171.5728074608896
 30
0.0
 10
-163.0807882627794
 20
-171.8079944399817
 30
0.0
 10
-162.2360227713396
 20
-172.2731664013428
 30
0.0
 10
-161.3807699558006
 20
-172.8383880579987
 30
0.0
 10
-160.8382170678181
 20
-173.2881711758958
 30
0.0
 10
-160.5573683548527
 20
-173.5209982752462
 30
0.0
 11
-163.9393056694699
 21
-171.4581800505656
 31
0.0
 11
-163.1026108401627
 21
-171.8176953149776
 31
0.0
 11
-162.2604720045069
 21
-172.2739505030568
 31
0.0
 11
-161.4122205557453
 21
-172.838826748389
 31
0.0
 11
-160.5573683548527
 21
-173.5209982752462
 31
0.0
  0
SPLINE
  5
DD
330
47
100
AcDbEntity
  8
0
  6
Continuous
 62
     7
100
AcDbSpline
210
0.0
220
0.0
230
1.0
 70
     8
 71
     3
 72
     9
 73
     5
 74
     3
 42
0.000000001
 43
0.0000000001
 44
0.00000001
 40
0.0
 40
0.0
 40
0.0
 40
0.0
 40
2.041704359993795
 40
3.962411636930784
 40
3.962411636930784
 40
3.962411636930784
 40
3.962411636930784
 10
-163.9393056694698
 20
-188.7113942509746
 30
0.0
 10
-163.4396127330851
 20
-188.2493178125621
 30
0.0
 10
-162.4698400410496
 20
-187.3525488863809
 30
0.0
 10
-161.4798700365716
 20
-186.4781326620004
 30
0.0
 10
-160.9999999999783
 20
-186.0542752411926
 30
0.0
 11
-163.9393056694698
 21
-188.7113942509746
 31
0.0
 11
-162.434864441911
 21
-187.3310996133159
 31
0.0
 11
-160.9999999999783
 21
-186.0542752411926
 31
0.0
  0
SPLINE
  5
DE
330
47
100
AcDbEntity
  8
0
  6
Continuous
 62
     7
100
AcDbSpline
210
0.0
220
0.0
230
1.0
 70
     8
 71
     3
 72
    13
 73
     9
 74
     7
 42
0.000000001
 43
0.0000000001
 44
0.00000001
 40
0.0
 40
0.0
 40
0.0
 40
0.0
 40
3.357815146796016
 40
6.022292257139902
 40
8.125275099415974
 40
10.25241064281083
 40
12.96480583869434
 40
16.3655148866824
 40
16.3655148866824
 40
16.3655148866824
 40
16.3655148866824
 10
-153.7599999999783
 20
-169.6881521783379
 30
0.0
 10
-154.8203432989438
 20
-169.31673831262
 30
0.0
 10
-156.722085040214
 20
-168.6506019159536
 30
0.0
 10
-158.9121429207682
 20
-166.9301182079722
 30
0.0
 10
-159.8122345468632
 20
-164.6145111309263
 30
0.0
 10
-158.7932897096234
 20
-162.3353960278637
 30
0.0
 10
-156.5392094466661
 20
-160.6500354280707
 30
0.0
 10
-154.5981060598432
 20
-160.0034045015754
 30
0.0
 10
-153.5182736862556
 20
-159.6436848700514
 30
0.0
 11
-153.7599999999783
 21
-169.6881521783379
 31
0.0
 11
-156.8544459132584
 21
-168.3845697713977
 31
0.0
 11
-158.8565156139383
 21
-166.6264016344884
 31
0.0
 11
-159.51914761465
 21
-164.6305420008603
 31
0.0
 11
-158.7606581847336
 21
-162.6432324086189
 31
0.0
 11
-156.6745575983796
 21
-160.909660357869
 31
0.0
 11
-153.5182736862556
 21
-159.6436848700514
 31
0.0
  0
SPLINE
  5
DF
330
47
100
AcDbEntity
  8
0
  6
Continuous
 62
     7
100
AcDbSpline
210
0.0
220
0.0
230
1.0
 70
     8
 71
     3
 72
    13
 73
     9
 74
     7
 42
0.000000001
 43
0.0000000001
 44
0.00000001
 40
0.0
 40
0.0
 40
0.0
 40
0.0
 40
1.814587875965149
 40
4.398670687145128
 40
5.955007631026229
 40
7.302876355910845
 40
10.06792104405487
 40
12.37295763592004
 40
12.37295763592004
 40
12.37295763592004
 40
12.37295763592004
 10
-162.3751346863751
 20
-167.4743470169132
 30
0.0
 10
-162.1857592488421
 20
-166.897986559065
 30
0.0
 10
-161.7267017267619
 20
-165.5008539791489
 30
0.0
 10
-160.5745201979665
 20
-163.8414132374774
 30
0.0
 10
-159.2728026888916
 20
-162.5518404285643
 30
0.0
 10
-157.7656602018428
 20
-161.4060331153617
 30
0.0
 10
-155.8681541359634
 20
-160.3764590931031
 30
0.0
 10
-154.2527108205472
 20
-159.8727078352422
 30
0.0
 10
-153.5182736862556
 20
-159.6436848700514
 30
0.0
 11
-162.3751346863751
 21
-167.4743470169132
 31
0.0
 11
-161.7402967301698
 21
-165.774432331532
 31
0.0
 11
-160.3051936375192
 21
-163.6254876820324
 31
0.0
 11
-159.1994513357769
 21
-162.5302622946163
 31
0.0
 11
-158.1292414394472
 21
-161.7108717407767
 31
0.0
 11
-155.6975171610441
 21
-160.3947451631679
 31
0.0
 11
-153.5182736862556
 21
-159.6436848700514
 31
0.0
  0
SPLINE
  5
E0
330
47
100
AcDbEntity
  8
0
  6
Continuous
 62
     7
100
AcDbSpline
210
0.0
220
0.0
230
1.0
 70
     8
 71
     3
 72
     9
 73
     5
 74
     3
 42
0.000000001
 43
0.0000000001
 44
0.00000001
 40
0.0
 40
0.0
 40
0.0
 40
0.0
 40
1.277324973147037
 40
2.510930763558323
 40
2.510930763558323
 40
2.510930763558323
 40
2.510930763558323
 10
-154.7638746292126
 20
-189.2703539282283
 30
0.0
 10
-155.1775304455296
 20
-189.1686697037786
 30
0.0
 10
-155.9906838166562
 20
-188.9687815959522
 30
0.0
 10
-156.7851261234757
 20
-188.7041899261666
 30
0.0
 10
-157.1754310402355
 20
-188.5741975566933
 30
0.0
 11
-154.7638746292126
 21
-189.2703539282283
 31
0.0
 11
-155.9999999970824
 21
-188.9485571559959
 31
0.0
 11
-157.1754310402355
 21
-188.5741975566933
 31
0.0
  0
SPLINE
  5
E1
330
47
100
AcDbEntity
  8
0
  6
Continuous
 62
     7
100
AcDbSpline
210
0.0
220
0.0
230
1.0
 70
     8
 71
     3
 72
    11
 73
     7
 74
     5
 42
0.000000001
 43
0.0000000001
 44
0.00000001
 40
0.0
 40
0.0
 40
0.0
 40
0.0
 40
3.760997275331878
 40
7.332335706299748
 40
10.54881804955708
 40
13.29917695127007
 40
13.29917695127007
 40
13.29917695127007
 40
13.29917695127007
 10
-147.9999999999783
 20
-177.1459982752462
 30
0.0
 10
-149.255469519989
 20
-177.1008121257549
 30
0.0
 10
-151.7030979842626
 20
-177.0127184506281
 30
0.0
 10
-155.1504272105973
 20
-176.2763853091917
 30
0.0
 10
-158.1842671424996
 20
-175.2200740218246
 30
0.0
 10
-159.8086325324267
 20
-174.0570727098777
 30
0.0
 10
-160.5573683548527
 20
-173.5209982752462
 30
0.0
 11
-147.9999999999783
 21
-177.1459982752462
 31
0.0
 11
-151.7528751534265
 21
-176.8989586488118
 31
0.0
 11
-155.2499999999783
 21
-176.1746824526833
 31
0.0
 11
-158.2530455936614
 21
-175.0225210720878
 31
0.0
 11
-160.5573683548527
 21
-173.5209982752462
 31
0.0
  0
SPLINE
  5
E2
330
47
100
AcDbEntity
  8
0
  6
Continuous
 62
     7
100
AcDbSpline
210
0.0
220
0.0
230
1.0
 70
     8
 71
     3
 72
    11
 73
     7
 74
     5
 42
0.000000001
 43
0.0000000001
 44
0.00000001
 40
0.0
 40
0.0
 40
0.0
 40
0.0
 40
1.839103638415171
 40
3.963518199618375
 40
6.457690664735877
 40
9.318696041757846
 40
9.318696041757846
 40
9.318696041757846
 40
9.318696041757846
 10
-163.9393056694699
 20
-196.0533015180437
 30
0.0
 10
-163.7517164882142
 20
-196.6445404038957
 30
0.0
 10
-163.3474363030305
 20
-197.9187405223053
 30
0.0
 10
-161.8053378502842
 20
-199.5047964555771
 30
0.0
 10
-159.7342397397171
 20
-200.906795452991
 30
0.0
 10
-158.0664488362818
 20
-201.5613127290768
 30
0.0
 10
-157.1754310402355
 20
-201.9109887749737
 30
0.0
 11
-163.9393056694699
 21
-196.0533015180437
 31
0.0
 11
-163.2597987013615
 21
-197.7622697693764
 31
0.0
 11
-161.8564064605293
 21
-199.3571451465087
 31
0.0
 11
-159.7956973960117
 21
-200.7622695010922
 31
0.0
 11
-157.1754310402355
 21
-201.9109887749737
 31
0.0
  0
SPLINE
  5
E3
330
47
100
AcDbEntity
  8
0
  6
Continuous
 62
     7
100
AcDbSpline
210
0.0
220
0.0
230
1.0
 70
     8
 71
     3
 72
     9
 73
     5
 74
     3
 42
0.000000001
 43
0.0000000001
 44
0.00000001
 40
0.0
 40
0.0
 40
0.0
 40
0.0
 40
1.277324973143366
 40
2.510930763531055
 40
2.510930763531055
 40
2.510930763531055
 40
2.510930763531055
 10
-154.7638746292128
 20
-196.6575506225096
 30
0.0
 10
-155.1775304455288
 20
-196.5558663980607
 30
0.0
 10
-155.9906838166469
 20
-196.3559782902373
 30
0.0
 10
-156.7851261234544
 20
-196.091386620444
 30
0.0
 10
-157.1754310402051
 20
-195.961394250968
 30
0.0
 11
-154.7638746292128
 21
-196.6575506225096
 31
0.0
 11
-155.9999999970786
 21
-196.3357538502763
 31
0.0
 11
-157.1754310402051
 21
-195.961394250968
 31
0.0
  0
SPLINE
  5
E4
330
47
100
AcDbEntity
  8
0
  6
Continuous
 62
     7
100
AcDbSpline
210
0.0
220
0.0
230
1.0
 70
     8
 71
     3
 72
    11
 73
     7
 74
     5
 42
0.000000001
 43
0.0000000001
 44
0.00000001
 40
0.0
 40
0.0
 40
0.0
 40
0.0
 40
3.549221905131069
 40
6.584100691750744
 40
9.089626841362435
 40
11.23075222155007
 40
11.23075222155007
 40
11.23075222155007
 40
11.23075222155007
 10
-155.9999999999783
 20
-202.8049636190549
 30
0.0
 10
-157.1276990361694
 20
-202.4283030698843
 30
0.0
 10
-159.2196741752405
 20
-201.7295665342095
 30
0.0
 10
-161.7780606099224
 20
-200.0933017515887
 30
0.0
 10
-163.6136838131246
 20
-198.1502554915972
 30
0.0
 10
-163.8781410507341
 20
-196.5939080115817
 30
0.0
 10
-163.9999999999783
 20
-195.8767603887793
 30
0.0
 11
-155.9999999999783
 21
-202.8049636190549
 31
0.0
 11
-159.3137054826632
 21
-201.5336131301218
 31
0.0
 11
-161.8564064605293
 21
-199.8767603887794
 31
0.0
 11
-163.454809100261
 21
-197.9473121975783
 31
0.0
 11
-163.9999999999783
 21
-195.8767603887793
 31
0.0
  0
SPLINE
  5
E5
330
47
100
AcDbEntity
  8
0
  6
Continuous
 62
     7
100
AcDbSpline
210
0.0
220
0.0
230
1.0
 70
     8
 71
     3
 72
     9
 73
     5
 74
     3
 42
0.000000001
 43
0.0000000001
 44
0.00000001
 40
0.0
 40
0.0
 40
0.0
 40
0.0
 40
2.419602492734143
 40
4.401750190378975
 40
4.401750190378975
 40
4.401750190378975
 40
4.401750190378975
 10
-158.2062072615749
 20
-212.0988595773349
 30
0.0
 10
-158.8657249110922
 20
-211.5816734333488
 30
0.0
 10
-160.0655219483825
 20
-210.6408063933443
 30
0.0
 10
-160.3650981501193
 20
-209.1580975328179
 30
0.0
 10
-160.4999999999783
 20
-208.4904203948997
 30
0.0
 11
-158.2062072615749
 21
-212.0988595773349
 31
0.0
 11
-159.9127492916992
 21
-210.383578103694
 31
0.0
 11
-160.4999999999783
 21
-208.4904203948997
 31
0.0
  0
SPLINE
  5
E6
330
47
100
AcDbEntity
  8
0
  6
Continuous
 62
     7
100
AcDbSpline
210
0.0
220
0.0
230
1.0
 70
     8
 71
     3
 72
     9
 73
     5
 74
     3
 42
0.000000001
 43
0.0000000001
 44
0.00000001
 40
0.0
 40
0.0
 40
0.0
 40
0.0
 40
2.314397754941955
 40
4.362898176601846
 40
4.362898176601846
 40
4.362898176601846
 40
4.362898176601846
 10
-154.2499999999783
 20
-213.9030791685524
 30
0.0
 10
-154.9886399828594
 20
-213.6686287602211
 30
0.0
 10
-156.3810588139568
 20
-213.2266635451186
 30
0.0
 10
-157.6230556623738
 20
-212.4592032534358
 30
0.0
 10
-158.2062072615749
 20
-212.0988595773349
 30
0.0
 11
-154.2499999999783
 21
-213.9030791685524
 31
0.0
 11
-156.4235910280518
 21
-213.1081332492833
 31
0.0
 11
-158.2062072615749
 21
-212.0988595773349
 31
0.0
  0
SPLINE
  5
E7
330
47
100
AcDbEntity
  8
0
  6
Continuous
 62
     7
100
AcDbSpline
210
0.0
220
0.0
230
1.0
 70
     8
 71
     3
 72
     9
 73
     5
 74
     3
 42
0.000000001
 43
0.0000000001
 44
0.00000001
 40
0.0
 40
0.0
 40
0.0
 40
0.0
 40
2.141280802810808
 40
4.036553392869093
 40
4.036553392869093
 40
4.036553392869093
 40
4.036553392869093
 10
-153.7824999999783
 20
-214.3079460448217
 30
0.0
 10
-154.4658897121203
 20
-214.0910325270398
 30
0.0
 10
-155.7541556140356
 20
-213.682126308663
 30
0.0
 10
-156.9032510988442
 20
-212.972072048145
 30
0.0
 10
-157.4427829584075
 20
-212.6386820790272
 30
0.0
 11
-153.7824999999783
 21
-214.3079460448217
 31
0.0
 11
-155.7935064191519
 21
-213.5724620803138
 31
0.0
 11
-157.4427829584075
 21
-212.6386820790272
 31
0.0
  0
SPLINE
  5
E8
330
47
100
AcDbEntity
  8
0
  6
Continuous
 62
     7
100
AcDbSpline
210
0.0
220
0.0
230
1.0
 70
     8
 71
     3
 72
     9
 73
     5
 74
     3
 42
0.000000001
 43
0.0000000001
 44
0.00000001
 40
0.0
 40
0.0
 40
0.0
 40
0.0
 40
1.233605790411232
 40
2.510930763558235
 40
2.510930763558235
 40
2.510930763558235
 40
2.510930763558235
 10
-138.8245689597211
 20
-177.3158673074956
 30
0.0
 10
-139.2148738764809
 20
-177.4458596769689
 30
0.0
 10
-140.0093161833004
 20
-177.7104513467546
 30
0.0
 10
-140.822469554427
 20
-177.9103394545809
 30
0.0
 10
-141.2361253707439
 20
-178.0120236790306
 30
0.0
 11
-138.8245689597211
 21
-177.3158673074956
 31
0.0
 11
-140.0000000028742
 21
-177.6902269067982
 31
0.0
 11
-141.2361253707439
 21
-178.0120236790306
 31
0.0
  0
SPLINE
  5
E9
330
47
100
AcDbEntity
  8
0
  6
Continuous
 62
     7
100
AcDbSpline
210
0.0
220
0.0
230
1.0
 70
     8
 71
     3
 72
     9
 73
     5
 74
     3
 42
0.000000001
 43
0.0000000001
 44
0.00000001
 40
0.0
 40
0.0
 40
0.0
 40
0.0
 40
1.233605790411232
 40
2.510930763558242
 40
2.510930763558242
 40
2.510930763558242
 40
2.510930763558242
 10
-138.8245689597211
 20
-195.9613942509746
 30
0.0
 10
-139.2148738764809
 20
-196.0913866204478
 30
0.0
 10
-140.0093161833004
 20
-196.3559782902335
 30
0.0
 10
-140.822469554427
 20
-196.5558663980599
 30
0.0
 10
-141.2361253707439
 20
-196.6575506225096
 30
0.0
 11
-138.8245689597211
 21
-195.9613942509746
 31
0.0
 11
-140.0000000028742
 21
-196.3357538502772
 31
0.0
 11
-141.2361253707439
 21
-196.6575506225096
 31
0.0
  0
SPLINE
  5
EA
330
47
100
AcDbEntity
  8
0
  6
Continuous
 62
     7
100
AcDbSpline
210
0.0
220
0.0
230
1.0
 70
     8
 71
     3
 72
     9
 73
     5
 74
     3
 42
0.000000001
 43
0.0000000001
 44
0.00000001
 40
0.0
 40
0.0
 40
0.0
 40
0.0
 40
1.233605790411241
 40
2.510930763558243
 40
2.510930763558243
 40
2.510930763558243
 40
2.510930763558243
 10
-138.8245689597211
 20
-188.5741975566933
 30
0.0
 10
-139.2148738764809
 20
-188.7041899261666
 30
0.0
 10
-140.0093161833004
 20
-188.9687815959522
 30
0.0
 10
-140.822469554427
 20
-189.1686697037786
 30
0.0
 10
-141.2361253707439
 20
-189.2703539282283
 30
0.0
 11
-138.8245689597211
 21
-188.5741975566933
 31
0.0
 11
-140.0000000028742
 21
-188.9485571559959
 31
0.0
 11
-141.2361253707439
 21
-189.2703539282283
 31
0.0
  0
SPLINE
  5
EB
330
47
100
AcDbEntity
  8
0
  6
Continuous
 62
     7
100
AcDbSpline
210
0.0
220
0.0
230
1.0
 70
     8
 71
     3
 72
    11
 73
     7
 74
     5
 42
0.000000001
 43
0.0000000001
 44
0.00000001
 40
0.0
 40
0.0
 40
0.0
 40
0.0
 40
1.157545906907591
 40
2.512095978347309
 40
4.152827320860383
 40
6.071625415921805
 40
6.071625415921805
 40
6.071625415921805
 40
6.071625415921805
 10
-139.3499999999783
 20
-164.6998458525395
 30
0.0
 10
-139.4158799943135
 20
-164.3121379195502
 30
0.0
 10
-139.5588521946571
 20
-163.4707375666989
 30
0.0
 10
-140.5512359828336
 20
-162.4202781819363
 30
0.0
 10
-141.9343636498335
 20
-161.535672535216
 30
0.0
 10
-143.0653377077113
 20
-161.1579180908432
 30
0.0
 10
-143.6749999999782
 20
-160.9542859811719
 30
0.0
 11
-139.3499999999783
 21
-164.6998458525395
 31
0.0
 11
-139.644743830138
 21
-163.5804537809077
 31
0.0
 11
-140.5088802572429
 21
-162.5373458525396
 31
0.0
 11
-141.8835279734018
 21
-161.6416098392514
 31
0.0
 11
-143.6749999999782
 21
-160.9542859811719
 31
0.0
  0
SPLINE
  5
EC
330
47
100
AcDbEntity
  8
0
  6
Continuous
 62
     7
100
AcDbSpline
210
0.0
220
0.0
230
1.0
 70
     8
 71
     3
 72
    13
 73
     9
 74
     7
 42
0.000000001
 43
0.0000000001
 44
0.00000001
 40
0.0
 40
0.0
 40
0.0
 40
0.0
 40
2.587907633511025
 40
4.398188156510106
 40
5.724239187047004
 40
7.302438659538367
 40
9.392516269218579
 40
12.37272945412971
 40
12.37272945412971
 40
12.37272945412971
 40
12.37272945412971
 10
-133.6248653135815
 20
-167.4743470169132
 30
0.0
 10
-133.9141248788819
 20
-166.6555594952382
 30
0.0
 10
-134.4057258961214
 20
-165.2640177258241
 30
0.0
 10
-135.5633679973394
 20
-163.7228037745413
 30
0.0
 10
-136.6680094206624
 20
-162.6026116427531
 30
0.0
 10
-137.9883834064681
 20
-161.5809489780962
 30
0.0
 10
-139.9194176971034
 20
-160.4677601293632
 30
0.0
 10
-141.533186202915
 20
-159.9487489905761
 30
0.0
 10
-142.4817263137011
 20
-159.6436848700514
 30
0.0
 11
-133.6248653135815
 21
-167.4743470169132
 31
0.0
 11
-134.6303928306388
 21
-165.0897757044482
 31
0.0
 11
-135.6948063624374
 21
-163.6254876820324
 31
0.0
 11
-136.6271352253671
 21
-162.6825273275007
 31
0.0
 11
-137.8707585605094
 21
-161.7108717407767
 31
0.0
 11
-139.6848599581219
 21
-160.6728637740356
 31
0.0
 11
-142.4817263137011
 21
-159.6436848700514
 31
0.0
  0
SPLINE
  5
ED
330
47
100
AcDbEntity
  8
0
  6
Continuous
 62
     7
100
AcDbSpline
210
0.0
220
0.0
230
1.0
 70
     8
 71
     3
 72
     9
 73
     5
 74
     3
 42
0.000000001
 43
0.0000000001
 44
0.00000001
 40
0.0
 40
0.0
 40
0.0
 40
0.0
 40
1.186370686518247
 40
2.325395622764202
 40
2.325395622764202
 40
2.325395622764202
 40
2.325395622764202
 10
-132.0606943304867
 20
-170.0658673074956
 30
0.0
 10
-132.2977700096525
 20
-169.7492469401634
 30
0.0
 10
-132.7624601537906
 20
-169.1286419217993
 30
0.0
 10
-133.260522757904
 20
-168.534496441934
 30
0.0
 10
-133.5044837157988
 20
-168.2434721979836
 30
0.0
 11
-132.0606943304867
 21
-170.0658673074956
 31
0.0
 11
-132.7806076864476
 21
-169.1228932006541
 31
0.0
 11
-133.5044837157988
 21
-168.2434721979836
 31
0.0
  0
SPLINE
  5
EE
330
47
100
AcDbEntity
  8
0
  6
Continuous
 62
     7
100
AcDbSpline
210
0.0
220
0.0
230
1.0
 70
     8
 71
     3
 72
    11
 73
     7
 74
     5
 42
0.000000001
 43
0.0000000001
 44
0.00000001
 40
0.0
 40
0.0
 40
0.0
 40
0.0
 40
1.445853688463447
 40
2.685951186073899
 40
3.92523682351904
 40
5.092694945323086
 40
5.092694945323086
 40
5.092694945323086
 40
5.092694945323086
 10
-138.8245689597211
 20
-177.3158673074956
 30
0.0
 10
-138.5343778023478
 20
-176.930947629887
 30
0.0
 10
-137.9952919280393
 20
-176.2158853382563
 30
0.0
 10
-137.151026574123
 20
-175.2158071690108
 30
0.0
 10
-136.3251816823781
 20
-174.3220911423641
 30
0.0
 10
-135.7309030565522
 20
-173.7826629467556
 30
0.0
 10
-135.4426316451039
 20
-173.5209982752462
 30
0.0
 11
-138.8245689597211
 21
-177.3158673074956
 31
0.0
 11
-137.9428028811002
 21
-176.1700132720186
 31
0.0
 11
-137.1438007068244
 21
-175.2216265732657
 31
0.0
 11
-136.2958550128151
 21
-174.3178472898868
 31
0.0
 11
-135.4426316451039
 21
-173.5209982752462
 31
0.0
  0
SPLINE
  5
EF
330
47
100
AcDbEntity
  8
0
  6
Continuous
 62
     7
100
AcDbSpline
210
0.0
220
0.0
230
1.0
 70
     8
 71
     3
 72
     9
 73
     5
 74
     3
 42
0.000000001
 43
0.0000000001
 44
0.00000001
 40
0.0
 40
0.0
 40
0.0
 40
0.0
 40
0.4828409578633317
 40
0.9595955519729396
 40
0.9595955519729396
 40
0.9595955519729396
 40
0.9595955519729396
 10
-133.6248653135815
 20
-167.4743470169132
 30
0.0
 10
-133.5884635945212
 20
-167.6315586558648
 30
0.0
 10
-133.5161190313054
 20
-167.9440002343079
 30
0.0
 10
-133.5053502363417
 20
-168.2645144381394
 30
0.0
 10
-133.4999999999783
 20
-168.4237550888126
 30
0.0
 11
-133.6248653135815
 21
-167.4743470169132
 31
0.0
 11
-133.5312500039141
 21
-167.9480257741013
 31
0.0
 11
-133.4999999999783
 21
-168.4237550888126
 31
0.0
  0
SPLINE
  5
F0
330
47
100
AcDbEntity
  8
0
  6
Continuous
 62
     7
100
AcDbSpline
210
0.0
220
0.0
230
1.0
 70
     8
 71
     3
 72
    11
 73
     7
 74
     5
 42
0.000000001
 43
0.0000000001
 44
0.00000001
 40
0.0
 40
0.0
 40
0.0
 40
0.0
 40
2.861005377021942
 40
5.355177842139492
 40
7.479592403342637
 40
9.318696041757814
 40
9.318696041757814
 40
9.318696041757814
 40
9.318696041757814
 10
-138.8245689597211
 20
-201.9109887749737
 30
0.0
 10
-137.9335511636748
 20
-201.5613127290768
 30
0.0
 10
-136.2657602602395
 20
-200.9067954529911
 30
0.0
 10
-134.1946621496724
 20
-199.5047964555771
 30
0.0
 10
-132.6525636969261
 20
-197.9187405223053
 30
0.0
 10
-132.2482835117426
 20
-196.6445404038956
 30
0.0
 10
-132.0606943304868
 20
-196.0533015180437
 30
0.0
 11
-138.8245689597211
 21
-201.9109887749737
 31
0.0
 11
-136.204302603945
 21
-200.7622695010922
 31
0.0
 11
-134.1435935394272
 21
-199.3571451465087
 31
0.0
 11
-132.7402012985951
 21
-197.7622697693764
 31
0.0
 11
-132.0606943304868
 21
-196.0533015180437
 31
0.0
  0
SPLINE
  5
F1
330
47
100
AcDbEntity
  8
0
  6
Continuous
 62
     7
100
AcDbSpline
210
0.0
220
0.0
230
1.0
 70
     8
 71
     3
 72
    11
 73
     7
 74
     5
 42
0.000000001
 43
0.0000000001
 44
0.00000001
 40
0.0
 40
0.0
 40
0.0
 40
0.0
 40
1.739664370685625
 40
3.775404365941386
 40
6.241243379456337
 40
9.124986178436558
 40
9.124986178436558
 40
9.124986178436558
 40
9.124986178436558
 10
-160.9999999999783
 20
-189.1802484070398
 30
0.0
 10
-160.9009896037583
 20
-189.7629308503266
 30
0.0
 10
-160.686118095645
 20
-191.0274631763977
 30
0.0
 10
-159.1946742455145
 20
-192.6061882628263
 30
0.0
 10
-157.1159852670293
 20
-193.9356533981408
 30
0.0
 10
-155.4162554672206
 20
-194.5033768353248
 30
0.0
 10
-154.4999999999783
 20
-194.8094135316387
 30
0.0
 11
-160.9999999999783
 21
-189.1802484070398
 31
0.0
 11
-160.557032393958
 21
-190.862571751689
 31
0.0
 11
-159.258330249176
 21
-192.4302484070398
 31
0.0
 11
-157.1923857046597
 21
-193.7764412593805
 31
0.0
 11
-154.4999999999783
 21
-194.8094135316387
 31
0.0
  0
SPLINE
  5
F2
330
47
100
AcDbEntity
  8
0
  6
Continuous
 62
     7
100
AcDbSpline
210
0.0
220
0.0
230
1.0
 70
     8
 71
     3
 72
    11
 73
     7
 74
     5
 42
0.000000001
 43
0.0000000001
 44
0.00000001
 40
0.0
 40
0.0
 40
0.0
 40
0.0
 40
2.349726196271087
 40
4.54927129483948
 40
6.712172871128869
 40
8.949798167390853
 40
8.949798167390853
 40
8.949798167390853
 40
8.949798167390853
 10
-157.1754310402051
 20
-195.961394250968
 30
0.0
 10
-157.7511370074984
 20
-195.4302960069916
 30
0.0
 10
-158.8657531098899
 20
-194.4020443007418
 30
0.0
 10
-160.5438899099021
 20
-192.9220133561922
 30
0.0
 10
-162.2196618857485
 20
-191.4962812943249
 30
0.0
 10
-163.3596385642055
 20
-190.5731236895886
 30
0.0
 10
-163.9393056694695
 20
-190.103706994045
 30
0.0
 11
-157.1754310402051
 21
-195.961394250968
 31
0.0
 11
-158.9086221979255
 21
-194.37480621098
 31
0.0
 11
-160.5573632756851
 21
-192.9189039134632
 31
0.0
 11
-162.2061669410951
 21
-191.5190504559733
 31
0.0
 11
-163.9393056694695
 21
-190.103706994045
 31
0.0
  0
SPLINE
  5
F3
330
47
100
AcDbEntity
  8
0
  6
Continuous
 62
     7
100
AcDbSpline
210
0.0
220
0.0
230
1.0
 70
     8
 71
     3
 72
    13
 73
     9
 74
     7
 42
0.000000001
 43
0.0000000001
 44
0.00000001
 40
0.0
 40
0.0
 40
0.0
 40
0.0
 40
2.901321372873152
 40
6.576746163837004
 40
11.1929244021039
 40
16.50030580244265
 40
22.05704332287219
 40
27.3644366549869
 40
27.3644366549869
 40
27.3644366549869
 40
27.3644366549869
 10
-131.9999999999783
 20
-195.8767603887794
 30
0.0
 10
-132.2331811704475
 20
-196.8425017138933
 30
0.0
 10
-132.7617587431906
 20
-199.0316544198792
 30
0.0
 10
-135.9822561353343
 20
-201.348819546122
 30
0.0
 10
-140.1597410878614
 20
-203.0372197430779
 30
0.0
 10
-145.2943636890534
 20
-203.9034281242983
 30
0.0
 10
-150.7204615619705
 20
-203.9709617926256
 30
0.0
 10
-154.2672884275547
 20
-203.187636946174
 30
0.0
 10
-155.9999999999783
 20
-202.8049636190549
 30
0.0
 11
-131.9999999999783
 21
-195.8767603887794
 31
0.0
 11
-132.9649406062954
 21
-198.6129174336419
 31
0.0
 11
-135.7432889100747
 21
-201.0190612662716
 31
0.0
 11
-140.000011992672
 21
-202.8049532330774
 31
0.0
 11
-145.2216291573075
 21
-203.755222412877
 31
0.0
 11
-150.7783666776304
 21
-203.7552106023792
 31
0.0
 11
-155.9999999999783
 21
-202.8049636190549
 31
0.0
  0
ENDBLK
  5
49
330
47
100
AcDbEntity
  8
0
100
AcDbBlockEnd
  0
BLOCK
  5
4C
330
4A
100
AcDbEntity
  8
0
100
AcDbBlockBegin
  2
Allg1
 70
     0
 10
-148.0
 20
-187.0
 30
0.0
  3
Allg1
  1

  0
INSERT
  5
4B
330
4A
100
AcDbEntity
  8
0
100
AcDbBlockReference
  2
G_INS_M25_M68L_PEPDS_LG-select__1
 10
-163.9999999999783
 20
-215.2572556239466
 30
0.0
  0
MTEXT
  5
F5
330
4A
100
AcDbEntity
  8
1
 62
     6
100
AcDbMText
 10
-147.99999999998
 20
-225.231455453928
 30
0.0
 40
5.0
 41
0.0
 71
     2
 72
     1
  1
 
  7
CONVERTER_11
 73
     1
 44
1.32052821128451
  0
ENDBLK
  5
4D
330
4A
100
AcDbEntity
  8
0
100
AcDbBlockEnd
  0
BLOCK
  5
4F
330
4E
100
AcDbEntity
  8
0
100
AcDbBlockBegin
  2
G_INS_M25_M68L_PEPDS_LG-select__2
 70
     0
 10
-292.008
 20
-202.7539991493944
 30
0.0
  3
G_INS_M25_M68L_PEPDS_LG-select__2
  1

  0
LINE
  5
F6
330
4E
100
AcDbEntity
  8
0
  6
Continuous
 62
     7
100
AcDbLine
 10
-274.61568725693
 20
-170.8146934799029
 30
0.0
 11
-268.758
 21
-174.19663079452
 31
0.0
  0
LINE
  5
F7
330
4E
100
AcDbEntity
  8
0
  6
Continuous
 62
     7
100
AcDbLine
 10
-283.258
 20
-174.1966307945201
 30
0.0
 11
-277.40031274307
 21
-170.8146934799028
 31
0.0
  0
LINE
  5
F8
330
4E
100
AcDbEntity
  8
0
  6
Continuous
 62
     7
100
AcDbLine
 10
-289.1156872569301
 20
-177.5785681091373
 30
0.0
 11
-283.258
 21
-174.1966307945201
 31
0.0
  0
LINE
  5
F9
330
4E
100
AcDbEntity
  8
0
  6
Continuous
 62
     7
100
AcDbLine
 10
-290.508
 20
-186.7539991493944
 30
0.0
 11
-290.508
 21
-179.99012452016
 31
0.0
  0
LINE
  5
FA
330
4E
100
AcDbEntity
  8
0
  6
Continuous
 62
     7
100
AcDbLine
 10
-290.508
 20
-193.5178737786287
 30
0.0
 11
-290.508
 21
-186.7539991493944
 31
0.0
  0
LINE
  5
FB
330
4E
100
AcDbEntity
  8
0
  6
Continuous
 62
     7
100
AcDbLine
 10
-283.258
 20
-199.3113675042688
 30
0.0
 11
-289.11568725693
 21
-195.9294301896516
 31
0.0
  0
LINE
  5
FC
330
4E
100
AcDbEntity
  8
0
  6
Continuous
 62
     7
100
AcDbLine
 10
-277.4003127430701
 20
-202.6933048188859
 30
0.0
 11
-283.258
 21
-199.3113675042688
 31
0.0
  0
LINE
  5
FD
330
4E
100
AcDbEntity
  8
0
  6
Continuous
 62
     7
100
AcDbLine
 10
-268.758
 20
-199.3113675042687
 30
0.0
 11
-274.6156872569301
 21
-202.6933048188859
 31
0.0
  0
LINE
  5
FE
330
4E
100
AcDbEntity
  8
0
  6
Continuous
 62
     7
100
AcDbLine
 10
-262.90031274307
 20
-195.9294301896515
 30
0.0
 11
-268.758
 21
-199.3113675042687
 31
0.0
  0
LINE
  5
FF
330
4E
100
AcDbEntity
  8
0
  6
Continuous
 62
     7
100
AcDbLine
 10
-268.758
 20
-174.19663079452
 30
0.0
 11
-262.9003127430701
 21
-177.5785681091372
 31
0.0
  0
LINE
  5
100
330
4E
100
AcDbEntity
  8
0
  6
Continuous
 62
     7
100
AcDbLine
 10
-261.508
 20
-179.9901245201601
 30
0.0
 11
-261.508
 21
-186.7539991493944
 31
0.0
  0
LINE
  5
101
330
4E
100
AcDbEntity
  8
0
  6
Continuous
 62
     7
100
AcDbLine
 10
-261.508
 20
-186.7539991493944
 30
0.0
 11
-261.508
 21
-193.5178737786287
 31
0.0
  0
LINE
  5
102
330
4E
100
AcDbEntity
  8
1
  6
DOT_CENTER
 62
     2
100
AcDbLine
 10
-258.408
 20
-186.7539991493944
 30
0.0
 11
-293.6080000000001
 21
-186.7539991493944
 31
0.0
  0
LINE
  5
103
330
4E
100
AcDbEntity
  8
1
  6
DOT_CENTER
 62
     2
100
AcDbLine
 10
-276.008
 20
-169.1539991493944
 30
0.0
 11
-276.008
 21
-204.3539991493944
 31
0.0
  0
ARC
  5
104
330
4E
100
AcDbEntity
  8
0
  6
Continuous
 62
     7
100
AcDbCircle
 10
-276.008
 20
-186.7539991493944
 30
0.0
 40
16.00000000000001
100
AcDbArc
 50
154.9921667653147
 51
205.0078332346851
  0
ARC
  5
105
330
4E
100
AcDbEntity
  8
0
  6
Continuous
 62
     7
100
AcDbCircle
 10
-276.008
 20
-186.7539991493944
 30
0.0
 40
15.99999999999994
100
AcDbArc
 50
325.0078332346853
 51
334.9921667653149
  0
ARC
  5
106
330
4E
100
AcDbEntity
  8
0
  6
Continuous
 62
     7
100
AcDbCircle
 10
-276.008
 20
-186.7539991493944
 30
0.0
 40
14.49999999999996
100
AcDbArc
 50
300.0000000000001
 51
0.0
  0
ARC
  5
107
330
4E
100
AcDbEntity
  8
0
  6
Continuous
 62
     7
100
AcDbCircle
 10
-276.008
 20
-186.7539991493944
 30
0.0
 40
16.00000000000002
100
AcDbArc
 50
145.0078332346857
 51
154.9921667653147
  0
ARC
  5
108
330
4E
100
AcDbEntity
  8
0
  6
Continuous
 62
     7
100
AcDbCircle
 10
-276.008
 20
-186.7539991493944
 30
0.0
 40
15.9999999999999
100
AcDbArc
 50
34.99216676531515
 51
85.00783323468528
  0
ARC
  5
109
330
4E
100
AcDbEntity
  8
0
  6
Continuous
 62
     7
100
AcDbCircle
 10
-276.008
 20
-186.7539991493944
 30
0.0
 40
14.5
100
AcDbArc
 50
90.0
 51
120.0000000000002
  0
ARC
  5
10A
330
4E
100
AcDbEntity
  8
0
  6
Continuous
 62
     7
100
AcDbCircle
 10
-276.008
 20
-186.7539991493944
 30
0.0
 40
15.99999999999995
100
AcDbArc
 50
85.00783323468528
 51
94.9921667653149
  0
ARC
  5
10B
330
4E
100
AcDbEntity
  8
0
  6
Continuous
 62
     7
100
AcDbCircle
 10
-276.008
 20
-186.7539991493944
 30
0.0
 40
16.00000000000007
100
AcDbArc
 50
94.9921667653149
 51
145.0078332346857
  0
ARC
  5
10C
330
4E
100
AcDbEntity
  8
0
  6
Continuous
 62
     7
100
AcDbCircle
 10
-276.008
 20
-186.7539991493944
 30
0.0
 40
16.00000000000005
100
AcDbArc
 50
214.9921667653149
 51
265.0078332346847
  0
ARC
  5
10D
330
4E
100
AcDbEntity
  8
0
  6
Continuous
 62
     7
100
AcDbCircle
 10
-276.008
 20
-186.7539991493944
 30
0.0
 40
14.50000000000003
100
AcDbArc
 50
240.0
 51
300.0000000000001
  0
ARC
  5
10E
330
4E
100
AcDbEntity
  8
0
  6
Continuous
 62
     7
100
AcDbCircle
 10
-276.008
 20
-186.7539991493944
 30
0.0
 40
15.99999999999999
100
AcDbArc
 50
205.0078332346851
 51
214.9921667653149
  0
ARC
  5
10F
330
4E
100
AcDbEntity
  8
0
  6
Continuous
 62
     7
100
AcDbCircle
 10
-276.008
 20
-186.7539991493944
 30
0.0
 40
14.5
100
AcDbArc
 50
180.0
 51
240.0
  0
ARC
  5
110
330
4E
100
AcDbEntity
  8
0
  6
Continuous
 62
     7
100
AcDbCircle
 10
-276.008
 20
-186.7539991493944
 30
0.0
 40
15.99999999999998
100
AcDbArc
 50
274.9921667653146
 51
325.0078332346853
  0
ARC
  5
111
330
4E
100
AcDbEntity
  8
0
  6
Continuous
 62
     7
100
AcDbCircle
 10
-276.008
 20
-186.7539991493944
 30
0.0
 40
16.0
100
AcDbArc
 50
265.0078332346847
 51
274.9921667653146
  0
ARC
  5
112
330
4E
100
AcDbEntity
  8
0
  6
Continuous
 62
     7
100
AcDbCircle
 10
-276.008
 20
-186.7539991493944
 30
0.0
 40
14.50000000000003
100
AcDbArc
 50
60.00000000000008
 51
90.0
  0
ARC
  5
113
330
4E
100
AcDbEntity
  8
0
  6
Continuous
 62
     7
100
AcDbCircle
 10
-276.008
 20
-186.7539991493944
 30
0.0
 40
15.99999999999998
100
AcDbArc
 50
25.00783323468498
 51
34.99216676531515
  0
ARC
  5
114
330
4E
100
AcDbEntity
  8
0
  6
Continuous
 62
     7
100
AcDbCircle
 10
-276.008
 20
-186.7539991493944
 30
0.0
 40
14.5
100
AcDbArc
 50
0.0
 51
60.00000000000008
  0
ARC
  5
115
330
4E
100
AcDbEntity
  8
0
  6
Continuous
 62
     7
100
AcDbCircle
 10
-276.008
 20
-186.7539991493944
 30
0.0
 40
15.99999999999999
100
AcDbArc
 50
334.9921667653149
 51
25.00783323468498
  0
ARC
  5
116
330
4E
100
AcDbEntity
  8
0
  6
Continuous
 62
     7
100
AcDbCircle
 10
-276.008
 20
-186.7539991493944
 30
0.0
 40
14.49999999999993
100
AcDbArc
 50
120.0000000000002
 51
180.0
  0
CIRCLE
  5
117
330
4E
100
AcDbEntity
  8
0
  6
Continuous
 62
     7
100
AcDbCircle
 10
-276.008
 20
-186.7539991493944
 30
0.0
 40
8.650000000000006
  0
CIRCLE
  5
118
330
4E
100
AcDbEntity
  8
0
  6
Continuous
 62
     7
100
AcDbCircle
 10
-276.008
 20
-186.7539991493944
 30
0.0
 40
11.51999999999998
  0
ENDBLK
  5
50
330
4E
100
AcDbEntity
  8
0
100
AcDbBlockEnd
  0
BLOCK
  5
53
330
51
100
AcDbEntity
  8
0
100
AcDbBlockBegin
  2
Drfsicht1
 70
     0
 10
-276.007999999975
 20
-186.7539991493943
 30
0.0
  3
Drfsicht1
  1

  0
INSERT
  5
52
330
51
100
AcDbEntity
  8
0
100
AcDbBlockReference
  2
G_INS_M25_M68L_PEPDS_LG-select__2
 10
-292.008
 20
-202.7539991493944
 30
0.0
  0
MTEXT
  5
119
330
51
100
AcDbEntity
  8
1
 62
     6
100
AcDbMText
 10
-276.007999999975
 20
-207.7559991493943
 30
0.0
 40
5.0
 41
0.0
 71
     2
 72
     1
  1
 
  7
CONVERTER_11
 73
     1
 44
1.32052821128451
  0
ENDBLK
  5
54
330
51
100
AcDbEntity
  8
0
100
AcDbBlockEnd
  0
BLOCK
  5
56
330
55
100
AcDbEntity
  8
0
100
AcDbBlockBegin
  2
G_INS_M25_M68L_PEPDS_LG-select__3
 70
     0
 10
-187.999999999975
 20
-140.7499999999799
 30
0.0
  3
G_INS_M25_M68L_PEPDS_LG-select__3
  1

  0
LINE
  5
11A
330
55
100
AcDbEntity
  8
0
  6
Continuous
 62
     7
100
AcDbLine
 10
-170.6076872569049
 20
-96.2499999999799
 30
0.0
 11
-173.392312743045
 21
-96.2499999999799
 31
0.0
  0
LINE
  5
11B
330
55
100
AcDbEntity
  8
0
  6
Continuous
 62
     7
100
AcDbLine
 10
-158.892312743045
 20
-109.2499999999799
 30
0.0
 11
-158.999999999975
 21
-109.2499999999799
 31
0.0
  0
LINE
  5
11C
330
55
100
AcDbEntity
  8
0
  6
Continuous
 62
     7
100
AcDbLine
 10
-158.999999999975
 20
-117.5175340094022
 30
0.0
 11
-158.999999999975
 21
-109.2499999999799
 31
0.0
  0
LINE
  5
11D
330
55
100
AcDbEntity
  8
0
  6
Continuous
 62
     7
100
AcDbLine
 10
-158.999999999975
 20
-117.5175340094022
 30
0.0
 11
-157.499999999975
 21
-117.6487670046911
 31
0.0
  0
LINE
  5
11E
330
55
100
AcDbEntity
  8
0
  6
Continuous
 62
     7
100
AcDbLine
 10
-158.999999999975
 20
-109.2499999999799
 30
0.0
 11
-170.6076872569049
 21
-109.2499999999799
 31
0.0
  0
LINE
  5
11F
330
55
100
AcDbEntity
  8
0
  6
Continuous
 62
     7
100
AcDbLine
 10
-157.499999999975
 20
-93.54999999997992
 30
0.0
 11
-171.999999999975
 21
-93.54999999997992
 31
0.0
  0
LINE
  5
120
330
55
100
AcDbEntity
  8
0
  6
Continuous
 62
     7
100
AcDbLine
 10
-157.499999999975
 20
-95.2499999999799
 30
0.0
 11
-164.749999999975
 21
-95.2499999999799
 31
0.0
  0
LINE
  5
121
330
55
100
AcDbEntity
  8
0
  6
Continuous
 62
     7
100
AcDbLine
 10
-164.749999999975
 20
-95.2499999999799
 30
0.0
 11
-179.249999999975
 21
-95.2499999999799
 31
0.0
  0
LINE
  5
122
330
55
100
AcDbEntity
  8
0
  6
Continuous
 62
     7
100
AcDbLine
 10
-171.999999999975
 20
-117.5175340094022
 30
0.0
 11
-158.999999999975
 21
-117.5175340094022
 31
0.0
  0
LINE
  5
123
330
55
100
AcDbEntity
  8
0
  6
Continuous
 62
     7
100
AcDbLine
 10
-170.6076872569049
 20
-96.2499999999799
 30
0.0
 11
-170.6076872569049
 21
-109.2499999999799
 31
0.0
  0
LINE
  5
124
330
55
100
AcDbEntity
  8
0
  6
Continuous
 62
     7
100
AcDbLine
 10
-160.479999999975
 20
-89.2499999999799
 30
0.0
 11
-171.999999999975
 21
-89.2499999999799
 31
0.0
  0
LINE
  5
125
330
55
100
AcDbEntity
  8
0
  6
Continuous
 62
     7
100
AcDbLine
 10
-157.499999999975
 20
-96.2499999999799
 30
0.0
 11
-158.892312743045
 21
-96.2499999999799
 31
0.0
  0
LINE
  5
126
330
55
100
AcDbEntity
  8
0
  6
Continuous
 62
     7
100
AcDbLine
 10
-157.499999999975
 20
-96.2499999999799
 30
0.0
 11
-157.499999999975
 21
-95.2499999999799
 31
0.0
  0
LINE
  5
127
330
55
100
AcDbEntity
  8
0
  6
Continuous
 62
     7
100
AcDbLine
 10
-157.499999999975
 20
-96.2499999999799
 30
0.0
 11
-157.499999999975
 21
-109.2499999999799
 31
0.0
  0
LINE
  5
128
330
55
100
AcDbEntity
  8
0
  6
Continuous
 62
     7
100
AcDbLine
 10
-157.499999999975
 20
-117.7799999999799
 30
0.0
 11
-157.499999999975
 21
-124.6499999999799
 31
0.0
  0
LINE
  5
129
330
55
100
AcDbEntity
  8
0
  6
Continuous
 62
     7
100
AcDbLine
 10
-157.499999999975
 20
-117.6487670046911
 30
0.0
 11
-157.499999999975
 21
-117.7799999999799
 31
0.0
  0
LINE
  5
12A
330
55
100
AcDbEntity
  8
0
  6
Continuous
 62
     7
100
AcDbLine
 10
-158.8923127430449
 20
-117.7799999999799
 30
0.0
 11
-158.892312743045
 21
-124.6499999999799
 31
0.0
  0
LINE
  5
12B
330
55
100
AcDbEntity
  8
0
  6
Continuous
 62
     7
100
AcDbLine
 10
-158.892312743045
 20
-96.2499999999799
 30
0.0
 11
-158.892312743045
 21
-109.2499999999799
 31
0.0
  0
LINE
  5
12C
330
55
100
AcDbEntity
  8
0
  6
Continuous
 62
     7
100
AcDbLine
 10
-157.499999999975
 20
-95.2499999999799
 30
0.0
 11
-157.499999999975
 21
-93.54999999997992
 31
0.0
  0
LINE
  5
12D
330
55
100
AcDbEntity
  8
0
  6
Continuous
 62
     7
100
AcDbLine
 10
-160.434999999975
 20
-140.7499999999799
 30
0.0
 11
-171.999999999975
 21
-140.7499999999799
 31
0.0
  0
LINE
  5
12E
330
55
100
AcDbEntity
  8
0
  6
Continuous
 62
     7
100
AcDbLine
 10
-159.499999999975
 20
-139.8149999999799
 30
0.0
 11
-171.999999999975
 21
-139.8149999999799
 31
0.0
  0
LINE
  5
12F
330
55
100
AcDbEntity
  8
0
  6
Continuous
 62
     7
100
AcDbLine
 10
-157.999999999975
 20
-125.7499999999799
 30
0.0
 11
-159.499999999975
 21
-125.7499999999799
 31
0.0
  0
LINE
  5
130
330
55
100
AcDbEntity
  8
0
  6
Continuous
 62
     7
100
AcDbLine
 10
-157.999999999975
 20
-125.7499999999799
 30
0.0
 11
-157.999999999975
 21
-125.2499999999799
 31
0.0
  0
LINE
  5
131
330
55
100
AcDbEntity
  8
0
  6
Continuous
 62
     7
100
AcDbLine
 10
-161.6698729810528
 20
-118.5499999999799
 30
0.0
 11
-160.4198729810528
 21
-118.5499999999799
 31
0.0
  0
LINE
  5
132
330
55
100
AcDbEntity
  8
0
  6
Continuous
 62
     7
100
AcDbLine
 10
-161.6698729810528
 20
-123.5499999999799
 30
0.0
 11
-169.0801270188972
 21
-123.5499999999799
 31
0.0
  0
LINE
  5
133
330
55
100
AcDbEntity
  8
0
  6
Continuous
 62
     7
100
AcDbLine
 10
-170.6076872569042
 20
-117.7799999999799
 30
0.0
 11
-170.607687256905
 21
-124.6499999999799
 31
0.0
  0
LINE
  5
134
330
55
100
AcDbEntity
  8
0
  6
Continuous
 62
     7
100
AcDbLine
 10
-173.3923127430218
 20
-117.779999999976
 30
0.0
 11
-173.392312743045
 21
-124.6499999999799
 31
0.0
  0
LINE
  5
135
330
55
100
AcDbEntity
  8
0
  6
Continuous
 62
     7
100
AcDbLine
 10
-159.499999999975
 20
-125.7499999999799
 30
0.0
 11
-171.999999999975
 21
-125.7499999999799
 31
0.0
  0
LINE
  5
136
330
55
100
AcDbEntity
  8
0
  6
Continuous
 62
     7
100
AcDbLine
 10
-159.499999999975
 20
-139.8149999999799
 30
0.0
 11
-159.499999999975
 21
-125.7499999999799
 31
0.0
  0
LINE
  5
137
330
55
100
AcDbEntity
  8
0
  6
Continuous
 62
     7
100
AcDbLine
 10
-160.434999999975
 20
-140.7499999999799
 30
0.0
 11
-159.499999999975
 21
-139.8149999999799
 31
0.0
  0
LINE
  5
138
330
55
100
AcDbEntity
  8
0
  6
Continuous
 62
     7
100
AcDbLine
 10
-184.499999999975
 20
-125.7499999999799
 30
0.0
 11
-185.999999999975
 21
-125.7499999999799
 31
0.0
  0
LINE
  5
139
330
55
100
AcDbEntity
  8
0
  6
Continuous
 62
     7
100
AcDbLine
 10
-185.999999999975
 20
-125.2499999999799
 30
0.0
 11
-187.999999999975
 21
-125.2499999999799
 31
0.0
  0
LINE
  5
13A
330
55
100
AcDbEntity
  8
0
  6
Continuous
 62
     7
100
AcDbLine
 10
-182.3301270188972
 20
-123.5499999999799
 30
0.0
 11
-182.3301270188972
 21
-118.5499999999799
 31
0.0
  0
LINE
  5
13B
330
55
100
AcDbEntity
  8
0
  6
Continuous
 62
     7
100
AcDbLine
 10
-182.3301270188972
 20
-123.5499999999799
 30
0.0
 11
-183.5801270188972
 21
-123.5499999999799
 31
0.0
  0
LINE
  5
13C
330
55
100
AcDbEntity
  8
0
  6
Continuous
 62
     7
100
AcDbLine
 10
-183.5801270188972
 20
-123.5499999999799
 30
0.0
 11
-183.5801270188972
 21
-118.5499999999799
 31
0.0
  0
LINE
  5
13D
330
55
100
AcDbEntity
  8
0
  6
Continuous
 62
     7
100
AcDbLine
 10
-174.9198729810528
 20
-118.5499999999799
 30
0.0
 11
-174.9198729810528
 21
-123.5499999999799
 31
0.0
  0
LINE
  5
13E
330
55
100
AcDbEntity
  8
0
  6
Continuous
 62
     7
100
AcDbLine
 10
-183.5801270188972
 20
-118.5499999999799
 30
0.0
 11
-182.3301270188972
 21
-118.5499999999799
 31
0.0
  0
LINE
  5
13F
330
55
100
AcDbEntity
  8
0
  6
Continuous
 62
     7
100
AcDbLine
 10
-185.1076872569049
 20
-117.7799999999799
 30
0.0
 11
-186.499999999975
 21
-117.7799999999799
 31
0.0
  0
LINE
  5
140
330
55
100
AcDbEntity
  8
0
  6
Continuous
 62
     7
100
AcDbLine
 10
-182.3301270188972
 20
-118.5499999999799
 30
0.0
 11
-174.9198729810528
 21
-118.5499999999799
 31
0.0
  0
LINE
  5
141
330
55
100
AcDbEntity
  8
0
  6
Continuous
 62
     7
100
AcDbLine
 10
-174.9198729810528
 20
-123.5499999999799
 30
0.0
 11
-182.3301270188972
 21
-123.5499999999799
 31
0.0
  0
LINE
  5
142
330
55
100
AcDbEntity
  8
0
  6
Continuous
 62
     7
100
AcDbLine
 10
-185.107687256905
 20
-124.6499999999799
 30
0.0
 11
-173.392312743045
 21
-124.6499999999799
 31
0.0
  0
LINE
  5
143
330
55
100
AcDbEntity
  8
0
  6
Continuous
 62
     7
100
AcDbLine
 10
-171.999999999975
 20
-125.2499999999799
 30
0.0
 11
-185.999999999975
 21
-125.2499999999799
 31
0.0
  0
LINE
  5
144
330
55
100
AcDbEntity
  8
0
  6
Continuous
 62
     7
100
AcDbLine
 10
-171.999999999975
 20
-125.7499999999799
 30
0.0
 11
-184.499999999975
 21
-125.7499999999799
 31
0.0
  0
LINE
  5
145
330
55
100
AcDbEntity
  8
0
  6
Continuous
 62
     7
100
AcDbLine
 10
-171.999999999975
 20
-139.8149999999799
 30
0.0
 11
-184.499999999975
 21
-139.8149999999799
 31
0.0
  0
LINE
  5
146
330
55
100
AcDbEntity
  8
0
  6
Continuous
 62
     7
100
AcDbLine
 10
-171.999999999975
 20
-140.7499999999799
 30
0.0
 11
-183.564999999975
 21
-140.7499999999799
 31
0.0
  0
LINE
  5
147
330
55
100
AcDbEntity
  8
0
  6
Continuous
 62
     7
100
AcDbLine
 10
-170.6076872569042
 20
-117.7799999999799
 30
0.0
 11
-173.3923127430218
 21
-117.779999999976
 31
0.0
  0
LINE
  5
148
330
55
100
AcDbEntity
  8
0
  6
Continuous
 62
     7
100
AcDbLine
 10
-170.6076872569049
 20
-109.2499999999799
 30
0.0
 11
-173.392312743045
 21
-109.2499999999799
 31
0.0
  0
LINE
  5
149
330
55
100
AcDbEntity
  8
0
  6
Continuous
 62
     7
100
AcDbLine
 10
-157.499999999975
 20
-109.2499999999799
 30
0.0
 11
-158.892312743045
 21
-109.2499999999799
 31
0.0
  0
LINE
  5
14A
330
55
100
AcDbEntity
  8
0
  6
Continuous
 62
     7
100
AcDbLine
 10
-186.499999999975
 20
-117.7799999999799
 30
0.0
 11
-186.499999999975
 21
-124.6499999999799
 31
0.0
  0
LINE
  5
14B
330
55
100
AcDbEntity
  8
0
  6
Continuous
 62
     7
100
AcDbLine
 10
-186.499999999975
 20
-117.7799999999799
 30
0.0
 11
-186.499999999975
 21
-117.6487670046911
 31
0.0
  0
LINE
  5
14C
330
55
100
AcDbEntity
  8
0
  6
Continuous
 62
     7
100
AcDbLine
 10
-185.1076872569049
 20
-117.7799999999799
 30
0.0
 11
-185.107687256905
 21
-124.6499999999799
 31
0.0
  0
LINE
  5
14D
330
55
100
AcDbEntity
  8
0
  6
Continuous
 62
     7
100
AcDbLine
 10
-187.999999999975
 20
-124.6499999999799
 30
0.0
 11
-186.499999999975
 21
-124.6499999999799
 31
0.0
  0
LINE
  5
14E
330
55
100
AcDbEntity
  8
0
  6
Continuous
 62
     7
100
AcDbLine
 10
-187.999999999975
 20
-125.2499999999799
 30
0.0
 11
-187.999999999975
 21
-124.6499999999799
 31
0.0
  0
LINE
  5
14F
330
55
100
AcDbEntity
  8
0
  6
Continuous
 62
     7
100
AcDbLine
 10
-185.999999999975
 20
-125.7499999999799
 30
0.0
 11
-185.999999999975
 21
-125.2499999999799
 31
0.0
  0
LINE
  5
150
330
55
100
AcDbEntity
  8
0
  6
Continuous
 62
     7
100
AcDbLine
 10
-184.499999999975
 20
-139.8149999999799
 30
0.0
 11
-184.499999999975
 21
-125.7499999999799
 31
0.0
  0
LINE
  5
151
330
55
100
AcDbEntity
  8
0
  6
Continuous
 62
     7
100
AcDbLine
 10
-183.564999999975
 20
-140.7499999999799
 30
0.0
 11
-184.499999999975
 21
-139.8149999999799
 31
0.0
  0
LINE
  5
152
330
55
100
AcDbEntity
  8
0
  6
Continuous
 62
     7
100
AcDbLine
 10
-186.499999999975
 20
-95.2499999999799
 30
0.0
 11
-186.499999999975
 21
-93.54999999997992
 31
0.0
  0
LINE
  5
153
330
55
100
AcDbEntity
  8
0
  6
Continuous
 62
     7
100
AcDbLine
 10
-179.249999999975
 20
-95.2499999999799
 30
0.0
 11
-186.499999999975
 21
-95.2499999999799
 31
0.0
  0
LINE
  5
154
330
55
100
AcDbEntity
  8
0
  6
Continuous
 62
     7
100
AcDbLine
 10
-186.499999999975
 20
-96.2499999999799
 30
0.0
 11
-186.499999999975
 21
-95.2499999999799
 31
0.0
  0
LINE
  5
155
330
55
100
AcDbEntity
  8
0
  6
Continuous
 62
     7
100
AcDbLine
 10
-186.499999999975
 20
-96.2499999999799
 30
0.0
 11
-186.499999999975
 21
-109.2499999999799
 31
0.0
  0
LINE
  5
156
330
55
100
AcDbEntity
  8
0
  6
Continuous
 62
     7
100
AcDbLine
 10
-185.107687256905
 20
-96.2499999999799
 30
0.0
 11
-186.499999999975
 21
-96.2499999999799
 31
0.0
  0
LINE
  5
157
330
55
100
AcDbEntity
  8
0
  6
Continuous
 62
     7
100
AcDbLine
 10
-185.107687256905
 20
-109.2499999999799
 30
0.0
 11
-186.499999999975
 21
-109.2499999999799
 31
0.0
  0
LINE
  5
158
330
55
100
AcDbEntity
  8
0
  6
Continuous
 62
     7
100
AcDbLine
 10
-184.999999999975
 20
-117.5175340094022
 30
0.0
 11
-184.999999999975
 21
-109.2499999999799
 31
0.0
  0
LINE
  5
159
330
55
100
AcDbEntity
  8
0
  6
Continuous
 62
     7
100
AcDbLine
 10
-184.999999999975
 20
-117.5175340094022
 30
0.0
 11
-186.499999999975
 21
-117.6487670046911
 31
0.0
  0
LINE
  5
15A
330
55
100
AcDbEntity
  8
0
  6
Continuous
 62
     7
100
AcDbLine
 10
-185.107687256905
 20
-96.2499999999799
 30
0.0
 11
-185.107687256905
 21
-109.2499999999799
 31
0.0
  0
LINE
  5
15B
330
55
100
AcDbEntity
  8
0
  6
Continuous
 62
     7
100
AcDbLine
 10
-171.999999999975
 20
-93.54999999997992
 30
0.0
 11
-186.499999999975
 21
-93.54999999997992
 31
0.0
  0
LINE
  5
15C
330
55
100
AcDbEntity
  8
0
  6
Continuous
 62
     7
100
AcDbLine
 10
-169.0801270188972
 20
-123.5499999999799
 30
0.0
 11
-169.0801270188972
 21
-118.5499999999799
 31
0.0
  0
LINE
  5
15D
330
55
100
AcDbEntity
  8
0
  6
Continuous
 62
     7
100
AcDbLine
 10
-169.0801270188972
 20
-118.5499999999799
 30
0.0
 11
-161.6698729810528
 21
-118.5499999999799
 31
0.0
  0
LINE
  5
15E
330
55
100
AcDbEntity
  8
0
  6
Continuous
 62
     7
100
AcDbLine
 10
-160.4198729810528
 20
-123.5499999999799
 30
0.0
 11
-161.6698729810528
 21
-123.5499999999799
 31
0.0
  0
LINE
  5
15F
330
55
100
AcDbEntity
  8
0
  6
Continuous
 62
     7
100
AcDbLine
 10
-161.6698729810528
 20
-118.5499999999799
 30
0.0
 11
-161.6698729810528
 21
-123.5499999999799
 31
0.0
  0
LINE
  5
160
330
55
100
AcDbEntity
  8
0
  6
Continuous
 62
     7
100
AcDbLine
 10
-155.999999999975
 20
-125.2499999999799
 30
0.0
 11
-157.999999999975
 21
-125.2499999999799
 31
0.0
  0
LINE
  5
161
330
55
100
AcDbEntity
  8
0
  6
Continuous
 62
     7
100
AcDbLine
 10
-170.607687256905
 20
-124.6499999999799
 30
0.0
 11
-158.892312743045
 21
-124.6499999999799
 31
0.0
  0
LINE
  5
162
330
55
100
AcDbEntity
  8
0
  6
Continuous
 62
     7
100
AcDbLine
 10
-157.499999999975
 20
-124.6499999999799
 30
0.0
 11
-155.999999999975
 21
-124.6499999999799
 31
0.0
  0
LINE
  5
163
330
55
100
AcDbEntity
  8
0
  6
Continuous
 62
     7
100
AcDbLine
 10
-155.999999999975
 20
-125.2499999999799
 30
0.0
 11
-155.999999999975
 21
-124.6499999999799
 31
0.0
  0
LINE
  5
164
330
55
100
AcDbEntity
  8
0
  6
Continuous
 62
     7
100
AcDbLine
 10
-157.499999999975
 20
-117.7799999999799
 30
0.0
 11
-158.8923127430449
 21
-117.7799999999799
 31
0.0
  0
LINE
  5
165
330
55
100
AcDbEntity
  8
0
  6
Continuous
 62
     7
100
AcDbLine
 10
-160.4198729810528
 20
-118.5499999999799
 30
0.0
 11
-160.4198729810528
 21
-123.5499999999799
 31
0.0
  0
LINE
  5
166
330
55
100
AcDbEntity
  8
0
  6
Continuous
 62
     7
100
AcDbLine
 10
-157.999999999975
 20
-125.2499999999799
 30
0.0
 11
-171.999999999975
 21
-125.2499999999799
 31
0.0
  0
LINE
  5
167
330
55
100
AcDbEntity
  8
0
  6
Continuous
 62
     7
100
AcDbLine
 10
-184.999999999975
 20
-109.2499999999799
 30
0.0
 11
-185.107687256905
 21
-109.2499999999799
 31
0.0
  0
LINE
  5
168
330
55
100
AcDbEntity
  8
0
  6
Continuous
 62
     7
100
AcDbLine
 10
-184.999999999975
 20
-117.5175340094022
 30
0.0
 11
-171.999999999975
 21
-117.5175340094022
 31
0.0
  0
LINE
  5
169
330
55
100
AcDbEntity
  8
0
  6
Continuous
 62
     7
100
AcDbLine
 10
-173.392312743045
 20
-109.2499999999799
 30
0.0
 11
-184.999999999975
 21
-109.2499999999799
 31
0.0
  0
LINE
  5
16A
330
55
100
AcDbEntity
  8
0
  6
Continuous
 62
     7
100
AcDbLine
 10
-173.392312743045
 20
-96.2499999999799
 30
0.0
 11
-173.392312743045
 21
-109.2499999999799
 31
0.0
  0
LINE
  5
16B
330
55
100
AcDbEntity
  8
0
  6
Continuous
 62
     7
100
AcDbLine
 10
-171.999999999975
 20
-89.2499999999799
 30
0.0
 11
-183.519999999975
 21
-89.2499999999799
 31
0.0
  0
LINE
  5
16C
330
55
100
AcDbEntity
  8
1
  6
DOT_CENTER
 62
     2
100
AcDbLine
 10
-171.999999999975
 20
-95.2499999999799
 30
0.0
 11
-171.999999999975
 21
-93.54999999997992
 31
0.0
  0
LINE
  5
16D
330
55
100
AcDbEntity
  8
1
  6
DOT_CENTER
 62
     2
100
AcDbLine
 10
-171.999999999975
 20
-117.648767004691
 30
0.0
 11
-171.999999999975
 21
-109.2499999999799
 31
0.0
  0
LINE
  5
16E
330
55
100
AcDbEntity
  8
1
  6
DOT_CENTER
 62
     2
100
AcDbLine
 10
-171.999999999975
 20
-140.7499999999799
 30
0.0
 11
-171.999999999975
 21
-124.6499999999801
 31
0.0
  0
ARC
  5
16F
330
55
100
AcDbEntity
  8
0
  6
Continuous
 62
     7
100
AcDbCircle
 10
-164.3266017297642
 20
-95.09838910574081
 30
0.0
 40
7.000000000000011
100
AcDbArc
 50
12.77943310339502
 51
56.66628573378021
  0
ARC
  5
170
330
55
100
AcDbEntity
  8
0
  6
Continuous
 62
     7
100
AcDbCircle
 10
-179.6733982701857
 20
-95.09838910574081
 30
0.0
 40
7.000000000000067
100
AcDbArc
 50
123.3337142662206
 51
167.2205668966051
  0
SPLINE
  5
171
330
55
100
AcDbEntity
  8
0
  6
Continuous
 62
     7
100
AcDbSpline
210
0.0
220
0.0
230
1.0
 70
     8
 71
     3
 72
    11
 73
     7
 74
     5
 42
0.000000001
 43
0.0000000001
 44
0.00000001
 40
0.0
 40
0.0
 40
0.0
 40
0.0
 40
1.509267880409186
 40
3.001584200797243
 40
4.483813288302851
 40
5.965982562811242
 40
5.965982562811242
 40
5.965982562811242
 40
5.965982562811242
 10
-170.6076872569049
 20
-96.2499999999799
 30
0.0
 10
-170.1265254910138
 20
-96.10233906442437
 30
0.0
 10
-169.1696061929586
 20
-95.80867568278595
 30
0.0
 10
-167.7063929178527
 20
-95.49655597197483
 30
0.0
 10
-166.2327415514726
 20
-95.28920380664022
 30
0.0
 10
-165.2442405356955
 20
-95.2630677547707
 30
0.0
 10
-164.749999999975
 20
-95.2499999999799
 30
0.0
 11
-170.6076872569049
 21
-96.2499999999799
 31
0.0
 11
-169.1584893021148
 21
-95.82843764004475
 31
0.0
 11
-167.6998620517322
 21
-95.51313691570235
 31
0.0
 11
-166.2306474448829
 21
-95.3171483715434
 31
0.0
 11
-164.749999999975
 21
-95.2499999999799
 31
0.0
  0
SPLINE
  5
172
330
55
100
AcDbEntity
  8
0
  6
Continuous
 62
     7
100
AcDbSpline
210
0.0
220
0.0
230
1.0
 70
     8
 71
     3
 72
    11
 73
     7
 74
     5
 42
0.000000001
 43
0.0000000001
 44
0.00000001
 40
0.0
 40
0.0
 40
0.0
 40
0.0
 40
1.466761285398456
 40
2.970363696420883
 40
4.463784178917565
 40
5.966000020787881
 40
5.966000020787881
 40
5.966000020787881
 40
5.966000020787881
 10
-164.749999999975
 20
-95.2499999999799
 30
0.0
 10
-164.2608960630264
 20
-95.26271971207954
 30
0.0
 10
-163.2704032054351
 20
-95.28847863653418
 30
0.0
 10
-161.7943518601834
 20
-95.49623672801857
 30
0.0
 10
-160.3261968639439
 20
-95.8097794076526
 30
0.0
 10
-159.371208748528
 20
-96.10297285349148
 30
0.0
 10
-158.892312743045
 20
-96.2499999999799
 30
0.0
 11
-164.749999999975
 21
-95.2499999999799
 31
0.0
 11
-163.2847058965856
 21
-95.31558856999983
 31
0.0
 11
-161.7942745525026
 21
-95.51417009402493
 31
0.0
 11
-160.3346647671321
 21
-95.830151128621
 31
0.0
 11
-158.892312743045
 21
-96.2499999999799
 31
0.0
  0
SPLINE
  5
173
330
55
100
AcDbEntity
  8
0
  6
Continuous
 62
     7
100
AcDbSpline
210
0.0
220
0.0
230
1.0
 70
     8
 71
     3
 72
    11
 73
     7
 74
     5
 42
0.000000001
 43
0.0000000001
 44
0.00000001
 40
0.0
 40
0.0
 40
0.0
 40
0.0
 40
3.003553142094055
 40
5.859488949072064
 40
8.715433275057359
 40
11.71899549181733
 40
11.71899549181733
 40
11.71899549181733
 40
11.71899549181733
 10
-158.8923127430449
 20
-117.7799999999799
 30
0.0
 10
-159.892832380316
 20
-117.742407865112
 30
0.0
 10
-161.8446985474721
 20
-117.6690711721613
 30
0.0
 10
-164.7499940414201
 20
-117.6388707661899
 30
0.0
 10
-167.6552925664885
 20
-117.6690708843058
 30
0.0
 10
-169.6071645959245
 20
-117.7424077670969
 30
0.0
 10
-170.6076872569042
 20
-117.7799999999799
 30
0.0
 11
-158.8923127430449
 21
-117.7799999999799
 31
0.0
 11
-161.8942390869476
 21
-117.6811581875189
 31
0.0
 11
-164.7499912025986
 21
-117.6487670046914
 31
0.0
 11
-167.6057518401103
 21
-117.6811579842636
 31
0.0
 11
-170.6076872569042
 21
-117.7799999999799
 31
0.0
  0
SPLINE
  5
174
330
55
100
AcDbEntity
  8
0
  6
Continuous
 62
     7
100
AcDbSpline
210
0.0
220
0.0
230
1.0
 70
     8
 71
     3
 72
    11
 73
     7
 74
     5
 42
0.000000001
 43
0.0000000001
 44
0.00000001
 40
0.0
 40
0.0
 40
0.0
 40
0.0
 40
3.003553144331065
 40
5.859488949095053
 40
8.715433275073893
 40
11.71899549184103
 40
11.71899549184103
 40
11.71899549184103
 40
11.71899549184103
 10
-173.3923127430218
 20
-117.779999999976
 30
0.0
 10
-174.3928323810383
 20
-117.7424078650852
 30
0.0
 10
-176.3446985482027
 20
-117.6690711721441
 30
0.0
 10
-179.249994042156
 20
-117.6388707661981
 30
0.0
 10
-182.1552925664866
 20
-117.6690708843056
 30
0.0
 10
-184.1071645959229
 20
-117.7424077670968
 30
0.0
 10
-185.1076872569049
 20
-117.7799999999799
 30
0.0
 11
-173.3923127430218
 21
-117.779999999976
 31
0.0
 11
-176.3942390891611
 21
-117.6811581874689
 31
0.0
 11
-179.2499912025986
 21
-117.6487670046914
 31
0.0
 11
-182.1057518401039
 21
-117.6811579842635
 31
0.0
 11
-185.1076872569049
 21
-117.7799999999799
 31
0.0
  0
SPLINE
  5
175
330
55
100
AcDbEntity
  8
0
  6
Continuous
 62
     7
100
AcDbSpline
210
0.0
220
0.0
230
1.0
 70
     8
 71
     3
 72
    11
 73
     7
 74
     5
 42
0.000000001
 43
0.0000000001
 44
0.00000001
 40
0.0
 40
0.0
 40
0.0
 40
0.0
 40
1.509267880409244
 40
3.001584200797326
 40
4.483813288302932
 40
5.965982562811325
 40
5.965982562811325
 40
5.965982562811325
 40
5.965982562811325
 10
-185.107687256905
 20
-96.2499999999799
 30
0.0
 10
-184.6265254910138
 20
-96.10233906442436
 30
0.0
 10
-183.6696061929587
 20
-95.80867568278592
 30
0.0
 10
-182.2063929178527
 20
-95.49655597197484
 30
0.0
 10
-180.7327415514726
 20
-95.28920380664024
 30
0.0
 10
-179.7442405356955
 20
-95.2630677547707
 30
0.0
 10
-179.249999999975
 20
-95.2499999999799
 30
0.0
 11
-185.107687256905
 21
-96.2499999999799
 31
0.0
 11
-183.6584893021148
 21
-95.82843764004474
 31
0.0
 11
-182.1998620517322
 21
-95.51313691570235
 31
0.0
 11
-180.7306474448829
 21
-95.31714837154341
 31
0.0
 11
-179.249999999975
 21
-95.2499999999799
 31
0.0
  0
SPLINE
  5
176
330
55
100
AcDbEntity
  8
0
  6
Continuous
 62
     7
100
AcDbSpline
210
0.0
220
0.0
230
1.0
 70
     8
 71
     3
 72
    11
 73
     7
 74
     5
 42
0.000000001
 43
0.0000000001
 44
0.00000001
 40
0.0
 40
0.0
 40
0.0
 40
0.0
 40
1.466761285403357
 40
2.970363696420887
 40
4.463784178922133
 40
5.966000020787886
 40
5.966000020787886
 40
5.966000020787886
 40
5.966000020787886
 10
-179.249999999975
 20
-95.2499999999799
 30
0.0
 10
-178.7608960630247
 20
-95.26271971207959
 30
0.0
 10
-177.7704032054334
 20
-95.28847863653426
 30
0.0
 10
-176.2943518601804
 20
-95.49623672801917
 30
0.0
 10
-174.8261968639425
 20
-95.80977940765297
 30
0.0
 10
-173.8712087485265
 20
-96.10297285349186
 30
0.0
 10
-173.392312743045
 20
-96.2499999999799
 30
0.0
 11
-179.249999999975
 21
-95.2499999999799
 31
0.0
 11
-177.7847058965807
 21
-95.31558857000023
 31
0.0
 11
-176.2942745525026
 21
-95.51417009402493
 31
0.0
 11
-174.8346647671277
 21
-95.83015112862209
 31
0.0
 11
-173.392312743045
 21
-96.2499999999799
 31
0.0
  0
ENDBLK
  5
57
330
55
100
AcDbEntity
  8
0
100
AcDbBlockEnd
  0
BLOCK
  5
5A
330
58
100
AcDbEntity
  8
0
100
AcDbBlockBegin
  2
Rckans1
 70
     0
 10
-172.0
 20
-115.0
 30
0.0
  3
Rckans1
  1

  0
INSERT
  5
59
330
58
100
AcDbEntity
  8
0
100
AcDbBlockReference
  2
G_INS_M25_M68L_PEPDS_LG-select__3
 10
-187.999999999975
 20
-140.7499999999799
 30
0.0
  0
MTEXT
  5
177
330
58
100
AcDbEntity
  8
1
 62
     6
100
AcDbMText
 10
-171.999999999975
 20
-145.7519999999799
 30
0.0
 40
5.0
 41
0.0
 71
     2
 72
     1
  1
 
  7
CONVERTER_11
 73
     1
 44
1.32052821128451
  0
ENDBLK
  5
5B
330
58
100
AcDbEntity
  8
0
100
AcDbBlockEnd
  0
BLOCK
  5
5D
330
5C
100
AcDbEntity
  8
0
100
AcDbBlockBegin
  2
G_INS_M25_M68L_PEPDS_LG-select__4
 70
     0
 10
-240.0039999999999
 20
-140.7499999999799
 30
0.0
  3
G_INS_M25_M68L_PEPDS_LG-select__4
  1

  0
LINE
  5
178
330
5C
100
AcDbEntity
  8
0
  6
Continuous
 62
     7
100
AcDbLine
 10
-208.0039999999999
 20
-125.2499999999799
 30
0.0
 11
-208.0039999999999
 21
-117.77999999998
 31
0.0
  0
LINE
  5
179
330
5C
100
AcDbEntity
  8
0
  6
Continuous
 62
     7
100
AcDbLine
 10
-211.0039999999999
 20
-109.2499999999799
 30
0.0
 11
-214.8285689597427
 21
-109.2499999999799
 31
0.0
  0
LINE
  5
17A
330
5C
100
AcDbEntity
  8
0
  6
Continuous
 62
     7
100
AcDbLine
 10
-208.9466316451255
 20
-123.54999999998
 30
0.0
 11
-208.9466316451255
 21
-118.5499999999799
 31
0.0
  0
LINE
  5
17B
330
5C
100
AcDbEntity
  8
0
  6
Continuous
 62
     7
100
AcDbLine
 10
-211.1116951545866
 20
-123.54999999998
 30
0.0
 11
-211.1116951545866
 21
-118.5499999999799
 31
0.0
  0
LINE
  5
17C
330
5C
100
AcDbEntity
  8
0
  6
Continuous
 62
     7
100
AcDbLine
 10
-212.4389999999999
 20
-140.7499999999799
 30
0.0
 11
-211.5039999999999
 21
-139.8149999999799
 31
0.0
  0
LINE
  5
17D
330
5C
100
AcDbEntity
  8
0
  6
Continuous
 62
     7
100
AcDbLine
 10
-236.8963048454132
 20
-123.54999999998
 30
0.0
 11
-236.8963048454132
 21
-118.5499999999799
 31
0.0
  0
LINE
  5
17E
330
5C
100
AcDbEntity
  8
0
  6
Continuous
 62
     7
100
AcDbLine
 10
-239.0613683548742
 20
-123.54999999998
 30
0.0
 11
-239.0613683548742
 21
-118.5499999999799
 31
0.0
  0
LINE
  5
17F
330
5C
100
AcDbEntity
  8
0
  6
Continuous
 62
     7
100
AcDbLine
 10
-239.943305669491
 20
-117.7799999999799
 30
0.0
 11
-239.9433056694914
 21
-124.6499999999799
 31
0.0
  0
LINE
  5
180
330
5C
100
AcDbEntity
  8
0
  6
Continuous
 62
     7
100
AcDbLine
 10
-239.9433056694914
 20
-96.24999999997993
 30
0.0
 11
-239.9433056694914
 21
-109.2499999999799
 31
0.0
  0
LINE
  5
181
330
5C
100
AcDbEntity
  8
0
  6
Continuous
 62
     7
100
AcDbLine
 10
-240.0039999999999
 20
-125.2499999999799
 30
0.0
 11
-240.0039999999999
 21
-117.77999999998
 31
0.0
  0
LINE
  5
182
330
5C
100
AcDbEntity
  8
0
  6
Continuous
 62
     7
100
AcDbLine
 10
-235.5689999999999
 20
-140.7499999999799
 30
0.0
 11
-236.5039999999999
 21
-139.8149999999799
 31
0.0
  0
LINE
  5
183
330
5C
100
AcDbEntity
  8
0
  6
Continuous
 62
     7
100
AcDbLine
 10
-233.1794310402266
 20
-117.779999999976
 30
0.0
 11
-233.179431040257
 21
-124.6499999999799
 31
0.0
  0
LINE
  5
184
330
5C
100
AcDbEntity
  8
0
  6
Continuous
 62
     7
100
AcDbLine
 10
-233.1794310402571
 20
-96.24999999997993
 30
0.0
 11
-233.1794310402571
 21
-109.2499999999799
 31
0.0
  0
LINE
  5
185
330
5C
100
AcDbEntity
  8
0
  6
Continuous
 62
     7
100
AcDbLine
 10
-230.7678746292334
 20
-117.7799999999799
 30
0.0
 11
-230.7678746292342
 21
-124.6499999999799
 31
0.0
  0
LINE
  5
186
330
5C
100
AcDbEntity
  8
0
  6
Continuous
 62
     7
100
AcDbLine
 10
-208.0039999999999
 20
-109.2499999999799
 30
0.0
 11
-208.0646943305084
 21
-109.2499999999799
 31
0.0
  0
LINE
  5
187
330
5C
100
AcDbEntity
  8
0
  6
Continuous
 62
     7
100
AcDbLine
 10
-208.0646943305084
 20
-109.2499999999799
 30
0.0
 11
-211.0039999999999
 21
-109.2499999999799
 31
0.0
  0
LINE
  5
188
330
5C
100
AcDbEntity
  8
0
  6
Continuous
 62
     7
100
AcDbLine
 10
-208.0039999999999
 20
-96.24999999997993
 30
0.0
 11
-208.0646943305084
 21
-96.24999999997993
 31
0.0
  0
LINE
  5
189
330
5C
100
AcDbEntity
  8
0
  6
Continuous
 62
     7
100
AcDbLine
 10
-209.5039999999999
 20
-95.24999999997993
 30
0.0
 11
-208.0039999999999
 21
-96.24999999997993
 31
0.0
  0
LINE
  5
18A
330
5C
100
AcDbEntity
  8
0
  6
Continuous
 62
     7
100
AcDbLine
 10
-211.0039999999999
 20
-117.5175340094022
 30
0.0
 11
-208.0039999999999
 21
-117.77999999998
 31
0.0
  0
LINE
  5
18B
330
5C
100
AcDbEntity
  8
0
  6
Continuous
 62
     7
100
AcDbLine
 10
-208.0039999999999
 20
-109.2499999999799
 30
0.0
 11
-208.0039999999999
 21
-96.24999999997993
 31
0.0
  0
LINE
  5
18C
330
5C
100
AcDbEntity
  8
0
  6
Continuous
 62
     7
100
AcDbLine
 10
-208.0646943305084
 20
-96.24999999997993
 30
0.0
 11
-208.0646943305084
 21
-109.2499999999799
 31
0.0
  0
LINE
  5
18D
330
5C
100
AcDbEntity
  8
0
  6
Continuous
 62
     7
100
AcDbLine
 10
-208.0646943305291
 20
-117.779999999976
 30
0.0
 11
-208.0646943305084
 21
-124.6499999999799
 31
0.0
  0
LINE
  5
18E
330
5C
100
AcDbEntity
  8
0
  6
Continuous
 62
     7
100
AcDbLine
 10
-208.0039999999999
 20
-117.77999999998
 30
0.0
 11
-208.0646943305291
 21
-117.779999999976
 31
0.0
  0
LINE
  5
18F
330
5C
100
AcDbEntity
  8
0
  6
Continuous
 62
     7
100
AcDbLine
 10
-209.5039999999999
 20
-95.24999999997993
 30
0.0
 11
-211.4466316451255
 21
-95.24999999997993
 31
0.0
  0
LINE
  5
190
330
5C
100
AcDbEntity
  8
0
  6
Continuous
 62
     7
100
AcDbLine
 10
-209.5039999999999
 20
-95.24999999997993
 30
0.0
 11
-209.5039999999999
 21
-93.54999999997993
 31
0.0
  0
LINE
  5
191
330
5C
100
AcDbEntity
  8
0
  6
Continuous
 62
     7
100
AcDbLine
 10
-239.9433056694914
 20
-109.2499999999799
 30
0.0
 11
-240.0039999999999
 21
-109.2499999999799
 31
0.0
  0
LINE
  5
192
330
5C
100
AcDbEntity
  8
0
  6
Continuous
 62
     7
100
AcDbLine
 10
-240.0039999999999
 20
-109.2499999999799
 30
0.0
 11
-240.0039999999999
 21
-96.24999999997993
 31
0.0
  0
LINE
  5
193
330
5C
100
AcDbEntity
  8
0
  6
Continuous
 62
     7
100
AcDbLine
 10
-239.9433056694914
 20
-96.24999999997993
 30
0.0
 11
-240.0039999999999
 21
-96.24999999997993
 31
0.0
  0
LINE
  5
194
330
5C
100
AcDbEntity
  8
0
  6
Continuous
 62
     7
100
AcDbLine
 10
-238.5039999999999
 20
-95.24999999997993
 30
0.0
 11
-240.0039999999999
 21
-96.24999999997993
 31
0.0
  0
LINE
  5
195
330
5C
100
AcDbEntity
  8
0
  6
Continuous
 62
     7
100
AcDbLine
 10
-237.0039999999999
 20
-117.5175340094022
 30
0.0
 11
-211.0039999999999
 21
-117.5175340094022
 31
0.0
  0
LINE
  5
196
330
5C
100
AcDbEntity
  8
0
  6
Continuous
 62
     7
100
AcDbLine
 10
-237.0039999999999
 20
-117.5175340094022
 30
0.0
 11
-240.0039999999999
 21
-117.77999999998
 31
0.0
  0
LINE
  5
197
330
5C
100
AcDbEntity
  8
0
  6
Continuous
 62
     7
100
AcDbLine
 10
-211.0039999999999
 20
-117.5175340094022
 30
0.0
 11
-211.0039999999999
 21
-109.2499999999799
 31
0.0
  0
LINE
  5
198
330
5C
100
AcDbEntity
  8
0
  6
Continuous
 62
     7
100
AcDbLine
 10
-211.4466316451255
 20
-95.24999999997993
 30
0.0
 11
-224.0039999999999
 21
-95.24999999997993
 31
0.0
  0
LINE
  5
199
330
5C
100
AcDbEntity
  8
0
  6
Continuous
 62
     7
100
AcDbLine
 10
-209.5039999999999
 20
-93.54999999997993
 30
0.0
 11
-238.5039999999999
 21
-93.54999999997993
 31
0.0
  0
LINE
  5
19A
330
5C
100
AcDbEntity
  8
0
  6
Continuous
 62
     7
100
AcDbLine
 10
-239.943305669491
 20
-117.7799999999799
 30
0.0
 11
-240.0039999999999
 21
-117.77999999998
 31
0.0
  0
LINE
  5
19B
330
5C
100
AcDbEntity
  8
0
  6
Continuous
 62
     7
100
AcDbLine
 10
-230.7678746292334
 20
-117.7799999999799
 30
0.0
 11
-233.1794310402266
 21
-117.779999999976
 31
0.0
  0
LINE
  5
19C
330
5C
100
AcDbEntity
  8
0
  6
Continuous
 62
     7
100
AcDbLine
 10
-214.8285689597427
 20
-117.7799999999799
 30
0.0
 11
-217.2401253707558
 21
-117.779999999976
 31
0.0
  0
LINE
  5
19D
330
5C
100
AcDbEntity
  8
0
  6
Continuous
 62
     7
100
AcDbLine
 10
-211.1116951545866
 20
-118.5499999999799
 30
0.0
 11
-213.9466316451255
 21
-118.5499999999799
 31
0.0
  0
LINE
  5
19E
330
5C
100
AcDbEntity
  8
0
  6
Continuous
 62
     7
100
AcDbLine
 10
-208.9466316451255
 20
-118.5499999999799
 30
0.0
 11
-211.1116951545866
 21
-118.5499999999799
 31
0.0
  0
LINE
  5
19F
330
5C
100
AcDbEntity
  8
0
  6
Continuous
 62
     7
100
AcDbLine
 10
-214.8285689597427
 20
-117.7799999999799
 30
0.0
 11
-214.8285689597427
 21
-124.6499999999799
 31
0.0
  0
LINE
  5
1A0
330
5C
100
AcDbEntity
  8
0
  6
Continuous
 62
     7
100
AcDbLine
 10
-217.2401253707558
 20
-117.779999999976
 30
0.0
 11
-217.2401253707656
 21
-124.6499999999799
 31
0.0
  0
LINE
  5
1A1
330
5C
100
AcDbEntity
  8
0
  6
Continuous
 62
     7
100
AcDbLine
 10
-236.5613683548743
 20
-95.24999999997993
 30
0.0
 11
-238.5039999999999
 21
-95.24999999997993
 31
0.0
  0
LINE
  5
1A2
330
5C
100
AcDbEntity
  8
0
  6
Continuous
 62
     7
100
AcDbLine
 10
-238.5039999999999
 20
-95.24999999997993
 30
0.0
 11
-238.5039999999999
 21
-93.54999999997993
 31
0.0
  0
LINE
  5
1A3
330
5C
100
AcDbEntity
  8
0
  6
Continuous
 62
     7
100
AcDbLine
 10
-214.8285689597427
 20
-96.24999999997993
 30
0.0
 11
-217.2401253707656
 21
-96.24999999997993
 31
0.0
  0
LINE
  5
1A4
330
5C
100
AcDbEntity
  8
0
  6
Continuous
 62
     7
100
AcDbLine
 10
-230.7678746292342
 20
-96.24999999997993
 30
0.0
 11
-230.7678746292342
 21
-109.2499999999799
 31
0.0
  0
LINE
  5
1A5
330
5C
100
AcDbEntity
  8
0
  6
Continuous
 62
     7
100
AcDbLine
 10
-214.8285689597427
 20
-109.2499999999799
 30
0.0
 11
-217.2401253707656
 21
-109.2499999999799
 31
0.0
  0
LINE
  5
1A6
330
5C
100
AcDbEntity
  8
0
  6
Continuous
 62
     7
100
AcDbLine
 10
-230.7678746292342
 20
-96.24999999997993
 30
0.0
 11
-233.1794310402571
 21
-96.24999999997993
 31
0.0
  0
LINE
  5
1A7
330
5C
100
AcDbEntity
  8
0
  6
Continuous
 62
     7
100
AcDbLine
 10
-224.0039999999999
 20
-95.24999999997993
 30
0.0
 11
-236.5613683548743
 21
-95.24999999997993
 31
0.0
  0
LINE
  5
1A8
330
5C
100
AcDbEntity
  8
0
  6
Continuous
 62
     7
100
AcDbLine
 10
-217.2401253707656
 20
-96.24999999997993
 30
0.0
 11
-217.2401253707656
 21
-109.2499999999799
 31
0.0
  0
LINE
  5
1A9
330
5C
100
AcDbEntity
  8
0
  6
Continuous
 62
     7
100
AcDbLine
 10
-230.7678746292342
 20
-109.2499999999799
 30
0.0
 11
-233.1794310402571
 21
-109.2499999999799
 31
0.0
  0
LINE
  5
1AA
330
5C
100
AcDbEntity
  8
0
  6
Continuous
 62
     7
100
AcDbLine
 10
-217.2401253707656
 20
-109.2499999999799
 30
0.0
 11
-230.7678746292342
 21
-109.2499999999799
 31
0.0
  0
LINE
  5
1AB
330
5C
100
AcDbEntity
  8
0
  6
Continuous
 62
     7
100
AcDbLine
 10
-214.8285689597427
 20
-96.24999999997993
 30
0.0
 11
-214.8285689597427
 21
-109.2499999999799
 31
0.0
  0
LINE
  5
1AC
330
5C
100
AcDbEntity
  8
0
  6
Continuous
 62
     7
100
AcDbLine
 10
-212.4839999999999
 20
-89.24999999997993
 30
0.0
 11
-235.5239999999999
 21
-89.24999999997993
 31
0.0
  0
LINE
  5
1AD
330
5C
100
AcDbEntity
  8
0
  6
Continuous
 62
     7
100
AcDbLine
 10
-233.1794310402571
 20
-109.2499999999799
 30
0.0
 11
-237.0039999999999
 21
-109.2499999999799
 31
0.0
  0
LINE
  5
1AE
330
5C
100
AcDbEntity
  8
0
  6
Continuous
 62
     7
100
AcDbLine
 10
-237.0039999999999
 20
-109.2499999999799
 30
0.0
 11
-239.9433056694914
 21
-109.2499999999799
 31
0.0
  0
LINE
  5
1AF
330
5C
100
AcDbEntity
  8
0
  6
Continuous
 62
     7
100
AcDbLine
 10
-239.0613683548742
 20
-118.5499999999799
 30
0.0
 11
-236.8963048454132
 21
-118.5499999999799
 31
0.0
  0
LINE
  5
1B0
330
5C
100
AcDbEntity
  8
0
  6
Continuous
 62
     7
100
AcDbLine
 10
-236.8963048454132
 20
-118.5499999999799
 30
0.0
 11
-234.0613683548743
 21
-118.5499999999799
 31
0.0
  0
LINE
  5
1B1
330
5C
100
AcDbEntity
  8
0
  6
Continuous
 62
     7
100
AcDbLine
 10
-237.0039999999999
 20
-117.5175340094022
 30
0.0
 11
-237.0039999999999
 21
-109.2499999999799
 31
0.0
  0
LINE
  5
1B2
330
5C
100
AcDbEntity
  8
0
  6
Continuous
 62
     7
100
AcDbLine
 10
-229.0039999999999
 20
-123.54999999998
 30
0.0
 11
-229.0039999999999
 21
-118.5499999999799
 31
0.0
  0
LINE
  5
1B3
330
5C
100
AcDbEntity
  8
0
  6
Continuous
 62
     7
100
AcDbLine
 10
-219.0039999999999
 20
-118.5499999999799
 30
0.0
 11
-219.0039999999999
 21
-123.54999999998
 31
0.0
  0
LINE
  5
1B4
330
5C
100
AcDbEntity
  8
0
  6
Continuous
 62
     7
100
AcDbLine
 10
-229.0039999999999
 20
-118.5499999999799
 30
0.0
 11
-219.0039999999999
 21
-118.5499999999799
 31
0.0
  0
LINE
  5
1B5
330
5C
100
AcDbEntity
  8
0
  6
Continuous
 62
     7
100
AcDbLine
 10
-234.0613683548743
 20
-118.5499999999799
 30
0.0
 11
-234.0613683548743
 21
-123.54999999998
 31
0.0
  0
LINE
  5
1B6
330
5C
100
AcDbEntity
  8
0
  6
Continuous
 62
     7
100
AcDbLine
 10
-213.9466316451255
 20
-118.5499999999799
 30
0.0
 11
-213.9466316451255
 21
-123.54999999998
 31
0.0
  0
LINE
  5
1B7
330
5C
100
AcDbEntity
  8
0
  6
Continuous
 62
     7
100
AcDbLine
 10
-212.4389999999999
 20
-140.7499999999799
 30
0.0
 11
-235.5689999999999
 21
-140.7499999999799
 31
0.0
  0
LINE
  5
1B8
330
5C
100
AcDbEntity
  8
0
  6
Continuous
 62
     7
100
AcDbLine
 10
-236.5039999999999
 20
-139.8149999999799
 30
0.0
 11
-236.5039999999999
 21
-125.7499999999799
 31
0.0
  0
LINE
  5
1B9
330
5C
100
AcDbEntity
  8
0
  6
Continuous
 62
     7
100
AcDbLine
 10
-211.5039999999999
 20
-139.8149999999799
 30
0.0
 11
-211.5039999999999
 21
-125.7499999999799
 31
0.0
  0
LINE
  5
1BA
330
5C
100
AcDbEntity
  8
0
  6
Continuous
 62
     7
100
AcDbLine
 10
-236.5039999999999
 20
-125.7499999999799
 30
0.0
 11
-238.0039999999999
 21
-125.7499999999799
 31
0.0
  0
LINE
  5
1BB
330
5C
100
AcDbEntity
  8
0
  6
Continuous
 62
     7
100
AcDbLine
 10
-210.0039999999999
 20
-125.7499999999799
 30
0.0
 11
-211.5039999999999
 21
-125.7499999999799
 31
0.0
  0
LINE
  5
1BC
330
5C
100
AcDbEntity
  8
0
  6
Continuous
 62
     7
100
AcDbLine
 10
-238.0039999999999
 20
-125.7499999999799
 30
0.0
 11
-238.0039999999999
 21
-125.2499999999799
 31
0.0
  0
LINE
  5
1BD
330
5C
100
AcDbEntity
  8
0
  6
Continuous
 62
     7
100
AcDbLine
 10
-210.0039999999999
 20
-125.7499999999799
 30
0.0
 11
-210.0039999999999
 21
-125.2499999999799
 31
0.0
  0
LINE
  5
1BE
330
5C
100
AcDbEntity
  8
0
  6
Continuous
 62
     7
100
AcDbLine
 10
-219.0039999999999
 20
-123.54999999998
 30
0.0
 11
-229.0039999999999
 21
-123.54999999998
 31
0.0
  0
LINE
  5
1BF
330
5C
100
AcDbEntity
  8
0
  6
Continuous
 62
     7
100
AcDbLine
 10
-238.0039999999999
 20
-125.2499999999799
 30
0.0
 11
-240.0039999999999
 21
-125.2499999999799
 31
0.0
  0
LINE
  5
1C0
330
5C
100
AcDbEntity
  8
0
  6
Continuous
 62
     7
100
AcDbLine
 10
-208.0039999999999
 20
-125.2499999999799
 30
0.0
 11
-210.0039999999999
 21
-125.2499999999799
 31
0.0
  0
LINE
  5
1C1
330
5C
100
AcDbEntity
  8
0
  6
Continuous
 62
     7
100
AcDbLine
 10
-239.9433056694914
 20
-124.6499999999799
 30
0.0
 11
-233.179431040257
 21
-124.6499999999799
 31
0.0
  0
LINE
  5
1C2
330
5C
100
AcDbEntity
  8
0
  6
Continuous
 62
     7
100
AcDbLine
 10
-230.7678746292342
 20
-124.6499999999799
 30
0.0
 11
-217.2401253707656
 21
-124.6499999999799
 31
0.0
  0
LINE
  5
1C3
330
5C
100
AcDbEntity
  8
0
  6
Continuous
 62
     7
100
AcDbLine
 10
-214.8285689597427
 20
-124.6499999999799
 30
0.0
 11
-208.0646943305084
 21
-124.6499999999799
 31
0.0
  0
LINE
  5
1C4
330
5C
100
AcDbEntity
  8
0
  6
Continuous
 62
     7
100
AcDbLine
 10
-236.8963048454132
 20
-123.54999999998
 30
0.0
 11
-239.0613683548742
 21
-123.54999999998
 31
0.0
  0
LINE
  5
1C5
330
5C
100
AcDbEntity
  8
0
  6
Continuous
 62
     7
100
AcDbLine
 10
-234.0613683548743
 20
-123.54999999998
 30
0.0
 11
-236.8963048454132
 21
-123.54999999998
 31
0.0
  0
LINE
  5
1C6
330
5C
100
AcDbEntity
  8
0
  6
Continuous
 62
     7
100
AcDbLine
 10
-211.1116951545866
 20
-123.54999999998
 30
0.0
 11
-208.9466316451255
 21
-123.54999999998
 31
0.0
  0
LINE
  5
1C7
330
5C
100
AcDbEntity
  8
0
  6
Continuous
 62
     7
100
AcDbLine
 10
-213.9466316451255
 20
-123.54999999998
 30
0.0
 11
-211.1116951545866
 21
-123.54999999998
 31
0.0
  0
LINE
  5
1C8
330
5C
100
AcDbEntity
  8
0
  6
Continuous
 62
     7
100
AcDbLine
 10
-210.0039999999999
 20
-125.2499999999799
 30
0.0
 11
-238.0039999999999
 21
-125.2499999999799
 31
0.0
  0
LINE
  5
1C9
330
5C
100
AcDbEntity
  8
0
  6
Continuous
 62
     7
100
AcDbLine
 10
-211.5039999999999
 20
-125.7499999999799
 30
0.0
 11
-236.5039999999999
 21
-125.7499999999799
 31
0.0
  0
LINE
  5
1CA
330
5C
100
AcDbEntity
  8
0
  6
Continuous
 62
     7
100
AcDbLine
 10
-211.5039999999999
 20
-139.8149999999799
 30
0.0
 11
-236.5039999999999
 21
-139.8149999999799
 31
0.0
  0
LINE
  5
1CB
330
5C
100
AcDbEntity
  8
1
  6
DOT_CENTER
 62
     2
100
AcDbLine
 10
-224.0039999999999
 20
-95.24999999997993
 30
0.0
 11
-224.0039999999999
 21
-93.54999999997993
 31
0.0
  0
LINE
  5
1CC
330
5C
100
AcDbEntity
  8
1
  6
DOT_CENTER
 62
     2
100
AcDbLine
 10
-224.0039999999999
 20
-140.7499999999799
 30
0.0
 11
-224.0039999999999
 21
-109.24999999998
 31
0.0
  0
ARC
  5
1CD
330
5C
100
AcDbEntity
  8
0
  6
Continuous
 62
     7
100
AcDbCircle
 10
-216.3306017297891
 20
-95.09838910574084
 30
0.0
 40
6.999999999999986
100
AcDbArc
 50
12.77943310339518
 51
56.66628573378021
  0
ARC
  5
1CE
330
5C
100
AcDbEntity
  8
0
  6
Continuous
 62
     7
100
AcDbCircle
 10
-231.6773982702107
 20
-95.09838910574084
 30
0.0
 40
7.000000000000004
100
AcDbArc
 50
123.3337142662198
 51
167.2205668966049
  0
SPLINE
  5
1CF
330
5C
100
AcDbEntity
  8
0
  6
Continuous
 62
     7
100
AcDbSpline
210
0.0
220
0.0
230
1.0
 70
     8
 71
     3
 72
    11
 73
     7
 74
     5
 42
0.000000001
 43
0.0000000001
 44
0.00000001
 40
0.0
 40
0.0
 40
0.0
 40
0.0
 40
0.9368954373450433
 40
1.836124197515496
 40
2.706722857707418
 40
3.564208243802415
 40
3.564208243802415
 40
3.564208243802415
 40
3.564208243802415
 10
-239.9433056694914
 20
-96.24999999997993
 30
0.0
 10
-239.6673737689105
 20
-96.1030496163856
 30
0.0
 10
-239.1266034487228
 20
-95.81505681382389
 30
0.0
 10
-238.279040651385
 20
-95.49972369711674
 30
0.0
 10
-237.4241202514633
 20
-95.28995413839979
 30
0.0
 10
-236.8474937766057
 20
-95.26325049583886
 30
0.0
 10
-236.5613683548743
 20
-95.24999999997993
 30
0.0
 11
-239.9433056694914
 21
-96.24999999997993
 31
0.0
 11
-239.1066108401843
 21
-95.82843764004478
 31
0.0
 11
-238.2644720045286
 21
-95.51313691570239
 31
0.0
 11
-237.4162205557668
 21
-95.31714837154342
 31
0.0
 11
-236.5613683548743
 21
-95.24999999997993
 31
0.0
  0
SPLINE
  5
1D0
330
5C
100
AcDbEntity
  8
0
  6
Continuous
 62
     7
100
AcDbSpline
210
0.0
220
0.0
230
1.0
 70
     8
 71
     3
 72
    11
 73
     7
 74
     5
 42
0.000000001
 43
0.0000000001
 44
0.00000001
 40
0.0
 40
0.0
 40
0.0
 40
0.0
 40
0.8374704095459441
 40
1.731645393758689
 40
2.631644053343306
 40
3.564238746558032
 40
3.564238746558032
 40
3.564238746558032
 40
3.564238746558032
 10
-211.4466316451255
 20
-95.24999999997993
 30
0.0
 10
-211.1671901357354
 20
-95.26257884399982
 30
0.0
 10
-210.5893863160738
 20
-95.28858825248513
 30
0.0
 10
-209.7326922956921
 20
-95.4981491970407
 30
0.0
 10
-208.8790198679175
 20
-95.81615162480958
 30
0.0
 10
-208.3393359302851
 20
-96.10367913571201
 30
0.0
 10
-208.0646943305084
 20
-96.24999999997993
 30
0.0
 11
-211.4466316451255
 21
-95.24999999997993
 31
0.0
 11
-210.611603041231
 21
-95.31390554993779
 31
0.0
 11
-209.7401427623767
 21
-95.51417009402496
 31
0.0
 11
-208.8974366598775
 21
-95.83015112862273
 31
0.0
 11
-208.0646943305084
 21
-96.24999999997993
 31
0.0
  0
SPLINE
  5
1D1
330
5C
100
AcDbEntity
  8
0
  6
Continuous
 62
     7
100
AcDbSpline
210
0.0
220
0.0
230
1.0
 70
     8
 71
     3
 72
    11
 73
     7
 74
     5
 42
0.000000001
 43
0.0000000001
 44
0.00000001
 40
0.0
 40
0.0
 40
0.0
 40
0.0
 40
1.735980808424224
 40
3.38506655034709
 40
5.034157206192129
 40
6.770143257184039
 40
6.770143257184039
 40
6.770143257184039
 40
6.770143257184039
 10
-208.0646943305291
 20
-117.779999999976
 30
0.0
 10
-208.6422037953193
 20
-117.7424107332569
 30
0.0
 10
-209.7683153074236
 20
-117.6691137571337
 30
0.0
 10
-211.4466282024619
 20
-117.63885486535
 30
0.0
 10
-213.1249428558214
 20
-117.6691134692964
 30
0.0
 10
-214.2510577494762
 20
-117.7424106351995
 30
0.0
 10
-214.8285689597427
 20
-117.7799999999799
 30
0.0
 11
-208.0646943305291
 21
-117.779999999976
 31
0.0
 11
-209.7978589653447
 21
-117.681158123384
 31
0.0
 11
-211.4466265659579
 21
-117.6487670046914
 31
0.0
 11
-213.0953990854354
 21
-117.6811579200814
 31
0.0
 11
-214.8285689597427
 21
-117.7799999999799
 31
0.0
  0
SPLINE
  5
1D2
330
5C
100
AcDbEntity
  8
0
  6
Continuous
 62
     7
100
AcDbSpline
210
0.0
220
0.0
230
1.0
 70
     8
 71
     3
 72
    11
 73
     7
 74
     5
 42
0.000000001
 43
0.0000000001
 44
0.00000001
 40
0.0
 40
0.0
 40
0.0
 40
0.0
 40
1.735980812318266
 40
3.385066550398292
 40
5.03415720623278
 40
6.770143257234816
 40
6.770143257234816
 40
6.770143257234816
 40
6.770143257234816
 10
-233.1794310402266
 20
-117.779999999976
 30
0.0
 10
-233.7569405063134
 20
-117.7424107331838
 30
0.0
 10
-234.8830520184368
 20
-117.6691137570815
 30
0.0
 10
-236.5613649134882
 20
-117.6388548653746
 30
0.0
 10
-238.2396795655665
 20
-117.6691134692958
 30
0.0
 10
-239.3657944592211
 20
-117.7424106351992
 30
0.0
 10
-239.943305669491
 20
-117.7799999999799
 30
0.0
 11
-233.1794310402266
 21
-117.779999999976
 31
0.0
 11
-234.9125956789341
 21
-117.681158123235
 31
0.0
 11
-236.5613632757066
 21
-117.6487670046914
 31
0.0
 11
-238.2101357951736
 21
-117.681157920081
 31
0.0
 11
-239.943305669491
 21
-117.7799999999799
 31
0.0
  0
SPLINE
  5
1D3
330
5C
100
AcDbEntity
  8
0
  6
Continuous
 62
     7
100
AcDbSpline
210
0.0
220
0.0
230
1.0
 70
     8
 71
     3
 72
    11
 73
     7
 74
     5
 42
0.000000001
 43
0.0000000001
 44
0.00000001
 40
0.0
 40
0.0
 40
0.0
 40
0.0
 40
0.9368954373450686
 40
1.836124197515548
 40
2.706722857707442
 40
3.564208243802524
 40
3.564208243802524
 40
3.564208243802524
 40
3.564208243802524
 10
-214.8285689597427
 20
-96.24999999997993
 30
0.0
 10
-214.5526370591618
 20
-96.10304961638558
 30
0.0
 10
-214.0118667389742
 20
-95.81505681382387
 30
0.0
 10
-213.1643039416363
 20
-95.49972369711676
 30
0.0
 10
-212.3093835417145
 20
-95.28995413839976
 30
0.0
 10
-211.732757066857
 20
-95.26325049583886
 30
0.0
 10
-211.4466316451255
 20
-95.24999999997993
 30
0.0
 11
-214.8285689597427
 21
-96.24999999997993
 31
0.0
 11
-213.9918741304356
 21
-95.82843764004478
 31
0.0
 11
-213.1497352947798
 21
-95.51313691570239
 31
0.0
 11
-212.3014838460181
 21
-95.31714837154342
 31
0.0
 11
-211.4466316451255
 21
-95.24999999997993
 31
0.0
  0
SPLINE
  5
1D4
330
5C
100
AcDbEntity
  8
0
  6
Continuous
 62
     7
100
AcDbSpline
210
0.0
220
0.0
230
1.0
 70
     8
 71
     3
 72
    11
 73
     7
 74
     5
 42
0.000000001
 43
0.0000000001
 44
0.00000001
 40
0.0
 40
0.0
 40
0.0
 40
0.0
 40
0.8374704095032836
 40
1.73164539375869
 40
2.63164405333994
 40
3.564238746558116
 40
3.564238746558116
 40
3.564238746558116
 40
3.564238746558116
 10
-236.5613683548743
 20
-95.24999999997993
 30
0.0
 10
-236.2819268454985
 20
-95.26257884399857
 30
0.0
 10
-235.704123025837
 20
-95.28858825248273
 30
0.0
 10
-234.8474290054554
 20
-95.49814919703542
 30
0.0
 10
-233.9937565776672
 20
-95.81615162480904
 30
0.0
 10
-233.4540726400349
 20
-96.10367913571153
 30
0.0
 10
-233.1794310402571
 20
-96.24999999997993
 30
0.0
 11
-236.5613683548743
 21
-95.24999999997993
 31
0.0
 11
-235.7263397510221
 21
-95.31390554993133
 31
0.0
 11
-234.8548794721255
 21
-95.51417009402496
 31
0.0
 11
-234.0121733696293
 21
-95.83015112862132
 31
0.0
 11
-233.1794310402571
 21
-96.24999999997993
 31
0.0
  0
SPLINE
  5
1D5
330
5C
100
AcDbEntity
  8
0
  6
Continuous
 62
     7
100
AcDbSpline
210
0.0
220
0.0
230
1.0
 70
     8
 71
     3
 72
    11
 73
     7
 74
     5
 42
0.000000001
 43
0.0000000001
 44
0.00000001
 40
0.0
 40
0.0
 40
0.0
 40
0.0
 40
1.702303643715277
 40
3.438191289528285
 40
5.151793638666817
 40
6.85803288223727
 40
6.85803288223727
 40
6.85803288223727
 40
6.85803288223727
 10
-224.0039999999999
 20
-95.24999999997993
 30
0.0
 10
-223.4364023391513
 20
-95.2628297789622
 30
0.0
 10
-222.2900091327658
 20
-95.28874246507141
 30
0.0
 10
-220.5831340633242
 20
-95.49749167272356
 30
0.0
 10
-218.8919729984789
 20
-95.81069477789907
 30
0.0
 10
-217.7899503404998
 20
-96.1037752605318
 30
0.0
 10
-217.2401253707656
 20
-96.24999999997993
 30
0.0
 11
-224.0039999999999
 21
-95.24999999997993
 31
0.0
 11
-222.3029875041942
 21
-95.31628865726503
 31
0.0
 11
-220.5786339728409
 21
-95.51606558403118
 31
0.0
 11
-218.8945139770107
 21
-95.83256653642701
 31
0.0
 11
-217.2401253707656
 21
-96.24999999997993
 31
0.0
  0
SPLINE
  5
1D6
330
5C
100
AcDbEntity
  8
0
  6
Continuous
 62
     7
100
AcDbSpline
210
0.0
220
0.0
230
1.0
 70
     8
 71
     3
 72
    11
 73
     7
 74
     5
 42
0.000000001
 43
0.0000000001
 44
0.00000001
 40
0.0
 40
0.0
 40
0.0
 40
0.0
 40
3.467734496467588
 40
6.765432497498383
 40
10.06314033751876
 40
13.53088531072241
 40
13.53088531072241
 40
13.53088531072241
 40
13.53088531072241
 10
-217.2401253707558
 20
-117.779999999976
 30
0.0
 10
-218.3954611495531
 20
-117.7424075066999
 30
0.0
 10
-220.6494821055255
 20
-117.6690658408978
 30
0.0
 10
-224.003993120594
 20
-117.6388727583579
 30
0.0
 10
-227.3585076333043
 20
-117.6690655530463
 30
0.0
 10
-229.6125353592126
 20
-117.742407408702
 30
0.0
 10
-230.7678746292334
 20
-117.7799999999799
 30
0.0
 11
-217.2401253707558
 21
-117.779999999976
 31
0.0
 11
-220.7064509233273
 21
-117.6811581955332
 31
0.0
 11
-224.0039898416647
 21
-117.6487670046914
 31
0.0
 11
-227.3015386014627
 21
-117.6811579923028
 31
0.0
 11
-230.7678746292334
 21
-117.7799999999799
 31
0.0
  0
SPLINE
  5
1D7
330
5C
100
AcDbEntity
  8
0
  6
Continuous
 62
     7
100
AcDbSpline
210
0.0
220
0.0
230
1.0
 70
     8
 71
     3
 72
    11
 73
     7
 74
     5
 42
0.000000001
 43
0.0000000001
 44
0.00000001
 40
0.0
 40
0.0
 40
0.0
 40
0.0
 40
1.76414172163642
 40
3.443125834180647
 40
5.150265554072353
 40
6.858023114294877
 40
6.858023114294877
 40
6.858023114294877
 40
6.858023114294877
 10
-230.7678746292342
 20
-96.24999999997993
 30
0.0
 10
-230.1993030035198
 20
-96.09908888961375
 30
0.0
 10
-229.0896055028683
 20
-95.80455137535834
 30
0.0
 10
-227.3997861430793
 20
-95.49423600901768
 30
0.0
 10
-225.7120319945893
 20
-95.28897941286942
 30
0.0
 10
-224.5734126666535
 20
-95.26299469972176
 30
0.0
 10
-224.0039999999999
 20
-95.24999999997993
 30
0.0
 11
-230.7678746292342
 21
-96.24999999997993
 31
0.0
 11
-229.0569084192704
 21
-95.82012717798156
 31
0.0
 11
-227.4063381234409
 21
-95.51254734956561
 31
0.0
 11
-225.7104467354564
 21
-95.31689861848389
 31
0.0
 11
-224.0039999999999
 21
-95.24999999997993
 31
0.0
  0
ENDBLK
  5
5E
330
5C
100
AcDbEntity
  8
0
100
AcDbBlockEnd
  0
BLOCK
  5
61
330
5F
100
AcDbEntity
  8
0
100
AcDbBlockBegin
  2
SA_Links1
 70
     0
 10
-224.004
 20
-115.0
 30
0.0
  3
SA_Links1
  1

  0
INSERT
  5
60
330
5F
100
AcDbEntity
  8
0
100
AcDbBlockReference
  2
G_INS_M25_M68L_PEPDS_LG-select__4
 10
-240.0039999999999
 20
-140.7499999999799
 30
0.0
  0
MTEXT
  5
1D8
330
5F
100
AcDbEntity
  8
1
 62
     6
100
AcDbMText
 10
-224.0039999999749
 20
-145.7519999999799
 30
0.0
 40
5.0
 41
0.0
 71
     2
 72
     1
  1
 
  7
CONVERTER_11
 73
     1
 44
1.32052821128451
  0
ENDBLK
  5
62
330
5F
100
AcDbEntity
  8
0
100
AcDbBlockEnd
  0
BLOCK
  5
64
330
63
100
AcDbEntity
  8
0
100
AcDbBlockBegin
  2
G_INS_M25_M68L_PEPDS_LG-select__5
 70
     0
 10
-354.0120000000001
 20
-140.7499999999799
 30
0.0
  3
G_INS_M25_M68L_PEPDS_LG-select__5
  1

  0
LINE
  5
1D9
330
63
100
AcDbEntity
  8
0
  6
Continuous
 62
     7
100
AcDbLine
 10
-350.5120000000001
 20
-125.7499999999799
 30
0.0
 11
-352.0120000000001
 21
-125.7499999999799
 31
0.0
  0
LINE
  5
1DA
330
63
100
AcDbEntity
  8
0
  6
Continuous
 62
     7
100
AcDbLine
 10
-352.0120000000001
 20
-125.2499999999799
 30
0.0
 11
-354.0120000000001
 21
-125.2499999999799
 31
0.0
  0
LINE
  5
1DB
330
63
100
AcDbEntity
  8
0
  6
Continuous
 62
     7
100
AcDbLine
 10
-322.0120000000001
 20
-125.2499999999799
 30
0.0
 11
-324.0120000000001
 21
-125.2499999999799
 31
0.0
  0
LINE
  5
1DC
330
63
100
AcDbEntity
  8
0
  6
Continuous
 62
     7
100
AcDbLine
 10
-333.0120000000001
 20
-118.5499999999799
 30
0.0
 11
-343.0120000000001
 21
-118.5499999999799
 31
0.0
  0
LINE
  5
1DD
330
63
100
AcDbEntity
  8
0
  6
Continuous
 62
     7
100
AcDbLine
 10
-331.2481253707658
 20
-109.2499999999799
 30
0.0
 11
-344.7758746292345
 21
-109.2499999999799
 31
0.0
  0
LINE
  5
1DE
330
63
100
AcDbEntity
  8
0
  6
Continuous
 62
     7
100
AcDbLine
 10
-324.0120000000001
 20
-125.2499999999799
 30
0.0
 11
-352.0120000000001
 21
-125.2499999999799
 31
0.0
  0
LINE
  5
1DF
330
63
100
AcDbEntity
  8
0
  6
Continuous
 62
     7
100
AcDbLine
 10
-325.5120000000001
 20
-125.7499999999799
 30
0.0
 11
-350.5120000000001
 21
-125.7499999999799
 31
0.0
  0
LINE
  5
1E0
330
63
100
AcDbEntity
  8
0
  6
Continuous
 62
     7
100
AcDbLine
 10
-322.9546316451257
 20
-118.5499999999799
 30
0.0
 11
-322.9546316451257
 21
-123.5499999999799
 31
0.0
  0
LINE
  5
1E1
330
63
100
AcDbEntity
  8
0
  6
Continuous
 62
     7
100
AcDbLine
 10
-333.0120000000001
 20
-123.5499999999799
 30
0.0
 11
-333.0120000000001
 21
-118.5499999999799
 31
0.0
  0
LINE
  5
1E2
330
63
100
AcDbEntity
  8
0
  6
Continuous
 62
     7
100
AcDbLine
 10
-325.1196951545868
 20
-123.5499999999799
 30
0.0
 11
-327.9546316451257
 21
-123.5499999999799
 31
0.0
  0
LINE
  5
1E3
330
63
100
AcDbEntity
  8
0
  6
Continuous
 62
     7
100
AcDbLine
 10
-325.4546316451257
 20
-95.2499999999799
 30
0.0
 11
-338.0120000000001
 21
-95.2499999999799
 31
0.0
  0
LINE
  5
1E4
330
63
100
AcDbEntity
  8
0
  6
Continuous
 62
     7
100
AcDbLine
 10
-347.1874310402573
 20
-109.2499999999799
 30
0.0
 11
-351.0120000000001
 21
-109.2499999999799
 31
0.0
  0
LINE
  5
1E5
330
63
100
AcDbEntity
  8
0
  6
Continuous
 62
     7
100
AcDbLine
 10
-323.5120000000001
 20
-93.54999999997992
 30
0.0
 11
-352.5120000000001
 21
-93.54999999997992
 31
0.0
  0
LINE
  5
1E6
330
63
100
AcDbEntity
  8
0
  6
Continuous
 62
     7
100
AcDbLine
 10
-350.5693683548745
 20
-95.2499999999799
 30
0.0
 11
-352.5120000000001
 21
-95.2499999999799
 31
0.0
  0
LINE
  5
1E7
330
63
100
AcDbEntity
  8
0
  6
Continuous
 62
     7
100
AcDbLine
 10
-352.5120000000001
 20
-95.2499999999799
 30
0.0
 11
-352.5120000000001
 21
-93.54999999997992
 31
0.0
  0
LINE
  5
1E8
330
63
100
AcDbEntity
  8
0
  6
Continuous
 62
     7
100
AcDbLine
 10
-351.0120000000001
 20
-117.5175340094022
 30
0.0
 11
-325.0120000000001
 21
-117.5175340094022
 31
0.0
  0
LINE
  5
1E9
330
63
100
AcDbEntity
  8
0
  6
Continuous
 62
     7
100
AcDbLine
 10
-326.4920000000001
 20
-89.2499999999799
 30
0.0
 11
-349.5320000000001
 21
-89.2499999999799
 31
0.0
  0
LINE
  5
1EA
330
63
100
AcDbEntity
  8
0
  6
Continuous
 62
     7
100
AcDbLine
 10
-344.7758746292345
 20
-109.2499999999799
 30
0.0
 11
-347.1874310402573
 21
-109.2499999999799
 31
0.0
  0
LINE
  5
1EB
330
63
100
AcDbEntity
  8
0
  6
Continuous
 62
     7
100
AcDbLine
 10
-338.0120000000001
 20
-95.2499999999799
 30
0.0
 11
-350.5693683548745
 21
-95.2499999999799
 31
0.0
  0
LINE
  5
1EC
330
63
100
AcDbEntity
  8
0
  6
Continuous
 62
     7
100
AcDbLine
 10
-344.7758746292345
 20
-96.2499999999799
 30
0.0
 11
-347.1874310402573
 21
-96.2499999999799
 31
0.0
  0
LINE
  5
1ED
330
63
100
AcDbEntity
  8
0
  6
Continuous
 62
     7
100
AcDbLine
 10
-343.0120000000001
 20
-118.5499999999799
 30
0.0
 11
-343.0120000000001
 21
-123.5499999999799
 31
0.0
  0
LINE
  5
1EE
330
63
100
AcDbEntity
  8
0
  6
Continuous
 62
     7
100
AcDbLine
 10
-347.1874310402573
 20
-96.2499999999799
 30
0.0
 11
-347.1874310402573
 21
-109.2499999999799
 31
0.0
  0
LINE
  5
1EF
330
63
100
AcDbEntity
  8
0
  6
Continuous
 62
     7
100
AcDbLine
 10
-350.9043048454134
 20
-123.5499999999799
 30
0.0
 11
-348.0693683548744
 21
-123.5499999999799
 31
0.0
  0
LINE
  5
1F0
330
63
100
AcDbEntity
  8
0
  6
Continuous
 62
     7
100
AcDbLine
 10
-348.0693683548745
 20
-118.5499999999799
 30
0.0
 11
-350.9043048454134
 21
-118.5499999999799
 31
0.0
  0
LINE
  5
1F1
330
63
100
AcDbEntity
  8
0
  6
Continuous
 62
     7
100
AcDbLine
 10
-343.0120000000001
 20
-123.5499999999799
 30
0.0
 11
-333.0120000000001
 21
-123.5499999999799
 31
0.0
  0
LINE
  5
1F2
330
63
100
AcDbEntity
  8
0
  6
Continuous
 62
     7
100
AcDbLine
 10
-350.9043048454134
 20
-118.5499999999799
 30
0.0
 11
-350.9043048454134
 21
-123.5499999999799
 31
0.0
  0
LINE
  5
1F3
330
63
100
AcDbEntity
  8
0
  6
Continuous
 62
     7
100
AcDbLine
 10
-325.5120000000001
 20
-139.8149999999799
 30
0.0
 11
-350.5120000000001
 21
-139.8149999999799
 31
0.0
  0
LINE
  5
1F4
330
63
100
AcDbEntity
  8
0
  6
Continuous
 62
     7
100
AcDbLine
 10
-350.5120000000001
 20
-139.8149999999799
 30
0.0
 11
-350.5120000000001
 21
-125.7499999999799
 31
0.0
  0
LINE
  5
1F5
330
63
100
AcDbEntity
  8
0
  6
Continuous
 62
     7
100
AcDbLine
 10
-344.7758746292316
 20
-117.7799999999798
 30
0.0
 11
-344.7758746292345
 21
-124.6499999999799
 31
0.0
  0
LINE
  5
1F6
330
63
100
AcDbEntity
  8
0
  6
Continuous
 62
     7
100
AcDbLine
 10
-344.7758746292345
 20
-96.2499999999799
 30
0.0
 11
-344.7758746292345
 21
-109.2499999999799
 31
0.0
  0
LINE
  5
1F7
330
63
100
AcDbEntity
  8
0
  6
Continuous
 62
     7
100
AcDbLine
 10
-349.5770000000001
 20
-140.7499999999799
 30
0.0
 11
-350.5120000000001
 21
-139.8149999999799
 31
0.0
  0
LINE
  5
1F8
330
63
100
AcDbEntity
  8
0
  6
Continuous
 62
     7
100
AcDbLine
 10
-324.0120000000001
 20
-125.7499999999799
 30
0.0
 11
-325.5120000000001
 21
-125.7499999999799
 31
0.0
  0
LINE
  5
1F9
330
63
100
AcDbEntity
  8
0
  6
Continuous
 62
     7
100
AcDbLine
 10
-325.5120000000001
 20
-139.8149999999799
 30
0.0
 11
-325.5120000000001
 21
-125.7499999999799
 31
0.0
  0
LINE
  5
1FA
330
63
100
AcDbEntity
  8
0
  6
Continuous
 62
     7
100
AcDbLine
 10
-324.0120000000001
 20
-125.7499999999799
 30
0.0
 11
-324.0120000000001
 21
-125.2499999999799
 31
0.0
  0
LINE
  5
1FB
330
63
100
AcDbEntity
  8
0
  6
Continuous
 62
     7
100
AcDbLine
 10
-322.0120000000001
 20
-125.2499999999799
 30
0.0
 11
-322.0120000000001
 21
-117.7799999999799
 31
0.0
  0
LINE
  5
1FC
330
63
100
AcDbEntity
  8
0
  6
Continuous
 62
     7
100
AcDbLine
 10
-322.0120000000001
 20
-96.2499999999799
 30
0.0
 11
-322.0726943305086
 21
-96.2499999999799
 31
0.0
  0
LINE
  5
1FD
330
63
100
AcDbEntity
  8
0
  6
Continuous
 62
     7
100
AcDbLine
 10
-322.0120000000001
 20
-109.2499999999799
 30
0.0
 11
-322.0726943305086
 21
-109.2499999999799
 31
0.0
  0
LINE
  5
1FE
330
63
100
AcDbEntity
  8
0
  6
Continuous
 62
     7
100
AcDbLine
 10
-322.0726943305086
 20
-109.2499999999799
 30
0.0
 11
-325.0120000000001
 21
-109.2499999999799
 31
0.0
  0
LINE
  5
1FF
330
63
100
AcDbEntity
  8
0
  6
Continuous
 62
     7
100
AcDbLine
 10
-325.0120000000001
 20
-109.2499999999799
 30
0.0
 11
-328.8365689597429
 21
-109.2499999999799
 31
0.0
  0
LINE
  5
200
330
63
100
AcDbEntity
  8
0
  6
Continuous
 62
     7
100
AcDbLine
 10
-328.8365689597429
 20
-124.6499999999799
 30
0.0
 11
-322.0726943305086
 21
-124.6499999999799
 31
0.0
  0
LINE
  5
201
330
63
100
AcDbEntity
  8
0
  6
Continuous
 62
     7
100
AcDbLine
 10
-327.9546316451257
 20
-123.5499999999799
 30
0.0
 11
-327.9546316451257
 21
-118.5499999999799
 31
0.0
  0
LINE
  5
202
330
63
100
AcDbEntity
  8
0
  6
Continuous
 62
     7
100
AcDbLine
 10
-322.0726943305293
 20
-117.779999999976
 30
0.0
 11
-322.0726943305086
 21
-124.6499999999799
 31
0.0
  0
LINE
  5
203
330
63
100
AcDbEntity
  8
0
  6
Continuous
 62
     7
100
AcDbLine
 10
-322.0120000000001
 20
-117.7799999999799
 30
0.0
 11
-322.0726943305293
 21
-117.779999999976
 31
0.0
  0
LINE
  5
204
330
63
100
AcDbEntity
  8
0
  6
Continuous
 62
     7
100
AcDbLine
 10
-328.8365689597429
 20
-117.7799999999799
 30
0.0
 11
-331.2481253707658
 21
-117.7799999999799
 31
0.0
  0
LINE
  5
205
330
63
100
AcDbEntity
  8
0
  6
Continuous
 62
     7
100
AcDbLine
 10
-325.0120000000001
 20
-117.5175340094022
 30
0.0
 11
-322.0120000000001
 21
-117.7799999999799
 31
0.0
  0
LINE
  5
206
330
63
100
AcDbEntity
  8
0
  6
Continuous
 62
     7
100
AcDbLine
 10
-325.1196951545868
 20
-118.5499999999799
 30
0.0
 11
-322.9546316451257
 21
-118.5499999999799
 31
0.0
  0
LINE
  5
207
330
63
100
AcDbEntity
  8
0
  6
Continuous
 62
     7
100
AcDbLine
 10
-328.8365689597429
 20
-117.7799999999799
 30
0.0
 11
-328.8365689597429
 21
-124.6499999999799
 31
0.0
  0
LINE
  5
208
330
63
100
AcDbEntity
  8
0
  6
Continuous
 62
     7
100
AcDbLine
 10
-325.0120000000001
 20
-117.5175340094022
 30
0.0
 11
-325.0120000000001
 21
-109.2499999999799
 31
0.0
  0
LINE
  5
209
330
63
100
AcDbEntity
  8
0
  6
Continuous
 62
     7
100
AcDbLine
 10
-322.0120000000001
 20
-109.2499999999799
 30
0.0
 11
-322.0120000000001
 21
-96.2499999999799
 31
0.0
  0
LINE
  5
20A
330
63
100
AcDbEntity
  8
0
  6
Continuous
 62
     7
100
AcDbLine
 10
-323.5120000000001
 20
-95.2499999999799
 30
0.0
 11
-322.0120000000001
 21
-96.2499999999799
 31
0.0
  0
LINE
  5
20B
330
63
100
AcDbEntity
  8
0
  6
Continuous
 62
     7
100
AcDbLine
 10
-326.4470000000001
 20
-140.7499999999799
 30
0.0
 11
-325.5120000000001
 21
-139.8149999999799
 31
0.0
  0
LINE
  5
20C
330
63
100
AcDbEntity
  8
0
  6
Continuous
 62
     7
100
AcDbLine
 10
-352.0120000000001
 20
-125.7499999999799
 30
0.0
 11
-352.0120000000001
 21
-125.2499999999799
 31
0.0
  0
LINE
  5
20D
330
63
100
AcDbEntity
  8
0
  6
Continuous
 62
     7
100
AcDbLine
 10
-352.5120000000001
 20
-95.2499999999799
 30
0.0
 11
-354.0120000000001
 21
-96.2499999999799
 31
0.0
  0
LINE
  5
20E
330
63
100
AcDbEntity
  8
0
  6
Continuous
 62
     7
100
AcDbLine
 10
-353.9513056694916
 20
-96.2499999999799
 30
0.0
 11
-354.0120000000001
 21
-96.2499999999799
 31
0.0
  0
LINE
  5
20F
330
63
100
AcDbEntity
  8
0
  6
Continuous
 62
     7
100
AcDbLine
 10
-353.9513056694917
 20
-124.6499999999799
 30
0.0
 11
-347.1874310402573
 21
-124.6499999999799
 31
0.0
  0
LINE
  5
210
330
63
100
AcDbEntity
  8
0
  6
Continuous
 62
     7
100
AcDbLine
 10
-347.1874310402573
 20
-117.7799999999799
 30
0.0
 11
-347.1874310402573
 21
-124.6499999999799
 31
0.0
  0
LINE
  5
211
330
63
100
AcDbEntity
  8
0
  6
Continuous
 62
     7
100
AcDbLine
 10
-348.0693683548744
 20
-123.5499999999799
 30
0.0
 11
-348.0693683548745
 21
-118.5499999999799
 31
0.0
  0
LINE
  5
212
330
63
100
AcDbEntity
  8
0
  6
Continuous
 62
     7
100
AcDbLine
 10
-353.0693683548744
 20
-123.5499999999799
 30
0.0
 11
-350.9043048454134
 21
-123.5499999999799
 31
0.0
  0
LINE
  5
213
330
63
100
AcDbEntity
  8
0
  6
Continuous
 62
     7
100
AcDbLine
 10
-350.9043048454134
 20
-118.5499999999799
 30
0.0
 11
-353.0693683548744
 21
-118.5499999999799
 31
0.0
  0
LINE
  5
214
330
63
100
AcDbEntity
  8
0
  6
Continuous
 62
     7
100
AcDbLine
 10
-353.9513056694916
 20
-109.2499999999799
 30
0.0
 11
-354.0120000000001
 21
-109.2499999999799
 31
0.0
  0
LINE
  5
215
330
63
100
AcDbEntity
  8
0
  6
Continuous
 62
     7
100
AcDbLine
 10
-351.0120000000001
 20
-109.2499999999799
 30
0.0
 11
-353.9513056694916
 21
-109.2499999999799
 31
0.0
  0
LINE
  5
216
330
63
100
AcDbEntity
  8
0
  6
Continuous
 62
     7
100
AcDbLine
 10
-351.0120000000001
 20
-117.5175340094022
 30
0.0
 11
-354.0120000000001
 21
-117.7799999999799
 31
0.0
  0
LINE
  5
217
330
63
100
AcDbEntity
  8
0
  6
Continuous
 62
     7
100
AcDbLine
 10
-353.9513056694917
 20
-117.7799999999799
 30
0.0
 11
-354.0120000000001
 21
-117.7799999999799
 31
0.0
  0
LINE
  5
218
330
63
100
AcDbEntity
  8
0
  6
Continuous
 62
     7
100
AcDbLine
 10
-351.0120000000001
 20
-117.5175340094022
 30
0.0
 11
-351.0120000000001
 21
-109.2499999999799
 31
0.0
  0
LINE
  5
219
330
63
100
AcDbEntity
  8
0
  6
Continuous
 62
     7
100
AcDbLine
 10
-353.0693683548744
 20
-118.5499999999799
 30
0.0
 11
-353.0693683548744
 21
-123.5499999999799
 31
0.0
  0
LINE
  5
21A
330
63
100
AcDbEntity
  8
0
  6
Continuous
 62
     7
100
AcDbLine
 10
-353.9513056694917
 20
-117.7799999999799
 30
0.0
 11
-353.9513056694917
 21
-124.6499999999799
 31
0.0
  0
LINE
  5
21B
330
63
100
AcDbEntity
  8
0
  6
Continuous
 62
     7
100
AcDbLine
 10
-353.9513056694916
 20
-96.2499999999799
 30
0.0
 11
-353.9513056694916
 21
-109.2499999999799
 31
0.0
  0
LINE
  5
21C
330
63
100
AcDbEntity
  8
0
  6
Continuous
 62
     7
100
AcDbLine
 10
-354.0120000000001
 20
-125.2499999999799
 30
0.0
 11
-354.0120000000001
 21
-117.7799999999799
 31
0.0
  0
LINE
  5
21D
330
63
100
AcDbEntity
  8
0
  6
Continuous
 62
     7
100
AcDbLine
 10
-354.0120000000001
 20
-109.2499999999799
 30
0.0
 11
-354.0120000000001
 21
-96.2499999999799
 31
0.0
  0
LINE
  5
21E
330
63
100
AcDbEntity
  8
0
  6
Continuous
 62
     7
100
AcDbLine
 10
-344.7758746292345
 20
-124.6499999999799
 30
0.0
 11
-331.2481253707658
 21
-124.6499999999799
 31
0.0
  0
LINE
  5
21F
330
63
100
AcDbEntity
  8
0
  6
Continuous
 62
     7
100
AcDbLine
 10
-344.7758746292316
 20
-117.7799999999798
 30
0.0
 11
-347.1874310402573
 21
-117.7799999999799
 31
0.0
  0
LINE
  5
220
330
63
100
AcDbEntity
  8
0
  6
Continuous
 62
     7
100
AcDbLine
 10
-326.4470000000001
 20
-140.7499999999799
 30
0.0
 11
-349.5770000000001
 21
-140.7499999999799
 31
0.0
  0
LINE
  5
221
330
63
100
AcDbEntity
  8
0
  6
Continuous
 62
     7
100
AcDbLine
 10
-323.5120000000001
 20
-95.2499999999799
 30
0.0
 11
-323.5120000000001
 21
-93.54999999997992
 31
0.0
  0
LINE
  5
222
330
63
100
AcDbEntity
  8
0
  6
Continuous
 62
     7
100
AcDbLine
 10
-323.5120000000001
 20
-95.2499999999799
 30
0.0
 11
-325.4546316451257
 21
-95.2499999999799
 31
0.0
  0
LINE
  5
223
330
63
100
AcDbEntity
  8
0
  6
Continuous
 62
     7
100
AcDbLine
 10
-322.9546316451257
 20
-123.5499999999799
 30
0.0
 11
-325.1196951545868
 21
-123.5499999999799
 31
0.0
  0
LINE
  5
224
330
63
100
AcDbEntity
  8
0
  6
Continuous
 62
     7
100
AcDbLine
 10
-327.9546316451257
 20
-118.5499999999799
 30
0.0
 11
-325.1196951545868
 21
-118.5499999999799
 31
0.0
  0
LINE
  5
225
330
63
100
AcDbEntity
  8
0
  6
Continuous
 62
     7
100
AcDbLine
 10
-328.8365689597429
 20
-96.2499999999799
 30
0.0
 11
-331.2481253707658
 21
-96.2499999999799
 31
0.0
  0
LINE
  5
226
330
63
100
AcDbEntity
  8
0
  6
Continuous
 62
     7
100
AcDbLine
 10
-328.8365689597429
 20
-109.2499999999799
 30
0.0
 11
-331.2481253707658
 21
-109.2499999999799
 31
0.0
  0
LINE
  5
227
330
63
100
AcDbEntity
  8
0
  6
Continuous
 62
     7
100
AcDbLine
 10
-331.2481253707658
 20
-117.7799999999799
 30
0.0
 11
-331.2481253707658
 21
-124.6499999999799
 31
0.0
  0
LINE
  5
228
330
63
100
AcDbEntity
  8
0
  6
Continuous
 62
     7
100
AcDbLine
 10
-331.2481253707658
 20
-96.2499999999799
 30
0.0
 11
-331.2481253707658
 21
-109.2499999999799
 31
0.0
  0
LINE
  5
229
330
63
100
AcDbEntity
  8
0
  6
Continuous
 62
     7
100
AcDbLine
 10
-328.8365689597429
 20
-96.2499999999799
 30
0.0
 11
-328.8365689597429
 21
-109.2499999999799
 31
0.0
  0
LINE
  5
22A
330
63
100
AcDbEntity
  8
0
  6
Continuous
 62
     7
100
AcDbLine
 10
-322.0726943305086
 20
-96.2499999999799
 30
0.0
 11
-322.0726943305086
 21
-109.2499999999799
 31
0.0
  0
LINE
  5
22B
330
63
100
AcDbEntity
  8
0
  6
Continuous
 62
     7
100
AcDbLine
 10
-325.1196951545868
 20
-118.5499999999799
 30
0.0
 11
-325.1196951545868
 21
-123.5499999999799
 31
0.0
  0
LINE
  5
22C
330
63
100
AcDbEntity
  8
1
  6
DOT_CENTER
 62
     2
100
AcDbLine
 10
-338.0120000000001
 20
-95.2499999999799
 30
0.0
 11
-338.0120000000001
 21
-93.54999999997992
 31
0.0
  0
LINE
  5
22D
330
63
100
AcDbEntity
  8
1
  6
DOT_CENTER
 62
     2
100
AcDbLine
 10
-338.0120000000001
 20
-140.7499999999799
 30
0.0
 11
-338.0120000000006
 21
-109.24999999998
 31
0.0
  0
ARC
  5
22E
330
63
100
AcDbEntity
  8
0
  6
Continuous
 62
     7
100
AcDbCircle
 10
-345.6853982702108
 20
-95.09838910574081
 30
0.0
 40
7.000000000000067
100
AcDbArc
 50
123.3337142662206
 51
167.2205668966052
  0
ARC
  5
22F
330
63
100
AcDbEntity
  8
0
  6
Continuous
 62
     7
100
AcDbCircle
 10
-330.3386017297893
 20
-95.09838910574081
 30
0.0
 40
6.999999999999955
100
AcDbArc
 50
12.77943310339512
 51
56.66628573378021
  0
SPLINE
  5
230
330
63
100
AcDbEntity
  8
0
  6
Continuous
 62
     7
100
AcDbSpline
210
0.0
220
0.0
230
1.0
 70
     8
 71
     3
 72
    11
 73
     7
 74
     5
 42
0.000000001
 43
0.0000000001
 44
0.00000001
 40
0.0
 40
0.0
 40
0.0
 40
0.0
 40
1.764141721636314
 40
3.443125834180593
 40
5.150265554072327
 40
6.85802311429488
 40
6.85802311429488
 40
6.85802311429488
 40
6.85802311429488
 10
-331.2481253707658
 20
-96.2499999999799
 30
0.0
 10
-331.8166969964802
 20
-96.0990888896137
 30
0.0
 10
-332.9263944971316
 20
-95.80455137535829
 30
0.0
 10
-334.6162138569208
 20
-95.49423600901764
 30
0.0
 10
-336.3039680054107
 20
-95.28897941286945
 30
0.0
 10
-337.4425873333465
 20
-95.26299469972173
 30
0.0
 10
-338.0120000000001
 20
-95.2499999999799
 30
0.0
 11
-331.2481253707658
 21
-96.2499999999799
 31
0.0
 11
-332.9590915807295
 21
-95.82012717798152
 31
0.0
 11
-334.6096618765591
 21
-95.51254734956558
 31
0.0
 11
-336.3055532645436
 21
-95.31689861848388
 31
0.0
 11
-338.0120000000001
 21
-95.2499999999799
 31
0.0
  0
SPLINE
  5
231
330
63
100
AcDbEntity
  8
0
  6
Continuous
 62
     7
100
AcDbSpline
210
0.0
220
0.0
230
1.0
 70
     8
 71
     3
 72
    11
 73
     7
 74
     5
 42
0.000000001
 43
0.0000000001
 44
0.00000001
 40
0.0
 40
0.0
 40
0.0
 40
0.0
 40
0.8374704095032836
 40
1.731645393758663
 40
2.631644053339912
 40
3.564238746558088
 40
3.564238746558088
 40
3.564238746558088
 40
3.564238746558088
 10
-350.5693683548745
 20
-95.2499999999799
 30
0.0
 10
-350.2899268454987
 20
-95.26257884399855
 30
0.0
 10
-349.7121230258372
 20
-95.2885882524827
 30
0.0
 10
-348.8554290054556
 20
-95.49814919703539
 30
0.0
 10
-348.0017565776674
 20
-95.81615162480901
 30
0.0
 10
-347.4620726400352
 20
-96.1036791357115
 30
0.0
 10
-347.1874310402573
 20
-96.2499999999799
 30
0.0
 11
-350.5693683548745
 21
-95.2499999999799
 31
0.0
 11
-349.7343397510223
 21
-95.3139055499313
 31
0.0
 11
-348.8628794721257
 21
-95.51417009402493
 31
0.0
 11
-348.0201733696296
 21
-95.8301511286213
 31
0.0
 11
-347.1874310402573
 21
-96.2499999999799
 31
0.0
  0
SPLINE
  5
232
330
63
100
AcDbEntity
  8
0
  6
Continuous
 62
     7
100
AcDbSpline
210
0.0
220
0.0
230
1.0
 70
     8
 71
     3
 72
    11
 73
     7
 74
     5
 42
0.000000001
 43
0.0000000001
 44
0.00000001
 40
0.0
 40
0.0
 40
0.0
 40
0.0
 40
1.70230364371522
 40
3.438191289528254
 40
5.151793638666843
 40
6.858032882237382
 40
6.858032882237382
 40
6.858032882237382
 40
6.858032882237382
 10
-338.0120000000001
 20
-95.2499999999799
 30
0.0
 10
-338.5795976608486
 20
-95.26282977896217
 30
0.0
 10
-339.7259908672341
 20
-95.28874246507138
 30
0.0
 10
-341.4328659366758
 20
-95.4974916727235
 30
0.0
 10
-343.1240270015211
 20
-95.81069477789902
 30
0.0
 10
-344.2260496595004
 20
-96.10377526053178
 30
0.0
 10
-344.7758746292345
 20
-96.2499999999799
 30
0.0
 11
-338.0120000000001
 21
-95.2499999999799
 31
0.0
 11
-339.7130124958058
 21
-95.316288657265
 31
0.0
 11
-341.4373660271591
 21
-95.51606558403114
 31
0.0
 11
-343.1214860229893
 21
-95.83256653642697
 31
0.0
 11
-344.7758746292345
 21
-96.2499999999799
 31
0.0
  0
SPLINE
  5
233
330
63
100
AcDbEntity
  8
0
  6
Continuous
 62
     7
100
AcDbSpline
210
0.0
220
0.0
230
1.0
 70
     8
 71
     3
 72
    11
 73
     7
 74
     5
 42
0.000000001
 43
0.0000000001
 44
0.00000001
 40
0.0
 40
0.0
 40
0.0
 40
0.0
 40
1.735980808424085
 40
3.385066550347092
 40
5.034157206192074
 40
6.770143257184043
 40
6.770143257184043
 40
6.770143257184043
 40
6.770143257184043
 10
-322.0726943305293
 20
-117.779999999976
 30
0.0
 10
-322.6502037953195
 20
-117.7424107332568
 30
0.0
 10
-323.7763153074237
 20
-117.6691137571335
 30
0.0
 10
-325.4546282024621
 20
-117.6388548653501
 30
0.0
 10
-327.1329428558216
 20
-117.6691134692963
 30
0.0
 10
-328.2590577494763
 20
-117.7424106351995
 30
0.0
 10
-328.8365689597429
 20
-117.7799999999799
 30
0.0
 11
-322.0726943305293
 21
-117.779999999976
 31
0.0
 11
-323.8058589653448
 21
-117.6811581233839
 31
0.0
 11
-325.4546265659581
 21
-117.6487670046914
 31
0.0
 11
-327.1033990854355
 21
-117.6811579200814
 31
0.0
 11
-328.8365689597429
 21
-117.7799999999799
 31
0.0
  0
SPLINE
  5
234
330
63
100
AcDbEntity
  8
0
  6
Continuous
 62
     7
100
AcDbSpline
210
0.0
220
0.0
230
1.0
 70
     8
 71
     3
 72
    11
 73
     7
 74
     5
 42
0.000000001
 43
0.0000000001
 44
0.00000001
 40
0.0
 40
0.0
 40
0.0
 40
0.0
 40
1.735980812291843
 40
3.385066550368014
 40
5.034157206202474
 40
6.770143257205078
 40
6.770143257205078
 40
6.770143257205078
 40
6.770143257205078
 10
-347.1874310402573
 20
-117.7799999999799
 30
0.0
 10
-347.7649405063353
 20
-117.7424107331864
 30
0.0
 10
-348.8910520184483
 20
-117.6691137570807
 30
0.0
 10
-350.5693649134897
 20
-117.6388548653747
 30
0.0
 10
-352.2476795655668
 20
-117.6691134692958
 30
0.0
 10
-353.3737944592216
 20
-117.7424106351992
 30
0.0
 10
-353.9513056694917
 20
-117.7799999999799
 30
0.0
 11
-347.1874310402573
 21
-117.7799999999799
 31
0.0
 11
-348.9205956789382
 21
-117.6811581232354
 31
0.0
 11
-350.5693632757068
 21
-117.6487670046914
 31
0.0
 11
-352.2181357951737
 21
-117.681157920081
 31
0.0
 11
-353.9513056694917
 21
-117.7799999999799
 31
0.0
  0
SPLINE
  5
235
330
63
100
AcDbEntity
  8
0
  6
Continuous
 62
     7
100
AcDbSpline
210
0.0
220
0.0
230
1.0
 70
     8
 71
     3
 72
    11
 73
     7
 74
     5
 42
0.000000001
 43
0.0000000001
 44
0.00000001
 40
0.0
 40
0.0
 40
0.0
 40
0.0
 40
0.9368954373450686
 40
1.8361241975155
 40
2.706722857707474
 40
3.564208243802443
 40
3.564208243802443
 40
3.564208243802443
 40
3.564208243802443
 10
-353.9513056694916
 20
-96.2499999999799
 30
0.0
 10
-353.6753737689108
 20
-96.10304961638556
 30
0.0
 10
-353.1346034487229
 20
-95.81505681382387
 30
0.0
 10
-352.2870406513852
 20
-95.49972369711665
 30
0.0
 10
-351.4321202514633
 20
-95.28995413839976
 30
0.0
 10
-350.855493776606
 20
-95.26325049583883
 30
0.0
 10
-350.5693683548745
 20
-95.2499999999799
 30
0.0
 11
-353.9513056694916
 21
-96.2499999999799
 31
0.0
 11
-353.1146108401845
 21
-95.82843764004475
 31
0.0
 11
-352.2724720045288
 21
-95.51313691570235
 31
0.0
 11
-351.424220555767
 21
-95.3171483715434
 31
0.0
 11
-350.5693683548745
 21
-95.2499999999799
 31
0.0
  0
SPLINE
  5
236
330
63
100
AcDbEntity
  8
0
  6
Continuous
 62
     7
100
AcDbSpline
210
0.0
220
0.0
230
1.0
 70
     8
 71
     3
 72
    11
 73
     7
 74
     5
 42
0.000000001
 43
0.0000000001
 44
0.00000001
 40
0.0
 40
0.0
 40
0.0
 40
0.0
 40
3.467739795603459
 40
6.765442655357034
 40
10.06314551511845
 40
13.53088531071128
 40
13.53088531071128
 40
13.53088531071128
 40
13.53088531071128
 10
-331.2481253707658
 20
-117.7799999999799
 30
0.0
 10
-332.403462915425
 20
-117.7424074571224
 30
0.0
 10
-334.6574872563721
 20
-117.6690656965461
 30
0.0
 10
-338.0120000000028
 20
-117.6388727587477
 30
0.0
 10
-341.3665127436298
 20
-117.6690656965462
 30
0.0
 10
-343.6205370845761
 20
-117.7424074571223
 30
0.0
 10
-344.7758746292316
 20
-117.7799999999798
 30
0.0
 11
-331.2481253707658
 21
-117.7799999999799
 31
0.0
 11
-334.7144562216958
 21
-117.6811580927385
 31
0.0
 11
-338.0120000000001
 21
-117.6487670046911
 31
0.0
 11
-341.3095437783123
 21
-117.6811580927387
 31
0.0
 11
-344.7758746292316
 21
-117.7799999999798
 31
0.0
  0
SPLINE
  5
237
330
63
100
AcDbEntity
  8
0
  6
Continuous
 62
     7
100
AcDbSpline
210
0.0
220
0.0
230
1.0
 70
     8
 71
     3
 72
    11
 73
     7
 74
     5
 42
0.000000001
 43
0.0000000001
 44
0.00000001
 40
0.0
 40
0.0
 40
0.0
 40
0.0
 40
0.8374704095459451
 40
1.731645393758659
 40
2.63164405334333
 40
3.564238746557979
 40
3.564238746557979
 40
3.564238746557979
 40
3.564238746557979
 10
-325.4546316451257
 20
-95.2499999999799
 30
0.0
 10
-325.1751901357355
 20
-95.26257884399979
 30
0.0
 10
-324.5973863160741
 20
-95.28858825248511
 30
0.0
 10
-323.7406922956923
 20
-95.49814919704066
 30
0.0
 10
-322.8870198679177
 20
-95.81615162480952
 30
0.0
 10
-322.3473359302853
 20
-96.10367913571199
 30
0.0
 10
-322.0726943305086
 20
-96.2499999999799
 30
0.0
 11
-325.4546316451257
 21
-95.2499999999799
 31
0.0
 11
-324.6196030412312
 21
-95.31390554993777
 31
0.0
 11
-323.7481427623769
 21
-95.51417009402493
 31
0.0
 11
-322.9054366598776
 21
-95.8301511286227
 31
0.0
 11
-322.0726943305086
 21
-96.2499999999799
 31
0.0
  0
SPLINE
  5
238
330
63
100
AcDbEntity
  8
0
  6
Continuous
 62
     7
100
AcDbSpline
210
0.0
220
0.0
230
1.0
 70
     8
 71
     3
 72
    11
 73
     7
 74
     5
 42
0.000000001
 43
0.0000000001
 44
0.00000001
 40
0.0
 40
0.0
 40
0.0
 40
0.0
 40
0.9368954373450751
 40
1.836124197515608
 40
2.706722857707468
 40
3.564208243802551
 40
3.564208243802551
 40
3.564208243802551
 40
3.564208243802551
 10
-328.8365689597429
 20
-96.2499999999799
 30
0.0
 10
-328.560637059162
 20
-96.10304961638556
 30
0.0
 10
-328.0198667389743
 20
-95.81505681382379
 30
0.0
 10
-327.1723039416365
 20
-95.49972369711672
 30
0.0
 10
-326.3173835417145
 20
-95.28995413839978
 30
0.0
 10
-325.7407570668572
 20
-95.26325049583883
 30
0.0
 10
-325.4546316451257
 20
-95.2499999999799
 30
0.0
 11
-328.8365689597429
 21
-96.2499999999799
 31
0.0
 11
-327.9998741304358
 21
-95.82843764004474
 31
0.0
 11
-327.15773529478
 21
-95.51313691570235
 31
0.0
 11
-326.3094838460183
 21
-95.31714837154341
 31
0.0
 11
-325.4546316451257
 21
-95.2499999999799
 31
0.0
  0
ENDBLK
  5
65
330
63
100
AcDbEntity
  8
0
100
AcDbBlockEnd
  0
BLOCK
  5
68
330
66
100
AcDbEntity
  8
0
100
AcDbBlockBegin
  2
SA_Rechts1
 70
     0
 10
-338.012
 20
-115.0
 30
0.0
  3
SA_Rechts1
  1

  0
INSERT
  5
67
330
66
100
AcDbEntity
  8
0
100
AcDbBlockReference
  2
G_INS_M25_M68L_PEPDS_LG-select__5
 10
-354.0120000000001
 20
-140.7499999999799
 30
0.0
  0
MTEXT
  5
239
330
66
100
AcDbEntity
  8
1
 62
     6
100
AcDbMText
 10
-338.0119999999749
 20
-145.7519999999799
 30
0.0
 40
5.0
 41
0.0
 71
     2
 72
     1
  1
 
  7
CONVERTER_11
 73
     1
 44
1.32052821128451
  0
ENDBLK
  5
69
330
66
100
AcDbEntity
  8
0
100
AcDbBlockEnd
  0
BLOCK
  5
6B
330
6A
100
AcDbEntity
  8
0
100
AcDbBlockBegin
  2
G_INS_M25_M68L_PEPDS_LG-select__6
 70
     0
 10
-292.0080000000251
 20
-140.74999999998
 30
0.0
  3
G_INS_M25_M68L_PEPDS_LG-select__6
  1

  0
LINE
  5
23A
330
6A
100
AcDbEntity
  8
0
  6
Continuous
 62
     7
100
AcDbLine
 10
-263.508000000025
 20
-125.74999999998
 30
0.0
 11
-288.5080000000251
 21
-125.74999999998
 31
0.0
  0
LINE
  5
23B
330
6A
100
AcDbEntity
  8
0
  6
Continuous
 62
     7
100
AcDbLine
 10
-263.508000000025
 20
-139.81499999998
 30
0.0
 11
-263.508000000025
 21
-125.74999999998
 31
0.0
  0
LINE
  5
23C
330
6A
100
AcDbEntity
  8
0
  6
Continuous
 62
     7
100
AcDbLine
 10
-287.5881270189472
 20
-123.54999999998
 30
0.0
 11
-286.3381270189472
 21
-123.54999999998
 31
0.0
  0
LINE
  5
23D
330
6A
100
AcDbEntity
  8
0
  6
Continuous
 62
     7
100
AcDbLine
 10
-286.3381270189472
 20
-123.54999999998
 30
0.0
 11
-278.9278729811028
 21
-123.54999999998
 31
0.0
  0
LINE
  5
23E
330
6A
100
AcDbEntity
  8
0
  6
Continuous
 62
     7
100
AcDbLine
 10
-273.0881270189473
 20
-123.54999999998
 30
0.0
 11
-265.6778729811028
 21
-123.54999999998
 31
0.0
  0
LINE
  5
23F
330
6A
100
AcDbEntity
  8
0
  6
Continuous
 62
     7
100
AcDbLine
 10
-263.508000000025
 20
-139.81499999998
 30
0.0
 11
-288.5080000000251
 21
-139.81499999998
 31
0.0
  0
LINE
  5
240
330
6A
100
AcDbEntity
  8
0
  6
Continuous
 62
     7
100
AcDbLine
 10
-264.443000000025
 20
-140.74999999998
 30
0.0
 11
-287.573000000025
 21
-140.74999999998
 31
0.0
  0
LINE
  5
241
330
6A
100
AcDbEntity
  8
0
  6
Continuous
 62
     7
100
AcDbLine
 10
-289.0080000000251
 20
-109.24999999998
 30
0.0
 11
-289.115687256955
 21
-109.24999999998
 31
0.0
  0
LINE
  5
242
330
6A
100
AcDbEntity
  8
0
  6
Continuous
 62
     7
100
AcDbLine
 10
-286.3381270189473
 20
-118.54999999998
 30
0.0
 11
-286.3381270189472
 21
-123.54999999998
 31
0.0
  0
LINE
  5
243
330
6A
100
AcDbEntity
  8
0
  6
Continuous
 62
     7
100
AcDbLine
 10
-287.5881270189472
 20
-118.54999999998
 30
0.0
 11
-287.5881270189472
 21
-123.54999999998
 31
0.0
  0
LINE
  5
244
330
6A
100
AcDbEntity
  8
0
  6
Continuous
 62
     7
100
AcDbLine
 10
-277.400312743095
 20
-109.24999999998
 30
0.0
 11
-289.0080000000251
 21
-109.24999999998
 31
0.0
  0
LINE
  5
245
330
6A
100
AcDbEntity
  8
0
  6
Continuous
 62
     7
100
AcDbLine
 10
-260.008000000025
 20
-125.24999999998
 30
0.0
 11
-262.008000000025
 21
-125.24999999998
 31
0.0
  0
LINE
  5
246
330
6A
100
AcDbEntity
  8
0
  6
Continuous
 62
     7
100
AcDbLine
 10
-261.508000000025
 20
-124.64999999998
 30
0.0
 11
-260.008000000025
 21
-124.64999999998
 31
0.0
  0
LINE
  5
247
330
6A
100
AcDbEntity
  8
0
  6
Continuous
 62
     7
100
AcDbLine
 10
-260.008000000025
 20
-125.24999999998
 30
0.0
 11
-260.008000000025
 21
-124.64999999998
 31
0.0
  0
LINE
  5
248
330
6A
100
AcDbEntity
  8
0
  6
Continuous
 62
     7
100
AcDbLine
 10
-262.008000000025
 20
-125.74999999998
 30
0.0
 11
-262.008000000025
 21
-125.24999999998
 31
0.0
  0
LINE
  5
249
330
6A
100
AcDbEntity
  8
0
  6
Continuous
 62
     7
100
AcDbLine
 10
-261.508000000025
 20
-96.24999999997996
 30
0.0
 11
-261.508000000025
 21
-109.24999999998
 31
0.0
  0
LINE
  5
24A
330
6A
100
AcDbEntity
  8
0
  6
Continuous
 62
     7
100
AcDbLine
 10
-261.508000000025
 20
-109.24999999998
 30
0.0
 11
-262.900312743095
 21
-109.24999999998
 31
0.0
  0
LINE
  5
24B
330
6A
100
AcDbEntity
  8
0
  6
Continuous
 62
     7
100
AcDbLine
 10
-261.508000000025
 20
-96.24999999997996
 30
0.0
 11
-262.900312743095
 21
-96.24999999997996
 31
0.0
  0
LINE
  5
24C
330
6A
100
AcDbEntity
  8
0
  6
Continuous
 62
     7
100
AcDbLine
 10
-261.508000000025
 20
-95.24999999997996
 30
0.0
 11
-261.508000000025
 21
-96.24999999997996
 31
0.0
  0
LINE
  5
24D
330
6A
100
AcDbEntity
  8
0
  6
Continuous
 62
     7
100
AcDbLine
 10
-262.900312743095
 20
-96.24999999997996
 30
0.0
 11
-262.900312743095
 21
-109.24999999998
 31
0.0
  0
LINE
  5
24E
330
6A
100
AcDbEntity
  8
0
  6
Continuous
 62
     7
100
AcDbLine
 10
-262.008000000025
 20
-125.74999999998
 30
0.0
 11
-263.508000000025
 21
-125.74999999998
 31
0.0
  0
LINE
  5
24F
330
6A
100
AcDbEntity
  8
0
  6
Continuous
 62
     7
100
AcDbLine
 10
-261.508000000025
 20
-117.77999999998
 30
0.0
 11
-261.508000000025
 21
-124.64999999998
 31
0.0
  0
LINE
  5
250
330
6A
100
AcDbEntity
  8
0
  6
Continuous
 62
     7
100
AcDbLine
 10
-264.443000000025
 20
-140.74999999998
 30
0.0
 11
-263.508000000025
 21
-139.81499999998
 31
0.0
  0
LINE
  5
251
330
6A
100
AcDbEntity
  8
0
  6
Continuous
 62
     7
100
AcDbLine
 10
-278.9278729811028
 20
-123.54999999998
 30
0.0
 11
-278.9278729811028
 21
-118.54999999998
 31
0.0
  0
LINE
  5
252
330
6A
100
AcDbEntity
  8
0
  6
Continuous
 62
     7
100
AcDbLine
 10
-273.0881270189473
 20
-118.54999999998
 30
0.0
 11
-273.0881270189473
 21
-123.54999999998
 31
0.0
  0
LINE
  5
253
330
6A
100
AcDbEntity
  8
0
  6
Continuous
 62
     7
100
AcDbLine
 10
-274.6156872569551
 20
-124.64999999998
 30
0.0
 11
-262.900312743095
 21
-124.64999999998
 31
0.0
  0
LINE
  5
254
330
6A
100
AcDbEntity
  8
0
  6
Continuous
 62
     7
100
AcDbLine
 10
-289.115687256955
 20
-124.64999999998
 30
0.0
 11
-277.400312743095
 21
-124.64999999998
 31
0.0
  0
LINE
  5
255
330
6A
100
AcDbEntity
  8
0
  6
Continuous
 62
     7
100
AcDbLine
 10
-262.008000000025
 20
-125.24999999998
 30
0.0
 11
-290.0080000000251
 21
-125.24999999998
 31
0.0
  0
LINE
  5
256
330
6A
100
AcDbEntity
  8
0
  6
Continuous
 62
     7
100
AcDbLine
 10
-290.5080000000251
 20
-95.24999999997996
 30
0.0
 11
-290.5080000000251
 21
-96.24999999997996
 31
0.0
  0
LINE
  5
257
330
6A
100
AcDbEntity
  8
0
  6
Continuous
 62
     7
100
AcDbLine
 10
-274.615687256955
 20
-96.24999999997996
 30
0.0
 11
-277.400312743095
 21
-96.24999999997996
 31
0.0
  0
LINE
  5
258
330
6A
100
AcDbEntity
  8
0
  6
Continuous
 62
     7
100
AcDbLine
 10
-289.115687256955
 20
-96.24999999997996
 30
0.0
 11
-290.5080000000251
 21
-96.24999999997996
 31
0.0
  0
LINE
  5
259
330
6A
100
AcDbEntity
  8
0
  6
Continuous
 62
     7
100
AcDbLine
 10
-268.758000000025
 20
-95.24999999997996
 30
0.0
 11
-283.2580000000251
 21
-95.24999999997996
 31
0.0
  0
LINE
  5
25A
330
6A
100
AcDbEntity
  8
0
  6
Continuous
 62
     7
100
AcDbLine
 10
-283.2580000000251
 20
-95.24999999997996
 30
0.0
 11
-290.5080000000251
 21
-95.24999999997996
 31
0.0
  0
LINE
  5
25B
330
6A
100
AcDbEntity
  8
0
  6
Continuous
 62
     7
100
AcDbLine
 10
-290.5080000000251
 20
-95.24999999997996
 30
0.0
 11
-290.5080000000251
 21
-93.54999999997997
 31
0.0
  0
LINE
  5
25C
330
6A
100
AcDbEntity
  8
0
  6
Continuous
 62
     7
100
AcDbLine
 10
-261.508000000025
 20
-95.24999999997996
 30
0.0
 11
-261.508000000025
 21
-93.54999999997997
 31
0.0
  0
LINE
  5
25D
330
6A
100
AcDbEntity
  8
0
  6
Continuous
 62
     7
100
AcDbLine
 10
-261.508000000025
 20
-95.24999999997996
 30
0.0
 11
-268.758000000025
 21
-95.24999999997996
 31
0.0
  0
LINE
  5
25E
330
6A
100
AcDbEntity
  8
0
  6
Continuous
 62
     7
100
AcDbLine
 10
-261.508000000025
 20
-93.54999999997997
 30
0.0
 11
-290.5080000000251
 21
-93.54999999997997
 31
0.0
  0
LINE
  5
25F
330
6A
100
AcDbEntity
  8
0
  6
Continuous
 62
     7
100
AcDbLine
 10
-264.488000000025
 20
-89.24999999997996
 30
0.0
 11
-287.528000000025
 21
-89.24999999997996
 31
0.0
  0
LINE
  5
260
330
6A
100
AcDbEntity
  8
0
  6
Continuous
 62
     7
100
AcDbLine
 10
-289.1156872569544
 20
-117.7799999999799
 30
0.0
 11
-289.115687256955
 21
-124.64999999998
 31
0.0
  0
LINE
  5
261
330
6A
100
AcDbEntity
  8
0
  6
Continuous
 62
     7
100
AcDbLine
 10
-289.115687256955
 20
-96.24999999997996
 30
0.0
 11
-289.115687256955
 21
-109.24999999998
 31
0.0
  0
LINE
  5
262
330
6A
100
AcDbEntity
  8
0
  6
Continuous
 62
     7
100
AcDbLine
 10
-288.5080000000251
 20
-139.81499999998
 30
0.0
 11
-288.5080000000251
 21
-125.74999999998
 31
0.0
  0
LINE
  5
263
330
6A
100
AcDbEntity
  8
0
  6
Continuous
 62
     7
100
AcDbLine
 10
-287.573000000025
 20
-140.74999999998
 30
0.0
 11
-288.5080000000251
 21
-139.81499999998
 31
0.0
  0
LINE
  5
264
330
6A
100
AcDbEntity
  8
0
  6
Continuous
 62
     7
100
AcDbLine
 10
-262.900312743095
 20
-109.24999999998
 30
0.0
 11
-263.008000000025
 21
-109.24999999998
 31
0.0
  0
LINE
  5
265
330
6A
100
AcDbEntity
  8
0
  6
Continuous
 62
     7
100
AcDbLine
 10
-263.008000000025
 20
-117.5175340094022
 30
0.0
 11
-263.008000000025
 21
-109.24999999998
 31
0.0
  0
LINE
  5
266
330
6A
100
AcDbEntity
  8
0
  6
Continuous
 62
     7
100
AcDbLine
 10
-265.6778729811028
 20
-123.54999999998
 30
0.0
 11
-264.4278729811028
 21
-123.54999999998
 31
0.0
  0
LINE
  5
267
330
6A
100
AcDbEntity
  8
0
  6
Continuous
 62
     7
100
AcDbLine
 10
-264.4278729811028
 20
-118.54999999998
 30
0.0
 11
-265.6778729811028
 21
-118.54999999998
 31
0.0
  0
LINE
  5
268
330
6A
100
AcDbEntity
  8
0
  6
Continuous
 62
     7
100
AcDbLine
 10
-265.6778729811028
 20
-123.54999999998
 30
0.0
 11
-265.6778729811028
 21
-118.54999999998
 31
0.0
  0
LINE
  5
269
330
6A
100
AcDbEntity
  8
0
  6
Continuous
 62
     7
100
AcDbLine
 10
-264.4278729811028
 20
-123.54999999998
 30
0.0
 11
-264.4278729811028
 21
-118.54999999998
 31
0.0
  0
LINE
  5
26A
330
6A
100
AcDbEntity
  8
0
  6
Continuous
 62
     7
100
AcDbLine
 10
-262.900312743095
 20
-117.77999999998
 30
0.0
 11
-262.900312743095
 21
-124.64999999998
 31
0.0
  0
LINE
  5
26B
330
6A
100
AcDbEntity
  8
0
  6
Continuous
 62
     7
100
AcDbLine
 10
-263.008000000025
 20
-109.24999999998
 30
0.0
 11
-274.615687256955
 21
-109.24999999998
 31
0.0
  0
LINE
  5
26C
330
6A
100
AcDbEntity
  8
0
  6
Continuous
 62
     7
100
AcDbLine
 10
-274.615687256955
 20
-109.24999999998
 30
0.0
 11
-277.400312743095
 21
-109.24999999998
 31
0.0
  0
LINE
  5
26D
330
6A
100
AcDbEntity
  8
0
  6
Continuous
 62
     7
100
AcDbLine
 10
-277.400312743095
 20
-96.24999999997996
 30
0.0
 11
-277.400312743095
 21
-109.24999999998
 31
0.0
  0
LINE
  5
26E
330
6A
100
AcDbEntity
  8
0
  6
Continuous
 62
     7
100
AcDbLine
 10
-277.400312743095
 20
-117.77999999998
 30
0.0
 11
-277.400312743095
 21
-124.64999999998
 31
0.0
  0
LINE
  5
26F
330
6A
100
AcDbEntity
  8
0
  6
Continuous
 62
     7
100
AcDbLine
 10
-274.6156872569551
 20
-117.77999999998
 30
0.0
 11
-274.6156872569551
 21
-124.64999999998
 31
0.0
  0
LINE
  5
270
330
6A
100
AcDbEntity
  8
0
  6
Continuous
 62
     7
100
AcDbLine
 10
-274.615687256955
 20
-96.24999999997996
 30
0.0
 11
-274.615687256955
 21
-109.24999999998
 31
0.0
  0
LINE
  5
271
330
6A
100
AcDbEntity
  8
0
  6
Continuous
 62
     7
100
AcDbLine
 10
-292.0080000000251
 20
-124.64999999998
 30
0.0
 11
-290.5080000000251
 21
-124.64999999998
 31
0.0
  0
LINE
  5
272
330
6A
100
AcDbEntity
  8
0
  6
Continuous
 62
     7
100
AcDbLine
 10
-292.0080000000251
 20
-125.24999999998
 30
0.0
 11
-292.0080000000251
 21
-124.64999999998
 31
0.0
  0
LINE
  5
273
330
6A
100
AcDbEntity
  8
0
  6
Continuous
 62
     7
100
AcDbLine
 10
-288.5080000000251
 20
-125.74999999998
 30
0.0
 11
-290.0080000000251
 21
-125.74999999998
 31
0.0
  0
LINE
  5
274
330
6A
100
AcDbEntity
  8
0
  6
Continuous
 62
     7
100
AcDbLine
 10
-290.0080000000251
 20
-125.74999999998
 30
0.0
 11
-290.0080000000251
 21
-125.24999999998
 31
0.0
  0
LINE
  5
275
330
6A
100
AcDbEntity
  8
0
  6
Continuous
 62
     7
100
AcDbLine
 10
-290.5080000000251
 20
-96.24999999997996
 30
0.0
 11
-290.5080000000251
 21
-109.24999999998
 31
0.0
  0
LINE
  5
276
330
6A
100
AcDbEntity
  8
0
  6
Continuous
 62
     7
100
AcDbLine
 10
-289.115687256955
 20
-109.24999999998
 30
0.0
 11
-290.5080000000251
 21
-109.24999999998
 31
0.0
  0
LINE
  5
277
330
6A
100
AcDbEntity
  8
0
  6
Continuous
 62
     7
100
AcDbLine
 10
-290.5080000000251
 20
-117.77999999998
 30
0.0
 11
-290.5080000000251
 21
-124.64999999998
 31
0.0
  0
LINE
  5
278
330
6A
100
AcDbEntity
  8
0
  6
Continuous
 62
     7
100
AcDbLine
 10
-289.0080000000251
 20
-117.5175340094022
 30
0.0
 11
-289.0080000000251
 21
-109.24999999998
 31
0.0
  0
LINE
  5
279
330
6A
100
AcDbEntity
  8
0
  6
Continuous
 62
     7
100
AcDbLine
 10
-290.0080000000251
 20
-125.24999999998
 30
0.0
 11
-292.0080000000251
 21
-125.24999999998
 31
0.0
  0
LINE
  5
27A
330
6A
100
AcDbEntity
  8
0
  6
Continuous
 62
     7
100
AcDbLine
 10
-289.1156872569544
 20
-117.7799999999799
 30
0.0
 11
-290.5080000000251
 21
-117.77999999998
 31
0.0
  0
LINE
  5
27B
330
6A
100
AcDbEntity
  8
0
  6
Continuous
 62
     7
100
AcDbLine
 10
-290.5080000000251
 20
-117.77999999998
 30
0.0
 11
-290.5080000000251
 21
-117.6487670046911
 31
0.0
  0
LINE
  5
27C
330
6A
100
AcDbEntity
  8
0
  6
Continuous
 62
     7
100
AcDbLine
 10
-261.508000000025
 20
-117.6487670046911
 30
0.0
 11
-261.508000000025
 21
-117.77999999998
 31
0.0
  0
LINE
  5
27D
330
6A
100
AcDbEntity
  8
0
  6
Continuous
 62
     7
100
AcDbLine
 10
-286.3381270189473
 20
-118.54999999998
 30
0.0
 11
-287.5881270189472
 21
-118.54999999998
 31
0.0
  0
LINE
  5
27E
330
6A
100
AcDbEntity
  8
0
  6
Continuous
 62
     7
100
AcDbLine
 10
-278.9278729811028
 20
-118.54999999998
 30
0.0
 11
-286.3381270189473
 21
-118.54999999998
 31
0.0
  0
LINE
  5
27F
330
6A
100
AcDbEntity
  8
0
  6
Continuous
 62
     7
100
AcDbLine
 10
-265.6778729811028
 20
-118.54999999998
 30
0.0
 11
-273.0881270189473
 21
-118.54999999998
 31
0.0
  0
LINE
  5
280
330
6A
100
AcDbEntity
  8
0
  6
Continuous
 62
     7
100
AcDbLine
 10
-261.508000000025
 20
-117.77999999998
 30
0.0
 11
-262.900312743095
 21
-117.77999999998
 31
0.0
  0
LINE
  5
281
330
6A
100
AcDbEntity
  8
0
  6
Continuous
 62
     7
100
AcDbLine
 10
-263.008000000025
 20
-117.5175340094022
 30
0.0
 11
-261.508000000025
 21
-117.6487670046911
 31
0.0
  0
LINE
  5
282
330
6A
100
AcDbEntity
  8
0
  6
Continuous
 62
     7
100
AcDbLine
 10
-289.0080000000251
 20
-117.5175340094022
 30
0.0
 11
-263.008000000025
 21
-117.5175340094022
 31
0.0
  0
LINE
  5
283
330
6A
100
AcDbEntity
  8
0
  6
Continuous
 62
     7
100
AcDbLine
 10
-289.0080000000251
 20
-117.5175340094022
 30
0.0
 11
-290.5080000000251
 21
-117.6487670046911
 31
0.0
  0
LINE
  5
284
330
6A
100
AcDbEntity
  8
0
  6
Continuous
 62
     7
100
AcDbLine
 10
-274.6156872569551
 20
-117.77999999998
 30
0.0
 11
-277.400312743095
 21
-117.77999999998
 31
0.0
  0
LINE
  5
285
330
6A
100
AcDbEntity
  8
1
  6
DOT_CENTER
 62
     2
100
AcDbLine
 10
-276.0080000000251
 20
-95.24999999997996
 30
0.0
 11
-276.0080000000251
 21
-93.54999999997997
 31
0.0
  0
LINE
  5
286
330
6A
100
AcDbEntity
  8
1
  6
DOT_CENTER
 62
     2
100
AcDbLine
 10
-276.0080000000251
 20
-117.6487670046911
 30
0.0
 11
-276.0080000000251
 21
-109.24999999998
 31
0.0
  0
LINE
  5
287
330
6A
100
AcDbEntity
  8
1
  6
DOT_CENTER
 62
     2
100
AcDbLine
 10
-276.0080000000248
 20
-140.7499999999801
 30
0.0
 11
-276.0080000000253
 21
-124.6499999999801
 31
0.0
  0
ARC
  5
288
330
6A
100
AcDbEntity
  8
0
  6
Continuous
 62
     7
100
AcDbCircle
 10
-268.3346017298142
 20
-95.09838910574086
 30
0.0
 40
7.000000000000011
100
AcDbArc
 50
12.77943310339502
 51
56.66628573378021
  0
ARC
  5
289
330
6A
100
AcDbEntity
  8
0
  6
Continuous
 62
     7
100
AcDbCircle
 10
-283.6813982702358
 20
-95.09838910574086
 30
0.0
 40
7.000000000000004
100
AcDbArc
 50
123.3337142662198
 51
167.2205668966052
  0
SPLINE
  5
28A
330
6A
100
AcDbEntity
  8
0
  6
Continuous
 62
     7
100
AcDbSpline
210
0.0
220
0.0
230
1.0
 70
     8
 71
     3
 72
    11
 73
     7
 74
     5
 42
0.000000001
 43
0.0000000001
 44
0.00000001
 40
0.0
 40
0.0
 40
0.0
 40
0.0
 40
1.509267880409295
 40
3.001584200797324
 40
4.483813288302988
 40
5.965982562811352
 40
5.965982562811352
 40
5.965982562811352
 40
5.965982562811352
 10
-274.615687256955
 20
-96.24999999997996
 30
0.0
 10
-274.1345254910638
 20
-96.10233906442441
 30
0.0
 10
-273.1776061930087
 20
-95.80867568278602
 30
0.0
 10
-271.7143929179027
 20
-95.49655597197489
 30
0.0
 10
-270.2407415515225
 20
-95.28920380664029
 30
0.0
 10
-269.2522405357456
 20
-95.26306775477079
 30
0.0
 10
-268.758000000025
 20
-95.24999999997996
 30
0.0
 11
-274.615687256955
 21
-96.24999999997996
 31
0.0
 11
-273.1664893021648
 21
-95.82843764004481
 31
0.0
 11
-271.7078620517822
 21
-95.5131369157024
 31
0.0
 11
-270.238647444933
 21
-95.31714837154345
 31
0.0
 11
-268.758000000025
 21
-95.24999999997996
 31
0.0
  0
SPLINE
  5
28B
330
6A
100
AcDbEntity
  8
0
  6
Continuous
 62
     7
100
AcDbSpline
210
0.0
220
0.0
230
1.0
 70
     8
 71
     3
 72
    11
 73
     7
 74
     5
 42
0.000000001
 43
0.0000000001
 44
0.00000001
 40
0.0
 40
0.0
 40
0.0
 40
0.0
 40
1.466761285403357
 40
2.970363696421
 40
4.463784178922246
 40
5.966000020788
 40
5.966000020788
 40
5.966000020788
 40
5.966000020788
 10
-283.2580000000251
 20
-95.24999999997996
 30
0.0
 10
-282.7688960630748
 20
-95.26271971207964
 30
0.0
 10
-281.7784032054835
 20
-95.28847863653432
 30
0.0
 10
-280.3023518602304
 20
-95.49623672801923
 30
0.0
 10
-278.8341968639924
 20
-95.80977940765297
 30
0.0
 10
-277.8792087485766
 20
-96.10297285349195
 30
0.0
 10
-277.400312743095
 20
-96.24999999997996
 30
0.0
 11
-283.2580000000251
 21
-95.24999999997996
 31
0.0
 11
-281.7927058966308
 21
-95.31558857000029
 31
0.0
 11
-280.3022745525526
 21
-95.51417009402499
 31
0.0
 11
-278.8426647671777
 21
-95.83015112862215
 31
0.0
 11
-277.400312743095
 21
-96.24999999997996
 31
0.0
  0
SPLINE
  5
28C
330
6A
100
AcDbEntity
  8
0
  6
Continuous
 62
     7
100
AcDbSpline
210
0.0
220
0.0
230
1.0
 70
     8
 71
     3
 72
    11
 73
     7
 74
     5
 42
0.000000001
 43
0.0000000001
 44
0.00000001
 40
0.0
 40
0.0
 40
0.0
 40
0.0
 40
1.509267880409299
 40
3.001584200797325
 40
4.483813288302933
 40
5.96598256281124
 40
5.96598256281124
 40
5.96598256281124
 40
5.96598256281124
 10
-289.115687256955
 20
-96.24999999997996
 30
0.0
 10
-288.6345254910639
 20
-96.10233906442443
 30
0.0
 10
-287.6776061930086
 20
-95.808675682786
 30
0.0
 10
-286.2143929179027
 20
-95.49655597197489
 30
0.0
 10
-284.7407415515227
 20
-95.2892038066403
 30
0.0
 10
-283.7522405357456
 20
-95.26306775477077
 30
0.0
 10
-283.2580000000251
 20
-95.24999999997996
 30
0.0
 11
-289.115687256955
 21
-96.24999999997996
 31
0.0
 11
-287.6664893021648
 21
-95.8284376400448
 31
0.0
 11
-286.2078620517822
 21
-95.5131369157024
 31
0.0
 11
-284.738647444933
 21
-95.31714837154345
 31
0.0
 11
-283.2580000000251
 21
-95.24999999997996
 31
0.0
  0
SPLINE
  5
28D
330
6A
100
AcDbEntity
  8
0
  6
Continuous
 62
     7
100
AcDbSpline
210
0.0
220
0.0
230
1.0
 70
     8
 71
     3
 72
    11
 73
     7
 74
     5
 42
0.000000001
 43
0.0000000001
 44
0.00000001
 40
0.0
 40
0.0
 40
0.0
 40
0.0
 40
1.466761285398399
 40
2.970363696420883
 40
4.463784178917565
 40
5.966000020787881
 40
5.966000020787881
 40
5.966000020787881
 40
5.966000020787881
 10
-268.758000000025
 20
-95.24999999997996
 30
0.0
 10
-268.2688960630765
 20
-95.26271971207959
 30
0.0
 10
-267.2784032054849
 20
-95.28847863653425
 30
0.0
 10
-265.8023518602334
 20
-95.49623672801859
 30
0.0
 10
-264.3341968639939
 20
-95.80977940765271
 30
0.0
 10
-263.379208748578
 20
-96.10297285349151
 30
0.0
 10
-262.900312743095
 20
-96.24999999997996
 30
0.0
 11
-268.758000000025
 21
-95.24999999997996
 31
0.0
 11
-267.2927058966356
 21
-95.31558856999989
 31
0.0
 11
-265.8022745525526
 21
-95.51417009402499
 31
0.0
 11
-264.3426647671822
 21
-95.83015112862105
 31
0.0
 11
-262.900312743095
 21
-96.24999999997996
 31
0.0
  0
SPLINE
  5
28E
330
6A
100
AcDbEntity
  8
0
  6
Continuous
 62
     7
100
AcDbSpline
210
0.0
220
0.0
230
1.0
 70
     8
 71
     3
 72
    11
 73
     7
 74
     5
 42
0.000000001
 43
0.0000000001
 44
0.00000001
 40
0.0
 40
0.0
 40
0.0
 40
0.0
 40
3.003553144310984
 40
5.859488949072079
 40
8.715433275050607
 40
11.71899549181743
 40
11.71899549181743
 40
11.71899549181743
 40
11.71899549181743
 10
-277.400312743095
 20
-117.77999999998
 30
0.0
 10
-278.4008323811049
 20
-117.7424078650878
 30
0.0
 10
-280.3526985482613
 20
-117.6690711721437
 30
0.0
 10
-283.257994042207
 20
-117.6388707661982
 30
0.0
 10
-286.1632925665364
 20
-117.6690708843056
 30
0.0
 10
-288.1151645959724
 20
-117.7424077670968
 30
0.0
 10
-289.1156872569544
 20
-117.7799999999799
 30
0.0
 11
-277.400312743095
 21
-117.77999999998
 31
0.0
 11
-280.4022390892142
 21
-117.6811581874694
 31
0.0
 11
-283.2579912026487
 21
-117.6487670046914
 31
0.0
 11
-286.1137518401537
 21
-117.6811579842635
 31
0.0
 11
-289.1156872569544
 21
-117.7799999999799
 31
0.0
  0
SPLINE
  5
28F
330
6A
100
AcDbEntity
  8
0
  6
Continuous
 62
     7
100
AcDbSpline
210
0.0
220
0.0
230
1.0
 70
     8
 71
     3
 72
    11
 73
     7
 74
     5
 42
0.000000001
 43
0.0000000001
 44
0.00000001
 40
0.0
 40
0.0
 40
0.0
 40
0.0
 40
3.003553142093885
 40
5.859488949072066
 40
8.715433275057475
 40
11.7189954918181
 40
11.7189954918181
 40
11.7189954918181
 40
11.7189954918181
 10
-262.900312743095
 20
-117.77999999998
 30
0.0
 10
-263.9008323803661
 20
-117.7424078651121
 30
0.0
 10
-265.8526985475222
 20
-117.6690711721614
 30
0.0
 10
-268.7579940414701
 20
-117.6388707661899
 30
0.0
 10
-271.6632925665389
 20
-117.6690708843058
 30
0.0
 10
-273.6151645959751
 20
-117.742407767097
 30
0.0
 10
-274.6156872569551
 20
-117.77999999998
 30
0.0
 11
-262.900312743095
 21
-117.77999999998
 31
0.0
 11
-265.9022390869975
 21
-117.681158187519
 31
0.0
 11
-268.7579912026487
 21
-117.6487670046914
 31
0.0
 11
-271.6137518401605
 21
-117.6811579842637
 31
0.0
 11
-274.6156872569551
 21
-117.77999999998
 31
0.0
  0
ENDBLK
  5
6C
330
6A
100
AcDbEntity
  8
0
100
AcDbBlockEnd
  0
BLOCK
  5
6F
330
6D
100
AcDbEntity
  8
0
100
AcDbBlockBegin
  2
Vordans1
 70
     0
 10
-276.008
 20
-115.0
 30
0.0
  3
Vordans1
  1

  0
INSERT
  5
6E
330
6D
100
AcDbEntity
  8
0
100
AcDbBlockReference
  2
G_INS_M25_M68L_PEPDS_LG-select__6
 10
-292.0080000000251
 20
-140.74999999998
 30
0.0
  0
MTEXT
  5
290
330
6D
100
AcDbEntity
  8
1
 62
     6
100
AcDbMText
 10
-276.0079999999753
 20
-145.7519999999799
 30
0.0
 40
5.0
 41
0.0
 71
     2
 72
     1
  1
 
  7
CONVERTER_11
 73
     1
 44
1.32052821128451
  0
DIMENSION
  5
29B
330
6D
100
AcDbEntity
  8
1
100
AcDbDimension
  2
*D17
 10
-292.0080000000251
 20
-150.74999999998
 30
0.0
 11
-276.0079999999753
 21
-147.49999999998
 31
0.0
 70
    32
  1
<>
 71
     5
 42
-1.0
 53
0.00013888888889
  3
ME10_DIM_10
100
AcDbAlignedDimension
 13
-260.008000000025
 23
-125.24999999998
 33
0.0
 14
-292.0080000000251
 24
-125.24999999998
 34
0.0
100
AcDbRotatedDimension
  0
DIMENSION
  5
2A6
330
6D
100
AcDbEntity
  8
1
100
AcDbDimension
  2
*D18
 10
-302.008000000025
 20
-140.74999999998
 30
0.0
 11
-305.433000000025
 21
-114.99999999998
 31
0.0
 70
    32
  1
<>
 71
     5
 42
-1.0
 53
90.0
  3
ME10_DIM_11
100
AcDbAlignedDimension
 13
-287.528000000025
 23
-89.24999999997996
 33
0.0
 14
-287.573000000025
 24
-140.74999999998
 34
0.0
 50
90.0
100
AcDbRotatedDimension
  0
ENDBLK
  5
70
330
6D
100
AcDbEntity
  8
0
100
AcDbBlockEnd
  0
BLOCK
  5
72
330
71
100
AcDbEntity
  8
0
100
AcDbBlockBegin
  2
_rahmen
 70
     0
 10
-111.5059999999875
 20
-266.0029995746871
 30
0.0
  3
_rahmen
  1

  0
LINE
  5
2A7
330
71
100
AcDbEntity
  8
1
  6
Continuous
 62
     6
100
AcDbLine
 10
-241.0508045267375
 20
-235.502999574687
 30
0.0
 11
-111.5059999999858
 21
-235.502999574687
 31
0.0
  0
LINE
  5
2A8
330
71
100
AcDbEntity
  8
1
  6
Continuous
 62
     7
100
AcDbLine
 10
-222.8508045267375
 20
-256.752999574687
 30
0.0
 11
-204.6508045267376
 21
-256.752999574687
 31
0.0
  0
LINE
  5
2A9
330
71
100
AcDbEntity
  8
1
  6
Continuous
 62
     6
100
AcDbLine
 10
-222.8508045267375
 20
-261.002999574687
 30
0.0
 11
-241.0508045267375
 21
-261.0029995746871
 31
0.0
  0
LINE
  5
2AA
330
71
100
AcDbEntity
  8
1
  6
Continuous
 62
     7
100
AcDbLine
 10
-222.8508045267375
 20
-256.752999574687
 30
0.0
 11
-222.8508045267375
 21
-261.002999574687
 31
0.0
  0
LINE
  5
2AB
330
71
100
AcDbEntity
  8
1
  6
Continuous
 62
     7
100
AcDbLine
 10
-204.6508045267376
 20
-256.752999574687
 30
0.0
 11
-204.6508045267376
 21
-261.0029995746871
 31
0.0
  0
LINE
  5
2AC
330
71
100
AcDbEntity
  8
1
  6
Continuous
 62
     7
100
AcDbLine
 10
-241.0508045267375
 20
-256.7529995746871
 30
0.0
 11
-241.0508045267375
 21
-261.0029995746871
 31
0.0
  0
LINE
  5
2AD
330
71
100
AcDbEntity
  8
1
  6
Continuous
 62
     7
100
AcDbLine
 10
-241.0508045267375
 20
-256.7529995746871
 30
0.0
 11
-222.8508045267375
 21
-256.752999574687
 31
0.0
  0
LINE
  5
2AE
330
71
100
AcDbEntity
  8
1
  6
Continuous
 62
     2
100
AcDbLine
 10
-231.8141496401749
 20
-237.3779995746871
 30
0.0
 11
-231.8141496401749
 21
-242.3779995746871
 31
0.0
  0
LINE
  5
2AF
330
71
100
AcDbEntity
  8
1
  6
Continuous
 62
     2
100
AcDbLine
 10
-231.8141496401749
 20
-242.3779995746871
 30
0.0
 11
-236.8141496401749
 21
-241.1279995746871
 31
0.0
  0
LINE
  5
2B0
330
71
100
AcDbEntity
  8
1
  6
Continuous
 62
     2
100
AcDbLine
 10
-236.8141496401749
 20
-241.1279995746871
 30
0.0
 11
-236.8141496401749
 21
-238.6279995746871
 31
0.0
  0
LINE
  5
2B1
330
71
100
AcDbEntity
  8
1
  6
Continuous
 62
     2
100
AcDbLine
 10
-236.8141496401749
 20
-238.6279995746871
 30
0.0
 11
-231.8141496401749
 21
-237.3779995746871
 31
0.0
  0
LINE
  5
2B2
330
71
100
AcDbEntity
  8
1
  6
Continuous
 62
     6
100
AcDbLine
 10
-363.5059999999857
 20
-261.002999574687
 30
0.0
 11
-398.5059999999856
 21
-261.002999574687
 31
0.0
  0
LINE
  5
2B3
330
71
100
AcDbEntity
  8
1
  6
Continuous
 62
     6
100
AcDbLine
 10
-111.5059999999858
 20
-244.002999574687
 30
0.0
 11
-111.5059999999862
 21
-252.502999574687
 31
0.0
  0
LINE
  5
2B4
330
71
100
AcDbEntity
  8
1
  6
Continuous
 62
     6
100
AcDbLine
 10
-204.6508045267376
 20
-261.0029995746871
 30
0.0
 11
-205.0059999999875
 21
-261.002999574687
 31
0.0
  0
LINE
  5
2B5
330
71
100
AcDbEntity
  8
1
  6
Continuous
 62
     6
100
AcDbLine
 10
-357.3059999999877
 20
-261.0029995746871
 30
0.0
 11
-363.5059999999857
 21
-261.002999574687
 31
0.0
  0
LINE
  5
2B6
330
71
100
AcDbEntity
  8
1
  6
Continuous
 62
     7
100
AcDbLine
 10
-204.6508045267376
 20
-244.002999574687
 30
0.0
 11
-204.6508045267376
 21
-256.752999574687
 31
0.0
  0
LINE
  5
2B7
330
71
100
AcDbEntity
  8
1
  6
Continuous
 62
     7
100
AcDbLine
 10
-241.0508045267375
 20
-244.002999574687
 30
0.0
 11
-241.0508045267375
 21
-256.7529995746871
 31
0.0
  0
LINE
  5
2B8
330
71
100
AcDbEntity
  8
1
  6
Continuous
 62
     6
100
AcDbLine
 10
-255.0059999999875
 20
-261.002999574687
 30
0.0
 11
-305.0059999999877
 21
-261.002999574687
 31
0.0
  0
LINE
  5
2B9
330
71
100
AcDbEntity
  8
1
  6
Continuous
 62
     6
100
AcDbLine
 10
-357.3059999999877
 20
-261.0029995746871
 30
0.0
 11
-355.0059999999875
 21
-261.002999574687
 31
0.0
  0
LINE
  5
2BA
330
71
100
AcDbEntity
  8
1
  6
Continuous
 62
     6
100
AcDbLine
 10
-204.6508045267376
 20
-261.0029995746871
 30
0.0
 11
-155.0059999999875
 21
-261.002999574687
 31
0.0
  0
LINE
  5
2BB
330
71
100
AcDbEntity
  8
1
  6
Continuous
 62
     6
100
AcDbLine
 10
-111.5059999999875
 20
-261.002999574687
 30
0.0
 11
-111.5059999999862
 21
-252.502999574687
 31
0.0
  0
LINE
  5
2BC
330
71
100
AcDbEntity
  8
1
  6
Continuous
 62
     2
100
AcDbLine
 10
-403.5059999999866
 20
-261.002999574687
 30
0.0
 11
-403.5059999999866
 21
-266.002999574687
 31
0.0
  0
LINE
  5
2BD
330
71
100
AcDbEntity
  8
1
  6
Continuous
 62
     2
100
AcDbLine
 10
-398.5059999999856
 20
-261.002999574687
 30
0.0
 11
-403.5059999999866
 21
-261.002999574687
 31
0.0
  0
LINE
  5
2BE
330
71
100
AcDbEntity
  8
1
  6
Continuous
 62
     2
100
AcDbLine
 10
-398.5059999999856
 20
-266.002999574687
 30
0.0
 11
-355.0059999999875
 21
-266.002999574687
 31
0.0
  0
LINE
  5
2BF
330
71
100
AcDbEntity
  8
1
  6
Continuous
 62
     2
100
AcDbLine
 10
-398.5059999999856
 20
-261.002999574687
 30
0.0
 11
-398.5059999999856
 21
-266.002999574687
 31
0.0
  0
LINE
  5
2C0
330
71
100
AcDbEntity
  8
1
  6
Continuous
 62
     2
100
AcDbLine
 10
-155.0059999999875
 20
-266.002999574687
 30
0.0
 11
-205.0059999999875
 21
-266.002999574687
 31
0.0
  0
LINE
  5
2C1
330
71
100
AcDbEntity
  8
1
  6
Continuous
 62
     2
100
AcDbLine
 10
-155.0059999999875
 20
-266.002999574687
 30
0.0
 11
-155.0059999999875
 21
-261.002999574687
 31
0.0
  0
LINE
  5
2C2
330
71
100
AcDbEntity
  8
1
  6
Continuous
 62
     2
100
AcDbLine
 10
-205.0059999999875
 20
-266.002999574687
 30
0.0
 11
-205.0059999999875
 21
-261.002999574687
 31
0.0
  0
LINE
  5
2C3
330
71
100
AcDbEntity
  8
1
  6
Continuous
 62
     2
100
AcDbLine
 10
-255.0059999999875
 20
-266.002999574687
 30
0.0
 11
-205.0059999999875
 21
-266.002999574687
 31
0.0
  0
LINE
  5
2C4
330
71
100
AcDbEntity
  8
1
  6
Continuous
 62
     2
100
AcDbLine
 10
-255.0059999999875
 20
-266.002999574687
 30
0.0
 11
-255.0059999999875
 21
-261.002999574687
 31
0.0
  0
LINE
  5
2C5
330
71
100
AcDbEntity
  8
1
  6
Continuous
 62
     2
100
AcDbLine
 10
-305.0059999999877
 20
-266.002999574687
 30
0.0
 11
-255.0059999999875
 21
-266.002999574687
 31
0.0
  0
LINE
  5
2C6
330
71
100
AcDbEntity
  8
1
  6
Continuous
 62
     2
100
AcDbLine
 10
-305.0059999999877
 20
-266.002999574687
 30
0.0
 11
-305.0059999999877
 21
-261.002999574687
 31
0.0
  0
LINE
  5
2C7
330
71
100
AcDbEntity
  8
1
  6
Continuous
 62
     2
100
AcDbLine
 10
-355.0059999999875
 20
-266.002999574687
 30
0.0
 11
-305.0059999999877
 21
-266.002999574687
 31
0.0
  0
LINE
  5
2C8
330
71
100
AcDbEntity
  8
1
  6
Continuous
 62
     2
100
AcDbLine
 10
-355.0059999999875
 20
-266.002999574687
 30
0.0
 11
-355.0059999999875
 21
-261.002999574687
 31
0.0
  0
LINE
  5
2C9
330
71
100
AcDbEntity
  8
1
  6
Continuous
 62
     6
100
AcDbLine
 10
-398.5059999999858
 20
-211.0029995746869
 30
0.0
 11
-398.5059999999856
 21
-261.002999574687
 31
0.0
  0
LINE
  5
2CA
330
71
100
AcDbEntity
  8
1
  6
Continuous
 62
     2
100
AcDbLine
 10
-403.5059999999866
 20
-211.0029995746869
 30
0.0
 11
-403.5059999999866
 21
-261.002999574687
 31
0.0
  0
LINE
  5
2CB
330
71
100
AcDbEntity
  8
1
  6
Continuous
 62
     2
100
AcDbLine
 10
-403.5059999999866
 20
-211.0029995746869
 30
0.0
 11
-398.5059999999858
 21
-211.0029995746869
 31
0.0
  0
LINE
  5
2CC
330
71
100
AcDbEntity
  8
1
  6
Continuous
 62
     6
100
AcDbLine
 10
-398.505999999986
 20
-161.0029995746871
 30
0.0
 11
-398.5059999999858
 21
-211.0029995746869
 31
0.0
  0
LINE
  5
2CD
330
71
100
AcDbEntity
  8
1
  6
Continuous
 62
     2
100
AcDbLine
 10
-403.5059999999866
 20
-161.0029995746871
 30
0.0
 11
-403.5059999999866
 21
-211.0029995746869
 31
0.0
  0
LINE
  5
2CE
330
71
100
AcDbEntity
  8
1
  6
Continuous
 62
     2
100
AcDbLine
 10
-403.5059999999866
 20
-161.0029995746871
 30
0.0
 11
-398.505999999986
 21
-161.0029995746871
 31
0.0
  0
LINE
  5
2CF
330
71
100
AcDbEntity
  8
1
  6
Continuous
 62
     6
100
AcDbLine
 10
-398.5059999999865
 20
-111.002999574687
 30
0.0
 11
-398.505999999986
 21
-161.0029995746871
 31
0.0
  0
LINE
  5
2D0
330
71
100
AcDbEntity
  8
1
  6
Continuous
 62
     2
100
AcDbLine
 10
-403.5059999999866
 20
-111.002999574687
 30
0.0
 11
-403.5059999999866
 21
-161.0029995746871
 31
0.0
  0
LINE
  5
2D1
330
71
100
AcDbEntity
  8
1
  6
Continuous
 62
     2
100
AcDbLine
 10
-403.5059999999866
 20
-111.002999574687
 30
0.0
 11
-398.5059999999865
 21
-111.002999574687
 31
0.0
  0
LINE
  5
2D2
330
71
100
AcDbEntity
  8
1
  6
Continuous
 62
     6
100
AcDbLine
 10
-398.5059999999866
 20
-76.00299957468701
 30
0.0
 11
-398.5059999999865
 21
-111.002999574687
 31
0.0
  0
LINE
  5
2D3
330
71
100
AcDbEntity
  8
1
  6
Continuous
 62
     2
100
AcDbLine
 10
-403.5059999999866
 20
-56.00299957468701
 30
0.0
 11
-403.5059999999866
 21
-111.002999574687
 31
0.0
  0
LINE
  5
2D4
330
71
100
AcDbEntity
  8
1
  6
Continuous
 62
     2
100
AcDbLine
 10
-403.5059999999866
 20
-266.002999574687
 30
0.0
 11
-398.5059999999856
 21
-266.002999574687
 31
0.0
  0
LINE
  5
2D5
330
71
100
AcDbEntity
  8
1
  6
Continuous
 62
     2
100
AcDbLine
 10
-255.0059999999875
 20
-56.00299957468701
 30
0.0
 11
-255.0059999999875
 21
-65.21169141938833
 31
0.0
  0
LINE
  5
2D6
330
71
100
AcDbEntity
  8
1
  6
Continuous
 62
     2
100
AcDbLine
 10
-255.0059999999875
 20
-56.00299957468701
 30
0.0
 11
-403.5059999999866
 21
-56.00299957468701
 31
0.0
  0
LINE
  5
2D7
330
71
100
AcDbEntity
  8
1
  6
Continuous
 62
     2
100
AcDbLine
 10
-106.5059999999885
 20
-261.002999574687
 30
0.0
 11
-106.5059999999885
 21
-211.0029995746869
 31
0.0
  0
LINE
  5
2D8
330
71
100
AcDbEntity
  8
1
  6
Continuous
 62
     2
100
AcDbLine
 10
-106.5059999999885
 20
-111.002999574687
 30
0.0
 11
-106.5059999999885
 21
-56.00299957468701
 31
0.0
  0
LINE
  5
2D9
330
71
100
AcDbEntity
  8
1
  6
Continuous
 62
     6
100
AcDbLine
 10
-111.5059999999883
 20
-111.002999574687
 30
0.0
 11
-111.5059999999885
 21
-76.00299957468701
 31
0.0
  0
LINE
  5
2DA
330
71
100
AcDbEntity
  8
1
  6
Continuous
 62
     2
100
AcDbLine
 10
-111.5059999999883
 20
-111.002999574687
 30
0.0
 11
-106.5059999999885
 21
-111.002999574687
 31
0.0
  0
LINE
  5
2DB
330
71
100
AcDbEntity
  8
1
  6
Continuous
 62
     2
100
AcDbLine
 10
-106.5059999999885
 20
-161.0029995746871
 30
0.0
 11
-106.5059999999885
 21
-111.002999574687
 31
0.0
  0
LINE
  5
2DC
330
71
100
AcDbEntity
  8
1
  6
Continuous
 62
     6
100
AcDbLine
 10
-111.5059999999871
 20
-161.0029995746871
 30
0.0
 11
-111.5059999999883
 21
-111.002999574687
 31
0.0
  0
LINE
  5
2DD
330
71
100
AcDbEntity
  8
1
  6
Continuous
 62
     2
100
AcDbLine
 10
-111.5059999999871
 20
-161.0029995746871
 30
0.0
 11
-106.5059999999885
 21
-161.0029995746871
 31
0.0
  0
LINE
  5
2DE
330
71
100
AcDbEntity
  8
1
  6
Continuous
 62
     2
100
AcDbLine
 10
-106.5059999999885
 20
-211.0029995746869
 30
0.0
 11
-106.5059999999885
 21
-161.0029995746871
 31
0.0
  0
LINE
  5
2DF
330
71
100
AcDbEntity
  8
1
  6
Continuous
 62
     6
100
AcDbLine
 10
-111.5059999999866
 20
-211.0029995746869
 30
0.0
 11
-111.5059999999871
 21
-161.0029995746871
 31
0.0
  0
LINE
  5
2E0
330
71
100
AcDbEntity
  8
1
  6
Continuous
 62
     2
100
AcDbLine
 10
-111.5059999999866
 20
-211.0029995746869
 30
0.0
 11
-106.5059999999885
 21
-211.0029995746869
 31
0.0
  0
LINE
  5
2E1
330
71
100
AcDbEntity
  8
1
  6
Continuous
 62
     6
100
AcDbLine
 10
-111.5059999999885
 20
-76.00299957468701
 30
0.0
 11
-398.5059999999866
 21
-76.00299957468701
 31
0.0
  0
LINE
  5
2E2
330
71
100
AcDbEntity
  8
1
  6
Continuous
 62
     2
100
AcDbLine
 10
-106.5059999999885
 20
-56.00299957468701
 30
0.0
 11
-255.0059999999875
 21
-56.00299957468701
 31
0.0
  0
LINE
  5
2E3
330
71
100
AcDbEntity
  8
1
  6
Continuous
 62
     6
100
AcDbLine
 10
-111.5059999999858
 20
-244.002999574687
 30
0.0
 11
-111.5059999999866
 21
-211.0029995746869
 31
0.0
  0
LINE
  5
2E4
330
71
100
AcDbEntity
  8
1
  6
Continuous
 62
     2
100
AcDbLine
 10
-111.5059999999875
 20
-266.002999574687
 30
0.0
 11
-155.0059999999875
 21
-266.002999574687
 31
0.0
  0
LINE
  5
2E5
330
71
100
AcDbEntity
  8
1
  6
Continuous
 62
     2
100
AcDbLine
 10
-106.5059999999885
 20
-266.002999574687
 30
0.0
 11
-111.5059999999875
 21
-266.002999574687
 31
0.0
  0
LINE
  5
2E6
330
71
100
AcDbEntity
  8
1
  6
Continuous
 62
     2
100
AcDbLine
 10
-106.5059999999885
 20
-266.002999574687
 30
0.0
 11
-106.5059999999885
 21
-261.002999574687
 31
0.0
  0
LINE
  5
2E7
330
71
100
AcDbEntity
  8
1
  6
Continuous
 62
     6
100
AcDbLine
 10
-241.0508045267375
 20
-244.002999574687
 30
0.0
 11
-204.6508045267376
 21
-244.002999574687
 31
0.0
  0
LINE
  5
2E8
330
71
100
AcDbEntity
  8
1
  6
Continuous
 62
     2
100
AcDbLine
 10
-111.5059999999875
 20
-261.002999574687
 30
0.0
 11
-111.5059999999875
 21
-266.002999574687
 31
0.0
  0
LINE
  5
2E9
330
71
100
AcDbEntity
  8
1
  6
Continuous
 62
     2
100
AcDbLine
 10
-111.5059999999875
 20
-261.002999574687
 30
0.0
 11
-106.5059999999885
 21
-261.002999574687
 31
0.0
  0
LINE
  5
2EA
330
71
100
AcDbEntity
  8
1
  6
Continuous
 62
     6
100
AcDbLine
 10
-205.0059999999875
 20
-261.002999574687
 30
0.0
 11
-222.8508045267375
 21
-261.002999574687
 31
0.0
  0
LINE
  5
2EB
330
71
100
AcDbEntity
  8
1
  6
Continuous
 62
     6
100
AcDbLine
 10
-155.0059999999875
 20
-261.002999574687
 30
0.0
 11
-111.5059999999875
 21
-261.002999574687
 31
0.0
  0
LINE
  5
2EC
330
71
100
AcDbEntity
  8
1
  6
Continuous
 62
     6
100
AcDbLine
 10
-305.0059999999877
 20
-261.002999574687
 30
0.0
 11
-310.0508045267375
 21
-261.002999574687
 31
0.0
  0
LINE
  5
2ED
330
71
100
AcDbEntity
  8
1
  6
Continuous
 62
     6
100
AcDbLine
 10
-255.0059999999875
 20
-261.002999574687
 30
0.0
 11
-241.0508045267375
 21
-261.0029995746871
 31
0.0
  0
LINE
  5
2EE
102
{ACAD_REACTORS
330
3D8
330
3D9
102
}
330
71
100
AcDbEntity
  8
0
  6
Continuous
 62
     2
100
AcDbLine
 10
-233.5361785845907
 20
-248.9304848184749
 30
0.0
 11
-233.5361785845907
 21
-248.3249495299681
 31
0.0
  0
LINE
  5
2EF
102
{ACAD_REACTORS
330
3D8
330
3D9
102
}
330
71
100
AcDbEntity
  8
0
  6
Continuous
 62
     2
100
AcDbLine
 10
-233.5361785845907
 20
-251.7306194251062
 30
0.0
 11
-233.5361785845907
 21
-251.1487680184112
 31
0.0
  0
LINE
  5
2F0
102
{ACAD_REACTORS
330
3DA
330
3DB
102
}
330
71
100
AcDbEntity
  8
0
  6
Continuous
 62
     2
100
AcDbLine
 10
-210.9066921491115
 20
-251.4409553569832
 30
0.0
 11
-210.9066921491115
 21
-253.7094995746707
 31
0.0
  0
LINE
  5
2F1
102
{ACAD_REACTORS
330
3DA
330
3DB
102
}
330
71
100
AcDbEntity
  8
0
  6
Continuous
 62
     2
100
AcDbLine
 10
-212.2877459280991
 20
-250.6556900508601
 30
0.0
 11
-208.9028004094704
 21
-250.6556900508596
 31
0.0
  0
LINE
  5
2F2
102
{ACAD_REACTORS
330
3DA
330
3DB
102
}
330
71
100
AcDbEntity
  8
0
  6
Continuous
 62
     2
100
AcDbLine
 10
-208.9028004094704
 20
-251.4409553569832
 30
0.0
 11
-208.9028004094704
 21
-250.6556900508596
 31
0.0
  0
LINE
  5
2F3
102
{ACAD_REACTORS
330
3DA
330
3DB
102
}
330
71
100
AcDbEntity
  8
0
  6
Continuous
 62
     2
100
AcDbLine
 10
-209.7138994469438
 20
-251.4409553569832
 30
0.0
 11
-208.9028004094704
 21
-251.4409553569832
 31
0.0
  0
LINE
  5
2F4
102
{ACAD_REACTORS
330
3DA
330
3DB
102
}
330
71
100
AcDbEntity
  8
0
  6
Continuous
 62
     2
100
AcDbLine
 10
-209.7138994469438
 20
-253.7094995746707
 30
0.0
 11
-209.7138994469438
 21
-251.4409553569832
 31
0.0
  0
LINE
  5
2F5
102
{ACAD_REACTORS
330
3DA
330
3DB
102
}
330
71
100
AcDbEntity
  8
0
  6
Continuous
 62
     2
100
AcDbLine
 10
-210.9066921491115
 20
-253.7094995746707
 30
0.0
 11
-209.7138994469438
 21
-253.7094995746707
 31
0.0
  0
LINE
  5
2F6
102
{ACAD_REACTORS
330
3D0
330
3D1
102
}
330
71
100
AcDbEntity
  8
0
  6
Continuous
 62
     2
100
AcDbLine
 10
-211.603283087176
 20
-247.2964995746852
 30
0.0
 11
-213.0060073049253
 21
-247.2964995746852
 31
0.0
  0
LINE
  5
2F7
102
{ACAD_REACTORS
330
3D0
330
3D1
102
}
330
71
100
AcDbEntity
  8
0
  6
Continuous
 62
     2
100
AcDbLine
 10
-211.603283087176
 20
-247.2964995746852
 30
0.0
 11
-211.0021155652842
 21
-247.9763228962407
 31
0.0
  0
LINE
  5
2F8
102
{ACAD_REACTORS
330
3D0
330
3D1
102
}
330
71
100
AcDbEntity
  8
0
  6
Continuous
 62
     2
100
AcDbLine
 10
-211.0021155652842
 20
-247.9763228962407
 30
0.0
 11
-210.4009480433914
 21
-247.2964995746852
 31
0.0
  0
LINE
  5
2F9
102
{ACAD_REACTORS
330
3D0
330
3D1
102
}
330
71
100
AcDbEntity
  8
0
  6
Continuous
 62
     2
100
AcDbLine
 10
-210.3007534564107
 20
-248.7694501047214
 30
0.0
 11
-208.9982238256442
 21
-247.2964995746852
 31
0.0
  0
LINE
  5
2FA
102
{ACAD_REACTORS
330
3D0
330
3D1
102
}
330
71
100
AcDbEntity
  8
0
  6
Continuous
 62
     2
100
AcDbLine
 10
-210.3007534564107
 20
-248.7694501047214
 30
0.0
 11
-208.9028004094704
 21
-250.3503090984964
 31
0.0
  0
LINE
  5
2FB
102
{ACAD_REACTORS
330
3D0
330
3D1
102
}
330
71
100
AcDbEntity
  8
0
  6
Continuous
 62
     2
100
AcDbLine
 10
-210.3055246272187
 20
-250.3503090984964
 30
0.0
 11
-208.9028004094704
 21
-250.3503090984964
 31
0.0
  0
LINE
  5
2FC
102
{ACAD_REACTORS
330
3D0
330
3D1
102
}
330
71
100
AcDbEntity
  8
0
  6
Continuous
 62
     2
100
AcDbLine
 10
-211.0021155652842
 20
-249.5625773132027
 30
0.0
 11
-210.3055246272187
 21
-250.3503090984964
 31
0.0
  0
LINE
  5
2FD
102
{ACAD_REACTORS
330
3CE
330
3CF
102
}
330
71
100
AcDbEntity
  8
0
  6
Continuous
 62
     2
100
AcDbLine
 10
-214.4612144015679
 20
-247.2964995746852
 30
0.0
 11
-213.220709991315
 21
-247.2964995746852
 31
0.0
  0
LINE
  5
2FE
102
{ACAD_REACTORS
330
3CE
330
3CF
102
}
330
71
100
AcDbEntity
  8
0
  6
Continuous
 62
     2
100
AcDbLine
 10
-213.220709991315
 20
-247.2964995746852
 30
0.0
 11
-213.220709991315
 21
-250.3503090984964
 31
0.0
  0
LINE
  5
2FF
102
{ACAD_REACTORS
330
3CE
330
3CF
102
}
330
71
100
AcDbEntity
  8
0
  6
Continuous
 62
     2
100
AcDbLine
 10
-214.4612144015679
 20
-250.3503090984964
 30
0.0
 11
-214.4612144015679
 21
-247.2964995746852
 31
0.0
  0
LINE
  5
300
102
{ACAD_REACTORS
330
3CC
330
3CD
102
}
330
71
100
AcDbEntity
  8
0
  6
Continuous
 62
     2
100
AcDbLine
 10
-215.9295244841055
 20
-252.4879757651462
 30
0.0
 11
-215.6293592469131
 21
-251.7201607991595
 31
0.0
  0
LINE
  5
301
102
{ACAD_REACTORS
330
3CC
330
3CD
102
}
330
71
100
AcDbEntity
  8
0
  6
Continuous
 62
     2
100
AcDbLine
 10
-216.4070600887263
 20
-253.7094995746707
 30
0.0
 11
-216.1955800352505
 21
-253.1685390304529
 31
0.0
  0
LINE
  5
302
102
{ACAD_REACTORS
330
3CC
330
3CD
102
}
330
71
100
AcDbEntity
  8
0
  6
Continuous
 62
     2
100
AcDbLine
 10
-216.24961145204
 20
-250.6556900508596
 30
0.0
 11
-217.6475644989793
 21
-253.7094995746707
 31
0.0
  0
LINE
  5
303
102
{ACAD_REACTORS
330
3CC
330
3CD
102
}
330
71
100
AcDbEntity
  8
0
  6
Continuous
 62
     2
100
AcDbLine
 10
-213.611153994847
 20
-253.7094995746707
 30
0.0
 11
-214.8516584051009
 21
-253.7094995746707
 31
0.0
  0
LINE
  5
304
102
{ACAD_REACTORS
330
3CC
330
3CD
102
}
330
71
100
AcDbEntity
  8
0
  6
Continuous
 62
     2
100
AcDbLine
 10
-216.1955800352505
 20
-253.1685390304529
 30
0.0
 11
-215.0631384585767
 21
-253.1685390304529
 31
0.0
  0
LINE
  5
305
102
{ACAD_REACTORS
330
3CA
330
3CB
102
}
330
71
100
AcDbEntity
  8
0
  6
Continuous
 62
     2
100
AcDbLine
 10
-219.8050766381615
 20
-251.4409553569832
 30
0.0
 11
-218.9939776006869
 21
-251.4409553569832
 31
0.0
  0
LINE
  5
306
102
{ACAD_REACTORS
330
3CA
330
3CB
102
}
330
71
100
AcDbEntity
  8
0
  6
Continuous
 62
     2
100
AcDbLine
 10
-216.9900858610479
 20
-250.6556900508596
 30
0.0
 11
-219.8050766381615
 21
-250.6556900508596
 31
0.0
  0
LINE
  5
307
102
{ACAD_REACTORS
330
3CA
330
3CB
102
}
330
71
100
AcDbEntity
  8
0
  6
Continuous
 62
     2
100
AcDbLine
 10
-216.9900858610479
 20
-251.4409553569832
 30
0.0
 11
-216.9900858610479
 21
-250.6556900508596
 31
0.0
  0
LINE
  5
308
102
{ACAD_REACTORS
330
3CA
330
3CB
102
}
330
71
100
AcDbEntity
  8
0
  6
Continuous
 62
     2
100
AcDbLine
 10
-217.8011848985204
 20
-251.4409553569832
 30
0.0
 11
-216.9900858610479
 21
-251.4409553569832
 31
0.0
  0
LINE
  5
309
102
{ACAD_REACTORS
330
3CA
330
3CB
102
}
330
71
100
AcDbEntity
  8
0
  6
Continuous
 62
     2
100
AcDbLine
 10
-217.8011848985204
 20
-253.7094995746707
 30
0.0
 11
-217.8011848985204
 21
-251.4409553569832
 31
0.0
  0
LINE
  5
30A
102
{ACAD_REACTORS
330
3C8
330
3C9
102
}
330
71
100
AcDbEntity
  8
0
  6
Continuous
 62
     2
100
AcDbLine
 10
-217.1330700544224
 20
-250.3503090984964
 30
0.0
 11
-217.1330700544224
 21
-249.0415335882917
 31
0.0
  0
LINE
  5
30B
102
{ACAD_REACTORS
330
3C8
330
3C9
102
}
330
71
100
AcDbEntity
  8
0
  6
Continuous
 62
     2
100
AcDbLine
 10
-218.3258627565889
 20
-247.2964995746852
 30
0.0
 11
-218.3258627565889
 21
-250.3503090984964
 31
0.0
  0
LINE
  5
30C
102
{ACAD_REACTORS
330
3C8
330
3C9
102
}
330
71
100
AcDbEntity
  8
0
  6
Continuous
 62
     2
100
AcDbLine
 10
-217.1330700544224
 20
-247.2964995746852
 30
0.0
 11
-218.3258627565889
 21
-247.2964995746852
 31
0.0
  0
LINE
  5
30D
102
{ACAD_REACTORS
330
3C8
330
3C9
102
}
330
71
100
AcDbEntity
  8
0
  6
Continuous
 62
     2
100
AcDbLine
 10
-215.8925656441684
 20
-247.2964995746852
 30
0.0
 11
-215.8925656441684
 21
-248.6052750848904
 31
0.0
  0
LINE
  5
30E
102
{ACAD_REACTORS
330
3C6
330
3C7
102
}
330
71
100
AcDbEntity
  8
0
  6
Continuous
 62
     2
100
AcDbLine
 10
-223.5743015770086
 20
-250.6556900508596
 30
0.0
 11
-223.5743015770086
 21
-253.7094995746707
 31
0.0
  0
LINE
  5
30F
102
{ACAD_REACTORS
330
3C6
330
3C7
102
}
330
71
100
AcDbEntity
  8
0
  6
Continuous
 62
     2
100
AcDbLine
 10
-222.381508874841
 20
-250.6556900508596
 30
0.0
 11
-223.5743015770086
 21
-250.6556900508596
 31
0.0
  0
LINE
  5
310
102
{ACAD_REACTORS
330
3C6
330
3C7
102
}
330
71
100
AcDbEntity
  8
0
  6
Continuous
 62
     2
100
AcDbLine
 10
-221.1410044645881
 20
-253.7094995746707
 30
0.0
 11
-219.9482117624217
 21
-253.7094995746707
 31
0.0
  0
LINE
  5
311
102
{ACAD_REACTORS
330
3C6
330
3C7
102
}
330
71
100
AcDbEntity
  8
0
  6
Continuous
 62
     2
100
AcDbLine
 10
-223.5743015770086
 20
-253.7094995746707
 30
0.0
 11
-222.381508874841
 21
-253.7094995746707
 31
0.0
  0
LINE
  5
312
102
{ACAD_REACTORS
330
3D6
330
3D7
102
}
330
71
100
AcDbEntity
  8
0
  6
Continuous
 62
     2
100
AcDbLine
 10
-219.9003491234495
 20
-248.4743975338699
 30
0.0
 11
-219.9003491234495
 21
-247.9945131801282
 31
0.0
  0
LINE
  5
313
102
{ACAD_REACTORS
330
3D6
330
3D7
102
}
330
71
100
AcDbEntity
  8
0
  6
Continuous
 62
     2
100
AcDbLine
 10
-218.5644212970218
 20
-248.4743975338699
 30
0.0
 11
-219.9003491234495
 21
-248.4743975338699
 31
0.0
  0
LINE
  5
314
102
{ACAD_REACTORS
330
3D6
330
3D7
102
}
330
71
100
AcDbEntity
  8
0
  6
Continuous
 62
     2
100
AcDbLine
 10
-218.5644212970218
 20
-249.1724111393122
 30
0.0
 11
-218.5644212970218
 21
-248.4743975338699
 31
0.0
  0
LINE
  5
315
102
{ACAD_REACTORS
330
3D6
330
3D7
102
}
330
71
100
AcDbEntity
  8
0
  6
Continuous
 62
     2
100
AcDbLine
 10
-219.9003491234495
 20
-249.1724111393122
 30
0.0
 11
-218.5644212970218
 21
-249.1724111393122
 31
0.0
  0
LINE
  5
316
102
{ACAD_REACTORS
330
3C4
330
3C5
102
}
330
71
100
AcDbEntity
  8
0
  6
Continuous
 62
     2
100
AcDbLine
 10
-223.3833038137764
 20
-247.2964995746852
 30
0.0
 11
-223.3833038137764
 21
-250.3503090984964
 31
0.0
  0
LINE
  5
317
102
{ACAD_REACTORS
330
3C4
330
3C5
102
}
330
71
100
AcDbEntity
  8
0
  6
Continuous
 62
     2
100
AcDbLine
 10
-223.3833038137764
 20
-250.3503090984964
 30
0.0
 11
-224.5760965159428
 21
-250.3503090984964
 31
0.0
  0
LINE
  5
318
102
{ACAD_REACTORS
330
3C4
330
3C5
102
}
330
71
100
AcDbEntity
  8
0
  6
Continuous
 62
     2
100
AcDbLine
 10
-224.5760965159428
 20
-250.3503090984964
 30
0.0
 11
-224.5760965159428
 21
-249.2160369896526
 31
0.0
  0
LINE
  5
319
102
{ACAD_REACTORS
330
3C4
330
3C5
102
}
330
71
100
AcDbEntity
  8
0
  6
Continuous
 62
     2
100
AcDbLine
 10
-225.6257540938503
 20
-250.3503090984964
 30
0.0
 11
-226.8185467960169
 21
-250.3503090984964
 31
0.0
  0
LINE
  5
31A
102
{ACAD_REACTORS
330
3C4
330
3C5
102
}
330
71
100
AcDbEntity
  8
0
  6
Continuous
 62
     2
100
AcDbLine
 10
-226.8185467960169
 20
-247.2964995746852
 30
0.0
 11
-225.6257540938503
 21
-247.2964995746852
 31
0.0
  0
LINE
  5
31B
102
{ACAD_REACTORS
330
3C4
330
3C5
102
}
330
71
100
AcDbEntity
  8
0
  6
Continuous
 62
     2
100
AcDbLine
 10
-225.6257540938503
 20
-247.2964995746852
 30
0.0
 11
-225.6257540938503
 21
-248.3653329080198
 31
0.0
  0
LINE
  5
31C
102
{ACAD_REACTORS
330
3C4
330
3C5
102
}
330
71
100
AcDbEntity
  8
0
  6
Continuous
 62
     2
100
AcDbLine
 10
-225.6257540938503
 20
-248.3653329080198
 30
0.0
 11
-224.5760965159428
 21
-248.3653329080198
 31
0.0
  0
LINE
  5
31D
102
{ACAD_REACTORS
330
3D2
330
3D3
102
}
330
71
100
AcDbEntity
  8
0
  6
Continuous
 62
     2
100
AcDbLine
 10
-228.7747268275705
 20
-247.9596054201253
 30
0.0
 11
-228.4574317660286
 21
-247.9596054201253
 31
0.0
  0
LINE
  5
31E
102
{ACAD_REACTORS
330
3D2
330
3D3
102
}
330
71
100
AcDbEntity
  8
0
  6
Continuous
 62
     2
100
AcDbLine
 10
-228.7747268275705
 20
-248.6653330694675
 30
0.0
 11
-228.4574317660286
 21
-248.6653330694675
 31
0.0
  0
LINE
  5
31F
102
{ACAD_REACTORS
330
3D2
330
3D3
102
}
330
71
100
AcDbEntity
  8
0
  6
Continuous
 62
     2
100
AcDbLine
 10
-230.0152312378246
 20
-247.2964995746852
 30
0.0
 11
-230.0152312378246
 21
-250.3503090984964
 31
0.0
  0
LINE
  5
320
102
{ACAD_REACTORS
330
3D2
330
3D3
102
}
330
71
100
AcDbEntity
  8
0
  6
Continuous
 62
     2
100
AcDbLine
 10
-230.0152312378246
 20
-247.2964995746852
 30
0.0
 11
-228.0159592397902
 21
-247.2964995746852
 31
0.0
  0
LINE
  5
321
102
{ACAD_REACTORS
330
3D2
330
3D3
102
}
330
71
100
AcDbEntity
  8
0
  6
Continuous
 62
     2
100
AcDbLine
 10
-228.7747268275705
 20
-249.4072308573526
 30
0.0
 11
-228.0159592397902
 21
-249.4072308573526
 31
0.0
  0
LINE
  5
322
102
{ACAD_REACTORS
330
3D8
330
3D9
102
}
330
71
100
AcDbEntity
  8
0
  6
Continuous
 62
     2
100
AcDbLine
 10
-236.1117272711213
 20
-248.32477205332
 30
0.0
 11
-236.1117272711213
 21
-252.6812270960371
 31
0.0
  0
LINE
  5
323
102
{ACAD_REACTORS
330
3D8
330
3D9
102
}
330
71
100
AcDbEntity
  8
0
  6
Continuous
 62
     2
100
AcDbLine
 10
-235.7960103480456
 20
-248.0090551302438
 30
0.0
 11
-234.320177087036
 21
-248.0090551302438
 31
0.0
  0
LINE
  5
324
102
{ACAD_REACTORS
330
3D8
330
3D9
102
}
330
71
100
AcDbEntity
  8
0
  6
Continuous
 62
     2
100
AcDbLine
 10
-234.0044601639594
 20
-248.9287966723805
 30
0.0
 11
-234.0044601639594
 21
-248.32477205332
 31
0.0
  0
LINE
  5
325
102
{ACAD_REACTORS
330
3D8
330
3D9
102
}
330
71
100
AcDbEntity
  8
0
  6
Continuous
 62
     2
100
AcDbLine
 10
-234.0044601639594
 20
-252.6812270960371
 30
0.0
 11
-234.0044601639594
 21
-251.1504561645055
 31
0.0
  0
LINE
  5
326
102
{ACAD_REACTORS
330
3D8
330
3D9
102
}
330
71
100
AcDbEntity
  8
0
  6
Continuous
 62
     2
100
AcDbLine
 10
-230.9165929340753
 20
-253.7094995746707
 30
0.0
 11
-236.3899050247921
 21
-253.7094995746707
 31
0.0
  0
LINE
  5
327
102
{ACAD_REACTORS
330
3D8
330
3D9
102
}
330
71
100
AcDbEntity
  8
0
  6
Continuous
 62
     2
100
AcDbLine
 10
-230.4923483186914
 20
-247.7207441900872
 30
0.0
 11
-230.4923483186914
 21
-253.2852549592874
 31
0.0
  0
LINE
  5
328
102
{ACAD_REACTORS
330
3D8
330
3D9
102
}
330
71
100
AcDbEntity
  8
0
  6
Continuous
 62
     2
100
AcDbLine
 10
-236.3899050247921
 20
-247.2964995747034
 30
0.0
 11
-230.9165929340753
 21
-247.2964995747034
 31
0.0
  0
LINE
  5
329
102
{ACAD_REACTORS
330
3D8
330
3D9
102
}
330
71
100
AcDbEntity
  8
0
  6
Continuous
 62
     2
100
AcDbLine
 10
-236.8141496401749
 20
-247.7207441900872
 30
0.0
 11
-236.8141496401749
 21
-253.2852549592874
 31
0.0
  0
LINE
  5
32A
102
{ACAD_REACTORS
330
3D8
330
3D9
102
}
330
71
100
AcDbEntity
  8
0
  6
Continuous
 62
     2
100
AcDbLine
 10
-234.320177087036
 20
-252.9969440191138
 30
0.0
 11
-235.7960103480456
 21
-252.9969440191138
 31
0.0
  0
LINE
  5
32B
102
{ACAD_REACTORS
330
3D2
330
3D3
102
}
330
71
100
AcDbEntity
  8
0
  6
Continuous
 62
     2
100
AcDbLine
 10
-228.7747268275705
 20
-250.3503090984964
 30
0.0
 11
-228.7747268275705
 21
-249.4072308573526
 31
0.0
  0
LINE
  5
32C
102
{ACAD_REACTORS
330
3D2
330
3D3
102
}
330
71
100
AcDbEntity
  8
0
  6
Continuous
 62
     2
100
AcDbLine
 10
-230.0152312378246
 20
-250.3503090984964
 30
0.0
 11
-228.7747268275705
 21
-250.3503090984964
 31
0.0
  0
LINE
  5
32D
102
{ACAD_REACTORS
330
3D2
330
3D3
102
}
330
71
100
AcDbEntity
  8
0
  6
Continuous
 62
     2
100
AcDbLine
 10
-228.7747268275705
 20
-248.6653330694675
 30
0.0
 11
-228.7747268275705
 21
-247.9596054201253
 31
0.0
  0
LINE
  5
32E
102
{ACAD_REACTORS
330
3C4
330
3C5
102
}
330
71
100
AcDbEntity
  8
0
  6
Continuous
 62
     2
100
AcDbLine
 10
-226.8185467960169
 20
-247.2964995746852
 30
0.0
 11
-226.8185467960169
 21
-250.3503090984964
 31
0.0
  0
LINE
  5
32F
102
{ACAD_REACTORS
330
3C4
330
3C5
102
}
330
71
100
AcDbEntity
  8
0
  6
Continuous
 62
     2
100
AcDbLine
 10
-225.6257540938503
 20
-249.2160369896526
 30
0.0
 11
-225.6257540938503
 21
-250.3503090984964
 31
0.0
  0
LINE
  5
330
102
{ACAD_REACTORS
330
3C4
330
3C5
102
}
330
71
100
AcDbEntity
  8
0
  6
Continuous
 62
     2
100
AcDbLine
 10
-224.5760965159428
 20
-249.2160369896526
 30
0.0
 11
-225.6257540938503
 21
-249.2160369896526
 31
0.0
  0
LINE
  5
331
102
{ACAD_REACTORS
330
3C4
330
3C5
102
}
330
71
100
AcDbEntity
  8
0
  6
Continuous
 62
     2
100
AcDbLine
 10
-224.5760965159428
 20
-247.2964995746852
 30
0.0
 11
-223.3833038137764
 21
-247.2964995746852
 31
0.0
  0
LINE
  5
332
102
{ACAD_REACTORS
330
3C4
330
3C5
102
}
330
71
100
AcDbEntity
  8
0
  6
Continuous
 62
     2
100
AcDbLine
 10
-224.5760965159428
 20
-248.3653329080198
 30
0.0
 11
-224.5760965159428
 21
-247.2964995746852
 31
0.0
  0
LINE
  5
333
102
{ACAD_REACTORS
330
3D6
330
3D7
102
}
330
71
100
AcDbEntity
  8
0
  6
Continuous
 62
     2
100
AcDbLine
 10
-218.5644212970218
 20
-247.9945131801282
 30
0.0
 11
-218.5644212970218
 21
-247.2964995746852
 31
0.0
  0
LINE
  5
334
102
{ACAD_REACTORS
330
3D6
330
3D7
102
}
330
71
100
AcDbEntity
  8
0
  6
Continuous
 62
     2
100
AcDbLine
 10
-221.7147410208028
 20
-247.2964995746852
 30
0.0
 11
-218.5644212970218
 21
-247.2964995746852
 31
0.0
  0
LINE
  5
335
102
{ACAD_REACTORS
330
3D6
330
3D7
102
}
330
71
100
AcDbEntity
  8
0
  6
Continuous
 62
     2
100
AcDbLine
 10
-221.7147410208028
 20
-250.3503090984964
 30
0.0
 11
-218.5644212970218
 21
-250.3503090984964
 31
0.0
  0
LINE
  5
336
102
{ACAD_REACTORS
330
3D6
330
3D7
102
}
330
71
100
AcDbEntity
  8
0
  6
Continuous
 62
     2
100
AcDbLine
 10
-218.5644212970218
 20
-250.3503090984964
 30
0.0
 11
-218.5644212970218
 21
-249.6522954930539
 31
0.0
  0
LINE
  5
337
102
{ACAD_REACTORS
330
3D6
330
3D7
102
}
330
71
100
AcDbEntity
  8
0
  6
Continuous
 62
     2
100
AcDbLine
 10
-218.5644212970218
 20
-249.6522954930539
 30
0.0
 11
-219.9003491234495
 21
-249.6522954930539
 31
0.0
  0
LINE
  5
338
102
{ACAD_REACTORS
330
3D6
330
3D7
102
}
330
71
100
AcDbEntity
  8
0
  6
Continuous
 62
     2
100
AcDbLine
 10
-219.9003491234495
 20
-249.6522954930539
 30
0.0
 11
-219.9003491234495
 21
-249.1724111393122
 31
0.0
  0
LINE
  5
339
102
{ACAD_REACTORS
330
3D6
330
3D7
102
}
330
71
100
AcDbEntity
  8
0
  6
Continuous
 62
     2
100
AcDbLine
 10
-219.9003491234495
 20
-247.9945131801282
 30
0.0
 11
-218.5644212970218
 21
-247.9945131801282
 31
0.0
  0
LINE
  5
33A
102
{ACAD_REACTORS
330
3C6
330
3C7
102
}
330
71
100
AcDbEntity
  8
0
  6
Continuous
 62
     2
100
AcDbLine
 10
-222.381508874841
 20
-253.7094995746707
 30
0.0
 11
-222.381508874841
 21
-252.4007240644661
 31
0.0
  0
LINE
  5
33B
102
{ACAD_REACTORS
330
3C6
330
3C7
102
}
330
71
100
AcDbEntity
  8
0
  6
Continuous
 62
     2
100
AcDbLine
 10
-222.381508874841
 20
-252.4007240644661
 30
0.0
 11
-221.1410044645881
 21
-253.7094995746707
 31
0.0
  0
LINE
  5
33C
102
{ACAD_REACTORS
330
3C6
330
3C7
102
}
330
71
100
AcDbEntity
  8
0
  6
Continuous
 62
     2
100
AcDbLine
 10
-219.9482117624217
 20
-253.7094995746707
 30
0.0
 11
-219.9482117624217
 21
-250.6556900508596
 31
0.0
  0
LINE
  5
33D
102
{ACAD_REACTORS
330
3C6
330
3C7
102
}
330
71
100
AcDbEntity
  8
0
  6
Continuous
 62
     2
100
AcDbLine
 10
-219.9482117624217
 20
-250.6556900508596
 30
0.0
 11
-221.1410044645881
 21
-250.6556900508596
 31
0.0
  0
LINE
  5
33E
102
{ACAD_REACTORS
330
3C6
330
3C7
102
}
330
71
100
AcDbEntity
  8
0
  6
Continuous
 62
     2
100
AcDbLine
 10
-221.1410044645881
 20
-250.6556900508596
 30
0.0
 11
-221.1410044645881
 21
-251.9644655610647
 31
0.0
  0
LINE
  5
33F
102
{ACAD_REACTORS
330
3C6
330
3C7
102
}
330
71
100
AcDbEntity
  8
0
  6
Continuous
 62
     2
100
AcDbLine
 10
-221.1410044645881
 20
-251.9644655610647
 30
0.0
 11
-222.381508874841
 21
-250.6556900508596
 31
0.0
  0
LINE
  5
340
102
{ACAD_REACTORS
330
3C8
330
3C9
102
}
330
71
100
AcDbEntity
  8
0
  6
Continuous
 62
     2
100
AcDbLine
 10
-217.1330700544224
 20
-249.0415335882917
 30
0.0
 11
-215.8925656441684
 21
-250.3503090984964
 31
0.0
  0
LINE
  5
341
102
{ACAD_REACTORS
330
3C8
330
3C9
102
}
330
71
100
AcDbEntity
  8
0
  6
Continuous
 62
     2
100
AcDbLine
 10
-215.8925656441684
 20
-250.3503090984964
 30
0.0
 11
-214.6997729420018
 21
-250.3503090984964
 31
0.0
  0
LINE
  5
342
102
{ACAD_REACTORS
330
3C8
330
3C9
102
}
330
71
100
AcDbEntity
  8
0
  6
Continuous
 62
     2
100
AcDbLine
 10
-214.6997729420018
 20
-250.3503090984964
 30
0.0
 11
-214.6997729420018
 21
-247.2964995746852
 31
0.0
  0
LINE
  5
343
102
{ACAD_REACTORS
330
3C8
330
3C9
102
}
330
71
100
AcDbEntity
  8
0
  6
Continuous
 62
     2
100
AcDbLine
 10
-214.6997729420018
 20
-247.2964995746852
 30
0.0
 11
-215.8925656441684
 21
-247.2964995746852
 31
0.0
  0
LINE
  5
344
102
{ACAD_REACTORS
330
3C8
330
3C9
102
}
330
71
100
AcDbEntity
  8
0
  6
Continuous
 62
     2
100
AcDbLine
 10
-215.8925656441684
 20
-248.6052750848904
 30
0.0
 11
-217.1330700544224
 21
-247.2964995746852
 31
0.0
  0
LINE
  5
345
102
{ACAD_REACTORS
330
3C8
330
3C9
102
}
330
71
100
AcDbEntity
  8
0
  6
Continuous
 62
     2
100
AcDbLine
 10
-218.3258627565889
 20
-250.3503090984964
 30
0.0
 11
-217.1330700544224
 21
-250.3503090984964
 31
0.0
  0
LINE
  5
346
102
{ACAD_REACTORS
330
3CA
330
3CB
102
}
330
71
100
AcDbEntity
  8
0
  6
Continuous
 62
     2
100
AcDbLine
 10
-219.8050766381615
 20
-250.6556900508596
 30
0.0
 11
-219.8050766381615
 21
-251.4409553569832
 31
0.0
  0
LINE
  5
347
102
{ACAD_REACTORS
330
3CA
330
3CB
102
}
330
71
100
AcDbEntity
  8
0
  6
Continuous
 62
     2
100
AcDbLine
 10
-218.9939776006869
 20
-251.4409553569832
 30
0.0
 11
-218.9939776006869
 21
-253.7094995746707
 31
0.0
  0
LINE
  5
348
102
{ACAD_REACTORS
330
3CA
330
3CB
102
}
330
71
100
AcDbEntity
  8
0
  6
Continuous
 62
     2
100
AcDbLine
 10
-218.9939776006869
 20
-253.7094995746707
 30
0.0
 11
-217.8011848985204
 21
-253.7094995746707
 31
0.0
  0
LINE
  5
349
102
{ACAD_REACTORS
330
3CC
330
3CD
102
}
330
71
100
AcDbEntity
  8
0
  6
Continuous
 62
     2
100
AcDbLine
 10
-214.8516584051009
 20
-253.7094995746707
 30
0.0
 11
-215.0631384585767
 21
-253.1685390304529
 31
0.0
  0
LINE
  5
34A
102
{ACAD_REACTORS
330
3CC
330
3CD
102
}
330
71
100
AcDbEntity
  8
0
  6
Continuous
 62
     2
100
AcDbLine
 10
-215.0091070417873
 20
-250.6556900508596
 30
0.0
 11
-213.611153994847
 21
-253.7094995746707
 31
0.0
  0
LINE
  5
34B
102
{ACAD_REACTORS
330
3CC
330
3CD
102
}
330
71
100
AcDbEntity
  8
0
  6
Continuous
 62
     2
100
AcDbLine
 10
-216.24961145204
 20
-250.6556900508596
 30
0.0
 11
-215.0091070417873
 21
-250.6556900508596
 31
0.0
  0
LINE
  5
34C
102
{ACAD_REACTORS
330
3CC
330
3CD
102
}
330
71
100
AcDbEntity
  8
0
  6
Continuous
 62
     2
100
AcDbLine
 10
-217.6475644989793
 20
-253.7094995746707
 30
0.0
 11
-216.4070600887263
 21
-253.7094995746707
 31
0.0
  0
LINE
  5
34D
102
{ACAD_REACTORS
330
3CC
330
3CD
102
}
330
71
100
AcDbEntity
  8
0
  6
Continuous
 62
     2
100
AcDbLine
 10
-215.9295244841055
 20
-252.4879757651462
 30
0.0
 11
-215.329194009723
 21
-252.4879757651462
 31
0.0
  0
LINE
  5
34E
102
{ACAD_REACTORS
330
3CC
330
3CD
102
}
330
71
100
AcDbEntity
  8
0
  6
Continuous
 62
     2
100
AcDbLine
 10
-215.329194009723
 20
-252.4879757651462
 30
0.0
 11
-215.6293592469131
 21
-251.7201607991595
 31
0.0
  0
LINE
  5
34F
102
{ACAD_REACTORS
330
3CE
330
3CF
102
}
330
71
100
AcDbEntity
  8
0
  6
Continuous
 62
     2
100
AcDbLine
 10
-213.220709991315
 20
-250.3503090984964
 30
0.0
 11
-214.4612144015679
 21
-250.3503090984964
 31
0.0
  0
LINE
  5
350
102
{ACAD_REACTORS
330
3D0
330
3D1
102
}
330
71
100
AcDbEntity
  8
0
  6
Continuous
 62
     2
100
AcDbLine
 10
-211.6987065033499
 20
-250.3503090984964
 30
0.0
 11
-213.1014307210981
 21
-250.3503090984964
 31
0.0
  0
LINE
  5
351
102
{ACAD_REACTORS
330
3D0
330
3D1
102
}
330
71
100
AcDbEntity
  8
0
  6
Continuous
 62
     2
100
AcDbLine
 10
-211.6987065033499
 20
-250.3503090984964
 30
0.0
 11
-211.0021155652842
 21
-249.5625773132027
 31
0.0
  0
LINE
  5
352
102
{ACAD_REACTORS
330
3D0
330
3D1
102
}
330
71
100
AcDbEntity
  8
0
  6
Continuous
 62
     2
100
AcDbLine
 10
-210.4009480433914
 20
-247.2964995746852
 30
0.0
 11
-208.9982238256442
 21
-247.2964995746852
 31
0.0
  0
LINE
  5
353
102
{ACAD_REACTORS
330
3D0
330
3D1
102
}
330
71
100
AcDbEntity
  8
0
  6
Continuous
 62
     2
100
AcDbLine
 10
-213.0060073049253
 20
-247.2964995746852
 30
0.0
 11
-211.7034776741578
 21
-248.7694501047214
 31
0.0
  0
LINE
  5
354
102
{ACAD_REACTORS
330
3D0
330
3D1
102
}
330
71
100
AcDbEntity
  8
0
  6
Continuous
 62
     2
100
AcDbLine
 10
-213.1014307210981
 20
-250.3503090984964
 30
0.0
 11
-211.7034776741578
 21
-248.7694501047214
 31
0.0
  0
LINE
  5
355
102
{ACAD_REACTORS
330
3DA
330
3DB
102
}
330
71
100
AcDbEntity
  8
0
  6
Continuous
 62
     2
100
AcDbLine
 10
-211.2406741057182
 20
-252.6624791665071
 30
0.0
 11
-211.2406741057182
 21
-253.5349961733105
 31
0.0
  0
LINE
  5
356
102
{ACAD_REACTORS
330
3DA
330
3DB
102
}
330
71
100
AcDbEntity
  8
0
  6
Continuous
 62
     2
100
AcDbLine
 10
-212.0103314486796
 20
-251.4409553569832
 30
0.0
 11
-210.9066921491115
 21
-251.4409553569832
 31
0.0
  0
LINE
  5
357
102
{ACAD_REACTORS
330
3DC
330
3DD
102
}
330
71
100
AcDbEntity
  8
0
  6
Continuous
 62
     2
100
AcDbLine
 10
-227.3433755849701
 20
-252.6624791665066
 30
0.0
 11
-227.3433755849701
 21
-253.5349961733098
 31
0.0
  0
LINE
  5
358
102
{ACAD_REACTORS
330
3DC
330
3DD
102
}
330
71
100
AcDbEntity
  8
0
  6
Continuous
 62
     2
100
AcDbLine
 10
-227.3433755849701
 20
-251.7027104590237
 30
0.0
 11
-227.3433755849701
 21
-250.8301934522204
 31
0.0
  0
LINE
  5
359
330
71
100
AcDbEntity
  8
1
  6
Continuous
 62
     7
100
AcDbLine
 10
-111.5059999999862
 20
-252.502999574687
 30
0.0
 11
-204.6508045267376
 21
-252.502999574687
 31
0.0
  0
LINE
  5
35A
330
71
100
AcDbEntity
  8
1
  6
Continuous
 62
     6
100
AcDbLine
 10
-310.0508045267375
 20
-261.002999574687
 30
0.0
 11
-355.0059999999875
 21
-261.002999574687
 31
0.0
  0
LINE
  5
35B
330
71
100
AcDbEntity
  8
1
  6
Continuous
 62
     7
100
AcDbLine
 10
-120.424408281665
 20
-235.502999574687
 30
0.0
 11
-120.424408281665
 21
-244.002999574687
 31
0.0
  0
LINE
  5
35C
330
71
100
AcDbEntity
  8
1
  6
Continuous
 62
     7
100
AcDbLine
 10
-146.9244082816646
 20
-235.502999574687
 30
0.0
 11
-146.9244082816646
 21
-244.002999574687
 31
0.0
  0
LINE
  5
35D
330
71
100
AcDbEntity
  8
1
  6
Continuous
 62
     7
100
AcDbLine
 10
-204.6508045267376
 20
-244.002999574687
 30
0.0
 11
-204.6508045267376
 21
-235.502999574687
 31
0.0
  0
LINE
  5
35E
330
71
100
AcDbEntity
  8
1
  6
Continuous
 62
     7
100
AcDbLine
 10
-241.0508045267375
 20
-244.002999574687
 30
0.0
 11
-241.0508045267375
 21
-235.502999574687
 31
0.0
  0
LINE
  5
35F
330
71
100
AcDbEntity
  8
1
  6
Continuous
 62
     6
100
AcDbLine
 10
-204.6508045267376
 20
-244.002999574687
 30
0.0
 11
-111.5059999999858
 21
-244.002999574687
 31
0.0
  0
LINE
  5
360
330
71
100
AcDbEntity
  8
1
  6
Continuous
 62
     7
100
AcDbLine
 10
-176.7508045267375
 20
-252.5029995746871
 30
0.0
 11
-176.7508045267375
 21
-244.002999574687
 31
0.0
  0
LINE
  5
361
330
71
100
AcDbEntity
  8
1
  6
PHANTOM
 62
     2
100
AcDbLine
 10
-225.5641496401749
 20
-239.8779995746871
 30
0.0
 11
-231.0641496401749
 21
-239.8779995746871
 31
0.0
  0
LINE
  5
362
330
71
100
AcDbEntity
  8
1
  6
PHANTOM
 62
     2
100
AcDbLine
 10
-228.3141496401749
 20
-237.1279995746871
 30
0.0
 11
-228.3141496401749
 21
-242.6279995746871
 31
0.0
  0
LINE
  5
363
330
71
100
AcDbEntity
  8
1
  6
DOT_CENTER
 62
     2
100
AcDbLine
 10
-237.0641496401749
 20
-239.8779995746871
 30
0.0
 11
-231.5641496401749
 21
-239.8779995746871
 31
0.0
  0
ARC
  5
364
102
{ACAD_REACTORS
330
3DC
330
3DD
102
}
330
71
100
AcDbEntity
  8
0
  6
Continuous
 62
     2
100
AcDbCircle
 10
-228.6793035020879
 20
-255.4952757580213
 30
0.0
 40
4.852596863498068
100
AcDbArc
 50
74.02000874164739
 51
84.84185523037509
  0
ARC
  5
365
102
{ACAD_REACTORS
330
3DC
330
3DD
102
}
330
71
100
AcDbEntity
  8
0
  6
Continuous
 62
     2
100
AcDbCircle
 10
-228.1032628933342
 20
-252.339515402137
 30
0.0
 40
0.9059297849853588
100
AcDbArc
 50
71.55192388185235
 51
113.372277888129
  0
ARC
  5
366
102
{ACAD_REACTORS
330
3DC
330
3DD
102
}
330
71
100
AcDbEntity
  8
0
  6
Continuous
 62
     2
100
AcDbCircle
 10
-228.2597029260362
 20
-252.3876662421039
 30
0.0
 40
0.5115800601948034
100
AcDbArc
 50
208.5214732576956
 51
246.6277221118245
  0
ARC
  5
367
102
{ACAD_REACTORS
330
3DC
330
3DD
102
}
330
71
100
AcDbEntity
  8
0
  6
Continuous
 62
     2
100
AcDbCircle
 10
-228.1032628933342
 20
-252.0256742233939
 30
0.0
 40
0.9059297849849192
100
AcDbArc
 50
246.627722111871
 51
288.4480761181601
  0
ARC
  5
368
102
{ACAD_REACTORS
330
3DC
330
3DD
102
}
330
71
100
AcDbEntity
  8
0
  6
Continuous
 62
     2
100
AcDbCircle
 10
-228.521430626995
 20
-250.7721284473567
 30
0.0
 40
2.227384008972773
100
AcDbArc
 50
288.4480761181333
 51
301.9309089499595
  0
ARC
  5
369
102
{ACAD_REACTORS
330
3D8
330
3D9
102
}
330
71
100
AcDbEntity
  8
0
  6
Continuous
 62
     2
100
AcDbCircle
 10
-233.7465043596018
 20
-250.0396264184427
 30
0.0
 40
0.911848150144459
100
AcDbArc
 50
295.3740086781764
 51
64.62599132180748
  0
ARC
  5
36A
102
{ACAD_REACTORS
330
3D8
330
3D9
102
}
330
71
100
AcDbEntity
  8
0
  6
Continuous
 62
     2
100
AcDbCircle
 10
-233.2204616615139
 20
-248.3249495299681
 30
0.0
 40
0.3157169230760711
100
AcDbArc
 50
90.18896704255108
 51
180.0
  0
ARC
  5
36B
102
{ACAD_REACTORS
330
3DA
330
3DB
102
}
330
71
100
AcDbEntity
  8
0
  6
Continuous
 62
     2
100
AcDbCircle
 10
-212.0103314486796
 20
-252.3954783638093
 30
0.0
 40
0.9545230068260935
100
AcDbArc
 50
90.0
 51
109.3371432194298
  0
ARC
  5
36C
102
{ACAD_REACTORS
330
3DA
330
3DB
102
}
330
71
100
AcDbEntity
  8
0
  6
Continuous
 62
     2
100
AcDbCircle
 10
-211.7796441887019
 20
-252.1825948127654
 30
0.0
 40
0.9410597353348789
100
AcDbArc
 50
151.478526742364
 51
208.5214732576695
  0
ARC
  5
36D
102
{ACAD_REACTORS
330
3DA
330
3DB
102
}
330
71
100
AcDbEntity
  8
0
  6
Continuous
 62
     2
100
AcDbCircle
 10
-212.0005614140802
 20
-252.0256742233939
 30
0.0
 40
0.9059297849852688
100
AcDbArc
 50
246.6277221118199
 51
288.4480761180817
  0
ARC
  5
36E
102
{ACAD_REACTORS
330
3DA
330
3DB
102
}
330
71
100
AcDbEntity
  8
0
  6
Continuous
 62
     2
100
AcDbCircle
 10
-212.4187291477421
 20
-250.7721284473573
 30
0.0
 40
2.227384008972773
100
AcDbArc
 50
288.4480761181333
 51
301.9309089499394
  0
ARC
  5
36F
102
{ACAD_REACTORS
330
3DA
330
3DB
102
}
330
71
100
AcDbEntity
  8
0
  6
Continuous
 62
     2
100
AcDbCircle
 10
-212.5766020228349
 20
-248.869913867509
 30
0.0
 40
4.852596863498822
100
AcDbArc
 50
275.158144769636
 51
285.9799912583381
  0
ARC
  5
370
102
{ACAD_REACTORS
330
3DA
330
3DB
102
}
330
71
100
AcDbEntity
  8
0
  6
Continuous
 62
     2
100
AcDbCircle
 10
-212.2877459280991
 20
-252.0698044507306
 30
0.0
 40
1.639695123940421
100
AcDbArc
 50
195.0618917771015
 51
275.1581447696762
  0
ARC
  5
371
102
{ACAD_REACTORS
330
3D2
330
3D3
102
}
330
71
100
AcDbEntity
  8
0
  6
Continuous
 62
     2
100
AcDbCircle
 10
-228.0159592397902
 20
-248.3518652160189
 30
0.0
 40
1.055365641333708
100
AcDbArc
 50
270.0
 51
90.0
  0
ARC
  5
372
102
{ACAD_REACTORS
330
3D8
330
3D9
102
}
330
71
100
AcDbEntity
  8
0
  6
Continuous
 62
     2
100
AcDbCircle
 10
-235.7960103480456
 20
-252.6812270960371
 30
0.0
 40
0.315716923075712
100
AcDbArc
 50
180.0
 51
270.0
  0
ARC
  5
373
102
{ACAD_REACTORS
330
3D8
330
3D9
102
}
330
71
100
AcDbEntity
  8
0
  6
Continuous
 62
     2
100
AcDbCircle
 10
-234.320177087036
 20
-248.32477205332
 30
0.0
 40
0.315716923076593
100
AcDbArc
 50
0.0
 51
90.0
  0
ARC
  5
374
102
{ACAD_REACTORS
330
3D8
330
3D9
102
}
330
71
100
AcDbEntity
  8
0
  6
Continuous
 62
     2
100
AcDbCircle
 10
-234.320177087036
 20
-248.9287966723805
 30
0.0
 40
0.3157169230761203
100
AcDbArc
 50
295.1944106485397
 51
0.0
  0
ARC
  5
375
102
{ACAD_REACTORS
330
3D8
330
3D9
102
}
330
71
100
AcDbEntity
  8
0
  6
Continuous
 62
     2
100
AcDbCircle
 10
-234.320177087036
 20
-252.6812270960371
 30
0.0
 40
0.3157169230767067
100
AcDbArc
 50
270.0
 51
0.0
  0
ARC
  5
376
102
{ACAD_REACTORS
330
3D8
330
3D9
102
}
330
71
100
AcDbEntity
  8
0
  6
Continuous
 62
     2
100
AcDbCircle
 10
-236.3899050247921
 20
-247.7207441900872
 30
0.0
 40
0.4242446153837989
100
AcDbArc
 50
90.0
 51
180.0
  0
ARC
  5
377
102
{ACAD_REACTORS
330
3D8
330
3D9
102
}
330
71
100
AcDbEntity
  8
0
  6
Continuous
 62
     2
100
AcDbCircle
 10
-230.9165929340753
 20
-247.7207441900872
 30
0.0
 40
0.4242446153839126
100
AcDbArc
 50
0.0
 51
90.0
  0
ARC
  5
378
102
{ACAD_REACTORS
330
3D8
330
3D9
102
}
330
71
100
AcDbEntity
  8
0
  6
Continuous
 62
     2
100
AcDbCircle
 10
-230.9165929340753
 20
-253.2852549592874
 30
0.0
 40
0.4242446153832873
100
AcDbArc
 50
270.0
 51
0.0
  0
ARC
  5
379
102
{ACAD_REACTORS
330
3D6
330
3D7
102
}
330
71
100
AcDbEntity
  8
0
  6
Continuous
 62
     2
100
AcDbCircle
 10
-221.6982090469838
 20
-248.8234043365911
 30
0.0
 40
0.7717997786796421
100
AcDbArc
 50
321.8795802028467
 51
38.12041979715993
  0
ARC
  5
37A
102
{ACAD_REACTORS
330
3D6
330
3D7
102
}
330
71
100
AcDbEntity
  8
0
  6
Continuous
 62
     2
100
AcDbCircle
 10
-221.4984690106376
 20
-248.9801355147115
 30
0.0
 40
0.5179085730134595
100
AcDbArc
 50
218.1204197971492
 51
321.8795802028566
  0
ARC
  5
37B
102
{ACAD_REACTORS
330
3D4
330
3D5
102
}
330
71
100
AcDbEntity
  8
0
  6
Continuous
 62
     2
100
AcDbCircle
 10
-225.1784765995978
 20
-252.1825948127654
 30
0.0
 40
1.458034083652003
100
AcDbArc
 50
297.548148175701
 51
62.45185182429896
  0
ARC
  5
37C
102
{ACAD_REACTORS
330
3D4
330
3D5
102
}
330
71
100
AcDbEntity
  8
0
  6
Continuous
 62
     2
100
AcDbCircle
 10
-225.7403563832644
 20
-252.1825948127654
 30
0.0
 40
1.45803408365149
100
AcDbArc
 50
117.5481481756624
 51
242.4518518243375
  0
ARC
  5
37D
102
{ACAD_REACTORS
330
3D4
330
3D5
102
}
330
71
100
AcDbEntity
  8
0
  6
Continuous
 62
     2
100
AcDbCircle
 10
-225.4594164914311
 20
-252.7211698230682
 30
0.0
 40
2.065479772208606
100
AcDbArc
 50
62.45185182430604
 51
117.548148175666
  0
ARC
  5
37E
102
{ACAD_REACTORS
330
3D4
330
3D5
102
}
330
71
100
AcDbEntity
  8
0
  6
Continuous
 62
     2
100
AcDbCircle
 10
-225.4594164914311
 20
-251.6440198024621
 30
0.0
 40
2.065479772208483
100
AcDbArc
 50
242.4518518243399
 51
297.5481481756881
  0
ARC
  5
37F
102
{ACAD_REACTORS
330
3D6
330
3D7
102
}
330
71
100
AcDbEntity
  8
0
  6
Continuous
 62
     2
100
AcDbCircle
 10
-221.2987289742913
 20
-248.8234043365911
 30
0.0
 40
0.7717997786797123
100
AcDbArc
 50
141.8795802028401
 51
218.1204197971533
  0
ARC
  5
380
102
{ACAD_REACTORS
330
3D6
330
3D7
102
}
330
71
100
AcDbEntity
  8
0
  6
Continuous
 62
     2
100
AcDbCircle
 10
-221.4984690106376
 20
-248.6666731584706
 30
0.0
 40
0.5179085730135266
100
AcDbArc
 50
38.12041979714334
 51
141.8795802028508
  0
ARC
  5
381
102
{ACAD_REACTORS
330
3D8
330
3D9
102
}
330
71
100
AcDbEntity
  8
0
  6
Continuous
 62
     2
100
AcDbCircle
 10
-236.3899050247921
 20
-253.2852549592874
 30
0.0
 40
0.4242446153827757
100
AcDbArc
 50
180.0
 51
270.0
  0
ARC
  5
382
102
{ACAD_REACTORS
330
3D8
330
3D9
102
}
330
71
100
AcDbEntity
  8
0
  6
Continuous
 62
     2
100
AcDbCircle
 10
-234.320177087036
 20
-251.1504561645055
 30
0.0
 40
0.315716923076593
100
AcDbArc
 50
0.0
 51
64.80558935146249
  0
ARC
  5
383
102
{ACAD_REACTORS
330
3D8
330
3D9
102
}
330
71
100
AcDbEntity
  8
0
  6
Continuous
 62
     2
100
AcDbCircle
 10
-233.797592639461
 20
-250.0396264184427
 30
0.0
 40
0.9118975235576268
100
AcDbArc
 50
115.1944106485298
 51
244.8055893514854
  0
ARC
  5
384
102
{ACAD_REACTORS
330
3D8
330
3D9
102
}
330
71
100
AcDbEntity
  8
0
  6
Continuous
 62
     2
100
AcDbCircle
 10
-235.7960103480456
 20
-248.32477205332
 30
0.0
 40
0.3157169230761951
100
AcDbArc
 50
90.0
 51
180.0
  0
ARC
  5
385
102
{ACAD_REACTORS
330
3D2
330
3D3
102
}
330
71
100
AcDbEntity
  8
0
  6
Continuous
 62
     2
100
AcDbCircle
 10
-228.4574317660286
 20
-248.3124692447964
 30
0.0
 40
0.3528638246710898
100
AcDbArc
 50
270.0
 51
90.0
  0
ARC
  5
386
102
{ACAD_REACTORS
330
3D6
330
3D7
102
}
330
71
100
AcDbEntity
  8
0
  6
Continuous
 62
     2
100
AcDbCircle
 10
-221.7147410208028
 20
-248.8234043365911
 30
0.0
 40
1.526904761905882
100
AcDbArc
 50
90.0
 51
270.0
  0
ARC
  5
387
102
{ACAD_REACTORS
330
3DA
330
3DB
102
}
330
71
100
AcDbEntity
  8
0
  6
Continuous
 62
     2
100
AcDbCircle
 10
-212.2877459280991
 20
-252.2953851748003
 30
0.0
 40
1.639695123940186
100
AcDbArc
 50
90.0
 51
164.9381082228957
  0
ARC
  5
388
102
{ACAD_REACTORS
330
3DA
330
3DB
102
}
330
71
100
AcDbEntity
  8
0
  6
Continuous
 62
     2
100
AcDbCircle
 10
-212.7068737715607
 20
-252.1825948127654
 30
0.0
 40
1.205656168392968
100
AcDbArc
 50
164.9381082229037
 51
195.0618917770975
  0
ARC
  5
389
102
{ACAD_REACTORS
330
3DA
330
3DB
102
}
330
71
100
AcDbEntity
  8
0
  6
Continuous
 62
     2
100
AcDbCircle
 10
-212.1570014467833
 20
-252.3876662421039
 30
0.0
 40
0.511580060195983
100
AcDbArc
 50
208.5214732576854
 51
246.6277221118478
  0
ARC
  5
38A
102
{ACAD_REACTORS
330
3DA
330
3DB
102
}
330
71
100
AcDbEntity
  8
0
  6
Continuous
 62
     2
100
AcDbCircle
 10
-212.1570014467833
 20
-251.9775233834264
 30
0.0
 40
0.5115800601944048
100
AcDbArc
 50
109.3371432194823
 51
151.4785267424237
  0
ARC
  5
38B
102
{ACAD_REACTORS
330
3D8
330
3D9
102
}
330
71
100
AcDbEntity
  8
0
  6
Continuous
 62
     2
100
AcDbCircle
 10
-233.2204616615139
 20
-251.7306194251062
 30
0.0
 40
0.315716923076792
100
AcDbArc
 50
180.0
 51
269.811032957449
  0
ARC
  5
38C
102
{ACAD_REACTORS
330
3D8
330
3D9
102
}
330
71
100
AcDbEntity
  8
0
  6
Continuous
 62
     2
100
AcDbCircle
 10
-233.2148455262039
 20
-250.0277844775372
 30
0.0
 40
2.018561131933351
100
AcDbArc
 50
269.8110329575858
 51
90.18896704241416
  0
ARC
  5
38D
102
{ACAD_REACTORS
330
3D8
330
3D9
102
}
330
71
100
AcDbEntity
  8
0
  6
Continuous
 62
     2
100
AcDbCircle
 10
-233.2204616615139
 20
-248.9304848184749
 30
0.0
 40
0.315716923076792
100
AcDbArc
 50
180.0
 51
244.6259913216435
  0
ARC
  5
38E
102
{ACAD_REACTORS
330
3D8
330
3D9
102
}
330
71
100
AcDbEntity
  8
0
  6
Continuous
 62
     2
100
AcDbCircle
 10
-233.2204616615139
 20
-251.1487680184112
 30
0.0
 40
0.315716923076622
100
AcDbArc
 50
115.3740086783499
 51
180.0
  0
ARC
  5
38F
102
{ACAD_REACTORS
330
3DC
330
3DD
102
}
330
71
100
AcDbEntity
  8
0
  6
Continuous
 62
     2
100
AcDbCircle
 10
-228.390447407352
 20
-252.2953851748003
 30
0.0
 40
1.639695123940509
100
AcDbArc
 50
84.84185523036136
 51
164.9381082228874
  0
ARC
  5
390
102
{ACAD_REACTORS
330
3DC
330
3DD
102
}
330
71
100
AcDbEntity
  8
0
  6
Continuous
 62
     2
100
AcDbCircle
 10
-228.8095752508148
 20
-252.1825948127654
 30
0.0
 40
1.205656168390964
100
AcDbArc
 50
164.9381082228781
 51
195.0618917770958
  0
ARC
  5
391
102
{ACAD_REACTORS
330
3DC
330
3DD
102
}
330
71
100
AcDbEntity
  8
0
  6
Continuous
 62
     2
100
AcDbCircle
 10
-228.390447407352
 20
-252.0698044507306
 30
0.0
 40
1.639695123939387
100
AcDbArc
 50
195.0618917770896
 51
275.1581447696406
  0
ARC
  5
392
102
{ACAD_REACTORS
330
3DC
330
3DD
102
}
330
71
100
AcDbEntity
  8
0
  6
Continuous
 62
     2
100
AcDbCircle
 10
-228.6793035020879
 20
-248.869913867509
 30
0.0
 40
4.852596863498138
100
AcDbArc
 50
275.1581447696249
 51
285.979991258353
  0
ARC
  5
393
102
{ACAD_REACTORS
330
3DC
330
3DD
102
}
330
71
100
AcDbEntity
  8
0
  6
Continuous
 62
     2
100
AcDbCircle
 10
-227.8823456679559
 20
-252.1825948127654
 30
0.0
 40
0.9410597353332545
100
AcDbArc
 50
151.4785267422669
 51
208.5214732577073
  0
ARC
  5
394
102
{ACAD_REACTORS
330
3DC
330
3DD
102
}
330
71
100
AcDbEntity
  8
0
  6
Continuous
 62
     2
100
AcDbCircle
 10
-228.2597029260362
 20
-251.9775233834264
 30
0.0
 40
0.511580060194863
100
AcDbArc
 50
113.3722778882033
 51
151.4785267423044
  0
ARC
  5
395
102
{ACAD_REACTORS
330
3DC
330
3DD
102
}
330
71
100
AcDbEntity
  8
0
  6
Continuous
 62
     2
100
AcDbCircle
 10
-228.521430626995
 20
-253.5930611781736
 30
0.0
 40
2.227384008973492
100
AcDbArc
 50
58.0690910500401
 51
71.55192388186676
  0
ARC
  5
396
102
{ACAD_REACTORS
330
3D4
330
3D5
102
}
330
71
100
AcDbEntity
  8
0
  6
Continuous
 62
     2
100
AcDbCircle
 10
-225.4594164914311
 20
-252.0258636346449
 30
0.0
 40
0.5179085730133174
100
AcDbArc
 50
38.1204197971495
 51
141.8795802028563
  0
ARC
  5
397
102
{ACAD_REACTORS
330
3D4
330
3D5
102
}
330
71
100
AcDbEntity
  8
0
  6
Continuous
 62
     2
100
AcDbCircle
 10
-225.259676455085
 20
-252.1825948127654
 30
0.0
 40
0.7717997786794633
100
AcDbArc
 50
141.8795802028363
 51
218.1204197971703
  0
ARC
  5
398
102
{ACAD_REACTORS
330
3D4
330
3D5
102
}
330
71
100
AcDbEntity
  8
0
  6
Continuous
 62
     2
100
AcDbCircle
 10
-225.4594164914311
 20
-252.3393259908854
 30
0.0
 40
0.5179085730137354
100
AcDbArc
 50
218.1204197971931
 51
321.879580202801
  0
ARC
  5
399
102
{ACAD_REACTORS
330
3D4
330
3D5
102
}
330
71
100
AcDbEntity
  8
0
  6
Continuous
 62
     2
100
AcDbCircle
 10
-225.6591565277775
 20
-252.1825948127654
 30
0.0
 40
0.77179977867969
100
AcDbArc
 50
321.8795802028388
 51
38.12041979715458
  0
CIRCLE
  5
39A
330
71
100
AcDbEntity
  8
1
  6
Continuous
 62
     2
100
AcDbCircle
 10
-228.3141496401749
 20
-239.8779995746871
 30
0.0
 40
2.5
  0
CIRCLE
  5
39B
330
71
100
AcDbEntity
  8
1
  6
Continuous
 62
     2
100
AcDbCircle
 10
-228.3141496401749
 20
-239.8779995746871
 30
0.0
 40
1.249999999999886
  0
CIRCLE
  5
39C
102
{ACAD_REACTORS
330
3D8
330
3D9
102
}
330
71
100
AcDbEntity
  8
0
  6
Continuous
 62
     2
100
AcDbCircle
 10
-233.7703193742746
 20
-250.0396264184427
 30
0.0
 40
0.4709789327785074
  0
MTEXT
  5
39D
330
71
100
AcDbEntity
  8
1
 62
     3
100
AcDbMText
 10
-398.5009322139157
 20
-74.21169141938822
 30
0.0
 40
1.8
 41
0.0
 71
     7
 72
     1
  3
Weitergabe sowie Vervielf\U+00e4ltigung dieses Dokuments, Verwertung und \PMitteilung seines Inhalts sind verboten, soweit nicht ausdr\U+00fccklich gestattet. \PZuwiderhandlungen verpflichten zu Schadenersatz. Alle Rechte f\U+00fcr den Fall\Pder Pat
  1
ent-, Gebrauchsmuster- oder Designeintragung vorbehalten.
  7
CONVERTER_11
 73
     1
 44
0.99639855942377
  0
MTEXT
  5
39E
330
71
100
AcDbEntity
  8
1
 62
     3
100
AcDbMText
 10
-215.6478223751276
 20
-74.21169141938822
 30
0.0
 40
1.8
 41
0.0
 71
     7
 72
     1
  3
Transfer or duplication of this document as well as the utilisation or\Pcommunication of its content are not permitted unless express consent\Pis granted. Violations give rise to claims for damages. All rights reserved\Pin case of patent, utility mo
  1
del or design patent registrations.
  7
CONVERTER_11
 73
     1
 44
0.99639855942377
  0
TEXT
  5
39F
330
71
100
AcDbEntity
  8
1
 62
     2
100
AcDbText
 10
-221.8508045267377
 20
-259.7620167896786
 30
0.0
 40
1.8
  1
of
 41
0.9
  7
CONVERTER_11
100
AcDbText
  0
TEXT
  5
3A0
330
71
100
AcDbEntity
  8
1
 62
     2
100
AcDbText
 10
-240.0508045267375
 20
-259.7620167896787
 30
0.0
 40
1.8
  1
page
 41
0.9
  7
CONVERTER_11
100
AcDbText
  0
TEXT
  5
3A1
330
71
100
AcDbEntity
  8
1
 62
     2
100
AcDbText
 10
-231.4045395563955
 20
-259.802248228489
 30
0.0
 40
1.8
  1
1
 41
0.9
  7
CONVERTER_11
100
AcDbText
  0
TEXT
  5
3A2
330
71
100
AcDbEntity
  8
1
 62
     2
100
AcDbText
 10
-216.615495716924
 20
-259.7529995746871
 30
0.0
 40
1.8
  1
1
 41
0.9
  7
CONVERTER_11
100
AcDbText
  0
MTEXT
  5
3A4
330
71
100
AcDbEntity
  8
1
 62
     7
100
AcDbMText
 10
-158.078402263362
 20
-257.7529995746868
 30
0.0
 40
3.0
 41
0.0
 71
     5
 72
     1
  1
G-INS-M25-M68L-PEPDS-LG
  7
CONVERTER_12
 73
     1
 44
1.20048019207683
  0
MTEXT
  5
3A5
330
71
100
AcDbEntity
  8
1
 62
     2
100
AcDbMText
 10
-203.6508045267376
 20
-253.502999574687
 30
0.0
 40
1.8
 41
0.0
 71
     1
 72
     1
  1
description
  7
CONVERTER_11
 73
     1
 44
1.20048019207683
  0
MTEXT
  5
3A6
330
71
100
AcDbEntity
  8
1
 62
     3
100
AcDbMText
 10
-214.8508045267376
 20
-239.877999574687
 30
0.0
 40
2.5
 41
0.0
 71
     5
 72
     1
  1
DIN A4
  7
CONVERTER_11
 73
     1
 44
1.20048019207683
  0
MTEXT
  5
3A7
330
71
100
AcDbEntity
  8
1
 62
     7
100
AcDbMText
 10
-401.0059999999866
 20
-238.502999574687
 30
0.0
 40
3.5
 41
0.0
 71
     5
 72
     1
  1
D
  7
CONVERTER_11
 73
     1
 44
1.20048019207683
  0
MTEXT
  5
3A8
330
71
100
AcDbEntity
  8
1
 62
     7
100
AcDbMText
 10
-401.0059999999866
 20
-186.002999574687
 30
0.0
 40
3.5
 41
0.0
 71
     5
 72
     1
  1
C
  7
CONVERTER_11
 73
     1
 44
1.20048019207683
  0
MTEXT
  5
3A9
330
71
100
AcDbEntity
  8
1
 62
     7
100
AcDbMText
 10
-401.0059999999866
 20
-136.002999574687
 30
0.0
 40
3.5
 41
0.0
 71
     5
 72
     1
  1
B
  7
CONVERTER_11
 73
     1
 44
1.20048019207683
  0
MTEXT
  5
3AA
330
71
100
AcDbEntity
  8
1
 62
     7
100
AcDbMText
 10
-401.0059999999866
 20
-83.50299957468701
 30
0.0
 40
3.5
 41
0.0
 71
     5
 72
     1
  1
A
  7
CONVERTER_11
 73
     1
 44
1.20048019207683
  0
MTEXT
  5
3AB
330
71
100
AcDbEntity
  8
1
 62
     7
100
AcDbMText
 10
-130.7559999999883
 20
-263.5029995746871
 30
0.0
 40
3.5
 41
0.0
 71
     5
 72
     1
  1
6
  7
CONVERTER_11
 73
     1
 44
1.20048019207683
  0
MTEXT
  5
3AC
330
71
100
AcDbEntity
  8
1
 62
     7
100
AcDbMText
 10
-180.0059999999875
 20
-263.5029995746871
 30
0.0
 40
3.5
 41
0.0
 71
     5
 72
     1
  1
5
  7
CONVERTER_11
 73
     1
 44
1.20048019207683
  0
MTEXT
  5
3AD
330
71
100
AcDbEntity
  8
1
 62
     7
100
AcDbMText
 10
-230.0059999999876
 20
-263.5029995746871
 30
0.0
 40
3.5
 41
0.0
 71
     5
 72
     1
  1
4
  7
CONVERTER_11
 73
     1
 44
1.20048019207683
  0
MTEXT
  5
3AE
330
71
100
AcDbEntity
  8
1
 62
     7
100
AcDbMText
 10
-280.0059999999875
 20
-263.5029995746871
 30
0.0
 40
3.5
 41
0.0
 71
     5
 72
     1
  1
3
  7
CONVERTER_11
 73
     1
 44
1.20048019207683
  0
MTEXT
  5
3AF
330
71
100
AcDbEntity
  8
1
 62
     7
100
AcDbMText
 10
-330.0059999999875
 20
-263.5029995746871
 30
0.0
 40
3.5
 41
0.0
 71
     5
 72
     1
  1
2
  7
CONVERTER_11
 73
     1
 44
1.20048019207683
  0
MTEXT
  5
3B0
330
71
100
AcDbEntity
  8
1
 62
     7
100
AcDbMText
 10
-379.2559999999871
 20
-263.5029995746871
 30
0.0
 40
3.5
 41
0.0
 71
     5
 72
     1
  1
1
  7
CONVERTER_11
 73
     1
 44
1.20048019207683
  0
MTEXT
  5
3B1
330
71
100
AcDbEntity
  8
1
 62
     7
100
AcDbMText
 10
-109.0059999999885
 20
-238.502999574687
 30
0.0
 40
3.5
 41
0.0
 71
     5
 72
     1
  1
D
  7
CONVERTER_11
 73
     1
 44
1.20048019207683
  0
MTEXT
  5
3B2
330
71
100
AcDbEntity
  8
1
 62
     7
100
AcDbMText
 10
-109.0059999999885
 20
-136.0029995746851
 30
0.0
 40
3.5
 41
0.0
 71
     5
 72
     1
  1
B
  7
CONVERTER_11
 73
     1
 44
1.20048019207683
  0
MTEXT
  5
3B3
330
71
100
AcDbEntity
  8
1
 62
     7
100
AcDbMText
 10
-109.0059999999885
 20
-83.50299957468701
 30
0.0
 40
3.5
 41
0.0
 71
     5
 72
     1
  1
A
  7
CONVERTER_11
 73
     1
 44
1.20048019207683
  0
MTEXT
  5
3B4
330
71
100
AcDbEntity
  8
1
 62
     7
100
AcDbMText
 10
-109.0059999999885
 20
-186.0029995746851
 30
0.0
 40
3.5
 41
0.0
 71
     5
 72
     1
  1
C
  7
CONVERTER_11
 73
     1
 44
1.20048019207683
  0
MTEXT
  5
3B5
330
71
100
AcDbEntity
  8
1
 62
     2
100
AcDbMText
 10
-275.488819251785
 20
-248.2529995746871
 30
0.0
 40
2.0
 41
0.0
 71
     5
 72
     1
  1
General Information\P- Simplified representation\P- Document excluded from change process\P- Linear dimensions [mm]
  7
CONVERTER_11
 73
     1
 44
1.20048019207683
  0
TEXT
  5
3B6
330
71
100
AcDbEntity
  8
1
 62
     7
100
AcDbText
 10
-203.1508045267378
 20
-251.2029995746871
 30
0.0
 40
2.5
  1
1424516
 41
0.81
  7
CONVERTER_12
100
AcDbText
  0
MTEXT
  5
3B7
330
71
100
AcDbEntity
  8
1
 62
     2
100
AcDbMText
 10
-203.5508045267375
 20
-245.002999574687
 30
0.0
 40
1.8
 41
0.0
 71
     1
 72
     1
  1
ident.-No.
  7
CONVERTER_11
 73
     1
 44
1.20048019207683
  0
MTEXT
  5
3B8
330
71
100
AcDbEntity
  8
1
 62
     2
100
AcDbMText
 10
-119.3244082816648
 20
-236.502999574687
 30
0.0
 40
1.8
 41
0.0
 71
     1
 72
     1
  1
scale
  7
CONVERTER_11
 73
     1
 44
1.20048019207683
  0
MTEXT
  5
3BA
330
71
100
AcDbEntity
  8
1
 62
     3
100
AcDbMText
 10
-115.9652041408252
 20
-242.7029995746869
 30
0.0
 40
2.5
 41
0.0
 71
     8
 72
     1
  1
1:1
  7
CONVERTER_13
 73
     1
 44
1.32052821128451
  0
TEXT
  5
3BB
330
71
100
AcDbEntity
  8
1
 62
     7
100
AcDbText
 10
-203.5508045267375
 20
-242.7029995746871
 30
0.0
 40
2.5
  1
01143864
 41
0.81
  7
CONVERTER_12
100
AcDbText
  0
MTEXT
  5
3BD
330
71
100
AcDbEntity
  8
1
 62
     2
100
AcDbMText
 10
-203.5508045267375
 20
-236.502999574687
 30
0.0
 40
1.8
 41
0.0
 71
     1
 72
     1
  1
document-No. / RI
  7
CONVERTER_14
 73
     1
 44
1.32052821128451
  0
TEXT
  5
3BE
330
71
100
AcDbEntity
  8
1
 62
     3
100
AcDbText
 10
-175.7508045267375
 20
-251.2029995746871
 30
0.0
 40
2.5
  1
TECDOC 2D_Productdrawing
 41
0.81
  7
CONVERTER_12
100
AcDbText
  0
MTEXT
  5
3BF
330
71
100
AcDbEntity
  8
1
 62
     2
100
AcDbMText
 10
-175.7508045267375
 20
-245.0029995746871
 30
0.0
 40
1.8
 41
0.0
 71
     1
 72
     1
  1
document-type
  7
CONVERTER_11
 73
     1
 44
1.20048019207683
  0
MTEXT
  5
3C0
330
71
100
AcDbEntity
  8
1
 62
     2
100
AcDbMText
 10
-145.9244082816646
 20
-236.5029995746871
 30
0.0
 40
1.8
 41
0.0
 71
     1
 72
     1
  1
date
  7
CONVERTER_11
 73
     1
 44
1.32052821128451
  0
TEXT
  5
3C1
330
71
100
AcDbEntity
  8
1
 62
     3
100
AcDbText
 10
-145.9244082816646
 20
-242.7029995746871
 30
0.0
 40
2.5
  1
24.05.2018
 41
0.81
  7
CONVERTER_12
100
AcDbText
  0
TEXT
  5
3C2
330
71
100
AcDbEntity
  8
1
 62
     7
100
AcDbText
 10
-183.5208923076817
 20
-242.7029995746871
 30
0.0
 40
2.5
  1
00
 41
0.81
  7
CONVERTER_12
100
AcDbText
  0
TEXT
  5
3C3
330
71
100
AcDbEntity
  8
1
 62
     7
100
AcDbText
 10
-185.6772568047237
 20
-242.7029995746871
 30
0.0
 40
2.5
  1
/
 41
0.9
  7
CONVERTER_11
100
AcDbText
  0
HATCH
  5
3C4
330
71
100
AcDbEntity
  8
1
  6
Continuous
 62
     2
100
AcDbHatch
 10
0.0
 20
0.0
 30
0.0
210
0.0
220
0.0
230
1.0
  2
_USER
 70
     0
 71
     1
 91
        1
 92
        1
 93
       12
 72
     1
 10
-223.3833038137764
 20
-250.3503090984964
 11
-224.5760965159428
 21
-250.3503090984964
 72
     1
 10
-224.5760965159428
 20
-250.3503090984964
 11
-224.5760965159428
 21
-249.2160369896526
 72
     1
 10
-224.5760965159428
 20
-249.2160369896526
 11
-225.6257540938503
 21
-249.2160369896526
 72
     1
 10
-225.6257540938503
 20
-249.2160369896526
 11
-225.6257540938503
 21
-250.3503090984964
 72
     1
 10
-225.6257540938503
 20
-250.3503090984964
 11
-226.8185467960169
 21
-250.3503090984964
 72
     1
 10
-226.8185467960169
 20
-250.3503090984964
 11
-226.8185467960169
 21
-247.2964995746852
 72
     1
 10
-226.8185467960169
 20
-247.2964995746852
 11
-225.6257540938503
 21
-247.2964995746852
 72
     1
 10
-225.6257540938503
 20
-247.2964995746852
 11
-225.6257540938503
 21
-248.3653329080198
 72
     1
 10
-225.6257540938503
 20
-248.3653329080198
 11
-224.5760965159428
 21
-248.3653329080198
 72
     1
 10
-224.5760965159428
 20
-248.3653329080198
 11
-224.5760965159428
 21
-247.2964995746852
 72
     1
 10
-224.5760965159428
 20
-247.2964995746852
 11
-223.3833038137764
 21
-247.2964995746852
 72
     1
 10
-223.3833038137764
 20
-247.2964995746852
 11
-223.3833038137764
 21
-250.3503090984964
 97
       12
330
331
330
332
330
31C
330
31B
330
31A
330
32E
330
319
330
32F
330
330
330
318
330
317
330
316
 75
     1
 76
     0
 52
45.0
 41
0.1
 77
     0
 78
     1
 53
45.0
 43
0.0
 44
0.0
 45
-0.0707106781186548
 46
0.0707106781186548
 79
     0
 98
        1
 10
0.0
 20
0.0
  0
HATCH
  5
3C5
330
71
100
AcDbEntity
  8
1
  6
Continuous
 62
     2
100
AcDbHatch
 10
0.0
 20
0.0
 30
0.0
210
0.0
220
0.0
230
1.0
  2
_USER
 70
     0
 71
     1
 91
        1
 92
        1
 93
       12
 72
     1
 10
-223.3833038137764
 20
-250.3503090984964
 11
-224.5760965159428
 21
-250.3503090984964
 72
     1
 10
-224.5760965159428
 20
-250.3503090984964
 11
-224.5760965159428
 21
-249.2160369896526
 72
     1
 10
-224.5760965159428
 20
-249.2160369896526
 11
-225.6257540938503
 21
-249.2160369896526
 72
     1
 10
-225.6257540938503
 20
-249.2160369896526
 11
-225.6257540938503
 21
-250.3503090984964
 72
     1
 10
-225.6257540938503
 20
-250.3503090984964
 11
-226.8185467960169
 21
-250.3503090984964
 72
     1
 10
-226.8185467960169
 20
-250.3503090984964
 11
-226.8185467960169
 21
-247.2964995746852
 72
     1
 10
-226.8185467960169
 20
-247.2964995746852
 11
-225.6257540938503
 21
-247.2964995746852
 72
     1
 10
-225.6257540938503
 20
-247.2964995746852
 11
-225.6257540938503
 21
-248.3653329080198
 72
     1
 10
-225.6257540938503
 20
-248.3653329080198
 11
-224.5760965159428
 21
-248.3653329080198
 72
     1
 10
-224.5760965159428
 20
-248.3653329080198
 11
-224.5760965159428
 21
-247.2964995746852
 72
     1
 10
-224.5760965159428
 20
-247.2964995746852
 11
-223.3833038137764
 21
-247.2964995746852
 72
     1
 10
-223.3833038137764
 20
-247.2964995746852
 11
-223.3833038137764
 21
-250.3503090984964
 97
       12
330
331
330
332
330
31C
330
31B
330
31A
330
32E
330
319
330
32F
330
330
330
318
330
317
330
316
 75
     1
 76
     0
 52
45.0
 41
0.1
 77
     0
 78
     1
 53
45.0
 43
0.0
 44
0.0
 45
-0.0707106781186548
 46
0.0707106781186548
 79
     0
 98
        1
 10
0.0
 20
0.0
  0
HATCH
  5
3C6
330
71
100
AcDbEntity
  8
1
  6
Continuous
 62
     2
100
AcDbHatch
 10
0.0
 20
0.0
 30
0.0
210
0.0
220
0.0
230
1.0
  2
_USER
 70
     0
 71
     1
 91
        1
 92
        1
 93
       10
 72
     1
 10
-221.1410044645881
 20
-251.9644655610647
 11
-222.381508874841
 21
-250.6556900508596
 72
     1
 10
-222.381508874841
 20
-250.6556900508596
 11
-223.5743015770086
 21
-250.6556900508596
 72
     1
 10
-223.5743015770086
 20
-250.6556900508596
 11
-223.5743015770086
 21
-253.7094995746707
 72
     1
 10
-223.5743015770086
 20
-253.7094995746707
 11
-222.381508874841
 21
-253.7094995746707
 72
     1
 10
-222.381508874841
 20
-253.7094995746707
 11
-222.381508874841
 21
-252.4007240644661
 72
     1
 10
-222.381508874841
 20
-252.4007240644661
 11
-221.1410044645881
 21
-253.7094995746707
 72
     1
 10
-221.1410044645881
 20
-253.7094995746707
 11
-219.9482117624217
 21
-253.7094995746707
 72
     1
 10
-219.9482117624217
 20
-253.7094995746707
 11
-219.9482117624217
 21
-250.6556900508596
 72
     1
 10
-219.9482117624217
 20
-250.6556900508596
 11
-221.1410044645881
 21
-250.6556900508596
 72
     1
 10
-221.1410044645881
 20
-250.6556900508596
 11
-221.1410044645881
 21
-251.9644655610647
 97
       10
330
33F
330
30F
330
30E
330
311
330
33A
330
33B
330
310
330
33C
330
33D
330
33E
 75
     1
 76
     0
 52
45.0
 41
0.1
 77
     0
 78
     1
 53
45.0
 43
0.0
 44
0.0
 45
-0.0707106781186548
 46
0.0707106781186548
 79
     0
 98
        1
 10
0.0
 20
0.0
  0
HATCH
  5
3C7
330
71
100
AcDbEntity
  8
1
  6
Continuous
 62
     2
100
AcDbHatch
 10
0.0
 20
0.0
 30
0.0
210
0.0
220
0.0
230
1.0
  2
_USER
 70
     0
 71
     1
 91
        1
 92
        1
 93
       10
 72
     1
 10
-221.1410044645881
 20
-251.9644655610647
 11
-222.381508874841
 21
-250.6556900508596
 72
     1
 10
-222.381508874841
 20
-250.6556900508596
 11
-223.5743015770086
 21
-250.6556900508596
 72
     1
 10
-223.5743015770086
 20
-250.6556900508596
 11
-223.5743015770086
 21
-253.7094995746707
 72
     1
 10
-223.5743015770086
 20
-253.7094995746707
 11
-222.381508874841
 21
-253.7094995746707
 72
     1
 10
-222.381508874841
 20
-253.7094995746707
 11
-222.381508874841
 21
-252.4007240644661
 72
     1
 10
-222.381508874841
 20
-252.4007240644661
 11
-221.1410044645881
 21
-253.7094995746707
 72
     1
 10
-221.1410044645881
 20
-253.7094995746707
 11
-219.9482117624217
 21
-253.7094995746707
 72
     1
 10
-219.9482117624217
 20
-253.7094995746707
 11
-219.9482117624217
 21
-250.6556900508596
 72
     1
 10
-219.9482117624217
 20
-250.6556900508596
 11
-221.1410044645881
 21
-250.6556900508596
 72
     1
 10
-221.1410044645881
 20
-250.6556900508596
 11
-221.1410044645881
 21
-251.9644655610647
 97
       10
330
33F
330
30F
330
30E
330
311
330
33A
330
33B
330
310
330
33C
330
33D
330
33E
 75
     1
 76
     0
 52
45.0
 41
0.1
 77
     0
 78
     1
 53
45.0
 43
0.0
 44
0.0
 45
-0.0707106781186548
 46
0.0707106781186548
 79
     0
 98
        1
 10
0.0
 20
0.0
  0
HATCH
  5
3C8
330
71
100
AcDbEntity
  8
1
  6
Continuous
 62
     2
100
AcDbHatch
 10
0.0
 20
0.0
 30
0.0
210
0.0
220
0.0
230
1.0
  2
_USER
 70
     0
 71
     1
 91
        1
 92
        1
 93
       10
 72
     1
 10
-215.8925656441684
 20
-248.6052750848904
 11
-217.1330700544224
 21
-247.2964995746852
 72
     1
 10
-217.1330700544224
 20
-247.2964995746852
 11
-218.3258627565889
 21
-247.2964995746852
 72
     1
 10
-218.3258627565889
 20
-247.2964995746852
 11
-218.3258627565889
 21
-250.3503090984964
 72
     1
 10
-218.3258627565889
 20
-250.3503090984964
 11
-217.1330700544224
 21
-250.3503090984964
 72
     1
 10
-217.1330700544224
 20
-250.3503090984964
 11
-217.1330700544224
 21
-249.0415335882917
 72
     1
 10
-217.1330700544224
 20
-249.0415335882917
 11
-215.8925656441684
 21
-250.3503090984964
 72
     1
 10
-215.8925656441684
 20
-250.3503090984964
 11
-214.6997729420018
 21
-250.3503090984964
 72
     1
 10
-214.6997729420018
 20
-250.3503090984964
 11
-214.6997729420018
 21
-247.2964995746852
 72
     1
 10
-214.6997729420018
 20
-247.2964995746852
 11
-215.8925656441684
 21
-247.2964995746852
 72
     1
 10
-215.8925656441684
 20
-247.2964995746852
 11
-215.8925656441684
 21
-248.6052750848904
 97
       10
330
344
330
30C
330
30B
330
345
330
30A
330
340
330
341
330
342
330
343
330
30D
 75
     1
 76
     0
 52
45.0
 41
0.1
 77
     0
 78
     1
 53
45.0
 43
0.0
 44
0.0
 45
-0.0707106781186548
 46
0.0707106781186548
 79
     0
 98
        1
 10
0.0
 20
0.0
  0
HATCH
  5
3C9
330
71
100
AcDbEntity
  8
1
  6
Continuous
 62
     2
100
AcDbHatch
 10
0.0
 20
0.0
 30
0.0
210
0.0
220
0.0
230
1.0
  2
_USER
 70
     0
 71
     1
 91
        1
 92
        1
 93
       10
 72
     1
 10
-215.8925656441684
 20
-248.6052750848904
 11
-217.1330700544224
 21
-247.2964995746852
 72
     1
 10
-217.1330700544224
 20
-247.2964995746852
 11
-218.3258627565889
 21
-247.2964995746852
 72
     1
 10
-218.3258627565889
 20
-247.2964995746852
 11
-218.3258627565889
 21
-250.3503090984964
 72
     1
 10
-218.3258627565889
 20
-250.3503090984964
 11
-217.1330700544224
 21
-250.3503090984964
 72
     1
 10
-217.1330700544224
 20
-250.3503090984964
 11
-217.1330700544224
 21
-249.0415335882917
 72
     1
 10
-217.1330700544224
 20
-249.0415335882917
 11
-215.8925656441684
 21
-250.3503090984964
 72
     1
 10
-215.8925656441684
 20
-250.3503090984964
 11
-214.6997729420018
 21
-250.3503090984964
 72
     1
 10
-214.6997729420018
 20
-250.3503090984964
 11
-214.6997729420018
 21
-247.2964995746852
 72
     1
 10
-214.6997729420018
 20
-247.2964995746852
 11
-215.8925656441684
 21
-247.2964995746852
 72
     1
 10
-215.8925656441684
 20
-247.2964995746852
 11
-215.8925656441684
 21
-248.6052750848904
 97
       10
330
344
330
30C
330
30B
330
345
330
30A
330
340
330
341
330
342
330
343
330
30D
 75
     1
 76
     0
 52
45.0
 41
0.1
 77
     0
 78
     1
 53
45.0
 43
0.0
 44
0.0
 45
-0.0707106781186548
 46
0.0707106781186548
 79
     0
 98
        1
 10
0.0
 20
0.0
  0
HATCH
  5
3CA
330
71
100
AcDbEntity
  8
1
  6
Continuous
 62
     2
100
AcDbHatch
 10
0.0
 20
0.0
 30
0.0
210
0.0
220
0.0
230
1.0
  2
_USER
 70
     0
 71
     1
 91
        1
 92
        1
 93
        8
 72
     1
 10
-216.9900858610479
 20
-250.6556900508596
 11
-219.8050766381615
 21
-250.6556900508596
 72
     1
 10
-219.8050766381615
 20
-250.6556900508596
 11
-219.8050766381615
 21
-251.4409553569832
 72
     1
 10
-219.8050766381615
 20
-251.4409553569832
 11
-218.9939776006869
 21
-251.4409553569832
 72
     1
 10
-218.9939776006869
 20
-251.4409553569832
 11
-218.9939776006869
 21
-253.7094995746707
 72
     1
 10
-218.9939776006869
 20
-253.7094995746707
 11
-217.8011848985204
 21
-253.7094995746707
 72
     1
 10
-217.8011848985204
 20
-253.7094995746707
 11
-217.8011848985204
 21
-251.4409553569832
 72
     1
 10
-217.8011848985204
 20
-251.4409553569832
 11
-216.9900858610479
 21
-251.4409553569832
 72
     1
 10
-216.9900858610479
 20
-251.4409553569832
 11
-216.9900858610479
 21
-250.6556900508596
 97
        8
330
306
330
346
330
305
330
347
330
348
330
309
330
308
330
307
 75
     1
 76
     0
 52
45.0
 41
0.1
 77
     0
 78
     1
 53
45.0
 43
0.0
 44
0.0
 45
-0.0707106781186548
 46
0.0707106781186548
 79
     0
 98
        1
 10
0.0
 20
0.0
  0
HATCH
  5
3CB
330
71
100
AcDbEntity
  8
1
  6
Continuous
 62
     2
100
AcDbHatch
 10
0.0
 20
0.0
 30
0.0
210
0.0
220
0.0
230
1.0
  2
_USER
 70
     0
 71
     1
 91
        1
 92
        1
 93
        8
 72
     1
 10
-216.9900858610479
 20
-250.6556900508596
 11
-219.8050766381615
 21
-250.6556900508596
 72
     1
 10
-219.8050766381615
 20
-250.6556900508596
 11
-219.8050766381615
 21
-251.4409553569832
 72
     1
 10
-219.8050766381615
 20
-251.4409553569832
 11
-218.9939776006869
 21
-251.4409553569832
 72
     1
 10
-218.9939776006869
 20
-251.4409553569832
 11
-218.9939776006869
 21
-253.7094995746707
 72
     1
 10
-218.9939776006869
 20
-253.7094995746707
 11
-217.8011848985204
 21
-253.7094995746707
 72
     1
 10
-217.8011848985204
 20
-253.7094995746707
 11
-217.8011848985204
 21
-251.4409553569832
 72
     1
 10
-217.8011848985204
 20
-251.4409553569832
 11
-216.9900858610479
 21
-251.4409553569832
 72
     1
 10
-216.9900858610479
 20
-251.4409553569832
 11
-216.9900858610479
 21
-250.6556900508596
 97
        8
330
306
330
346
330
305
330
347
330
348
330
309
330
308
330
307
 75
     1
 76
     0
 52
45.0
 41
0.1
 77
     0
 78
     1
 53
45.0
 43
0.0
 44
0.0
 45
-0.0707106781186548
 46
0.0707106781186548
 79
     0
 98
        1
 10
0.0
 20
0.0
  0
HATCH
  5
3CC
330
71
100
AcDbEntity
  8
1
  6
Continuous
 62
     2
100
AcDbHatch
 10
0.0
 20
0.0
 30
0.0
210
0.0
220
0.0
230
1.0
  2
_USER
 70
     0
 71
     1
 91
        2
 92
        1
 93
        8
 72
     1
 10
-214.8516584051009
 20
-253.7094995746707
 11
-215.0631384585767
 21
-253.1685390304529
 72
     1
 10
-215.0631384585767
 20
-253.1685390304529
 11
-216.1955800352505
 21
-253.1685390304529
 72
     1
 10
-216.1955800352505
 20
-253.1685390304529
 11
-216.4070600887263
 21
-253.7094995746707
 72
     1
 10
-216.4070600887263
 20
-253.7094995746707
 11
-217.6475644989793
 21
-253.7094995746707
 72
     1
 10
-217.6475644989793
 20
-253.7094995746707
 11
-216.24961145204
 21
-250.6556900508596
 72
     1
 10
-216.24961145204
 20
-250.6556900508596
 11
-215.0091070417873
 21
-250.6556900508596
 72
     1
 10
-215.0091070417873
 20
-250.6556900508596
 11
-213.611153994847
 21
-253.7094995746707
 72
     1
 10
-213.611153994847
 20
-253.7094995746707
 11
-214.8516584051009
 21
-253.7094995746707
 97
        8
330
34A
330
34B
330
302
330
34C
330
301
330
304
330
349
330
303
 92
       16
 93
        3
 72
     1
 10
-215.9295244841055
 20
-252.4879757651462
 11
-215.6293592469131
 21
-251.7201607991595
 72
     1
 10
-215.6293592469131
 20
-251.7201607991595
 11
-215.329194009723
 21
-252.4879757651462
 72
     1
 10
-215.329194009723
 20
-252.4879757651462
 11
-215.9295244841055
 21
-252.4879757651462
 97
        3
330
300
330
34E
330
34D
 75
     1
 76
     0
 52
45.0
 41
0.1
 77
     0
 78
     1
 53
45.0
 43
0.0
 44
0.0
 45
-0.0707106781186548
 46
0.0707106781186548
 79
     0
 98
        1
 10
0.0
 20
0.0
  0
HATCH
  5
3CD
330
71
100
AcDbEntity
  8
1
  6
Continuous
 62
     2
100
AcDbHatch
 10
0.0
 20
0.0
 30
0.0
210
0.0
220
0.0
230
1.0
  2
_USER
 70
     0
 71
     1
 91
        2
 92
        1
 93
        8
 72
     1
 10
-214.8516584051009
 20
-253.7094995746707
 11
-215.0631384585767
 21
-253.1685390304529
 72
     1
 10
-215.0631384585767
 20
-253.1685390304529
 11
-216.1955800352505
 21
-253.1685390304529
 72
     1
 10
-216.1955800352505
 20
-253.1685390304529
 11
-216.4070600887263
 21
-253.7094995746707
 72
     1
 10
-216.4070600887263
 20
-253.7094995746707
 11
-217.6475644989793
 21
-253.7094995746707
 72
     1
 10
-217.6475644989793
 20
-253.7094995746707
 11
-216.24961145204
 21
-250.6556900508596
 72
     1
 10
-216.24961145204
 20
-250.6556900508596
 11
-215.0091070417873
 21
-250.6556900508596
 72
     1
 10
-215.0091070417873
 20
-250.6556900508596
 11
-213.611153994847
 21
-253.7094995746707
 72
     1
 10
-213.611153994847
 20
-253.7094995746707
 11
-214.8516584051009
 21
-253.7094995746707
 97
        8
330
34A
330
34B
330
302
330
34C
330
301
330
304
330
349
330
303
 92
       16
 93
        3
 72
     1
 10
-215.9295244841055
 20
-252.4879757651462
 11
-215.6293592469131
 21
-251.7201607991595
 72
     1
 10
-215.6293592469131
 20
-251.7201607991595
 11
-215.329194009723
 21
-252.4879757651462
 72
     1
 10
-215.329194009723
 20
-252.4879757651462
 11
-215.9295244841055
 21
-252.4879757651462
 97
        3
330
300
330
34E
330
34D
 75
     1
 76
     0
 52
45.0
 41
0.1
 77
     0
 78
     1
 53
45.0
 43
0.0
 44
0.0
 45
-0.0707106781186548
 46
0.0707106781186548
 79
     0
 98
        1
 10
0.0
 20
0.0
  0
HATCH
  5
3CE
330
71
100
AcDbEntity
  8
1
  6
Continuous
 62
     2
100
AcDbHatch
 10
0.0
 20
0.0
 30
0.0
210
0.0
220
0.0
230
1.0
  2
_USER
 70
     0
 71
     1
 91
        1
 92
        1
 93
        4
 72
     1
 10
-213.220709991315
 20
-250.3503090984964
 11
-214.4612144015679
 21
-250.3503090984964
 72
     1
 10
-214.4612144015679
 20
-250.3503090984964
 11
-214.4612144015679
 21
-247.2964995746852
 72
     1
 10
-214.4612144015679
 20
-247.2964995746852
 11
-213.220709991315
 21
-247.2964995746852
 72
     1
 10
-213.220709991315
 20
-247.2964995746852
 11
-213.220709991315
 21
-250.3503090984964
 97
        4
330
2FD
330
2FF
330
34F
330
2FE
 75
     1
 76
     0
 52
45.0
 41
0.1
 77
     0
 78
     1
 53
45.0
 43
0.0
 44
0.0
 45
-0.0707106781186548
 46
0.0707106781186548
 79
     0
 98
        1
 10
0.0
 20
0.0
  0
HATCH
  5
3CF
330
71
100
AcDbEntity
  8
1
  6
Continuous
 62
     2
100
AcDbHatch
 10
0.0
 20
0.0
 30
0.0
210
0.0
220
0.0
230
1.0
  2
_USER
 70
     0
 71
     1
 91
        1
 92
        1
 93
        4
 72
     1
 10
-213.220709991315
 20
-250.3503090984964
 11
-214.4612144015679
 21
-250.3503090984964
 72
     1
 10
-214.4612144015679
 20
-250.3503090984964
 11
-214.4612144015679
 21
-247.2964995746852
 72
     1
 10
-214.4612144015679
 20
-247.2964995746852
 11
-213.220709991315
 21
-247.2964995746852
 72
     1
 10
-213.220709991315
 20
-247.2964995746852
 11
-213.220709991315
 21
-250.3503090984964
 97
        4
330
2FD
330
2FF
330
34F
330
2FE
 75
     1
 76
     0
 52
45.0
 41
0.1
 77
     0
 78
     1
 53
45.0
 43
0.0
 44
0.0
 45
-0.0707106781186548
 46
0.0707106781186548
 79
     0
 98
        1
 10
0.0
 20
0.0
  0
HATCH
  5
3D0
330
71
100
AcDbEntity
  8
1
  6
Continuous
 62
     2
100
AcDbHatch
 10
0.0
 20
0.0
 30
0.0
210
0.0
220
0.0
230
1.0
  2
_USER
 70
     0
 71
     1
 91
        1
 92
        1
 93
       12
 72
     1
 10
-208.9982238256442
 20
-247.2964995746852
 11
-210.3007534564107
 21
-248.7694501047214
 72
     1
 10
-210.3007534564107
 20
-248.7694501047214
 11
-208.9028004094704
 21
-250.3503090984964
 72
     1
 10
-208.9028004094704
 20
-250.3503090984964
 11
-210.3055246272187
 21
-250.3503090984964
 72
     1
 10
-210.3055246272187
 20
-250.3503090984964
 11
-211.0021155652842
 21
-249.5625773132027
 72
     1
 10
-211.0021155652842
 20
-249.5625773132027
 11
-211.6987065033499
 21
-250.3503090984964
 72
     1
 10
-211.6987065033499
 20
-250.3503090984964
 11
-213.1014307210981
 21
-250.3503090984964
 72
     1
 10
-213.1014307210981
 20
-250.3503090984964
 11
-211.7034776741578
 21
-248.7694501047214
 72
     1
 10
-211.7034776741578
 20
-248.7694501047214
 11
-213.0060073049253
 21
-247.2964995746852
 72
     1
 10
-213.0060073049253
 20
-247.2964995746852
 11
-211.603283087176
 21
-247.2964995746852
 72
     1
 10
-211.603283087176
 20
-247.2964995746852
 11
-211.0021155652842
 21
-247.9763228962407
 72
     1
 10
-211.0021155652842
 20
-247.9763228962407
 11
-210.4009480433914
 21
-247.2964995746852
 72
     1
 10
-210.4009480433914
 20
-247.2964995746852
 11
-208.9982238256442
 21
-247.2964995746852
 97
       12
330
2F8
330
2F7
330
2F6
330
353
330
354
330
350
330
351
330
2FC
330
2FB
330
2FA
330
2F9
330
352
 75
     1
 76
     0
 52
45.0
 41
0.1
 77
     0
 78
     1
 53
45.0
 43
0.0
 44
0.0
 45
-0.0707106781186548
 46
0.0707106781186548
 79
     0
 98
        1
 10
0.0
 20
0.0
  0
HATCH
  5
3D1
330
71
100
AcDbEntity
  8
1
  6
Continuous
 62
     2
100
AcDbHatch
 10
0.0
 20
0.0
 30
0.0
210
0.0
220
0.0
230
1.0
  2
_USER
 70
     0
 71
     1
 91
        1
 92
        1
 93
       12
 72
     1
 10
-208.9982238256442
 20
-247.2964995746852
 11
-210.3007534564107
 21
-248.7694501047214
 72
     1
 10
-210.3007534564107
 20
-248.7694501047214
 11
-208.9028004094704
 21
-250.3503090984964
 72
     1
 10
-208.9028004094704
 20
-250.3503090984964
 11
-210.3055246272187
 21
-250.3503090984964
 72
     1
 10
-210.3055246272187
 20
-250.3503090984964
 11
-211.0021155652842
 21
-249.5625773132027
 72
     1
 10
-211.0021155652842
 20
-249.5625773132027
 11
-211.6987065033499
 21
-250.3503090984964
 72
     1
 10
-211.6987065033499
 20
-250.3503090984964
 11
-213.1014307210981
 21
-250.3503090984964
 72
     1
 10
-213.1014307210981
 20
-250.3503090984964
 11
-211.7034776741578
 21
-248.7694501047214
 72
     1
 10
-211.7034776741578
 20
-248.7694501047214
 11
-213.0060073049253
 21
-247.2964995746852
 72
     1
 10
-213.0060073049253
 20
-247.2964995746852
 11
-211.603283087176
 21
-247.2964995746852
 72
     1
 10
-211.603283087176
 20
-247.2964995746852
 11
-211.0021155652842
 21
-247.9763228962407
 72
     1
 10
-211.0021155652842
 20
-247.9763228962407
 11
-210.4009480433914
 21
-247.2964995746852
 72
     1
 10
-210.4009480433914
 20
-247.2964995746852
 11
-208.9982238256442
 21
-247.2964995746852
 97
       12
330
2F8
330
2F7
330
2F6
330
353
330
354
330
350
330
351
330
2FC
330
2FB
330
2FA
330
2F9
330
352
 75
     1
 76
     0
 52
45.0
 41
0.1
 77
     0
 78
     1
 53
45.0
 43
0.0
 44
0.0
 45
-0.0707106781186548
 46
0.0707106781186548
 79
     0
 98
        1
 10
0.0
 20
0.0
  0
HATCH
  5
3D2
330
71
100
AcDbEntity
  8
1
  6
Continuous
 62
     2
100
AcDbHatch
 10
0.0
 20
0.0
 30
0.0
210
0.0
220
0.0
230
1.0
  2
_USER
 70
     0
 71
     1
 91
        2
 92
        1
 93
        6
 72
     1
 10
-228.0159592397902
 20
-249.4072308573526
 11
-228.7747268275705
 21
-249.4072308573526
 72
     1
 10
-228.7747268275705
 20
-249.4072308573526
 11
-228.7747268275705
 21
-250.3503090984964
 72
     1
 10
-228.7747268275705
 20
-250.3503090984964
 11
-230.0152312378246
 21
-250.3503090984964
 72
     1
 10
-230.0152312378246
 20
-250.3503090984964
 11
-230.0152312378246
 21
-247.2964995746852
 72
     1
 10
-230.0152312378246
 20
-247.2964995746852
 11
-228.0159592397902
 21
-247.2964995746852
 72
     2
 10
-228.0159592397902
 20
-248.3518652160189
 40
1.055365641333708
 50
270.0
 51
450.0
 73
     0
 97
        6
330
320
330
31F
330
32C
330
32B
330
321
330
371
 92
       16
 93
        4
 72
     2
 10
-228.4574317660286
 20
-248.3124692447964
 40
0.3528638246710898
 50
270.0
 51
450.0
 73
     1
 72
     1
 10
-228.4574317660286
 20
-247.9596054201253
 11
-228.7747268275705
 21
-247.9596054201253
 72
     1
 10
-228.7747268275705
 20
-247.9596054201253
 11
-228.7747268275705
 21
-248.6653330694675
 72
     1
 10
-228.7747268275705
 20
-248.6653330694675
 11
-228.4574317660286
 21
-248.6653330694675
 97
        4
330
385
330
31D
330
32D
330
31E
 75
     1
 76
     0
 52
45.0
 41
0.1
 77
     0
 78
     1
 53
45.0
 43
0.0
 44
0.0
 45
-0.0707106781186548
 46
0.0707106781186548
 79
     0
 98
        1
 10
0.0
 20
0.0
  0
HATCH
  5
3D3
330
71
100
AcDbEntity
  8
1
  6
Continuous
 62
     2
100
AcDbHatch
 10
0.0
 20
0.0
 30
0.0
210
0.0
220
0.0
230
1.0
  2
_USER
 70
     0
 71
     1
 91
        2
 92
        1
 93
        6
 72
     1
 10
-228.0159592397902
 20
-249.4072308573526
 11
-228.7747268275705
 21
-249.4072308573526
 72
     1
 10
-228.7747268275705
 20
-249.4072308573526
 11
-228.7747268275705
 21
-250.3503090984964
 72
     1
 10
-228.7747268275705
 20
-250.3503090984964
 11
-230.0152312378246
 21
-250.3503090984964
 72
     1
 10
-230.0152312378246
 20
-250.3503090984964
 11
-230.0152312378246
 21
-247.2964995746852
 72
     1
 10
-230.0152312378246
 20
-247.2964995746852
 11
-228.0159592397902
 21
-247.2964995746852
 72
     2
 10
-228.0159592397902
 20
-248.3518652160189
 40
1.055365641333708
 50
270.0
 51
450.0
 73
     0
 97
        6
330
320
330
31F
330
32C
330
32B
330
321
330
371
 92
       16
 93
        4
 72
     2
 10
-228.4574317660286
 20
-248.3124692447964
 40
0.3528638246710898
 50
270.0
 51
450.0
 73
     1
 72
     1
 10
-228.4574317660286
 20
-247.9596054201253
 11
-228.7747268275705
 21
-247.9596054201253
 72
     1
 10
-228.7747268275705
 20
-247.9596054201253
 11
-228.7747268275705
 21
-248.6653330694675
 72
     1
 10
-228.7747268275705
 20
-248.6653330694675
 11
-228.4574317660286
 21
-248.6653330694675
 97
        4
330
385
330
31D
330
32D
330
31E
 75
     1
 76
     0
 52
45.0
 41
0.1
 77
     0
 78
     1
 53
45.0
 43
0.0
 44
0.0
 45
-0.0707106781186548
 46
0.0707106781186548
 79
     0
 98
        1
 10
0.0
 20
0.0
  0
HATCH
  5
3D4
330
71
100
AcDbEntity
  8
1
  6
Continuous
 62
     2
100
AcDbHatch
 10
0.0
 20
0.0
 30
0.0
210
0.0
220
0.0
230
1.0
  2
_USER
 70
     0
 71
     1
 91
        2
 92
        1
 93
        4
 72
     2
 10
-225.4594164914311
 20
-252.7211698230682
 40
2.065479772208606
 50
62.45185182430604
 51
117.548148175666
 73
     1
 72
     2
 10
-225.7403563832644
 20
-252.1825948127654
 40
1.45803408365149
 50
117.5481481756624
 51
242.4518518243375
 73
     1
 72
     2
 10
-225.4594164914311
 20
-251.6440198024621
 40
2.065479772208483
 50
242.4518518243399
 51
297.5481481756881
 73
     1
 72
     2
 10
-225.1784765995978
 20
-252.1825948127654
 40
1.458034083652003
 50
297.548148175701
 51
422.451851824299
 73
     1
 97
        4
330
37D
330
37C
330
37E
330
37B
 92
       16
 93
        4
 72
     2
 10
-225.6591565277775
 20
-252.1825948127654
 40
0.77179977867969
 50
321.8795802028388
 51
398.1204197971546
 73
     1
 72
     2
 10
-225.4594164914311
 20
-252.0258636346449
 40
0.5179085730133174
 50
38.1204197971495
 51
141.8795802028563
 73
     1
 72
     2
 10
-225.259676455085
 20
-252.1825948127654
 40
0.7717997786794633
 50
141.8795802028363
 51
218.1204197971703
 73
     1
 72
     2
 10
-225.4594164914311
 20
-252.3393259908854
 40
0.5179085730137354
 50
218.1204197971931
 51
321.879580202801
 73
     1
 97
        4
330
399
330
396
330
397
330
398
 75
     1
 76
     0
 52
45.0
 41
0.1
 77
     0
 78
     1
 53
45.0
 43
0.0
 44
0.0
 45
-0.0707106781186548
 46
0.0707106781186548
 79
     0
 98
        1
 10
0.0
 20
0.0
  0
HATCH
  5
3D5
330
71
100
AcDbEntity
  8
1
  6
Continuous
 62
     2
100
AcDbHatch
 10
0.0
 20
0.0
 30
0.0
210
0.0
220
0.0
230
1.0
  2
_USER
 70
     0
 71
     1
 91
        2
 92
        1
 93
        4
 72
     2
 10
-225.4594164914311
 20
-252.7211698230682
 40
2.065479772208606
 50
62.45185182430604
 51
117.548148175666
 73
     1
 72
     2
 10
-225.7403563832644
 20
-252.1825948127654
 40
1.45803408365149
 50
117.5481481756624
 51
242.4518518243375
 73
     1
 72
     2
 10
-225.4594164914311
 20
-251.6440198024621
 40
2.065479772208483
 50
242.4518518243399
 51
297.5481481756881
 73
     1
 72
     2
 10
-225.1784765995978
 20
-252.1825948127654
 40
1.458034083652003
 50
297.548148175701
 51
422.451851824299
 73
     1
 97
        4
330
37D
330
37C
330
37E
330
37B
 92
       16
 93
        4
 72
     2
 10
-225.6591565277775
 20
-252.1825948127654
 40
0.77179977867969
 50
321.8795802028388
 51
398.1204197971546
 73
     1
 72
     2
 10
-225.4594164914311
 20
-252.0258636346449
 40
0.5179085730133174
 50
38.1204197971495
 51
141.8795802028563
 73
     1
 72
     2
 10
-225.259676455085
 20
-252.1825948127654
 40
0.7717997786794633
 50
141.8795802028363
 51
218.1204197971703
 73
     1
 72
     2
 10
-225.4594164914311
 20
-252.3393259908854
 40
0.5179085730137354
 50
218.1204197971931
 51
321.879580202801
 73
     1
 97
        4
330
399
330
396
330
397
330
398
 75
     1
 76
     0
 52
45.0
 41
0.1
 77
     0
 78
     1
 53
45.0
 43
0.0
 44
0.0
 45
-0.0707106781186548
 46
0.0707106781186548
 79
     0
 98
        1
 10
0.0
 20
0.0
  0
HATCH
  5
3D6
330
71
100
AcDbEntity
  8
1
  6
Continuous
 62
     2
100
AcDbHatch
 10
0.0
 20
0.0
 30
0.0
210
0.0
220
0.0
230
1.0
  2
_USER
 70
     0
 71
     1
 91
        2
 92
        1
 93
       12
 72
     1
 10
-218.5644212970218
 20
-247.9945131801282
 11
-219.9003491234495
 21
-247.9945131801282
 72
     1
 10
-219.9003491234495
 20
-247.9945131801282
 11
-219.9003491234495
 21
-248.4743975338699
 72
     1
 10
-219.9003491234495
 20
-248.4743975338699
 11
-218.5644212970218
 21
-248.4743975338699
 72
     1
 10
-218.5644212970218
 20
-248.4743975338699
 11
-218.5644212970218
 21
-249.1724111393122
 72
     1
 10
-218.5644212970218
 20
-249.1724111393122
 11
-219.9003491234495
 21
-249.1724111393122
 72
     1
 10
-219.9003491234495
 20
-249.1724111393122
 11
-219.9003491234495
 21
-249.6522954930539
 72
     1
 10
-219.9003491234495
 20
-249.6522954930539
 11
-218.5644212970218
 21
-249.6522954930539
 72
     1
 10
-218.5644212970218
 20
-249.6522954930539
 11
-218.5644212970218
 21
-250.3503090984964
 72
     1
 10
-218.5644212970218
 20
-250.3503090984964
 11
-221.7147410208028
 21
-250.3503090984964
 72
     2
 10
-221.7147410208028
 20
-248.8234043365911
 40
1.526904761905882
 50
90.0
 51
270.0
 73
     0
 72
     1
 10
-221.7147410208028
 20
-247.2964995746852
 11
-218.5644212970218
 21
-247.2964995746852
 72
     1
 10
-218.5644212970218
 20
-247.2964995746852
 11
-218.5644212970218
 21
-247.9945131801282
 97
       12
330
334
330
386
330
335
330
336
330
337
330
338
330
315
330
314
330
313
330
312
330
339
330
333
 92
       16
 93
        4
 72
     2
 10
-221.4984690106376
 20
-248.6666731584706
 40
0.5179085730135266
 50
38.12041979714334
 51
141.8795802028508
 73
     1
 72
     2
 10
-221.2987289742913
 20
-248.8234043365911
 40
0.7717997786797123
 50
141.8795802028401
 51
218.1204197971533
 73
     1
 72
     2
 10
-221.4984690106376
 20
-248.9801355147115
 40
0.5179085730134595
 50
218.1204197971492
 51
321.8795802028566
 73
     1
 72
     2
 10
-221.6982090469838
 20
-248.8234043365911
 40
0.7717997786796421
 50
321.8795802028467
 51
398.1204197971599
 73
     1
 97
        4
330
380
330
37F
330
37A
330
379
 75
     1
 76
     0
 52
45.0
 41
0.1
 77
     0
 78
     1
 53
45.0
 43
0.0
 44
0.0
 45
-0.0707106781186548
 46
0.0707106781186548
 79
     0
 98
        1
 10
0.0
 20
0.0
  0
HATCH
  5
3D7
330
71
100
AcDbEntity
  8
1
  6
Continuous
 62
     2
100
AcDbHatch
 10
0.0
 20
0.0
 30
0.0
210
0.0
220
0.0
230
1.0
  2
_USER
 70
     0
 71
     1
 91
        2
 92
        1
 93
       12
 72
     1
 10
-218.5644212970218
 20
-247.9945131801282
 11
-219.9003491234495
 21
-247.9945131801282
 72
     1
 10
-219.9003491234495
 20
-247.9945131801282
 11
-219.9003491234495
 21
-248.4743975338699
 72
     1
 10
-219.9003491234495
 20
-248.4743975338699
 11
-218.5644212970218
 21
-248.4743975338699
 72
     1
 10
-218.5644212970218
 20
-248.4743975338699
 11
-218.5644212970218
 21
-249.1724111393122
 72
     1
 10
-218.5644212970218
 20
-249.1724111393122
 11
-219.9003491234495
 21
-249.1724111393122
 72
     1
 10
-219.9003491234495
 20
-249.1724111393122
 11
-219.9003491234495
 21
-249.6522954930539
 72
     1
 10
-219.9003491234495
 20
-249.6522954930539
 11
-218.5644212970218
 21
-249.6522954930539
 72
     1
 10
-218.5644212970218
 20
-249.6522954930539
 11
-218.5644212970218
 21
-250.3503090984964
 72
     1
 10
-218.5644212970218
 20
-250.3503090984964
 11
-221.7147410208028
 21
-250.3503090984964
 72
     2
 10
-221.7147410208028
 20
-248.8234043365911
 40
1.526904761905882
 50
90.0
 51
270.0
 73
     0
 72
     1
 10
-221.7147410208028
 20
-247.2964995746852
 11
-218.5644212970218
 21
-247.2964995746852
 72
     1
 10
-218.5644212970218
 20
-247.2964995746852
 11
-218.5644212970218
 21
-247.9945131801282
 97
       12
330
334
330
386
330
335
330
336
330
337
330
338
330
315
330
314
330
313
330
312
330
339
330
333
 92
       16
 93
        4
 72
     2
 10
-221.4984690106376
 20
-248.6666731584706
 40
0.5179085730135266
 50
38.12041979714334
 51
141.8795802028508
 73
     1
 72
     2
 10
-221.2987289742913
 20
-248.8234043365911
 40
0.7717997786797123
 50
141.8795802028401
 51
218.1204197971533
 73
     1
 72
     2
 10
-221.4984690106376
 20
-248.9801355147115
 40
0.5179085730134595
 50
218.1204197971492
 51
321.8795802028566
 73
     1
 72
     2
 10
-221.6982090469838
 20
-248.8234043365911
 40
0.7717997786796421
 50
321.8795802028467
 51
398.1204197971599
 73
     1
 97
        4
330
380
330
37F
330
37A
330
379
 75
     1
 76
     0
 52
45.0
 41
0.1
 77
     0
 78
     1
 53
45.0
 43
0.0
 44
0.0
 45
-0.0707106781186548
 46
0.0707106781186548
 79
     0
 98
        1
 10
0.0
 20
0.0
  0
HATCH
  5
3D8
330
71
100
AcDbEntity
  8
1
  6
Continuous
 62
     2
100
AcDbHatch
 10
0.0
 20
0.0
 30
0.0
210
0.0
220
0.0
230
1.0
  2
_USER
 70
     0
 71
     1
 91
        4
 92
        1
 93
        8
 72
     1
 10
-230.4923483186914
 20
-247.7207441900872
 11
-230.4923483186914
 21
-253.2852549592874
 72
     2
 10
-230.9165929340753
 20
-253.2852549592874
 40
0.4242446153832873
 50
0.0
 51
90.0
 73
     0
 72
     1
 10
-230.9165929340753
 20
-253.7094995746707
 11
-236.3899050247921
 21
-253.7094995746707
 72
     2
 10
-236.3899050247921
 20
-253.2852549592874
 40
0.4242446153827757
 50
90.0
 51
180.0
 73
     0
 72
     1
 10
-236.8141496401749
 20
-253.2852549592874
 11
-236.8141496401749
 21
-247.7207441900872
 72
     2
 10
-236.3899050247921
 20
-247.7207441900872
 40
0.4242446153837989
 50
180.0
 51
270.0
 73
     0
 72
     1
 10
-236.3899050247921
 20
-247.2964995747034
 11
-230.9165929340753
 21
-247.2964995747034
 72
     2
 10
-230.9165929340753
 20
-247.7207441900872
 40
0.4242446153839126
 50
270.0
 51
360.0
 73
     0
 97
        8
330
328
330
376
330
329
330
381
330
326
330
378
330
327
330
377
 92
       16
 93
        1
 72
     2
 10
-233.7703193742746
 20
-250.0396264184427
 40
0.4709789327785074
 50
0.0
 51
360.0
 73
     1
 97
        1
330
39C
 92
       16
 93
        8
 72
     2
 10
-233.2204616615139
 20
-251.1487680184112
 40
0.315716923076622
 50
115.3740086783499
 51
180.0
 73
     1
 72
     1
 10
-233.5361785845907
 20
-251.1487680184112
 11
-233.5361785845907
 21
-251.7306194251062
 72
     2
 10
-233.2204616615139
 20
-251.7306194251062
 40
0.315716923076792
 50
180.0
 51
269.811032957449
 73
     1
 72
     2
 10
-233.2148455262039
 20
-250.0277844775372
 40
2.018561131933351
 50
269.8110329575858
 51
450.1889670424142
 73
     1
 72
     2
 10
-233.2204616615139
 20
-248.3249495299681
 40
0.3157169230760711
 50
90.18896704255108
 51
180.0
 73
     1
 72
     1
 10
-233.5361785845907
 20
-248.3249495299681
 11
-233.5361785845907
 21
-248.9304848184749
 72
     2
 10
-233.2204616615139
 20
-248.9304848184749
 40
0.315716923076792
 50
180.0
 51
244.6259913216435
 73
     1
 72
     2
 10
-233.7465043596018
 20
-250.0396264184427
 40
0.911848150144459
 50
295.3740086781925
 51
424.6259913218236
 73
     0
 97
        8
330
38E
330
2EF
330
38B
330
38C
330
36A
330
2EE
330
38D
330
369
 92
       16
 93
       12
 72
     2
 10
-235.7960103480456
 20
-252.6812270960371
 40
0.315716923075712
 50
180.0
 51
270.0
 73
     1
 72
     1
 10
-235.7960103480456
 20
-252.9969440191138
 11
-234.320177087036
 21
-252.9969440191138
 72
     2
 10
-234.320177087036
 20
-252.6812270960371
 40
0.3157169230767067
 50
270.0
 51
360.0
 73
     1
 72
     1
 10
-234.0044601639594
 20
-252.6812270960371
 11
-234.0044601639594
 21
-251.1504561645055
 72
     2
 10
-234.320177087036
 20
-251.1504561645055
 40
0.315716923076593
 50
0.0
 51
64.80558935146249
 73
     1
 72
     2
 10
-233.797592639461
 20
-250.0396264184427
 40
0.9118975235576268
 50
115.1944106485146
 51
244.8055893514702
 73
     0
 72
     2
 10
-234.320177087036
 20
-248.9287966723805
 40
0.3157169230761203
 50
295.1944106485397
 51
360.0
 73
     1
 72
     1
 10
-234.0044601639594
 20
-248.9287966723805
 11
-234.0044601639594
 21
-248.32477205332
 72
     2
 10
-234.320177087036
 20
-248.32477205332
 40
0.315716923076593
 50
0.0
 51
90.0
 73
     1
 72
     1
 10
-234.320177087036
 20
-248.0090551302438
 11
-235.7960103480456
 21
-248.0090551302438
 72
     2
 10
-235.7960103480456
 20
-248.32477205332
 40
0.3157169230761951
 50
90.0
 51
180.0
 73
     1
 72
     1
 10
-236.1117272711213
 20
-248.32477205332
 11
-236.1117272711213
 21
-252.6812270960371
 97
       12
330
372
330
32A
330
375
330
325
330
382
330
383
330
374
330
324
330
373
330
323
330
384
330
322
 75
     1
 76
     0
 52
45.0
 41
0.1
 77
     0
 78
     1
 53
45.0
 43
0.0
 44
0.0
 45
-0.0707106781186548
 46
0.0707106781186548
 79
     0
 98
        1
 10
0.0
 20
0.0
  0
HATCH
  5
3D9
330
71
100
AcDbEntity
  8
1
  6
Continuous
 62
     2
100
AcDbHatch
 10
0.0
 20
0.0
 30
0.0
210
0.0
220
0.0
230
1.0
  2
_USER
 70
     0
 71
     1
 91
        4
 92
        1
 93
        8
 72
     1
 10
-230.4923483186914
 20
-247.7207441900872
 11
-230.4923483186914
 21
-253.2852549592874
 72
     2
 10
-230.9165929340753
 20
-253.2852549592874
 40
0.4242446153832873
 50
0.0
 51
90.0
 73
     0
 72
     1
 10
-230.9165929340753
 20
-253.7094995746707
 11
-236.3899050247921
 21
-253.7094995746707
 72
     2
 10
-236.3899050247921
 20
-253.2852549592874
 40
0.4242446153827757
 50
90.0
 51
180.0
 73
     0
 72
     1
 10
-236.8141496401749
 20
-253.2852549592874
 11
-236.8141496401749
 21
-247.7207441900872
 72
     2
 10
-236.3899050247921
 20
-247.7207441900872
 40
0.4242446153837989
 50
180.0
 51
270.0
 73
     0
 72
     1
 10
-236.3899050247921
 20
-247.2964995747034
 11
-230.9165929340753
 21
-247.2964995747034
 72
     2
 10
-230.9165929340753
 20
-247.7207441900872
 40
0.4242446153839126
 50
270.0
 51
360.0
 73
     0
 97
        8
330
328
330
376
330
329
330
381
330
326
330
378
330
327
330
377
 92
       16
 93
        1
 72
     2
 10
-233.7703193742746
 20
-250.0396264184427
 40
0.4709789327785074
 50
0.0
 51
360.0
 73
     1
 97
        1
330
39C
 92
       16
 93
        8
 72
     2
 10
-233.2204616615139
 20
-251.1487680184112
 40
0.315716923076622
 50
115.3740086783499
 51
180.0
 73
     1
 72
     1
 10
-233.5361785845907
 20
-251.1487680184112
 11
-233.5361785845907
 21
-251.7306194251062
 72
     2
 10
-233.2204616615139
 20
-251.7306194251062
 40
0.315716923076792
 50
180.0
 51
269.811032957449
 73
     1
 72
     2
 10
-233.2148455262039
 20
-250.0277844775372
 40
2.018561131933351
 50
269.8110329575858
 51
450.1889670424142
 73
     1
 72
     2
 10
-233.2204616615139
 20
-248.3249495299681
 40
0.3157169230760711
 50
90.18896704255108
 51
180.0
 73
     1
 72
     1
 10
-233.5361785845907
 20
-248.3249495299681
 11
-233.5361785845907
 21
-248.9304848184749
 72
     2
 10
-233.2204616615139
 20
-248.9304848184749
 40
0.315716923076792
 50
180.0
 51
244.6259913216435
 73
     1
 72
     2
 10
-233.7465043596018
 20
-250.0396264184427
 40
0.911848150144459
 50
295.3740086781925
 51
424.6259913218236
 73
     0
 97
        8
330
38E
330
2EF
330
38B
330
38C
330
36A
330
2EE
330
38D
330
369
 92
       16
 93
       12
 72
     2
 10
-235.7960103480456
 20
-252.6812270960371
 40
0.315716923075712
 50
180.0
 51
270.0
 73
     1
 72
     1
 10
-235.7960103480456
 20
-252.9969440191138
 11
-234.320177087036
 21
-252.9969440191138
 72
     2
 10
-234.320177087036
 20
-252.6812270960371
 40
0.3157169230767067
 50
270.0
 51
360.0
 73
     1
 72
     1
 10
-234.0044601639594
 20
-252.6812270960371
 11
-234.0044601639594
 21
-251.1504561645055
 72
     2
 10
-234.320177087036
 20
-251.1504561645055
 40
0.315716923076593
 50
0.0
 51
64.80558935146249
 73
     1
 72
     2
 10
-233.797592639461
 20
-250.0396264184427
 40
0.9118975235576268
 50
115.1944106485146
 51
244.8055893514702
 73
     0
 72
     2
 10
-234.320177087036
 20
-248.9287966723805
 40
0.3157169230761203
 50
295.1944106485397
 51
360.0
 73
     1
 72
     1
 10
-234.0044601639594
 20
-248.9287966723805
 11
-234.0044601639594
 21
-248.32477205332
 72
     2
 10
-234.320177087036
 20
-248.32477205332
 40
0.315716923076593
 50
0.0
 51
90.0
 73
     1
 72
     1
 10
-234.320177087036
 20
-248.0090551302438
 11
-235.7960103480456
 21
-248.0090551302438
 72
     2
 10
-235.7960103480456
 20
-248.32477205332
 40
0.3157169230761951
 50
90.0
 51
180.0
 73
     1
 72
     1
 10
-236.1117272711213
 20
-248.32477205332
 11
-236.1117272711213
 21
-252.6812270960371
 97
       12
330
372
330
32A
330
375
330
325
330
382
330
383
330
374
330
324
330
373
330
323
330
384
330
322
 75
     1
 76
     0
 52
45.0
 41
0.1
 77
     0
 78
     1
 53
45.0
 43
0.0
 44
0.0
 45
-0.0707106781186548
 46
0.0707106781186548
 79
     0
 98
        1
 10
0.0
 20
0.0
  0
HATCH
  5
3DA
330
71
100
AcDbEntity
  8
1
  6
Continuous
 62
     2
100
AcDbHatch
 10
0.0
 20
0.0
 30
0.0
210
0.0
220
0.0
230
1.0
  2
_USER
 70
     0
 71
     1
 91
        1
 92
        1
 93
       18
 72
     1
 10
-208.9028004094704
 20
-251.4409553569832
 11
-209.7138994469438
 21
-251.4409553569832
 72
     1
 10
-209.7138994469438
 20
-251.4409553569832
 11
-209.7138994469438
 21
-253.7094995746707
 72
     1
 10
-209.7138994469438
 20
-253.7094995746707
 11
-210.9066921491115
 21
-253.7094995746707
 72
     1
 10
-210.9066921491115
 20
-253.7094995746707
 11
-210.9066921491115
 21
-251.4409553569832
 72
     1
 10
-210.9066921491115
 20
-251.4409553569832
 11
-212.0103314486796
 21
-251.4409553569832
 72
     2
 10
-212.0103314486796
 20
-252.3954783638093
 40
0.9545230068260935
 50
90.0
 51
109.3371432194298
 73
     1
 72
     2
 10
-212.1570014467833
 20
-251.9775233834264
 40
0.5115800601944048
 50
109.3371432194823
 51
151.4785267424237
 73
     1
 72
     2
 10
-211.7796441887019
 20
-252.1825948127654
 40
0.9410597353348789
 50
151.478526742364
 51
208.5214732576695
 73
     1
 72
     2
 10
-212.1570014467833
 20
-252.3876662421039
 40
0.511580060195983
 50
208.5214732576854
 51
246.6277221118478
 73
     1
 72
     2
 10
-212.0005614140802
 20
-252.0256742233939
 40
0.9059297849852688
 50
246.6277221118199
 51
288.4480761180817
 73
     1
 72
     2
 10
-212.4187291477421
 20
-250.7721284473573
 40
2.227384008972773
 50
288.4480761181333
 51
301.9309089499394
 73
     1
 72
     1
 10
-211.2406741057182
 20
-252.6624791665071
 11
-211.2406741057182
 21
-253.5349961733105
 72
     2
 10
-212.5766020228349
 20
-248.869913867509
 40
4.852596863498822
 50
74.0200087416619
 51
84.84185523036402
 73
     0
 72
     2
 10
-212.2877459280991
 20
-252.0698044507306
 40
1.639695123940421
 50
84.8418552303238
 51
164.9381082228985
 73
     0
 72
     2
 10
-212.7068737715607
 20
-252.1825948127654
 40
1.205656168392968
 50
164.9381082229024
 51
195.0618917770962
 73
     0
 72
     2
 10
-212.2877459280991
 20
-252.2953851748003
 40
1.639695123940186
 50
195.0618917771043
 51
270.0
 73
     0
 72
     1
 10
-212.2877459280991
 20
-250.6556900508601
 11
-208.9028004094704
 21
-250.6556900508596
 72
     1
 10
-208.9028004094704
 20
-250.6556900508596
 11
-208.9028004094704
 21
-251.4409553569832
 97
       18
330
2F1
330
387
330
388
330
370
330
36F
330
355
330
36E
330
36D
330
389
330
36C
330
38A
330
36B
330
356
330
2F0
330
2F5
330
2F4
330
2F3
330
2F2
 75
     1
 76
     0
 52
45.0
 41
0.1
 77
     0
 78
     1
 53
45.0
 43
0.0
 44
0.0
 45
-0.0707106781186548
 46
0.0707106781186548
 79
     0
 98
        1
 10
0.0
 20
0.0
  0
HATCH
  5
3DB
330
71
100
AcDbEntity
  8
1
  6
Continuous
 62
     2
100
AcDbHatch
 10
0.0
 20
0.0
 30
0.0
210
0.0
220
0.0
230
1.0
  2
_USER
 70
     0
 71
     1
 91
        1
 92
        1
 93
       18
 72
     1
 10
-208.9028004094704
 20
-251.4409553569832
 11
-209.7138994469438
 21
-251.4409553569832
 72
     1
 10
-209.7138994469438
 20
-251.4409553569832
 11
-209.7138994469438
 21
-253.7094995746707
 72
     1
 10
-209.7138994469438
 20
-253.7094995746707
 11
-210.9066921491115
 21
-253.7094995746707
 72
     1
 10
-210.9066921491115
 20
-253.7094995746707
 11
-210.9066921491115
 21
-251.4409553569832
 72
     1
 10
-210.9066921491115
 20
-251.4409553569832
 11
-212.0103314486796
 21
-251.4409553569832
 72
     2
 10
-212.0103314486796
 20
-252.3954783638093
 40
0.9545230068260935
 50
90.0
 51
109.3371432194298
 73
     1
 72
     2
 10
-212.1570014467833
 20
-251.9775233834264
 40
0.5115800601944048
 50
109.3371432194823
 51
151.4785267424237
 73
     1
 72
     2
 10
-211.7796441887019
 20
-252.1825948127654
 40
0.9410597353348789
 50
151.478526742364
 51
208.5214732576695
 73
     1
 72
     2
 10
-212.1570014467833
 20
-252.3876662421039
 40
0.511580060195983
 50
208.5214732576854
 51
246.6277221118478
 73
     1
 72
     2
 10
-212.0005614140802
 20
-252.0256742233939
 40
0.9059297849852688
 50
246.6277221118199
 51
288.4480761180817
 73
     1
 72
     2
 10
-212.4187291477421
 20
-250.7721284473573
 40
2.227384008972773
 50
288.4480761181333
 51
301.9309089499394
 73
     1
 72
     1
 10
-211.2406741057182
 20
-252.6624791665071
 11
-211.2406741057182
 21
-253.5349961733105
 72
     2
 10
-212.5766020228349
 20
-248.869913867509
 40
4.852596863498822
 50
74.0200087416619
 51
84.84185523036402
 73
     0
 72
     2
 10
-212.2877459280991
 20
-252.0698044507306
 40
1.639695123940421
 50
84.8418552303238
 51
164.9381082228985
 73
     0
 72
     2
 10
-212.7068737715607
 20
-252.1825948127654
 40
1.205656168392968
 50
164.9381082229024
 51
195.0618917770962
 73
     0
 72
     2
 10
-212.2877459280991
 20
-252.2953851748003
 40
1.639695123940186
 50
195.0618917771043
 51
270.0
 73
     0
 72
     1
 10
-212.2877459280991
 20
-250.6556900508601
 11
-208.9028004094704
 21
-250.6556900508596
 72
     1
 10
-208.9028004094704
 20
-250.6556900508596
 11
-208.9028004094704
 21
-251.4409553569832
 97
       18
330
2F1
330
387
330
388
330
370
330
36F
330
355
330
36E
330
36D
330
389
330
36C
330
38A
330
36B
330
356
330
2F0
330
2F5
330
2F4
330
2F3
330
2F2
 75
     1
 76
     0
 52
45.0
 41
0.1
 77
     0
 78
     1
 53
45.0
 43
0.0
 44
0.0
 45
-0.0707106781186548
 46
0.0707106781186548
 79
     0
 98
        1
 10
0.0
 20
0.0
  0
HATCH
  5
3DC
330
71
100
AcDbEntity
  8
1
  6
Continuous
 62
     2
100
AcDbHatch
 10
0.0
 20
0.0
 30
0.0
210
0.0
220
0.0
230
1.0
  2
_USER
 70
     0
 71
     1
 91
        1
 92
        1
 93
       14
 72
     2
 10
-228.390447407352
 20
-252.2953851748003
 40
1.639695123940509
 50
84.84185523036136
 51
164.9381082228874
 73
     1
 72
     2
 10
-228.8095752508148
 20
-252.1825948127654
 40
1.205656168390964
 50
164.9381082228781
 51
195.0618917770958
 73
     1
 72
     2
 10
-228.390447407352
 20
-252.0698044507306
 40
1.639695123939387
 50
195.0618917770896
 51
275.1581447696406
 73
     1
 72
     2
 10
-228.6793035020879
 20
-248.869913867509
 40
4.852596863498138
 50
275.1581447696249
 51
285.979991258353
 73
     1
 72
     1
 10
-227.3433755849701
 20
-253.5349961733098
 11
-227.3433755849701
 21
-252.6624791665066
 72
     2
 10
-228.521430626995
 20
-250.7721284473567
 40
2.227384008972773
 50
58.06909105004051
 51
71.55192388186677
 73
     0
 72
     2
 10
-228.1032628933342
 20
-252.0256742233939
 40
0.9059297849849192
 50
71.55192388183985
 51
113.372277888129
 73
     0
 72
     2
 10
-228.2597029260362
 20
-252.3876662421039
 40
0.5115800601948034
 50
113.3722778881755
 51
151.4785267423044
 73
     0
 72
     2
 10
-227.8823456679559
 20
-252.1825948127654
 40
0.9410597353332545
 50
151.4785267422927
 51
208.5214732577331
 73
     0
 72
     2
 10
-228.2597029260362
 20
-251.9775233834264
 40
0.511580060194863
 50
208.5214732576956
 51
246.6277221117967
 73
     0
 72
     2
 10
-228.1032628933342
 20
-252.339515402137
 40
0.9059297849853588
 50
246.627722111871
 51
288.4480761181476
 73
     0
 72
     2
 10
-228.521430626995
 20
-253.5930611781736
 40
2.227384008973492
 50
288.4480761181333
 51
301.9309089499599
 73
     0
 72
     1
 10
-227.3433755849701
 20
-251.7027104590237
 11
-227.3433755849701
 21
-250.8301934522204
 72
     2
 10
-228.6793035020879
 20
-255.4952757580213
 40
4.852596863498068
 50
74.02000874164739
 51
84.84185523037509
 73
     1
 97
       14
330
38F
330
390
330
391
330
392
330
357
330
368
330
367
330
366
330
393
330
394
330
365
330
395
330
358
330
364
 75
     1
 76
     0
 52
45.0
 41
0.1
 77
     0
 78
     1
 53
45.0
 43
0.0
 44
0.0
 45
-0.0707106781186548
 46
0.0707106781186548
 79
     0
 98
        1
 10
0.0
 20
0.0
  0
HATCH
  5
3DD
330
71
100
AcDbEntity
  8
1
  6
Continuous
 62
     2
100
AcDbHatch
 10
0.0
 20
0.0
 30
0.0
210
0.0
220
0.0
230
1.0
  2
_USER
 70
     0
 71
     1
 91
        1
 92
        1
 93
       14
 72
     2
 10
-228.390447407352
 20
-252.2953851748003
 40
1.639695123940509
 50
84.84185523036136
 51
164.9381082228874
 73
     1
 72
     2
 10
-228.8095752508148
 20
-252.1825948127654
 40
1.205656168390964
 50
164.9381082228781
 51
195.0618917770958
 73
     1
 72
     2
 10
-228.390447407352
 20
-252.0698044507306
 40
1.639695123939387
 50
195.0618917770896
 51
275.1581447696406
 73
     1
 72
     2
 10
-228.6793035020879
 20
-248.869913867509
 40
4.852596863498138
 50
275.1581447696249
 51
285.979991258353
 73
     1
 72
     1
 10
-227.3433755849701
 20
-253.5349961733098
 11
-227.3433755849701
 21
-252.6624791665066
 72
     2
 10
-228.521430626995
 20
-250.7721284473567
 40
2.227384008972773
 50
58.06909105004051
 51
71.55192388186677
 73
     0
 72
     2
 10
-228.1032628933342
 20
-252.0256742233939
 40
0.9059297849849192
 50
71.55192388183985
 51
113.372277888129
 73
     0
 72
     2
 10
-228.2597029260362
 20
-252.3876662421039
 40
0.5115800601948034
 50
113.3722778881755
 51
151.4785267423044
 73
     0
 72
     2
 10
-227.8823456679559
 20
-252.1825948127654
 40
0.9410597353332545
 50
151.4785267422927
 51
208.5214732577331
 73
     0
 72
     2
 10
-228.2597029260362
 20
-251.9775233834264
 40
0.511580060194863
 50
208.5214732576956
 51
246.6277221117967
 73
     0
 72
     2
 10
-228.1032628933342
 20
-252.339515402137
 40
0.9059297849853588
 50
246.627722111871
 51
288.4480761181476
 73
     0
 72
     2
 10
-228.521430626995
 20
-253.5930611781736
 40
2.227384008973492
 50
288.4480761181333
 51
301.9309089499599
 73
     0
 72
     1
 10
-227.3433755849701
 20
-251.7027104590237
 11
-227.3433755849701
 21
-250.8301934522204
 72
     2
 10
-228.6793035020879
 20
-255.4952757580213
 40
4.852596863498068
 50
74.02000874164739
 51
84.84185523037509
 73
     1
 97
       14
330
38F
330
390
330
391
330
392
330
357
330
368
330
367
330
366
330
393
330
394
330
365
330
395
330
358
330
364
 75
     1
 76
     0
 52
45.0
 41
0.1
 77
     0
 78
     1
 53
45.0
 43
0.0
 44
0.0
 45
-0.0707106781186548
 46
0.0707106781186548
 79
     0
 98
        1
 10
0.0
 20
0.0
  0
ENDBLK
  5
73
330
71
100
AcDbEntity
  8
0
100
AcDbBlockEnd
  0
BLOCK
  5
75
330
74
100
AcDbEntity
  8
0
100
AcDbBlockBegin
  2
_punkt
 70
     0
 10
-111.5059999999875
 20
-261.002999574687
 30
0.0
  3
_punkt
  1

  0
LINE
  5
3DE
330
74
100
AcDbEntity
  8
1
  6
Continuous
 62
     2
100
AcDbLine
 10
-111.5059999999875
 20
-261.002999574687
 30
0.0
 11
-106.5059999999885
 21
-261.002999574687
 31
0.0
  0
LINE
  5
3DF
330
74
100
AcDbEntity
  8
1
  6
Continuous
 62
     2
100
AcDbLine
 10
-111.5059999999875
 20
-261.002999574687
 30
0.0
 11
-111.5059999999875
 21
-266.002999574687
 31
0.0
  0
ENDBLK
  5
76
330
74
100
AcDbEntity
  8
0
100
AcDbBlockEnd
  0
BLOCK
  5
7A
330
77
100
AcDbEntity
  8
0
100
AcDbBlockBegin
  2
A4I_CS
 70
     0
 10
-111.5059999999875
 20
-266.0029995746871
 30
0.0
  3
A4I_CS
  1

  0
INSERT
  5
78
330
77
100
AcDbEntity
  8
1
100
AcDbBlockReference
  2
_rahmen
 10
-111.5059999999875
 20
-266.0029995746871
 30
0.0
  0
INSERT
  5
79
330
77
100
AcDbEntity
  8
1
100
AcDbBlockReference
  2
_punkt
 10
-111.5059999999875
 20
-261.002999574687
 30
0.0
  0
ENDBLK
  5
7B
330
77
100
AcDbEntity
  8
0
100
AcDbBlockEnd
  0
BLOCK
  5
84
330
7C
100
AcDbEntity
  8
0
100
AcDbBlockBegin
  2
1
 70
     0
 10
0.0
 20
0.0
 30
0.0
  3
1
  1

  0
INSERT
  5
7D
330
7C
100
AcDbEntity
  8
0
100
AcDbBlockReference
  2
Allg1
 10
-148.0
 20
-187.0
 30
0.0
  0
INSERT
  5
7E
330
7C
100
AcDbEntity
  8
0
100
AcDbBlockReference
  2
Drfsicht1
 10
-276.007999999975
 20
-186.7539991493943
 30
0.0
  0
INSERT
  5
7F
330
7C
100
AcDbEntity
  8
0
100
AcDbBlockReference
  2
Rckans1
 10
-172.0
 20
-115.0
 30
0.0
  0
INSERT
  5
80
330
7C
100
AcDbEntity
  8
0
100
AcDbBlockReference
  2
SA_Links1
 10
-224.004
 20
-115.0
 30
0.0
  0
INSERT
  5
81
330
7C
100
AcDbEntity
  8
0
100
AcDbBlockReference
  2
SA_Rechts1
 10
-338.012
 20
-115.0
 30
0.0
  0
INSERT
  5
82
330
7C
100
AcDbEntity
  8
0
100
AcDbBlockReference
  2
Vordans1
 10
-276.008
 20
-115.0
 30
0.0
  0
INSERT
  5
83
330
7C
100
AcDbEntity
  8
0
100
AcDbBlockReference
  2
A4I_CS
 10
-111.5059999999875
 20
-266.0029995746871
 30
0.0
  0
ENDBLK
  5
85
330
7C
100
AcDbEntity
  8
0
100
AcDbBlockEnd
  0
BLOCK
  5
298
330
291
100
AcDbEntity
  8
0
100
AcDbBlockBegin
  2
*D17
 70
     1
 10
0.0
 20
0.0
 30
0.0
  3
*D17
  1

  0
LINE
  5
292
330
291
100
AcDbEntity
  8
1
  6
Continuous
 62
     2
100
AcDbLine
 10
-292.0080000000251
 20
-150.74999999998
 30
0.0
 11
-260.008000000025
 21
-150.74999999998
 31
0.0
  0
LINE
  5
293
330
291
100
AcDbEntity
  8
1
  6
Continuous
 62
     2
100
AcDbLine
 10
-292.0080000000251
 20
-125.24999999998
 30
0.0
 11
-292.0080000000251
 21
-152.24999999998
 31
0.0
  0
LINE
  5
294
330
291
100
AcDbEntity
  8
1
  6
Continuous
 62
     2
100
AcDbLine
 10
-260.008000000025
 20
-125.24999999998
 30
0.0
 11
-260.008000000025
 21
-152.24999999998
 31
0.0
  0
SOLID
  5
295
330
291
100
AcDbEntity
  8
1
 62
     2
100
AcDbTrace
 10
-288.5080000000251
 20
-150.2892162584241
 30
0.0
 11
-288.5080000000251
 21
-151.2107837415359
 31
0.0
 12
-292.0080000000251
 22
-150.74999999998
 32
0.0
 13
-292.0080000000251
 23
-150.74999999998
 33
0.0
  0
SOLID
  5
296
330
291
100
AcDbEntity
  8
1
 62
     2
100
AcDbTrace
 10
-263.508000000025
 20
-151.2107837415359
 30
0.0
 11
-263.508000000025
 21
-150.2892162584241
 31
0.0
 12
-260.008000000025
 22
-150.74999999998
 32
0.0
 13
-260.008000000025
 23
-150.74999999998
 33
0.0
  0
MTEXT
  5
297
330
291
100
AcDbEntity
  8
1
 62
     3
100
AcDbMText
 10
-279.4029999999669
 20
-149.2500069570563
 30
0.0
 40
3.5
 41
0.0
 71
     7
 72
     1
  1
\C3;{\Fgdt;n}\C3;32
  7
CONVERTER_11
 11
0.9999999999970619
 21
2.424068405545306E-6
 31
0.0
 73
     1
 44
0.60024009603842
  0
ENDBLK
  5
299
330
291
100
AcDbEntity
  8
0
100
AcDbBlockEnd
  0
BLOCK
  5
2A3
330
29C
100
AcDbEntity
  8
0
100
AcDbBlockBegin
  2
*D18
 70
     1
 10
0.0
 20
0.0
 30
0.0
  3
*D18
  1

  0
LINE
  5
29D
330
29C
100
AcDbEntity
  8
1
  6
Continuous
 62
     2
100
AcDbLine
 10
-302.008000000025
 20
-140.74999999998
 30
0.0
 11
-302.008000000025
 21
-89.24999999998
 31
0.0
  0
LINE
  5
29E
330
29C
100
AcDbEntity
  8
1
  6
Continuous
 62
     2
100
AcDbLine
 10
-287.573000000025
 20
-140.74999999998
 30
0.0
 11
-303.508000000025
 21
-140.74999999998
 31
0.0
  0
LINE
  5
29F
330
29C
100
AcDbEntity
  8
1
  6
Continuous
 62
     2
100
AcDbLine
 10
-287.528000000025
 20
-89.24999999998
 30
0.0
 11
-303.508000000025
 21
-89.24999999998
 31
0.0
  0
SOLID
  5
2A0
330
29C
100
AcDbEntity
  8
1
 62
     2
100
AcDbTrace
 10
-302.4687837415809
 20
-137.24999999998
 30
0.0
 11
-301.5472162584691
 21
-137.24999999998
 31
0.0
 12
-302.008000000025
 22
-140.74999999998
 32
0.0
 13
-302.008000000025
 23
-140.74999999998
 33
0.0
  0
SOLID
  5
2A1
330
29C
100
AcDbEntity
  8
1
 62
     2
100
AcDbTrace
 10
-301.5472162584691
 20
-92.74999999998
 30
0.0
 11
-302.4687837415809
 21
-92.74999999998
 31
0.0
 12
-302.008000000025
 22
-89.24999999998
 32
0.0
 13
-302.008000000025
 23
-89.24999999998
 33
0.0
  0
MTEXT
  5
2A2
330
29C
100
AcDbEntity
  8
1
 62
     3
100
AcDbMText
 10
-303.858000000025
 20
-119.28749999998
 30
0.0
 40
3.5
 41
0.0
 71
     7
 72
     1
  1
51,5
  7
CONVERTER_11
 11
0.0
 21
1.0
 31
0.0
 73
     1
 44
0.60024009603842
  0
ENDBLK
  5
2A4
330
29C
100
AcDbEntity
  8
0
100
AcDbBlockEnd
  0
ENDSEC
  0
SECTION
  2
ENTITIES
  0
INSERT
  5
86
330
1F
100
AcDbEntity
  8
1
100
AcDbBlockReference
  2
1
 10
0.0
 20
0.0
 30
0.0
  0
ENDSEC
  0
SECTION
  2
OBJECTS
  0
DICTIONARY
  5
C
330
0
100
AcDbDictionary
281
     1
  3
ACAD_GROUP
350
D
  3
ACAD_LAYOUT
350
1A
  3
ACAD_MATERIAL
350
3B
  3
ACAD_MLEADERSTYLE
350
407
  3
ACAD_MLINESTYLE
350
17
  3
ACAD_PLOTSETTINGS
350
19
  3
ACAD_PLOTSTYLENAME
350
E
  3
ACAD_TABLESTYLE
350
406
  3
ACAD_VISUALSTYLE
350
2A
  0
DICTIONARY
  5
D
102
{ACAD_REACTORS
330
C
102
}
330
C
100
AcDbDictionary
281
     1
  0
DICTIONARY
  5
1A
102
{ACAD_REACTORS
330
C
102
}
330
C
100
AcDbDictionary
281
     1
  3
Layout1
350
1E
  3
Layout2
350
26
  3
Model
350
22
  0
DICTIONARY
  5
3B
102
{ACAD_REACTORS
330
C
102
}
330
C
100
AcDbDictionary
281
     1
  3
ByBlock
350
3D
  3
ByLayer
350
3C
  3
Global
350
3E
  0
DICTIONARY
  5
407
102
{ACAD_REACTORS
330
C
102
}
330
C
100
AcDbDictionary
281
     1
  0
DICTIONARY
  5
17
102
{ACAD_REACTORS
330
C
102
}
330
C
100
AcDbDictionary
281
     1
  3
Standard
350
18
  0
DICTIONARY
  5
19
102
{ACAD_REACTORS
330
C
102
}
330
C
100
AcDbDictionary
281
     1
  0
ACDBDICTIONARYWDFLT
  5
E
102
{ACAD_REACTORS
330
C
102
}
330
C
100
AcDbDictionary
281
     1
  3
Normal
350
F
100
AcDbDictionaryWithDefault
340
F
  0
DICTIONARY
  5
406
102
{ACAD_REACTORS
330
C
102
}
330
C
100
AcDbDictionary
281
     1
  0
DICTIONARY
  5
2A
102
{ACAD_REACTORS
330
C
102
}
330
C
100
AcDbDictionary
281
     1
  3
2dWireframe
350
2F
  3
3D Hidden
350
31
  3
3dWireframe
350
30
  3
Basic
350
32
  3
Brighten
350
36
  3
ColorChange
350
3A
  3
Conceptual
350
34
  3
Dim
350
35
  3
Facepattern
350
39
  3
Flat
350
2B
  3
FlatWithEdges
350
2C
  3
Gouraud
350
2D
  3
GouraudWithEdges
350
2E
  3
Linepattern
350
38
  3
Realistic
350
33
  3
Thicken
350
37
  0
LAYOUT
  5
1E
102
{ACAD_REACTORS
330
1A
102
}
330
1A
100
AcDbPlotSettings
  1

  2
none_device
  4

  6

 40
0.0
 41
0.0
 42
0.0
 43
0.0
 44
0.0
 45
0.0
 46
0.0
 47
0.0
 48
0.0
 49
0.0
140
0.0
141
0.0
142
1.0
143
1.0
 70
   688
 72
     0
 73
     0
 74
     5
  7

 75
    16
 76
     0
 77
     2
 78
   300
147
1.0
148
0.0
149
0.0
100
AcDbLayout
  1
Layout1
 70
     1
 71
     1
 10
0.0
 20
0.0
 11
12.0
 21
9.0
 12
0.0
 22
0.0
 32
0.0
 14
1.00000000000000E+20
 24
1.00000000000000E+20
 34
1.00000000000000E+20
 15
-1.00000000000000E+20
 25
-1.00000000000000E+20
 35
-1.00000000000000E+20
146
0.0
 13
0.0
 23
0.0
 33
0.0
 16
1.0
 26
0.0
 36
0.0
 17
0.0
 27
1.0
 37
0.0
 76
     0
330
1B
  0
LAYOUT
  5
26
102
{ACAD_REACTORS
330
1A
102
}
330
1A
100
AcDbPlotSettings
  1

  2
none_device
  4

  6

 40
0.0
 41
0.0
 42
0.0
 43
0.0
 44
0.0
 45
0.0
 46
0.0
 47
0.0
 48
0.0
 49
0.0
140
0.0
141
0.0
142
1.0
143
1.0
 70
   688
 72
     0
 73
     0
 74
     5
  7

 75
    16
 76
     0
 77
     2
 78
   300
147
1.0
148
0.0
149
0.0
100
AcDbLayout
  1
Layout2
 70
     1
 71
     2
 10
0.0
 20
0.0
 11
0.0
 21
0.0
 12
0.0
 22
0.0
 32
0.0
 14
0.0
 24
0.0
 34
0.0
 15
0.0
 25
0.0
 35
0.0
146
0.0
 13
0.0
 23
0.0
 33
0.0
 16
1.0
 26
0.0
 36
0.0
 17
0.0
 27
1.0
 37
0.0
 76
     0
330
23
  0
LAYOUT
  5
22
102
{ACAD_REACTORS
330
1A
102
}
330
1A
100
AcDbPlotSettings
  1

  2
none_device
  4

  6

 40
0.0
 41
0.0
 42
0.0
 43
0.0
 44
0.0
 45
0.0
 46
0.0
 47
0.0
 48
0.0
 49
0.0
140
0.0
141
0.0
142
1.0
143
1.0
 70
  1712
 72
     0
 73
     0
 74
     0
  7

 75
     0
 76
     0
 77
     2
 78
   300
147
1.0
148
0.0
149
0.0
100
AcDbLayout
  1
Model
 70
     1
 71
     0
 10
0.0
 20
0.0
 11
12.0
 21
9.0
 12
0.0
 22
0.0
 32
0.0
 14
-403.5059999999866
 24
-266.002999574687
 34
0.0
 15
-106.5059999999885
 25
-56.00299957468701
 35
0.0
146
0.0
 13
0.0
 23
0.0
 33
0.0
 16
1.0
 26
0.0
 36
0.0
 17
0.0
 27
1.0
 37
0.0
 76
     0
330
1F
331
29
  0
MATERIAL
  5
3D
102
{ACAD_REACTORS
330
3B
102
}
102
{ACAD_XDICTIONARY
360
402
102
}
330
3B
100
AcDbMaterial
  1
ByBlock
  0
MATERIAL
  5
3C
102
{ACAD_REACTORS
330
3B
102
}
102
{ACAD_XDICTIONARY
360
400
102
}
330
3B
100
AcDbMaterial
  1
ByLayer
  0
MATERIAL
  5
3E
102
{ACAD_REACTORS
330
3B
102
}
102
{ACAD_XDICTIONARY
360
404
102
}
330
3B
100
AcDbMaterial
  1
Global
  0
MLINESTYLE
  5
18
102
{ACAD_REACTORS
330
17
102
}
330
17
100
AcDbMlineStyle
  2
Standard
 70
     0
  3

 62
   256
 51
90.0
 52
90.0
 71
     2
 49
0.5
 62
   256
  6
BYLAYER
 49
-0.5
 62
   256
  6
BYLAYER
  0
ACDBPLACEHOLDER
  5
F
102
{ACAD_REACTORS
330
E
102
}
330
E
  0
VISUALSTYLE
  5
2F
102
{ACAD_REACTORS
330
2A
102
}
102
{ACAD_XDICTIONARY
360
3E8
102
}
330
2A
100
AcDbVisualStyle
  2
2dWireframe
 70
     4
 71
     0
 72
     2
 73
     0
 90
        0
 40
-0.6
 41
-30.0
 62
     5
 63
     7
421
 16777215
 74
     1
 91
        4
 64
     7
 65
   257
 75
     1
175
     1
 42
1.0
 92
        0
 66
   257
 43
1.0
 76
     1
 77
     6
 78
     2
 67
     7
 79
     5
170
     0
171
     0
290
     0
174
     0
 93
        1
 44
0.0
173
     0
291
     0
 45
0.0
1001
ACAD
1000
AcDbSavedByObjectVersion
1070
     0
  0
VISUALSTYLE
  5
31
102
{ACAD_REACTORS
330
2A
102
}
102
{ACAD_XDICTIONARY
360
3EC
102
}
330
2A
100
AcDbVisualStyle
  2
3D Hidden
 70
     6
 71
     1
 72
     2
 73
     2
 90
        0
 40
-0.6
 41
-30.0
 62
     5
 63
     7
421
 16777215
 74
     2
 91
        2
 64
     7
 65
   257
 75
     2
175
     1
 42
40.0
 92
        0
 66
   257
 43
1.0
 76
     1
 77
     6
 78
     2
 67
     7
 79
     3
170
     0
171
     0
290
     0
174
     0
 93
        1
 44
0.0
173
     0
291
     0
 45
0.0
1001
ACAD
1000
AcDbSavedByObjectVersion
1070
     0
  0
VISUALSTYLE
  5
30
102
{ACAD_REACTORS
330
2A
102
}
102
{ACAD_XDICTIONARY
360
3EA
102
}
330
2A
100
AcDbVisualStyle
  2
3dWireframe
 70
     5
 71
     0
 72
     2
 73
     0
 90
        0
 40
-0.6
 41
-30.0
 62
     5
 63
     7
421
 16777215
 74
     1
 91
        4
 64
     7
 65
   257
 75
     1
175
     1
 42
1.0
 92
        0
 66
   257
 43
1.0
 76
     1
 77
     6
 78
     2
 67
     7
 79
     5
170
     0
171
     0
290
     0
174
     0
 93
        1
 44
0.0
173
     0
291
     0
 45
0.0
1001
ACAD
1000
AcDbSavedByObjectVersion
1070
     0
  0
VISUALSTYLE
  5
32
102
{ACAD_REACTORS
330
2A
102
}
102
{ACAD_XDICTIONARY
360
3EE
102
}
330
2A
100
AcDbVisualStyle
  2
Basic
 70
     7
 71
     1
 72
     0
 73
     1
 90
        0
 40
-0.6
 41
-30.0
 62
     5
 63
     7
421
 16777215
 74
     0
 91
        4
 64
     7
 65
   257
 75
     1
175
     1
 42
1.0
 92
        8
 66
     7
 43
1.0
 76
     1
 77
     6
 78
     2
 67
     7
 79
     5
170
     0
171
     0
290
     0
174
     0
 93
        1
 44
0.0
173
     0
291
     1
 45
0.0
1001
ACAD
1000
AcDbSavedByObjectVersion
1070
     0
  0
VISUALSTYLE
  5
36
102
{ACAD_REACTORS
330
2A
102
}
102
{ACAD_XDICTIONARY
360
3F6
102
}
330
2A
100
AcDbVisualStyle
  2
Brighten
 70
    12
 71
     2
 72
     2
 73
     0
 90
        0
 40
-0.6
 41
-30.0
 62
     5
 63
     7
421
 16777215
 74
     1
 91
        4
 64
     7
 65
   257
 75
     1
175
     1
 42
1.0
 92
        8
 66
     7
 43
1.0
 76
     1
 77
     6
 78
     2
 67
     7
 79
     5
170
     0
171
     0
290
     0
174
     0
 93
        1
 44
50.0
173
     0
291
     1
 45
0.0
1001
ACAD
1000
AcDbSavedByObjectVersion
1070
     0
  0
VISUALSTYLE
  5
3A
102
{ACAD_REACTORS
330
2A
102
}
102
{ACAD_XDICTIONARY
360
3FE
102
}
330
2A
100
AcDbVisualStyle
  2
ColorChange
 70
    16
 71
     2
 72
     2
 73
     3
 90
        0
 40
-0.6
 41
-30.0
 62
     5
 63
     8
421
  8421504
 74
     1
 91
        4
 64
     7
 65
   257
 75
     1
175
     1
 42
1.0
 92
        8
 66
     8
424
  8421504
 43
1.0
 76
     1
 77
     6
 78
     2
 67
     7
 79
     5
170
     0
171
     0
290
     0
174
     0
 93
        1
 44
0.0
173
     0
291
     1
 45
0.0
1001
ACAD
1000
AcDbSavedByObjectVersion
1070
     0
  0
VISUALSTYLE
  5
34
102
{ACAD_REACTORS
330
2A
102
}
102
{ACAD_XDICTIONARY
360
3F2
102
}
330
2A
100
AcDbVisualStyle
  2
Conceptual
 70
     9
 71
     3
 72
     2
 73
     0
 90
        0
 40
-0.6
 41
-30.0
 62
     5
 63
     7
421
 16777215
 74
     2
 91
        2
 64
     7
 65
   257
 75
     1
175
     1
 42
40.0
 92
        8
 66
     7
 43
1.0
 76
     1
 77
     6
 78
     2
 67
     7
 79
     3
170
     0
171
     0
290
     0
174
     0
 93
        1
 44
0.0
173
     0
291
     0
 45
0.0
1001
ACAD
1000
AcDbSavedByObjectVersion
1070
     0
  0
VISUALSTYLE
  5
35
102
{ACAD_REACTORS
330
2A
102
}
102
{ACAD_XDICTIONARY
360
3F4
102
}
330
2A
100
AcDbVisualStyle
  2
Dim
 70
    11
 71
     2
 72
     2
 73
     0
 90
        0
 40
-0.6
 41
-30.0
 62
     5
 63
     7
421
 16777215
 74
     1
 91
        4
 64
     7
 65
   257
 75
     1
175
     1
 42
1.0
 92
        8
 66
     7
 43
1.0
 76
     1
 77
     6
 78
     2
 67
     7
 79
     5
170
     0
171
     0
290
     0
174
     0
 93
        1
 44
-50.0
173
     0
291
     1
 45
0.0
1001
ACAD
1000
AcDbSavedByObjectVersion
1070
     0
  0
VISUALSTYLE
  5
39
102
{ACAD_REACTORS
330
2A
102
}
102
{ACAD_XDICTIONARY
360
3FC
102
}
330
2A
100
AcDbVisualStyle
  2
Facepattern
 70
    15
 71
     2
 72
     2
 73
     0
 90
        0
 40
-0.6
 41
-30.0
 62
     5
 63
     7
421
 16777215
 74
     1
 91
        4
 64
     7
 65
   257
 75
     1
175
     1
 42
1.0
 92
        8
 66
     7
 43
1.0
 76
     1
 77
     6
 78
     2
 67
     7
 79
     5
170
     0
171
     0
290
     0
174
     0
 93
        1
 44
0.0
173
     0
291
     1
 45
0.0
1001
ACAD
1000
AcDbSavedByObjectVersion
1070
     0
  0
VISUALSTYLE
  5
2B
102
{ACAD_REACTORS
330
2A
102
}
102
{ACAD_XDICTIONARY
360
3E0
102
}
330
2A
100
AcDbVisualStyle
  2
Flat
 70
     0
 71
     2
 72
     1
 73
     1
 90
        2
 40
-0.6
 41
30.0
 62
     5
 63
     7
421
 16777215
 74
     0
 91
        4
 64
     7
 65
   257
 75
     1
175
     1
 42
1.0
 92
        8
 66
     7
 43
1.0
 76
     1
 77
     6
 78
     2
 67
     7
 79
     5
170
     0
171
     0
290
     0
174
     0
 93
       13
 44
0.0
173
     0
291
     1
 45
0.0
1001
ACAD
1000
AcDbSavedByObjectVersion
1070
     0
  0
VISUALSTYLE
  5
2C
102
{ACAD_REACTORS
330
2A
102
}
102
{ACAD_XDICTIONARY
360
3E2
102
}
330
2A
100
AcDbVisualStyle
  2
FlatWithEdges
 70
     1
 71
     2
 72
     1
 73
     1
 90
        2
 40
-0.6
 41
30.0
 62
     5
 63
     7
421
 16777215
 74
     1
 91
        4
 64
     7
 65
   257
 75
     1
175
     1
 42
1.0
 92
        0
 66
   257
 43
1.0
 76
     1
 77
     6
 78
     2
 67
     7
 79
     5
170
     0
171
     0
290
     0
174
     0
 93
       13
 44
0.0
173
     0
291
     1
 45
0.0
1001
ACAD
1000
AcDbSavedByObjectVersion
1070
     0
  0
VISUALSTYLE
  5
2D
102
{ACAD_REACTORS
330
2A
102
}
102
{ACAD_XDICTIONARY
360
3E4
102
}
330
2A
100
AcDbVisualStyle
  2
Gouraud
 70
     2
 71
     2
 72
     2
 73
     1
 90
        2
 40
-0.6
 41
30.0
 62
     5
 63
     7
421
 16777215
 74
     0
 91
        4
 64
     7
 65
   257
 75
     1
175
     1
 42
1.0
 92
        0
 66
     7
 43
1.0
 76
     1
 77
     6
 78
     2
 67
     7
 79
     5
170
     0
171
     0
290
     0
174
     0
 93
       13
 44
0.0
173
     0
291
     1
 45
0.0
1001
ACAD
1000
AcDbSavedByObjectVersion
1070
     0
  0
VISUALSTYLE
  5
2E
102
{ACAD_REACTORS
330
2A
102
}
102
{ACAD_XDICTIONARY
360
3E6
102
}
330
2A
100
AcDbVisualStyle
  2
GouraudWithEdges
 70
     3
 71
     2
 72
     2
 73
     1
 90
        2
 40
-0.6
 41
30.0
 62
     5
 63
     7
421
 16777215
 74
     1
 91
        4
 64
     7
 65
   257
 75
     1
175
     1
 42
1.0
 92
        0
 66
   257
 43
1.0
 76
     1
 77
     6
 78
     2
 67
     7
 79
     5
170
     0
171
     0
290
     0
174
     0
 93
       13
 44
0.0
173
     0
291
     1
 45
0.0
1001
ACAD
1000
AcDbSavedByObjectVersion
1070
     0
  0
VISUALSTYLE
  5
38
102
{ACAD_REACTORS
330
2A
102
}
102
{ACAD_XDICTIONARY
360
3FA
102
}
330
2A
100
AcDbVisualStyle
  2
Linepattern
 70
    14
 71
     2
 72
     2
 73
     0
 90
        0
 40
-0.6
 41
-30.0
 62
     5
 63
     7
421
 16777215
 74
     1
 91
        4
 64
     7
 65
   257
 75
     7
175
     7
 42
1.0
 92
        8
 66
     7
 43
1.0
 76
     1
 77
     6
 78
     2
 67
     7
 79
     5
170
     0
171
     0
290
     0
174
     0
 93
        1
 44
0.0
173
     0
291
     1
 45
0.0
1001
ACAD
1000
AcDbSavedByObjectVersion
1070
     0
  0
VISUALSTYLE
  5
33
102
{ACAD_REACTORS
330
2A
102
}
102
{ACAD_XDICTIONARY
360
3F0
102
}
330
2A
100
AcDbVisualStyle
  2
Realistic
 70
     8
 71
     2
 72
     2
 73
     0
 90
        0
 40
-0.6
 41
-30.0
 62
     5
 63
     7
421
 16777215
 74
     1
 91
        0
 64
     7
 65
   257
 75
     1
175
     1
 42
1.0
 92
        8
 66
     8
424
  7895160
 43
1.0
 76
     1
 77
     6
 78
     2
 67
     7
 79
     5
170
     0
171
     0
290
     0
174
     0
 93
       13
 44
0.0
173
     0
291
     0
 45
0.0
1001
ACAD
1000
AcDbSavedByObjectVersion
1070
     0
  0
VISUALSTYLE
  5
37
102
{ACAD_REACTORS
330
2A
102
}
102
{ACAD_XDICTIONARY
360
3F8
102
}
330
2A
100
AcDbVisualStyle
  2
Thicken
 70
    13
 71
     2
 72
     2
 73
     0
 90
        0
 40
-0.6
 41
-30.0
 62
     5
 63
     7
421
 16777215
 74
     1
 91
        4
 64
     7
 65
   257
 75
     1
175
     1
 42
1.0
 92
       12
 66
     7
 43
1.0
 76
     1
 77
     6
 78
     2
 67
     7
 79
     5
170
     0
171
     0
290
     0
174
     0
 93
        1
 44
0.0
173
     0
291
     1
 45
0.0
1001
ACAD
1000
AcDbSavedByObjectVersion
1070
     0
  0
DICTIONARY
  5
402
330
3D
100
AcDbDictionary
280
     1
281
     1
  3
ACAD_XREC_ROUNDTRIP
360
403
  0
DICTIONARY
  5
400
330
3C
100
AcDbDictionary
280
     1
281
     1
  3
ACAD_XREC_ROUNDTRIP
360
401
  0
DICTIONARY
  5
404
330
3E
100
AcDbDictionary
280
     1
281
     1
  3
ACAD_XREC_ROUNDTRIP
360
405
  0
DICTIONARY
  5
3E8
330
2F
100
AcDbDictionary
280
     1
281
     1
  3
ACAD_XREC_ROUNDTRIP
360
3E9
  0
DICTIONARY
  5
3EC
330
31
100
AcDbDictionary
280
     1
281
     1
  3
ACAD_XREC_ROUNDTRIP
360
3ED
  0
DICTIONARY
  5
3EA
330
30
100
AcDbDictionary
280
     1
281
     1
  3
ACAD_XREC_ROUNDTRIP
360
3EB
  0
DICTIONARY
  5
3EE
330
32
100
AcDbDictionary
280
     1
281
     1
  3
ACAD_XREC_ROUNDTRIP
360
3EF
  0
DICTIONARY
  5
3F6
330
36
100
AcDbDictionary
280
     1
281
     1
  3
ACAD_XREC_ROUNDTRIP
360
3F7
  0
DICTIONARY
  5
3FE
330
3A
100
AcDbDictionary
280
     1
281
     1
  3
ACAD_XREC_ROUNDTRIP
360
3FF
  0
DICTIONARY
  5
3F2
330
34
100
AcDbDictionary
280
     1
281
     1
  3
ACAD_XREC_ROUNDTRIP
360
3F3
  0
DICTIONARY
  5
3F4
330
35
100
AcDbDictionary
280
     1
281
     1
  3
ACAD_XREC_ROUNDTRIP
360
3F5
  0
DICTIONARY
  5
3FC
330
39
100
AcDbDictionary
280
     1
281
     1
  3
ACAD_XREC_ROUNDTRIP
360
3FD
  0
DICTIONARY
  5
3E0
330
2B
100
AcDbDictionary
280
     1
281
     1
  3
ACAD_XREC_ROUNDTRIP
360
3E1
  0
DICTIONARY
  5
3E2
330
2C
100
AcDbDictionary
280
     1
281
     1
  3
ACAD_XREC_ROUNDTRIP
360
3E3
  0
DICTIONARY
  5
3E4
330
2D
100
AcDbDictionary
280
     1
281
     1
  3
ACAD_XREC_ROUNDTRIP
360
3E5
  0
DICTIONARY
  5
3E6
330
2E
100
AcDbDictionary
280
     1
281
     1
  3
ACAD_XREC_ROUNDTRIP
360
3E7
  0
DICTIONARY
  5
3FA
330
38
100
AcDbDictionary
280
     1
281
     1
  3
ACAD_XREC_ROUNDTRIP
360
3FB
  0
DICTIONARY
  5
3F0
330
33
100
AcDbDictionary
280
     1
281
     1
  3
ACAD_XREC_ROUNDTRIP
360
3F1
  0
DICTIONARY
  5
3F8
330
37
100
AcDbDictionary
280
     1
281
     1
  3
ACAD_XREC_ROUNDTRIP
360
3F9
  0
XRECORD
  5
403
102
{ACAD_REACTORS
330
402
102
}
330
402
100
AcDbXrecord
280
     1
102
MATERIAL
148
0.0
149
0.0
149
0.0
 93
        0
 94
      127
282
     0
 72
     1
 77
     1
171
     1
175
     1
179
     1
273
     0
  0
XRECORD
  5
401
102
{ACAD_REACTORS
330
400
102
}
330
400
100
AcDbXrecord
280
     1
102
MATERIAL
148
0.0
149
0.0
149
0.0
 93
        0
 94
      127
282
     0
 72
     1
 77
     1
171
     1
175
     1
179
     1
273
     0
  0
XRECORD
  5
405
102
{ACAD_REACTORS
330
404
102
}
330
404
100
AcDbXrecord
280
     1
102
MATERIAL
148
0.0
149
0.0
149
0.0
 93
        0
 94
      127
282
     0
 72
     1
 77
     1
171
     1
175
     1
179
     1
273
     0
  0
XRECORD
  5
3E9
102
{ACAD_REACTORS
330
3E8
102
}
330
3E8
100
AcDbXrecord
280
     1
102
RTVSPropertyOp0
 70
     1
102
RTVSPropertyOp1
 70
     1
102
RTVSPropertyOp2
 70
     1
102
RTVSPropertyOp3
 70
     1
102
RTVSPropertyOp4
 70
     1
102
RTVSPropertyOp5
 70
     1
102
RTVSPropertyOp6
 70
     1
102
RTVSPropertyOp7
 70
     1
102
RTVSPropertyOp8
 70
     1
102
RTVSPropertyOp9
 70
     1
102
RTVSPropertyOp10
 70
     1
102
RTVSPropertyOp11
 70
     1
102
RTVSPropertyOp12
 70
     1
102
RTVSPropertyOp13
 70
     1
102
RTVSPropertyOp14
 70
     1
102
RTVSPropertyOp15
 70
     1
102
RTVSPropertyOp16
 70
     1
102
RTVSPropertyOp17
 70
     1
102
RTVSPropertyOp18
 70
     1
102
RTVSPropertyOp19
 70
     1
102
RTVSPropertyOp20
 70
     1
102
RTVSPropertyOp21
 70
     1
102
RTVSPropertyOp22
 70
     1
102
RTVSPropertyOp23
 70
     1
102
RTVSPropertyOp24
 70
     1
102
RTVSPropertyOp25
 70
     1
102
RTVSPropertyOp26
 70
     1
102
RTVSPropertyOp27
 70
     1
102
RTVSPropertyOp28
 70
     1
102
RTVSPropertyOp29
 70
     1
102
RTVSPropertyOp30
 70
     1
102
RTVSPropertyOp31
 70
     1
102
RTVSPropertyOp32
 70
     1
  0
XRECORD
  5
3ED
102
{ACAD_REACTORS
330
3EC
102
}
330
3EC
100
AcDbXrecord
280
     1
102
RTVSPropertyOp0
 70
     1
102
RTVSPropertyOp1
 70
     1
102
RTVSPropertyOp2
 70
     1
102
RTVSPropertyOp3
 70
     1
102
RTVSPropertyOp4
 70
     1
102
RTVSPropertyOp5
 70
     1
102
RTVSPropertyOp6
 70
     1
102
RTVSPropertyOp7
 70
     1
102
RTVSPropertyOp8
 70
     1
102
RTVSPropertyOp9
 70
     1
102
RTVSPropertyOp10
 70
     1
102
RTVSPropertyOp11
 70
     1
102
RTVSPropertyOp12
 70
     1
102
RTVSPropertyOp13
 70
     1
102
RTVSPropertyOp14
 70
     1
102
RTVSPropertyOp15
 70
     1
102
RTVSPropertyOp16
 70
     1
102
RTVSPropertyOp17
 70
     1
102
RTVSPropertyOp18
 70
     1
102
RTVSPropertyOp19
 70
     1
102
RTVSPropertyOp20
 70
     1
102
RTVSPropertyOp21
 70
     1
102
RTVSPropertyOp22
 70
     1
102
RTVSPropertyOp23
 70
     1
102
RTVSPropertyOp24
 70
     1
102
RTVSPropertyOp25
 70
     1
102
RTVSPropertyOp26
 70
     1
102
RTVSPropertyOp27
 70
     1
102
RTVSPropertyOp28
 70
     1
102
RTVSPropertyOp29
 70
     1
102
RTVSPropertyOp30
 70
     1
102
RTVSPropertyOp31
 70
     1
102
RTVSPropertyOp32
 70
     1
  0
XRECORD
  5
3EB
102
{ACAD_REACTORS
330
3EA
102
}
330
3EA
100
AcDbXrecord
280
     1
102
RTVSPropertyOp0
 70
     1
102
RTVSPropertyOp1
 70
     1
102
RTVSPropertyOp2
 70
     1
102
RTVSPropertyOp3
 70
     1
102
RTVSPropertyOp4
 70
     1
102
RTVSPropertyOp5
 70
     1
102
RTVSPropertyOp6
 70
     1
102
RTVSPropertyOp7
 70
     1
102
RTVSPropertyOp8
 70
     1
102
RTVSPropertyOp9
 70
     1
102
RTVSPropertyOp10
 70
     1
102
RTVSPropertyOp11
 70
     1
102
RTVSPropertyOp12
 70
     1
102
RTVSPropertyOp13
 70
     1
102
RTVSPropertyOp14
 70
     1
102
RTVSPropertyOp15
 70
     1
102
RTVSPropertyOp16
 70
     1
102
RTVSPropertyOp17
 70
     1
102
RTVSPropertyOp18
 70
     1
102
RTVSPropertyOp19
 70
     1
102
RTVSPropertyOp20
 70
     1
102
RTVSPropertyOp21
 70
     1
102
RTVSPropertyOp22
 70
     1
102
RTVSPropertyOp23
 70
     1
102
RTVSPropertyOp24
 70
     1
102
RTVSPropertyOp25
 70
     1
102
RTVSPropertyOp26
 70
     1
102
RTVSPropertyOp27
 70
     1
102
RTVSPropertyOp28
 70
     1
102
RTVSPropertyOp29
 70
     1
102
RTVSPropertyOp30
 70
     1
102
RTVSPropertyOp31
 70
     1
102
RTVSPropertyOp32
 70
     1
  0
XRECORD
  5
3EF
102
{ACAD_REACTORS
330
3EE
102
}
330
3EE
100
AcDbXrecord
280
     1
102
RTVSPropertyOp0
 70
     1
102
RTVSPropertyOp1
 70
     1
102
RTVSPropertyOp2
 70
     1
102
RTVSPropertyOp3
 70
     1
102
RTVSPropertyOp4
 70
     1
102
RTVSPropertyOp5
 70
     1
102
RTVSPropertyOp6
 70
     1
102
RTVSPropertyOp7
 70
     1
102
RTVSPropertyOp8
 70
     1
102
RTVSPropertyOp9
 70
     1
102
RTVSPropertyOp10
 70
     1
102
RTVSPropertyOp11
 70
     1
102
RTVSPropertyOp12
 70
     1
102
RTVSPropertyOp13
 70
     1
102
RTVSPropertyOp14
 70
     1
102
RTVSPropertyOp15
 70
     1
102
RTVSPropertyOp16
 70
     1
102
RTVSPropertyOp17
 70
     1
102
RTVSPropertyOp18
 70
     1
102
RTVSPropertyOp19
 70
     1
102
RTVSPropertyOp20
 70
     1
102
RTVSPropertyOp21
 70
     1
102
RTVSPropertyOp22
 70
     1
102
RTVSPropertyOp23
 70
     1
102
RTVSPropertyOp24
 70
     1
102
RTVSPropertyOp25
 70
     1
102
RTVSPropertyOp26
 70
     1
102
RTVSPropertyOp27
 70
     1
102
RTVSPropertyOp28
 70
     1
102
RTVSPropertyOp29
 70
     1
102
RTVSPropertyOp30
 70
     1
102
RTVSPropertyOp31
 70
     1
102
RTVSPropertyOp32
 70
     1
  0
XRECORD
  5
3F7
102
{ACAD_REACTORS
330
3F6
102
}
330
3F6
100
AcDbXrecord
280
     1
102
RTVSPropertyOp0
 70
     1
102
RTVSPropertyOp1
 70
     1
102
RTVSPropertyOp2
 70
     1
102
RTVSPropertyOp3
 70
     1
102
RTVSPropertyOp4
 70
     1
102
RTVSPropertyOp5
 70
     1
102
RTVSPropertyOp6
 70
     1
102
RTVSPropertyOp7
 70
     1
102
RTVSPropertyOp8
 70
     1
102
RTVSPropertyOp9
 70
     1
102
RTVSPropertyOp10
 70
     1
102
RTVSPropertyOp11
 70
     1
102
RTVSPropertyOp12
 70
     1
102
RTVSPropertyOp13
 70
     1
102
RTVSPropertyOp14
 70
     1
102
RTVSPropertyOp15
 70
     1
102
RTVSPropertyOp16
 70
     1
102
RTVSPropertyOp17
 70
     1
102
RTVSPropertyOp18
 70
     1
102
RTVSPropertyOp19
 70
     1
102
RTVSPropertyOp20
 70
     1
102
RTVSPropertyOp21
 70
     1
102
RTVSPropertyOp22
 70
     1
102
RTVSPropertyOp23
 70
     1
102
RTVSPropertyOp24
 70
     1
102
RTVSPropertyOp25
 70
     1
102
RTVSPropertyOp26
 70
     1
102
RTVSPropertyOp27
 70
     1
102
RTVSPropertyOp28
 70
     1
102
RTVSPropertyOp29
 70
     1
102
RTVSPropertyOp30
 70
     1
102
RTVSPropertyOp31
 70
     1
102
RTVSPropertyOp32
 70
     1
  0
XRECORD
  5
3FF
102
{ACAD_REACTORS
330
3FE
102
}
330
3FE
100
AcDbXrecord
280
     1
102
RTVSPropertyOp0
 70
     1
102
RTVSPropertyOp1
 70
     1
102
RTVSPropertyOp2
 70
     1
102
RTVSPropertyOp3
 70
     1
102
RTVSPropertyOp4
 70
     1
102
RTVSPropertyOp5
 70
     1
102
RTVSPropertyOp6
 70
     1
102
RTVSPropertyOp7
 70
     1
102
RTVSPropertyOp8
 70
     1
102
RTVSPropertyOp9
 70
     1
102
RTVSPropertyOp10
 70
     1
102
RTVSPropertyOp11
 70
     1
102
RTVSPropertyOp12
 70
     1
102
RTVSPropertyOp13
 70
     1
102
RTVSPropertyOp14
 70
     1
102
RTVSPropertyOp15
 70
     1
102
RTVSPropertyOp16
 70
     1
102
RTVSPropertyOp17
 70
     1
102
RTVSPropertyOp18
 70
     1
102
RTVSPropertyOp19
 70
     1
102
RTVSPropertyOp20
 70
     1
102
RTVSPropertyOp21
 70
     1
102
RTVSPropertyOp22
 70
     1
102
RTVSPropertyOp23
 70
     1
102
RTVSPropertyOp24
 70
     1
102
RTVSPropertyOp25
 70
     1
102
RTVSPropertyOp26
 70
     1
102
RTVSPropertyOp27
 70
     1
102
RTVSPropertyOp28
 70
     1
102
RTVSPropertyOp29
 70
     1
102
RTVSPropertyOp30
 70
     1
102
RTVSPropertyOp31
 70
     1
102
RTVSPropertyOp32
 70
     1
  0
XRECORD
  5
3F3
102
{ACAD_REACTORS
330
3F2
102
}
330
3F2
100
AcDbXrecord
280
     1
102
RTVSPropertyOp0
 70
     1
102
RTVSPropertyOp1
 70
     1
102
RTVSPropertyOp2
 70
     1
102
RTVSPropertyOp3
 70
     1
102
RTVSPropertyOp4
 70
     1
102
RTVSPropertyOp5
 70
     1
102
RTVSPropertyOp6
 70
     1
102
RTVSPropertyOp7
 70
     1
102
RTVSPropertyOp8
 70
     1
102
RTVSPropertyOp9
 70
     1
102
RTVSPropertyOp10
 70
     1
102
RTVSPropertyOp11
 70
     1
102
RTVSPropertyOp12
 70
     1
102
RTVSPropertyOp13
 70
     1
102
RTVSPropertyOp14
 70
     1
102
RTVSPropertyOp15
 70
     1
102
RTVSPropertyOp16
 70
     1
102
RTVSPropertyOp17
 70
     1
102
RTVSPropertyOp18
 70
     1
102
RTVSPropertyOp19
 70
     1
102
RTVSPropertyOp20
 70
     1
102
RTVSPropertyOp21
 70
     1
102
RTVSPropertyOp22
 70
     1
102
RTVSPropertyOp23
 70
     1
102
RTVSPropertyOp24
 70
     1
102
RTVSPropertyOp25
 70
     1
102
RTVSPropertyOp26
 70
     1
102
RTVSPropertyOp27
 70
     1
102
RTVSPropertyOp28
 70
     1
102
RTVSPropertyOp29
 70
     1
102
RTVSPropertyOp30
 70
     1
102
RTVSPropertyOp31
 70
     1
102
RTVSPropertyOp32
 70
     1
  0
XRECORD
  5
3F5
102
{ACAD_REACTORS
330
3F4
102
}
330
3F4
100
AcDbXrecord
280
     1
102
RTVSPropertyOp0
 70
     1
102
RTVSPropertyOp1
 70
     1
102
RTVSPropertyOp2
 70
     1
102
RTVSPropertyOp3
 70
     1
102
RTVSPropertyOp4
 70
     1
102
RTVSPropertyOp5
 70
     1
102
RTVSPropertyOp6
 70
     1
102
RTVSPropertyOp7
 70
     1
102
RTVSPropertyOp8
 70
     1
102
RTVSPropertyOp9
 70
     1
102
RTVSPropertyOp10
 70
     1
102
RTVSPropertyOp11
 70
     1
102
RTVSPropertyOp12
 70
     1
102
RTVSPropertyOp13
 70
     1
102
RTVSPropertyOp14
 70
     1
102
RTVSPropertyOp15
 70
     1
102
RTVSPropertyOp16
 70
     1
102
RTVSPropertyOp17
 70
     1
102
RTVSPropertyOp18
 70
     1
102
RTVSPropertyOp19
 70
     1
102
RTVSPropertyOp20
 70
     1
102
RTVSPropertyOp21
 70
     1
102
RTVSPropertyOp22
 70
     1
102
RTVSPropertyOp23
 70
     1
102
RTVSPropertyOp24
 70
     1
102
RTVSPropertyOp25
 70
     1
102
RTVSPropertyOp26
 70
     1
102
RTVSPropertyOp27
 70
     1
102
RTVSPropertyOp28
 70
     1
102
RTVSPropertyOp29
 70
     1
102
RTVSPropertyOp30
 70
     1
102
RTVSPropertyOp31
 70
     1
102
RTVSPropertyOp32
 70
     1
  0
XRECORD
  5
3FD
102
{ACAD_REACTORS
330
3FC
102
}
330
3FC
100
AcDbXrecord
280
     1
102
RTVSPropertyOp0
 70
     1
102
RTVSPropertyOp1
 70
     1
102
RTVSPropertyOp2
 70
     1
102
RTVSPropertyOp3
 70
     1
102
RTVSPropertyOp4
 70
     1
102
RTVSPropertyOp5
 70
     1
102
RTVSPropertyOp6
 70
     1
102
RTVSPropertyOp7
 70
     1
102
RTVSPropertyOp8
 70
     1
102
RTVSPropertyOp9
 70
     1
102
RTVSPropertyOp10
 70
     1
102
RTVSPropertyOp11
 70
     1
102
RTVSPropertyOp12
 70
     1
102
RTVSPropertyOp13
 70
     1
102
RTVSPropertyOp14
 70
     1
102
RTVSPropertyOp15
 70
     1
102
RTVSPropertyOp16
 70
     1
102
RTVSPropertyOp17
 70
     1
102
RTVSPropertyOp18
 70
     1
102
RTVSPropertyOp19
 70
     1
102
RTVSPropertyOp20
 70
     1
102
RTVSPropertyOp21
 70
     1
102
RTVSPropertyOp22
 70
     1
102
RTVSPropertyOp23
 70
     1
102
RTVSPropertyOp24
 70
     1
102
RTVSPropertyOp25
 70
     1
102
RTVSPropertyOp26
 70
     1
102
RTVSPropertyOp27
 70
     1
102
RTVSPropertyOp28
 70
     1
102
RTVSPropertyOp29
 70
     1
102
RTVSPropertyOp30
 70
     1
102
RTVSPropertyOp31
 70
     1
102
RTVSPropertyOp32
 70
     1
  0
XRECORD
  5
3E1
102
{ACAD_REACTORS
330
3E0
102
}
330
3E0
100
AcDbXrecord
280
     1
102
RTVSPropertyOp0
 70
     1
102
RTVSPropertyOp1
 70
     1
102
RTVSPropertyOp2
 70
     1
102
RTVSPropertyOp3
 70
     1
102
RTVSPropertyOp4
 70
     1
102
RTVSPropertyOp5
 70
     1
102
RTVSPropertyOp6
 70
     1
102
RTVSPropertyOp7
 70
     1
102
RTVSPropertyOp8
 70
     1
102
RTVSPropertyOp9
 70
     1
102
RTVSPropertyOp10
 70
     1
102
RTVSPropertyOp11
 70
     1
102
RTVSPropertyOp12
 70
     1
102
RTVSPropertyOp13
 70
     1
102
RTVSPropertyOp14
 70
     1
102
RTVSPropertyOp15
 70
     1
102
RTVSPropertyOp16
 70
     1
102
RTVSPropertyOp17
 70
     1
102
RTVSPropertyOp18
 70
     1
102
RTVSPropertyOp19
 70
     1
102
RTVSPropertyOp20
 70
     1
102
RTVSPropertyOp21
 70
     1
102
RTVSPropertyOp22
 70
     1
102
RTVSPropertyOp23
 70
     1
102
RTVSPropertyOp24
 70
     1
102
RTVSPropertyOp25
 70
     1
102
RTVSPropertyOp26
 70
     1
102
RTVSPropertyOp27
 70
     1
102
RTVSPropertyOp28
 70
     1
102
RTVSPropertyOp29
 70
     1
102
RTVSPropertyOp30
 70
     1
102
RTVSPropertyOp31
 70
     1
102
RTVSPropertyOp32
 70
     1
  0
XRECORD
  5
3E3
102
{ACAD_REACTORS
330
3E2
102
}
330
3E2
100
AcDbXrecord
280
     1
102
RTVSPropertyOp0
 70
     1
102
RTVSPropertyOp1
 70
     1
102
RTVSPropertyOp2
 70
     1
102
RTVSPropertyOp3
 70
     1
102
RTVSPropertyOp4
 70
     1
102
RTVSPropertyOp5
 70
     1
102
RTVSPropertyOp6
 70
     1
102
RTVSPropertyOp7
 70
     1
102
RTVSPropertyOp8
 70
     1
102
RTVSPropertyOp9
 70
     1
102
RTVSPropertyOp10
 70
     1
102
RTVSPropertyOp11
 70
     1
102
RTVSPropertyOp12
 70
     1
102
RTVSPropertyOp13
 70
     1
102
RTVSPropertyOp14
 70
     1
102
RTVSPropertyOp15
 70
     1
102
RTVSPropertyOp16
 70
     1
102
RTVSPropertyOp17
 70
     1
102
RTVSPropertyOp18
 70
     1
102
RTVSPropertyOp19
 70
     1
102
RTVSPropertyOp20
 70
     1
102
RTVSPropertyOp21
 70
     1
102
RTVSPropertyOp22
 70
     1
102
RTVSPropertyOp23
 70
     1
102
RTVSPropertyOp24
 70
     1
102
RTVSPropertyOp25
 70
     1
102
RTVSPropertyOp26
 70
     1
102
RTVSPropertyOp27
 70
     1
102
RTVSPropertyOp28
 70
     1
102
RTVSPropertyOp29
 70
     1
102
RTVSPropertyOp30
 70
     1
102
RTVSPropertyOp31
 70
     1
102
RTVSPropertyOp32
 70
     1
  0
XRECORD
  5
3E5
102
{ACAD_REACTORS
330
3E4
102
}
330
3E4
100
AcDbXrecord
280
     1
102
RTVSPropertyOp0
 70
     1
102
RTVSPropertyOp1
 70
     1
102
RTVSPropertyOp2
 70
     1
102
RTVSPropertyOp3
 70
     1
102
RTVSPropertyOp4
 70
     1
102
RTVSPropertyOp5
 70
     1
102
RTVSPropertyOp6
 70
     1
102
RTVSPropertyOp7
 70
     1
102
RTVSPropertyOp8
 70
     1
102
RTVSPropertyOp9
 70
     1
102
RTVSPropertyOp10
 70
     1
102
RTVSPropertyOp11
 70
     1
102
RTVSPropertyOp12
 70
     1
102
RTVSPropertyOp13
 70
     1
102
RTVSPropertyOp14
 70
     1
102
RTVSPropertyOp15
 70
     1
102
RTVSPropertyOp16
 70
     1
102
RTVSPropertyOp17
 70
     1
102
RTVSPropertyOp18
 70
     1
102
RTVSPropertyOp19
 70
     1
102
RTVSPropertyOp20
 70
     1
102
RTVSPropertyOp21
 70
     1
102
RTVSPropertyOp22
 70
     1
102
RTVSPropertyOp23
 70
     1
102
RTVSPropertyOp24
 70
     1
102
RTVSPropertyOp25
 70
     1
102
RTVSPropertyOp26
 70
     1
102
RTVSPropertyOp27
 70
     1
102
RTVSPropertyOp28
 70
     1
102
RTVSPropertyOp29
 70
     1
102
RTVSPropertyOp30
 70
     1
102
RTVSPropertyOp31
 70
     1
102
RTVSPropertyOp32
 70
     1
  0
XRECORD
  5
3E7
102
{ACAD_REACTORS
330
3E6
102
}
330
3E6
100
AcDbXrecord
280
     1
102
RTVSPropertyOp0
 70
     1
102
RTVSPropertyOp1
 70
     1
102
RTVSPropertyOp2
 70
     1
102
RTVSPropertyOp3
 70
     1
102
RTVSPropertyOp4
 70
     1
102
RTVSPropertyOp5
 70
     1
102
RTVSPropertyOp6
 70
     1
102
RTVSPropertyOp7
 70
     1
102
RTVSPropertyOp8
 70
     1
102
RTVSPropertyOp9
 70
     1
102
RTVSPropertyOp10
 70
     1
102
RTVSPropertyOp11
 70
     1
102
RTVSPropertyOp12
 70
     1
102
RTVSPropertyOp13
 70
     1
102
RTVSPropertyOp14
 70
     1
102
RTVSPropertyOp15
 70
     1
102
RTVSPropertyOp16
 70
     1
102
RTVSPropertyOp17
 70
     1
102
RTVSPropertyOp18
 70
     1
102
RTVSPropertyOp19
 70
     1
102
RTVSPropertyOp20
 70
     1
102
RTVSPropertyOp21
 70
     1
102
RTVSPropertyOp22
 70
     1
102
RTVSPropertyOp23
 70
     1
102
RTVSPropertyOp24
 70
     1
102
RTVSPropertyOp25
 70
     1
102
RTVSPropertyOp26
 70
     1
102
RTVSPropertyOp27
 70
     1
102
RTVSPropertyOp28
 70
     1
102
RTVSPropertyOp29
 70
     1
102
RTVSPropertyOp30
 70
     1
102
RTVSPropertyOp31
 70
     1
102
RTVSPropertyOp32
 70
     1
  0
XRECORD
  5
3FB
102
{ACAD_REACTORS
330
3FA
102
}
330
3FA
100
AcDbXrecord
280
     1
102
RTVSPropertyOp0
 70
     1
102
RTVSPropertyOp1
 70
     1
102
RTVSPropertyOp2
 70
     1
102
RTVSPropertyOp3
 70
     1
102
RTVSPropertyOp4
 70
     1
102
RTVSPropertyOp5
 70
     1
102
RTVSPropertyOp6
 70
     1
102
RTVSPropertyOp7
 70
     1
102
RTVSPropertyOp8
 70
     1
102
RTVSPropertyOp9
 70
     1
102
RTVSPropertyOp10
 70
     1
102
RTVSPropertyOp11
 70
     1
102
RTVSPropertyOp12
 70
     1
102
RTVSPropertyOp13
 70
     1
102
RTVSPropertyOp14
 70
     1
102
RTVSPropertyOp15
 70
     1
102
RTVSPropertyOp16
 70
     1
102
RTVSPropertyOp17
 70
     1
102
RTVSPropertyOp18
 70
     1
102
RTVSPropertyOp19
 70
     1
102
RTVSPropertyOp20
 70
     1
102
RTVSPropertyOp21
 70
     1
102
RTVSPropertyOp22
 70
     1
102
RTVSPropertyOp23
 70
     1
102
RTVSPropertyOp24
 70
     1
102
RTVSPropertyOp25
 70
     1
102
RTVSPropertyOp26
 70
     1
102
RTVSPropertyOp27
 70
     1
102
RTVSPropertyOp28
 70
     1
102
RTVSPropertyOp29
 70
     1
102
RTVSPropertyOp30
 70
     1
102
RTVSPropertyOp31
 70
     1
102
RTVSPropertyOp32
 70
     1
  0
XRECORD
  5
3F1
102
{ACAD_REACTORS
330
3F0
102
}
330
3F0
100
AcDbXrecord
280
     1
102
RTVSPropertyOp0
 70
     1
102
RTVSPropertyOp1
 70
     1
102
RTVSPropertyOp2
 70
     1
102
RTVSPropertyOp3
 70
     1
102
RTVSPropertyOp4
 70
     1
102
RTVSPropertyOp5
 70
     1
102
RTVSPropertyOp6
 70
     1
102
RTVSPropertyOp7
 70
     1
102
RTVSPropertyOp8
 70
     1
102
RTVSPropertyOp9
 70
     1
102
RTVSPropertyOp10
 70
     1
102
RTVSPropertyOp11
 70
     1
102
RTVSPropertyOp12
 70
     1
102
RTVSPropertyOp13
 70
     1
102
RTVSPropertyOp14
 70
     1
102
RTVSPropertyOp15
 70
     1
102
RTVSPropertyOp16
 70
     1
102
RTVSPropertyOp17
 70
     1
102
RTVSPropertyOp18
 70
     1
102
RTVSPropertyOp19
 70
     1
102
RTVSPropertyOp20
 70
     1
102
RTVSPropertyOp21
 70
     1
102
RTVSPropertyOp22
 70
     1
102
RTVSPropertyOp23
 70
     1
102
RTVSPropertyOp24
 70
     1
102
RTVSPropertyOp25
 70
     1
102
RTVSPropertyOp26
 70
     1
102
RTVSPropertyOp27
 70
     1
102
RTVSPropertyOp28
 70
     1
102
RTVSPropertyOp29
 70
     1
102
RTVSPropertyOp30
 70
     1
102
RTVSPropertyOp31
 70
     1
102
RTVSPropertyOp32
 70
     1
  0
XRECORD
  5
3F9
102
{ACAD_REACTORS
330
3F8
102
}
330
3F8
100
AcDbXrecord
280
     1
102
RTVSPropertyOp0
 70
     1
102
RTVSPropertyOp1
 70
     1
102
RTVSPropertyOp2
 70
     1
102
RTVSPropertyOp3
 70
     1
102
RTVSPropertyOp4
 70
     1
102
RTVSPropertyOp5
 70
     1
102
RTVSPropertyOp6
 70
     1
102
RTVSPropertyOp7
 70
     1
102
RTVSPropertyOp8
 70
     1
102
RTVSPropertyOp9
 70
     1
102
RTVSPropertyOp10
 70
     1
102
RTVSPropertyOp11
 70
     1
102
RTVSPropertyOp12
 70
     1
102
RTVSPropertyOp13
 70
     1
102
RTVSPropertyOp14
 70
     1
102
RTVSPropertyOp15
 70
     1
102
RTVSPropertyOp16
 70
     1
102
RTVSPropertyOp17
 70
     1
102
RTVSPropertyOp18
 70
     1
102
RTVSPropertyOp19
 70
     1
102
RTVSPropertyOp20
 70
     1
102
RTVSPropertyOp21
 70
     1
102
RTVSPropertyOp22
 70
     1
102
RTVSPropertyOp23
 70
     1
102
RTVSPropertyOp24
 70
     1
102
RTVSPropertyOp25
 70
     1
102
RTVSPropertyOp26
 70
     1
102
RTVSPropertyOp27
 70
     1
102
RTVSPropertyOp28
 70
     1
102
RTVSPropertyOp29
 70
     1
102
RTVSPropertyOp30
 70
     1
102
RTVSPropertyOp31
 70
     1
102
RTVSPropertyOp32
 70
     1
  0
ENDSEC
  0
EOF
