  0
SECTION
  2
HEADER
  9
$ACADVER
  1
AC1018
  9
$ACADMAINTVER
 70
     0
  9
$DWGCODEPAGE
  3
ANSI_1252
  9
$INSBASE
 10
0.0
 20
0.0
 30
0.0
  9
$EXTMIN
 10
-403.5059999999866
 20
-266.002999574687
 30
0.0
  9
$EXTMAX
 10
-106.5059999999885
 20
-56.00299957468701
 30
0.0
  9
$LIMMIN
 10
0.0
 20
0.0
  9
$LIMMAX
 10
12.0
 20
9.0
  9
$ORTHOMODE
 70
     0
  9
$REGENMODE
 70
     1
  9
$FILLMODE
 70
     1
  9
$QTEXTMODE
 70
     0
  9
$MIRRTEXT
 70
     1
  9
$LTSCALE
 40
1.0
  9
$ATTMODE
 70
     1
  9
$TEXTSIZE
 40
0.2
  9
$TRACEWID
 40
0.05
  9
$TEXTSTYLE
  7
Standard
  9
$CLAYER
  8
0
  9
$CELTYPE
  6
ByLayer
  9
$CECOLOR
 62
   256
  9
$CELTSCALE
 40
1.0
  9
$DISPSILH
 70
     0
  9
$DIMSCALE
 40
1.0
  9
$DIMASZ
 40
0.18
  9
$DIMEXO
 40
0.0625
  9
$DIMDLI
 40
0.38
  9
$DIMRND
 40
0.0
  9
$DIMDLE
 40
0.0
  9
$DIMEXE
 40
0.18
  9
$DIMTP
 40
0.0
  9
$DIMTM
 40
0.0
  9
$DIMTXT
 40
0.18
  9
$DIMCEN
 40
0.09
  9
$DIMTSZ
 40
0.0
  9
$DIMTOL
 70
     0
  9
$DIMLIM
 70
     0
  9
$DIMTIH
 70
     1
  9
$DIMTOH
 70
     1
  9
$DIMSE1
 70
     0
  9
$DIMSE2
 70
     0
  9
$DIMTAD
 70
     0
  9
$DIMZIN
 70
     0
  9
$DIMBLK
  1

  9
$DIMASO
 70
     1
  9
$DIMSHO
 70
     1
  9
$DIMPOST
  1

  9
$DIMAPOST
  1

  9
$DIMALT
 70
     0
  9
$DIMALTD
 70
     2
  9
$DIMALTF
 40
25.4
  9
$DIMLFAC
 40
1.0
  9
$DIMTOFL
 70
     0
  9
$DIMTVP
 40
0.0
  9
$DIMTIX
 70
     0
  9
$DIMSOXD
 70
     0
  9
$DIMSAH
 70
     0
  9
$DIMBLK1
  1

  9
$DIMBLK2
  1

  9
$DIMSTYLE
  2
Standard
  9
$DIMCLRD
 70
     0
  9
$DIMCLRE
 70
     0
  9
$DIMCLRT
 70
     0
  9
$DIMTFAC
 40
1.0
  9
$DIMGAP
 40
0.09
  9
$DIMJUST
 70
     0
  9
$DIMSD1
 70
     0
  9
$DIMSD2
 70
     0
  9
$DIMTOLJ
 70
     1
  9
$DIMTZIN
 70
     0
  9
$DIMALTZ
 70
     0
  9
$DIMALTTZ
 70
     0
  9
$DIMUPT
 70
     0
  9
$DIMDEC
 70
     4
  9
$DIMTDEC
 70
     4
  9
$DIMALTU
 70
     2
  9
$DIMALTTD
 70
     2
  9
$DIMTXSTY
  7
Standard
  9
$DIMAUNIT
 70
     0
  9
$DIMADEC
 70
     0
  9
$DIMALTRND
 40
0.0
  9
$DIMAZIN
 70
     0
  9
$DIMDSEP
 70
    46
  9
$DIMATFIT
 70
     3
  9
$DIMFRAC
 70
     0
  9
$DIMLDRBLK
  1

  9
$DIMLUNIT
 70
     2
  9
$DIMLWD
 70
    -2
  9
$DIMLWE
 70
    -2
  9
$DIMTMOVE
 70
     0
  9
$LUNITS
 70
     2
  9
$LUPREC
 70
     4
  9
$SKETCHINC
 40
0.1
  9
$FILLETRAD
 40
0.5
  9
$AUNITS
 70
     0
  9
$AUPREC
 70
     0
  9
$MENU
  1
.
  9
$ELEVATION
 40
0.0
  9
$PELEVATION
 40
0.0
  9
$THICKNESS
 40
0.0
  9
$LIMCHECK
 70
     0
  9
$CHAMFERA
 40
0.5
  9
$CHAMFERB
 40
0.5
  9
$CHAMFERC
 40
1.0
  9
$CHAMFERD
 40
0.0
  9
$SKPOLY
 70
     0
  9
$TDCREATE
 40
2458263.655357176
  9
$TDUCREATE
 40
2458263.572023842
  9
$TDUPDATE
 40
2458263.65535772
  9
$TDUUPDATE
 40
2458263.572024386
  9
$TDINDWG
 40
0.0000000116
  9
$TDUSRTIMER
 40
0.0000000116
  9
$USRTIMER
 70
     1
  9
$ANGBASE
 50
0.0
  9
$ANGDIR
 70
     0
  9
$PDMODE
 70
     0
  9
$PDSIZE
 40
0.0
  9
$PLINEWID
 40
0.0
  9
$SPLFRAME
 70
     0
  9
$SPLINETYPE
 70
     6
  9
$SPLINESEGS
 70
     8
  9
$HANDSEED
  5
408
  9
$SURFTAB1
 70
     6
  9
$SURFTAB2
 70
     6
  9
$SURFTYPE
 70
     6
  9
$SURFU
 70
     6
  9
$SURFV
 70
     6
  9
$UCSBASE
  2

  9
$UCSNAME
  2

  9
$UCSORG
 10
0.0
 20
0.0
 30
0.0
  9
$UCSXDIR
 10
1.0
 20
0.0
 30
0.0
  9
$UCSYDIR
 10
0.0
 20
1.0
 30
0.0
  9
$UCSORTHOREF
  2

  9
$UCSORTHOVIEW
 70
     0
  9
$UCSORGTOP
 10
0.0
 20
0.0
 30
0.0
  9
$UCSORGBOTTOM
 10
0.0
 20
0.0
 30
0.0
  9
$UCSORGLEFT
 10
0.0
 20
0.0
 30
0.0
  9
$UCSORGRIGHT
 10
0.0
 20
0.0
 30
0.0
  9
$UCSORGFRONT
 10
0.0
 20
0.0
 30
0.0
  9
$UCSORGBACK
 10
0.0
 20
0.0
 30
0.0
  9
$PUCSBASE
  2

  9
$PUCSNAME
  2

  9
$PUCSORG
 10
0.0
 20
0.0
 30
0.0
  9
$PUCSXDIR
 10
1.0
 20
0.0
 30
0.0
  9
$PUCSYDIR
 10
0.0
 20
1.0
 30
0.0
  9
$PUCSORTHOREF
  2

  9
$PUCSORTHOVIEW
 70
     0
  9
$PUCSORGTOP
 10
0.0
 20
0.0
 30
0.0
  9
$PUCSORGBOTTOM
 10
0.0
 20
0.0
 30
0.0
  9
$PUCSORGLEFT
 10
0.0
 20
0.0
 30
0.0
  9
$PUCSORGRIGHT
 10
0.0
 20
0.0
 30
0.0
  9
$PUCSORGFRONT
 10
0.0
 20
0.0
 30
0.0
  9
$PUCSORGBACK
 10
0.0
 20
0.0
 30
0.0
  9
$USERI1
 70
     0
  9
$USERI2
 70
     0
  9
$USERI3
 70
     0
  9
$USERI4
 70
     0
  9
$USERI5
 70
     0
  9
$USERR1
 40
18.1
  9
$USERR2
 40
0.0
  9
$USERR3
 40
0.0
  9
$USERR4
 40
0.0
  9
$USERR5
 40
0.0
  9
$WORLDVIEW
 70
     1
  9
$SHADEDGE
 70
     3
  9
$SHADEDIF
 70
    70
  9
$TILEMODE
 70
     1
  9
$MAXACTVP
 70
    64
  9
$PINSBASE
 10
0.0
 20
0.0
 30
0.0
  9
$PLIMCHECK
 70
     0
  9
$PEXTMIN
 10
1.00000000000000E+20
 20
1.00000000000000E+20
 30
1.00000000000000E+20
  9
$PEXTMAX
 10
-1.00000000000000E+20
 20
-1.00000000000000E+20
 30
-1.00000000000000E+20
  9
$PLIMMIN
 10
0.0
 20
0.0
  9
$PLIMMAX
 10
12.0
 20
9.0
  9
$UNITMODE
 70
     0
  9
$VISRETAIN
 70
     1
  9
$PLINEGEN
 70
     0
  9
$PSLTSCALE
 70
     1
  9
$TREEDEPTH
 70
  3020
  9
$CMLSTYLE
  2
Standard
  9
$CMLJUST
 70
     0
  9
$CMLSCALE
 40
1.0
  9
$PROXYGRAPHICS
 70
     1
  9
$MEASUREMENT
 70
     1
  9
$CELWEIGHT
370
    -1
  9
$ENDCAPS
280
     0
  9
$JOINSTYLE
280
     0
  9
$LWDISPLAY
290
     0
  9
$INSUNITS
 70
     4
  9
$HYPERLINKBASE
  1

  9
$STYLESHEET
  1

  9
$XEDIT
290
     1
  9
$CEPSNTYPE
380
     0
  9
$PSTYLEMODE
290
     1
  9
$FINGERPRINTGUID
  2
{7C1B817A-F0C3-47C4-A97C-7F8C7275AEAA}
  9
$VERSIONGUID
  2
{FAEB1C32-E019-11D5-929B-00C0DF256EC4}
  9
$EXTNAMES
290
     1
  9
$PSVPSCALE
 40
0.0
  9
$OLESTARTUP
290
     0
  9
$SORTENTS
280
   127
  9
$INDEXCTL
280
     0
  9
$HIDETEXT
280
     1
  9
$XCLIPFRAME
290
     0
  9
$HALOGAP
280
     0
  9
$OBSCOLOR
 70
   257
  9
$OBSLTYPE
280
     0
  9
$INTERSECTIONDISPLAY
280
     0
  9
$INTERSECTIONCOLOR
 70
   257
  9
$DIMASSOC
280
     2
  9
$PROJECTNAME
  1

  0
ENDSEC
  0
SECTION
  2
CLASSES
  0
CLASS
  1
ACDBDICTIONARYWDFLT
  2
AcDbDictionaryWithDefault
  3
ObjectDBX Classes
 90
        0
 91
        4
280
     0
281
     0
  0
CLASS
  1
VISUALSTYLE
  2
AcDbVisualStyle
  3
ObjectDBX Classes
 90
     4095
 91
        4
280
     0
281
     0
  0
CLASS
  1
MATERIAL
  2
AcDbMaterial
  3
ObjectDBX Classes
 90
     1153
 91
        4
280
     0
281
     0
  0
ENDSEC
  0
SECTION
  2
TABLES
  0
TABLE
  2
VPORT
  5
8
330
0
100
AcDbSymbolTable
 70
     1
  0
VPORT
  5
29
330
8
100
AcDbSymbolTableRecord
100
AcDbViewportTableRecord
  2
*Active
 70
     0
 10
0.0
 20
0.0
 11
1.0
 21
1.0
 12
-255.0059999999876
 22
-161.002999574687
 13
0.0
 23
0.0
 14
0.5
 24
0.5
 15
0.5
 25
0.5
 16
0.0
 26
0.0
 36
1.0
 17
0.0
 27
0.0
 37
0.0
 40
231.0
 41
1.60267857142857
 42
50.0
 43
0.0
 44
0.0
 50
0.0
 51
0.0
 71
     0
 72
   100
 73
     1
 74
     3
 75
     0
 76
     0
 77
     0
 78
     0
281
     0
 65
     1
110
0.0
120
0.0
130
0.0
111
1.0
121
0.0
131
0.0
112
0.0
122
1.0
132
0.0
 79
     0
146
0.0
  0
ENDTAB
  0
TABLE
  2
LTYPE
  5
5
330
0
100
AcDbSymbolTable
 70
     8
  0
LTYPE
  5
14
330
5
100
AcDbSymbolTableRecord
100
AcDbLinetypeTableRecord
  2
ByBlock
 70
     0
  3

 72
    65
 73
     0
 40
0.0
  0
LTYPE
  5
15
330
5
100
AcDbSymbolTableRecord
100
AcDbLinetypeTableRecord
  2
ByLayer
 70
     0
  3

 72
    65
 73
     0
 40
0.0
  0
LTYPE
  5
16
330
5
100
AcDbSymbolTableRecord
100
AcDbLinetypeTableRecord
  2
Continuous
 70
     0
  3
Solid line
 72
    65
 73
     0
 40
0.0
  0
LTYPE
  5
3F
330
5
100
AcDbSymbolTableRecord
100
AcDbLinetypeTableRecord
  2
DASHED
 70
     0
  3
Dashed
 72
    65
 73
     2
 40
15.0
 49
7.0
 74
     0
 49
-8.0
 74
     0
  0
LTYPE
  5
40
330
5
100
AcDbSymbolTableRecord
100
AcDbLinetypeTableRecord
  2
DOTTED
 70
     0
  3
Dotted
 72
    65
 73
     2
 40
1.0
 49
0.0
 74
     0
 49
-1.0
 74
     0
  0
LTYPE
  5
41
330
5
100
AcDbSymbolTableRecord
100
AcDbLinetypeTableRecord
  2
DOT_CENTER
 70
     0
  3
Dot_Center
 72
    65
 73
     4
 40
14.0
 49
12.0
 74
     0
 49
-1.0
 74
     0
 49
0.0
 74
     0
 49
-1.0
 74
     0
  0
LTYPE
  5
42
330
5
100
AcDbSymbolTableRecord
100
AcDbLinetypeTableRecord
  2
LONG_DASHED
 70
     0
  3
Long_Dashed
 72
    65
 73
     2
 40
15.0
 49
10.0
 74
     0
 49
-5.0
 74
     0
  0
LTYPE
  5
43
330
5
100
AcDbSymbolTableRecord
100
AcDbLinetypeTableRecord
  2
DASH_CENTER
 70
     0
  3
Dash_Center
 72
    65
 73
     4
 40
14.0
 49
11.0
 74
     0
 49
-1.0
 74
     0
 49
1.0
 74
     0
 49
-1.0
 74
     0
  0
LTYPE
  5
44
330
5
100
AcDbSymbolTableRecord
100
AcDbLinetypeTableRecord
  2
PHANTOM
 70
     0
  3
Phantom
 72
    65
 73
     6
 40
13.0
 49
10.0
 74
     0
 49
-1.0
 74
     0
 49
0.0
 74
     0
 49
-1.0
 74
     0
 49
0.0
 74
     0
 49
-1.0
 74
     0
  0
LTYPE
  5
45
330
5
100
AcDbSymbolTableRecord
100
AcDbLinetypeTableRecord
  2
CENTER_DASH_DASH
 70
     0
  3
Center_Dash_Dash
 72
    65
 73
     6
 40
14.0
 49
9.0
 74
     0
 49
-1.0
 74
     0
 49
1.0
 74
     0
 49
-1.0
 74
     0
 49
1.0
 74
     0
 49
-1.0
 74
     0
  0
ENDTAB
  0
TABLE
  2
LAYER
  5
2
330
0
100
AcDbSymbolTable
 70
     2
  0
LAYER
  5
10
330
2
100
AcDbSymbolTableRecord
100
AcDbLayerTableRecord
  2
0
 70
     0
 62
     7
  6
Continuous
370
    -3
390
F
  0
LAYER
  5
46
330
2
100
AcDbSymbolTableRecord
100
AcDbLayerTableRecord
  2
1
 70
     0
 62
     7
  6
Continuous
370
    -3
390
F
  0
ENDTAB
  0
TABLE
  2
STYLE
  5
3
330
0
100
AcDbSymbolTable
 70
     5
  0
STYLE
  5
11
330
3
100
AcDbSymbolTableRecord
100
AcDbTextStyleTableRecord
  2
Standard
 70
     0
 40
0.0
 41
1.0
 50
0.0
 71
     0
 42
0.2
  3
txt
  4

  0
STYLE
  5
F4
330
3
100
AcDbSymbolTableRecord
100
AcDbTextStyleTableRecord
  2
CONVERTER_11
 70
     0
 40
0.0
 41
0.9
 50
0.0
 71
     0
 42
0.2
  3
txt.shx
  4

  0
STYLE
  5
3A3
330
3
100
AcDbSymbolTableRecord
100
AcDbTextStyleTableRecord
  2
CONVERTER_12
 70
     0
 40
0.0
 41
0.81
 50
0.0
 71
     0
 42
0.2
  3
txt.shx
  4

  0
STYLE
  5
3B9
330
3
100
AcDbSymbolTableRecord
100
AcDbTextStyleTableRecord
  2
CONVERTER_13
 70
     0
 40
0.0
 41
0.72
 50
0.0
 71
     0
 42
0.2
  3
txt.shx
  4

  0
STYLE
  5
3BC
330
3
100
AcDbSymbolTableRecord
100
AcDbTextStyleTableRecord
  2
CONVERTER_14
 70
     0
 40
0.0
 41
0.855
 50
0.0
 71
     0
 42
0.2
  3
txt.shx
  4

  0
ENDTAB
  0
TABLE
  2
VIEW
  5
6
330
0
100
AcDbSymbolTable
 70
     0
  0
ENDTAB
  0
TABLE
  2
UCS
  5
7
330
0
100
AcDbSymbolTable
 70
     0
  0
ENDTAB
  0
TABLE
  2
APPID
  5
9
330
0
100
AcDbSymbolTable
 70
     1
  0
APPID
  5
12
330
9
100
AcDbSymbolTableRecord
100
AcDbRegAppTableRecord
  2
ACAD
 70
     0
  0
ENDTAB
  0
TABLE
  2
DIMSTYLE
  5
A
330
0
100
AcDbSymbolTable
 70
     3
100
AcDbDimStyleTable
  0
DIMSTYLE
105
27
330
A
100
AcDbSymbolTableRecord
100
AcDbDimStyleTableRecord
  2
Standard
 70
     0
178
     0
340
11
  0
DIMSTYLE
105
29A
102
{ACAD_REACTORS
330
29B
102
}
330
A
100
AcDbSymbolTableRecord
100
AcDbDimStyleTableRecord
  2
ME10_DIM_10
 70
     0
  3
{\Fgdt;n}<>
 41
3.5
 42
0.0
 44
1.5
 73
     0
 74
     0
 77
     1
 78
     8
140
3.5
147
1.5
172
     1
173
     1
174
     1
175
     1
176
     2
177
     2
271
     2
178
     3
271
     2
340
F4
  0
DIMSTYLE
105
2A5
102
{ACAD_REACTORS
330
2A6
102
}
330
A
100
AcDbSymbolTableRecord
100
AcDbDimStyleTableRecord
  2
ME10_DIM_11
 70
     0
 41
3.5
 42
0.0
 44
1.5
 73
     0
 74
     0
 77
     1
 78
     8
140
3.5
147
1.5
172
     1
173
     1
174
     1
175
     1
176
     2
177
     2
271
     2
178
     3
271
     2
340
F4
  0
ENDTAB
  0
TABLE
  2
BLOCK_RECORD
  5
1
330
0
100
AcDbSymbolTable
 70
    19
  0
BLOCK_RECORD
  5
1F
330
1
100
AcDbSymbolTableRecord
100
AcDbBlockTableRecord
  2
*Model_Space
340
22
  0
BLOCK_RECORD
  5
1B
330
1
100
AcDbSymbolTableRecord
100
AcDbBlockTableRecord
  2
*Paper_Space
340
1E
  0
BLOCK_RECORD
  5
23
330
1
100
AcDbSymbolTableRecord
100
AcDbBlockTableRecord
  2
*Paper_Space0
340
26
  0
BLOCK_RECORD
  5
47
330
1
100
AcDbSymbolTableRecord
100
AcDbBlockTableRecord
  2
G_INS_M20_M68L_PEPDS_LG-select__1
340
0
102
{BLKREFS
331
4B
102
}
  0
BLOCK_RECORD
  5
4A
330
1
100
AcDbSymbolTableRecord
100
AcDbBlockTableRecord
  2
Allg1
340
0
102
{BLKREFS
331
7D
102
}
  0
BLOCK_RECORD
  5
4E
330
1
100
AcDbSymbolTableRecord
100
AcDbBlockTableRecord
  2
G_INS_M20_M68L_PEPDS_LG-select__2
340
0
102
{BLKREFS
331
52
102
}
  0
BLOCK_RECORD
  5
51
330
1
100
AcDbSymbolTableRecord
100
AcDbBlockTableRecord
  2
Drfsicht1
340
0
102
{BLKREFS
331
7E
102
}
  0
BLOCK_RECORD
  5
55
330
1
100
AcDbSymbolTableRecord
100
AcDbBlockTableRecord
  2
G_INS_M20_M68L_PEPDS_LG-select__3
340
0
102
{BLKREFS
331
59
102
}
  0
BLOCK_RECORD
  5
58
330
1
100
AcDbSymbolTableRecord
100
AcDbBlockTableRecord
  2
Rckans1
340
0
102
{BLKREFS
331
7F
102
}
  0
BLOCK_RECORD
  5
5C
330
1
100
AcDbSymbolTableRecord
100
AcDbBlockTableRecord
  2
G_INS_M20_M68L_PEPDS_LG-select__4
340
0
102
{BLKREFS
331
60
102
}
  0
BLOCK_RECORD
  5
5F
330
1
100
AcDbSymbolTableRecord
100
AcDbBlockTableRecord
  2
SA_Links1
340
0
102
{BLKREFS
331
80
102
}
  0
BLOCK_RECORD
  5
63
330
1
100
AcDbSymbolTableRecord
100
AcDbBlockTableRecord
  2
G_INS_M20_M68L_PEPDS_LG-select__5
340
0
102
{BLKREFS
331
67
102
}
  0
BLOCK_RECORD
  5
66
330
1
100
AcDbSymbolTableRecord
100
AcDbBlockTableRecord
  2
SA_Rechts1
340
0
102
{BLKREFS
331
81
102
}
  0
BLOCK_RECORD
  5
6A
330
1
100
AcDbSymbolTableRecord
100
AcDbBlockTableRecord
  2
G_INS_M20_M68L_PEPDS_LG-select__6
340
0
102
{BLKREFS
331
6E
102
}
  0
BLOCK_RECORD
  5
6D
330
1
100
AcDbSymbolTableRecord
100
AcDbBlockTableRecord
  2
Vordans1
340
0
102
{BLKREFS
331
82
102
}
  0
BLOCK_RECORD
  5
71
330
1
100
AcDbSymbolTableRecord
100
AcDbBlockTableRecord
  2
_rahmen
340
0
102
{BLKREFS
331
78
102
}
  0
BLOCK_RECORD
  5
74
330
1
100
AcDbSymbolTableRecord
100
AcDbBlockTableRecord
  2
_punkt
340
0
102
{BLKREFS
331
79
102
}
  0
BLOCK_RECORD
  5
77
330
1
100
AcDbSymbolTableRecord
100
AcDbBlockTableRecord
  2
A4I_CS
340
0
102
{BLKREFS
331
83
102
}
  0
BLOCK_RECORD
  5
7C
330
1
100
AcDbSymbolTableRecord
100
AcDbBlockTableRecord
  2
1
340
0
102
{BLKREFS
331
86
102
}
  0
BLOCK_RECORD
  5
291
330
1
100
AcDbSymbolTableRecord
100
AcDbBlockTableRecord
  2
*D17
340
0
  0
BLOCK_RECORD
  5
29C
330
1
100
AcDbSymbolTableRecord
100
AcDbBlockTableRecord
  2
*D18
340
0
  0
ENDTAB
  0
ENDSEC
  0
SECTION
  2
BLOCKS
  0
BLOCK
  5
20
330
1F
100
AcDbEntity
  8
0
100
AcDbBlockBegin
  2
*Model_Space
 70
     0
 10
0.0
 20
0.0
 30
0.0
  3
*Model_Space
  1

  0
ENDBLK
  5
21
330
1F
100
AcDbEntity
  8
0
100
AcDbBlockEnd
  0
BLOCK
  5
1C
330
1B
100
AcDbEntity
 67
     1
  8
0
100
AcDbBlockBegin
  2
*Paper_Space
 70
     0
 10
0.0
 20
0.0
 30
0.0
  3
*Paper_Space
  1

  0
ENDBLK
  5
1D
330
1B
100
AcDbEntity
 67
     1
  8
0
100
AcDbBlockEnd
  0
BLOCK
  5
24
330
23
100
AcDbEntity
  8
0
100
AcDbBlockBegin
  2
*Paper_Space0
 70
     0
 10
0.0
 20
0.0
 30
0.0
  3
*Paper_Space0
  1

  0
ENDBLK
  5
25
330
23
100
AcDbEntity
  8
0
100
AcDbBlockEnd
  0
BLOCK
  5
48
330
47
100
AcDbEntity
  8
0
100
AcDbBlockBegin
  2
G_INS_M20_M68L_PEPDS_LG-select__1
 70
     0
 10
-161.2439999999783
 20
-212.8095822561505
 30
0.0
  3
G_INS_M20_M68L_PEPDS_LG-select__1
  1

  0
LINE
  5
87
330
47
100
AcDbEntity
  8
0
  6
Continuous
 62
     7
100
AcDbLine
 10
-158.9939999999783
 20
-189.8091949105175
 30
0.0
 11
-158.9939999999783
 21
-185.9322208399942
 31
0.0
  0
LINE
  5
88
330
47
100
AcDbEntity
  8
0
  6
Continuous
 62
     7
100
AcDbLine
 10
-161.2439999999783
 20
-194.7168305308207
 30
0.0
 11
-161.2439999999783
 21
-189.9796715721199
 31
0.0
  0
LINE
  5
89
330
47
100
AcDbEntity
  8
0
  6
Continuous
 62
     7
100
AcDbLine
 10
-160.6363048453916
 20
-194.3826327262507
 30
0.0
 11
-158.9042540378227
 21
-193.8826327262507
 31
0.0
  0
LINE
  5
8A
330
47
100
AcDbEntity
  8
0
  6
Continuous
 62
     7
100
AcDbLine
 10
-161.1953304771654
 20
-190.5469840151227
 30
0.0
 11
-161.1953304771721
 21
-194.7645277315465
 31
0.0
  0
LINE
  5
8B
330
47
100
AcDbEntity
  8
0
  6
Continuous
 62
     7
100
AcDbLine
 10
-160.6363048453916
 20
-194.3826327262507
 30
0.0
 11
-160.6363048453916
 21
-191.7845565148973
 31
0.0
  0
LINE
  5
8C
330
47
100
AcDbEntity
  8
0
  6
Continuous
 62
     7
100
AcDbLine
 10
-158.9042540378227
 20
-193.8826327262507
 30
0.0
 11
-158.9042540378227
 21
-193.2845565148973
 31
0.0
  0
LINE
  5
8D
330
47
100
AcDbEntity
  8
0
  6
Continuous
 62
     7
100
AcDbLine
 10
-160.6363048453916
 20
-191.7845565148973
 30
0.0
 11
-156.1363048453916
 21
-195.6816708319273
 31
0.0
  0
LINE
  5
8E
330
47
100
AcDbEntity
  8
0
  6
Continuous
 62
     7
100
AcDbLine
 10
-161.2439999999783
 20
-183.458500281623
 30
0.0
 11
-161.2439999999783
 21
-172.2001700324253
 31
0.0
  0
LINE
  5
8F
330
47
100
AcDbEntity
  8
0
  6
Continuous
 62
     7
100
AcDbLine
 10
-155.5772792136111
 20
-177.6328575894289
 30
0.0
 11
-155.5772792136111
 21
-188.8911878386266
 31
0.0
  0
LINE
  5
90
330
47
100
AcDbEntity
  8
0
  6
Continuous
 62
     7
100
AcDbLine
 10
-142.3759487364172
 20
-189.458500281623
 30
0.0
 11
-153.6120512635394
 21
-189.458500281623
 31
0.0
  0
LINE
  5
91
330
47
100
AcDbEntity
  8
0
  6
Continuous
 62
     7
100
AcDbLine
 10
-153.6120512635394
 20
-178.2001700324253
 30
0.0
 11
-153.6120512635394
 21
-189.458500281623
 31
0.0
  0
LINE
  5
92
330
47
100
AcDbEntity
  8
0
  6
Continuous
 62
     7
100
AcDbLine
 10
-142.3759487364173
 20
-178.2001700324253
 30
0.0
 11
-142.3759487364172
 21
-189.458500281623
 31
0.0
  0
LINE
  5
93
330
47
100
AcDbEntity
  8
0
  6
Continuous
 62
     7
100
AcDbLine
 10
-140.4107207863365
 20
-195.4123591291162
 30
0.0
 11
-140.4107207863456
 21
-199.6299028455536
 31
0.0
  0
LINE
  5
94
330
47
100
AcDbEntity
  8
0
  6
Continuous
 62
     7
100
AcDbLine
 10
-143.4939999999783
 20
-198.3311898847657
 30
0.0
 11
-143.4939999999783
 21
-199.3311898847656
 31
0.0
  0
LINE
  5
95
330
47
100
AcDbEntity
  8
0
  6
Continuous
 62
     7
100
AcDbLine
 10
-143.4939999999783
 20
-196.7331136734123
 30
0.0
 11
-143.4939999999783
 21
-198.3311898847657
 31
0.0
  0
LINE
  5
96
330
47
100
AcDbEntity
  8
0
  6
Continuous
 62
     7
100
AcDbLine
 10
-142.3759487364173
 20
-195.9796715721199
 30
0.0
 11
-142.3759487364173
 21
-200.1972152885501
 31
0.0
  0
LINE
  5
97
330
47
100
AcDbEntity
  8
0
  6
Continuous
 62
     7
100
AcDbLine
 10
-140.4107207863457
 20
-177.6328575894289
 30
0.0
 11
-140.4107207863456
 21
-188.8911878386266
 31
0.0
  0
LINE
  5
98
330
47
100
AcDbEntity
  8
0
  6
Continuous
 62
     7
100
AcDbLine
 10
-156.1363048453916
 20
-196.2797470432806
 30
0.0
 11
-158.9042540378227
 21
-193.8826327262507
 31
0.0
  0
LINE
  5
99
330
47
100
AcDbEntity
  8
0
  6
Continuous
 62
     7
100
AcDbLine
 10
-134.7439999999783
 20
-183.458500281623
 30
0.0
 11
-134.7439999999783
 21
-172.2001700324253
 31
0.0
  0
LINE
  5
9A
330
47
100
AcDbEntity
  8
0
  6
Continuous
 62
     7
100
AcDbLine
 10
-136.9939999999783
 20
-189.8091949105175
 30
0.0
 11
-136.9939999999783
 21
-185.9322208399942
 31
0.0
  0
LINE
  5
9B
330
47
100
AcDbEntity
  8
0
  6
Continuous
 62
     7
100
AcDbLine
 10
-135.9939999999783
 20
-171.3341446286409
 30
0.0
 11
-135.9939999999783
 21
-169.8619014422073
 31
0.0
  0
LINE
  5
9C
330
47
100
AcDbEntity
  8
0
  6
Continuous
 62
     7
100
AcDbLine
 10
-134.7926695227845
 20
-172.7674824754218
 30
0.0
 11
-134.7926695227845
 21
-184.0258127246195
 31
0.0
  0
LINE
  5
9D
330
47
100
AcDbEntity
  8
0
  6
Continuous
 62
     7
100
AcDbLine
 10
-135.3516951545651
 20
-194.3826327262507
 30
0.0
 11
-139.8516951545651
 21
-198.2797470432806
 31
0.0
  0
LINE
  5
9E
330
47
100
AcDbEntity
  8
0
  6
Continuous
 62
     7
100
AcDbLine
 10
-135.3516951545651
 20
-194.3826327262507
 30
0.0
 11
-137.083745962134
 21
-193.8826327262507
 31
0.0
  0
LINE
  5
9F
330
47
100
AcDbEntity
  8
0
  6
Continuous
 62
     7
100
AcDbLine
 10
-137.083745962134
 20
-193.2845565148973
 30
0.0
 11
-137.083745962134
 21
-193.8826327262507
 31
0.0
  0
LINE
  5
A0
330
47
100
AcDbEntity
  8
0
  6
Continuous
 62
     7
100
AcDbLine
 10
-135.3516951545651
 20
-191.7845565148973
 30
0.0
 11
-135.3516951545651
 21
-194.3826327262507
 31
0.0
  0
LINE
  5
A1
330
47
100
AcDbEntity
  8
0
  6
Continuous
 62
     7
100
AcDbLine
 10
-139.8516951545651
 20
-195.6816708319273
 30
0.0
 11
-135.3516951545651
 21
-191.7845565148973
 31
0.0
  0
LINE
  5
A2
330
47
100
AcDbEntity
  8
0
  6
Continuous
 62
     7
100
AcDbLine
 10
-137.083745962134
 20
-193.8826327262507
 30
0.0
 11
-139.8516951545651
 21
-196.2797470432806
 31
0.0
  0
LINE
  5
A3
330
47
100
AcDbEntity
  8
0
  6
Continuous
 62
     7
100
AcDbLine
 10
-134.7926695227845
 20
-190.5469840151163
 30
0.0
 11
-134.7926695227845
 21
-194.7645277315465
 31
0.0
  0
LINE
  5
A4
330
47
100
AcDbEntity
  8
0
  6
Continuous
 62
     7
100
AcDbLine
 10
-134.7439999999783
 20
-194.7168305308207
 30
0.0
 11
-134.7439999999783
 21
-189.9796715721199
 31
0.0
  0
LINE
  5
A5
330
47
100
AcDbEntity
  8
0
  6
Continuous
 62
     7
100
AcDbLine
 10
-134.7926695227845
 20
-184.0258127246195
 30
0.0
 11
-140.4107207863456
 21
-188.8911878386266
 31
0.0
  0
LINE
  5
A6
330
47
100
AcDbEntity
  8
0
  6
Continuous
 62
     7
100
AcDbLine
 10
-140.4107207863456
 20
-199.6299028455536
 30
0.0
 11
-134.7926695227845
 21
-194.7645277315465
 31
0.0
  0
LINE
  5
A7
330
47
100
AcDbEntity
  8
0
  6
Continuous
 62
     7
100
AcDbLine
 10
-140.5924584938684
 20
-210.7570643845815
 30
0.0
 11
-139.829034190701
 21
-210.2172418828892
 31
0.0
  0
LINE
  5
A8
330
47
100
AcDbEntity
  8
0
  6
Continuous
 62
     7
100
AcDbLine
 10
-137.9939999999783
 20
-207.3304905369411
 30
0.0
 11
-137.9939999999783
 21
-199.063166256321
 31
0.0
  0
LINE
  5
A9
330
47
100
AcDbEntity
  8
0
  6
Continuous
 62
     7
100
AcDbLine
 10
-139.8516951545651
 20
-198.2797470432806
 30
0.0
 11
-139.8516951545651
 21
-195.6816708319273
 31
0.0
  0
LINE
  5
AA
330
47
100
AcDbEntity
  8
0
  6
Continuous
 62
     7
100
AcDbLine
 10
-143.4939999999783
 20
-198.3311898847657
 30
0.0
 11
-152.4939999999783
 21
-198.3311898847656
 31
0.0
  0
LINE
  5
AB
330
47
100
AcDbEntity
  8
0
  6
Continuous
 62
     7
100
AcDbLine
 10
-152.4939999999783
 20
-196.7331136734123
 30
0.0
 11
-143.4939999999783
 21
-196.7331136734123
 31
0.0
  0
LINE
  5
AC
330
47
100
AcDbEntity
  8
0
  6
Continuous
 62
     7
100
AcDbLine
 10
-143.4939999999783
 20
-199.3311898847656
 30
0.0
 11
-152.4939999999783
 21
-199.3311898847657
 31
0.0
  0
LINE
  5
AD
330
47
100
AcDbEntity
  8
0
  6
Continuous
 62
     7
100
AcDbLine
 10
-153.6120512635394
 20
-200.1972152885501
 30
0.0
 11
-142.3759487364173
 21
-200.1972152885501
 31
0.0
  0
LINE
  5
AE
330
47
100
AcDbEntity
  8
0
  6
Continuous
 62
     7
100
AcDbLine
 10
-159.9939999999783
 20
-171.3341446286409
 30
0.0
 11
-159.9939999999783
 21
-169.8619014422073
 31
0.0
  0
LINE
  5
AF
330
47
100
AcDbEntity
  8
0
  6
Continuous
 62
     7
100
AcDbLine
 10
-161.1953304771721
 20
-172.7674824754218
 30
0.0
 11
-161.1953304771721
 21
-184.0258127246195
 31
0.0
  0
LINE
  5
B0
330
47
100
AcDbEntity
  8
0
  6
Continuous
 62
     7
100
AcDbLine
 10
-155.5772792136111
 20
-188.8911878386266
 30
0.0
 11
-161.1953304771721
 21
-184.0258127246195
 31
0.0
  0
LINE
  5
B1
330
47
100
AcDbEntity
  8
0
  6
Continuous
 62
     7
100
AcDbLine
 10
-155.3955415060882
 20
-210.7570643845815
 30
0.0
 11
-156.1589658092556
 21
-210.2172418828892
 31
0.0
  0
LINE
  5
B2
330
47
100
AcDbEntity
  8
0
  6
Continuous
 62
     7
100
AcDbLine
 10
-157.9939999999783
 20
-207.3304905369411
 30
0.0
 11
-157.9939999999783
 21
-199.0631644398402
 31
0.0
  0
LINE
  5
B3
330
47
100
AcDbEntity
  8
0
  6
Continuous
 62
     7
100
AcDbLine
 10
-156.1363048453916
 20
-195.6816708319273
 30
0.0
 11
-156.1363048453916
 21
-198.2797470432806
 31
0.0
  0
LINE
  5
B4
330
47
100
AcDbEntity
  8
0
  6
Continuous
 62
     7
100
AcDbLine
 10
-152.4939999999783
 20
-199.3311898847657
 30
0.0
 11
-152.4939999999783
 21
-198.3311898847656
 31
0.0
  0
LINE
  5
B5
330
47
100
AcDbEntity
  8
0
  6
Continuous
 62
     7
100
AcDbLine
 10
-152.4939999999783
 20
-198.3311898847656
 30
0.0
 11
-152.4939999999783
 21
-196.7331136734123
 31
0.0
  0
LINE
  5
B6
330
47
100
AcDbEntity
  8
0
  6
Continuous
 62
     7
100
AcDbLine
 10
-153.6120512635237
 20
-195.9796715721197
 30
0.0
 11
-153.6120512635394
 21
-200.1972152885501
 31
0.0
  0
LINE
  5
B7
330
47
100
AcDbEntity
  8
0
  6
Continuous
 62
     7
100
AcDbLine
 10
-155.5772792136111
 20
-195.4123591291234
 30
0.0
 11
-155.5772792136111
 21
-199.6299028455536
 31
0.0
  0
LINE
  5
B8
330
47
100
AcDbEntity
  8
0
  6
Continuous
 62
     7
100
AcDbLine
 10
-156.1363048453916
 20
-198.2797470432806
 30
0.0
 11
-160.6363048453916
 21
-194.3826327262507
 31
0.0
  0
LINE
  5
B9
330
47
100
AcDbEntity
  8
0
  6
Continuous
 62
     7
100
AcDbLine
 10
-161.1953304771721
 20
-194.7645277315465
 30
0.0
 11
-155.5772792136111
 21
-199.6299028455536
 31
0.0
  0
ARC
  5
BA
330
47
100
AcDbEntity
  8
0
  6
Continuous
 62
     7
100
AcDbCircle
 10
-157.8951312018104
 20
-172.2017243454744
 30
0.0
 40
3.348869158870146
100
AcDbArc
 50
170.2198373854851
 51
179.9734072677289
  0
ARC
  5
BB
330
47
100
AcDbEntity
  8
0
  6
Continuous
 62
     7
100
AcDbCircle
 10
-157.8951312018102
 20
-172.1986157193762
 30
0.0
 40
3.348869158870362
100
AcDbArc
 50
180.0265927322711
 51
189.7801626145163
  0
ARC
  5
BC
330
47
100
AcDbEntity
  8
0
  6
Continuous
 62
     7
100
AcDbCircle
 10
-157.8951312018129
 20
-189.9781172590385
 30
0.0
 40
3.348869158867677
100
AcDbArc
 50
180.026592732824
 51
189.7801626151943
  0
ARC
  5
BD
330
47
100
AcDbEntity
  8
0
  6
Continuous
 62
     7
100
AcDbCircle
 10
-157.8951312018104
 20
-183.456945968574
 30
0.0
 40
3.348869158870163
100
AcDbArc
 50
180.0265927322696
 51
189.7801626145154
  0
ARC
  5
BE
330
47
100
AcDbEntity
  8
0
  6
Continuous
 62
     7
100
AcDbCircle
 10
-157.895131201812
 20
-189.9812258851935
 30
0.0
 40
3.348869158868578
100
AcDbArc
 50
170.2198373849451
 51
179.9734072673097
  0
ARC
  5
BF
330
47
100
AcDbEntity
  8
0
  6
Continuous
 62
     7
100
AcDbCircle
 10
-138.0928687981435
 20
-189.9812258851997
 30
0.0
 40
3.348869158867449
100
AcDbArc
 50
0.02659273279629
 51
9.78016261519533
  0
ARC
  5
C0
330
47
100
AcDbEntity
  8
0
  6
Continuous
 62
     7
100
AcDbCircle
 10
-138.092868798147
 20
-172.2017243454745
 30
0.0
 40
3.348869158870931
100
AcDbArc
 50
0.02659273227304
 51
9.78016261451453
  0
ARC
  5
C1
330
47
100
AcDbEntity
  8
0
  6
Continuous
 62
     7
100
AcDbCircle
 10
-139.0333256544853
 20
-169.8637375473744
 30
0.0
 40
3.039326209117173
100
AcDbArc
 50
0.0346132912287
 51
10.68160560858326
  0
ARC
  5
C2
330
47
100
AcDbEntity
  8
0
  6
Continuous
 62
     7
100
AcDbCircle
 10
-138.0928687981456
 20
-183.456945968574
 30
0.0
 40
3.348869158869535
100
AcDbArc
 50
350.2198373854827
 51
359.9734072677304
  0
ARC
  5
C3
330
47
100
AcDbEntity
  8
0
  6
Continuous
 62
     7
100
AcDbCircle
 10
-138.0928687981464
 20
-172.1986157193762
 30
0.0
 40
3.348869158870361
100
AcDbArc
 50
350.2198373854837
 51
359.9734072677289
  0
ARC
  5
C4
330
47
100
AcDbEntity
  8
0
  6
Continuous
 62
     7
100
AcDbCircle
 10
-138.092868798146
 20
-189.9781172590708
 30
0.0
 40
3.348869158869921
100
AcDbArc
 50
350.2198373854844
 51
359.9734072677289
  0
ARC
  5
C5
330
47
100
AcDbEntity
  8
0
  6
Continuous
 62
     7
100
AcDbCircle
 10
-156.954674345471
 20
-169.8637375473745
 30
0.0
 40
3.039326209117528
100
AcDbArc
 50
169.3183943914161
 51
179.9653867087692
  0
SPLINE
  5
C6
330
47
100
AcDbEntity
  8
0
  6
Continuous
 62
     7
100
AcDbSpline
210
0.0
220
0.0
230
1.0
 70
     8
 71
     3
 72
     9
 73
     5
 74
     3
 42
0.000000001
 43
0.0000000001
 44
0.00000001
 40
0.0
 40
0.0
 40
0.0
 40
0.0
 40
1.081106285840225
 40
2.011736112672336
 40
2.011736112672336
 40
2.011736112672336
 40
2.011736112672336
 10
-161.1953304771721
 20
-171.6328575894289
 30
0.0
 10
-160.98879938215
 20
-171.3374169667178
 30
0.0
 10
-160.6044837184526
 20
-170.7876573688082
 30
0.0
 10
-160.1870875981036
 20
-170.2626125047055
 30
0.0
 10
-159.9939999999783
 20
-170.0197265732421
 30
0.0
 11
-161.1953304771721
 21
-171.6328575894289
 31
0.0
 11
-160.5661836002247
 21
-170.7536733033123
 31
0.0
 11
-159.9939999999783
 21
-170.0197265732421
 31
0.0
  0
SPLINE
  5
C7
330
47
100
AcDbEntity
  8
0
  6
Continuous
 62
     7
100
AcDbSpline
210
0.0
220
0.0
230
1.0
 70
     8
 71
     3
 72
    11
 73
     7
 74
     5
 42
0.000000001
 43
0.0000000001
 44
0.00000001
 40
0.0
 40
0.0
 40
0.0
 40
0.0
 40
1.806230340445913
 40
3.667490829320365
 40
6.031763016084652
 40
8.63832183240131
 40
8.63832183240131
 40
8.63832183240131
 40
8.63832183240131
 10
-159.9413361823563
 20
-169.3003949539896
 30
0.0
 10
-159.7924642023061
 20
-168.7143397044524
 30
0.0
 10
-159.4901845679162
 20
-167.5243739525316
 30
0.0
 10
-158.4740333524615
 20
-165.7663597233355
 30
0.0
 10
-156.9285046656173
 20
-164.0514842726074
 30
0.0
 10
-155.487776111652
 20
-163.2144206903642
 30
0.0
 10
-154.7323000688072
 20
-162.7754889649536
 30
0.0
 11
-159.9413361823563
 21
-169.3003949539896
 31
0.0
 11
-159.4181774070207
 21
-167.5715881559263
 31
0.0
 11
-158.5114284538646
 21
-165.9461353106929
 31
0.0
 11
-156.9117714517033
 21
-164.2051929051134
 31
0.0
 11
-154.7323000688072
 21
-162.7754889649536
 31
0.0
  0
SPLINE
  5
C8
330
47
100
AcDbEntity
  8
0
  6
Continuous
 62
     7
100
AcDbSpline
210
0.0
220
0.0
230
1.0
 70
     8
 71
     3
 72
    11
 73
     7
 74
     5
 42
0.000000001
 43
0.0000000001
 44
0.00000001
 40
0.0
 40
0.0
 40
0.0
 40
0.0
 40
1.472023697684292
 40
3.1945729233695
 40
5.281052088147964
 40
7.721142149694277
 40
7.721142149694277
 40
7.721142149694277
 40
7.721142149694277
 10
-158.9939999999783
 20
-189.8091949105175
 30
0.0
 10
-158.910221972441
 20
-190.302233900794
 30
0.0
 10
-158.7284076173253
 20
-191.372222790902
 30
0.0
 10
-157.4664166692425
 20
-192.7080670949555
 30
0.0
 10
-155.7075259948885
 20
-193.8329991320657
 30
0.0
 10
-154.2692930879216
 20
-194.3133805035895
 30
0.0
 10
-153.4939999999783
 20
-194.572334631332
 30
0.0
 11
-158.9939999999783
 21
-189.8091949105175
 31
0.0
 11
-158.6191812564227
 21
-191.2326992790668
 31
0.0
 11
-157.5202794416072
 21
-192.5591949105176
 31
0.0
 11
-155.7721725193242
 21
-193.6982811701905
 31
0.0
 11
-153.4939999999783
 21
-194.572334631332
 31
0.0
  0
SPLINE
  5
C9
330
47
100
AcDbEntity
  8
0
  6
Continuous
 62
     7
100
AcDbSpline
210
0.0
220
0.0
230
1.0
 70
     8
 71
     3
 72
    11
 73
     7
 74
     5
 42
0.000000001
 43
0.0000000001
 44
0.00000001
 40
0.0
 40
0.0
 40
0.0
 40
0.0
 40
1.85872556194858
 40
3.65486632840204
 40
5.481538779395859
 40
7.433682908433353
 40
7.433682908433353
 40
7.433682908433353
 40
7.433682908433353
 10
-161.1953304771654
 20
-190.5469840151227
 30
0.0
 10
-160.7137773831633
 20
-190.936862512384
 30
0.0
 10
-159.7668854873346
 20
-191.7034919935023
 30
0.0
 10
-158.3750716040402
 20
-192.8875559369571
 30
0.0
 10
-156.9812963203807
 20
-194.1168800185337
 30
0.0
 10
-156.0555312679925
 20
-194.9710784975481
 30
0.0
 10
-155.5772792136111
 20
-195.4123591291234
 30
0.0
 11
-161.1953304771654
 21
-190.5469840151227
 31
0.0
 11
-159.7555560935039
 21
-191.7225308832848
 31
0.0
 11
-158.3862994079653
 21
-192.8849670246237
 31
0.0
 11
-157.0170963026486
 21
-194.0941051888763
 31
0.0
 11
-155.5772792136111
 21
-195.4123591291234
 31
0.0
  0
SPLINE
  5
CA
330
47
100
AcDbEntity
  8
0
  6
Continuous
 62
     7
100
AcDbSpline
210
0.0
220
0.0
230
1.0
 70
     8
 71
     3
 72
    13
 73
     9
 74
     7
 42
0.000000001
 43
0.0000000001
 44
0.00000001
 40
0.0
 40
0.0
 40
0.0
 40
0.0
 40
2.432773237014524
 40
4.441883019554339
 40
6.050804078127708
 40
7.499222877909382
 40
9.15502255529571
 40
11.22559341521905
 40
11.22559341521905
 40
11.22559341521905
 40
11.22559341521905
 10
-152.7539999999783
 20
-170.2602731279482
 30
0.0
 10
-153.524521108735
 20
-169.9967972949915
 30
0.0
 10
-154.9313783385784
 20
-169.5157294993705
 30
0.0
 10
-156.6037454884353
 20
-168.3360371854211
 30
0.0
 10
-157.5788712411335
 20
-166.8626268596249
 30
0.0
 10
-157.4961084162219
 20
-165.1895702314742
 30
0.0
 10
-156.4152388938401
 20
-163.7456482140185
 30
0.0
 10
-155.3334177728379
 20
-163.122013677676
 30
0.0
 10
-154.7323000688072
 20
-162.7754889649536
 30
0.0
 11
-152.7539999999783
 21
-170.2602731279482
 31
0.0
 11
-155.0118170238615
 21
-169.3543769276779
 31
0.0
 11
-156.6207254632162
 21
-168.1510749030634
 31
0.0
 11
-157.4319341311459
 21
-166.761626279232
 31
0.0
 11
-157.3704559710939
 21
-165.3145127857709
 31
0.0
 11
-156.441951635605
 21
-163.9435451425558
 31
0.0
 11
-154.7323000688072
 21
-162.7754889649536
 31
0.0
  0
SPLINE
  5
CB
330
47
100
AcDbEntity
  8
0
  6
Continuous
 62
     7
100
AcDbSpline
210
0.0
220
0.0
230
1.0
 70
     8
 71
     3
 72
     9
 73
     5
 74
     3
 42
0.000000001
 43
0.0000000001
 44
0.00000001
 40
0.0
 40
0.0
 40
0.0
 40
0.0
 40
1.040622363304432
 40
2.0461868214792
 40
2.0461868214792
 40
2.0461868214792
 40
2.0461868214792
 10
-153.6120512635394
 20
-189.458500281623
 30
0.0
 10
-153.9489943097341
 20
-189.3754461577717
 30
0.0
 10
-154.6115290000315
 20
-189.2121359313671
 30
0.0
 10
-155.259060592429
 20
-188.9969415467896
 30
0.0
 10
-155.5772792136111
 20
-188.8911878386266
 30
0.0
 11
-153.6120512635394
 21
-189.458500281623
 31
0.0
 11
-154.6189999978012
 21
-189.1959185798094
 31
0.0
 11
-155.5772792136111
 21
-188.8911878386266
 31
0.0
  0
SPLINE
  5
CC
330
47
100
AcDbEntity
  8
0
  6
Continuous
 62
     7
100
AcDbSpline
210
0.0
220
0.0
230
1.0
 70
     8
 71
     3
 72
    11
 73
     7
 74
     5
 42
0.000000001
 43
0.0000000001
 44
0.00000001
 40
0.0
 40
0.0
 40
0.0
 40
0.0
 40
3.112549469484406
 40
6.068139894819987
 40
8.730056316285014
 40
11.00621540707728
 40
11.00621540707728
 40
11.00621540707728
 40
11.00621540707728
 10
-147.9939999999783
 20
-177.3341446286409
 30
0.0
 10
-149.0330092579997
 20
-177.2967491945761
 30
0.0
 10
-151.0586328144134
 20
-177.2238440816158
 30
0.0
 10
-153.911594932836
 20
-176.6144649313286
 30
0.0
 10
-156.422359013338
 20
-175.7402762785154
 30
0.0
 10
-157.7666614062189
 20
-174.7777924365571
 30
0.0
 10
-158.3863048453916
 20
-174.3341446286409
 30
0.0
 11
-147.9939999999783
 21
-177.3341446286409
 31
0.0
 11
-151.0998277131768
 21
-177.129698041247
 31
0.0
 11
-153.9939999999783
 21
-176.5302970513475
 31
0.0
 11
-156.479279111992
 21
-175.5767841846477
 31
0.0
 11
-158.3863048453916
 21
-174.3341446286409
 31
0.0
  0
SPLINE
  5
CD
330
47
100
AcDbEntity
  8
0
  6
Continuous
 62
     7
100
AcDbSpline
210
0.0
220
0.0
230
1.0
 70
     8
 71
     3
 72
     9
 73
     5
 74
     3
 42
0.000000001
 43
0.0000000001
 44
0.00000001
 40
0.0
 40
0.0
 40
0.0
 40
0.0
 40
1.005564458184254
 40
2.046186821490078
 40
2.046186821490078
 40
2.046186821490078
 40
2.046186821490078
 10
-140.4107207863365
 20
-195.4123591291162
 30
0.0
 10
-140.7289394075212
 20
-195.5181128372816
 30
0.0
 10
-141.3764709999213
 20
-195.7333072218632
 30
0.0
 10
-142.0390056902221
 20
-195.8966174482685
 30
0.0
 10
-142.3759487364173
 20
-195.9796715721199
 30
0.0
 11
-140.4107207863365
 21
-195.4123591291162
 31
0.0
 11
-141.3690000021544
 21
-195.7170898703054
 31
0.0
 11
-142.3759487364173
 21
-195.9796715721199
 31
0.0
  0
SPLINE
  5
CE
330
47
100
AcDbEntity
  8
0
  6
Continuous
 62
     7
100
AcDbSpline
210
0.0
220
0.0
230
1.0
 70
     8
 71
     3
 72
    11
 73
     7
 74
     5
 42
0.000000001
 43
0.0000000001
 44
0.00000001
 40
0.0
 40
0.0
 40
0.0
 40
0.0
 40
1.591937436766587
 40
3.78062055472215
 40
6.536168879018259
 40
9.505666329749518
 40
9.505666329749518
 40
9.505666329749518
 40
9.505666329749518
 10
-141.3439999999783
 20
-166.1379922059342
 30
0.0
 10
-141.5165680374518
 20
-165.6168746533118
 30
0.0
 10
-141.9263921155606
 20
-164.3792960447684
 30
0.0
 10
-144.0522536900074
 20
-163.3714978798003
 30
0.0
 10
-146.5933931388422
 20
-162.7484573998696
 30
0.0
 10
-148.5163672985369
 20
-162.8488942060527
 30
0.0
 10
-149.5137858509242
 20
-162.9009893109995
 30
0.0
 11
-141.3439999999783
 21
-166.1379922059342
 31
0.0
 11
-142.007061602655
 21
-164.6907140264537
 31
0.0
 11
-143.86387142503
 21
-163.5320116824847
 31
0.0
 11
-146.5442991939211
 21
-162.8929862174397
 31
0.0
 11
-149.5137858509242
 21
-162.9009893109995
 31
0.0
  0
SPLINE
  5
CF
330
47
100
AcDbEntity
  8
0
  6
Continuous
 62
     7
100
AcDbSpline
210
0.0
220
0.0
230
1.0
 70
     8
 71
     3
 72
    11
 73
     7
 74
     5
 42
0.000000001
 43
0.0000000001
 44
0.00000001
 40
0.0
 40
0.0
 40
0.0
 40
0.0
 40
2.276159090792272
 40
4.938075512257246
 40
7.893665937592794
 40
11.0062154070772
 40
11.0062154070772
 40
11.0062154070772
 40
11.0062154070772
 10
-137.6016951545651
 20
-174.3341446286409
 30
0.0
 10
-138.2213385937378
 20
-174.7777924365571
 30
0.0
 10
-139.5656409866187
 20
-175.7402762785153
 30
0.0
 10
-142.0764050671207
 20
-176.6144649313287
 30
0.0
 10
-144.9293671855432
 20
-177.2238440816158
 30
0.0
 10
-146.9549907419569
 20
-177.2967491945762
 30
0.0
 10
-147.9939999999783
 20
-177.3341446286409
 30
0.0
 11
-137.6016951545651
 21
-174.3341446286409
 31
0.0
 11
-139.5087208879647
 21
-175.5767841846477
 31
0.0
 11
-141.9939999999783
 21
-176.5302970513475
 31
0.0
 11
-144.8881722867798
 21
-177.1296980412469
 31
0.0
 11
-147.9939999999783
 21
-177.3341446286409
 31
0.0
  0
SPLINE
  5
D0
330
47
100
AcDbEntity
  8
0
  6
Continuous
 62
     7
100
AcDbSpline
210
0.0
220
0.0
230
1.0
 70
     8
 71
     3
 72
    11
 73
     7
 74
     5
 42
0.000000001
 43
0.0000000001
 44
0.00000001
 40
0.0
 40
0.0
 40
0.0
 40
0.0
 40
0.9755932335437651
 40
1.74892080461115
 40
2.518941390267318
 40
3.241934915348147
 40
3.241934915348147
 40
3.241934915348147
 40
3.241934915348147
 10
-137.6016951545651
 20
-174.3341446286409
 30
0.0
 10
-137.3498348338876
 20
-174.1277717188458
 30
0.0
 10
-136.8983313303194
 20
-173.7578123422455
 30
0.0
 10
-136.1803540639206
 20
-173.3189883040943
 30
0.0
 10
-135.4983411424158
 20
-172.9886648075951
 30
0.0
 10
-135.0229015883927
 20
-172.8396453060466
 30
0.0
 10
-134.7926695227845
 20
-172.7674824754218
 30
0.0
 11
-137.6016951545651
 21
-174.3341446286409
 31
0.0
 11
-136.8314911572635
 21
-173.7353391842193
 31
0.0
 11
-136.1732504053505
 21
-173.3294393859911
 31
0.0
 11
-135.4772347364013
 21
-173.0000552745785
 31
0.0
 11
-134.7926695227845
 21
-172.7674824754218
 31
0.0
  0
SPLINE
  5
D1
330
47
100
AcDbEntity
  8
0
  6
Continuous
 62
     7
100
AcDbSpline
210
0.0
220
0.0
230
1.0
 70
     8
 71
     3
 72
     9
 73
     5
 74
     3
 42
0.000000001
 43
0.0000000001
 44
0.00000001
 40
0.0
 40
0.0
 40
0.0
 40
0.0
 40
1.605844035853193
 40
3.484988651121999
 40
3.484988651121999
 40
3.484988651121999
 40
3.484988651121999
 10
-135.9939999999783
 20
-171.3341446286409
 30
0.0
 10
-136.0830241291474
 20
-171.876073082881
 30
0.0
 10
-136.2762235321568
 20
-173.0521614575696
 30
0.0
 10
-137.13736051395
 20
-173.8850447212147
 30
0.0
 10
-137.6016951545651
 20
-174.3341446286409
 30
0.0
 11
-135.9939999999783
 21
-171.3341446286409
 31
0.0
 11
-136.4028931747663
 21
-172.8870584852401
 31
0.0
 11
-137.6016951545651
 21
-174.3341446286409
 31
0.0
  0
SPLINE
  5
D2
330
47
100
AcDbEntity
  8
0
  6
Continuous
 62
     7
100
AcDbSpline
210
0.0
220
0.0
230
1.0
 70
     8
 71
     3
 72
     9
 73
     5
 74
     3
 42
0.000000001
 43
0.0000000001
 44
0.00000001
 40
0.0
 40
0.0
 40
0.0
 40
0.0
 40
1.443258197537441
 40
2.971890956134212
 40
2.971890956134212
 40
2.971890956134212
 40
2.971890956134212
 10
-136.9939999999783
 20
-187.4158931020936
 30
0.0
 10
-136.6343430009808
 20
-187.7354293542196
 30
0.0
 10
-135.8937538498997
 20
-188.3934037353398
 30
0.0
 10
-135.1666601199885
 20
-189.0662641597726
 30
0.0
 10
-134.7926695227912
 20
-189.4123591291155
 30
0.0
 11
-136.9939999999783
 21
-187.4158931020936
 31
0.0
 11
-135.9182118050131
 21
-188.3780126292459
 31
0.0
 11
-134.7926695227912
 21
-189.4123591291155
 31
0.0
  0
SPLINE
  5
D3
330
47
100
AcDbEntity
  8
0
  6
Continuous
 62
     7
100
AcDbSpline
210
0.0
220
0.0
230
1.0
 70
     8
 71
     3
 72
     9
 73
     5
 74
     3
 42
0.000000001
 43
0.0000000001
 44
0.00000001
 40
0.0
 40
0.0
 40
0.0
 40
0.0
 40
1.00556445817474
 40
2.046186821479118
 40
2.046186821479118
 40
2.046186821479118
 40
2.046186821479118
 10
-140.4107207863456
 20
-188.8911878386266
 30
0.0
 10
-140.7289394075277
 20
-188.9969415467896
 30
0.0
 10
-141.3764709999252
 20
-189.212135931367
 30
0.0
 10
-142.0390056902225
 20
-189.3754461577716
 30
0.0
 10
-142.3759487364172
 20
-189.458500281623
 30
0.0
 11
-140.4107207863456
 21
-188.8911878386266
 31
0.0
 11
-141.3690000021555
 21
-189.1959185798094
 31
0.0
 11
-142.3759487364172
 21
-189.458500281623
 31
0.0
  0
SPLINE
  5
D4
330
47
100
AcDbEntity
  8
0
  6
Continuous
 62
     7
100
AcDbSpline
210
0.0
220
0.0
230
1.0
 70
     8
 71
     3
 72
    13
 73
     9
 74
     7
 42
0.000000001
 43
0.0000000001
 44
0.00000001
 40
0.0
 40
0.0
 40
0.0
 40
0.0
 40
2.175991027966949
 40
4.932559619612336
 40
8.394693298540737
 40
12.37522934880816
 40
16.54278248915389
 40
20.52332749058114
 40
20.52332749058114
 40
20.52332749058114
 40
20.52332749058114
 10
-135.9939999999783
 20
-169.8619014422073
 30
0.0
 10
-136.1688858776946
 20
-170.5862074354809
 30
0.0
 10
-136.5653190604929
 20
-172.2280719620875
 30
0.0
 10
-138.980692098064
 20
-173.9659458114573
 30
0.0
 10
-142.1138058137685
 20
-175.2322459577634
 30
0.0
 10
-145.9647727641899
 20
-175.8819022446184
 30
0.0
 10
-150.0343461697458
 20
-175.9325524938928
 30
0.0
 10
-152.6944663198962
 20
-175.3450588604221
 30
0.0
 10
-153.9939999999783
 20
-175.058053864914
 30
0.0
 11
-135.9939999999783
 21
-169.8619014422073
 31
0.0
 11
-136.7177054547162
 21
-171.9140192258543
 31
0.0
 11
-138.8014666825506
 21
-173.7186271003266
 31
0.0
 11
-141.9940089944986
 21
-175.0580460754309
 31
0.0
 11
-145.9102218679751
 21
-175.7707479602806
 31
0.0
 11
-150.0777750082174
 21
-175.7707391024073
 31
0.0
 11
-153.9939999999783
 21
-175.058053864914
 31
0.0
  0
SPLINE
  5
D5
330
47
100
AcDbEntity
  8
0
  6
Continuous
 62
     7
100
AcDbSpline
210
0.0
220
0.0
230
1.0
 70
     8
 71
     3
 72
     9
 73
     5
 74
     3
 42
0.000000001
 43
0.0000000001
 44
0.00000001
 40
0.0
 40
0.0
 40
0.0
 40
0.0
 40
1.005564458174659
 40
2.046186821479112
 40
2.046186821479112
 40
2.046186821479112
 40
2.046186821479112
 10
-140.4107207863457
 20
-177.6328575894289
 30
0.0
 10
-140.7289394075278
 20
-177.7386112975919
 30
0.0
 10
-141.3764709999253
 20
-177.9538056821694
 30
0.0
 10
-142.0390056902226
 20
-178.117115908574
 30
0.0
 10
-142.3759487364173
 20
-178.2001700324253
 30
0.0
 11
-140.4107207863457
 21
-177.6328575894289
 31
0.0
 11
-141.3690000021555
 21
-177.9375883306117
 31
0.0
 11
-142.3759487364173
 21
-178.2001700324253
 31
0.0
  0
SPLINE
  5
D6
330
47
100
AcDbEntity
  8
0
  6
Continuous
 62
     7
100
AcDbSpline
210
0.0
220
0.0
230
1.0
 70
     8
 71
     3
 72
    11
 73
     7
 74
     5
 42
0.000000001
 43
0.0000000001
 44
0.00000001
 40
0.0
 40
0.0
 40
0.0
 40
0.0
 40
1.425040937427146
 40
2.845839248519667
 40
4.268852208824756
 40
5.702964340159371
 40
5.702964340159371
 40
5.702964340159371
 40
5.702964340159371
 10
-153.6120512635394
 20
-178.2001700324253
 30
0.0
 10
-153.1541289867557
 20
-178.0732543107074
 30
0.0
 10
-152.239647753877
 20
-177.8198007347569
 30
0.0
 10
-150.8413486132052
 20
-177.5496975671113
 30
0.0
 10
-149.4248601187136
 20
-177.3685440770211
 30
0.0
 10
-148.472187000345
 20
-177.3456407642002
 30
0.0
 10
-147.9939999999783
 20
-177.3341446286409
 30
0.0
 11
-153.6120512635394
 21
-178.2001700324253
 31
0.0
 11
-152.2338467767963
 21
-177.8378248010922
 31
0.0
 11
-150.8395488824882
 21
-177.5646925535165
 31
0.0
 11
-149.4268897045609
 21
-177.3933451448988
 31
0.0
 11
-147.9939999999783
 21
-177.3341446286409
 31
0.0
  0
SPLINE
  5
D7
330
47
100
AcDbEntity
  8
0
  6
Continuous
 62
     7
100
AcDbSpline
210
0.0
220
0.0
230
1.0
 70
     8
 71
     3
 72
    11
 73
     7
 74
     5
 42
0.000000001
 43
0.0000000001
 44
0.00000001
 40
0.0
 40
0.0
 40
0.0
 40
0.0
 40
1.423497853930082
 40
2.86429826559105
 40
4.28368035230274
 40
5.702975805541393
 40
5.702975805541393
 40
5.702975805541393
 40
5.702975805541393
 10
-147.9939999999783
 20
-177.3341446286409
 30
0.0
 10
-147.5193508534535
 20
-177.3454101664563
 30
0.0
 10
-146.5642832202875
 20
-177.3680781892577
 30
0.0
 10
-145.1458667688934
 20
-177.5497088931364
 30
0.0
 10
-143.7441714624966
 20
-177.8208321888838
 30
0.0
 10
-142.8320136978307
 20
-178.0737266524345
 30
0.0
 10
-142.3759487364173
 20
-178.2001700324253
 30
0.0
 11
-147.9939999999783
 21
-177.3341446286409
 31
0.0
 11
-146.57169216391
 21
-177.3923387947884
 31
0.0
 11
-145.1413746012712
 21
-177.5658251013112
 31
0.0
 11
-143.7485482094989
 21
-177.8391017969675
 31
0.0
 11
-142.3759487364173
 21
-178.2001700324253
 31
0.0
  0
SPLINE
  5
D8
330
47
100
AcDbEntity
  8
0
  6
Continuous
 62
     7
100
AcDbSpline
210
0.0
220
0.0
230
1.0
 70
     8
 71
     3
 72
    15
 73
    11
 74
     9
 42
0.000000001
 43
0.0000000001
 44
0.00000001
 40
0.0
 40
0.0
 40
0.0
 40
0.0
 40
1.369418644073816
 40
3.169862681888285
 40
5.444498720614579
 40
8.001892011089044
 40
10.55928530156354
 40
12.83392134028983
 40
14.63436537810432
 40
16.00378402217811
 40
16.00378402217811
 40
16.00378402217811
 40
16.00378402217811
 10
-154.6439999999784
 20
-166.1379922059342
 30
0.0
 10
-154.5173945602763
 20
-166.5910612988208
 30
0.0
 10
-154.2243345198721
 20
-167.6398032611996
 30
0.0
 10
-152.5576983274813
 20
-168.6423932894064
 30
0.0
 10
-150.4724192840124
 20
-169.313868053819
 30
0.0
 10
-147.9939999999784
 20
-169.5419174677609
 30
0.0
 10
-145.5155807159443
 20
-169.313868053819
 30
0.0
 10
-143.4303016724754
 20
-168.6423932894065
 30
0.0
 10
-141.7636654800847
 20
-167.6398032611995
 30
0.0
 10
-141.4706054396803
 20
-166.5910612988208
 30
0.0
 10
-141.3439999999783
 20
-166.1379922059342
 30
0.0
 11
-154.6439999999784
 21
-166.1379922059342
 31
0.0
 11
-154.1377802109891
 21
-167.4104107497543
 31
0.0
 11
-152.6962600948689
 21
-168.4891222533795
 31
0.0
 11
-150.5388370876184
 21
-169.2098823114396
 31
0.0
 11
-147.9939999999784
 21
-169.4629922059342
 31
0.0
 11
-145.4491629123383
 21
-169.2098823114396
 31
0.0
 11
-143.2917399050878
 21
-168.4891222533795
 31
0.0
 11
-141.8502197889676
 21
-167.4104107497543
 31
0.0
 11
-141.3439999999783
 21
-166.1379922059342
 31
0.0
  0
SPLINE
  5
D9
330
47
100
AcDbEntity
  8
0
  6
Continuous
 62
     7
100
AcDbSpline
210
0.0
220
0.0
230
1.0
 70
     8
 71
     3
 72
    15
 73
    11
 74
     9
 42
0.000000001
 43
0.0000000001
 44
0.00000001
 40
0.0
 40
0.0
 40
0.0
 40
0.0
 40
2.390602969267771
 40
4.238107032037649
 40
5.975216190356067
 40
8.148720596407742
 40
10.9212057935947
 40
14.15161770090196
 40
17.55860547293412
 40
20.8176370674445
 40
20.8176370674445
 40
20.8176370674445
 40
20.8176370674445
 10
-141.2556999311495
 20
-162.7754889649536
 30
0.0
 10
-140.5603104512989
 20
-163.1776876541028
 30
0.0
 10
-139.3275105792223
 20
-163.890713249028
 30
0.0
 10
-138.2526104416913
 20
-165.7608170628906
 30
0.0
 10
-138.7961243201424
 20
-167.773552998439
 30
0.0
 10
-140.5591063795773
 20
-169.2568802543435
 30
0.0
 10
-143.0844684681124
 20
-170.332247118769
 30
0.0
 10
-146.1874798635924
 20
-170.9018334180691
 30
0.0
 10
-149.5125769724652
 20
-170.969703886669
 30
0.0
 10
-151.6896326641051
 20
-170.4932248085566
 30
0.0
 10
-152.7539999999783
 20
-170.2602731279482
 30
0.0
 11
-141.2556999311495
 21
-162.7754889649536
 31
0.0
 11
-139.3192007236863
 21
-164.1772569275176
 31
0.0
 11
-138.4939245641972
 21
-165.8301908436624
 31
0.0
 11
-138.8856515495181
 21
-167.5225555231094
 31
0.0
 11
-140.4441382954703
 21
-169.0375606325628
 31
0.0
 11
-142.9697968812021
 21
-170.1811177553498
 31
0.0
 11
-146.1390450331552
 21
-170.8067592292247
 31
0.0
 11
-149.5459214064173
 21
-170.8343102786457
 31
0.0
 11
-152.7539999999783
 21
-170.2602731279482
 31
0.0
  0
SPLINE
  5
DA
330
47
100
AcDbEntity
  8
0
  6
Continuous
 62
     7
100
AcDbSpline
210
0.0
220
0.0
230
1.0
 70
     8
 71
     3
 72
    11
 73
     7
 74
     5
 42
0.000000001
 43
0.0000000001
 44
0.00000001
 40
0.0
 40
0.0
 40
0.0
 40
0.0
 40
3.259273087154468
 40
6.924792941580999
 40
10.5903127960075
 40
13.84958588316191
 40
13.84958588316191
 40
13.84958588316191
 40
13.84958588316191
 10
-154.7323000688072
 20
-162.7754889649536
 30
0.0
 10
-153.7139811416128
 20
-162.3810352532493
 30
0.0
 10
-151.5504165841013
 20
-161.542961806316
 30
0.0
 10
-147.9939999999783
 20
-161.2906684050966
 30
0.0
 10
-144.4375834158554
 20
-161.5429618063161
 30
0.0
 10
-142.2740188583439
 20
-162.3810352532493
 30
0.0
 10
-141.2556999311495
 20
-162.7754889649536
 30
0.0
 11
-154.7323000688072
 21
-162.7754889649536
 31
0.0
 11
-151.6414768855572
 21
-161.7412389414769
 31
0.0
 11
-147.9939999999783
 21
-161.3779922059343
 31
0.0
 11
-144.3465231143994
 21
-161.7412389414769
 31
0.0
 11
-141.2556999311495
 21
-162.7754889649536
 31
0.0
  0
SPLINE
  5
DB
330
47
100
AcDbEntity
  8
0
  6
Continuous
 62
     7
100
AcDbSpline
210
0.0
220
0.0
230
1.0
 70
     8
 71
     3
 72
    11
 73
     7
 74
     5
 42
0.000000001
 43
0.0000000001
 44
0.00000001
 40
0.0
 40
0.0
 40
0.0
 40
0.0
 40
1.952151703209043
 40
3.77883096546475
 40
5.57496467397377
 40
7.43368290847164
 40
7.43368290847164
 40
7.43368290847164
 40
7.43368290847164
 10
-140.4107207863365
 20
-195.4123591291162
 30
0.0
 10
-139.9324668693125
 20
-194.9710767928552
 30
0.0
 10
-139.0066982789971
 20
-194.1168750764458
 30
0.0
 10
-137.6129210169643
 20
-192.8875495426288
 30
0.0
 10
-136.2211089089185
 20
-191.7034874116715
 30
0.0
 10
-135.274220725695
 20
-190.9368609661555
 30
0.0
 10
-134.7926695227845
 20
-190.5469840151163
 30
0.0
 11
-140.4107207863365
 21
-195.4123591291162
 31
0.0
 11
-138.9708980665205
 21
-194.0941001226347
 31
0.0
 11
-137.6016897171388
 21
-192.8849576067253
 31
0.0
 11
-136.2324382742595
 21
-191.7225261955521
 31
0.0
 11
-134.7926695227845
 21
-190.5469840151163
 31
0.0
  0
SPLINE
  5
DC
330
47
100
AcDbEntity
  8
0
  6
Continuous
 62
     7
100
AcDbSpline
210
0.0
220
0.0
230
1.0
 70
     8
 71
     3
 72
    13
 73
     9
 74
     7
 42
0.000000001
 43
0.0000000001
 44
0.00000001
 40
0.0
 40
0.0
 40
0.0
 40
0.0
 40
3.64883291875535
 40
7.469089964080068
 40
11.11791467682967
 40
14.29153721592354
 40
16.81839175773936
 40
18.81305019947968
 40
18.81305019947968
 40
18.81305019947968
 40
18.81305019947968
 10
-153.4939999999783
 20
-194.572334631332
 30
0.0
 10
-152.3027607929817
 20
-194.8354225439374
 30
0.0
 10
-149.8643173216897
 20
-195.3739583741628
 30
0.0
 10
-146.1338750329741
 20
-195.3275289796518
 30
0.0
 10
-142.6038219952453
 20
-194.732010716388
 30
0.0
 10
-139.7318010887465
 20
-193.5712355827443
 30
0.0
 10
-137.5177091398184
 20
-191.9781845525928
 30
0.0
 10
-137.1543120545063
 20
-190.4731420708309
 30
0.0
 10
-136.9939999999783
 20
-189.8091949105175
 30
0.0
 11
-153.4939999999783
 21
-194.572334631332
 31
0.0
 11
-149.9041270908641
 21
-195.2256294323675
 31
0.0
 11
-146.0838700456421
 21
-195.2256375520847
 31
0.0
 11
-142.4940082449553
 21
-194.5723274909725
 31
0.0
 11
-139.5675111256696
 21
-193.3445267637935
 31
0.0
 11
-137.6573966668213
 21
-191.6903028788605
 31
0.0
 11
-136.9939999999783
 21
-189.8091949105175
 31
0.0
  0
SPLINE
  5
DD
330
47
100
AcDbEntity
  8
0
  6
Continuous
 62
     7
100
AcDbSpline
210
0.0
220
0.0
230
1.0
 70
     8
 71
     3
 72
    11
 73
     7
 74
     5
 42
0.000000001
 43
0.0000000001
 44
0.00000001
 40
0.0
 40
0.0
 40
0.0
 40
0.0
 40
1.253405836595531
 40
2.304421150899497
 40
3.358322397406482
 40
4.343335693840604
 40
4.343335693840604
 40
4.343335693840604
 40
4.343335693840604
 10
-140.4107207863457
 20
-177.6328575894289
 30
0.0
 10
-140.1701717506176
 20
-177.2911145991805
 30
0.0
 10
-139.7279157118616
 20
-176.6628107080273
 30
0.0
 10
-139.0286743253582
 20
-175.7881667492071
 30
0.0
 10
-138.344987799833
 20
-175.0158680236758
 30
0.0
 10
-137.8438150687843
 20
-174.5562089877895
 30
0.0
 10
-137.6016951545651
 20
-174.3341446286409
 30
0.0
 11
-140.4107207863457
 21
-177.6328575894289
 31
0.0
 11
-139.6779645221277
 21
-176.615953243984
 31
0.0
 11
-139.0224260706386
 21
-175.7944287277272
 31
0.0
 11
-138.3163767021616
 21
-175.0119952617958
 31
0.0
 11
-137.6016951545651
 21
-174.3341446286409
 31
0.0
  0
SPLINE
  5
DE
330
47
100
AcDbEntity
  8
0
  6
Continuous
 62
     7
100
AcDbSpline
210
0.0
220
0.0
230
1.0
 70
     8
 71
     3
 72
     9
 73
     5
 74
     3
 42
0.000000001
 43
0.0000000001
 44
0.00000001
 40
0.0
 40
0.0
 40
0.0
 40
0.0
 40
1.028464210266909
 40
2.01172917178445
 40
2.01172917178445
 40
2.01172917178445
 40
2.01172917178445
 10
-134.7926695227845
 20
-171.6328575894289
 30
0.0
 10
-134.9890287066521
 20
-171.3517302518948
 30
0.0
 10
-135.3731174391557
 20
-170.8018306558523
 30
0.0
 10
-135.7901625112405
 20
-170.2764979291515
 30
0.0
 10
-135.9939999999783
 20
-170.0197331227226
 30
0.0
 11
-134.7926695227845
 21
-171.6328575894289
 31
0.0
 11
-135.3903605561163
 21
-170.7958963831027
 31
0.0
 11
-135.9939999999783
 21
-170.0197331227226
 31
0.0
  0
SPLINE
  5
DF
330
47
100
AcDbEntity
  8
0
  6
Continuous
 62
     7
100
AcDbSpline
210
0.0
220
0.0
230
1.0
 70
     8
 71
     3
 72
    11
 73
     7
 74
     5
 42
0.000000001
 43
0.0000000001
 44
0.00000001
 40
0.0
 40
0.0
 40
0.0
 40
0.0
 40
2.378168504139069
 40
4.450722984960175
 40
6.215137839486537
 40
7.742165729878073
 40
7.742165729878073
 40
7.742165729878073
 40
7.742165729878073
 10
-140.4107207863456
 20
-199.6299028455536
 30
0.0
 10
-139.6698114650583
 20
-199.3398702754644
 30
0.0
 10
-138.2832057106119
 20
-198.7970766712743
 30
0.0
 10
-136.5617711597958
 20
-197.6328013424855
 30
0.0
 10
-135.2808619382836
 20
-196.3147891784106
 30
0.0
 10
-134.9473832212876
 20
-195.2558231351423
 30
0.0
 10
-134.7926695227845
 20
-194.7645277315465
 30
0.0
 11
-140.4107207863456
 21
-199.6299028455536
 31
0.0
 11
-138.2319242731646
 21
-198.676733831246
 31
0.0
 11
-136.5191633998344
 21
-197.5097152885501
 31
0.0
 11
-135.3542084271752
 21
-196.1845588037461
 31
0.0
 11
-134.7926695227845
 21
-194.7645277315465
 31
0.0
  0
SPLINE
  5
E0
330
47
100
AcDbEntity
  8
0
  6
Continuous
 62
     7
100
AcDbSpline
210
0.0
220
0.0
230
1.0
 70
     8
 71
     3
 72
    11
 73
     7
 74
     5
 42
0.000000001
 43
0.0000000001
 44
0.00000001
 40
0.0
 40
0.0
 40
0.0
 40
0.0
 40
2.156737745313326
 40
3.666737768069796
 40
6.031009954699537
 40
8.637568770671804
 40
8.637568770671804
 40
8.637568770671804
 40
8.637568770671804
 10
-136.0466638176004
 20
-169.3003949539896
 30
0.0
 10
-136.2322427819372
 20
-168.6012289448185
 30
0.0
 10
-136.5477514365241
 20
-167.4125547963328
 30
0.0
 10
-137.5936887272778
 20
-165.6793694574559
 30
0.0
 10
-139.0594093127938
 20
-164.0510967826037
 30
0.0
 10
-140.5001942976712
 20
-163.2142873970326
 30
0.0
 10
-141.2556999311495
 20
-162.7754889649536
 30
0.0
 11
-136.0466638176004
 21
-169.3003949539896
 31
0.0
 11
-136.7142489831857
 21
-167.2495785906222
 31
0.0
 11
-137.476571546092
 21
-165.9461353106929
 31
0.0
 11
-139.0762285482518
 21
-164.2051929051148
 31
0.0
 11
-141.2556999311495
 21
-162.7754889649536
 31
0.0
  0
SPLINE
  5
E1
330
47
100
AcDbEntity
  8
0
  6
Continuous
 62
     7
100
AcDbSpline
210
0.0
220
0.0
230
1.0
 70
     8
 71
     3
 72
     9
 73
     5
 74
     3
 42
0.000000001
 43
0.0000000001
 44
0.00000001
 40
0.0
 40
0.0
 40
0.0
 40
0.0
 40
1.585718157638422
 40
3.521400151348258
 40
3.521400151348258
 40
3.521400151348258
 40
3.521400151348258
 10
-137.9939999999783
 20
-207.3304905369411
 30
0.0
 10
-138.101921479833
 20
-207.8646322471149
 30
0.0
 10
-138.3415824447135
 20
-209.0507993337237
 30
0.0
 10
-139.3014200712174
 20
-209.8034929678024
 30
0.0
 10
-139.829034190701
 20
-210.2172418828892
 30
0.0
 11
-137.9939999999783
 21
-207.3304905369411
 31
0.0
 11
-138.4638005666016
 21
-208.8450167039765
 31
0.0
 11
-139.829034190701
 21
-210.2172418828892
 31
0.0
  0
SPLINE
  5
E2
330
47
100
AcDbEntity
  8
0
  6
Continuous
 62
     7
100
AcDbSpline
210
0.0
220
0.0
230
1.0
 70
     8
 71
     3
 72
    11
 73
     7
 74
     5
 42
0.000000001
 43
0.0000000001
 44
0.00000001
 40
0.0
 40
0.0
 40
0.0
 40
0.0
 40
2.880481084771333
 40
5.619045334315249
 40
8.357599101268256
 40
11.23806891969616
 40
11.23806891969616
 40
11.23806891969616
 40
11.23806891969616
 10
-153.6120512635237
 20
-195.9796715721197
 30
0.0
 10
-152.6522518984395
 20
-195.9525407880268
 30
0.0
 10
-150.7799409939274
 20
-195.89961592624
 30
0.0
 10
-147.9939926187292
 20
-195.8778205084809
 30
0.0
 10
-145.2080480033405
 20
-195.8996161943245
 30
0.0
 10
-143.3357443468835
 20
-195.9525408796104
 30
0.0
 10
-142.3759487364173
 20
-195.9796715721199
 30
0.0
 11
-153.6120512635237
 21
-195.9796715721197
 31
0.0
 11
-150.7324536220282
 21
-195.9083364241087
 31
0.0
 11
-147.9939891251259
 21
-195.8849623156745
 31
0.0
 11
-145.2555351128172
 21
-195.9083366140073
 31
0.0
 11
-142.3759487364173
 21
-195.9796715721199
 31
0.0
  0
SPLINE
  5
E3
330
47
100
AcDbEntity
  8
0
  6
Continuous
 62
     7
100
AcDbSpline
210
0.0
220
0.0
230
1.0
 70
     8
 71
     3
 72
    11
 73
     7
 74
     5
 42
0.000000001
 43
0.0000000001
 44
0.00000001
 40
0.0
 40
0.0
 40
0.0
 40
0.0
 40
2.779819846536503
 40
5.661877460823398
 40
8.54393507511032
 40
11.32375492164677
 40
11.32375492164677
 40
11.32375492164677
 40
11.32375492164677
 10
-153.6120512635394
 20
-200.1972152885501
 30
0.0
 10
-152.7014944011288
 20
-200.3751574517722
 30
0.0
 10
-150.8468917047553
 20
-200.7375862195945
 30
0.0
 10
-147.9939999999783
 20
-200.8652938908021
 30
0.0
 10
-145.1411082952014
 20
-200.7375862195945
 30
0.0
 10
-143.2865055988279
 20
-200.3751574517721
 30
0.0
 10
-142.3759487364173
 20
-200.1972152885501
 30
0.0
 11
-153.6120512635394
 21
-200.1972152885501
 31
0.0
 11
-150.8717158459676
 21
-200.6640773464421
 31
0.0
 11
-147.9939999999783
 21
-200.8222152885501
 31
0.0
 11
-145.116284153989
 21
-200.6640773464421
 31
0.0
 11
-142.3759487364173
 21
-200.1972152885501
 31
0.0
  0
SPLINE
  5
E4
330
47
100
AcDbEntity
  8
0
  6
Continuous
 62
     7
100
AcDbSpline
210
0.0
220
0.0
230
1.0
 70
     8
 71
     3
 72
    11
 73
     7
 74
     5
 42
0.000000001
 43
0.0000000001
 44
0.00000001
 40
0.0
 40
0.0
 40
0.0
 40
0.0
 40
2.932292850414011
 40
6.392419620350933
 40
10.06735742313143
 40
13.58811129325796
 40
13.58811129325796
 40
13.58811129325796
 40
13.58811129325796
 10
-139.829034190701
 20
-210.2172418828892
 30
0.0
 10
-140.6910287125143
 20
-210.6902893260882
 30
0.0
 10
-142.5701830106871
 20
-211.7215361592609
 30
0.0
 10
-145.919595370164
 20
-212.3055404104999
 30
0.0
 10
-149.4902371850699
 20
-212.4243823774147
 30
0.0
 10
-151.8428826418254
 20
-211.9115429203491
 30
0.0
 10
-152.9939999999783
 20
-211.6606175558633
 30
0.0
 11
-139.829034190701
 21
-210.2172418828892
 31
0.0
 11
-142.4671185257254
 21
-211.4974185935925
 31
0.0
 11
-145.8521350469977
 21
-212.2144544629748
 31
0.0
 11
-149.526631514617
 21
-212.2714068787751
 31
0.0
 11
-152.9939999999783
 21
-211.6606175558633
 31
0.0
  0
SPLINE
  5
E5
330
47
100
AcDbEntity
  8
0
  6
Continuous
 62
     7
100
AcDbSpline
210
0.0
220
0.0
230
1.0
 70
     8
 71
     3
 72
    11
 73
     7
 74
     5
 42
0.000000001
 43
0.0000000001
 44
0.00000001
 40
0.0
 40
0.0
 40
0.0
 40
0.0
 40
2.658123468761053
 40
5.794728385394935
 40
9.126059503438533
 40
12.31762288675801
 40
12.31762288675801
 40
12.31762288675801
 40
12.31762288675801
 10
-140.5924584938684
 20
-210.7570643845815
 30
0.0
 10
-141.3738565278513
 20
-211.1858818918188
 30
0.0
 10
-143.0773098996329
 20
-212.1207071446986
 30
0.0
 10
-146.1135522030137
 20
-212.650106999184
 30
0.0
 10
-149.3503390080685
 20
-212.7578372414682
 30
0.0
 10
-151.4830121147965
 20
-212.2929482750424
 30
0.0
 10
-152.5264999999783
 20
-212.0654844321325
 30
0.0
 11
-140.5924584938684
 21
-210.7570643845815
 31
0.0
 11
-142.9838819435682
 21
-211.917544572834
 31
0.0
 11
-146.0523994201014
 21
-212.5675375884291
 31
0.0
 11
-149.3833304679983
 21
-212.6191649533521
 31
0.0
 11
-152.5264999999783
 21
-212.0654844321325
 31
0.0
  0
SPLINE
  5
E6
330
47
100
AcDbEntity
  8
0
  6
Continuous
 62
     7
100
AcDbSpline
210
0.0
220
0.0
230
1.0
 70
     8
 71
     3
 72
     9
 73
     5
 74
     3
 42
0.000000001
 43
0.0000000001
 44
0.00000001
 40
0.0
 40
0.0
 40
0.0
 40
0.0
 40
1.879144615268766
 40
3.484988651121972
 40
3.484988651121972
 40
3.484988651121972
 40
3.484988651121972
 10
-158.3863048453916
 20
-174.3341446286409
 30
0.0
 10
-158.8506394860067
 20
-173.8850447212148
 30
0.0
 10
-159.7117764677999
 20
-173.0521614575696
 30
0.0
 10
-159.9049758708092
 20
-171.876073082881
 30
0.0
 10
-159.9939999999783
 20
-171.3341446286409
 30
0.0
 11
-158.3863048453916
 21
-174.3341446286409
 31
0.0
 11
-159.5851068251904
 21
-172.8870584852401
 31
0.0
 11
-159.9939999999783
 21
-171.3341446286409
 31
0.0
  0
SPLINE
  5
E7
330
47
100
AcDbEntity
  8
0
  6
Continuous
 62
     7
100
AcDbSpline
210
0.0
220
0.0
230
1.0
 70
     8
 71
     3
 72
     9
 73
     5
 74
     3
 42
0.000000001
 43
0.0000000001
 44
0.00000001
 40
0.0
 40
0.0
 40
0.0
 40
0.0
 40
1.040622363304425
 40
2.046186821479193
 40
2.046186821479193
 40
2.046186821479193
 40
2.046186821479193
 10
-153.6120512635394
 20
-178.2001700324253
 30
0.0
 10
-153.9489943097341
 20
-178.117115908574
 30
0.0
 10
-154.6115290000315
 20
-177.9538056821694
 30
0.0
 10
-155.2590605924289
 20
-177.7386112975919
 30
0.0
 10
-155.5772792136111
 20
-177.6328575894289
 30
0.0
 11
-153.6120512635394
 21
-178.2001700324253
 31
0.0
 11
-154.6189999978012
 21
-177.9375883306117
 31
0.0
 11
-155.5772792136111
 21
-177.6328575894289
 31
0.0
  0
SPLINE
  5
E8
330
47
100
AcDbEntity
  8
0
  6
Continuous
 62
     7
100
AcDbSpline
210
0.0
220
0.0
230
1.0
 70
     8
 71
     3
 72
    11
 73
     7
 74
     5
 42
0.000000001
 43
0.0000000001
 44
0.00000001
 40
0.0
 40
0.0
 40
0.0
 40
0.0
 40
2.088981447278435
 40
3.896256042283806
 40
5.340350120905777
 40
6.494524356719523
 40
6.494524356719523
 40
6.494524356719523
 40
6.494524356719523
 10
-149.5137858509242
 20
-162.9009893109995
 30
0.0
 10
-150.2052972888651
 20
-163.0142740702222
 30
0.0
 10
-151.4950672947121
 20
-163.2255667283918
 30
0.0
 10
-153.1185823765947
 20
-163.944399653228
 30
0.0
 10
-154.3569032657247
 20
-164.8866753411335
 30
0.0
 10
-154.5556949472352
 20
-165.7531128444801
 30
0.0
 10
-154.6439999999784
 20
-166.1379922059342
 30
0.0
 11
-149.5137858509242
 21
-162.9009893109995
 31
0.0
 11
-151.5580586965794
 21
-163.3308636940949
 31
0.0
 11
-153.2059610468776
 21
-164.0729279184601
 31
0.0
 11
-154.2742012715795
 21
-165.0446637661546
 31
0.0
 11
-154.6439999999784
 21
-166.1379922059342
 31
0.0
  0
SPLINE
  5
E9
330
47
100
AcDbEntity
  8
0
  6
Continuous
 62
     7
100
AcDbSpline
210
0.0
220
0.0
230
1.0
 70
     8
 71
     3
 72
     9
 73
     5
 74
     3
 42
0.000000001
 43
0.0000000001
 44
0.00000001
 40
0.0
 40
0.0
 40
0.0
 40
0.0
 40
1.443258189547041
 40
2.971890956134406
 40
2.971890956134406
 40
2.971890956134406
 40
2.971890956134406
 10
-158.9939999999783
 20
-187.4158931020966
 30
0.0
 10
-159.3536569969922
 20
-187.7354293524449
 30
0.0
 10
-160.0942461480887
 20
-188.3934037335476
 30
0.0
 10
-160.8213398780095
 20
-189.0662641579703
 30
0.0
 10
-161.1953304771668
 20
-189.4123591291172
 30
0.0
 11
-158.9939999999783
 21
-187.4158931020966
 31
0.0
 11
-160.0697881890263
 21
-188.3780126238789
 31
0.0
 11
-161.1953304771668
 21
-189.4123591291172
 31
0.0
  0
SPLINE
  5
EA
330
47
100
AcDbEntity
  8
0
  6
Continuous
 62
     7
100
AcDbSpline
210
0.0
220
0.0
230
1.0
 70
     8
 71
     3
 72
    11
 73
     7
 74
     5
 42
0.000000001
 43
0.0000000001
 44
0.00000001
 40
0.0
 40
0.0
 40
0.0
 40
0.0
 40
0.965383432666955
 40
2.047579218757944
 40
3.166975324257278
 40
4.343341372154621
 40
4.343341372154621
 40
4.343341372154621
 40
4.343341372154621
 10
-158.3863048453916
 20
-174.3341446286409
 30
0.0
 10
-158.1488777228637
 20
-174.5516322354315
 30
0.0
 10
-157.6452945710307
 20
-175.0129236764756
 30
0.0
 10
-156.944512303884
 20
-175.8045247537045
 30
0.0
 10
-156.2430710921131
 20
-176.6858308101787
 30
0.0
 10
-155.8028512263073
 20
-177.3120024552719
 30
0.0
 10
-155.5772792136111
 20
-177.6328575894289
 30
0.0
 11
-158.3863048453916
 21
-174.3341446286409
 31
0.0
 11
-157.6852487984885
 21
-174.9978355147599
 31
0.0
 11
-156.959992146038
 21
-175.8010481326918
 31
0.0
 11
-156.2635789501603
 21
-176.6774363475051
 31
0.0
 11
-155.5772792136111
 21
-177.6328575894289
 31
0.0
  0
SPLINE
  5
EB
330
47
100
AcDbEntity
  8
0
  6
Continuous
 62
     7
100
AcDbSpline
210
0.0
220
0.0
230
1.0
 70
     8
 71
     3
 72
    11
 73
     7
 74
     5
 42
0.000000001
 43
0.0000000001
 44
0.00000001
 40
0.0
 40
0.0
 40
0.0
 40
0.0
 40
0.7278884420754151
 40
1.49946079137444
 40
2.331813681772918
 40
3.241926206835939
 40
3.241926206835939
 40
3.241926206835939
 40
3.241926206835939
 10
-161.1953304771721
 20
-172.7674824754218
 30
0.0
 10
-160.9635591359338
 20
-172.8402046672814
 30
0.0
 10
-160.4861068025029
 20
-172.9900134558966
 30
0.0
 10
-159.7846135095471
 20
-173.3303406558703
 30
0.0
 10
-159.0701653890874
 20
-173.7722035016384
 30
0.0
 10
-158.6209407550793
 20
-174.141339862825
 30
0.0
 10
-158.3863048453916
 20
-174.3341446286409
 30
0.0
 11
-161.1953304771721
 21
-172.7674824754218
 31
0.0
 11
-160.5062282338005
 21
-173.0019172926532
 31
0.0
 11
-159.8090792866465
 21
-173.3325337435346
 31
0.0
 11
-159.1027496976829
 21
-173.772885702404
 31
0.0
 11
-158.3863048453916
 21
-174.3341446286409
 31
0.0
  0
SPLINE
  5
EC
330
47
100
AcDbEntity
  8
0
  6
Continuous
 62
     7
100
AcDbSpline
210
0.0
220
0.0
230
1.0
 70
     8
 71
     3
 72
    11
 73
     7
 74
     5
 42
0.000000001
 43
0.0000000001
 44
0.00000001
 40
0.0
 40
0.0
 40
0.0
 40
0.0
 40
2.661916430263283
 40
4.938075519409999
 40
6.817220129880496
 40
8.423064164065423
 40
8.423064164065423
 40
8.423064164065423
 40
8.423064164065423
 10
-153.9939999999783
 20
-175.058053864914
 30
0.0
 10
-154.8397742775712
 20
-174.7755584528858
 30
0.0
 10
-156.4087556309589
 20
-174.2515060485319
 30
0.0
 10
-158.3275454573786
 20
-173.0243074623195
 30
0.0
 10
-159.7042628564852
 20
-171.5670227670785
 30
0.0
 10
-159.9026057880996
 20
-170.3997621589889
 30
0.0
 10
-159.9939999999783
 20
-169.8619014422073
 30
0.0
 11
-153.9939999999783
 21
-175.058053864914
 31
0.0
 11
-156.479279111992
 21
-174.1045409982141
 31
0.0
 11
-158.3863048453916
 21
-172.8619014422073
 31
0.0
 11
-159.5851068251904
 21
-171.4148152988065
 31
0.0
 11
-159.9939999999783
 21
-169.8619014422073
 31
0.0
  0
SPLINE
  5
ED
330
47
100
AcDbEntity
  8
0
  6
Continuous
 62
     7
100
AcDbSpline
210
0.0
220
0.0
230
1.0
 70
     8
 71
     3
 72
    11
 73
     7
 74
     5
 42
0.000000001
 43
0.0000000001
 44
0.00000001
 40
0.0
 40
0.0
 40
0.0
 40
0.0
 40
1.527027890391564
 40
3.291442744917923
 40
5.363997225739022
 40
7.742165729878002
 40
7.742165729878002
 40
7.742165729878002
 40
7.742165729878002
 10
-161.1953304771721
 20
-194.7645277315465
 30
0.0
 10
-161.040616778669
 20
-195.2558231351423
 30
0.0
 10
-160.707138061673
 20
-196.3147891784107
 30
0.0
 10
-159.4262288401607
 20
-197.6328013424854
 30
0.0
 10
-157.7047942893447
 20
-198.7970766712743
 30
0.0
 10
-156.3181885348984
 20
-199.3398702754644
 30
0.0
 10
-155.5772792136111
 20
-199.6299028455536
 30
0.0
 11
-161.1953304771721
 21
-194.7645277315465
 31
0.0
 11
-160.6337915727814
 21
-196.1845588037462
 31
0.0
 11
-159.4688366001221
 21
-197.5097152885501
 31
0.0
 11
-157.756075726792
 21
-198.676733831246
 31
0.0
 11
-155.5772792136111
 21
-199.6299028455536
 31
0.0
  0
SPLINE
  5
EE
330
47
100
AcDbEntity
  8
0
  6
Continuous
 62
     7
100
AcDbSpline
210
0.0
220
0.0
230
1.0
 70
     8
 71
     3
 72
     9
 73
     5
 74
     3
 42
0.000000001
 43
0.0000000001
 44
0.00000001
 40
0.0
 40
0.0
 40
0.0
 40
0.0
 40
1.040622363317687
 40
2.046186821494332
 40
2.046186821494332
 40
2.046186821494332
 40
2.046186821494332
 10
-153.6120512635237
 20
-195.9796715721197
 30
0.0
 10
-153.948994309723
 20
-195.8966174482688
 30
0.0
 10
-154.6115290000261
 20
-195.7333072218658
 30
0.0
 10
-155.2590605924283
 20
-195.5181128372866
 30
0.0
 10
-155.5772792136111
 20
-195.4123591291234
 30
0.0
 11
-153.6120512635237
 21
-195.9796715721197
 31
0.0
 11
-154.6189999977992
 21
-195.7170898703062
 31
0.0
 11
-155.5772792136111
 21
-195.4123591291234
 31
0.0
  0
SPLINE
  5
EF
330
47
100
AcDbEntity
  8
0
  6
Continuous
 62
     7
100
AcDbSpline
210
0.0
220
0.0
230
1.0
 70
     8
 71
     3
 72
    11
 73
     7
 74
     5
 42
0.000000001
 43
0.0000000001
 44
0.00000001
 40
0.0
 40
0.0
 40
0.0
 40
0.0
 40
2.939199391159484
 40
5.452458385766485
 40
7.527347227218593
 40
9.300466682029423
 40
9.300466682029423
 40
9.300466682029423
 40
9.300466682029423
 10
-154.6189999999783
 20
-200.4542488308927
 30
0.0
 10
-155.5528757646331
 20
-200.1423268135075
 30
0.0
 10
-157.2852926760469
 20
-199.5636856181159
 30
0.0
 10
-159.4039564425485
 20
-198.2086538455258
 30
0.0
 10
-160.924081905435
 20
-196.5995686613003
 30
0.0
 10
-161.143085557673
 20
-195.3107184057338
 30
0.0
 10
-161.2439999999783
 20
-194.7168305308207
 30
0.0
 11
-154.6189999999783
 21
-200.4542488308927
 31
0.0
 11
-157.3631623528267
 21
-199.4014117072449
 31
0.0
 11
-159.4688366001222
 21
-198.0293305308207
 31
0.0
 11
-160.79251378615
 21
-196.4315062474824
 31
0.0
 11
-161.2439999999783
 21
-194.7168305308207
 31
0.0
  0
SPLINE
  5
F0
330
47
100
AcDbEntity
  8
0
  6
Continuous
 62
     7
100
AcDbSpline
210
0.0
220
0.0
230
1.0
 70
     8
 71
     3
 72
     9
 73
     5
 74
     3
 42
0.000000001
 43
0.0000000001
 44
0.00000001
 40
0.0
 40
0.0
 40
0.0
 40
0.0
 40
1.935681993709876
 40
3.521400151348309
 40
3.521400151348309
 40
3.521400151348309
 40
3.521400151348309
 10
-156.1589658092556
 20
-210.2172418828892
 30
0.0
 10
-156.6865799287393
 20
-209.8034929678024
 30
0.0
 10
-157.6464175552432
 20
-209.0507993337238
 30
0.0
 10
-157.8860785201236
 20
-207.8646322471149
 30
0.0
 10
-157.9939999999783
 20
-207.3304905369411
 30
0.0
 11
-156.1589658092556
 21
-210.2172418828892
 31
0.0
 11
-157.5241994333551
 21
-208.8450167039765
 31
0.0
 11
-157.9939999999783
 21
-207.3304905369411
 31
0.0
  0
SPLINE
  5
F1
330
47
100
AcDbEntity
  8
0
  6
Continuous
 62
     7
100
AcDbSpline
210
0.0
220
0.0
230
1.0
 70
     8
 71
     3
 72
     9
 73
     5
 74
     3
 42
0.000000001
 43
0.0000000001
 44
0.00000001
 40
0.0
 40
0.0
 40
0.0
 40
0.0
 40
1.851518203789195
 40
3.490318540952764
 40
3.490318540952764
 40
3.490318540952764
 40
3.490318540952764
 10
-152.9939999999783
 20
-211.6606175558633
 30
0.0
 10
-153.5849119862308
 20
-211.4730572292149
 30
0.0
 10
-154.6988470494616
 20
-211.1194850534862
 30
0.0
 10
-155.6924445299416
 20
-210.505516823741
 30
0.0
 10
-156.1589658092556
 20
-210.2172418828892
 30
0.0
 11
-152.9939999999783
 21
-211.6606175558633
 31
0.0
 11
-154.7328728224371
 21
-211.0246608204479
 31
0.0
 11
-156.1589658092556
 21
-210.2172418828892
 31
0.0
  0
SPLINE
  5
F2
330
47
100
AcDbEntity
  8
0
  6
Continuous
 62
     7
100
AcDbSpline
210
0.0
220
0.0
230
1.0
 70
     8
 71
     3
 72
     9
 73
     5
 74
     3
 42
0.000000001
 43
0.0000000001
 44
0.00000001
 40
0.0
 40
0.0
 40
0.0
 40
0.0
 40
1.678401251658064
 40
3.163973757220016
 40
3.163973757220016
 40
3.163973757220016
 40
3.163973757220016
 10
-152.5264999999783
 20
-212.0654844321325
 30
0.0
 10
-153.0621617154916
 20
-211.8954609960335
 30
0.0
 10
-154.0719438495404
 20
-211.5749478170308
 30
0.0
 10
-154.9726399664119
 20
-211.0183856184501
 30
0.0
 10
-155.3955415060882
 20
-210.7570643845815
 30
0.0
 11
-152.5264999999783
 21
-212.0654844321325
 31
0.0
 11
-154.1027882135373
 21
-211.4889896514785
 31
0.0
 11
-155.3955415060882
 21
-210.7570643845815
 31
0.0
  0
SPLINE
  5
F3
330
47
100
AcDbEntity
  8
0
  6
Continuous
 62
     7
100
AcDbSpline
210
0.0
220
0.0
230
1.0
 70
     8
 71
     3
 72
    13
 73
     9
 74
     7
 42
0.000000001
 43
0.0000000001
 44
0.00000001
 40
0.0
 40
0.0
 40
0.0
 40
0.0
 40
2.402656760750107
 40
5.446367914682586
 40
9.26914051840435
 40
13.66431574056903
 40
18.26598899969086
 40
22.66117410445793
 40
22.66117410445793
 40
22.66117410445793
 40
22.66117410445793
 10
-134.7439999999783
 20
-194.7168305308207
 30
0.0
 10
-134.9371031566799
 20
-195.5165850652944
 30
0.0
 10
-135.3748314613359
 20
-197.329477147957
 30
0.0
 10
-138.041805859711
 20
-199.2483795213496
 30
0.0
 10
-141.5012855869226
 20
-200.6465859334838
 30
0.0
 10
-145.7533949282099
 20
-201.3639147498281
 30
0.0
 10
-150.246882229816
 20
-201.4198410675563
 30
0.0
 10
-153.1840982285396
 20
-200.7711501800293
 30
0.0
 10
-154.6189999999783
 20
-200.4542488308927
 30
0.0
 11
-134.7439999999783
 21
-194.7168305308207
 31
0.0
 11
-135.5430914395847
 21
-196.9827105835975
 31
0.0
 11
-137.8439111286519
 21
-198.9752984449941
 31
0.0
 11
-141.3690099314279
 21
-200.4542402300051
 31
0.0
 11
-145.6931616458916
 21
-201.2411818945266
 31
0.0
 11
-150.294834904909
 21
-201.2411721139581
 31
0.0
 11
-154.6189999999783
 21
-200.4542488308927
 31
0.0
  0
ENDBLK
  5
49
330
47
100
AcDbEntity
  8
0
100
AcDbBlockEnd
  0
BLOCK
  5
4C
330
4A
100
AcDbEntity
  8
0
100
AcDbBlockBegin
  2
Allg1
 70
     0
 10
-147.9940000000001
 20
-187.139
 30
0.0
  3
Allg1
  1

  0
INSERT
  5
4B
330
4A
100
AcDbEntity
  8
0
100
AcDbBlockReference
  2
G_INS_M20_M68L_PEPDS_LG-select__1
 10
-161.2439999999783
 20
-212.8095822561505
 30
0.0
  0
MTEXT
  5
F5
330
4A
100
AcDbEntity
  8
1
 62
     6
100
AcDbMText
 10
-147.99999999998
 20
-225.231455453928
 30
0.0
 40
5.0
 41
0.0
 71
     2
 72
     1
  1
 
  7
CONVERTER_11
 73
     1
 44
1.32052821128451
  0
ENDBLK
  5
4D
330
4A
100
AcDbEntity
  8
0
100
AcDbBlockEnd
  0
BLOCK
  5
4F
330
4E
100
AcDbEntity
  8
0
100
AcDbBlockBegin
  2
G_INS_M20_M68L_PEPDS_LG-select__2
 70
     0
 10
-289.2579999999946
 20
-200.0039991493944
 30
0.0
  3
G_INS_M20_M68L_PEPDS_LG-select__2
  1

  0
LINE
  5
F6
330
4E
100
AcDbEntity
  8
0
  6
Continuous
 62
     7
100
AcDbLine
 10
-265.1426248860059
 20
-179.1707199357526
 30
0.0
 11
-270.008
 21
-176.3616943039811
 31
0.0
  0
LINE
  5
F7
330
4E
100
AcDbEntity
  8
0
  6
Continuous
 62
     7
100
AcDbLine
 10
-270.008
 20
-176.3616943039811
 30
0.0
 11
-274.8733751140072
 21
-173.5526686722006
 31
0.0
  0
LINE
  5
F8
330
4E
100
AcDbEntity
  8
0
  6
Continuous
 62
     7
100
AcDbLine
 10
-277.1426248860072
 20
-173.5526686722073
 30
0.0
 11
-282.008
 21
-176.3616943039812
 31
0.0
  0
LINE
  5
F9
330
4E
100
AcDbEntity
  8
0
  6
Continuous
 62
     7
100
AcDbLine
 10
-282.008
 20
-176.3616943039812
 30
0.0
 11
-286.8733751140072
 21
-179.1707199357616
 31
0.0
  0
LINE
  5
FA
330
4E
100
AcDbEntity
  8
0
  6
Continuous
 62
     7
100
AcDbLine
 10
-288.0080000000014
 20
-181.1359478858491
 30
0.0
 11
-288.008
 21
-186.7539991493944
 31
0.0
  0
LINE
  5
FB
330
4E
100
AcDbEntity
  8
0
  6
Continuous
 62
     7
100
AcDbLine
 10
-288.008
 20
-186.7539991493944
 30
0.0
 11
-288.008
 21
-192.3720504129555
 31
0.0
  0
LINE
  5
FC
330
4E
100
AcDbEntity
  8
0
  6
Continuous
 62
     7
100
AcDbLine
 10
-274.8733751139929
 20
-199.9553296265815
 30
0.0
 11
-270.008
 21
-197.1463039948076
 31
0.0
  0
LINE
  5
FD
330
4E
100
AcDbEntity
  8
0
  6
Continuous
 62
     7
100
AcDbLine
 10
-270.008
 20
-197.1463039948076
 30
0.0
 11
-265.1426248859929
 21
-194.3372783630271
 31
0.0
  0
LINE
  5
FE
330
4E
100
AcDbEntity
  8
0
  6
Continuous
 62
     7
100
AcDbLine
 10
-282.008
 20
-197.1463039948077
 30
0.0
 11
-286.8733751139942
 21
-194.3372783630362
 31
0.0
  0
LINE
  5
FF
330
4E
100
AcDbEntity
  8
0
  6
Continuous
 62
     7
100
AcDbLine
 10
-277.1426248859929
 20
-199.9553296265882
 30
0.0
 11
-282.008
 21
-197.1463039948077
 31
0.0
  0
LINE
  5
100
330
4E
100
AcDbEntity
  8
0
  6
Continuous
 62
     7
100
AcDbLine
 10
-264.008
 20
-186.7539991493944
 30
0.0
 11
-264.0079999999991
 21
-181.1359478858457
 31
0.0
  0
LINE
  5
101
330
4E
100
AcDbEntity
  8
0
  6
Continuous
 62
     7
100
AcDbLine
 10
-264.0079999999991
 20
-192.3720504129431
 30
0.0
 11
-264.008
 21
-186.7539991493944
 31
0.0
  0
LINE
  5
102
330
4E
100
AcDbEntity
  8
1
  6
DOT_CENTER
 62
     2
100
AcDbLine
 10
-261.4330000000031
 20
-186.7539991494008
 30
0.0
 11
-290.582999999997
 21
-186.7539991494008
 31
0.0
  0
LINE
  5
103
330
4E
100
AcDbEntity
  8
1
  6
DOT_CENTER
 62
     2
100
AcDbLine
 10
-276.008
 20
-172.1789991494038
 30
0.0
 11
-276.008
 21
-201.3289991493978
 31
0.0
  0
ARC
  5
104
330
4E
100
AcDbEntity
  8
0
  6
Continuous
 62
     7
100
AcDbCircle
 10
-276.008
 20
-186.7539991494008
 30
0.0
 40
13.24999999999732
100
AcDbArc
 50
154.9123721585276
 51
205.0876278414866
  0
ARC
  5
105
330
4E
100
AcDbEntity
  8
0
  6
Continuous
 62
     7
100
AcDbCircle
 10
-276.0080000000127
 20
-186.7539991494163
 30
0.0
 40
13.24999999999783
100
AcDbArc
 50
325.0876278416206
 51
334.9123721586475
  0
ARC
  5
106
330
4E
100
AcDbEntity
  8
0
  6
Continuous
 62
     7
100
AcDbCircle
 10
-276.008
 20
-186.7539991493944
 30
0.0
 40
11.99999999999995
100
AcDbArc
 50
300.0000000000001
 51
0.0
  0
ARC
  5
107
330
4E
100
AcDbEntity
  8
0
  6
Continuous
 62
     7
100
AcDbCircle
 10
-276.0079999999843
 20
-186.7539991493671
 30
0.0
 40
13.24999999999735
100
AcDbArc
 50
145.0876278416473
 51
154.9123721586884
  0
ARC
  5
108
330
4E
100
AcDbEntity
  8
0
  6
Continuous
 62
     7
100
AcDbCircle
 10
-276.0079999999969
 20
-186.7539991493999
 30
0.0
 40
13.24999999999514
100
AcDbArc
 50
25.08762784148874
 51
34.91237215857991
  0
ARC
  5
109
330
4E
100
AcDbEntity
  8
0
  6
Continuous
 62
     7
100
AcDbCircle
 10
-276.008
 20
-186.7539991493944
 30
0.0
 40
12.0
100
AcDbArc
 50
0.0
 51
60.00000000000008
  0
ARC
  5
10A
330
4E
100
AcDbEntity
  8
0
  6
Continuous
 62
     7
100
AcDbCircle
 10
-276.0080000000056
 20
-186.7539991493912
 30
0.0
 40
13.24999999999728
100
AcDbArc
 50
34.91237215852755
 51
85.0876278414866
  0
ARC
  5
10B
330
4E
100
AcDbEntity
  8
0
  6
Continuous
 62
     7
100
AcDbCircle
 10
-276.008
 20
-186.7539991493944
 30
0.0
 40
12.00000000000002
100
AcDbArc
 50
60.00000000000008
 51
90.0
  0
ARC
  5
10C
330
4E
100
AcDbEntity
  8
0
  6
Continuous
 62
     7
100
AcDbCircle
 10
-276.008
 20
-186.7539991493944
 30
0.0
 40
12.0
100
AcDbArc
 50
90.0
 51
120.0000000000002
  0
ARC
  5
10D
330
4E
100
AcDbEntity
  8
0
  6
Continuous
 62
     7
100
AcDbCircle
 10
-276.0079999999683
 20
-186.7539991493944
 30
0.0
 40
13.24999999999727
100
AcDbArc
 50
85.08762784164841
 51
94.9123721586891
  0
ARC
  5
10E
330
4E
100
AcDbEntity
  8
0
  6
Continuous
 62
     7
100
AcDbCircle
 10
-276.0080000000056
 20
-186.7539991493976
 30
0.0
 40
13.24999999999728
100
AcDbArc
 50
94.91237215852723
 51
145.0876278414864
  0
ARC
  5
10F
330
4E
100
AcDbEntity
  8
0
  6
Continuous
 62
     7
100
AcDbCircle
 10
-276.0080000000159
 20
-186.7539991493669
 30
0.0
 40
13.24999999999726
100
AcDbArc
 50
205.0876278416486
 51
214.9123721586894
  0
ARC
  5
110
330
4E
100
AcDbEntity
  8
0
  6
Continuous
 62
     7
100
AcDbCircle
 10
-276.008
 20
-186.7539991493944
 30
0.0
 40
12.0
100
AcDbArc
 50
180.0
 51
240.0000000000001
  0
ARC
  5
111
330
4E
100
AcDbEntity
  8
0
  6
Continuous
 62
     7
100
AcDbCircle
 10
-276.008
 20
-186.7539991493944
 30
0.0
 40
12.00000000000005
100
AcDbArc
 50
240.0000000000001
 51
300.0000000000001
  0
ARC
  5
112
330
4E
100
AcDbEntity
  8
0
  6
Continuous
 62
     7
100
AcDbCircle
 10
-276.0080000000318
 20
-186.7539991493944
 30
0.0
 40
13.24999999999729
100
AcDbArc
 50
265.0876278416484
 51
274.9123721586893
  0
ARC
  5
113
330
4E
100
AcDbEntity
  8
0
  6
Continuous
 62
     7
100
AcDbCircle
 10
-276.0079999999945
 20
-186.7539991493912
 30
0.0
 40
13.24999999999725
100
AcDbArc
 50
274.9123721585275
 51
325.0876278414867
  0
ARC
  5
114
330
4E
100
AcDbEntity
  8
0
  6
Continuous
 62
     7
100
AcDbCircle
 10
-276.0079999999945
 20
-186.7539991493976
 30
0.0
 40
13.24999999999724
100
AcDbArc
 50
214.9123721585277
 51
265.0876278414866
  0
ARC
  5
115
330
4E
100
AcDbEntity
  8
0
  6
Continuous
 62
     7
100
AcDbCircle
 10
-276.008
 20
-186.7539991493944
 30
0.0
 40
13.24999999999559
100
AcDbArc
 50
334.9123721585384
 51
25.08762784146151
  0
ARC
  5
116
330
4E
100
AcDbEntity
  8
0
  6
Continuous
 62
     7
100
AcDbCircle
 10
-276.008
 20
-186.7539991493944
 30
0.0
 40
11.99999999999993
100
AcDbArc
 50
120.0000000000002
 51
180.0
  0
CIRCLE
  5
117
330
4E
100
AcDbEntity
  8
0
  6
Continuous
 62
     7
100
AcDbCircle
 10
-276.008
 20
-186.7539991493944
 30
0.0
 40
6.64999999999991
  0
CIRCLE
  5
118
330
4E
100
AcDbEntity
  8
0
  6
Continuous
 62
     7
100
AcDbCircle
 10
-276.008
 20
-186.7539991493944
 30
0.0
 40
9.519999999999982
  0
ENDBLK
  5
50
330
4E
100
AcDbEntity
  8
0
100
AcDbBlockEnd
  0
BLOCK
  5
53
330
51
100
AcDbEntity
  8
0
100
AcDbBlockBegin
  2
Drfsicht1
 70
     0
 10
-276.007999999975
 20
-186.7539991493943
 30
0.0
  3
Drfsicht1
  1

  0
INSERT
  5
52
330
51
100
AcDbEntity
  8
0
100
AcDbBlockReference
  2
G_INS_M20_M68L_PEPDS_LG-select__2
 10
-289.2579999999946
 20
-200.0039991493944
 30
0.0
  0
MTEXT
  5
119
330
51
100
AcDbEntity
  8
1
 62
     6
100
AcDbMText
 10
-276.007999999975
 20
-207.7559991493943
 30
0.0
 40
5.0
 41
0.0
 71
     2
 72
     1
  1
 
  7
CONVERTER_11
 73
     1
 44
1.32052821128451
  0
ENDBLK
  5
54
330
51
100
AcDbEntity
  8
0
100
AcDbBlockEnd
  0
BLOCK
  5
56
330
55
100
AcDbEntity
  8
0
100
AcDbBlockBegin
  2
G_INS_M20_M68L_PEPDS_LG-select__3
 70
     0
 10
-185.249999999975
 20
-139.2501249936782
 30
0.0
  3
G_INS_M20_M68L_PEPDS_LG-select__3
  1

  0
LINE
  5
11A
330
55
100
AcDbEntity
  8
0
  6
Continuous
 62
     7
100
AcDbLine
 10
-170.8653751139821
 20
-97.7501249936782
 30
0.0
 11
-173.1346248859678
 21
-97.7501249936782
 31
0.0
  0
LINE
  5
11B
330
55
100
AcDbEntity
  8
0
  6
Continuous
 62
     7
100
AcDbLine
 10
-160.999999999975
 20
-118.0832755007449
 30
0.0
 11
-160.999999999975
 21
-110.7501249936782
 31
0.0
  0
LINE
  5
11C
330
55
100
AcDbEntity
  8
0
  6
Continuous
 62
     7
100
AcDbLine
 10
-161.1346248859679
 20
-97.7501249936782
 30
0.0
 11
-161.1346248859679
 21
-110.7501249936782
 31
0.0
  0
LINE
  5
11D
330
55
100
AcDbEntity
  8
0
  6
Continuous
 62
     7
100
AcDbLine
 10
-161.1346248859679
 20
-110.7501249936782
 30
0.0
 11
-170.8653751139821
 21
-110.7501249936782
 31
0.0
  0
LINE
  5
11E
330
55
100
AcDbEntity
  8
0
  6
Continuous
 62
     7
100
AcDbLine
 10
-160.999999999975
 20
-118.0832755007449
 30
0.0
 11
-159.999999999975
 21
-118.1707641642708
 31
0.0
  0
LINE
  5
11F
330
55
100
AcDbEntity
  8
0
  6
Continuous
 62
     7
100
AcDbLine
 10
-170.8653751139821
 20
-97.7501249936782
 30
0.0
 11
-170.8653751139821
 21
-110.7501249936782
 31
0.0
  0
LINE
  5
120
330
55
100
AcDbEntity
  8
0
  6
Continuous
 62
     7
100
AcDbLine
 10
-159.999999999975
 20
-95.0501249936782
 30
0.0
 11
-171.999999999975
 21
-95.0501249936782
 31
0.0
  0
LINE
  5
121
330
55
100
AcDbEntity
  8
0
  6
Continuous
 62
     7
100
AcDbLine
 10
-159.999999999975
 20
-96.7501249936782
 30
0.0
 11
-165.999999999975
 21
-96.7501249936782
 31
0.0
  0
LINE
  5
122
330
55
100
AcDbEntity
  8
0
  6
Continuous
 62
     7
100
AcDbLine
 10
-165.999999999975
 20
-96.7501249936782
 30
0.0
 11
-177.999999999975
 21
-96.7501249936782
 31
0.0
  0
LINE
  5
123
330
55
100
AcDbEntity
  8
0
  6
Continuous
 62
     7
100
AcDbLine
 10
-162.934999999975
 20
-139.2501249936782
 30
0.0
 11
-171.999999999975
 21
-139.2501249936782
 31
0.0
  0
LINE
  5
124
330
55
100
AcDbEntity
  8
0
  6
Continuous
 62
     7
100
AcDbLine
 10
-161.999999999975
 20
-138.3151249936782
 30
0.0
 11
-171.999999999975
 21
-138.3151249936782
 31
0.0
  0
LINE
  5
125
330
55
100
AcDbEntity
  8
0
  6
Continuous
 62
     7
100
AcDbLine
 10
-160.499999999975
 20
-124.2501249936782
 30
0.0
 11
-161.999999999975
 21
-124.2501249936782
 31
0.0
  0
LINE
  5
126
330
55
100
AcDbEntity
  8
0
  6
Continuous
 62
     7
100
AcDbLine
 10
-160.499999999975
 20
-124.2501249936782
 30
0.0
 11
-160.499999999975
 21
-123.7501249936782
 31
0.0
  0
LINE
  5
127
330
55
100
AcDbEntity
  8
0
  6
Continuous
 62
     7
100
AcDbLine
 10
-171.999999999975
 20
-118.0832755007449
 30
0.0
 11
-160.999999999975
 21
-118.0832755007449
 31
0.0
  0
LINE
  5
128
330
55
100
AcDbEntity
  8
0
  6
Continuous
 62
     7
100
AcDbLine
 10
-161.999999999975
 20
-124.2501249936782
 30
0.0
 11
-171.999999999975
 21
-124.2501249936782
 31
0.0
  0
LINE
  5
129
330
55
100
AcDbEntity
  8
0
  6
Continuous
 62
     7
100
AcDbLine
 10
-161.999999999975
 20
-138.3151249936782
 30
0.0
 11
-161.999999999975
 21
-124.2501249936782
 31
0.0
  0
LINE
  5
12A
330
55
100
AcDbEntity
  8
0
  6
Continuous
 62
     7
100
AcDbLine
 10
-162.934999999975
 20
-139.2501249936782
 30
0.0
 11
-161.999999999975
 21
-138.3151249936782
 31
0.0
  0
LINE
  5
12B
330
55
100
AcDbEntity
  8
0
  6
Continuous
 62
     7
100
AcDbLine
 10
-183.999999999976
 20
-118.2801249936775
 30
0.0
 11
-183.999999999975
 21
-123.1501249936782
 31
0.0
  0
LINE
  5
12C
330
55
100
AcDbEntity
  8
0
  6
Continuous
 62
     7
100
AcDbLine
 10
-183.999999999975
 20
-118.1707641642708
 30
0.0
 11
-183.999999999976
 21
-118.2801249936775
 31
0.0
  0
LINE
  5
12D
330
55
100
AcDbEntity
  8
0
  6
Continuous
 62
     7
100
AcDbLine
 10
-182.8653751139691
 20
-118.2801249936773
 30
0.0
 11
-182.8653751139821
 21
-123.1501249936782
 31
0.0
  0
LINE
  5
12E
330
55
100
AcDbEntity
  8
0
  6
Continuous
 62
     7
100
AcDbLine
 10
-181.999999999975
 20
-138.3151249936782
 30
0.0
 11
-181.999999999975
 21
-124.2501249936782
 31
0.0
  0
LINE
  5
12F
330
55
100
AcDbEntity
  8
0
  6
Continuous
 62
     7
100
AcDbLine
 10
-181.064999999975
 20
-139.2501249936782
 30
0.0
 11
-181.999999999975
 21
-138.3151249936782
 31
0.0
  0
LINE
  5
130
330
55
100
AcDbEntity
  8
0
  6
Continuous
 62
     7
100
AcDbLine
 10
-170.8653751139678
 20
-118.2801249936773
 30
0.0
 11
-173.1346248859678
 21
-118.2801249936782
 31
0.0
  0
LINE
  5
131
330
55
100
AcDbEntity
  8
0
  6
Continuous
 62
     7
100
AcDbLine
 10
-170.8653751139821
 20
-110.7501249936782
 30
0.0
 11
-173.1346248859678
 21
-110.7501249936782
 31
0.0
  0
LINE
  5
132
330
55
100
AcDbEntity
  8
0
  6
Continuous
 62
     7
100
AcDbLine
 10
-183.999999999975
 20
-96.7501249936782
 30
0.0
 11
-183.999999999975
 21
-95.0501249936782
 31
0.0
  0
LINE
  5
133
330
55
100
AcDbEntity
  8
0
  6
Continuous
 62
     7
100
AcDbLine
 10
-183.999999999975
 20
-97.7501249936782
 30
0.0
 11
-183.999999999975
 21
-96.7501249936782
 31
0.0
  0
LINE
  5
134
330
55
100
AcDbEntity
  8
0
  6
Continuous
 62
     7
100
AcDbLine
 10
-177.999999999975
 20
-96.7501249936782
 30
0.0
 11
-183.999999999975
 21
-96.7501249936782
 31
0.0
  0
LINE
  5
135
330
55
100
AcDbEntity
  8
0
  6
Continuous
 62
     7
100
AcDbLine
 10
-171.999999999975
 20
-95.0501249936782
 30
0.0
 11
-183.999999999975
 21
-95.0501249936782
 31
0.0
  0
LINE
  5
136
330
55
100
AcDbEntity
  8
0
  6
Continuous
 62
     7
100
AcDbLine
 10
-182.8653751139821
 20
-97.7501249936782
 30
0.0
 11
-183.999999999975
 21
-97.7501249936782
 31
0.0
  0
LINE
  5
137
330
55
100
AcDbEntity
  8
0
  6
Continuous
 62
     7
100
AcDbLine
 10
-182.999999999975
 20
-110.7501249936782
 30
0.0
 11
-183.999999999975
 21
-110.7501249936782
 31
0.0
  0
LINE
  5
138
330
55
100
AcDbEntity
  8
0
  6
Continuous
 62
     7
100
AcDbLine
 10
-182.999999999975
 20
-118.0832755007449
 30
0.0
 11
-183.999999999975
 21
-118.1707641642708
 31
0.0
  0
LINE
  5
139
330
55
100
AcDbEntity
  8
0
  6
Continuous
 62
     7
100
AcDbLine
 10
-182.8653751139821
 20
-97.7501249936782
 30
0.0
 11
-182.8653751139821
 21
-110.7501249936782
 31
0.0
  0
LINE
  5
13A
330
55
100
AcDbEntity
  8
0
  6
Continuous
 62
     7
100
AcDbLine
 10
-173.1346248859678
 20
-97.7501249936782
 30
0.0
 11
-173.1346248859678
 21
-110.7501249936782
 31
0.0
  0
LINE
  5
13B
330
55
100
AcDbEntity
  8
0
  6
Continuous
 62
     7
100
AcDbLine
 10
-183.999999999975
 20
-97.7501249936782
 30
0.0
 11
-183.999999999975
 21
-110.7501249936782
 31
0.0
  0
LINE
  5
13C
330
55
100
AcDbEntity
  8
0
  6
Continuous
 62
     7
100
AcDbLine
 10
-171.999999999975
 20
-90.7501249936782
 30
0.0
 11
-181.5199999999749
 21
-90.7501249936782
 31
0.0
  0
LINE
  5
13D
330
55
100
AcDbEntity
  8
0
  6
Continuous
 62
     7
100
AcDbLine
 10
-182.8653751139821
 20
-110.7501249936782
 30
0.0
 11
-182.999999999975
 21
-110.7501249936782
 31
0.0
  0
LINE
  5
13E
330
55
100
AcDbEntity
  8
0
  6
Continuous
 62
     7
100
AcDbLine
 10
-182.999999999975
 20
-118.0832755007449
 30
0.0
 11
-182.999999999975
 21
-110.7501249936782
 31
0.0
  0
LINE
  5
13F
330
55
100
AcDbEntity
  8
0
  6
Continuous
 62
     7
100
AcDbLine
 10
-182.999999999975
 20
-118.0832755007449
 30
0.0
 11
-171.999999999975
 21
-118.0832755007449
 31
0.0
  0
LINE
  5
140
330
55
100
AcDbEntity
  8
0
  6
Continuous
 62
     7
100
AcDbLine
 10
-173.1346248859678
 20
-110.7501249936782
 30
0.0
 11
-182.8653751139821
 21
-110.7501249936782
 31
0.0
  0
LINE
  5
141
330
55
100
AcDbEntity
  8
0
  6
Continuous
 62
     7
100
AcDbLine
 10
-158.749999999975
 20
-123.7501249936782
 30
0.0
 11
-160.499999999975
 21
-123.7501249936782
 31
0.0
  0
LINE
  5
142
330
55
100
AcDbEntity
  8
0
  6
Continuous
 62
     7
100
AcDbLine
 10
-170.8653751139821
 20
-123.1501249936782
 30
0.0
 11
-161.1346248859679
 21
-123.1501249936782
 31
0.0
  0
LINE
  5
143
330
55
100
AcDbEntity
  8
0
  6
Continuous
 62
     7
100
AcDbLine
 10
-159.999999999975
 20
-123.1501249936782
 30
0.0
 11
-158.749999999975
 21
-123.1501249936782
 31
0.0
  0
LINE
  5
144
330
55
100
AcDbEntity
  8
0
  6
Continuous
 62
     7
100
AcDbLine
 10
-158.749999999975
 20
-123.7501249936782
 30
0.0
 11
-158.749999999975
 21
-123.1501249936782
 31
0.0
  0
LINE
  5
145
330
55
100
AcDbEntity
  8
0
  6
Continuous
 62
     7
100
AcDbLine
 10
-159.9999999999736
 20
-118.2801249936773
 30
0.0
 11
-159.999999999975
 21
-123.1501249936782
 31
0.0
  0
LINE
  5
146
330
55
100
AcDbEntity
  8
0
  6
Continuous
 62
     7
100
AcDbLine
 10
-159.9999999999736
 20
-118.2801249936773
 30
0.0
 11
-159.999999999975
 21
-118.1707641642708
 31
0.0
  0
LINE
  5
147
330
55
100
AcDbEntity
  8
0
  6
Continuous
 62
     7
100
AcDbLine
 10
-161.1346248859679
 20
-118.2801249936782
 30
0.0
 11
-161.1346248859679
 21
-123.1501249936782
 31
0.0
  0
LINE
  5
148
330
55
100
AcDbEntity
  8
0
  6
Continuous
 62
     7
100
AcDbLine
 10
-160.499999999975
 20
-123.7501249936782
 30
0.0
 11
-171.999999999975
 21
-123.7501249936782
 31
0.0
  0
LINE
  5
149
330
55
100
AcDbEntity
  8
0
  6
Continuous
 62
     7
100
AcDbLine
 10
-181.999999999975
 20
-124.2501249936782
 30
0.0
 11
-183.499999999975
 21
-124.2501249936782
 31
0.0
  0
LINE
  5
14A
330
55
100
AcDbEntity
  8
0
  6
Continuous
 62
     7
100
AcDbLine
 10
-171.999999999975
 20
-124.2501249936782
 30
0.0
 11
-181.999999999975
 21
-124.2501249936782
 31
0.0
  0
LINE
  5
14B
330
55
100
AcDbEntity
  8
0
  6
Continuous
 62
     7
100
AcDbLine
 10
-183.499999999975
 20
-124.2501249936782
 30
0.0
 11
-183.499999999975
 21
-123.7501249936782
 31
0.0
  0
LINE
  5
14C
330
55
100
AcDbEntity
  8
0
  6
Continuous
 62
     7
100
AcDbLine
 10
-183.499999999975
 20
-123.7501249936782
 30
0.0
 11
-185.249999999975
 21
-123.7501249936782
 31
0.0
  0
LINE
  5
14D
330
55
100
AcDbEntity
  8
0
  6
Continuous
 62
     7
100
AcDbLine
 10
-185.249999999975
 20
-123.7501249936782
 30
0.0
 11
-185.249999999975
 21
-123.1501249936782
 31
0.0
  0
LINE
  5
14E
330
55
100
AcDbEntity
  8
0
  6
Continuous
 62
     7
100
AcDbLine
 10
-185.249999999975
 20
-123.1501249936782
 30
0.0
 11
-183.999999999975
 21
-123.1501249936782
 31
0.0
  0
LINE
  5
14F
330
55
100
AcDbEntity
  8
0
  6
Continuous
 62
     7
100
AcDbLine
 10
-181.8971143170049
 20
-122.1501249936782
 30
0.0
 11
-181.8971143170049
 21
-119.1501249936782
 31
0.0
  0
LINE
  5
150
330
55
100
AcDbEntity
  8
0
  6
Continuous
 62
     7
100
AcDbLine
 10
-181.8971143170049
 20
-119.1501249936782
 30
0.0
 11
-180.8971143170049
 21
-119.1501249936782
 31
0.0
  0
LINE
  5
151
330
55
100
AcDbEntity
  8
0
  6
Continuous
 62
     7
100
AcDbLine
 10
-182.8653751139691
 20
-118.2801249936773
 30
0.0
 11
-183.999999999976
 21
-118.2801249936775
 31
0.0
  0
LINE
  5
152
330
55
100
AcDbEntity
  8
0
  6
Continuous
 62
     7
100
AcDbLine
 10
-180.8971143170049
 20
-119.1501249936782
 30
0.0
 11
-174.102885682945
 21
-119.1501249936782
 31
0.0
  0
LINE
  5
153
330
55
100
AcDbEntity
  8
0
  6
Continuous
 62
     7
100
AcDbLine
 10
-180.8971143170049
 20
-122.1501249936782
 30
0.0
 11
-181.8971143170049
 21
-122.1501249936782
 31
0.0
  0
LINE
  5
154
330
55
100
AcDbEntity
  8
0
  6
Continuous
 62
     7
100
AcDbLine
 10
-173.1346248859678
 20
-118.2801249936782
 30
0.0
 11
-173.1346248859678
 21
-123.1501249936782
 31
0.0
  0
LINE
  5
155
330
55
100
AcDbEntity
  8
0
  6
Continuous
 62
     7
100
AcDbLine
 10
-182.8653751139821
 20
-123.1501249936782
 30
0.0
 11
-173.1346248859678
 21
-123.1501249936782
 31
0.0
  0
LINE
  5
156
330
55
100
AcDbEntity
  8
0
  6
Continuous
 62
     7
100
AcDbLine
 10
-180.8971143170049
 20
-122.1501249936782
 30
0.0
 11
-180.8971143170049
 21
-119.1501249936782
 31
0.0
  0
LINE
  5
157
330
55
100
AcDbEntity
  8
0
  6
Continuous
 62
     7
100
AcDbLine
 10
-174.102885682945
 20
-119.1501249936782
 30
0.0
 11
-174.102885682945
 21
-122.1501249936782
 31
0.0
  0
LINE
  5
158
330
55
100
AcDbEntity
  8
0
  6
Continuous
 62
     7
100
AcDbLine
 10
-174.102885682945
 20
-122.1501249936782
 30
0.0
 11
-180.8971143170049
 21
-122.1501249936782
 31
0.0
  0
LINE
  5
159
330
55
100
AcDbEntity
  8
0
  6
Continuous
 62
     7
100
AcDbLine
 10
-171.999999999975
 20
-123.7501249936782
 30
0.0
 11
-183.499999999975
 21
-123.7501249936782
 31
0.0
  0
LINE
  5
15A
330
55
100
AcDbEntity
  8
0
  6
Continuous
 62
     7
100
AcDbLine
 10
-171.999999999975
 20
-138.3151249936782
 30
0.0
 11
-181.999999999975
 21
-138.3151249936782
 31
0.0
  0
LINE
  5
15B
330
55
100
AcDbEntity
  8
0
  6
Continuous
 62
     7
100
AcDbLine
 10
-171.999999999975
 20
-139.2501249936782
 30
0.0
 11
-181.064999999975
 21
-139.2501249936782
 31
0.0
  0
LINE
  5
15C
330
55
100
AcDbEntity
  8
0
  6
Continuous
 62
     7
100
AcDbLine
 10
-159.999999999975
 20
-96.7501249936782
 30
0.0
 11
-159.999999999975
 21
-95.0501249936782
 31
0.0
  0
LINE
  5
15D
330
55
100
AcDbEntity
  8
0
  6
Continuous
 62
     7
100
AcDbLine
 10
-159.999999999975
 20
-97.7501249936782
 30
0.0
 11
-159.999999999975
 21
-96.7501249936782
 31
0.0
  0
LINE
  5
15E
330
55
100
AcDbEntity
  8
0
  6
Continuous
 62
     7
100
AcDbLine
 10
-159.999999999975
 20
-97.7501249936782
 30
0.0
 11
-161.1346248859679
 21
-97.7501249936782
 31
0.0
  0
LINE
  5
15F
330
55
100
AcDbEntity
  8
0
  6
Continuous
 62
     7
100
AcDbLine
 10
-159.999999999975
 20
-97.7501249936782
 30
0.0
 11
-159.999999999975
 21
-110.7501249936782
 31
0.0
  0
LINE
  5
160
330
55
100
AcDbEntity
  8
0
  6
Continuous
 62
     7
100
AcDbLine
 10
-159.999999999975
 20
-110.7501249936782
 30
0.0
 11
-160.999999999975
 21
-110.7501249936782
 31
0.0
  0
LINE
  5
161
330
55
100
AcDbEntity
  8
0
  6
Continuous
 62
     7
100
AcDbLine
 10
-160.999999999975
 20
-110.7501249936782
 30
0.0
 11
-161.1346248859679
 21
-110.7501249936782
 31
0.0
  0
LINE
  5
162
330
55
100
AcDbEntity
  8
0
  6
Continuous
 62
     7
100
AcDbLine
 10
-159.9999999999736
 20
-118.2801249936773
 30
0.0
 11
-161.1346248859679
 21
-118.2801249936782
 31
0.0
  0
LINE
  5
163
330
55
100
AcDbEntity
  8
0
  6
Continuous
 62
     7
100
AcDbLine
 10
-162.102885682945
 20
-119.1501249936782
 30
0.0
 11
-162.102885682945
 21
-122.1501249936782
 31
0.0
  0
LINE
  5
164
330
55
100
AcDbEntity
  8
0
  6
Continuous
 62
     7
100
AcDbLine
 10
-170.8653751139678
 20
-118.2801249936773
 30
0.0
 11
-170.8653751139821
 21
-123.1501249936782
 31
0.0
  0
LINE
  5
165
330
55
100
AcDbEntity
  8
0
  6
Continuous
 62
     7
100
AcDbLine
 10
-162.102885682945
 20
-122.1501249936782
 30
0.0
 11
-163.102885682945
 21
-122.1501249936782
 31
0.0
  0
LINE
  5
166
330
55
100
AcDbEntity
  8
0
  6
Continuous
 62
     7
100
AcDbLine
 10
-163.102885682945
 20
-119.1501249936782
 30
0.0
 11
-163.102885682945
 21
-122.1501249936782
 31
0.0
  0
LINE
  5
167
330
55
100
AcDbEntity
  8
0
  6
Continuous
 62
     7
100
AcDbLine
 10
-163.102885682945
 20
-119.1501249936782
 30
0.0
 11
-162.102885682945
 21
-119.1501249936782
 31
0.0
  0
LINE
  5
168
330
55
100
AcDbEntity
  8
0
  6
Continuous
 62
     7
100
AcDbLine
 10
-163.102885682945
 20
-122.1501249936782
 30
0.0
 11
-169.8971143170049
 21
-122.1501249936782
 31
0.0
  0
LINE
  5
169
330
55
100
AcDbEntity
  8
0
  6
Continuous
 62
     7
100
AcDbLine
 10
-169.8971143170049
 20
-122.1501249936782
 30
0.0
 11
-169.8971143170049
 21
-119.1501249936782
 31
0.0
  0
LINE
  5
16A
330
55
100
AcDbEntity
  8
0
  6
Continuous
 62
     7
100
AcDbLine
 10
-169.8971143170049
 20
-119.1501249936782
 30
0.0
 11
-163.102885682945
 21
-119.1501249936782
 31
0.0
  0
LINE
  5
16B
330
55
100
AcDbEntity
  8
0
  6
Continuous
 62
     7
100
AcDbLine
 10
-162.479999999975
 20
-90.7501249936782
 30
0.0
 11
-171.999999999975
 21
-90.7501249936782
 31
0.0
  0
LINE
  5
16C
330
55
100
AcDbEntity
  8
1
  6
DOT_CENTER
 62
     2
100
AcDbLine
 10
-171.999999999975
 20
-118.1707641642708
 30
0.0
 11
-171.999999999975
 21
-110.7501249936782
 31
0.0
  0
LINE
  5
16D
330
55
100
AcDbEntity
  8
1
  6
DOT_CENTER
 62
     2
100
AcDbLine
 10
-171.999999999975
 20
-96.7501249936782
 30
0.0
 11
-171.999999999975
 21
-95.0501249936782
 31
0.0
  0
LINE
  5
16E
330
55
100
AcDbEntity
  8
1
  6
DOT_CENTER
 62
     2
100
AcDbLine
 10
-171.999999999975
 20
-139.2501249936782
 30
0.0
 11
-171.999999999975
 21
-123.1501249936782
 31
0.0
  0
ARC
  5
16F
330
55
100
AcDbEntity
  8
0
  6
Continuous
 62
     7
100
AcDbCircle
 10
-166.9098138822454
 20
-96.17015718624349
 30
0.0
 40
6.999999999999966
100
AcDbArc
 50
9.207163160146
 51
50.74073416032657
  0
ARC
  5
170
330
55
100
AcDbEntity
  8
0
  6
Continuous
 62
     7
100
AcDbCircle
 10
-177.0901861177045
 20
-96.1701571862435
 30
0.0
 40
6.999999999999999
100
AcDbArc
 50
129.2592658396735
 51
170.792836839854
  0
SPLINE
  5
171
330
55
100
AcDbEntity
  8
0
  6
Continuous
 62
     7
100
AcDbSpline
210
0.0
220
0.0
230
1.0
 70
     8
 71
     3
 72
    11
 73
     7
 74
     5
 42
0.000000001
 43
0.0000000001
 44
0.00000001
 40
0.0
 40
0.0
 40
0.0
 40
0.0
 40
1.264770516915242
 40
2.512776230406899
 40
3.752070804511279
 40
4.994871115214441
 40
4.994871115214441
 40
4.994871115214441
 40
4.994871115214441
 10
-182.8653751139821
 20
-97.7501249936782
 30
0.0
 10
-182.4697206986637
 20
-97.60381726227416
 30
0.0
 10
-181.6836563469955
 20
-97.31314115381495
 30
0.0
 10
-180.4710260950351
 20
-97.00006422183472
 30
0.0
 10
-179.2423056632362
 20
-96.79009542089409
 30
0.0
 10
-178.4144916257504
 20
-96.76346100401875
 30
0.0
 10
-177.999999999975
 20
-96.7501249936782
 30
0.0
 11
-182.8653751139821
 21
-97.7501249936782
 31
0.0
 11
-181.6718150168529
 21
-97.33172475997867
 31
0.0
 11
-180.464317619939
 21
-97.01633880665435
 31
0.0
 11
-179.2409188849646
 21
-96.8184838616735
 31
0.0
 11
-177.999999999975
 21
-96.7501249936782
 31
0.0
  0
SPLINE
  5
172
330
55
100
AcDbEntity
  8
0
  6
Continuous
 62
     7
100
AcDbSpline
210
0.0
220
0.0
230
1.0
 70
     8
 71
     3
 72
    11
 73
     7
 74
     5
 42
0.000000001
 43
0.0000000001
 44
0.00000001
 40
0.0
 40
0.0
 40
0.0
 40
0.0
 40
2.495165227835975
 40
4.86689809672107
 40
7.238621890553614
 40
9.733777358821444
 40
9.733777358821444
 40
9.733777358821444
 40
9.733777358821444
 10
-170.8653751139678
 20
-118.2801249936773
 30
0.0
 10
-170.0342091017649
 20
-118.2487975889696
 30
0.0
 10
-168.4129937053339
 20
-118.1876925175061
 30
0.0
 10
-165.9999936061798
 20
-118.1625145920435
 30
0.0
 10
-163.5869967669308
 20
-118.1876928270686
 30
0.0
 10
-161.9657876462592
 20
-118.2487976947461
 30
0.0
 10
-161.1346248859679
 20
-118.2801249936782
 30
0.0
 11
-170.8653751139678
 21
-118.2801249936773
 31
0.0
 11
-168.3715698739672
 21
-118.1977542479512
 31
0.0
 11
-165.9999905820765
 21
-118.1707641642713
 31
0.0
 11
-163.628420368322
 21
-118.1977544672669
 31
0.0
 11
-161.1346248859679
 21
-118.2801249936782
 31
0.0
  0
SPLINE
  5
173
330
55
100
AcDbEntity
  8
0
  6
Continuous
 62
     7
100
AcDbSpline
210
0.0
220
0.0
230
1.0
 70
     8
 71
     3
 72
    11
 73
     7
 74
     5
 42
0.000000001
 43
0.0000000001
 44
0.00000001
 40
0.0
 40
0.0
 40
0.0
 40
0.0
 40
2.495165227939023
 40
4.866898096722378
 40
7.238621890501223
 40
9.733777358822836
 40
9.733777358822836
 40
9.733777358822836
 40
9.733777358822836
 10
-182.8653751139691
 20
-118.2801249936773
 30
0.0
 10
-182.0342091017319
 20
-118.2487975889684
 30
0.0
 10
-180.4129937053004
 20
-118.1876925175054
 30
0.0
 10
-177.9999936061638
 20
-118.1625145920441
 30
0.0
 10
-175.5869967669487
 20
-118.1876928270683
 30
0.0
 10
-173.965787646277
 20
-118.2487976947455
 30
0.0
 10
-173.1346248859678
 20
-118.2801249936782
 30
0.0
 11
-182.8653751139691
 21
-118.2801249936773
 31
0.0
 11
-180.3715698738655
 21
-118.1977542479489
 31
0.0
 11
-177.9999905820765
 21
-118.1707641642713
 31
0.0
 11
-175.6284203683757
 21
-118.1977544672657
 31
0.0
 11
-173.1346248859678
 21
-118.2801249936782
 31
0.0
  0
SPLINE
  5
174
330
55
100
AcDbEntity
  8
0
  6
Continuous
 62
     7
100
AcDbSpline
210
0.0
220
0.0
230
1.0
 70
     8
 71
     3
 72
    11
 73
     7
 74
     5
 42
0.000000001
 43
0.0000000001
 44
0.00000001
 40
0.0
 40
0.0
 40
0.0
 40
0.0
 40
1.227968479358256
 40
2.48837207092401
 40
3.735187034143184
 40
4.994888987857656
 40
4.994888987857656
 40
4.994888987857656
 40
4.994888987857656
 10
-177.999999999975
 20
-96.7501249936782
 30
0.0
 10
-177.59045520205
 20
-96.76308120451475
 30
0.0
 10
-176.7605480399719
 20
-96.7893358618681
 30
0.0
 10
-175.5300522709408
 20
-96.99961660955039
 30
0.0
 10
-174.3127533482857
 20
-97.31432581854793
 30
0.0
 10
-173.5286781182882
 20
-97.60436153462638
 30
0.0
 10
-173.1346248859678
 20
-97.7501249936782
 30
0.0
 11
-177.999999999975
 21
-96.7501249936782
 31
0.0
 11
-176.7738383651899
 21
-96.81671503297301
 31
0.0
 11
-175.5295539372138
 21
-97.01764656020258
 31
0.0
 11
-174.323330898891
 21
-97.33319930779935
 31
0.0
 11
-173.1346248859678
 21
-97.7501249936782
 31
0.0
  0
SPLINE
  5
175
330
55
100
AcDbEntity
  8
0
  6
Continuous
 62
     7
100
AcDbSpline
210
0.0
220
0.0
230
1.0
 70
     8
 71
     3
 72
    11
 73
     7
 74
     5
 42
0.000000001
 43
0.0000000001
 44
0.00000001
 40
0.0
 40
0.0
 40
0.0
 40
0.0
 40
1.22796847935937
 40
2.488372070923893
 40
3.735187034156913
 40
4.994888987857568
 40
4.994888987857568
 40
4.994888987857568
 40
4.994888987857568
 10
-165.999999999975
 20
-96.7501249936782
 30
0.0
 10
-165.5904552020496
 20
-96.7630812045148
 30
0.0
 10
-164.7605480399715
 20
-96.78933586186818
 30
0.0
 10
-163.530052270936
 20
-96.99961660955121
 30
0.0
 10
-162.3127533482814
 20
-97.31432581854938
 30
0.0
 10
-161.5286781182838
 20
-97.60436153462788
 30
0.0
 10
-161.1346248859679
 20
-97.7501249936782
 30
0.0
 11
-165.999999999975
 21
-96.7501249936782
 31
0.0
 11
-164.7738383651888
 21
-96.81671503297315
 31
0.0
 11
-163.5295539372139
 21
-97.01764656020256
 31
0.0
 11
-162.3233308988779
 21
-97.33319930780341
 31
0.0
 11
-161.1346248859679
 21
-97.7501249936782
 31
0.0
  0
SPLINE
  5
176
330
55
100
AcDbEntity
  8
0
  6
Continuous
 62
     7
100
AcDbSpline
210
0.0
220
0.0
230
1.0
 70
     8
 71
     3
 72
    11
 73
     7
 74
     5
 42
0.000000001
 43
0.0000000001
 44
0.00000001
 40
0.0
 40
0.0
 40
0.0
 40
0.0
 40
1.264770516915237
 40
2.512776230406925
 40
3.75207080451128
 40
4.994871115214441
 40
4.994871115214441
 40
4.994871115214441
 40
4.994871115214441
 10
-170.8653751139821
 20
-97.7501249936782
 30
0.0
 10
-170.4697206986637
 20
-97.60381726227415
 30
0.0
 10
-169.6836563469955
 20
-97.31314115381498
 30
0.0
 10
-168.4710260950351
 20
-97.00006422183475
 30
0.0
 10
-167.2423056632361
 20
-96.79009542089409
 30
0.0
 10
-166.4144916257503
 20
-96.76346100401872
 30
0.0
 10
-165.999999999975
 20
-96.7501249936782
 30
0.0
 11
-170.8653751139821
 21
-97.7501249936782
 31
0.0
 11
-169.6718150168529
 21
-97.33172475997868
 31
0.0
 11
-168.4643176199389
 21
-97.01633880665435
 31
0.0
 11
-167.2409188849646
 21
-96.81848386167349
 31
0.0
 11
-165.999999999975
 21
-96.7501249936782
 31
0.0
  0
ENDBLK
  5
57
330
55
100
AcDbEntity
  8
0
100
AcDbBlockEnd
  0
BLOCK
  5
5A
330
58
100
AcDbEntity
  8
0
100
AcDbBlockBegin
  2
Rckans1
 70
     0
 10
-172.0
 20
-115.0
 30
0.0
  3
Rckans1
  1

  0
INSERT
  5
59
330
58
100
AcDbEntity
  8
0
100
AcDbBlockReference
  2
G_INS_M20_M68L_PEPDS_LG-select__3
 10
-185.249999999975
 20
-139.2501249936782
 30
0.0
  0
MTEXT
  5
177
330
58
100
AcDbEntity
  8
1
 62
     6
100
AcDbMText
 10
-171.999999999975
 20
-145.7519999999799
 30
0.0
 40
5.0
 41
0.0
 71
     2
 72
     1
  1
 
  7
CONVERTER_11
 73
     1
 44
1.32052821128451
  0
ENDBLK
  5
5B
330
58
100
AcDbEntity
  8
0
100
AcDbBlockEnd
  0
BLOCK
  5
5D
330
5C
100
AcDbEntity
  8
0
100
AcDbBlockBegin
  2
G_INS_M20_M68L_PEPDS_LG-select__4
 70
     0
 10
-237.2539999999999
 20
-139.2501249936782
 30
0.0
  3
G_INS_M20_M68L_PEPDS_LG-select__4
  1

  0
LINE
  5
178
330
5C
100
AcDbEntity
  8
0
  6
Continuous
 62
     7
100
AcDbLine
 10
-213.0937459621555
 20
-122.1501249936782
 30
0.0
 11
-213.0937459621555
 21
-119.1501249936782
 31
0.0
  0
LINE
  5
179
330
5C
100
AcDbEntity
  8
0
  6
Continuous
 62
     7
100
AcDbLine
 10
-211.3616951545866
 20
-122.1501249936782
 30
0.0
 11
-211.3616951545866
 21
-119.1501249936782
 31
0.0
  0
LINE
  5
17A
330
5C
100
AcDbEntity
  8
0
  6
Continuous
 62
     7
100
AcDbLine
 10
-214.9389999999999
 20
-139.2501249936782
 30
0.0
 11
-214.0039999999999
 21
-138.3151249936782
 31
0.0
  0
LINE
  5
17B
330
5C
100
AcDbEntity
  8
0
  6
Continuous
 62
     7
100
AcDbLine
 10
-213.0039999999999
 20
-110.7501249936782
 30
0.0
 11
-216.4207207863672
 21
-110.7501249936782
 31
0.0
  0
LINE
  5
17C
330
5C
100
AcDbEntity
  8
0
  6
Continuous
 62
     7
100
AcDbLine
 10
-210.7539999999999
 20
-110.7501249936782
 30
0.0
 11
-210.8026695228061
 21
-110.7501249936782
 31
0.0
  0
LINE
  5
17D
330
5C
100
AcDbEntity
  8
0
  6
Continuous
 62
     7
100
AcDbLine
 10
-210.8026695228061
 20
-110.7501249936782
 30
0.0
 11
-213.0039999999999
 21
-110.7501249936782
 31
0.0
  0
LINE
  5
17E
330
5C
100
AcDbEntity
  8
0
  6
Continuous
 62
     7
100
AcDbLine
 10
-210.7539999999999
 20
-97.75012499367824
 30
0.0
 11
-210.8026695228061
 21
-97.75012499367824
 31
0.0
  0
LINE
  5
17F
330
5C
100
AcDbEntity
  8
0
  6
Continuous
 62
     7
100
AcDbLine
 10
-212.0039999999999
 20
-96.75012499367824
 30
0.0
 11
-210.7539999999999
 21
-97.75012499367824
 31
0.0
  0
LINE
  5
180
330
5C
100
AcDbEntity
  8
0
  6
Continuous
 62
     7
100
AcDbLine
 10
-213.0039999999999
 20
-118.083275500745
 30
0.0
 11
-210.7539999999999
 21
-118.2801249936783
 31
0.0
  0
LINE
  5
181
330
5C
100
AcDbEntity
  8
0
  6
Continuous
 62
     7
100
AcDbLine
 10
-210.7539999999999
 20
-110.7501249936782
 30
0.0
 11
-210.7539999999999
 21
-97.75012499367824
 31
0.0
  0
LINE
  5
182
330
5C
100
AcDbEntity
  8
0
  6
Continuous
 62
     7
100
AcDbLine
 10
-210.8026695228061
 20
-97.75012499367824
 30
0.0
 11
-210.8026695228061
 21
-110.7501249936782
 31
0.0
  0
LINE
  5
183
330
5C
100
AcDbEntity
  8
0
  6
Continuous
 62
     7
100
AcDbLine
 10
-210.8026695228061
 20
-118.2801249936783
 30
0.0
 11
-210.8026695228061
 21
-123.1501249936782
 31
0.0
  0
LINE
  5
184
330
5C
100
AcDbEntity
  8
0
  6
Continuous
 62
     7
100
AcDbLine
 10
-210.7539999999999
 20
-123.7501249936782
 30
0.0
 11
-210.7539999999999
 21
-118.2801249936783
 31
0.0
  0
LINE
  5
185
330
5C
100
AcDbEntity
  8
0
  6
Continuous
 62
     7
100
AcDbLine
 10
-210.7539999999999
 20
-118.2801249936783
 30
0.0
 11
-210.8026695228061
 21
-118.2801249936783
 31
0.0
  0
LINE
  5
186
330
5C
100
AcDbEntity
  8
0
  6
Continuous
 62
     7
100
AcDbLine
 10
-231.5872792136327
 20
-118.2801249936783
 30
0.0
 11
-231.5872792136327
 21
-123.1501249936782
 31
0.0
  0
LINE
  5
187
330
5C
100
AcDbEntity
  8
0
  6
Continuous
 62
     7
100
AcDbLine
 10
-231.5872792136326
 20
-97.75012499367824
 30
0.0
 11
-231.5872792136326
 21
-110.7501249936782
 31
0.0
  0
LINE
  5
188
330
5C
100
AcDbEntity
  8
0
  6
Continuous
 62
     7
100
AcDbLine
 10
-233.0689999999999
 20
-139.2501249936782
 30
0.0
 11
-234.0039999999999
 21
-138.3151249936782
 31
0.0
  0
LINE
  5
189
330
5C
100
AcDbEntity
  8
0
  6
Continuous
 62
     7
100
AcDbLine
 10
-234.0039999999999
 20
-138.3151249936782
 30
0.0
 11
-234.0039999999999
 21
-124.2501249936782
 31
0.0
  0
LINE
  5
18A
330
5C
100
AcDbEntity
  8
0
  6
Continuous
 62
     7
100
AcDbLine
 10
-214.0039999999999
 20
-138.3151249936782
 30
0.0
 11
-214.0039999999999
 21
-124.2501249936782
 31
0.0
  0
LINE
  5
18B
330
5C
100
AcDbEntity
  8
0
  6
Continuous
 62
     7
100
AcDbLine
 10
-214.0039999999999
 20
-138.3151249936782
 30
0.0
 11
-234.0039999999999
 21
-138.3151249936782
 31
0.0
  0
LINE
  5
18C
330
5C
100
AcDbEntity
  8
0
  6
Continuous
 62
     7
100
AcDbLine
 10
-234.9142540378443
 20
-122.1501249936782
 30
0.0
 11
-236.6463048454132
 21
-122.1501249936782
 31
0.0
  0
LINE
  5
18D
330
5C
100
AcDbEntity
  8
0
  6
Continuous
 62
     7
100
AcDbLine
 10
-232.1463048454132
 20
-122.1501249936782
 30
0.0
 11
-234.9142540378443
 21
-122.1501249936782
 31
0.0
  0
LINE
  5
18E
330
5C
100
AcDbEntity
  8
0
  6
Continuous
 62
     7
100
AcDbLine
 10
-229.6220512635452
 20
-118.2801249936773
 30
0.0
 11
-229.622051263561
 21
-123.1501249936782
 31
0.0
  0
LINE
  5
18F
330
5C
100
AcDbEntity
  8
0
  6
Continuous
 62
     7
100
AcDbLine
 10
-237.2539999999999
 20
-123.7501249936782
 30
0.0
 11
-237.2539999999999
 21
-118.2801249936783
 31
0.0
  0
LINE
  5
190
330
5C
100
AcDbEntity
  8
0
  6
Continuous
 62
     7
100
AcDbLine
 10
-214.4839999999999
 20
-90.75012499367824
 30
0.0
 11
-233.5239999999999
 21
-90.75012499367824
 31
0.0
  0
LINE
  5
191
330
5C
100
AcDbEntity
  8
0
  6
Continuous
 62
     7
100
AcDbLine
 10
-234.9142540378443
 20
-119.1501249936782
 30
0.0
 11
-232.1463048454132
 21
-119.1501249936782
 31
0.0
  0
LINE
  5
192
330
5C
100
AcDbEntity
  8
0
  6
Continuous
 62
     7
100
AcDbLine
 10
-235.0039999999999
 20
-110.7501249936782
 30
0.0
 11
-237.2053304771937
 21
-110.7501249936782
 31
0.0
  0
LINE
  5
193
330
5C
100
AcDbEntity
  8
0
  6
Continuous
 62
     7
100
AcDbLine
 10
-216.4207207863672
 20
-97.75012499367824
 30
0.0
 11
-216.4207207863672
 21
-110.7501249936782
 31
0.0
  0
LINE
  5
194
330
5C
100
AcDbEntity
  8
0
  6
Continuous
 62
     7
100
AcDbLine
 10
-213.0039999999999
 20
-118.083275500745
 30
0.0
 11
-213.0039999999999
 21
-110.7501249936782
 31
0.0
  0
LINE
  5
195
330
5C
100
AcDbEntity
  8
0
  6
Continuous
 62
     7
100
AcDbLine
 10
-237.205330477187
 20
-118.2801249936773
 30
0.0
 11
-237.2539999999999
 21
-118.2801249936783
 31
0.0
  0
LINE
  5
196
330
5C
100
AcDbEntity
  8
0
  6
Continuous
 62
     7
100
AcDbLine
 10
-213.0937459621555
 20
-119.1501249936782
 30
0.0
 11
-215.8616951545866
 21
-119.1501249936782
 31
0.0
  0
LINE
  5
197
330
5C
100
AcDbEntity
  8
0
  6
Continuous
 62
     7
100
AcDbLine
 10
-216.4207207863581
 20
-118.2801249936773
 30
0.0
 11
-218.3859487364388
 21
-118.2801249936783
 31
0.0
  0
LINE
  5
198
330
5C
100
AcDbEntity
  8
0
  6
Continuous
 62
     7
100
AcDbLine
 10
-229.6220512635452
 20
-118.2801249936773
 30
0.0
 11
-231.5872792136327
 21
-118.2801249936783
 31
0.0
  0
LINE
  5
199
330
5C
100
AcDbEntity
  8
0
  6
Continuous
 62
     7
100
AcDbLine
 10
-211.3616951545866
 20
-119.1501249936782
 30
0.0
 11
-213.0937459621555
 21
-119.1501249936782
 31
0.0
  0
LINE
  5
19A
330
5C
100
AcDbEntity
  8
0
  6
Continuous
 62
     7
100
AcDbLine
 10
-235.0039999999999
 20
-118.083275500745
 30
0.0
 11
-237.2539999999999
 21
-118.2801249936783
 31
0.0
  0
LINE
  5
19B
330
5C
100
AcDbEntity
  8
0
  6
Continuous
 62
     7
100
AcDbLine
 10
-235.0039999999999
 20
-118.083275500745
 30
0.0
 11
-213.0039999999999
 21
-118.083275500745
 31
0.0
  0
LINE
  5
19C
330
5C
100
AcDbEntity
  8
0
  6
Continuous
 62
     7
100
AcDbLine
 10
-229.622051263561
 20
-97.75012499367824
 30
0.0
 11
-229.622051263561
 21
-110.7501249936782
 31
0.0
  0
LINE
  5
19D
330
5C
100
AcDbEntity
  8
0
  6
Continuous
 62
     7
100
AcDbLine
 10
-237.2053304771937
 20
-110.7501249936782
 30
0.0
 11
-237.2539999999999
 21
-110.7501249936782
 31
0.0
  0
LINE
  5
19E
330
5C
100
AcDbEntity
  8
0
  6
Continuous
 62
     7
100
AcDbLine
 10
-229.622051263561
 20
-110.7501249936782
 30
0.0
 11
-231.5872792136326
 21
-110.7501249936782
 31
0.0
  0
LINE
  5
19F
330
5C
100
AcDbEntity
  8
0
  6
Continuous
 62
     7
100
AcDbLine
 10
-216.4207207863672
 20
-110.7501249936782
 30
0.0
 11
-218.3859487364389
 21
-110.7501249936782
 31
0.0
  0
LINE
  5
1A0
330
5C
100
AcDbEntity
  8
0
  6
Continuous
 62
     7
100
AcDbLine
 10
-218.3859487364389
 20
-110.7501249936782
 30
0.0
 11
-229.622051263561
 21
-110.7501249936782
 31
0.0
  0
LINE
  5
1A1
330
5C
100
AcDbEntity
  8
0
  6
Continuous
 62
     7
100
AcDbLine
 10
-231.5872792136326
 20
-110.7501249936782
 30
0.0
 11
-235.0039999999999
 21
-110.7501249936782
 31
0.0
  0
LINE
  5
1A2
330
5C
100
AcDbEntity
  8
0
  6
Continuous
 62
     7
100
AcDbLine
 10
-234.3963048454132
 20
-96.75012499367824
 30
0.0
 11
-236.0039999999999
 21
-96.75012499367824
 31
0.0
  0
LINE
  5
1A3
330
5C
100
AcDbEntity
  8
0
  6
Continuous
 62
     7
100
AcDbLine
 10
-229.622051263561
 20
-97.75012499367824
 30
0.0
 11
-231.5872792136326
 21
-97.75012499367824
 31
0.0
  0
LINE
  5
1A4
330
5C
100
AcDbEntity
  8
0
  6
Continuous
 62
     7
100
AcDbLine
 10
-237.2053304771937
 20
-97.75012499367824
 30
0.0
 11
-237.2539999999999
 21
-97.75012499367824
 31
0.0
  0
LINE
  5
1A5
330
5C
100
AcDbEntity
  8
0
  6
Continuous
 62
     7
100
AcDbLine
 10
-236.0039999999999
 20
-96.75012499367824
 30
0.0
 11
-237.2539999999999
 21
-97.75012499367824
 31
0.0
  0
LINE
  5
1A6
330
5C
100
AcDbEntity
  8
0
  6
Continuous
 62
     7
100
AcDbLine
 10
-218.3859487364388
 20
-97.75012499367824
 30
0.0
 11
-218.3859487364389
 21
-110.7501249936782
 31
0.0
  0
LINE
  5
1A7
330
5C
100
AcDbEntity
  8
0
  6
Continuous
 62
     7
100
AcDbLine
 10
-237.2539999999999
 20
-110.7501249936782
 30
0.0
 11
-237.2539999999999
 21
-97.75012499367824
 31
0.0
  0
LINE
  5
1A8
330
5C
100
AcDbEntity
  8
0
  6
Continuous
 62
     7
100
AcDbLine
 10
-236.0039999999999
 20
-96.75012499367824
 30
0.0
 11
-236.0039999999999
 21
-95.05012499367822
 31
0.0
  0
LINE
  5
1A9
330
5C
100
AcDbEntity
  8
0
  6
Continuous
 62
     7
100
AcDbLine
 10
-212.0039999999999
 20
-95.05012499367822
 30
0.0
 11
-236.0039999999999
 21
-95.05012499367822
 31
0.0
  0
LINE
  5
1AA
330
5C
100
AcDbEntity
  8
0
  6
Continuous
 62
     7
100
AcDbLine
 10
-216.4207207863672
 20
-97.75012499367824
 30
0.0
 11
-218.3859487364388
 21
-97.75012499367824
 31
0.0
  0
LINE
  5
1AB
330
5C
100
AcDbEntity
  8
0
  6
Continuous
 62
     7
100
AcDbLine
 10
-212.0039999999999
 20
-96.75012499367824
 30
0.0
 11
-212.0039999999999
 21
-95.05012499367822
 31
0.0
  0
LINE
  5
1AC
330
5C
100
AcDbEntity
  8
0
  6
Continuous
 62
     7
100
AcDbLine
 10
-213.6116951545866
 20
-96.75012499367824
 30
0.0
 11
-224.0039999999999
 21
-96.75012499367824
 31
0.0
  0
LINE
  5
1AD
330
5C
100
AcDbEntity
  8
0
  6
Continuous
 62
     7
100
AcDbLine
 10
-212.0039999999999
 20
-96.75012499367824
 30
0.0
 11
-213.6116951545866
 21
-96.75012499367824
 31
0.0
  0
LINE
  5
1AE
330
5C
100
AcDbEntity
  8
0
  6
Continuous
 62
     7
100
AcDbLine
 10
-224.0039999999999
 20
-96.75012499367824
 30
0.0
 11
-234.3963048454132
 21
-96.75012499367824
 31
0.0
  0
LINE
  5
1AF
330
5C
100
AcDbEntity
  8
0
  6
Continuous
 62
     7
100
AcDbLine
 10
-235.0039999999999
 20
-118.083275500745
 30
0.0
 11
-235.0039999999999
 21
-110.7501249936782
 31
0.0
  0
LINE
  5
1B0
330
5C
100
AcDbEntity
  8
0
  6
Continuous
 62
     7
100
AcDbLine
 10
-236.6463048454132
 20
-119.1501249936782
 30
0.0
 11
-234.9142540378443
 21
-119.1501249936782
 31
0.0
  0
LINE
  5
1B1
330
5C
100
AcDbEntity
  8
0
  6
Continuous
 62
     7
100
AcDbLine
 10
-234.9142540378443
 20
-122.1501249936782
 30
0.0
 11
-234.9142540378443
 21
-119.1501249936782
 31
0.0
  0
LINE
  5
1B2
330
5C
100
AcDbEntity
  8
0
  6
Continuous
 62
     7
100
AcDbLine
 10
-236.6463048454132
 20
-122.1501249936782
 30
0.0
 11
-236.6463048454132
 21
-119.1501249936782
 31
0.0
  0
LINE
  5
1B3
330
5C
100
AcDbEntity
  8
0
  6
Continuous
 62
     7
100
AcDbLine
 10
-237.205330477187
 20
-118.2801249936773
 30
0.0
 11
-237.2053304771937
 21
-123.1501249936782
 31
0.0
  0
LINE
  5
1B4
330
5C
100
AcDbEntity
  8
0
  6
Continuous
 62
     7
100
AcDbLine
 10
-237.2053304771937
 20
-97.75012499367824
 30
0.0
 11
-237.2053304771937
 21
-110.7501249936782
 31
0.0
  0
LINE
  5
1B5
330
5C
100
AcDbEntity
  8
0
  6
Continuous
 62
     7
100
AcDbLine
 10
-232.1463048454132
 20
-119.1501249936782
 30
0.0
 11
-232.1463048454132
 21
-122.1501249936782
 31
0.0
  0
LINE
  5
1B6
330
5C
100
AcDbEntity
  8
0
  6
Continuous
 62
     7
100
AcDbLine
 10
-215.8616951545866
 20
-119.1501249936782
 30
0.0
 11
-215.8616951545866
 21
-122.1501249936782
 31
0.0
  0
LINE
  5
1B7
330
5C
100
AcDbEntity
  8
0
  6
Continuous
 62
     7
100
AcDbLine
 10
-228.5039999999999
 20
-122.1501249936782
 30
0.0
 11
-228.5039999999999
 21
-119.1501249936782
 31
0.0
  0
LINE
  5
1B8
330
5C
100
AcDbEntity
  8
0
  6
Continuous
 62
     7
100
AcDbLine
 10
-219.5039999999999
 20
-119.1501249936782
 30
0.0
 11
-219.5039999999999
 21
-122.1501249936782
 31
0.0
  0
LINE
  5
1B9
330
5C
100
AcDbEntity
  8
0
  6
Continuous
 62
     7
100
AcDbLine
 10
-228.5039999999999
 20
-119.1501249936782
 30
0.0
 11
-219.5039999999999
 21
-119.1501249936782
 31
0.0
  0
LINE
  5
1BA
330
5C
100
AcDbEntity
  8
0
  6
Continuous
 62
     7
100
AcDbLine
 10
-216.4207207863581
 20
-118.2801249936773
 30
0.0
 11
-216.4207207863672
 21
-123.1501249936782
 31
0.0
  0
LINE
  5
1BB
330
5C
100
AcDbEntity
  8
0
  6
Continuous
 62
     7
100
AcDbLine
 10
-218.3859487364388
 20
-118.2801249936783
 30
0.0
 11
-218.3859487364388
 21
-123.1501249936782
 31
0.0
  0
LINE
  5
1BC
330
5C
100
AcDbEntity
  8
0
  6
Continuous
 62
     7
100
AcDbLine
 10
-214.9389999999999
 20
-139.2501249936782
 30
0.0
 11
-233.0689999999999
 21
-139.2501249936782
 31
0.0
  0
LINE
  5
1BD
330
5C
100
AcDbEntity
  8
0
  6
Continuous
 62
     7
100
AcDbLine
 10
-234.0039999999999
 20
-124.2501249936782
 30
0.0
 11
-235.5039999999999
 21
-124.2501249936782
 31
0.0
  0
LINE
  5
1BE
330
5C
100
AcDbEntity
  8
0
  6
Continuous
 62
     7
100
AcDbLine
 10
-212.5039999999999
 20
-124.2501249936782
 30
0.0
 11
-214.0039999999999
 21
-124.2501249936782
 31
0.0
  0
LINE
  5
1BF
330
5C
100
AcDbEntity
  8
0
  6
Continuous
 62
     7
100
AcDbLine
 10
-235.5039999999999
 20
-124.2501249936782
 30
0.0
 11
-235.5039999999999
 21
-123.7501249936782
 31
0.0
  0
LINE
  5
1C0
330
5C
100
AcDbEntity
  8
0
  6
Continuous
 62
     7
100
AcDbLine
 10
-212.5039999999999
 20
-124.2501249936782
 30
0.0
 11
-212.5039999999999
 21
-123.7501249936782
 31
0.0
  0
LINE
  5
1C1
330
5C
100
AcDbEntity
  8
0
  6
Continuous
 62
     7
100
AcDbLine
 10
-219.5039999999999
 20
-122.1501249936782
 30
0.0
 11
-228.5039999999999
 21
-122.1501249936782
 31
0.0
  0
LINE
  5
1C2
330
5C
100
AcDbEntity
  8
0
  6
Continuous
 62
     7
100
AcDbLine
 10
-235.5039999999999
 20
-123.7501249936782
 30
0.0
 11
-237.2539999999999
 21
-123.7501249936782
 31
0.0
  0
LINE
  5
1C3
330
5C
100
AcDbEntity
  8
0
  6
Continuous
 62
     7
100
AcDbLine
 10
-210.7539999999999
 20
-123.7501249936782
 30
0.0
 11
-212.5039999999999
 21
-123.7501249936782
 31
0.0
  0
LINE
  5
1C4
330
5C
100
AcDbEntity
  8
0
  6
Continuous
 62
     7
100
AcDbLine
 10
-237.2053304771937
 20
-123.1501249936782
 30
0.0
 11
-231.5872792136327
 21
-123.1501249936782
 31
0.0
  0
LINE
  5
1C5
330
5C
100
AcDbEntity
  8
0
  6
Continuous
 62
     7
100
AcDbLine
 10
-229.622051263561
 20
-123.1501249936782
 30
0.0
 11
-218.3859487364388
 21
-123.1501249936782
 31
0.0
  0
LINE
  5
1C6
330
5C
100
AcDbEntity
  8
0
  6
Continuous
 62
     7
100
AcDbLine
 10
-216.4207207863672
 20
-123.1501249936782
 30
0.0
 11
-210.8026695228061
 21
-123.1501249936782
 31
0.0
  0
LINE
  5
1C7
330
5C
100
AcDbEntity
  8
0
  6
Continuous
 62
     7
100
AcDbLine
 10
-213.0937459621555
 20
-122.1501249936782
 30
0.0
 11
-211.3616951545866
 21
-122.1501249936782
 31
0.0
  0
LINE
  5
1C8
330
5C
100
AcDbEntity
  8
0
  6
Continuous
 62
     7
100
AcDbLine
 10
-215.8616951545866
 20
-122.1501249936782
 30
0.0
 11
-213.0937459621555
 21
-122.1501249936782
 31
0.0
  0
LINE
  5
1C9
330
5C
100
AcDbEntity
  8
0
  6
Continuous
 62
     7
100
AcDbLine
 10
-212.5039999999999
 20
-123.7501249936782
 30
0.0
 11
-235.5039999999999
 21
-123.7501249936782
 31
0.0
  0
LINE
  5
1CA
330
5C
100
AcDbEntity
  8
0
  6
Continuous
 62
     7
100
AcDbLine
 10
-214.0039999999999
 20
-124.2501249936782
 30
0.0
 11
-234.0039999999999
 21
-124.2501249936782
 31
0.0
  0
LINE
  5
1CB
330
5C
100
AcDbEntity
  8
1
  6
DOT_CENTER
 62
     2
100
AcDbLine
 10
-224.0039999999999
 20
-139.2501249936782
 30
0.0
 11
-224.0039999999999
 21
-110.7501249936782
 31
0.0
  0
LINE
  5
1CC
330
5C
100
AcDbEntity
  8
1
  6
DOT_CENTER
 62
     2
100
AcDbLine
 10
-224.0039999999999
 20
-96.75012499367824
 30
0.0
 11
-224.0039999999999
 21
-95.05012499367822
 31
0.0
  0
ARC
  5
1CD
330
5C
100
AcDbEntity
  8
0
  6
Continuous
 62
     7
100
AcDbCircle
 10
-218.9138138822704
 20
-96.17015718624353
 30
0.0
 40
7.000000000000052
100
AcDbArc
 50
9.20716316014601
 51
50.74073416032586
  0
ARC
  5
1CE
330
5C
100
AcDbEntity
  8
0
  6
Continuous
 62
     7
100
AcDbCircle
 10
-229.0941861177294
 20
-96.17015718624353
 30
0.0
 40
7.000000000000024
100
AcDbArc
 50
129.259265839674
 51
170.792836839854
  0
SPLINE
  5
1CF
330
5C
100
AcDbEntity
  8
0
  6
Continuous
 62
     7
100
AcDbSpline
210
0.0
220
0.0
230
1.0
 70
     8
 71
     3
 72
    11
 73
     7
 74
     5
 42
0.000000001
 43
0.0000000001
 44
0.00000001
 40
0.0
 40
0.0
 40
0.0
 40
0.0
 40
0.708751403935668
 40
1.45700943631013
 40
2.221577859524909
 40
3.02459364773679
 40
3.02459364773679
 40
3.02459364773679
 40
3.02459364773679
 10
-213.6116951545866
 20
-96.75012499367824
 30
0.0
 10
-213.375098227402
 20
-96.76325961277288
 30
0.0
 10
-212.8887161863883
 20
-96.79026100491069
 30
0.0
 10
-212.173746186763
 20
-97.00387474471543
 30
0.0
 10
-211.4684058798565
 20
-97.322542055952
 30
0.0
 10
-211.0281807012232
 20
-97.60528577153543
 30
0.0
 10
-210.8026695228061
 20
-97.75012499367824
 30
0.0
 11
-213.6116951545866
 21
-96.75012499367824
 31
0.0
 11
-212.9060389349485
 21
-96.81629034817914
 31
0.0
 11
-212.1853824552331
 21
-97.01764656020259
 31
0.0
 11
-211.4889692593451
 21
-97.33319930780445
 31
0.0
 11
-210.8026695228061
 21
-97.75012499367824
 31
0.0
  0
SPLINE
  5
1D0
330
5C
100
AcDbEntity
  8
0
  6
Continuous
 62
     7
100
AcDbSpline
210
0.0
220
0.0
230
1.0
 70
     8
 71
     3
 72
    11
 73
     7
 74
     5
 42
0.000000001
 43
0.0000000001
 44
0.00000001
 40
0.0
 40
0.0
 40
0.0
 40
0.0
 40
1.44215480409001
 40
2.81165134068674
 40
4.181142641377597
 40
5.623291808538069
 40
5.623291808538069
 40
5.623291808538069
 40
5.623291808538069
 10
-237.205330477187
 20
-118.2801249936773
 30
0.0
 10
-236.7255742873566
 20
-118.2487999958089
 30
0.0
 10
-235.7902328582182
 20
-118.1877282226713
 30
0.0
 10
-234.3963011517034
 20
-118.1625012656909
 30
0.0
 10
-233.0023713358024
 20
-118.1877285321971
 30
0.0
 10
-232.0670335267017
 20
-118.2488001016088
 30
0.0
 10
-231.5872792136327
 20
-118.2801249936783
 30
0.0
 11
-237.205330477187
 21
-118.2801249936773
 31
0.0
 11
-235.7655299594456
 21
-118.1977541937699
 31
0.0
 11
-234.3962994079869
 21
-118.1707641642713
 31
0.0
 11
-233.0270740977744
 21
-118.1977544130861
 31
0.0
 11
-231.5872792136327
 21
-118.2801249936783
 31
0.0
  0
SPLINE
  5
1D1
330
5C
100
AcDbEntity
  8
0
  6
Continuous
 62
     7
100
AcDbSpline
210
0.0
220
0.0
230
1.0
 70
     8
 71
     3
 72
    11
 73
     7
 74
     5
 42
0.000000001
 43
0.0000000001
 44
0.00000001
 40
0.0
 40
0.0
 40
0.0
 40
0.0
 40
0.7087514039291883
 40
1.457009436310217
 40
2.221577859523618
 40
3.024593647736875
 40
3.024593647736875
 40
3.024593647736875
 40
3.024593647736875
 10
-234.3963048454132
 20
-96.75012499367824
 30
0.0
 10
-234.1597079182307
 20
-96.76325961277263
 30
0.0
 10
-233.673325877217
 20
-96.79026100491023
 30
0.0
 10
-232.958355877592
 20
-97.00387474471438
 30
0.0
 10
-232.2530155706834
 20
-97.3225420559518
 30
0.0
 10
-231.8127903920501
 20
-97.6052857715352
 30
0.0
 10
-231.5872792136326
 20
-97.75012499367824
 30
0.0
 11
-234.3963048454132
 21
-96.75012499367824
 31
0.0
 11
-233.6906486257815
 21
-96.81629034817793
 31
0.0
 11
-232.9699921460596
 21
-97.01764656020259
 31
0.0
 11
-232.2735789501729
 21
-97.33319930780381
 31
0.0
 11
-231.5872792136326
 21
-97.75012499367824
 31
0.0
  0
SPLINE
  5
1D2
330
5C
100
AcDbEntity
  8
0
  6
Continuous
 62
     7
100
AcDbSpline
210
0.0
220
0.0
230
1.0
 70
     8
 71
     3
 72
    11
 73
     7
 74
     5
 42
0.000000001
 43
0.0000000001
 44
0.00000001
 40
0.0
 40
0.0
 40
0.0
 40
0.0
 40
1.442149167057387
 40
2.811640467851444
 40
4.181137004626878
 40
5.623291808535768
 40
5.623291808535768
 40
5.623291808535768
 40
5.623291808535768
 10
-210.8026695228061
 20
-118.2801249936783
 30
0.0
 10
-211.2824238358408
 20
-118.2488001016108
 30
0.0
 10
-212.2177616449414
 20
-118.1877285321984
 30
0.0
 10
-213.6116914609021
 20
-118.1625012656891
 30
0.0
 10
-215.0056231674504
 20
-118.1877282226737
 30
0.0
 10
-215.940964596588
 20
-118.2487999958123
 30
0.0
 10
-216.4207207863581
 20
-118.2801249936773
 30
0.0
 11
-210.8026695228061
 21
-118.2801249936783
 31
0.0
 11
-212.2424644068448
 21
-118.1977544130901
 31
0.0
 11
-213.6116897171604
 21
-118.1707641642713
 31
0.0
 11
-214.9809202687977
 21
-118.1977541937768
 31
0.0
 11
-216.4207207863581
 21
-118.2801249936773
 31
0.0
  0
SPLINE
  5
1D3
330
5C
100
AcDbEntity
  8
0
  6
Continuous
 62
     7
100
AcDbSpline
210
0.0
220
0.0
230
1.0
 70
     8
 71
     3
 72
    11
 73
     7
 74
     5
 42
0.000000001
 43
0.0000000001
 44
0.00000001
 40
0.0
 40
0.0
 40
0.0
 40
0.0
 40
2.880775769050407
 40
5.61937300532019
 40
8.357959761771472
 40
11.23872426195788
 40
11.23872426195788
 40
11.23872426195788
 40
11.23872426195788
 10
-229.6220512635452
 20
-118.2801249936773
 30
0.0
 10
-228.6622739802386
 20
-118.2487972882131
 30
0.0
 10
-226.7900885029676
 20
-118.1876880474959
 30
0.0
 10
-224.0039926176287
 20
-118.1625162616841
 30
0.0
 10
-221.2179004943935
 20
-118.1876883570633
 30
0.0
 10
-219.3457222645639
 20
-118.2487973939872
 30
0.0
 10
-218.3859487364388
 20
-118.2801249936783
 30
0.0
 11
-229.6220512635452
 21
-118.2801249936773
 31
0.0
 11
-226.7424533587123
 21
-118.1977542547362
 31
0.0
 11
-224.0039891251475
 21
-118.1707641642713
 31
0.0
 11
-221.2655353740718
 21
-118.1977544740526
 31
0.0
 11
-218.3859487364388
 21
-118.2801249936783
 31
0.0
  0
SPLINE
  5
1D4
330
5C
100
AcDbEntity
  8
0
  6
Continuous
 62
     7
100
AcDbSpline
210
0.0
220
0.0
230
1.0
 70
     8
 71
     3
 72
    11
 73
     7
 74
     5
 42
0.000000001
 43
0.0000000001
 44
0.00000001
 40
0.0
 40
0.0
 40
0.0
 40
0.0
 40
0.8061765672033203
 40
1.571346451548754
 40
2.304864048333974
 40
3.024562707020357
 40
3.024562707020357
 40
3.024562707020357
 40
3.024562707020357
 10
-216.4207207863672
 20
-97.75012499367824
 30
0.0
 10
-216.1943021175616
 20
-97.60474788728285
 30
0.0
 10
-215.7529817017771
 20
-97.321388385979
 30
0.0
 10
-215.0507802376027
 20
-97.00456231798246
 30
0.0
 10
-214.3370642450137
 20
-96.79120276081582
 30
0.0
 10
-213.8519471585403
 20
-96.76373049799939
 30
0.0
 10
-213.6116951545866
 20
-96.75012499367824
 30
0.0
 11
-216.4207207863672
 21
-97.75012499367824
 31
0.0
 11
-215.7316185429956
 21
-97.33172475997873
 31
0.0
 11
-215.0344695958416
 21
-97.01633880665437
 31
0.0
 11
-214.3281400068779
 21
-96.81848386167351
 31
0.0
 11
-213.6116951545866
 21
-96.75012499367824
 31
0.0
  0
SPLINE
  5
1D5
330
5C
100
AcDbEntity
  8
0
  6
Continuous
 62
     7
100
AcDbSpline
210
0.0
220
0.0
230
1.0
 70
     8
 71
     3
 72
    11
 73
     7
 74
     5
 42
0.000000001
 43
0.0000000001
 44
0.00000001
 40
0.0
 40
0.0
 40
0.0
 40
0.0
 40
1.420129711834252
 40
2.872504696319659
 40
4.299880738091036
 40
5.730819301769923
 40
5.730819301769923
 40
5.730819301769923
 40
5.730819301769923
 10
-224.0039999999999
 20
-96.75012499367824
 30
0.0
 10
-223.5304275701197
 20
-96.76309633200285
 30
0.0
 10
-222.5725298397858
 20
-96.78933354915739
 30
0.0
 10
-221.1518815813298
 20
-96.99966148312524
 30
0.0
 10
-219.7481911959558
 20
-97.3138097270345
 30
0.0
 10
-218.8404067004329
 20
-97.6045657699923
 30
0.0
 10
-218.3859487364388
 20
-97.75012499367824
 30
0.0
 11
-224.0039999999999
 21
-96.75012499367824
 31
0.0
 11
-222.5854442961876
 21
-96.81696895546511
 31
0.0
 11
-221.1471105015709
 21
-97.01843605829256
 31
0.0
 11
-219.7550791636799
 21
-97.3341117164581
 31
0.0
 11
-218.3859487364388
 21
-97.75012499367824
 31
0.0
  0
SPLINE
  5
1D6
330
5C
100
AcDbEntity
  8
0
  6
Continuous
 62
     7
100
AcDbSpline
210
0.0
220
0.0
230
1.0
 70
     8
 71
     3
 72
    11
 73
     7
 74
     5
 42
0.000000001
 43
0.0000000001
 44
0.00000001
 40
0.0
 40
0.0
 40
0.0
 40
0.0
 40
1.476605419424959
 40
2.873994293238198
 40
4.299827471156871
 40
5.730808721034944
 40
5.730808721034944
 40
5.730808721034944
 40
5.730808721034944
 10
-229.622051263561
 20
-97.75012499367824
 30
0.0
 10
-229.1529960322342
 20
-97.60016166510441
 30
0.0
 10
-228.2400493191279
 20
-97.30828021593712
 30
0.0
 10
-226.8394134681145
 20
-96.99721210037764
 30
0.0
 10
-225.4338514137278
 20
-96.78979450536875
 30
0.0
 10
-224.4811893807684
 20
-96.76336403544889
 30
0.0
 10
-224.0039999999999
 20
-96.75012499367824
 30
0.0
 11
-229.622051263561
 21
-97.75012499367824
 31
0.0
 11
-228.2087522140196
 21
-97.32239919145061
 31
0.0
 11
-226.8454618321468
 21
-97.01558491300636
 31
0.0
 11
-225.4333630951463
 21
-96.81815793712197
 31
0.0
 11
-224.0039999999999
 21
-96.75012499367824
 31
0.0
  0
SPLINE
  5
1D7
330
5C
100
AcDbEntity
  8
0
  6
Continuous
 62
     7
100
AcDbSpline
210
0.0
220
0.0
230
1.0
 70
     8
 71
     3
 72
    11
 73
     7
 74
     5
 42
0.000000001
 43
0.0000000001
 44
0.00000001
 40
0.0
 40
0.0
 40
0.0
 40
0.0
 40
0.8061765672033203
 40
1.571346451548754
 40
2.304864048333946
 40
3.024562707020273
 40
3.024562707020273
 40
3.024562707020273
 40
3.024562707020273
 10
-237.2053304771937
 20
-97.75012499367824
 30
0.0
 10
-236.9789118083881
 20
-97.60474788728285
 30
0.0
 10
-236.5375913926035
 20
-97.32138838597899
 30
0.0
 10
-235.8353899284293
 20
-97.00456231798248
 30
0.0
 10
-235.1216739358402
 20
-96.7912027608158
 30
0.0
 10
-234.6365568493669
 20
-96.7637304979994
 30
0.0
 10
-234.3963048454132
 20
-96.75012499367824
 30
0.0
 11
-237.2053304771937
 21
-97.75012499367824
 31
0.0
 11
-236.5162282338221
 21
-97.33172475997873
 31
0.0
 11
-235.8190792866681
 21
-97.01633880665437
 31
0.0
 11
-235.1127496977044
 21
-96.81848386167351
 31
0.0
 11
-234.3963048454132
 21
-96.75012499367824
 31
0.0
  0
ENDBLK
  5
5E
330
5C
100
AcDbEntity
  8
0
100
AcDbBlockEnd
  0
BLOCK
  5
61
330
5F
100
AcDbEntity
  8
0
100
AcDbBlockBegin
  2
SA_Links1
 70
     0
 10
-224.004
 20
-115.0
 30
0.0
  3
SA_Links1
  1

  0
INSERT
  5
60
330
5F
100
AcDbEntity
  8
0
100
AcDbBlockReference
  2
G_INS_M20_M68L_PEPDS_LG-select__4
 10
-237.2539999999999
 20
-139.2501249936782
 30
0.0
  0
MTEXT
  5
1D8
330
5F
100
AcDbEntity
  8
1
 62
     6
100
AcDbMText
 10
-224.0039999999749
 20
-145.7519999999799
 30
0.0
 40
5.0
 41
0.0
 71
     2
 72
     1
  1
 
  7
CONVERTER_11
 73
     1
 44
1.32052821128451
  0
ENDBLK
  5
62
330
5F
100
AcDbEntity
  8
0
100
AcDbBlockEnd
  0
BLOCK
  5
64
330
63
100
AcDbEntity
  8
0
100
AcDbBlockBegin
  2
G_INS_M20_M68L_PEPDS_LG-select__5
 70
     0
 10
-351.2620000000001
 20
-139.2501249936782
 30
0.0
  3
G_INS_M20_M68L_PEPDS_LG-select__5
  1

  0
LINE
  5
1D9
330
63
100
AcDbEntity
  8
0
  6
Continuous
 62
     7
100
AcDbLine
 10
-343.6300512635611
 20
-123.1501249936782
 30
0.0
 11
-332.393948736439
 21
-123.1501249936782
 31
0.0
  0
LINE
  5
1DA
330
63
100
AcDbEntity
  8
0
  6
Continuous
 62
     7
100
AcDbLine
 10
-348.0120000000001
 20
-124.2501249936782
 30
0.0
 11
-349.5120000000001
 21
-124.2501249936782
 31
0.0
  0
LINE
  5
1DB
330
63
100
AcDbEntity
  8
0
  6
Continuous
 62
     7
100
AcDbLine
 10
-328.0120000000001
 20
-124.2501249936782
 30
0.0
 11
-348.0120000000001
 21
-124.2501249936782
 31
0.0
  0
LINE
  5
1DC
330
63
100
AcDbEntity
  8
0
  6
Continuous
 62
     7
100
AcDbLine
 10
-349.5120000000001
 20
-124.2501249936782
 30
0.0
 11
-349.5120000000001
 21
-123.7501249936782
 31
0.0
  0
LINE
  5
1DD
330
63
100
AcDbEntity
  8
0
  6
Continuous
 62
     7
100
AcDbLine
 10
-328.0120000000001
 20
-138.3151249936782
 30
0.0
 11
-328.0120000000001
 21
-124.2501249936782
 31
0.0
  0
LINE
  5
1DE
330
63
100
AcDbEntity
  8
0
  6
Continuous
 62
     7
100
AcDbLine
 10
-350.6543048454134
 20
-122.1501249936782
 30
0.0
 11
-348.9222540378445
 21
-122.1501249936782
 31
0.0
  0
LINE
  5
1DF
330
63
100
AcDbEntity
  8
0
  6
Continuous
 62
     7
100
AcDbLine
 10
-342.5120000000001
 20
-122.1501249936782
 30
0.0
 11
-333.5120000000001
 21
-122.1501249936782
 31
0.0
  0
LINE
  5
1E0
330
63
100
AcDbEntity
  8
0
  6
Continuous
 62
     7
100
AcDbLine
 10
-348.9222540378445
 20
-122.1501249936782
 30
0.0
 11
-346.1543048454134
 21
-122.1501249936782
 31
0.0
  0
LINE
  5
1E1
330
63
100
AcDbEntity
  8
0
  6
Continuous
 62
     7
100
AcDbLine
 10
-328.0120000000001
 20
-138.3151249936782
 30
0.0
 11
-348.0120000000001
 21
-138.3151249936782
 31
0.0
  0
LINE
  5
1E2
330
63
100
AcDbEntity
  8
0
  6
Continuous
 62
     7
100
AcDbLine
 10
-328.9470000000001
 20
-139.2501249936782
 30
0.0
 11
-347.0770000000001
 21
-139.2501249936782
 31
0.0
  0
LINE
  5
1E3
330
63
100
AcDbEntity
  8
0
  6
Continuous
 62
     7
100
AcDbLine
 10
-324.7620000000001
 20
-97.7501249936782
 30
0.0
 11
-324.8106695228063
 21
-97.7501249936782
 31
0.0
  0
LINE
  5
1E4
330
63
100
AcDbEntity
  8
0
  6
Continuous
 62
     7
100
AcDbLine
 10
-324.7620000000001
 20
-110.7501249936782
 30
0.0
 11
-324.8106695228063
 21
-110.7501249936782
 31
0.0
  0
LINE
  5
1E5
330
63
100
AcDbEntity
  8
0
  6
Continuous
 62
     7
100
AcDbLine
 10
-324.8106695228063
 20
-110.7501249936782
 30
0.0
 11
-327.0120000000001
 21
-110.7501249936782
 31
0.0
  0
LINE
  5
1E6
330
63
100
AcDbEntity
  8
0
  6
Continuous
 62
     7
100
AcDbLine
 10
-327.0120000000001
 20
-110.7501249936782
 30
0.0
 11
-330.4287207863674
 21
-110.7501249936782
 31
0.0
  0
LINE
  5
1E7
330
63
100
AcDbEntity
  8
0
  6
Continuous
 62
     7
100
AcDbLine
 10
-324.8106695228063
 20
-118.2801249936782
 30
0.0
 11
-324.8106695228063
 21
-123.1501249936782
 31
0.0
  0
LINE
  5
1E8
330
63
100
AcDbEntity
  8
0
  6
Continuous
 62
     7
100
AcDbLine
 10
-324.7620000000001
 20
-118.2801249936782
 30
0.0
 11
-324.8106695228063
 21
-118.2801249936782
 31
0.0
  0
LINE
  5
1E9
330
63
100
AcDbEntity
  8
0
  6
Continuous
 62
     7
100
AcDbLine
 10
-330.4287207863583
 20
-118.2801249936773
 30
0.0
 11
-332.3939487364514
 21
-118.2801249936775
 31
0.0
  0
LINE
  5
1EA
330
63
100
AcDbEntity
  8
0
  6
Continuous
 62
     7
100
AcDbLine
 10
-327.0120000000001
 20
-118.0832755007449
 30
0.0
 11
-324.7620000000001
 21
-118.2801249936782
 31
0.0
  0
LINE
  5
1EB
330
63
100
AcDbEntity
  8
0
  6
Continuous
 62
     7
100
AcDbLine
 10
-327.1017459621557
 20
-119.1501249936782
 30
0.0
 11
-325.3696951545869
 21
-119.1501249936782
 31
0.0
  0
LINE
  5
1EC
330
63
100
AcDbEntity
  8
0
  6
Continuous
 62
     7
100
AcDbLine
 10
-330.4287207863583
 20
-118.2801249936773
 30
0.0
 11
-330.4287207863674
 21
-123.1501249936782
 31
0.0
  0
LINE
  5
1ED
330
63
100
AcDbEntity
  8
0
  6
Continuous
 62
     7
100
AcDbLine
 10
-327.0120000000001
 20
-118.0832755007449
 30
0.0
 11
-327.0120000000001
 21
-110.7501249936782
 31
0.0
  0
LINE
  5
1EE
330
63
100
AcDbEntity
  8
0
  6
Continuous
 62
     7
100
AcDbLine
 10
-324.7620000000001
 20
-110.7501249936782
 30
0.0
 11
-324.7620000000001
 21
-97.7501249936782
 31
0.0
  0
LINE
  5
1EF
330
63
100
AcDbEntity
  8
0
  6
Continuous
 62
     7
100
AcDbLine
 10
-326.0120000000001
 20
-96.7501249936782
 30
0.0
 11
-324.7620000000001
 21
-97.7501249936782
 31
0.0
  0
LINE
  5
1F0
330
63
100
AcDbEntity
  8
0
  6
Continuous
 62
     7
100
AcDbLine
 10
-328.9470000000001
 20
-139.2501249936782
 30
0.0
 11
-328.0120000000001
 21
-138.3151249936782
 31
0.0
  0
LINE
  5
1F1
330
63
100
AcDbEntity
  8
0
  6
Continuous
 62
     7
100
AcDbLine
 10
-333.5120000000001
 20
-119.1501249936782
 30
0.0
 11
-342.5120000000001
 21
-119.1501249936782
 31
0.0
  0
LINE
  5
1F2
330
63
100
AcDbEntity
  8
0
  6
Continuous
 62
     7
100
AcDbLine
 10
-332.393948736439
 20
-110.7501249936782
 30
0.0
 11
-343.6300512635611
 21
-110.7501249936782
 31
0.0
  0
LINE
  5
1F3
330
63
100
AcDbEntity
  8
0
  6
Continuous
 62
     7
100
AcDbLine
 10
-328.4920000000001
 20
-90.7501249936782
 30
0.0
 11
-347.5320000000001
 21
-90.75012499367821
 31
0.0
  0
LINE
  5
1F4
330
63
100
AcDbEntity
  8
0
  6
Continuous
 62
     7
100
AcDbLine
 10
-346.1543048454134
 20
-122.1501249936782
 30
0.0
 11
-346.1543048454134
 21
-119.1501249936782
 31
0.0
  0
LINE
  5
1F5
330
63
100
AcDbEntity
  8
0
  6
Continuous
 62
     7
100
AcDbLine
 10
-343.6300512635611
 20
-97.7501249936782
 30
0.0
 11
-345.5952792136328
 21
-97.7501249936782
 31
0.0
  0
LINE
  5
1F6
330
63
100
AcDbEntity
  8
0
  6
Continuous
 62
     7
100
AcDbLine
 10
-342.5120000000001
 20
-119.1501249936782
 30
0.0
 11
-342.5120000000001
 21
-122.1501249936782
 31
0.0
  0
LINE
  5
1F7
330
63
100
AcDbEntity
  8
0
  6
Continuous
 62
     7
100
AcDbLine
 10
-338.0120000000001
 20
-96.7501249936782
 30
0.0
 11
-348.4043048454134
 21
-96.7501249936782
 31
0.0
  0
LINE
  5
1F8
330
63
100
AcDbEntity
  8
0
  6
Continuous
 62
     7
100
AcDbLine
 10
-343.6300512635488
 20
-118.2801249936775
 30
0.0
 11
-343.6300512635611
 21
-123.1501249936782
 31
0.0
  0
LINE
  5
1F9
330
63
100
AcDbEntity
  8
0
  6
Continuous
 62
     7
100
AcDbLine
 10
-343.6300512635611
 20
-97.7501249936782
 30
0.0
 11
-343.6300512635611
 21
-110.7501249936782
 31
0.0
  0
LINE
  5
1FA
330
63
100
AcDbEntity
  8
0
  6
Continuous
 62
     7
100
AcDbLine
 10
-345.5952792136328
 20
-118.2801249936782
 30
0.0
 11
-345.5952792136328
 21
-123.1501249936782
 31
0.0
  0
LINE
  5
1FB
330
63
100
AcDbEntity
  8
0
  6
Continuous
 62
     7
100
AcDbLine
 10
-351.2133304771939
 20
-110.7501249936782
 30
0.0
 11
-351.2620000000001
 21
-110.7501249936782
 31
0.0
  0
LINE
  5
1FC
330
63
100
AcDbEntity
  8
0
  6
Continuous
 62
     7
100
AcDbLine
 10
-351.2620000000001
 20
-123.7501249936782
 30
0.0
 11
-351.2620000000001
 21
-118.2801249936782
 31
0.0
  0
LINE
  5
1FD
330
63
100
AcDbEntity
  8
0
  6
Continuous
 62
     7
100
AcDbLine
 10
-349.5120000000001
 20
-123.7501249936782
 30
0.0
 11
-351.2620000000001
 21
-123.7501249936782
 31
0.0
  0
LINE
  5
1FE
330
63
100
AcDbEntity
  8
0
  6
Continuous
 62
     7
100
AcDbLine
 10
-351.2133304771939
 20
-97.7501249936782
 30
0.0
 11
-351.2620000000001
 21
-97.7501249936782
 31
0.0
  0
LINE
  5
1FF
330
63
100
AcDbEntity
  8
0
  6
Continuous
 62
     7
100
AcDbLine
 10
-348.0120000000001
 20
-138.3151249936782
 30
0.0
 11
-348.0120000000001
 21
-124.2501249936782
 31
0.0
  0
LINE
  5
200
330
63
100
AcDbEntity
  8
0
  6
Continuous
 62
     7
100
AcDbLine
 10
-349.0120000000001
 20
-110.7501249936782
 30
0.0
 11
-351.2133304771939
 21
-110.7501249936782
 31
0.0
  0
LINE
  5
201
330
63
100
AcDbEntity
  8
0
  6
Continuous
 62
     7
100
AcDbLine
 10
-349.0120000000001
 20
-118.0832755007449
 30
0.0
 11
-351.2620000000001
 21
-118.2801249936782
 31
0.0
  0
LINE
  5
202
330
63
100
AcDbEntity
  8
0
  6
Continuous
 62
     7
100
AcDbLine
 10
-349.0120000000001
 20
-118.0832755007449
 30
0.0
 11
-349.0120000000001
 21
-110.7501249936782
 31
0.0
  0
LINE
  5
203
330
63
100
AcDbEntity
  8
0
  6
Continuous
 62
     7
100
AcDbLine
 10
-350.6543048454133
 20
-119.1501249936782
 30
0.0
 11
-350.6543048454134
 21
-122.1501249936782
 31
0.0
  0
LINE
  5
204
330
63
100
AcDbEntity
  8
0
  6
Continuous
 62
     7
100
AcDbLine
 10
-351.2133304771872
 20
-118.2801249936773
 30
0.0
 11
-351.2133304771939
 21
-123.1501249936782
 31
0.0
  0
LINE
  5
205
330
63
100
AcDbEntity
  8
0
  6
Continuous
 62
     7
100
AcDbLine
 10
-348.9222540378445
 20
-119.1501249936782
 30
0.0
 11
-348.9222540378445
 21
-122.1501249936782
 31
0.0
  0
LINE
  5
206
330
63
100
AcDbEntity
  8
0
  6
Continuous
 62
     7
100
AcDbLine
 10
-351.2133304771939
 20
-97.7501249936782
 30
0.0
 11
-351.2133304771939
 21
-110.7501249936782
 31
0.0
  0
LINE
  5
207
330
63
100
AcDbEntity
  8
0
  6
Continuous
 62
     7
100
AcDbLine
 10
-350.0120000000001
 20
-96.7501249936782
 30
0.0
 11
-351.2620000000001
 21
-97.7501249936782
 31
0.0
  0
LINE
  5
208
330
63
100
AcDbEntity
  8
0
  6
Continuous
 62
     7
100
AcDbLine
 10
-351.2620000000001
 20
-110.7501249936782
 30
0.0
 11
-351.2620000000001
 21
-97.7501249936782
 31
0.0
  0
LINE
  5
209
330
63
100
AcDbEntity
  8
0
  6
Continuous
 62
     7
100
AcDbLine
 10
-347.0770000000001
 20
-139.2501249936782
 30
0.0
 11
-348.0120000000001
 21
-138.3151249936782
 31
0.0
  0
LINE
  5
20A
330
63
100
AcDbEntity
  8
0
  6
Continuous
 62
     7
100
AcDbLine
 10
-343.6300512635611
 20
-110.7501249936782
 30
0.0
 11
-345.5952792136328
 21
-110.7501249936782
 31
0.0
  0
LINE
  5
20B
330
63
100
AcDbEntity
  8
0
  6
Continuous
 62
     7
100
AcDbLine
 10
-345.5952792136328
 20
-97.7501249936782
 30
0.0
 11
-345.5952792136328
 21
-110.7501249936782
 31
0.0
  0
LINE
  5
20C
330
63
100
AcDbEntity
  8
0
  6
Continuous
 62
     7
100
AcDbLine
 10
-345.5952792136328
 20
-110.7501249936782
 30
0.0
 11
-349.0120000000001
 21
-110.7501249936782
 31
0.0
  0
LINE
  5
20D
330
63
100
AcDbEntity
  8
0
  6
Continuous
 62
     7
100
AcDbLine
 10
-326.0120000000001
 20
-95.0501249936782
 30
0.0
 11
-350.0120000000001
 21
-95.0501249936782
 31
0.0
  0
LINE
  5
20E
330
63
100
AcDbEntity
  8
0
  6
Continuous
 62
     7
100
AcDbLine
 10
-348.4043048454134
 20
-96.7501249936782
 30
0.0
 11
-350.0120000000001
 21
-96.7501249936782
 31
0.0
  0
LINE
  5
20F
330
63
100
AcDbEntity
  8
0
  6
Continuous
 62
     7
100
AcDbLine
 10
-350.0120000000001
 20
-96.7501249936782
 30
0.0
 11
-350.0120000000001
 21
-95.0501249936782
 31
0.0
  0
LINE
  5
210
330
63
100
AcDbEntity
  8
0
  6
Continuous
 62
     7
100
AcDbLine
 10
-349.0120000000001
 20
-118.0832755007449
 30
0.0
 11
-327.0120000000001
 21
-118.0832755007449
 31
0.0
  0
LINE
  5
211
330
63
100
AcDbEntity
  8
0
  6
Continuous
 62
     7
100
AcDbLine
 10
-324.7620000000001
 20
-123.7501249936782
 30
0.0
 11
-326.5120000000001
 21
-123.7501249936782
 31
0.0
  0
LINE
  5
212
330
63
100
AcDbEntity
  8
0
  6
Continuous
 62
     7
100
AcDbLine
 10
-351.2133304771939
 20
-123.1501249936782
 30
0.0
 11
-345.5952792136328
 21
-123.1501249936782
 31
0.0
  0
LINE
  5
213
330
63
100
AcDbEntity
  8
0
  6
Continuous
 62
     7
100
AcDbLine
 10
-326.5120000000001
 20
-124.2501249936782
 30
0.0
 11
-328.0120000000001
 21
-124.2501249936782
 31
0.0
  0
LINE
  5
214
330
63
100
AcDbEntity
  8
0
  6
Continuous
 62
     7
100
AcDbLine
 10
-326.5120000000001
 20
-124.2501249936782
 30
0.0
 11
-326.5120000000001
 21
-123.7501249936782
 31
0.0
  0
LINE
  5
215
330
63
100
AcDbEntity
  8
0
  6
Continuous
 62
     7
100
AcDbLine
 10
-348.9222540378445
 20
-119.1501249936782
 30
0.0
 11
-350.6543048454133
 21
-119.1501249936782
 31
0.0
  0
LINE
  5
216
330
63
100
AcDbEntity
  8
0
  6
Continuous
 62
     7
100
AcDbLine
 10
-343.6300512635488
 20
-118.2801249936775
 30
0.0
 11
-345.5952792136328
 21
-118.2801249936782
 31
0.0
  0
LINE
  5
217
330
63
100
AcDbEntity
  8
0
  6
Continuous
 62
     7
100
AcDbLine
 10
-351.2133304771872
 20
-118.2801249936773
 30
0.0
 11
-351.2620000000001
 21
-118.2801249936782
 31
0.0
  0
LINE
  5
218
330
63
100
AcDbEntity
  8
0
  6
Continuous
 62
     7
100
AcDbLine
 10
-346.1543048454134
 20
-119.1501249936782
 30
0.0
 11
-348.9222540378445
 21
-119.1501249936782
 31
0.0
  0
LINE
  5
219
330
63
100
AcDbEntity
  8
0
  6
Continuous
 62
     7
100
AcDbLine
 10
-326.5120000000001
 20
-123.7501249936782
 30
0.0
 11
-349.5120000000001
 21
-123.7501249936782
 31
0.0
  0
LINE
  5
21A
330
63
100
AcDbEntity
  8
0
  6
Continuous
 62
     7
100
AcDbLine
 10
-324.7620000000001
 20
-123.7501249936782
 30
0.0
 11
-324.7620000000001
 21
-118.2801249936782
 31
0.0
  0
LINE
  5
21B
330
63
100
AcDbEntity
  8
0
  6
Continuous
 62
     7
100
AcDbLine
 10
-325.3696951545869
 20
-119.1501249936782
 30
0.0
 11
-325.3696951545868
 21
-122.1501249936782
 31
0.0
  0
LINE
  5
21C
330
63
100
AcDbEntity
  8
0
  6
Continuous
 62
     7
100
AcDbLine
 10
-333.5120000000001
 20
-122.1501249936782
 30
0.0
 11
-333.5120000000001
 21
-119.1501249936782
 31
0.0
  0
LINE
  5
21D
330
63
100
AcDbEntity
  8
0
  6
Continuous
 62
     7
100
AcDbLine
 10
-327.1017459621557
 20
-122.1501249936782
 30
0.0
 11
-329.8696951545869
 21
-122.1501249936782
 31
0.0
  0
LINE
  5
21E
330
63
100
AcDbEntity
  8
0
  6
Continuous
 62
     7
100
AcDbLine
 10
-327.6196951545868
 20
-96.7501249936782
 30
0.0
 11
-338.0120000000001
 21
-96.7501249936782
 31
0.0
  0
LINE
  5
21F
330
63
100
AcDbEntity
  8
0
  6
Continuous
 62
     7
100
AcDbLine
 10
-326.0120000000001
 20
-96.7501249936782
 30
0.0
 11
-326.0120000000001
 21
-95.0501249936782
 31
0.0
  0
LINE
  5
220
330
63
100
AcDbEntity
  8
0
  6
Continuous
 62
     7
100
AcDbLine
 10
-326.0120000000001
 20
-96.7501249936782
 30
0.0
 11
-327.6196951545868
 21
-96.7501249936782
 31
0.0
  0
LINE
  5
221
330
63
100
AcDbEntity
  8
0
  6
Continuous
 62
     7
100
AcDbLine
 10
-327.1017459621557
 20
-119.1501249936782
 30
0.0
 11
-327.1017459621557
 21
-122.1501249936782
 31
0.0
  0
LINE
  5
222
330
63
100
AcDbEntity
  8
0
  6
Continuous
 62
     7
100
AcDbLine
 10
-329.8696951545869
 20
-122.1501249936782
 30
0.0
 11
-329.8696951545869
 21
-119.1501249936782
 31
0.0
  0
LINE
  5
223
330
63
100
AcDbEntity
  8
0
  6
Continuous
 62
     7
100
AcDbLine
 10
-330.4287207863674
 20
-97.7501249936782
 30
0.0
 11
-332.393948736439
 21
-97.7501249936782
 31
0.0
  0
LINE
  5
224
330
63
100
AcDbEntity
  8
0
  6
Continuous
 62
     7
100
AcDbLine
 10
-330.4287207863674
 20
-110.7501249936782
 30
0.0
 11
-332.393948736439
 21
-110.7501249936782
 31
0.0
  0
LINE
  5
225
330
63
100
AcDbEntity
  8
0
  6
Continuous
 62
     7
100
AcDbLine
 10
-329.8696951545869
 20
-119.1501249936782
 30
0.0
 11
-327.1017459621557
 21
-119.1501249936782
 31
0.0
  0
LINE
  5
226
330
63
100
AcDbEntity
  8
0
  6
Continuous
 62
     7
100
AcDbLine
 10
-325.3696951545868
 20
-122.1501249936782
 30
0.0
 11
-327.1017459621557
 21
-122.1501249936782
 31
0.0
  0
LINE
  5
227
330
63
100
AcDbEntity
  8
0
  6
Continuous
 62
     7
100
AcDbLine
 10
-332.3939487364514
 20
-118.2801249936775
 30
0.0
 11
-332.393948736439
 21
-123.1501249936782
 31
0.0
  0
LINE
  5
228
330
63
100
AcDbEntity
  8
0
  6
Continuous
 62
     7
100
AcDbLine
 10
-332.393948736439
 20
-97.7501249936782
 30
0.0
 11
-332.393948736439
 21
-110.7501249936782
 31
0.0
  0
LINE
  5
229
330
63
100
AcDbEntity
  8
0
  6
Continuous
 62
     7
100
AcDbLine
 10
-330.4287207863674
 20
-97.7501249936782
 30
0.0
 11
-330.4287207863674
 21
-110.7501249936782
 31
0.0
  0
LINE
  5
22A
330
63
100
AcDbEntity
  8
0
  6
Continuous
 62
     7
100
AcDbLine
 10
-324.8106695228063
 20
-97.7501249936782
 30
0.0
 11
-324.8106695228063
 21
-110.7501249936782
 31
0.0
  0
LINE
  5
22B
330
63
100
AcDbEntity
  8
0
  6
Continuous
 62
     7
100
AcDbLine
 10
-330.4287207863674
 20
-123.1501249936782
 30
0.0
 11
-324.8106695228063
 21
-123.1501249936782
 31
0.0
  0
LINE
  5
22C
330
63
100
AcDbEntity
  8
1
  6
DOT_CENTER
 62
     2
100
AcDbLine
 10
-338.0120000000002
 20
-139.2501249936782
 30
0.0
 11
-338.0120000000001
 21
-110.7501249936782
 31
0.0
  0
LINE
  5
22D
330
63
100
AcDbEntity
  8
1
  6
DOT_CENTER
 62
     2
100
AcDbLine
 10
-338.0120000000001
 20
-96.7501249936782
 30
0.0
 11
-338.0120000000001
 21
-95.0501249936782
 31
0.0
  0
ARC
  5
22E
330
63
100
AcDbEntity
  8
0
  6
Continuous
 62
     7
100
AcDbCircle
 10
-332.9218138822706
 20
-96.17015718624349
 30
0.0
 40
7.000000000000051
100
AcDbArc
 50
9.20716316014589
 51
50.74073416032568
  0
ARC
  5
22F
330
63
100
AcDbEntity
  8
0
  6
Continuous
 62
     7
100
AcDbCircle
 10
-343.1021861177296
 20
-96.1701571862435
 30
0.0
 40
7.000000000000024
100
AcDbArc
 50
129.259265839674
 51
170.792836839854
  0
SPLINE
  5
230
330
63
100
AcDbEntity
  8
0
  6
Continuous
 62
     7
100
AcDbSpline
210
0.0
220
0.0
230
1.0
 70
     8
 71
     3
 72
    11
 73
     7
 74
     5
 42
0.000000001
 43
0.0000000001
 44
0.00000001
 40
0.0
 40
0.0
 40
0.0
 40
0.0
 40
1.442154803908837
 40
2.811651340684355
 40
4.181142641478439
 40
5.623291808535822
 40
5.623291808535822
 40
5.623291808535822
 40
5.623291808535822
 10
-330.4287207863583
 20
-118.2801249936773
 30
0.0
 10
-329.9489645965883
 20
-118.2487999958123
 30
0.0
 10
-329.0136231674508
 20
-118.1877282226736
 30
0.0
 10
-327.6196914609022
 20
-118.1625012656892
 30
0.0
 10
-326.2257616449417
 20
-118.1877285321983
 30
0.0
 10
-325.290423835841
 20
-118.2488001016107
 30
0.0
 10
-324.8106695228063
 20
-118.2801249936782
 30
0.0
 11
-330.4287207863583
 21
-118.2801249936773
 31
0.0
 11
-328.9889202687979
 21
-118.1977541937768
 31
0.0
 11
-327.6196897171606
 21
-118.1707641642713
 31
0.0
 11
-326.250464406845
 21
-118.19775441309
 31
0.0
 11
-324.8106695228063
 21
-118.2801249936782
 31
0.0
  0
SPLINE
  5
231
330
63
100
AcDbEntity
  8
0
  6
Continuous
 62
     7
100
AcDbSpline
210
0.0
220
0.0
230
1.0
 70
     8
 71
     3
 72
    11
 73
     7
 74
     5
 42
0.000000001
 43
0.0000000001
 44
0.00000001
 40
0.0
 40
0.0
 40
0.0
 40
0.0
 40
1.476605419394512
 40
2.873994293238219
 40
4.299827471118302
 40
5.730808721034989
 40
5.730808721034989
 40
5.730808721034989
 40
5.730808721034989
 10
-332.393948736439
 20
-97.7501249936782
 30
0.0
 10
-332.8630039677561
 20
-97.60016166510732
 30
0.0
 10
-333.7759506808624
 20
-97.30828021593979
 30
0.0
 10
-335.1765865318627
 20
-96.99721210038184
 30
0.0
 10
-336.5821485862595
 20
-96.78979450537011
 30
0.0
 10
-337.5348106192187
 20
-96.76336403544951
 30
0.0
 10
-338.0120000000001
 20
-96.7501249936782
 30
0.0
 11
-332.393948736439
 21
-97.7501249936782
 31
0.0
 11
-333.8072477859509
 21
-97.32239919145839
 31
0.0
 11
-335.1705381678532
 21
-97.01558491300634
 31
0.0
 11
-336.5826369048152
 21
-96.81815793712559
 31
0.0
 11
-338.0120000000001
 21
-96.7501249936782
 31
0.0
  0
SPLINE
  5
232
330
63
100
AcDbEntity
  8
0
  6
Continuous
 62
     7
100
AcDbSpline
210
0.0
220
0.0
230
1.0
 70
     8
 71
     3
 72
    11
 73
     7
 74
     5
 42
0.000000001
 43
0.0000000001
 44
0.00000001
 40
0.0
 40
0.0
 40
0.0
 40
0.0
 40
1.420129711834025
 40
2.872504696319772
 40
4.299880738090979
 40
5.730819301769785
 40
5.730819301769785
 40
5.730819301769785
 40
5.730819301769785
 10
-338.0120000000001
 20
-96.7501249936782
 30
0.0
 10
-338.4855724298801
 20
-96.76309633200282
 30
0.0
 10
-339.4434701602143
 20
-96.78933354915739
 30
0.0
 10
-340.8641184186701
 20
-96.99966148312518
 30
0.0
 10
-342.2678088040442
 20
-97.31380972703442
 30
0.0
 10
-343.1755932995669
 20
-97.60456576999226
 30
0.0
 10
-343.6300512635611
 20
-97.7501249936782
 30
0.0
 11
-338.0120000000001
 21
-96.7501249936782
 31
0.0
 11
-339.4305557038122
 21
-96.81696895546507
 31
0.0
 11
-340.8688894984292
 21
-97.01843605829254
 31
0.0
 11
-342.2609208363201
 21
-97.33411171645805
 31
0.0
 11
-343.6300512635611
 21
-97.7501249936782
 31
0.0
  0
SPLINE
  5
233
330
63
100
AcDbEntity
  8
0
  6
Continuous
 62
     7
100
AcDbSpline
210
0.0
220
0.0
230
1.0
 70
     8
 71
     3
 72
    11
 73
     7
 74
     5
 42
0.000000001
 43
0.0000000001
 44
0.00000001
 40
0.0
 40
0.0
 40
0.0
 40
0.0
 40
0.8061765672032231
 40
1.571346451548728
 40
2.304864048333948
 40
3.024562707020277
 40
3.024562707020277
 40
3.024562707020277
 40
3.024562707020277
 10
-351.2133304771939
 20
-97.7501249936782
 30
0.0
 10
-350.9869118083882
 20
-97.60474788728281
 30
0.0
 10
-350.5455913926038
 20
-97.32138838597889
 30
0.0
 10
-349.8433899284294
 20
-97.00456231798245
 30
0.0
 10
-349.1296739358404
 20
-96.79120276081578
 30
0.0
 10
-348.6445568493672
 20
-96.76373049799939
 30
0.0
 10
-348.4043048454134
 20
-96.7501249936782
 30
0.0
 11
-351.2133304771939
 21
-97.7501249936782
 31
0.0
 11
-350.5242282338224
 21
-97.33172475997868
 31
0.0
 11
-349.8270792866683
 21
-97.01633880665435
 31
0.0
 11
-349.1207496977046
 21
-96.81848386167349
 31
0.0
 11
-348.4043048454134
 21
-96.7501249936782
 31
0.0
  0
SPLINE
  5
234
330
63
100
AcDbEntity
  8
0
  6
Continuous
 62
     7
100
AcDbSpline
210
0.0
220
0.0
230
1.0
 70
     8
 71
     3
 72
    11
 73
     7
 74
     5
 42
0.000000001
 43
0.0000000001
 44
0.00000001
 40
0.0
 40
0.0
 40
0.0
 40
0.0
 40
0.70875140392916
 40
1.457009436310165
 40
2.221577859523619
 40
3.024593647736844
 40
3.024593647736844
 40
3.024593647736844
 40
3.024593647736844
 10
-348.4043048454134
 20
-96.7501249936782
 30
0.0
 10
-348.1677079182309
 20
-96.76325961277259
 30
0.0
 10
-347.6813258772173
 20
-96.7902610049102
 30
0.0
 10
-346.966355877592
 20
-97.00387474471435
 30
0.0
 10
-346.2610155706838
 20
-97.3225420559518
 30
0.0
 10
-345.8207903920502
 20
-97.60528577153512
 30
0.0
 10
-345.5952792136328
 20
-97.7501249936782
 30
0.0
 11
-348.4043048454134
 21
-96.7501249936782
 31
0.0
 11
-347.6986486257817
 21
-96.81629034817789
 31
0.0
 11
-346.9779921460598
 21
-97.01764656020256
 31
0.0
 11
-346.281578950173
 21
-97.33319930780378
 31
0.0
 11
-345.5952792136328
 21
-97.7501249936782
 31
0.0
  0
SPLINE
  5
235
330
63
100
AcDbEntity
  8
0
  6
Continuous
 62
     7
100
AcDbSpline
210
0.0
220
0.0
230
1.0
 70
     8
 71
     3
 72
    11
 73
     7
 74
     5
 42
0.000000001
 43
0.0000000001
 44
0.00000001
 40
0.0
 40
0.0
 40
0.0
 40
0.0
 40
1.442154804090043
 40
2.811651340686743
 40
4.181142641377654
 40
5.623291808538154
 40
5.623291808538154
 40
5.623291808538154
 40
5.623291808538154
 10
-351.2133304771872
 20
-118.2801249936773
 30
0.0
 10
-350.7335742873568
 20
-118.2487999958088
 30
0.0
 10
-349.7982328582185
 20
-118.1877282226711
 30
0.0
 10
-348.4043011517034
 20
-118.1625012656909
 30
0.0
 10
-347.0103713358026
 20
-118.187728532197
 30
0.0
 10
-346.0750335267018
 20
-118.2488001016087
 30
0.0
 10
-345.5952792136328
 20
-118.2801249936782
 30
0.0
 11
-351.2133304771872
 21
-118.2801249936773
 31
0.0
 11
-349.7735299594457
 21
-118.1977541937698
 31
0.0
 11
-348.4042994079871
 21
-118.1707641642713
 31
0.0
 11
-347.0350740977746
 21
-118.197754413086
 31
0.0
 11
-345.5952792136328
 21
-118.2801249936782
 31
0.0
  0
SPLINE
  5
236
330
63
100
AcDbEntity
  8
0
  6
Continuous
 62
     7
100
AcDbSpline
210
0.0
220
0.0
230
1.0
 70
     8
 71
     3
 72
    11
 73
     7
 74
     5
 42
0.000000001
 43
0.0000000001
 44
0.00000001
 40
0.0
 40
0.0
 40
0.0
 40
0.0
 40
2.880770172803179
 40
5.619362130974608
 40
8.357954089146038
 40
11.23872426194922
 40
11.23872426194922
 40
11.23872426194922
 40
11.23872426194922
 10
-343.6300512635488
 20
-118.2801249936775
 30
0.0
 10
-342.6702758451084
 20
-118.2487973407345
 30
0.0
 10
-340.7980939915544
 20
-118.1876882020113
 30
0.0
 10
-338.0120000000001
 20
-118.1625162619295
 30
0.0
 10
-335.2259060084458
 20
-118.1876882020113
 30
0.0
 10
-333.3537241548918
 20
-118.2487973407345
 30
0.0
 10
-332.3939487364514
 20
-118.2801249936775
 30
0.0
 11
-343.6300512635488
 21
-118.2801249936775
 31
0.0
 11
-340.7504589541367
 21
-118.1977543636507
 31
0.0
 11
-338.0120000000001
 21
-118.1707641642708
 31
0.0
 11
-335.2735410458635
 21
-118.1977543636507
 31
0.0
 11
-332.3939487364514
 21
-118.2801249936775
 31
0.0
  0
SPLINE
  5
237
330
63
100
AcDbEntity
  8
0
  6
Continuous
 62
     7
100
AcDbSpline
210
0.0
220
0.0
230
1.0
 70
     8
 71
     3
 72
    11
 73
     7
 74
     5
 42
0.000000001
 43
0.0000000001
 44
0.00000001
 40
0.0
 40
0.0
 40
0.0
 40
0.0
 40
0.7087514039455736
 40
1.457009436310106
 40
2.221577859520027
 40
3.02459364773678
 40
3.02459364773678
 40
3.02459364773678
 40
3.02459364773678
 10
-327.6196951545868
 20
-96.7501249936782
 30
0.0
 10
-327.3830982273987
 20
-96.76325961277315
 30
0.0
 10
-326.8967161863852
 20
-96.79026100491137
 30
0.0
 10
-326.1817461867617
 20
-97.00387474471631
 30
0.0
 10
-325.4764058798582
 20
-97.32254205595123
 30
0.0
 10
-325.0361807012247
 20
-97.60528577153453
 30
0.0
 10
-324.8106695228063
 20
-97.7501249936782
 30
0.0
 11
-327.6196951545868
 21
-96.7501249936782
 31
0.0
 11
-326.9140389349389
 21
-96.81629034818093
 31
0.0
 11
-326.1933824552333
 21
-97.01764656020258
 31
0.0
 11
-325.4969692593496
 21
-97.33319930780213
 31
0.0
 11
-324.8106695228063
 21
-97.7501249936782
 31
0.0
  0
SPLINE
  5
238
330
63
100
AcDbEntity
  8
0
  6
Continuous
 62
     7
100
AcDbSpline
210
0.0
220
0.0
230
1.0
 70
     8
 71
     3
 72
    11
 73
     7
 74
     5
 42
0.000000001
 43
0.0000000001
 44
0.00000001
 40
0.0
 40
0.0
 40
0.0
 40
0.0
 40
0.8061765672034249
 40
1.571346451548872
 40
2.304864048333979
 40
3.024562707020365
 40
3.024562707020365
 40
3.024562707020365
 40
3.024562707020365
 10
-330.4287207863674
 20
-97.7501249936782
 30
0.0
 10
-330.2023021175618
 20
-97.60474788728284
 30
0.0
 10
-329.7609817017773
 20
-97.32138838597895
 30
0.0
 10
-329.0587802376027
 20
-97.00456231798243
 30
0.0
 10
-328.3450642450139
 20
-96.79120276081579
 30
0.0
 10
-327.8599471585404
 20
-96.76373049799938
 30
0.0
 10
-327.6196951545868
 20
-96.7501249936782
 30
0.0
 11
-330.4287207863674
 21
-97.7501249936782
 31
0.0
 11
-329.7396185429957
 21
-97.33172475997867
 31
0.0
 11
-329.0424695958417
 21
-97.01633880665435
 31
0.0
 11
-328.3361400068781
 21
-96.8184838616735
 31
0.0
 11
-327.6196951545868
 21
-96.7501249936782
 31
0.0
  0
ENDBLK
  5
65
330
63
100
AcDbEntity
  8
0
100
AcDbBlockEnd
  0
BLOCK
  5
68
330
66
100
AcDbEntity
  8
0
100
AcDbBlockBegin
  2
SA_Rechts1
 70
     0
 10
-338.012
 20
-115.0
 30
0.0
  3
SA_Rechts1
  1

  0
INSERT
  5
67
330
66
100
AcDbEntity
  8
0
100
AcDbBlockReference
  2
G_INS_M20_M68L_PEPDS_LG-select__5
 10
-351.2620000000001
 20
-139.2501249936782
 30
0.0
  0
MTEXT
  5
239
330
66
100
AcDbEntity
  8
1
 62
     6
100
AcDbMText
 10
-338.0119999999749
 20
-145.7519999999799
 30
0.0
 40
5.0
 41
0.0
 71
     2
 72
     1
  1
 
  7
CONVERTER_11
 73
     1
 44
1.32052821128451
  0
ENDBLK
  5
69
330
66
100
AcDbEntity
  8
0
100
AcDbBlockEnd
  0
BLOCK
  5
6B
330
6A
100
AcDbEntity
  8
0
100
AcDbBlockBegin
  2
G_INS_M20_M68L_PEPDS_LG-select__6
 70
     0
 10
-289.2580000000251
 20
-139.2501249936782
 30
0.0
  3
G_INS_M20_M68L_PEPDS_LG-select__6
  1

  0
LINE
  5
23A
330
6A
100
AcDbEntity
  8
0
  6
Continuous
 62
     7
100
AcDbLine
 10
-264.008000000025
 20
-95.05012499367825
 30
0.0
 11
-288.0080000000251
 21
-95.05012499367825
 31
0.0
  0
LINE
  5
23B
330
6A
100
AcDbEntity
  8
0
  6
Continuous
 62
     7
100
AcDbLine
 10
-266.488000000025
 20
-90.75012499367826
 30
0.0
 11
-285.528000000025
 21
-90.75012499367826
 31
0.0
  0
LINE
  5
23C
330
6A
100
AcDbEntity
  8
0
  6
Continuous
 62
     7
100
AcDbLine
 10
-284.905114317055
 20
-119.1501249936783
 30
0.0
 11
-284.905114317055
 21
-122.1501249936783
 31
0.0
  0
LINE
  5
23D
330
6A
100
AcDbEntity
  8
0
  6
Continuous
 62
     7
100
AcDbLine
 10
-285.905114317055
 20
-119.1501249936783
 30
0.0
 11
-285.905114317055
 21
-122.1501249936783
 31
0.0
  0
LINE
  5
23E
330
6A
100
AcDbEntity
  8
0
  6
Continuous
 62
     7
100
AcDbLine
 10
-277.1426248860179
 20
-110.7501249936783
 30
0.0
 11
-286.8733751140321
 21
-110.7501249936783
 31
0.0
  0
LINE
  5
23F
330
6A
100
AcDbEntity
  8
0
  6
Continuous
 62
     7
100
AcDbLine
 10
-287.0080000000251
 20
-118.083275500745
 30
0.0
 11
-265.008000000025
 21
-118.083275500745
 31
0.0
  0
LINE
  5
240
330
6A
100
AcDbEntity
  8
0
  6
Continuous
 62
     7
100
AcDbLine
 10
-267.110885682995
 20
-122.1501249936783
 30
0.0
 11
-267.110885682995
 21
-119.1501249936783
 31
0.0
  0
LINE
  5
241
330
6A
100
AcDbEntity
  8
0
  6
Continuous
 62
     7
100
AcDbLine
 10
-266.110885682995
 20
-122.1501249936783
 30
0.0
 11
-266.110885682995
 21
-119.1501249936783
 31
0.0
  0
LINE
  5
242
330
6A
100
AcDbEntity
  8
0
  6
Continuous
 62
     7
100
AcDbLine
 10
-278.1108856829951
 20
-122.1501249936783
 30
0.0
 11
-278.1108856829951
 21
-119.1501249936783
 31
0.0
  0
LINE
  5
243
330
6A
100
AcDbEntity
  8
0
  6
Continuous
 62
     7
100
AcDbLine
 10
-273.905114317055
 20
-119.1501249936783
 30
0.0
 11
-273.905114317055
 21
-122.1501249936783
 31
0.0
  0
LINE
  5
244
330
6A
100
AcDbEntity
  8
0
  6
Continuous
 62
     7
100
AcDbLine
 10
-265.1426248860179
 20
-110.7501249936783
 30
0.0
 11
-274.8733751140322
 21
-110.7501249936783
 31
0.0
  0
LINE
  5
245
330
6A
100
AcDbEntity
  8
0
  6
Continuous
 62
     7
100
AcDbLine
 10
-266.110885682995
 20
-119.1501249936783
 30
0.0
 11
-267.110885682995
 21
-119.1501249936783
 31
0.0
  0
LINE
  5
246
330
6A
100
AcDbEntity
  8
0
  6
Continuous
 62
     7
100
AcDbLine
 10
-284.905114317055
 20
-119.1501249936783
 30
0.0
 11
-285.905114317055
 21
-119.1501249936783
 31
0.0
  0
LINE
  5
247
330
6A
100
AcDbEntity
  8
0
  6
Continuous
 62
     7
100
AcDbLine
 10
-278.1108856829951
 20
-119.1501249936783
 30
0.0
 11
-284.905114317055
 21
-119.1501249936783
 31
0.0
  0
LINE
  5
248
330
6A
100
AcDbEntity
  8
0
  6
Continuous
 62
     7
100
AcDbLine
 10
-267.110885682995
 20
-119.1501249936783
 30
0.0
 11
-273.905114317055
 21
-119.1501249936783
 31
0.0
  0
LINE
  5
249
330
6A
100
AcDbEntity
  8
0
  6
Continuous
 62
     7
100
AcDbLine
 10
-288.0080000000251
 20
-96.75012499367826
 30
0.0
 11
-288.0080000000251
 21
-97.75012499367826
 31
0.0
  0
LINE
  5
24A
330
6A
100
AcDbEntity
  8
0
  6
Continuous
 62
     7
100
AcDbLine
 10
-274.8733751140322
 20
-97.75012499367826
 30
0.0
 11
-277.1426248860179
 21
-97.75012499367826
 31
0.0
  0
LINE
  5
24B
330
6A
100
AcDbEntity
  8
0
  6
Continuous
 62
     7
100
AcDbLine
 10
-286.8733751140321
 20
-97.75012499367826
 30
0.0
 11
-288.0080000000251
 21
-97.75012499367826
 31
0.0
  0
LINE
  5
24C
330
6A
100
AcDbEntity
  8
0
  6
Continuous
 62
     7
100
AcDbLine
 10
-282.0080000000251
 20
-96.75012499367826
 30
0.0
 11
-288.0080000000251
 21
-96.75012499367826
 31
0.0
  0
LINE
  5
24D
330
6A
100
AcDbEntity
  8
0
  6
Continuous
 62
     7
100
AcDbLine
 10
-264.008000000025
 20
-96.75012499367826
 30
0.0
 11
-270.008000000025
 21
-96.75012499367826
 31
0.0
  0
LINE
  5
24E
330
6A
100
AcDbEntity
  8
0
  6
Continuous
 62
     7
100
AcDbLine
 10
-270.008000000025
 20
-96.75012499367826
 30
0.0
 11
-282.0080000000251
 21
-96.75012499367826
 31
0.0
  0
LINE
  5
24F
330
6A
100
AcDbEntity
  8
0
  6
Continuous
 62
     7
100
AcDbLine
 10
-265.008000000025
 20
-118.083275500745
 30
0.0
 11
-265.008000000025
 21
-110.7501249936783
 31
0.0
  0
LINE
  5
250
330
6A
100
AcDbEntity
  8
0
  6
Continuous
 62
     7
100
AcDbLine
 10
-264.008000000024
 20
-118.2801249936775
 30
0.0
 11
-264.008000000025
 21
-118.1707641642709
 31
0.0
  0
LINE
  5
251
330
6A
100
AcDbEntity
  8
0
  6
Continuous
 62
     7
100
AcDbLine
 10
-264.008000000024
 20
-118.2801249936775
 30
0.0
 11
-264.008000000025
 21
-123.1501249936783
 31
0.0
  0
LINE
  5
252
330
6A
100
AcDbEntity
  8
0
  6
Continuous
 62
     7
100
AcDbLine
 10
-265.1426248860179
 20
-97.75012499367826
 30
0.0
 11
-265.1426248860179
 21
-110.7501249936783
 31
0.0
  0
LINE
  5
253
330
6A
100
AcDbEntity
  8
0
  6
Continuous
 62
     7
100
AcDbLine
 10
-264.008000000024
 20
-118.2801249936775
 30
0.0
 11
-265.1426248860179
 21
-118.2801249936783
 31
0.0
  0
LINE
  5
254
330
6A
100
AcDbEntity
  8
0
  6
Continuous
 62
     7
100
AcDbLine
 10
-264.008000000025
 20
-97.75012499367826
 30
0.0
 11
-264.008000000025
 21
-110.7501249936783
 31
0.0
  0
LINE
  5
255
330
6A
100
AcDbEntity
  8
0
  6
Continuous
 62
     7
100
AcDbLine
 10
-265.008000000025
 20
-110.7501249936783
 30
0.0
 11
-265.1426248860179
 21
-110.7501249936783
 31
0.0
  0
LINE
  5
256
330
6A
100
AcDbEntity
  8
0
  6
Continuous
 62
     7
100
AcDbLine
 10
-264.008000000025
 20
-110.7501249936783
 30
0.0
 11
-265.008000000025
 21
-110.7501249936783
 31
0.0
  0
LINE
  5
257
330
6A
100
AcDbEntity
  8
0
  6
Continuous
 62
     7
100
AcDbLine
 10
-265.1426248860179
 20
-118.2801249936783
 30
0.0
 11
-265.1426248860179
 21
-123.1501249936783
 31
0.0
  0
LINE
  5
258
330
6A
100
AcDbEntity
  8
0
  6
Continuous
 62
     7
100
AcDbLine
 10
-264.008000000025
 20
-96.75012499367826
 30
0.0
 11
-264.008000000025
 21
-97.75012499367826
 31
0.0
  0
LINE
  5
259
330
6A
100
AcDbEntity
  8
0
  6
Continuous
 62
     7
100
AcDbLine
 10
-264.008000000025
 20
-96.75012499367826
 30
0.0
 11
-264.008000000025
 21
-95.05012499367825
 31
0.0
  0
LINE
  5
25A
330
6A
100
AcDbEntity
  8
0
  6
Continuous
 62
     7
100
AcDbLine
 10
-264.008000000025
 20
-97.75012499367826
 30
0.0
 11
-265.1426248860179
 21
-97.75012499367826
 31
0.0
  0
LINE
  5
25B
330
6A
100
AcDbEntity
  8
0
  6
Continuous
 62
     7
100
AcDbLine
 10
-265.008000000025
 20
-118.083275500745
 30
0.0
 11
-264.008000000025
 21
-118.1707641642709
 31
0.0
  0
LINE
  5
25C
330
6A
100
AcDbEntity
  8
0
  6
Continuous
 62
     7
100
AcDbLine
 10
-266.943000000025
 20
-139.2501249936782
 30
0.0
 11
-266.008000000025
 21
-138.3151249936783
 31
0.0
  0
LINE
  5
25D
330
6A
100
AcDbEntity
  8
0
  6
Continuous
 62
     7
100
AcDbLine
 10
-274.8733751140322
 20
-110.7501249936783
 30
0.0
 11
-277.1426248860179
 21
-110.7501249936783
 31
0.0
  0
LINE
  5
25E
330
6A
100
AcDbEntity
  8
0
  6
Continuous
 62
     7
100
AcDbLine
 10
-277.1426248860179
 20
-97.75012499367826
 30
0.0
 11
-277.1426248860179
 21
-110.7501249936783
 31
0.0
  0
LINE
  5
25F
330
6A
100
AcDbEntity
  8
0
  6
Continuous
 62
     7
100
AcDbLine
 10
-274.8733751140179
 20
-118.2801249936774
 30
0.0
 11
-277.1426248860179
 21
-118.2801249936783
 31
0.0
  0
LINE
  5
260
330
6A
100
AcDbEntity
  8
0
  6
Continuous
 62
     7
100
AcDbLine
 10
-277.1426248860179
 20
-118.2801249936783
 30
0.0
 11
-277.1426248860179
 21
-123.1501249936783
 31
0.0
  0
LINE
  5
261
330
6A
100
AcDbEntity
  8
0
  6
Continuous
 62
     7
100
AcDbLine
 10
-274.8733751140179
 20
-118.2801249936774
 30
0.0
 11
-274.8733751140322
 21
-123.1501249936783
 31
0.0
  0
LINE
  5
262
330
6A
100
AcDbEntity
  8
0
  6
Continuous
 62
     7
100
AcDbLine
 10
-274.8733751140322
 20
-97.75012499367826
 30
0.0
 11
-274.8733751140322
 21
-110.7501249936783
 31
0.0
  0
LINE
  5
263
330
6A
100
AcDbEntity
  8
0
  6
Continuous
 62
     7
100
AcDbLine
 10
-287.5080000000251
 20
-124.2501249936783
 30
0.0
 11
-287.5080000000251
 21
-123.7501249936783
 31
0.0
  0
LINE
  5
264
330
6A
100
AcDbEntity
  8
0
  6
Continuous
 62
     7
100
AcDbLine
 10
-288.0080000000251
 20
-118.1707641642709
 30
0.0
 11
-288.0080000000251
 21
-118.2801249936783
 31
0.0
  0
LINE
  5
265
330
6A
100
AcDbEntity
  8
0
  6
Continuous
 62
     7
100
AcDbLine
 10
-288.0080000000251
 20
-118.2801249936783
 30
0.0
 11
-288.0080000000251
 21
-123.1501249936783
 31
0.0
  0
LINE
  5
266
330
6A
100
AcDbEntity
  8
0
  6
Continuous
 62
     7
100
AcDbLine
 10
-286.8733751140192
 20
-118.2801249936774
 30
0.0
 11
-288.0080000000251
 21
-118.2801249936783
 31
0.0
  0
LINE
  5
267
330
6A
100
AcDbEntity
  8
0
  6
Continuous
 62
     7
100
AcDbLine
 10
-286.8733751140321
 20
-97.75012499367826
 30
0.0
 11
-286.8733751140321
 21
-110.7501249936783
 31
0.0
  0
LINE
  5
268
330
6A
100
AcDbEntity
  8
0
  6
Continuous
 62
     7
100
AcDbLine
 10
-286.8733751140321
 20
-110.7501249936783
 30
0.0
 11
-287.0080000000251
 21
-110.7501249936783
 31
0.0
  0
LINE
  5
269
330
6A
100
AcDbEntity
  8
0
  6
Continuous
 62
     7
100
AcDbLine
 10
-287.0080000000251
 20
-110.7501249936783
 30
0.0
 11
-288.0080000000251
 21
-110.7501249936783
 31
0.0
  0
LINE
  5
26A
330
6A
100
AcDbEntity
  8
0
  6
Continuous
 62
     7
100
AcDbLine
 10
-288.0080000000251
 20
-97.75012499367826
 30
0.0
 11
-288.0080000000251
 21
-110.7501249936783
 31
0.0
  0
LINE
  5
26B
330
6A
100
AcDbEntity
  8
0
  6
Continuous
 62
     7
100
AcDbLine
 10
-288.0080000000251
 20
-96.75012499367826
 30
0.0
 11
-288.0080000000251
 21
-95.05012499367825
 31
0.0
  0
LINE
  5
26C
330
6A
100
AcDbEntity
  8
0
  6
Continuous
 62
     7
100
AcDbLine
 10
-286.8733751140192
 20
-118.2801249936774
 30
0.0
 11
-286.8733751140321
 21
-123.1501249936783
 31
0.0
  0
LINE
  5
26D
330
6A
100
AcDbEntity
  8
0
  6
Continuous
 62
     7
100
AcDbLine
 10
-287.0080000000251
 20
-118.083275500745
 30
0.0
 11
-288.0080000000251
 21
-118.1707641642709
 31
0.0
  0
LINE
  5
26E
330
6A
100
AcDbEntity
  8
0
  6
Continuous
 62
     7
100
AcDbLine
 10
-287.0080000000251
 20
-118.083275500745
 30
0.0
 11
-287.0080000000251
 21
-110.7501249936783
 31
0.0
  0
LINE
  5
26F
330
6A
100
AcDbEntity
  8
0
  6
Continuous
 62
     7
100
AcDbLine
 10
-285.073000000025
 20
-139.2501249936782
 30
0.0
 11
-286.0080000000251
 21
-138.3151249936783
 31
0.0
  0
LINE
  5
270
330
6A
100
AcDbEntity
  8
0
  6
Continuous
 62
     7
100
AcDbLine
 10
-266.943000000025
 20
-139.2501249936782
 30
0.0
 11
-285.073000000025
 21
-139.2501249936782
 31
0.0
  0
LINE
  5
271
330
6A
100
AcDbEntity
  8
0
  6
Continuous
 62
     7
100
AcDbLine
 10
-266.008000000025
 20
-138.3151249936783
 30
0.0
 11
-266.008000000025
 21
-124.2501249936783
 31
0.0
  0
LINE
  5
272
330
6A
100
AcDbEntity
  8
0
  6
Continuous
 62
     7
100
AcDbLine
 10
-286.0080000000251
 20
-138.3151249936783
 30
0.0
 11
-286.0080000000251
 21
-124.2501249936783
 31
0.0
  0
LINE
  5
273
330
6A
100
AcDbEntity
  8
0
  6
Continuous
 62
     7
100
AcDbLine
 10
-264.008000000025
 20
-123.1501249936783
 30
0.0
 11
-262.758000000025
 21
-123.1501249936783
 31
0.0
  0
LINE
  5
274
330
6A
100
AcDbEntity
  8
0
  6
Continuous
 62
     7
100
AcDbLine
 10
-262.758000000025
 20
-123.7501249936783
 30
0.0
 11
-262.758000000025
 21
-123.1501249936783
 31
0.0
  0
LINE
  5
275
330
6A
100
AcDbEntity
  8
0
  6
Continuous
 62
     7
100
AcDbLine
 10
-287.5080000000251
 20
-123.7501249936783
 30
0.0
 11
-289.2580000000251
 21
-123.7501249936783
 31
0.0
  0
LINE
  5
276
330
6A
100
AcDbEntity
  8
0
  6
Continuous
 62
     7
100
AcDbLine
 10
-289.2580000000251
 20
-123.1501249936783
 30
0.0
 11
-288.0080000000251
 21
-123.1501249936783
 31
0.0
  0
LINE
  5
277
330
6A
100
AcDbEntity
  8
0
  6
Continuous
 62
     7
100
AcDbLine
 10
-289.2580000000251
 20
-123.7501249936783
 30
0.0
 11
-289.2580000000251
 21
-123.1501249936783
 31
0.0
  0
LINE
  5
278
330
6A
100
AcDbEntity
  8
0
  6
Continuous
 62
     7
100
AcDbLine
 10
-264.508000000025
 20
-124.2501249936783
 30
0.0
 11
-266.008000000025
 21
-124.2501249936783
 31
0.0
  0
LINE
  5
279
330
6A
100
AcDbEntity
  8
0
  6
Continuous
 62
     7
100
AcDbLine
 10
-286.8733751140321
 20
-123.1501249936783
 30
0.0
 11
-277.1426248860179
 21
-123.1501249936783
 31
0.0
  0
LINE
  5
27A
330
6A
100
AcDbEntity
  8
0
  6
Continuous
 62
     7
100
AcDbLine
 10
-274.8733751140322
 20
-123.1501249936783
 30
0.0
 11
-265.1426248860179
 21
-123.1501249936783
 31
0.0
  0
LINE
  5
27B
330
6A
100
AcDbEntity
  8
0
  6
Continuous
 62
     7
100
AcDbLine
 10
-264.508000000025
 20
-124.2501249936783
 30
0.0
 11
-264.508000000025
 21
-123.7501249936783
 31
0.0
  0
LINE
  5
27C
330
6A
100
AcDbEntity
  8
0
  6
Continuous
 62
     7
100
AcDbLine
 10
-267.110885682995
 20
-122.1501249936783
 30
0.0
 11
-266.110885682995
 21
-122.1501249936783
 31
0.0
  0
LINE
  5
27D
330
6A
100
AcDbEntity
  8
0
  6
Continuous
 62
     7
100
AcDbLine
 10
-285.905114317055
 20
-122.1501249936783
 30
0.0
 11
-284.905114317055
 21
-122.1501249936783
 31
0.0
  0
LINE
  5
27E
330
6A
100
AcDbEntity
  8
0
  6
Continuous
 62
     7
100
AcDbLine
 10
-284.905114317055
 20
-122.1501249936783
 30
0.0
 11
-278.1108856829951
 21
-122.1501249936783
 31
0.0
  0
LINE
  5
27F
330
6A
100
AcDbEntity
  8
0
  6
Continuous
 62
     7
100
AcDbLine
 10
-273.905114317055
 20
-122.1501249936783
 30
0.0
 11
-267.110885682995
 21
-122.1501249936783
 31
0.0
  0
LINE
  5
280
330
6A
100
AcDbEntity
  8
0
  6
Continuous
 62
     7
100
AcDbLine
 10
-286.0080000000251
 20
-124.2501249936783
 30
0.0
 11
-287.5080000000251
 21
-124.2501249936783
 31
0.0
  0
LINE
  5
281
330
6A
100
AcDbEntity
  8
0
  6
Continuous
 62
     7
100
AcDbLine
 10
-264.508000000025
 20
-123.7501249936783
 30
0.0
 11
-287.5080000000251
 21
-123.7501249936783
 31
0.0
  0
LINE
  5
282
330
6A
100
AcDbEntity
  8
0
  6
Continuous
 62
     7
100
AcDbLine
 10
-262.758000000025
 20
-123.7501249936783
 30
0.0
 11
-264.508000000025
 21
-123.7501249936783
 31
0.0
  0
LINE
  5
283
330
6A
100
AcDbEntity
  8
0
  6
Continuous
 62
     7
100
AcDbLine
 10
-266.008000000025
 20
-138.3151249936783
 30
0.0
 11
-286.0080000000251
 21
-138.3151249936783
 31
0.0
  0
LINE
  5
284
330
6A
100
AcDbEntity
  8
0
  6
Continuous
 62
     7
100
AcDbLine
 10
-266.008000000025
 20
-124.2501249936783
 30
0.0
 11
-286.0080000000251
 21
-124.2501249936783
 31
0.0
  0
LINE
  5
285
330
6A
100
AcDbEntity
  8
1
  6
DOT_CENTER
 62
     2
100
AcDbLine
 10
-276.0080000000251
 20
-118.1707641642709
 30
0.0
 11
-276.0080000000251
 21
-110.7501249936783
 31
0.0
  0
LINE
  5
286
330
6A
100
AcDbEntity
  8
1
  6
DOT_CENTER
 62
     2
100
AcDbLine
 10
-276.0080000000251
 20
-96.75012499367826
 30
0.0
 11
-276.0080000000251
 21
-95.05012499367825
 31
0.0
  0
LINE
  5
287
330
6A
100
AcDbEntity
  8
1
  6
DOT_CENTER
 62
     2
100
AcDbLine
 10
-276.0080000000253
 20
-139.2501249936786
 30
0.0
 11
-276.0080000000251
 21
-123.1501249936783
 31
0.0
  0
ARC
  5
288
330
6A
100
AcDbEntity
  8
0
  6
Continuous
 62
     7
100
AcDbCircle
 10
-270.9178138822955
 20
-96.17015718624356
 30
0.0
 40
7.000000000000052
100
AcDbArc
 50
9.20716316014601
 51
50.74073416032611
  0
ARC
  5
289
330
6A
100
AcDbEntity
  8
0
  6
Continuous
 62
     7
100
AcDbCircle
 10
-281.0981861177546
 20
-96.17015718624354
 30
0.0
 40
6.999999999999952
100
AcDbArc
 50
129.2592658396732
 51
170.7928368398541
  0
SPLINE
  5
28A
330
6A
100
AcDbEntity
  8
0
  6
Continuous
 62
     7
100
AcDbSpline
210
0.0
220
0.0
230
1.0
 70
     8
 71
     3
 72
    11
 73
     7
 74
     5
 42
0.000000001
 43
0.0000000001
 44
0.00000001
 40
0.0
 40
0.0
 40
0.0
 40
0.0
 40
2.495155468321557
 40
4.866879262100374
 40
7.238612130883872
 40
9.73377735882284
 40
9.73377735882284
 40
9.73377735882284
 40
9.73377735882284
 10
-277.1426248860179
 20
-118.2801249936783
 30
0.0
 10
-277.9737876463271
 20
-118.2487976947456
 30
0.0
 10
-279.5949967669987
 20
-118.1876928270684
 30
0.0
 10
-282.0079936062139
 20
-118.162514592044
 30
0.0
 10
-284.4209937053505
 20
-118.1876925175054
 30
0.0
 10
-286.042209101782
 20
-118.2487975889685
 30
0.0
 10
-286.8733751140192
 20
-118.2801249936774
 30
0.0
 11
-277.1426248860179
 21
-118.2801249936783
 31
0.0
 11
-279.6364203684257
 21
-118.1977544672658
 31
0.0
 11
-282.0079905821265
 21
-118.1707641642713
 31
0.0
 11
-284.3795698739157
 21
-118.197754247949
 31
0.0
 11
-286.8733751140192
 21
-118.2801249936774
 31
0.0
  0
SPLINE
  5
28B
330
6A
100
AcDbEntity
  8
0
  6
Continuous
 62
     7
100
AcDbSpline
210
0.0
220
0.0
230
1.0
 70
     8
 71
     3
 72
    11
 73
     7
 74
     5
 42
0.000000001
 43
0.0000000001
 44
0.00000001
 40
0.0
 40
0.0
 40
0.0
 40
0.0
 40
2.495165227835948
 40
4.866898096721101
 40
7.238621890553702
 40
9.733777358821532
 40
9.733777358821532
 40
9.733777358821532
 40
9.733777358821532
 10
-274.8733751140179
 20
-118.2801249936774
 30
0.0
 10
-274.042209101815
 20
-118.2487975889696
 30
0.0
 10
-272.420993705384
 20
-118.1876925175062
 30
0.0
 10
-270.00799360623
 20
-118.1625145920435
 30
0.0
 10
-267.5949967669808
 20
-118.1876928270688
 30
0.0
 10
-265.9737876463092
 20
-118.2487976947462
 30
0.0
 10
-265.1426248860179
 20
-118.2801249936783
 30
0.0
 11
-274.8733751140179
 21
-118.2801249936774
 31
0.0
 11
-272.3795698740174
 21
-118.1977542479513
 31
0.0
 11
-270.0079905821266
 21
-118.1707641642713
 31
0.0
 11
-267.636420368372
 21
-118.197754467267
 31
0.0
 11
-265.1426248860179
 21
-118.2801249936783
 31
0.0
  0
SPLINE
  5
28C
330
6A
100
AcDbEntity
  8
0
  6
Continuous
 62
     7
100
AcDbSpline
210
0.0
220
0.0
230
1.0
 70
     8
 71
     3
 72
    11
 73
     7
 74
     5
 42
0.000000001
 43
0.0000000001
 44
0.00000001
 40
0.0
 40
0.0
 40
0.0
 40
0.0
 40
1.26477051691513
 40
2.5127762304069
 40
3.752070804511226
 40
4.994871115214331
 40
4.994871115214331
 40
4.994871115214331
 40
4.994871115214331
 10
-286.8733751140321
 20
-97.75012499367826
 30
0.0
 10
-286.4777206987137
 20
-97.6038172622742
 30
0.0
 10
-285.6916563470455
 20
-97.313141153815
 30
0.0
 10
-284.479026095085
 20
-97.00006422183478
 30
0.0
 10
-283.2503056632863
 20
-96.79009542089416
 30
0.0
 10
-282.4224916258004
 20
-96.76346100401877
 30
0.0
 10
-282.0080000000251
 20
-96.75012499367826
 30
0.0
 11
-286.8733751140321
 21
-97.75012499367826
 31
0.0
 11
-285.679815016903
 21
-97.33172475997874
 31
0.0
 11
-284.472317619989
 21
-97.0163388066544
 31
0.0
 11
-283.2489188850147
 21
-96.81848386167354
 31
0.0
 11
-282.0080000000251
 21
-96.75012499367826
 31
0.0
  0
SPLINE
  5
28D
330
6A
100
AcDbEntity
  8
0
  6
Continuous
 62
     7
100
AcDbSpline
210
0.0
220
0.0
230
1.0
 70
     8
 71
     3
 72
    11
 73
     7
 74
     5
 42
0.000000001
 43
0.0000000001
 44
0.00000001
 40
0.0
 40
0.0
 40
0.0
 40
0.0
 40
1.227968479359399
 40
2.488372070923893
 40
3.735187034156913
 40
4.994888987857541
 40
4.994888987857541
 40
4.994888987857541
 40
4.994888987857541
 10
-270.008000000025
 20
-96.75012499367826
 30
0.0
 10
-269.5984552020996
 20
-96.76308120451488
 30
0.0
 10
-268.7685480400215
 20
-96.78933586186824
 30
0.0
 10
-267.538052270986
 20
-96.9996166095513
 30
0.0
 10
-266.3207533483313
 20
-97.31432581854935
 30
0.0
 10
-265.5366781183339
 20
-97.60436153462798
 30
0.0
 10
-265.1426248860179
 20
-97.75012499367826
 30
0.0
 11
-270.008000000025
 21
-96.75012499367826
 31
0.0
 11
-268.7818383652387
 21
-96.8167150329732
 31
0.0
 11
-267.5375539372639
 21
-97.01764656020262
 31
0.0
 11
-266.3313308989279
 21
-97.33319930780347
 31
0.0
 11
-265.1426248860179
 21
-97.75012499367826
 31
0.0
  0
SPLINE
  5
28E
330
6A
100
AcDbEntity
  8
0
  6
Continuous
 62
     7
100
AcDbSpline
210
0.0
220
0.0
230
1.0
 70
     8
 71
     3
 72
    11
 73
     7
 74
     5
 42
0.000000001
 43
0.0000000001
 44
0.00000001
 40
0.0
 40
0.0
 40
0.0
 40
0.0
 40
1.227968479366248
 40
2.488372070924008
 40
3.735187034166008
 40
4.994888987857652
 40
4.994888987857652
 40
4.994888987857652
 40
4.994888987857652
 10
-282.0080000000251
 20
-96.75012499367826
 30
0.0
 10
-281.5984552020975
 20
-96.763081204515
 30
0.0
 10
-280.7685480400193
 20
-96.78933586186847
 30
0.0
 10
-279.5380522709808
 20
-96.99961660955233
 30
0.0
 10
-278.3207533483285
 20
-97.31432581855032
 30
0.0
 10
-277.5366781183311
 20
-97.60436153462898
 30
0.0
 10
-277.1426248860179
 20
-97.75012499367826
 30
0.0
 11
-282.0080000000251
 21
-96.75012499367826
 31
0.0
 11
-280.781838365232
 21
-96.81671503297392
 31
0.0
 11
-279.5375539372639
 21
-97.01764656020262
 31
0.0
 11
-278.3313308989193
 21
-97.33319930780614
 31
0.0
 11
-277.1426248860179
 21
-97.75012499367826
 31
0.0
  0
SPLINE
  5
28F
330
6A
100
AcDbEntity
  8
0
  6
Continuous
 62
     7
100
AcDbSpline
210
0.0
220
0.0
230
1.0
 70
     8
 71
     3
 72
    11
 73
     7
 74
     5
 42
0.000000001
 43
0.0000000001
 44
0.00000001
 40
0.0
 40
0.0
 40
0.0
 40
0.0
 40
1.264770516915184
 40
2.512776230407009
 40
3.752070804511335
 40
4.994871115214553
 40
4.994871115214553
 40
4.994871115214553
 40
4.994871115214553
 10
-274.8733751140322
 20
-97.75012499367826
 30
0.0
 10
-274.4777206987139
 20
-97.60381726227423
 30
0.0
 10
-273.6916563470455
 20
-97.31314115381495
 30
0.0
 10
-272.4790260950851
 20
-97.00006422183482
 30
0.0
 10
-271.2503056632861
 20
-96.79009542089409
 30
0.0
 10
-270.4224916258004
 20
-96.76346100401881
 30
0.0
 10
-270.008000000025
 20
-96.75012499367826
 30
0.0
 11
-274.8733751140322
 21
-97.75012499367826
 31
0.0
 11
-273.679815016903
 21
-97.33172475997874
 31
0.0
 11
-272.472317619989
 21
-97.0163388066544
 31
0.0
 11
-271.2489188850147
 21
-96.81848386167354
 31
0.0
 11
-270.008000000025
 21
-96.75012499367826
 31
0.0
  0
ENDBLK
  5
6C
330
6A
100
AcDbEntity
  8
0
100
AcDbBlockEnd
  0
BLOCK
  5
6F
330
6D
100
AcDbEntity
  8
0
100
AcDbBlockBegin
  2
Vordans1
 70
     0
 10
-276.008
 20
-115.0
 30
0.0
  3
Vordans1
  1

  0
INSERT
  5
6E
330
6D
100
AcDbEntity
  8
0
100
AcDbBlockReference
  2
G_INS_M20_M68L_PEPDS_LG-select__6
 10
-289.2580000000251
 20
-139.2501249936782
 30
0.0
  0
MTEXT
  5
290
330
6D
100
AcDbEntity
  8
1
 62
     6
100
AcDbMText
 10
-276.0079999999753
 20
-145.7519999999799
 30
0.0
 40
5.0
 41
0.0
 71
     2
 72
     1
  1
 
  7
CONVERTER_11
 73
     1
 44
1.32052821128451
  0
DIMENSION
  5
29B
330
6D
100
AcDbEntity
  8
1
100
AcDbDimension
  2
*D17
 10
-289.258000000025
 20
-149.2501249936782
 30
0.0
 11
-276.102452282061
 21
-145.8251249936782
 31
0.0
 70
    32
  1
<>
 71
     5
 42
-1.0
 53
0.00013888888889
  3
ME10_DIM_10
100
AcDbAlignedDimension
 13
-262.758000000025
 23
-123.7501249936783
 33
0.0
 14
-289.2580000000251
 24
-123.7501249936783
 34
0.0
100
AcDbRotatedDimension
  0
DIMENSION
  5
2A6
330
6D
100
AcDbEntity
  8
1
100
AcDbDimension
  2
*D18
 10
-299.2580000000251
 20
-90.75012499367821
 30
0.0
 11
-302.6830000000251
 21
-115.0001249936782
 31
0.0
 70
    32
  1
<>
 71
     5
 42
-1.0
 53
90.0
  3
ME10_DIM_11
100
AcDbAlignedDimension
 13
-285.073000000025
 23
-139.2501249936782
 33
0.0
 14
-285.528000000025
 24
-90.75012499367826
 34
0.0
 50
90.0
100
AcDbRotatedDimension
  0
ENDBLK
  5
70
330
6D
100
AcDbEntity
  8
0
100
AcDbBlockEnd
  0
BLOCK
  5
72
330
71
100
AcDbEntity
  8
0
100
AcDbBlockBegin
  2
_rahmen
 70
     0
 10
-111.5059999999875
 20
-266.0029995746871
 30
0.0
  3
_rahmen
  1

  0
LINE
  5
2A7
330
71
100
AcDbEntity
  8
1
  6
Continuous
 62
     6
100
AcDbLine
 10
-241.0508045267375
 20
-235.502999574687
 30
0.0
 11
-111.5059999999858
 21
-235.502999574687
 31
0.0
  0
LINE
  5
2A8
330
71
100
AcDbEntity
  8
1
  6
Continuous
 62
     7
100
AcDbLine
 10
-222.8508045267375
 20
-256.752999574687
 30
0.0
 11
-204.6508045267376
 21
-256.752999574687
 31
0.0
  0
LINE
  5
2A9
330
71
100
AcDbEntity
  8
1
  6
Continuous
 62
     6
100
AcDbLine
 10
-222.8508045267375
 20
-261.002999574687
 30
0.0
 11
-241.0508045267375
 21
-261.0029995746871
 31
0.0
  0
LINE
  5
2AA
330
71
100
AcDbEntity
  8
1
  6
Continuous
 62
     7
100
AcDbLine
 10
-222.8508045267375
 20
-256.752999574687
 30
0.0
 11
-222.8508045267375
 21
-261.002999574687
 31
0.0
  0
LINE
  5
2AB
330
71
100
AcDbEntity
  8
1
  6
Continuous
 62
     7
100
AcDbLine
 10
-204.6508045267376
 20
-256.752999574687
 30
0.0
 11
-204.6508045267376
 21
-261.0029995746871
 31
0.0
  0
LINE
  5
2AC
330
71
100
AcDbEntity
  8
1
  6
Continuous
 62
     7
100
AcDbLine
 10
-241.0508045267375
 20
-256.7529995746871
 30
0.0
 11
-241.0508045267375
 21
-261.0029995746871
 31
0.0
  0
LINE
  5
2AD
330
71
100
AcDbEntity
  8
1
  6
Continuous
 62
     7
100
AcDbLine
 10
-241.0508045267375
 20
-256.7529995746871
 30
0.0
 11
-222.8508045267375
 21
-256.752999574687
 31
0.0
  0
LINE
  5
2AE
330
71
100
AcDbEntity
  8
1
  6
Continuous
 62
     2
100
AcDbLine
 10
-231.8141496401749
 20
-237.3779995746871
 30
0.0
 11
-231.8141496401749
 21
-242.3779995746871
 31
0.0
  0
LINE
  5
2AF
330
71
100
AcDbEntity
  8
1
  6
Continuous
 62
     2
100
AcDbLine
 10
-231.8141496401749
 20
-242.3779995746871
 30
0.0
 11
-236.8141496401749
 21
-241.1279995746871
 31
0.0
  0
LINE
  5
2B0
330
71
100
AcDbEntity
  8
1
  6
Continuous
 62
     2
100
AcDbLine
 10
-236.8141496401749
 20
-241.1279995746871
 30
0.0
 11
-236.8141496401749
 21
-238.6279995746871
 31
0.0
  0
LINE
  5
2B1
330
71
100
AcDbEntity
  8
1
  6
Continuous
 62
     2
100
AcDbLine
 10
-236.8141496401749
 20
-238.6279995746871
 30
0.0
 11
-231.8141496401749
 21
-237.3779995746871
 31
0.0
  0
LINE
  5
2B2
330
71
100
AcDbEntity
  8
1
  6
Continuous
 62
     6
100
AcDbLine
 10
-363.5059999999857
 20
-261.002999574687
 30
0.0
 11
-398.5059999999856
 21
-261.002999574687
 31
0.0
  0
LINE
  5
2B3
330
71
100
AcDbEntity
  8
1
  6
Continuous
 62
     6
100
AcDbLine
 10
-111.5059999999858
 20
-244.002999574687
 30
0.0
 11
-111.5059999999862
 21
-252.502999574687
 31
0.0
  0
LINE
  5
2B4
330
71
100
AcDbEntity
  8
1
  6
Continuous
 62
     6
100
AcDbLine
 10
-204.6508045267376
 20
-261.0029995746871
 30
0.0
 11
-205.0059999999875
 21
-261.002999574687
 31
0.0
  0
LINE
  5
2B5
330
71
100
AcDbEntity
  8
1
  6
Continuous
 62
     6
100
AcDbLine
 10
-357.3059999999877
 20
-261.0029995746871
 30
0.0
 11
-363.5059999999857
 21
-261.002999574687
 31
0.0
  0
LINE
  5
2B6
330
71
100
AcDbEntity
  8
1
  6
Continuous
 62
     7
100
AcDbLine
 10
-204.6508045267376
 20
-244.002999574687
 30
0.0
 11
-204.6508045267376
 21
-256.752999574687
 31
0.0
  0
LINE
  5
2B7
330
71
100
AcDbEntity
  8
1
  6
Continuous
 62
     7
100
AcDbLine
 10
-241.0508045267375
 20
-244.002999574687
 30
0.0
 11
-241.0508045267375
 21
-256.7529995746871
 31
0.0
  0
LINE
  5
2B8
330
71
100
AcDbEntity
  8
1
  6
Continuous
 62
     6
100
AcDbLine
 10
-255.0059999999875
 20
-261.002999574687
 30
0.0
 11
-305.0059999999877
 21
-261.002999574687
 31
0.0
  0
LINE
  5
2B9
330
71
100
AcDbEntity
  8
1
  6
Continuous
 62
     6
100
AcDbLine
 10
-357.3059999999877
 20
-261.0029995746871
 30
0.0
 11
-355.0059999999875
 21
-261.002999574687
 31
0.0
  0
LINE
  5
2BA
330
71
100
AcDbEntity
  8
1
  6
Continuous
 62
     6
100
AcDbLine
 10
-204.6508045267376
 20
-261.0029995746871
 30
0.0
 11
-155.0059999999875
 21
-261.002999574687
 31
0.0
  0
LINE
  5
2BB
330
71
100
AcDbEntity
  8
1
  6
Continuous
 62
     6
100
AcDbLine
 10
-111.5059999999875
 20
-261.002999574687
 30
0.0
 11
-111.5059999999862
 21
-252.502999574687
 31
0.0
  0
LINE
  5
2BC
330
71
100
AcDbEntity
  8
1
  6
Continuous
 62
     2
100
AcDbLine
 10
-403.5059999999866
 20
-261.002999574687
 30
0.0
 11
-403.5059999999866
 21
-266.002999574687
 31
0.0
  0
LINE
  5
2BD
330
71
100
AcDbEntity
  8
1
  6
Continuous
 62
     2
100
AcDbLine
 10
-398.5059999999856
 20
-261.002999574687
 30
0.0
 11
-403.5059999999866
 21
-261.002999574687
 31
0.0
  0
LINE
  5
2BE
330
71
100
AcDbEntity
  8
1
  6
Continuous
 62
     2
100
AcDbLine
 10
-398.5059999999856
 20
-266.002999574687
 30
0.0
 11
-355.0059999999875
 21
-266.002999574687
 31
0.0
  0
LINE
  5
2BF
330
71
100
AcDbEntity
  8
1
  6
Continuous
 62
     2
100
AcDbLine
 10
-398.5059999999856
 20
-261.002999574687
 30
0.0
 11
-398.5059999999856
 21
-266.002999574687
 31
0.0
  0
LINE
  5
2C0
330
71
100
AcDbEntity
  8
1
  6
Continuous
 62
     2
100
AcDbLine
 10
-155.0059999999875
 20
-266.002999574687
 30
0.0
 11
-205.0059999999875
 21
-266.002999574687
 31
0.0
  0
LINE
  5
2C1
330
71
100
AcDbEntity
  8
1
  6
Continuous
 62
     2
100
AcDbLine
 10
-155.0059999999875
 20
-266.002999574687
 30
0.0
 11
-155.0059999999875
 21
-261.002999574687
 31
0.0
  0
LINE
  5
2C2
330
71
100
AcDbEntity
  8
1
  6
Continuous
 62
     2
100
AcDbLine
 10
-205.0059999999875
 20
-266.002999574687
 30
0.0
 11
-205.0059999999875
 21
-261.002999574687
 31
0.0
  0
LINE
  5
2C3
330
71
100
AcDbEntity
  8
1
  6
Continuous
 62
     2
100
AcDbLine
 10
-255.0059999999875
 20
-266.002999574687
 30
0.0
 11
-205.0059999999875
 21
-266.002999574687
 31
0.0
  0
LINE
  5
2C4
330
71
100
AcDbEntity
  8
1
  6
Continuous
 62
     2
100
AcDbLine
 10
-255.0059999999875
 20
-266.002999574687
 30
0.0
 11
-255.0059999999875
 21
-261.002999574687
 31
0.0
  0
LINE
  5
2C5
330
71
100
AcDbEntity
  8
1
  6
Continuous
 62
     2
100
AcDbLine
 10
-305.0059999999877
 20
-266.002999574687
 30
0.0
 11
-255.0059999999875
 21
-266.002999574687
 31
0.0
  0
LINE
  5
2C6
330
71
100
AcDbEntity
  8
1
  6
Continuous
 62
     2
100
AcDbLine
 10
-305.0059999999877
 20
-266.002999574687
 30
0.0
 11
-305.0059999999877
 21
-261.002999574687
 31
0.0
  0
LINE
  5
2C7
330
71
100
AcDbEntity
  8
1
  6
Continuous
 62
     2
100
AcDbLine
 10
-355.0059999999875
 20
-266.002999574687
 30
0.0
 11
-305.0059999999877
 21
-266.002999574687
 31
0.0
  0
LINE
  5
2C8
330
71
100
AcDbEntity
  8
1
  6
Continuous
 62
     2
100
AcDbLine
 10
-355.0059999999875
 20
-266.002999574687
 30
0.0
 11
-355.0059999999875
 21
-261.002999574687
 31
0.0
  0
LINE
  5
2C9
330
71
100
AcDbEntity
  8
1
  6
Continuous
 62
     6
100
AcDbLine
 10
-398.5059999999858
 20
-211.0029995746869
 30
0.0
 11
-398.5059999999856
 21
-261.002999574687
 31
0.0
  0
LINE
  5
2CA
330
71
100
AcDbEntity
  8
1
  6
Continuous
 62
     2
100
AcDbLine
 10
-403.5059999999866
 20
-211.0029995746869
 30
0.0
 11
-403.5059999999866
 21
-261.002999574687
 31
0.0
  0
LINE
  5
2CB
330
71
100
AcDbEntity
  8
1
  6
Continuous
 62
     2
100
AcDbLine
 10
-403.5059999999866
 20
-211.0029995746869
 30
0.0
 11
-398.5059999999858
 21
-211.0029995746869
 31
0.0
  0
LINE
  5
2CC
330
71
100
AcDbEntity
  8
1
  6
Continuous
 62
     6
100
AcDbLine
 10
-398.505999999986
 20
-161.0029995746871
 30
0.0
 11
-398.5059999999858
 21
-211.0029995746869
 31
0.0
  0
LINE
  5
2CD
330
71
100
AcDbEntity
  8
1
  6
Continuous
 62
     2
100
AcDbLine
 10
-403.5059999999866
 20
-161.0029995746871
 30
0.0
 11
-403.5059999999866
 21
-211.0029995746869
 31
0.0
  0
LINE
  5
2CE
330
71
100
AcDbEntity
  8
1
  6
Continuous
 62
     2
100
AcDbLine
 10
-403.5059999999866
 20
-161.0029995746871
 30
0.0
 11
-398.505999999986
 21
-161.0029995746871
 31
0.0
  0
LINE
  5
2CF
330
71
100
AcDbEntity
  8
1
  6
Continuous
 62
     6
100
AcDbLine
 10
-398.5059999999865
 20
-111.002999574687
 30
0.0
 11
-398.505999999986
 21
-161.0029995746871
 31
0.0
  0
LINE
  5
2D0
330
71
100
AcDbEntity
  8
1
  6
Continuous
 62
     2
100
AcDbLine
 10
-403.5059999999866
 20
-111.002999574687
 30
0.0
 11
-403.5059999999866
 21
-161.0029995746871
 31
0.0
  0
LINE
  5
2D1
330
71
100
AcDbEntity
  8
1
  6
Continuous
 62
     2
100
AcDbLine
 10
-403.5059999999866
 20
-111.002999574687
 30
0.0
 11
-398.5059999999865
 21
-111.002999574687
 31
0.0
  0
LINE
  5
2D2
330
71
100
AcDbEntity
  8
1
  6
Continuous
 62
     6
100
AcDbLine
 10
-398.5059999999866
 20
-76.00299957468701
 30
0.0
 11
-398.5059999999865
 21
-111.002999574687
 31
0.0
  0
LINE
  5
2D3
330
71
100
AcDbEntity
  8
1
  6
Continuous
 62
     2
100
AcDbLine
 10
-403.5059999999866
 20
-56.00299957468701
 30
0.0
 11
-403.5059999999866
 21
-111.002999574687
 31
0.0
  0
LINE
  5
2D4
330
71
100
AcDbEntity
  8
1
  6
Continuous
 62
     2
100
AcDbLine
 10
-403.5059999999866
 20
-266.002999574687
 30
0.0
 11
-398.5059999999856
 21
-266.002999574687
 31
0.0
  0
LINE
  5
2D5
330
71
100
AcDbEntity
  8
1
  6
Continuous
 62
     2
100
AcDbLine
 10
-255.0059999999875
 20
-56.00299957468701
 30
0.0
 11
-255.0059999999875
 21
-65.21169141938833
 31
0.0
  0
LINE
  5
2D6
330
71
100
AcDbEntity
  8
1
  6
Continuous
 62
     2
100
AcDbLine
 10
-255.0059999999875
 20
-56.00299957468701
 30
0.0
 11
-403.5059999999866
 21
-56.00299957468701
 31
0.0
  0
LINE
  5
2D7
330
71
100
AcDbEntity
  8
1
  6
Continuous
 62
     2
100
AcDbLine
 10
-106.5059999999885
 20
-261.002999574687
 30
0.0
 11
-106.5059999999885
 21
-211.0029995746869
 31
0.0
  0
LINE
  5
2D8
330
71
100
AcDbEntity
  8
1
  6
Continuous
 62
     2
100
AcDbLine
 10
-106.5059999999885
 20
-111.002999574687
 30
0.0
 11
-106.5059999999885
 21
-56.00299957468701
 31
0.0
  0
LINE
  5
2D9
330
71
100
AcDbEntity
  8
1
  6
Continuous
 62
     6
100
AcDbLine
 10
-111.5059999999883
 20
-111.002999574687
 30
0.0
 11
-111.5059999999885
 21
-76.00299957468701
 31
0.0
  0
LINE
  5
2DA
330
71
100
AcDbEntity
  8
1
  6
Continuous
 62
     2
100
AcDbLine
 10
-111.5059999999883
 20
-111.002999574687
 30
0.0
 11
-106.5059999999885
 21
-111.002999574687
 31
0.0
  0
LINE
  5
2DB
330
71
100
AcDbEntity
  8
1
  6
Continuous
 62
     2
100
AcDbLine
 10
-106.5059999999885
 20
-161.0029995746871
 30
0.0
 11
-106.5059999999885
 21
-111.002999574687
 31
0.0
  0
LINE
  5
2DC
330
71
100
AcDbEntity
  8
1
  6
Continuous
 62
     6
100
AcDbLine
 10
-111.5059999999871
 20
-161.0029995746871
 30
0.0
 11
-111.5059999999883
 21
-111.002999574687
 31
0.0
  0
LINE
  5
2DD
330
71
100
AcDbEntity
  8
1
  6
Continuous
 62
     2
100
AcDbLine
 10
-111.5059999999871
 20
-161.0029995746871
 30
0.0
 11
-106.5059999999885
 21
-161.0029995746871
 31
0.0
  0
LINE
  5
2DE
330
71
100
AcDbEntity
  8
1
  6
Continuous
 62
     2
100
AcDbLine
 10
-106.5059999999885
 20
-211.0029995746869
 30
0.0
 11
-106.5059999999885
 21
-161.0029995746871
 31
0.0
  0
LINE
  5
2DF
330
71
100
AcDbEntity
  8
1
  6
Continuous
 62
     6
100
AcDbLine
 10
-111.5059999999866
 20
-211.0029995746869
 30
0.0
 11
-111.5059999999871
 21
-161.0029995746871
 31
0.0
  0
LINE
  5
2E0
330
71
100
AcDbEntity
  8
1
  6
Continuous
 62
     2
100
AcDbLine
 10
-111.5059999999866
 20
-211.0029995746869
 30
0.0
 11
-106.5059999999885
 21
-211.0029995746869
 31
0.0
  0
LINE
  5
2E1
330
71
100
AcDbEntity
  8
1
  6
Continuous
 62
     6
100
AcDbLine
 10
-111.5059999999885
 20
-76.00299957468701
 30
0.0
 11
-398.5059999999866
 21
-76.00299957468701
 31
0.0
  0
LINE
  5
2E2
330
71
100
AcDbEntity
  8
1
  6
Continuous
 62
     2
100
AcDbLine
 10
-106.5059999999885
 20
-56.00299957468701
 30
0.0
 11
-255.0059999999875
 21
-56.00299957468701
 31
0.0
  0
LINE
  5
2E3
330
71
100
AcDbEntity
  8
1
  6
Continuous
 62
     6
100
AcDbLine
 10
-111.5059999999858
 20
-244.002999574687
 30
0.0
 11
-111.5059999999866
 21
-211.0029995746869
 31
0.0
  0
LINE
  5
2E4
330
71
100
AcDbEntity
  8
1
  6
Continuous
 62
     2
100
AcDbLine
 10
-111.5059999999875
 20
-266.002999574687
 30
0.0
 11
-155.0059999999875
 21
-266.002999574687
 31
0.0
  0
LINE
  5
2E5
330
71
100
AcDbEntity
  8
1
  6
Continuous
 62
     2
100
AcDbLine
 10
-106.5059999999885
 20
-266.002999574687
 30
0.0
 11
-111.5059999999875
 21
-266.002999574687
 31
0.0
  0
LINE
  5
2E6
330
71
100
AcDbEntity
  8
1
  6
Continuous
 62
     2
100
AcDbLine
 10
-106.5059999999885
 20
-266.002999574687
 30
0.0
 11
-106.5059999999885
 21
-261.002999574687
 31
0.0
  0
LINE
  5
2E7
330
71
100
AcDbEntity
  8
1
  6
Continuous
 62
     6
100
AcDbLine
 10
-241.0508045267375
 20
-244.002999574687
 30
0.0
 11
-204.6508045267376
 21
-244.002999574687
 31
0.0
  0
LINE
  5
2E8
330
71
100
AcDbEntity
  8
1
  6
Continuous
 62
     2
100
AcDbLine
 10
-111.5059999999875
 20
-261.002999574687
 30
0.0
 11
-111.5059999999875
 21
-266.002999574687
 31
0.0
  0
LINE
  5
2E9
330
71
100
AcDbEntity
  8
1
  6
Continuous
 62
     2
100
AcDbLine
 10
-111.5059999999875
 20
-261.002999574687
 30
0.0
 11
-106.5059999999885
 21
-261.002999574687
 31
0.0
  0
LINE
  5
2EA
330
71
100
AcDbEntity
  8
1
  6
Continuous
 62
     6
100
AcDbLine
 10
-205.0059999999875
 20
-261.002999574687
 30
0.0
 11
-222.8508045267375
 21
-261.002999574687
 31
0.0
  0
LINE
  5
2EB
330
71
100
AcDbEntity
  8
1
  6
Continuous
 62
     6
100
AcDbLine
 10
-155.0059999999875
 20
-261.002999574687
 30
0.0
 11
-111.5059999999875
 21
-261.002999574687
 31
0.0
  0
LINE
  5
2EC
330
71
100
AcDbEntity
  8
1
  6
Continuous
 62
     6
100
AcDbLine
 10
-305.0059999999877
 20
-261.002999574687
 30
0.0
 11
-310.0508045267375
 21
-261.002999574687
 31
0.0
  0
LINE
  5
2ED
330
71
100
AcDbEntity
  8
1
  6
Continuous
 62
     6
100
AcDbLine
 10
-255.0059999999875
 20
-261.002999574687
 30
0.0
 11
-241.0508045267375
 21
-261.0029995746871
 31
0.0
  0
LINE
  5
2EE
102
{ACAD_REACTORS
330
3D8
330
3D9
102
}
330
71
100
AcDbEntity
  8
0
  6
Continuous
 62
     2
100
AcDbLine
 10
-233.5361785845907
 20
-248.9304848184749
 30
0.0
 11
-233.5361785845907
 21
-248.3249495299681
 31
0.0
  0
LINE
  5
2EF
102
{ACAD_REACTORS
330
3D8
330
3D9
102
}
330
71
100
AcDbEntity
  8
0
  6
Continuous
 62
     2
100
AcDbLine
 10
-233.5361785845907
 20
-251.7306194251062
 30
0.0
 11
-233.5361785845907
 21
-251.1487680184112
 31
0.0
  0
LINE
  5
2F0
102
{ACAD_REACTORS
330
3DA
330
3DB
102
}
330
71
100
AcDbEntity
  8
0
  6
Continuous
 62
     2
100
AcDbLine
 10
-210.9066921491115
 20
-251.4409553569832
 30
0.0
 11
-210.9066921491115
 21
-253.7094995746707
 31
0.0
  0
LINE
  5
2F1
102
{ACAD_REACTORS
330
3DA
330
3DB
102
}
330
71
100
AcDbEntity
  8
0
  6
Continuous
 62
     2
100
AcDbLine
 10
-212.2877459280991
 20
-250.6556900508601
 30
0.0
 11
-208.9028004094704
 21
-250.6556900508596
 31
0.0
  0
LINE
  5
2F2
102
{ACAD_REACTORS
330
3DA
330
3DB
102
}
330
71
100
AcDbEntity
  8
0
  6
Continuous
 62
     2
100
AcDbLine
 10
-208.9028004094704
 20
-251.4409553569832
 30
0.0
 11
-208.9028004094704
 21
-250.6556900508596
 31
0.0
  0
LINE
  5
2F3
102
{ACAD_REACTORS
330
3DA
330
3DB
102
}
330
71
100
AcDbEntity
  8
0
  6
Continuous
 62
     2
100
AcDbLine
 10
-209.7138994469438
 20
-251.4409553569832
 30
0.0
 11
-208.9028004094704
 21
-251.4409553569832
 31
0.0
  0
LINE
  5
2F4
102
{ACAD_REACTORS
330
3DA
330
3DB
102
}
330
71
100
AcDbEntity
  8
0
  6
Continuous
 62
     2
100
AcDbLine
 10
-209.7138994469438
 20
-253.7094995746707
 30
0.0
 11
-209.7138994469438
 21
-251.4409553569832
 31
0.0
  0
LINE
  5
2F5
102
{ACAD_REACTORS
330
3DA
330
3DB
102
}
330
71
100
AcDbEntity
  8
0
  6
Continuous
 62
     2
100
AcDbLine
 10
-210.9066921491115
 20
-253.7094995746707
 30
0.0
 11
-209.7138994469438
 21
-253.7094995746707
 31
0.0
  0
LINE
  5
2F6
102
{ACAD_REACTORS
330
3D0
330
3D1
102
}
330
71
100
AcDbEntity
  8
0
  6
Continuous
 62
     2
100
AcDbLine
 10
-211.603283087176
 20
-247.2964995746852
 30
0.0
 11
-213.0060073049253
 21
-247.2964995746852
 31
0.0
  0
LINE
  5
2F7
102
{ACAD_REACTORS
330
3D0
330
3D1
102
}
330
71
100
AcDbEntity
  8
0
  6
Continuous
 62
     2
100
AcDbLine
 10
-211.603283087176
 20
-247.2964995746852
 30
0.0
 11
-211.0021155652842
 21
-247.9763228962407
 31
0.0
  0
LINE
  5
2F8
102
{ACAD_REACTORS
330
3D0
330
3D1
102
}
330
71
100
AcDbEntity
  8
0
  6
Continuous
 62
     2
100
AcDbLine
 10
-211.0021155652842
 20
-247.9763228962407
 30
0.0
 11
-210.4009480433914
 21
-247.2964995746852
 31
0.0
  0
LINE
  5
2F9
102
{ACAD_REACTORS
330
3D0
330
3D1
102
}
330
71
100
AcDbEntity
  8
0
  6
Continuous
 62
     2
100
AcDbLine
 10
-210.3007534564107
 20
-248.7694501047214
 30
0.0
 11
-208.9982238256442
 21
-247.2964995746852
 31
0.0
  0
LINE
  5
2FA
102
{ACAD_REACTORS
330
3D0
330
3D1
102
}
330
71
100
AcDbEntity
  8
0
  6
Continuous
 62
     2
100
AcDbLine
 10
-210.3007534564107
 20
-248.7694501047214
 30
0.0
 11
-208.9028004094704
 21
-250.3503090984964
 31
0.0
  0
LINE
  5
2FB
102
{ACAD_REACTORS
330
3D0
330
3D1
102
}
330
71
100
AcDbEntity
  8
0
  6
Continuous
 62
     2
100
AcDbLine
 10
-210.3055246272187
 20
-250.3503090984964
 30
0.0
 11
-208.9028004094704
 21
-250.3503090984964
 31
0.0
  0
LINE
  5
2FC
102
{ACAD_REACTORS
330
3D0
330
3D1
102
}
330
71
100
AcDbEntity
  8
0
  6
Continuous
 62
     2
100
AcDbLine
 10
-211.0021155652842
 20
-249.5625773132027
 30
0.0
 11
-210.3055246272187
 21
-250.3503090984964
 31
0.0
  0
LINE
  5
2FD
102
{ACAD_REACTORS
330
3CE
330
3CF
102
}
330
71
100
AcDbEntity
  8
0
  6
Continuous
 62
     2
100
AcDbLine
 10
-214.4612144015679
 20
-247.2964995746852
 30
0.0
 11
-213.220709991315
 21
-247.2964995746852
 31
0.0
  0
LINE
  5
2FE
102
{ACAD_REACTORS
330
3CE
330
3CF
102
}
330
71
100
AcDbEntity
  8
0
  6
Continuous
 62
     2
100
AcDbLine
 10
-213.220709991315
 20
-247.2964995746852
 30
0.0
 11
-213.220709991315
 21
-250.3503090984964
 31
0.0
  0
LINE
  5
2FF
102
{ACAD_REACTORS
330
3CE
330
3CF
102
}
330
71
100
AcDbEntity
  8
0
  6
Continuous
 62
     2
100
AcDbLine
 10
-214.4612144015679
 20
-250.3503090984964
 30
0.0
 11
-214.4612144015679
 21
-247.2964995746852
 31
0.0
  0
LINE
  5
300
102
{ACAD_REACTORS
330
3CC
330
3CD
102
}
330
71
100
AcDbEntity
  8
0
  6
Continuous
 62
     2
100
AcDbLine
 10
-215.9295244841055
 20
-252.4879757651462
 30
0.0
 11
-215.6293592469131
 21
-251.7201607991595
 31
0.0
  0
LINE
  5
301
102
{ACAD_REACTORS
330
3CC
330
3CD
102
}
330
71
100
AcDbEntity
  8
0
  6
Continuous
 62
     2
100
AcDbLine
 10
-216.4070600887263
 20
-253.7094995746707
 30
0.0
 11
-216.1955800352505
 21
-253.1685390304529
 31
0.0
  0
LINE
  5
302
102
{ACAD_REACTORS
330
3CC
330
3CD
102
}
330
71
100
AcDbEntity
  8
0
  6
Continuous
 62
     2
100
AcDbLine
 10
-216.24961145204
 20
-250.6556900508596
 30
0.0
 11
-217.6475644989793
 21
-253.7094995746707
 31
0.0
  0
LINE
  5
303
102
{ACAD_REACTORS
330
3CC
330
3CD
102
}
330
71
100
AcDbEntity
  8
0
  6
Continuous
 62
     2
100
AcDbLine
 10
-213.611153994847
 20
-253.7094995746707
 30
0.0
 11
-214.8516584051009
 21
-253.7094995746707
 31
0.0
  0
LINE
  5
304
102
{ACAD_REACTORS
330
3CC
330
3CD
102
}
330
71
100
AcDbEntity
  8
0
  6
Continuous
 62
     2
100
AcDbLine
 10
-216.1955800352505
 20
-253.1685390304529
 30
0.0
 11
-215.0631384585767
 21
-253.1685390304529
 31
0.0
  0
LINE
  5
305
102
{ACAD_REACTORS
330
3CA
330
3CB
102
}
330
71
100
AcDbEntity
  8
0
  6
Continuous
 62
     2
100
AcDbLine
 10
-219.8050766381615
 20
-251.4409553569832
 30
0.0
 11
-218.9939776006869
 21
-251.4409553569832
 31
0.0
  0
LINE
  5
306
102
{ACAD_REACTORS
330
3CA
330
3CB
102
}
330
71
100
AcDbEntity
  8
0
  6
Continuous
 62
     2
100
AcDbLine
 10
-216.9900858610479
 20
-250.6556900508596
 30
0.0
 11
-219.8050766381615
 21
-250.6556900508596
 31
0.0
  0
LINE
  5
307
102
{ACAD_REACTORS
330
3CA
330
3CB
102
}
330
71
100
AcDbEntity
  8
0
  6
Continuous
 62
     2
100
AcDbLine
 10
-216.9900858610479
 20
-251.4409553569832
 30
0.0
 11
-216.9900858610479
 21
-250.6556900508596
 31
0.0
  0
LINE
  5
308
102
{ACAD_REACTORS
330
3CA
330
3CB
102
}
330
71
100
AcDbEntity
  8
0
  6
Continuous
 62
     2
100
AcDbLine
 10
-217.8011848985204
 20
-251.4409553569832
 30
0.0
 11
-216.9900858610479
 21
-251.4409553569832
 31
0.0
  0
LINE
  5
309
102
{ACAD_REACTORS
330
3CA
330
3CB
102
}
330
71
100
AcDbEntity
  8
0
  6
Continuous
 62
     2
100
AcDbLine
 10
-217.8011848985204
 20
-253.7094995746707
 30
0.0
 11
-217.8011848985204
 21
-251.4409553569832
 31
0.0
  0
LINE
  5
30A
102
{ACAD_REACTORS
330
3C8
330
3C9
102
}
330
71
100
AcDbEntity
  8
0
  6
Continuous
 62
     2
100
AcDbLine
 10
-217.1330700544224
 20
-250.3503090984964
 30
0.0
 11
-217.1330700544224
 21
-249.0415335882917
 31
0.0
  0
LINE
  5
30B
102
{ACAD_REACTORS
330
3C8
330
3C9
102
}
330
71
100
AcDbEntity
  8
0
  6
Continuous
 62
     2
100
AcDbLine
 10
-218.3258627565889
 20
-247.2964995746852
 30
0.0
 11
-218.3258627565889
 21
-250.3503090984964
 31
0.0
  0
LINE
  5
30C
102
{ACAD_REACTORS
330
3C8
330
3C9
102
}
330
71
100
AcDbEntity
  8
0
  6
Continuous
 62
     2
100
AcDbLine
 10
-217.1330700544224
 20
-247.2964995746852
 30
0.0
 11
-218.3258627565889
 21
-247.2964995746852
 31
0.0
  0
LINE
  5
30D
102
{ACAD_REACTORS
330
3C8
330
3C9
102
}
330
71
100
AcDbEntity
  8
0
  6
Continuous
 62
     2
100
AcDbLine
 10
-215.8925656441684
 20
-247.2964995746852
 30
0.0
 11
-215.8925656441684
 21
-248.6052750848904
 31
0.0
  0
LINE
  5
30E
102
{ACAD_REACTORS
330
3C6
330
3C7
102
}
330
71
100
AcDbEntity
  8
0
  6
Continuous
 62
     2
100
AcDbLine
 10
-223.5743015770086
 20
-250.6556900508596
 30
0.0
 11
-223.5743015770086
 21
-253.7094995746707
 31
0.0
  0
LINE
  5
30F
102
{ACAD_REACTORS
330
3C6
330
3C7
102
}
330
71
100
AcDbEntity
  8
0
  6
Continuous
 62
     2
100
AcDbLine
 10
-222.381508874841
 20
-250.6556900508596
 30
0.0
 11
-223.5743015770086
 21
-250.6556900508596
 31
0.0
  0
LINE
  5
310
102
{ACAD_REACTORS
330
3C6
330
3C7
102
}
330
71
100
AcDbEntity
  8
0
  6
Continuous
 62
     2
100
AcDbLine
 10
-221.1410044645881
 20
-253.7094995746707
 30
0.0
 11
-219.9482117624217
 21
-253.7094995746707
 31
0.0
  0
LINE
  5
311
102
{ACAD_REACTORS
330
3C6
330
3C7
102
}
330
71
100
AcDbEntity
  8
0
  6
Continuous
 62
     2
100
AcDbLine
 10
-223.5743015770086
 20
-253.7094995746707
 30
0.0
 11
-222.381508874841
 21
-253.7094995746707
 31
0.0
  0
LINE
  5
312
102
{ACAD_REACTORS
330
3D6
330
3D7
102
}
330
71
100
AcDbEntity
  8
0
  6
Continuous
 62
     2
100
AcDbLine
 10
-219.9003491234495
 20
-248.4743975338699
 30
0.0
 11
-219.9003491234495
 21
-247.9945131801282
 31
0.0
  0
LINE
  5
313
102
{ACAD_REACTORS
330
3D6
330
3D7
102
}
330
71
100
AcDbEntity
  8
0
  6
Continuous
 62
     2
100
AcDbLine
 10
-218.5644212970218
 20
-248.4743975338699
 30
0.0
 11
-219.9003491234495
 21
-248.4743975338699
 31
0.0
  0
LINE
  5
314
102
{ACAD_REACTORS
330
3D6
330
3D7
102
}
330
71
100
AcDbEntity
  8
0
  6
Continuous
 62
     2
100
AcDbLine
 10
-218.5644212970218
 20
-249.1724111393122
 30
0.0
 11
-218.5644212970218
 21
-248.4743975338699
 31
0.0
  0
LINE
  5
315
102
{ACAD_REACTORS
330
3D6
330
3D7
102
}
330
71
100
AcDbEntity
  8
0
  6
Continuous
 62
     2
100
AcDbLine
 10
-219.9003491234495
 20
-249.1724111393122
 30
0.0
 11
-218.5644212970218
 21
-249.1724111393122
 31
0.0
  0
LINE
  5
316
102
{ACAD_REACTORS
330
3C4
330
3C5
102
}
330
71
100
AcDbEntity
  8
0
  6
Continuous
 62
     2
100
AcDbLine
 10
-223.3833038137764
 20
-247.2964995746852
 30
0.0
 11
-223.3833038137764
 21
-250.3503090984964
 31
0.0
  0
LINE
  5
317
102
{ACAD_REACTORS
330
3C4
330
3C5
102
}
330
71
100
AcDbEntity
  8
0
  6
Continuous
 62
     2
100
AcDbLine
 10
-223.3833038137764
 20
-250.3503090984964
 30
0.0
 11
-224.5760965159428
 21
-250.3503090984964
 31
0.0
  0
LINE
  5
318
102
{ACAD_REACTORS
330
3C4
330
3C5
102
}
330
71
100
AcDbEntity
  8
0
  6
Continuous
 62
     2
100
AcDbLine
 10
-224.5760965159428
 20
-250.3503090984964
 30
0.0
 11
-224.5760965159428
 21
-249.2160369896526
 31
0.0
  0
LINE
  5
319
102
{ACAD_REACTORS
330
3C4
330
3C5
102
}
330
71
100
AcDbEntity
  8
0
  6
Continuous
 62
     2
100
AcDbLine
 10
-225.6257540938503
 20
-250.3503090984964
 30
0.0
 11
-226.8185467960169
 21
-250.3503090984964
 31
0.0
  0
LINE
  5
31A
102
{ACAD_REACTORS
330
3C4
330
3C5
102
}
330
71
100
AcDbEntity
  8
0
  6
Continuous
 62
     2
100
AcDbLine
 10
-226.8185467960169
 20
-247.2964995746852
 30
0.0
 11
-225.6257540938503
 21
-247.2964995746852
 31
0.0
  0
LINE
  5
31B
102
{ACAD_REACTORS
330
3C4
330
3C5
102
}
330
71
100
AcDbEntity
  8
0
  6
Continuous
 62
     2
100
AcDbLine
 10
-225.6257540938503
 20
-247.2964995746852
 30
0.0
 11
-225.6257540938503
 21
-248.3653329080198
 31
0.0
  0
LINE
  5
31C
102
{ACAD_REACTORS
330
3C4
330
3C5
102
}
330
71
100
AcDbEntity
  8
0
  6
Continuous
 62
     2
100
AcDbLine
 10
-225.6257540938503
 20
-248.3653329080198
 30
0.0
 11
-224.5760965159428
 21
-248.3653329080198
 31
0.0
  0
LINE
  5
31D
102
{ACAD_REACTORS
330
3D2
330
3D3
102
}
330
71
100
AcDbEntity
  8
0
  6
Continuous
 62
     2
100
AcDbLine
 10
-228.7747268275705
 20
-247.9596054201253
 30
0.0
 11
-228.4574317660286
 21
-247.9596054201253
 31
0.0
  0
LINE
  5
31E
102
{ACAD_REACTORS
330
3D2
330
3D3
102
}
330
71
100
AcDbEntity
  8
0
  6
Continuous
 62
     2
100
AcDbLine
 10
-228.7747268275705
 20
-248.6653330694675
 30
0.0
 11
-228.4574317660286
 21
-248.6653330694675
 31
0.0
  0
LINE
  5
31F
102
{ACAD_REACTORS
330
3D2
330
3D3
102
}
330
71
100
AcDbEntity
  8
0
  6
Continuous
 62
     2
100
AcDbLine
 10
-230.0152312378246
 20
-247.2964995746852
 30
0.0
 11
-230.0152312378246
 21
-250.3503090984964
 31
0.0
  0
LINE
  5
320
102
{ACAD_REACTORS
330
3D2
330
3D3
102
}
330
71
100
AcDbEntity
  8
0
  6
Continuous
 62
     2
100
AcDbLine
 10
-230.0152312378246
 20
-247.2964995746852
 30
0.0
 11
-228.0159592397902
 21
-247.2964995746852
 31
0.0
  0
LINE
  5
321
102
{ACAD_REACTORS
330
3D2
330
3D3
102
}
330
71
100
AcDbEntity
  8
0
  6
Continuous
 62
     2
100
AcDbLine
 10
-228.7747268275705
 20
-249.4072308573526
 30
0.0
 11
-228.0159592397902
 21
-249.4072308573526
 31
0.0
  0
LINE
  5
322
102
{ACAD_REACTORS
330
3D8
330
3D9
102
}
330
71
100
AcDbEntity
  8
0
  6
Continuous
 62
     2
100
AcDbLine
 10
-236.1117272711213
 20
-248.32477205332
 30
0.0
 11
-236.1117272711213
 21
-252.6812270960371
 31
0.0
  0
LINE
  5
323
102
{ACAD_REACTORS
330
3D8
330
3D9
102
}
330
71
100
AcDbEntity
  8
0
  6
Continuous
 62
     2
100
AcDbLine
 10
-235.7960103480456
 20
-248.0090551302438
 30
0.0
 11
-234.320177087036
 21
-248.0090551302438
 31
0.0
  0
LINE
  5
324
102
{ACAD_REACTORS
330
3D8
330
3D9
102
}
330
71
100
AcDbEntity
  8
0
  6
Continuous
 62
     2
100
AcDbLine
 10
-234.0044601639594
 20
-248.9287966723805
 30
0.0
 11
-234.0044601639594
 21
-248.32477205332
 31
0.0
  0
LINE
  5
325
102
{ACAD_REACTORS
330
3D8
330
3D9
102
}
330
71
100
AcDbEntity
  8
0
  6
Continuous
 62
     2
100
AcDbLine
 10
-234.0044601639594
 20
-252.6812270960371
 30
0.0
 11
-234.0044601639594
 21
-251.1504561645055
 31
0.0
  0
LINE
  5
326
102
{ACAD_REACTORS
330
3D8
330
3D9
102
}
330
71
100
AcDbEntity
  8
0
  6
Continuous
 62
     2
100
AcDbLine
 10
-230.9165929340753
 20
-253.7094995746707
 30
0.0
 11
-236.3899050247921
 21
-253.7094995746707
 31
0.0
  0
LINE
  5
327
102
{ACAD_REACTORS
330
3D8
330
3D9
102
}
330
71
100
AcDbEntity
  8
0
  6
Continuous
 62
     2
100
AcDbLine
 10
-230.4923483186914
 20
-247.7207441900872
 30
0.0
 11
-230.4923483186914
 21
-253.2852549592874
 31
0.0
  0
LINE
  5
328
102
{ACAD_REACTORS
330
3D8
330
3D9
102
}
330
71
100
AcDbEntity
  8
0
  6
Continuous
 62
     2
100
AcDbLine
 10
-236.3899050247921
 20
-247.2964995747034
 30
0.0
 11
-230.9165929340753
 21
-247.2964995747034
 31
0.0
  0
LINE
  5
329
102
{ACAD_REACTORS
330
3D8
330
3D9
102
}
330
71
100
AcDbEntity
  8
0
  6
Continuous
 62
     2
100
AcDbLine
 10
-236.8141496401749
 20
-247.7207441900872
 30
0.0
 11
-236.8141496401749
 21
-253.2852549592874
 31
0.0
  0
LINE
  5
32A
102
{ACAD_REACTORS
330
3D8
330
3D9
102
}
330
71
100
AcDbEntity
  8
0
  6
Continuous
 62
     2
100
AcDbLine
 10
-234.320177087036
 20
-252.9969440191138
 30
0.0
 11
-235.7960103480456
 21
-252.9969440191138
 31
0.0
  0
LINE
  5
32B
102
{ACAD_REACTORS
330
3D2
330
3D3
102
}
330
71
100
AcDbEntity
  8
0
  6
Continuous
 62
     2
100
AcDbLine
 10
-228.7747268275705
 20
-250.3503090984964
 30
0.0
 11
-228.7747268275705
 21
-249.4072308573526
 31
0.0
  0
LINE
  5
32C
102
{ACAD_REACTORS
330
3D2
330
3D3
102
}
330
71
100
AcDbEntity
  8
0
  6
Continuous
 62
     2
100
AcDbLine
 10
-230.0152312378246
 20
-250.3503090984964
 30
0.0
 11
-228.7747268275705
 21
-250.3503090984964
 31
0.0
  0
LINE
  5
32D
102
{ACAD_REACTORS
330
3D2
330
3D3
102
}
330
71
100
AcDbEntity
  8
0
  6
Continuous
 62
     2
100
AcDbLine
 10
-228.7747268275705
 20
-248.6653330694675
 30
0.0
 11
-228.7747268275705
 21
-247.9596054201253
 31
0.0
  0
LINE
  5
32E
102
{ACAD_REACTORS
330
3C4
330
3C5
102
}
330
71
100
AcDbEntity
  8
0
  6
Continuous
 62
     2
100
AcDbLine
 10
-226.8185467960169
 20
-247.2964995746852
 30
0.0
 11
-226.8185467960169
 21
-250.3503090984964
 31
0.0
  0
LINE
  5
32F
102
{ACAD_REACTORS
330
3C4
330
3C5
102
}
330
71
100
AcDbEntity
  8
0
  6
Continuous
 62
     2
100
AcDbLine
 10
-225.6257540938503
 20
-249.2160369896526
 30
0.0
 11
-225.6257540938503
 21
-250.3503090984964
 31
0.0
  0
LINE
  5
330
102
{ACAD_REACTORS
330
3C4
330
3C5
102
}
330
71
100
AcDbEntity
  8
0
  6
Continuous
 62
     2
100
AcDbLine
 10
-224.5760965159428
 20
-249.2160369896526
 30
0.0
 11
-225.6257540938503
 21
-249.2160369896526
 31
0.0
  0
LINE
  5
331
102
{ACAD_REACTORS
330
3C4
330
3C5
102
}
330
71
100
AcDbEntity
  8
0
  6
Continuous
 62
     2
100
AcDbLine
 10
-224.5760965159428
 20
-247.2964995746852
 30
0.0
 11
-223.3833038137764
 21
-247.2964995746852
 31
0.0
  0
LINE
  5
332
102
{ACAD_REACTORS
330
3C4
330
3C5
102
}
330
71
100
AcDbEntity
  8
0
  6
Continuous
 62
     2
100
AcDbLine
 10
-224.5760965159428
 20
-248.3653329080198
 30
0.0
 11
-224.5760965159428
 21
-247.2964995746852
 31
0.0
  0
LINE
  5
333
102
{ACAD_REACTORS
330
3D6
330
3D7
102
}
330
71
100
AcDbEntity
  8
0
  6
Continuous
 62
     2
100
AcDbLine
 10
-218.5644212970218
 20
-247.9945131801282
 30
0.0
 11
-218.5644212970218
 21
-247.2964995746852
 31
0.0
  0
LINE
  5
334
102
{ACAD_REACTORS
330
3D6
330
3D7
102
}
330
71
100
AcDbEntity
  8
0
  6
Continuous
 62
     2
100
AcDbLine
 10
-221.7147410208028
 20
-247.2964995746852
 30
0.0
 11
-218.5644212970218
 21
-247.2964995746852
 31
0.0
  0
LINE
  5
335
102
{ACAD_REACTORS
330
3D6
330
3D7
102
}
330
71
100
AcDbEntity
  8
0
  6
Continuous
 62
     2
100
AcDbLine
 10
-221.7147410208028
 20
-250.3503090984964
 30
0.0
 11
-218.5644212970218
 21
-250.3503090984964
 31
0.0
  0
LINE
  5
336
102
{ACAD_REACTORS
330
3D6
330
3D7
102
}
330
71
100
AcDbEntity
  8
0
  6
Continuous
 62
     2
100
AcDbLine
 10
-218.5644212970218
 20
-250.3503090984964
 30
0.0
 11
-218.5644212970218
 21
-249.6522954930539
 31
0.0
  0
LINE
  5
337
102
{ACAD_REACTORS
330
3D6
330
3D7
102
}
330
71
100
AcDbEntity
  8
0
  6
Continuous
 62
     2
100
AcDbLine
 10
-218.5644212970218
 20
-249.6522954930539
 30
0.0
 11
-219.9003491234495
 21
-249.6522954930539
 31
0.0
  0
LINE
  5
338
102
{ACAD_REACTORS
330
3D6
330
3D7
102
}
330
71
100
AcDbEntity
  8
0
  6
Continuous
 62
     2
100
AcDbLine
 10
-219.9003491234495
 20
-249.6522954930539
 30
0.0
 11
-219.9003491234495
 21
-249.1724111393122
 31
0.0
  0
LINE
  5
339
102
{ACAD_REACTORS
330
3D6
330
3D7
102
}
330
71
100
AcDbEntity
  8
0
  6
Continuous
 62
     2
100
AcDbLine
 10
-219.9003491234495
 20
-247.9945131801282
 30
0.0
 11
-218.5644212970218
 21
-247.9945131801282
 31
0.0
  0
LINE
  5
33A
102
{ACAD_REACTORS
330
3C6
330
3C7
102
}
330
71
100
AcDbEntity
  8
0
  6
Continuous
 62
     2
100
AcDbLine
 10
-222.381508874841
 20
-253.7094995746707
 30
0.0
 11
-222.381508874841
 21
-252.4007240644661
 31
0.0
  0
LINE
  5
33B
102
{ACAD_REACTORS
330
3C6
330
3C7
102
}
330
71
100
AcDbEntity
  8
0
  6
Continuous
 62
     2
100
AcDbLine
 10
-222.381508874841
 20
-252.4007240644661
 30
0.0
 11
-221.1410044645881
 21
-253.7094995746707
 31
0.0
  0
LINE
  5
33C
102
{ACAD_REACTORS
330
3C6
330
3C7
102
}
330
71
100
AcDbEntity
  8
0
  6
Continuous
 62
     2
100
AcDbLine
 10
-219.9482117624217
 20
-253.7094995746707
 30
0.0
 11
-219.9482117624217
 21
-250.6556900508596
 31
0.0
  0
LINE
  5
33D
102
{ACAD_REACTORS
330
3C6
330
3C7
102
}
330
71
100
AcDbEntity
  8
0
  6
Continuous
 62
     2
100
AcDbLine
 10
-219.9482117624217
 20
-250.6556900508596
 30
0.0
 11
-221.1410044645881
 21
-250.6556900508596
 31
0.0
  0
LINE
  5
33E
102
{ACAD_REACTORS
330
3C6
330
3C7
102
}
330
71
100
AcDbEntity
  8
0
  6
Continuous
 62
     2
100
AcDbLine
 10
-221.1410044645881
 20
-250.6556900508596
 30
0.0
 11
-221.1410044645881
 21
-251.9644655610647
 31
0.0
  0
LINE
  5
33F
102
{ACAD_REACTORS
330
3C6
330
3C7
102
}
330
71
100
AcDbEntity
  8
0
  6
Continuous
 62
     2
100
AcDbLine
 10
-221.1410044645881
 20
-251.9644655610647
 30
0.0
 11
-222.381508874841
 21
-250.6556900508596
 31
0.0
  0
LINE
  5
340
102
{ACAD_REACTORS
330
3C8
330
3C9
102
}
330
71
100
AcDbEntity
  8
0
  6
Continuous
 62
     2
100
AcDbLine
 10
-217.1330700544224
 20
-249.0415335882917
 30
0.0
 11
-215.8925656441684
 21
-250.3503090984964
 31
0.0
  0
LINE
  5
341
102
{ACAD_REACTORS
330
3C8
330
3C9
102
}
330
71
100
AcDbEntity
  8
0
  6
Continuous
 62
     2
100
AcDbLine
 10
-215.8925656441684
 20
-250.3503090984964
 30
0.0
 11
-214.6997729420018
 21
-250.3503090984964
 31
0.0
  0
LINE
  5
342
102
{ACAD_REACTORS
330
3C8
330
3C9
102
}
330
71
100
AcDbEntity
  8
0
  6
Continuous
 62
     2
100
AcDbLine
 10
-214.6997729420018
 20
-250.3503090984964
 30
0.0
 11
-214.6997729420018
 21
-247.2964995746852
 31
0.0
  0
LINE
  5
343
102
{ACAD_REACTORS
330
3C8
330
3C9
102
}
330
71
100
AcDbEntity
  8
0
  6
Continuous
 62
     2
100
AcDbLine
 10
-214.6997729420018
 20
-247.2964995746852
 30
0.0
 11
-215.8925656441684
 21
-247.2964995746852
 31
0.0
  0
LINE
  5
344
102
{ACAD_REACTORS
330
3C8
330
3C9
102
}
330
71
100
AcDbEntity
  8
0
  6
Continuous
 62
     2
100
AcDbLine
 10
-215.8925656441684
 20
-248.6052750848904
 30
0.0
 11
-217.1330700544224
 21
-247.2964995746852
 31
0.0
  0
LINE
  5
345
102
{ACAD_REACTORS
330
3C8
330
3C9
102
}
330
71
100
AcDbEntity
  8
0
  6
Continuous
 62
     2
100
AcDbLine
 10
-218.3258627565889
 20
-250.3503090984964
 30
0.0
 11
-217.1330700544224
 21
-250.3503090984964
 31
0.0
  0
LINE
  5
346
102
{ACAD_REACTORS
330
3CA
330
3CB
102
}
330
71
100
AcDbEntity
  8
0
  6
Continuous
 62
     2
100
AcDbLine
 10
-219.8050766381615
 20
-250.6556900508596
 30
0.0
 11
-219.8050766381615
 21
-251.4409553569832
 31
0.0
  0
LINE
  5
347
102
{ACAD_REACTORS
330
3CA
330
3CB
102
}
330
71
100
AcDbEntity
  8
0
  6
Continuous
 62
     2
100
AcDbLine
 10
-218.9939776006869
 20
-251.4409553569832
 30
0.0
 11
-218.9939776006869
 21
-253.7094995746707
 31
0.0
  0
LINE
  5
348
102
{ACAD_REACTORS
330
3CA
330
3CB
102
}
330
71
100
AcDbEntity
  8
0
  6
Continuous
 62
     2
100
AcDbLine
 10
-218.9939776006869
 20
-253.7094995746707
 30
0.0
 11
-217.8011848985204
 21
-253.7094995746707
 31
0.0
  0
LINE
  5
349
102
{ACAD_REACTORS
330
3CC
330
3CD
102
}
330
71
100
AcDbEntity
  8
0
  6
Continuous
 62
     2
100
AcDbLine
 10
-214.8516584051009
 20
-253.7094995746707
 30
0.0
 11
-215.0631384585767
 21
-253.1685390304529
 31
0.0
  0
LINE
  5
34A
102
{ACAD_REACTORS
330
3CC
330
3CD
102
}
330
71
100
AcDbEntity
  8
0
  6
Continuous
 62
     2
100
AcDbLine
 10
-215.0091070417873
 20
-250.6556900508596
 30
0.0
 11
-213.611153994847
 21
-253.7094995746707
 31
0.0
  0
LINE
  5
34B
102
{ACAD_REACTORS
330
3CC
330
3CD
102
}
330
71
100
AcDbEntity
  8
0
  6
Continuous
 62
     2
100
AcDbLine
 10
-216.24961145204
 20
-250.6556900508596
 30
0.0
 11
-215.0091070417873
 21
-250.6556900508596
 31
0.0
  0
LINE
  5
34C
102
{ACAD_REACTORS
330
3CC
330
3CD
102
}
330
71
100
AcDbEntity
  8
0
  6
Continuous
 62
     2
100
AcDbLine
 10
-217.6475644989793
 20
-253.7094995746707
 30
0.0
 11
-216.4070600887263
 21
-253.7094995746707
 31
0.0
  0
LINE
  5
34D
102
{ACAD_REACTORS
330
3CC
330
3CD
102
}
330
71
100
AcDbEntity
  8
0
  6
Continuous
 62
     2
100
AcDbLine
 10
-215.9295244841055
 20
-252.4879757651462
 30
0.0
 11
-215.329194009723
 21
-252.4879757651462
 31
0.0
  0
LINE
  5
34E
102
{ACAD_REACTORS
330
3CC
330
3CD
102
}
330
71
100
AcDbEntity
  8
0
  6
Continuous
 62
     2
100
AcDbLine
 10
-215.329194009723
 20
-252.4879757651462
 30
0.0
 11
-215.6293592469131
 21
-251.7201607991595
 31
0.0
  0
LINE
  5
34F
102
{ACAD_REACTORS
330
3CE
330
3CF
102
}
330
71
100
AcDbEntity
  8
0
  6
Continuous
 62
     2
100
AcDbLine
 10
-213.220709991315
 20
-250.3503090984964
 30
0.0
 11
-214.4612144015679
 21
-250.3503090984964
 31
0.0
  0
LINE
  5
350
102
{ACAD_REACTORS
330
3D0
330
3D1
102
}
330
71
100
AcDbEntity
  8
0
  6
Continuous
 62
     2
100
AcDbLine
 10
-211.6987065033499
 20
-250.3503090984964
 30
0.0
 11
-213.1014307210981
 21
-250.3503090984964
 31
0.0
  0
LINE
  5
351
102
{ACAD_REACTORS
330
3D0
330
3D1
102
}
330
71
100
AcDbEntity
  8
0
  6
Continuous
 62
     2
100
AcDbLine
 10
-211.6987065033499
 20
-250.3503090984964
 30
0.0
 11
-211.0021155652842
 21
-249.5625773132027
 31
0.0
  0
LINE
  5
352
102
{ACAD_REACTORS
330
3D0
330
3D1
102
}
330
71
100
AcDbEntity
  8
0
  6
Continuous
 62
     2
100
AcDbLine
 10
-210.4009480433914
 20
-247.2964995746852
 30
0.0
 11
-208.9982238256442
 21
-247.2964995746852
 31
0.0
  0
LINE
  5
353
102
{ACAD_REACTORS
330
3D0
330
3D1
102
}
330
71
100
AcDbEntity
  8
0
  6
Continuous
 62
     2
100
AcDbLine
 10
-213.0060073049253
 20
-247.2964995746852
 30
0.0
 11
-211.7034776741578
 21
-248.7694501047214
 31
0.0
  0
LINE
  5
354
102
{ACAD_REACTORS
330
3D0
330
3D1
102
}
330
71
100
AcDbEntity
  8
0
  6
Continuous
 62
     2
100
AcDbLine
 10
-213.1014307210981
 20
-250.3503090984964
 30
0.0
 11
-211.7034776741578
 21
-248.7694501047214
 31
0.0
  0
LINE
  5
355
102
{ACAD_REACTORS
330
3DA
330
3DB
102
}
330
71
100
AcDbEntity
  8
0
  6
Continuous
 62
     2
100
AcDbLine
 10
-211.2406741057182
 20
-252.6624791665071
 30
0.0
 11
-211.2406741057182
 21
-253.5349961733105
 31
0.0
  0
LINE
  5
356
102
{ACAD_REACTORS
330
3DA
330
3DB
102
}
330
71
100
AcDbEntity
  8
0
  6
Continuous
 62
     2
100
AcDbLine
 10
-212.0103314486796
 20
-251.4409553569832
 30
0.0
 11
-210.9066921491115
 21
-251.4409553569832
 31
0.0
  0
LINE
  5
357
102
{ACAD_REACTORS
330
3DC
330
3DD
102
}
330
71
100
AcDbEntity
  8
0
  6
Continuous
 62
     2
100
AcDbLine
 10
-227.3433755849701
 20
-252.6624791665066
 30
0.0
 11
-227.3433755849701
 21
-253.5349961733098
 31
0.0
  0
LINE
  5
358
102
{ACAD_REACTORS
330
3DC
330
3DD
102
}
330
71
100
AcDbEntity
  8
0
  6
Continuous
 62
     2
100
AcDbLine
 10
-227.3433755849701
 20
-251.7027104590237
 30
0.0
 11
-227.3433755849701
 21
-250.8301934522204
 31
0.0
  0
LINE
  5
359
330
71
100
AcDbEntity
  8
1
  6
Continuous
 62
     7
100
AcDbLine
 10
-111.5059999999862
 20
-252.502999574687
 30
0.0
 11
-204.6508045267376
 21
-252.502999574687
 31
0.0
  0
LINE
  5
35A
330
71
100
AcDbEntity
  8
1
  6
Continuous
 62
     6
100
AcDbLine
 10
-310.0508045267375
 20
-261.002999574687
 30
0.0
 11
-355.0059999999875
 21
-261.002999574687
 31
0.0
  0
LINE
  5
35B
330
71
100
AcDbEntity
  8
1
  6
Continuous
 62
     7
100
AcDbLine
 10
-120.424408281665
 20
-235.502999574687
 30
0.0
 11
-120.424408281665
 21
-244.002999574687
 31
0.0
  0
LINE
  5
35C
330
71
100
AcDbEntity
  8
1
  6
Continuous
 62
     7
100
AcDbLine
 10
-146.9244082816646
 20
-235.502999574687
 30
0.0
 11
-146.9244082816646
 21
-244.002999574687
 31
0.0
  0
LINE
  5
35D
330
71
100
AcDbEntity
  8
1
  6
Continuous
 62
     7
100
AcDbLine
 10
-204.6508045267376
 20
-244.002999574687
 30
0.0
 11
-204.6508045267376
 21
-235.502999574687
 31
0.0
  0
LINE
  5
35E
330
71
100
AcDbEntity
  8
1
  6
Continuous
 62
     7
100
AcDbLine
 10
-241.0508045267375
 20
-244.002999574687
 30
0.0
 11
-241.0508045267375
 21
-235.502999574687
 31
0.0
  0
LINE
  5
35F
330
71
100
AcDbEntity
  8
1
  6
Continuous
 62
     6
100
AcDbLine
 10
-204.6508045267376
 20
-244.002999574687
 30
0.0
 11
-111.5059999999858
 21
-244.002999574687
 31
0.0
  0
LINE
  5
360
330
71
100
AcDbEntity
  8
1
  6
Continuous
 62
     7
100
AcDbLine
 10
-176.7508045267375
 20
-252.5029995746871
 30
0.0
 11
-176.7508045267375
 21
-244.002999574687
 31
0.0
  0
LINE
  5
361
330
71
100
AcDbEntity
  8
1
  6
PHANTOM
 62
     2
100
AcDbLine
 10
-225.5641496401749
 20
-239.8779995746871
 30
0.0
 11
-231.0641496401749
 21
-239.8779995746871
 31
0.0
  0
LINE
  5
362
330
71
100
AcDbEntity
  8
1
  6
PHANTOM
 62
     2
100
AcDbLine
 10
-228.3141496401749
 20
-237.1279995746871
 30
0.0
 11
-228.3141496401749
 21
-242.6279995746871
 31
0.0
  0
LINE
  5
363
330
71
100
AcDbEntity
  8
1
  6
DOT_CENTER
 62
     2
100
AcDbLine
 10
-237.0641496401749
 20
-239.8779995746871
 30
0.0
 11
-231.5641496401749
 21
-239.8779995746871
 31
0.0
  0
ARC
  5
364
102
{ACAD_REACTORS
330
3DC
330
3DD
102
}
330
71
100
AcDbEntity
  8
0
  6
Continuous
 62
     2
100
AcDbCircle
 10
-228.6793035020879
 20
-255.4952757580213
 30
0.0
 40
4.852596863498068
100
AcDbArc
 50
74.02000874164739
 51
84.84185523037509
  0
ARC
  5
365
102
{ACAD_REACTORS
330
3DC
330
3DD
102
}
330
71
100
AcDbEntity
  8
0
  6
Continuous
 62
     2
100
AcDbCircle
 10
-228.1032628933342
 20
-252.339515402137
 30
0.0
 40
0.9059297849853588
100
AcDbArc
 50
71.55192388185235
 51
113.372277888129
  0
ARC
  5
366
102
{ACAD_REACTORS
330
3DC
330
3DD
102
}
330
71
100
AcDbEntity
  8
0
  6
Continuous
 62
     2
100
AcDbCircle
 10
-228.2597029260362
 20
-252.3876662421039
 30
0.0
 40
0.5115800601948034
100
AcDbArc
 50
208.5214732576956
 51
246.6277221118245
  0
ARC
  5
367
102
{ACAD_REACTORS
330
3DC
330
3DD
102
}
330
71
100
AcDbEntity
  8
0
  6
Continuous
 62
     2
100
AcDbCircle
 10
-228.1032628933342
 20
-252.0256742233939
 30
0.0
 40
0.9059297849849192
100
AcDbArc
 50
246.627722111871
 51
288.4480761181601
  0
ARC
  5
368
102
{ACAD_REACTORS
330
3DC
330
3DD
102
}
330
71
100
AcDbEntity
  8
0
  6
Continuous
 62
     2
100
AcDbCircle
 10
-228.521430626995
 20
-250.7721284473567
 30
0.0
 40
2.227384008972773
100
AcDbArc
 50
288.4480761181333
 51
301.9309089499595
  0
ARC
  5
369
102
{ACAD_REACTORS
330
3D8
330
3D9
102
}
330
71
100
AcDbEntity
  8
0
  6
Continuous
 62
     2
100
AcDbCircle
 10
-233.7465043596018
 20
-250.0396264184427
 30
0.0
 40
0.911848150144459
100
AcDbArc
 50
295.3740086781764
 51
64.62599132180748
  0
ARC
  5
36A
102
{ACAD_REACTORS
330
3D8
330
3D9
102
}
330
71
100
AcDbEntity
  8
0
  6
Continuous
 62
     2
100
AcDbCircle
 10
-233.2204616615139
 20
-248.3249495299681
 30
0.0
 40
0.3157169230760711
100
AcDbArc
 50
90.18896704255108
 51
180.0
  0
ARC
  5
36B
102
{ACAD_REACTORS
330
3DA
330
3DB
102
}
330
71
100
AcDbEntity
  8
0
  6
Continuous
 62
     2
100
AcDbCircle
 10
-212.0103314486796
 20
-252.3954783638093
 30
0.0
 40
0.9545230068260935
100
AcDbArc
 50
90.0
 51
109.3371432194298
  0
ARC
  5
36C
102
{ACAD_REACTORS
330
3DA
330
3DB
102
}
330
71
100
AcDbEntity
  8
0
  6
Continuous
 62
     2
100
AcDbCircle
 10
-211.7796441887019
 20
-252.1825948127654
 30
0.0
 40
0.9410597353348789
100
AcDbArc
 50
151.478526742364
 51
208.5214732576695
  0
ARC
  5
36D
102
{ACAD_REACTORS
330
3DA
330
3DB
102
}
330
71
100
AcDbEntity
  8
0
  6
Continuous
 62
     2
100
AcDbCircle
 10
-212.0005614140802
 20
-252.0256742233939
 30
0.0
 40
0.9059297849852688
100
AcDbArc
 50
246.6277221118199
 51
288.4480761180817
  0
ARC
  5
36E
102
{ACAD_REACTORS
330
3DA
330
3DB
102
}
330
71
100
AcDbEntity
  8
0
  6
Continuous
 62
     2
100
AcDbCircle
 10
-212.4187291477421
 20
-250.7721284473573
 30
0.0
 40
2.227384008972773
100
AcDbArc
 50
288.4480761181333
 51
301.9309089499394
  0
ARC
  5
36F
102
{ACAD_REACTORS
330
3DA
330
3DB
102
}
330
71
100
AcDbEntity
  8
0
  6
Continuous
 62
     2
100
AcDbCircle
 10
-212.5766020228349
 20
-248.869913867509
 30
0.0
 40
4.852596863498822
100
AcDbArc
 50
275.158144769636
 51
285.9799912583381
  0
ARC
  5
370
102
{ACAD_REACTORS
330
3DA
330
3DB
102
}
330
71
100
AcDbEntity
  8
0
  6
Continuous
 62
     2
100
AcDbCircle
 10
-212.2877459280991
 20
-252.0698044507306
 30
0.0
 40
1.639695123940421
100
AcDbArc
 50
195.0618917771015
 51
275.1581447696762
  0
ARC
  5
371
102
{ACAD_REACTORS
330
3D2
330
3D3
102
}
330
71
100
AcDbEntity
  8
0
  6
Continuous
 62
     2
100
AcDbCircle
 10
-228.0159592397902
 20
-248.3518652160189
 30
0.0
 40
1.055365641333708
100
AcDbArc
 50
270.0
 51
90.0
  0
ARC
  5
372
102
{ACAD_REACTORS
330
3D8
330
3D9
102
}
330
71
100
AcDbEntity
  8
0
  6
Continuous
 62
     2
100
AcDbCircle
 10
-235.7960103480456
 20
-252.6812270960371
 30
0.0
 40
0.315716923075712
100
AcDbArc
 50
180.0
 51
270.0
  0
ARC
  5
373
102
{ACAD_REACTORS
330
3D8
330
3D9
102
}
330
71
100
AcDbEntity
  8
0
  6
Continuous
 62
     2
100
AcDbCircle
 10
-234.320177087036
 20
-248.32477205332
 30
0.0
 40
0.315716923076593
100
AcDbArc
 50
0.0
 51
90.0
  0
ARC
  5
374
102
{ACAD_REACTORS
330
3D8
330
3D9
102
}
330
71
100
AcDbEntity
  8
0
  6
Continuous
 62
     2
100
AcDbCircle
 10
-234.320177087036
 20
-248.9287966723805
 30
0.0
 40
0.3157169230761203
100
AcDbArc
 50
295.1944106485397
 51
0.0
  0
ARC
  5
375
102
{ACAD_REACTORS
330
3D8
330
3D9
102
}
330
71
100
AcDbEntity
  8
0
  6
Continuous
 62
     2
100
AcDbCircle
 10
-234.320177087036
 20
-252.6812270960371
 30
0.0
 40
0.3157169230767067
100
AcDbArc
 50
270.0
 51
0.0
  0
ARC
  5
376
102
{ACAD_REACTORS
330
3D8
330
3D9
102
}
330
71
100
AcDbEntity
  8
0
  6
Continuous
 62
     2
100
AcDbCircle
 10
-236.3899050247921
 20
-247.7207441900872
 30
0.0
 40
0.4242446153837989
100
AcDbArc
 50
90.0
 51
180.0
  0
ARC
  5
377
102
{ACAD_REACTORS
330
3D8
330
3D9
102
}
330
71
100
AcDbEntity
  8
0
  6
Continuous
 62
     2
100
AcDbCircle
 10
-230.9165929340753
 20
-247.7207441900872
 30
0.0
 40
0.4242446153839126
100
AcDbArc
 50
0.0
 51
90.0
  0
ARC
  5
378
102
{ACAD_REACTORS
330
3D8
330
3D9
102
}
330
71
100
AcDbEntity
  8
0
  6
Continuous
 62
     2
100
AcDbCircle
 10
-230.9165929340753
 20
-253.2852549592874
 30
0.0
 40
0.4242446153832873
100
AcDbArc
 50
270.0
 51
0.0
  0
ARC
  5
379
102
{ACAD_REACTORS
330
3D6
330
3D7
102
}
330
71
100
AcDbEntity
  8
0
  6
Continuous
 62
     2
100
AcDbCircle
 10
-221.6982090469838
 20
-248.8234043365911
 30
0.0
 40
0.7717997786796421
100
AcDbArc
 50
321.8795802028467
 51
38.12041979715993
  0
ARC
  5
37A
102
{ACAD_REACTORS
330
3D6
330
3D7
102
}
330
71
100
AcDbEntity
  8
0
  6
Continuous
 62
     2
100
AcDbCircle
 10
-221.4984690106376
 20
-248.9801355147115
 30
0.0
 40
0.5179085730134595
100
AcDbArc
 50
218.1204197971492
 51
321.8795802028566
  0
ARC
  5
37B
102
{ACAD_REACTORS
330
3D4
330
3D5
102
}
330
71
100
AcDbEntity
  8
0
  6
Continuous
 62
     2
100
AcDbCircle
 10
-225.1784765995978
 20
-252.1825948127654
 30
0.0
 40
1.458034083652003
100
AcDbArc
 50
297.548148175701
 51
62.45185182429896
  0
ARC
  5
37C
102
{ACAD_REACTORS
330
3D4
330
3D5
102
}
330
71
100
AcDbEntity
  8
0
  6
Continuous
 62
     2
100
AcDbCircle
 10
-225.7403563832644
 20
-252.1825948127654
 30
0.0
 40
1.45803408365149
100
AcDbArc
 50
117.5481481756624
 51
242.4518518243375
  0
ARC
  5
37D
102
{ACAD_REACTORS
330
3D4
330
3D5
102
}
330
71
100
AcDbEntity
  8
0
  6
Continuous
 62
     2
100
AcDbCircle
 10
-225.4594164914311
 20
-252.7211698230682
 30
0.0
 40
2.065479772208606
100
AcDbArc
 50
62.45185182430604
 51
117.548148175666
  0
ARC
  5
37E
102
{ACAD_REACTORS
330
3D4
330
3D5
102
}
330
71
100
AcDbEntity
  8
0
  6
Continuous
 62
     2
100
AcDbCircle
 10
-225.4594164914311
 20
-251.6440198024621
 30
0.0
 40
2.065479772208483
100
AcDbArc
 50
242.4518518243399
 51
297.5481481756881
  0
ARC
  5
37F
102
{ACAD_REACTORS
330
3D6
330
3D7
102
}
330
71
100
AcDbEntity
  8
0
  6
Continuous
 62
     2
100
AcDbCircle
 10
-221.2987289742913
 20
-248.8234043365911
 30
0.0
 40
0.7717997786797123
100
AcDbArc
 50
141.8795802028401
 51
218.1204197971533
  0
ARC
  5
380
102
{ACAD_REACTORS
330
3D6
330
3D7
102
}
330
71
100
AcDbEntity
  8
0
  6
Continuous
 62
     2
100
AcDbCircle
 10
-221.4984690106376
 20
-248.6666731584706
 30
0.0
 40
0.5179085730135266
100
AcDbArc
 50
38.12041979714334
 51
141.8795802028508
  0
ARC
  5
381
102
{ACAD_REACTORS
330
3D8
330
3D9
102
}
330
71
100
AcDbEntity
  8
0
  6
Continuous
 62
     2
100
AcDbCircle
 10
-236.3899050247921
 20
-253.2852549592874
 30
0.0
 40
0.4242446153827757
100
AcDbArc
 50
180.0
 51
270.0
  0
ARC
  5
382
102
{ACAD_REACTORS
330
3D8
330
3D9
102
}
330
71
100
AcDbEntity
  8
0
  6
Continuous
 62
     2
100
AcDbCircle
 10
-234.320177087036
 20
-251.1504561645055
 30
0.0
 40
0.315716923076593
100
AcDbArc
 50
0.0
 51
64.80558935146249
  0
ARC
  5
383
102
{ACAD_REACTORS
330
3D8
330
3D9
102
}
330
71
100
AcDbEntity
  8
0
  6
Continuous
 62
     2
100
AcDbCircle
 10
-233.797592639461
 20
-250.0396264184427
 30
0.0
 40
0.9118975235576268
100
AcDbArc
 50
115.1944106485298
 51
244.8055893514854
  0
ARC
  5
384
102
{ACAD_REACTORS
330
3D8
330
3D9
102
}
330
71
100
AcDbEntity
  8
0
  6
Continuous
 62
     2
100
AcDbCircle
 10
-235.7960103480456
 20
-248.32477205332
 30
0.0
 40
0.3157169230761951
100
AcDbArc
 50
90.0
 51
180.0
  0
ARC
  5
385
102
{ACAD_REACTORS
330
3D2
330
3D3
102
}
330
71
100
AcDbEntity
  8
0
  6
Continuous
 62
     2
100
AcDbCircle
 10
-228.4574317660286
 20
-248.3124692447964
 30
0.0
 40
0.3528638246710898
100
AcDbArc
 50
270.0
 51
90.0
  0
ARC
  5
386
102
{ACAD_REACTORS
330
3D6
330
3D7
102
}
330
71
100
AcDbEntity
  8
0
  6
Continuous
 62
     2
100
AcDbCircle
 10
-221.7147410208028
 20
-248.8234043365911
 30
0.0
 40
1.526904761905882
100
AcDbArc
 50
90.0
 51
270.0
  0
ARC
  5
387
102
{ACAD_REACTORS
330
3DA
330
3DB
102
}
330
71
100
AcDbEntity
  8
0
  6
Continuous
 62
     2
100
AcDbCircle
 10
-212.2877459280991
 20
-252.2953851748003
 30
0.0
 40
1.639695123940186
100
AcDbArc
 50
90.0
 51
164.9381082228957
  0
ARC
  5
388
102
{ACAD_REACTORS
330
3DA
330
3DB
102
}
330
71
100
AcDbEntity
  8
0
  6
Continuous
 62
     2
100
AcDbCircle
 10
-212.7068737715607
 20
-252.1825948127654
 30
0.0
 40
1.205656168392968
100
AcDbArc
 50
164.9381082229037
 51
195.0618917770975
  0
ARC
  5
389
102
{ACAD_REACTORS
330
3DA
330
3DB
102
}
330
71
100
AcDbEntity
  8
0
  6
Continuous
 62
     2
100
AcDbCircle
 10
-212.1570014467833
 20
-252.3876662421039
 30
0.0
 40
0.511580060195983
100
AcDbArc
 50
208.5214732576854
 51
246.6277221118478
  0
ARC
  5
38A
102
{ACAD_REACTORS
330
3DA
330
3DB
102
}
330
71
100
AcDbEntity
  8
0
  6
Continuous
 62
     2
100
AcDbCircle
 10
-212.1570014467833
 20
-251.9775233834264
 30
0.0
 40
0.5115800601944048
100
AcDbArc
 50
109.3371432194823
 51
151.4785267424237
  0
ARC
  5
38B
102
{ACAD_REACTORS
330
3D8
330
3D9
102
}
330
71
100
AcDbEntity
  8
0
  6
Continuous
 62
     2
100
AcDbCircle
 10
-233.2204616615139
 20
-251.7306194251062
 30
0.0
 40
0.315716923076792
100
AcDbArc
 50
180.0
 51
269.811032957449
  0
ARC
  5
38C
102
{ACAD_REACTORS
330
3D8
330
3D9
102
}
330
71
100
AcDbEntity
  8
0
  6
Continuous
 62
     2
100
AcDbCircle
 10
-233.2148455262039
 20
-250.0277844775372
 30
0.0
 40
2.018561131933351
100
AcDbArc
 50
269.8110329575858
 51
90.18896704241416
  0
ARC
  5
38D
102
{ACAD_REACTORS
330
3D8
330
3D9
102
}
330
71
100
AcDbEntity
  8
0
  6
Continuous
 62
     2
100
AcDbCircle
 10
-233.2204616615139
 20
-248.9304848184749
 30
0.0
 40
0.315716923076792
100
AcDbArc
 50
180.0
 51
244.6259913216435
  0
ARC
  5
38E
102
{ACAD_REACTORS
330
3D8
330
3D9
102
}
330
71
100
AcDbEntity
  8
0
  6
Continuous
 62
     2
100
AcDbCircle
 10
-233.2204616615139
 20
-251.1487680184112
 30
0.0
 40
0.315716923076622
100
AcDbArc
 50
115.3740086783499
 51
180.0
  0
ARC
  5
38F
102
{ACAD_REACTORS
330
3DC
330
3DD
102
}
330
71
100
AcDbEntity
  8
0
  6
Continuous
 62
     2
100
AcDbCircle
 10
-228.390447407352
 20
-252.2953851748003
 30
0.0
 40
1.639695123940509
100
AcDbArc
 50
84.84185523036136
 51
164.9381082228874
  0
ARC
  5
390
102
{ACAD_REACTORS
330
3DC
330
3DD
102
}
330
71
100
AcDbEntity
  8
0
  6
Continuous
 62
     2
100
AcDbCircle
 10
-228.8095752508148
 20
-252.1825948127654
 30
0.0
 40
1.205656168390964
100
AcDbArc
 50
164.9381082228781
 51
195.0618917770958
  0
ARC
  5
391
102
{ACAD_REACTORS
330
3DC
330
3DD
102
}
330
71
100
AcDbEntity
  8
0
  6
Continuous
 62
     2
100
AcDbCircle
 10
-228.390447407352
 20
-252.0698044507306
 30
0.0
 40
1.639695123939387
100
AcDbArc
 50
195.0618917770896
 51
275.1581447696406
  0
ARC
  5
392
102
{ACAD_REACTORS
330
3DC
330
3DD
102
}
330
71
100
AcDbEntity
  8
0
  6
Continuous
 62
     2
100
AcDbCircle
 10
-228.6793035020879
 20
-248.869913867509
 30
0.0
 40
4.852596863498138
100
AcDbArc
 50
275.1581447696249
 51
285.979991258353
  0
ARC
  5
393
102
{ACAD_REACTORS
330
3DC
330
3DD
102
}
330
71
100
AcDbEntity
  8
0
  6
Continuous
 62
     2
100
AcDbCircle
 10
-227.8823456679559
 20
-252.1825948127654
 30
0.0
 40
0.9410597353332545
100
AcDbArc
 50
151.4785267422669
 51
208.5214732577073
  0
ARC
  5
394
102
{ACAD_REACTORS
330
3DC
330
3DD
102
}
330
71
100
AcDbEntity
  8
0
  6
Continuous
 62
     2
100
AcDbCircle
 10
-228.2597029260362
 20
-251.9775233834264
 30
0.0
 40
0.511580060194863
100
AcDbArc
 50
113.3722778882033
 51
151.4785267423044
  0
ARC
  5
395
102
{ACAD_REACTORS
330
3DC
330
3DD
102
}
330
71
100
AcDbEntity
  8
0
  6
Continuous
 62
     2
100
AcDbCircle
 10
-228.521430626995
 20
-253.5930611781736
 30
0.0
 40
2.227384008973492
100
AcDbArc
 50
58.0690910500401
 51
71.55192388186676
  0
ARC
  5
396
102
{ACAD_REACTORS
330
3D4
330
3D5
102
}
330
71
100
AcDbEntity
  8
0
  6
Continuous
 62
     2
100
AcDbCircle
 10
-225.4594164914311
 20
-252.0258636346449
 30
0.0
 40
0.5179085730133174
100
AcDbArc
 50
38.1204197971495
 51
141.8795802028563
  0
ARC
  5
397
102
{ACAD_REACTORS
330
3D4
330
3D5
102
}
330
71
100
AcDbEntity
  8
0
  6
Continuous
 62
     2
100
AcDbCircle
 10
-225.259676455085
 20
-252.1825948127654
 30
0.0
 40
0.7717997786794633
100
AcDbArc
 50
141.8795802028363
 51
218.1204197971703
  0
ARC
  5
398
102
{ACAD_REACTORS
330
3D4
330
3D5
102
}
330
71
100
AcDbEntity
  8
0
  6
Continuous
 62
     2
100
AcDbCircle
 10
-225.4594164914311
 20
-252.3393259908854
 30
0.0
 40
0.5179085730137354
100
AcDbArc
 50
218.1204197971931
 51
321.879580202801
  0
ARC
  5
399
102
{ACAD_REACTORS
330
3D4
330
3D5
102
}
330
71
100
AcDbEntity
  8
0
  6
Continuous
 62
     2
100
AcDbCircle
 10
-225.6591565277775
 20
-252.1825948127654
 30
0.0
 40
0.77179977867969
100
AcDbArc
 50
321.8795802028388
 51
38.12041979715458
  0
CIRCLE
  5
39A
330
71
100
AcDbEntity
  8
1
  6
Continuous
 62
     2
100
AcDbCircle
 10
-228.3141496401749
 20
-239.8779995746871
 30
0.0
 40
2.5
  0
CIRCLE
  5
39B
330
71
100
AcDbEntity
  8
1
  6
Continuous
 62
     2
100
AcDbCircle
 10
-228.3141496401749
 20
-239.8779995746871
 30
0.0
 40
1.249999999999886
  0
CIRCLE
  5
39C
102
{ACAD_REACTORS
330
3D8
330
3D9
102
}
330
71
100
AcDbEntity
  8
0
  6
Continuous
 62
     2
100
AcDbCircle
 10
-233.7703193742746
 20
-250.0396264184427
 30
0.0
 40
0.4709789327785074
  0
MTEXT
  5
39D
330
71
100
AcDbEntity
  8
1
 62
     3
100
AcDbMText
 10
-398.5009322139157
 20
-74.21169141938822
 30
0.0
 40
1.8
 41
0.0
 71
     7
 72
     1
  3
Weitergabe sowie Vervielf\U+00e4ltigung dieses Dokuments, Verwertung und \PMitteilung seines Inhalts sind verboten, soweit nicht ausdr\U+00fccklich gestattet. \PZuwiderhandlungen verpflichten zu Schadenersatz. Alle Rechte f\U+00fcr den Fall\Pder Pat
  1
ent-, Gebrauchsmuster- oder Designeintragung vorbehalten.
  7
CONVERTER_11
 73
     1
 44
0.99639855942377
  0
MTEXT
  5
39E
330
71
100
AcDbEntity
  8
1
 62
     3
100
AcDbMText
 10
-215.6478223751276
 20
-74.21169141938822
 30
0.0
 40
1.8
 41
0.0
 71
     7
 72
     1
  3
Transfer or duplication of this document as well as the utilisation or\Pcommunication of its content are not permitted unless express consent\Pis granted. Violations give rise to claims for damages. All rights reserved\Pin case of patent, utility mo
  1
del or design patent registrations.
  7
CONVERTER_11
 73
     1
 44
0.99639855942377
  0
TEXT
  5
39F
330
71
100
AcDbEntity
  8
1
 62
     2
100
AcDbText
 10
-221.8508045267377
 20
-259.7620167896786
 30
0.0
 40
1.8
  1
of
 41
0.9
  7
CONVERTER_11
100
AcDbText
  0
TEXT
  5
3A0
330
71
100
AcDbEntity
  8
1
 62
     2
100
AcDbText
 10
-240.0508045267375
 20
-259.7620167896787
 30
0.0
 40
1.8
  1
page
 41
0.9
  7
CONVERTER_11
100
AcDbText
  0
TEXT
  5
3A1
330
71
100
AcDbEntity
  8
1
 62
     2
100
AcDbText
 10
-231.4045395563955
 20
-259.802248228489
 30
0.0
 40
1.8
  1
1
 41
0.9
  7
CONVERTER_11
100
AcDbText
  0
TEXT
  5
3A2
330
71
100
AcDbEntity
  8
1
 62
     2
100
AcDbText
 10
-216.615495716924
 20
-259.7529995746871
 30
0.0
 40
1.8
  1
1
 41
0.9
  7
CONVERTER_11
100
AcDbText
  0
MTEXT
  5
3A4
330
71
100
AcDbEntity
  8
1
 62
     7
100
AcDbMText
 10
-158.078402263362
 20
-257.7529995746868
 30
0.0
 40
3.0
 41
0.0
 71
     5
 72
     1
  1
G-INS-M20-M68L-PEPDS-LG
  7
CONVERTER_12
 73
     1
 44
1.20048019207683
  0
MTEXT
  5
3A5
330
71
100
AcDbEntity
  8
1
 62
     2
100
AcDbMText
 10
-203.6508045267376
 20
-253.502999574687
 30
0.0
 40
1.8
 41
0.0
 71
     1
 72
     1
  1
description
  7
CONVERTER_11
 73
     1
 44
1.20048019207683
  0
MTEXT
  5
3A6
330
71
100
AcDbEntity
  8
1
 62
     3
100
AcDbMText
 10
-214.8508045267376
 20
-239.877999574687
 30
0.0
 40
2.5
 41
0.0
 71
     5
 72
     1
  1
DIN A4
  7
CONVERTER_11
 73
     1
 44
1.20048019207683
  0
MTEXT
  5
3A7
330
71
100
AcDbEntity
  8
1
 62
     7
100
AcDbMText
 10
-401.0059999999866
 20
-238.502999574687
 30
0.0
 40
3.5
 41
0.0
 71
     5
 72
     1
  1
D
  7
CONVERTER_11
 73
     1
 44
1.20048019207683
  0
MTEXT
  5
3A8
330
71
100
AcDbEntity
  8
1
 62
     7
100
AcDbMText
 10
-401.0059999999866
 20
-186.002999574687
 30
0.0
 40
3.5
 41
0.0
 71
     5
 72
     1
  1
C
  7
CONVERTER_11
 73
     1
 44
1.20048019207683
  0
MTEXT
  5
3A9
330
71
100
AcDbEntity
  8
1
 62
     7
100
AcDbMText
 10
-401.0059999999866
 20
-136.002999574687
 30
0.0
 40
3.5
 41
0.0
 71
     5
 72
     1
  1
B
  7
CONVERTER_11
 73
     1
 44
1.20048019207683
  0
MTEXT
  5
3AA
330
71
100
AcDbEntity
  8
1
 62
     7
100
AcDbMText
 10
-401.0059999999866
 20
-83.50299957468701
 30
0.0
 40
3.5
 41
0.0
 71
     5
 72
     1
  1
A
  7
CONVERTER_11
 73
     1
 44
1.20048019207683
  0
MTEXT
  5
3AB
330
71
100
AcDbEntity
  8
1
 62
     7
100
AcDbMText
 10
-130.7559999999883
 20
-263.5029995746871
 30
0.0
 40
3.5
 41
0.0
 71
     5
 72
     1
  1
6
  7
CONVERTER_11
 73
     1
 44
1.20048019207683
  0
MTEXT
  5
3AC
330
71
100
AcDbEntity
  8
1
 62
     7
100
AcDbMText
 10
-180.0059999999875
 20
-263.5029995746871
 30
0.0
 40
3.5
 41
0.0
 71
     5
 72
     1
  1
5
  7
CONVERTER_11
 73
     1
 44
1.20048019207683
  0
MTEXT
  5
3AD
330
71
100
AcDbEntity
  8
1
 62
     7
100
AcDbMText
 10
-230.0059999999876
 20
-263.5029995746871
 30
0.0
 40
3.5
 41
0.0
 71
     5
 72
     1
  1
4
  7
CONVERTER_11
 73
     1
 44
1.20048019207683
  0
MTEXT
  5
3AE
330
71
100
AcDbEntity
  8
1
 62
     7
100
AcDbMText
 10
-280.0059999999875
 20
-263.5029995746871
 30
0.0
 40
3.5
 41
0.0
 71
     5
 72
     1
  1
3
  7
CONVERTER_11
 73
     1
 44
1.20048019207683
  0
MTEXT
  5
3AF
330
71
100
AcDbEntity
  8
1
 62
     7
100
AcDbMText
 10
-330.0059999999875
 20
-263.5029995746871
 30
0.0
 40
3.5
 41
0.0
 71
     5
 72
     1
  1
2
  7
CONVERTER_11
 73
     1
 44
1.20048019207683
  0
MTEXT
  5
3B0
330
71
100
AcDbEntity
  8
1
 62
     7
100
AcDbMText
 10
-379.2559999999871
 20
-263.5029995746871
 30
0.0
 40
3.5
 41
0.0
 71
     5
 72
     1
  1
1
  7
CONVERTER_11
 73
     1
 44
1.20048019207683
  0
MTEXT
  5
3B1
330
71
100
AcDbEntity
  8
1
 62
     7
100
AcDbMText
 10
-109.0059999999885
 20
-238.502999574687
 30
0.0
 40
3.5
 41
0.0
 71
     5
 72
     1
  1
D
  7
CONVERTER_11
 73
     1
 44
1.20048019207683
  0
MTEXT
  5
3B2
330
71
100
AcDbEntity
  8
1
 62
     7
100
AcDbMText
 10
-109.0059999999885
 20
-136.0029995746851
 30
0.0
 40
3.5
 41
0.0
 71
     5
 72
     1
  1
B
  7
CONVERTER_11
 73
     1
 44
1.20048019207683
  0
MTEXT
  5
3B3
330
71
100
AcDbEntity
  8
1
 62
     7
100
AcDbMText
 10
-109.0059999999885
 20
-83.50299957468701
 30
0.0
 40
3.5
 41
0.0
 71
     5
 72
     1
  1
A
  7
CONVERTER_11
 73
     1
 44
1.20048019207683
  0
MTEXT
  5
3B4
330
71
100
AcDbEntity
  8
1
 62
     7
100
AcDbMText
 10
-109.0059999999885
 20
-186.0029995746851
 30
0.0
 40
3.5
 41
0.0
 71
     5
 72
     1
  1
C
  7
CONVERTER_11
 73
     1
 44
1.20048019207683
  0
MTEXT
  5
3B5
330
71
100
AcDbEntity
  8
1
 62
     2
100
AcDbMText
 10
-275.488819251785
 20
-248.2529995746871
 30
0.0
 40
2.0
 41
0.0
 71
     5
 72
     1
  1
General Information\P- Simplified representation\P- Document excluded from change process\P- Linear dimensions [mm]
  7
CONVERTER_11
 73
     1
 44
1.20048019207683
  0
TEXT
  5
3B6
330
71
100
AcDbEntity
  8
1
 62
     7
100
AcDbText
 10
-203.1508045267378
 20
-251.2029995746871
 30
0.0
 40
2.5
  1
1424515
 41
0.81
  7
CONVERTER_12
100
AcDbText
  0
MTEXT
  5
3B7
330
71
100
AcDbEntity
  8
1
 62
     2
100
AcDbMText
 10
-203.5508045267375
 20
-245.002999574687
 30
0.0
 40
1.8
 41
0.0
 71
     1
 72
     1
  1
ident.-No.
  7
CONVERTER_11
 73
     1
 44
1.20048019207683
  0
MTEXT
  5
3B8
330
71
100
AcDbEntity
  8
1
 62
     2
100
AcDbMText
 10
-119.3244082816648
 20
-236.502999574687
 30
0.0
 40
1.8
 41
0.0
 71
     1
 72
     1
  1
scale
  7
CONVERTER_11
 73
     1
 44
1.20048019207683
  0
MTEXT
  5
3BA
330
71
100
AcDbEntity
  8
1
 62
     3
100
AcDbMText
 10
-115.9652041408252
 20
-242.7029995746869
 30
0.0
 40
2.5
 41
0.0
 71
     8
 72
     1
  1
1:1
  7
CONVERTER_13
 73
     1
 44
1.32052821128451
  0
TEXT
  5
3BB
330
71
100
AcDbEntity
  8
1
 62
     7
100
AcDbText
 10
-203.5508045267375
 20
-242.7029995746871
 30
0.0
 40
2.5
  1
01143866
 41
0.81
  7
CONVERTER_12
100
AcDbText
  0
MTEXT
  5
3BD
330
71
100
AcDbEntity
  8
1
 62
     2
100
AcDbMText
 10
-203.5508045267375
 20
-236.502999574687
 30
0.0
 40
1.8
 41
0.0
 71
     1
 72
     1
  1
document-No. / RI
  7
CONVERTER_14
 73
     1
 44
1.32052821128451
  0
TEXT
  5
3BE
330
71
100
AcDbEntity
  8
1
 62
     3
100
AcDbText
 10
-175.7508045267375
 20
-251.2029995746871
 30
0.0
 40
2.5
  1
TECDOC 2D_Productdrawing
 41
0.81
  7
CONVERTER_12
100
AcDbText
  0
MTEXT
  5
3BF
330
71
100
AcDbEntity
  8
1
 62
     2
100
AcDbMText
 10
-175.7508045267375
 20
-245.0029995746871
 30
0.0
 40
1.8
 41
0.0
 71
     1
 72
     1
  1
document-type
  7
CONVERTER_11
 73
     1
 44
1.20048019207683
  0
MTEXT
  5
3C0
330
71
100
AcDbEntity
  8
1
 62
     2
100
AcDbMText
 10
-145.9244082816646
 20
-236.5029995746871
 30
0.0
 40
1.8
 41
0.0
 71
     1
 72
     1
  1
date
  7
CONVERTER_11
 73
     1
 44
1.32052821128451
  0
TEXT
  5
3C1
330
71
100
AcDbEntity
  8
1
 62
     3
100
AcDbText
 10
-145.9244082816646
 20
-242.7029995746871
 30
0.0
 40
2.5
  1
24.05.2018
 41
0.81
  7
CONVERTER_12
100
AcDbText
  0
TEXT
  5
3C2
330
71
100
AcDbEntity
  8
1
 62
     7
100
AcDbText
 10
-183.5208923076817
 20
-242.7029995746871
 30
0.0
 40
2.5
  1
00
 41
0.81
  7
CONVERTER_12
100
AcDbText
  0
TEXT
  5
3C3
330
71
100
AcDbEntity
  8
1
 62
     7
100
AcDbText
 10
-185.6772568047237
 20
-242.7029995746871
 30
0.0
 40
2.5
  1
/
 41
0.9
  7
CONVERTER_11
100
AcDbText
  0
HATCH
  5
3C4
330
71
100
AcDbEntity
  8
1
  6
Continuous
 62
     2
100
AcDbHatch
 10
0.0
 20
0.0
 30
0.0
210
0.0
220
0.0
230
1.0
  2
_USER
 70
     0
 71
     1
 91
        1
 92
        1
 93
       12
 72
     1
 10
-223.3833038137764
 20
-250.3503090984964
 11
-224.5760965159428
 21
-250.3503090984964
 72
     1
 10
-224.5760965159428
 20
-250.3503090984964
 11
-224.5760965159428
 21
-249.2160369896526
 72
     1
 10
-224.5760965159428
 20
-249.2160369896526
 11
-225.6257540938503
 21
-249.2160369896526
 72
     1
 10
-225.6257540938503
 20
-249.2160369896526
 11
-225.6257540938503
 21
-250.3503090984964
 72
     1
 10
-225.6257540938503
 20
-250.3503090984964
 11
-226.8185467960169
 21
-250.3503090984964
 72
     1
 10
-226.8185467960169
 20
-250.3503090984964
 11
-226.8185467960169
 21
-247.2964995746852
 72
     1
 10
-226.8185467960169
 20
-247.2964995746852
 11
-225.6257540938503
 21
-247.2964995746852
 72
     1
 10
-225.6257540938503
 20
-247.2964995746852
 11
-225.6257540938503
 21
-248.3653329080198
 72
     1
 10
-225.6257540938503
 20
-248.3653329080198
 11
-224.5760965159428
 21
-248.3653329080198
 72
     1
 10
-224.5760965159428
 20
-248.3653329080198
 11
-224.5760965159428
 21
-247.2964995746852
 72
     1
 10
-224.5760965159428
 20
-247.2964995746852
 11
-223.3833038137764
 21
-247.2964995746852
 72
     1
 10
-223.3833038137764
 20
-247.2964995746852
 11
-223.3833038137764
 21
-250.3503090984964
 97
       12
330
331
330
332
330
31C
330
31B
330
31A
330
32E
330
319
330
32F
330
330
330
318
330
317
330
316
 75
     1
 76
     0
 52
45.0
 41
0.1
 77
     0
 78
     1
 53
45.0
 43
0.0
 44
0.0
 45
-0.0707106781186548
 46
0.0707106781186548
 79
     0
 98
        1
 10
0.0
 20
0.0
  0
HATCH
  5
3C5
330
71
100
AcDbEntity
  8
1
  6
Continuous
 62
     2
100
AcDbHatch
 10
0.0
 20
0.0
 30
0.0
210
0.0
220
0.0
230
1.0
  2
_USER
 70
     0
 71
     1
 91
        1
 92
        1
 93
       12
 72
     1
 10
-223.3833038137764
 20
-250.3503090984964
 11
-224.5760965159428
 21
-250.3503090984964
 72
     1
 10
-224.5760965159428
 20
-250.3503090984964
 11
-224.5760965159428
 21
-249.2160369896526
 72
     1
 10
-224.5760965159428
 20
-249.2160369896526
 11
-225.6257540938503
 21
-249.2160369896526
 72
     1
 10
-225.6257540938503
 20
-249.2160369896526
 11
-225.6257540938503
 21
-250.3503090984964
 72
     1
 10
-225.6257540938503
 20
-250.3503090984964
 11
-226.8185467960169
 21
-250.3503090984964
 72
     1
 10
-226.8185467960169
 20
-250.3503090984964
 11
-226.8185467960169
 21
-247.2964995746852
 72
     1
 10
-226.8185467960169
 20
-247.2964995746852
 11
-225.6257540938503
 21
-247.2964995746852
 72
     1
 10
-225.6257540938503
 20
-247.2964995746852
 11
-225.6257540938503
 21
-248.3653329080198
 72
     1
 10
-225.6257540938503
 20
-248.3653329080198
 11
-224.5760965159428
 21
-248.3653329080198
 72
     1
 10
-224.5760965159428
 20
-248.3653329080198
 11
-224.5760965159428
 21
-247.2964995746852
 72
     1
 10
-224.5760965159428
 20
-247.2964995746852
 11
-223.3833038137764
 21
-247.2964995746852
 72
     1
 10
-223.3833038137764
 20
-247.2964995746852
 11
-223.3833038137764
 21
-250.3503090984964
 97
       12
330
331
330
332
330
31C
330
31B
330
31A
330
32E
330
319
330
32F
330
330
330
318
330
317
330
316
 75
     1
 76
     0
 52
45.0
 41
0.1
 77
     0
 78
     1
 53
45.0
 43
0.0
 44
0.0
 45
-0.0707106781186548
 46
0.0707106781186548
 79
     0
 98
        1
 10
0.0
 20
0.0
  0
HATCH
  5
3C6
330
71
100
AcDbEntity
  8
1
  6
Continuous
 62
     2
100
AcDbHatch
 10
0.0
 20
0.0
 30
0.0
210
0.0
220
0.0
230
1.0
  2
_USER
 70
     0
 71
     1
 91
        1
 92
        1
 93
       10
 72
     1
 10
-221.1410044645881
 20
-251.9644655610647
 11
-222.381508874841
 21
-250.6556900508596
 72
     1
 10
-222.381508874841
 20
-250.6556900508596
 11
-223.5743015770086
 21
-250.6556900508596
 72
     1
 10
-223.5743015770086
 20
-250.6556900508596
 11
-223.5743015770086
 21
-253.7094995746707
 72
     1
 10
-223.5743015770086
 20
-253.7094995746707
 11
-222.381508874841
 21
-253.7094995746707
 72
     1
 10
-222.381508874841
 20
-253.7094995746707
 11
-222.381508874841
 21
-252.4007240644661
 72
     1
 10
-222.381508874841
 20
-252.4007240644661
 11
-221.1410044645881
 21
-253.7094995746707
 72
     1
 10
-221.1410044645881
 20
-253.7094995746707
 11
-219.9482117624217
 21
-253.7094995746707
 72
     1
 10
-219.9482117624217
 20
-253.7094995746707
 11
-219.9482117624217
 21
-250.6556900508596
 72
     1
 10
-219.9482117624217
 20
-250.6556900508596
 11
-221.1410044645881
 21
-250.6556900508596
 72
     1
 10
-221.1410044645881
 20
-250.6556900508596
 11
-221.1410044645881
 21
-251.9644655610647
 97
       10
330
33F
330
30F
330
30E
330
311
330
33A
330
33B
330
310
330
33C
330
33D
330
33E
 75
     1
 76
     0
 52
45.0
 41
0.1
 77
     0
 78
     1
 53
45.0
 43
0.0
 44
0.0
 45
-0.0707106781186548
 46
0.0707106781186548
 79
     0
 98
        1
 10
0.0
 20
0.0
  0
HATCH
  5
3C7
330
71
100
AcDbEntity
  8
1
  6
Continuous
 62
     2
100
AcDbHatch
 10
0.0
 20
0.0
 30
0.0
210
0.0
220
0.0
230
1.0
  2
_USER
 70
     0
 71
     1
 91
        1
 92
        1
 93
       10
 72
     1
 10
-221.1410044645881
 20
-251.9644655610647
 11
-222.381508874841
 21
-250.6556900508596
 72
     1
 10
-222.381508874841
 20
-250.6556900508596
 11
-223.5743015770086
 21
-250.6556900508596
 72
     1
 10
-223.5743015770086
 20
-250.6556900508596
 11
-223.5743015770086
 21
-253.7094995746707
 72
     1
 10
-223.5743015770086
 20
-253.7094995746707
 11
-222.381508874841
 21
-253.7094995746707
 72
     1
 10
-222.381508874841
 20
-253.7094995746707
 11
-222.381508874841
 21
-252.4007240644661
 72
     1
 10
-222.381508874841
 20
-252.4007240644661
 11
-221.1410044645881
 21
-253.7094995746707
 72
     1
 10
-221.1410044645881
 20
-253.7094995746707
 11
-219.9482117624217
 21
-253.7094995746707
 72
     1
 10
-219.9482117624217
 20
-253.7094995746707
 11
-219.9482117624217
 21
-250.6556900508596
 72
     1
 10
-219.9482117624217
 20
-250.6556900508596
 11
-221.1410044645881
 21
-250.6556900508596
 72
     1
 10
-221.1410044645881
 20
-250.6556900508596
 11
-221.1410044645881
 21
-251.9644655610647
 97
       10
330
33F
330
30F
330
30E
330
311
330
33A
330
33B
330
310
330
33C
330
33D
330
33E
 75
     1
 76
     0
 52
45.0
 41
0.1
 77
     0
 78
     1
 53
45.0
 43
0.0
 44
0.0
 45
-0.0707106781186548
 46
0.0707106781186548
 79
     0
 98
        1
 10
0.0
 20
0.0
  0
HATCH
  5
3C8
330
71
100
AcDbEntity
  8
1
  6
Continuous
 62
     2
100
AcDbHatch
 10
0.0
 20
0.0
 30
0.0
210
0.0
220
0.0
230
1.0
  2
_USER
 70
     0
 71
     1
 91
        1
 92
        1
 93
       10
 72
     1
 10
-215.8925656441684
 20
-248.6052750848904
 11
-217.1330700544224
 21
-247.2964995746852
 72
     1
 10
-217.1330700544224
 20
-247.2964995746852
 11
-218.3258627565889
 21
-247.2964995746852
 72
     1
 10
-218.3258627565889
 20
-247.2964995746852
 11
-218.3258627565889
 21
-250.3503090984964
 72
     1
 10
-218.3258627565889
 20
-250.3503090984964
 11
-217.1330700544224
 21
-250.3503090984964
 72
     1
 10
-217.1330700544224
 20
-250.3503090984964
 11
-217.1330700544224
 21
-249.0415335882917
 72
     1
 10
-217.1330700544224
 20
-249.0415335882917
 11
-215.8925656441684
 21
-250.3503090984964
 72
     1
 10
-215.8925656441684
 20
-250.3503090984964
 11
-214.6997729420018
 21
-250.3503090984964
 72
     1
 10
-214.6997729420018
 20
-250.3503090984964
 11
-214.6997729420018
 21
-247.2964995746852
 72
     1
 10
-214.6997729420018
 20
-247.2964995746852
 11
-215.8925656441684
 21
-247.2964995746852
 72
     1
 10
-215.8925656441684
 20
-247.2964995746852
 11
-215.8925656441684
 21
-248.6052750848904
 97
       10
330
344
330
30C
330
30B
330
345
330
30A
330
340
330
341
330
342
330
343
330
30D
 75
     1
 76
     0
 52
45.0
 41
0.1
 77
     0
 78
     1
 53
45.0
 43
0.0
 44
0.0
 45
-0.0707106781186548
 46
0.0707106781186548
 79
     0
 98
        1
 10
0.0
 20
0.0
  0
HATCH
  5
3C9
330
71
100
AcDbEntity
  8
1
  6
Continuous
 62
     2
100
AcDbHatch
 10
0.0
 20
0.0
 30
0.0
210
0.0
220
0.0
230
1.0
  2
_USER
 70
     0
 71
     1
 91
        1
 92
        1
 93
       10
 72
     1
 10
-215.8925656441684
 20
-248.6052750848904
 11
-217.1330700544224
 21
-247.2964995746852
 72
     1
 10
-217.1330700544224
 20
-247.2964995746852
 11
-218.3258627565889
 21
-247.2964995746852
 72
     1
 10
-218.3258627565889
 20
-247.2964995746852
 11
-218.3258627565889
 21
-250.3503090984964
 72
     1
 10
-218.3258627565889
 20
-250.3503090984964
 11
-217.1330700544224
 21
-250.3503090984964
 72
     1
 10
-217.1330700544224
 20
-250.3503090984964
 11
-217.1330700544224
 21
-249.0415335882917
 72
     1
 10
-217.1330700544224
 20
-249.0415335882917
 11
-215.8925656441684
 21
-250.3503090984964
 72
     1
 10
-215.8925656441684
 20
-250.3503090984964
 11
-214.6997729420018
 21
-250.3503090984964
 72
     1
 10
-214.6997729420018
 20
-250.3503090984964
 11
-214.6997729420018
 21
-247.2964995746852
 72
     1
 10
-214.6997729420018
 20
-247.2964995746852
 11
-215.8925656441684
 21
-247.2964995746852
 72
     1
 10
-215.8925656441684
 20
-247.2964995746852
 11
-215.8925656441684
 21
-248.6052750848904
 97
       10
330
344
330
30C
330
30B
330
345
330
30A
330
340
330
341
330
342
330
343
330
30D
 75
     1
 76
     0
 52
45.0
 41
0.1
 77
     0
 78
     1
 53
45.0
 43
0.0
 44
0.0
 45
-0.0707106781186548
 46
0.0707106781186548
 79
     0
 98
        1
 10
0.0
 20
0.0
  0
HATCH
  5
3CA
330
71
100
AcDbEntity
  8
1
  6
Continuous
 62
     2
100
AcDbHatch
 10
0.0
 20
0.0
 30
0.0
210
0.0
220
0.0
230
1.0
  2
_USER
 70
     0
 71
     1
 91
        1
 92
        1
 93
        8
 72
     1
 10
-216.9900858610479
 20
-250.6556900508596
 11
-219.8050766381615
 21
-250.6556900508596
 72
     1
 10
-219.8050766381615
 20
-250.6556900508596
 11
-219.8050766381615
 21
-251.4409553569832
 72
     1
 10
-219.8050766381615
 20
-251.4409553569832
 11
-218.9939776006869
 21
-251.4409553569832
 72
     1
 10
-218.9939776006869
 20
-251.4409553569832
 11
-218.9939776006869
 21
-253.7094995746707
 72
     1
 10
-218.9939776006869
 20
-253.7094995746707
 11
-217.8011848985204
 21
-253.7094995746707
 72
     1
 10
-217.8011848985204
 20
-253.7094995746707
 11
-217.8011848985204
 21
-251.4409553569832
 72
     1
 10
-217.8011848985204
 20
-251.4409553569832
 11
-216.9900858610479
 21
-251.4409553569832
 72
     1
 10
-216.9900858610479
 20
-251.4409553569832
 11
-216.9900858610479
 21
-250.6556900508596
 97
        8
330
306
330
346
330
305
330
347
330
348
330
309
330
308
330
307
 75
     1
 76
     0
 52
45.0
 41
0.1
 77
     0
 78
     1
 53
45.0
 43
0.0
 44
0.0
 45
-0.0707106781186548
 46
0.0707106781186548
 79
     0
 98
        1
 10
0.0
 20
0.0
  0
HATCH
  5
3CB
330
71
100
AcDbEntity
  8
1
  6
Continuous
 62
     2
100
AcDbHatch
 10
0.0
 20
0.0
 30
0.0
210
0.0
220
0.0
230
1.0
  2
_USER
 70
     0
 71
     1
 91
        1
 92
        1
 93
        8
 72
     1
 10
-216.9900858610479
 20
-250.6556900508596
 11
-219.8050766381615
 21
-250.6556900508596
 72
     1
 10
-219.8050766381615
 20
-250.6556900508596
 11
-219.8050766381615
 21
-251.4409553569832
 72
     1
 10
-219.8050766381615
 20
-251.4409553569832
 11
-218.9939776006869
 21
-251.4409553569832
 72
     1
 10
-218.9939776006869
 20
-251.4409553569832
 11
-218.9939776006869
 21
-253.7094995746707
 72
     1
 10
-218.9939776006869
 20
-253.7094995746707
 11
-217.8011848985204
 21
-253.7094995746707
 72
     1
 10
-217.8011848985204
 20
-253.7094995746707
 11
-217.8011848985204
 21
-251.4409553569832
 72
     1
 10
-217.8011848985204
 20
-251.4409553569832
 11
-216.9900858610479
 21
-251.4409553569832
 72
     1
 10
-216.9900858610479
 20
-251.4409553569832
 11
-216.9900858610479
 21
-250.6556900508596
 97
        8
330
306
330
346
330
305
330
347
330
348
330
309
330
308
330
307
 75
     1
 76
     0
 52
45.0
 41
0.1
 77
     0
 78
     1
 53
45.0
 43
0.0
 44
0.0
 45
-0.0707106781186548
 46
0.0707106781186548
 79
     0
 98
        1
 10
0.0
 20
0.0
  0
HATCH
  5
3CC
330
71
100
AcDbEntity
  8
1
  6
Continuous
 62
     2
100
AcDbHatch
 10
0.0
 20
0.0
 30
0.0
210
0.0
220
0.0
230
1.0
  2
_USER
 70
     0
 71
     1
 91
        2
 92
        1
 93
        8
 72
     1
 10
-214.8516584051009
 20
-253.7094995746707
 11
-215.0631384585767
 21
-253.1685390304529
 72
     1
 10
-215.0631384585767
 20
-253.1685390304529
 11
-216.1955800352505
 21
-253.1685390304529
 72
     1
 10
-216.1955800352505
 20
-253.1685390304529
 11
-216.4070600887263
 21
-253.7094995746707
 72
     1
 10
-216.4070600887263
 20
-253.7094995746707
 11
-217.6475644989793
 21
-253.7094995746707
 72
     1
 10
-217.6475644989793
 20
-253.7094995746707
 11
-216.24961145204
 21
-250.6556900508596
 72
     1
 10
-216.24961145204
 20
-250.6556900508596
 11
-215.0091070417873
 21
-250.6556900508596
 72
     1
 10
-215.0091070417873
 20
-250.6556900508596
 11
-213.611153994847
 21
-253.7094995746707
 72
     1
 10
-213.611153994847
 20
-253.7094995746707
 11
-214.8516584051009
 21
-253.7094995746707
 97
        8
330
34A
330
34B
330
302
330
34C
330
301
330
304
330
349
330
303
 92
       16
 93
        3
 72
     1
 10
-215.9295244841055
 20
-252.4879757651462
 11
-215.6293592469131
 21
-251.7201607991595
 72
     1
 10
-215.6293592469131
 20
-251.7201607991595
 11
-215.329194009723
 21
-252.4879757651462
 72
     1
 10
-215.329194009723
 20
-252.4879757651462
 11
-215.9295244841055
 21
-252.4879757651462
 97
        3
330
300
330
34E
330
34D
 75
     1
 76
     0
 52
45.0
 41
0.1
 77
     0
 78
     1
 53
45.0
 43
0.0
 44
0.0
 45
-0.0707106781186548
 46
0.0707106781186548
 79
     0
 98
        1
 10
0.0
 20
0.0
  0
HATCH
  5
3CD
330
71
100
AcDbEntity
  8
1
  6
Continuous
 62
     2
100
AcDbHatch
 10
0.0
 20
0.0
 30
0.0
210
0.0
220
0.0
230
1.0
  2
_USER
 70
     0
 71
     1
 91
        2
 92
        1
 93
        8
 72
     1
 10
-214.8516584051009
 20
-253.7094995746707
 11
-215.0631384585767
 21
-253.1685390304529
 72
     1
 10
-215.0631384585767
 20
-253.1685390304529
 11
-216.1955800352505
 21
-253.1685390304529
 72
     1
 10
-216.1955800352505
 20
-253.1685390304529
 11
-216.4070600887263
 21
-253.7094995746707
 72
     1
 10
-216.4070600887263
 20
-253.7094995746707
 11
-217.6475644989793
 21
-253.7094995746707
 72
     1
 10
-217.6475644989793
 20
-253.7094995746707
 11
-216.24961145204
 21
-250.6556900508596
 72
     1
 10
-216.24961145204
 20
-250.6556900508596
 11
-215.0091070417873
 21
-250.6556900508596
 72
     1
 10
-215.0091070417873
 20
-250.6556900508596
 11
-213.611153994847
 21
-253.7094995746707
 72
     1
 10
-213.611153994847
 20
-253.7094995746707
 11
-214.8516584051009
 21
-253.7094995746707
 97
        8
330
34A
330
34B
330
302
330
34C
330
301
330
304
330
349
330
303
 92
       16
 93
        3
 72
     1
 10
-215.9295244841055
 20
-252.4879757651462
 11
-215.6293592469131
 21
-251.7201607991595
 72
     1
 10
-215.6293592469131
 20
-251.7201607991595
 11
-215.329194009723
 21
-252.4879757651462
 72
     1
 10
-215.329194009723
 20
-252.4879757651462
 11
-215.9295244841055
 21
-252.4879757651462
 97
        3
330
300
330
34E
330
34D
 75
     1
 76
     0
 52
45.0
 41
0.1
 77
     0
 78
     1
 53
45.0
 43
0.0
 44
0.0
 45
-0.0707106781186548
 46
0.0707106781186548
 79
     0
 98
        1
 10
0.0
 20
0.0
  0
HATCH
  5
3CE
330
71
100
AcDbEntity
  8
1
  6
Continuous
 62
     2
100
AcDbHatch
 10
0.0
 20
0.0
 30
0.0
210
0.0
220
0.0
230
1.0
  2
_USER
 70
     0
 71
     1
 91
        1
 92
        1
 93
        4
 72
     1
 10
-213.220709991315
 20
-250.3503090984964
 11
-214.4612144015679
 21
-250.3503090984964
 72
     1
 10
-214.4612144015679
 20
-250.3503090984964
 11
-214.4612144015679
 21
-247.2964995746852
 72
     1
 10
-214.4612144015679
 20
-247.2964995746852
 11
-213.220709991315
 21
-247.2964995746852
 72
     1
 10
-213.220709991315
 20
-247.2964995746852
 11
-213.220709991315
 21
-250.3503090984964
 97
        4
330
2FD
330
2FF
330
34F
330
2FE
 75
     1
 76
     0
 52
45.0
 41
0.1
 77
     0
 78
     1
 53
45.0
 43
0.0
 44
0.0
 45
-0.0707106781186548
 46
0.0707106781186548
 79
     0
 98
        1
 10
0.0
 20
0.0
  0
HATCH
  5
3CF
330
71
100
AcDbEntity
  8
1
  6
Continuous
 62
     2
100
AcDbHatch
 10
0.0
 20
0.0
 30
0.0
210
0.0
220
0.0
230
1.0
  2
_USER
 70
     0
 71
     1
 91
        1
 92
        1
 93
        4
 72
     1
 10
-213.220709991315
 20
-250.3503090984964
 11
-214.4612144015679
 21
-250.3503090984964
 72
     1
 10
-214.4612144015679
 20
-250.3503090984964
 11
-214.4612144015679
 21
-247.2964995746852
 72
     1
 10
-214.4612144015679
 20
-247.2964995746852
 11
-213.220709991315
 21
-247.2964995746852
 72
     1
 10
-213.220709991315
 20
-247.2964995746852
 11
-213.220709991315
 21
-250.3503090984964
 97
        4
330
2FD
330
2FF
330
34F
330
2FE
 75
     1
 76
     0
 52
45.0
 41
0.1
 77
     0
 78
     1
 53
45.0
 43
0.0
 44
0.0
 45
-0.0707106781186548
 46
0.0707106781186548
 79
     0
 98
        1
 10
0.0
 20
0.0
  0
HATCH
  5
3D0
330
71
100
AcDbEntity
  8
1
  6
Continuous
 62
     2
100
AcDbHatch
 10
0.0
 20
0.0
 30
0.0
210
0.0
220
0.0
230
1.0
  2
_USER
 70
     0
 71
     1
 91
        1
 92
        1
 93
       12
 72
     1
 10
-208.9982238256442
 20
-247.2964995746852
 11
-210.3007534564107
 21
-248.7694501047214
 72
     1
 10
-210.3007534564107
 20
-248.7694501047214
 11
-208.9028004094704
 21
-250.3503090984964
 72
     1
 10
-208.9028004094704
 20
-250.3503090984964
 11
-210.3055246272187
 21
-250.3503090984964
 72
     1
 10
-210.3055246272187
 20
-250.3503090984964
 11
-211.0021155652842
 21
-249.5625773132027
 72
     1
 10
-211.0021155652842
 20
-249.5625773132027
 11
-211.6987065033499
 21
-250.3503090984964
 72
     1
 10
-211.6987065033499
 20
-250.3503090984964
 11
-213.1014307210981
 21
-250.3503090984964
 72
     1
 10
-213.1014307210981
 20
-250.3503090984964
 11
-211.7034776741578
 21
-248.7694501047214
 72
     1
 10
-211.7034776741578
 20
-248.7694501047214
 11
-213.0060073049253
 21
-247.2964995746852
 72
     1
 10
-213.0060073049253
 20
-247.2964995746852
 11
-211.603283087176
 21
-247.2964995746852
 72
     1
 10
-211.603283087176
 20
-247.2964995746852
 11
-211.0021155652842
 21
-247.9763228962407
 72
     1
 10
-211.0021155652842
 20
-247.9763228962407
 11
-210.4009480433914
 21
-247.2964995746852
 72
     1
 10
-210.4009480433914
 20
-247.2964995746852
 11
-208.9982238256442
 21
-247.2964995746852
 97
       12
330
2F8
330
2F7
330
2F6
330
353
330
354
330
350
330
351
330
2FC
330
2FB
330
2FA
330
2F9
330
352
 75
     1
 76
     0
 52
45.0
 41
0.1
 77
     0
 78
     1
 53
45.0
 43
0.0
 44
0.0
 45
-0.0707106781186548
 46
0.0707106781186548
 79
     0
 98
        1
 10
0.0
 20
0.0
  0
HATCH
  5
3D1
330
71
100
AcDbEntity
  8
1
  6
Continuous
 62
     2
100
AcDbHatch
 10
0.0
 20
0.0
 30
0.0
210
0.0
220
0.0
230
1.0
  2
_USER
 70
     0
 71
     1
 91
        1
 92
        1
 93
       12
 72
     1
 10
-208.9982238256442
 20
-247.2964995746852
 11
-210.3007534564107
 21
-248.7694501047214
 72
     1
 10
-210.3007534564107
 20
-248.7694501047214
 11
-208.9028004094704
 21
-250.3503090984964
 72
     1
 10
-208.9028004094704
 20
-250.3503090984964
 11
-210.3055246272187
 21
-250.3503090984964
 72
     1
 10
-210.3055246272187
 20
-250.3503090984964
 11
-211.0021155652842
 21
-249.5625773132027
 72
     1
 10
-211.0021155652842
 20
-249.5625773132027
 11
-211.6987065033499
 21
-250.3503090984964
 72
     1
 10
-211.6987065033499
 20
-250.3503090984964
 11
-213.1014307210981
 21
-250.3503090984964
 72
     1
 10
-213.1014307210981
 20
-250.3503090984964
 11
-211.7034776741578
 21
-248.7694501047214
 72
     1
 10
-211.7034776741578
 20
-248.7694501047214
 11
-213.0060073049253
 21
-247.2964995746852
 72
     1
 10
-213.0060073049253
 20
-247.2964995746852
 11
-211.603283087176
 21
-247.2964995746852
 72
     1
 10
-211.603283087176
 20
-247.2964995746852
 11
-211.0021155652842
 21
-247.9763228962407
 72
     1
 10
-211.0021155652842
 20
-247.9763228962407
 11
-210.4009480433914
 21
-247.2964995746852
 72
     1
 10
-210.4009480433914
 20
-247.2964995746852
 11
-208.9982238256442
 21
-247.2964995746852
 97
       12
330
2F8
330
2F7
330
2F6
330
353
330
354
330
350
330
351
330
2FC
330
2FB
330
2FA
330
2F9
330
352
 75
     1
 76
     0
 52
45.0
 41
0.1
 77
     0
 78
     1
 53
45.0
 43
0.0
 44
0.0
 45
-0.0707106781186548
 46
0.0707106781186548
 79
     0
 98
        1
 10
0.0
 20
0.0
  0
HATCH
  5
3D2
330
71
100
AcDbEntity
  8
1
  6
Continuous
 62
     2
100
AcDbHatch
 10
0.0
 20
0.0
 30
0.0
210
0.0
220
0.0
230
1.0
  2
_USER
 70
     0
 71
     1
 91
        2
 92
        1
 93
        6
 72
     1
 10
-228.0159592397902
 20
-249.4072308573526
 11
-228.7747268275705
 21
-249.4072308573526
 72
     1
 10
-228.7747268275705
 20
-249.4072308573526
 11
-228.7747268275705
 21
-250.3503090984964
 72
     1
 10
-228.7747268275705
 20
-250.3503090984964
 11
-230.0152312378246
 21
-250.3503090984964
 72
     1
 10
-230.0152312378246
 20
-250.3503090984964
 11
-230.0152312378246
 21
-247.2964995746852
 72
     1
 10
-230.0152312378246
 20
-247.2964995746852
 11
-228.0159592397902
 21
-247.2964995746852
 72
     2
 10
-228.0159592397902
 20
-248.3518652160189
 40
1.055365641333708
 50
270.0
 51
450.0
 73
     0
 97
        6
330
320
330
31F
330
32C
330
32B
330
321
330
371
 92
       16
 93
        4
 72
     2
 10
-228.4574317660286
 20
-248.3124692447964
 40
0.3528638246710898
 50
270.0
 51
450.0
 73
     1
 72
     1
 10
-228.4574317660286
 20
-247.9596054201253
 11
-228.7747268275705
 21
-247.9596054201253
 72
     1
 10
-228.7747268275705
 20
-247.9596054201253
 11
-228.7747268275705
 21
-248.6653330694675
 72
     1
 10
-228.7747268275705
 20
-248.6653330694675
 11
-228.4574317660286
 21
-248.6653330694675
 97
        4
330
385
330
31D
330
32D
330
31E
 75
     1
 76
     0
 52
45.0
 41
0.1
 77
     0
 78
     1
 53
45.0
 43
0.0
 44
0.0
 45
-0.0707106781186548
 46
0.0707106781186548
 79
     0
 98
        1
 10
0.0
 20
0.0
  0
HATCH
  5
3D3
330
71
100
AcDbEntity
  8
1
  6
Continuous
 62
     2
100
AcDbHatch
 10
0.0
 20
0.0
 30
0.0
210
0.0
220
0.0
230
1.0
  2
_USER
 70
     0
 71
     1
 91
        2
 92
        1
 93
        6
 72
     1
 10
-228.0159592397902
 20
-249.4072308573526
 11
-228.7747268275705
 21
-249.4072308573526
 72
     1
 10
-228.7747268275705
 20
-249.4072308573526
 11
-228.7747268275705
 21
-250.3503090984964
 72
     1
 10
-228.7747268275705
 20
-250.3503090984964
 11
-230.0152312378246
 21
-250.3503090984964
 72
     1
 10
-230.0152312378246
 20
-250.3503090984964
 11
-230.0152312378246
 21
-247.2964995746852
 72
     1
 10
-230.0152312378246
 20
-247.2964995746852
 11
-228.0159592397902
 21
-247.2964995746852
 72
     2
 10
-228.0159592397902
 20
-248.3518652160189
 40
1.055365641333708
 50
270.0
 51
450.0
 73
     0
 97
        6
330
320
330
31F
330
32C
330
32B
330
321
330
371
 92
       16
 93
        4
 72
     2
 10
-228.4574317660286
 20
-248.3124692447964
 40
0.3528638246710898
 50
270.0
 51
450.0
 73
     1
 72
     1
 10
-228.4574317660286
 20
-247.9596054201253
 11
-228.7747268275705
 21
-247.9596054201253
 72
     1
 10
-228.7747268275705
 20
-247.9596054201253
 11
-228.7747268275705
 21
-248.6653330694675
 72
     1
 10
-228.7747268275705
 20
-248.6653330694675
 11
-228.4574317660286
 21
-248.6653330694675
 97
        4
330
385
330
31D
330
32D
330
31E
 75
     1
 76
     0
 52
45.0
 41
0.1
 77
     0
 78
     1
 53
45.0
 43
0.0
 44
0.0
 45
-0.0707106781186548
 46
0.0707106781186548
 79
     0
 98
        1
 10
0.0
 20
0.0
  0
HATCH
  5
3D4
330
71
100
AcDbEntity
  8
1
  6
Continuous
 62
     2
100
AcDbHatch
 10
0.0
 20
0.0
 30
0.0
210
0.0
220
0.0
230
1.0
  2
_USER
 70
     0
 71
     1
 91
        2
 92
        1
 93
        4
 72
     2
 10
-225.4594164914311
 20
-252.7211698230682
 40
2.065479772208606
 50
62.45185182430604
 51
117.548148175666
 73
     1
 72
     2
 10
-225.7403563832644
 20
-252.1825948127654
 40
1.45803408365149
 50
117.5481481756624
 51
242.4518518243375
 73
     1
 72
     2
 10
-225.4594164914311
 20
-251.6440198024621
 40
2.065479772208483
 50
242.4518518243399
 51
297.5481481756881
 73
     1
 72
     2
 10
-225.1784765995978
 20
-252.1825948127654
 40
1.458034083652003
 50
297.548148175701
 51
422.451851824299
 73
     1
 97
        4
330
37D
330
37C
330
37E
330
37B
 92
       16
 93
        4
 72
     2
 10
-225.6591565277775
 20
-252.1825948127654
 40
0.77179977867969
 50
321.8795802028388
 51
398.1204197971546
 73
     1
 72
     2
 10
-225.4594164914311
 20
-252.0258636346449
 40
0.5179085730133174
 50
38.1204197971495
 51
141.8795802028563
 73
     1
 72
     2
 10
-225.259676455085
 20
-252.1825948127654
 40
0.7717997786794633
 50
141.8795802028363
 51
218.1204197971703
 73
     1
 72
     2
 10
-225.4594164914311
 20
-252.3393259908854
 40
0.5179085730137354
 50
218.1204197971931
 51
321.879580202801
 73
     1
 97
        4
330
399
330
396
330
397
330
398
 75
     1
 76
     0
 52
45.0
 41
0.1
 77
     0
 78
     1
 53
45.0
 43
0.0
 44
0.0
 45
-0.0707106781186548
 46
0.0707106781186548
 79
     0
 98
        1
 10
0.0
 20
0.0
  0
HATCH
  5
3D5
330
71
100
AcDbEntity
  8
1
  6
Continuous
 62
     2
100
AcDbHatch
 10
0.0
 20
0.0
 30
0.0
210
0.0
220
0.0
230
1.0
  2
_USER
 70
     0
 71
     1
 91
        2
 92
        1
 93
        4
 72
     2
 10
-225.4594164914311
 20
-252.7211698230682
 40
2.065479772208606
 50
62.45185182430604
 51
117.548148175666
 73
     1
 72
     2
 10
-225.7403563832644
 20
-252.1825948127654
 40
1.45803408365149
 50
117.5481481756624
 51
242.4518518243375
 73
     1
 72
     2
 10
-225.4594164914311
 20
-251.6440198024621
 40
2.065479772208483
 50
242.4518518243399
 51
297.5481481756881
 73
     1
 72
     2
 10
-225.1784765995978
 20
-252.1825948127654
 40
1.458034083652003
 50
297.548148175701
 51
422.451851824299
 73
     1
 97
        4
330
37D
330
37C
330
37E
330
37B
 92
       16
 93
        4
 72
     2
 10
-225.6591565277775
 20
-252.1825948127654
 40
0.77179977867969
 50
321.8795802028388
 51
398.1204197971546
 73
     1
 72
     2
 10
-225.4594164914311
 20
-252.0258636346449
 40
0.5179085730133174
 50
38.1204197971495
 51
141.8795802028563
 73
     1
 72
     2
 10
-225.259676455085
 20
-252.1825948127654
 40
0.7717997786794633
 50
141.8795802028363
 51
218.1204197971703
 73
     1
 72
     2
 10
-225.4594164914311
 20
-252.3393259908854
 40
0.5179085730137354
 50
218.1204197971931
 51
321.879580202801
 73
     1
 97
        4
330
399
330
396
330
397
330
398
 75
     1
 76
     0
 52
45.0
 41
0.1
 77
     0
 78
     1
 53
45.0
 43
0.0
 44
0.0
 45
-0.0707106781186548
 46
0.0707106781186548
 79
     0
 98
        1
 10
0.0
 20
0.0
  0
HATCH
  5
3D6
330
71
100
AcDbEntity
  8
1
  6
Continuous
 62
     2
100
AcDbHatch
 10
0.0
 20
0.0
 30
0.0
210
0.0
220
0.0
230
1.0
  2
_USER
 70
     0
 71
     1
 91
        2
 92
        1
 93
       12
 72
     1
 10
-218.5644212970218
 20
-247.9945131801282
 11
-219.9003491234495
 21
-247.9945131801282
 72
     1
 10
-219.9003491234495
 20
-247.9945131801282
 11
-219.9003491234495
 21
-248.4743975338699
 72
     1
 10
-219.9003491234495
 20
-248.4743975338699
 11
-218.5644212970218
 21
-248.4743975338699
 72
     1
 10
-218.5644212970218
 20
-248.4743975338699
 11
-218.5644212970218
 21
-249.1724111393122
 72
     1
 10
-218.5644212970218
 20
-249.1724111393122
 11
-219.9003491234495
 21
-249.1724111393122
 72
     1
 10
-219.9003491234495
 20
-249.1724111393122
 11
-219.9003491234495
 21
-249.6522954930539
 72
     1
 10
-219.9003491234495
 20
-249.6522954930539
 11
-218.5644212970218
 21
-249.6522954930539
 72
     1
 10
-218.5644212970218
 20
-249.6522954930539
 11
-218.5644212970218
 21
-250.3503090984964
 72
     1
 10
-218.5644212970218
 20
-250.3503090984964
 11
-221.7147410208028
 21
-250.3503090984964
 72
     2
 10
-221.7147410208028
 20
-248.8234043365911
 40
1.526904761905882
 50
90.0
 51
270.0
 73
     0
 72
     1
 10
-221.7147410208028
 20
-247.2964995746852
 11
-218.5644212970218
 21
-247.2964995746852
 72
     1
 10
-218.5644212970218
 20
-247.2964995746852
 11
-218.5644212970218
 21
-247.9945131801282
 97
       12
330
334
330
386
330
335
330
336
330
337
330
338
330
315
330
314
330
313
330
312
330
339
330
333
 92
       16
 93
        4
 72
     2
 10
-221.4984690106376
 20
-248.6666731584706
 40
0.5179085730135266
 50
38.12041979714334
 51
141.8795802028508
 73
     1
 72
     2
 10
-221.2987289742913
 20
-248.8234043365911
 40
0.7717997786797123
 50
141.8795802028401
 51
218.1204197971533
 73
     1
 72
     2
 10
-221.4984690106376
 20
-248.9801355147115
 40
0.5179085730134595
 50
218.1204197971492
 51
321.8795802028566
 73
     1
 72
     2
 10
-221.6982090469838
 20
-248.8234043365911
 40
0.7717997786796421
 50
321.8795802028467
 51
398.1204197971599
 73
     1
 97
        4
330
380
330
37F
330
37A
330
379
 75
     1
 76
     0
 52
45.0
 41
0.1
 77
     0
 78
     1
 53
45.0
 43
0.0
 44
0.0
 45
-0.0707106781186548
 46
0.0707106781186548
 79
     0
 98
        1
 10
0.0
 20
0.0
  0
HATCH
  5
3D7
330
71
100
AcDbEntity
  8
1
  6
Continuous
 62
     2
100
AcDbHatch
 10
0.0
 20
0.0
 30
0.0
210
0.0
220
0.0
230
1.0
  2
_USER
 70
     0
 71
     1
 91
        2
 92
        1
 93
       12
 72
     1
 10
-218.5644212970218
 20
-247.9945131801282
 11
-219.9003491234495
 21
-247.9945131801282
 72
     1
 10
-219.9003491234495
 20
-247.9945131801282
 11
-219.9003491234495
 21
-248.4743975338699
 72
     1
 10
-219.9003491234495
 20
-248.4743975338699
 11
-218.5644212970218
 21
-248.4743975338699
 72
     1
 10
-218.5644212970218
 20
-248.4743975338699
 11
-218.5644212970218
 21
-249.1724111393122
 72
     1
 10
-218.5644212970218
 20
-249.1724111393122
 11
-219.9003491234495
 21
-249.1724111393122
 72
     1
 10
-219.9003491234495
 20
-249.1724111393122
 11
-219.9003491234495
 21
-249.6522954930539
 72
     1
 10
-219.9003491234495
 20
-249.6522954930539
 11
-218.5644212970218
 21
-249.6522954930539
 72
     1
 10
-218.5644212970218
 20
-249.6522954930539
 11
-218.5644212970218
 21
-250.3503090984964
 72
     1
 10
-218.5644212970218
 20
-250.3503090984964
 11
-221.7147410208028
 21
-250.3503090984964
 72
     2
 10
-221.7147410208028
 20
-248.8234043365911
 40
1.526904761905882
 50
90.0
 51
270.0
 73
     0
 72
     1
 10
-221.7147410208028
 20
-247.2964995746852
 11
-218.5644212970218
 21
-247.2964995746852
 72
     1
 10
-218.5644212970218
 20
-247.2964995746852
 11
-218.5644212970218
 21
-247.9945131801282
 97
       12
330
334
330
386
330
335
330
336
330
337
330
338
330
315
330
314
330
313
330
312
330
339
330
333
 92
       16
 93
        4
 72
     2
 10
-221.4984690106376
 20
-248.6666731584706
 40
0.5179085730135266
 50
38.12041979714334
 51
141.8795802028508
 73
     1
 72
     2
 10
-221.2987289742913
 20
-248.8234043365911
 40
0.7717997786797123
 50
141.8795802028401
 51
218.1204197971533
 73
     1
 72
     2
 10
-221.4984690106376
 20
-248.9801355147115
 40
0.5179085730134595
 50
218.1204197971492
 51
321.8795802028566
 73
     1
 72
     2
 10
-221.6982090469838
 20
-248.8234043365911
 40
0.7717997786796421
 50
321.8795802028467
 51
398.1204197971599
 73
     1
 97
        4
330
380
330
37F
330
37A
330
379
 75
     1
 76
     0
 52
45.0
 41
0.1
 77
     0
 78
     1
 53
45.0
 43
0.0
 44
0.0
 45
-0.0707106781186548
 46
0.0707106781186548
 79
     0
 98
        1
 10
0.0
 20
0.0
  0
HATCH
  5
3D8
330
71
100
AcDbEntity
  8
1
  6
Continuous
 62
     2
100
AcDbHatch
 10
0.0
 20
0.0
 30
0.0
210
0.0
220
0.0
230
1.0
  2
_USER
 70
     0
 71
     1
 91
        4
 92
        1
 93
        8
 72
     1
 10
-230.4923483186914
 20
-247.7207441900872
 11
-230.4923483186914
 21
-253.2852549592874
 72
     2
 10
-230.9165929340753
 20
-253.2852549592874
 40
0.4242446153832873
 50
0.0
 51
90.0
 73
     0
 72
     1
 10
-230.9165929340753
 20
-253.7094995746707
 11
-236.3899050247921
 21
-253.7094995746707
 72
     2
 10
-236.3899050247921
 20
-253.2852549592874
 40
0.4242446153827757
 50
90.0
 51
180.0
 73
     0
 72
     1
 10
-236.8141496401749
 20
-253.2852549592874
 11
-236.8141496401749
 21
-247.7207441900872
 72
     2
 10
-236.3899050247921
 20
-247.7207441900872
 40
0.4242446153837989
 50
180.0
 51
270.0
 73
     0
 72
     1
 10
-236.3899050247921
 20
-247.2964995747034
 11
-230.9165929340753
 21
-247.2964995747034
 72
     2
 10
-230.9165929340753
 20
-247.7207441900872
 40
0.4242446153839126
 50
270.0
 51
360.0
 73
     0
 97
        8
330
328
330
376
330
329
330
381
330
326
330
378
330
327
330
377
 92
       16
 93
        1
 72
     2
 10
-233.7703193742746
 20
-250.0396264184427
 40
0.4709789327785074
 50
0.0
 51
360.0
 73
     1
 97
        1
330
39C
 92
       16
 93
        8
 72
     2
 10
-233.2204616615139
 20
-251.1487680184112
 40
0.315716923076622
 50
115.3740086783499
 51
180.0
 73
     1
 72
     1
 10
-233.5361785845907
 20
-251.1487680184112
 11
-233.5361785845907
 21
-251.7306194251062
 72
     2
 10
-233.2204616615139
 20
-251.7306194251062
 40
0.315716923076792
 50
180.0
 51
269.811032957449
 73
     1
 72
     2
 10
-233.2148455262039
 20
-250.0277844775372
 40
2.018561131933351
 50
269.8110329575858
 51
450.1889670424142
 73
     1
 72
     2
 10
-233.2204616615139
 20
-248.3249495299681
 40
0.3157169230760711
 50
90.18896704255108
 51
180.0
 73
     1
 72
     1
 10
-233.5361785845907
 20
-248.3249495299681
 11
-233.5361785845907
 21
-248.9304848184749
 72
     2
 10
-233.2204616615139
 20
-248.9304848184749
 40
0.315716923076792
 50
180.0
 51
244.6259913216435
 73
     1
 72
     2
 10
-233.7465043596018
 20
-250.0396264184427
 40
0.911848150144459
 50
295.3740086781925
 51
424.6259913218236
 73
     0
 97
        8
330
38E
330
2EF
330
38B
330
38C
330
36A
330
2EE
330
38D
330
369
 92
       16
 93
       12
 72
     2
 10
-235.7960103480456
 20
-252.6812270960371
 40
0.315716923075712
 50
180.0
 51
270.0
 73
     1
 72
     1
 10
-235.7960103480456
 20
-252.9969440191138
 11
-234.320177087036
 21
-252.9969440191138
 72
     2
 10
-234.320177087036
 20
-252.6812270960371
 40
0.3157169230767067
 50
270.0
 51
360.0
 73
     1
 72
     1
 10
-234.0044601639594
 20
-252.6812270960371
 11
-234.0044601639594
 21
-251.1504561645055
 72
     2
 10
-234.320177087036
 20
-251.1504561645055
 40
0.315716923076593
 50
0.0
 51
64.80558935146249
 73
     1
 72
     2
 10
-233.797592639461
 20
-250.0396264184427
 40
0.9118975235576268
 50
115.1944106485146
 51
244.8055893514702
 73
     0
 72
     2
 10
-234.320177087036
 20
-248.9287966723805
 40
0.3157169230761203
 50
295.1944106485397
 51
360.0
 73
     1
 72
     1
 10
-234.0044601639594
 20
-248.9287966723805
 11
-234.0044601639594
 21
-248.32477205332
 72
     2
 10
-234.320177087036
 20
-248.32477205332
 40
0.315716923076593
 50
0.0
 51
90.0
 73
     1
 72
     1
 10
-234.320177087036
 20
-248.0090551302438
 11
-235.7960103480456
 21
-248.0090551302438
 72
     2
 10
-235.7960103480456
 20
-248.32477205332
 40
0.3157169230761951
 50
90.0
 51
180.0
 73
     1
 72
     1
 10
-236.1117272711213
 20
-248.32477205332
 11
-236.1117272711213
 21
-252.6812270960371
 97
       12
330
372
330
32A
330
375
330
325
330
382
330
383
330
374
330
324
330
373
330
323
330
384
330
322
 75
     1
 76
     0
 52
45.0
 41
0.1
 77
     0
 78
     1
 53
45.0
 43
0.0
 44
0.0
 45
-0.0707106781186548
 46
0.0707106781186548
 79
     0
 98
        1
 10
0.0
 20
0.0
  0
HATCH
  5
3D9
330
71
100
AcDbEntity
  8
1
  6
Continuous
 62
     2
100
AcDbHatch
 10
0.0
 20
0.0
 30
0.0
210
0.0
220
0.0
230
1.0
  2
_USER
 70
     0
 71
     1
 91
        4
 92
        1
 93
        8
 72
     1
 10
-230.4923483186914
 20
-247.7207441900872
 11
-230.4923483186914
 21
-253.2852549592874
 72
     2
 10
-230.9165929340753
 20
-253.2852549592874
 40
0.4242446153832873
 50
0.0
 51
90.0
 73
     0
 72
     1
 10
-230.9165929340753
 20
-253.7094995746707
 11
-236.3899050247921
 21
-253.7094995746707
 72
     2
 10
-236.3899050247921
 20
-253.2852549592874
 40
0.4242446153827757
 50
90.0
 51
180.0
 73
     0
 72
     1
 10
-236.8141496401749
 20
-253.2852549592874
 11
-236.8141496401749
 21
-247.7207441900872
 72
     2
 10
-236.3899050247921
 20
-247.7207441900872
 40
0.4242446153837989
 50
180.0
 51
270.0
 73
     0
 72
     1
 10
-236.3899050247921
 20
-247.2964995747034
 11
-230.9165929340753
 21
-247.2964995747034
 72
     2
 10
-230.9165929340753
 20
-247.7207441900872
 40
0.4242446153839126
 50
270.0
 51
360.0
 73
     0
 97
        8
330
328
330
376
330
329
330
381
330
326
330
378
330
327
330
377
 92
       16
 93
        1
 72
     2
 10
-233.7703193742746
 20
-250.0396264184427
 40
0.4709789327785074
 50
0.0
 51
360.0
 73
     1
 97
        1
330
39C
 92
       16
 93
        8
 72
     2
 10
-233.2204616615139
 20
-251.1487680184112
 40
0.315716923076622
 50
115.3740086783499
 51
180.0
 73
     1
 72
     1
 10
-233.5361785845907
 20
-251.1487680184112
 11
-233.5361785845907
 21
-251.7306194251062
 72
     2
 10
-233.2204616615139
 20
-251.7306194251062
 40
0.315716923076792
 50
180.0
 51
269.811032957449
 73
     1
 72
     2
 10
-233.2148455262039
 20
-250.0277844775372
 40
2.018561131933351
 50
269.8110329575858
 51
450.1889670424142
 73
     1
 72
     2
 10
-233.2204616615139
 20
-248.3249495299681
 40
0.3157169230760711
 50
90.18896704255108
 51
180.0
 73
     1
 72
     1
 10
-233.5361785845907
 20
-248.3249495299681
 11
-233.5361785845907
 21
-248.9304848184749
 72
     2
 10
-233.2204616615139
 20
-248.9304848184749
 40
0.315716923076792
 50
180.0
 51
244.6259913216435
 73
     1
 72
     2
 10
-233.7465043596018
 20
-250.0396264184427
 40
0.911848150144459
 50
295.3740086781925
 51
424.6259913218236
 73
     0
 97
        8
330
38E
330
2EF
330
38B
330
38C
330
36A
330
2EE
330
38D
330
369
 92
       16
 93
       12
 72
     2
 10
-235.7960103480456
 20
-252.6812270960371
 40
0.315716923075712
 50
180.0
 51
270.0
 73
     1
 72
     1
 10
-235.7960103480456
 20
-252.9969440191138
 11
-234.320177087036
 21
-252.9969440191138
 72
     2
 10
-234.320177087036
 20
-252.6812270960371
 40
0.3157169230767067
 50
270.0
 51
360.0
 73
     1
 72
     1
 10
-234.0044601639594
 20
-252.6812270960371
 11
-234.0044601639594
 21
-251.1504561645055
 72
     2
 10
-234.320177087036
 20
-251.1504561645055
 40
0.315716923076593
 50
0.0
 51
64.80558935146249
 73
     1
 72
     2
 10
-233.797592639461
 20
-250.0396264184427
 40
0.9118975235576268
 50
115.1944106485146
 51
244.8055893514702
 73
     0
 72
     2
 10
-234.320177087036
 20
-248.9287966723805
 40
0.3157169230761203
 50
295.1944106485397
 51
360.0
 73
     1
 72
     1
 10
-234.0044601639594
 20
-248.9287966723805
 11
-234.0044601639594
 21
-248.32477205332
 72
     2
 10
-234.320177087036
 20
-248.32477205332
 40
0.315716923076593
 50
0.0
 51
90.0
 73
     1
 72
     1
 10
-234.320177087036
 20
-248.0090551302438
 11
-235.7960103480456
 21
-248.0090551302438
 72
     2
 10
-235.7960103480456
 20
-248.32477205332
 40
0.3157169230761951
 50
90.0
 51
180.0
 73
     1
 72
     1
 10
-236.1117272711213
 20
-248.32477205332
 11
-236.1117272711213
 21
-252.6812270960371
 97
       12
330
372
330
32A
330
375
330
325
330
382
330
383
330
374
330
324
330
373
330
323
330
384
330
322
 75
     1
 76
     0
 52
45.0
 41
0.1
 77
     0
 78
     1
 53
45.0
 43
0.0
 44
0.0
 45
-0.0707106781186548
 46
0.0707106781186548
 79
     0
 98
        1
 10
0.0
 20
0.0
  0
HATCH
  5
3DA
330
71
100
AcDbEntity
  8
1
  6
Continuous
 62
     2
100
AcDbHatch
 10
0.0
 20
0.0
 30
0.0
210
0.0
220
0.0
230
1.0
  2
_USER
 70
     0
 71
     1
 91
        1
 92
        1
 93
       18
 72
     1
 10
-208.9028004094704
 20
-251.4409553569832
 11
-209.7138994469438
 21
-251.4409553569832
 72
     1
 10
-209.7138994469438
 20
-251.4409553569832
 11
-209.7138994469438
 21
-253.7094995746707
 72
     1
 10
-209.7138994469438
 20
-253.7094995746707
 11
-210.9066921491115
 21
-253.7094995746707
 72
     1
 10
-210.9066921491115
 20
-253.7094995746707
 11
-210.9066921491115
 21
-251.4409553569832
 72
     1
 10
-210.9066921491115
 20
-251.4409553569832
 11
-212.0103314486796
 21
-251.4409553569832
 72
     2
 10
-212.0103314486796
 20
-252.3954783638093
 40
0.9545230068260935
 50
90.0
 51
109.3371432194298
 73
     1
 72
     2
 10
-212.1570014467833
 20
-251.9775233834264
 40
0.5115800601944048
 50
109.3371432194823
 51
151.4785267424237
 73
     1
 72
     2
 10
-211.7796441887019
 20
-252.1825948127654
 40
0.9410597353348789
 50
151.478526742364
 51
208.5214732576695
 73
     1
 72
     2
 10
-212.1570014467833
 20
-252.3876662421039
 40
0.511580060195983
 50
208.5214732576854
 51
246.6277221118478
 73
     1
 72
     2
 10
-212.0005614140802
 20
-252.0256742233939
 40
0.9059297849852688
 50
246.6277221118199
 51
288.4480761180817
 73
     1
 72
     2
 10
-212.4187291477421
 20
-250.7721284473573
 40
2.227384008972773
 50
288.4480761181333
 51
301.9309089499394
 73
     1
 72
     1
 10
-211.2406741057182
 20
-252.6624791665071
 11
-211.2406741057182
 21
-253.5349961733105
 72
     2
 10
-212.5766020228349
 20
-248.869913867509
 40
4.852596863498822
 50
74.0200087416619
 51
84.84185523036402
 73
     0
 72
     2
 10
-212.2877459280991
 20
-252.0698044507306
 40
1.639695123940421
 50
84.8418552303238
 51
164.9381082228985
 73
     0
 72
     2
 10
-212.7068737715607
 20
-252.1825948127654
 40
1.205656168392968
 50
164.9381082229024
 51
195.0618917770962
 73
     0
 72
     2
 10
-212.2877459280991
 20
-252.2953851748003
 40
1.639695123940186
 50
195.0618917771043
 51
270.0
 73
     0
 72
     1
 10
-212.2877459280991
 20
-250.6556900508601
 11
-208.9028004094704
 21
-250.6556900508596
 72
     1
 10
-208.9028004094704
 20
-250.6556900508596
 11
-208.9028004094704
 21
-251.4409553569832
 97
       18
330
2F1
330
387
330
388
330
370
330
36F
330
355
330
36E
330
36D
330
389
330
36C
330
38A
330
36B
330
356
330
2F0
330
2F5
330
2F4
330
2F3
330
2F2
 75
     1
 76
     0
 52
45.0
 41
0.1
 77
     0
 78
     1
 53
45.0
 43
0.0
 44
0.0
 45
-0.0707106781186548
 46
0.0707106781186548
 79
     0
 98
        1
 10
0.0
 20
0.0
  0
HATCH
  5
3DB
330
71
100
AcDbEntity
  8
1
  6
Continuous
 62
     2
100
AcDbHatch
 10
0.0
 20
0.0
 30
0.0
210
0.0
220
0.0
230
1.0
  2
_USER
 70
     0
 71
     1
 91
        1
 92
        1
 93
       18
 72
     1
 10
-208.9028004094704
 20
-251.4409553569832
 11
-209.7138994469438
 21
-251.4409553569832
 72
     1
 10
-209.7138994469438
 20
-251.4409553569832
 11
-209.7138994469438
 21
-253.7094995746707
 72
     1
 10
-209.7138994469438
 20
-253.7094995746707
 11
-210.9066921491115
 21
-253.7094995746707
 72
     1
 10
-210.9066921491115
 20
-253.7094995746707
 11
-210.9066921491115
 21
-251.4409553569832
 72
     1
 10
-210.9066921491115
 20
-251.4409553569832
 11
-212.0103314486796
 21
-251.4409553569832
 72
     2
 10
-212.0103314486796
 20
-252.3954783638093
 40
0.9545230068260935
 50
90.0
 51
109.3371432194298
 73
     1
 72
     2
 10
-212.1570014467833
 20
-251.9775233834264
 40
0.5115800601944048
 50
109.3371432194823
 51
151.4785267424237
 73
     1
 72
     2
 10
-211.7796441887019
 20
-252.1825948127654
 40
0.9410597353348789
 50
151.478526742364
 51
208.5214732576695
 73
     1
 72
     2
 10
-212.1570014467833
 20
-252.3876662421039
 40
0.511580060195983
 50
208.5214732576854
 51
246.6277221118478
 73
     1
 72
     2
 10
-212.0005614140802
 20
-252.0256742233939
 40
0.9059297849852688
 50
246.6277221118199
 51
288.4480761180817
 73
     1
 72
     2
 10
-212.4187291477421
 20
-250.7721284473573
 40
2.227384008972773
 50
288.4480761181333
 51
301.9309089499394
 73
     1
 72
     1
 10
-211.2406741057182
 20
-252.6624791665071
 11
-211.2406741057182
 21
-253.5349961733105
 72
     2
 10
-212.5766020228349
 20
-248.869913867509
 40
4.852596863498822
 50
74.0200087416619
 51
84.84185523036402
 73
     0
 72
     2
 10
-212.2877459280991
 20
-252.0698044507306
 40
1.639695123940421
 50
84.8418552303238
 51
164.9381082228985
 73
     0
 72
     2
 10
-212.7068737715607
 20
-252.1825948127654
 40
1.205656168392968
 50
164.9381082229024
 51
195.0618917770962
 73
     0
 72
     2
 10
-212.2877459280991
 20
-252.2953851748003
 40
1.639695123940186
 50
195.0618917771043
 51
270.0
 73
     0
 72
     1
 10
-212.2877459280991
 20
-250.6556900508601
 11
-208.9028004094704
 21
-250.6556900508596
 72
     1
 10
-208.9028004094704
 20
-250.6556900508596
 11
-208.9028004094704
 21
-251.4409553569832
 97
       18
330
2F1
330
387
330
388
330
370
330
36F
330
355
330
36E
330
36D
330
389
330
36C
330
38A
330
36B
330
356
330
2F0
330
2F5
330
2F4
330
2F3
330
2F2
 75
     1
 76
     0
 52
45.0
 41
0.1
 77
     0
 78
     1
 53
45.0
 43
0.0
 44
0.0
 45
-0.0707106781186548
 46
0.0707106781186548
 79
     0
 98
        1
 10
0.0
 20
0.0
  0
HATCH
  5
3DC
330
71
100
AcDbEntity
  8
1
  6
Continuous
 62
     2
100
AcDbHatch
 10
0.0
 20
0.0
 30
0.0
210
0.0
220
0.0
230
1.0
  2
_USER
 70
     0
 71
     1
 91
        1
 92
        1
 93
       14
 72
     2
 10
-228.390447407352
 20
-252.2953851748003
 40
1.639695123940509
 50
84.84185523036136
 51
164.9381082228874
 73
     1
 72
     2
 10
-228.8095752508148
 20
-252.1825948127654
 40
1.205656168390964
 50
164.9381082228781
 51
195.0618917770958
 73
     1
 72
     2
 10
-228.390447407352
 20
-252.0698044507306
 40
1.639695123939387
 50
195.0618917770896
 51
275.1581447696406
 73
     1
 72
     2
 10
-228.6793035020879
 20
-248.869913867509
 40
4.852596863498138
 50
275.1581447696249
 51
285.979991258353
 73
     1
 72
     1
 10
-227.3433755849701
 20
-253.5349961733098
 11
-227.3433755849701
 21
-252.6624791665066
 72
     2
 10
-228.521430626995
 20
-250.7721284473567
 40
2.227384008972773
 50
58.06909105004051
 51
71.55192388186677
 73
     0
 72
     2
 10
-228.1032628933342
 20
-252.0256742233939
 40
0.9059297849849192
 50
71.55192388183985
 51
113.372277888129
 73
     0
 72
     2
 10
-228.2597029260362
 20
-252.3876662421039
 40
0.5115800601948034
 50
113.3722778881755
 51
151.4785267423044
 73
     0
 72
     2
 10
-227.8823456679559
 20
-252.1825948127654
 40
0.9410597353332545
 50
151.4785267422927
 51
208.5214732577331
 73
     0
 72
     2
 10
-228.2597029260362
 20
-251.9775233834264
 40
0.511580060194863
 50
208.5214732576956
 51
246.6277221117967
 73
     0
 72
     2
 10
-228.1032628933342
 20
-252.339515402137
 40
0.9059297849853588
 50
246.627722111871
 51
288.4480761181476
 73
     0
 72
     2
 10
-228.521430626995
 20
-253.5930611781736
 40
2.227384008973492
 50
288.4480761181333
 51
301.9309089499599
 73
     0
 72
     1
 10
-227.3433755849701
 20
-251.7027104590237
 11
-227.3433755849701
 21
-250.8301934522204
 72
     2
 10
-228.6793035020879
 20
-255.4952757580213
 40
4.852596863498068
 50
74.02000874164739
 51
84.84185523037509
 73
     1
 97
       14
330
38F
330
390
330
391
330
392
330
357
330
368
330
367
330
366
330
393
330
394
330
365
330
395
330
358
330
364
 75
     1
 76
     0
 52
45.0
 41
0.1
 77
     0
 78
     1
 53
45.0
 43
0.0
 44
0.0
 45
-0.0707106781186548
 46
0.0707106781186548
 79
     0
 98
        1
 10
0.0
 20
0.0
  0
HATCH
  5
3DD
330
71
100
AcDbEntity
  8
1
  6
Continuous
 62
     2
100
AcDbHatch
 10
0.0
 20
0.0
 30
0.0
210
0.0
220
0.0
230
1.0
  2
_USER
 70
     0
 71
     1
 91
        1
 92
        1
 93
       14
 72
     2
 10
-228.390447407352
 20
-252.2953851748003
 40
1.639695123940509
 50
84.84185523036136
 51
164.9381082228874
 73
     1
 72
     2
 10
-228.8095752508148
 20
-252.1825948127654
 40
1.205656168390964
 50
164.9381082228781
 51
195.0618917770958
 73
     1
 72
     2
 10
-228.390447407352
 20
-252.0698044507306
 40
1.639695123939387
 50
195.0618917770896
 51
275.1581447696406
 73
     1
 72
     2
 10
-228.6793035020879
 20
-248.869913867509
 40
4.852596863498138
 50
275.1581447696249
 51
285.979991258353
 73
     1
 72
     1
 10
-227.3433755849701
 20
-253.5349961733098
 11
-227.3433755849701
 21
-252.6624791665066
 72
     2
 10
-228.521430626995
 20
-250.7721284473567
 40
2.227384008972773
 50
58.06909105004051
 51
71.55192388186677
 73
     0
 72
     2
 10
-228.1032628933342
 20
-252.0256742233939
 40
0.9059297849849192
 50
71.55192388183985
 51
113.372277888129
 73
     0
 72
     2
 10
-228.2597029260362
 20
-252.3876662421039
 40
0.5115800601948034
 50
113.3722778881755
 51
151.4785267423044
 73
     0
 72
     2
 10
-227.8823456679559
 20
-252.1825948127654
 40
0.9410597353332545
 50
151.4785267422927
 51
208.5214732577331
 73
     0
 72
     2
 10
-228.2597029260362
 20
-251.9775233834264
 40
0.511580060194863
 50
208.5214732576956
 51
246.6277221117967
 73
     0
 72
     2
 10
-228.1032628933342
 20
-252.339515402137
 40
0.9059297849853588
 50
246.627722111871
 51
288.4480761181476
 73
     0
 72
     2
 10
-228.521430626995
 20
-253.5930611781736
 40
2.227384008973492
 50
288.4480761181333
 51
301.9309089499599
 73
     0
 72
     1
 10
-227.3433755849701
 20
-251.7027104590237
 11
-227.3433755849701
 21
-250.8301934522204
 72
     2
 10
-228.6793035020879
 20
-255.4952757580213
 40
4.852596863498068
 50
74.02000874164739
 51
84.84185523037509
 73
     1
 97
       14
330
38F
330
390
330
391
330
392
330
357
330
368
330
367
330
366
330
393
330
394
330
365
330
395
330
358
330
364
 75
     1
 76
     0
 52
45.0
 41
0.1
 77
     0
 78
     1
 53
45.0
 43
0.0
 44
0.0
 45
-0.0707106781186548
 46
0.0707106781186548
 79
     0
 98
        1
 10
0.0
 20
0.0
  0
ENDBLK
  5
73
330
71
100
AcDbEntity
  8
0
100
AcDbBlockEnd
  0
BLOCK
  5
75
330
74
100
AcDbEntity
  8
0
100
AcDbBlockBegin
  2
_punkt
 70
     0
 10
-111.5059999999875
 20
-261.002999574687
 30
0.0
  3
_punkt
  1

  0
LINE
  5
3DE
330
74
100
AcDbEntity
  8
1
  6
Continuous
 62
     2
100
AcDbLine
 10
-111.5059999999875
 20
-261.002999574687
 30
0.0
 11
-106.5059999999885
 21
-261.002999574687
 31
0.0
  0
LINE
  5
3DF
330
74
100
AcDbEntity
  8
1
  6
Continuous
 62
     2
100
AcDbLine
 10
-111.5059999999875
 20
-261.002999574687
 30
0.0
 11
-111.5059999999875
 21
-266.002999574687
 31
0.0
  0
ENDBLK
  5
76
330
74
100
AcDbEntity
  8
0
100
AcDbBlockEnd
  0
BLOCK
  5
7A
330
77
100
AcDbEntity
  8
0
100
AcDbBlockBegin
  2
A4I_CS
 70
     0
 10
-111.5059999999875
 20
-266.0029995746871
 30
0.0
  3
A4I_CS
  1

  0
INSERT
  5
78
330
77
100
AcDbEntity
  8
1
100
AcDbBlockReference
  2
_rahmen
 10
-111.5059999999875
 20
-266.0029995746871
 30
0.0
  0
INSERT
  5
79
330
77
100
AcDbEntity
  8
1
100
AcDbBlockReference
  2
_punkt
 10
-111.5059999999875
 20
-261.002999574687
 30
0.0
  0
ENDBLK
  5
7B
330
77
100
AcDbEntity
  8
0
100
AcDbBlockEnd
  0
BLOCK
  5
84
330
7C
100
AcDbEntity
  8
0
100
AcDbBlockBegin
  2
1
 70
     0
 10
0.0
 20
0.0
 30
0.0
  3
1
  1

  0
INSERT
  5
7D
330
7C
100
AcDbEntity
  8
0
100
AcDbBlockReference
  2
Allg1
 10
-147.9940000000001
 20
-187.139
 30
0.0
  0
INSERT
  5
7E
330
7C
100
AcDbEntity
  8
0
100
AcDbBlockReference
  2
Drfsicht1
 10
-276.007999999975
 20
-186.7539991493943
 30
0.0
  0
INSERT
  5
7F
330
7C
100
AcDbEntity
  8
0
100
AcDbBlockReference
  2
Rckans1
 10
-172.0
 20
-115.0
 30
0.0
  0
INSERT
  5
80
330
7C
100
AcDbEntity
  8
0
100
AcDbBlockReference
  2
SA_Links1
 10
-224.004
 20
-115.0
 30
0.0
  0
INSERT
  5
81
330
7C
100
AcDbEntity
  8
0
100
AcDbBlockReference
  2
SA_Rechts1
 10
-338.012
 20
-115.0
 30
0.0
  0
INSERT
  5
82
330
7C
100
AcDbEntity
  8
0
100
AcDbBlockReference
  2
Vordans1
 10
-276.008
 20
-115.0
 30
0.0
  0
INSERT
  5
83
330
7C
100
AcDbEntity
  8
0
100
AcDbBlockReference
  2
A4I_CS
 10
-111.5059999999875
 20
-266.0029995746871
 30
0.0
  0
ENDBLK
  5
85
330
7C
100
AcDbEntity
  8
0
100
AcDbBlockEnd
  0
BLOCK
  5
298
330
291
100
AcDbEntity
  8
0
100
AcDbBlockBegin
  2
*D17
 70
     1
 10
0.0
 20
0.0
 30
0.0
  3
*D17
  1

  0
LINE
  5
292
330
291
100
AcDbEntity
  8
1
  6
Continuous
 62
     2
100
AcDbLine
 10
-289.258000000025
 20
-149.2501249936782
 30
0.0
 11
-262.758000000025
 21
-149.2501249936782
 31
0.0
  0
LINE
  5
293
330
291
100
AcDbEntity
  8
1
  6
Continuous
 62
     2
100
AcDbLine
 10
-289.258000000025
 20
-123.7501249936782
 30
0.0
 11
-289.258000000025
 21
-150.7501249936782
 31
0.0
  0
LINE
  5
294
330
291
100
AcDbEntity
  8
1
  6
Continuous
 62
     2
100
AcDbLine
 10
-262.758000000025
 20
-123.7501249936782
 30
0.0
 11
-262.758000000025
 21
-150.7501249936782
 31
0.0
  0
SOLID
  5
295
330
291
100
AcDbEntity
  8
1
 62
     2
100
AcDbTrace
 10
-285.758000000025
 20
-148.7893412521223
 30
0.0
 11
-285.758000000025
 21
-149.7109087352341
 31
0.0
 12
-289.258000000025
 22
-149.2501249936782
 32
0.0
 13
-289.258000000025
 23
-149.2501249936782
 33
0.0
  0
SOLID
  5
296
330
291
100
AcDbEntity
  8
1
 62
     2
100
AcDbTrace
 10
-266.258000000025
 20
-149.7109087352341
 30
0.0
 11
-266.258000000025
 21
-148.7893412521223
 31
0.0
 12
-262.758000000025
 22
-149.2501249936782
 32
0.0
 13
-262.758000000025
 23
-149.2501249936782
 33
0.0
  0
MTEXT
  5
297
330
291
100
AcDbEntity
  8
1
 62
     3
100
AcDbMText
 10
-281.6849522820526
 20
-147.4001319507545
 30
0.0
 40
3.5
 41
0.0
 71
     7
 72
     1
  1
\C3;{\Fgdt;n}\C3;26,5
  7
CONVERTER_11
 11
0.9999999999970619
 21
2.424068405545306E-6
 31
0.0
 73
     1
 44
0.60024009603842
  0
ENDBLK
  5
299
330
291
100
AcDbEntity
  8
0
100
AcDbBlockEnd
  0
BLOCK
  5
2A3
330
29C
100
AcDbEntity
  8
0
100
AcDbBlockBegin
  2
*D18
 70
     1
 10
0.0
 20
0.0
 30
0.0
  3
*D18
  1

  0
LINE
  5
29D
330
29C
100
AcDbEntity
  8
1
  6
Continuous
 62
     2
100
AcDbLine
 10
-299.2580000000251
 20
-90.75012499367821
 30
0.0
 11
-299.2580000000251
 21
-139.2501249936782
 31
0.0
  0
LINE
  5
29E
330
29C
100
AcDbEntity
  8
1
  6
Continuous
 62
     2
100
AcDbLine
 10
-285.073000000025
 20
-139.2501249936782
 30
0.0
 11
-300.7580000000251
 21
-139.2501249936782
 31
0.0
  0
LINE
  5
29F
330
29C
100
AcDbEntity
  8
1
  6
Continuous
 62
     2
100
AcDbLine
 10
-285.5280000000251
 20
-90.75012499367821
 30
0.0
 11
-300.7580000000251
 21
-90.75012499367821
 31
0.0
  0
SOLID
  5
2A0
330
29C
100
AcDbEntity
  8
1
 62
     2
100
AcDbTrace
 10
-298.7972162584692
 20
-94.25012499367821
 30
0.0
 11
-299.718783741581
 21
-94.25012499367821
 31
0.0
 12
-299.2580000000251
 22
-90.75012499367821
 32
0.0
 13
-299.2580000000251
 23
-90.75012499367821
 33
0.0
  0
SOLID
  5
2A1
330
29C
100
AcDbEntity
  8
1
 62
     2
100
AcDbTrace
 10
-299.718783741581
 20
-135.7501249936782
 30
0.0
 11
-298.7972162584692
 21
-135.7501249936782
 31
0.0
 12
-299.2580000000251
 22
-139.2501249936782
 32
0.0
 13
-299.2580000000251
 23
-139.2501249936782
 33
0.0
  0
MTEXT
  5
2A2
330
29C
100
AcDbEntity
  8
1
 62
     3
100
AcDbMText
 10
-301.1080000000251
 20
-119.8126249936782
 30
0.0
 40
3.5
 41
0.0
 71
     7
 72
     1
  1
48,5
  7
CONVERTER_11
 11
0.0
 21
1.0
 31
0.0
 73
     1
 44
0.60024009603842
  0
ENDBLK
  5
2A4
330
29C
100
AcDbEntity
  8
0
100
AcDbBlockEnd
  0
ENDSEC
  0
SECTION
  2
ENTITIES
  0
INSERT
  5
86
330
1F
100
AcDbEntity
  8
1
100
AcDbBlockReference
  2
1
 10
0.0
 20
0.0
 30
0.0
  0
ENDSEC
  0
SECTION
  2
OBJECTS
  0
DICTIONARY
  5
C
330
0
100
AcDbDictionary
281
     1
  3
ACAD_GROUP
350
D
  3
ACAD_LAYOUT
350
1A
  3
ACAD_MATERIAL
350
3B
  3
ACAD_MLEADERSTYLE
350
407
  3
ACAD_MLINESTYLE
350
17
  3
ACAD_PLOTSETTINGS
350
19
  3
ACAD_PLOTSTYLENAME
350
E
  3
ACAD_TABLESTYLE
350
406
  3
ACAD_VISUALSTYLE
350
2A
  0
DICTIONARY
  5
D
102
{ACAD_REACTORS
330
C
102
}
330
C
100
AcDbDictionary
281
     1
  0
DICTIONARY
  5
1A
102
{ACAD_REACTORS
330
C
102
}
330
C
100
AcDbDictionary
281
     1
  3
Layout1
350
1E
  3
Layout2
350
26
  3
Model
350
22
  0
DICTIONARY
  5
3B
102
{ACAD_REACTORS
330
C
102
}
330
C
100
AcDbDictionary
281
     1
  3
ByBlock
350
3D
  3
ByLayer
350
3C
  3
Global
350
3E
  0
DICTIONARY
  5
407
102
{ACAD_REACTORS
330
C
102
}
330
C
100
AcDbDictionary
281
     1
  0
DICTIONARY
  5
17
102
{ACAD_REACTORS
330
C
102
}
330
C
100
AcDbDictionary
281
     1
  3
Standard
350
18
  0
DICTIONARY
  5
19
102
{ACAD_REACTORS
330
C
102
}
330
C
100
AcDbDictionary
281
     1
  0
ACDBDICTIONARYWDFLT
  5
E
102
{ACAD_REACTORS
330
C
102
}
330
C
100
AcDbDictionary
281
     1
  3
Normal
350
F
100
AcDbDictionaryWithDefault
340
F
  0
DICTIONARY
  5
406
102
{ACAD_REACTORS
330
C
102
}
330
C
100
AcDbDictionary
281
     1
  0
DICTIONARY
  5
2A
102
{ACAD_REACTORS
330
C
102
}
330
C
100
AcDbDictionary
281
     1
  3
2dWireframe
350
2F
  3
3D Hidden
350
31
  3
3dWireframe
350
30
  3
Basic
350
32
  3
Brighten
350
36
  3
ColorChange
350
3A
  3
Conceptual
350
34
  3
Dim
350
35
  3
Facepattern
350
39
  3
Flat
350
2B
  3
FlatWithEdges
350
2C
  3
Gouraud
350
2D
  3
GouraudWithEdges
350
2E
  3
Linepattern
350
38
  3
Realistic
350
33
  3
Thicken
350
37
  0
LAYOUT
  5
1E
102
{ACAD_REACTORS
330
1A
102
}
330
1A
100
AcDbPlotSettings
  1

  2
none_device
  4

  6

 40
0.0
 41
0.0
 42
0.0
 43
0.0
 44
0.0
 45
0.0
 46
0.0
 47
0.0
 48
0.0
 49
0.0
140
0.0
141
0.0
142
1.0
143
1.0
 70
   688
 72
     0
 73
     0
 74
     5
  7

 75
    16
 76
     0
 77
     2
 78
   300
147
1.0
148
0.0
149
0.0
100
AcDbLayout
  1
Layout1
 70
     1
 71
     1
 10
0.0
 20
0.0
 11
12.0
 21
9.0
 12
0.0
 22
0.0
 32
0.0
 14
1.00000000000000E+20
 24
1.00000000000000E+20
 34
1.00000000000000E+20
 15
-1.00000000000000E+20
 25
-1.00000000000000E+20
 35
-1.00000000000000E+20
146
0.0
 13
0.0
 23
0.0
 33
0.0
 16
1.0
 26
0.0
 36
0.0
 17
0.0
 27
1.0
 37
0.0
 76
     0
330
1B
  0
LAYOUT
  5
26
102
{ACAD_REACTORS
330
1A
102
}
330
1A
100
AcDbPlotSettings
  1

  2
none_device
  4

  6

 40
0.0
 41
0.0
 42
0.0
 43
0.0
 44
0.0
 45
0.0
 46
0.0
 47
0.0
 48
0.0
 49
0.0
140
0.0
141
0.0
142
1.0
143
1.0
 70
   688
 72
     0
 73
     0
 74
     5
  7

 75
    16
 76
     0
 77
     2
 78
   300
147
1.0
148
0.0
149
0.0
100
AcDbLayout
  1
Layout2
 70
     1
 71
     2
 10
0.0
 20
0.0
 11
0.0
 21
0.0
 12
0.0
 22
0.0
 32
0.0
 14
0.0
 24
0.0
 34
0.0
 15
0.0
 25
0.0
 35
0.0
146
0.0
 13
0.0
 23
0.0
 33
0.0
 16
1.0
 26
0.0
 36
0.0
 17
0.0
 27
1.0
 37
0.0
 76
     0
330
23
  0
LAYOUT
  5
22
102
{ACAD_REACTORS
330
1A
102
}
330
1A
100
AcDbPlotSettings
  1

  2
none_device
  4

  6

 40
0.0
 41
0.0
 42
0.0
 43
0.0
 44
0.0
 45
0.0
 46
0.0
 47
0.0
 48
0.0
 49
0.0
140
0.0
141
0.0
142
1.0
143
1.0
 70
  1712
 72
     0
 73
     0
 74
     0
  7

 75
     0
 76
     0
 77
     2
 78
   300
147
1.0
148
0.0
149
0.0
100
AcDbLayout
  1
Model
 70
     1
 71
     0
 10
0.0
 20
0.0
 11
12.0
 21
9.0
 12
0.0
 22
0.0
 32
0.0
 14
-403.5059999999866
 24
-266.002999574687
 34
0.0
 15
-106.5059999999885
 25
-56.00299957468701
 35
0.0
146
0.0
 13
0.0
 23
0.0
 33
0.0
 16
1.0
 26
0.0
 36
0.0
 17
0.0
 27
1.0
 37
0.0
 76
     0
330
1F
331
29
  0
MATERIAL
  5
3D
102
{ACAD_REACTORS
330
3B
102
}
102
{ACAD_XDICTIONARY
360
402
102
}
330
3B
100
AcDbMaterial
  1
ByBlock
  0
MATERIAL
  5
3C
102
{ACAD_REACTORS
330
3B
102
}
102
{ACAD_XDICTIONARY
360
400
102
}
330
3B
100
AcDbMaterial
  1
ByLayer
  0
MATERIAL
  5
3E
102
{ACAD_REACTORS
330
3B
102
}
102
{ACAD_XDICTIONARY
360
404
102
}
330
3B
100
AcDbMaterial
  1
Global
  0
MLINESTYLE
  5
18
102
{ACAD_REACTORS
330
17
102
}
330
17
100
AcDbMlineStyle
  2
Standard
 70
     0
  3

 62
   256
 51
90.0
 52
90.0
 71
     2
 49
0.5
 62
   256
  6
BYLAYER
 49
-0.5
 62
   256
  6
BYLAYER
  0
ACDBPLACEHOLDER
  5
F
102
{ACAD_REACTORS
330
E
102
}
330
E
  0
VISUALSTYLE
  5
2F
102
{ACAD_REACTORS
330
2A
102
}
102
{ACAD_XDICTIONARY
360
3E8
102
}
330
2A
100
AcDbVisualStyle
  2
2dWireframe
 70
     4
 71
     0
 72
     2
 73
     0
 90
        0
 40
-0.6
 41
-30.0
 62
     5
 63
     7
421
 16777215
 74
     1
 91
        4
 64
     7
 65
   257
 75
     1
175
     1
 42
1.0
 92
        0
 66
   257
 43
1.0
 76
     1
 77
     6
 78
     2
 67
     7
 79
     5
170
     0
171
     0
290
     0
174
     0
 93
        1
 44
0.0
173
     0
291
     0
 45
0.0
1001
ACAD
1000
AcDbSavedByObjectVersion
1070
     0
  0
VISUALSTYLE
  5
31
102
{ACAD_REACTORS
330
2A
102
}
102
{ACAD_XDICTIONARY
360
3EC
102
}
330
2A
100
AcDbVisualStyle
  2
3D Hidden
 70
     6
 71
     1
 72
     2
 73
     2
 90
        0
 40
-0.6
 41
-30.0
 62
     5
 63
     7
421
 16777215
 74
     2
 91
        2
 64
     7
 65
   257
 75
     2
175
     1
 42
40.0
 92
        0
 66
   257
 43
1.0
 76
     1
 77
     6
 78
     2
 67
     7
 79
     3
170
     0
171
     0
290
     0
174
     0
 93
        1
 44
0.0
173
     0
291
     0
 45
0.0
1001
ACAD
1000
AcDbSavedByObjectVersion
1070
     0
  0
VISUALSTYLE
  5
30
102
{ACAD_REACTORS
330
2A
102
}
102
{ACAD_XDICTIONARY
360
3EA
102
}
330
2A
100
AcDbVisualStyle
  2
3dWireframe
 70
     5
 71
     0
 72
     2
 73
     0
 90
        0
 40
-0.6
 41
-30.0
 62
     5
 63
     7
421
 16777215
 74
     1
 91
        4
 64
     7
 65
   257
 75
     1
175
     1
 42
1.0
 92
        0
 66
   257
 43
1.0
 76
     1
 77
     6
 78
     2
 67
     7
 79
     5
170
     0
171
     0
290
     0
174
     0
 93
        1
 44
0.0
173
     0
291
     0
 45
0.0
1001
ACAD
1000
AcDbSavedByObjectVersion
1070
     0
  0
VISUALSTYLE
  5
32
102
{ACAD_REACTORS
330
2A
102
}
102
{ACAD_XDICTIONARY
360
3EE
102
}
330
2A
100
AcDbVisualStyle
  2
Basic
 70
     7
 71
     1
 72
     0
 73
     1
 90
        0
 40
-0.6
 41
-30.0
 62
     5
 63
     7
421
 16777215
 74
     0
 91
        4
 64
     7
 65
   257
 75
     1
175
     1
 42
1.0
 92
        8
 66
     7
 43
1.0
 76
     1
 77
     6
 78
     2
 67
     7
 79
     5
170
     0
171
     0
290
     0
174
     0
 93
        1
 44
0.0
173
     0
291
     1
 45
0.0
1001
ACAD
1000
AcDbSavedByObjectVersion
1070
     0
  0
VISUALSTYLE
  5
36
102
{ACAD_REACTORS
330
2A
102
}
102
{ACAD_XDICTIONARY
360
3F6
102
}
330
2A
100
AcDbVisualStyle
  2
Brighten
 70
    12
 71
     2
 72
     2
 73
     0
 90
        0
 40
-0.6
 41
-30.0
 62
     5
 63
     7
421
 16777215
 74
     1
 91
        4
 64
     7
 65
   257
 75
     1
175
     1
 42
1.0
 92
        8
 66
     7
 43
1.0
 76
     1
 77
     6
 78
     2
 67
     7
 79
     5
170
     0
171
     0
290
     0
174
     0
 93
        1
 44
50.0
173
     0
291
     1
 45
0.0
1001
ACAD
1000
AcDbSavedByObjectVersion
1070
     0
  0
VISUALSTYLE
  5
3A
102
{ACAD_REACTORS
330
2A
102
}
102
{ACAD_XDICTIONARY
360
3FE
102
}
330
2A
100
AcDbVisualStyle
  2
ColorChange
 70
    16
 71
     2
 72
     2
 73
     3
 90
        0
 40
-0.6
 41
-30.0
 62
     5
 63
     8
421
  8421504
 74
     1
 91
        4
 64
     7
 65
   257
 75
     1
175
     1
 42
1.0
 92
        8
 66
     8
424
  8421504
 43
1.0
 76
     1
 77
     6
 78
     2
 67
     7
 79
     5
170
     0
171
     0
290
     0
174
     0
 93
        1
 44
0.0
173
     0
291
     1
 45
0.0
1001
ACAD
1000
AcDbSavedByObjectVersion
1070
     0
  0
VISUALSTYLE
  5
34
102
{ACAD_REACTORS
330
2A
102
}
102
{ACAD_XDICTIONARY
360
3F2
102
}
330
2A
100
AcDbVisualStyle
  2
Conceptual
 70
     9
 71
     3
 72
     2
 73
     0
 90
        0
 40
-0.6
 41
-30.0
 62
     5
 63
     7
421
 16777215
 74
     2
 91
        2
 64
     7
 65
   257
 75
     1
175
     1
 42
40.0
 92
        8
 66
     7
 43
1.0
 76
     1
 77
     6
 78
     2
 67
     7
 79
     3
170
     0
171
     0
290
     0
174
     0
 93
        1
 44
0.0
173
     0
291
     0
 45
0.0
1001
ACAD
1000
AcDbSavedByObjectVersion
1070
     0
  0
VISUALSTYLE
  5
35
102
{ACAD_REACTORS
330
2A
102
}
102
{ACAD_XDICTIONARY
360
3F4
102
}
330
2A
100
AcDbVisualStyle
  2
Dim
 70
    11
 71
     2
 72
     2
 73
     0
 90
        0
 40
-0.6
 41
-30.0
 62
     5
 63
     7
421
 16777215
 74
     1
 91
        4
 64
     7
 65
   257
 75
     1
175
     1
 42
1.0
 92
        8
 66
     7
 43
1.0
 76
     1
 77
     6
 78
     2
 67
     7
 79
     5
170
     0
171
     0
290
     0
174
     0
 93
        1
 44
-50.0
173
     0
291
     1
 45
0.0
1001
ACAD
1000
AcDbSavedByObjectVersion
1070
     0
  0
VISUALSTYLE
  5
39
102
{ACAD_REACTORS
330
2A
102
}
102
{ACAD_XDICTIONARY
360
3FC
102
}
330
2A
100
AcDbVisualStyle
  2
Facepattern
 70
    15
 71
     2
 72
     2
 73
     0
 90
        0
 40
-0.6
 41
-30.0
 62
     5
 63
     7
421
 16777215
 74
     1
 91
        4
 64
     7
 65
   257
 75
     1
175
     1
 42
1.0
 92
        8
 66
     7
 43
1.0
 76
     1
 77
     6
 78
     2
 67
     7
 79
     5
170
     0
171
     0
290
     0
174
     0
 93
        1
 44
0.0
173
     0
291
     1
 45
0.0
1001
ACAD
1000
AcDbSavedByObjectVersion
1070
     0
  0
VISUALSTYLE
  5
2B
102
{ACAD_REACTORS
330
2A
102
}
102
{ACAD_XDICTIONARY
360
3E0
102
}
330
2A
100
AcDbVisualStyle
  2
Flat
 70
     0
 71
     2
 72
     1
 73
     1
 90
        2
 40
-0.6
 41
30.0
 62
     5
 63
     7
421
 16777215
 74
     0
 91
        4
 64
     7
 65
   257
 75
     1
175
     1
 42
1.0
 92
        8
 66
     7
 43
1.0
 76
     1
 77
     6
 78
     2
 67
     7
 79
     5
170
     0
171
     0
290
     0
174
     0
 93
       13
 44
0.0
173
     0
291
     1
 45
0.0
1001
ACAD
1000
AcDbSavedByObjectVersion
1070
     0
  0
VISUALSTYLE
  5
2C
102
{ACAD_REACTORS
330
2A
102
}
102
{ACAD_XDICTIONARY
360
3E2
102
}
330
2A
100
AcDbVisualStyle
  2
FlatWithEdges
 70
     1
 71
     2
 72
     1
 73
     1
 90
        2
 40
-0.6
 41
30.0
 62
     5
 63
     7
421
 16777215
 74
     1
 91
        4
 64
     7
 65
   257
 75
     1
175
     1
 42
1.0
 92
        0
 66
   257
 43
1.0
 76
     1
 77
     6
 78
     2
 67
     7
 79
     5
170
     0
171
     0
290
     0
174
     0
 93
       13
 44
0.0
173
     0
291
     1
 45
0.0
1001
ACAD
1000
AcDbSavedByObjectVersion
1070
     0
  0
VISUALSTYLE
  5
2D
102
{ACAD_REACTORS
330
2A
102
}
102
{ACAD_XDICTIONARY
360
3E4
102
}
330
2A
100
AcDbVisualStyle
  2
Gouraud
 70
     2
 71
     2
 72
     2
 73
     1
 90
        2
 40
-0.6
 41
30.0
 62
     5
 63
     7
421
 16777215
 74
     0
 91
        4
 64
     7
 65
   257
 75
     1
175
     1
 42
1.0
 92
        0
 66
     7
 43
1.0
 76
     1
 77
     6
 78
     2
 67
     7
 79
     5
170
     0
171
     0
290
     0
174
     0
 93
       13
 44
0.0
173
     0
291
     1
 45
0.0
1001
ACAD
1000
AcDbSavedByObjectVersion
1070
     0
  0
VISUALSTYLE
  5
2E
102
{ACAD_REACTORS
330
2A
102
}
102
{ACAD_XDICTIONARY
360
3E6
102
}
330
2A
100
AcDbVisualStyle
  2
GouraudWithEdges
 70
     3
 71
     2
 72
     2
 73
     1
 90
        2
 40
-0.6
 41
30.0
 62
     5
 63
     7
421
 16777215
 74
     1
 91
        4
 64
     7
 65
   257
 75
     1
175
     1
 42
1.0
 92
        0
 66
   257
 43
1.0
 76
     1
 77
     6
 78
     2
 67
     7
 79
     5
170
     0
171
     0
290
     0
174
     0
 93
       13
 44
0.0
173
     0
291
     1
 45
0.0
1001
ACAD
1000
AcDbSavedByObjectVersion
1070
     0
  0
VISUALSTYLE
  5
38
102
{ACAD_REACTORS
330
2A
102
}
102
{ACAD_XDICTIONARY
360
3FA
102
}
330
2A
100
AcDbVisualStyle
  2
Linepattern
 70
    14
 71
     2
 72
     2
 73
     0
 90
        0
 40
-0.6
 41
-30.0
 62
     5
 63
     7
421
 16777215
 74
     1
 91
        4
 64
     7
 65
   257
 75
     7
175
     7
 42
1.0
 92
        8
 66
     7
 43
1.0
 76
     1
 77
     6
 78
     2
 67
     7
 79
     5
170
     0
171
     0
290
     0
174
     0
 93
        1
 44
0.0
173
     0
291
     1
 45
0.0
1001
ACAD
1000
AcDbSavedByObjectVersion
1070
     0
  0
VISUALSTYLE
  5
33
102
{ACAD_REACTORS
330
2A
102
}
102
{ACAD_XDICTIONARY
360
3F0
102
}
330
2A
100
AcDbVisualStyle
  2
Realistic
 70
     8
 71
     2
 72
     2
 73
     0
 90
        0
 40
-0.6
 41
-30.0
 62
     5
 63
     7
421
 16777215
 74
     1
 91
        0
 64
     7
 65
   257
 75
     1
175
     1
 42
1.0
 92
        8
 66
     8
424
  7895160
 43
1.0
 76
     1
 77
     6
 78
     2
 67
     7
 79
     5
170
     0
171
     0
290
     0
174
     0
 93
       13
 44
0.0
173
     0
291
     0
 45
0.0
1001
ACAD
1000
AcDbSavedByObjectVersion
1070
     0
  0
VISUALSTYLE
  5
37
102
{ACAD_REACTORS
330
2A
102
}
102
{ACAD_XDICTIONARY
360
3F8
102
}
330
2A
100
AcDbVisualStyle
  2
Thicken
 70
    13
 71
     2
 72
     2
 73
     0
 90
        0
 40
-0.6
 41
-30.0
 62
     5
 63
     7
421
 16777215
 74
     1
 91
        4
 64
     7
 65
   257
 75
     1
175
     1
 42
1.0
 92
       12
 66
     7
 43
1.0
 76
     1
 77
     6
 78
     2
 67
     7
 79
     5
170
     0
171
     0
290
     0
174
     0
 93
        1
 44
0.0
173
     0
291
     1
 45
0.0
1001
ACAD
1000
AcDbSavedByObjectVersion
1070
     0
  0
DICTIONARY
  5
402
330
3D
100
AcDbDictionary
280
     1
281
     1
  3
ACAD_XREC_ROUNDTRIP
360
403
  0
DICTIONARY
  5
400
330
3C
100
AcDbDictionary
280
     1
281
     1
  3
ACAD_XREC_ROUNDTRIP
360
401
  0
DICTIONARY
  5
404
330
3E
100
AcDbDictionary
280
     1
281
     1
  3
ACAD_XREC_ROUNDTRIP
360
405
  0
DICTIONARY
  5
3E8
330
2F
100
AcDbDictionary
280
     1
281
     1
  3
ACAD_XREC_ROUNDTRIP
360
3E9
  0
DICTIONARY
  5
3EC
330
31
100
AcDbDictionary
280
     1
281
     1
  3
ACAD_XREC_ROUNDTRIP
360
3ED
  0
DICTIONARY
  5
3EA
330
30
100
AcDbDictionary
280
     1
281
     1
  3
ACAD_XREC_ROUNDTRIP
360
3EB
  0
DICTIONARY
  5
3EE
330
32
100
AcDbDictionary
280
     1
281
     1
  3
ACAD_XREC_ROUNDTRIP
360
3EF
  0
DICTIONARY
  5
3F6
330
36
100
AcDbDictionary
280
     1
281
     1
  3
ACAD_XREC_ROUNDTRIP
360
3F7
  0
DICTIONARY
  5
3FE
330
3A
100
AcDbDictionary
280
     1
281
     1
  3
ACAD_XREC_ROUNDTRIP
360
3FF
  0
DICTIONARY
  5
3F2
330
34
100
AcDbDictionary
280
     1
281
     1
  3
ACAD_XREC_ROUNDTRIP
360
3F3
  0
DICTIONARY
  5
3F4
330
35
100
AcDbDictionary
280
     1
281
     1
  3
ACAD_XREC_ROUNDTRIP
360
3F5
  0
DICTIONARY
  5
3FC
330
39
100
AcDbDictionary
280
     1
281
     1
  3
ACAD_XREC_ROUNDTRIP
360
3FD
  0
DICTIONARY
  5
3E0
330
2B
100
AcDbDictionary
280
     1
281
     1
  3
ACAD_XREC_ROUNDTRIP
360
3E1
  0
DICTIONARY
  5
3E2
330
2C
100
AcDbDictionary
280
     1
281
     1
  3
ACAD_XREC_ROUNDTRIP
360
3E3
  0
DICTIONARY
  5
3E4
330
2D
100
AcDbDictionary
280
     1
281
     1
  3
ACAD_XREC_ROUNDTRIP
360
3E5
  0
DICTIONARY
  5
3E6
330
2E
100
AcDbDictionary
280
     1
281
     1
  3
ACAD_XREC_ROUNDTRIP
360
3E7
  0
DICTIONARY
  5
3FA
330
38
100
AcDbDictionary
280
     1
281
     1
  3
ACAD_XREC_ROUNDTRIP
360
3FB
  0
DICTIONARY
  5
3F0
330
33
100
AcDbDictionary
280
     1
281
     1
  3
ACAD_XREC_ROUNDTRIP
360
3F1
  0
DICTIONARY
  5
3F8
330
37
100
AcDbDictionary
280
     1
281
     1
  3
ACAD_XREC_ROUNDTRIP
360
3F9
  0
XRECORD
  5
403
102
{ACAD_REACTORS
330
402
102
}
330
402
100
AcDbXrecord
280
     1
102
MATERIAL
148
0.0
149
0.0
149
0.0
 93
        0
 94
      127
282
     0
 72
     1
 77
     1
171
     1
175
     1
179
     1
273
     0
  0
XRECORD
  5
401
102
{ACAD_REACTORS
330
400
102
}
330
400
100
AcDbXrecord
280
     1
102
MATERIAL
148
0.0
149
0.0
149
0.0
 93
        0
 94
      127
282
     0
 72
     1
 77
     1
171
     1
175
     1
179
     1
273
     0
  0
XRECORD
  5
405
102
{ACAD_REACTORS
330
404
102
}
330
404
100
AcDbXrecord
280
     1
102
MATERIAL
148
0.0
149
0.0
149
0.0
 93
        0
 94
      127
282
     0
 72
     1
 77
     1
171
     1
175
     1
179
     1
273
     0
  0
XRECORD
  5
3E9
102
{ACAD_REACTORS
330
3E8
102
}
330
3E8
100
AcDbXrecord
280
     1
102
RTVSPropertyOp0
 70
     1
102
RTVSPropertyOp1
 70
     1
102
RTVSPropertyOp2
 70
     1
102
RTVSPropertyOp3
 70
     1
102
RTVSPropertyOp4
 70
     1
102
RTVSPropertyOp5
 70
     1
102
RTVSPropertyOp6
 70
     1
102
RTVSPropertyOp7
 70
     1
102
RTVSPropertyOp8
 70
     1
102
RTVSPropertyOp9
 70
     1
102
RTVSPropertyOp10
 70
     1
102
RTVSPropertyOp11
 70
     1
102
RTVSPropertyOp12
 70
     1
102
RTVSPropertyOp13
 70
     1
102
RTVSPropertyOp14
 70
     1
102
RTVSPropertyOp15
 70
     1
102
RTVSPropertyOp16
 70
     1
102
RTVSPropertyOp17
 70
     1
102
RTVSPropertyOp18
 70
     1
102
RTVSPropertyOp19
 70
     1
102
RTVSPropertyOp20
 70
     1
102
RTVSPropertyOp21
 70
     1
102
RTVSPropertyOp22
 70
     1
102
RTVSPropertyOp23
 70
     1
102
RTVSPropertyOp24
 70
     1
102
RTVSPropertyOp25
 70
     1
102
RTVSPropertyOp26
 70
     1
102
RTVSPropertyOp27
 70
     1
102
RTVSPropertyOp28
 70
     1
102
RTVSPropertyOp29
 70
     1
102
RTVSPropertyOp30
 70
     1
102
RTVSPropertyOp31
 70
     1
102
RTVSPropertyOp32
 70
     1
  0
XRECORD
  5
3ED
102
{ACAD_REACTORS
330
3EC
102
}
330
3EC
100
AcDbXrecord
280
     1
102
RTVSPropertyOp0
 70
     1
102
RTVSPropertyOp1
 70
     1
102
RTVSPropertyOp2
 70
     1
102
RTVSPropertyOp3
 70
     1
102
RTVSPropertyOp4
 70
     1
102
RTVSPropertyOp5
 70
     1
102
RTVSPropertyOp6
 70
     1
102
RTVSPropertyOp7
 70
     1
102
RTVSPropertyOp8
 70
     1
102
RTVSPropertyOp9
 70
     1
102
RTVSPropertyOp10
 70
     1
102
RTVSPropertyOp11
 70
     1
102
RTVSPropertyOp12
 70
     1
102
RTVSPropertyOp13
 70
     1
102
RTVSPropertyOp14
 70
     1
102
RTVSPropertyOp15
 70
     1
102
RTVSPropertyOp16
 70
     1
102
RTVSPropertyOp17
 70
     1
102
RTVSPropertyOp18
 70
     1
102
RTVSPropertyOp19
 70
     1
102
RTVSPropertyOp20
 70
     1
102
RTVSPropertyOp21
 70
     1
102
RTVSPropertyOp22
 70
     1
102
RTVSPropertyOp23
 70
     1
102
RTVSPropertyOp24
 70
     1
102
RTVSPropertyOp25
 70
     1
102
RTVSPropertyOp26
 70
     1
102
RTVSPropertyOp27
 70
     1
102
RTVSPropertyOp28
 70
     1
102
RTVSPropertyOp29
 70
     1
102
RTVSPropertyOp30
 70
     1
102
RTVSPropertyOp31
 70
     1
102
RTVSPropertyOp32
 70
     1
  0
XRECORD
  5
3EB
102
{ACAD_REACTORS
330
3EA
102
}
330
3EA
100
AcDbXrecord
280
     1
102
RTVSPropertyOp0
 70
     1
102
RTVSPropertyOp1
 70
     1
102
RTVSPropertyOp2
 70
     1
102
RTVSPropertyOp3
 70
     1
102
RTVSPropertyOp4
 70
     1
102
RTVSPropertyOp5
 70
     1
102
RTVSPropertyOp6
 70
     1
102
RTVSPropertyOp7
 70
     1
102
RTVSPropertyOp8
 70
     1
102
RTVSPropertyOp9
 70
     1
102
RTVSPropertyOp10
 70
     1
102
RTVSPropertyOp11
 70
     1
102
RTVSPropertyOp12
 70
     1
102
RTVSPropertyOp13
 70
     1
102
RTVSPropertyOp14
 70
     1
102
RTVSPropertyOp15
 70
     1
102
RTVSPropertyOp16
 70
     1
102
RTVSPropertyOp17
 70
     1
102
RTVSPropertyOp18
 70
     1
102
RTVSPropertyOp19
 70
     1
102
RTVSPropertyOp20
 70
     1
102
RTVSPropertyOp21
 70
     1
102
RTVSPropertyOp22
 70
     1
102
RTVSPropertyOp23
 70
     1
102
RTVSPropertyOp24
 70
     1
102
RTVSPropertyOp25
 70
     1
102
RTVSPropertyOp26
 70
     1
102
RTVSPropertyOp27
 70
     1
102
RTVSPropertyOp28
 70
     1
102
RTVSPropertyOp29
 70
     1
102
RTVSPropertyOp30
 70
     1
102
RTVSPropertyOp31
 70
     1
102
RTVSPropertyOp32
 70
     1
  0
XRECORD
  5
3EF
102
{ACAD_REACTORS
330
3EE
102
}
330
3EE
100
AcDbXrecord
280
     1
102
RTVSPropertyOp0
 70
     1
102
RTVSPropertyOp1
 70
     1
102
RTVSPropertyOp2
 70
     1
102
RTVSPropertyOp3
 70
     1
102
RTVSPropertyOp4
 70
     1
102
RTVSPropertyOp5
 70
     1
102
RTVSPropertyOp6
 70
     1
102
RTVSPropertyOp7
 70
     1
102
RTVSPropertyOp8
 70
     1
102
RTVSPropertyOp9
 70
     1
102
RTVSPropertyOp10
 70
     1
102
RTVSPropertyOp11
 70
     1
102
RTVSPropertyOp12
 70
     1
102
RTVSPropertyOp13
 70
     1
102
RTVSPropertyOp14
 70
     1
102
RTVSPropertyOp15
 70
     1
102
RTVSPropertyOp16
 70
     1
102
RTVSPropertyOp17
 70
     1
102
RTVSPropertyOp18
 70
     1
102
RTVSPropertyOp19
 70
     1
102
RTVSPropertyOp20
 70
     1
102
RTVSPropertyOp21
 70
     1
102
RTVSPropertyOp22
 70
     1
102
RTVSPropertyOp23
 70
     1
102
RTVSPropertyOp24
 70
     1
102
RTVSPropertyOp25
 70
     1
102
RTVSPropertyOp26
 70
     1
102
RTVSPropertyOp27
 70
     1
102
RTVSPropertyOp28
 70
     1
102
RTVSPropertyOp29
 70
     1
102
RTVSPropertyOp30
 70
     1
102
RTVSPropertyOp31
 70
     1
102
RTVSPropertyOp32
 70
     1
  0
XRECORD
  5
3F7
102
{ACAD_REACTORS
330
3F6
102
}
330
3F6
100
AcDbXrecord
280
     1
102
RTVSPropertyOp0
 70
     1
102
RTVSPropertyOp1
 70
     1
102
RTVSPropertyOp2
 70
     1
102
RTVSPropertyOp3
 70
     1
102
RTVSPropertyOp4
 70
     1
102
RTVSPropertyOp5
 70
     1
102
RTVSPropertyOp6
 70
     1
102
RTVSPropertyOp7
 70
     1
102
RTVSPropertyOp8
 70
     1
102
RTVSPropertyOp9
 70
     1
102
RTVSPropertyOp10
 70
     1
102
RTVSPropertyOp11
 70
     1
102
RTVSPropertyOp12
 70
     1
102
RTVSPropertyOp13
 70
     1
102
RTVSPropertyOp14
 70
     1
102
RTVSPropertyOp15
 70
     1
102
RTVSPropertyOp16
 70
     1
102
RTVSPropertyOp17
 70
     1
102
RTVSPropertyOp18
 70
     1
102
RTVSPropertyOp19
 70
     1
102
RTVSPropertyOp20
 70
     1
102
RTVSPropertyOp21
 70
     1
102
RTVSPropertyOp22
 70
     1
102
RTVSPropertyOp23
 70
     1
102
RTVSPropertyOp24
 70
     1
102
RTVSPropertyOp25
 70
     1
102
RTVSPropertyOp26
 70
     1
102
RTVSPropertyOp27
 70
     1
102
RTVSPropertyOp28
 70
     1
102
RTVSPropertyOp29
 70
     1
102
RTVSPropertyOp30
 70
     1
102
RTVSPropertyOp31
 70
     1
102
RTVSPropertyOp32
 70
     1
  0
XRECORD
  5
3FF
102
{ACAD_REACTORS
330
3FE
102
}
330
3FE
100
AcDbXrecord
280
     1
102
RTVSPropertyOp0
 70
     1
102
RTVSPropertyOp1
 70
     1
102
RTVSPropertyOp2
 70
     1
102
RTVSPropertyOp3
 70
     1
102
RTVSPropertyOp4
 70
     1
102
RTVSPropertyOp5
 70
     1
102
RTVSPropertyOp6
 70
     1
102
RTVSPropertyOp7
 70
     1
102
RTVSPropertyOp8
 70
     1
102
RTVSPropertyOp9
 70
     1
102
RTVSPropertyOp10
 70
     1
102
RTVSPropertyOp11
 70
     1
102
RTVSPropertyOp12
 70
     1
102
RTVSPropertyOp13
 70
     1
102
RTVSPropertyOp14
 70
     1
102
RTVSPropertyOp15
 70
     1
102
RTVSPropertyOp16
 70
     1
102
RTVSPropertyOp17
 70
     1
102
RTVSPropertyOp18
 70
     1
102
RTVSPropertyOp19
 70
     1
102
RTVSPropertyOp20
 70
     1
102
RTVSPropertyOp21
 70
     1
102
RTVSPropertyOp22
 70
     1
102
RTVSPropertyOp23
 70
     1
102
RTVSPropertyOp24
 70
     1
102
RTVSPropertyOp25
 70
     1
102
RTVSPropertyOp26
 70
     1
102
RTVSPropertyOp27
 70
     1
102
RTVSPropertyOp28
 70
     1
102
RTVSPropertyOp29
 70
     1
102
RTVSPropertyOp30
 70
     1
102
RTVSPropertyOp31
 70
     1
102
RTVSPropertyOp32
 70
     1
  0
XRECORD
  5
3F3
102
{ACAD_REACTORS
330
3F2
102
}
330
3F2
100
AcDbXrecord
280
     1
102
RTVSPropertyOp0
 70
     1
102
RTVSPropertyOp1
 70
     1
102
RTVSPropertyOp2
 70
     1
102
RTVSPropertyOp3
 70
     1
102
RTVSPropertyOp4
 70
     1
102
RTVSPropertyOp5
 70
     1
102
RTVSPropertyOp6
 70
     1
102
RTVSPropertyOp7
 70
     1
102
RTVSPropertyOp8
 70
     1
102
RTVSPropertyOp9
 70
     1
102
RTVSPropertyOp10
 70
     1
102
RTVSPropertyOp11
 70
     1
102
RTVSPropertyOp12
 70
     1
102
RTVSPropertyOp13
 70
     1
102
RTVSPropertyOp14
 70
     1
102
RTVSPropertyOp15
 70
     1
102
RTVSPropertyOp16
 70
     1
102
RTVSPropertyOp17
 70
     1
102
RTVSPropertyOp18
 70
     1
102
RTVSPropertyOp19
 70
     1
102
RTVSPropertyOp20
 70
     1
102
RTVSPropertyOp21
 70
     1
102
RTVSPropertyOp22
 70
     1
102
RTVSPropertyOp23
 70
     1
102
RTVSPropertyOp24
 70
     1
102
RTVSPropertyOp25
 70
     1
102
RTVSPropertyOp26
 70
     1
102
RTVSPropertyOp27
 70
     1
102
RTVSPropertyOp28
 70
     1
102
RTVSPropertyOp29
 70
     1
102
RTVSPropertyOp30
 70
     1
102
RTVSPropertyOp31
 70
     1
102
RTVSPropertyOp32
 70
     1
  0
XRECORD
  5
3F5
102
{ACAD_REACTORS
330
3F4
102
}
330
3F4
100
AcDbXrecord
280
     1
102
RTVSPropertyOp0
 70
     1
102
RTVSPropertyOp1
 70
     1
102
RTVSPropertyOp2
 70
     1
102
RTVSPropertyOp3
 70
     1
102
RTVSPropertyOp4
 70
     1
102
RTVSPropertyOp5
 70
     1
102
RTVSPropertyOp6
 70
     1
102
RTVSPropertyOp7
 70
     1
102
RTVSPropertyOp8
 70
     1
102
RTVSPropertyOp9
 70
     1
102
RTVSPropertyOp10
 70
     1
102
RTVSPropertyOp11
 70
     1
102
RTVSPropertyOp12
 70
     1
102
RTVSPropertyOp13
 70
     1
102
RTVSPropertyOp14
 70
     1
102
RTVSPropertyOp15
 70
     1
102
RTVSPropertyOp16
 70
     1
102
RTVSPropertyOp17
 70
     1
102
RTVSPropertyOp18
 70
     1
102
RTVSPropertyOp19
 70
     1
102
RTVSPropertyOp20
 70
     1
102
RTVSPropertyOp21
 70
     1
102
RTVSPropertyOp22
 70
     1
102
RTVSPropertyOp23
 70
     1
102
RTVSPropertyOp24
 70
     1
102
RTVSPropertyOp25
 70
     1
102
RTVSPropertyOp26
 70
     1
102
RTVSPropertyOp27
 70
     1
102
RTVSPropertyOp28
 70
     1
102
RTVSPropertyOp29
 70
     1
102
RTVSPropertyOp30
 70
     1
102
RTVSPropertyOp31
 70
     1
102
RTVSPropertyOp32
 70
     1
  0
XRECORD
  5
3FD
102
{ACAD_REACTORS
330
3FC
102
}
330
3FC
100
AcDbXrecord
280
     1
102
RTVSPropertyOp0
 70
     1
102
RTVSPropertyOp1
 70
     1
102
RTVSPropertyOp2
 70
     1
102
RTVSPropertyOp3
 70
     1
102
RTVSPropertyOp4
 70
     1
102
RTVSPropertyOp5
 70
     1
102
RTVSPropertyOp6
 70
     1
102
RTVSPropertyOp7
 70
     1
102
RTVSPropertyOp8
 70
     1
102
RTVSPropertyOp9
 70
     1
102
RTVSPropertyOp10
 70
     1
102
RTVSPropertyOp11
 70
     1
102
RTVSPropertyOp12
 70
     1
102
RTVSPropertyOp13
 70
     1
102
RTVSPropertyOp14
 70
     1
102
RTVSPropertyOp15
 70
     1
102
RTVSPropertyOp16
 70
     1
102
RTVSPropertyOp17
 70
     1
102
RTVSPropertyOp18
 70
     1
102
RTVSPropertyOp19
 70
     1
102
RTVSPropertyOp20
 70
     1
102
RTVSPropertyOp21
 70
     1
102
RTVSPropertyOp22
 70
     1
102
RTVSPropertyOp23
 70
     1
102
RTVSPropertyOp24
 70
     1
102
RTVSPropertyOp25
 70
     1
102
RTVSPropertyOp26
 70
     1
102
RTVSPropertyOp27
 70
     1
102
RTVSPropertyOp28
 70
     1
102
RTVSPropertyOp29
 70
     1
102
RTVSPropertyOp30
 70
     1
102
RTVSPropertyOp31
 70
     1
102
RTVSPropertyOp32
 70
     1
  0
XRECORD
  5
3E1
102
{ACAD_REACTORS
330
3E0
102
}
330
3E0
100
AcDbXrecord
280
     1
102
RTVSPropertyOp0
 70
     1
102
RTVSPropertyOp1
 70
     1
102
RTVSPropertyOp2
 70
     1
102
RTVSPropertyOp3
 70
     1
102
RTVSPropertyOp4
 70
     1
102
RTVSPropertyOp5
 70
     1
102
RTVSPropertyOp6
 70
     1
102
RTVSPropertyOp7
 70
     1
102
RTVSPropertyOp8
 70
     1
102
RTVSPropertyOp9
 70
     1
102
RTVSPropertyOp10
 70
     1
102
RTVSPropertyOp11
 70
     1
102
RTVSPropertyOp12
 70
     1
102
RTVSPropertyOp13
 70
     1
102
RTVSPropertyOp14
 70
     1
102
RTVSPropertyOp15
 70
     1
102
RTVSPropertyOp16
 70
     1
102
RTVSPropertyOp17
 70
     1
102
RTVSPropertyOp18
 70
     1
102
RTVSPropertyOp19
 70
     1
102
RTVSPropertyOp20
 70
     1
102
RTVSPropertyOp21
 70
     1
102
RTVSPropertyOp22
 70
     1
102
RTVSPropertyOp23
 70
     1
102
RTVSPropertyOp24
 70
     1
102
RTVSPropertyOp25
 70
     1
102
RTVSPropertyOp26
 70
     1
102
RTVSPropertyOp27
 70
     1
102
RTVSPropertyOp28
 70
     1
102
RTVSPropertyOp29
 70
     1
102
RTVSPropertyOp30
 70
     1
102
RTVSPropertyOp31
 70
     1
102
RTVSPropertyOp32
 70
     1
  0
XRECORD
  5
3E3
102
{ACAD_REACTORS
330
3E2
102
}
330
3E2
100
AcDbXrecord
280
     1
102
RTVSPropertyOp0
 70
     1
102
RTVSPropertyOp1
 70
     1
102
RTVSPropertyOp2
 70
     1
102
RTVSPropertyOp3
 70
     1
102
RTVSPropertyOp4
 70
     1
102
RTVSPropertyOp5
 70
     1
102
RTVSPropertyOp6
 70
     1
102
RTVSPropertyOp7
 70
     1
102
RTVSPropertyOp8
 70
     1
102
RTVSPropertyOp9
 70
     1
102
RTVSPropertyOp10
 70
     1
102
RTVSPropertyOp11
 70
     1
102
RTVSPropertyOp12
 70
     1
102
RTVSPropertyOp13
 70
     1
102
RTVSPropertyOp14
 70
     1
102
RTVSPropertyOp15
 70
     1
102
RTVSPropertyOp16
 70
     1
102
RTVSPropertyOp17
 70
     1
102
RTVSPropertyOp18
 70
     1
102
RTVSPropertyOp19
 70
     1
102
RTVSPropertyOp20
 70
     1
102
RTVSPropertyOp21
 70
     1
102
RTVSPropertyOp22
 70
     1
102
RTVSPropertyOp23
 70
     1
102
RTVSPropertyOp24
 70
     1
102
RTVSPropertyOp25
 70
     1
102
RTVSPropertyOp26
 70
     1
102
RTVSPropertyOp27
 70
     1
102
RTVSPropertyOp28
 70
     1
102
RTVSPropertyOp29
 70
     1
102
RTVSPropertyOp30
 70
     1
102
RTVSPropertyOp31
 70
     1
102
RTVSPropertyOp32
 70
     1
  0
XRECORD
  5
3E5
102
{ACAD_REACTORS
330
3E4
102
}
330
3E4
100
AcDbXrecord
280
     1
102
RTVSPropertyOp0
 70
     1
102
RTVSPropertyOp1
 70
     1
102
RTVSPropertyOp2
 70
     1
102
RTVSPropertyOp3
 70
     1
102
RTVSPropertyOp4
 70
     1
102
RTVSPropertyOp5
 70
     1
102
RTVSPropertyOp6
 70
     1
102
RTVSPropertyOp7
 70
     1
102
RTVSPropertyOp8
 70
     1
102
RTVSPropertyOp9
 70
     1
102
RTVSPropertyOp10
 70
     1
102
RTVSPropertyOp11
 70
     1
102
RTVSPropertyOp12
 70
     1
102
RTVSPropertyOp13
 70
     1
102
RTVSPropertyOp14
 70
     1
102
RTVSPropertyOp15
 70
     1
102
RTVSPropertyOp16
 70
     1
102
RTVSPropertyOp17
 70
     1
102
RTVSPropertyOp18
 70
     1
102
RTVSPropertyOp19
 70
     1
102
RTVSPropertyOp20
 70
     1
102
RTVSPropertyOp21
 70
     1
102
RTVSPropertyOp22
 70
     1
102
RTVSPropertyOp23
 70
     1
102
RTVSPropertyOp24
 70
     1
102
RTVSPropertyOp25
 70
     1
102
RTVSPropertyOp26
 70
     1
102
RTVSPropertyOp27
 70
     1
102
RTVSPropertyOp28
 70
     1
102
RTVSPropertyOp29
 70
     1
102
RTVSPropertyOp30
 70
     1
102
RTVSPropertyOp31
 70
     1
102
RTVSPropertyOp32
 70
     1
  0
XRECORD
  5
3E7
102
{ACAD_REACTORS
330
3E6
102
}
330
3E6
100
AcDbXrecord
280
     1
102
RTVSPropertyOp0
 70
     1
102
RTVSPropertyOp1
 70
     1
102
RTVSPropertyOp2
 70
     1
102
RTVSPropertyOp3
 70
     1
102
RTVSPropertyOp4
 70
     1
102
RTVSPropertyOp5
 70
     1
102
RTVSPropertyOp6
 70
     1
102
RTVSPropertyOp7
 70
     1
102
RTVSPropertyOp8
 70
     1
102
RTVSPropertyOp9
 70
     1
102
RTVSPropertyOp10
 70
     1
102
RTVSPropertyOp11
 70
     1
102
RTVSPropertyOp12
 70
     1
102
RTVSPropertyOp13
 70
     1
102
RTVSPropertyOp14
 70
     1
102
RTVSPropertyOp15
 70
     1
102
RTVSPropertyOp16
 70
     1
102
RTVSPropertyOp17
 70
     1
102
RTVSPropertyOp18
 70
     1
102
RTVSPropertyOp19
 70
     1
102
RTVSPropertyOp20
 70
     1
102
RTVSPropertyOp21
 70
     1
102
RTVSPropertyOp22
 70
     1
102
RTVSPropertyOp23
 70
     1
102
RTVSPropertyOp24
 70
     1
102
RTVSPropertyOp25
 70
     1
102
RTVSPropertyOp26
 70
     1
102
RTVSPropertyOp27
 70
     1
102
RTVSPropertyOp28
 70
     1
102
RTVSPropertyOp29
 70
     1
102
RTVSPropertyOp30
 70
     1
102
RTVSPropertyOp31
 70
     1
102
RTVSPropertyOp32
 70
     1
  0
XRECORD
  5
3FB
102
{ACAD_REACTORS
330
3FA
102
}
330
3FA
100
AcDbXrecord
280
     1
102
RTVSPropertyOp0
 70
     1
102
RTVSPropertyOp1
 70
     1
102
RTVSPropertyOp2
 70
     1
102
RTVSPropertyOp3
 70
     1
102
RTVSPropertyOp4
 70
     1
102
RTVSPropertyOp5
 70
     1
102
RTVSPropertyOp6
 70
     1
102
RTVSPropertyOp7
 70
     1
102
RTVSPropertyOp8
 70
     1
102
RTVSPropertyOp9
 70
     1
102
RTVSPropertyOp10
 70
     1
102
RTVSPropertyOp11
 70
     1
102
RTVSPropertyOp12
 70
     1
102
RTVSPropertyOp13
 70
     1
102
RTVSPropertyOp14
 70
     1
102
RTVSPropertyOp15
 70
     1
102
RTVSPropertyOp16
 70
     1
102
RTVSPropertyOp17
 70
     1
102
RTVSPropertyOp18
 70
     1
102
RTVSPropertyOp19
 70
     1
102
RTVSPropertyOp20
 70
     1
102
RTVSPropertyOp21
 70
     1
102
RTVSPropertyOp22
 70
     1
102
RTVSPropertyOp23
 70
     1
102
RTVSPropertyOp24
 70
     1
102
RTVSPropertyOp25
 70
     1
102
RTVSPropertyOp26
 70
     1
102
RTVSPropertyOp27
 70
     1
102
RTVSPropertyOp28
 70
     1
102
RTVSPropertyOp29
 70
     1
102
RTVSPropertyOp30
 70
     1
102
RTVSPropertyOp31
 70
     1
102
RTVSPropertyOp32
 70
     1
  0
XRECORD
  5
3F1
102
{ACAD_REACTORS
330
3F0
102
}
330
3F0
100
AcDbXrecord
280
     1
102
RTVSPropertyOp0
 70
     1
102
RTVSPropertyOp1
 70
     1
102
RTVSPropertyOp2
 70
     1
102
RTVSPropertyOp3
 70
     1
102
RTVSPropertyOp4
 70
     1
102
RTVSPropertyOp5
 70
     1
102
RTVSPropertyOp6
 70
     1
102
RTVSPropertyOp7
 70
     1
102
RTVSPropertyOp8
 70
     1
102
RTVSPropertyOp9
 70
     1
102
RTVSPropertyOp10
 70
     1
102
RTVSPropertyOp11
 70
     1
102
RTVSPropertyOp12
 70
     1
102
RTVSPropertyOp13
 70
     1
102
RTVSPropertyOp14
 70
     1
102
RTVSPropertyOp15
 70
     1
102
RTVSPropertyOp16
 70
     1
102
RTVSPropertyOp17
 70
     1
102
RTVSPropertyOp18
 70
     1
102
RTVSPropertyOp19
 70
     1
102
RTVSPropertyOp20
 70
     1
102
RTVSPropertyOp21
 70
     1
102
RTVSPropertyOp22
 70
     1
102
RTVSPropertyOp23
 70
     1
102
RTVSPropertyOp24
 70
     1
102
RTVSPropertyOp25
 70
     1
102
RTVSPropertyOp26
 70
     1
102
RTVSPropertyOp27
 70
     1
102
RTVSPropertyOp28
 70
     1
102
RTVSPropertyOp29
 70
     1
102
RTVSPropertyOp30
 70
     1
102
RTVSPropertyOp31
 70
     1
102
RTVSPropertyOp32
 70
     1
  0
XRECORD
  5
3F9
102
{ACAD_REACTORS
330
3F8
102
}
330
3F8
100
AcDbXrecord
280
     1
102
RTVSPropertyOp0
 70
     1
102
RTVSPropertyOp1
 70
     1
102
RTVSPropertyOp2
 70
     1
102
RTVSPropertyOp3
 70
     1
102
RTVSPropertyOp4
 70
     1
102
RTVSPropertyOp5
 70
     1
102
RTVSPropertyOp6
 70
     1
102
RTVSPropertyOp7
 70
     1
102
RTVSPropertyOp8
 70
     1
102
RTVSPropertyOp9
 70
     1
102
RTVSPropertyOp10
 70
     1
102
RTVSPropertyOp11
 70
     1
102
RTVSPropertyOp12
 70
     1
102
RTVSPropertyOp13
 70
     1
102
RTVSPropertyOp14
 70
     1
102
RTVSPropertyOp15
 70
     1
102
RTVSPropertyOp16
 70
     1
102
RTVSPropertyOp17
 70
     1
102
RTVSPropertyOp18
 70
     1
102
RTVSPropertyOp19
 70
     1
102
RTVSPropertyOp20
 70
     1
102
RTVSPropertyOp21
 70
     1
102
RTVSPropertyOp22
 70
     1
102
RTVSPropertyOp23
 70
     1
102
RTVSPropertyOp24
 70
     1
102
RTVSPropertyOp25
 70
     1
102
RTVSPropertyOp26
 70
     1
102
RTVSPropertyOp27
 70
     1
102
RTVSPropertyOp28
 70
     1
102
RTVSPropertyOp29
 70
     1
102
RTVSPropertyOp30
 70
     1
102
RTVSPropertyOp31
 70
     1
102
RTVSPropertyOp32
 70
     1
  0
ENDSEC
  0
EOF
