  0
SECTION
  2
HEADER
  9
$ACADVER
  1
AC1018
  9
$ACADMAINTVER
 70
     0
  9
$DWGCODEPAGE
  3
ANSI_1252
  9
$INSBASE
 10
0.0
 20
0.0
 30
0.0
  9
$EXTMIN
 10
-415.499999999989
 20
-267.0000000000051
 30
0.0
  9
$EXTMAX
 10
-118.4999999999909
 20
-57.000000000005
 30
0.0
  9
$LIMMIN
 10
0.0
 20
0.0
  9
$LIMMAX
 10
12.0
 20
9.0
  9
$ORTHOMODE
 70
     0
  9
$REGENMODE
 70
     1
  9
$FILLMODE
 70
     1
  9
$QTEXTMODE
 70
     0
  9
$MIRRTEXT
 70
     1
  9
$LTSCALE
 40
1.0
  9
$ATTMODE
 70
     1
  9
$TEXTSIZE
 40
0.2
  9
$TRACEWID
 40
0.05
  9
$TEXTSTYLE
  7
Standard
  9
$CLAYER
  8
0
  9
$CELTYPE
  6
ByLayer
  9
$CECOLOR
 62
   256
  9
$CELTSCALE
 40
1.0
  9
$DISPSILH
 70
     0
  9
$DIMSCALE
 40
1.0
  9
$DIMASZ
 40
0.18
  9
$DIMEXO
 40
0.0625
  9
$DIMDLI
 40
0.38
  9
$DIMRND
 40
0.0
  9
$DIMDLE
 40
0.0
  9
$DIMEXE
 40
0.18
  9
$DIMTP
 40
0.0
  9
$DIMTM
 40
0.0
  9
$DIMTXT
 40
0.18
  9
$DIMCEN
 40
0.09
  9
$DIMTSZ
 40
0.0
  9
$DIMTOL
 70
     0
  9
$DIMLIM
 70
     0
  9
$DIMTIH
 70
     1
  9
$DIMTOH
 70
     1
  9
$DIMSE1
 70
     0
  9
$DIMSE2
 70
     0
  9
$DIMTAD
 70
     0
  9
$DIMZIN
 70
     0
  9
$DIMBLK
  1

  9
$DIMASO
 70
     1
  9
$DIMSHO
 70
     1
  9
$DIMPOST
  1

  9
$DIMAPOST
  1

  9
$DIMALT
 70
     0
  9
$DIMALTD
 70
     2
  9
$DIMALTF
 40
25.4
  9
$DIMLFAC
 40
1.0
  9
$DIMTOFL
 70
     0
  9
$DIMTVP
 40
0.0
  9
$DIMTIX
 70
     0
  9
$DIMSOXD
 70
     0
  9
$DIMSAH
 70
     0
  9
$DIMBLK1
  1

  9
$DIMBLK2
  1

  9
$DIMSTYLE
  2
Standard
  9
$DIMCLRD
 70
     0
  9
$DIMCLRE
 70
     0
  9
$DIMCLRT
 70
     0
  9
$DIMTFAC
 40
1.0
  9
$DIMGAP
 40
0.09
  9
$DIMJUST
 70
     0
  9
$DIMSD1
 70
     0
  9
$DIMSD2
 70
     0
  9
$DIMTOLJ
 70
     1
  9
$DIMTZIN
 70
     0
  9
$DIMALTZ
 70
     0
  9
$DIMALTTZ
 70
     0
  9
$DIMUPT
 70
     0
  9
$DIMDEC
 70
     4
  9
$DIMTDEC
 70
     4
  9
$DIMALTU
 70
     2
  9
$DIMALTTD
 70
     2
  9
$DIMTXSTY
  7
Standard
  9
$DIMAUNIT
 70
     0
  9
$DIMADEC
 70
     0
  9
$DIMALTRND
 40
0.0
  9
$DIMAZIN
 70
     0
  9
$DIMDSEP
 70
    46
  9
$DIMATFIT
 70
     3
  9
$DIMFRAC
 70
     0
  9
$DIMLDRBLK
  1

  9
$DIMLUNIT
 70
     2
  9
$DIMLWD
 70
    -2
  9
$DIMLWE
 70
    -2
  9
$DIMTMOVE
 70
     0
  9
$LUNITS
 70
     2
  9
$LUPREC
 70
     4
  9
$SKETCHINC
 40
0.1
  9
$FILLETRAD
 40
0.5
  9
$AUNITS
 70
     0
  9
$AUPREC
 70
     0
  9
$MENU
  1
.
  9
$ELEVATION
 40
0.0
  9
$PELEVATION
 40
0.0
  9
$THICKNESS
 40
0.0
  9
$LIMCHECK
 70
     0
  9
$CHAMFERA
 40
0.5
  9
$CHAMFERB
 40
0.5
  9
$CHAMFERC
 40
1.0
  9
$CHAMFERD
 40
0.0
  9
$SKPOLY
 70
     0
  9
$TDCREATE
 40
2458061.374253484
  9
$TDUCREATE
 40
2458061.332586817
  9
$TDUPDATE
 40
2458061.374254028
  9
$TDUUPDATE
 40
2458061.332587361
  9
$TDINDWG
 40
0.0000000116
  9
$TDUSRTIMER
 40
0.0000000116
  9
$USRTIMER
 70
     1
  9
$ANGBASE
 50
0.0
  9
$ANGDIR
 70
     0
  9
$PDMODE
 70
     0
  9
$PDSIZE
 40
0.0
  9
$PLINEWID
 40
0.0
  9
$SPLFRAME
 70
     0
  9
$SPLINETYPE
 70
     6
  9
$SPLINESEGS
 70
     8
  9
$HANDSEED
  5
3A6
  9
$SURFTAB1
 70
     6
  9
$SURFTAB2
 70
     6
  9
$SURFTYPE
 70
     6
  9
$SURFU
 70
     6
  9
$SURFV
 70
     6
  9
$UCSBASE
  2

  9
$UCSNAME
  2

  9
$UCSORG
 10
0.0
 20
0.0
 30
0.0
  9
$UCSXDIR
 10
1.0
 20
0.0
 30
0.0
  9
$UCSYDIR
 10
0.0
 20
1.0
 30
0.0
  9
$UCSORTHOREF
  2

  9
$UCSORTHOVIEW
 70
     0
  9
$UCSORGTOP
 10
0.0
 20
0.0
 30
0.0
  9
$UCSORGBOTTOM
 10
0.0
 20
0.0
 30
0.0
  9
$UCSORGLEFT
 10
0.0
 20
0.0
 30
0.0
  9
$UCSORGRIGHT
 10
0.0
 20
0.0
 30
0.0
  9
$UCSORGFRONT
 10
0.0
 20
0.0
 30
0.0
  9
$UCSORGBACK
 10
0.0
 20
0.0
 30
0.0
  9
$PUCSBASE
  2

  9
$PUCSNAME
  2

  9
$PUCSORG
 10
0.0
 20
0.0
 30
0.0
  9
$PUCSXDIR
 10
1.0
 20
0.0
 30
0.0
  9
$PUCSYDIR
 10
0.0
 20
1.0
 30
0.0
  9
$PUCSORTHOREF
  2

  9
$PUCSORTHOVIEW
 70
     0
  9
$PUCSORGTOP
 10
0.0
 20
0.0
 30
0.0
  9
$PUCSORGBOTTOM
 10
0.0
 20
0.0
 30
0.0
  9
$PUCSORGLEFT
 10
0.0
 20
0.0
 30
0.0
  9
$PUCSORGRIGHT
 10
0.0
 20
0.0
 30
0.0
  9
$PUCSORGFRONT
 10
0.0
 20
0.0
 30
0.0
  9
$PUCSORGBACK
 10
0.0
 20
0.0
 30
0.0
  9
$USERI1
 70
     0
  9
$USERI2
 70
     0
  9
$USERI3
 70
     0
  9
$USERI4
 70
     0
  9
$USERI5
 70
     0
  9
$USERR1
 40
18.1
  9
$USERR2
 40
0.0
  9
$USERR3
 40
0.0
  9
$USERR4
 40
0.0
  9
$USERR5
 40
0.0
  9
$WORLDVIEW
 70
     1
  9
$SHADEDGE
 70
     3
  9
$SHADEDIF
 70
    70
  9
$TILEMODE
 70
     1
  9
$MAXACTVP
 70
    64
  9
$PINSBASE
 10
0.0
 20
0.0
 30
0.0
  9
$PLIMCHECK
 70
     0
  9
$PEXTMIN
 10
1.00000000000000E+20
 20
1.00000000000000E+20
 30
1.00000000000000E+20
  9
$PEXTMAX
 10
-1.00000000000000E+20
 20
-1.00000000000000E+20
 30
-1.00000000000000E+20
  9
$PLIMMIN
 10
0.0
 20
0.0
  9
$PLIMMAX
 10
12.0
 20
9.0
  9
$UNITMODE
 70
     0
  9
$VISRETAIN
 70
     1
  9
$PLINEGEN
 70
     0
  9
$PSLTSCALE
 70
     1
  9
$TREEDEPTH
 70
  3020
  9
$CMLSTYLE
  2
Standard
  9
$CMLJUST
 70
     0
  9
$CMLSCALE
 40
1.0
  9
$PROXYGRAPHICS
 70
     1
  9
$MEASUREMENT
 70
     1
  9
$CELWEIGHT
370
    -1
  9
$ENDCAPS
280
     0
  9
$JOINSTYLE
280
     0
  9
$LWDISPLAY
290
     0
  9
$INSUNITS
 70
     4
  9
$HYPERLINKBASE
  1

  9
$STYLESHEET
  1

  9
$XEDIT
290
     1
  9
$CEPSNTYPE
380
     0
  9
$PSTYLEMODE
290
     1
  9
$FINGERPRINTGUID
  2
{5F0FD57F-17BD-4724-B246-BA869A64DB57}
  9
$VERSIONGUID
  2
{FAEB1C32-E019-11D5-929B-00C0DF256EC4}
  9
$EXTNAMES
290
     1
  9
$PSVPSCALE
 40
0.0
  9
$OLESTARTUP
290
     0
  9
$SORTENTS
280
   127
  9
$INDEXCTL
280
     0
  9
$HIDETEXT
280
     1
  9
$XCLIPFRAME
290
     0
  9
$HALOGAP
280
     0
  9
$OBSCOLOR
 70
   257
  9
$OBSLTYPE
280
     0
  9
$INTERSECTIONDISPLAY
280
     0
  9
$INTERSECTIONCOLOR
 70
   257
  9
$DIMASSOC
280
     2
  9
$PROJECTNAME
  1

  0
ENDSEC
  0
SECTION
  2
CLASSES
  0
CLASS
  1
ACDBDICTIONARYWDFLT
  2
AcDbDictionaryWithDefault
  3
ObjectDBX Classes
 90
        0
 91
        4
280
     0
281
     0
  0
CLASS
  1
VISUALSTYLE
  2
AcDbVisualStyle
  3
ObjectDBX Classes
 90
     4095
 91
        4
280
     0
281
     0
  0
CLASS
  1
MATERIAL
  2
AcDbMaterial
  3
ObjectDBX Classes
 90
     1153
 91
        4
280
     0
281
     0
  0
ENDSEC
  0
SECTION
  2
TABLES
  0
TABLE
  2
VPORT
  5
8
330
0
100
AcDbSymbolTable
 70
     1
  0
VPORT
  5
29
330
8
100
AcDbSymbolTableRecord
100
AcDbViewportTableRecord
  2
*Active
 70
     0
 10
0.0
 20
0.0
 11
1.0
 21
1.0
 12
-266.9999999999899
 22
-162.0000000000051
 13
0.0
 23
0.0
 14
0.5
 24
0.5
 15
0.5
 25
0.5
 16
0.0
 26
0.0
 36
1.0
 17
0.0
 27
0.0
 37
0.0
 40
231.0000000000001
 41
1.60267857142857
 42
50.0
 43
0.0
 44
0.0
 50
0.0
 51
0.0
 71
     0
 72
   100
 73
     1
 74
     3
 75
     0
 76
     0
 77
     0
 78
     0
281
     0
 65
     1
110
0.0
120
0.0
130
0.0
111
1.0
121
0.0
131
0.0
112
0.0
122
1.0
132
0.0
 79
     0
146
0.0
  0
ENDTAB
  0
TABLE
  2
LTYPE
  5
5
330
0
100
AcDbSymbolTable
 70
     8
  0
LTYPE
  5
14
330
5
100
AcDbSymbolTableRecord
100
AcDbLinetypeTableRecord
  2
ByBlock
 70
     0
  3

 72
    65
 73
     0
 40
0.0
  0
LTYPE
  5
15
330
5
100
AcDbSymbolTableRecord
100
AcDbLinetypeTableRecord
  2
ByLayer
 70
     0
  3

 72
    65
 73
     0
 40
0.0
  0
LTYPE
  5
16
330
5
100
AcDbSymbolTableRecord
100
AcDbLinetypeTableRecord
  2
Continuous
 70
     0
  3
Solid line
 72
    65
 73
     0
 40
0.0
  0
LTYPE
  5
3F
330
5
100
AcDbSymbolTableRecord
100
AcDbLinetypeTableRecord
  2
DASHED
 70
     0
  3
Dashed
 72
    65
 73
     2
 40
15.0
 49
7.0
 74
     0
 49
-8.0
 74
     0
  0
LTYPE
  5
40
330
5
100
AcDbSymbolTableRecord
100
AcDbLinetypeTableRecord
  2
DOTTED
 70
     0
  3
Dotted
 72
    65
 73
     2
 40
1.0
 49
0.0
 74
     0
 49
-1.0
 74
     0
  0
LTYPE
  5
41
330
5
100
AcDbSymbolTableRecord
100
AcDbLinetypeTableRecord
  2
DOT_CENTER
 70
     0
  3
Dot_Center
 72
    65
 73
     4
 40
14.0
 49
12.0
 74
     0
 49
-1.0
 74
     0
 49
0.0
 74
     0
 49
-1.0
 74
     0
  0
LTYPE
  5
42
330
5
100
AcDbSymbolTableRecord
100
AcDbLinetypeTableRecord
  2
LONG_DASHED
 70
     0
  3
Long_Dashed
 72
    65
 73
     2
 40
15.0
 49
10.0
 74
     0
 49
-5.0
 74
     0
  0
LTYPE
  5
43
330
5
100
AcDbSymbolTableRecord
100
AcDbLinetypeTableRecord
  2
DASH_CENTER
 70
     0
  3
Dash_Center
 72
    65
 73
     4
 40
14.0
 49
11.0
 74
     0
 49
-1.0
 74
     0
 49
1.0
 74
     0
 49
-1.0
 74
     0
  0
LTYPE
  5
44
330
5
100
AcDbSymbolTableRecord
100
AcDbLinetypeTableRecord
  2
PHANTOM
 70
     0
  3
Phantom
 72
    65
 73
     6
 40
13.0
 49
10.0
 74
     0
 49
-1.0
 74
     0
 49
0.0
 74
     0
 49
-1.0
 74
     0
 49
0.0
 74
     0
 49
-1.0
 74
     0
  0
LTYPE
  5
45
330
5
100
AcDbSymbolTableRecord
100
AcDbLinetypeTableRecord
  2
CENTER_DASH_DASH
 70
     0
  3
Center_Dash_Dash
 72
    65
 73
     6
 40
14.0
 49
9.0
 74
     0
 49
-1.0
 74
     0
 49
1.0
 74
     0
 49
-1.0
 74
     0
 49
1.0
 74
     0
 49
-1.0
 74
     0
  0
ENDTAB
  0
TABLE
  2
LAYER
  5
2
330
0
100
AcDbSymbolTable
 70
     2
  0
LAYER
  5
10
330
2
100
AcDbSymbolTableRecord
100
AcDbLayerTableRecord
  2
0
 70
     0
 62
     7
  6
Continuous
370
    -3
390
F
  0
LAYER
  5
46
330
2
100
AcDbSymbolTableRecord
100
AcDbLayerTableRecord
  2
1
 70
     0
 62
     7
  6
Continuous
370
    -3
390
F
  0
ENDTAB
  0
TABLE
  2
STYLE
  5
3
330
0
100
AcDbSymbolTable
 70
     5
  0
STYLE
  5
11
330
3
100
AcDbSymbolTableRecord
100
AcDbTextStyleTableRecord
  2
Standard
 70
     0
 40
0.0
 41
1.0
 50
0.0
 71
     0
 42
0.2
  3
txt
  4

  0
STYLE
  5
109
330
3
100
AcDbSymbolTableRecord
100
AcDbTextStyleTableRecord
  2
CONVERTER_11
 70
     0
 40
0.0
 41
0.9
 50
0.0
 71
     0
 42
0.2
  3
txt.shx
  4

  0
STYLE
  5
341
330
3
100
AcDbSymbolTableRecord
100
AcDbTextStyleTableRecord
  2
CONVERTER_12
 70
     0
 40
0.0
 41
0.81
 50
0.0
 71
     0
 42
0.2
  3
txt.shx
  4

  0
STYLE
  5
357
330
3
100
AcDbSymbolTableRecord
100
AcDbTextStyleTableRecord
  2
CONVERTER_13
 70
     0
 40
0.0
 41
0.72
 50
0.0
 71
     0
 42
0.2
  3
txt.shx
  4

  0
STYLE
  5
35A
330
3
100
AcDbSymbolTableRecord
100
AcDbTextStyleTableRecord
  2
CONVERTER_14
 70
     0
 40
0.0
 41
0.855
 50
0.0
 71
     0
 42
0.2
  3
txt.shx
  4

  0
ENDTAB
  0
TABLE
  2
VIEW
  5
6
330
0
100
AcDbSymbolTable
 70
     0
  0
ENDTAB
  0
TABLE
  2
UCS
  5
7
330
0
100
AcDbSymbolTable
 70
     0
  0
ENDTAB
  0
TABLE
  2
APPID
  5
9
330
0
100
AcDbSymbolTable
 70
     1
  0
APPID
  5
12
330
9
100
AcDbSymbolTableRecord
100
AcDbRegAppTableRecord
  2
ACAD
 70
     0
  0
ENDTAB
  0
TABLE
  2
DIMSTYLE
  5
A
330
0
100
AcDbSymbolTable
 70
     7
100
AcDbDimStyleTable
  0
DIMSTYLE
105
27
330
A
100
AcDbSymbolTableRecord
100
AcDbDimStyleTableRecord
  2
Standard
 70
     0
178
     0
340
11
  0
DIMSTYLE
105
158
102
{ACAD_REACTORS
330
159
102
}
330
A
100
AcDbSymbolTableRecord
100
AcDbDimStyleTableRecord
  2
ME10_DIM_10
 70
     0
 41
1.75
 42
0.0
 44
0.75
 73
     0
 74
     0
 77
     1
 78
     8
140
1.75
147
0.75
172
     1
173
     1
174
     1
175
     1
176
     2
177
     2
178
     3
340
109
  0
DIMSTYLE
105
217
102
{ACAD_REACTORS
330
218
102
}
330
A
100
AcDbSymbolTableRecord
100
AcDbDimStyleTableRecord
  2
ME10_DIM_11
 70
     0
 41
1.75
 42
0.0
 44
0.75
 73
     0
 74
     0
 77
     1
 78
     8
140
1.75
147
0.75
172
     1
173
     1
174
     1
175
     1
176
     2
177
     2
178
     3
340
109
  0
DIMSTYLE
105
222
102
{ACAD_REACTORS
330
223
102
}
330
A
100
AcDbSymbolTableRecord
100
AcDbDimStyleTableRecord
  2
ME10_DIM_12
 70
     0
 41
1.75
 42
0.0
 44
0.75
 73
     0
 74
     0
 77
     1
 78
     8
140
1.75
147
0.75
172
     1
173
     1
174
     1
175
     1
176
     2
177
     2
178
     3
340
109
  0
DIMSTYLE
105
22D
102
{ACAD_REACTORS
330
22E
102
}
330
A
100
AcDbSymbolTableRecord
100
AcDbDimStyleTableRecord
  2
ME10_DIM_13
 70
     0
 41
1.75
 42
0.0
 44
0.75
 73
     0
 74
     0
 77
     1
 78
     8
140
1.75
147
0.75
172
     1
173
     1
174
     1
175
     1
176
     2
177
     2
178
     3
340
109
  0
DIMSTYLE
105
238
102
{ACAD_REACTORS
330
239
102
}
330
A
100
AcDbSymbolTableRecord
100
AcDbDimStyleTableRecord
  2
ME10_DIM_14
 70
     0
 41
1.75
 42
0.0
 44
0.75
 73
     0
 74
     0
 77
     1
 78
     8
140
1.75
147
0.75
172
     1
173
     1
174
     1
175
     1
176
     2
177
     2
178
     3
340
109
  0
DIMSTYLE
105
243
102
{ACAD_REACTORS
330
244
102
}
330
A
100
AcDbSymbolTableRecord
100
AcDbDimStyleTableRecord
  2
ME10_DIM_15
 70
     0
 41
1.75
 42
0.0
 44
0.75
 73
     0
 74
     0
 77
     1
 78
     8
140
1.75
147
0.75
172
     1
173
     1
174
     1
175
     1
176
     2
177
     2
178
     3
340
109
  0
ENDTAB
  0
TABLE
  2
BLOCK_RECORD
  5
1
330
0
100
AcDbSymbolTable
 70
    23
  0
BLOCK_RECORD
  5
1F
330
1
100
AcDbSymbolTableRecord
100
AcDbBlockTableRecord
  2
*Model_Space
340
22
  0
BLOCK_RECORD
  5
1B
330
1
100
AcDbSymbolTableRecord
100
AcDbBlockTableRecord
  2
*Paper_Space
340
1E
  0
BLOCK_RECORD
  5
23
330
1
100
AcDbSymbolTableRecord
100
AcDbBlockTableRecord
  2
*Paper_Space0
340
26
  0
BLOCK_RECORD
  5
47
330
1
100
AcDbSymbolTableRecord
100
AcDbBlockTableRecord
  2
MBK-3_BU_select__1
340
0
102
{BLKREFS
331
4B
102
}
  0
BLOCK_RECORD
  5
4A
330
1
100
AcDbSymbolTableRecord
100
AcDbBlockTableRecord
  2
Allg1
340
0
102
{BLKREFS
331
7D
102
}
  0
BLOCK_RECORD
  5
4E
330
1
100
AcDbSymbolTableRecord
100
AcDbBlockTableRecord
  2
MBK-3_BU_select__2
340
0
102
{BLKREFS
331
52
102
}
  0
BLOCK_RECORD
  5
51
330
1
100
AcDbSymbolTableRecord
100
AcDbBlockTableRecord
  2
Drfsicht1
340
0
102
{BLKREFS
331
7E
102
}
  0
BLOCK_RECORD
  5
55
330
1
100
AcDbSymbolTableRecord
100
AcDbBlockTableRecord
  2
MBK-3_BU_select__3
340
0
102
{BLKREFS
331
59
102
}
  0
BLOCK_RECORD
  5
58
330
1
100
AcDbSymbolTableRecord
100
AcDbBlockTableRecord
  2
Rckans1
340
0
102
{BLKREFS
331
7F
102
}
  0
BLOCK_RECORD
  5
5C
330
1
100
AcDbSymbolTableRecord
100
AcDbBlockTableRecord
  2
MBK-3_BU_select__4
340
0
102
{BLKREFS
331
60
102
}
  0
BLOCK_RECORD
  5
5F
330
1
100
AcDbSymbolTableRecord
100
AcDbBlockTableRecord
  2
SA_Links1
340
0
102
{BLKREFS
331
80
102
}
  0
BLOCK_RECORD
  5
63
330
1
100
AcDbSymbolTableRecord
100
AcDbBlockTableRecord
  2
MBK-3_BU_select__5
340
0
102
{BLKREFS
331
67
102
}
  0
BLOCK_RECORD
  5
66
330
1
100
AcDbSymbolTableRecord
100
AcDbBlockTableRecord
  2
SA_Rechts1
340
0
102
{BLKREFS
331
81
102
}
  0
BLOCK_RECORD
  5
6A
330
1
100
AcDbSymbolTableRecord
100
AcDbBlockTableRecord
  2
MBK-3_BU_select__6
340
0
102
{BLKREFS
331
6E
102
}
  0
BLOCK_RECORD
  5
6D
330
1
100
AcDbSymbolTableRecord
100
AcDbBlockTableRecord
  2
Vordans1
340
0
102
{BLKREFS
331
82
102
}
  0
BLOCK_RECORD
  5
71
330
1
100
AcDbSymbolTableRecord
100
AcDbBlockTableRecord
  2
_rahmen
340
0
102
{BLKREFS
331
78
102
}
  0
BLOCK_RECORD
  5
74
330
1
100
AcDbSymbolTableRecord
100
AcDbBlockTableRecord
  2
_punkt
340
0
102
{BLKREFS
331
79
102
}
  0
BLOCK_RECORD
  5
77
330
1
100
AcDbSymbolTableRecord
100
AcDbBlockTableRecord
  2
A4I_CS
340
0
102
{BLKREFS
331
83
102
}
  0
BLOCK_RECORD
  5
7C
330
1
100
AcDbSymbolTableRecord
100
AcDbBlockTableRecord
  2
1
340
0
102
{BLKREFS
331
86
102
}
  0
BLOCK_RECORD
  5
14F
330
1
100
AcDbSymbolTableRecord
100
AcDbBlockTableRecord
  2
*D17
340
0
  0
BLOCK_RECORD
  5
20E
330
1
100
AcDbSymbolTableRecord
100
AcDbBlockTableRecord
  2
*D18
340
0
  0
BLOCK_RECORD
  5
219
330
1
100
AcDbSymbolTableRecord
100
AcDbBlockTableRecord
  2
*D19
340
0
  0
BLOCK_RECORD
  5
224
330
1
100
AcDbSymbolTableRecord
100
AcDbBlockTableRecord
  2
*D20
340
0
  0
BLOCK_RECORD
  5
22F
330
1
100
AcDbSymbolTableRecord
100
AcDbBlockTableRecord
  2
*D21
340
0
  0
BLOCK_RECORD
  5
23A
330
1
100
AcDbSymbolTableRecord
100
AcDbBlockTableRecord
  2
*D22
340
0
  0
ENDTAB
  0
ENDSEC
  0
SECTION
  2
BLOCKS
  0
BLOCK
  5
20
330
1F
100
AcDbEntity
  8
0
100
AcDbBlockBegin
  2
*Model_Space
 70
     0
 10
0.0
 20
0.0
 30
0.0
  3
*Model_Space
  1

  0
ENDBLK
  5
21
330
1F
100
AcDbEntity
  8
0
100
AcDbBlockEnd
  0
BLOCK
  5
1C
330
1B
100
AcDbEntity
 67
     1
  8
0
100
AcDbBlockBegin
  2
*Paper_Space
 70
     0
 10
0.0
 20
0.0
 30
0.0
  3
*Paper_Space
  1

  0
ENDBLK
  5
1D
330
1B
100
AcDbEntity
 67
     1
  8
0
100
AcDbBlockEnd
  0
BLOCK
  5
24
330
23
100
AcDbEntity
  8
0
100
AcDbBlockBegin
  2
*Paper_Space0
 70
     0
 10
0.0
 20
0.0
 30
0.0
  3
*Paper_Space0
  1

  0
ENDBLK
  5
25
330
23
100
AcDbEntity
  8
0
100
AcDbBlockEnd
  0
BLOCK
  5
48
330
47
100
AcDbEntity
  8
0
100
AcDbBlockBegin
  2
MBK-3_BU_select__1
 70
     0
 10
-100.4118534164553
 20
-113.5321051853116
 30
0.0
  3
MBK-3_BU_select__1
  1

  0
LINE
  5
87
330
47
100
AcDbEntity
  8
0
  6
Continuous
 62
     7
100
AcDbLine
 10
-81.69328666347383
 20
-112.692883041991
 30
0.0
 11
-82.09541612641438
 21
-111.0760306782376
 31
0.0
  0
LINE
  5
88
330
47
100
AcDbEntity
  8
0
  6
Continuous
 62
     7
100
AcDbLine
 10
-86.42554314533655
 20
-98.09138645695849
 30
0.0
 11
-86.42554314533655
 21
-92.15911244103509
 31
0.0
  0
LINE
  5
89
330
47
100
AcDbEntity
  8
0
  6
Continuous
 62
     7
100
AcDbLine
 10
-77.70176277846704
 20
-87.02755984585419
 30
0.0
 11
-77.70176277846704
 21
-86.59454714396198
 31
0.0
  0
LINE
  5
8A
330
47
100
AcDbEntity
  8
0
  6
Continuous
 62
     7
100
AcDbLine
 10
-80.27676277846703
 20
-88.82456255870692
 30
0.0
 11
-77.70176277846704
 21
-86.59454714396198
 31
0.0
  0
LINE
  5
8B
330
47
100
AcDbEntity
  8
0
  6
Continuous
 62
     7
100
AcDbLine
 10
-77.70176277846704
 20
-86.59454714396198
 30
0.0
 11
-78.39458310149462
 21
-86.39454714396197
 31
0.0
  0
LINE
  5
8C
330
47
100
AcDbEntity
  8
0
  6
Continuous
 62
     7
100
AcDbLine
 10
-78.7695831014946
 20
-86.71930667038113
 30
0.0
 11
-82.29169741852458
 21
-85.70255984585418
 31
0.0
  0
LINE
  5
8D
330
47
100
AcDbEntity
  8
0
  6
Continuous
 62
     7
100
AcDbLine
 10
-80.96958310149462
 20
-88.6245625587069
 30
0.0
 11
-80.96958310149462
 21
-89.05757526059911
 31
0.0
  0
LINE
  5
8E
330
47
100
AcDbEntity
  8
0
  6
Continuous
 62
     7
100
AcDbLine
 10
-80.96958310149462
 20
-88.6245625587069
 30
0.0
 11
-80.27676277846703
 21
-88.82456255870692
 31
0.0
  0
LINE
  5
8F
330
47
100
AcDbEntity
  8
0
  6
Continuous
 62
     7
100
AcDbLine
 10
-84.86669741852458
 20
-87.93257526059911
 30
0.0
 11
-80.96958310149462
 21
-89.05757526059911
 31
0.0
  0
LINE
  5
90
330
47
100
AcDbEntity
  8
0
  6
Continuous
 62
     7
100
AcDbLine
 10
-82.29169741852458
 20
-85.70255984585418
 30
0.0
 11
-84.86669741852458
 21
-87.93257526059911
 31
0.0
  0
LINE
  5
91
330
47
100
AcDbEntity
  8
0
  6
Continuous
 62
     7
100
AcDbLine
 10
-80.96958310149462
 20
-88.6245625587069
 30
0.0
 11
-78.39458310149462
 21
-86.39454714396197
 31
0.0
  0
LINE
  5
92
330
47
100
AcDbEntity
  8
0
  6
Continuous
 62
     7
100
AcDbLine
 10
-88.2672727046372
 20
-82.2455090382853
 30
0.0
 11
-88.2672727046372
 21
-87.00864875909971
 31
0.0
  0
LINE
  5
93
330
47
100
AcDbEntity
  8
0
  6
Continuous
 62
     7
100
AcDbLine
 10
-76.08538529692447
 20
-88.67773588473324
 30
0.0
 11
-76.58538529692447
 21
-89.11074858662545
 31
0.0
  0
LINE
  5
94
330
47
100
AcDbEntity
  8
0
  6
Continuous
 62
     7
100
AcDbLine
 10
-76.95141070070892
 20
-88.42773588473322
 30
0.0
 11
-76.95141070070893
 21
-89.00508615392286
 31
0.0
  0
LINE
  5
95
330
47
100
AcDbEntity
  8
0
  6
Continuous
 62
     7
100
AcDbLine
 10
-77.45141070070892
 20
-88.86074858662545
 30
0.0
 11
-76.95141070070892
 21
-88.42773588473322
 31
0.0
  0
LINE
  5
96
330
47
100
AcDbEntity
  8
0
  6
Continuous
 62
     7
100
AcDbLine
 10
-80.27676277846705
 20
-89.25757526059911
 30
0.0
 11
-80.27676277846703
 21
-88.82456255870692
 31
0.0
  0
LINE
  5
97
330
47
100
AcDbEntity
  8
0
  6
Continuous
 62
     7
100
AcDbLine
 10
-80.27676277846705
 20
-89.25757526059911
 30
0.0
 11
-76.16314211049097
 21
-90.44507526059911
 31
0.0
  0
LINE
  5
98
330
47
100
AcDbEntity
  8
0
  6
Continuous
 62
     7
100
AcDbLine
 10
-77.70176277846704
 20
-87.02755984585419
 30
0.0
 11
-80.27676277846705
 21
-89.25757526059911
 31
0.0
  0
LINE
  5
99
330
47
100
AcDbEntity
  8
0
  6
Continuous
 62
     7
100
AcDbLine
 10
-76.95141070070892
 20
-88.42773588473322
 30
0.0
 11
-76.08538529692447
 21
-88.67773588473324
 31
0.0
  0
LINE
  5
9A
330
47
100
AcDbEntity
  8
0
  6
Continuous
 62
     7
100
AcDbLine
 10
-76.58538529692447
 20
-89.11074858662545
 30
0.0
 11
-77.45141070070892
 21
-88.86074858662545
 31
0.0
  0
LINE
  5
9B
330
47
100
AcDbEntity
  8
0
  6
Continuous
 62
     7
100
AcDbLine
 10
-73.58814211049096
 20
-88.21505984585419
 30
0.0
 11
-76.16314211049097
 21
-90.44507526059911
 31
0.0
  0
LINE
  5
9C
330
47
100
AcDbEntity
  8
0
  6
Continuous
 62
     7
100
AcDbLine
 10
-73.58814211049096
 20
-88.21505984585419
 30
0.0
 11
-77.70176277846704
 21
-87.02755984585419
 31
0.0
  0
LINE
  5
9D
330
47
100
AcDbEntity
  8
0
  6
Continuous
 62
     7
100
AcDbLine
 10
-73.83814211049096
 20
-97.10609632889415
 30
0.0
 11
-75.91314211049098
 21
-98.90309904174617
 31
0.0
  0
LINE
  5
9E
330
47
100
AcDbEntity
  8
0
  6
Continuous
 62
     7
100
AcDbLine
 10
-73.83814211049096
 20
-97.10609632889415
 30
0.0
 11
-73.83814211049096
 21
-106.4256840671741
 31
0.0
  0
LINE
  5
9F
330
47
100
AcDbEntity
  8
0
  6
Continuous
 62
     7
100
AcDbLine
 10
-73.58814211049096
 20
-88.21505984585419
 30
0.0
 11
-73.58814211049096
 21
-109.8656949404652
 31
0.0
  0
LINE
  5
A0
330
47
100
AcDbEntity
  8
0
  6
Continuous
 62
     7
100
AcDbLine
 10
-86.42554314533655
 20
-92.15911244103509
 30
0.0
 11
-85.73272282230901
 21
-90.71366417384465
 31
0.0
  0
LINE
  5
A1
330
47
100
AcDbEntity
  8
0
  6
Continuous
 62
     7
100
AcDbLine
 10
-89.02445238160965
 20
-96.04210787770099
 30
0.0
 11
-90.14945238160965
 21
-97.01638645695849
 31
0.0
  0
LINE
  5
A2
330
47
100
AcDbEntity
  8
0
  6
Continuous
 62
     2
100
AcDbLine
 10
-89.02445238160965
 20
-96.04210787770099
 30
0.0
 11
-89.02445238160965
 21
-90.10983386177759
 31
0.0
  0
LINE
  5
A3
330
47
100
AcDbEntity
  8
0
  6
Continuous
 62
     7
100
AcDbLine
 10
-75.39243610449306
 20
-98.7608255442356
 30
0.0
 11
-73.83814211049096
 21
-97.10609632889415
 31
0.0
  0
LINE
  5
A4
330
47
100
AcDbEntity
  8
0
  6
Continuous
 62
     7
100
AcDbLine
 10
-75.39243610449361
 20
-105.2721813346128
 30
0.0
 11
-75.91314211049097
 21
-105.0950901797295
 31
0.0
  0
LINE
  5
A5
330
47
100
AcDbEntity
  8
0
  6
Continuous
 62
     7
100
AcDbLine
 10
-75.91314211049097
 20
-99.28932640435258
 30
0.0
 11
-75.39243610449306
 21
-98.7608255442356
 31
0.0
  0
LINE
  5
A6
330
47
100
AcDbEntity
  8
0
  6
Continuous
 62
     7
100
AcDbLine
 10
-75.39243610449306
 20
-98.7608255442356
 30
0.0
 11
-75.39243610449361
 21
-105.2721813346128
 31
0.0
  0
LINE
  5
A7
330
47
100
AcDbEntity
  8
0
  6
Continuous
 62
     7
100
AcDbLine
 10
-73.83814211049096
 20
-106.4256840671741
 30
0.0
 11
-75.39243610449361
 21
-105.2721813346128
 31
0.0
  0
LINE
  5
A8
330
47
100
AcDbEntity
  8
0
  6
Continuous
 62
     7
100
AcDbLine
 10
-75.91314211049098
 20
-108.222686780027
 30
0.0
 11
-75.91314211049098
 21
-98.90309904174617
 31
0.0
  0
LINE
  5
A9
330
47
100
AcDbEntity
  8
0
  6
Continuous
 62
     7
100
AcDbLine
 10
-80.79637802073772
 20
-110.7582103552101
 30
0.0
 11
-80.79637802073772
 21
-111.8840433801299
 31
0.0
  0
LINE
  5
AA
330
47
100
AcDbEntity
  8
0
  6
Continuous
 62
     7
100
AcDbLine
 10
-80.79637802073772
 20
-111.8840433801299
 30
0.0
 11
-79.82137802073773
 21
-111.03966861144
 31
0.0
  0
LINE
  5
AB
330
47
100
AcDbEntity
  8
0
  6
Continuous
 62
     7
100
AcDbLine
 10
-80.14685896789939
 20
-112.0715433801299
 30
0.0
 11
-79.1718589678994
 21
-111.22716861144
 31
0.0
  0
LINE
  5
AC
330
47
100
AcDbEntity
  8
0
  6
Continuous
 62
     7
100
AcDbLine
 10
-80.79637802073772
 20
-111.8840433801299
 30
0.0
 11
-80.14685896789939
 21
-112.0715433801299
 31
0.0
  0
LINE
  5
AD
330
47
100
AcDbEntity
  8
0
  6
Continuous
 62
     7
100
AcDbLine
 10
-80.14685896789939
 20
-112.0715433801299
 30
0.0
 11
-80.14685896789939
 21
-112.9375687839143
 31
0.0
  0
LINE
  5
AE
330
47
100
AcDbEntity
  8
0
  6
Continuous
 62
     2
100
AcDbLine
 10
-80.14685896789939
 20
-112.9375687839143
 30
0.0
 11
-78.4218589678994
 21
-111.4436749623861
 31
0.0
  0
LINE
  5
AF
330
47
100
AcDbEntity
  8
0
  6
Continuous
 62
     7
100
AcDbLine
 10
-76.16314211049097
 20
-90.44507526059911
 30
0.0
 11
-76.16314211049097
 21
-112.0957103552101
 31
0.0
  0
LINE
  5
B0
330
47
100
AcDbEntity
  8
0
  6
Continuous
 62
     7
100
AcDbLine
 10
-76.16314211049097
 20
-112.0957103552101
 30
0.0
 11
-80.79637802073772
 21
-110.7582103552101
 31
0.0
  0
LINE
  5
B1
330
47
100
AcDbEntity
  8
0
  6
Continuous
 62
     7
100
AcDbLine
 10
-78.17020229994033
 20
-111.5163219848809
 30
0.0
 11
-80.3370935276682
 21
-113.3929048353309
 31
0.0
  0
LINE
  5
B2
330
47
100
AcDbEntity
  8
0
  6
Continuous
 62
     7
100
AcDbLine
 10
-73.83814211049096
 20
-106.4256840671741
 30
0.0
 11
-75.91314211049098
 21
-108.222686780027
 31
0.0
  0
LINE
  5
B3
330
47
100
AcDbEntity
  8
0
  6
Continuous
 62
     7
100
AcDbLine
 10
-73.58814211049096
 20
-109.8656949404652
 30
0.0
 11
-76.16314211049097
 21
-112.0957103552101
 31
0.0
  0
LINE
  5
B4
330
47
100
AcDbEntity
  8
0
  6
Continuous
 62
     7
100
AcDbLine
 10
-97.83685341645526
 20
-81.21505984585417
 30
0.0
 11
-100.4118534164553
 21
-83.44507526059911
 31
0.0
  0
LINE
  5
B5
330
47
100
AcDbEntity
  8
0
  6
Continuous
 62
     7
100
AcDbLine
 10
-93.0304124254516
 20
-82.16954714396199
 30
0.0
 11
-93.72323274847918
 21
-81.96954714396198
 31
0.0
  0
LINE
  5
B6
330
47
100
AcDbEntity
  8
0
  6
Continuous
 62
     7
100
AcDbLine
 10
-93.0304124254516
 20
-82.60255984585419
 30
0.0
 11
-93.0304124254516
 21
-82.16954714396199
 31
0.0
  0
LINE
  5
B7
330
47
100
AcDbEntity
  8
0
  6
Continuous
 62
     7
100
AcDbLine
 10
-96.29823274847918
 20
-84.1995625587069
 30
0.0
 11
-93.72323274847918
 21
-81.96954714396198
 31
0.0
  0
LINE
  5
B8
330
47
100
AcDbEntity
  8
0
  6
Continuous
 62
     7
100
AcDbLine
 10
-94.09823274847916
 20
-82.29430667038113
 30
0.0
 11
-97.83685341645526
 21
-81.21505984585417
 31
0.0
  0
LINE
  5
B9
330
47
100
AcDbEntity
  8
0
  6
Continuous
 62
     7
100
AcDbLine
 10
-90.8422727046372
 20
-84.47552445303023
 30
0.0
 11
-88.2672727046372
 21
-82.2455090382853
 31
0.0
  0
LINE
  5
BA
330
47
100
AcDbEntity
  8
0
  6
Continuous
 62
     7
100
AcDbLine
 10
-88.2672727046372
 20
-82.2455090382853
 30
0.0
 11
-89.13329810842163
 21
-81.9955090382853
 31
0.0
  0
LINE
  5
BB
330
47
100
AcDbEntity
  8
0
  6
Continuous
 62
     7
100
AcDbLine
 10
-97.38961023002169
 20
-82.52773588473323
 30
0.0
 11
-97.38961023002169
 21
-83.10508615392285
 31
0.0
  0
LINE
  5
BC
330
47
100
AcDbEntity
  8
0
  6
Continuous
 62
     7
100
AcDbLine
 10
-96.52358482623727
 20
-82.77773588473322
 30
0.0
 11
-97.02358482623727
 21
-83.21074858662544
 31
0.0
  0
LINE
  5
BD
330
47
100
AcDbEntity
  8
0
  6
Continuous
 62
     7
100
AcDbLine
 10
-97.02358482623727
 20
-83.21074858662544
 30
0.0
 11
-97.88961023002169
 21
-82.96074858662544
 31
0.0
  0
LINE
  5
BE
330
47
100
AcDbEntity
  8
0
  6
Continuous
 62
     7
100
AcDbLine
 10
-96.29823274847917
 20
-84.63257526059911
 30
0.0
 11
-96.29823274847918
 21
-84.1995625587069
 31
0.0
  0
LINE
  5
BF
330
47
100
AcDbEntity
  8
0
  6
Continuous
 62
     7
100
AcDbLine
 10
-91.70829810842164
 20
-85.95757526059911
 30
0.0
 11
-91.70829810842164
 21
-84.22552445303023
 31
0.0
  0
LINE
  5
C0
330
47
100
AcDbEntity
  8
0
  6
Continuous
 62
     7
100
AcDbLine
 10
-85.73272282230901
 20
-85.95052445303024
 30
0.0
 11
-84.86669741852458
 21
-86.20052445303024
 31
0.0
  0
LINE
  5
C1
330
47
100
AcDbEntity
  8
0
  6
Continuous
 62
     7
100
AcDbLine
 10
-91.70829810842164
 20
-84.22552445303023
 30
0.0
 11
-90.8422727046372
 21
-84.47552445303023
 31
0.0
  0
LINE
  5
C2
330
47
100
AcDbEntity
  8
0
  6
Continuous
 62
     7
100
AcDbLine
 10
-95.60541242545159
 20
-84.83257526059911
 30
0.0
 11
-91.70829810842164
 21
-85.95757526059911
 31
0.0
  0
LINE
  5
C3
330
47
100
AcDbEntity
  8
0
  6
Continuous
 62
     7
100
AcDbLine
 10
-95.60541242545159
 20
-84.3995625587069
 30
0.0
 11
-95.60541242545159
 21
-84.83257526059911
 31
0.0
  0
LINE
  5
C4
330
47
100
AcDbEntity
  8
0
  6
Continuous
 62
     7
100
AcDbLine
 10
-96.29823274847918
 20
-84.1995625587069
 30
0.0
 11
-95.60541242545159
 21
-84.3995625587069
 31
0.0
  0
LINE
  5
C5
330
47
100
AcDbEntity
  8
0
  6
Continuous
 62
     7
100
AcDbLine
 10
-100.4118534164553
 20
-83.44507526059911
 30
0.0
 11
-96.29823274847917
 21
-84.63257526059911
 31
0.0
  0
LINE
  5
C6
330
47
100
AcDbEntity
  8
0
  6
Continuous
 62
     7
100
AcDbLine
 10
-90.63329810842163
 20
-83.29454714396196
 30
0.0
 11
-93.0304124254516
 21
-82.60255984585419
 31
0.0
  0
LINE
  5
C7
330
47
100
AcDbEntity
  8
0
  6
Continuous
 62
     7
100
AcDbLine
 10
-93.0304124254516
 20
-82.60255984585419
 30
0.0
 11
-95.60541242545159
 21
-84.83257526059911
 31
0.0
  0
LINE
  5
C8
330
47
100
AcDbEntity
  8
0
  6
Continuous
 62
     7
100
AcDbLine
 10
-97.88961023002169
 20
-82.96074858662544
 30
0.0
 11
-97.38961023002169
 21
-82.52773588473323
 31
0.0
  0
LINE
  5
C9
330
47
100
AcDbEntity
  8
0
  6
Continuous
 62
     7
100
AcDbLine
 10
-97.38961023002169
 20
-82.52773588473323
 30
0.0
 11
-96.52358482623727
 21
-82.77773588473322
 31
0.0
  0
LINE
  5
CA
330
47
100
AcDbEntity
  8
0
  6
Continuous
 62
     7
100
AcDbLine
 10
-95.60541242545159
 20
-84.3995625587069
 30
0.0
 11
-93.0304124254516
 21
-82.16954714396199
 31
0.0
  0
LINE
  5
CB
330
47
100
AcDbEntity
  8
0
  6
Continuous
 62
     7
100
AcDbLine
 10
-91.70829810842164
 20
-84.22552445303023
 30
0.0
 11
-89.13329810842163
 21
-81.9955090382853
 31
0.0
  0
LINE
  5
CC
330
47
100
AcDbEntity
  8
0
  6
Continuous
 62
     7
100
AcDbLine
 10
-95.77861750620849
 20
-106.4332103552101
 30
0.0
 11
-100.4118534164553
 21
-105.0957103552101
 31
0.0
  0
LINE
  5
CD
330
47
100
AcDbEntity
  8
0
  6
Continuous
 62
     7
100
AcDbLine
 10
-95.6345735368364
 20
-109.2460735595663
 30
0.0
 11
-95.64871369564082
 21
-109.2419916473203
 31
0.0
  0
LINE
  5
CE
330
47
100
AcDbEntity
  8
0
  6
Continuous
 62
     7
100
AcDbLine
 10
-94.47957940053182
 20
-107.5010306782376
 30
0.0
 11
-94.88170886347237
 21
-108.8857134883132
 31
0.0
  0
LINE
  5
CF
330
47
100
AcDbEntity
  8
0
  6
Continuous
 62
     7
100
AcDbLine
 10
-96.4281365590468
 20
-107.3715433801299
 30
0.0
 11
-95.77861750620849
 21
-106.8090433801299
 31
0.0
  0
LINE
  5
D0
330
47
100
AcDbEntity
  8
0
  6
Continuous
 62
     7
100
AcDbLine
 10
-96.4281365590468
 20
-108.2375687839143
 30
0.0
 11
-96.4281365590468
 21
-107.3715433801299
 31
0.0
  0
LINE
  5
D1
330
47
100
AcDbEntity
  8
0
  6
Continuous
 62
     7
100
AcDbLine
 10
-96.4281365590468
 20
-107.3715433801299
 30
0.0
 11
-95.77861750620849
 21
-107.5590433801299
 31
0.0
  0
LINE
  5
D2
330
47
100
AcDbEntity
  8
0
  6
Continuous
 62
     7
100
AcDbLine
 10
-95.38890607450548
 20
-106.9787230571023
 30
0.0
 11
-94.47957940053182
 21
-107.2412230571023
 31
0.0
  0
LINE
  5
D3
330
47
100
AcDbEntity
  8
0
  6
Continuous
 62
     7
100
AcDbLine
 10
-95.38890607450548
 20
-105.8528900321825
 30
0.0
 11
-95.38890607450548
 21
-106.9787230571023
 31
0.0
  0
LINE
  5
D4
330
47
100
AcDbEntity
  8
0
  6
Continuous
 62
     7
100
AcDbLine
 10
-95.38890607450548
 20
-106.9787230571023
 30
0.0
 11
-94.41390607450546
 21
-106.1343482884125
 31
0.0
  0
LINE
  5
D5
330
47
100
AcDbEntity
  8
0
  6
Continuous
 62
     7
100
AcDbLine
 10
-94.47957940053182
 20
-107.2412230571023
 30
0.0
 11
-94.47957940053182
 21
-107.5010306782376
 31
0.0
  0
LINE
  5
D6
330
47
100
AcDbEntity
  8
0
  6
Continuous
 62
     7
100
AcDbLine
 10
-94.47957940053182
 20
-107.2412230571023
 30
0.0
 11
-93.50457940053181
 21
-106.3968482884125
 31
0.0
  0
LINE
  5
D7
330
47
100
AcDbEntity
  8
0
  6
Continuous
 62
     7
100
AcDbLine
 10
-95.77861750620849
 20
-107.5590433801299
 30
0.0
 11
-95.77861750620849
 21
-106.4332103552101
 31
0.0
  0
LINE
  5
D8
330
47
100
AcDbEntity
  8
0
  6
Continuous
 62
     7
100
AcDbLine
 10
-86.42554314533655
 20
-98.09138645695849
 30
0.0
 11
-90.14945238160965
 21
-97.01638645695849
 31
0.0
  0
LINE
  5
D9
330
47
100
AcDbEntity
  8
0
  6
Continuous
 62
     7
100
AcDbLine
 10
-94.47957940053182
 20
-107.5010306782376
 30
0.0
 11
-93.27957940053182
 21
-106.4618001936963
 31
0.0
  0
LINE
  5
DA
330
47
100
AcDbEntity
  8
0
  6
Continuous
 62
     2
100
AcDbLine
 10
-94.88170886347237
 20
-108.8857134883132
 30
0.0
 11
-92.38200600802816
 21
-106.720907313586
 31
0.0
  0
LINE
  5
DB
330
47
100
AcDbEntity
  8
0
  6
Continuous
 62
     7
100
AcDbLine
 10
-92.47038523319922
 20
-106.916971332832
 30
0.0
 11
-95.04538523319923
 21
-109.146986747577
 31
0.0
  0
LINE
  5
DC
330
47
100
AcDbEntity
  8
0
  6
Continuous
 62
     2
100
AcDbLine
 10
-86.03259395290543
 20
-89.81880845799316
 30
0.0
 11
-86.03259395290543
 21
-91.33929277002514
 31
0.0
  0
LINE
  5
DD
330
47
100
AcDbEntity
  8
0
  6
Continuous
 62
     2
100
AcDbLine
 10
-86.03259395290543
 20
-89.81880845799316
 30
0.0
 11
-85.73272282230901
 21
-89.19317986181295
 31
0.0
  0
LINE
  5
DE
330
47
100
AcDbEntity
  8
0
  6
Continuous
 62
     2
100
AcDbLine
 10
-86.29240157404075
 20
-91.88133587022156
 30
0.0
 11
-86.29240157404087
 21
-89.74380845799317
 31
0.0
  0
LINE
  5
DF
330
47
100
AcDbEntity
  8
0
  6
Continuous
 62
     2
100
AcDbLine
 10
-89.02445238160965
 20
-90.10983386177759
 30
0.0
 11
-89.71727270463717
 21
-88.26438559458717
 31
0.0
  0
LINE
  5
E0
330
47
100
AcDbEntity
  8
0
  6
Continuous
 62
     7
100
AcDbLine
 10
-89.02445238160965
 20
-90.10983386177759
 30
0.0
 11
-90.14945238160965
 21
-91.08411244103509
 31
0.0
  0
LINE
  5
E1
330
47
100
AcDbEntity
  8
0
  6
Continuous
 62
     7
100
AcDbLine
 10
-89.71727270463717
 20
-88.26438559458717
 30
0.0
 11
-90.8422727046372
 21
-89.23866417384465
 31
0.0
  0
LINE
  5
E2
330
47
100
AcDbEntity
  8
0
  6
Continuous
 62
     7
100
AcDbLine
 10
-86.9852218970683
 20
-87.89836019080272
 30
0.0
 11
-85.73272282230901
 21
-88.25992552978875
 31
0.0
  0
LINE
  5
E3
330
47
100
AcDbEntity
  8
0
  6
Continuous
 62
     2
100
AcDbLine
 10
-86.29240157404087
 20
-89.74380845799317
 30
0.0
 11
-86.9852218970683
 21
-87.89836019080272
 31
0.0
  0
LINE
  5
E4
330
47
100
AcDbEntity
  8
0
  6
Continuous
 62
     7
100
AcDbLine
 10
-89.71727270463717
 20
-88.26438559458717
 30
0.0
 11
-88.2672727046372
 21
-87.00864875909971
 31
0.0
  0
LINE
  5
E5
330
47
100
AcDbEntity
  8
0
  6
Continuous
 62
     7
100
AcDbLine
 10
-85.73272282230901
 20
-87.74031028751807
 30
0.0
 11
-88.2672727046372
 21
-87.00864875909971
 31
0.0
  0
LINE
  5
E6
330
47
100
AcDbEntity
  8
0
  6
Continuous
 62
     7
100
AcDbLine
 10
-82.29169741852458
 20
-83.97050903828531
 30
0.0
 11
-83.15772282230901
 21
-83.72050903828531
 31
0.0
  0
LINE
  5
E7
330
47
100
AcDbEntity
  8
0
  6
Continuous
 62
     7
100
AcDbLine
 10
-82.29169741852458
 20
-85.70255984585418
 30
0.0
 11
-82.29169741852458
 21
-83.97050903828531
 31
0.0
  0
LINE
  5
E8
330
47
100
AcDbEntity
  8
0
  6
Continuous
 62
     7
100
AcDbLine
 10
-85.73272282230901
 20
-90.71366417384465
 30
0.0
 11
-85.73272282230901
 21
-85.95052445303024
 31
0.0
  0
LINE
  5
E9
330
47
100
AcDbEntity
  8
0
  6
Continuous
 62
     7
100
AcDbLine
 10
-84.86669741852458
 20
-86.20052445303024
 30
0.0
 11
-82.29169741852458
 21
-83.97050903828531
 31
0.0
  0
LINE
  5
EA
330
47
100
AcDbEntity
  8
0
  6
Continuous
 62
     7
100
AcDbLine
 10
-85.73272282230901
 20
-85.95052445303024
 30
0.0
 11
-83.15772282230901
 21
-83.72050903828531
 31
0.0
  0
LINE
  5
EB
330
47
100
AcDbEntity
  8
0
  6
Continuous
 62
     7
100
AcDbLine
 10
-92.906815965237
 20
-85.29405030891436
 30
0.0
 11
-94.3765098109069
 21
-84.86978624020244
 31
0.0
  0
LINE
  5
EC
330
47
100
AcDbEntity
  8
0
  6
Continuous
 62
     7
100
AcDbLine
 10
-100.4118534164553
 20
-83.44507526059911
 30
0.0
 11
-100.4118534164553
 21
-105.0957103552101
 31
0.0
  0
LINE
  5
ED
330
47
100
AcDbEntity
  8
0
  6
Continuous
 62
     7
100
AcDbLine
 10
-90.14945238160965
 20
-91.08411244103509
 30
0.0
 11
-90.14945238160965
 21
-97.01638645695849
 31
0.0
  0
LINE
  5
EE
330
47
100
AcDbEntity
  8
0
  6
Continuous
 62
     7
100
AcDbLine
 10
-90.8422727046372
 20
-89.23866417384465
 30
0.0
 11
-90.14945238160965
 21
-91.08411244103509
 31
0.0
  0
LINE
  5
EF
330
47
100
AcDbEntity
  8
0
  6
Continuous
 62
     7
100
AcDbLine
 10
-90.8422727046372
 20
-84.47552445303023
 30
0.0
 11
-90.8422727046372
 21
-89.23866417384465
 31
0.0
  0
LINE
  5
F0
330
47
100
AcDbEntity
  8
0
  6
Continuous
 62
     7
100
AcDbLine
 10
-80.92628183130537
 20
-113.4919916473203
 30
0.0
 11
-80.94042199010978
 21
-113.4879097350743
 31
0.0
  0
LINE
  5
F1
330
47
100
AcDbEntity
  8
0
  6
Continuous
 62
     7
100
AcDbLine
 10
-82.09541612641438
 20
-110.8162230571023
 30
0.0
 11
-81.18608945244071
 21
-110.0287230571023
 31
0.0
  0
LINE
  5
F2
330
47
100
AcDbEntity
  8
0
  6
Continuous
 62
     7
100
AcDbLine
 10
-82.09541612641438
 20
-111.0760306782376
 30
0.0
 11
-82.09541612641438
 21
-110.8162230571023
 31
0.0
  0
LINE
  5
F3
330
47
100
AcDbEntity
  8
0
  6
Continuous
 62
     7
100
AcDbLine
 10
-82.09541612641438
 20
-110.8162230571023
 30
0.0
 11
-81.18608945244071
 21
-111.0787230571023
 31
0.0
  0
LINE
  5
F4
330
47
100
AcDbEntity
  8
0
  6
Continuous
 62
     7
100
AcDbLine
 10
-81.18608945244071
 20
-111.0787230571023
 30
0.0
 11
-81.18608945244071
 21
-109.9528900321825
 31
0.0
  0
LINE
  5
F5
330
47
100
AcDbEntity
  8
0
  6
Continuous
 62
     7
100
AcDbLine
 10
-84.86669741852458
 20
-86.20052445303024
 30
0.0
 11
-84.86669741852458
 21
-87.93257526059911
 31
0.0
  0
LINE
  5
F6
330
47
100
AcDbEntity
  8
0
  6
Continuous
 62
     7
100
AcDbLine
 10
-81.64848571603929
 20
-88.54405030891436
 30
0.0
 11
-83.1181795617092
 21
-88.11978624020243
 31
0.0
  0
LINE
  5
F7
330
47
100
AcDbEntity
  8
0
  6
Continuous
 62
     7
100
AcDbLine
 10
-81.18608945244071
 20
-109.9528900321825
 30
0.0
 11
-95.38890607450548
 21
-105.8528900321825
 31
0.0
  0
SPLINE
  5
F8
330
47
100
AcDbEntity
  8
0
  6
Continuous
 62
     7
100
AcDbSpline
210
0.0
220
0.0
230
1.0
 70
     8
 71
     3
 72
     9
 73
     5
 74
     3
 42
0.000000001
 43
0.0000000001
 44
0.00000001
 40
0.0
 40
0.0
 40
0.0
 40
0.0
 40
0.4371516405080834
 40
0.8615662665994466
 40
0.8615662665994466
 40
0.8615662665994466
 40
0.8615662665994466
 10
-81.64848571603929
 20
-88.54405030891436
 30
0.0
 10
-81.50244496073424
 20
-88.5444136919586
 30
0.0
 10
-81.21461854958507
 20
-88.54512985047324
 30
0.0
 10
-80.93120024538743
 20
-88.4950716765839
 30
0.0
 10
-80.79158605983042
 20
-88.47041259882724
 30
0.0
 11
-81.64848571603929
 21
-88.54405030891436
 31
0.0
 11
-81.21149830177043
 21
-88.53206877784685
 31
0.0
 11
-80.79158605983042
 21
-88.47041259882724
 31
0.0
  0
SPLINE
  5
F9
330
47
100
AcDbEntity
  8
0
  6
Continuous
 62
     7
100
AcDbSpline
210
0.0
220
0.0
230
1.0
 70
     8
 71
     3
 72
    19
 73
    15
 74
    13
 42
0.000000001
 43
0.0000000001
 44
0.00000001
 40
0.0
 40
0.0
 40
0.0
 40
0.0
 40
0.2590811487021165
 40
0.5689132637376131
 40
0.9380855514039077
 40
1.359998880426338
 40
1.819152836114471
 40
2.295165795984218
 40
2.765698428490873
 40
3.209033769935344
 40
3.60675826804589
 40
3.947091693111473
 40
4.229884014465393
 40
4.473825985590306
 40
4.473825985590306
 40
4.473825985590306
 40
4.473825985590306
 10
-79.64758014315878
 20
-87.47967441290989
 30
0.0
 10
-79.6812914371277
 20
-87.39895868940907
 30
0.0
 10
-79.75531769102093
 20
-87.22171598776984
 30
0.0
 10
-80.00497956266834
 20
-87.01756692865055
 30
0.0
 10
-80.32999841581348
 20
-86.84745995726468
 30
0.0
 10
-80.730838734319
 20
-86.72409736192739
 30
0.0
 10
-81.1785282090945
 20
-86.65254637244185
 30
0.0
 10
-81.64813002539742
 20
-86.63775940338736
 30
0.0
 10
-82.11077737499787
 20
-86.68048836612883
 30
0.0
 10
-82.53806533801185
 20
-86.77812872448843
 30
0.0
 10
-82.90680295379278
 20
-86.92487826366327
 30
0.0
 10
-83.19037950079453
 20
-87.11326883221224
 30
0.0
 10
-83.391471921294
 20
-87.33769775162929
 30
0.0
 10
-83.42008248125224
 20
-87.51410068749504
 30
0.0
 10
-83.43333263887423
 20
-87.59579668134162
 30
0.0
 11
-79.64758014315878
 21
-87.47967441290989
 31
0.0
 11
-79.76476243264932
 21
-87.24860872444677
 31
0.0
 11
-79.99329883960323
 21
-87.03940295898693
 31
0.0
 11
-80.31880132657825
 21
-86.86522974815713
 31
0.0
 11
-80.72077409555644
 21
-86.73705507094866
 31
0.0
 11
-81.1739084797995
 21
-86.66294986140397
 31
0.0
 11
-81.6496732124946
 21
-86.647579291851
 31
0.0
 11
-82.1181127232519
 21
-86.69191190758544
 31
0.0
 11
-82.54973284737879
 21
-86.7931556320313
 31
0.0
 11
-82.91735675012534
 21
-86.94493653056549
 31
0.0
 11
-83.19783863107713
 21
-87.13769740118482
 31
0.0
 11
-83.37351721400262
 21
-87.35930185398942
 31
0.0
 11
-83.43333263887423
 21
-87.59579668134162
 31
0.0
  0
SPLINE
  5
FA
330
47
100
AcDbEntity
  8
0
  6
Continuous
 62
     7
100
AcDbSpline
210
0.0
220
0.0
230
1.0
 70
     8
 71
     3
 72
    13
 73
     9
 74
     7
 42
0.000000001
 43
0.0000000001
 44
0.00000001
 40
0.0
 40
0.0
 40
0.0
 40
0.0
 40
0.4779754604434771
 40
0.9741515276890027
 40
1.465686016763359
 40
1.930253442091794
 40
2.348721945787117
 40
2.708435663598065
 40
2.708435663598065
 40
2.708435663598065
 40
2.708435663598065
 10
-86.42554314533655
 20
-95.64092026341298
 30
0.0
 10
-86.58213401428375
 20
-95.61027891735384
 30
0.0
 10
-86.90127850591523
 20
-95.54782946220415
 30
0.0
 10
-87.39156597366551
 20
-95.5342159818556
 30
0.0
 10
-87.87530832489699
 20
-95.57430119477837
 30
0.0
 10
-88.32284788893813
 20
-95.67514513334883
 30
0.0
 10
-88.71578349420928
 20
-95.8190848523399
 30
0.0
 10
-88.92687541857029
 20
-95.9716054323755
 30
0.0
 10
-89.02445238160965
 20
-96.04210787770099
 30
0.0
 11
-86.42554314533655
 21
-95.64092026341298
 31
0.0
 11
-86.8969334373527
 21
-95.56185237980011
 31
0.0
 11
-87.39276506790821
 21
-95.54336777523454
 31
0.0
 11
-87.88239380005693
 21
-95.58660963266918
 31
0.0
 11
-88.33555891252587
 21
-95.68890468279889
 31
0.0
 11
-88.72425238552101
 21
-95.84393138399429
 31
0.0
 11
-89.02445238160965
 21
-96.04210787770099
 31
0.0
  0
SPLINE
  5
FB
330
47
100
AcDbEntity
  8
0
  6
Continuous
 62
     7
100
AcDbSpline
210
0.0
220
0.0
230
1.0
 70
     8
 71
     3
 72
    11
 73
     7
 74
     5
 42
0.000000001
 43
0.0000000001
 44
0.00000001
 40
0.0
 40
0.0
 40
0.0
 40
0.0
 40
0.1206520291163195
 40
0.2441615189900455
 40
0.3728551532218283
 40
0.5081863407457226
 40
0.5081863407457226
 40
0.5081863407457226
 40
0.5081863407457226
 10
-80.3370935276682
 20
-113.3929048353309
 30
0.0
 10
-80.30844828886848
 20
-113.3643880474789
 30
0.0
 10
-80.25047940321554
 20
-113.3066790849663
 30
0.0
 10
-80.19152161248718
 20
-113.1955352376797
 30
0.0
 10
-80.15345644264863
 20
-113.0710009672602
 30
0.0
 10
-80.14909467263045
 20
-112.982785421753
 30
0.0
 10
-80.14685896789939
 20
-112.9375687839143
 30
0.0
 11
-80.3370935276682
 21
-113.3929048353309
 31
0.0
 11
-80.255885385515
 21
-113.3036739541415
 31
0.0
 11
-80.1959644911353
 21
-113.1956735787255
 31
0.0
 11
-80.15923360283105
 21
-113.0723330182823
 31
0.0
 11
-80.14685896789939
 21
-112.9375687839143
 31
0.0
  0
SPLINE
  5
FC
330
47
100
AcDbEntity
  8
0
  6
Continuous
 62
     7
100
AcDbSpline
210
0.0
220
0.0
230
1.0
 70
     8
 71
     3
 72
    11
 73
     7
 74
     5
 42
0.000000001
 43
0.0000000001
 44
0.00000001
 40
0.0
 40
0.0
 40
0.0
 40
0.0
 40
0.1684270716696749
 40
0.3267326476301106
 40
0.4765843744341604
 40
0.6215791999827752
 40
0.6215791999827752
 40
0.6215791999827752
 40
0.6215791999827752
 10
-80.92628183130537
 20
-113.4919916473203
 30
0.0
 10
-80.8713272781493
 20
-113.5046643679118
 30
0.0
 10
-80.764720621248
 20
-113.5292482372792
 30
0.0
 10
-80.60446252369087
 20
-113.5211959514867
 30
0.0
 10
-80.4564354953946
 20
-113.4798596503046
 30
0.0
 10
-80.37643490737894
 20
-113.421569714707
 30
0.0
 10
-80.3370935276682
 20
-113.3929048353309
 30
0.0
 11
-80.92628183130537
 21
-113.4919916473203
 31
0.0
 11
-80.76055143724969
 21
-113.5220102262255
 31
0.0
 11
-80.60240076127742
 21
-113.5150088126742
 31
0.0
 11
-80.45906296271066
 21
-113.4713073666996
 31
0.0
 11
-80.3370935276682
 21
-113.3929048353309
 31
0.0
  0
SPLINE
  5
FD
330
47
100
AcDbEntity
  8
0
  6
Continuous
 62
     7
100
AcDbSpline
210
0.0
220
0.0
230
1.0
 70
     8
 71
     3
 72
    17
 73
    13
 74
    11
 42
0.000000001
 43
0.0000000001
 44
0.00000001
 40
0.0
 40
0.0
 40
0.0
 40
0.0
 40
0.3673796562221796
 40
0.7894703897022046
 40
1.250893900755393
 40
1.730943053746779
 40
2.206695820958629
 40
2.655726965211416
 40
3.058901841582825
 40
3.403822497391851
 40
3.68998785943739
 40
3.936306320318613
 40
3.936306320318613
 40
3.936306320318613
 40
3.936306320318613
 10
-91.22583686751898
 20
-83.80770076206718
 30
0.0
 10
-91.33062761124143
 20
-83.74354368245494
 30
0.0
 10
-91.55581479789906
 20
-83.60567510403766
 30
0.0
 10
-91.95805718824677
 20
-83.48265614269559
 30
0.0
 10
-92.4064313466794
 20
-83.40496473464486
 30
0.0
 10
-92.88001788361609
 20
-83.38697832210683
 30
0.0
 10
-93.34786743837236
 20
-83.42699555330539
 30
0.0
 10
-93.78109174173366
 20
-83.5232749246376
 30
0.0
 10
-94.15562295429518
 20
-83.66978220716084
 30
0.0
 10
-94.44398588927467
 20
-83.85894717673689
 30
0.0
 10
-94.64889149546835
 20
-84.08498659516309
 30
0.0
 10
-94.67813521713474
 20
-84.26330804267155
 30
0.0
 10
-94.69166288807193
 20
-84.34579668134162
 30
0.0
 11
-91.22583686751898
 21
-83.80770076206718
 31
0.0
 11
-91.5464193267815
 21
-83.62827196577074
 31
0.0
 11
-91.94687342744584
 21
-83.4948661954594
 31
0.0
 11
-92.40151421686268
 21
-83.41604101301941
 31
0.0
 11
-92.88117968075198
 21
-83.39685164291365
 31
0.0
 11
-93.3551033369967
 21
-83.43852973368082
 31
0.0
 11
-93.7928871448722
 21
-83.5384011791875
 31
0.0
 11
-94.16645018567696
 21
-83.69006078116925
 31
0.0
 11
-94.45183247096408
 21
-83.88378018920099
 31
0.0
 11
-94.63072775960015
 21
-84.10713437018501
 31
0.0
 11
-94.69166288807193
 21
-84.34579668134162
 31
0.0
  0
SPLINE
  5
FE
330
47
100
AcDbEntity
  8
0
  6
Continuous
 62
     7
100
AcDbSpline
210
0.0
220
0.0
230
1.0
 70
     8
 71
     3
 72
    11
 73
     7
 74
     5
 42
0.000000001
 43
0.0000000001
 44
0.00000001
 40
0.0
 40
0.0
 40
0.0
 40
0.0
 40
0.1684270716697066
 40
0.3267326476301442
 40
0.4765843744342063
 40
0.6215791999827555
 40
0.6215791999827555
 40
0.6215791999827555
 40
0.6215791999827555
 10
-95.6345735368364
 20
-109.2460735595663
 30
0.0
 10
-95.57961898368032
 20
-109.2587462801579
 30
0.0
 10
-95.47301232677901
 20
-109.2833301495254
 30
0.0
 10
-95.31275422922188
 20
-109.2752778637327
 30
0.0
 10
-95.16472720092563
 20
-109.2339415625506
 30
0.0
 10
-95.08472661290996
 20
-109.1756516269531
 30
0.0
 10
-95.04538523319923
 20
-109.146986747577
 30
0.0
 11
-95.6345735368364
 21
-109.2460735595663
 31
0.0
 11
-95.4688431427807
 21
-109.2760921384716
 31
0.0
 11
-95.31069246680843
 21
-109.2690907249202
 31
0.0
 11
-95.16735466824167
 21
-109.2253892789456
 31
0.0
 11
-95.04538523319923
 21
-109.146986747577
 31
0.0
  0
SPLINE
  5
FF
330
47
100
AcDbEntity
  8
0
  6
Continuous
 62
     7
100
AcDbSpline
210
0.0
220
0.0
230
1.0
 70
     8
 71
     3
 72
    13
 73
     9
 74
     7
 42
0.000000001
 43
0.0000000001
 44
0.00000001
 40
0.0
 40
0.0
 40
0.0
 40
0.0
 40
0.2110736967294951
 40
0.4354753311416971
 40
0.6683328300307446
 40
0.9030998129783034
 40
1.132872795920291
 40
1.351698198678026
 40
1.351698198678026
 40
1.351698198678026
 40
1.351698198678026
 10
-96.4281365590468
 20
-108.2375687839143
 30
0.0
 10
-96.42260268536161
 20
-108.3080394368106
 30
0.0
 10
-96.41118549499974
 20
-108.4534305062973
 30
0.0
 10
-96.32861942968826
 20
-108.6633967528614
 30
0.0
 10
-96.20573436711646
 20
-108.8599707061866
 30
0.0
 10
-96.04445720864787
 20
-109.0290598360151
 30
0.0
 10
-95.85833372752718
 20
-109.1647852949831
 30
0.0
 10
-95.71744092705839
 20
-109.2166783329738
 30
0.0
 10
-95.64871369564082
 20
-109.2419916473203
 30
0.0
 11
-96.4281365590468
 21
-108.2375687839143
 31
0.0
 11
-96.40157816828678
 21
-108.4469649583972
 31
0.0
 11
-96.3237136956408
 21
-108.6574244997658
 31
0.0
 11
-96.19984874083121
 21
-108.8546048457544
 31
0.0
 11
-96.03842512734383
 21
-109.0250687839143
 31
0.0
 11
-95.85044312309638
 21
-109.1571989869377
 31
0.0
 11
-95.64871369564082
 21
-109.2419916473203
 31
0.0
  0
SPLINE
  5
100
330
47
100
AcDbEntity
  8
0
  6
Continuous
 62
     7
100
AcDbSpline
210
0.0
220
0.0
230
1.0
 70
     8
 71
     3
 72
     9
 73
     5
 74
     3
 42
0.000000001
 43
0.0000000001
 44
0.00000001
 40
0.0
 40
0.0
 40
0.0
 40
0.0
 40
0.1529508724544159
 40
0.3115597002965175
 40
0.3115597002965175
 40
0.3115597002965175
 40
0.3115597002965175
 10
-95.04538523319923
 20
-109.146986747577
 30
0.0
 10
-95.0092194921922
 20
-109.1101438621047
 30
0.0
 10
-94.93555018365218
 20
-109.0350951882364
 30
0.0
 10
-94.8998719378324
 20
-108.9361066056315
 30
0.0
 10
-94.88170886347237
 20
-108.8857134883132
 30
0.0
 11
-95.04538523319923
 21
-109.146986747577
 31
0.0
 11
-94.94604395440682
 21
-109.0306885096138
 31
0.0
 11
-94.88170886347237
 21
-108.8857134883132
 31
0.0
  0
SPLINE
  5
101
330
47
100
AcDbEntity
  8
0
  6
Continuous
 62
     7
100
AcDbSpline
210
0.0
220
0.0
230
1.0
 70
     8
 71
     3
 72
     9
 73
     5
 74
     3
 42
0.000000001
 43
0.0000000001
 44
0.00000001
 40
0.0
 40
0.0
 40
0.0
 40
0.0
 40
0.1130055889273163
 40
0.2283727654840574
 40
0.2283727654840574
 40
0.2283727654840574
 40
0.2283727654840574
 10
-92.47038523319922
 20
-106.916971332832
 30
0.0
 10
-92.4431949588161
 20
-106.8905080078
 30
0.0
 10
-92.38824620369299
 20
-106.8370283152693
 30
0.0
 10
-92.35325599450371
 20
-106.7687842463883
 30
0.0
 10
-92.33557998253728
 20
-106.7343093527433
 30
0.0
 11
-92.47038523319922
 21
-106.916971332832
 31
0.0
 11
-92.39370139213743
 21
-106.833966201096
 31
0.0
 11
-92.33557998253728
 21
-106.7343093527433
 31
0.0
  0
SPLINE
  5
102
330
47
100
AcDbEntity
  8
0
  6
Continuous
 62
     7
100
AcDbSpline
210
0.0
220
0.0
230
1.0
 70
     8
 71
     3
 72
    15
 73
    11
 74
     9
 42
0.000000001
 43
0.0000000001
 44
0.00000001
 40
0.0
 40
0.0
 40
0.0
 40
0.0
 40
0.0400313949362751
 40
0.0800484257614511
 40
0.1200233465543986
 40
0.1599278418263961
 40
0.1997332212513827
 40
0.239410421588797
 40
0.2789302098195482
 40
0.318263215045339
 40
0.318263215045339
 40
0.318263215045339
 40
0.318263215045339
 10
-86.03259395290543
 20
-89.81880845799316
 30
0.0
 10
-86.01978813822276
 20
-89.82255996263683
 30
0.0
 10
-85.99418110801234
 20
-89.8300616398432
 30
0.0
 10
-85.95599009699718
 20
-89.84198765931092
 30
0.0
 10
-85.91800400346068
 20
-89.85441298471113
 30
0.0
 10
-85.88027673525191
 20
-89.86738926807381
 30
0.0
 10
-85.84284355909642
 20
-89.88090191696239
 30
0.0
 10
-85.80575348879893
 20
-89.89497084856696
 30
0.0
 10
-85.76902388778322
 20
-89.90953785943668
 30
0.0
 10
-85.74480405196375
 20
-89.9197503759187
 30
0.0
 10
-85.73272282230901
 20
-89.9248445454313
 30
0.0
 11
-86.03259395290543
 21
-89.81880845799316
 31
0.0
 11
-85.99421049733809
 21
-89.83017608387544
 31
0.0
 11
-85.95600416772083
 21
-89.84207730819342
 31
0.0
 11
-85.9180137417545
 21
-89.85451603146893
 31
0.0
 11
-85.88027899547025
 21
-89.8674951561495
 31
0.0
 11
-85.84284063534548
 21
-89.88101689553876
 31
0.0
 11
-85.80574018553892
 21
-89.89508234492267
 31
0.0
 11
-85.7690199473586
 21
-89.90969185507615
 31
0.0
 11
-85.73272282230901
 21
-89.9248445454313
 31
0.0
  0
SPLINE
  5
103
330
47
100
AcDbEntity
  8
0
  6
Continuous
 62
     7
100
AcDbSpline
210
0.0
220
0.0
230
1.0
 70
     8
 71
     3
 72
    23
 73
    19
 74
    17
 42
0.000000001
 43
0.0000000001
 44
0.00000001
 40
0.0
 40
0.0
 40
0.0
 40
0.0
 40
0.1961021438045762
 40
0.3664930658997775
 40
0.573339402228089
 40
0.7504585013036176
 40
0.9625502389450882
 40
1.141540171422293
 40
1.336945708769785
 40
1.530015462388051
 40
1.70323294810763
 40
1.903590996192858
 40
2.097147305124882
 40
2.253206504762111
 40
2.402183812515687
 40
2.569358422647465
 40
2.713748973046653
 40
2.848502549457677
 40
2.848502549457677
 40
2.848502549457677
 40
2.848502549457677
 10
-86.29240157404087
 20
-89.74380845799317
 30
0.0
 10
-86.35555995377119
 20
-89.72687476996535
 30
0.0
 10
-86.47359593459599
 20
-89.69522760684355
 30
0.0
 10
-86.66144520385745
 20
-89.65936010799841
 30
0.0
 10
-86.84449976003724
 20
-89.6335623295241
 30
0.0
 10
-87.04248597033653
 20
-89.61606916155134
 30
0.0
 10
-87.23183577587392
 20
-89.60869383686524
 30
0.0
 10
-87.42738344344775
 20
-89.61064768792166
 30
0.0
 10
-87.61631037898795
 20
-89.62141280984721
 30
0.0
 10
-87.8025546070109
 20
-89.64139147314054
 30
0.0
 10
-87.98920454964465
 20
-89.67078899654396
 30
0.0
 10
-88.17421589923399
 20
-89.71017881788713
 30
0.0
 10
-88.35093410523821
 20
-89.75945492212561
 30
0.0
 10
-88.5079960154469
 20
-89.81407120741102
 30
0.0
 10
-88.65333501017585
 20
-89.87483624985887
 30
0.0
 10
-88.79014647438267
 20
-89.94474844570716
 30
0.0
 10
-88.91708863636639
 20
-90.02299771208237
 30
0.0
 10
-88.98949773693788
 20
-90.0815624225557
 30
0.0
 10
-89.02445238160965
 20
-90.10983386177759
 30
0.0
 11
-86.29240157404087
 21
-89.74380845799317
 31
0.0
 11
-86.48246135822298
 21
-89.69550393429971
 31
0.0
 11
-86.64969874192971
 21
-89.66287384815551
 31
0.0
 11
-86.85453316553568
 21
-89.63409423491979
 31
0.0
 11
-87.0309568946254
 21
-89.61841484345452
 31
0.0
 11
-87.24288716226974
 21
-89.61014036517214
 31
0.0
 11
-87.42186813516392
 21
-89.61193126012374
 31
0.0
 11
-87.61695488161679
 21
-89.62308856152269
 31
0.0
 11
-87.80891509300531
 21
-89.64375754697139
 31
0.0
 11
-87.98000983269723
 21
-89.67079247524994
 31
0.0
 11
-88.17593526363285
 21
-89.71270396324623
 31
0.0
 11
-88.3623064536046
 21
-89.76495168194249
 31
0.0
 11
-88.50964990878063
 21
-89.8163752157895
 31
0.0
 11
-88.64698174553877
 21
-89.87411778706658
 31
0.0
 11
-88.79578053362613
 21
-89.95031667021355
 31
0.0
 11
-88.91796063748832
 21
-90.02726246458792
 31
0.0
 11
-89.02445238160965
 21
-90.10983386177759
 31
0.0
  0
SPLINE
  5
104
330
47
100
AcDbEntity
  8
0
  6
Continuous
 62
     7
100
AcDbSpline
210
0.0
220
0.0
230
1.0
 70
     8
 71
     3
 72
    57
 73
    53
 74
    51
 42
0.000000001
 43
0.0000000001
 44
0.00000001
 40
0.0
 40
0.0
 40
0.0
 40
0.0
 40
0.0810922364358062
 40
0.1649780038571783
 40
0.2515619395348944
 40
0.3407202588978214
 40
0.4323028377796134
 40
0.5261303939067964
 40
0.6219975776712205
 40
0.7196713288563288
 40
0.7691073671563049
 40
0.818896801110141
 40
0.8690039762001972
 40
0.919391926768627
 40
0.9700225967547091
 40
1.020856837026811
 40
1.071854622990731
 40
1.122975088043161
 40
1.174176733031141
 40
1.225417495612574
 40
1.27665494635821
 40
1.327846392672259
 40
1.378949056372619
 40
1.429920209718649
 40
1.480717329554712
 40
1.531298262003705
 40
1.581621348745456
 40
1.631645616076112
 40
1.68133086960062
 40
1.730637902707642
 40
1.779528556831897
 40
1.827965943964435
 40
1.875914470698045
 40
1.923340069168229
 40
1.970210184229276
 40
2.016494007296996
 40
2.062162427083835
 40
2.107188261124554
 40
2.151546171625884
 40
2.195212889874384
 40
2.238167099763556
 40
2.280389650899918
 40
2.321863413217414
 40
2.362573475332622
 40
2.402506974228059
 40
2.441653276215706
 40
2.517548330085202
 40
2.59021934005799
 40
2.659655038262656
 40
2.725876692049376
 40
2.788933514632206
 40
2.848902879775896
 40
2.848902879775896
 40
2.848902879775896
 40
2.848902879775896
 10
-86.9852218970683
 20
-87.89836019080272
 30
0.0
 10
-87.01125299190409
 20
-87.89107112194998
 30
0.0
 10
-87.06421192557377
 20
-87.87624189855873
 30
0.0
 10
-87.14569941281573
 20
-87.85639634542927
 30
0.0
 10
-87.23026542135574
 20
-87.83797064555674
 30
0.0
 10
-87.31781450068092
 20
-87.82131559448882
 30
0.0
 10
-87.40814311231806
 20
-87.80651910184483
 30
0.0
 10
-87.50103601635219
 20
-87.79372814323169
 30
0.0
 10
-87.59624106182206
 20
-87.78307300421862
 30
0.0
 10
-87.67694175546964
 20
-87.77609645745197
 30
0.0
 10
-87.74242729572039
 20
-87.77167722013772
 30
0.0
 10
-87.79213156498439
 20
-87.76895176757125
 30
0.0
 10
-87.84218322643676
 20
-87.76684059813897
 30
0.0
 10
-87.89253787990359
 20
-87.76535333089191
 30
0.0
 10
-87.94314965492053
 20
-87.76449967694273
 30
0.0
 10
-87.99397147729034
 20
-87.76428709549046
 30
0.0
 10
-88.0449551587489
 20
-87.76472305846806
 30
0.0
 10
-88.09605157137352
 20
-87.76581264739158
 30
0.0
 10
-88.14721074408239
 20
-87.76756092909697
 30
0.0
 10
-88.19838209439683
 20
-87.76997045834727
 30
0.0
 10
-88.2495144833611
 20
-87.77304376488198
 30
0.0
 10
-88.30055651643181
 20
-87.77678077537702
 30
0.0
 10
-88.35145654541147
 20
-87.78118139704715
 30
0.0
 10
-88.40216303890377
 20
-87.78624287741263
 30
0.0
 10
-88.45262452297351
 20
-87.79196246663702
 30
0.0
 10
-88.50279001956896
 20
-87.79833473492027
 30
0.0
 10
-88.55260891858023
 20
-87.8053542937839
 30
0.0
 10
-88.60203148135939
 20
-87.81301309170964
 30
0.0
 10
-88.65100863796324
 20
-87.82130317297305
 30
0.0
 10
-88.69949255180671
 20
-87.8302139725836
 30
0.0
 10
-88.74743633730212
 20
-87.83973509002624
 30
0.0
 10
-88.7947946807323
 20
-87.84985360464655
 30
0.0
 10
-88.841523475222
 20
-87.86055684083645
 30
0.0
 10
-88.88758049210462
 20
-87.87182972475557
 30
0.0
 10
-88.93292493214126
 20
-87.883657517138
 30
0.0
 10
-88.97751814095786
 20
-87.89602323165818
 30
0.0
 10
-89.02132307760365
 20
-87.908910311665
 30
0.0
 10
-89.0643050670152
 20
-87.92230012960201
 30
0.0
 10
-89.10643118942392
 20
-87.93617458463808
 30
0.0
 10
-89.14767106180804
 20
-87.95051370123768
 30
0.0
 10
-89.18799615572652
 20
-87.96529812627442
 30
0.0
 10
-89.22738059284313
 20
-87.98050684155551
 30
0.0
 10
-89.26580042437382
 20
-87.9961195473197
 30
0.0
 10
-89.30323434059693
 20
-88.0121144773853
 30
0.0
 10
-89.33966325449367
 20
-88.02847074660487
 30
0.0
 10
-89.38638978089533
 20
-88.05050368037301
 30
0.0
 10
-89.442224375983
 20
-88.07878376868715
 30
0.0
 10
-89.50570975532469
 20
-88.11417955807504
 30
0.0
 10
-89.56493057854935
 20
-88.15049047362157
 30
0.0
 10
-89.61980959629392
 20
-88.18760987019903
 30
0.0
 10
-89.67055871512875
 20
-88.22514158640567
 30
0.0
 10
-89.70196409453989
 20
-88.25152495876578
 30
0.0
 10
-89.71727270463717
 20
-88.26438559458717
 30
0.0
 11
-86.9852218970683
 21
-87.89836019080272
 31
0.0
 11
-87.06343157149401
 21
-87.8769313170915
 31
0.0
 11
-87.14489944017978
 21
-87.85693612375574
 31
0.0
 11
-87.22950285319355
 21
-87.83852306781678
 31
0.0
 11
-87.31708578052988
 21
-87.82183663965472
 31
0.0
 11
-87.40746198935553
 21
-87.80702077986157
 31
0.0
 11
-87.5004109471134
 21
-87.79421056620262
 31
0.0
 11
-87.59568212385813
 21
-87.78353724346047
 31
0.0
 11
-87.69299233496434
 21
-87.77511795094459
 31
0.0
 11
-87.74231612476237
 21
-87.77178844024652
 31
0.0
 11
-87.79203084672164
 21
-87.76906187613346
 31
0.0
 11
-87.84209348223305
 21
-87.76694964546975
 31
0.0
 11
-87.89245946105322
 21
-87.76546178236917
 31
0.0
 11
-87.94308292559322
 21
-87.76460762937033
 31
0.0
 11
-87.99391672131495
 21
-87.7643950446279
 31
0.0
 11
-88.04491264280584
 21
-87.76483111785235
 31
0.0
 11
-88.09602148110994
 21
-87.7659213423257
 31
0.0
 11
-88.14719324387495
 21
-87.76767038198759
 31
0.0
 11
-88.19837726115367
 21
-87.77008121579242
 31
0.0
 11
-88.24952237192426
 21
-87.77315595113974
 31
0.0
 11
-88.30057708833239
 21
-87.77689494863871
 31
0.0
 11
-88.35148974121651
 21
-87.78129767591783
 31
0.0
 11
-88.40220870117918
 21
-87.78636182120569
 31
0.0
 11
-88.45268247636832
 21
-87.79208418045917
 31
0.0
 11
-88.50285998727334
 21
-87.7984597682981
 31
0.0
 11
-88.55269061094737
 21
-87.805482730413
 31
0.0
 11
-88.60212450504686
 21
-87.81314546030598
 31
0.0
 11
-88.65111259390521
 21
-87.82143952812488
 31
0.0
 11
-88.69960693616673
 21
-87.83035481138027
 31
0.0
 11
-88.74756064957337
 21
-87.83988043074078
 31
0.0
 11
-88.7949283156122
 21
-87.85000390243546
 31
0.0
 11
-88.84166584155122
 21
-87.86071207117787
 31
0.0
 11
-88.88773089482095
 21
-87.87199029134769
 31
0.0
 11
-88.93308270261184
 21
-87.88382334710298
 31
0.0
 11
-88.97768250834852
 21
-87.8961946687164
 31
0.0
 11
-89.02149331089406
 21
-87.90908723007756
 31
0.0
 11
-89.06448033539229
 21
-87.92248280576496
 31
0.0
 11
-89.10661071589115
 21
-87.93636283656546
 31
0.0
 11
-89.14785397290599
 21
-87.95070773200374
 31
0.0
 11
-89.18818164489579
 21
-87.96549769517307
 31
0.0
 11
-89.22756776522971
 21
-87.98071207457672
 31
0.0
 11
-89.26598844937055
 21
-87.99633014045061
 31
0.0
 11
-89.30342236442823
 21
-88.01233048891802
 31
0.0
 11
-89.33985028000444
 21
-88.02869176302283
 31
0.0
 11
-89.37525552414665
 21
-88.04539211137758
 31
0.0
 11
-89.44294170647824
 21
-88.0797234362864
 31
0.0
 11
-89.50639370210888
 21
-88.1151482844398
 31
0.0
 11
-89.56555647647049
 21
-88.15149497869257
 31
0.0
 11
-89.62041196293572
 21
-88.18859191441854
 31
0.0
 11
-89.6709701132168
 21
-88.22627529106111
 31
0.0
 11
-89.71727270463717
 21
-88.26438559458717
 31
0.0
  0
SPLINE
  5
105
330
47
100
AcDbEntity
  8
0
  6
Continuous
 62
     7
100
AcDbSpline
210
0.0
220
0.0
230
1.0
 70
     8
 71
     3
 72
    11
 73
     7
 74
     5
 42
0.000000001
 43
0.0000000001
 44
0.00000001
 40
0.0
 40
0.0
 40
0.0
 40
0.0
 40
0.3165780249984459
 40
0.6289705114310545
 40
0.9308038974540556
 40
1.216251201905085
 40
1.216251201905085
 40
1.216251201905085
 40
1.216251201905085
 10
-92.906815965237
 20
-85.29405030891436
 30
0.0
 10
-92.80121939843346
 20
-85.29475470827427
 30
0.0
 10
-92.59142237749529
 20
-85.29615417902887
 30
0.0
 10
-92.28230344031095
 20
-85.26481604174518
 30
0.0
 10
-91.98634192600082
 20
-85.21267961738883
 30
0.0
 10
-91.79923922355701
 20
-85.15450722783044
 30
0.0
 10
-91.70829810842163
 20
-85.12623257784645
 30
0.0
 11
-92.906815965237
 21
-85.29405030891436
 31
0.0
 11
-92.5902584785589
 21
-85.29044425251968
 31
0.0
 11
-92.27929459663683
 21
-85.2606024987056
 31
0.0
 11
-91.9825607555844
 21
-85.20535377809347
 31
0.0
 11
-91.70829810842163
 21
-85.12623257784645
 31
0.0
  0
SPLINE
  5
106
330
47
100
AcDbEntity
  8
0
  6
Continuous
 62
     7
100
AcDbSpline
210
0.0
220
0.0
230
1.0
 70
     8
 71
     3
 72
    11
 73
     7
 74
     5
 42
0.000000001
 43
0.0000000001
 44
0.00000001
 40
0.0
 40
0.0
 40
0.0
 40
0.0
 40
0.1397370992065057
 40
0.287869270400897
 40
0.4508777032572463
 40
0.6325920118030247
 40
0.6325920118030247
 40
0.6325920118030247
 40
0.6325920118030247
 10
-94.69166288807193
 20
-84.34579668134162
 30
0.0
 10
-94.68757379617274
 20
-84.39253164356413
 30
0.0
 10
-94.67914993486019
 20
-84.48880929087454
 30
0.0
 10
-94.61302019228808
 20
-84.62670923679767
 30
0.0
 10
-94.51255293897316
 20
-84.75803756649333
 30
0.0
 10
-94.4234688627632
 20
-84.83121309823983
 30
0.0
 10
-94.3765098109069
 20
-84.86978624020244
 30
0.0
 11
-94.69166288807193
 21
-84.34579668134162
 31
0.0
 11
-94.67143183503049
 21
-84.48406150698295
 31
0.0
 11
-94.61116957305367
 21
-84.61938187068253
 31
0.0
 11
-94.51215937817882
 21
-84.74887600651165
 31
0.0
 11
-94.3765098109069
 21
-84.86978624020244
 31
0.0
  0
SPLINE
  5
107
330
47
100
AcDbEntity
  8
0
  6
Continuous
 62
     7
100
AcDbSpline
210
0.0
220
0.0
230
1.0
 70
     8
 71
     3
 72
    11
 73
     7
 74
     5
 42
0.000000001
 43
0.0000000001
 44
0.00000001
 40
0.0
 40
0.0
 40
0.0
 40
0.0
 40
0.2817617328639561
 40
0.5742760305695491
 40
0.8643377616002763
 40
1.139462920410224
 40
1.139462920410224
 40
1.139462920410224
 40
1.139462920410224
 10
-81.69328666347383
 20
-112.692883041991
 30
0.0
 10
-81.66288174448233
 20
-112.78237130655
 30
0.0
 10
-81.60091158303591
 20
-112.9647628726363
 30
0.0
 10
-81.42270862365143
 20
-113.1960270176968
 30
0.0
 10
-81.20325302634942
 20
-113.3857470079957
 30
0.0
 10
-81.02647506106834
 20
-113.4544608123469
 30
0.0
 10
-80.94042199010978
 20
-113.4879097350743
 30
0.0
 11
-81.69328666347383
 21
-112.692883041991
 31
0.0
 11
-81.58848775671406
 21
-112.9544301004792
 31
0.0
 11
-81.4149045662389
 21
-113.1898732823238
 31
0.0
 11
-81.19095900362936
 21
-113.3742213075208
 31
0.0
 11
-80.94042199010978
 21
-113.4879097350743
 31
0.0
  0
SPLINE
  5
108
330
47
100
AcDbEntity
  8
0
  6
Continuous
 62
     7
100
AcDbSpline
210
0.0
220
0.0
230
1.0
 70
     8
 71
     3
 72
    11
 73
     7
 74
     5
 42
0.000000001
 43
0.0000000001
 44
0.00000001
 40
0.0
 40
0.0
 40
0.0
 40
0.0
 40
0.1397370992065218
 40
0.2878692704009002
 40
0.4508777032572494
 40
0.6325920118030077
 40
0.6325920118030077
 40
0.6325920118030077
 40
0.6325920118030077
 10
-83.43333263887423
 20
-87.59579668134162
 30
0.0
 10
-83.42924354697502
 20
-87.64253164356411
 30
0.0
 10
-83.42081968566248
 20
-87.73880929087456
 30
0.0
 10
-83.35468994309038
 20
-87.8767092367977
 30
0.0
 10
-83.2542226897754
 20
-88.00803756649327
 30
0.0
 10
-83.16513861356553
 20
-88.08121309823984
 30
0.0
 10
-83.1181795617092
 20
-88.11978624020243
 30
0.0
 11
-83.43333263887423
 21
-87.59579668134162
 31
0.0
 11
-83.41310158583278
 21
-87.73406150698297
 31
0.0
 11
-83.35283932385596
 21
-87.86938187068253
 31
0.0
 11
-83.25382912898111
 21
-87.99887600651165
 31
0.0
 11
-83.1181795617092
 21
-88.11978624020243
 31
0.0
  0
ENDBLK
  5
49
330
47
100
AcDbEntity
  8
0
100
AcDbBlockEnd
  0
BLOCK
  5
4C
330
4A
100
AcDbEntity
  8
0
100
AcDbBlockBegin
  2
Allg1
 70
     0
 10
-86.99999866919407
 20
-97.17500038417302
 30
0.0
  3
Allg1
  1

  0
INSERT
  5
4B
330
4A
100
AcDbEntity
  8
0
100
AcDbBlockReference
  2
MBK-3_BU_select__1
 10
-100.4118534164553
 20
-113.5321051853116
 30
0.0
  0
MTEXT
  5
10A
330
4A
100
AcDbEntity
  8
1
 62
     6
100
AcDbMText
 10
-86.99999866919399
 20
-117.3669924238721
 30
0.0
 40
2.5
 41
0.0
 71
     2
 72
     1
  1
 
  7
CONVERTER_11
 73
     1
 44
1.32052821128451
  0
ENDBLK
  5
4D
330
4A
100
AcDbEntity
  8
0
100
AcDbBlockEnd
  0
BLOCK
  5
4F
330
4E
100
AcDbEntity
  8
0
100
AcDbBlockBegin
  2
MBK-3_BU_select__2
 70
     0
 10
-158.0750009743142
 20
-104.7500004768471
 30
0.0
  3
MBK-3_BU_select__2
  1

  0
LINE
  5
10B
330
4E
100
AcDbEntity
  8
0
  6
Continuous
 62
     7
100
AcDbLine
 10
-130.0750009743142
 20
-99.60000047684706
 30
0.0
 11
-130.0750009743142
 21
-104.7500004768471
 31
0.0
  0
LINE
  5
10C
330
4E
100
AcDbEntity
  8
0
  6
Continuous
 62
     7
100
AcDbLine
 10
-134.8250009743142
 20
-104.7500004768471
 30
0.0
 11
-130.0750009743142
 21
-104.7500004768471
 31
0.0
  0
LINE
  5
10D
330
4E
100
AcDbEntity
  8
0
  6
Continuous
 62
     7
100
AcDbLine
 10
-130.0750009743142
 20
-99.60000047684706
 30
0.0
 11
-134.8250009743142
 21
-99.60000047684707
 31
0.0
  0
LINE
  5
10E
330
4E
100
AcDbEntity
  8
0
  6
Continuous
 62
     7
100
AcDbLine
 10
-131.7750009743141
 20
-102.6500004768471
 30
0.0
 11
-132.7750009743141
 21
-102.6500004768471
 31
0.0
  0
LINE
  5
10F
330
4E
100
AcDbEntity
  8
0
  6
Continuous
 62
     7
100
AcDbLine
 10
-131.7750009743141
 20
-101.6500004768471
 30
0.0
 11
-131.7750009743141
 21
-102.6500004768471
 31
0.0
  0
LINE
  5
110
330
4E
100
AcDbEntity
  8
0
  6
Continuous
 62
     7
100
AcDbLine
 10
-134.8250009743142
 20
-104.7500004768471
 30
0.0
 11
-134.8250009743142
 21
-99.60000047684707
 31
0.0
  0
LINE
  5
111
330
4E
100
AcDbEntity
  8
0
  6
Continuous
 62
     7
100
AcDbLine
 10
-132.7750009743141
 20
-102.6500004768471
 30
0.0
 11
-132.7750009743142
 21
-101.6500004768471
 31
0.0
  0
LINE
  5
112
330
4E
100
AcDbEntity
  8
0
  6
Continuous
 62
     7
100
AcDbLine
 10
-132.7750009743142
 20
-101.6500004768471
 30
0.0
 11
-131.7750009743141
 21
-101.6500004768471
 31
0.0
  0
LINE
  5
113
330
4E
100
AcDbEntity
  8
0
  6
Continuous
 62
     7
100
AcDbLine
 10
-156.3750009743142
 20
-101.6500004768471
 30
0.0
 11
-155.3750009743142
 21
-101.6500004768471
 31
0.0
  0
LINE
  5
114
330
4E
100
AcDbEntity
  8
0
  6
Continuous
 62
     7
100
AcDbLine
 10
-155.3750009743142
 20
-101.6500004768471
 30
0.0
 11
-155.3750009743142
 21
-102.6500004768471
 31
0.0
  0
LINE
  5
115
330
4E
100
AcDbEntity
  8
0
  6
Continuous
 62
     7
100
AcDbLine
 10
-156.3750009743142
 20
-102.6500004768471
 30
0.0
 11
-156.3750009743142
 21
-101.6500004768471
 31
0.0
  0
LINE
  5
116
330
4E
100
AcDbEntity
  8
0
  6
Continuous
 62
     7
100
AcDbLine
 10
-135.6250009743142
 20
-99.60000047684707
 30
0.0
 11
-140.1250009743142
 21
-99.60000047684707
 31
0.0
  0
LINE
  5
117
330
4E
100
AcDbEntity
  8
0
  6
Continuous
 62
     7
100
AcDbLine
 10
-140.1250009743142
 20
-104.7500004768471
 30
0.0
 11
-140.1250009743142
 21
-99.60000047684707
 31
0.0
  0
LINE
  5
118
330
4E
100
AcDbEntity
  8
0
  6
Continuous
 62
     2
100
AcDbLine
 10
-141.9250009743141
 20
-102.5000004768471
 30
0.0
 11
-141.1250009743142
 21
-102.5000004768471
 31
0.0
  0
LINE
  5
119
330
4E
100
AcDbEntity
  8
0
  6
Continuous
 62
     7
100
AcDbLine
 10
-148.9787657081832
 20
-103.5305503180288
 30
0.0
 11
-151.6055508154959
 21
-100.9037652107161
 31
0.0
  0
LINE
  5
11A
330
4E
100
AcDbEntity
  8
0
  6
Continuous
 62
     7
100
AcDbLine
 10
-140.1250009743142
 20
-99.60000047684707
 30
0.0
 11
-141.1250009743142
 21
-99.60000047684707
 31
0.0
  0
LINE
  5
11B
330
4E
100
AcDbEntity
  8
0
  6
Continuous
 62
     7
100
AcDbLine
 10
-148.0250009743142
 20
-99.60000047684707
 30
0.0
 11
-152.5250009743141
 21
-99.60000047684707
 31
0.0
  0
LINE
  5
11C
330
4E
100
AcDbEntity
  8
0
  6
Continuous
 62
     7
100
AcDbLine
 10
-152.1712362404452
 20
-101.4694506356653
 30
0.0
 11
-149.5444511331324
 21
-104.0962357429781
 31
0.0
  0
LINE
  5
11D
330
4E
100
AcDbEntity
  8
0
  6
Continuous
 62
     7
100
AcDbLine
 10
-135.6250009743142
 20
-104.7500004768471
 30
0.0
 11
-135.6250009743142
 21
-99.60000047684707
 31
0.0
  0
LINE
  5
11E
330
4E
100
AcDbEntity
  8
0
  6
Continuous
 62
     7
100
AcDbLine
 10
-144.2250009743142
 20
-100.5000004768471
 30
0.0
 11
-143.925000974314
 21
-100.5000004768471
 31
0.0
  0
LINE
  5
11F
330
4E
100
AcDbEntity
  8
0
  6
Continuous
 62
     7
100
AcDbLine
 10
-143.925000974314
 20
-100.5000004768471
 30
0.0
 11
-143.1250009743141
 21
-100.5000004768471
 31
0.0
  0
LINE
  5
120
330
4E
100
AcDbEntity
  8
0
  6
Continuous
 62
     7
100
AcDbLine
 10
-145.0250009743141
 20
-100.5000004768471
 30
0.0
 11
-144.2250009743142
 21
-100.5000004768471
 31
0.0
  0
LINE
  5
121
330
4E
100
AcDbEntity
  8
0
  6
Continuous
 62
     7
100
AcDbLine
 10
-147.0250009743142
 20
-104.7500004768471
 30
0.0
 11
-147.0250009743142
 21
-102.5000004768471
 31
0.0
  0
LINE
  5
122
330
4E
100
AcDbEntity
  8
0
  6
Continuous
 62
     7
100
AcDbLine
 10
-146.2250009743142
 20
-102.5000004768471
 30
0.0
 11
-146.2250009743142
 21
-104.7500004768471
 31
0.0
  0
LINE
  5
123
330
4E
100
AcDbEntity
  8
0
  6
Continuous
 62
     2
100
AcDbLine
 10
-146.2250009743142
 20
-102.5000004768471
 30
0.0
 11
-147.0250009743142
 21
-102.5000004768471
 31
0.0
  0
LINE
  5
124
330
4E
100
AcDbEntity
  8
0
  6
Continuous
 62
     7
100
AcDbLine
 10
-147.0250009743142
 20
-102.5000004768471
 30
0.0
 11
-147.0250009743142
 21
-99.60000047684707
 31
0.0
  0
LINE
  5
125
330
4E
100
AcDbEntity
  8
0
  6
Continuous
 62
     7
100
AcDbLine
 10
-148.0250009743142
 20
-104.7500004768471
 30
0.0
 11
-148.0250009743142
 21
-99.60000047684707
 31
0.0
  0
LINE
  5
126
330
4E
100
AcDbEntity
  8
0
  6
Continuous
 62
     7
100
AcDbLine
 10
-158.0750009743142
 20
-99.60000047684706
 30
0.0
 11
-158.0750009743142
 21
-104.7500004768471
 31
0.0
  0
LINE
  5
127
330
4E
100
AcDbEntity
  8
0
  6
Continuous
 62
     7
100
AcDbLine
 10
-153.3250009743142
 20
-104.7500004768471
 30
0.0
 11
-153.3250009743142
 21
-99.60000047684707
 31
0.0
  0
LINE
  5
128
330
4E
100
AcDbEntity
  8
0
  6
Continuous
 62
     7
100
AcDbLine
 10
-152.5250009743141
 20
-104.7500004768471
 30
0.0
 11
-152.5250009743141
 21
-99.60000047684707
 31
0.0
  0
LINE
  5
129
330
4E
100
AcDbEntity
  8
0
  6
Continuous
 62
     7
100
AcDbLine
 10
-141.1250009743142
 20
-104.7500004768471
 30
0.0
 11
-141.1250009743142
 21
-102.5000004768471
 31
0.0
  0
LINE
  5
12A
330
4E
100
AcDbEntity
  8
0
  6
Continuous
 62
     7
100
AcDbLine
 10
-141.1250009743142
 20
-102.5000004768471
 30
0.0
 11
-141.1250009743142
 21
-99.60000047684707
 31
0.0
  0
LINE
  5
12B
330
4E
100
AcDbEntity
  8
0
  6
Continuous
 62
     7
100
AcDbLine
 10
-141.9250009743141
 20
-104.7500004768471
 30
0.0
 11
-141.9250009743141
 21
-102.5000004768471
 31
0.0
  0
LINE
  5
12C
330
4E
100
AcDbEntity
  8
0
  6
Continuous
 62
     7
100
AcDbLine
 10
-135.6250009743142
 20
-104.7500004768471
 30
0.0
 11
-134.8250009743142
 21
-104.7500004768471
 31
0.0
  0
LINE
  5
12D
330
4E
100
AcDbEntity
  8
0
  6
Continuous
 62
     7
100
AcDbLine
 10
-152.5250009743141
 20
-104.7500004768471
 30
0.0
 11
-148.0250009743142
 21
-104.7500004768471
 31
0.0
  0
LINE
  5
12E
330
4E
100
AcDbEntity
  8
0
  6
Continuous
 62
     7
100
AcDbLine
 10
-158.0750009743142
 20
-104.7500004768471
 30
0.0
 11
-153.3250009743142
 21
-104.7500004768471
 31
0.0
  0
LINE
  5
12F
330
4E
100
AcDbEntity
  8
0
  6
Continuous
 62
     7
100
AcDbLine
 10
-135.9787657081832
 20
-103.5305503180288
 30
0.0
 11
-138.6055508154959
 21
-100.9037652107161
 31
0.0
  0
LINE
  5
130
330
4E
100
AcDbEntity
  8
0
  6
Continuous
 62
     7
100
AcDbLine
 10
-136.7264728368903
 20
-104.2000004768471
 30
0.0
 11
-138.423529111738
 21
-104.2000004768471
 31
0.0
  0
LINE
  5
131
330
4E
100
AcDbEntity
  8
0
  6
Continuous
 62
     7
100
AcDbLine
 10
-139.1712362404452
 20
-101.4694506356653
 30
0.0
 11
-136.5444511331324
 21
-104.0962357429781
 31
0.0
  0
LINE
  5
132
330
4E
100
AcDbEntity
  8
0
  6
Continuous
 62
     7
100
AcDbLine
 10
-155.3750009743142
 20
-102.6500004768471
 30
0.0
 11
-156.3750009743142
 21
-102.6500004768471
 31
0.0
  0
LINE
  5
133
330
4E
100
AcDbEntity
  8
0
  6
Continuous
 62
     7
100
AcDbLine
 10
-153.3250009743142
 20
-104.7500004768471
 30
0.0
 11
-152.5250009743141
 21
-104.7500004768471
 31
0.0
  0
LINE
  5
134
330
4E
100
AcDbEntity
  8
0
  6
Continuous
 62
     7
100
AcDbLine
 10
-141.9250009743141
 20
-104.7500004768471
 30
0.0
 11
-141.1250009743142
 21
-104.7500004768471
 31
0.0
  0
LINE
  5
135
330
4E
100
AcDbEntity
  8
0
  6
Continuous
 62
     7
100
AcDbLine
 10
-149.7264728368903
 20
-104.2000004768471
 30
0.0
 11
-151.423529111738
 21
-104.2000004768471
 31
0.0
  0
LINE
  5
136
330
4E
100
AcDbEntity
  8
0
  6
Continuous
 62
     7
100
AcDbLine
 10
-147.0250009743142
 20
-104.7500004768471
 30
0.0
 11
-146.2250009743142
 21
-104.7500004768471
 31
0.0
  0
LINE
  5
137
330
4E
100
AcDbEntity
  8
0
  6
Continuous
 62
     7
100
AcDbLine
 10
-148.0250009743142
 20
-104.7500004768471
 30
0.0
 11
-147.0250009743142
 21
-104.7500004768471
 31
0.0
  0
LINE
  5
138
330
4E
100
AcDbEntity
  8
0
  6
Continuous
 62
     7
100
AcDbLine
 10
-141.1250009743142
 20
-104.7500004768471
 30
0.0
 11
-140.1250009743142
 21
-104.7500004768471
 31
0.0
  0
LINE
  5
139
330
4E
100
AcDbEntity
  8
0
  6
Continuous
 62
     7
100
AcDbLine
 10
-140.1250009743142
 20
-104.7500004768471
 30
0.0
 11
-135.6250009743142
 21
-104.7500004768471
 31
0.0
  0
LINE
  5
13A
330
4E
100
AcDbEntity
  8
0
  6
Continuous
 62
     7
100
AcDbLine
 10
-141.9250009743141
 20
-104.7500004768471
 30
0.0
 11
-146.2250009743142
 21
-104.7500004768471
 31
0.0
  0
LINE
  5
13B
330
4E
100
AcDbEntity
  8
0
  6
Continuous
 62
     7
100
AcDbLine
 10
-153.3250009743142
 20
-99.60000047684707
 30
0.0
 11
-158.0750009743142
 21
-99.60000047684706
 31
0.0
  0
LINE
  5
13C
330
4E
100
AcDbEntity
  8
0
  6
Continuous
 62
     7
100
AcDbLine
 10
-147.0250009743142
 20
-99.60000047684707
 30
0.0
 11
-148.0250009743142
 21
-99.60000047684707
 31
0.0
  0
LINE
  5
13D
330
4E
100
AcDbEntity
  8
0
  6
Continuous
 62
     7
100
AcDbLine
 10
-152.5250009743141
 20
-99.60000047684707
 30
0.0
 11
-153.3250009743142
 21
-99.60000047684707
 31
0.0
  0
LINE
  5
13E
330
4E
100
AcDbEntity
  8
0
  6
Continuous
 62
     7
100
AcDbLine
 10
-134.8250009743142
 20
-99.60000047684707
 30
0.0
 11
-135.6250009743142
 21
-99.60000047684707
 31
0.0
  0
LINE
  5
13F
330
4E
100
AcDbEntity
  8
0
  6
Continuous
 62
     7
100
AcDbLine
 10
-141.1250009743142
 20
-99.60000047684707
 30
0.0
 11
-147.0250009743142
 21
-99.60000047684707
 31
0.0
  0
ARC
  5
140
330
4E
100
AcDbEntity
  8
0
  6
Continuous
 62
     7
100
AcDbCircle
 10
-143.1250009743142
 20
-102.5000004768471
 30
0.0
 40
2.0
100
AcDbArc
 50
0.0
 51
89.99999999999756
  0
ARC
  5
141
330
4E
100
AcDbEntity
  8
0
  6
Continuous
 62
     7
100
AcDbCircle
 10
-150.5750009743142
 20
-102.5000004768471
 30
0.0
 40
1.899999999999975
100
AcDbArc
 50
122.8468025309901
 51
147.1531974690066
  0
ARC
  5
142
330
4E
100
AcDbEntity
  8
0
  6
Continuous
 62
     7
100
AcDbCircle
 10
-150.5750009743142
 20
-102.5000004768471
 30
0.0
 40
1.900000000000044
100
AcDbArc
 50
147.1531974690066
 51
243.4746479833921
  0
ARC
  5
143
330
4E
100
AcDbEntity
  8
0
  6
Continuous
 62
     7
100
AcDbCircle
 10
-143.9250009743141
 20
-102.5000004768471
 30
0.0
 40
2.0
100
AcDbArc
 50
0.0
 51
89.99999999999756
  0
ARC
  5
144
330
4E
100
AcDbEntity
  8
0
  6
Continuous
 62
     7
100
AcDbCircle
 10
-144.2250009743142
 20
-102.5000004768471
 30
0.0
 40
2.0
100
AcDbArc
 50
90.0
 51
180.0
  0
ARC
  5
145
330
4E
100
AcDbEntity
  8
0
  6
Continuous
 62
     7
100
AcDbCircle
 10
-145.0250009743141
 20
-102.5000004768471
 30
0.0
 40
2.0
100
AcDbArc
 50
90.0
 51
180.0
  0
ARC
  5
146
330
4E
100
AcDbEntity
  8
0
  6
Continuous
 62
     7
100
AcDbCircle
 10
-137.5750009743142
 20
-102.5000004768471
 30
0.0
 40
1.899999999999975
100
AcDbArc
 50
122.8468025309901
 51
147.1531974690066
  0
ARC
  5
147
330
4E
100
AcDbEntity
  8
0
  6
Continuous
 62
     7
100
AcDbCircle
 10
-137.5750009743142
 20
-102.5000004768471
 30
0.0
 40
1.900000000000044
100
AcDbArc
 50
147.1531974690066
 51
243.4746479833921
  0
ARC
  5
148
330
4E
100
AcDbEntity
  8
0
  6
Continuous
 62
     7
100
AcDbCircle
 10
-137.5750009743142
 20
-102.5000004768471
 30
0.0
 40
1.900000000000008
100
AcDbArc
 50
296.525352016611
 51
302.8468025309932
  0
ARC
  5
149
330
4E
100
AcDbEntity
  8
0
  6
Continuous
 62
     7
100
AcDbCircle
 10
-137.5750009743142
 20
-102.5000004768471
 30
0.0
 40
1.900000000000025
100
AcDbArc
 50
302.8468025309932
 51
327.1531974690096
  0
ARC
  5
14A
330
4E
100
AcDbEntity
  8
0
  6
Continuous
 62
     7
100
AcDbCircle
 10
-137.5750009743142
 20
-102.5000004768471
 30
0.0
 40
1.899999999999983
100
AcDbArc
 50
327.1531974690096
 51
122.8468025309901
  0
ARC
  5
14B
330
4E
100
AcDbEntity
  8
0
  6
Continuous
 62
     7
100
AcDbCircle
 10
-150.5750009743142
 20
-102.5000004768471
 30
0.0
 40
1.900000000000008
100
AcDbArc
 50
296.525352016611
 51
302.8468025309932
  0
ARC
  5
14C
330
4E
100
AcDbEntity
  8
0
  6
Continuous
 62
     7
100
AcDbCircle
 10
-150.5750009743142
 20
-102.5000004768471
 30
0.0
 40
1.900000000000025
100
AcDbArc
 50
302.8468025309932
 51
327.1531974690096
  0
ARC
  5
14D
330
4E
100
AcDbEntity
  8
0
  6
Continuous
 62
     7
100
AcDbCircle
 10
-150.5750009743142
 20
-102.5000004768471
 30
0.0
 40
1.899999999999983
100
AcDbArc
 50
327.1531974690096
 51
122.8468025309901
  0
ENDBLK
  5
50
330
4E
100
AcDbEntity
  8
0
100
AcDbBlockEnd
  0
BLOCK
  5
53
330
51
100
AcDbEntity
  8
0
100
AcDbBlockBegin
  2
Drfsicht1
 70
     0
 10
-144.0750020476838
 20
-102.1750004291584
 30
0.0
  3
Drfsicht1
  1

  0
INSERT
  5
52
330
51
100
AcDbEntity
  8
0
100
AcDbBlockReference
  2
MBK-3_BU_select__2
 10
-158.0750009743142
 20
-104.7500004768471
 30
0.0
  0
MTEXT
  5
14E
330
51
100
AcDbEntity
  8
1
 62
     6
100
AcDbMText
 10
-144.0750020476838
 20
-107.2500004768422
 30
0.0
 40
2.5
 41
0.0
 71
     2
 72
     1
  1
 
  7
CONVERTER_11
 73
     1
 44
1.32052821128451
  0
DIMENSION
  5
159
330
51
100
AcDbEntity
  8
1
100
AcDbDimension
  2
*D17
 10
-163.0750009743142
 20
-99.60000047684704
 30
0.0
 11
-164.7875009743142
 21
-102.4174293389409
 31
0.0
 70
    33
  1
<>
 71
     5
 42
-1.0
 53
90.0
  3
ME10_DIM_10
100
AcDbAlignedDimension
 13
-158.0750009743142
 23
-104.7500004768471
 33
0.0
 14
-158.0750009743142
 24
-99.60000047684706
 34
0.0
  0
ENDBLK
  5
54
330
51
100
AcDbEntity
  8
0
100
AcDbBlockEnd
  0
BLOCK
  5
56
330
55
100
AcDbEntity
  8
0
100
AcDbBlockBegin
  2
MBK-3_BU_select__3
 70
     0
 10
-104.9249990256857
 20
-77.09999961853043
 30
0.0
  3
MBK-3_BU_select__3
  1

  0
LINE
  5
15A
330
55
100
AcDbEntity
  8
0
  6
Continuous
 62
     7
100
AcDbLine
 10
-104.9249990256857
 20
-48.89999961853042
 30
0.0
 11
-104.9249990256857
 21
-73.89999961853042
 31
0.0
  0
LINE
  5
15B
330
55
100
AcDbEntity
  8
0
  6
Continuous
 62
     7
100
AcDbLine
 10
-104.9249990256857
 20
-48.89999961853042
 30
0.0
 11
-100.1749990256857
 21
-48.89999961853042
 31
0.0
  0
LINE
  5
15C
330
55
100
AcDbEntity
  8
0
  6
Continuous
 62
     7
100
AcDbLine
 10
-100.3249990256857
 20
-76.19999961853041
 30
0.0
 11
-100.3249990256857
 21
-75.19999961853041
 31
0.0
  0
LINE
  5
15D
330
55
100
AcDbEntity
  8
0
  6
Continuous
 62
     7
100
AcDbLine
 10
-104.9249990256857
 20
-73.89999961853042
 30
0.0
 11
-99.57499902568571
 21
-73.89999961853042
 31
0.0
  0
LINE
  5
15E
330
55
100
AcDbEntity
  8
0
  6
Continuous
 62
     7
100
AcDbLine
 10
-82.27499902568574
 20
-73.89999961853042
 30
0.0
 11
-76.92499902568571
 21
-73.89999961853042
 31
0.0
  0
LINE
  5
15F
330
55
100
AcDbEntity
  8
0
  6
Continuous
 62
     7
100
AcDbLine
 10
-82.72499902568575
 20
-74.39999961853042
 30
0.0
 11
-83.77499902568574
 21
-74.39999961853042
 31
0.0
  0
LINE
  5
160
330
55
100
AcDbEntity
  8
0
  6
Continuous
 62
     7
100
AcDbLine
 10
-99.12499902568572
 20
-74.39999961853042
 30
0.0
 11
-99.12499902568572
 21
-73.09999961853039
 31
0.0
  0
LINE
  5
161
330
55
100
AcDbEntity
  8
0
  6
Continuous
 62
     7
100
AcDbLine
 10
-82.72499902568575
 20
-73.09999961853039
 30
0.0
 11
-99.12499902568572
 21
-73.09999961853039
 31
0.0
  0
LINE
  5
162
330
55
100
AcDbEntity
  8
0
  6
Continuous
 62
     7
100
AcDbLine
 10
-98.07499902568571
 20
-74.39999961853042
 30
0.0
 11
-99.12499902568572
 21
-74.39999961853042
 31
0.0
  0
LINE
  5
163
330
55
100
AcDbEntity
  8
0
  6
Continuous
 62
     7
100
AcDbLine
 10
-82.72499902568575
 20
-73.09999961853039
 30
0.0
 11
-82.72499902568575
 21
-74.39999961853042
 31
0.0
  0
LINE
  5
164
330
55
100
AcDbEntity
  8
0
  6
Continuous
 62
     7
100
AcDbLine
 10
-87.97499902568572
 20
-46.89999961853042
 30
0.0
 11
-86.97499902568572
 21
-46.89999961853042
 31
0.0
  0
LINE
  5
165
330
55
100
AcDbEntity
  8
0
  6
Continuous
 62
     7
100
AcDbLine
 10
-86.97499902568572
 20
-46.89999961853042
 30
0.0
 11
-86.97499902568572
 21
-48.89999961853042
 31
0.0
  0
LINE
  5
166
330
55
100
AcDbEntity
  8
0
  6
Continuous
 62
     7
100
AcDbLine
 10
-86.97499902568572
 20
-48.89999961853042
 30
0.0
 11
-82.47499902568575
 21
-48.89999961853042
 31
0.0
  0
LINE
  5
167
330
55
100
AcDbEntity
  8
0
  6
Continuous
 62
     7
100
AcDbLine
 10
-82.47499902568575
 20
-48.39999961853042
 30
0.0
 11
-81.67499902568572
 21
-48.39999961853042
 31
0.0
  0
LINE
  5
168
330
55
100
AcDbEntity
  8
0
  6
Continuous
 62
     7
100
AcDbLine
 10
-82.47499902568575
 20
-48.89999961853042
 30
0.0
 11
-82.47499902568575
 21
-48.39999961853042
 31
0.0
  0
LINE
  5
169
330
55
100
AcDbEntity
  8
0
  6
Continuous
 62
     7
100
AcDbLine
 10
-81.67499902568572
 20
-48.39999961853042
 30
0.0
 11
-81.67499902568572
 21
-48.89999961853042
 31
0.0
  0
LINE
  5
16A
330
55
100
AcDbEntity
  8
0
  6
Continuous
 62
     7
100
AcDbLine
 10
-83.77499902568574
 20
-74.39999961853042
 30
0.0
 11
-83.77499902568574
 21
-74.69999961853041
 31
0.0
  0
LINE
  5
16B
330
55
100
AcDbEntity
  8
0
  6
Continuous
 62
     7
100
AcDbLine
 10
-83.31065991833013
 20
-76.4329367591227
 30
0.0
 11
-83.77499902568574
 21
-74.69999961853041
 31
0.0
  0
LINE
  5
16C
330
55
100
AcDbEntity
  8
0
  6
Continuous
 62
     7
100
AcDbLine
 10
-82.27499902568574
 20
-73.89999961853042
 30
0.0
 11
-82.27499902568574
 21
-75.19999961853041
 31
0.0
  0
LINE
  5
16D
330
55
100
AcDbEntity
  8
0
  6
Continuous
 62
     7
100
AcDbLine
 10
-87.97499902568572
 20
-46.89999961853042
 30
0.0
 11
-87.97499902568572
 21
-52.39999961853042
 31
0.0
  0
LINE
  5
16E
330
55
100
AcDbEntity
  8
0
  6
Continuous
 62
     7
100
AcDbLine
 10
-98.07499902568571
 20
-74.6999996185304
 30
0.0
 11
-98.07499902568571
 21
-74.39999961853042
 31
0.0
  0
LINE
  5
16F
330
55
100
AcDbEntity
  8
0
  6
Continuous
 62
     7
100
AcDbLine
 10
-93.87499902568572
 20
-52.39999961853042
 30
0.0
 11
-87.97499902568572
 21
-52.39999961853042
 31
0.0
  0
LINE
  5
170
330
55
100
AcDbEntity
  8
0
  6
Continuous
 62
     7
100
AcDbLine
 10
-99.3749990256857
 20
-48.89999961853042
 30
0.0
 11
-94.87499902568572
 21
-48.89999961853042
 31
0.0
  0
LINE
  5
171
330
55
100
AcDbEntity
  8
0
  6
Continuous
 62
     7
100
AcDbLine
 10
-99.57499902568571
 20
-75.19999961853041
 30
0.0
 11
-99.57499902568571
 21
-73.89999961853042
 31
0.0
  0
LINE
  5
172
330
55
100
AcDbEntity
  8
0
  6
Continuous
 62
     7
100
AcDbLine
 10
-81.67499902568572
 20
-48.89999961853042
 30
0.0
 11
-76.92499902568571
 21
-48.89999961853042
 31
0.0
  0
LINE
  5
173
330
55
100
AcDbEntity
  8
0
  6
Continuous
 62
     7
100
AcDbLine
 10
-82.27499902568574
 20
-75.19999961853041
 30
0.0
 11
-81.52499902568574
 21
-75.19999961853041
 31
0.0
  0
LINE
  5
174
330
55
100
AcDbEntity
  8
0
  6
Continuous
 62
     7
100
AcDbLine
 10
-82.42499902568572
 20
-77.09999961853039
 30
0.0
 11
-82.44132667466998
 21
-77.09999961853039
 31
0.0
  0
LINE
  5
175
330
55
100
AcDbEntity
  8
0
  6
Continuous
 62
     7
100
AcDbLine
 10
-81.52499902568574
 20
-75.19999961853041
 30
0.0
 11
-81.52499902568574
 21
-76.19999961853041
 31
0.0
  0
LINE
  5
176
330
55
100
AcDbEntity
  8
0
  6
Continuous
 62
     7
100
AcDbLine
 10
-76.92499902568571
 20
-73.89999961853042
 30
0.0
 11
-76.92499902568571
 21
-48.89999961853042
 31
0.0
  0
LINE
  5
177
330
55
100
AcDbEntity
  8
0
  6
Continuous
 62
     7
100
AcDbLine
 10
-100.1749990256857
 20
-48.89999961853042
 30
0.0
 11
-100.1749990256857
 21
-48.39999961853042
 31
0.0
  0
LINE
  5
178
330
55
100
AcDbEntity
  8
0
  6
Continuous
 62
     7
100
AcDbLine
 10
-100.3249990256857
 20
-75.19999961853041
 30
0.0
 11
-99.57499902568571
 21
-75.19999961853041
 31
0.0
  0
LINE
  5
179
330
55
100
AcDbEntity
  8
0
  6
Continuous
 62
     7
100
AcDbLine
 10
-100.1749990256857
 20
-48.39999961853042
 30
0.0
 11
-99.3749990256857
 21
-48.39999961853042
 31
0.0
  0
LINE
  5
17A
330
55
100
AcDbEntity
  8
0
  6
Continuous
 62
     7
100
AcDbLine
 10
-99.4086713767015
 20
-77.09999961853043
 30
0.0
 11
-99.42499902568574
 21
-77.09999961853039
 31
0.0
  0
LINE
  5
17B
330
55
100
AcDbEntity
  8
0
  6
Continuous
 62
     7
100
AcDbLine
 10
-99.3749990256857
 20
-48.39999961853042
 30
0.0
 11
-99.3749990256857
 21
-48.89999961853042
 31
0.0
  0
LINE
  5
17C
330
55
100
AcDbEntity
  8
0
  6
Continuous
 62
     7
100
AcDbLine
 10
-94.87499902568572
 20
-48.89999961853042
 30
0.0
 11
-94.87499902568572
 21
-46.89999961853042
 31
0.0
  0
LINE
  5
17D
330
55
100
AcDbEntity
  8
0
  6
Continuous
 62
     7
100
AcDbLine
 10
-94.87499902568572
 20
-46.89999961853042
 30
0.0
 11
-93.87499902568572
 21
-46.89999961853042
 31
0.0
  0
LINE
  5
17E
330
55
100
AcDbEntity
  8
0
  6
Continuous
 62
     7
100
AcDbLine
 10
-98.07499902568571
 20
-74.6999996185304
 30
0.0
 11
-98.5393381330413
 21
-76.43293675912267
 31
0.0
  0
LINE
  5
17F
330
55
100
AcDbEntity
  8
0
  6
Continuous
 62
     7
100
AcDbLine
 10
-93.87499902568572
 20
-52.39999961853042
 30
0.0
 11
-93.87499902568572
 21
-46.89999961853042
 31
0.0
  0
ARC
  5
180
330
55
100
AcDbEntity
  8
0
  6
Continuous
 62
     7
100
AcDbCircle
 10
-82.44132667466998
 20
-76.19999961853041
 30
0.0
 40
0.8999999999999938
100
AcDbArc
 50
195.0000000000011
 51
270.0
  0
ARC
  5
181
330
55
100
AcDbEntity
  8
0
  6
Continuous
 62
     7
100
AcDbCircle
 10
-82.42499902568572
 20
-76.19999961853041
 30
0.0
 40
0.8999999999999773
100
AcDbArc
 50
270.0
 51
0.0
  0
ARC
  5
182
330
55
100
AcDbEntity
  8
0
  6
Continuous
 62
     7
100
AcDbCircle
 10
-99.4086713767015
 20
-76.19999961853041
 30
0.0
 40
0.9000000000000199
100
AcDbArc
 50
270.0
 51
345.0000000000015
  0
ARC
  5
183
330
55
100
AcDbEntity
  8
0
  6
Continuous
 62
     7
100
AcDbCircle
 10
-99.42499902568574
 20
-76.19999961853041
 30
0.0
 40
0.899999999999963
100
AcDbArc
 50
180.0
 51
270.0
  0
ENDBLK
  5
57
330
55
100
AcDbEntity
  8
0
100
AcDbBlockEnd
  0
BLOCK
  5
5A
330
58
100
AcDbEntity
  8
0
100
AcDbBlockBegin
  2
Rckans1
 70
     0
 10
-90.92499795231612
 20
-62.00000000000009
 30
0.0
  3
Rckans1
  1

  0
INSERT
  5
59
330
58
100
AcDbEntity
  8
0
100
AcDbBlockReference
  2
MBK-3_BU_select__3
 10
-104.9249990256857
 20
-77.09999961853043
 30
0.0
  0
MTEXT
  5
184
330
58
100
AcDbEntity
  8
1
 62
     6
100
AcDbMText
 10
-90.92499795231618
 20
-79.60000038146973
 30
0.0
 40
2.5
 41
0.0
 71
     2
 72
     1
  1
 
  7
CONVERTER_11
 73
     1
 44
1.32052821128451
  0
ENDBLK
  5
5B
330
58
100
AcDbEntity
  8
0
100
AcDbBlockEnd
  0
BLOCK
  5
5D
330
5C
100
AcDbEntity
  8
0
100
AcDbBlockBegin
  2
MBK-3_BU_select__4
 70
     0
 10
-120.0749999523063
 20
-77.09999961853035
 30
0.0
  3
MBK-3_BU_select__4
  1

  0
LINE
  5
185
330
5C
100
AcDbEntity
  8
0
  6
Continuous
 62
     7
100
AcDbLine
 10
-114.9249999523063
 20
-46.89999961853036
 30
0.0
 11
-120.0749999523063
 21
-46.89999961853036
 31
0.0
  0
LINE
  5
186
330
5C
100
AcDbEntity
  8
0
  6
Continuous
 62
     7
100
AcDbLine
 10
-114.9249999523063
 20
-48.39999961853037
 30
0.0
 11
-120.0749999523063
 21
-48.39999961853037
 31
0.0
  0
LINE
  5
187
330
5C
100
AcDbEntity
  8
0
  6
Continuous
 62
     7
100
AcDbLine
 10
-120.0749999523063
 20
-48.39999961853037
 30
0.0
 11
-120.0749999523063
 21
-48.89999961853036
 31
0.0
  0
LINE
  5
188
330
5C
100
AcDbEntity
  8
0
  6
Continuous
 62
     7
100
AcDbLine
 10
-120.0749999523063
 20
-46.89999961853036
 30
0.0
 11
-120.0749999523063
 21
-48.39999961853037
 31
0.0
  0
LINE
  5
189
330
5C
100
AcDbEntity
  8
0
  6
Continuous
 62
     7
100
AcDbLine
 10
-120.0749999523063
 20
-48.89999961853036
 30
0.0
 11
-114.9249999523063
 21
-48.89999961853036
 31
0.0
  0
LINE
  5
18A
330
5C
100
AcDbEntity
  8
0
  6
Continuous
 62
     7
100
AcDbLine
 10
-120.0749999523063
 20
-73.89999961853036
 30
0.0
 11
-120.0749999523063
 21
-48.89999961853036
 31
0.0
  0
LINE
  5
18B
330
5C
100
AcDbEntity
  8
0
  6
Continuous
 62
     7
100
AcDbLine
 10
-120.0749999523063
 20
-73.89999961853036
 30
0.0
 11
-120.0749999523063
 21
-75.19999961853037
 31
0.0
  0
LINE
  5
18C
330
5C
100
AcDbEntity
  8
0
  6
Continuous
 62
     7
100
AcDbLine
 10
-114.9249999523063
 20
-75.19999961853037
 30
0.0
 11
-120.0749999523063
 21
-75.19999961853037
 31
0.0
  0
LINE
  5
18D
330
5C
100
AcDbEntity
  8
0
  6
Continuous
 62
     7
100
AcDbLine
 10
-120.0749999523063
 20
-75.19999961853037
 30
0.0
 11
-120.0749999523063
 21
-76.19999961853037
 31
0.0
  0
LINE
  5
18E
330
5C
100
AcDbEntity
  8
0
  6
Continuous
 62
     7
100
AcDbLine
 10
-114.9249999523063
 20
-76.19999961853037
 30
0.0
 11
-114.9249999523063
 21
-75.19999961853037
 31
0.0
  0
LINE
  5
18F
330
5C
100
AcDbEntity
  8
0
  6
Continuous
 62
     2
100
AcDbLine
 10
-114.9249999523063
 20
-76.19999961853037
 30
0.0
 11
-120.0749999523063
 21
-76.19999961853037
 31
0.0
  0
LINE
  5
190
330
5C
100
AcDbEntity
  8
0
  6
Continuous
 62
     7
100
AcDbLine
 10
-119.5749999523063
 20
-58.91648423224408
 30
0.0
 11
-115.4249999523063
 21
-58.91648423224408
 31
0.0
  0
LINE
  5
191
330
5C
100
AcDbEntity
  8
0
  6
Continuous
 62
     7
100
AcDbLine
 10
-114.9249999523063
 20
-73.89999961853036
 30
0.0
 11
-114.9249999523063
 21
-48.89999961853036
 31
0.0
  0
LINE
  5
192
330
5C
100
AcDbEntity
  8
0
  6
Continuous
 62
     7
100
AcDbLine
 10
-115.4249999523063
 20
-69.67781721110951
 30
0.0
 11
-119.5749999523063
 21
-69.67781721110951
 31
0.0
  0
LINE
  5
193
330
5C
100
AcDbEntity
  8
0
  6
Continuous
 62
     7
100
AcDbLine
 10
-115.7749999523063
 20
-67.99999961853035
 30
0.0
 11
-118.4749999523063
 21
-67.99999961853035
 31
0.0
  0
LINE
  5
194
330
5C
100
AcDbEntity
  8
0
  6
Continuous
 62
     7
100
AcDbLine
 10
-119.5749999523063
 20
-68.86396498280007
 30
0.0
 11
-118.4749999523063
 21
-67.99999961853035
 31
0.0
  0
LINE
  5
195
330
5C
100
AcDbEntity
  8
0
  6
Continuous
 62
     7
100
AcDbLine
 10
-115.4249999523063
 20
-69.67781721110951
 30
0.0
 11
-115.4249999523063
 21
-68.51253455517876
 31
0.0
  0
LINE
  5
196
330
5C
100
AcDbEntity
  8
0
  6
Continuous
 62
     7
100
AcDbLine
 10
-115.4249999523063
 20
-68.51253455517876
 30
0.0
 11
-115.4249999523063
 21
-62.39408810435328
 31
0.0
  0
LINE
  5
197
330
5C
100
AcDbEntity
  8
0
  6
Continuous
 62
     7
100
AcDbLine
 10
-115.4249999523063
 20
-62.39408810435328
 30
0.0
 11
-115.4249999523063
 21
-58.91648423224408
 31
0.0
  0
LINE
  5
198
330
5C
100
AcDbEntity
  8
0
  6
Continuous
 62
     7
100
AcDbLine
 10
-114.9249999523063
 20
-48.39999961853037
 30
0.0
 11
-114.9249999523063
 21
-48.89999961853036
 31
0.0
  0
LINE
  5
199
330
5C
100
AcDbEntity
  8
0
  6
Continuous
 62
     7
100
AcDbLine
 10
-114.9249999523063
 20
-48.39999961853037
 30
0.0
 11
-114.9249999523063
 21
-46.89999961853036
 31
0.0
  0
LINE
  5
19A
330
5C
100
AcDbEntity
  8
0
  6
Continuous
 62
     7
100
AcDbLine
 10
-115.4249999523063
 20
-62.39408810435328
 30
0.0
 11
-115.7749999523063
 21
-63.92366847801483
 31
0.0
  0
LINE
  5
19B
330
5C
100
AcDbEntity
  8
0
  6
Continuous
 62
     7
100
AcDbLine
 10
-115.7749999523063
 20
-67.99999961853035
 30
0.0
 11
-115.4249999523063
 21
-68.51253455517876
 31
0.0
  0
LINE
  5
19C
330
5C
100
AcDbEntity
  8
0
  6
Continuous
 62
     7
100
AcDbLine
 10
-120.0749999523063
 20
-76.19999961853037
 30
0.0
 11
-120.0749999523063
 21
-77.09999961853035
 31
0.0
  0
LINE
  5
19D
330
5C
100
AcDbEntity
  8
0
  6
Continuous
 62
     7
100
AcDbLine
 10
-114.9249999523063
 20
-76.19999961853037
 30
0.0
 11
-114.9249999523063
 21
-77.09999961853035
 31
0.0
  0
LINE
  5
19E
330
5C
100
AcDbEntity
  8
0
  6
Continuous
 62
     7
100
AcDbLine
 10
-120.0749999523063
 20
-77.09999961853035
 30
0.0
 11
-114.9249999523063
 21
-77.09999961853035
 31
0.0
  0
LINE
  5
19F
330
5C
100
AcDbEntity
  8
0
  6
Continuous
 62
     7
100
AcDbLine
 10
-120.0749999523063
 20
-73.89999961853036
 30
0.0
 11
-114.9249999523063
 21
-73.89999961853036
 31
0.0
  0
LINE
  5
1A0
330
5C
100
AcDbEntity
  8
0
  6
Continuous
 62
     7
100
AcDbLine
 10
-114.9249999523063
 20
-75.19999961853037
 30
0.0
 11
-114.9249999523063
 21
-73.89999961853036
 31
0.0
  0
LINE
  5
1A1
330
5C
100
AcDbEntity
  8
0
  6
Continuous
 62
     7
100
AcDbLine
 10
-115.7749999523063
 20
-67.99999961853035
 30
0.0
 11
-115.7749999523063
 21
-63.92366847801483
 31
0.0
  0
LINE
  5
1A2
330
5C
100
AcDbEntity
  8
0
  6
Continuous
 62
     7
100
AcDbLine
 10
-115.7749999523063
 20
-63.92366847801483
 30
0.0
 11
-118.4749999523063
 21
-63.92366847801495
 31
0.0
  0
LINE
  5
1A3
330
5C
100
AcDbEntity
  8
0
  6
Continuous
 62
     7
100
AcDbLine
 10
-119.5749999523063
 20
-69.67781721110951
 30
0.0
 11
-119.5749999523063
 21
-68.86396498280007
 31
0.0
  0
LINE
  5
1A4
330
5C
100
AcDbEntity
  8
0
  6
Continuous
 62
     7
100
AcDbLine
 10
-119.5749999523063
 20
-61.34529894607248
 30
0.0
 11
-119.5749999523063
 21
-58.91648423224408
 31
0.0
  0
LINE
  5
1A5
330
5C
100
AcDbEntity
  8
0
  6
Continuous
 62
     7
100
AcDbLine
 10
-119.5749999523063
 20
-68.86396498280007
 30
0.0
 11
-119.5749999523063
 21
-61.34529894607248
 31
0.0
  0
LINE
  5
1A6
330
5C
100
AcDbEntity
  8
0
  6
Continuous
 62
     7
100
AcDbLine
 10
-118.4749999523063
 20
-67.99999961853035
 30
0.0
 11
-118.4749999523063
 21
-63.92366847801495
 31
0.0
  0
LINE
  5
1A7
330
5C
100
AcDbEntity
  8
0
  6
Continuous
 62
     7
100
AcDbLine
 10
-119.5749999523063
 20
-61.34529894607248
 30
0.0
 11
-118.4749999523063
 21
-63.92366847801495
 31
0.0
  0
ENDBLK
  5
5E
330
5C
100
AcDbEntity
  8
0
100
AcDbBlockEnd
  0
BLOCK
  5
61
330
5F
100
AcDbEntity
  8
0
100
AcDbBlockBegin
  2
SA_Links1
 70
     0
 10
-117.499999999995
 20
-62.00000000000004
 30
0.0
  3
SA_Links1
  1

  0
INSERT
  5
60
330
5F
100
AcDbEntity
  8
0
100
AcDbBlockReference
  2
MBK-3_BU_select__4
 10
-120.0749999523063
 20
-77.09999961853035
 30
0.0
  0
MTEXT
  5
1A8
330
5F
100
AcDbEntity
  8
1
 62
     6
100
AcDbMText
 10
-117.499999999995
 20
-79.60000038146973
 30
0.0
 40
2.5
 41
0.0
 71
     2
 72
     1
  1
 
  7
CONVERTER_11
 73
     1
 44
1.32052821128451
  0
ENDBLK
  5
62
330
5F
100
AcDbEntity
  8
0
100
AcDbBlockEnd
  0
BLOCK
  5
64
330
63
100
AcDbEntity
  8
0
100
AcDbBlockBegin
  2
MBK-3_BU_select__5
 70
     0
 10
-189.2250032164313
 20
-77.0999996185303
 30
0.0
  3
MBK-3_BU_select__5
  1

  0
LINE
  5
1A9
330
63
100
AcDbEntity
  8
0
  6
Continuous
 62
     7
100
AcDbLine
 10
-184.0750032164313
 20
-48.89999961853032
 30
0.0
 11
-184.0750032164313
 21
-73.89999961853032
 31
0.0
  0
LINE
  5
1AA
330
63
100
AcDbEntity
  8
0
  6
Continuous
 62
     7
100
AcDbLine
 10
-184.5750032164313
 20
-69.67781721111066
 30
0.0
 11
-188.7250032164314
 21
-69.6778172111108
 31
0.0
  0
LINE
  5
1AB
330
63
100
AcDbEntity
  8
0
  6
Continuous
 62
     7
100
AcDbLine
 10
-189.2250032164313
 20
-75.19999961853031
 30
0.0
 11
-184.0750032164313
 21
-75.19999961853031
 31
0.0
  0
LINE
  5
1AC
330
63
100
AcDbEntity
  8
0
  6
Continuous
 62
     7
100
AcDbLine
 10
-184.0750032164313
 20
-73.89999961853032
 30
0.0
 11
-189.2250032164313
 21
-73.89999961853032
 31
0.0
  0
LINE
  5
1AD
330
63
100
AcDbEntity
  8
0
  6
Continuous
 62
     7
100
AcDbLine
 10
-188.3750032164313
 20
-67.99999961853031
 30
0.0
 11
-185.6750032164313
 21
-67.9999996185312
 31
0.0
  0
LINE
  5
1AE
330
63
100
AcDbEntity
  8
0
  6
Continuous
 62
     2
100
AcDbLine
 10
-189.2250032164313
 20
-76.19999961853031
 30
0.0
 11
-184.0750032164313
 21
-76.19999961853031
 31
0.0
  0
LINE
  5
1AF
330
63
100
AcDbEntity
  8
0
  6
Continuous
 62
     7
100
AcDbLine
 10
-185.6750032164313
 20
-67.9999996185312
 30
0.0
 11
-185.6750032164313
 21
-63.92366847801575
 31
0.0
  0
LINE
  5
1B0
330
63
100
AcDbEntity
  8
0
  6
Continuous
 62
     7
100
AcDbLine
 10
-184.5750032164313
 20
-68.86396498280108
 30
0.0
 11
-184.5750032164313
 21
-69.67781721111066
 31
0.0
  0
LINE
  5
1B1
330
63
100
AcDbEntity
  8
0
  6
Continuous
 62
     7
100
AcDbLine
 10
-184.5750032164313
 20
-58.91648423224614
 30
0.0
 11
-184.5750032164313
 21
-61.34529894607348
 31
0.0
  0
LINE
  5
1B2
330
63
100
AcDbEntity
  8
0
  6
Continuous
 62
     7
100
AcDbLine
 10
-184.0750032164313
 20
-73.89999961853032
 30
0.0
 11
-184.0750032164313
 21
-75.19999961853031
 31
0.0
  0
LINE
  5
1B3
330
63
100
AcDbEntity
  8
0
  6
Continuous
 62
     7
100
AcDbLine
 10
-184.0750032164313
 20
-77.0999996185303
 30
0.0
 11
-184.0750032164313
 21
-76.19999961853031
 31
0.0
  0
LINE
  5
1B4
330
63
100
AcDbEntity
  8
0
  6
Continuous
 62
     7
100
AcDbLine
 10
-184.0750032164313
 20
-76.19999961853031
 30
0.0
 11
-184.0750032164313
 21
-75.19999961853031
 31
0.0
  0
LINE
  5
1B5
330
63
100
AcDbEntity
  8
0
  6
Continuous
 62
     7
100
AcDbLine
 10
-184.5750032164313
 20
-61.34529894607348
 30
0.0
 11
-184.5750032164313
 21
-68.86396498280108
 31
0.0
  0
LINE
  5
1B6
330
63
100
AcDbEntity
  8
0
  6
Continuous
 62
     7
100
AcDbLine
 10
-184.5750032164313
 20
-68.86396498280108
 30
0.0
 11
-185.6750032164313
 21
-67.9999996185312
 31
0.0
  0
LINE
  5
1B7
330
63
100
AcDbEntity
  8
0
  6
Continuous
 62
     7
100
AcDbLine
 10
-184.0750032164313
 20
-77.0999996185303
 30
0.0
 11
-189.2250032164313
 21
-77.0999996185303
 31
0.0
  0
LINE
  5
1B8
330
63
100
AcDbEntity
  8
0
  6
Continuous
 62
     7
100
AcDbLine
 10
-184.0750032164313
 20
-48.89999961853032
 30
0.0
 11
-184.0750032164313
 21
-48.39999961853033
 31
0.0
  0
LINE
  5
1B9
330
63
100
AcDbEntity
  8
0
  6
Continuous
 62
     7
100
AcDbLine
 10
-184.0750032164313
 20
-48.39999961853033
 30
0.0
 11
-184.0750032164313
 21
-46.89999961853032
 31
0.0
  0
LINE
  5
1BA
330
63
100
AcDbEntity
  8
0
  6
Continuous
 62
     7
100
AcDbLine
 10
-189.2250032164313
 20
-48.89999961853032
 30
0.0
 11
-189.2250032164313
 21
-48.39999961853033
 31
0.0
  0
LINE
  5
1BB
330
63
100
AcDbEntity
  8
0
  6
Continuous
 62
     7
100
AcDbLine
 10
-189.2250032164313
 20
-46.89999961853032
 30
0.0
 11
-189.2250032164313
 21
-48.39999961853033
 31
0.0
  0
LINE
  5
1BC
330
63
100
AcDbEntity
  8
0
  6
Continuous
 62
     7
100
AcDbLine
 10
-189.2250032164313
 20
-48.89999961853032
 30
0.0
 11
-189.2250032164313
 21
-73.89999961853032
 31
0.0
  0
LINE
  5
1BD
330
63
100
AcDbEntity
  8
0
  6
Continuous
 62
     7
100
AcDbLine
 10
-184.5750032164313
 20
-58.91648423224614
 30
0.0
 11
-188.7250032164314
 21
-58.91648423224532
 31
0.0
  0
LINE
  5
1BE
330
63
100
AcDbEntity
  8
0
  6
Continuous
 62
     7
100
AcDbLine
 10
-188.4250032164313
 20
-63.92366847801494
 30
0.0
 11
-188.4250032164313
 21
-63.70515699606404
 31
0.0
  0
LINE
  5
1BF
330
63
100
AcDbEntity
  8
0
  6
Continuous
 62
     7
100
AcDbLine
 10
-188.4250032164313
 20
-63.92366847801494
 30
0.0
 11
-188.3750032164313
 21
-63.92366847801494
 31
0.0
  0
LINE
  5
1C0
330
63
100
AcDbEntity
  8
0
  6
Continuous
 62
     7
100
AcDbLine
 10
-188.3750032164313
 20
-63.92366847801494
 30
0.0
 11
-185.6750032164313
 21
-63.92366847801575
 31
0.0
  0
LINE
  5
1C1
330
63
100
AcDbEntity
  8
0
  6
Continuous
 62
     7
100
AcDbLine
 10
-188.7250032164314
 20
-62.39408810435423
 30
0.0
 11
-188.4250032164313
 21
-63.70515699606404
 31
0.0
  0
LINE
  5
1C2
330
63
100
AcDbEntity
  8
0
  6
Continuous
 62
     7
100
AcDbLine
 10
-189.2250032164313
 20
-46.89999961853032
 30
0.0
 11
-184.0750032164313
 21
-46.89999961853032
 31
0.0
  0
LINE
  5
1C3
330
63
100
AcDbEntity
  8
0
  6
Continuous
 62
     7
100
AcDbLine
 10
-189.2250032164313
 20
-48.39999961853033
 30
0.0
 11
-184.0750032164313
 21
-48.39999961853033
 31
0.0
  0
LINE
  5
1C4
330
63
100
AcDbEntity
  8
0
  6
Continuous
 62
     7
100
AcDbLine
 10
-184.0750032164313
 20
-48.89999961853032
 30
0.0
 11
-189.2250032164313
 21
-48.89999961853032
 31
0.0
  0
LINE
  5
1C5
330
63
100
AcDbEntity
  8
0
  6
Continuous
 62
     7
100
AcDbLine
 10
-188.4250032164313
 20
-67.9999996185303
 30
0.0
 11
-188.3750032164313
 21
-67.99999961853031
 31
0.0
  0
LINE
  5
1C6
330
63
100
AcDbEntity
  8
0
  6
Continuous
 62
     7
100
AcDbLine
 10
-188.4250032164313
 20
-68.072847416285
 30
0.0
 11
-188.4250032164313
 21
-67.9999996185303
 31
0.0
  0
LINE
  5
1C7
330
63
100
AcDbEntity
  8
0
  6
Continuous
 62
     7
100
AcDbLine
 10
-188.4250032164313
 20
-67.9999996185303
 30
0.0
 11
-188.4250032164313
 21
-63.92366847801494
 31
0.0
  0
LINE
  5
1C8
330
63
100
AcDbEntity
  8
0
  6
Continuous
 62
     7
100
AcDbLine
 10
-188.3750032164313
 20
-67.99999961853031
 30
0.0
 11
-188.4250032164313
 21
-68.072847416285
 31
0.0
  0
LINE
  5
1C9
330
63
100
AcDbEntity
  8
0
  6
Continuous
 62
     7
100
AcDbLine
 10
-188.7250032164314
 20
-69.6778172111108
 30
0.0
 11
-188.7250032164314
 21
-68.51253455517971
 31
0.0
  0
LINE
  5
1CA
330
63
100
AcDbEntity
  8
0
  6
Continuous
 62
     7
100
AcDbLine
 10
-188.7250032164314
 20
-62.39408810435423
 30
0.0
 11
-188.7250032164314
 21
-58.91648423224532
 31
0.0
  0
LINE
  5
1CB
330
63
100
AcDbEntity
  8
0
  6
Continuous
 62
     7
100
AcDbLine
 10
-188.7250032164314
 20
-68.51253455517971
 30
0.0
 11
-188.7250032164314
 21
-62.39408810435423
 31
0.0
  0
LINE
  5
1CC
330
63
100
AcDbEntity
  8
0
  6
Continuous
 62
     7
100
AcDbLine
 10
-189.2250032164313
 20
-73.89999961853032
 30
0.0
 11
-189.2250032164313
 21
-75.19999961853031
 31
0.0
  0
LINE
  5
1CD
330
63
100
AcDbEntity
  8
0
  6
Continuous
 62
     7
100
AcDbLine
 10
-189.2250032164313
 20
-76.19999961853031
 30
0.0
 11
-189.2250032164313
 21
-77.0999996185303
 31
0.0
  0
LINE
  5
1CE
330
63
100
AcDbEntity
  8
0
  6
Continuous
 62
     7
100
AcDbLine
 10
-189.2250032164313
 20
-75.19999961853031
 30
0.0
 11
-189.2250032164313
 21
-76.19999961853031
 31
0.0
  0
LINE
  5
1CF
330
63
100
AcDbEntity
  8
0
  6
Continuous
 62
     7
100
AcDbLine
 10
-188.3750032164313
 20
-67.99999961853031
 30
0.0
 11
-188.7250032164314
 21
-68.51253455517971
 31
0.0
  0
LINE
  5
1D0
330
63
100
AcDbEntity
  8
0
  6
Continuous
 62
     7
100
AcDbLine
 10
-188.3750032164313
 20
-63.92366847801494
 30
0.0
 11
-188.3750032164313
 21
-67.99999961853031
 31
0.0
  0
LINE
  5
1D1
330
63
100
AcDbEntity
  8
0
  6
Continuous
 62
     7
100
AcDbLine
 10
-185.6750032164313
 20
-63.92366847801575
 30
0.0
 11
-184.5750032164313
 21
-61.34529894607348
 31
0.0
  0
ENDBLK
  5
65
330
63
100
AcDbEntity
  8
0
100
AcDbBlockEnd
  0
BLOCK
  5
68
330
66
100
AcDbEntity
  8
0
100
AcDbBlockBegin
  2
SA_Rechts1
 70
     0
 10
-186.6500031687426
 20
-62.0
 30
0.0
  3
SA_Rechts1
  1

  0
INSERT
  5
67
330
66
100
AcDbEntity
  8
0
100
AcDbBlockReference
  2
MBK-3_BU_select__5
 10
-189.2250032164313
 20
-77.0999996185303
 30
0.0
  0
MTEXT
  5
1D2
330
66
100
AcDbEntity
  8
1
 62
     6
100
AcDbMText
 10
-186.6500031687426
 20
-79.60000038146973
 30
0.0
 40
2.5
 41
0.0
 71
     2
 72
     1
  1
 
  7
CONVERTER_11
 73
     1
 44
1.32052821128451
  0
ENDBLK
  5
69
330
66
100
AcDbEntity
  8
0
100
AcDbBlockEnd
  0
BLOCK
  5
6B
330
6A
100
AcDbEntity
  8
0
100
AcDbBlockBegin
  2
MBK-3_BU_select__6
 70
     0
 10
-158.0750009743142
 20
-77.09999961853035
 30
0.0
  3
MBK-3_BU_select__6
  1

  0
LINE
  5
1D3
330
6A
100
AcDbEntity
  8
0
  6
Continuous
 62
     2
100
AcDbLine
 10
-144.2250009743143
 20
-54.29999961853036
 30
0.0
 11
-145.0250009743142
 21
-52.39999961853032
 31
0.0
  0
LINE
  5
1D4
330
6A
100
AcDbEntity
  8
0
  6
Continuous
 62
     7
100
AcDbLine
 10
-145.0250009743142
 20
-52.39999961853032
 30
0.0
 11
-147.0250009743142
 21
-52.39999961853032
 31
0.0
  0
LINE
  5
1D5
330
6A
100
AcDbEntity
  8
0
  6
Continuous
 62
     7
100
AcDbLine
 10
-143.1250009743142
 20
-52.39999961853032
 30
0.0
 11
-141.1250009743142
 21
-52.39999961853032
 31
0.0
  0
LINE
  5
1D6
330
6A
100
AcDbEntity
  8
0
  6
Continuous
 62
     7
100
AcDbLine
 10
-145.0250009743142
 20
-52.39999961853032
 30
0.0
 11
-143.1250009743142
 21
-52.39999961853032
 31
0.0
  0
LINE
  5
1D7
330
6A
100
AcDbEntity
  8
0
  6
Continuous
 62
     7
100
AcDbLine
 10
-141.1250009743142
 20
-46.89999961853032
 30
0.0
 11
-140.1250009743142
 21
-46.89999961853032
 31
0.0
  0
LINE
  5
1D8
330
6A
100
AcDbEntity
  8
0
  6
Continuous
 62
     7
100
AcDbLine
 10
-140.1250009743142
 20
-46.89999961853032
 30
0.0
 11
-140.1250009743142
 21
-48.89999961853032
 31
0.0
  0
LINE
  5
1D9
330
6A
100
AcDbEntity
  8
0
  6
Continuous
 62
     7
100
AcDbLine
 10
-147.0250009743142
 20
-46.89999961853032
 30
0.0
 11
-147.0250009743142
 21
-52.39999961853032
 31
0.0
  0
LINE
  5
1DA
330
6A
100
AcDbEntity
  8
0
  6
Continuous
 62
     2
100
AcDbLine
 10
-143.9250009743142
 20
-54.29999961853032
 30
0.0
 11
-143.1250009743142
 21
-52.39999961853032
 31
0.0
  0
LINE
  5
1DB
330
6A
100
AcDbEntity
  8
0
  6
Continuous
 62
     7
100
AcDbLine
 10
-140.1250009743142
 20
-48.89999961853032
 30
0.0
 11
-135.6250009743142
 21
-48.89999961853032
 31
0.0
  0
LINE
  5
1DC
330
6A
100
AcDbEntity
  8
0
  6
Continuous
 62
     7
100
AcDbLine
 10
-152.5250009743142
 20
-48.89999961853032
 30
0.0
 11
-148.0250009743142
 21
-48.89999961853032
 31
0.0
  0
LINE
  5
1DD
330
6A
100
AcDbEntity
  8
0
  6
Continuous
 62
     7
100
AcDbLine
 10
-135.6250009743142
 20
-48.39999961853033
 30
0.0
 11
-135.6250009743142
 21
-48.89999961853032
 31
0.0
  0
LINE
  5
1DE
330
6A
100
AcDbEntity
  8
0
  6
Continuous
 62
     7
100
AcDbLine
 10
-152.5250009743142
 20
-48.39999961853033
 30
0.0
 11
-152.5250009743142
 21
-48.89999961853032
 31
0.0
  0
LINE
  5
1DF
330
6A
100
AcDbEntity
  8
0
  6
Continuous
 62
     7
100
AcDbLine
 10
-152.2750009743142
 20
-73.0999996185303
 30
0.0
 11
-152.2750009743142
 21
-74.39999961853032
 31
0.0
  0
LINE
  5
1E0
330
6A
100
AcDbEntity
  8
0
  6
Continuous
 62
     7
100
AcDbLine
 10
-152.2750009743142
 20
-74.39999961853032
 30
0.0
 11
-151.2250009743142
 21
-74.39999961853032
 31
0.0
  0
LINE
  5
1E1
330
6A
100
AcDbEntity
  8
0
  6
Continuous
 62
     7
100
AcDbLine
 10
-151.2250009743142
 20
-74.39999961853032
 30
0.0
 11
-151.2250009743142
 21
-74.69999961853031
 31
0.0
  0
LINE
  5
1E2
330
6A
100
AcDbEntity
  8
0
  6
Continuous
 62
     7
100
AcDbLine
 10
-148.0250009743142
 20
-46.89999961853032
 30
0.0
 11
-147.0250009743142
 21
-46.89999961853032
 31
0.0
  0
LINE
  5
1E3
330
6A
100
AcDbEntity
  8
0
  6
Continuous
 62
     7
100
AcDbLine
 10
-148.0250009743142
 20
-48.89999961853032
 30
0.0
 11
-148.0250009743142
 21
-46.89999961853032
 31
0.0
  0
LINE
  5
1E4
330
6A
100
AcDbEntity
  8
0
  6
Continuous
 62
     7
100
AcDbLine
 10
-151.2250009743142
 20
-74.69999961853031
 30
0.0
 11
-151.6893400816698
 21
-76.4329367591226
 31
0.0
  0
LINE
  5
1E5
330
6A
100
AcDbEntity
  8
0
  6
Continuous
 62
     7
100
AcDbLine
 10
-135.4250009743142
 20
-75.19999961853031
 30
0.0
 11
-134.6750009743142
 21
-75.19999961853031
 31
0.0
  0
LINE
  5
1E6
330
6A
100
AcDbEntity
  8
0
  6
Continuous
 62
     7
100
AcDbLine
 10
-134.6750009743142
 20
-75.19999961853031
 30
0.0
 11
-134.6750009743142
 21
-76.19999961853031
 31
0.0
  0
LINE
  5
1E7
330
6A
100
AcDbEntity
  8
0
  6
Continuous
 62
     7
100
AcDbLine
 10
-135.5750009743142
 20
-77.0999996185303
 30
0.0
 11
-135.5913286232984
 21
-77.09999961853035
 31
0.0
  0
LINE
  5
1E8
330
6A
100
AcDbEntity
  8
0
  6
Continuous
 62
     7
100
AcDbLine
 10
-135.6250009743142
 20
-48.39999961853033
 30
0.0
 11
-134.8250009743142
 21
-48.39999961853033
 31
0.0
  0
LINE
  5
1E9
330
6A
100
AcDbEntity
  8
0
  6
Continuous
 62
     7
100
AcDbLine
 10
-130.0750009743142
 20
-73.89999961853032
 30
0.0
 11
-135.4250009743142
 21
-73.89999961853032
 31
0.0
  0
LINE
  5
1EA
330
6A
100
AcDbEntity
  8
0
  6
Continuous
 62
     7
100
AcDbLine
 10
-130.0750009743142
 20
-48.89999961853032
 30
0.0
 11
-130.0750009743142
 21
-73.89999961853032
 31
0.0
  0
LINE
  5
1EB
330
6A
100
AcDbEntity
  8
0
  6
Continuous
 62
     7
100
AcDbLine
 10
-152.55867332533
 20
-77.0999996185303
 30
0.0
 11
-152.5750009743142
 21
-77.0999996185303
 31
0.0
  0
LINE
  5
1EC
330
6A
100
AcDbEntity
  8
0
  6
Continuous
 62
     7
100
AcDbLine
 10
-153.4750009743142
 20
-76.19999961853031
 30
0.0
 11
-153.4750009743142
 21
-75.19999961853031
 31
0.0
  0
LINE
  5
1ED
330
6A
100
AcDbEntity
  8
0
  6
Continuous
 62
     7
100
AcDbLine
 10
-153.4750009743142
 20
-75.19999961853031
 30
0.0
 11
-152.7250009743142
 21
-75.19999961853031
 31
0.0
  0
LINE
  5
1EE
330
6A
100
AcDbEntity
  8
0
  6
Continuous
 62
     7
100
AcDbLine
 10
-152.7250009743142
 20
-73.89999961853032
 30
0.0
 11
-158.0750009743142
 21
-73.89999961853032
 31
0.0
  0
LINE
  5
1EF
330
6A
100
AcDbEntity
  8
0
  6
Continuous
 62
     7
100
AcDbLine
 10
-153.3250009743142
 20
-48.39999961853033
 30
0.0
 11
-152.5250009743142
 21
-48.39999961853033
 31
0.0
  0
LINE
  5
1F0
330
6A
100
AcDbEntity
  8
0
  6
Continuous
 62
     7
100
AcDbLine
 10
-153.3250009743142
 20
-48.89999961853032
 30
0.0
 11
-153.3250009743142
 21
-48.39999961853033
 31
0.0
  0
LINE
  5
1F1
330
6A
100
AcDbEntity
  8
0
  6
Continuous
 62
     7
100
AcDbLine
 10
-158.0750009743142
 20
-48.89999961853032
 30
0.0
 11
-158.0750009743142
 21
-73.89999961853032
 31
0.0
  0
LINE
  5
1F2
330
6A
100
AcDbEntity
  8
0
  6
Continuous
 62
     7
100
AcDbLine
 10
-152.7250009743142
 20
-75.19999961853031
 30
0.0
 11
-152.7250009743142
 21
-73.89999961853032
 31
0.0
  0
LINE
  5
1F3
330
6A
100
AcDbEntity
  8
0
  6
Continuous
 62
     7
100
AcDbLine
 10
-141.1250009743142
 20
-52.39999961853032
 30
0.0
 11
-141.1250009743142
 21
-46.89999961853032
 31
0.0
  0
LINE
  5
1F4
330
6A
100
AcDbEntity
  8
0
  6
Continuous
 62
     7
100
AcDbLine
 10
-141.9250009743142
 20
-54.29999961853032
 30
0.0
 11
-141.1250009743142
 21
-52.39999961853032
 31
0.0
  0
LINE
  5
1F5
330
6A
100
AcDbEntity
  8
0
  6
Continuous
 62
     7
100
AcDbLine
 10
-135.4250009743142
 20
-73.89999961853032
 30
0.0
 11
-135.4250009743142
 21
-75.19999961853031
 31
0.0
  0
LINE
  5
1F6
330
6A
100
AcDbEntity
  8
0
  6
Continuous
 62
     7
100
AcDbLine
 10
-134.8250009743142
 20
-48.89999961853032
 30
0.0
 11
-134.8250009743142
 21
-48.39999961853033
 31
0.0
  0
LINE
  5
1F7
330
6A
100
AcDbEntity
  8
0
  6
Continuous
 62
     7
100
AcDbLine
 10
-135.8750009743142
 20
-74.39999961853032
 30
0.0
 11
-135.8750009743142
 21
-73.0999996185303
 31
0.0
  0
LINE
  5
1F8
330
6A
100
AcDbEntity
  8
0
  6
Continuous
 62
     7
100
AcDbLine
 10
-136.9250009743142
 20
-74.39999961853032
 30
0.0
 11
-135.8750009743142
 21
-74.39999961853032
 31
0.0
  0
LINE
  5
1F9
330
6A
100
AcDbEntity
  8
0
  6
Continuous
 62
     7
100
AcDbLine
 10
-136.9250009743142
 20
-74.69999961853031
 30
0.0
 11
-136.9250009743142
 21
-74.39999961853032
 31
0.0
  0
LINE
  5
1FA
330
6A
100
AcDbEntity
  8
0
  6
Continuous
 62
     7
100
AcDbLine
 10
-136.4606618669586
 20
-76.43293675912257
 30
0.0
 11
-136.9250009743142
 21
-74.69999961853031
 31
0.0
  0
LINE
  5
1FB
330
6A
100
AcDbEntity
  8
0
  6
Continuous
 62
     2
100
AcDbLine
 10
-144.2250009743142
 20
-61.14999961853031
 30
0.0
 11
-144.2250009743143
 21
-54.29999961853036
 31
0.0
  0
LINE
  5
1FC
330
6A
100
AcDbEntity
  8
0
  6
Continuous
 62
     2
100
AcDbLine
 10
-143.9250009743142
 20
-54.29999961853032
 30
0.0
 11
-143.9250009743142
 21
-61.14999961853031
 31
0.0
  0
LINE
  5
1FD
330
6A
100
AcDbEntity
  8
0
  6
Continuous
 62
     7
100
AcDbLine
 10
-143.9250009743142
 20
-61.14999961853031
 30
0.0
 11
-144.2250009743142
 21
-61.14999961853031
 31
0.0
  0
LINE
  5
1FE
330
6A
100
AcDbEntity
  8
0
  6
Continuous
 62
     7
100
AcDbLine
 10
-141.9250009743142
 20
-61.14999961853031
 30
0.0
 11
-143.9250009743142
 21
-61.14999961853031
 31
0.0
  0
LINE
  5
1FF
330
6A
100
AcDbEntity
  8
0
  6
Continuous
 62
     7
100
AcDbLine
 10
-144.2250009743142
 20
-61.14999961853031
 30
0.0
 11
-146.2250009743142
 21
-61.14999961853031
 31
0.0
  0
LINE
  5
200
330
6A
100
AcDbEntity
  8
0
  6
Continuous
 62
     7
100
AcDbLine
 10
-141.9250009743142
 20
-61.14999961853031
 30
0.0
 11
-141.9250009743142
 21
-54.29999961853032
 31
0.0
  0
LINE
  5
201
330
6A
100
AcDbEntity
  8
0
  6
Continuous
 62
     7
100
AcDbLine
 10
-146.2250009743142
 20
-54.29999961853032
 30
0.0
 11
-146.2250009743142
 21
-61.14999961853031
 31
0.0
  0
LINE
  5
202
330
6A
100
AcDbEntity
  8
0
  6
Continuous
 62
     7
100
AcDbLine
 10
-135.8750009743142
 20
-73.0999996185303
 30
0.0
 11
-152.2750009743142
 21
-73.0999996185303
 31
0.0
  0
LINE
  5
203
330
6A
100
AcDbEntity
  8
0
  6
Continuous
 62
     7
100
AcDbLine
 10
-134.8250009743142
 20
-48.89999961853032
 30
0.0
 11
-130.0750009743142
 21
-48.89999961853032
 31
0.0
  0
LINE
  5
204
330
6A
100
AcDbEntity
  8
0
  6
Continuous
 62
     7
100
AcDbLine
 10
-158.0750009743142
 20
-48.89999961853032
 30
0.0
 11
-153.3250009743142
 21
-48.89999961853032
 31
0.0
  0
LINE
  5
205
330
6A
100
AcDbEntity
  8
0
  6
Continuous
 62
     7
100
AcDbLine
 10
-147.0250009743142
 20
-52.39999961853032
 30
0.0
 11
-146.2250009743142
 21
-54.29999961853032
 31
0.0
  0
ARC
  5
206
330
6A
100
AcDbEntity
  8
0
  6
Continuous
 62
     7
100
AcDbCircle
 10
-152.55867332533
 20
-76.19999961853031
 30
0.0
 40
0.8999999999999915
100
AcDbArc
 50
270.0
 51
344.9999999999998
  0
ARC
  5
207
330
6A
100
AcDbEntity
  8
0
  6
Continuous
 62
     7
100
AcDbCircle
 10
-135.5913286232984
 20
-76.19999961853031
 30
0.0
 40
0.9000000000000139
100
AcDbArc
 50
194.9999999999989
 51
270.0
  0
ARC
  5
208
330
6A
100
AcDbEntity
  8
0
  6
Continuous
 62
     7
100
AcDbCircle
 10
-135.5750009743142
 20
-76.19999961853031
 30
0.0
 40
0.8999999999999915
100
AcDbArc
 50
270.0
 51
0.0
  0
ARC
  5
209
330
6A
100
AcDbEntity
  8
0
  6
Continuous
 62
     7
100
AcDbCircle
 10
-152.5750009743142
 20
-76.19999961853031
 30
0.0
 40
0.9000000000000057
100
AcDbArc
 50
180.0
 51
270.0
  0
SPLINE
  5
20A
330
6A
100
AcDbEntity
  8
0
  6
Continuous
 62
     7
100
AcDbSpline
210
0.0
220
0.0
230
1.0
 70
    24
 71
     3
 72
    15
 73
    11
 74
     9
 42
0.000000001
 43
0.0000000001
 44
0.00000001
 40
0.0
 40
0.0
 40
0.0
 40
0.0
 40
0.3899865825578104
 40
0.7650012842690614
 40
1.110491850951348
 40
1.413390143699985
 40
1.662519527567753
 40
1.847626626586987
 40
1.923813313293493
 40
1.999999999999915
 40
1.999999999999915
 40
1.999999999999915
 40
1.999999999999915
 10
-144.2250009743143
 20
-54.29999961853036
 30
0.0
 10
-144.3549965018336
 20
-54.29999961853245
 30
0.0
 10
-144.6099969299233
 20
-54.29999961853536
 30
0.0
 10
-144.9801608802403
 20
-54.29999961853683
 30
0.0
 10
-145.3212954006211
 20
-54.29999961853635
 30
0.0
 10
-145.6204681483873
 20
-54.29999961853488
 30
0.0
 10
-145.8661797402659
 20
-54.29999961853318
 30
0.0
 10
-146.036320796797
 20
-54.29999961853186
 30
0.0
 10
-146.1488142876078
 20
-54.29999961853095
 30
0.0
 10
-146.1996054120787
 20
-54.29999961853053
 30
0.0
 10
-146.2250009743142
 20
-54.29999961853032
 30
0.0
 11
-144.2250009743143
 21
-54.29999961853036
 31
0.0
 11
-144.6149875568721
 21
-54.29999961853336
 31
0.0
 11
-144.9900022585834
 21
-54.29999961853513
 31
0.0
 11
-145.3354928252657
 21
-54.29999961857829
 31
0.0
 11
-145.6383911180143
 21
-54.29999961861411
 31
0.0
 11
-145.8875205018821
 21
-54.2999996185679
 31
0.0
 11
-146.0726276009013
 21
-54.29999961853031
 31
0.0
 11
-146.1488142876078
 21
-54.29999961853032
 31
0.0
 11
-146.2250009743142
 21
-54.29999961853032
 31
0.0
  0
SPLINE
  5
20B
330
6A
100
AcDbEntity
  8
0
  6
Continuous
 62
     7
100
AcDbSpline
210
0.0
220
0.0
230
1.0
 70
    24
 71
     3
 72
    15
 73
    11
 74
     9
 42
0.000000001
 43
0.0000000001
 44
0.00000001
 40
0.0
 40
0.0
 40
0.0
 40
0.0
 40
0.3747310868530178
 40
0.736189419124031
 40
1.098018743107389
 40
1.414213562373618
 40
1.671632244072015
 40
1.859576602125088
 40
1.929788301062558
 40
2.0
 40
2.0
 40
2.0
 40
2.0
 10
-143.9250009743142
 20
-54.29999961853032
 30
0.0
 10
-143.8000906120299
 20
-54.29999961853032
 30
0.0
 10
-143.5546941389885
 20
-54.29999961853031
 30
0.0
 10
-143.188687891286
 20
-54.29999961853025
 30
0.0
 10
-142.8421937327792
 20
-54.29999961853021
 30
0.0
 10
-142.5303794577965
 20
-54.29999961853018
 30
0.0
 10
-142.2765268381239
 20
-54.29999961853019
 30
0.0
 10
-142.1046685918943
 20
-54.29999961853025
 30
0.0
 10
-141.9952126732516
 20
-54.29999961853028
 30
0.0
 10
-141.94840487396
 20
-54.29999961853031
 30
0.0
 10
-141.9250009743142
 20
-54.29999961853032
 30
0.0
 11
-143.9250009743142
 21
-54.29999961853032
 31
0.0
 11
-143.5502698874612
 21
-54.29999961853032
 31
0.0
 11
-143.1888115551904
 21
-54.29999961853032
 31
0.0
 11
-142.8269822312073
 21
-54.29999961853032
 31
0.0
 11
-142.5107874119411
 21
-54.29999961853032
 31
0.0
 11
-142.2533687302426
 21
-54.29999961853031
 31
0.0
 11
-142.0654243721893
 21
-54.29999961853032
 31
0.0
 11
-141.9952126732517
 21
-54.29999961853033
 31
0.0
 11
-141.9250009743142
 21
-54.29999961853032
 31
0.0
  0
ENDBLK
  5
6C
330
6A
100
AcDbEntity
  8
0
100
AcDbBlockEnd
  0
BLOCK
  5
6F
330
6D
100
AcDbEntity
  8
0
100
AcDbBlockBegin
  2
Vordans1
 70
     0
 10
-144.0750020476838
 20
-62.0
 30
0.0
  3
Vordans1
  1

  0
INSERT
  5
6E
330
6D
100
AcDbEntity
  8
0
100
AcDbBlockReference
  2
MBK-3_BU_select__6
 10
-158.0750009743142
 20
-77.09999961853035
 30
0.0
  0
LINE
  5
20C
330
6D
100
AcDbEntity
  8
1
  6
DOT_CENTER
 62
     2
100
AcDbLine
 10
-143.3750009743143
 20
-71.9960484044465
 30
0.0
 11
-143.3750009743143
 21
-74.3524910496365
 31
0.0
  0
MTEXT
  5
20D
330
6D
100
AcDbEntity
  8
1
 62
     6
100
AcDbMText
 10
-144.0750020476838
 20
-79.60000038146973
 30
0.0
 40
2.5
 41
0.0
 71
     2
 72
     1
  1
 
  7
CONVERTER_11
 73
     1
 44
1.32052821128451
  0
DIMENSION
  5
218
330
6D
100
AcDbEntity
  8
1
100
AcDbDimension
  2
*D18
 10
-143.3750009743143
 20
-79.413071290036
 30
0.0
 11
-139.8294096563175
 21
-77.700571290036
 31
0.0
 70
    32
  1
<>
 71
     5
 42
-1.0
 53
0.00013888888889
  3
ME10_DIM_11
100
AcDbAlignedDimension
 13
-135.8750009743142
 23
-73.0999996185303
 33
0.0
 14
-143.3750009743143
 24
-74.3524910496365
 34
0.0
100
AcDbRotatedDimension
  0
DIMENSION
  5
223
330
6D
100
AcDbEntity
  8
1
100
AcDbDimension
  2
*D19
 10
-143.3750009743143
 20
-84.333240219795
 30
0.0
 11
-138.486472070718
 21
-82.620740219795
 31
0.0
 70
    32
  1
<>
 71
     5
 42
-1.0
 53
0.00013888888889
  3
ME10_DIM_12
100
AcDbAlignedDimension
 13
-130.0750009743142
 23
-73.89999961853032
 33
0.0
 14
-143.3750009743143
 24
-74.3524910496365
 34
0.0
100
AcDbRotatedDimension
  0
DIMENSION
  5
22E
330
6D
100
AcDbEntity
  8
1
100
AcDbDimension
  2
*D20
 10
-158.0750009743143
 20
-89.333240219795
 30
0.0
 11
-142.3480675608365
 21
-87.708240219795
 31
0.0
 70
    32
  1
<>
 71
     5
 42
-1.0
 53
0.00013888888889
  3
ME10_DIM_13
100
AcDbAlignedDimension
 13
-130.0750009743142
 23
-73.89999961853032
 33
0.0
 14
-158.0750009743142
 24
-73.89999961853032
 34
0.0
100
AcDbRotatedDimension
  0
DIMENSION
  5
239
330
6D
100
AcDbEntity
  8
1
100
AcDbDimension
  2
*D21
 10
-163.0750009743142
 20
-48.89999961853032
 30
0.0
 11
-164.7875009743142
 21
-61.7129720723935
 31
0.0
 70
    32
  1
<>
 71
     5
 42
-1.0
 53
90.0
  3
ME10_DIM_14
100
AcDbAlignedDimension
 13
-152.2750009743142
 23
-73.0999996185303
 33
0.0
 14
-158.0750009743142
 24
-48.89999961853032
 34
0.0
 50
90.0
100
AcDbRotatedDimension
  0
DIMENSION
  5
244
330
6D
100
AcDbEntity
  8
1
100
AcDbDimension
  2
*D22
 10
-168.5750009743142
 20
-77.0999996185303
 30
0.0
 11
-170.2875009743142
 21
-61.7129720723935
 31
0.0
 70
    32
  1
<>
 71
     5
 42
-1.0
 53
90.0
  3
ME10_DIM_15
100
AcDbAlignedDimension
 13
-148.0250009743142
 23
-46.89999961853032
 33
0.0
 14
-152.55867332533
 24
-77.0999996185303
 34
0.0
 50
90.0
100
AcDbRotatedDimension
  0
ENDBLK
  5
70
330
6D
100
AcDbEntity
  8
0
100
AcDbBlockEnd
  0
BLOCK
  5
72
330
71
100
AcDbEntity
  8
0
100
AcDbBlockBegin
  2
_rahmen
 70
     0
 10
-123.4999999999899
 20
-267.0000000000051
 30
0.0
  3
_rahmen
  1

  0
LINE
  5
245
330
71
100
AcDbEntity
  8
1
  6
Continuous
 62
     6
100
AcDbLine
 10
-253.0448045267399
 20
-236.500000000005
 30
0.0
 11
-123.4999999999882
 21
-236.500000000005
 31
0.0
  0
LINE
  5
246
330
71
100
AcDbEntity
  8
1
  6
Continuous
 62
     7
100
AcDbLine
 10
-234.8448045267399
 20
-257.750000000005
 30
0.0
 11
-216.64480452674
 21
-257.750000000005
 31
0.0
  0
LINE
  5
247
330
71
100
AcDbEntity
  8
1
  6
Continuous
 62
     6
100
AcDbLine
 10
-234.8448045267399
 20
-262.000000000005
 30
0.0
 11
-253.0448045267399
 21
-262.0000000000051
 31
0.0
  0
LINE
  5
248
330
71
100
AcDbEntity
  8
1
  6
Continuous
 62
     7
100
AcDbLine
 10
-234.8448045267399
 20
-257.750000000005
 30
0.0
 11
-234.8448045267399
 21
-262.000000000005
 31
0.0
  0
LINE
  5
249
330
71
100
AcDbEntity
  8
1
  6
Continuous
 62
     7
100
AcDbLine
 10
-216.64480452674
 20
-257.750000000005
 30
0.0
 11
-216.64480452674
 21
-262.0000000000051
 31
0.0
  0
LINE
  5
24A
330
71
100
AcDbEntity
  8
1
  6
Continuous
 62
     7
100
AcDbLine
 10
-253.0448045267399
 20
-257.7500000000051
 30
0.0
 11
-253.0448045267399
 21
-262.0000000000051
 31
0.0
  0
LINE
  5
24B
330
71
100
AcDbEntity
  8
1
  6
Continuous
 62
     7
100
AcDbLine
 10
-253.0448045267399
 20
-257.7500000000051
 30
0.0
 11
-234.8448045267399
 21
-257.750000000005
 31
0.0
  0
LINE
  5
24C
330
71
100
AcDbEntity
  8
1
  6
Continuous
 62
     2
100
AcDbLine
 10
-243.8081496401773
 20
-238.3750000000051
 30
0.0
 11
-243.8081496401773
 21
-243.3750000000051
 31
0.0
  0
LINE
  5
24D
330
71
100
AcDbEntity
  8
1
  6
Continuous
 62
     2
100
AcDbLine
 10
-243.8081496401773
 20
-243.3750000000051
 30
0.0
 11
-248.8081496401773
 21
-242.1250000000051
 31
0.0
  0
LINE
  5
24E
330
71
100
AcDbEntity
  8
1
  6
Continuous
 62
     2
100
AcDbLine
 10
-248.8081496401773
 20
-242.1250000000051
 30
0.0
 11
-248.8081496401773
 21
-239.6250000000051
 31
0.0
  0
LINE
  5
24F
330
71
100
AcDbEntity
  8
1
  6
Continuous
 62
     2
100
AcDbLine
 10
-248.8081496401773
 20
-239.6250000000051
 30
0.0
 11
-243.8081496401773
 21
-238.3750000000051
 31
0.0
  0
LINE
  5
250
330
71
100
AcDbEntity
  8
1
  6
Continuous
 62
     6
100
AcDbLine
 10
-375.4999999999881
 20
-262.000000000005
 30
0.0
 11
-410.499999999988
 21
-262.000000000005
 31
0.0
  0
LINE
  5
251
330
71
100
AcDbEntity
  8
1
  6
Continuous
 62
     6
100
AcDbLine
 10
-123.4999999999882
 20
-245.000000000005
 30
0.0
 11
-123.4999999999886
 21
-253.500000000005
 31
0.0
  0
LINE
  5
252
330
71
100
AcDbEntity
  8
1
  6
Continuous
 62
     6
100
AcDbLine
 10
-216.64480452674
 20
-262.0000000000051
 30
0.0
 11
-216.9999999999899
 21
-262.000000000005
 31
0.0
  0
LINE
  5
253
330
71
100
AcDbEntity
  8
1
  6
Continuous
 62
     6
100
AcDbLine
 10
-369.2999999999901
 20
-262.0000000000051
 30
0.0
 11
-375.4999999999881
 21
-262.000000000005
 31
0.0
  0
LINE
  5
254
330
71
100
AcDbEntity
  8
1
  6
Continuous
 62
     7
100
AcDbLine
 10
-216.64480452674
 20
-245.000000000005
 30
0.0
 11
-216.64480452674
 21
-257.750000000005
 31
0.0
  0
LINE
  5
255
330
71
100
AcDbEntity
  8
1
  6
Continuous
 62
     7
100
AcDbLine
 10
-253.0448045267399
 20
-245.000000000005
 30
0.0
 11
-253.0448045267399
 21
-257.7500000000051
 31
0.0
  0
LINE
  5
256
330
71
100
AcDbEntity
  8
1
  6
Continuous
 62
     6
100
AcDbLine
 10
-266.9999999999899
 20
-262.000000000005
 30
0.0
 11
-316.9999999999901
 21
-262.000000000005
 31
0.0
  0
LINE
  5
257
330
71
100
AcDbEntity
  8
1
  6
Continuous
 62
     6
100
AcDbLine
 10
-369.2999999999901
 20
-262.0000000000051
 30
0.0
 11
-366.9999999999899
 21
-262.000000000005
 31
0.0
  0
LINE
  5
258
330
71
100
AcDbEntity
  8
1
  6
Continuous
 62
     6
100
AcDbLine
 10
-216.64480452674
 20
-262.0000000000051
 30
0.0
 11
-166.9999999999899
 21
-262.000000000005
 31
0.0
  0
LINE
  5
259
330
71
100
AcDbEntity
  8
1
  6
Continuous
 62
     6
100
AcDbLine
 10
-123.4999999999899
 20
-262.000000000005
 30
0.0
 11
-123.4999999999886
 21
-253.500000000005
 31
0.0
  0
LINE
  5
25A
330
71
100
AcDbEntity
  8
1
  6
Continuous
 62
     2
100
AcDbLine
 10
-415.499999999989
 20
-262.000000000005
 30
0.0
 11
-415.499999999989
 21
-267.0000000000051
 31
0.0
  0
LINE
  5
25B
330
71
100
AcDbEntity
  8
1
  6
Continuous
 62
     2
100
AcDbLine
 10
-410.499999999988
 20
-262.000000000005
 30
0.0
 11
-415.499999999989
 21
-262.000000000005
 31
0.0
  0
LINE
  5
25C
330
71
100
AcDbEntity
  8
1
  6
Continuous
 62
     2
100
AcDbLine
 10
-410.499999999988
 20
-267.0000000000051
 30
0.0
 11
-366.9999999999899
 21
-267.0000000000051
 31
0.0
  0
LINE
  5
25D
330
71
100
AcDbEntity
  8
1
  6
Continuous
 62
     2
100
AcDbLine
 10
-410.499999999988
 20
-262.000000000005
 30
0.0
 11
-410.499999999988
 21
-267.0000000000051
 31
0.0
  0
LINE
  5
25E
330
71
100
AcDbEntity
  8
1
  6
Continuous
 62
     2
100
AcDbLine
 10
-166.9999999999899
 20
-267.0000000000051
 30
0.0
 11
-216.9999999999899
 21
-267.0000000000051
 31
0.0
  0
LINE
  5
25F
330
71
100
AcDbEntity
  8
1
  6
Continuous
 62
     2
100
AcDbLine
 10
-166.9999999999899
 20
-267.0000000000051
 30
0.0
 11
-166.9999999999899
 21
-262.000000000005
 31
0.0
  0
LINE
  5
260
330
71
100
AcDbEntity
  8
1
  6
Continuous
 62
     2
100
AcDbLine
 10
-216.9999999999899
 20
-267.0000000000051
 30
0.0
 11
-216.9999999999899
 21
-262.000000000005
 31
0.0
  0
LINE
  5
261
330
71
100
AcDbEntity
  8
1
  6
Continuous
 62
     2
100
AcDbLine
 10
-266.9999999999899
 20
-267.0000000000051
 30
0.0
 11
-216.9999999999899
 21
-267.0000000000051
 31
0.0
  0
LINE
  5
262
330
71
100
AcDbEntity
  8
1
  6
Continuous
 62
     2
100
AcDbLine
 10
-266.9999999999899
 20
-267.0000000000051
 30
0.0
 11
-266.9999999999899
 21
-262.000000000005
 31
0.0
  0
LINE
  5
263
330
71
100
AcDbEntity
  8
1
  6
Continuous
 62
     2
100
AcDbLine
 10
-316.9999999999901
 20
-267.0000000000051
 30
0.0
 11
-266.9999999999899
 21
-267.0000000000051
 31
0.0
  0
LINE
  5
264
330
71
100
AcDbEntity
  8
1
  6
Continuous
 62
     2
100
AcDbLine
 10
-316.9999999999901
 20
-267.0000000000051
 30
0.0
 11
-316.9999999999901
 21
-262.000000000005
 31
0.0
  0
LINE
  5
265
330
71
100
AcDbEntity
  8
1
  6
Continuous
 62
     2
100
AcDbLine
 10
-366.9999999999899
 20
-267.0000000000051
 30
0.0
 11
-316.9999999999901
 21
-267.0000000000051
 31
0.0
  0
LINE
  5
266
330
71
100
AcDbEntity
  8
1
  6
Continuous
 62
     2
100
AcDbLine
 10
-366.9999999999899
 20
-267.0000000000051
 30
0.0
 11
-366.9999999999899
 21
-262.000000000005
 31
0.0
  0
LINE
  5
267
330
71
100
AcDbEntity
  8
1
  6
Continuous
 62
     6
100
AcDbLine
 10
-410.4999999999882
 20
-212.0000000000049
 30
0.0
 11
-410.499999999988
 21
-262.000000000005
 31
0.0
  0
LINE
  5
268
330
71
100
AcDbEntity
  8
1
  6
Continuous
 62
     2
100
AcDbLine
 10
-415.499999999989
 20
-212.0000000000049
 30
0.0
 11
-415.499999999989
 21
-262.000000000005
 31
0.0
  0
LINE
  5
269
330
71
100
AcDbEntity
  8
1
  6
Continuous
 62
     2
100
AcDbLine
 10
-415.499999999989
 20
-212.0000000000049
 30
0.0
 11
-410.4999999999882
 21
-212.0000000000049
 31
0.0
  0
LINE
  5
26A
330
71
100
AcDbEntity
  8
1
  6
Continuous
 62
     6
100
AcDbLine
 10
-410.4999999999884
 20
-162.0000000000051
 30
0.0
 11
-410.4999999999882
 21
-212.0000000000049
 31
0.0
  0
LINE
  5
26B
330
71
100
AcDbEntity
  8
1
  6
Continuous
 62
     2
100
AcDbLine
 10
-415.499999999989
 20
-162.0000000000051
 30
0.0
 11
-415.499999999989
 21
-212.0000000000049
 31
0.0
  0
LINE
  5
26C
330
71
100
AcDbEntity
  8
1
  6
Continuous
 62
     2
100
AcDbLine
 10
-415.499999999989
 20
-162.0000000000051
 30
0.0
 11
-410.4999999999884
 21
-162.0000000000051
 31
0.0
  0
LINE
  5
26D
330
71
100
AcDbEntity
  8
1
  6
Continuous
 62
     6
100
AcDbLine
 10
-410.4999999999889
 20
-112.000000000005
 30
0.0
 11
-410.4999999999884
 21
-162.0000000000051
 31
0.0
  0
LINE
  5
26E
330
71
100
AcDbEntity
  8
1
  6
Continuous
 62
     2
100
AcDbLine
 10
-415.499999999989
 20
-112.000000000005
 30
0.0
 11
-415.499999999989
 21
-162.0000000000051
 31
0.0
  0
LINE
  5
26F
330
71
100
AcDbEntity
  8
1
  6
Continuous
 62
     2
100
AcDbLine
 10
-415.499999999989
 20
-112.000000000005
 30
0.0
 11
-410.4999999999889
 21
-112.000000000005
 31
0.0
  0
LINE
  5
270
330
71
100
AcDbEntity
  8
1
  6
Continuous
 62
     6
100
AcDbLine
 10
-410.499999999989
 20
-77.000000000005
 30
0.0
 11
-410.4999999999889
 21
-112.000000000005
 31
0.0
  0
LINE
  5
271
330
71
100
AcDbEntity
  8
1
  6
Continuous
 62
     2
100
AcDbLine
 10
-415.499999999989
 20
-57.000000000005
 30
0.0
 11
-415.499999999989
 21
-112.000000000005
 31
0.0
  0
LINE
  5
272
330
71
100
AcDbEntity
  8
1
  6
Continuous
 62
     2
100
AcDbLine
 10
-415.499999999989
 20
-267.0000000000051
 30
0.0
 11
-410.499999999988
 21
-267.0000000000051
 31
0.0
  0
LINE
  5
273
330
71
100
AcDbEntity
  8
1
  6
Continuous
 62
     2
100
AcDbLine
 10
-266.9999999999899
 20
-57.000000000005
 30
0.0
 11
-266.9999999999899
 21
-66.20869184470632
 31
0.0
  0
LINE
  5
274
330
71
100
AcDbEntity
  8
1
  6
Continuous
 62
     2
100
AcDbLine
 10
-266.9999999999899
 20
-57.000000000005
 30
0.0
 11
-415.499999999989
 21
-57.000000000005
 31
0.0
  0
LINE
  5
275
330
71
100
AcDbEntity
  8
1
  6
Continuous
 62
     2
100
AcDbLine
 10
-118.4999999999909
 20
-262.000000000005
 30
0.0
 11
-118.4999999999909
 21
-212.0000000000049
 31
0.0
  0
LINE
  5
276
330
71
100
AcDbEntity
  8
1
  6
Continuous
 62
     2
100
AcDbLine
 10
-118.4999999999909
 20
-112.000000000005
 30
0.0
 11
-118.4999999999909
 21
-57.000000000005
 31
0.0
  0
LINE
  5
277
330
71
100
AcDbEntity
  8
1
  6
Continuous
 62
     6
100
AcDbLine
 10
-123.4999999999907
 20
-112.000000000005
 30
0.0
 11
-123.4999999999909
 21
-77.000000000005
 31
0.0
  0
LINE
  5
278
330
71
100
AcDbEntity
  8
1
  6
Continuous
 62
     2
100
AcDbLine
 10
-123.4999999999907
 20
-112.000000000005
 30
0.0
 11
-118.4999999999909
 21
-112.000000000005
 31
0.0
  0
LINE
  5
279
330
71
100
AcDbEntity
  8
1
  6
Continuous
 62
     2
100
AcDbLine
 10
-118.4999999999909
 20
-162.0000000000051
 30
0.0
 11
-118.4999999999909
 21
-112.000000000005
 31
0.0
  0
LINE
  5
27A
330
71
100
AcDbEntity
  8
1
  6
Continuous
 62
     6
100
AcDbLine
 10
-123.4999999999895
 20
-162.0000000000051
 30
0.0
 11
-123.4999999999907
 21
-112.000000000005
 31
0.0
  0
LINE
  5
27B
330
71
100
AcDbEntity
  8
1
  6
Continuous
 62
     2
100
AcDbLine
 10
-123.4999999999895
 20
-162.0000000000051
 30
0.0
 11
-118.4999999999909
 21
-162.0000000000051
 31
0.0
  0
LINE
  5
27C
330
71
100
AcDbEntity
  8
1
  6
Continuous
 62
     2
100
AcDbLine
 10
-118.4999999999909
 20
-212.0000000000049
 30
0.0
 11
-118.4999999999909
 21
-162.0000000000051
 31
0.0
  0
LINE
  5
27D
330
71
100
AcDbEntity
  8
1
  6
Continuous
 62
     6
100
AcDbLine
 10
-123.499999999989
 20
-212.0000000000049
 30
0.0
 11
-123.4999999999895
 21
-162.0000000000051
 31
0.0
  0
LINE
  5
27E
330
71
100
AcDbEntity
  8
1
  6
Continuous
 62
     2
100
AcDbLine
 10
-123.499999999989
 20
-212.0000000000049
 30
0.0
 11
-118.4999999999909
 21
-212.0000000000049
 31
0.0
  0
LINE
  5
27F
330
71
100
AcDbEntity
  8
1
  6
Continuous
 62
     6
100
AcDbLine
 10
-123.4999999999909
 20
-77.000000000005
 30
0.0
 11
-410.499999999989
 21
-77.000000000005
 31
0.0
  0
LINE
  5
280
330
71
100
AcDbEntity
  8
1
  6
Continuous
 62
     2
100
AcDbLine
 10
-118.4999999999909
 20
-57.000000000005
 30
0.0
 11
-266.9999999999899
 21
-57.000000000005
 31
0.0
  0
LINE
  5
281
330
71
100
AcDbEntity
  8
1
  6
Continuous
 62
     6
100
AcDbLine
 10
-123.4999999999882
 20
-245.000000000005
 30
0.0
 11
-123.499999999989
 21
-212.0000000000049
 31
0.0
  0
LINE
  5
282
330
71
100
AcDbEntity
  8
1
  6
Continuous
 62
     2
100
AcDbLine
 10
-123.4999999999899
 20
-267.0000000000051
 30
0.0
 11
-166.9999999999899
 21
-267.0000000000051
 31
0.0
  0
LINE
  5
283
330
71
100
AcDbEntity
  8
1
  6
Continuous
 62
     2
100
AcDbLine
 10
-118.4999999999909
 20
-267.0000000000051
 30
0.0
 11
-123.4999999999899
 21
-267.0000000000051
 31
0.0
  0
LINE
  5
284
330
71
100
AcDbEntity
  8
1
  6
Continuous
 62
     2
100
AcDbLine
 10
-118.4999999999909
 20
-267.0000000000051
 30
0.0
 11
-118.4999999999909
 21
-262.000000000005
 31
0.0
  0
LINE
  5
285
330
71
100
AcDbEntity
  8
1
  6
Continuous
 62
     6
100
AcDbLine
 10
-253.0448045267399
 20
-245.000000000005
 30
0.0
 11
-216.64480452674
 21
-245.000000000005
 31
0.0
  0
LINE
  5
286
330
71
100
AcDbEntity
  8
1
  6
Continuous
 62
     2
100
AcDbLine
 10
-123.4999999999899
 20
-262.000000000005
 30
0.0
 11
-123.4999999999899
 21
-267.0000000000051
 31
0.0
  0
LINE
  5
287
330
71
100
AcDbEntity
  8
1
  6
Continuous
 62
     2
100
AcDbLine
 10
-123.4999999999899
 20
-262.000000000005
 30
0.0
 11
-118.4999999999909
 21
-262.000000000005
 31
0.0
  0
LINE
  5
288
330
71
100
AcDbEntity
  8
1
  6
Continuous
 62
     6
100
AcDbLine
 10
-216.9999999999899
 20
-262.000000000005
 30
0.0
 11
-234.8448045267399
 21
-262.000000000005
 31
0.0
  0
LINE
  5
289
330
71
100
AcDbEntity
  8
1
  6
Continuous
 62
     6
100
AcDbLine
 10
-166.9999999999899
 20
-262.000000000005
 30
0.0
 11
-123.4999999999899
 21
-262.000000000005
 31
0.0
  0
LINE
  5
28A
330
71
100
AcDbEntity
  8
1
  6
Continuous
 62
     6
100
AcDbLine
 10
-316.9999999999901
 20
-262.000000000005
 30
0.0
 11
-322.0448045267399
 21
-262.000000000005
 31
0.0
  0
LINE
  5
28B
330
71
100
AcDbEntity
  8
1
  6
Continuous
 62
     6
100
AcDbLine
 10
-266.9999999999899
 20
-262.000000000005
 30
0.0
 11
-253.0448045267399
 21
-262.0000000000051
 31
0.0
  0
LINE
  5
28C
102
{ACAD_REACTORS
330
376
330
377
102
}
330
71
100
AcDbEntity
  8
0
  6
Continuous
 62
     2
100
AcDbLine
 10
-245.5301785845931
 20
-249.9274852437929
 30
0.0
 11
-245.5301785845931
 21
-249.3219499552861
 31
0.0
  0
LINE
  5
28D
102
{ACAD_REACTORS
330
376
330
377
102
}
330
71
100
AcDbEntity
  8
0
  6
Continuous
 62
     2
100
AcDbLine
 10
-245.5301785845931
 20
-252.7276198504242
 30
0.0
 11
-245.5301785845931
 21
-252.1457684437291
 31
0.0
  0
LINE
  5
28E
102
{ACAD_REACTORS
330
378
330
379
102
}
330
71
100
AcDbEntity
  8
0
  6
Continuous
 62
     2
100
AcDbLine
 10
-222.9006921491139
 20
-252.4379557823012
 30
0.0
 11
-222.9006921491139
 21
-254.7064999999887
 31
0.0
  0
LINE
  5
28F
102
{ACAD_REACTORS
330
378
330
379
102
}
330
71
100
AcDbEntity
  8
0
  6
Continuous
 62
     2
100
AcDbLine
 10
-224.2817459281015
 20
-251.6526904761781
 30
0.0
 11
-220.8968004094728
 21
-251.6526904761776
 31
0.0
  0
LINE
  5
290
102
{ACAD_REACTORS
330
378
330
379
102
}
330
71
100
AcDbEntity
  8
0
  6
Continuous
 62
     2
100
AcDbLine
 10
-220.8968004094728
 20
-252.4379557823012
 30
0.0
 11
-220.8968004094728
 21
-251.6526904761776
 31
0.0
  0
LINE
  5
291
102
{ACAD_REACTORS
330
378
330
379
102
}
330
71
100
AcDbEntity
  8
0
  6
Continuous
 62
     2
100
AcDbLine
 10
-221.7078994469462
 20
-252.4379557823012
 30
0.0
 11
-220.8968004094728
 21
-252.4379557823012
 31
0.0
  0
LINE
  5
292
102
{ACAD_REACTORS
330
378
330
379
102
}
330
71
100
AcDbEntity
  8
0
  6
Continuous
 62
     2
100
AcDbLine
 10
-221.7078994469462
 20
-254.7064999999887
 30
0.0
 11
-221.7078994469462
 21
-252.4379557823012
 31
0.0
  0
LINE
  5
293
102
{ACAD_REACTORS
330
378
330
379
102
}
330
71
100
AcDbEntity
  8
0
  6
Continuous
 62
     2
100
AcDbLine
 10
-222.9006921491139
 20
-254.7064999999887
 30
0.0
 11
-221.7078994469462
 21
-254.7064999999887
 31
0.0
  0
LINE
  5
294
102
{ACAD_REACTORS
330
36E
330
36F
102
}
330
71
100
AcDbEntity
  8
0
  6
Continuous
 62
     2
100
AcDbLine
 10
-223.5972830871784
 20
-248.2935000000032
 30
0.0
 11
-225.0000073049277
 21
-248.2935000000032
 31
0.0
  0
LINE
  5
295
102
{ACAD_REACTORS
330
36E
330
36F
102
}
330
71
100
AcDbEntity
  8
0
  6
Continuous
 62
     2
100
AcDbLine
 10
-223.5972830871784
 20
-248.2935000000032
 30
0.0
 11
-222.9961155652866
 21
-248.9733233215587
 31
0.0
  0
LINE
  5
296
102
{ACAD_REACTORS
330
36E
330
36F
102
}
330
71
100
AcDbEntity
  8
0
  6
Continuous
 62
     2
100
AcDbLine
 10
-222.9961155652866
 20
-248.9733233215587
 30
0.0
 11
-222.3949480433938
 21
-248.2935000000032
 31
0.0
  0
LINE
  5
297
102
{ACAD_REACTORS
330
36E
330
36F
102
}
330
71
100
AcDbEntity
  8
0
  6
Continuous
 62
     2
100
AcDbLine
 10
-222.2947534564131
 20
-249.7664505300394
 30
0.0
 11
-220.9922238256466
 21
-248.2935000000032
 31
0.0
  0
LINE
  5
298
102
{ACAD_REACTORS
330
36E
330
36F
102
}
330
71
100
AcDbEntity
  8
0
  6
Continuous
 62
     2
100
AcDbLine
 10
-222.2947534564131
 20
-249.7664505300394
 30
0.0
 11
-220.8968004094728
 21
-251.3473095238144
 31
0.0
  0
LINE
  5
299
102
{ACAD_REACTORS
330
36E
330
36F
102
}
330
71
100
AcDbEntity
  8
0
  6
Continuous
 62
     2
100
AcDbLine
 10
-222.2995246272211
 20
-251.3473095238144
 30
0.0
 11
-220.8968004094728
 21
-251.3473095238144
 31
0.0
  0
LINE
  5
29A
102
{ACAD_REACTORS
330
36E
330
36F
102
}
330
71
100
AcDbEntity
  8
0
  6
Continuous
 62
     2
100
AcDbLine
 10
-222.9961155652866
 20
-250.5595777385207
 30
0.0
 11
-222.2995246272211
 21
-251.3473095238144
 31
0.0
  0
LINE
  5
29B
102
{ACAD_REACTORS
330
36C
330
36D
102
}
330
71
100
AcDbEntity
  8
0
  6
Continuous
 62
     2
100
AcDbLine
 10
-226.4552144015703
 20
-248.2935000000032
 30
0.0
 11
-225.2147099913174
 21
-248.2935000000032
 31
0.0
  0
LINE
  5
29C
102
{ACAD_REACTORS
330
36C
330
36D
102
}
330
71
100
AcDbEntity
  8
0
  6
Continuous
 62
     2
100
AcDbLine
 10
-225.2147099913174
 20
-248.2935000000032
 30
0.0
 11
-225.2147099913174
 21
-251.3473095238144
 31
0.0
  0
LINE
  5
29D
102
{ACAD_REACTORS
330
36C
330
36D
102
}
330
71
100
AcDbEntity
  8
0
  6
Continuous
 62
     2
100
AcDbLine
 10
-226.4552144015703
 20
-251.3473095238144
 30
0.0
 11
-226.4552144015703
 21
-248.2935000000032
 31
0.0
  0
LINE
  5
29E
102
{ACAD_REACTORS
330
36A
330
36B
102
}
330
71
100
AcDbEntity
  8
0
  6
Continuous
 62
     2
100
AcDbLine
 10
-227.9235244841079
 20
-253.4849761904642
 30
0.0
 11
-227.6233592469155
 21
-252.7171612244775
 31
0.0
  0
LINE
  5
29F
102
{ACAD_REACTORS
330
36A
330
36B
102
}
330
71
100
AcDbEntity
  8
0
  6
Continuous
 62
     2
100
AcDbLine
 10
-228.4010600887287
 20
-254.7064999999887
 30
0.0
 11
-228.1895800352529
 21
-254.1655394557708
 31
0.0
  0
LINE
  5
2A0
102
{ACAD_REACTORS
330
36A
330
36B
102
}
330
71
100
AcDbEntity
  8
0
  6
Continuous
 62
     2
100
AcDbLine
 10
-228.2436114520424
 20
-251.6526904761776
 30
0.0
 11
-229.6415644989817
 21
-254.7064999999887
 31
0.0
  0
LINE
  5
2A1
102
{ACAD_REACTORS
330
36A
330
36B
102
}
330
71
100
AcDbEntity
  8
0
  6
Continuous
 62
     2
100
AcDbLine
 10
-225.6051539948494
 20
-254.7064999999887
 30
0.0
 11
-226.8456584051033
 21
-254.7064999999887
 31
0.0
  0
LINE
  5
2A2
102
{ACAD_REACTORS
330
36A
330
36B
102
}
330
71
100
AcDbEntity
  8
0
  6
Continuous
 62
     2
100
AcDbLine
 10
-228.1895800352529
 20
-254.1655394557708
 30
0.0
 11
-227.0571384585791
 21
-254.1655394557708
 31
0.0
  0
LINE
  5
2A3
102
{ACAD_REACTORS
330
368
330
369
102
}
330
71
100
AcDbEntity
  8
0
  6
Continuous
 62
     2
100
AcDbLine
 10
-231.7990766381639
 20
-252.4379557823012
 30
0.0
 11
-230.9879776006893
 21
-252.4379557823012
 31
0.0
  0
LINE
  5
2A4
102
{ACAD_REACTORS
330
368
330
369
102
}
330
71
100
AcDbEntity
  8
0
  6
Continuous
 62
     2
100
AcDbLine
 10
-228.9840858610503
 20
-251.6526904761776
 30
0.0
 11
-231.7990766381639
 21
-251.6526904761776
 31
0.0
  0
LINE
  5
2A5
102
{ACAD_REACTORS
330
368
330
369
102
}
330
71
100
AcDbEntity
  8
0
  6
Continuous
 62
     2
100
AcDbLine
 10
-228.9840858610503
 20
-252.4379557823012
 30
0.0
 11
-228.9840858610503
 21
-251.6526904761776
 31
0.0
  0
LINE
  5
2A6
102
{ACAD_REACTORS
330
368
330
369
102
}
330
71
100
AcDbEntity
  8
0
  6
Continuous
 62
     2
100
AcDbLine
 10
-229.7951848985228
 20
-252.4379557823012
 30
0.0
 11
-228.9840858610503
 21
-252.4379557823012
 31
0.0
  0
LINE
  5
2A7
102
{ACAD_REACTORS
330
368
330
369
102
}
330
71
100
AcDbEntity
  8
0
  6
Continuous
 62
     2
100
AcDbLine
 10
-229.7951848985228
 20
-254.7064999999887
 30
0.0
 11
-229.7951848985228
 21
-252.4379557823012
 31
0.0
  0
LINE
  5
2A8
102
{ACAD_REACTORS
330
366
330
367
102
}
330
71
100
AcDbEntity
  8
0
  6
Continuous
 62
     2
100
AcDbLine
 10
-229.1270700544248
 20
-251.3473095238144
 30
0.0
 11
-229.1270700544248
 21
-250.0385340136097
 31
0.0
  0
LINE
  5
2A9
102
{ACAD_REACTORS
330
366
330
367
102
}
330
71
100
AcDbEntity
  8
0
  6
Continuous
 62
     2
100
AcDbLine
 10
-230.3198627565913
 20
-248.2935000000032
 30
0.0
 11
-230.3198627565913
 21
-251.3473095238144
 31
0.0
  0
LINE
  5
2AA
102
{ACAD_REACTORS
330
366
330
367
102
}
330
71
100
AcDbEntity
  8
0
  6
Continuous
 62
     2
100
AcDbLine
 10
-229.1270700544248
 20
-248.2935000000032
 30
0.0
 11
-230.3198627565913
 21
-248.2935000000032
 31
0.0
  0
LINE
  5
2AB
102
{ACAD_REACTORS
330
366
330
367
102
}
330
71
100
AcDbEntity
  8
0
  6
Continuous
 62
     2
100
AcDbLine
 10
-227.8865656441708
 20
-248.2935000000032
 30
0.0
 11
-227.8865656441708
 21
-249.6022755102084
 31
0.0
  0
LINE
  5
2AC
102
{ACAD_REACTORS
330
364
330
365
102
}
330
71
100
AcDbEntity
  8
0
  6
Continuous
 62
     2
100
AcDbLine
 10
-235.568301577011
 20
-251.6526904761776
 30
0.0
 11
-235.568301577011
 21
-254.7064999999887
 31
0.0
  0
LINE
  5
2AD
102
{ACAD_REACTORS
330
364
330
365
102
}
330
71
100
AcDbEntity
  8
0
  6
Continuous
 62
     2
100
AcDbLine
 10
-234.3755088748434
 20
-251.6526904761776
 30
0.0
 11
-235.568301577011
 21
-251.6526904761776
 31
0.0
  0
LINE
  5
2AE
102
{ACAD_REACTORS
330
364
330
365
102
}
330
71
100
AcDbEntity
  8
0
  6
Continuous
 62
     2
100
AcDbLine
 10
-233.1350044645905
 20
-254.7064999999887
 30
0.0
 11
-231.9422117624241
 21
-254.7064999999887
 31
0.0
  0
LINE
  5
2AF
102
{ACAD_REACTORS
330
364
330
365
102
}
330
71
100
AcDbEntity
  8
0
  6
Continuous
 62
     2
100
AcDbLine
 10
-235.568301577011
 20
-254.7064999999887
 30
0.0
 11
-234.3755088748434
 21
-254.7064999999887
 31
0.0
  0
LINE
  5
2B0
102
{ACAD_REACTORS
330
374
330
375
102
}
330
71
100
AcDbEntity
  8
0
  6
Continuous
 62
     2
100
AcDbLine
 10
-231.8943491234519
 20
-249.4713979591879
 30
0.0
 11
-231.8943491234519
 21
-248.9915136054462
 31
0.0
  0
LINE
  5
2B1
102
{ACAD_REACTORS
330
374
330
375
102
}
330
71
100
AcDbEntity
  8
0
  6
Continuous
 62
     2
100
AcDbLine
 10
-230.5584212970242
 20
-249.4713979591879
 30
0.0
 11
-231.8943491234519
 21
-249.4713979591879
 31
0.0
  0
LINE
  5
2B2
102
{ACAD_REACTORS
330
374
330
375
102
}
330
71
100
AcDbEntity
  8
0
  6
Continuous
 62
     2
100
AcDbLine
 10
-230.5584212970242
 20
-250.1694115646302
 30
0.0
 11
-230.5584212970242
 21
-249.4713979591879
 31
0.0
  0
LINE
  5
2B3
102
{ACAD_REACTORS
330
374
330
375
102
}
330
71
100
AcDbEntity
  8
0
  6
Continuous
 62
     2
100
AcDbLine
 10
-231.8943491234519
 20
-250.1694115646302
 30
0.0
 11
-230.5584212970242
 21
-250.1694115646302
 31
0.0
  0
LINE
  5
2B4
102
{ACAD_REACTORS
330
362
330
363
102
}
330
71
100
AcDbEntity
  8
0
  6
Continuous
 62
     2
100
AcDbLine
 10
-235.3773038137788
 20
-248.2935000000032
 30
0.0
 11
-235.3773038137788
 21
-251.3473095238144
 31
0.0
  0
LINE
  5
2B5
102
{ACAD_REACTORS
330
362
330
363
102
}
330
71
100
AcDbEntity
  8
0
  6
Continuous
 62
     2
100
AcDbLine
 10
-235.3773038137788
 20
-251.3473095238144
 30
0.0
 11
-236.5700965159452
 21
-251.3473095238144
 31
0.0
  0
LINE
  5
2B6
102
{ACAD_REACTORS
330
362
330
363
102
}
330
71
100
AcDbEntity
  8
0
  6
Continuous
 62
     2
100
AcDbLine
 10
-236.5700965159452
 20
-251.3473095238144
 30
0.0
 11
-236.5700965159452
 21
-250.2130374149706
 31
0.0
  0
LINE
  5
2B7
102
{ACAD_REACTORS
330
362
330
363
102
}
330
71
100
AcDbEntity
  8
0
  6
Continuous
 62
     2
100
AcDbLine
 10
-237.6197540938527
 20
-251.3473095238144
 30
0.0
 11
-238.8125467960193
 21
-251.3473095238144
 31
0.0
  0
LINE
  5
2B8
102
{ACAD_REACTORS
330
362
330
363
102
}
330
71
100
AcDbEntity
  8
0
  6
Continuous
 62
     2
100
AcDbLine
 10
-238.8125467960193
 20
-248.2935000000032
 30
0.0
 11
-237.6197540938527
 21
-248.2935000000032
 31
0.0
  0
LINE
  5
2B9
102
{ACAD_REACTORS
330
362
330
363
102
}
330
71
100
AcDbEntity
  8
0
  6
Continuous
 62
     2
100
AcDbLine
 10
-237.6197540938527
 20
-248.2935000000032
 30
0.0
 11
-237.6197540938527
 21
-249.3623333333378
 31
0.0
  0
LINE
  5
2BA
102
{ACAD_REACTORS
330
362
330
363
102
}
330
71
100
AcDbEntity
  8
0
  6
Continuous
 62
     2
100
AcDbLine
 10
-237.6197540938527
 20
-249.3623333333378
 30
0.0
 11
-236.5700965159452
 21
-249.3623333333378
 31
0.0
  0
LINE
  5
2BB
102
{ACAD_REACTORS
330
370
330
371
102
}
330
71
100
AcDbEntity
  8
0
  6
Continuous
 62
     2
100
AcDbLine
 10
-240.7687268275729
 20
-248.9566058454433
 30
0.0
 11
-240.451431766031
 21
-248.9566058454433
 31
0.0
  0
LINE
  5
2BC
102
{ACAD_REACTORS
330
370
330
371
102
}
330
71
100
AcDbEntity
  8
0
  6
Continuous
 62
     2
100
AcDbLine
 10
-240.7687268275729
 20
-249.6623334947855
 30
0.0
 11
-240.451431766031
 21
-249.6623334947855
 31
0.0
  0
LINE
  5
2BD
102
{ACAD_REACTORS
330
370
330
371
102
}
330
71
100
AcDbEntity
  8
0
  6
Continuous
 62
     2
100
AcDbLine
 10
-242.009231237827
 20
-248.2935000000032
 30
0.0
 11
-242.009231237827
 21
-251.3473095238144
 31
0.0
  0
LINE
  5
2BE
102
{ACAD_REACTORS
330
370
330
371
102
}
330
71
100
AcDbEntity
  8
0
  6
Continuous
 62
     2
100
AcDbLine
 10
-242.009231237827
 20
-248.2935000000032
 30
0.0
 11
-240.0099592397926
 21
-248.2935000000032
 31
0.0
  0
LINE
  5
2BF
102
{ACAD_REACTORS
330
370
330
371
102
}
330
71
100
AcDbEntity
  8
0
  6
Continuous
 62
     2
100
AcDbLine
 10
-240.7687268275729
 20
-250.4042312826706
 30
0.0
 11
-240.0099592397926
 21
-250.4042312826706
 31
0.0
  0
LINE
  5
2C0
102
{ACAD_REACTORS
330
376
330
377
102
}
330
71
100
AcDbEntity
  8
0
  6
Continuous
 62
     2
100
AcDbLine
 10
-248.1057272711237
 20
-249.321772478638
 30
0.0
 11
-248.1057272711237
 21
-253.6782275213551
 31
0.0
  0
LINE
  5
2C1
102
{ACAD_REACTORS
330
376
330
377
102
}
330
71
100
AcDbEntity
  8
0
  6
Continuous
 62
     2
100
AcDbLine
 10
-247.790010348048
 20
-249.0060555555618
 30
0.0
 11
-246.3141770870384
 21
-249.0060555555618
 31
0.0
  0
LINE
  5
2C2
102
{ACAD_REACTORS
330
376
330
377
102
}
330
71
100
AcDbEntity
  8
0
  6
Continuous
 62
     2
100
AcDbLine
 10
-245.9984601639618
 20
-249.9257970976985
 30
0.0
 11
-245.9984601639618
 21
-249.321772478638
 31
0.0
  0
LINE
  5
2C3
102
{ACAD_REACTORS
330
376
330
377
102
}
330
71
100
AcDbEntity
  8
0
  6
Continuous
 62
     2
100
AcDbLine
 10
-245.9984601639618
 20
-253.6782275213551
 30
0.0
 11
-245.9984601639618
 21
-252.1474565898235
 31
0.0
  0
LINE
  5
2C4
102
{ACAD_REACTORS
330
376
330
377
102
}
330
71
100
AcDbEntity
  8
0
  6
Continuous
 62
     2
100
AcDbLine
 10
-242.9105929340777
 20
-254.7064999999887
 30
0.0
 11
-248.3839050247945
 21
-254.7064999999887
 31
0.0
  0
LINE
  5
2C5
102
{ACAD_REACTORS
330
376
330
377
102
}
330
71
100
AcDbEntity
  8
0
  6
Continuous
 62
     2
100
AcDbLine
 10
-242.4863483186938
 20
-248.7177446154052
 30
0.0
 11
-242.4863483186938
 21
-254.2822553846054
 31
0.0
  0
LINE
  5
2C6
102
{ACAD_REACTORS
330
376
330
377
102
}
330
71
100
AcDbEntity
  8
0
  6
Continuous
 62
     2
100
AcDbLine
 10
-248.3839050247945
 20
-248.2935000000214
 30
0.0
 11
-242.9105929340777
 21
-248.2935000000214
 31
0.0
  0
LINE
  5
2C7
102
{ACAD_REACTORS
330
376
330
377
102
}
330
71
100
AcDbEntity
  8
0
  6
Continuous
 62
     2
100
AcDbLine
 10
-248.8081496401773
 20
-248.7177446154052
 30
0.0
 11
-248.8081496401773
 21
-254.2822553846054
 31
0.0
  0
LINE
  5
2C8
102
{ACAD_REACTORS
330
376
330
377
102
}
330
71
100
AcDbEntity
  8
0
  6
Continuous
 62
     2
100
AcDbLine
 10
-246.3141770870384
 20
-253.9939444444318
 30
0.0
 11
-247.790010348048
 21
-253.9939444444318
 31
0.0
  0
LINE
  5
2C9
102
{ACAD_REACTORS
330
370
330
371
102
}
330
71
100
AcDbEntity
  8
0
  6
Continuous
 62
     2
100
AcDbLine
 10
-240.7687268275729
 20
-251.3473095238144
 30
0.0
 11
-240.7687268275729
 21
-250.4042312826706
 31
0.0
  0
LINE
  5
2CA
102
{ACAD_REACTORS
330
370
330
371
102
}
330
71
100
AcDbEntity
  8
0
  6
Continuous
 62
     2
100
AcDbLine
 10
-242.009231237827
 20
-251.3473095238144
 30
0.0
 11
-240.7687268275729
 21
-251.3473095238144
 31
0.0
  0
LINE
  5
2CB
102
{ACAD_REACTORS
330
370
330
371
102
}
330
71
100
AcDbEntity
  8
0
  6
Continuous
 62
     2
100
AcDbLine
 10
-240.7687268275729
 20
-249.6623334947855
 30
0.0
 11
-240.7687268275729
 21
-248.9566058454433
 31
0.0
  0
LINE
  5
2CC
102
{ACAD_REACTORS
330
362
330
363
102
}
330
71
100
AcDbEntity
  8
0
  6
Continuous
 62
     2
100
AcDbLine
 10
-238.8125467960193
 20
-248.2935000000032
 30
0.0
 11
-238.8125467960193
 21
-251.3473095238144
 31
0.0
  0
LINE
  5
2CD
102
{ACAD_REACTORS
330
362
330
363
102
}
330
71
100
AcDbEntity
  8
0
  6
Continuous
 62
     2
100
AcDbLine
 10
-237.6197540938527
 20
-250.2130374149706
 30
0.0
 11
-237.6197540938527
 21
-251.3473095238144
 31
0.0
  0
LINE
  5
2CE
102
{ACAD_REACTORS
330
362
330
363
102
}
330
71
100
AcDbEntity
  8
0
  6
Continuous
 62
     2
100
AcDbLine
 10
-236.5700965159452
 20
-250.2130374149706
 30
0.0
 11
-237.6197540938527
 21
-250.2130374149706
 31
0.0
  0
LINE
  5
2CF
102
{ACAD_REACTORS
330
362
330
363
102
}
330
71
100
AcDbEntity
  8
0
  6
Continuous
 62
     2
100
AcDbLine
 10
-236.5700965159452
 20
-248.2935000000032
 30
0.0
 11
-235.3773038137788
 21
-248.2935000000032
 31
0.0
  0
LINE
  5
2D0
102
{ACAD_REACTORS
330
362
330
363
102
}
330
71
100
AcDbEntity
  8
0
  6
Continuous
 62
     2
100
AcDbLine
 10
-236.5700965159452
 20
-249.3623333333378
 30
0.0
 11
-236.5700965159452
 21
-248.2935000000032
 31
0.0
  0
LINE
  5
2D1
102
{ACAD_REACTORS
330
374
330
375
102
}
330
71
100
AcDbEntity
  8
0
  6
Continuous
 62
     2
100
AcDbLine
 10
-230.5584212970242
 20
-248.9915136054462
 30
0.0
 11
-230.5584212970242
 21
-248.2935000000032
 31
0.0
  0
LINE
  5
2D2
102
{ACAD_REACTORS
330
374
330
375
102
}
330
71
100
AcDbEntity
  8
0
  6
Continuous
 62
     2
100
AcDbLine
 10
-233.7087410208052
 20
-248.2935000000032
 30
0.0
 11
-230.5584212970242
 21
-248.2935000000032
 31
0.0
  0
LINE
  5
2D3
102
{ACAD_REACTORS
330
374
330
375
102
}
330
71
100
AcDbEntity
  8
0
  6
Continuous
 62
     2
100
AcDbLine
 10
-233.7087410208052
 20
-251.3473095238144
 30
0.0
 11
-230.5584212970242
 21
-251.3473095238144
 31
0.0
  0
LINE
  5
2D4
102
{ACAD_REACTORS
330
374
330
375
102
}
330
71
100
AcDbEntity
  8
0
  6
Continuous
 62
     2
100
AcDbLine
 10
-230.5584212970242
 20
-251.3473095238144
 30
0.0
 11
-230.5584212970242
 21
-250.6492959183719
 31
0.0
  0
LINE
  5
2D5
102
{ACAD_REACTORS
330
374
330
375
102
}
330
71
100
AcDbEntity
  8
0
  6
Continuous
 62
     2
100
AcDbLine
 10
-230.5584212970242
 20
-250.6492959183719
 30
0.0
 11
-231.8943491234519
 21
-250.6492959183719
 31
0.0
  0
LINE
  5
2D6
102
{ACAD_REACTORS
330
374
330
375
102
}
330
71
100
AcDbEntity
  8
0
  6
Continuous
 62
     2
100
AcDbLine
 10
-231.8943491234519
 20
-250.6492959183719
 30
0.0
 11
-231.8943491234519
 21
-250.1694115646302
 31
0.0
  0
LINE
  5
2D7
102
{ACAD_REACTORS
330
374
330
375
102
}
330
71
100
AcDbEntity
  8
0
  6
Continuous
 62
     2
100
AcDbLine
 10
-231.8943491234519
 20
-248.9915136054462
 30
0.0
 11
-230.5584212970242
 21
-248.9915136054462
 31
0.0
  0
LINE
  5
2D8
102
{ACAD_REACTORS
330
364
330
365
102
}
330
71
100
AcDbEntity
  8
0
  6
Continuous
 62
     2
100
AcDbLine
 10
-234.3755088748434
 20
-254.7064999999887
 30
0.0
 11
-234.3755088748434
 21
-253.3977244897841
 31
0.0
  0
LINE
  5
2D9
102
{ACAD_REACTORS
330
364
330
365
102
}
330
71
100
AcDbEntity
  8
0
  6
Continuous
 62
     2
100
AcDbLine
 10
-234.3755088748434
 20
-253.3977244897841
 30
0.0
 11
-233.1350044645905
 21
-254.7064999999887
 31
0.0
  0
LINE
  5
2DA
102
{ACAD_REACTORS
330
364
330
365
102
}
330
71
100
AcDbEntity
  8
0
  6
Continuous
 62
     2
100
AcDbLine
 10
-231.9422117624241
 20
-254.7064999999887
 30
0.0
 11
-231.9422117624241
 21
-251.6526904761776
 31
0.0
  0
LINE
  5
2DB
102
{ACAD_REACTORS
330
364
330
365
102
}
330
71
100
AcDbEntity
  8
0
  6
Continuous
 62
     2
100
AcDbLine
 10
-231.9422117624241
 20
-251.6526904761776
 30
0.0
 11
-233.1350044645905
 21
-251.6526904761776
 31
0.0
  0
LINE
  5
2DC
102
{ACAD_REACTORS
330
364
330
365
102
}
330
71
100
AcDbEntity
  8
0
  6
Continuous
 62
     2
100
AcDbLine
 10
-233.1350044645905
 20
-251.6526904761776
 30
0.0
 11
-233.1350044645905
 21
-252.9614659863827
 31
0.0
  0
LINE
  5
2DD
102
{ACAD_REACTORS
330
364
330
365
102
}
330
71
100
AcDbEntity
  8
0
  6
Continuous
 62
     2
100
AcDbLine
 10
-233.1350044645905
 20
-252.9614659863827
 30
0.0
 11
-234.3755088748434
 21
-251.6526904761776
 31
0.0
  0
LINE
  5
2DE
102
{ACAD_REACTORS
330
366
330
367
102
}
330
71
100
AcDbEntity
  8
0
  6
Continuous
 62
     2
100
AcDbLine
 10
-229.1270700544248
 20
-250.0385340136097
 30
0.0
 11
-227.8865656441708
 21
-251.3473095238144
 31
0.0
  0
LINE
  5
2DF
102
{ACAD_REACTORS
330
366
330
367
102
}
330
71
100
AcDbEntity
  8
0
  6
Continuous
 62
     2
100
AcDbLine
 10
-227.8865656441708
 20
-251.3473095238144
 30
0.0
 11
-226.6937729420042
 21
-251.3473095238144
 31
0.0
  0
LINE
  5
2E0
102
{ACAD_REACTORS
330
366
330
367
102
}
330
71
100
AcDbEntity
  8
0
  6
Continuous
 62
     2
100
AcDbLine
 10
-226.6937729420042
 20
-251.3473095238144
 30
0.0
 11
-226.6937729420042
 21
-248.2935000000032
 31
0.0
  0
LINE
  5
2E1
102
{ACAD_REACTORS
330
366
330
367
102
}
330
71
100
AcDbEntity
  8
0
  6
Continuous
 62
     2
100
AcDbLine
 10
-226.6937729420042
 20
-248.2935000000032
 30
0.0
 11
-227.8865656441708
 21
-248.2935000000032
 31
0.0
  0
LINE
  5
2E2
102
{ACAD_REACTORS
330
366
330
367
102
}
330
71
100
AcDbEntity
  8
0
  6
Continuous
 62
     2
100
AcDbLine
 10
-227.8865656441708
 20
-249.6022755102084
 30
0.0
 11
-229.1270700544248
 21
-248.2935000000032
 31
0.0
  0
LINE
  5
2E3
102
{ACAD_REACTORS
330
366
330
367
102
}
330
71
100
AcDbEntity
  8
0
  6
Continuous
 62
     2
100
AcDbLine
 10
-230.3198627565913
 20
-251.3473095238144
 30
0.0
 11
-229.1270700544248
 21
-251.3473095238144
 31
0.0
  0
LINE
  5
2E4
102
{ACAD_REACTORS
330
368
330
369
102
}
330
71
100
AcDbEntity
  8
0
  6
Continuous
 62
     2
100
AcDbLine
 10
-231.7990766381639
 20
-251.6526904761776
 30
0.0
 11
-231.7990766381639
 21
-252.4379557823012
 31
0.0
  0
LINE
  5
2E5
102
{ACAD_REACTORS
330
368
330
369
102
}
330
71
100
AcDbEntity
  8
0
  6
Continuous
 62
     2
100
AcDbLine
 10
-230.9879776006893
 20
-252.4379557823012
 30
0.0
 11
-230.9879776006893
 21
-254.7064999999887
 31
0.0
  0
LINE
  5
2E6
102
{ACAD_REACTORS
330
368
330
369
102
}
330
71
100
AcDbEntity
  8
0
  6
Continuous
 62
     2
100
AcDbLine
 10
-230.9879776006893
 20
-254.7064999999887
 30
0.0
 11
-229.7951848985228
 21
-254.7064999999887
 31
0.0
  0
LINE
  5
2E7
102
{ACAD_REACTORS
330
36A
330
36B
102
}
330
71
100
AcDbEntity
  8
0
  6
Continuous
 62
     2
100
AcDbLine
 10
-226.8456584051033
 20
-254.7064999999887
 30
0.0
 11
-227.0571384585791
 21
-254.1655394557708
 31
0.0
  0
LINE
  5
2E8
102
{ACAD_REACTORS
330
36A
330
36B
102
}
330
71
100
AcDbEntity
  8
0
  6
Continuous
 62
     2
100
AcDbLine
 10
-227.0031070417897
 20
-251.6526904761776
 30
0.0
 11
-225.6051539948494
 21
-254.7064999999887
 31
0.0
  0
LINE
  5
2E9
102
{ACAD_REACTORS
330
36A
330
36B
102
}
330
71
100
AcDbEntity
  8
0
  6
Continuous
 62
     2
100
AcDbLine
 10
-228.2436114520424
 20
-251.6526904761776
 30
0.0
 11
-227.0031070417897
 21
-251.6526904761776
 31
0.0
  0
LINE
  5
2EA
102
{ACAD_REACTORS
330
36A
330
36B
102
}
330
71
100
AcDbEntity
  8
0
  6
Continuous
 62
     2
100
AcDbLine
 10
-229.6415644989817
 20
-254.7064999999887
 30
0.0
 11
-228.4010600887287
 21
-254.7064999999887
 31
0.0
  0
LINE
  5
2EB
102
{ACAD_REACTORS
330
36A
330
36B
102
}
330
71
100
AcDbEntity
  8
0
  6
Continuous
 62
     2
100
AcDbLine
 10
-227.9235244841079
 20
-253.4849761904642
 30
0.0
 11
-227.3231940097254
 21
-253.4849761904642
 31
0.0
  0
LINE
  5
2EC
102
{ACAD_REACTORS
330
36A
330
36B
102
}
330
71
100
AcDbEntity
  8
0
  6
Continuous
 62
     2
100
AcDbLine
 10
-227.3231940097254
 20
-253.4849761904642
 30
0.0
 11
-227.6233592469155
 21
-252.7171612244775
 31
0.0
  0
LINE
  5
2ED
102
{ACAD_REACTORS
330
36C
330
36D
102
}
330
71
100
AcDbEntity
  8
0
  6
Continuous
 62
     2
100
AcDbLine
 10
-225.2147099913174
 20
-251.3473095238144
 30
0.0
 11
-226.4552144015703
 21
-251.3473095238144
 31
0.0
  0
LINE
  5
2EE
102
{ACAD_REACTORS
330
36E
330
36F
102
}
330
71
100
AcDbEntity
  8
0
  6
Continuous
 62
     2
100
AcDbLine
 10
-223.6927065033523
 20
-251.3473095238144
 30
0.0
 11
-225.0954307211005
 21
-251.3473095238144
 31
0.0
  0
LINE
  5
2EF
102
{ACAD_REACTORS
330
36E
330
36F
102
}
330
71
100
AcDbEntity
  8
0
  6
Continuous
 62
     2
100
AcDbLine
 10
-223.6927065033523
 20
-251.3473095238144
 30
0.0
 11
-222.9961155652866
 21
-250.5595777385207
 31
0.0
  0
LINE
  5
2F0
102
{ACAD_REACTORS
330
36E
330
36F
102
}
330
71
100
AcDbEntity
  8
0
  6
Continuous
 62
     2
100
AcDbLine
 10
-222.3949480433938
 20
-248.2935000000032
 30
0.0
 11
-220.9922238256466
 21
-248.2935000000032
 31
0.0
  0
LINE
  5
2F1
102
{ACAD_REACTORS
330
36E
330
36F
102
}
330
71
100
AcDbEntity
  8
0
  6
Continuous
 62
     2
100
AcDbLine
 10
-225.0000073049277
 20
-248.2935000000032
 30
0.0
 11
-223.6974776741602
 21
-249.7664505300394
 31
0.0
  0
LINE
  5
2F2
102
{ACAD_REACTORS
330
36E
330
36F
102
}
330
71
100
AcDbEntity
  8
0
  6
Continuous
 62
     2
100
AcDbLine
 10
-225.0954307211005
 20
-251.3473095238144
 30
0.0
 11
-223.6974776741602
 21
-249.7664505300394
 31
0.0
  0
LINE
  5
2F3
102
{ACAD_REACTORS
330
378
330
379
102
}
330
71
100
AcDbEntity
  8
0
  6
Continuous
 62
     2
100
AcDbLine
 10
-223.2346741057206
 20
-253.6594795918251
 30
0.0
 11
-223.2346741057206
 21
-254.5319965986284
 31
0.0
  0
LINE
  5
2F4
102
{ACAD_REACTORS
330
378
330
379
102
}
330
71
100
AcDbEntity
  8
0
  6
Continuous
 62
     2
100
AcDbLine
 10
-224.004331448682
 20
-252.4379557823012
 30
0.0
 11
-222.9006921491139
 21
-252.4379557823012
 31
0.0
  0
LINE
  5
2F5
102
{ACAD_REACTORS
330
37A
330
37B
102
}
330
71
100
AcDbEntity
  8
0
  6
Continuous
 62
     2
100
AcDbLine
 10
-239.3373755849725
 20
-253.6594795918246
 30
0.0
 11
-239.3373755849725
 21
-254.5319965986278
 31
0.0
  0
LINE
  5
2F6
102
{ACAD_REACTORS
330
37A
330
37B
102
}
330
71
100
AcDbEntity
  8
0
  6
Continuous
 62
     2
100
AcDbLine
 10
-239.3373755849725
 20
-252.6997108843417
 30
0.0
 11
-239.3373755849725
 21
-251.8271938775384
 31
0.0
  0
LINE
  5
2F7
330
71
100
AcDbEntity
  8
1
  6
Continuous
 62
     7
100
AcDbLine
 10
-123.4999999999886
 20
-253.500000000005
 30
0.0
 11
-216.64480452674
 21
-253.500000000005
 31
0.0
  0
LINE
  5
2F8
330
71
100
AcDbEntity
  8
1
  6
Continuous
 62
     6
100
AcDbLine
 10
-322.0448045267399
 20
-262.000000000005
 30
0.0
 11
-366.9999999999899
 21
-262.000000000005
 31
0.0
  0
LINE
  5
2F9
330
71
100
AcDbEntity
  8
1
  6
Continuous
 62
     7
100
AcDbLine
 10
-132.4184082816674
 20
-236.500000000005
 30
0.0
 11
-132.4184082816674
 21
-245.000000000005
 31
0.0
  0
LINE
  5
2FA
330
71
100
AcDbEntity
  8
1
  6
Continuous
 62
     7
100
AcDbLine
 10
-158.918408281667
 20
-236.500000000005
 30
0.0
 11
-158.918408281667
 21
-245.000000000005
 31
0.0
  0
LINE
  5
2FB
330
71
100
AcDbEntity
  8
1
  6
Continuous
 62
     7
100
AcDbLine
 10
-216.64480452674
 20
-245.000000000005
 30
0.0
 11
-216.64480452674
 21
-236.500000000005
 31
0.0
  0
LINE
  5
2FC
330
71
100
AcDbEntity
  8
1
  6
Continuous
 62
     7
100
AcDbLine
 10
-253.0448045267399
 20
-245.000000000005
 30
0.0
 11
-253.0448045267399
 21
-236.500000000005
 31
0.0
  0
LINE
  5
2FD
330
71
100
AcDbEntity
  8
1
  6
Continuous
 62
     6
100
AcDbLine
 10
-216.64480452674
 20
-245.000000000005
 30
0.0
 11
-123.4999999999882
 21
-245.000000000005
 31
0.0
  0
LINE
  5
2FE
330
71
100
AcDbEntity
  8
1
  6
Continuous
 62
     7
100
AcDbLine
 10
-188.7448045267399
 20
-253.5000000000051
 30
0.0
 11
-188.7448045267399
 21
-245.000000000005
 31
0.0
  0
LINE
  5
2FF
330
71
100
AcDbEntity
  8
1
  6
PHANTOM
 62
     2
100
AcDbLine
 10
-237.5581496401773
 20
-240.8750000000051
 30
0.0
 11
-243.0581496401773
 21
-240.8750000000051
 31
0.0
  0
LINE
  5
300
330
71
100
AcDbEntity
  8
1
  6
PHANTOM
 62
     2
100
AcDbLine
 10
-240.3081496401773
 20
-238.1250000000051
 30
0.0
 11
-240.3081496401773
 21
-243.6250000000051
 31
0.0
  0
LINE
  5
301
330
71
100
AcDbEntity
  8
1
  6
DOT_CENTER
 62
     2
100
AcDbLine
 10
-249.0581496401773
 20
-240.8750000000051
 30
0.0
 11
-243.5581496401773
 21
-240.8750000000051
 31
0.0
  0
ARC
  5
302
102
{ACAD_REACTORS
330
37A
330
37B
102
}
330
71
100
AcDbEntity
  8
0
  6
Continuous
 62
     2
100
AcDbCircle
 10
-240.6733035020903
 20
-256.4922761833393
 30
0.0
 40
4.852596863498068
100
AcDbArc
 50
74.02000874164739
 51
84.84185523037506
  0
ARC
  5
303
102
{ACAD_REACTORS
330
37A
330
37B
102
}
330
71
100
AcDbEntity
  8
0
  6
Continuous
 62
     2
100
AcDbCircle
 10
-240.0972628933366
 20
-253.336515827455
 30
0.0
 40
0.9059297849853228
100
AcDbArc
 50
71.55192388185348
 51
113.372277888129
  0
ARC
  5
304
102
{ACAD_REACTORS
330
37A
330
37B
102
}
330
71
100
AcDbEntity
  8
0
  6
Continuous
 62
     2
100
AcDbCircle
 10
-240.2537029260386
 20
-253.3846666674219
 30
0.0
 40
0.5115800601948034
100
AcDbArc
 50
208.5214732576956
 51
246.6277221118274
  0
ARC
  5
305
102
{ACAD_REACTORS
330
37A
330
37B
102
}
330
71
100
AcDbEntity
  8
0
  6
Continuous
 62
     2
100
AcDbCircle
 10
-240.0972628933366
 20
-253.0226746487119
 30
0.0
 40
0.9059297849849192
100
AcDbArc
 50
246.627722111871
 51
288.4480761181584
  0
ARC
  5
306
102
{ACAD_REACTORS
330
37A
330
37B
102
}
330
71
100
AcDbEntity
  8
0
  6
Continuous
 62
     2
100
AcDbCircle
 10
-240.5154306269974
 20
-251.7691288726747
 30
0.0
 40
2.227384008972737
100
AcDbArc
 50
288.4480761181328
 51
301.9309089499593
  0
ARC
  5
307
102
{ACAD_REACTORS
330
376
330
377
102
}
330
71
100
AcDbEntity
  8
0
  6
Continuous
 62
     2
100
AcDbCircle
 10
-245.7405043596042
 20
-251.0366268437607
 30
0.0
 40
0.911848150144459
100
AcDbArc
 50
295.3740086781764
 51
64.62599132180748
  0
ARC
  5
308
102
{ACAD_REACTORS
330
376
330
377
102
}
330
71
100
AcDbEntity
  8
0
  6
Continuous
 62
     2
100
AcDbCircle
 10
-245.2144616615163
 20
-249.3219499552861
 30
0.0
 40
0.3157169230760711
100
AcDbArc
 50
90.18896704254594
 51
180.0
  0
ARC
  5
309
102
{ACAD_REACTORS
330
378
330
379
102
}
330
71
100
AcDbEntity
  8
0
  6
Continuous
 62
     2
100
AcDbCircle
 10
-224.004331448682
 20
-253.3924787891273
 30
0.0
 40
0.9545230068260935
100
AcDbArc
 50
90.0
 51
109.337143219432
  0
ARC
  5
30A
102
{ACAD_REACTORS
330
378
330
379
102
}
330
71
100
AcDbEntity
  8
0
  6
Continuous
 62
     2
100
AcDbCircle
 10
-223.7736441887043
 20
-253.1795952380834
 30
0.0
 40
0.9410597353348924
100
AcDbArc
 50
151.4785267423624
 51
208.5214732576695
  0
ARC
  5
30B
102
{ACAD_REACTORS
330
378
330
379
102
}
330
71
100
AcDbEntity
  8
0
  6
Continuous
 62
     2
100
AcDbCircle
 10
-223.9945614140826
 20
-253.0226746487119
 30
0.0
 40
0.9059297849852801
100
AcDbArc
 50
246.6277221118183
 51
288.4480761180817
  0
ARC
  5
30C
102
{ACAD_REACTORS
330
378
330
379
102
}
330
71
100
AcDbEntity
  8
0
  6
Continuous
 62
     2
100
AcDbCircle
 10
-224.4127291477445
 20
-251.7691288726753
 30
0.0
 40
2.227384008972746
100
AcDbArc
 50
288.4480761181335
 51
301.9309089499397
  0
ARC
  5
30D
102
{ACAD_REACTORS
330
378
330
379
102
}
330
71
100
AcDbEntity
  8
0
  6
Continuous
 62
     2
100
AcDbCircle
 10
-224.5706020228373
 20
-249.866914292827
 30
0.0
 40
4.852596863498825
100
AcDbArc
 50
275.1581447696364
 51
285.9799912583387
  0
ARC
  5
30E
102
{ACAD_REACTORS
330
378
330
379
102
}
330
71
100
AcDbEntity
  8
0
  6
Continuous
 62
     2
100
AcDbCircle
 10
-224.2817459281015
 20
-253.0668048760486
 30
0.0
 40
1.639695123940448
100
AcDbArc
 50
195.0618917771012
 51
275.1581447696762
  0
ARC
  5
30F
102
{ACAD_REACTORS
330
370
330
371
102
}
330
71
100
AcDbEntity
  8
0
  6
Continuous
 62
     2
100
AcDbCircle
 10
-240.0099592397926
 20
-249.3488656413369
 30
0.0
 40
1.055365641333708
100
AcDbArc
 50
270.0
 51
90.0
  0
ARC
  5
310
102
{ACAD_REACTORS
330
376
330
377
102
}
330
71
100
AcDbEntity
  8
0
  6
Continuous
 62
     2
100
AcDbCircle
 10
-247.790010348048
 20
-253.6782275213551
 30
0.0
 40
0.3157169230756836
100
AcDbArc
 50
180.0
 51
270.0
  0
ARC
  5
311
102
{ACAD_REACTORS
330
376
330
377
102
}
330
71
100
AcDbEntity
  8
0
  6
Continuous
 62
     2
100
AcDbCircle
 10
-246.3141770870384
 20
-249.321772478638
 30
0.0
 40
0.315716923076593
100
AcDbArc
 50
0.0
 51
90.0
  0
ARC
  5
312
102
{ACAD_REACTORS
330
376
330
377
102
}
330
71
100
AcDbEntity
  8
0
  6
Continuous
 62
     2
100
AcDbCircle
 10
-246.3141770870384
 20
-249.9257970976985
 30
0.0
 40
0.3157169230761203
100
AcDbArc
 50
295.1944106485397
 51
0.0
  0
ARC
  5
313
102
{ACAD_REACTORS
330
376
330
377
102
}
330
71
100
AcDbEntity
  8
0
  6
Continuous
 62
     2
100
AcDbCircle
 10
-246.3141770870384
 20
-253.6782275213551
 30
0.0
 40
0.3157169230767067
100
AcDbArc
 50
270.0
 51
0.0
  0
ARC
  5
314
102
{ACAD_REACTORS
330
376
330
377
102
}
330
71
100
AcDbEntity
  8
0
  6
Continuous
 62
     2
100
AcDbCircle
 10
-248.3839050247945
 20
-248.7177446154052
 30
0.0
 40
0.4242446153837989
100
AcDbArc
 50
90.0
 51
180.0
  0
ARC
  5
315
102
{ACAD_REACTORS
330
376
330
377
102
}
330
71
100
AcDbEntity
  8
0
  6
Continuous
 62
     2
100
AcDbCircle
 10
-242.9105929340777
 20
-248.7177446154052
 30
0.0
 40
0.4242446153838841
100
AcDbArc
 50
0.0
 51
90.0
  0
ARC
  5
316
102
{ACAD_REACTORS
330
376
330
377
102
}
330
71
100
AcDbEntity
  8
0
  6
Continuous
 62
     2
100
AcDbCircle
 10
-242.9105929340777
 20
-254.2822553846054
 30
0.0
 40
0.4242446153832873
100
AcDbArc
 50
270.0
 51
0.0
  0
ARC
  5
317
102
{ACAD_REACTORS
330
374
330
375
102
}
330
71
100
AcDbEntity
  8
0
  6
Continuous
 62
     2
100
AcDbCircle
 10
-233.6922090469862
 20
-249.8204047619091
 30
0.0
 40
0.7717997786796373
100
AcDbArc
 50
321.8795802028437
 51
38.12041979715956
  0
ARC
  5
318
102
{ACAD_REACTORS
330
374
330
375
102
}
330
71
100
AcDbEntity
  8
0
  6
Continuous
 62
     2
100
AcDbCircle
 10
-233.49246901064
 20
-249.9771359400295
 30
0.0
 40
0.5179085730134372
100
AcDbArc
 50
218.1204197971511
 51
321.8795802028566
  0
ARC
  5
319
102
{ACAD_REACTORS
330
372
330
373
102
}
330
71
100
AcDbEntity
  8
0
  6
Continuous
 62
     2
100
AcDbCircle
 10
-237.1724765996002
 20
-253.1795952380834
 30
0.0
 40
1.458034083652003
100
AcDbArc
 50
297.548148175701
 51
62.45185182429896
  0
ARC
  5
31A
102
{ACAD_REACTORS
330
372
330
373
102
}
330
71
100
AcDbEntity
  8
0
  6
Continuous
 62
     2
100
AcDbCircle
 10
-237.7343563832668
 20
-253.1795952380834
 30
0.0
 40
1.45803408365149
100
AcDbArc
 50
117.5481481756624
 51
242.4518518243375
  0
ARC
  5
31B
102
{ACAD_REACTORS
330
372
330
373
102
}
330
71
100
AcDbEntity
  8
0
  6
Continuous
 62
     2
100
AcDbCircle
 10
-237.4534164914335
 20
-253.7181702483862
 30
0.0
 40
2.065479772208568
100
AcDbArc
 50
62.45185182430637
 51
117.5481481756664
  0
ARC
  5
31C
102
{ACAD_REACTORS
330
372
330
373
102
}
330
71
100
AcDbEntity
  8
0
  6
Continuous
 62
     2
100
AcDbCircle
 10
-237.4534164914335
 20
-252.6410202277801
 30
0.0
 40
2.065479772208509
100
AcDbArc
 50
242.4518518243402
 51
297.5481481756871
  0
ARC
  5
31D
102
{ACAD_REACTORS
330
374
330
375
102
}
330
71
100
AcDbEntity
  8
0
  6
Continuous
 62
     2
100
AcDbCircle
 10
-233.2927289742937
 20
-249.8204047619091
 30
0.0
 40
0.7717997786796724
100
AcDbArc
 50
141.8795802028404
 51
218.1204197971562
  0
ARC
  5
31E
102
{ACAD_REACTORS
330
374
330
375
102
}
330
71
100
AcDbEntity
  8
0
  6
Continuous
 62
     2
100
AcDbCircle
 10
-233.49246901064
 20
-249.6636735837886
 30
0.0
 40
0.5179085730135266
100
AcDbArc
 50
38.12041979714334
 51
141.8795802028489
  0
ARC
  5
31F
102
{ACAD_REACTORS
330
376
330
377
102
}
330
71
100
AcDbEntity
  8
0
  6
Continuous
 62
     2
100
AcDbCircle
 10
-248.3839050247945
 20
-254.2822553846054
 30
0.0
 40
0.4242446153828041
100
AcDbArc
 50
180.0
 51
270.0
  0
ARC
  5
320
102
{ACAD_REACTORS
330
376
330
377
102
}
330
71
100
AcDbEntity
  8
0
  6
Continuous
 62
     2
100
AcDbCircle
 10
-246.3141770870384
 20
-252.1474565898235
 30
0.0
 40
0.315716923076593
100
AcDbArc
 50
0.0
 51
64.80558935146027
  0
ARC
  5
321
102
{ACAD_REACTORS
330
376
330
377
102
}
330
71
100
AcDbEntity
  8
0
  6
Continuous
 62
     2
100
AcDbCircle
 10
-245.7915926394634
 20
-251.0366268437607
 30
0.0
 40
0.9118975235576147
100
AcDbArc
 50
115.1944106485282
 51
244.8055893514878
  0
ARC
  5
322
102
{ACAD_REACTORS
330
376
330
377
102
}
330
71
100
AcDbEntity
  8
0
  6
Continuous
 62
     2
100
AcDbCircle
 10
-247.790010348048
 20
-249.321772478638
 30
0.0
 40
0.3157169230761951
100
AcDbArc
 50
90.0
 51
180.0
  0
ARC
  5
323
102
{ACAD_REACTORS
330
370
330
371
102
}
330
71
100
AcDbEntity
  8
0
  6
Continuous
 62
     2
100
AcDbCircle
 10
-240.451431766031
 20
-249.3094696701144
 30
0.0
 40
0.3528638246711182
100
AcDbArc
 50
270.0
 51
90.0
  0
ARC
  5
324
102
{ACAD_REACTORS
330
374
330
375
102
}
330
71
100
AcDbEntity
  8
0
  6
Continuous
 62
     2
100
AcDbCircle
 10
-233.7087410208052
 20
-249.8204047619091
 30
0.0
 40
1.526904761905882
100
AcDbArc
 50
90.0
 51
270.0
  0
ARC
  5
325
102
{ACAD_REACTORS
330
378
330
379
102
}
330
71
100
AcDbEntity
  8
0
  6
Continuous
 62
     2
100
AcDbCircle
 10
-224.2817459281015
 20
-253.2923856001183
 30
0.0
 40
1.639695123940214
100
AcDbArc
 50
90.0
 51
164.938108222895
  0
ARC
  5
326
102
{ACAD_REACTORS
330
378
330
379
102
}
330
71
100
AcDbEntity
  8
0
  6
Continuous
 62
     2
100
AcDbCircle
 10
-224.7008737715631
 20
-253.1795952380834
 30
0.0
 40
1.205656168393002
100
AcDbArc
 50
164.9381082229028
 51
195.0618917770959
  0
ARC
  5
327
102
{ACAD_REACTORS
330
378
330
379
102
}
330
71
100
AcDbEntity
  8
0
  6
Continuous
 62
     2
100
AcDbCircle
 10
-224.1510014467857
 20
-253.3846666674219
 30
0.0
 40
0.5115800601960215
100
AcDbArc
 50
208.5214732576866
 51
246.6277221118449
  0
ARC
  5
328
102
{ACAD_REACTORS
330
378
330
379
102
}
330
71
100
AcDbEntity
  8
0
  6
Continuous
 62
     2
100
AcDbCircle
 10
-224.1510014467857
 20
-252.9745238087444
 30
0.0
 40
0.5115800601944143
100
AcDbArc
 50
109.3371432194853
 51
151.4785267424225
  0
ARC
  5
329
102
{ACAD_REACTORS
330
376
330
377
102
}
330
71
100
AcDbEntity
  8
0
  6
Continuous
 62
     2
100
AcDbCircle
 10
-245.2144616615163
 20
-252.7276198504242
 30
0.0
 40
0.315716923076792
100
AcDbArc
 50
180.0
 51
269.8110329574542
  0
ARC
  5
32A
102
{ACAD_REACTORS
330
376
330
377
102
}
330
71
100
AcDbEntity
  8
0
  6
Continuous
 62
     2
100
AcDbCircle
 10
-245.2088455262063
 20
-251.0247849028552
 30
0.0
 40
2.018561131933266
100
AcDbArc
 50
269.8110329575858
 51
90.18896704241416
  0
ARC
  5
32B
102
{ACAD_REACTORS
330
376
330
377
102
}
330
71
100
AcDbEntity
  8
0
  6
Continuous
 62
     2
100
AcDbCircle
 10
-245.2144616615163
 20
-249.9274852437929
 30
0.0
 40
0.315716923076792
100
AcDbArc
 50
180.0
 51
244.6259913216482
  0
ARC
  5
32C
102
{ACAD_REACTORS
330
376
330
377
102
}
330
71
100
AcDbEntity
  8
0
  6
Continuous
 62
     2
100
AcDbCircle
 10
-245.2144616615163
 20
-252.1457684437291
 30
0.0
 40
0.3157169230765328
100
AcDbArc
 50
115.3740086783519
 51
180.0
  0
ARC
  5
32D
102
{ACAD_REACTORS
330
37A
330
37B
102
}
330
71
100
AcDbEntity
  8
0
  6
Continuous
 62
     2
100
AcDbCircle
 10
-240.3844474073544
 20
-253.2923856001183
 30
0.0
 40
1.639695123940507
100
AcDbArc
 50
84.84185523036236
 51
164.9381082228864
  0
ARC
  5
32E
102
{ACAD_REACTORS
330
37A
330
37B
102
}
330
71
100
AcDbEntity
  8
0
  6
Continuous
 62
     2
100
AcDbCircle
 10
-240.8035752508172
 20
-253.1795952380834
 30
0.0
 40
1.205656168390944
100
AcDbArc
 50
164.9381082228765
 51
195.0618917770948
  0
ARC
  5
32F
102
{ACAD_REACTORS
330
37A
330
37B
102
}
330
71
100
AcDbEntity
  8
0
  6
Continuous
 62
     2
100
AcDbCircle
 10
-240.3844474073544
 20
-253.0668048760486
 30
0.0
 40
1.639695123939387
100
AcDbArc
 50
195.0618917770896
 51
275.1581447696395
  0
ARC
  5
330
102
{ACAD_REACTORS
330
37A
330
37B
102
}
330
71
100
AcDbEntity
  8
0
  6
Continuous
 62
     2
100
AcDbCircle
 10
-240.6733035020903
 20
-249.866914292827
 30
0.0
 40
4.852596863498138
100
AcDbArc
 50
275.1581447696249
 51
285.9799912583529
  0
ARC
  5
331
102
{ACAD_REACTORS
330
37A
330
37B
102
}
330
71
100
AcDbEntity
  8
0
  6
Continuous
 62
     2
100
AcDbCircle
 10
-239.8763456679583
 20
-253.1795952380834
 30
0.0
 40
0.9410597353332545
100
AcDbArc
 50
151.4785267422669
 51
208.5214732577057
  0
ARC
  5
332
102
{ACAD_REACTORS
330
37A
330
37B
102
}
330
71
100
AcDbEntity
  8
0
  6
Continuous
 62
     2
100
AcDbCircle
 10
-240.2537029260386
 20
-252.9745238087444
 30
0.0
 40
0.5115800601948779
100
AcDbArc
 50
113.3722778881992
 51
151.4785267423044
  0
ARC
  5
333
102
{ACAD_REACTORS
330
37A
330
37B
102
}
330
71
100
AcDbEntity
  8
0
  6
Continuous
 62
     2
100
AcDbCircle
 10
-240.5154306269974
 20
-254.5900616034916
 30
0.0
 40
2.227384008973478
100
AcDbArc
 50
58.06909105004071
 51
71.55192388186722
  0
ARC
  5
334
102
{ACAD_REACTORS
330
372
330
373
102
}
330
71
100
AcDbEntity
  8
0
  6
Continuous
 62
     2
100
AcDbCircle
 10
-237.4534164914335
 20
-253.0228640599629
 30
0.0
 40
0.5179085730132998
100
AcDbArc
 50
38.12041979714704
 51
141.8795802028588
  0
ARC
  5
335
102
{ACAD_REACTORS
330
372
330
373
102
}
330
71
100
AcDbEntity
  8
0
  6
Continuous
 62
     2
100
AcDbCircle
 10
-237.2536764550874
 20
-253.1795952380834
 30
0.0
 40
0.7717997786794633
100
AcDbArc
 50
141.8795802028363
 51
218.1204197971687
  0
ARC
  5
336
102
{ACAD_REACTORS
330
372
330
373
102
}
330
71
100
AcDbEntity
  8
0
  6
Continuous
 62
     2
100
AcDbCircle
 10
-237.4534164914335
 20
-253.3363264162034
 30
0.0
 40
0.5179085730137354
100
AcDbArc
 50
218.1204197971931
 51
321.879580202801
  0
ARC
  5
337
102
{ACAD_REACTORS
330
372
330
373
102
}
330
71
100
AcDbEntity
  8
0
  6
Continuous
 62
     2
100
AcDbCircle
 10
-237.6531565277799
 20
-253.1795952380834
 30
0.0
 40
0.7717997786796947
100
AcDbArc
 50
321.8795802028417
 51
38.12041979715329
  0
CIRCLE
  5
338
330
71
100
AcDbEntity
  8
1
  6
Continuous
 62
     2
100
AcDbCircle
 10
-240.3081496401773
 20
-240.8750000000051
 30
0.0
 40
2.5
  0
CIRCLE
  5
339
330
71
100
AcDbEntity
  8
1
  6
Continuous
 62
     2
100
AcDbCircle
 10
-240.3081496401773
 20
-240.8750000000051
 30
0.0
 40
1.249999999999915
  0
CIRCLE
  5
33A
102
{ACAD_REACTORS
330
376
330
377
102
}
330
71
100
AcDbEntity
  8
0
  6
Continuous
 62
     2
100
AcDbCircle
 10
-245.764319374277
 20
-251.0366268437607
 30
0.0
 40
0.4709789327785074
  0
MTEXT
  5
33B
330
71
100
AcDbEntity
  8
1
 62
     3
100
AcDbMText
 10
-410.4949322139181
 20
-75.20869184470621
 30
0.0
 40
1.8
 41
0.0
 71
     7
 72
     1
  3
Weitergabe sowie Vervielf\U+00e4ltigung dieses Dokuments, Verwertung und \PMitteilung seines Inhalts sind verboten, soweit nicht ausdr\U+00fccklich gestattet. \PZuwiderhandlungen verpflichten zu Schadenersatz. Alle Rechte f\U+00fcr den Fall\Pder Pat
  1
ent-, Gebrauchsmuster- oder Designeintragung vorbehalten.
  7
CONVERTER_11
 73
     1
 44
0.99639855942377
  0
MTEXT
  5
33C
330
71
100
AcDbEntity
  8
1
 62
     3
100
AcDbMText
 10
-227.64182237513
 20
-75.20869184470621
 30
0.0
 40
1.8
 41
0.0
 71
     7
 72
     1
  3
Transfer or duplication of this document as well as the utilisation or\Pcommunication of its content are not permitted unless express consent\Pis granted. Violations give rise to claims for damages. All rights reserved\Pin case of patent, utility mo
  1
del or design patent registrations.
  7
CONVERTER_11
 73
     1
 44
0.99639855942377
  0
TEXT
  5
33D
330
71
100
AcDbEntity
  8
1
 62
     2
100
AcDbText
 10
-233.8448045267401
 20
-260.7590172149966
 30
0.0
 40
1.8
  1
of
 41
0.9
  7
CONVERTER_11
100
AcDbText
  0
TEXT
  5
33E
330
71
100
AcDbEntity
  8
1
 62
     2
100
AcDbText
 10
-252.0448045267399
 20
-260.7590172149967
 30
0.0
 40
1.8
  1
page
 41
0.9
  7
CONVERTER_11
100
AcDbText
  0
TEXT
  5
33F
330
71
100
AcDbEntity
  8
1
 62
     2
100
AcDbText
 10
-243.3985395563979
 20
-260.799248653807
 30
0.0
 40
1.8
  1
1
 41
0.9
  7
CONVERTER_11
100
AcDbText
  0
TEXT
  5
340
330
71
100
AcDbEntity
  8
1
 62
     2
100
AcDbText
 10
-228.6094957169264
 20
-260.7500000000051
 30
0.0
 40
1.8
  1
1
 41
0.9
  7
CONVERTER_11
100
AcDbText
  0
MTEXT
  5
342
330
71
100
AcDbEntity
  8
1
 62
     7
100
AcDbMText
 10
-170.0724022633644
 20
-258.7500000000048
 30
0.0
 40
3.0
 41
0.0
 71
     5
 72
     1
  1
MBK  3 BU
  7
CONVERTER_12
 73
     1
 44
1.20048019207683
  0
MTEXT
  5
343
330
71
100
AcDbEntity
  8
1
 62
     2
100
AcDbMText
 10
-215.64480452674
 20
-254.500000000005
 30
0.0
 40
1.8
 41
0.0
 71
     1
 72
     1
  1
description
  7
CONVERTER_11
 73
     1
 44
1.20048019207683
  0
MTEXT
  5
344
330
71
100
AcDbEntity
  8
1
 62
     3
100
AcDbMText
 10
-226.84480452674
 20
-240.875000000005
 30
0.0
 40
2.5
 41
0.0
 71
     5
 72
     1
  1
DIN A4
  7
CONVERTER_11
 73
     1
 44
1.20048019207683
  0
MTEXT
  5
345
330
71
100
AcDbEntity
  8
1
 62
     7
100
AcDbMText
 10
-412.999999999989
 20
-239.500000000005
 30
0.0
 40
3.5
 41
0.0
 71
     5
 72
     1
  1
D
  7
CONVERTER_11
 73
     1
 44
1.20048019207683
  0
MTEXT
  5
346
330
71
100
AcDbEntity
  8
1
 62
     7
100
AcDbMText
 10
-412.999999999989
 20
-187.000000000005
 30
0.0
 40
3.5
 41
0.0
 71
     5
 72
     1
  1
C
  7
CONVERTER_11
 73
     1
 44
1.20048019207683
  0
MTEXT
  5
347
330
71
100
AcDbEntity
  8
1
 62
     7
100
AcDbMText
 10
-412.999999999989
 20
-137.000000000005
 30
0.0
 40
3.5
 41
0.0
 71
     5
 72
     1
  1
B
  7
CONVERTER_11
 73
     1
 44
1.20048019207683
  0
MTEXT
  5
348
330
71
100
AcDbEntity
  8
1
 62
     7
100
AcDbMText
 10
-412.999999999989
 20
-84.500000000005
 30
0.0
 40
3.5
 41
0.0
 71
     5
 72
     1
  1
A
  7
CONVERTER_11
 73
     1
 44
1.20048019207683
  0
MTEXT
  5
349
330
71
100
AcDbEntity
  8
1
 62
     7
100
AcDbMText
 10
-142.7499999999907
 20
-264.5000000000051
 30
0.0
 40
3.5
 41
0.0
 71
     5
 72
     1
  1
6
  7
CONVERTER_11
 73
     1
 44
1.20048019207683
  0
MTEXT
  5
34A
330
71
100
AcDbEntity
  8
1
 62
     7
100
AcDbMText
 10
-191.9999999999899
 20
-264.5000000000051
 30
0.0
 40
3.5
 41
0.0
 71
     5
 72
     1
  1
5
  7
CONVERTER_11
 73
     1
 44
1.20048019207683
  0
MTEXT
  5
34B
330
71
100
AcDbEntity
  8
1
 62
     7
100
AcDbMText
 10
-241.99999999999
 20
-264.5000000000051
 30
0.0
 40
3.5
 41
0.0
 71
     5
 72
     1
  1
4
  7
CONVERTER_11
 73
     1
 44
1.20048019207683
  0
MTEXT
  5
34C
330
71
100
AcDbEntity
  8
1
 62
     7
100
AcDbMText
 10
-291.9999999999899
 20
-264.5000000000051
 30
0.0
 40
3.5
 41
0.0
 71
     5
 72
     1
  1
3
  7
CONVERTER_11
 73
     1
 44
1.20048019207683
  0
MTEXT
  5
34D
330
71
100
AcDbEntity
  8
1
 62
     7
100
AcDbMText
 10
-341.9999999999899
 20
-264.5000000000051
 30
0.0
 40
3.5
 41
0.0
 71
     5
 72
     1
  1
2
  7
CONVERTER_11
 73
     1
 44
1.20048019207683
  0
MTEXT
  5
34E
330
71
100
AcDbEntity
  8
1
 62
     7
100
AcDbMText
 10
-391.2499999999895
 20
-264.5000000000051
 30
0.0
 40
3.5
 41
0.0
 71
     5
 72
     1
  1
1
  7
CONVERTER_11
 73
     1
 44
1.20048019207683
  0
MTEXT
  5
34F
330
71
100
AcDbEntity
  8
1
 62
     7
100
AcDbMText
 10
-120.9999999999909
 20
-239.500000000005
 30
0.0
 40
3.5
 41
0.0
 71
     5
 72
     1
  1
D
  7
CONVERTER_11
 73
     1
 44
1.20048019207683
  0
MTEXT
  5
350
330
71
100
AcDbEntity
  8
1
 62
     7
100
AcDbMText
 10
-120.9999999999909
 20
-137.0000000000031
 30
0.0
 40
3.5
 41
0.0
 71
     5
 72
     1
  1
B
  7
CONVERTER_11
 73
     1
 44
1.20048019207683
  0
MTEXT
  5
351
330
71
100
AcDbEntity
  8
1
 62
     7
100
AcDbMText
 10
-120.9999999999909
 20
-84.500000000005
 30
0.0
 40
3.5
 41
0.0
 71
     5
 72
     1
  1
A
  7
CONVERTER_11
 73
     1
 44
1.20048019207683
  0
MTEXT
  5
352
330
71
100
AcDbEntity
  8
1
 62
     7
100
AcDbMText
 10
-120.9999999999909
 20
-187.0000000000031
 30
0.0
 40
3.5
 41
0.0
 71
     5
 72
     1
  1
C
  7
CONVERTER_11
 73
     1
 44
1.20048019207683
  0
MTEXT
  5
353
330
71
100
AcDbEntity
  8
1
 62
     2
100
AcDbMText
 10
-287.4828192517874
 20
-249.2500000000051
 30
0.0
 40
2.0
 41
0.0
 71
     5
 72
     1
  1
General Information\P- Simplified representation\P- Document excluded from change process\P- Linear dimensions [mm]
  7
CONVERTER_11
 73
     1
 44
1.20048019207683
  0
TEXT
  5
354
330
71
100
AcDbEntity
  8
1
 62
     7
100
AcDbText
 10
-215.1448045267402
 20
-252.2000000000051
 30
0.0
 40
2.5
  1
1413094
 41
0.81
  7
CONVERTER_12
100
AcDbText
  0
MTEXT
  5
355
330
71
100
AcDbEntity
  8
1
 62
     2
100
AcDbMText
 10
-215.5448045267399
 20
-246.000000000005
 30
0.0
 40
1.8
 41
0.0
 71
     1
 72
     1
  1
ident.-No.
  7
CONVERTER_11
 73
     1
 44
1.20048019207683
  0
MTEXT
  5
356
330
71
100
AcDbEntity
  8
1
 62
     2
100
AcDbMText
 10
-131.3184082816672
 20
-237.500000000005
 30
0.0
 40
1.8
 41
0.0
 71
     1
 72
     1
  1
scale
  7
CONVERTER_11
 73
     1
 44
1.20048019207683
  0
MTEXT
  5
358
330
71
100
AcDbEntity
  8
1
 62
     3
100
AcDbMText
 10
-127.9592041408276
 20
-243.7000000000049
 30
0.0
 40
2.5
 41
0.0
 71
     8
 72
     1
  1
2:1
  7
CONVERTER_13
 73
     1
 44
1.32052821128451
  0
TEXT
  5
359
330
71
100
AcDbEntity
  8
1
 62
     7
100
AcDbText
 10
-215.5448045267399
 20
-243.7000000000051
 30
0.0
 40
2.5
  1
01087974
 41
0.81
  7
CONVERTER_12
100
AcDbText
  0
MTEXT
  5
35B
330
71
100
AcDbEntity
  8
1
 62
     2
100
AcDbMText
 10
-215.5448045267399
 20
-237.500000000005
 30
0.0
 40
1.8
 41
0.0
 71
     1
 72
     1
  1
document-No. / RI
  7
CONVERTER_14
 73
     1
 44
1.32052821128451
  0
TEXT
  5
35C
330
71
100
AcDbEntity
  8
1
 62
     3
100
AcDbText
 10
-187.7448045267399
 20
-252.2000000000051
 30
0.0
 40
2.5
  1
 
 41
0.81
  7
CONVERTER_12
100
AcDbText
  0
MTEXT
  5
35D
330
71
100
AcDbEntity
  8
1
 62
     2
100
AcDbMText
 10
-187.7448045267399
 20
-246.0000000000051
 30
0.0
 40
1.8
 41
0.0
 71
     1
 72
     1
  1
document-type
  7
CONVERTER_11
 73
     1
 44
1.20048019207683
  0
MTEXT
  5
35E
330
71
100
AcDbEntity
  8
1
 62
     2
100
AcDbMText
 10
-157.918408281667
 20
-237.5000000000051
 30
0.0
 40
1.8
 41
0.0
 71
     1
 72
     1
  1
date
  7
CONVERTER_11
 73
     1
 44
1.32052821128451
  0
TEXT
  5
35F
330
71
100
AcDbEntity
  8
1
 62
     3
100
AcDbText
 10
-157.918408281667
 20
-243.7000000000051
 30
0.0
 40
2.5
  1
03.11.2017
 41
0.81
  7
CONVERTER_12
100
AcDbText
  0
TEXT
  5
360
330
71
100
AcDbEntity
  8
1
 62
     7
100
AcDbText
 10
-195.5148923076841
 20
-243.7000000000051
 30
0.0
 40
2.5
  1
00
 41
0.81
  7
CONVERTER_12
100
AcDbText
  0
TEXT
  5
361
330
71
100
AcDbEntity
  8
1
 62
     7
100
AcDbText
 10
-197.6712568047261
 20
-243.7000000000051
 30
0.0
 40
2.5
  1
/
 41
0.9
  7
CONVERTER_11
100
AcDbText
  0
HATCH
  5
362
330
71
100
AcDbEntity
  8
1
  6
Continuous
 62
     2
100
AcDbHatch
 10
0.0
 20
0.0
 30
0.0
210
0.0
220
0.0
230
1.0
  2
_USER
 70
     0
 71
     1
 91
        1
 92
        1
 93
       12
 72
     1
 10
-235.3773038137788
 20
-251.3473095238144
 11
-236.5700965159452
 21
-251.3473095238144
 72
     1
 10
-236.5700965159452
 20
-251.3473095238144
 11
-236.5700965159452
 21
-250.2130374149706
 72
     1
 10
-236.5700965159452
 20
-250.2130374149706
 11
-237.6197540938527
 21
-250.2130374149706
 72
     1
 10
-237.6197540938527
 20
-250.2130374149706
 11
-237.6197540938527
 21
-251.3473095238144
 72
     1
 10
-237.6197540938527
 20
-251.3473095238144
 11
-238.8125467960193
 21
-251.3473095238144
 72
     1
 10
-238.8125467960193
 20
-251.3473095238144
 11
-238.8125467960193
 21
-248.2935000000032
 72
     1
 10
-238.8125467960193
 20
-248.2935000000032
 11
-237.6197540938527
 21
-248.2935000000032
 72
     1
 10
-237.6197540938527
 20
-248.2935000000032
 11
-237.6197540938527
 21
-249.3623333333378
 72
     1
 10
-237.6197540938527
 20
-249.3623333333378
 11
-236.5700965159452
 21
-249.3623333333378
 72
     1
 10
-236.5700965159452
 20
-249.3623333333378
 11
-236.5700965159452
 21
-248.2935000000032
 72
     1
 10
-236.5700965159452
 20
-248.2935000000032
 11
-235.3773038137788
 21
-248.2935000000032
 72
     1
 10
-235.3773038137788
 20
-248.2935000000032
 11
-235.3773038137788
 21
-251.3473095238144
 97
       12
330
2CF
330
2D0
330
2BA
330
2B9
330
2B8
330
2CC
330
2B7
330
2CD
330
2CE
330
2B6
330
2B5
330
2B4
 75
     1
 76
     0
 52
45.0
 41
0.1
 77
     0
 78
     1
 53
45.0
 43
0.0
 44
0.0
 45
-0.0707106781186548
 46
0.0707106781186548
 79
     0
 98
        1
 10
0.0
 20
0.0
  0
HATCH
  5
363
330
71
100
AcDbEntity
  8
1
  6
Continuous
 62
     2
100
AcDbHatch
 10
0.0
 20
0.0
 30
0.0
210
0.0
220
0.0
230
1.0
  2
_USER
 70
     0
 71
     1
 91
        1
 92
        1
 93
       12
 72
     1
 10
-235.3773038137788
 20
-251.3473095238144
 11
-236.5700965159452
 21
-251.3473095238144
 72
     1
 10
-236.5700965159452
 20
-251.3473095238144
 11
-236.5700965159452
 21
-250.2130374149706
 72
     1
 10
-236.5700965159452
 20
-250.2130374149706
 11
-237.6197540938527
 21
-250.2130374149706
 72
     1
 10
-237.6197540938527
 20
-250.2130374149706
 11
-237.6197540938527
 21
-251.3473095238144
 72
     1
 10
-237.6197540938527
 20
-251.3473095238144
 11
-238.8125467960193
 21
-251.3473095238144
 72
     1
 10
-238.8125467960193
 20
-251.3473095238144
 11
-238.8125467960193
 21
-248.2935000000032
 72
     1
 10
-238.8125467960193
 20
-248.2935000000032
 11
-237.6197540938527
 21
-248.2935000000032
 72
     1
 10
-237.6197540938527
 20
-248.2935000000032
 11
-237.6197540938527
 21
-249.3623333333378
 72
     1
 10
-237.6197540938527
 20
-249.3623333333378
 11
-236.5700965159452
 21
-249.3623333333378
 72
     1
 10
-236.5700965159452
 20
-249.3623333333378
 11
-236.5700965159452
 21
-248.2935000000032
 72
     1
 10
-236.5700965159452
 20
-248.2935000000032
 11
-235.3773038137788
 21
-248.2935000000032
 72
     1
 10
-235.3773038137788
 20
-248.2935000000032
 11
-235.3773038137788
 21
-251.3473095238144
 97
       12
330
2CF
330
2D0
330
2BA
330
2B9
330
2B8
330
2CC
330
2B7
330
2CD
330
2CE
330
2B6
330
2B5
330
2B4
 75
     1
 76
     0
 52
45.0
 41
0.1
 77
     0
 78
     1
 53
45.0
 43
0.0
 44
0.0
 45
-0.0707106781186548
 46
0.0707106781186548
 79
     0
 98
        1
 10
0.0
 20
0.0
  0
HATCH
  5
364
330
71
100
AcDbEntity
  8
1
  6
Continuous
 62
     2
100
AcDbHatch
 10
0.0
 20
0.0
 30
0.0
210
0.0
220
0.0
230
1.0
  2
_USER
 70
     0
 71
     1
 91
        1
 92
        1
 93
       10
 72
     1
 10
-233.1350044645905
 20
-252.9614659863827
 11
-234.3755088748434
 21
-251.6526904761776
 72
     1
 10
-234.3755088748434
 20
-251.6526904761776
 11
-235.568301577011
 21
-251.6526904761776
 72
     1
 10
-235.568301577011
 20
-251.6526904761776
 11
-235.568301577011
 21
-254.7064999999887
 72
     1
 10
-235.568301577011
 20
-254.7064999999887
 11
-234.3755088748434
 21
-254.7064999999887
 72
     1
 10
-234.3755088748434
 20
-254.7064999999887
 11
-234.3755088748434
 21
-253.3977244897841
 72
     1
 10
-234.3755088748434
 20
-253.3977244897841
 11
-233.1350044645905
 21
-254.7064999999887
 72
     1
 10
-233.1350044645905
 20
-254.7064999999887
 11
-231.9422117624241
 21
-254.7064999999887
 72
     1
 10
-231.9422117624241
 20
-254.7064999999887
 11
-231.9422117624241
 21
-251.6526904761776
 72
     1
 10
-231.9422117624241
 20
-251.6526904761776
 11
-233.1350044645905
 21
-251.6526904761776
 72
     1
 10
-233.1350044645905
 20
-251.6526904761776
 11
-233.1350044645905
 21
-252.9614659863827
 97
       10
330
2DD
330
2AD
330
2AC
330
2AF
330
2D8
330
2D9
330
2AE
330
2DA
330
2DB
330
2DC
 75
     1
 76
     0
 52
45.0
 41
0.1
 77
     0
 78
     1
 53
45.0
 43
0.0
 44
0.0
 45
-0.0707106781186548
 46
0.0707106781186548
 79
     0
 98
        1
 10
0.0
 20
0.0
  0
HATCH
  5
365
330
71
100
AcDbEntity
  8
1
  6
Continuous
 62
     2
100
AcDbHatch
 10
0.0
 20
0.0
 30
0.0
210
0.0
220
0.0
230
1.0
  2
_USER
 70
     0
 71
     1
 91
        1
 92
        1
 93
       10
 72
     1
 10
-233.1350044645905
 20
-252.9614659863827
 11
-234.3755088748434
 21
-251.6526904761776
 72
     1
 10
-234.3755088748434
 20
-251.6526904761776
 11
-235.568301577011
 21
-251.6526904761776
 72
     1
 10
-235.568301577011
 20
-251.6526904761776
 11
-235.568301577011
 21
-254.7064999999887
 72
     1
 10
-235.568301577011
 20
-254.7064999999887
 11
-234.3755088748434
 21
-254.7064999999887
 72
     1
 10
-234.3755088748434
 20
-254.7064999999887
 11
-234.3755088748434
 21
-253.3977244897841
 72
     1
 10
-234.3755088748434
 20
-253.3977244897841
 11
-233.1350044645905
 21
-254.7064999999887
 72
     1
 10
-233.1350044645905
 20
-254.7064999999887
 11
-231.9422117624241
 21
-254.7064999999887
 72
     1
 10
-231.9422117624241
 20
-254.7064999999887
 11
-231.9422117624241
 21
-251.6526904761776
 72
     1
 10
-231.9422117624241
 20
-251.6526904761776
 11
-233.1350044645905
 21
-251.6526904761776
 72
     1
 10
-233.1350044645905
 20
-251.6526904761776
 11
-233.1350044645905
 21
-252.9614659863827
 97
       10
330
2DD
330
2AD
330
2AC
330
2AF
330
2D8
330
2D9
330
2AE
330
2DA
330
2DB
330
2DC
 75
     1
 76
     0
 52
45.0
 41
0.1
 77
     0
 78
     1
 53
45.0
 43
0.0
 44
0.0
 45
-0.0707106781186548
 46
0.0707106781186548
 79
     0
 98
        1
 10
0.0
 20
0.0
  0
HATCH
  5
366
330
71
100
AcDbEntity
  8
1
  6
Continuous
 62
     2
100
AcDbHatch
 10
0.0
 20
0.0
 30
0.0
210
0.0
220
0.0
230
1.0
  2
_USER
 70
     0
 71
     1
 91
        1
 92
        1
 93
       10
 72
     1
 10
-227.8865656441708
 20
-249.6022755102084
 11
-229.1270700544248
 21
-248.2935000000032
 72
     1
 10
-229.1270700544248
 20
-248.2935000000032
 11
-230.3198627565913
 21
-248.2935000000032
 72
     1
 10
-230.3198627565913
 20
-248.2935000000032
 11
-230.3198627565913
 21
-251.3473095238144
 72
     1
 10
-230.3198627565913
 20
-251.3473095238144
 11
-229.1270700544248
 21
-251.3473095238144
 72
     1
 10
-229.1270700544248
 20
-251.3473095238144
 11
-229.1270700544248
 21
-250.0385340136097
 72
     1
 10
-229.1270700544248
 20
-250.0385340136097
 11
-227.8865656441708
 21
-251.3473095238144
 72
     1
 10
-227.8865656441708
 20
-251.3473095238144
 11
-226.6937729420042
 21
-251.3473095238144
 72
     1
 10
-226.6937729420042
 20
-251.3473095238144
 11
-226.6937729420042
 21
-248.2935000000032
 72
     1
 10
-226.6937729420042
 20
-248.2935000000032
 11
-227.8865656441708
 21
-248.2935000000032
 72
     1
 10
-227.8865656441708
 20
-248.2935000000032
 11
-227.8865656441708
 21
-249.6022755102084
 97
       10
330
2E2
330
2AA
330
2A9
330
2E3
330
2A8
330
2DE
330
2DF
330
2E0
330
2E1
330
2AB
 75
     1
 76
     0
 52
45.0
 41
0.1
 77
     0
 78
     1
 53
45.0
 43
0.0
 44
0.0
 45
-0.0707106781186548
 46
0.0707106781186548
 79
     0
 98
        1
 10
0.0
 20
0.0
  0
HATCH
  5
367
330
71
100
AcDbEntity
  8
1
  6
Continuous
 62
     2
100
AcDbHatch
 10
0.0
 20
0.0
 30
0.0
210
0.0
220
0.0
230
1.0
  2
_USER
 70
     0
 71
     1
 91
        1
 92
        1
 93
       10
 72
     1
 10
-227.8865656441708
 20
-249.6022755102084
 11
-229.1270700544248
 21
-248.2935000000032
 72
     1
 10
-229.1270700544248
 20
-248.2935000000032
 11
-230.3198627565913
 21
-248.2935000000032
 72
     1
 10
-230.3198627565913
 20
-248.2935000000032
 11
-230.3198627565913
 21
-251.3473095238144
 72
     1
 10
-230.3198627565913
 20
-251.3473095238144
 11
-229.1270700544248
 21
-251.3473095238144
 72
     1
 10
-229.1270700544248
 20
-251.3473095238144
 11
-229.1270700544248
 21
-250.0385340136097
 72
     1
 10
-229.1270700544248
 20
-250.0385340136097
 11
-227.8865656441708
 21
-251.3473095238144
 72
     1
 10
-227.8865656441708
 20
-251.3473095238144
 11
-226.6937729420042
 21
-251.3473095238144
 72
     1
 10
-226.6937729420042
 20
-251.3473095238144
 11
-226.6937729420042
 21
-248.2935000000032
 72
     1
 10
-226.6937729420042
 20
-248.2935000000032
 11
-227.8865656441708
 21
-248.2935000000032
 72
     1
 10
-227.8865656441708
 20
-248.2935000000032
 11
-227.8865656441708
 21
-249.6022755102084
 97
       10
330
2E2
330
2AA
330
2A9
330
2E3
330
2A8
330
2DE
330
2DF
330
2E0
330
2E1
330
2AB
 75
     1
 76
     0
 52
45.0
 41
0.1
 77
     0
 78
     1
 53
45.0
 43
0.0
 44
0.0
 45
-0.0707106781186548
 46
0.0707106781186548
 79
     0
 98
        1
 10
0.0
 20
0.0
  0
HATCH
  5
368
330
71
100
AcDbEntity
  8
1
  6
Continuous
 62
     2
100
AcDbHatch
 10
0.0
 20
0.0
 30
0.0
210
0.0
220
0.0
230
1.0
  2
_USER
 70
     0
 71
     1
 91
        1
 92
        1
 93
        8
 72
     1
 10
-228.9840858610503
 20
-251.6526904761776
 11
-231.7990766381639
 21
-251.6526904761776
 72
     1
 10
-231.7990766381639
 20
-251.6526904761776
 11
-231.7990766381639
 21
-252.4379557823012
 72
     1
 10
-231.7990766381639
 20
-252.4379557823012
 11
-230.9879776006893
 21
-252.4379557823012
 72
     1
 10
-230.9879776006893
 20
-252.4379557823012
 11
-230.9879776006893
 21
-254.7064999999887
 72
     1
 10
-230.9879776006893
 20
-254.7064999999887
 11
-229.7951848985228
 21
-254.7064999999887
 72
     1
 10
-229.7951848985228
 20
-254.7064999999887
 11
-229.7951848985228
 21
-252.4379557823012
 72
     1
 10
-229.7951848985228
 20
-252.4379557823012
 11
-228.9840858610503
 21
-252.4379557823012
 72
     1
 10
-228.9840858610503
 20
-252.4379557823012
 11
-228.9840858610503
 21
-251.6526904761776
 97
        8
330
2A4
330
2E4
330
2A3
330
2E5
330
2E6
330
2A7
330
2A6
330
2A5
 75
     1
 76
     0
 52
45.0
 41
0.1
 77
     0
 78
     1
 53
45.0
 43
0.0
 44
0.0
 45
-0.0707106781186548
 46
0.0707106781186548
 79
     0
 98
        1
 10
0.0
 20
0.0
  0
HATCH
  5
369
330
71
100
AcDbEntity
  8
1
  6
Continuous
 62
     2
100
AcDbHatch
 10
0.0
 20
0.0
 30
0.0
210
0.0
220
0.0
230
1.0
  2
_USER
 70
     0
 71
     1
 91
        1
 92
        1
 93
        8
 72
     1
 10
-228.9840858610503
 20
-251.6526904761776
 11
-231.7990766381639
 21
-251.6526904761776
 72
     1
 10
-231.7990766381639
 20
-251.6526904761776
 11
-231.7990766381639
 21
-252.4379557823012
 72
     1
 10
-231.7990766381639
 20
-252.4379557823012
 11
-230.9879776006893
 21
-252.4379557823012
 72
     1
 10
-230.9879776006893
 20
-252.4379557823012
 11
-230.9879776006893
 21
-254.7064999999887
 72
     1
 10
-230.9879776006893
 20
-254.7064999999887
 11
-229.7951848985228
 21
-254.7064999999887
 72
     1
 10
-229.7951848985228
 20
-254.7064999999887
 11
-229.7951848985228
 21
-252.4379557823012
 72
     1
 10
-229.7951848985228
 20
-252.4379557823012
 11
-228.9840858610503
 21
-252.4379557823012
 72
     1
 10
-228.9840858610503
 20
-252.4379557823012
 11
-228.9840858610503
 21
-251.6526904761776
 97
        8
330
2A4
330
2E4
330
2A3
330
2E5
330
2E6
330
2A7
330
2A6
330
2A5
 75
     1
 76
     0
 52
45.0
 41
0.1
 77
     0
 78
     1
 53
45.0
 43
0.0
 44
0.0
 45
-0.0707106781186548
 46
0.0707106781186548
 79
     0
 98
        1
 10
0.0
 20
0.0
  0
HATCH
  5
36A
330
71
100
AcDbEntity
  8
1
  6
Continuous
 62
     2
100
AcDbHatch
 10
0.0
 20
0.0
 30
0.0
210
0.0
220
0.0
230
1.0
  2
_USER
 70
     0
 71
     1
 91
        2
 92
        1
 93
        8
 72
     1
 10
-226.8456584051033
 20
-254.7064999999887
 11
-227.0571384585791
 21
-254.1655394557708
 72
     1
 10
-227.0571384585791
 20
-254.1655394557708
 11
-228.1895800352529
 21
-254.1655394557708
 72
     1
 10
-228.1895800352529
 20
-254.1655394557708
 11
-228.4010600887287
 21
-254.7064999999887
 72
     1
 10
-228.4010600887287
 20
-254.7064999999887
 11
-229.6415644989817
 21
-254.7064999999887
 72
     1
 10
-229.6415644989817
 20
-254.7064999999887
 11
-228.2436114520424
 21
-251.6526904761776
 72
     1
 10
-228.2436114520424
 20
-251.6526904761776
 11
-227.0031070417897
 21
-251.6526904761776
 72
     1
 10
-227.0031070417897
 20
-251.6526904761776
 11
-225.6051539948494
 21
-254.7064999999887
 72
     1
 10
-225.6051539948494
 20
-254.7064999999887
 11
-226.8456584051033
 21
-254.7064999999887
 97
        8
330
2E8
330
2E9
330
2A0
330
2EA
330
29F
330
2A2
330
2E7
330
2A1
 92
       16
 93
        3
 72
     1
 10
-227.9235244841079
 20
-253.4849761904642
 11
-227.6233592469155
 21
-252.7171612244775
 72
     1
 10
-227.6233592469155
 20
-252.7171612244775
 11
-227.3231940097254
 21
-253.4849761904642
 72
     1
 10
-227.3231940097254
 20
-253.4849761904642
 11
-227.9235244841079
 21
-253.4849761904642
 97
        3
330
29E
330
2EC
330
2EB
 75
     1
 76
     0
 52
45.0
 41
0.1
 77
     0
 78
     1
 53
45.0
 43
0.0
 44
0.0
 45
-0.0707106781186548
 46
0.0707106781186548
 79
     0
 98
        1
 10
0.0
 20
0.0
  0
HATCH
  5
36B
330
71
100
AcDbEntity
  8
1
  6
Continuous
 62
     2
100
AcDbHatch
 10
0.0
 20
0.0
 30
0.0
210
0.0
220
0.0
230
1.0
  2
_USER
 70
     0
 71
     1
 91
        2
 92
        1
 93
        8
 72
     1
 10
-226.8456584051033
 20
-254.7064999999887
 11
-227.0571384585791
 21
-254.1655394557708
 72
     1
 10
-227.0571384585791
 20
-254.1655394557708
 11
-228.1895800352529
 21
-254.1655394557708
 72
     1
 10
-228.1895800352529
 20
-254.1655394557708
 11
-228.4010600887287
 21
-254.7064999999887
 72
     1
 10
-228.4010600887287
 20
-254.7064999999887
 11
-229.6415644989817
 21
-254.7064999999887
 72
     1
 10
-229.6415644989817
 20
-254.7064999999887
 11
-228.2436114520424
 21
-251.6526904761776
 72
     1
 10
-228.2436114520424
 20
-251.6526904761776
 11
-227.0031070417897
 21
-251.6526904761776
 72
     1
 10
-227.0031070417897
 20
-251.6526904761776
 11
-225.6051539948494
 21
-254.7064999999887
 72
     1
 10
-225.6051539948494
 20
-254.7064999999887
 11
-226.8456584051033
 21
-254.7064999999887
 97
        8
330
2E8
330
2E9
330
2A0
330
2EA
330
29F
330
2A2
330
2E7
330
2A1
 92
       16
 93
        3
 72
     1
 10
-227.9235244841079
 20
-253.4849761904642
 11
-227.6233592469155
 21
-252.7171612244775
 72
     1
 10
-227.6233592469155
 20
-252.7171612244775
 11
-227.3231940097254
 21
-253.4849761904642
 72
     1
 10
-227.3231940097254
 20
-253.4849761904642
 11
-227.9235244841079
 21
-253.4849761904642
 97
        3
330
29E
330
2EC
330
2EB
 75
     1
 76
     0
 52
45.0
 41
0.1
 77
     0
 78
     1
 53
45.0
 43
0.0
 44
0.0
 45
-0.0707106781186548
 46
0.0707106781186548
 79
     0
 98
        1
 10
0.0
 20
0.0
  0
HATCH
  5
36C
330
71
100
AcDbEntity
  8
1
  6
Continuous
 62
     2
100
AcDbHatch
 10
0.0
 20
0.0
 30
0.0
210
0.0
220
0.0
230
1.0
  2
_USER
 70
     0
 71
     1
 91
        1
 92
        1
 93
        4
 72
     1
 10
-225.2147099913174
 20
-251.3473095238144
 11
-226.4552144015703
 21
-251.3473095238144
 72
     1
 10
-226.4552144015703
 20
-251.3473095238144
 11
-226.4552144015703
 21
-248.2935000000032
 72
     1
 10
-226.4552144015703
 20
-248.2935000000032
 11
-225.2147099913174
 21
-248.2935000000032
 72
     1
 10
-225.2147099913174
 20
-248.2935000000032
 11
-225.2147099913174
 21
-251.3473095238144
 97
        4
330
29B
330
29D
330
2ED
330
29C
 75
     1
 76
     0
 52
45.0
 41
0.1
 77
     0
 78
     1
 53
45.0
 43
0.0
 44
0.0
 45
-0.0707106781186548
 46
0.0707106781186548
 79
     0
 98
        1
 10
0.0
 20
0.0
  0
HATCH
  5
36D
330
71
100
AcDbEntity
  8
1
  6
Continuous
 62
     2
100
AcDbHatch
 10
0.0
 20
0.0
 30
0.0
210
0.0
220
0.0
230
1.0
  2
_USER
 70
     0
 71
     1
 91
        1
 92
        1
 93
        4
 72
     1
 10
-225.2147099913174
 20
-251.3473095238144
 11
-226.4552144015703
 21
-251.3473095238144
 72
     1
 10
-226.4552144015703
 20
-251.3473095238144
 11
-226.4552144015703
 21
-248.2935000000032
 72
     1
 10
-226.4552144015703
 20
-248.2935000000032
 11
-225.2147099913174
 21
-248.2935000000032
 72
     1
 10
-225.2147099913174
 20
-248.2935000000032
 11
-225.2147099913174
 21
-251.3473095238144
 97
        4
330
29B
330
29D
330
2ED
330
29C
 75
     1
 76
     0
 52
45.0
 41
0.1
 77
     0
 78
     1
 53
45.0
 43
0.0
 44
0.0
 45
-0.0707106781186548
 46
0.0707106781186548
 79
     0
 98
        1
 10
0.0
 20
0.0
  0
HATCH
  5
36E
330
71
100
AcDbEntity
  8
1
  6
Continuous
 62
     2
100
AcDbHatch
 10
0.0
 20
0.0
 30
0.0
210
0.0
220
0.0
230
1.0
  2
_USER
 70
     0
 71
     1
 91
        1
 92
        1
 93
       12
 72
     1
 10
-220.9922238256466
 20
-248.2935000000032
 11
-222.2947534564131
 21
-249.7664505300394
 72
     1
 10
-222.2947534564131
 20
-249.7664505300394
 11
-220.8968004094728
 21
-251.3473095238144
 72
     1
 10
-220.8968004094728
 20
-251.3473095238144
 11
-222.2995246272211
 21
-251.3473095238144
 72
     1
 10
-222.2995246272211
 20
-251.3473095238144
 11
-222.9961155652866
 21
-250.5595777385207
 72
     1
 10
-222.9961155652866
 20
-250.5595777385207
 11
-223.6927065033523
 21
-251.3473095238144
 72
     1
 10
-223.6927065033523
 20
-251.3473095238144
 11
-225.0954307211005
 21
-251.3473095238144
 72
     1
 10
-225.0954307211005
 20
-251.3473095238144
 11
-223.6974776741602
 21
-249.7664505300394
 72
     1
 10
-223.6974776741602
 20
-249.7664505300394
 11
-225.0000073049277
 21
-248.2935000000032
 72
     1
 10
-225.0000073049277
 20
-248.2935000000032
 11
-223.5972830871784
 21
-248.2935000000032
 72
     1
 10
-223.5972830871784
 20
-248.2935000000032
 11
-222.9961155652866
 21
-248.9733233215587
 72
     1
 10
-222.9961155652866
 20
-248.9733233215587
 11
-222.3949480433938
 21
-248.2935000000032
 72
     1
 10
-222.3949480433938
 20
-248.2935000000032
 11
-220.9922238256466
 21
-248.2935000000032
 97
       12
330
296
330
295
330
294
330
2F1
330
2F2
330
2EE
330
2EF
330
29A
330
299
330
298
330
297
330
2F0
 75
     1
 76
     0
 52
45.0
 41
0.1
 77
     0
 78
     1
 53
45.0
 43
0.0
 44
0.0
 45
-0.0707106781186548
 46
0.0707106781186548
 79
     0
 98
        1
 10
0.0
 20
0.0
  0
HATCH
  5
36F
330
71
100
AcDbEntity
  8
1
  6
Continuous
 62
     2
100
AcDbHatch
 10
0.0
 20
0.0
 30
0.0
210
0.0
220
0.0
230
1.0
  2
_USER
 70
     0
 71
     1
 91
        1
 92
        1
 93
       12
 72
     1
 10
-220.9922238256466
 20
-248.2935000000032
 11
-222.2947534564131
 21
-249.7664505300394
 72
     1
 10
-222.2947534564131
 20
-249.7664505300394
 11
-220.8968004094728
 21
-251.3473095238144
 72
     1
 10
-220.8968004094728
 20
-251.3473095238144
 11
-222.2995246272211
 21
-251.3473095238144
 72
     1
 10
-222.2995246272211
 20
-251.3473095238144
 11
-222.9961155652866
 21
-250.5595777385207
 72
     1
 10
-222.9961155652866
 20
-250.5595777385207
 11
-223.6927065033523
 21
-251.3473095238144
 72
     1
 10
-223.6927065033523
 20
-251.3473095238144
 11
-225.0954307211005
 21
-251.3473095238144
 72
     1
 10
-225.0954307211005
 20
-251.3473095238144
 11
-223.6974776741602
 21
-249.7664505300394
 72
     1
 10
-223.6974776741602
 20
-249.7664505300394
 11
-225.0000073049277
 21
-248.2935000000032
 72
     1
 10
-225.0000073049277
 20
-248.2935000000032
 11
-223.5972830871784
 21
-248.2935000000032
 72
     1
 10
-223.5972830871784
 20
-248.2935000000032
 11
-222.9961155652866
 21
-248.9733233215587
 72
     1
 10
-222.9961155652866
 20
-248.9733233215587
 11
-222.3949480433938
 21
-248.2935000000032
 72
     1
 10
-222.3949480433938
 20
-248.2935000000032
 11
-220.9922238256466
 21
-248.2935000000032
 97
       12
330
296
330
295
330
294
330
2F1
330
2F2
330
2EE
330
2EF
330
29A
330
299
330
298
330
297
330
2F0
 75
     1
 76
     0
 52
45.0
 41
0.1
 77
     0
 78
     1
 53
45.0
 43
0.0
 44
0.0
 45
-0.0707106781186548
 46
0.0707106781186548
 79
     0
 98
        1
 10
0.0
 20
0.0
  0
HATCH
  5
370
330
71
100
AcDbEntity
  8
1
  6
Continuous
 62
     2
100
AcDbHatch
 10
0.0
 20
0.0
 30
0.0
210
0.0
220
0.0
230
1.0
  2
_USER
 70
     0
 71
     1
 91
        2
 92
        1
 93
        6
 72
     1
 10
-240.0099592397926
 20
-250.4042312826706
 11
-240.7687268275729
 21
-250.4042312826706
 72
     1
 10
-240.7687268275729
 20
-250.4042312826706
 11
-240.7687268275729
 21
-251.3473095238144
 72
     1
 10
-240.7687268275729
 20
-251.3473095238144
 11
-242.009231237827
 21
-251.3473095238144
 72
     1
 10
-242.009231237827
 20
-251.3473095238144
 11
-242.009231237827
 21
-248.2935000000032
 72
     1
 10
-242.009231237827
 20
-248.2935000000032
 11
-240.0099592397926
 21
-248.2935000000032
 72
     2
 10
-240.0099592397926
 20
-249.3488656413369
 40
1.055365641333708
 50
270.0
 51
450.0
 73
     0
 97
        6
330
2BE
330
2BD
330
2CA
330
2C9
330
2BF
330
30F
 92
       16
 93
        4
 72
     2
 10
-240.451431766031
 20
-249.3094696701144
 40
0.3528638246711182
 50
270.0
 51
450.0
 73
     1
 72
     1
 10
-240.451431766031
 20
-248.9566058454433
 11
-240.7687268275729
 21
-248.9566058454433
 72
     1
 10
-240.7687268275729
 20
-248.9566058454433
 11
-240.7687268275729
 21
-249.6623334947855
 72
     1
 10
-240.7687268275729
 20
-249.6623334947855
 11
-240.451431766031
 21
-249.6623334947855
 97
        4
330
323
330
2BB
330
2CB
330
2BC
 75
     1
 76
     0
 52
45.0
 41
0.1
 77
     0
 78
     1
 53
45.0
 43
0.0
 44
0.0
 45
-0.0707106781186548
 46
0.0707106781186548
 79
     0
 98
        1
 10
0.0
 20
0.0
  0
HATCH
  5
371
330
71
100
AcDbEntity
  8
1
  6
Continuous
 62
     2
100
AcDbHatch
 10
0.0
 20
0.0
 30
0.0
210
0.0
220
0.0
230
1.0
  2
_USER
 70
     0
 71
     1
 91
        2
 92
        1
 93
        6
 72
     1
 10
-240.0099592397926
 20
-250.4042312826706
 11
-240.7687268275729
 21
-250.4042312826706
 72
     1
 10
-240.7687268275729
 20
-250.4042312826706
 11
-240.7687268275729
 21
-251.3473095238144
 72
     1
 10
-240.7687268275729
 20
-251.3473095238144
 11
-242.009231237827
 21
-251.3473095238144
 72
     1
 10
-242.009231237827
 20
-251.3473095238144
 11
-242.009231237827
 21
-248.2935000000032
 72
     1
 10
-242.009231237827
 20
-248.2935000000032
 11
-240.0099592397926
 21
-248.2935000000032
 72
     2
 10
-240.0099592397926
 20
-249.3488656413369
 40
1.055365641333708
 50
270.0
 51
450.0
 73
     0
 97
        6
330
2BE
330
2BD
330
2CA
330
2C9
330
2BF
330
30F
 92
       16
 93
        4
 72
     2
 10
-240.451431766031
 20
-249.3094696701144
 40
0.3528638246711182
 50
270.0
 51
450.0
 73
     1
 72
     1
 10
-240.451431766031
 20
-248.9566058454433
 11
-240.7687268275729
 21
-248.9566058454433
 72
     1
 10
-240.7687268275729
 20
-248.9566058454433
 11
-240.7687268275729
 21
-249.6623334947855
 72
     1
 10
-240.7687268275729
 20
-249.6623334947855
 11
-240.451431766031
 21
-249.6623334947855
 97
        4
330
323
330
2BB
330
2CB
330
2BC
 75
     1
 76
     0
 52
45.0
 41
0.1
 77
     0
 78
     1
 53
45.0
 43
0.0
 44
0.0
 45
-0.0707106781186548
 46
0.0707106781186548
 79
     0
 98
        1
 10
0.0
 20
0.0
  0
HATCH
  5
372
330
71
100
AcDbEntity
  8
1
  6
Continuous
 62
     2
100
AcDbHatch
 10
0.0
 20
0.0
 30
0.0
210
0.0
220
0.0
230
1.0
  2
_USER
 70
     0
 71
     1
 91
        2
 92
        1
 93
        4
 72
     2
 10
-237.4534164914335
 20
-253.7181702483862
 40
2.065479772208568
 50
62.45185182430637
 51
117.5481481756664
 73
     1
 72
     2
 10
-237.7343563832668
 20
-253.1795952380834
 40
1.45803408365149
 50
117.5481481756624
 51
242.4518518243375
 73
     1
 72
     2
 10
-237.4534164914335
 20
-252.6410202277801
 40
2.065479772208509
 50
242.4518518243402
 51
297.5481481756871
 73
     1
 72
     2
 10
-237.1724765996002
 20
-253.1795952380834
 40
1.458034083652003
 50
297.548148175701
 51
422.451851824299
 73
     1
 97
        4
330
31B
330
31A
330
31C
330
319
 92
       16
 93
        4
 72
     2
 10
-237.6531565277799
 20
-253.1795952380834
 40
0.7717997786796947
 50
321.8795802028417
 51
398.1204197971533
 73
     1
 72
     2
 10
-237.4534164914335
 20
-253.0228640599629
 40
0.5179085730132998
 50
38.12041979714704
 51
141.8795802028588
 73
     1
 72
     2
 10
-237.2536764550874
 20
-253.1795952380834
 40
0.7717997786794633
 50
141.8795802028363
 51
218.1204197971687
 73
     1
 72
     2
 10
-237.4534164914335
 20
-253.3363264162034
 40
0.5179085730137354
 50
218.1204197971931
 51
321.879580202801
 73
     1
 97
        4
330
337
330
334
330
335
330
336
 75
     1
 76
     0
 52
45.0
 41
0.1
 77
     0
 78
     1
 53
45.0
 43
0.0
 44
0.0
 45
-0.0707106781186548
 46
0.0707106781186548
 79
     0
 98
        1
 10
0.0
 20
0.0
  0
HATCH
  5
373
330
71
100
AcDbEntity
  8
1
  6
Continuous
 62
     2
100
AcDbHatch
 10
0.0
 20
0.0
 30
0.0
210
0.0
220
0.0
230
1.0
  2
_USER
 70
     0
 71
     1
 91
        2
 92
        1
 93
        4
 72
     2
 10
-237.4534164914335
 20
-253.7181702483862
 40
2.065479772208568
 50
62.45185182430637
 51
117.5481481756664
 73
     1
 72
     2
 10
-237.7343563832668
 20
-253.1795952380834
 40
1.45803408365149
 50
117.5481481756624
 51
242.4518518243375
 73
     1
 72
     2
 10
-237.4534164914335
 20
-252.6410202277801
 40
2.065479772208509
 50
242.4518518243402
 51
297.5481481756871
 73
     1
 72
     2
 10
-237.1724765996002
 20
-253.1795952380834
 40
1.458034083652003
 50
297.548148175701
 51
422.451851824299
 73
     1
 97
        4
330
31B
330
31A
330
31C
330
319
 92
       16
 93
        4
 72
     2
 10
-237.6531565277799
 20
-253.1795952380834
 40
0.7717997786796947
 50
321.8795802028417
 51
398.1204197971533
 73
     1
 72
     2
 10
-237.4534164914335
 20
-253.0228640599629
 40
0.5179085730132998
 50
38.12041979714704
 51
141.8795802028588
 73
     1
 72
     2
 10
-237.2536764550874
 20
-253.1795952380834
 40
0.7717997786794633
 50
141.8795802028363
 51
218.1204197971687
 73
     1
 72
     2
 10
-237.4534164914335
 20
-253.3363264162034
 40
0.5179085730137354
 50
218.1204197971931
 51
321.879580202801
 73
     1
 97
        4
330
337
330
334
330
335
330
336
 75
     1
 76
     0
 52
45.0
 41
0.1
 77
     0
 78
     1
 53
45.0
 43
0.0
 44
0.0
 45
-0.0707106781186548
 46
0.0707106781186548
 79
     0
 98
        1
 10
0.0
 20
0.0
  0
HATCH
  5
374
330
71
100
AcDbEntity
  8
1
  6
Continuous
 62
     2
100
AcDbHatch
 10
0.0
 20
0.0
 30
0.0
210
0.0
220
0.0
230
1.0
  2
_USER
 70
     0
 71
     1
 91
        2
 92
        1
 93
       12
 72
     1
 10
-230.5584212970242
 20
-248.9915136054462
 11
-231.8943491234519
 21
-248.9915136054462
 72
     1
 10
-231.8943491234519
 20
-248.9915136054462
 11
-231.8943491234519
 21
-249.4713979591879
 72
     1
 10
-231.8943491234519
 20
-249.4713979591879
 11
-230.5584212970242
 21
-249.4713979591879
 72
     1
 10
-230.5584212970242
 20
-249.4713979591879
 11
-230.5584212970242
 21
-250.1694115646302
 72
     1
 10
-230.5584212970242
 20
-250.1694115646302
 11
-231.8943491234519
 21
-250.1694115646302
 72
     1
 10
-231.8943491234519
 20
-250.1694115646302
 11
-231.8943491234519
 21
-250.6492959183719
 72
     1
 10
-231.8943491234519
 20
-250.6492959183719
 11
-230.5584212970242
 21
-250.6492959183719
 72
     1
 10
-230.5584212970242
 20
-250.6492959183719
 11
-230.5584212970242
 21
-251.3473095238144
 72
     1
 10
-230.5584212970242
 20
-251.3473095238144
 11
-233.7087410208052
 21
-251.3473095238144
 72
     2
 10
-233.7087410208052
 20
-249.8204047619091
 40
1.526904761905882
 50
90.0
 51
270.0
 73
     0
 72
     1
 10
-233.7087410208052
 20
-248.2935000000032
 11
-230.5584212970242
 21
-248.2935000000032
 72
     1
 10
-230.5584212970242
 20
-248.2935000000032
 11
-230.5584212970242
 21
-248.9915136054462
 97
       12
330
2D2
330
324
330
2D3
330
2D4
330
2D5
330
2D6
330
2B3
330
2B2
330
2B1
330
2B0
330
2D7
330
2D1
 92
       16
 93
        4
 72
     2
 10
-233.49246901064
 20
-249.6636735837886
 40
0.5179085730135266
 50
38.12041979714334
 51
141.8795802028489
 73
     1
 72
     2
 10
-233.2927289742937
 20
-249.8204047619091
 40
0.7717997786796724
 50
141.8795802028404
 51
218.1204197971562
 73
     1
 72
     2
 10
-233.49246901064
 20
-249.9771359400295
 40
0.5179085730134372
 50
218.1204197971511
 51
321.8795802028566
 73
     1
 72
     2
 10
-233.6922090469862
 20
-249.8204047619091
 40
0.7717997786796373
 50
321.8795802028437
 51
398.1204197971596
 73
     1
 97
        4
330
31E
330
31D
330
318
330
317
 75
     1
 76
     0
 52
45.0
 41
0.1
 77
     0
 78
     1
 53
45.0
 43
0.0
 44
0.0
 45
-0.0707106781186548
 46
0.0707106781186548
 79
     0
 98
        1
 10
0.0
 20
0.0
  0
HATCH
  5
375
330
71
100
AcDbEntity
  8
1
  6
Continuous
 62
     2
100
AcDbHatch
 10
0.0
 20
0.0
 30
0.0
210
0.0
220
0.0
230
1.0
  2
_USER
 70
     0
 71
     1
 91
        2
 92
        1
 93
       12
 72
     1
 10
-230.5584212970242
 20
-248.9915136054462
 11
-231.8943491234519
 21
-248.9915136054462
 72
     1
 10
-231.8943491234519
 20
-248.9915136054462
 11
-231.8943491234519
 21
-249.4713979591879
 72
     1
 10
-231.8943491234519
 20
-249.4713979591879
 11
-230.5584212970242
 21
-249.4713979591879
 72
     1
 10
-230.5584212970242
 20
-249.4713979591879
 11
-230.5584212970242
 21
-250.1694115646302
 72
     1
 10
-230.5584212970242
 20
-250.1694115646302
 11
-231.8943491234519
 21
-250.1694115646302
 72
     1
 10
-231.8943491234519
 20
-250.1694115646302
 11
-231.8943491234519
 21
-250.6492959183719
 72
     1
 10
-231.8943491234519
 20
-250.6492959183719
 11
-230.5584212970242
 21
-250.6492959183719
 72
     1
 10
-230.5584212970242
 20
-250.6492959183719
 11
-230.5584212970242
 21
-251.3473095238144
 72
     1
 10
-230.5584212970242
 20
-251.3473095238144
 11
-233.7087410208052
 21
-251.3473095238144
 72
     2
 10
-233.7087410208052
 20
-249.8204047619091
 40
1.526904761905882
 50
90.0
 51
270.0
 73
     0
 72
     1
 10
-233.7087410208052
 20
-248.2935000000032
 11
-230.5584212970242
 21
-248.2935000000032
 72
     1
 10
-230.5584212970242
 20
-248.2935000000032
 11
-230.5584212970242
 21
-248.9915136054462
 97
       12
330
2D2
330
324
330
2D3
330
2D4
330
2D5
330
2D6
330
2B3
330
2B2
330
2B1
330
2B0
330
2D7
330
2D1
 92
       16
 93
        4
 72
     2
 10
-233.49246901064
 20
-249.6636735837886
 40
0.5179085730135266
 50
38.12041979714334
 51
141.8795802028489
 73
     1
 72
     2
 10
-233.2927289742937
 20
-249.8204047619091
 40
0.7717997786796724
 50
141.8795802028404
 51
218.1204197971562
 73
     1
 72
     2
 10
-233.49246901064
 20
-249.9771359400295
 40
0.5179085730134372
 50
218.1204197971511
 51
321.8795802028566
 73
     1
 72
     2
 10
-233.6922090469862
 20
-249.8204047619091
 40
0.7717997786796373
 50
321.8795802028437
 51
398.1204197971596
 73
     1
 97
        4
330
31E
330
31D
330
318
330
317
 75
     1
 76
     0
 52
45.0
 41
0.1
 77
     0
 78
     1
 53
45.0
 43
0.0
 44
0.0
 45
-0.0707106781186548
 46
0.0707106781186548
 79
     0
 98
        1
 10
0.0
 20
0.0
  0
HATCH
  5
376
330
71
100
AcDbEntity
  8
1
  6
Continuous
 62
     2
100
AcDbHatch
 10
0.0
 20
0.0
 30
0.0
210
0.0
220
0.0
230
1.0
  2
_USER
 70
     0
 71
     1
 91
        4
 92
        1
 93
        8
 72
     1
 10
-242.4863483186938
 20
-248.7177446154052
 11
-242.4863483186938
 21
-254.2822553846054
 72
     2
 10
-242.9105929340777
 20
-254.2822553846054
 40
0.4242446153832873
 50
0.0
 51
90.0
 73
     0
 72
     1
 10
-242.9105929340777
 20
-254.7064999999887
 11
-248.3839050247945
 21
-254.7064999999887
 72
     2
 10
-248.3839050247945
 20
-254.2822553846054
 40
0.4242446153828041
 50
90.0
 51
180.0
 73
     0
 72
     1
 10
-248.8081496401773
 20
-254.2822553846054
 11
-248.8081496401773
 21
-248.7177446154052
 72
     2
 10
-248.3839050247945
 20
-248.7177446154052
 40
0.4242446153837989
 50
180.0
 51
270.0
 73
     0
 72
     1
 10
-248.3839050247945
 20
-248.2935000000214
 11
-242.9105929340777
 21
-248.2935000000214
 72
     2
 10
-242.9105929340777
 20
-248.7177446154052
 40
0.4242446153838841
 50
270.0
 51
360.0
 73
     0
 97
        8
330
2C6
330
314
330
2C7
330
31F
330
2C4
330
316
330
2C5
330
315
 92
       16
 93
        1
 72
     2
 10
-245.764319374277
 20
-251.0366268437607
 40
0.4709789327785074
 50
0.0
 51
360.0
 73
     1
 97
        1
330
33A
 92
       16
 93
        8
 72
     2
 10
-245.2144616615163
 20
-252.1457684437291
 40
0.3157169230765328
 50
115.3740086783519
 51
180.0
 73
     1
 72
     1
 10
-245.5301785845931
 20
-252.1457684437291
 11
-245.5301785845931
 21
-252.7276198504242
 72
     2
 10
-245.2144616615163
 20
-252.7276198504242
 40
0.315716923076792
 50
180.0
 51
269.8110329574542
 73
     1
 72
     2
 10
-245.2088455262063
 20
-251.0247849028552
 40
2.018561131933266
 50
269.8110329575858
 51
450.1889670424142
 73
     1
 72
     2
 10
-245.2144616615163
 20
-249.3219499552861
 40
0.3157169230760711
 50
90.18896704254594
 51
180.0
 73
     1
 72
     1
 10
-245.5301785845931
 20
-249.3219499552861
 11
-245.5301785845931
 21
-249.9274852437929
 72
     2
 10
-245.2144616615163
 20
-249.9274852437929
 40
0.315716923076792
 50
180.0
 51
244.6259913216482
 73
     1
 72
     2
 10
-245.7405043596042
 20
-251.0366268437607
 40
0.911848150144459
 50
295.3740086781925
 51
424.6259913218236
 73
     0
 97
        8
330
32C
330
28D
330
329
330
32A
330
308
330
28C
330
32B
330
307
 92
       16
 93
       12
 72
     2
 10
-247.790010348048
 20
-253.6782275213551
 40
0.3157169230756836
 50
180.0
 51
270.0
 73
     1
 72
     1
 10
-247.790010348048
 20
-253.9939444444318
 11
-246.3141770870384
 21
-253.9939444444318
 72
     2
 10
-246.3141770870384
 20
-253.6782275213551
 40
0.3157169230767067
 50
270.0
 51
360.0
 73
     1
 72
     1
 10
-245.9984601639618
 20
-253.6782275213551
 11
-245.9984601639618
 21
-252.1474565898235
 72
     2
 10
-246.3141770870384
 20
-252.1474565898235
 40
0.315716923076593
 50
0.0
 51
64.80558935146027
 73
     1
 72
     2
 10
-245.7915926394634
 20
-251.0366268437607
 40
0.9118975235576147
 50
115.1944106485122
 51
244.8055893514718
 73
     0
 72
     2
 10
-246.3141770870384
 20
-249.9257970976985
 40
0.3157169230761203
 50
295.1944106485397
 51
360.0
 73
     1
 72
     1
 10
-245.9984601639618
 20
-249.9257970976985
 11
-245.9984601639618
 21
-249.321772478638
 72
     2
 10
-246.3141770870384
 20
-249.321772478638
 40
0.315716923076593
 50
0.0
 51
90.0
 73
     1
 72
     1
 10
-246.3141770870384
 20
-249.0060555555618
 11
-247.790010348048
 21
-249.0060555555618
 72
     2
 10
-247.790010348048
 20
-249.321772478638
 40
0.3157169230761951
 50
90.0
 51
180.0
 73
     1
 72
     1
 10
-248.1057272711237
 20
-249.321772478638
 11
-248.1057272711237
 21
-253.6782275213551
 97
       12
330
310
330
2C8
330
313
330
2C3
330
320
330
321
330
312
330
2C2
330
311
330
2C1
330
322
330
2C0
 75
     1
 76
     0
 52
45.0
 41
0.1
 77
     0
 78
     1
 53
45.0
 43
0.0
 44
0.0
 45
-0.0707106781186548
 46
0.0707106781186548
 79
     0
 98
        1
 10
0.0
 20
0.0
  0
HATCH
  5
377
330
71
100
AcDbEntity
  8
1
  6
Continuous
 62
     2
100
AcDbHatch
 10
0.0
 20
0.0
 30
0.0
210
0.0
220
0.0
230
1.0
  2
_USER
 70
     0
 71
     1
 91
        4
 92
        1
 93
        8
 72
     1
 10
-242.4863483186938
 20
-248.7177446154052
 11
-242.4863483186938
 21
-254.2822553846054
 72
     2
 10
-242.9105929340777
 20
-254.2822553846054
 40
0.4242446153832873
 50
0.0
 51
90.0
 73
     0
 72
     1
 10
-242.9105929340777
 20
-254.7064999999887
 11
-248.3839050247945
 21
-254.7064999999887
 72
     2
 10
-248.3839050247945
 20
-254.2822553846054
 40
0.4242446153828041
 50
90.0
 51
180.0
 73
     0
 72
     1
 10
-248.8081496401773
 20
-254.2822553846054
 11
-248.8081496401773
 21
-248.7177446154052
 72
     2
 10
-248.3839050247945
 20
-248.7177446154052
 40
0.4242446153837989
 50
180.0
 51
270.0
 73
     0
 72
     1
 10
-248.3839050247945
 20
-248.2935000000214
 11
-242.9105929340777
 21
-248.2935000000214
 72
     2
 10
-242.9105929340777
 20
-248.7177446154052
 40
0.4242446153838841
 50
270.0
 51
360.0
 73
     0
 97
        8
330
2C6
330
314
330
2C7
330
31F
330
2C4
330
316
330
2C5
330
315
 92
       16
 93
        1
 72
     2
 10
-245.764319374277
 20
-251.0366268437607
 40
0.4709789327785074
 50
0.0
 51
360.0
 73
     1
 97
        1
330
33A
 92
       16
 93
        8
 72
     2
 10
-245.2144616615163
 20
-252.1457684437291
 40
0.3157169230765328
 50
115.3740086783519
 51
180.0
 73
     1
 72
     1
 10
-245.5301785845931
 20
-252.1457684437291
 11
-245.5301785845931
 21
-252.7276198504242
 72
     2
 10
-245.2144616615163
 20
-252.7276198504242
 40
0.315716923076792
 50
180.0
 51
269.8110329574542
 73
     1
 72
     2
 10
-245.2088455262063
 20
-251.0247849028552
 40
2.018561131933266
 50
269.8110329575858
 51
450.1889670424142
 73
     1
 72
     2
 10
-245.2144616615163
 20
-249.3219499552861
 40
0.3157169230760711
 50
90.18896704254594
 51
180.0
 73
     1
 72
     1
 10
-245.5301785845931
 20
-249.3219499552861
 11
-245.5301785845931
 21
-249.9274852437929
 72
     2
 10
-245.2144616615163
 20
-249.9274852437929
 40
0.315716923076792
 50
180.0
 51
244.6259913216482
 73
     1
 72
     2
 10
-245.7405043596042
 20
-251.0366268437607
 40
0.911848150144459
 50
295.3740086781925
 51
424.6259913218236
 73
     0
 97
        8
330
32C
330
28D
330
329
330
32A
330
308
330
28C
330
32B
330
307
 92
       16
 93
       12
 72
     2
 10
-247.790010348048
 20
-253.6782275213551
 40
0.3157169230756836
 50
180.0
 51
270.0
 73
     1
 72
     1
 10
-247.790010348048
 20
-253.9939444444318
 11
-246.3141770870384
 21
-253.9939444444318
 72
     2
 10
-246.3141770870384
 20
-253.6782275213551
 40
0.3157169230767067
 50
270.0
 51
360.0
 73
     1
 72
     1
 10
-245.9984601639618
 20
-253.6782275213551
 11
-245.9984601639618
 21
-252.1474565898235
 72
     2
 10
-246.3141770870384
 20
-252.1474565898235
 40
0.315716923076593
 50
0.0
 51
64.80558935146027
 73
     1
 72
     2
 10
-245.7915926394634
 20
-251.0366268437607
 40
0.9118975235576147
 50
115.1944106485122
 51
244.8055893514718
 73
     0
 72
     2
 10
-246.3141770870384
 20
-249.9257970976985
 40
0.3157169230761203
 50
295.1944106485397
 51
360.0
 73
     1
 72
     1
 10
-245.9984601639618
 20
-249.9257970976985
 11
-245.9984601639618
 21
-249.321772478638
 72
     2
 10
-246.3141770870384
 20
-249.321772478638
 40
0.315716923076593
 50
0.0
 51
90.0
 73
     1
 72
     1
 10
-246.3141770870384
 20
-249.0060555555618
 11
-247.790010348048
 21
-249.0060555555618
 72
     2
 10
-247.790010348048
 20
-249.321772478638
 40
0.3157169230761951
 50
90.0
 51
180.0
 73
     1
 72
     1
 10
-248.1057272711237
 20
-249.321772478638
 11
-248.1057272711237
 21
-253.6782275213551
 97
       12
330
310
330
2C8
330
313
330
2C3
330
320
330
321
330
312
330
2C2
330
311
330
2C1
330
322
330
2C0
 75
     1
 76
     0
 52
45.0
 41
0.1
 77
     0
 78
     1
 53
45.0
 43
0.0
 44
0.0
 45
-0.0707106781186548
 46
0.0707106781186548
 79
     0
 98
        1
 10
0.0
 20
0.0
  0
HATCH
  5
378
330
71
100
AcDbEntity
  8
1
  6
Continuous
 62
     2
100
AcDbHatch
 10
0.0
 20
0.0
 30
0.0
210
0.0
220
0.0
230
1.0
  2
_USER
 70
     0
 71
     1
 91
        1
 92
        1
 93
       18
 72
     1
 10
-220.8968004094728
 20
-252.4379557823012
 11
-221.7078994469462
 21
-252.4379557823012
 72
     1
 10
-221.7078994469462
 20
-252.4379557823012
 11
-221.7078994469462
 21
-254.7064999999887
 72
     1
 10
-221.7078994469462
 20
-254.7064999999887
 11
-222.9006921491139
 21
-254.7064999999887
 72
     1
 10
-222.9006921491139
 20
-254.7064999999887
 11
-222.9006921491139
 21
-252.4379557823012
 72
     1
 10
-222.9006921491139
 20
-252.4379557823012
 11
-224.004331448682
 21
-252.4379557823012
 72
     2
 10
-224.004331448682
 20
-253.3924787891273
 40
0.9545230068260935
 50
90.0
 51
109.337143219432
 73
     1
 72
     2
 10
-224.1510014467857
 20
-252.9745238087444
 40
0.5115800601944143
 50
109.3371432194853
 51
151.4785267424225
 73
     1
 72
     2
 10
-223.7736441887043
 20
-253.1795952380834
 40
0.9410597353348924
 50
151.4785267423624
 51
208.5214732576695
 73
     1
 72
     2
 10
-224.1510014467857
 20
-253.3846666674219
 40
0.5115800601960215
 50
208.5214732576866
 51
246.6277221118449
 73
     1
 72
     2
 10
-223.9945614140826
 20
-253.0226746487119
 40
0.9059297849852801
 50
246.6277221118183
 51
288.4480761180817
 73
     1
 72
     2
 10
-224.4127291477445
 20
-251.7691288726753
 40
2.227384008972746
 50
288.4480761181335
 51
301.9309089499397
 73
     1
 72
     1
 10
-223.2346741057206
 20
-253.6594795918251
 11
-223.2346741057206
 21
-254.5319965986284
 72
     2
 10
-224.5706020228373
 20
-249.866914292827
 40
4.852596863498825
 50
74.02000874166129
 51
84.84185523036365
 73
     0
 72
     2
 10
-224.2817459281015
 20
-253.0668048760486
 40
1.639695123940448
 50
84.8418552303238
 51
164.9381082228988
 73
     0
 72
     2
 10
-224.7008737715631
 20
-253.1795952380834
 40
1.205656168393002
 50
164.9381082229041
 51
195.0618917770972
 73
     0
 72
     2
 10
-224.2817459281015
 20
-253.2923856001183
 40
1.639695123940214
 50
195.061891777105
 51
270.0
 73
     0
 72
     1
 10
-224.2817459281015
 20
-251.6526904761781
 11
-220.8968004094728
 21
-251.6526904761776
 72
     1
 10
-220.8968004094728
 20
-251.6526904761776
 11
-220.8968004094728
 21
-252.4379557823012
 97
       18
330
28F
330
325
330
326
330
30E
330
30D
330
2F3
330
30C
330
30B
330
327
330
30A
330
328
330
309
330
2F4
330
28E
330
293
330
292
330
291
330
290
 75
     1
 76
     0
 52
45.0
 41
0.1
 77
     0
 78
     1
 53
45.0
 43
0.0
 44
0.0
 45
-0.0707106781186548
 46
0.0707106781186548
 79
     0
 98
        1
 10
0.0
 20
0.0
  0
HATCH
  5
379
330
71
100
AcDbEntity
  8
1
  6
Continuous
 62
     2
100
AcDbHatch
 10
0.0
 20
0.0
 30
0.0
210
0.0
220
0.0
230
1.0
  2
_USER
 70
     0
 71
     1
 91
        1
 92
        1
 93
       18
 72
     1
 10
-220.8968004094728
 20
-252.4379557823012
 11
-221.7078994469462
 21
-252.4379557823012
 72
     1
 10
-221.7078994469462
 20
-252.4379557823012
 11
-221.7078994469462
 21
-254.7064999999887
 72
     1
 10
-221.7078994469462
 20
-254.7064999999887
 11
-222.9006921491139
 21
-254.7064999999887
 72
     1
 10
-222.9006921491139
 20
-254.7064999999887
 11
-222.9006921491139
 21
-252.4379557823012
 72
     1
 10
-222.9006921491139
 20
-252.4379557823012
 11
-224.004331448682
 21
-252.4379557823012
 72
     2
 10
-224.004331448682
 20
-253.3924787891273
 40
0.9545230068260935
 50
90.0
 51
109.337143219432
 73
     1
 72
     2
 10
-224.1510014467857
 20
-252.9745238087444
 40
0.5115800601944143
 50
109.3371432194853
 51
151.4785267424225
 73
     1
 72
     2
 10
-223.7736441887043
 20
-253.1795952380834
 40
0.9410597353348924
 50
151.4785267423624
 51
208.5214732576695
 73
     1
 72
     2
 10
-224.1510014467857
 20
-253.3846666674219
 40
0.5115800601960215
 50
208.5214732576866
 51
246.6277221118449
 73
     1
 72
     2
 10
-223.9945614140826
 20
-253.0226746487119
 40
0.9059297849852801
 50
246.6277221118183
 51
288.4480761180817
 73
     1
 72
     2
 10
-224.4127291477445
 20
-251.7691288726753
 40
2.227384008972746
 50
288.4480761181335
 51
301.9309089499397
 73
     1
 72
     1
 10
-223.2346741057206
 20
-253.6594795918251
 11
-223.2346741057206
 21
-254.5319965986284
 72
     2
 10
-224.5706020228373
 20
-249.866914292827
 40
4.852596863498825
 50
74.02000874166129
 51
84.84185523036365
 73
     0
 72
     2
 10
-224.2817459281015
 20
-253.0668048760486
 40
1.639695123940448
 50
84.8418552303238
 51
164.9381082228988
 73
     0
 72
     2
 10
-224.7008737715631
 20
-253.1795952380834
 40
1.205656168393002
 50
164.9381082229041
 51
195.0618917770972
 73
     0
 72
     2
 10
-224.2817459281015
 20
-253.2923856001183
 40
1.639695123940214
 50
195.061891777105
 51
270.0
 73
     0
 72
     1
 10
-224.2817459281015
 20
-251.6526904761781
 11
-220.8968004094728
 21
-251.6526904761776
 72
     1
 10
-220.8968004094728
 20
-251.6526904761776
 11
-220.8968004094728
 21
-252.4379557823012
 97
       18
330
28F
330
325
330
326
330
30E
330
30D
330
2F3
330
30C
330
30B
330
327
330
30A
330
328
330
309
330
2F4
330
28E
330
293
330
292
330
291
330
290
 75
     1
 76
     0
 52
45.0
 41
0.1
 77
     0
 78
     1
 53
45.0
 43
0.0
 44
0.0
 45
-0.0707106781186548
 46
0.0707106781186548
 79
     0
 98
        1
 10
0.0
 20
0.0
  0
HATCH
  5
37A
330
71
100
AcDbEntity
  8
1
  6
Continuous
 62
     2
100
AcDbHatch
 10
0.0
 20
0.0
 30
0.0
210
0.0
220
0.0
230
1.0
  2
_USER
 70
     0
 71
     1
 91
        1
 92
        1
 93
       14
 72
     2
 10
-240.3844474073544
 20
-253.2923856001183
 40
1.639695123940507
 50
84.84185523036236
 51
164.9381082228864
 73
     1
 72
     2
 10
-240.8035752508172
 20
-253.1795952380834
 40
1.205656168390944
 50
164.9381082228765
 51
195.0618917770948
 73
     1
 72
     2
 10
-240.3844474073544
 20
-253.0668048760486
 40
1.639695123939387
 50
195.0618917770896
 51
275.1581447696395
 73
     1
 72
     2
 10
-240.6733035020903
 20
-249.866914292827
 40
4.852596863498138
 50
275.1581447696249
 51
285.9799912583529
 73
     1
 72
     1
 10
-239.3373755849725
 20
-254.5319965986278
 11
-239.3373755849725
 21
-253.6594795918246
 72
     2
 10
-240.5154306269974
 20
-251.7691288726747
 40
2.227384008972737
 50
58.0690910500407
 51
71.55192388186722
 73
     0
 72
     2
 10
-240.0972628933366
 20
-253.0226746487119
 40
0.9059297849849192
 50
71.55192388184153
 51
113.372277888129
 73
     0
 72
     2
 10
-240.2537029260386
 20
-253.3846666674219
 40
0.5115800601948034
 50
113.3722778881726
 51
151.4785267423044
 73
     0
 72
     2
 10
-239.8763456679583
 20
-253.1795952380834
 40
0.9410597353332545
 50
151.4785267422943
 51
208.5214732577331
 73
     0
 72
     2
 10
-240.2537029260386
 20
-252.9745238087444
 40
0.5115800601948779
 50
208.5214732576956
 51
246.6277221118009
 73
     0
 72
     2
 10
-240.0972628933366
 20
-253.336515827455
 40
0.9059297849853228
 50
246.627722111871
 51
288.4480761181465
 73
     0
 72
     2
 10
-240.5154306269974
 20
-254.5900616034916
 40
2.227384008973478
 50
288.4480761181328
 51
301.9309089499592
 73
     0
 72
     1
 10
-239.3373755849725
 20
-252.6997108843417
 11
-239.3373755849725
 21
-251.8271938775384
 72
     2
 10
-240.6733035020903
 20
-256.4922761833393
 40
4.852596863498068
 50
74.02000874164739
 51
84.84185523037506
 73
     1
 97
       14
330
32D
330
32E
330
32F
330
330
330
2F5
330
306
330
305
330
304
330
331
330
332
330
303
330
333
330
2F6
330
302
 75
     1
 76
     0
 52
45.0
 41
0.1
 77
     0
 78
     1
 53
45.0
 43
0.0
 44
0.0
 45
-0.0707106781186548
 46
0.0707106781186548
 79
     0
 98
        1
 10
0.0
 20
0.0
  0
HATCH
  5
37B
330
71
100
AcDbEntity
  8
1
  6
Continuous
 62
     2
100
AcDbHatch
 10
0.0
 20
0.0
 30
0.0
210
0.0
220
0.0
230
1.0
  2
_USER
 70
     0
 71
     1
 91
        1
 92
        1
 93
       14
 72
     2
 10
-240.3844474073544
 20
-253.2923856001183
 40
1.639695123940507
 50
84.84185523036236
 51
164.9381082228864
 73
     1
 72
     2
 10
-240.8035752508172
 20
-253.1795952380834
 40
1.205656168390944
 50
164.9381082228765
 51
195.0618917770948
 73
     1
 72
     2
 10
-240.3844474073544
 20
-253.0668048760486
 40
1.639695123939387
 50
195.0618917770896
 51
275.1581447696395
 73
     1
 72
     2
 10
-240.6733035020903
 20
-249.866914292827
 40
4.852596863498138
 50
275.1581447696249
 51
285.9799912583529
 73
     1
 72
     1
 10
-239.3373755849725
 20
-254.5319965986278
 11
-239.3373755849725
 21
-253.6594795918246
 72
     2
 10
-240.5154306269974
 20
-251.7691288726747
 40
2.227384008972737
 50
58.0690910500407
 51
71.55192388186722
 73
     0
 72
     2
 10
-240.0972628933366
 20
-253.0226746487119
 40
0.9059297849849192
 50
71.55192388184153
 51
113.372277888129
 73
     0
 72
     2
 10
-240.2537029260386
 20
-253.3846666674219
 40
0.5115800601948034
 50
113.3722778881726
 51
151.4785267423044
 73
     0
 72
     2
 10
-239.8763456679583
 20
-253.1795952380834
 40
0.9410597353332545
 50
151.4785267422943
 51
208.5214732577331
 73
     0
 72
     2
 10
-240.2537029260386
 20
-252.9745238087444
 40
0.5115800601948779
 50
208.5214732576956
 51
246.6277221118009
 73
     0
 72
     2
 10
-240.0972628933366
 20
-253.336515827455
 40
0.9059297849853228
 50
246.627722111871
 51
288.4480761181465
 73
     0
 72
     2
 10
-240.5154306269974
 20
-254.5900616034916
 40
2.227384008973478
 50
288.4480761181328
 51
301.9309089499592
 73
     0
 72
     1
 10
-239.3373755849725
 20
-252.6997108843417
 11
-239.3373755849725
 21
-251.8271938775384
 72
     2
 10
-240.6733035020903
 20
-256.4922761833393
 40
4.852596863498068
 50
74.02000874164739
 51
84.84185523037506
 73
     1
 97
       14
330
32D
330
32E
330
32F
330
330
330
2F5
330
306
330
305
330
304
330
331
330
332
330
303
330
333
330
2F6
330
302
 75
     1
 76
     0
 52
45.0
 41
0.1
 77
     0
 78
     1
 53
45.0
 43
0.0
 44
0.0
 45
-0.0707106781186548
 46
0.0707106781186548
 79
     0
 98
        1
 10
0.0
 20
0.0
  0
ENDBLK
  5
73
330
71
100
AcDbEntity
  8
0
100
AcDbBlockEnd
  0
BLOCK
  5
75
330
74
100
AcDbEntity
  8
0
100
AcDbBlockBegin
  2
_punkt
 70
     0
 10
-123.4999999999899
 20
-262.000000000005
 30
0.0
  3
_punkt
  1

  0
LINE
  5
37C
330
74
100
AcDbEntity
  8
1
  6
Continuous
 62
     2
100
AcDbLine
 10
-123.4999999999899
 20
-262.000000000005
 30
0.0
 11
-118.4999999999909
 21
-262.000000000005
 31
0.0
  0
LINE
  5
37D
330
74
100
AcDbEntity
  8
1
  6
Continuous
 62
     2
100
AcDbLine
 10
-123.4999999999899
 20
-262.000000000005
 30
0.0
 11
-123.4999999999899
 21
-267.0000000000051
 31
0.0
  0
ENDBLK
  5
76
330
74
100
AcDbEntity
  8
0
100
AcDbBlockEnd
  0
BLOCK
  5
7A
330
77
100
AcDbEntity
  8
0
100
AcDbBlockBegin
  2
A4I_CS
 70
     0
 10
-123.4999999999899
 20
-267.0000000000051
 30
0.0
  3
A4I_CS
  1

  0
INSERT
  5
78
330
77
100
AcDbEntity
  8
1
100
AcDbBlockReference
  2
_rahmen
 10
-123.4999999999899
 20
-267.0000000000051
 30
0.0
  0
INSERT
  5
79
330
77
100
AcDbEntity
  8
1
100
AcDbBlockReference
  2
_punkt
 10
-123.4999999999899
 20
-262.000000000005
 30
0.0
  0
ENDBLK
  5
7B
330
77
100
AcDbEntity
  8
0
100
AcDbBlockEnd
  0
BLOCK
  5
84
330
7C
100
AcDbEntity
  8
0
100
AcDbBlockBegin
  2
1
 70
     0
 10
0.0
 20
0.0
 30
0.0
  3
1
  1

  0
INSERT
  5
7D
330
7C
100
AcDbEntity
  8
0
100
AcDbBlockReference
  2
Allg1
 10
-173.9999973383881
 20
-194.350000768346
 30
0.0
 41
2.0
 42
2.0
 43
2.0
  0
INSERT
  5
7E
330
7C
100
AcDbEntity
  8
0
100
AcDbBlockReference
  2
Drfsicht1
 10
-288.1500040953676
 20
-204.3500008583168
 30
0.0
 41
2.0
 42
2.0
 43
2.0
  0
INSERT
  5
7F
330
7C
100
AcDbEntity
  8
0
100
AcDbBlockReference
  2
Rckans1
 10
-181.8499959046322
 20
-124.0000000000002
 30
0.0
 41
2.0
 42
2.0
 43
2.0
  0
INSERT
  5
80
330
7C
100
AcDbEntity
  8
0
100
AcDbBlockReference
  2
SA_Links1
 10
-234.99999999999
 20
-124.0000000000001
 30
0.0
 41
2.0
 42
2.0
 43
2.0
  0
INSERT
  5
81
330
7C
100
AcDbEntity
  8
0
100
AcDbBlockReference
  2
SA_Rechts1
 10
-373.3000063374852
 20
-124.0
 30
0.0
 41
2.0
 42
2.0
 43
2.0
  0
INSERT
  5
82
330
7C
100
AcDbEntity
  8
0
100
AcDbBlockReference
  2
Vordans1
 10
-288.1500040953676
 20
-124.0
 30
0.0
 41
2.0
 42
2.0
 43
2.0
  0
INSERT
  5
83
330
7C
100
AcDbEntity
  8
0
100
AcDbBlockReference
  2
A4I_CS
 10
-123.4999999999899
 20
-267.0000000000051
 30
0.0
  0
ENDBLK
  5
85
330
7C
100
AcDbEntity
  8
0
100
AcDbBlockEnd
  0
BLOCK
  5
156
330
14F
100
AcDbEntity
  8
0
100
AcDbBlockBegin
  2
*D17
 70
     1
 10
0.0
 20
0.0
 30
0.0
  3
*D17
  1

  0
LINE
  5
150
330
14F
100
AcDbEntity
  8
1
  6
Continuous
 62
     2
100
AcDbLine
 10
-163.0750009743142
 20
-99.60000047684704
 30
0.0
 11
-163.0750009743142
 21
-104.750000476847
 31
0.0
  0
LINE
  5
151
330
14F
100
AcDbEntity
  8
1
  6
Continuous
 62
     2
100
AcDbLine
 10
-158.0750009743142
 20
-99.60000047684704
 30
0.0
 11
-163.8250009743142
 21
-99.60000047684704
 31
0.0
  0
LINE
  5
152
330
14F
100
AcDbEntity
  8
1
  6
Continuous
 62
     2
100
AcDbLine
 10
-158.0750009743142
 20
-104.750000476847
 30
0.0
 11
-163.8250009743142
 21
-104.750000476847
 31
0.0
  0
SOLID
  5
153
330
14F
100
AcDbEntity
  8
1
 62
     2
100
AcDbTrace
 10
-162.8446091035363
 20
-101.350000476847
 30
0.0
 11
-163.3053928450921
 21
-101.350000476847
 31
0.0
 12
-163.0750009743142
 22
-99.60000047684704
 32
0.0
 13
-163.0750009743142
 23
-99.60000047684704
 33
0.0
  0
SOLID
  5
154
330
14F
100
AcDbEntity
  8
1
 62
     2
100
AcDbTrace
 10
-163.3053928450921
 20
-103.000000476847
 30
0.0
 11
-162.8446091035363
 21
-103.000000476847
 31
0.0
 12
-163.0750009743142
 22
-104.750000476847
 32
0.0
 13
-163.0750009743142
 23
-104.750000476847
 33
0.0
  0
MTEXT
  5
155
330
14F
100
AcDbEntity
  8
1
 62
     3
100
AcDbMText
 10
-164.0000009743142
 20
-104.5611793389409
 30
0.0
 40
1.75
 41
0.0
 71
     7
 72
     1
  1
5,15
  7
CONVERTER_11
 11
0.0
 21
1.0
 31
0.0
 73
     1
 44
0.60024009603842
  0
ENDBLK
  5
157
330
14F
100
AcDbEntity
  8
0
100
AcDbBlockEnd
  0
BLOCK
  5
215
330
20E
100
AcDbEntity
  8
0
100
AcDbBlockBegin
  2
*D18
 70
     1
 10
0.0
 20
0.0
 30
0.0
  3
*D18
  1

  0
LINE
  5
20F
330
20E
100
AcDbEntity
  8
1
  6
Continuous
 62
     2
100
AcDbLine
 10
-143.3750009743143
 20
-79.413071290036
 30
0.0
 11
-135.8750009743142
 21
-79.413071290036
 31
0.0
  0
LINE
  5
210
330
20E
100
AcDbEntity
  8
1
  6
Continuous
 62
     2
100
AcDbLine
 10
-143.3750009743143
 20
-74.3524910496365
 30
0.0
 11
-143.3750009743143
 21
-80.163071290036
 31
0.0
  0
LINE
  5
211
330
20E
100
AcDbEntity
  8
1
  6
Continuous
 62
     2
100
AcDbLine
 10
-135.8750009743142
 20
-73.0999996185303
 30
0.0
 11
-135.8750009743142
 21
-80.163071290036
 31
0.0
  0
SOLID
  5
212
330
20E
100
AcDbEntity
  8
1
 62
     2
100
AcDbTrace
 10
-141.6250009743143
 20
-79.18267941925806
 30
0.0
 11
-141.6250009743143
 21
-79.64346316081394
 31
0.0
 12
-143.3750009743143
 22
-79.413071290036
 32
0.0
 13
-143.3750009743143
 23
-79.413071290036
 33
0.0
  0
SOLID
  5
213
330
20E
100
AcDbEntity
  8
1
 62
     2
100
AcDbTrace
 10
-137.6250009743142
 20
-79.64346316081394
 30
0.0
 11
-137.6250009743142
 21
-79.18267941925806
 31
0.0
 12
-135.8750009743142
 22
-79.413071290036
 32
0.0
 13
-135.8750009743142
 23
-79.413071290036
 33
0.0
  0
MTEXT
  5
214
330
20E
100
AcDbEntity
  8
1
 62
     3
100
AcDbMText
 10
-141.4481596563175
 20
-78.48807129003599
 30
0.0
 40
1.75
 41
0.0
 71
     7
 72
     1
  1
7,5
  7
CONVERTER_11
 11
0.9999999999970619
 21
2.424068405545306E-6
 31
0.0
 73
     1
 44
0.60024009603842
  0
ENDBLK
  5
216
330
20E
100
AcDbEntity
  8
0
100
AcDbBlockEnd
  0
BLOCK
  5
220
330
219
100
AcDbEntity
  8
0
100
AcDbBlockBegin
  2
*D19
 70
     1
 10
0.0
 20
0.0
 30
0.0
  3
*D19
  1

  0
LINE
  5
21A
330
219
100
AcDbEntity
  8
1
  6
Continuous
 62
     2
100
AcDbLine
 10
-143.3750009743143
 20
-84.333240219795
 30
0.0
 11
-130.0750009743142
 21
-84.333240219795
 31
0.0
  0
LINE
  5
21B
330
219
100
AcDbEntity
  8
1
  6
Continuous
 62
     2
100
AcDbLine
 10
-143.3750009743143
 20
-74.3524910496365
 30
0.0
 11
-143.3750009743143
 21
-85.083240219795
 31
0.0
  0
LINE
  5
21C
330
219
100
AcDbEntity
  8
1
  6
Continuous
 62
     2
100
AcDbLine
 10
-130.0750009743142
 20
-73.89999961853032
 30
0.0
 11
-130.0750009743142
 21
-85.083240219795
 31
0.0
  0
SOLID
  5
21D
330
219
100
AcDbEntity
  8
1
 62
     2
100
AcDbTrace
 10
-141.6250009743143
 20
-84.10284834901707
 30
0.0
 11
-141.6250009743143
 21
-84.56363209057294
 31
0.0
 12
-143.3750009743143
 22
-84.333240219795
 32
0.0
 13
-143.3750009743143
 23
-84.333240219795
 33
0.0
  0
SOLID
  5
21E
330
219
100
AcDbEntity
  8
1
 62
     2
100
AcDbTrace
 10
-131.8250009743142
 20
-84.56363209057294
 30
0.0
 11
-131.8250009743142
 21
-84.10284834901707
 31
0.0
 12
-130.0750009743142
 22
-84.333240219795
 32
0.0
 13
-130.0750009743142
 23
-84.333240219795
 33
0.0
  0
MTEXT
  5
21F
330
219
100
AcDbEntity
  8
1
 62
     3
100
AcDbMText
 10
-140.630222070718
 20
-83.40824021979499
 30
0.0
 40
1.75
 41
0.0
 71
     7
 72
     1
  1
13,3
  7
CONVERTER_11
 11
0.9999999999970619
 21
2.424068405545306E-6
 31
0.0
 73
     1
 44
0.60024009603842
  0
ENDBLK
  5
221
330
219
100
AcDbEntity
  8
0
100
AcDbBlockEnd
  0
BLOCK
  5
22B
330
224
100
AcDbEntity
  8
0
100
AcDbBlockBegin
  2
*D20
 70
     1
 10
0.0
 20
0.0
 30
0.0
  3
*D20
  1

  0
LINE
  5
225
330
224
100
AcDbEntity
  8
1
  6
Continuous
 62
     2
100
AcDbLine
 10
-158.0750009743143
 20
-89.333240219795
 30
0.0
 11
-130.0750009743143
 21
-89.333240219795
 31
0.0
  0
LINE
  5
226
330
224
100
AcDbEntity
  8
1
  6
Continuous
 62
     2
100
AcDbLine
 10
-158.0750009743143
 20
-73.89999961853032
 30
0.0
 11
-158.0750009743143
 21
-90.083240219795
 31
0.0
  0
LINE
  5
227
330
224
100
AcDbEntity
  8
1
  6
Continuous
 62
     2
100
AcDbLine
 10
-130.0750009743143
 20
-73.89999961853032
 30
0.0
 11
-130.0750009743143
 21
-90.083240219795
 31
0.0
  0
SOLID
  5
228
330
224
100
AcDbEntity
  8
1
 62
     2
100
AcDbTrace
 10
-156.3250009743143
 20
-89.10284834901707
 30
0.0
 11
-156.3250009743143
 21
-89.56363209057294
 31
0.0
 12
-158.0750009743143
 22
-89.333240219795
 32
0.0
 13
-158.0750009743143
 23
-89.333240219795
 33
0.0
  0
SOLID
  5
229
330
224
100
AcDbEntity
  8
1
 62
     2
100
AcDbTrace
 10
-131.8250009743143
 20
-89.56363209057294
 30
0.0
 11
-131.8250009743143
 21
-89.10284834901707
 31
0.0
 12
-130.0750009743143
 22
-89.333240219795
 32
0.0
 13
-130.0750009743143
 23
-89.333240219795
 33
0.0
  0
MTEXT
  5
22A
330
224
100
AcDbEntity
  8
1
 62
     3
100
AcDbMText
 10
-143.6605675608365
 20
-88.583240219795
 30
0.0
 40
1.75
 41
0.0
 71
     7
 72
     1
  1
28
  7
CONVERTER_11
 11
0.9999999999970619
 21
2.424068405545306E-6
 31
0.0
 73
     1
 44
0.60024009603842
  0
ENDBLK
  5
22C
330
224
100
AcDbEntity
  8
0
100
AcDbBlockEnd
  0
BLOCK
  5
236
330
22F
100
AcDbEntity
  8
0
100
AcDbBlockBegin
  2
*D21
 70
     1
 10
0.0
 20
0.0
 30
0.0
  3
*D21
  1

  0
LINE
  5
230
330
22F
100
AcDbEntity
  8
1
  6
Continuous
 62
     2
100
AcDbLine
 10
-163.0750009743142
 20
-48.89999961853032
 30
0.0
 11
-163.0750009743142
 21
-73.0999996185303
 31
0.0
  0
LINE
  5
231
330
22F
100
AcDbEntity
  8
1
  6
Continuous
 62
     2
100
AcDbLine
 10
-158.0750009743142
 20
-48.89999961853032
 30
0.0
 11
-163.8250009743142
 21
-48.89999961853032
 31
0.0
  0
LINE
  5
232
330
22F
100
AcDbEntity
  8
1
  6
Continuous
 62
     2
100
AcDbLine
 10
-152.2750009743142
 20
-73.0999996185303
 30
0.0
 11
-163.8250009743142
 21
-73.0999996185303
 31
0.0
  0
SOLID
  5
233
330
22F
100
AcDbEntity
  8
1
 62
     2
100
AcDbTrace
 10
-162.8446091035363
 20
-50.64999961853032
 30
0.0
 11
-163.3053928450921
 21
-50.64999961853032
 31
0.0
 12
-163.0750009743142
 22
-48.89999961853032
 32
0.0
 13
-163.0750009743142
 23
-48.89999961853032
 33
0.0
  0
SOLID
  5
234
330
22F
100
AcDbEntity
  8
1
 62
     2
100
AcDbTrace
 10
-163.3053928450921
 20
-71.3499996185303
 30
0.0
 11
-162.8446091035363
 21
-71.3499996185303
 31
0.0
 12
-163.0750009743142
 22
-73.0999996185303
 32
0.0
 13
-163.0750009743142
 23
-73.0999996185303
 33
0.0
  0
MTEXT
  5
235
330
22F
100
AcDbEntity
  8
1
 62
     3
100
AcDbMText
 10
-164.0000009743142
 20
-64.1192220723935
 30
0.0
 40
1.75
 41
0.0
 71
     7
 72
     1
  1
24,2
  7
CONVERTER_11
 11
0.0
 21
1.0
 31
0.0
 73
     1
 44
0.60024009603842
  0
ENDBLK
  5
237
330
22F
100
AcDbEntity
  8
0
100
AcDbBlockEnd
  0
BLOCK
  5
241
330
23A
100
AcDbEntity
  8
0
100
AcDbBlockBegin
  2
*D22
 70
     1
 10
0.0
 20
0.0
 30
0.0
  3
*D22
  1

  0
LINE
  5
23B
330
23A
100
AcDbEntity
  8
1
  6
Continuous
 62
     2
100
AcDbLine
 10
-168.5750009743142
 20
-77.0999996185303
 30
0.0
 11
-168.5750009743142
 21
-46.89999961853032
 31
0.0
  0
LINE
  5
23C
330
23A
100
AcDbEntity
  8
1
  6
Continuous
 62
     2
100
AcDbLine
 10
-152.5586733253299
 20
-77.0999996185303
 30
0.0
 11
-169.3250009743142
 21
-77.0999996185303
 31
0.0
  0
LINE
  5
23D
330
23A
100
AcDbEntity
  8
1
  6
Continuous
 62
     2
100
AcDbLine
 10
-148.0250009743142
 20
-46.89999961853032
 30
0.0
 11
-169.3250009743142
 21
-46.89999961853032
 31
0.0
  0
SOLID
  5
23E
330
23A
100
AcDbEntity
  8
1
 62
     2
100
AcDbTrace
 10
-168.8053928450921
 20
-75.3499996185303
 30
0.0
 11
-168.3446091035363
 21
-75.3499996185303
 31
0.0
 12
-168.5750009743142
 22
-77.0999996185303
 32
0.0
 13
-168.5750009743142
 23
-77.0999996185303
 33
0.0
  0
SOLID
  5
23F
330
23A
100
AcDbEntity
  8
1
 62
     2
100
AcDbTrace
 10
-168.3446091035363
 20
-48.64999961853032
 30
0.0
 11
-168.8053928450921
 21
-48.64999961853032
 31
0.0
 12
-168.5750009743142
 22
-46.89999961853032
 32
0.0
 13
-168.5750009743142
 23
-46.89999961853032
 33
0.0
  0
MTEXT
  5
240
330
23A
100
AcDbEntity
  8
1
 62
     3
100
AcDbMText
 10
-169.5000009743142
 20
-64.1192220723935
 30
0.0
 40
1.75
 41
0.0
 71
     7
 72
     1
  1
30,2
  7
CONVERTER_11
 11
0.0
 21
1.0
 31
0.0
 73
     1
 44
0.60024009603842
  0
ENDBLK
  5
242
330
23A
100
AcDbEntity
  8
0
100
AcDbBlockEnd
  0
ENDSEC
  0
SECTION
  2
ENTITIES
  0
INSERT
  5
86
330
1F
100
AcDbEntity
  8
1
100
AcDbBlockReference
  2
1
 10
0.0
 20
0.0
 30
0.0
  0
ENDSEC
  0
SECTION
  2
OBJECTS
  0
DICTIONARY
  5
C
330
0
100
AcDbDictionary
281
     1
  3
ACAD_GROUP
350
D
  3
ACAD_LAYOUT
350
1A
  3
ACAD_MATERIAL
350
3B
  3
ACAD_MLEADERSTYLE
350
3A5
  3
ACAD_MLINESTYLE
350
17
  3
ACAD_PLOTSETTINGS
350
19
  3
ACAD_PLOTSTYLENAME
350
E
  3
ACAD_TABLESTYLE
350
3A4
  3
ACAD_VISUALSTYLE
350
2A
  0
DICTIONARY
  5
D
102
{ACAD_REACTORS
330
C
102
}
330
C
100
AcDbDictionary
281
     1
  0
DICTIONARY
  5
1A
102
{ACAD_REACTORS
330
C
102
}
330
C
100
AcDbDictionary
281
     1
  3
Layout1
350
1E
  3
Layout2
350
26
  3
Model
350
22
  0
DICTIONARY
  5
3B
102
{ACAD_REACTORS
330
C
102
}
330
C
100
AcDbDictionary
281
     1
  3
ByBlock
350
3D
  3
ByLayer
350
3C
  3
Global
350
3E
  0
DICTIONARY
  5
3A5
102
{ACAD_REACTORS
330
C
102
}
330
C
100
AcDbDictionary
281
     1
  0
DICTIONARY
  5
17
102
{ACAD_REACTORS
330
C
102
}
330
C
100
AcDbDictionary
281
     1
  3
Standard
350
18
  0
DICTIONARY
  5
19
102
{ACAD_REACTORS
330
C
102
}
330
C
100
AcDbDictionary
281
     1
  0
ACDBDICTIONARYWDFLT
  5
E
102
{ACAD_REACTORS
330
C
102
}
330
C
100
AcDbDictionary
281
     1
  3
Normal
350
F
100
AcDbDictionaryWithDefault
340
F
  0
DICTIONARY
  5
3A4
102
{ACAD_REACTORS
330
C
102
}
330
C
100
AcDbDictionary
281
     1
  0
DICTIONARY
  5
2A
102
{ACAD_REACTORS
330
C
102
}
330
C
100
AcDbDictionary
281
     1
  3
2dWireframe
350
2F
  3
3D Hidden
350
31
  3
3dWireframe
350
30
  3
Basic
350
32
  3
Brighten
350
36
  3
ColorChange
350
3A
  3
Conceptual
350
34
  3
Dim
350
35
  3
Facepattern
350
39
  3
Flat
350
2B
  3
FlatWithEdges
350
2C
  3
Gouraud
350
2D
  3
GouraudWithEdges
350
2E
  3
Linepattern
350
38
  3
Realistic
350
33
  3
Thicken
350
37
  0
LAYOUT
  5
1E
102
{ACAD_REACTORS
330
1A
102
}
330
1A
100
AcDbPlotSettings
  1

  2
none_device
  4

  6

 40
0.0
 41
0.0
 42
0.0
 43
0.0
 44
0.0
 45
0.0
 46
0.0
 47
0.0
 48
0.0
 49
0.0
140
0.0
141
0.0
142
1.0
143
1.0
 70
   688
 72
     0
 73
     0
 74
     5
  7

 75
    16
 76
     0
 77
     2
 78
   300
147
1.0
148
0.0
149
0.0
100
AcDbLayout
  1
Layout1
 70
     1
 71
     1
 10
0.0
 20
0.0
 11
12.0
 21
9.0
 12
0.0
 22
0.0
 32
0.0
 14
1.00000000000000E+20
 24
1.00000000000000E+20
 34
1.00000000000000E+20
 15
-1.00000000000000E+20
 25
-1.00000000000000E+20
 35
-1.00000000000000E+20
146
0.0
 13
0.0
 23
0.0
 33
0.0
 16
1.0
 26
0.0
 36
0.0
 17
0.0
 27
1.0
 37
0.0
 76
     0
330
1B
  0
LAYOUT
  5
26
102
{ACAD_REACTORS
330
1A
102
}
330
1A
100
AcDbPlotSettings
  1

  2
none_device
  4

  6

 40
0.0
 41
0.0
 42
0.0
 43
0.0
 44
0.0
 45
0.0
 46
0.0
 47
0.0
 48
0.0
 49
0.0
140
0.0
141
0.0
142
1.0
143
1.0
 70
   688
 72
     0
 73
     0
 74
     5
  7

 75
    16
 76
     0
 77
     2
 78
   300
147
1.0
148
0.0
149
0.0
100
AcDbLayout
  1
Layout2
 70
     1
 71
     2
 10
0.0
 20
0.0
 11
0.0
 21
0.0
 12
0.0
 22
0.0
 32
0.0
 14
0.0
 24
0.0
 34
0.0
 15
0.0
 25
0.0
 35
0.0
146
0.0
 13
0.0
 23
0.0
 33
0.0
 16
1.0
 26
0.0
 36
0.0
 17
0.0
 27
1.0
 37
0.0
 76
     0
330
23
  0
LAYOUT
  5
22
102
{ACAD_REACTORS
330
1A
102
}
330
1A
100
AcDbPlotSettings
  1

  2
none_device
  4

  6

 40
0.0
 41
0.0
 42
0.0
 43
0.0
 44
0.0
 45
0.0
 46
0.0
 47
0.0
 48
0.0
 49
0.0
140
0.0
141
0.0
142
1.0
143
1.0
 70
  1712
 72
     0
 73
     0
 74
     0
  7

 75
     0
 76
     0
 77
     2
 78
   300
147
1.0
148
0.0
149
0.0
100
AcDbLayout
  1
Model
 70
     1
 71
     0
 10
0.0
 20
0.0
 11
12.0
 21
9.0
 12
0.0
 22
0.0
 32
0.0
 14
-415.499999999989
 24
-267.0000000000051
 34
0.0
 15
-118.4999999999909
 25
-57.000000000005
 35
0.0
146
0.0
 13
0.0
 23
0.0
 33
0.0
 16
1.0
 26
0.0
 36
0.0
 17
0.0
 27
1.0
 37
0.0
 76
     0
330
1F
331
29
  0
MATERIAL
  5
3D
102
{ACAD_REACTORS
330
3B
102
}
102
{ACAD_XDICTIONARY
360
3A0
102
}
330
3B
100
AcDbMaterial
  1
ByBlock
  0
MATERIAL
  5
3C
102
{ACAD_REACTORS
330
3B
102
}
102
{ACAD_XDICTIONARY
360
39E
102
}
330
3B
100
AcDbMaterial
  1
ByLayer
  0
MATERIAL
  5
3E
102
{ACAD_REACTORS
330
3B
102
}
102
{ACAD_XDICTIONARY
360
3A2
102
}
330
3B
100
AcDbMaterial
  1
Global
  0
MLINESTYLE
  5
18
102
{ACAD_REACTORS
330
17
102
}
330
17
100
AcDbMlineStyle
  2
Standard
 70
     0
  3

 62
   256
 51
90.0
 52
90.0
 71
     2
 49
0.5
 62
   256
  6
BYLAYER
 49
-0.5
 62
   256
  6
BYLAYER
  0
ACDBPLACEHOLDER
  5
F
102
{ACAD_REACTORS
330
E
102
}
330
E
  0
VISUALSTYLE
  5
2F
102
{ACAD_REACTORS
330
2A
102
}
102
{ACAD_XDICTIONARY
360
386
102
}
330
2A
100
AcDbVisualStyle
  2
2dWireframe
 70
     4
 71
     0
 72
     2
 73
     0
 90
        0
 40
-0.6
 41
-30.0
 62
     5
 63
     7
421
 16777215
 74
     1
 91
        4
 64
     7
 65
   257
 75
     1
175
     1
 42
1.0
 92
        0
 66
   257
 43
1.0
 76
     1
 77
     6
 78
     2
 67
     7
 79
     5
170
     0
171
     0
290
     0
174
     0
 93
        1
 44
0.0
173
     0
291
     0
 45
0.0
1001
ACAD
1000
AcDbSavedByObjectVersion
1070
     0
  0
VISUALSTYLE
  5
31
102
{ACAD_REACTORS
330
2A
102
}
102
{ACAD_XDICTIONARY
360
38A
102
}
330
2A
100
AcDbVisualStyle
  2
3D Hidden
 70
     6
 71
     1
 72
     2
 73
     2
 90
        0
 40
-0.6
 41
-30.0
 62
     5
 63
     7
421
 16777215
 74
     2
 91
        2
 64
     7
 65
   257
 75
     2
175
     1
 42
40.0
 92
        0
 66
   257
 43
1.0
 76
     1
 77
     6
 78
     2
 67
     7
 79
     3
170
     0
171
     0
290
     0
174
     0
 93
        1
 44
0.0
173
     0
291
     0
 45
0.0
1001
ACAD
1000
AcDbSavedByObjectVersion
1070
     0
  0
VISUALSTYLE
  5
30
102
{ACAD_REACTORS
330
2A
102
}
102
{ACAD_XDICTIONARY
360
388
102
}
330
2A
100
AcDbVisualStyle
  2
3dWireframe
 70
     5
 71
     0
 72
     2
 73
     0
 90
        0
 40
-0.6
 41
-30.0
 62
     5
 63
     7
421
 16777215
 74
     1
 91
        4
 64
     7
 65
   257
 75
     1
175
     1
 42
1.0
 92
        0
 66
   257
 43
1.0
 76
     1
 77
     6
 78
     2
 67
     7
 79
     5
170
     0
171
     0
290
     0
174
     0
 93
        1
 44
0.0
173
     0
291
     0
 45
0.0
1001
ACAD
1000
AcDbSavedByObjectVersion
1070
     0
  0
VISUALSTYLE
  5
32
102
{ACAD_REACTORS
330
2A
102
}
102
{ACAD_XDICTIONARY
360
38C
102
}
330
2A
100
AcDbVisualStyle
  2
Basic
 70
     7
 71
     1
 72
     0
 73
     1
 90
        0
 40
-0.6
 41
-30.0
 62
     5
 63
     7
421
 16777215
 74
     0
 91
        4
 64
     7
 65
   257
 75
     1
175
     1
 42
1.0
 92
        8
 66
     7
 43
1.0
 76
     1
 77
     6
 78
     2
 67
     7
 79
     5
170
     0
171
     0
290
     0
174
     0
 93
        1
 44
0.0
173
     0
291
     1
 45
0.0
1001
ACAD
1000
AcDbSavedByObjectVersion
1070
     0
  0
VISUALSTYLE
  5
36
102
{ACAD_REACTORS
330
2A
102
}
102
{ACAD_XDICTIONARY
360
394
102
}
330
2A
100
AcDbVisualStyle
  2
Brighten
 70
    12
 71
     2
 72
     2
 73
     0
 90
        0
 40
-0.6
 41
-30.0
 62
     5
 63
     7
421
 16777215
 74
     1
 91
        4
 64
     7
 65
   257
 75
     1
175
     1
 42
1.0
 92
        8
 66
     7
 43
1.0
 76
     1
 77
     6
 78
     2
 67
     7
 79
     5
170
     0
171
     0
290
     0
174
     0
 93
        1
 44
50.0
173
     0
291
     1
 45
0.0
1001
ACAD
1000
AcDbSavedByObjectVersion
1070
     0
  0
VISUALSTYLE
  5
3A
102
{ACAD_REACTORS
330
2A
102
}
102
{ACAD_XDICTIONARY
360
39C
102
}
330
2A
100
AcDbVisualStyle
  2
ColorChange
 70
    16
 71
     2
 72
     2
 73
     3
 90
        0
 40
-0.6
 41
-30.0
 62
     5
 63
     8
421
  8421504
 74
     1
 91
        4
 64
     7
 65
   257
 75
     1
175
     1
 42
1.0
 92
        8
 66
     8
424
  8421504
 43
1.0
 76
     1
 77
     6
 78
     2
 67
     7
 79
     5
170
     0
171
     0
290
     0
174
     0
 93
        1
 44
0.0
173
     0
291
     1
 45
0.0
1001
ACAD
1000
AcDbSavedByObjectVersion
1070
     0
  0
VISUALSTYLE
  5
34
102
{ACAD_REACTORS
330
2A
102
}
102
{ACAD_XDICTIONARY
360
390
102
}
330
2A
100
AcDbVisualStyle
  2
Conceptual
 70
     9
 71
     3
 72
     2
 73
     0
 90
        0
 40
-0.6
 41
-30.0
 62
     5
 63
     7
421
 16777215
 74
     2
 91
        2
 64
     7
 65
   257
 75
     1
175
     1
 42
40.0
 92
        8
 66
     7
 43
1.0
 76
     1
 77
     6
 78
     2
 67
     7
 79
     3
170
     0
171
     0
290
     0
174
     0
 93
        1
 44
0.0
173
     0
291
     0
 45
0.0
1001
ACAD
1000
AcDbSavedByObjectVersion
1070
     0
  0
VISUALSTYLE
  5
35
102
{ACAD_REACTORS
330
2A
102
}
102
{ACAD_XDICTIONARY
360
392
102
}
330
2A
100
AcDbVisualStyle
  2
Dim
 70
    11
 71
     2
 72
     2
 73
     0
 90
        0
 40
-0.6
 41
-30.0
 62
     5
 63
     7
421
 16777215
 74
     1
 91
        4
 64
     7
 65
   257
 75
     1
175
     1
 42
1.0
 92
        8
 66
     7
 43
1.0
 76
     1
 77
     6
 78
     2
 67
     7
 79
     5
170
     0
171
     0
290
     0
174
     0
 93
        1
 44
-50.0
173
     0
291
     1
 45
0.0
1001
ACAD
1000
AcDbSavedByObjectVersion
1070
     0
  0
VISUALSTYLE
  5
39
102
{ACAD_REACTORS
330
2A
102
}
102
{ACAD_XDICTIONARY
360
39A
102
}
330
2A
100
AcDbVisualStyle
  2
Facepattern
 70
    15
 71
     2
 72
     2
 73
     0
 90
        0
 40
-0.6
 41
-30.0
 62
     5
 63
     7
421
 16777215
 74
     1
 91
        4
 64
     7
 65
   257
 75
     1
175
     1
 42
1.0
 92
        8
 66
     7
 43
1.0
 76
     1
 77
     6
 78
     2
 67
     7
 79
     5
170
     0
171
     0
290
     0
174
     0
 93
        1
 44
0.0
173
     0
291
     1
 45
0.0
1001
ACAD
1000
AcDbSavedByObjectVersion
1070
     0
  0
VISUALSTYLE
  5
2B
102
{ACAD_REACTORS
330
2A
102
}
102
{ACAD_XDICTIONARY
360
37E
102
}
330
2A
100
AcDbVisualStyle
  2
Flat
 70
     0
 71
     2
 72
     1
 73
     1
 90
        2
 40
-0.6
 41
30.0
 62
     5
 63
     7
421
 16777215
 74
     0
 91
        4
 64
     7
 65
   257
 75
     1
175
     1
 42
1.0
 92
        8
 66
     7
 43
1.0
 76
     1
 77
     6
 78
     2
 67
     7
 79
     5
170
     0
171
     0
290
     0
174
     0
 93
       13
 44
0.0
173
     0
291
     1
 45
0.0
1001
ACAD
1000
AcDbSavedByObjectVersion
1070
     0
  0
VISUALSTYLE
  5
2C
102
{ACAD_REACTORS
330
2A
102
}
102
{ACAD_XDICTIONARY
360
380
102
}
330
2A
100
AcDbVisualStyle
  2
FlatWithEdges
 70
     1
 71
     2
 72
     1
 73
     1
 90
        2
 40
-0.6
 41
30.0
 62
     5
 63
     7
421
 16777215
 74
     1
 91
        4
 64
     7
 65
   257
 75
     1
175
     1
 42
1.0
 92
        0
 66
   257
 43
1.0
 76
     1
 77
     6
 78
     2
 67
     7
 79
     5
170
     0
171
     0
290
     0
174
     0
 93
       13
 44
0.0
173
     0
291
     1
 45
0.0
1001
ACAD
1000
AcDbSavedByObjectVersion
1070
     0
  0
VISUALSTYLE
  5
2D
102
{ACAD_REACTORS
330
2A
102
}
102
{ACAD_XDICTIONARY
360
382
102
}
330
2A
100
AcDbVisualStyle
  2
Gouraud
 70
     2
 71
     2
 72
     2
 73
     1
 90
        2
 40
-0.6
 41
30.0
 62
     5
 63
     7
421
 16777215
 74
     0
 91
        4
 64
     7
 65
   257
 75
     1
175
     1
 42
1.0
 92
        0
 66
     7
 43
1.0
 76
     1
 77
     6
 78
     2
 67
     7
 79
     5
170
     0
171
     0
290
     0
174
     0
 93
       13
 44
0.0
173
     0
291
     1
 45
0.0
1001
ACAD
1000
AcDbSavedByObjectVersion
1070
     0
  0
VISUALSTYLE
  5
2E
102
{ACAD_REACTORS
330
2A
102
}
102
{ACAD_XDICTIONARY
360
384
102
}
330
2A
100
AcDbVisualStyle
  2
GouraudWithEdges
 70
     3
 71
     2
 72
     2
 73
     1
 90
        2
 40
-0.6
 41
30.0
 62
     5
 63
     7
421
 16777215
 74
     1
 91
        4
 64
     7
 65
   257
 75
     1
175
     1
 42
1.0
 92
        0
 66
   257
 43
1.0
 76
     1
 77
     6
 78
     2
 67
     7
 79
     5
170
     0
171
     0
290
     0
174
     0
 93
       13
 44
0.0
173
     0
291
     1
 45
0.0
1001
ACAD
1000
AcDbSavedByObjectVersion
1070
     0
  0
VISUALSTYLE
  5
38
102
{ACAD_REACTORS
330
2A
102
}
102
{ACAD_XDICTIONARY
360
398
102
}
330
2A
100
AcDbVisualStyle
  2
Linepattern
 70
    14
 71
     2
 72
     2
 73
     0
 90
        0
 40
-0.6
 41
-30.0
 62
     5
 63
     7
421
 16777215
 74
     1
 91
        4
 64
     7
 65
   257
 75
     7
175
     7
 42
1.0
 92
        8
 66
     7
 43
1.0
 76
     1
 77
     6
 78
     2
 67
     7
 79
     5
170
     0
171
     0
290
     0
174
     0
 93
        1
 44
0.0
173
     0
291
     1
 45
0.0
1001
ACAD
1000
AcDbSavedByObjectVersion
1070
     0
  0
VISUALSTYLE
  5
33
102
{ACAD_REACTORS
330
2A
102
}
102
{ACAD_XDICTIONARY
360
38E
102
}
330
2A
100
AcDbVisualStyle
  2
Realistic
 70
     8
 71
     2
 72
     2
 73
     0
 90
        0
 40
-0.6
 41
-30.0
 62
     5
 63
     7
421
 16777215
 74
     1
 91
        0
 64
     7
 65
   257
 75
     1
175
     1
 42
1.0
 92
        8
 66
     8
424
  7895160
 43
1.0
 76
     1
 77
     6
 78
     2
 67
     7
 79
     5
170
     0
171
     0
290
     0
174
     0
 93
       13
 44
0.0
173
     0
291
     0
 45
0.0
1001
ACAD
1000
AcDbSavedByObjectVersion
1070
     0
  0
VISUALSTYLE
  5
37
102
{ACAD_REACTORS
330
2A
102
}
102
{ACAD_XDICTIONARY
360
396
102
}
330
2A
100
AcDbVisualStyle
  2
Thicken
 70
    13
 71
     2
 72
     2
 73
     0
 90
        0
 40
-0.6
 41
-30.0
 62
     5
 63
     7
421
 16777215
 74
     1
 91
        4
 64
     7
 65
   257
 75
     1
175
     1
 42
1.0
 92
       12
 66
     7
 43
1.0
 76
     1
 77
     6
 78
     2
 67
     7
 79
     5
170
     0
171
     0
290
     0
174
     0
 93
        1
 44
0.0
173
     0
291
     1
 45
0.0
1001
ACAD
1000
AcDbSavedByObjectVersion
1070
     0
  0
DICTIONARY
  5
3A0
330
3D
100
AcDbDictionary
280
     1
281
     1
  3
ACAD_XREC_ROUNDTRIP
360
3A1
  0
DICTIONARY
  5
39E
330
3C
100
AcDbDictionary
280
     1
281
     1
  3
ACAD_XREC_ROUNDTRIP
360
39F
  0
DICTIONARY
  5
3A2
330
3E
100
AcDbDictionary
280
     1
281
     1
  3
ACAD_XREC_ROUNDTRIP
360
3A3
  0
DICTIONARY
  5
386
330
2F
100
AcDbDictionary
280
     1
281
     1
  3
ACAD_XREC_ROUNDTRIP
360
387
  0
DICTIONARY
  5
38A
330
31
100
AcDbDictionary
280
     1
281
     1
  3
ACAD_XREC_ROUNDTRIP
360
38B
  0
DICTIONARY
  5
388
330
30
100
AcDbDictionary
280
     1
281
     1
  3
ACAD_XREC_ROUNDTRIP
360
389
  0
DICTIONARY
  5
38C
330
32
100
AcDbDictionary
280
     1
281
     1
  3
ACAD_XREC_ROUNDTRIP
360
38D
  0
DICTIONARY
  5
394
330
36
100
AcDbDictionary
280
     1
281
     1
  3
ACAD_XREC_ROUNDTRIP
360
395
  0
DICTIONARY
  5
39C
330
3A
100
AcDbDictionary
280
     1
281
     1
  3
ACAD_XREC_ROUNDTRIP
360
39D
  0
DICTIONARY
  5
390
330
34
100
AcDbDictionary
280
     1
281
     1
  3
ACAD_XREC_ROUNDTRIP
360
391
  0
DICTIONARY
  5
392
330
35
100
AcDbDictionary
280
     1
281
     1
  3
ACAD_XREC_ROUNDTRIP
360
393
  0
DICTIONARY
  5
39A
330
39
100
AcDbDictionary
280
     1
281
     1
  3
ACAD_XREC_ROUNDTRIP
360
39B
  0
DICTIONARY
  5
37E
330
2B
100
AcDbDictionary
280
     1
281
     1
  3
ACAD_XREC_ROUNDTRIP
360
37F
  0
DICTIONARY
  5
380
330
2C
100
AcDbDictionary
280
     1
281
     1
  3
ACAD_XREC_ROUNDTRIP
360
381
  0
DICTIONARY
  5
382
330
2D
100
AcDbDictionary
280
     1
281
     1
  3
ACAD_XREC_ROUNDTRIP
360
383
  0
DICTIONARY
  5
384
330
2E
100
AcDbDictionary
280
     1
281
     1
  3
ACAD_XREC_ROUNDTRIP
360
385
  0
DICTIONARY
  5
398
330
38
100
AcDbDictionary
280
     1
281
     1
  3
ACAD_XREC_ROUNDTRIP
360
399
  0
DICTIONARY
  5
38E
330
33
100
AcDbDictionary
280
     1
281
     1
  3
ACAD_XREC_ROUNDTRIP
360
38F
  0
DICTIONARY
  5
396
330
37
100
AcDbDictionary
280
     1
281
     1
  3
ACAD_XREC_ROUNDTRIP
360
397
  0
XRECORD
  5
3A1
102
{ACAD_REACTORS
330
3A0
102
}
330
3A0
100
AcDbXrecord
280
     1
102
MATERIAL
148
0.0
149
0.0
149
0.0
 93
        0
 94
      127
282
     0
 72
     1
 77
     1
171
     1
175
     1
179
     1
273
     0
  0
XRECORD
  5
39F
102
{ACAD_REACTORS
330
39E
102
}
330
39E
100
AcDbXrecord
280
     1
102
MATERIAL
148
0.0
149
0.0
149
0.0
 93
        0
 94
      127
282
     0
 72
     1
 77
     1
171
     1
175
     1
179
     1
273
     0
  0
XRECORD
  5
3A3
102
{ACAD_REACTORS
330
3A2
102
}
330
3A2
100
AcDbXrecord
280
     1
102
MATERIAL
148
0.0
149
0.0
149
0.0
 93
        0
 94
      127
282
     0
 72
     1
 77
     1
171
     1
175
     1
179
     1
273
     0
  0
XRECORD
  5
387
102
{ACAD_REACTORS
330
386
102
}
330
386
100
AcDbXrecord
280
     1
102
RTVSPropertyOp0
 70
     1
102
RTVSPropertyOp1
 70
     1
102
RTVSPropertyOp2
 70
     1
102
RTVSPropertyOp3
 70
     1
102
RTVSPropertyOp4
 70
     1
102
RTVSPropertyOp5
 70
     1
102
RTVSPropertyOp6
 70
     1
102
RTVSPropertyOp7
 70
     1
102
RTVSPropertyOp8
 70
     1
102
RTVSPropertyOp9
 70
     1
102
RTVSPropertyOp10
 70
     1
102
RTVSPropertyOp11
 70
     1
102
RTVSPropertyOp12
 70
     1
102
RTVSPropertyOp13
 70
     1
102
RTVSPropertyOp14
 70
     1
102
RTVSPropertyOp15
 70
     1
102
RTVSPropertyOp16
 70
     1
102
RTVSPropertyOp17
 70
     1
102
RTVSPropertyOp18
 70
     1
102
RTVSPropertyOp19
 70
     1
102
RTVSPropertyOp20
 70
     1
102
RTVSPropertyOp21
 70
     1
102
RTVSPropertyOp22
 70
     1
102
RTVSPropertyOp23
 70
     1
102
RTVSPropertyOp24
 70
     1
102
RTVSPropertyOp25
 70
     1
102
RTVSPropertyOp26
 70
     1
102
RTVSPropertyOp27
 70
     1
102
RTVSPropertyOp28
 70
     1
102
RTVSPropertyOp29
 70
     1
102
RTVSPropertyOp30
 70
     1
102
RTVSPropertyOp31
 70
     1
102
RTVSPropertyOp32
 70
     1
  0
XRECORD
  5
38B
102
{ACAD_REACTORS
330
38A
102
}
330
38A
100
AcDbXrecord
280
     1
102
RTVSPropertyOp0
 70
     1
102
RTVSPropertyOp1
 70
     1
102
RTVSPropertyOp2
 70
     1
102
RTVSPropertyOp3
 70
     1
102
RTVSPropertyOp4
 70
     1
102
RTVSPropertyOp5
 70
     1
102
RTVSPropertyOp6
 70
     1
102
RTVSPropertyOp7
 70
     1
102
RTVSPropertyOp8
 70
     1
102
RTVSPropertyOp9
 70
     1
102
RTVSPropertyOp10
 70
     1
102
RTVSPropertyOp11
 70
     1
102
RTVSPropertyOp12
 70
     1
102
RTVSPropertyOp13
 70
     1
102
RTVSPropertyOp14
 70
     1
102
RTVSPropertyOp15
 70
     1
102
RTVSPropertyOp16
 70
     1
102
RTVSPropertyOp17
 70
     1
102
RTVSPropertyOp18
 70
     1
102
RTVSPropertyOp19
 70
     1
102
RTVSPropertyOp20
 70
     1
102
RTVSPropertyOp21
 70
     1
102
RTVSPropertyOp22
 70
     1
102
RTVSPropertyOp23
 70
     1
102
RTVSPropertyOp24
 70
     1
102
RTVSPropertyOp25
 70
     1
102
RTVSPropertyOp26
 70
     1
102
RTVSPropertyOp27
 70
     1
102
RTVSPropertyOp28
 70
     1
102
RTVSPropertyOp29
 70
     1
102
RTVSPropertyOp30
 70
     1
102
RTVSPropertyOp31
 70
     1
102
RTVSPropertyOp32
 70
     1
  0
XRECORD
  5
389
102
{ACAD_REACTORS
330
388
102
}
330
388
100
AcDbXrecord
280
     1
102
RTVSPropertyOp0
 70
     1
102
RTVSPropertyOp1
 70
     1
102
RTVSPropertyOp2
 70
     1
102
RTVSPropertyOp3
 70
     1
102
RTVSPropertyOp4
 70
     1
102
RTVSPropertyOp5
 70
     1
102
RTVSPropertyOp6
 70
     1
102
RTVSPropertyOp7
 70
     1
102
RTVSPropertyOp8
 70
     1
102
RTVSPropertyOp9
 70
     1
102
RTVSPropertyOp10
 70
     1
102
RTVSPropertyOp11
 70
     1
102
RTVSPropertyOp12
 70
     1
102
RTVSPropertyOp13
 70
     1
102
RTVSPropertyOp14
 70
     1
102
RTVSPropertyOp15
 70
     1
102
RTVSPropertyOp16
 70
     1
102
RTVSPropertyOp17
 70
     1
102
RTVSPropertyOp18
 70
     1
102
RTVSPropertyOp19
 70
     1
102
RTVSPropertyOp20
 70
     1
102
RTVSPropertyOp21
 70
     1
102
RTVSPropertyOp22
 70
     1
102
RTVSPropertyOp23
 70
     1
102
RTVSPropertyOp24
 70
     1
102
RTVSPropertyOp25
 70
     1
102
RTVSPropertyOp26
 70
     1
102
RTVSPropertyOp27
 70
     1
102
RTVSPropertyOp28
 70
     1
102
RTVSPropertyOp29
 70
     1
102
RTVSPropertyOp30
 70
     1
102
RTVSPropertyOp31
 70
     1
102
RTVSPropertyOp32
 70
     1
  0
XRECORD
  5
38D
102
{ACAD_REACTORS
330
38C
102
}
330
38C
100
AcDbXrecord
280
     1
102
RTVSPropertyOp0
 70
     1
102
RTVSPropertyOp1
 70
     1
102
RTVSPropertyOp2
 70
     1
102
RTVSPropertyOp3
 70
     1
102
RTVSPropertyOp4
 70
     1
102
RTVSPropertyOp5
 70
     1
102
RTVSPropertyOp6
 70
     1
102
RTVSPropertyOp7
 70
     1
102
RTVSPropertyOp8
 70
     1
102
RTVSPropertyOp9
 70
     1
102
RTVSPropertyOp10
 70
     1
102
RTVSPropertyOp11
 70
     1
102
RTVSPropertyOp12
 70
     1
102
RTVSPropertyOp13
 70
     1
102
RTVSPropertyOp14
 70
     1
102
RTVSPropertyOp15
 70
     1
102
RTVSPropertyOp16
 70
     1
102
RTVSPropertyOp17
 70
     1
102
RTVSPropertyOp18
 70
     1
102
RTVSPropertyOp19
 70
     1
102
RTVSPropertyOp20
 70
     1
102
RTVSPropertyOp21
 70
     1
102
RTVSPropertyOp22
 70
     1
102
RTVSPropertyOp23
 70
     1
102
RTVSPropertyOp24
 70
     1
102
RTVSPropertyOp25
 70
     1
102
RTVSPropertyOp26
 70
     1
102
RTVSPropertyOp27
 70
     1
102
RTVSPropertyOp28
 70
     1
102
RTVSPropertyOp29
 70
     1
102
RTVSPropertyOp30
 70
     1
102
RTVSPropertyOp31
 70
     1
102
RTVSPropertyOp32
 70
     1
  0
XRECORD
  5
395
102
{ACAD_REACTORS
330
394
102
}
330
394
100
AcDbXrecord
280
     1
102
RTVSPropertyOp0
 70
     1
102
RTVSPropertyOp1
 70
     1
102
RTVSPropertyOp2
 70
     1
102
RTVSPropertyOp3
 70
     1
102
RTVSPropertyOp4
 70
     1
102
RTVSPropertyOp5
 70
     1
102
RTVSPropertyOp6
 70
     1
102
RTVSPropertyOp7
 70
     1
102
RTVSPropertyOp8
 70
     1
102
RTVSPropertyOp9
 70
     1
102
RTVSPropertyOp10
 70
     1
102
RTVSPropertyOp11
 70
     1
102
RTVSPropertyOp12
 70
     1
102
RTVSPropertyOp13
 70
     1
102
RTVSPropertyOp14
 70
     1
102
RTVSPropertyOp15
 70
     1
102
RTVSPropertyOp16
 70
     1
102
RTVSPropertyOp17
 70
     1
102
RTVSPropertyOp18
 70
     1
102
RTVSPropertyOp19
 70
     1
102
RTVSPropertyOp20
 70
     1
102
RTVSPropertyOp21
 70
     1
102
RTVSPropertyOp22
 70
     1
102
RTVSPropertyOp23
 70
     1
102
RTVSPropertyOp24
 70
     1
102
RTVSPropertyOp25
 70
     1
102
RTVSPropertyOp26
 70
     1
102
RTVSPropertyOp27
 70
     1
102
RTVSPropertyOp28
 70
     1
102
RTVSPropertyOp29
 70
     1
102
RTVSPropertyOp30
 70
     1
102
RTVSPropertyOp31
 70
     1
102
RTVSPropertyOp32
 70
     1
  0
XRECORD
  5
39D
102
{ACAD_REACTORS
330
39C
102
}
330
39C
100
AcDbXrecord
280
     1
102
RTVSPropertyOp0
 70
     1
102
RTVSPropertyOp1
 70
     1
102
RTVSPropertyOp2
 70
     1
102
RTVSPropertyOp3
 70
     1
102
RTVSPropertyOp4
 70
     1
102
RTVSPropertyOp5
 70
     1
102
RTVSPropertyOp6
 70
     1
102
RTVSPropertyOp7
 70
     1
102
RTVSPropertyOp8
 70
     1
102
RTVSPropertyOp9
 70
     1
102
RTVSPropertyOp10
 70
     1
102
RTVSPropertyOp11
 70
     1
102
RTVSPropertyOp12
 70
     1
102
RTVSPropertyOp13
 70
     1
102
RTVSPropertyOp14
 70
     1
102
RTVSPropertyOp15
 70
     1
102
RTVSPropertyOp16
 70
     1
102
RTVSPropertyOp17
 70
     1
102
RTVSPropertyOp18
 70
     1
102
RTVSPropertyOp19
 70
     1
102
RTVSPropertyOp20
 70
     1
102
RTVSPropertyOp21
 70
     1
102
RTVSPropertyOp22
 70
     1
102
RTVSPropertyOp23
 70
     1
102
RTVSPropertyOp24
 70
     1
102
RTVSPropertyOp25
 70
     1
102
RTVSPropertyOp26
 70
     1
102
RTVSPropertyOp27
 70
     1
102
RTVSPropertyOp28
 70
     1
102
RTVSPropertyOp29
 70
     1
102
RTVSPropertyOp30
 70
     1
102
RTVSPropertyOp31
 70
     1
102
RTVSPropertyOp32
 70
     1
  0
XRECORD
  5
391
102
{ACAD_REACTORS
330
390
102
}
330
390
100
AcDbXrecord
280
     1
102
RTVSPropertyOp0
 70
     1
102
RTVSPropertyOp1
 70
     1
102
RTVSPropertyOp2
 70
     1
102
RTVSPropertyOp3
 70
     1
102
RTVSPropertyOp4
 70
     1
102
RTVSPropertyOp5
 70
     1
102
RTVSPropertyOp6
 70
     1
102
RTVSPropertyOp7
 70
     1
102
RTVSPropertyOp8
 70
     1
102
RTVSPropertyOp9
 70
     1
102
RTVSPropertyOp10
 70
     1
102
RTVSPropertyOp11
 70
     1
102
RTVSPropertyOp12
 70
     1
102
RTVSPropertyOp13
 70
     1
102
RTVSPropertyOp14
 70
     1
102
RTVSPropertyOp15
 70
     1
102
RTVSPropertyOp16
 70
     1
102
RTVSPropertyOp17
 70
     1
102
RTVSPropertyOp18
 70
     1
102
RTVSPropertyOp19
 70
     1
102
RTVSPropertyOp20
 70
     1
102
RTVSPropertyOp21
 70
     1
102
RTVSPropertyOp22
 70
     1
102
RTVSPropertyOp23
 70
     1
102
RTVSPropertyOp24
 70
     1
102
RTVSPropertyOp25
 70
     1
102
RTVSPropertyOp26
 70
     1
102
RTVSPropertyOp27
 70
     1
102
RTVSPropertyOp28
 70
     1
102
RTVSPropertyOp29
 70
     1
102
RTVSPropertyOp30
 70
     1
102
RTVSPropertyOp31
 70
     1
102
RTVSPropertyOp32
 70
     1
  0
XRECORD
  5
393
102
{ACAD_REACTORS
330
392
102
}
330
392
100
AcDbXrecord
280
     1
102
RTVSPropertyOp0
 70
     1
102
RTVSPropertyOp1
 70
     1
102
RTVSPropertyOp2
 70
     1
102
RTVSPropertyOp3
 70
     1
102
RTVSPropertyOp4
 70
     1
102
RTVSPropertyOp5
 70
     1
102
RTVSPropertyOp6
 70
     1
102
RTVSPropertyOp7
 70
     1
102
RTVSPropertyOp8
 70
     1
102
RTVSPropertyOp9
 70
     1
102
RTVSPropertyOp10
 70
     1
102
RTVSPropertyOp11
 70
     1
102
RTVSPropertyOp12
 70
     1
102
RTVSPropertyOp13
 70
     1
102
RTVSPropertyOp14
 70
     1
102
RTVSPropertyOp15
 70
     1
102
RTVSPropertyOp16
 70
     1
102
RTVSPropertyOp17
 70
     1
102
RTVSPropertyOp18
 70
     1
102
RTVSPropertyOp19
 70
     1
102
RTVSPropertyOp20
 70
     1
102
RTVSPropertyOp21
 70
     1
102
RTVSPropertyOp22
 70
     1
102
RTVSPropertyOp23
 70
     1
102
RTVSPropertyOp24
 70
     1
102
RTVSPropertyOp25
 70
     1
102
RTVSPropertyOp26
 70
     1
102
RTVSPropertyOp27
 70
     1
102
RTVSPropertyOp28
 70
     1
102
RTVSPropertyOp29
 70
     1
102
RTVSPropertyOp30
 70
     1
102
RTVSPropertyOp31
 70
     1
102
RTVSPropertyOp32
 70
     1
  0
XRECORD
  5
39B
102
{ACAD_REACTORS
330
39A
102
}
330
39A
100
AcDbXrecord
280
     1
102
RTVSPropertyOp0
 70
     1
102
RTVSPropertyOp1
 70
     1
102
RTVSPropertyOp2
 70
     1
102
RTVSPropertyOp3
 70
     1
102
RTVSPropertyOp4
 70
     1
102
RTVSPropertyOp5
 70
     1
102
RTVSPropertyOp6
 70
     1
102
RTVSPropertyOp7
 70
     1
102
RTVSPropertyOp8
 70
     1
102
RTVSPropertyOp9
 70
     1
102
RTVSPropertyOp10
 70
     1
102
RTVSPropertyOp11
 70
     1
102
RTVSPropertyOp12
 70
     1
102
RTVSPropertyOp13
 70
     1
102
RTVSPropertyOp14
 70
     1
102
RTVSPropertyOp15
 70
     1
102
RTVSPropertyOp16
 70
     1
102
RTVSPropertyOp17
 70
     1
102
RTVSPropertyOp18
 70
     1
102
RTVSPropertyOp19
 70
     1
102
RTVSPropertyOp20
 70
     1
102
RTVSPropertyOp21
 70
     1
102
RTVSPropertyOp22
 70
     1
102
RTVSPropertyOp23
 70
     1
102
RTVSPropertyOp24
 70
     1
102
RTVSPropertyOp25
 70
     1
102
RTVSPropertyOp26
 70
     1
102
RTVSPropertyOp27
 70
     1
102
RTVSPropertyOp28
 70
     1
102
RTVSPropertyOp29
 70
     1
102
RTVSPropertyOp30
 70
     1
102
RTVSPropertyOp31
 70
     1
102
RTVSPropertyOp32
 70
     1
  0
XRECORD
  5
37F
102
{ACAD_REACTORS
330
37E
102
}
330
37E
100
AcDbXrecord
280
     1
102
RTVSPropertyOp0
 70
     1
102
RTVSPropertyOp1
 70
     1
102
RTVSPropertyOp2
 70
     1
102
RTVSPropertyOp3
 70
     1
102
RTVSPropertyOp4
 70
     1
102
RTVSPropertyOp5
 70
     1
102
RTVSPropertyOp6
 70
     1
102
RTVSPropertyOp7
 70
     1
102
RTVSPropertyOp8
 70
     1
102
RTVSPropertyOp9
 70
     1
102
RTVSPropertyOp10
 70
     1
102
RTVSPropertyOp11
 70
     1
102
RTVSPropertyOp12
 70
     1
102
RTVSPropertyOp13
 70
     1
102
RTVSPropertyOp14
 70
     1
102
RTVSPropertyOp15
 70
     1
102
RTVSPropertyOp16
 70
     1
102
RTVSPropertyOp17
 70
     1
102
RTVSPropertyOp18
 70
     1
102
RTVSPropertyOp19
 70
     1
102
RTVSPropertyOp20
 70
     1
102
RTVSPropertyOp21
 70
     1
102
RTVSPropertyOp22
 70
     1
102
RTVSPropertyOp23
 70
     1
102
RTVSPropertyOp24
 70
     1
102
RTVSPropertyOp25
 70
     1
102
RTVSPropertyOp26
 70
     1
102
RTVSPropertyOp27
 70
     1
102
RTVSPropertyOp28
 70
     1
102
RTVSPropertyOp29
 70
     1
102
RTVSPropertyOp30
 70
     1
102
RTVSPropertyOp31
 70
     1
102
RTVSPropertyOp32
 70
     1
  0
XRECORD
  5
381
102
{ACAD_REACTORS
330
380
102
}
330
380
100
AcDbXrecord
280
     1
102
RTVSPropertyOp0
 70
     1
102
RTVSPropertyOp1
 70
     1
102
RTVSPropertyOp2
 70
     1
102
RTVSPropertyOp3
 70
     1
102
RTVSPropertyOp4
 70
     1
102
RTVSPropertyOp5
 70
     1
102
RTVSPropertyOp6
 70
     1
102
RTVSPropertyOp7
 70
     1
102
RTVSPropertyOp8
 70
     1
102
RTVSPropertyOp9
 70
     1
102
RTVSPropertyOp10
 70
     1
102
RTVSPropertyOp11
 70
     1
102
RTVSPropertyOp12
 70
     1
102
RTVSPropertyOp13
 70
     1
102
RTVSPropertyOp14
 70
     1
102
RTVSPropertyOp15
 70
     1
102
RTVSPropertyOp16
 70
     1
102
RTVSPropertyOp17
 70
     1
102
RTVSPropertyOp18
 70
     1
102
RTVSPropertyOp19
 70
     1
102
RTVSPropertyOp20
 70
     1
102
RTVSPropertyOp21
 70
     1
102
RTVSPropertyOp22
 70
     1
102
RTVSPropertyOp23
 70
     1
102
RTVSPropertyOp24
 70
     1
102
RTVSPropertyOp25
 70
     1
102
RTVSPropertyOp26
 70
     1
102
RTVSPropertyOp27
 70
     1
102
RTVSPropertyOp28
 70
     1
102
RTVSPropertyOp29
 70
     1
102
RTVSPropertyOp30
 70
     1
102
RTVSPropertyOp31
 70
     1
102
RTVSPropertyOp32
 70
     1
  0
XRECORD
  5
383
102
{ACAD_REACTORS
330
382
102
}
330
382
100
AcDbXrecord
280
     1
102
RTVSPropertyOp0
 70
     1
102
RTVSPropertyOp1
 70
     1
102
RTVSPropertyOp2
 70
     1
102
RTVSPropertyOp3
 70
     1
102
RTVSPropertyOp4
 70
     1
102
RTVSPropertyOp5
 70
     1
102
RTVSPropertyOp6
 70
     1
102
RTVSPropertyOp7
 70
     1
102
RTVSPropertyOp8
 70
     1
102
RTVSPropertyOp9
 70
     1
102
RTVSPropertyOp10
 70
     1
102
RTVSPropertyOp11
 70
     1
102
RTVSPropertyOp12
 70
     1
102
RTVSPropertyOp13
 70
     1
102
RTVSPropertyOp14
 70
     1
102
RTVSPropertyOp15
 70
     1
102
RTVSPropertyOp16
 70
     1
102
RTVSPropertyOp17
 70
     1
102
RTVSPropertyOp18
 70
     1
102
RTVSPropertyOp19
 70
     1
102
RTVSPropertyOp20
 70
     1
102
RTVSPropertyOp21
 70
     1
102
RTVSPropertyOp22
 70
     1
102
RTVSPropertyOp23
 70
     1
102
RTVSPropertyOp24
 70
     1
102
RTVSPropertyOp25
 70
     1
102
RTVSPropertyOp26
 70
     1
102
RTVSPropertyOp27
 70
     1
102
RTVSPropertyOp28
 70
     1
102
RTVSPropertyOp29
 70
     1
102
RTVSPropertyOp30
 70
     1
102
RTVSPropertyOp31
 70
     1
102
RTVSPropertyOp32
 70
     1
  0
XRECORD
  5
385
102
{ACAD_REACTORS
330
384
102
}
330
384
100
AcDbXrecord
280
     1
102
RTVSPropertyOp0
 70
     1
102
RTVSPropertyOp1
 70
     1
102
RTVSPropertyOp2
 70
     1
102
RTVSPropertyOp3
 70
     1
102
RTVSPropertyOp4
 70
     1
102
RTVSPropertyOp5
 70
     1
102
RTVSPropertyOp6
 70
     1
102
RTVSPropertyOp7
 70
     1
102
RTVSPropertyOp8
 70
     1
102
RTVSPropertyOp9
 70
     1
102
RTVSPropertyOp10
 70
     1
102
RTVSPropertyOp11
 70
     1
102
RTVSPropertyOp12
 70
     1
102
RTVSPropertyOp13
 70
     1
102
RTVSPropertyOp14
 70
     1
102
RTVSPropertyOp15
 70
     1
102
RTVSPropertyOp16
 70
     1
102
RTVSPropertyOp17
 70
     1
102
RTVSPropertyOp18
 70
     1
102
RTVSPropertyOp19
 70
     1
102
RTVSPropertyOp20
 70
     1
102
RTVSPropertyOp21
 70
     1
102
RTVSPropertyOp22
 70
     1
102
RTVSPropertyOp23
 70
     1
102
RTVSPropertyOp24
 70
     1
102
RTVSPropertyOp25
 70
     1
102
RTVSPropertyOp26
 70
     1
102
RTVSPropertyOp27
 70
     1
102
RTVSPropertyOp28
 70
     1
102
RTVSPropertyOp29
 70
     1
102
RTVSPropertyOp30
 70
     1
102
RTVSPropertyOp31
 70
     1
102
RTVSPropertyOp32
 70
     1
  0
XRECORD
  5
399
102
{ACAD_REACTORS
330
398
102
}
330
398
100
AcDbXrecord
280
     1
102
RTVSPropertyOp0
 70
     1
102
RTVSPropertyOp1
 70
     1
102
RTVSPropertyOp2
 70
     1
102
RTVSPropertyOp3
 70
     1
102
RTVSPropertyOp4
 70
     1
102
RTVSPropertyOp5
 70
     1
102
RTVSPropertyOp6
 70
     1
102
RTVSPropertyOp7
 70
     1
102
RTVSPropertyOp8
 70
     1
102
RTVSPropertyOp9
 70
     1
102
RTVSPropertyOp10
 70
     1
102
RTVSPropertyOp11
 70
     1
102
RTVSPropertyOp12
 70
     1
102
RTVSPropertyOp13
 70
     1
102
RTVSPropertyOp14
 70
     1
102
RTVSPropertyOp15
 70
     1
102
RTVSPropertyOp16
 70
     1
102
RTVSPropertyOp17
 70
     1
102
RTVSPropertyOp18
 70
     1
102
RTVSPropertyOp19
 70
     1
102
RTVSPropertyOp20
 70
     1
102
RTVSPropertyOp21
 70
     1
102
RTVSPropertyOp22
 70
     1
102
RTVSPropertyOp23
 70
     1
102
RTVSPropertyOp24
 70
     1
102
RTVSPropertyOp25
 70
     1
102
RTVSPropertyOp26
 70
     1
102
RTVSPropertyOp27
 70
     1
102
RTVSPropertyOp28
 70
     1
102
RTVSPropertyOp29
 70
     1
102
RTVSPropertyOp30
 70
     1
102
RTVSPropertyOp31
 70
     1
102
RTVSPropertyOp32
 70
     1
  0
XRECORD
  5
38F
102
{ACAD_REACTORS
330
38E
102
}
330
38E
100
AcDbXrecord
280
     1
102
RTVSPropertyOp0
 70
     1
102
RTVSPropertyOp1
 70
     1
102
RTVSPropertyOp2
 70
     1
102
RTVSPropertyOp3
 70
     1
102
RTVSPropertyOp4
 70
     1
102
RTVSPropertyOp5
 70
     1
102
RTVSPropertyOp6
 70
     1
102
RTVSPropertyOp7
 70
     1
102
RTVSPropertyOp8
 70
     1
102
RTVSPropertyOp9
 70
     1
102
RTVSPropertyOp10
 70
     1
102
RTVSPropertyOp11
 70
     1
102
RTVSPropertyOp12
 70
     1
102
RTVSPropertyOp13
 70
     1
102
RTVSPropertyOp14
 70
     1
102
RTVSPropertyOp15
 70
     1
102
RTVSPropertyOp16
 70
     1
102
RTVSPropertyOp17
 70
     1
102
RTVSPropertyOp18
 70
     1
102
RTVSPropertyOp19
 70
     1
102
RTVSPropertyOp20
 70
     1
102
RTVSPropertyOp21
 70
     1
102
RTVSPropertyOp22
 70
     1
102
RTVSPropertyOp23
 70
     1
102
RTVSPropertyOp24
 70
     1
102
RTVSPropertyOp25
 70
     1
102
RTVSPropertyOp26
 70
     1
102
RTVSPropertyOp27
 70
     1
102
RTVSPropertyOp28
 70
     1
102
RTVSPropertyOp29
 70
     1
102
RTVSPropertyOp30
 70
     1
102
RTVSPropertyOp31
 70
     1
102
RTVSPropertyOp32
 70
     1
  0
XRECORD
  5
397
102
{ACAD_REACTORS
330
396
102
}
330
396
100
AcDbXrecord
280
     1
102
RTVSPropertyOp0
 70
     1
102
RTVSPropertyOp1
 70
     1
102
RTVSPropertyOp2
 70
     1
102
RTVSPropertyOp3
 70
     1
102
RTVSPropertyOp4
 70
     1
102
RTVSPropertyOp5
 70
     1
102
RTVSPropertyOp6
 70
     1
102
RTVSPropertyOp7
 70
     1
102
RTVSPropertyOp8
 70
     1
102
RTVSPropertyOp9
 70
     1
102
RTVSPropertyOp10
 70
     1
102
RTVSPropertyOp11
 70
     1
102
RTVSPropertyOp12
 70
     1
102
RTVSPropertyOp13
 70
     1
102
RTVSPropertyOp14
 70
     1
102
RTVSPropertyOp15
 70
     1
102
RTVSPropertyOp16
 70
     1
102
RTVSPropertyOp17
 70
     1
102
RTVSPropertyOp18
 70
     1
102
RTVSPropertyOp19
 70
     1
102
RTVSPropertyOp20
 70
     1
102
RTVSPropertyOp21
 70
     1
102
RTVSPropertyOp22
 70
     1
102
RTVSPropertyOp23
 70
     1
102
RTVSPropertyOp24
 70
     1
102
RTVSPropertyOp25
 70
     1
102
RTVSPropertyOp26
 70
     1
102
RTVSPropertyOp27
 70
     1
102
RTVSPropertyOp28
 70
     1
102
RTVSPropertyOp29
 70
     1
102
RTVSPropertyOp30
 70
     1
102
RTVSPropertyOp31
 70
     1
102
RTVSPropertyOp32
 70
     1
  0
ENDSEC
  0
EOF
