  0
SECTION
  2
HEADER
  9
$ACADVER
  1
AC1018
  9
$ACADMAINTVER
 70
     0
  9
$DWGCODEPAGE
  3
ANSI_1252
  9
$INSBASE
 10
0.0
 20
0.0
 30
0.0
  9
$EXTMIN
 10
-244.9490755844573
 20
0.41476313923056
 30
0.0
  9
$EXTMAX
 10
52.05092441554081
 20
210.4147631392307
 30
0.0
  9
$LIMMIN
 10
0.0
 20
0.0
  9
$LIMMAX
 10
12.0
 20
9.0
  9
$ORTHOMODE
 70
     0
  9
$REGENMODE
 70
     1
  9
$FILLMODE
 70
     1
  9
$QTEXTMODE
 70
     0
  9
$MIRRTEXT
 70
     1
  9
$LTSCALE
 40
1.0
  9
$ATTMODE
 70
     1
  9
$TEXTSIZE
 40
0.2
  9
$TRACEWID
 40
0.05
  9
$TEXTSTYLE
  7
Standard
  9
$CLAYER
  8
0
  9
$CELTYPE
  6
ByLayer
  9
$CECOLOR
 62
   256
  9
$CELTSCALE
 40
1.0
  9
$DISPSILH
 70
     0
  9
$DIMSCALE
 40
1.0
  9
$DIMASZ
 40
0.18
  9
$DIMEXO
 40
0.0625
  9
$DIMDLI
 40
0.38
  9
$DIMRND
 40
0.0
  9
$DIMDLE
 40
0.0
  9
$DIMEXE
 40
0.18
  9
$DIMTP
 40
0.0
  9
$DIMTM
 40
0.0
  9
$DIMTXT
 40
0.18
  9
$DIMCEN
 40
0.09
  9
$DIMTSZ
 40
0.0
  9
$DIMTOL
 70
     0
  9
$DIMLIM
 70
     0
  9
$DIMTIH
 70
     1
  9
$DIMTOH
 70
     1
  9
$DIMSE1
 70
     0
  9
$DIMSE2
 70
     0
  9
$DIMTAD
 70
     0
  9
$DIMZIN
 70
     0
  9
$DIMBLK
  1

  9
$DIMASO
 70
     1
  9
$DIMSHO
 70
     1
  9
$DIMPOST
  1

  9
$DIMAPOST
  1

  9
$DIMALT
 70
     0
  9
$DIMALTD
 70
     2
  9
$DIMALTF
 40
25.4
  9
$DIMLFAC
 40
1.0
  9
$DIMTOFL
 70
     0
  9
$DIMTVP
 40
0.0
  9
$DIMTIX
 70
     0
  9
$DIMSOXD
 70
     0
  9
$DIMSAH
 70
     0
  9
$DIMBLK1
  1

  9
$DIMBLK2
  1

  9
$DIMSTYLE
  2
Standard
  9
$DIMCLRD
 70
     0
  9
$DIMCLRE
 70
     0
  9
$DIMCLRT
 70
     0
  9
$DIMTFAC
 40
1.0
  9
$DIMGAP
 40
0.09
  9
$DIMJUST
 70
     0
  9
$DIMSD1
 70
     0
  9
$DIMSD2
 70
     0
  9
$DIMTOLJ
 70
     1
  9
$DIMTZIN
 70
     0
  9
$DIMALTZ
 70
     0
  9
$DIMALTTZ
 70
     0
  9
$DIMUPT
 70
     0
  9
$DIMDEC
 70
     4
  9
$DIMTDEC
 70
     4
  9
$DIMALTU
 70
     2
  9
$DIMALTTD
 70
     2
  9
$DIMTXSTY
  7
Standard
  9
$DIMAUNIT
 70
     0
  9
$DIMADEC
 70
     0
  9
$DIMALTRND
 40
0.0
  9
$DIMAZIN
 70
     0
  9
$DIMDSEP
 70
    46
  9
$DIMATFIT
 70
     3
  9
$DIMFRAC
 70
     0
  9
$DIMLDRBLK
  1

  9
$DIMLUNIT
 70
     2
  9
$DIMLWD
 70
    -2
  9
$DIMLWE
 70
    -2
  9
$DIMTMOVE
 70
     0
  9
$LUNITS
 70
     2
  9
$LUPREC
 70
     4
  9
$SKETCHINC
 40
0.1
  9
$FILLETRAD
 40
0.5
  9
$AUNITS
 70
     0
  9
$AUPREC
 70
     0
  9
$MENU
  1
.
  9
$ELEVATION
 40
0.0
  9
$PELEVATION
 40
0.0
  9
$THICKNESS
 40
0.0
  9
$LIMCHECK
 70
     0
  9
$CHAMFERA
 40
0.5
  9
$CHAMFERB
 40
0.5
  9
$CHAMFERC
 40
1.0
  9
$CHAMFERD
 40
0.0
  9
$SKPOLY
 70
     0
  9
$TDCREATE
 40
2458464.402921528
  9
$TDUCREATE
 40
2458464.361254861
  9
$TDUPDATE
 40
2458464.402922072
  9
$TDUUPDATE
 40
2458464.361255405
  9
$TDINDWG
 40
0.0000000116
  9
$TDUSRTIMER
 40
0.0000000116
  9
$USRTIMER
 70
     1
  9
$ANGBASE
 50
0.0
  9
$ANGDIR
 70
     0
  9
$PDMODE
 70
     0
  9
$PDSIZE
 40
0.0
  9
$PLINEWID
 40
0.0
  9
$SPLFRAME
 70
     0
  9
$SPLINETYPE
 70
     6
  9
$SPLINESEGS
 70
     8
  9
$HANDSEED
  5
389
  9
$SURFTAB1
 70
     6
  9
$SURFTAB2
 70
     6
  9
$SURFTYPE
 70
     6
  9
$SURFU
 70
     6
  9
$SURFV
 70
     6
  9
$UCSBASE
  2

  9
$UCSNAME
  2

  9
$UCSORG
 10
0.0
 20
0.0
 30
0.0
  9
$UCSXDIR
 10
1.0
 20
0.0
 30
0.0
  9
$UCSYDIR
 10
0.0
 20
1.0
 30
0.0
  9
$UCSORTHOREF
  2

  9
$UCSORTHOVIEW
 70
     0
  9
$UCSORGTOP
 10
0.0
 20
0.0
 30
0.0
  9
$UCSORGBOTTOM
 10
0.0
 20
0.0
 30
0.0
  9
$UCSORGLEFT
 10
0.0
 20
0.0
 30
0.0
  9
$UCSORGRIGHT
 10
0.0
 20
0.0
 30
0.0
  9
$UCSORGFRONT
 10
0.0
 20
0.0
 30
0.0
  9
$UCSORGBACK
 10
0.0
 20
0.0
 30
0.0
  9
$PUCSBASE
  2

  9
$PUCSNAME
  2

  9
$PUCSORG
 10
0.0
 20
0.0
 30
0.0
  9
$PUCSXDIR
 10
1.0
 20
0.0
 30
0.0
  9
$PUCSYDIR
 10
0.0
 20
1.0
 30
0.0
  9
$PUCSORTHOREF
  2

  9
$PUCSORTHOVIEW
 70
     0
  9
$PUCSORGTOP
 10
0.0
 20
0.0
 30
0.0
  9
$PUCSORGBOTTOM
 10
0.0
 20
0.0
 30
0.0
  9
$PUCSORGLEFT
 10
0.0
 20
0.0
 30
0.0
  9
$PUCSORGRIGHT
 10
0.0
 20
0.0
 30
0.0
  9
$PUCSORGFRONT
 10
0.0
 20
0.0
 30
0.0
  9
$PUCSORGBACK
 10
0.0
 20
0.0
 30
0.0
  9
$USERI1
 70
     0
  9
$USERI2
 70
     0
  9
$USERI3
 70
     0
  9
$USERI4
 70
     0
  9
$USERI5
 70
     0
  9
$USERR1
 40
18.1
  9
$USERR2
 40
0.0
  9
$USERR3
 40
0.0
  9
$USERR4
 40
0.0
  9
$USERR5
 40
0.0
  9
$WORLDVIEW
 70
     1
  9
$SHADEDGE
 70
     3
  9
$SHADEDIF
 70
    70
  9
$TILEMODE
 70
     1
  9
$MAXACTVP
 70
    64
  9
$PINSBASE
 10
0.0
 20
0.0
 30
0.0
  9
$PLIMCHECK
 70
     0
  9
$PEXTMIN
 10
1.00000000000000E+20
 20
1.00000000000000E+20
 30
1.00000000000000E+20
  9
$PEXTMAX
 10
-1.00000000000000E+20
 20
-1.00000000000000E+20
 30
-1.00000000000000E+20
  9
$PLIMMIN
 10
0.0
 20
0.0
  9
$PLIMMAX
 10
12.0
 20
9.0
  9
$UNITMODE
 70
     0
  9
$VISRETAIN
 70
     1
  9
$PLINEGEN
 70
     0
  9
$PSLTSCALE
 70
     1
  9
$TREEDEPTH
 70
  3020
  9
$CMLSTYLE
  2
Standard
  9
$CMLJUST
 70
     0
  9
$CMLSCALE
 40
1.0
  9
$PROXYGRAPHICS
 70
     1
  9
$MEASUREMENT
 70
     1
  9
$CELWEIGHT
370
    -1
  9
$ENDCAPS
280
     0
  9
$JOINSTYLE
280
     0
  9
$LWDISPLAY
290
     0
  9
$INSUNITS
 70
     4
  9
$HYPERLINKBASE
  1

  9
$STYLESHEET
  1

  9
$XEDIT
290
     1
  9
$CEPSNTYPE
380
     0
  9
$PSTYLEMODE
290
     1
  9
$FINGERPRINTGUID
  2
{8CC10279-C66B-42F3-B163-A137B72A86EF}
  9
$VERSIONGUID
  2
{FAEB1C32-E019-11D5-929B-00C0DF256EC4}
  9
$EXTNAMES
290
     1
  9
$PSVPSCALE
 40
0.0
  9
$OLESTARTUP
290
     0
  9
$SORTENTS
280
   127
  9
$INDEXCTL
280
     0
  9
$HIDETEXT
280
     1
  9
$XCLIPFRAME
290
     0
  9
$HALOGAP
280
     0
  9
$OBSCOLOR
 70
   257
  9
$OBSLTYPE
280
     0
  9
$INTERSECTIONDISPLAY
280
     0
  9
$INTERSECTIONCOLOR
 70
   257
  9
$DIMASSOC
280
     2
  9
$PROJECTNAME
  1

  0
ENDSEC
  0
SECTION
  2
CLASSES
  0
CLASS
  1
ACDBDICTIONARYWDFLT
  2
AcDbDictionaryWithDefault
  3
ObjectDBX Classes
 90
        0
 91
        4
280
     0
281
     0
  0
CLASS
  1
VISUALSTYLE
  2
AcDbVisualStyle
  3
ObjectDBX Classes
 90
     4095
 91
        4
280
     0
281
     0
  0
CLASS
  1
MATERIAL
  2
AcDbMaterial
  3
ObjectDBX Classes
 90
     1153
 91
        4
280
     0
281
     0
  0
ENDSEC
  0
SECTION
  2
TABLES
  0
TABLE
  2
VPORT
  5
8
330
0
100
AcDbSymbolTable
 70
     1
  0
VPORT
  5
29
330
8
100
AcDbSymbolTableRecord
100
AcDbViewportTableRecord
  2
*Active
 70
     0
 10
0.0
 20
0.0
 11
1.0
 21
1.0
 12
-96.44907558445824
 22
105.4147631392306
 13
0.0
 23
0.0
 14
0.5
 24
0.5
 15
0.5
 25
0.5
 16
0.0
 26
0.0
 36
1.0
 17
0.0
 27
0.0
 37
0.0
 40
231.0000000000002
 41
1.60267857142857
 42
50.0
 43
0.0
 44
0.0
 50
0.0
 51
0.0
 71
     0
 72
   100
 73
     1
 74
     3
 75
     0
 76
     0
 77
     0
 78
     0
281
     0
 65
     1
110
0.0
120
0.0
130
0.0
111
1.0
121
0.0
131
0.0
112
0.0
122
1.0
132
0.0
 79
     0
146
0.0
  0
ENDTAB
  0
TABLE
  2
LTYPE
  5
5
330
0
100
AcDbSymbolTable
 70
     8
  0
LTYPE
  5
14
330
5
100
AcDbSymbolTableRecord
100
AcDbLinetypeTableRecord
  2
ByBlock
 70
     0
  3

 72
    65
 73
     0
 40
0.0
  0
LTYPE
  5
15
330
5
100
AcDbSymbolTableRecord
100
AcDbLinetypeTableRecord
  2
ByLayer
 70
     0
  3

 72
    65
 73
     0
 40
0.0
  0
LTYPE
  5
16
330
5
100
AcDbSymbolTableRecord
100
AcDbLinetypeTableRecord
  2
Continuous
 70
     0
  3
Solid line
 72
    65
 73
     0
 40
0.0
  0
LTYPE
  5
3F
330
5
100
AcDbSymbolTableRecord
100
AcDbLinetypeTableRecord
  2
DASHED
 70
     0
  3
Dashed
 72
    65
 73
     2
 40
15.0
 49
7.0
 74
     0
 49
-8.0
 74
     0
  0
LTYPE
  5
40
330
5
100
AcDbSymbolTableRecord
100
AcDbLinetypeTableRecord
  2
DOTTED
 70
     0
  3
Dotted
 72
    65
 73
     2
 40
1.0
 49
0.0
 74
     0
 49
-1.0
 74
     0
  0
LTYPE
  5
41
330
5
100
AcDbSymbolTableRecord
100
AcDbLinetypeTableRecord
  2
DOT_CENTER
 70
     0
  3
Dot_Center
 72
    65
 73
     4
 40
14.0
 49
12.0
 74
     0
 49
-1.0
 74
     0
 49
0.0
 74
     0
 49
-1.0
 74
     0
  0
LTYPE
  5
42
330
5
100
AcDbSymbolTableRecord
100
AcDbLinetypeTableRecord
  2
LONG_DASHED
 70
     0
  3
Long_Dashed
 72
    65
 73
     2
 40
15.0
 49
10.0
 74
     0
 49
-5.0
 74
     0
  0
LTYPE
  5
43
330
5
100
AcDbSymbolTableRecord
100
AcDbLinetypeTableRecord
  2
DASH_CENTER
 70
     0
  3
Dash_Center
 72
    65
 73
     4
 40
14.0
 49
11.0
 74
     0
 49
-1.0
 74
     0
 49
1.0
 74
     0
 49
-1.0
 74
     0
  0
LTYPE
  5
44
330
5
100
AcDbSymbolTableRecord
100
AcDbLinetypeTableRecord
  2
PHANTOM
 70
     0
  3
Phantom
 72
    65
 73
     6
 40
13.0
 49
10.0
 74
     0
 49
-1.0
 74
     0
 49
0.0
 74
     0
 49
-1.0
 74
     0
 49
0.0
 74
     0
 49
-1.0
 74
     0
  0
LTYPE
  5
45
330
5
100
AcDbSymbolTableRecord
100
AcDbLinetypeTableRecord
  2
CENTER_DASH_DASH
 70
     0
  3
Center_Dash_Dash
 72
    65
 73
     6
 40
14.0
 49
9.0
 74
     0
 49
-1.0
 74
     0
 49
1.0
 74
     0
 49
-1.0
 74
     0
 49
1.0
 74
     0
 49
-1.0
 74
     0
  0
ENDTAB
  0
TABLE
  2
LAYER
  5
2
330
0
100
AcDbSymbolTable
 70
     2
  0
LAYER
  5
10
330
2
100
AcDbSymbolTableRecord
100
AcDbLayerTableRecord
  2
0
 70
     0
 62
     7
  6
Continuous
370
    -3
390
F
  0
LAYER
  5
46
330
2
100
AcDbSymbolTableRecord
100
AcDbLayerTableRecord
  2
1
 70
     0
 62
     7
  6
Continuous
370
    -3
390
F
  0
ENDTAB
  0
TABLE
  2
STYLE
  5
3
330
0
100
AcDbSymbolTable
 70
     5
  0
STYLE
  5
11
330
3
100
AcDbSymbolTableRecord
100
AcDbTextStyleTableRecord
  2
Standard
 70
     0
 40
0.0
 41
1.0
 50
0.0
 71
     0
 42
0.2
  3
txt
  4

  0
STYLE
  5
D2
330
3
100
AcDbSymbolTableRecord
100
AcDbTextStyleTableRecord
  2
CONVERTER_11
 70
     0
 40
0.0
 41
0.9
 50
0.0
 71
     0
 42
0.2
  3
txt.shx
  4

  0
STYLE
  5
324
330
3
100
AcDbSymbolTableRecord
100
AcDbTextStyleTableRecord
  2
CONVERTER_12
 70
     0
 40
0.0
 41
0.81
 50
0.0
 71
     0
 42
0.2
  3
txt.shx
  4

  0
STYLE
  5
33A
330
3
100
AcDbSymbolTableRecord
100
AcDbTextStyleTableRecord
  2
CONVERTER_13
 70
     0
 40
0.0
 41
0.72
 50
0.0
 71
     0
 42
0.2
  3
txt.shx
  4

  0
STYLE
  5
33D
330
3
100
AcDbSymbolTableRecord
100
AcDbTextStyleTableRecord
  2
CONVERTER_14
 70
     0
 40
0.0
 41
0.855
 50
0.0
 71
     0
 42
0.2
  3
txt.shx
  4

  0
ENDTAB
  0
TABLE
  2
VIEW
  5
6
330
0
100
AcDbSymbolTable
 70
     0
  0
ENDTAB
  0
TABLE
  2
UCS
  5
7
330
0
100
AcDbSymbolTable
 70
     0
  0
ENDTAB
  0
TABLE
  2
APPID
  5
9
330
0
100
AcDbSymbolTable
 70
     1
  0
APPID
  5
12
330
9
100
AcDbSymbolTableRecord
100
AcDbRegAppTableRecord
  2
ACAD
 70
     0
  0
ENDTAB
  0
TABLE
  2
DIMSTYLE
  5
A
330
0
100
AcDbSymbolTable
 70
     4
100
AcDbDimStyleTable
  0
DIMSTYLE
105
27
330
A
100
AcDbSymbolTableRecord
100
AcDbDimStyleTableRecord
  2
Standard
 70
     0
178
     0
340
11
  0
DIMSTYLE
105
13C
102
{ACAD_REACTORS
330
13D
102
}
330
A
100
AcDbSymbolTableRecord
100
AcDbDimStyleTableRecord
  2
ME10_DIM_10
 70
     0
 41
1.75
 42
0.0
 44
1.0
 73
     0
 74
     0
 77
     1
 78
     8
140
1.75
147
1.0
172
     1
173
     1
174
     1
175
     1
176
     2
177
     2
271
     1
178
     3
271
     1
340
D2
  0
DIMSTYLE
105
21B
102
{ACAD_REACTORS
330
21C
102
}
330
A
100
AcDbSymbolTableRecord
100
AcDbDimStyleTableRecord
  2
ME10_DIM_11
 70
     0
 41
1.75
 42
0.0
 44
0.75
 73
     0
 74
     0
 77
     1
 78
     8
140
1.75
147
0.75
172
     1
173
     1
174
     1
175
     1
176
     2
177
     2
271
     2
178
     3
271
     2
340
D2
  0
DIMSTYLE
105
226
102
{ACAD_REACTORS
330
227
102
}
330
A
100
AcDbSymbolTableRecord
100
AcDbDimStyleTableRecord
  2
ME10_DIM_12
 70
     0
 41
1.75
 42
0.0
 44
0.75
 73
     0
 74
     0
 77
     1
 78
     8
140
1.75
147
0.75
172
     1
173
     1
174
     1
175
     1
176
     2
177
     2
178
     3
340
D2
  0
ENDTAB
  0
TABLE
  2
BLOCK_RECORD
  5
1
330
0
100
AcDbSymbolTable
 70
    20
  0
BLOCK_RECORD
  5
1F
330
1
100
AcDbSymbolTableRecord
100
AcDbBlockTableRecord
  2
*Model_Space
340
22
  0
BLOCK_RECORD
  5
1B
330
1
100
AcDbSymbolTableRecord
100
AcDbBlockTableRecord
  2
*Paper_Space
340
1E
  0
BLOCK_RECORD
  5
23
330
1
100
AcDbSymbolTableRecord
100
AcDbBlockTableRecord
  2
*Paper_Space0
340
26
  0
BLOCK_RECORD
  5
47
330
1
100
AcDbSymbolTableRecord
100
AcDbBlockTableRecord
  2
G_INSEC_PG9_S68N_NNES_S-select__1
340
0
102
{BLKREFS
331
4B
102
}
  0
BLOCK_RECORD
  5
4A
330
1
100
AcDbSymbolTableRecord
100
AcDbBlockTableRecord
  2
Allg1
340
0
102
{BLKREFS
331
7D
102
}
  0
BLOCK_RECORD
  5
4E
330
1
100
AcDbSymbolTableRecord
100
AcDbBlockTableRecord
  2
G_INSEC_PG9_S68N_NNES_S-select__2
340
0
102
{BLKREFS
331
52
102
}
  0
BLOCK_RECORD
  5
51
330
1
100
AcDbSymbolTableRecord
100
AcDbBlockTableRecord
  2
Drfsicht1
340
0
102
{BLKREFS
331
7E
102
}
  0
BLOCK_RECORD
  5
55
330
1
100
AcDbSymbolTableRecord
100
AcDbBlockTableRecord
  2
G_INSEC_PG9_S68N_NNES_S-select__3
340
0
102
{BLKREFS
331
59
102
}
  0
BLOCK_RECORD
  5
58
330
1
100
AcDbSymbolTableRecord
100
AcDbBlockTableRecord
  2
Rckans1
340
0
102
{BLKREFS
331
7F
102
}
  0
BLOCK_RECORD
  5
5C
330
1
100
AcDbSymbolTableRecord
100
AcDbBlockTableRecord
  2
G_INSEC_PG9_S68N_NNES_S-select__4
340
0
102
{BLKREFS
331
60
102
}
  0
BLOCK_RECORD
  5
5F
330
1
100
AcDbSymbolTableRecord
100
AcDbBlockTableRecord
  2
SA_Links1
340
0
102
{BLKREFS
331
80
102
}
  0
BLOCK_RECORD
  5
63
330
1
100
AcDbSymbolTableRecord
100
AcDbBlockTableRecord
  2
G_INSEC_PG9_S68N_NNES_S-select__5
340
0
102
{BLKREFS
331
67
102
}
  0
BLOCK_RECORD
  5
66
330
1
100
AcDbSymbolTableRecord
100
AcDbBlockTableRecord
  2
SA_Rechts1
340
0
102
{BLKREFS
331
81
102
}
  0
BLOCK_RECORD
  5
6A
330
1
100
AcDbSymbolTableRecord
100
AcDbBlockTableRecord
  2
G_INSEC_PG9_S68N_NNES_S-select__6
340
0
102
{BLKREFS
331
6E
102
}
  0
BLOCK_RECORD
  5
6D
330
1
100
AcDbSymbolTableRecord
100
AcDbBlockTableRecord
  2
Vordans1
340
0
102
{BLKREFS
331
82
102
}
  0
BLOCK_RECORD
  5
71
330
1
100
AcDbSymbolTableRecord
100
AcDbBlockTableRecord
  2
_rahmen
340
0
102
{BLKREFS
331
78
102
}
  0
BLOCK_RECORD
  5
74
330
1
100
AcDbSymbolTableRecord
100
AcDbBlockTableRecord
  2
_punkt
340
0
102
{BLKREFS
331
79
102
}
  0
BLOCK_RECORD
  5
77
330
1
100
AcDbSymbolTableRecord
100
AcDbBlockTableRecord
  2
A4I_CS
340
0
102
{BLKREFS
331
83
102
}
  0
BLOCK_RECORD
  5
7C
330
1
100
AcDbSymbolTableRecord
100
AcDbBlockTableRecord
  2
1
340
0
102
{BLKREFS
331
86
102
}
  0
BLOCK_RECORD
  5
133
330
1
100
AcDbSymbolTableRecord
100
AcDbBlockTableRecord
  2
*D17
340
0
  0
BLOCK_RECORD
  5
212
330
1
100
AcDbSymbolTableRecord
100
AcDbBlockTableRecord
  2
*D18
340
0
  0
BLOCK_RECORD
  5
21D
330
1
100
AcDbSymbolTableRecord
100
AcDbBlockTableRecord
  2
*D19
340
0
  0
ENDTAB
  0
ENDSEC
  0
SECTION
  2
BLOCKS
  0
BLOCK
  5
20
330
1F
100
AcDbEntity
  8
0
100
AcDbBlockBegin
  2
*Model_Space
 70
     0
 10
0.0
 20
0.0
 30
0.0
  3
*Model_Space
  1

  0
ENDBLK
  5
21
330
1F
100
AcDbEntity
  8
0
100
AcDbBlockEnd
  0
BLOCK
  5
1C
330
1B
100
AcDbEntity
 67
     1
  8
0
100
AcDbBlockBegin
  2
*Paper_Space
 70
     0
 10
0.0
 20
0.0
 30
0.0
  3
*Paper_Space
  1

  0
ENDBLK
  5
1D
330
1B
100
AcDbEntity
 67
     1
  8
0
100
AcDbBlockEnd
  0
BLOCK
  5
24
330
23
100
AcDbEntity
  8
0
100
AcDbBlockBegin
  2
*Paper_Space0
 70
     0
 10
0.0
 20
0.0
 30
0.0
  3
*Paper_Space0
  1

  0
ENDBLK
  5
25
330
23
100
AcDbEntity
  8
0
100
AcDbBlockEnd
  0
BLOCK
  5
48
330
47
100
AcDbEntity
  8
0
100
AcDbBlockBegin
  2
G_INSEC_PG9_S68N_NNES_S-select__1
 70
     0
 10
-12.29053525769069
 20
26.66082629996568
 30
0.0
  3
G_INSEC_PG9_S68N_NNES_S-select__1
  1

  0
LINE
  5
87
330
47
100
AcDbEntity
  8
0
  6
Continuous
 62
     7
100
AcDbLine
 10
0.11632529519783
 20
50.30479240146699
 30
0.0
 11
1.63148659470539
 21
51.65675504342925
 31
0.0
  0
LINE
  5
88
330
47
100
AcDbEntity
  8
0
  6
Continuous
 62
     7
100
AcDbLine
 10
0.62837389180766
 20
51.38678649343913
 30
0.0
 11
-0.88678740769568
 21
50.03482385147792
 31
0.0
  0
LINE
  5
89
330
47
100
AcDbEntity
  8
0
  6
Continuous
 62
     7
100
AcDbLine
 10
13.35414134542391
 20
41.44207365500377
 30
0.0
 11
11.83898004552128
 21
40.09011101273585
 31
0.0
  0
LINE
  5
8A
330
47
100
AcDbEntity
  8
0
  6
Continuous
 62
     7
100
AcDbLine
 10
1.8944685159998
 20
51.60980009613011
 30
0.0
 11
1.88288851947443
 21
51.59946738587616
 31
0.0
  0
LINE
  5
8B
330
47
100
AcDbEntity
  8
0
  6
Continuous
 62
     7
100
AcDbLine
 10
13.07957418640729
 20
39.0745134563353
 30
0.0
 11
11.66770689250137
 21
37.8147189794546
 31
0.0
  0
LINE
  5
8C
330
47
100
AcDbEntity
  8
0
  6
Continuous
 62
     7
100
AcDbLine
 10
11.84509592415701
 20
38.94073855483733
 30
0.0
 11
13.36025722367387
 21
40.29270119676104
 31
0.0
  0
LINE
  5
8D
330
47
100
AcDbEntity
  8
0
  6
Continuous
 62
     7
100
AcDbLine
 10
-7.46794145367682
 20
44.16252866170608
 30
0.0
 11
-10.99580160080586
 21
39.14020917700862
 31
0.0
  0
LINE
  5
8E
330
47
100
AcDbEntity
  8
0
  6
Continuous
 62
     7
100
AcDbLine
 10
-10.66045970134351
 20
39.33499512223406
 30
0.0
 11
-8.16603501211075
 21
41.56074428439273
 31
0.0
  0
LINE
  5
8F
330
47
100
AcDbEntity
  8
0
  6
Continuous
 62
     7
100
AcDbLine
 10
-0.54060219002245
 20
27.99354530527686
 30
0.0
 11
1.95382249921032
 21
30.21929446743552
 31
0.0
  0
LINE
  5
90
330
47
100
AcDbEntity
  8
0
  6
Continuous
 62
     7
100
AcDbLine
 10
-0.3997735930631
 20
28.11920519512773
 30
0.0
 11
0.73296902822391
 21
27.77615533035132
 31
0.0
  0
LINE
  5
91
330
47
100
AcDbEntity
  8
0
  6
Continuous
 62
     7
100
AcDbLine
 10
1.73608173100396
 20
28.04612388030977
 30
0.0
 11
3.38019665064658
 21
29.51315049397461
 31
0.0
  0
LINE
  5
92
330
47
100
AcDbEntity
  8
0
  6
Continuous
 62
     7
100
AcDbLine
 10
1.73608173100396
 20
28.04612388030977
 30
0.0
 11
5.26394187813301
 21
33.06844336500725
 31
0.0
  0
LINE
  5
93
330
47
100
AcDbEntity
  8
0
  6
Continuous
 62
     7
100
AcDbLine
 10
-2.0198563363447
 20
48.11708881158847
 30
0.0
 11
-3.77935081002453
 21
46.54711022393256
 31
0.0
  0
LINE
  5
94
330
47
100
AcDbEntity
  8
0
  6
Continuous
 62
     7
100
AcDbLine
 10
9.16524933406279
 20
35.58180217179366
 30
0.0
 11
7.40575486038296
 21
34.01182358413775
 31
0.0
  0
LINE
  5
95
330
47
100
AcDbEntity
  8
0
  6
Continuous
 62
     7
100
AcDbLine
 10
8.75212975263389
 20
49.50027604538268
 30
0.0
 11
7.23696845350141
 21
48.14831340379295
 31
0.0
  0
LINE
  5
96
330
47
100
AcDbEntity
  8
0
  6
Continuous
 62
     7
100
AcDbLine
 10
9.83239707615904
 20
35.27038171171935
 30
0.0
 11
8.31723577664219
 21
33.91841906979564
 31
0.0
  0
LINE
  5
97
330
47
100
AcDbEntity
  8
0
  6
Continuous
 62
     7
100
AcDbLine
 10
8.24619703459672
 20
47.26890949549377
 30
0.0
 11
9.76135833372783
 21
48.62087213707329
 31
0.0
  0
LINE
  5
98
330
47
100
AcDbEntity
  8
0
  6
Continuous
 62
     7
100
AcDbLine
 10
-3.56185588749923
 20
45.60199451583485
 30
0.0
 11
-3.21343772550988
 21
45.91288441180007
 31
0.0
  0
LINE
  5
99
330
47
100
AcDbEntity
  8
0
  6
Continuous
 62
     7
100
AcDbLine
 10
-6.46482875089677
 20
44.43249721166453
 30
0.0
 11
-4.82071383125415
 21
45.89952382532935
 31
0.0
  0
LINE
  5
9A
330
47
100
AcDbEntity
  8
0
  6
Continuous
 62
     7
100
AcDbLine
 10
5.26394187813301
 20
33.06844336500725
 30
0.0
 11
6.90805679777561
 21
34.53546997867207
 31
0.0
  0
LINE
  5
9B
330
47
100
AcDbEntity
  8
0
  6
Continuous
 62
     7
100
AcDbLine
 10
0.65581440754264
 20
42.27601821394813
 30
0.0
 11
-6.46482875089677
 21
44.43249721166453
 31
0.0
  0
LINE
  5
9C
330
47
100
AcDbEntity
  8
0
  6
Continuous
 62
     7
100
AcDbLine
 10
-7.46794145367682
 20
44.16252866170608
 30
0.0
 11
-5.82382653403422
 21
45.62955527537091
 31
0.0
  0
LINE
  5
9D
330
47
100
AcDbEntity
  8
0
  6
Continuous
 62
     7
100
AcDbLine
 10
5.25782599988304
 20
34.21781582324999
 30
0.0
 11
1.66504298857267
 21
41.39661430566382
 31
0.0
  0
LINE
  5
9E
330
47
100
AcDbEntity
  8
0
  6
Continuous
 62
     7
100
AcDbLine
 10
5.25782599988304
 20
34.21781582324999
 30
0.0
 11
6.90194091952566
 21
35.68484243691482
 31
0.0
  0
LINE
  5
9F
330
47
100
AcDbEntity
  8
0
  6
Continuous
 62
     7
100
AcDbLine
 10
0.65581440754264
 20
42.27601821394813
 30
0.0
 11
2.29992932718527
 21
43.74304482761296
 31
0.0
  0
LINE
  5
A0
330
47
100
AcDbEntity
  8
0
  6
Continuous
 62
     7
100
AcDbLine
 10
1.66504298857267
 20
41.39661430566382
 30
0.0
 11
3.30915790821528
 21
42.86364091932865
 31
0.0
  0
ARC
  5
A1
330
47
100
AcDbEntity
  8
0
  6
Continuous
 62
     7
100
AcDbCircle
 10
0.98941856362214
 20
39.57275957921729
 30
0.0
 40
12.60219299130089
100
AcDbArc
 50
45.88789124707488
 51
51.9767653289104
  0
ARC
  5
A2
330
47
100
AcDbEntity
  8
0
  6
Continuous
 62
     7
100
AcDbCircle
 10
-0.52574273612099
 20
38.22079693680786
 30
0.0
 40
12.60219299232276
100
AcDbArc
 50
45.88789124770345
 51
51.97676532901897
  0
ARC
  5
A3
330
47
100
AcDbEntity
  8
0
  6
Continuous
 62
     7
100
AcDbCircle
 10
-5.46278186237574
 20
33.81552836119668
 30
0.0
 40
12.60219299183686
100
AcDbArc
 50
45.88789124636396
 51
51.97676532764586
  0
ARC
  5
A4
330
47
100
AcDbEntity
  8
0
  6
Continuous
 62
     7
100
AcDbCircle
 10
-7.10689678201879
 20
32.34850174753134
 30
0.0
 40
12.60219299183753
100
AcDbArc
 50
45.88789124636413
 51
51.97676532764574
  0
SPLINE
  5
A5
330
47
100
AcDbEntity
  8
0
  6
Continuous
 62
     7
100
AcDbSpline
210
0.0
220
0.0
230
1.0
 70
     8
 71
     3
 72
    11
 73
     7
 74
     5
 42
0.000000001
 43
0.0000000001
 44
0.00000001
 40
0.0
 40
0.0
 40
0.0
 40
0.0
 40
2.098630513915129
 40
4.063062280035993
 40
6.005407208719447
 40
8.036180580301458
 40
8.036180580301458
 40
8.036180580301458
 40
8.036180580301458
 10
8.246197034596719
 20
47.26890949549377
 30
0.0
 10
8.515885076094953
 20
46.62334044391692
 30
0.0
 10
9.038015736942056
 20
45.37348381931409
 30
0.0
 10
9.89895991897678
 20
43.56551684396067
 30
0.0
 10
10.81896211456849
 20
41.81229863500448
 30
0.0
 10
11.49396627913609
 20
40.67262864302515
 30
0.0
 10
11.83898004552128
 20
40.09011101273585
 30
0.0
 11
8.246197034596719
 21
47.26890949549377
 31
0.0
 11
9.071363383471924
 21
45.33931095397053
 31
0.0
 11
9.913569546885483
 21
43.56457690529308
 31
0.0
 11
10.81945286180309
 21
41.84641531706676
 31
0.0
 11
11.83898004552128
 21
40.09011101273585
 31
0.0
  0
SPLINE
  5
A6
330
47
100
AcDbEntity
  8
0
  6
Continuous
 62
     7
100
AcDbSpline
210
0.0
220
0.0
230
1.0
 70
     8
 71
     3
 72
    11
 73
     7
 74
     5
 42
0.000000001
 43
0.0000000001
 44
0.00000001
 40
0.0
 40
0.0
 40
0.0
 40
0.0
 40
2.098783030258543
 40
4.06335267920479
 40
6.00555632700144
 40
8.036180582572635
 40
8.036180582572635
 40
8.036180582572635
 40
8.036180582572635
 10
13.35414134542391
 20
41.44207365500377
 30
0.0
 10
13.08443328651488
 20
42.08768946259414
 30
0.0
 10
12.56226449808394
 20
43.33763510798801
 30
0.0
 10
11.70129014768996
 20
45.14564296342229
 30
0.0
 10
10.78130282197574
 20
46.89881136432292
 30
0.0
 10
10.10634718152668
 20
48.038397542929
 30
0.0
 10
9.761358333727827
 20
48.62087213707329
 30
0.0
 11
13.35414134542391
 21
41.44207365500377
 31
0.0
 11
12.52891238391608
 21
43.37181129779849
 31
0.0
 11
11.68663883751978
 21
45.14666599046605
 31
0.0
 11
10.78081322551642
 21
46.86469828692422
 31
0.0
 11
9.761358333727827
 21
48.62087213707329
 31
0.0
  0
SPLINE
  5
A7
330
47
100
AcDbEntity
  8
0
  6
Continuous
 62
     7
100
AcDbSpline
210
0.0
220
0.0
230
1.0
 70
     8
 71
     3
 72
    11
 73
     7
 74
     5
 42
0.000000001
 43
0.0000000001
 44
0.00000001
 40
0.0
 40
0.0
 40
0.0
 40
0.0
 40
1.845523480161319
 40
3.633798046202307
 40
5.466251533262675
 40
7.447223838067548
 40
7.447223838067548
 40
7.447223838067548
 40
7.447223838067548
 10
8.752129752633891
 20
49.50027604538268
 30
0.0
 10
8.176941504421386
 20
49.71869243491071
 30
0.0
 10
7.044407584136708
 20
50.14874983186106
 30
0.0
 10
5.309744095150043
 20
50.70857351389391
 30
0.0
 10
3.512244845538941
 20
51.21611469006268
 30
0.0
 10
2.274474865740401
 20
51.50611018029966
 30
0.0
 10
1.631486594705386
 20
51.65675504342925
 30
0.0
 11
8.752129752633891
 21
49.50027604538268
 31
0.0
 11
7.021246890931565
 21
50.14058959035884
 31
0.0
 11
5.320633717162551
 21
50.69361830401773
 31
0.0
 11
3.556646364970684
 21
51.18983842135823
 31
0.0
 11
1.631486594705386
 21
51.65675504342925
 31
0.0
  0
SPLINE
  5
A8
330
47
100
AcDbEntity
  8
0
  6
Continuous
 62
     7
100
AcDbSpline
210
0.0
220
0.0
230
1.0
 70
     8
 71
     3
 72
     9
 73
     5
 74
     3
 42
0.000000001
 43
0.0000000001
 44
0.00000001
 40
0.0
 40
0.0
 40
0.0
 40
0.0
 40
0.5686812811392679
 40
1.15013431620556
 40
1.15013431620556
 40
1.15013431620556
 40
1.15013431620556
 10
11.84509592415701
 20
38.94073855483733
 30
0.0
 10
11.85436299847321
 20
39.13022397884588
 30
0.0
 10
11.87310525212946
 20
39.51345039398241
 30
0.0
 10
11.85043902075244
 20
39.89647303861377
 30
0.0
 10
11.83898004552128
 20
40.09011101273585
 30
0.0
 11
11.84509592415701
 21
38.94073855483733
 31
0.0
 11
11.86277365138871
 21
39.50914500966311
 31
0.0
 11
11.83898004552128
 21
40.09011101273585
 31
0.0
  0
SPLINE
  5
A9
330
47
100
AcDbEntity
  8
0
  6
Continuous
 62
     7
100
AcDbSpline
210
0.0
220
0.0
230
1.0
 70
     8
 71
     3
 72
    11
 73
     7
 74
     5
 42
0.000000001
 43
0.0000000001
 44
0.00000001
 40
0.0
 40
0.0
 40
0.0
 40
0.0
 40
1.702715636092421
 40
3.237230079610858
 40
4.689054475730245
 40
6.138173161922563
 40
6.138173161922563
 40
6.138173161922563
 40
6.138173161922563
 10
11.84509592415701
 20
38.94073855483733
 30
0.0
 10
11.50971480130837
 20
38.48284743611793
 30
0.0
 10
10.87208288210396
 20
37.61229754163629
 30
0.0
 10
9.965715431727359
 20
36.3388575812513
 30
0.0
 10
9.122680134351677
 20
35.12419362123902
 30
0.0
 10
8.58555023138404
 20
34.32009392842851
 30
0.0
 10
8.317235776642192
 20
33.91841906979564
 30
0.0
 11
11.84509592415701
 21
38.94073855483733
 31
0.0
 11
10.84224303765084
 21
37.56468382283053
 31
0.0
 11
9.952276421982504
 21
36.31460622494983
 31
0.0
 11
9.125733611539012
 21
35.12103131734003
 31
0.0
 11
8.317235776642192
 21
33.91841906979564
 31
0.0
  0
SPLINE
  5
AA
330
47
100
AcDbEntity
  8
0
  6
Continuous
 62
     7
100
AcDbSpline
210
0.0
220
0.0
230
1.0
 70
     8
 71
     3
 72
    11
 73
     7
 74
     5
 42
0.000000001
 43
0.0000000001
 44
0.00000001
 40
0.0
 40
0.0
 40
0.0
 40
0.0
 40
1.70283720733615
 40
3.237452146284274
 40
4.689163372693454
 40
6.13817316284366
 40
6.13817316284366
 40
6.13817316284366
 40
6.13817316284366
 10
9.83239707615904
 20
35.27038171171935
 30
0.0
 10
10.16780207315816
 20
35.72830557649598
 30
0.0
 10
10.80547759646203
 20
36.59891529015356
 30
0.0
 10
11.71186436363119
 20
37.87238607159405
 30
0.0
 10
12.55487449745145
 20
39.08701815276513
 30
0.0
 10
13.09196304892172
 20
39.89105644579194
 30
0.0
 10
13.36025722367387
 20
40.29270119676104
 30
0.0
 11
9.83239707615904
 21
35.27038171171935
 31
0.0
 11
10.83532104770073
 21
36.64653506874533
 31
0.0
 11
11.72534422451132
 21
37.89669576079392
 31
0.0
 11
12.55182076805318
 21
39.09017890196586
 31
0.0
 11
13.36025722367387
 21
40.29270119676104
 31
0.0
  0
SPLINE
  5
AB
330
47
100
AcDbEntity
  8
0
  6
Continuous
 62
     7
100
AcDbSpline
210
0.0
220
0.0
230
1.0
 70
     8
 71
     3
 72
     9
 73
     5
 74
     3
 42
0.000000001
 43
0.0000000001
 44
0.00000001
 40
0.0
 40
0.0
 40
0.0
 40
0.0
 40
0.0756047923266894
 40
0.151425995273479
 40
0.151425995273479
 40
0.151425995273479
 40
0.151425995273479
 10
-10.99580160080586
 20
39.14020917700862
 30
0.0
 10
-10.99745837267332
 20
39.11506169966929
 30
0.0
 10
-11.00077663877757
 20
39.06469476181552
 30
0.0
 10
-11.00333562760852
 20
39.01428354113578
 30
0.0
 10
-11.00461694061625
 20
38.98904190761341
 30
0.0
 11
-10.99580160080586
 21
39.14020917700862
 31
0.0
 11
-11.00058262931205
 21
39.06475570527418
 31
0.0
 11
-11.00461694061625
 21
38.98904190761341
 31
0.0
  0
SPLINE
  5
AC
330
47
100
AcDbEntity
  8
0
  6
Continuous
 62
     7
100
AcDbSpline
210
0.0
220
0.0
230
1.0
 70
     8
 71
     3
 72
     9
 73
     5
 74
     3
 42
0.000000001
 43
0.0000000001
 44
0.00000001
 40
0.0
 40
0.0
 40
0.0
 40
0.0
 40
0.5814530351073061
 40
1.150134316558106
 40
1.150134316558106
 40
1.150134316558106
 40
1.150134316558106
 10
13.35414134542391
 20
41.44207365500377
 30
0.0
 10
13.36560032066246
 20
41.24843568086632
 30
0.0
 10
13.38826655205941
 20
40.86541303611409
 30
0.0
 10
13.36952429812824
 20
40.48218662086899
 30
0.0
 10
13.36025722367387
 20
40.29270119676104
 30
0.0
 11
13.35414134542391
 21
41.44207365500377
 31
0.0
 11
13.37793495124311
 21
40.86110765188801
 31
0.0
 11
13.36025722367387
 21
40.29270119676104
 31
0.0
  0
SPLINE
  5
AD
330
47
100
AcDbEntity
  8
0
  6
Continuous
 62
     7
100
AcDbSpline
210
0.0
220
0.0
230
1.0
 70
     8
 71
     3
 72
     9
 73
     5
 74
     3
 42
0.000000001
 43
0.0000000001
 44
0.00000001
 40
0.0
 40
0.0
 40
0.0
 40
0.0
 40
0.5245733889403316
 40
1.039815833473083
 40
1.039815833473083
 40
1.039815833473083
 40
1.039815833473083
 10
0.1163252951978322
 20
50.30479240146699
 30
0.0
 10
-0.0553591984963373
 20
50.27051878936017
 30
0.0
 10
-0.3956743120004743
 20
50.20258119385805
 30
0.0
 10
-0.7240653331296975
 20
50.0904074358811
 30
0.0
 10
-0.8867874076956781
 20
50.03482385147792
 30
0.0
 11
0.1163252951978322
 21
50.30479240146699
 31
0.0
 11
-0.3956934191995973
 21
50.19071314413504
 31
0.0
 11
-0.8867874076956781
 21
50.03482385147792
 31
0.0
  0
SPLINE
  5
AE
330
47
100
AcDbEntity
  8
0
  6
Continuous
 62
     7
100
AcDbSpline
210
0.0
220
0.0
230
1.0
 70
     8
 71
     3
 72
     9
 73
     5
 74
     3
 42
0.000000001
 43
0.0000000001
 44
0.00000001
 40
0.0
 40
0.0
 40
0.0
 40
0.0
 40
1.489073035144705
 40
3.137242849946327
 40
3.137242849946327
 40
3.137242849946327
 40
3.137242849946327
 10
-2.722097223872822
 20
47.49048658391005
 30
0.0
 10
-2.434995274238154
 20
47.89539598535003
 30
0.0
 10
-1.830116573388995
 20
48.74847644357655
 30
0.0
 10
-1.211684504769944
 20
49.59178599911478
 30
0.0
 10
-0.8867874076956781
 20
50.03482385147792
 30
0.0
 11
-2.722097223872822
 21
47.49048658391005
 31
0.0
 11
-1.857737972923108
 21
48.70301352771432
 31
0.0
 11
-0.8867874076956781
 21
50.03482385147792
 31
0.0
  0
SPLINE
  5
AF
330
47
100
AcDbEntity
  8
0
  6
Continuous
 62
     7
100
AcDbSpline
210
0.0
220
0.0
230
1.0
 70
     8
 71
     3
 72
    11
 73
     7
 74
     5
 42
0.000000001
 43
0.0000000001
 44
0.00000001
 40
0.0
 40
0.0
 40
0.0
 40
0.0
 40
1.845387105764879
 40
3.633528902830077
 40
5.466108376546298
 40
7.447223842964559
 40
7.447223842964559
 40
7.447223842964559
 40
7.447223842964559
 10
0.1163252951978322
 20
50.30479240146699
 30
0.0
 10
0.6914708651090654
 20
50.08639172765423
 30
0.0
 10
1.823920557907613
 20
49.65636534859123
 30
0.0
 10
3.558535733496432
 20
49.09654782223154
 30
0.0
 10
5.356076594580493
 20
48.58898618722854
 30
0.0
 10
6.59393379009165
 20
48.29896952149733
 30
0.0
 10
7.236968453501405
 20
48.14831340379295
 30
0.0
 11
0.1163252951978322
 21
50.30479240146699
 31
0.0
 11
1.847079324288789
 21
49.66452365953379
 31
0.0
 11
3.547563689263157
 21
49.11152816925568
 31
0.0
 11
5.311670143476134
 21
48.61526619509593
 31
0.0
 11
7.236968453501405
 21
48.14831340379295
 31
0.0
  0
SPLINE
  5
B0
330
47
100
AcDbEntity
  8
0
  6
Continuous
 62
     7
100
AcDbSpline
210
0.0
220
0.0
230
1.0
 70
     8
 71
     3
 72
     9
 73
     5
 74
     3
 42
0.000000001
 43
0.0000000001
 44
0.00000001
 40
0.0
 40
0.0
 40
0.0
 40
0.0
 40
0.5152424448883156
 40
1.039815833490126
 40
1.039815833490126
 40
1.039815833490126
 40
1.039815833490126
 10
0.6283738918076622
 20
51.38678649343913
 30
0.0
 10
0.7910959664662831
 20
51.44237007794672
 30
0.0
 10
1.119486987561227
 20
51.55454383605879
 30
0.0
 10
1.459802101104885
 20
51.62248143141748
 30
0.0
 10
1.631486594705386
 20
51.65675504342925
 30
0.0
 11
0.6283738918076622
 21
51.38678649343913
 31
0.0
 11
1.119467880603729
 21
51.54267578632642
 31
0.0
 11
1.631486594705386
 21
51.65675504342925
 31
0.0
  0
SPLINE
  5
B1
330
47
100
AcDbEntity
  8
0
  6
Continuous
 62
     7
100
AcDbSpline
210
0.0
220
0.0
230
1.0
 70
     8
 71
     3
 72
     9
 73
     5
 74
     3
 42
0.000000001
 43
0.0000000001
 44
0.00000001
 40
0.0
 40
0.0
 40
0.0
 40
0.0
 40
0.5245733885396068
 40
1.039815833367912
 40
1.039815833367912
 40
1.039815833367912
 40
1.039815833367912
 10
0.7329690282239127
 20
27.77615533035132
 30
0.0
 10
0.904653521803741
 20
27.81042894236035
 30
0.0
 10
1.244968635306779
 20
27.87836653771365
 30
0.0
 10
1.573359656363908
 20
27.99054029580995
 30
0.0
 10
1.736081731003964
 20
28.04612388030977
 30
0.0
 11
0.7329690282239127
 21
27.77615533035132
 31
0.0
 11
1.244987742264274
 21
27.89023458744323
 31
0.0
 11
1.736081731003964
 21
28.04612388030977
 31
0.0
  0
SPLINE
  5
B2
330
47
100
AcDbEntity
  8
0
  6
Continuous
 62
     7
100
AcDbSpline
210
0.0
220
0.0
230
1.0
 70
     8
 71
     3
 72
    13
 73
     9
 74
     7
 42
0.000000001
 43
0.0000000001
 44
0.00000001
 40
0.0
 40
0.0
 40
0.0
 40
0.0
 40
2.789753592447973
 40
5.819769053381425
 40
8.884459101967284
 40
11.76258917047737
 40
14.32244445874742
 40
16.6224367182668
 40
16.6224367182668
 40
16.6224367182668
 40
16.6224367182668
 10
0.9519956105348584
 20
31.67984470807411
 30
0.0
 10
0.829850962425928
 20
32.61108572616425
 30
0.0
 10
0.5750421915479696
 20
34.55376900278318
 30
0.0
 10
-1.043389217826062
 20
37.12734245579388
 30
0.0
 10
-3.26706836359554
 20
39.18327002552108
 30
0.0
 10
-5.869342903627024
 20
40.37710884966592
 30
0.0
 10
-8.584255672801552
 20
40.61944382759662
 30
0.0
 10
-9.993509977607726
 20
39.74760520696356
 30
0.0
 10
-10.66045970134351
 20
39.33499512223406
 30
0.0
 11
0.9519956105348584
 21
31.67984470807411
 31
0.0
 11
0.4005059855215132
 21
34.41454474514519
 31
0.0
 11
-1.135980907122786
 21
37.02609633772842
 31
0.0
 11
-3.405332094497351
 21
39.08579784238077
 31
0.0
 11
-6.034998489912212
 21
40.25562148728967
 31
0.0
 11
-8.593346219921898
 21
40.34346241038415
 31
0.0
 11
-10.66045970134351
 21
39.33499512223406
 31
0.0
  0
SPLINE
  5
B3
330
47
100
AcDbEntity
  8
0
  6
Continuous
 62
     7
100
AcDbSpline
210
0.0
220
0.0
230
1.0
 70
     8
 71
     3
 72
     9
 73
     5
 74
     3
 42
0.000000001
 43
0.0000000001
 44
0.00000001
 40
0.0
 40
0.0
 40
0.0
 40
0.0
 40
1.95023415956512
 40
4.069878497571694
 40
4.069878497571694
 40
4.069878497571694
 40
4.069878497571694
 10
-0.5406021900224474
 20
27.99354530527686
 30
0.0
 10
-0.1081057612514067
 20
28.50171545198974
 30
0.0
 10
0.7944565666179884
 20
29.56219875931208
 30
0.0
 10
0.8980452960518389
 20
30.95464239825835
 30
0.0
 10
0.9519956105348584
 20
31.67984470807411
 30
0.0
 11
-0.5406021900224474
 21
27.99354530527686
 31
0.0
 11
0.5734263840822607
 21
29.59428064302157
 31
0.0
 11
0.9519956105348584
 21
31.67984470807411
 31
0.0
  0
SPLINE
  5
B4
330
47
100
AcDbEntity
  8
0
  6
Continuous
 62
     7
100
AcDbSpline
210
0.0
220
0.0
230
1.0
 70
     8
 71
     3
 72
    15
 73
    11
 74
     9
 42
0.000000001
 43
0.0000000001
 44
0.00000001
 40
0.0
 40
0.0
 40
0.0
 40
0.0
 40
2.445173230214504
 40
5.150490408931155
 40
8.185904995329416
 40
11.43453711547941
 40
14.6831692356294
 40
17.71858382202765
 40
20.42390100074431
 40
22.86907423095881
 40
22.86907423095881
 40
22.86907423095881
 40
22.86907423095881
 10
7.405754860382956
 20
34.01182358413775
 30
0.0
 10
7.926145324776047
 20
34.66171037935079
 30
0.0
 10
9.022291002143021
 20
36.03062595664989
 30
0.0
 10
9.171293850658191
 20
38.9026623466122
 30
0.0
 10
8.321741969229612
 20
41.80354943071952
 30
0.0
 10
6.529101488926035
 20
44.48741486316456
 30
0.0
 10
4.065988729039371
 20
46.57302486582076
 30
0.0
 10
1.280240290612227
 20
47.74626393428909
 30
0.0
 10
-1.590153518594639
 20
47.92412414400496
 30
0.0
 10
-3.07461099373123
 20
46.99039441421504
 30
0.0
 10
-3.779350810024532
 20
46.54711022393256
 30
0.0
 11
7.405754860382956
 21
34.01182358413775
 31
0.0
 11
8.741003068032828
 21
36.06023378981727
 31
0.0
 11
9.021595288792632
 21
38.75096028553875
 31
0.0
 11
8.204734481926002
 21
41.67439664528549
 31
0.0
 11
6.414856706296426
 21
44.38547543387791
 31
0.0
 11
3.924392867004729
 21
46.47142857688686
 31
0.0
 11
1.112531220959393
 21
47.6147464726548
 31
0.0
 11
-1.592655710300053
 21
47.64129333822611
 31
0.0
 11
-3.779350810024532
 21
46.54711022393256
 31
0.0
  0
SPLINE
  5
B5
330
47
100
AcDbEntity
  8
0
  6
Continuous
 62
     7
100
AcDbSpline
210
0.0
220
0.0
230
1.0
 70
     8
 71
     3
 72
     9
 73
     5
 74
     3
 42
0.000000001
 43
0.0000000001
 44
0.00000001
 40
0.0
 40
0.0
 40
0.0
 40
0.0
 40
0.5152424448283127
 40
1.03981583336792
 40
1.03981583336792
 40
1.03981583336792
 40
1.03981583336792
 10
-5.823826534034218
 20
45.62955527537091
 30
0.0
 10
-5.661104459394156
 20
45.68513885987073
 30
0.0
 10
-5.332713438337024
 20
45.79731261796702
 30
0.0
 10
-4.992398324833982
 20
45.86525021332032
 30
0.0
 10
-4.820713831254153
 20
45.89952382532935
 30
0.0
 11
-5.823826534034218
 21
45.62955527537091
 31
0.0
 11
-5.332732545294517
 21
45.78544456823744
 31
0.0
 11
-4.820713831254153
 21
45.89952382532935
 31
0.0
  0
SPLINE
  5
B6
330
47
100
AcDbEntity
  8
0
  6
Continuous
 62
     7
100
AcDbSpline
210
0.0
220
0.0
230
1.0
 70
     8
 71
     3
 72
    15
 73
    11
 74
     9
 42
0.000000001
 43
0.0000000001
 44
0.00000001
 40
0.0
 40
0.0
 40
0.0
 40
0.0
 40
0.4905029263946536
 40
0.9728909611526741
 40
1.449157339528606
 40
1.921341868019825
 40
2.391561527738262
 40
2.862059952636006
 40
3.335242828472428
 40
3.813752619134324
 40
3.813752619134324
 40
3.813752619134324
 40
3.813752619134324
 10
-4.820713831254153
 20
45.89952382532935
 30
0.0
 10
-4.661303840917927
 20
45.86317461333482
 30
0.0
 10
-4.345121146033394
 20
45.79107753734532
 30
0.0
 10
-3.87518087174777
 20
45.67926280691929
 30
0.0
 10
-3.41202333716077
 20
45.56538906700569
 30
0.0
 10
-2.953800817208355
 20
45.44849991192486
 30
0.0
 10
-2.498493818959852
 20
45.32803058501935
 30
0.0
 10
-2.044064535087461
 20
45.20303762333518
 30
0.0
 10
-1.588138060306486
 20
45.07311601750864
 30
0.0
 10
-1.284238779302765
 20
44.98210734356054
 30
0.0
 10
-1.131438632294454
 20
44.93634829786807
 30
0.0
 11
-4.820713831254153
 21
45.89952382532935
 31
0.0
 11
-4.34265888426008
 21
45.78972132804618
 31
0.0
 11
-3.873338607914853
 21
45.67820140014807
 31
0.0
 11
-3.41086998512358
 21
45.5643926299985
 31
0.0
 11
-2.953342410969782
 21
45.44765896769154
 31
0.0
 11
-2.498783036127478
 21
45.3273165261817
 31
0.0
 11
-2.045119849898057
 21
45.20258288432803
 31
0.0
 11
-1.590141092129947
 21
45.07259686929318
 31
0.0
 11
-1.131438632294454
 21
44.93634829786807
 31
0.0
  0
SPLINE
  5
B7
330
47
100
AcDbEntity
  8
0
  6
Continuous
 62
     7
100
AcDbSpline
210
0.0
220
0.0
230
1.0
 70
     8
 71
     3
 72
     9
 73
     5
 74
     3
 42
0.000000001
 43
0.0000000001
 44
0.00000001
 40
0.0
 40
0.0
 40
0.0
 40
0.0
 40
0.5245733881383573
 40
1.039815832906814
 40
1.039815832906814
 40
1.039815832906814
 40
1.039815832906814
 10
7.314123074255662
 20
33.64845052017967
 30
0.0
 10
7.485807567722928
 20
33.68272413207714
 30
0.0
 10
7.826122681112237
 20
33.75066172723116
 30
0.0
 10
8.154513702021934
 20
33.86283548529413
 30
0.0
 10
8.317235776642192
 20
33.91841906979564
 30
0.0
 11
7.314123074255662
 21
33.64845052017967
 31
0.0
 11
7.826141787951704
 21
33.76252977697191
 31
0.0
 11
8.317235776642192
 21
33.91841906979564
 31
0.0
  0
SPLINE
  5
B8
330
47
100
AcDbEntity
  8
0
  6
Continuous
 62
     7
100
AcDbSpline
210
0.0
220
0.0
230
1.0
 70
     8
 71
     3
 72
     9
 73
     5
 74
     3
 42
0.000000001
 43
0.0000000001
 44
0.00000001
 40
0.0
 40
0.0
 40
0.0
 40
0.0
 40
0.1449216233911227
 40
0.2887547168300176
 40
0.2887547168300176
 40
0.2887547168300176
 40
0.2887547168300176
 10
7.314123074255662
 20
33.64845052017967
 30
0.0
 10
7.267008777854522
 20
33.65911975821349
 30
0.0
 10
7.173134072655497
 20
33.68037811539558
 30
0.0
 10
7.079326892672933
 20
33.7019324860471
 30
0.0
 10
7.032600119200538
 20
33.71266905390748
 30
0.0
 11
7.314123074255662
 21
33.64845052017967
 31
0.0
 11
7.172797196103112
 21
33.68053280647253
 31
0.0
 11
7.032600119200538
 21
33.71266905390748
 31
0.0
  0
SPLINE
  5
B9
330
47
100
AcDbEntity
  8
0
  6
Continuous
 62
     7
100
AcDbSpline
210
0.0
220
0.0
230
1.0
 70
     8
 71
     3
 72
     9
 73
     5
 74
     3
 42
0.000000001
 43
0.0000000001
 44
0.00000001
 40
0.0
 40
0.0
 40
0.0
 40
0.0
 40
0.8491455955572509
 40
1.687824814247723
 40
1.687824814247723
 40
1.687824814247723
 40
1.687824814247723
 10
5.968184805337856
 20
33.14078871742028
 30
0.0
 10
6.229202126283416
 20
33.25399970351816
 30
0.0
 10
6.748019518090565
 20
33.47902628008499
 30
0.0
 10
7.18741800182175
 20
33.83496020506398
 30
0.0
 10
7.405754860382956
 20
34.01182358413775
 30
0.0
 11
5.968184805337856
 21
33.14078871742028
 31
0.0
 11
6.731135030823757
 21
33.51355566529245
 31
0.0
 11
7.405754860382956
 21
34.01182358413775
 31
0.0
  0
SPLINE
  5
BA
330
47
100
AcDbEntity
  8
0
  6
Continuous
 62
     7
100
AcDbSpline
210
0.0
220
0.0
230
1.0
 70
     8
 71
     3
 72
     9
 73
     5
 74
     3
 42
0.000000001
 43
0.0000000001
 44
0.00000001
 40
0.0
 40
0.0
 40
0.0
 40
0.0
 40
0.5686812814507997
 40
1.15013431655812
 40
1.15013431655812
 40
1.15013431655812
 40
1.15013431655812
 10
5.263941878133011
 20
33.06844336500725
 30
0.0
 10
5.273208952587379
 20
33.2579287891152
 30
0.0
 10
5.29195120651855
 20
33.6411552043603
 30
0.0
 10
5.269284975121584
 20
34.02417784911253
 30
0.0
 10
5.257825999883039
 20
34.21781582324999
 30
0.0
 11
5.263941878133011
 21
33.06844336500725
 31
0.0
 11
5.281619605702252
 21
33.63684982013422
 31
0.0
 11
5.257825999883039
 21
34.21781582324999
 31
0.0
  0
SPLINE
  5
BB
330
47
100
AcDbEntity
  8
0
  6
Continuous
 62
     7
100
AcDbSpline
210
0.0
220
0.0
230
1.0
 70
     8
 71
     3
 72
    15
 73
    11
 74
     9
 42
0.000000001
 43
0.0000000001
 44
0.00000001
 40
0.0
 40
0.0
 40
0.0
 40
0.0
 40
0.3487557762796828
 40
0.6978612876565289
 40
1.048954739294341
 40
1.40377959182729
 40
1.764208620508777
 40
2.132298829585592
 40
2.510322828282652
 40
2.900852494717914
 40
2.900852494717914
 40
2.900852494717914
 40
2.900852494717914
 10
6.908056797775615
 20
34.53546997867207
 30
0.0
 10
6.843760591093268
 20
34.4386168377718
 30
0.0
 10
6.715103688778735
 20
34.24481343897144
 30
0.0
 10
6.520537224739085
 20
33.9542953453717
 30
0.0
 10
6.323946812468132
 20
33.66270040283382
 30
0.0
 10
6.124227068505661
 20
33.36866535527074
 30
0.0
 10
5.920307648829404
 20
33.07063641537562
 30
0.0
 10
5.710934451523805
 20
32.76697218428333
 30
0.0
 10
5.494847710178224
 20
32.45575128994285
 30
0.0
 10
5.347800372992576
 20
32.24597105867809
 30
0.0
 10
5.273080343951094
 20
32.13937420772025
 30
0.0
 11
6.908056797775615
 21
34.53546997867207
 31
0.0
 11
6.71497171426309
 21
34.2450414297503
 31
0.0
 11
6.520757780540265
 21
33.95494557309892
 31
0.0
 11
6.324475199723148
 21
33.66384462793664
 31
0.0
 11
6.125111573169633
 21
33.37032321405727
 31
0.0
 11
5.92157456713926
 21
33.07286435653933
 31
0.0
 11
5.712651415352667
 21
32.76981070008588
 31
0.0
 11
5.496998227786321
 21
32.45933389530241
 31
0.0
 11
5.273080343951094
 21
32.13937420772025
 31
0.0
  0
SPLINE
  5
BC
330
47
100
AcDbEntity
  8
0
  6
Continuous
 62
     7
100
AcDbSpline
210
0.0
220
0.0
230
1.0
 70
     8
 71
     3
 72
     9
 73
     5
 74
     3
 42
0.000000001
 43
0.0000000001
 44
0.00000001
 40
0.0
 40
0.0
 40
0.0
 40
0.0
 40
0.5245733885396081
 40
1.039815833367912
 40
1.039815833367912
 40
1.039815833367912
 40
1.039815833367912
 10
-6.464828750896771
 20
44.43249721166453
 30
0.0
 10
-6.636513244476598
 20
44.39822359965551
 30
0.0
 10
-6.976828357979635
 20
44.33028600430217
 30
0.0
 10
-7.305219379036766
 20
44.21811224620591
 30
0.0
 10
-7.467941453676822
 20
44.16252866170608
 30
0.0
 11
-6.464828750896771
 21
44.43249721166453
 31
0.0
 11
-6.976847464937133
 21
44.31841795457262
 31
0.0
 11
-7.467941453676822
 21
44.16252866170608
 31
0.0
  0
SPLINE
  5
BD
330
47
100
AcDbEntity
  8
0
  6
Continuous
 62
     7
100
AcDbSpline
210
0.0
220
0.0
230
1.0
 70
     8
 71
     3
 72
     9
 73
     5
 74
     3
 42
0.000000001
 43
0.0000000001
 44
0.00000001
 40
0.0
 40
0.0
 40
0.0
 40
0.0
 40
0.4952140983713522
 40
0.9901406406985774
 40
0.9901406406985774
 40
0.9901406406985774
 40
0.9901406406985774
 10
-3.779350810024532
 20
46.54711022393256
 30
0.0
 10
-3.899657961752145
 20
46.43364353928177
 30
0.0
 10
-4.140202391983888
 20
46.2067760429456
 30
0.0
 10
-4.340910579737055
 20
45.94400917137906
 30
0.0
 10
-4.441235521252843
 20
45.81266388542152
 30
0.0
 11
-3.779350810024532
 21
46.54711022393256
 31
0.0
 11
-4.130307412111665
 21
46.19773010541748
 31
0.0
 11
-4.441235521252843
 21
45.81266388542152
 31
0.0
  0
SPLINE
  5
BE
330
47
100
AcDbEntity
  8
0
  6
Continuous
 62
     7
100
AcDbSpline
210
0.0
220
0.0
230
1.0
 70
     8
 71
     3
 72
    15
 73
    11
 74
     9
 42
0.000000001
 43
0.0000000001
 44
0.00000001
 40
0.0
 40
0.0
 40
0.0
 40
0.0
 40
0.3963644142785782
 40
0.7914235754845946
 40
1.187159325946111
 40
1.58540463446547
 40
1.987895657805464
 40
2.396298856407297
 40
2.812245664299995
 40
3.237357175363023
 40
3.237357175363023
 40
3.237357175363023
 40
3.237357175363023
 10
5.273080343951094
 20
32.13937420772025
 30
0.0
 10
5.19702803566435
 20
32.03133641972116
 30
0.0
 10
5.045173852195637
 20
31.81561662741625
 30
0.0
 10
4.816006740159773
 20
31.49300628167669
 30
0.0
 10
4.585550524377772
 20
31.17054540153787
 30
0.0
 10
4.352675532837683
 20
30.84677030311931
 30
0.0
 10
4.116448657047211
 20
30.52020677612112
 30
0.0
 10
3.8758981972841
 20
30.18949024662884
 30
0.0
 10
3.630160564344378
 20
29.85322396026219
 30
0.0
 10
3.464121049670261
 20
29.62732881195332
 30
0.0
 10
3.380196650646582
 20
29.51315049397461
 30
0.0
 11
5.273080343951094
 21
32.13937420772025
 31
0.0
 11
5.044692453467372
 21
31.8154240257152
 31
0.0
 11
4.815983652307324
 21
31.49329978700235
 31
0.0
 11
4.585875642452711
 21
31.17134157848798
 31
0.0
 11
4.353356711539647
 21
30.84802397526426
 31
0.0
 11
4.117462811412063
 21
30.52190575778164
 31
0.0
 11
3.877255543176958
 21
30.19161249274553
 31
0.0
 11
3.631810294874561
 21
29.85580246150385
 31
0.0
 11
3.380196650646582
 21
29.51315049397461
 31
0.0
  0
SPLINE
  5
BF
330
47
100
AcDbEntity
  8
0
  6
Continuous
 62
     7
100
AcDbSpline
210
0.0
220
0.0
230
1.0
 70
     8
 71
     3
 72
    15
 73
    11
 74
     9
 42
0.000000001
 43
0.0000000001
 44
0.00000001
 40
0.0
 40
0.0
 40
0.0
 40
0.0
 40
0.497146305672058
 40
0.9895098676836795
 40
1.479256361081657
 40
1.968641835452799
 40
2.460045463802898
 40
2.956031385495
 40
3.459388614511953
 40
3.97322487275853
 40
3.97322487275853
 40
3.97322487275853
 40
3.97322487275853
 10
3.309157908215283
 20
42.86364091932865
 30
0.0
 10
3.394658793217924
 20
42.72168475508086
 30
0.0
 10
3.564837998448143
 20
42.43913809340079
 30
0.0
 10
3.814531239729521
 20
42.01393661429967
 30
0.0
 10
4.059225433392614
 20
41.58882537412219
 30
0.0
 10
4.299519976057791
 20
41.16157638607024
 30
0.0
 10
4.53651894716808
 20
40.73011484518862
 30
0.0
 10
4.771042932895361
 20
40.2920157460017
 30
0.0
 10
5.004623477613564
 20
39.84494937961577
 30
0.0
 10
5.15735205428952
 20
39.5422264359606
 30
0.0
 10
5.234503033610466
 20
39.38930564951864
 30
0.0
 11
3.309157908215283
 21
42.86364091932865
 31
0.0
 11
3.564864559889784
 21
42.43729768021748
 31
0.0
 11
3.814354176671714
 21
42.01282529197533
 31
0.0
 11
4.058579167534588
 21
41.58831877646276
 31
0.0
 11
4.298476685750146
 21
41.1617659387386
 31
0.0
 11
4.535009694464541
 21
40.73103439607209
 31
0.0
 11
4.769155697529541
 21
40.29379569252036
 31
0.0
 11
5.001955492691087
 21
39.84750794284142
 31
0.0
 11
5.234503033610466
 21
39.38930564951864
 31
0.0
  0
SPLINE
  5
C0
330
47
100
AcDbEntity
  8
0
  6
Continuous
 62
     7
100
AcDbSpline
210
0.0
220
0.0
230
1.0
 70
     8
 71
     3
 72
    11
 73
     7
 74
     5
 42
0.000000001
 43
0.0000000001
 44
0.00000001
 40
0.0
 40
0.0
 40
0.0
 40
0.0
 40
0.6068134633340648
 40
1.218666927863772
 40
3.621645461481636
 40
5.863540022867006
 40
5.863540022867006
 40
5.863540022867006
 40
5.863540022867006
 10
3.379884446285388
 20
42.74654523025391
 30
0.0
 10
3.524436273129336
 20
42.60485434073516
 30
0.0
 10
3.81474051842759
 20
42.32029571171791
 30
0.0
 10
4.602399812734053
 20
41.40641573571073
 30
0.0
 10
5.583782323750815
 20
39.90723819752775
 30
0.0
 10
5.906704510295977
 20
38.38210127727495
 30
0.0
 10
6.062566133011529
 20
37.64597865149721
 30
0.0
 11
3.379884446285388
 21
42.74654523025391
 31
0.0
 11
3.807276916094544
 21
42.31578049454855
 31
0.0
 11
4.209030106988131
 21
41.85430564472773
 31
0.0
 11
5.468196380084652
 21
39.80764833521987
 31
0.0
 11
6.062566133011529
 21
37.64597865149721
 31
0.0
  0
SPLINE
  5
C1
330
47
100
AcDbEntity
  8
0
  6
Continuous
 62
     7
100
AcDbSpline
210
0.0
220
0.0
230
1.0
 70
     8
 71
     3
 72
     9
 73
     5
 74
     3
 42
0.000000001
 43
0.0000000001
 44
0.00000001
 40
0.0
 40
0.0
 40
0.0
 40
0.0
 40
0.5814530351073206
 40
1.150134316558128
 40
1.150134316558128
 40
1.150134316558128
 40
1.150134316558128
 10
6.901940919525657
 20
35.68484243691482
 30
0.0
 10
6.913399894764202
 20
35.49120446277735
 30
0.0
 10
6.936066126161167
 20
35.10818181802512
 30
0.0
 10
6.917323872229991
 20
34.72495540278003
 30
0.0
 10
6.908056797775615
 20
34.53546997867207
 30
0.0
 11
6.901940919525657
 21
35.68484243691482
 31
0.0
 11
6.925734525344868
 21
35.10387643379904
 31
0.0
 11
6.908056797775615
 21
34.53546997867207
 31
0.0
  0
SPLINE
  5
C2
330
47
100
AcDbEntity
  8
0
  6
Continuous
 62
     7
100
AcDbSpline
210
0.0
220
0.0
230
1.0
 70
     8
 71
     3
 72
    15
 73
    11
 74
     9
 42
0.000000001
 43
0.0000000001
 44
0.00000001
 40
0.0
 40
0.0
 40
0.0
 40
0.0
 40
0.5154028933413628
 40
1.023333569838601
 40
1.526739928194969
 40
2.02829086356452
 40
2.530461783481712
 40
3.035573509388919
 40
3.545848797607698
 40
4.063445330135451
 40
4.063445330135451
 40
4.063445330135451
 40
4.063445330135451
 10
5.234503033610466
 20
39.38930564951864
 30
0.0
 10
5.31089520245124
 20
39.23542117714791
 30
0.0
 10
5.462572007377386
 20
38.92988321488134
 30
0.0
 10
5.682425335411688
 20
38.47089201323199
 30
0.0
 10
5.895823571529403
 20
38.01396476578074
 30
0.0
 10
6.103652198154123
 20
37.55658311803397
 30
0.0
 10
6.307322700810396
 20
37.0967144163624
 30
0.0
 10
6.507813866755582
 20
36.63228367644534
 30
0.0
 10
6.706516679416612
 20
36.16149541827781
 30
0.0
 10
6.836490920590162
 20
35.84447943803746
 30
0.0
 10
6.901940919525657
 20
35.68484243691482
 30
0.0
 11
5.234503033610466
 21
39.38930564951864
 31
0.0
 11
5.46258499794007
 21
38.92711655387228
 31
0.0
 11
5.682324749449194
 21
38.46917767816464
 31
0.0
 11
5.895289339266007
 21
38.01303729928364
 31
0.0
 11
6.102836978277892
 21
37.55644413417971
 31
0.0
 11
6.30620696786143
 21
37.09729679373487
 31
0.0
 11
6.506504526364267
 21
36.63359565746591
 31
0.0
 11
6.704765073856835
 21
36.16341098617178
 31
0.0
 11
6.901940919525657
 21
35.68484243691482
 31
0.0
  0
SPLINE
  5
C3
330
47
100
AcDbEntity
  8
0
  6
Continuous
 62
     7
100
AcDbSpline
210
0.0
220
0.0
230
1.0
 70
     8
 71
     3
 72
    11
 73
     7
 74
     5
 42
0.000000001
 43
0.0000000001
 44
0.00000001
 40
0.0
 40
0.0
 40
0.0
 40
0.0
 40
0.4323074974095622
 40
0.877243191408764
 40
1.971115034456765
 40
3.101366201894227
 40
3.101366201894227
 40
3.101366201894227
 40
3.101366201894227
 10
-1.090301046140276
 20
44.92386808048072
 30
0.0
 10
-0.947076423315901
 20
44.90726357039221
 30
0.0
 10
-0.6564434245121631
 20
44.87356949895427
 30
0.0
 10
-0.0131632901390131
 20
44.73740057492837
 30
0.0
 10
0.8387190624608621
 20
44.462670167425
 30
0.0
 10
1.490975821926512
 20
44.10757795938517
 30
0.0
 10
1.822438584001588
 20
43.92712777880605
 30
0.0
 11
-1.090301046140276
 21
44.92386808048072
 31
0.0
 11
-0.6616815728261254
 21
44.86751987463759
 31
0.0
 11
-0.2258700205896708
 21
44.77787578012003
 31
0.0
 11
0.8131713276343229
 21
44.4358981650235
 31
0.0
 11
1.822438584001588
 21
43.92712777880605
 31
0.0
  0
SPLINE
  5
C4
330
47
100
AcDbEntity
  8
0
  6
Continuous
 62
     7
100
AcDbSpline
210
0.0
220
0.0
230
1.0
 70
     8
 71
     3
 72
    15
 73
    11
 74
     9
 42
0.000000001
 43
0.0000000001
 44
0.00000001
 40
0.0
 40
0.0
 40
0.0
 40
0.0
 40
0.4753869323175278
 40
0.93945320767454
 40
1.395159598623561
 40
1.845150823361968
 40
2.291846886804334
 40
2.737480515366508
 40
3.184157267847667
 40
3.633885672153528
 40
3.633885672153528
 40
3.633885672153528
 40
3.633885672153528
 10
-1.131438632294454
 20
44.93634829786807
 30
0.0
 10
-0.9799191312858643
 20
44.88995174896067
 30
0.0
 10
-0.680488352833336
 20
44.79826350443115
 30
0.0
 10
-0.2376995036551124
 20
44.65604923844429
 30
0.0
 10
0.1956443425414644
 20
44.51220390747235
 30
0.0
 10
0.6219781566114557
 20
44.36569235854061
 30
0.0
 10
1.043685057089867
 20
44.21611717632212
 30
0.0
 10
1.46286239626753
 20
44.06278558217379
 30
0.0
 10
1.881651115016715
 20
43.90548750828306
 30
0.0
 10
2.160187182732283
 20
43.79731514358291
 30
0.0
 10
2.299929327185268
 20
43.74304482761296
 30
0.0
 11
-1.131438632294454
 21
44.93634829786807
 31
0.0
 11
-0.6772057814332644
 21
44.79611544615698
 31
0.0
 11
-0.2352830349330474
 21
44.65447578305583
 31
0.0
 11
0.1971956048119692
 21
44.51084242684621
 31
0.0
 11
0.6227727431879728
 21
44.36463640192563
 31
0.0
 11
1.043770295366143
 21
44.21530979935081
 31
0.0
 11
1.462313979141008
 21
44.06230484599202
 31
0.0
 11
1.880403150244472
 21
43.9050739130278
 31
0.0
 11
2.299929327185268
 21
43.74304482761296
 31
0.0
  0
SPLINE
  5
C5
330
47
100
AcDbEntity
  8
0
  6
Continuous
 62
     7
100
AcDbSpline
210
0.0
220
0.0
230
1.0
 70
     8
 71
     3
 72
    15
 73
    11
 74
     9
 42
0.000000001
 43
0.0000000001
 44
0.00000001
 40
0.0
 40
0.0
 40
0.0
 40
0.0
 40
2.148756612590642
 40
4.5261795347907
 40
7.254439073462779
 40
10.174340562504
 40
13.09424205148249
 40
15.8225015901172
 40
18.25406643464392
 40
20.45181142091451
 40
20.45181142091451
 40
20.45181142091451
 40
20.45181142091451
 10
6.918318414705823
 20
34.71793601359069
 30
0.0
 10
7.362618299482808
 20
35.29805614818059
 30
0.0
 10
8.298499547311732
 20
36.5200316298571
 30
0.0
 10
8.421491469618891
 20
39.05826344011297
 30
0.0
 10
7.663175400446239
 20
41.64969040819343
 30
0.0
 10
6.051887515213176
 20
44.06151013983528
 30
0.0
 10
3.838030628381725
 20
45.93620179552
 30
0.0
 10
1.334170379808355
 20
46.99068946106423
 30
0.0
 10
-1.245766231523928
 20
47.15055884582768
 30
0.0
 10
-2.580010828711307
 20
46.31131285316206
 30
0.0
 10
-3.213437725509877
 20
45.91288441180007
 30
0.0
 11
6.918318414705823
 21
34.71793601359069
 31
0.0
 11
8.057586120839026
 21
36.53980979953486
 31
0.0
 11
8.29217454187938
 21
38.9056305981247
 31
0.0
 11
7.557972269040916
 21
41.53324304051611
 31
0.0
 11
5.949213077850047
 21
43.96998647550095
 31
0.0
 11
3.71076046039144
 21
45.8448610266578
 31
0.0
 11
1.183432433291166
 21
46.87248604011589
 31
0.0
 11
-1.248015344209886
 21
46.89634661571868
 31
0.0
 11
-3.213437725509877
 21
45.91288441180007
 31
0.0
  0
SPLINE
  5
C6
330
47
100
AcDbEntity
  8
0
  6
Continuous
 62
     7
100
AcDbSpline
210
0.0
220
0.0
230
1.0
 70
     8
 71
     3
 72
     9
 73
     5
 74
     3
 42
0.000000001
 43
0.0000000001
 44
0.00000001
 40
0.0
 40
0.0
 40
0.0
 40
0.0
 40
1.950234159565125
 40
4.069878497571681
 40
4.069878497571681
 40
4.069878497571681
 40
4.069878497571681
 10
1.953822499210318
 20
30.21929446743552
 30
0.0
 10
2.38631892798136
 20
30.7274646141484
 30
0.0
 10
3.288881255850754
 20
31.78794792147074
 30
0.0
 10
3.392469985284605
 20
33.18039156041701
 30
0.0
 10
3.446420299767624
 20
33.90559387023276
 30
0.0
 11
1.953822499210318
 21
30.21929446743552
 31
0.0
 11
3.067851073315029
 21
31.82002980518024
 31
0.0
 11
3.446420299767624
 21
33.90559387023276
 31
0.0
  0
SPLINE
  5
C7
330
47
100
AcDbEntity
  8
0
  6
Continuous
 62
     7
100
AcDbSpline
210
0.0
220
0.0
230
1.0
 70
     8
 71
     3
 72
    13
 73
     9
 74
     7
 42
0.000000001
 43
0.0000000001
 44
0.00000001
 40
0.0
 40
0.0
 40
0.0
 40
0.0
 40
2.789753592447983
 40
5.819769053381433
 40
8.884459101967296
 40
11.76258917047739
 40
14.32244445874744
 40
16.62243671826681
 40
16.62243671826681
 40
16.62243671826681
 40
16.62243671826681
 10
3.446420299767624
 20
33.90559387023276
 30
0.0
 10
3.324275651658696
 20
34.8368348883229
 30
0.0
 10
3.069466880780746
 20
36.77951816494185
 30
0.0
 10
1.451035471406708
 20
39.35309161795252
 30
0.0
 10
-0.7726436743627629
 20
41.40901918767976
 30
0.0
 10
-3.374918214394259
 20
42.60285801182458
 30
0.0
 10
-6.089830983568779
 20
42.84519298975525
 30
0.0
 10
-7.499085288374962
 20
41.97335436912221
 30
0.0
 10
-8.166035012110747
 20
41.56074428439273
 30
0.0
 11
3.446420299767624
 21
33.90559387023276
 31
0.0
 11
2.894930674754285
 21
36.64029390730384
 31
0.0
 11
1.358443782109987
 21
39.25184549988708
 31
0.0
 11
-0.9109074052645761
 21
41.31154700453943
 31
0.0
 11
-3.540573800679443
 21
42.48137064944834
 31
0.0
 11
-6.098921530689135
 21
42.5692115725428
 31
0.0
 11
-8.166035012110747
 21
41.56074428439273
 31
0.0
  0
SPLINE
  5
C8
330
47
100
AcDbEntity
  8
0
  6
Continuous
 62
     7
100
AcDbSpline
210
0.0
220
0.0
230
1.0
 70
     8
 71
     3
 72
    15
 73
    11
 74
     9
 42
0.000000001
 43
0.0000000001
 44
0.00000001
 40
0.0
 40
0.0
 40
0.0
 40
0.0
 40
1.164368202614009
 40
2.452614475127445
 40
3.898049991082456
 40
5.445017667539605
 40
6.991985343996758
 40
8.437420859951775
 40
9.725667132465215
 40
10.89003533507923
 40
10.89003533507923
 40
10.89003533507923
 40
10.89003533507923
 10
-8.568596326565526
 20
36.37676303942466
 30
0.0
 10
-8.233005938502927
 20
36.58785074867507
 30
0.0
 10
-7.526121424855109
 20
37.03248394574453
 30
0.0
 10
-6.159267233864259
 20
36.94778861213334
 30
0.0
 10
-4.832720359009998
 20
36.38910334132136
 30
0.0
 10
-3.659809521488831
 20
35.39595572125102
 30
0.0
 10
-2.806171197716323
 20
34.11792456348809
 30
0.0
 10
-2.40162268257162
 20
32.73654976210286
 30
0.0
 10
-2.472576423841365
 20
31.36891339026836
 30
0.0
 10
-2.994550548567916
 20
30.71704882712104
 30
0.0
 10
-3.242355531133384
 20
30.40757892523666
 30
0.0
 11
-8.568596326565526
 21
36.37676303942466
 31
0.0
 11
-7.527312945744348
 21
36.89780261765968
 31
0.0
 11
-6.239128692763661
 21
36.88516125310192
 31
0.0
 11
-4.900146956551596
 21
36.3407241598791
 31
0.0
 11
-3.71421179498412
 21
35.34741313939865
 31
0.0
 11
-2.861889044684319
 21
34.05642324006892
 31
0.0
 11
-2.472907708081159
 21
32.66431068780857
 31
0.0
 11
-2.606523051300114
 21
31.38301235651262
 31
0.0
 11
-3.242355531133384
 21
30.40757892523666
 31
0.0
  0
SPLINE
  5
C9
330
47
100
AcDbEntity
  8
0
  6
Continuous
 62
     7
100
AcDbSpline
210
0.0
220
0.0
230
1.0
 70
     8
 71
     3
 72
    13
 73
     9
 74
     7
 42
0.000000001
 43
0.0000000001
 44
0.00000001
 40
0.0
 40
0.0
 40
0.0
 40
0.0
 40
1.210522239535903
 40
2.557814492955129
 40
4.072619790516907
 40
5.685614552466494
 40
7.280359532022711
 40
8.748650897090673
 40
8.748650897090673
 40
8.748650897090673
 40
8.748650897090673
 10
-3.242355531133384
 20
30.40757892523666
 30
0.0
 10
-3.593381700848933
 20
30.19041572316301
 30
0.0
 10
-4.335094493896634
 20
29.73155329837324
 30
0.0
 10
-5.763995947371228
 20
29.85909801826695
 30
0.0
 10
-7.133614125636234
 20
30.48743424038629
 30
0.0
 10
-8.303971571165537
 20
31.5695013813831
 30
0.0
 10
-9.155777573029056
 20
32.92401372591696
 30
0.0
 10
-9.28988745940587
 20
33.94647860717117
 30
0.0
 10
-9.354174116332523
 20
34.43660545900507
 30
0.0
 11
-3.242355531133384
 21
30.40757892523666
 31
0.0
 11
-4.330309995039501
 21
29.87680666831557
 31
0.0
 11
-5.676808800307757
 21
29.92303873310214
 31
0.0
 11
-7.060843745262947
 21
30.53873538831736
 31
0.0
 11
-8.255239107039031
 21
31.62278881181859
 31
0.0
 11
-9.063916418957081
 21
32.99728965002029
 31
0.0
 11
-9.354174116332523
 21
34.43660545900507
 31
0.0
  0
SPLINE
  5
CA
330
47
100
AcDbEntity
  8
0
  6
Continuous
 62
     7
100
AcDbSpline
210
0.0
220
0.0
230
1.0
 70
     8
 71
     3
 72
     9
 73
     5
 74
     3
 42
0.000000001
 43
0.0000000001
 44
0.00000001
 40
0.0
 40
0.0
 40
0.0
 40
0.0
 40
1.115602282154371
 40
2.142041312497445
 40
2.142041312497445
 40
2.142041312497445
 40
2.142041312497445
 10
-9.354174116332523
 20
34.43660545900507
 30
0.0
 10
-9.325779213998668
 20
34.81829088487937
 30
0.0
 10
-9.27125882142771
 20
35.55115595467786
 30
0.0
 10
-8.796226025695391
 20
36.1093050677329
 30
0.0
 10
-8.568596326565526
 20
36.37676303942466
 30
0.0
 11
-9.354174116332523
 21
34.43660545900507
 31
0.0
 11
-9.154927155041685
 21
35.53427075640113
 31
0.0
 11
-8.568596326565526
 21
36.37676303942466
 31
0.0
  0
SPLINE
  5
CB
330
47
100
AcDbEntity
  8
0
  6
Continuous
 62
     7
100
AcDbSpline
210
0.0
220
0.0
230
1.0
 70
     8
 71
     3
 72
    15
 73
    11
 74
     9
 42
0.000000001
 43
0.0000000001
 44
0.00000001
 40
0.0
 40
0.0
 40
0.0
 40
0.0
 40
0.901997623076604
 40
1.854764382616025
 40
4.583023918590099
 40
7.502925413579922
 40
10.42282690125119
 40
13.15108643616876
 40
14.7438753405435
 40
16.20807812908852
 40
16.20807812908852
 40
16.20807812908852
 40
16.20807812908852
 10
6.836714291524388
 20
35.84435063732641
 30
0.0
 10
6.885243526635535
 20
36.14172659661152
 30
0.0
 10
6.985033461121914
 20
36.75321638895756
 30
0.0
 10
6.930858306529579
 20
38.28794698331383
 30
0.0
 10
6.300562761781954
 20
40.44159113209106
 30
0.0
 10
4.690214722583203
 20
42.84568878977906
 30
0.0
 10
2.481476391643255
 20
44.72116946596194
 30
0.0
 10
0.2201865601645643
 20
45.66994222147571
 30
0.0
 10
-1.731305851150872
 20
45.88858589472904
 30
0.0
 10
-2.725388522220762
 20
45.63362557581107
 30
0.0
 10
-3.201522827162187
 20
45.51150760217593
 30
0.0
 11
6.836714291524388
 21
35.84435063732641
 31
0.0
 11
6.953516302145862
 21
36.73875379304333
 31
0.0
 11
6.931213779065463
 21
37.69125948857015
 31
0.0
 11
6.197011506227005
 21
40.31887193096154
 31
0.0
 11
4.58825231503614
 21
42.7556153659464
 31
0.0
 11
2.349799697577537
 21
44.63048991710325
 31
0.0
 11
-0.1775283295227362
 21
45.65811493056134
 31
0.0
 11
-1.764606971390662
 21
45.79286615746312
 31
0.0
 11
-3.201522827162187
 21
45.51150760217593
 31
0.0
  0
SPLINE
  5
CC
330
47
100
AcDbEntity
  8
0
  6
Continuous
 62
     7
100
AcDbSpline
210
0.0
220
0.0
230
1.0
 70
     8
 71
     3
 72
    15
 73
    11
 74
     9
 42
0.000000001
 43
0.0000000001
 44
0.00000001
 40
0.0
 40
0.0
 40
0.0
 40
0.0
 40
2.44517323021449
 40
5.150490408931155
 40
8.1859049953294
 40
11.43453711547939
 40
14.68316923562938
 40
17.71858382202764
 40
20.4239010007443
 40
22.86907423095879
 40
22.86907423095879
 40
22.86907423095879
 40
22.86907423095879
 10
9.165249334062793
 20
35.58180217179366
 30
0.0
 10
9.685639798455881
 20
36.23168896700669
 30
0.0
 10
10.78178547582286
 20
37.60060454430579
 30
0.0
 10
10.93078832433803
 20
40.4726409342681
 30
0.0
 10
10.08123644290944
 20
43.37352801837543
 30
0.0
 10
8.28859596260588
 20
46.05739345082045
 30
0.0
 10
5.825483202719218
 20
48.14300345347667
 30
0.0
 10
3.039734764292068
 20
49.31624252194497
 30
0.0
 10
0.1693409550851965
 20
49.49410273166086
 30
0.0
 10
-1.315116520051392
 20
48.56037300187094
 30
0.0
 10
-2.019856336344695
 20
48.11708881158847
 30
0.0
 11
9.165249334062793
 21
35.58180217179366
 31
0.0
 11
10.50049754171266
 21
37.63021237747316
 31
0.0
 11
10.78108976247247
 21
40.32093887319466
 31
0.0
 11
9.964228955605837
 21
43.24437523294139
 31
0.0
 11
8.17435117997627
 21
45.95545402153381
 31
0.0
 11
5.683887340684576
 21
48.04140716454276
 31
0.0
 11
2.872025694639234
 21
49.1847250603107
 31
0.0
 11
0.1668387633797819
 21
49.211271925882
 31
0.0
 11
-2.019856336344695
 21
48.11708881158847
 31
0.0
  0
SPLINE
  5
CD
330
47
100
AcDbEntity
  8
0
  6
Continuous
 62
     7
100
AcDbSpline
210
0.0
220
0.0
230
1.0
 70
    11
 71
     3
 72
    23
 73
    19
 74
    17
 42
0.000000001
 43
0.0000000001
 44
0.00000001
 40
0.0
 40
0.0
 40
0.0
 40
0.0
 40
2.155047445991514
 40
4.135881707269502
 40
6.174399710011294
 40
8.455615139597034
 40
10.9962541900203
 40
13.67494266560758
 40
16.3099987691866
 40
18.73798815920794
 40
20.89303561313078
 40
22.8738698727139
 40
24.91238787476428
 40
27.19360330436877
 40
29.73424235515368
 40
32.41293083128176
 40
35.04798693564244
 40
37.47597631673761
 40
37.47597631673761
 40
37.47597631673761
 40
37.47597631673761
 10
-11.83949397406491
 20
35.18928186148076
 30
0.0
 10
-11.76615926813337
 20
35.91779095012608
 30
0.0
 10
-11.62541820960191
 20
37.31591674058146
 30
0.0
 10
-10.20694921039461
 20
38.98622308141917
 30
0.0
 10
-8.135681427722616
 20
39.67936230198031
 30
0.0
 10
-5.807012832247329
 20
39.36985579019539
 30
0.0
 10
-3.550449574215023
 20
38.20460514508032
 30
0.0
 10
-1.641585713372217
 20
36.36157043611992
 30
0.0
 10
-0.3368421995700435
 20
34.09261245667196
 30
0.0
 10
0.1786680190974311
 20
31.69522329145137
 30
0.0
 10
-0.2181010681968107
 20
29.46659940457533
 30
0.0
 10
-1.595305813961924
 20
27.79860645286136
 30
0.0
 10
-3.678108856638172
 20
27.10482053728711
 30
0.0
 10
-6.00226451109452
 20
27.41458005929405
 30
0.0
 10
-8.264345390452497
 20
28.57952137311103
 30
0.0
 10
-10.15522474552857
 20
30.42356434412796
 30
0.0
 10
-11.52388955008545
 20
32.68893872011249
 30
0.0
 10
-11.73720047137612
 20
34.37887225797108
 30
0.0
 10
-11.83949397406491
 20
35.18928186148076
 30
0.0
 11
-11.83949397406491
 21
35.18928186148076
 31
0.0
 11
-11.39973085096755
 21
37.29898277118897
 31
0.0
 11
-10.12354808890128
 21
38.8139289503146
 31
0.0
 11
-8.20517837982663
 21
39.5034311671835
 31
0.0
 11
-5.936712739447668
 21
39.26258375340784
 31
0.0
 11
-3.663491402325933
 21
38.12798623008195
 31
0.0
 11
-1.731579289990915
 21
36.27243037193229
 31
0.0
 11
-0.4351285538321004
 21
33.978364949741
 31
0.0
 11
0.0285421163659905
 21
31.59506010318058
 31
0.0
 11
-0.41122100673137
 21
29.48535919347237
 31
0.0
 11
-1.687403768797634
 21
27.97041301434674
 31
0.0
 11
-3.605773477872281
 21
27.28091079747784
 31
0.0
 11
-5.874239118251246
 21
27.5217582112535
 31
0.0
 11
-8.147460455372983
 21
28.65635573457938
 31
0.0
 11
-10.07937256770801
 21
30.51191159272904
 31
0.0
 11
-11.37582330386682
 21
32.80597701492033
 31
0.0
 11
-11.83949397406491
 21
35.18928186148076
 31
0.0
  0
SPLINE
  5
CE
330
47
100
AcDbEntity
  8
0
  6
Continuous
 62
     7
100
AcDbSpline
210
0.0
220
0.0
230
1.0
 70
     8
 71
     3
 72
    15
 73
    11
 74
     9
 42
0.000000001
 43
0.0000000001
 44
0.00000001
 40
0.0
 40
0.0
 40
0.0
 40
0.0
 40
2.212299588832591
 40
4.659967511875935
 40
7.406294994557231
 40
10.34553357949034
 40
13.28477216442346
 40
16.03109964710476
 40
18.4787675701481
 40
20.69106715898069
 40
20.69106715898069
 40
20.69106715898069
 40
20.69106715898069
 10
-10.66045970134351
 20
39.33499512223406
 30
0.0
 10
-11.13128916904067
 20
38.74700230762624
 30
0.0
 10
-12.12304001865485
 20
37.50845964199111
 30
0.0
 10
-12.25785212039811
 20
34.90995052805204
 30
0.0
 10
-11.48920994193024
 20
32.28533840443961
 30
0.0
 10
-9.867297126450495
 20
29.85707920375501
 30
0.0
 10
-7.638766534266651
 20
27.97009872520529
 30
0.0
 10
-5.11832747103457
 20
26.90859671085633
 30
0.0
 10
-2.52130450150334
 20
26.7476755695231
 30
0.0
 10
-1.178223928455623
 20
27.59247865700021
 30
0.0
 10
-0.5406021900224474
 20
27.99354530527686
 30
0.0
 11
-10.66045970134351
 21
39.33499512223406
 31
0.0
 11
-11.86854141302673
 21
37.48167160280975
 31
0.0
 11
-12.12241056514274
 21
35.04720477334745
 31
0.0
 11
-11.38334602559674
 21
32.40219092405279
 31
0.0
 11
-9.763932800027128
 21
29.94931011532631
 31
0.0
 11
-7.510655993048925
 21
28.06201917641345
 31
0.0
 11
-4.966590694245999
 21
27.02758869929009
 31
0.0
 11
-2.519040613582689
 21
27.00357010663032
 31
0.0
 11
-0.5406021900224474
 21
27.99354530527686
 31
0.0
  0
SPLINE
  5
CF
330
47
100
AcDbEntity
  8
0
  6
Continuous
 62
     2
100
AcDbSpline
210
0.0
220
0.0
230
1.0
 70
     8
 71
     3
 72
    15
 73
    11
 74
     9
 42
0.000000001
 43
0.0000000001
 44
0.00000001
 40
0.0
 40
0.0
 40
0.0
 40
0.0
 40
2.445173230214505
 40
5.150490408931157
 40
8.185904995329405
 40
11.4345371154794
 40
14.68316923562939
 40
17.71858382202765
 40
20.42390100074431
 40
22.86907423095879
 40
22.86907423095879
 40
22.86907423095879
 40
22.86907423095879
 10
13.07957418640729
 20
39.0745134563353
 30
0.0
 10
13.59996465080038
 20
39.72440025154833
 30
0.0
 10
14.69611032816736
 20
41.09331582884745
 30
0.0
 10
14.84511317668254
 20
43.96535221880973
 30
0.0
 10
13.99556129525394
 20
46.86623930291707
 30
0.0
 10
12.20292081495037
 20
49.55010473536208
 30
0.0
 10
9.739808055063707
 20
51.63571473801831
 30
0.0
 10
6.954059616636553
 20
52.80895380648661
 30
0.0
 10
4.083665807429687
 20
52.9868140162025
 30
0.0
 10
2.599208332293098
 20
52.05308428641258
 30
0.0
 10
1.894468515999797
 20
51.60980009613011
 30
0.0
 11
13.07957418640729
 21
39.0745134563353
 31
0.0
 11
14.41482239405716
 21
41.12292366201482
 31
0.0
 11
14.69541461481698
 21
43.8136501577363
 31
0.0
 11
13.87855380795034
 21
46.73708651748303
 31
0.0
 11
12.08867603232076
 21
49.44816530607545
 31
0.0
 11
9.598212193029061
 21
51.5341184490844
 31
0.0
 11
6.786350546983719
 21
52.67743634485234
 31
0.0
 11
4.081163615724271
 21
52.70398321042364
 31
0.0
 11
1.894468515999797
 21
51.60980009613011
 31
0.0
  0
SPLINE
  5
D0
330
47
100
AcDbEntity
  8
0
  6
Continuous
 62
     7
100
AcDbSpline
210
0.0
220
0.0
230
1.0
 70
     8
 71
     3
 72
    23
 73
    19
 74
    17
 42
0.000000001
 43
0.0000000001
 44
0.00000001
 40
0.0
 40
0.0
 40
0.0
 40
0.0
 40
1.176001615675473
 40
2.07525480510167
 40
2.983543990670016
 40
4.177428564656592
 40
6.428278456559498
 40
7.949368130030709
 40
10.45284324752515
 40
12.04608639765691
 40
13.63932954778702
 40
16.1428046652893
 40
18.48343756647461
 40
19.91526199393713
 40
20.84104443577952
 40
22.01739257341543
 40
23.06111865141472
 40
24.09280811216051
 40
24.09280811216051
 40
24.09280811216051
 40
24.09280811216051
 10
1.894468515999797
 20
51.60980009613011
 30
0.0
 10
2.202603012730376
 20
51.85434238553979
 30
0.0
 10
2.746358730815198
 20
52.28587882482427
 30
0.0
 10
3.6513379794867
 20
52.7132724179148
 30
0.0
 10
4.608315669962504
 20
53.01372518295161
 30
0.0
 10
6.053811181450522
 20
53.21183314601114
 30
0.0
 10
7.727057613861914
 20
53.01972082003945
 30
0.0
 10
9.702064469850285
 20
52.30742630197152
 30
0.0
 10
11.30329779748668
 20
51.29029347882944
 30
0.0
 10
12.67411345525494
 20
49.97067189961622
 30
0.0
 10
13.82988008138659
 20
48.45825805000548
 30
0.0
 10
14.77930109629604
 20
46.50695233197986
 30
0.0
 10
15.17383688050226
 20
44.42286540805226
 30
0.0
 10
15.0802882767877
 20
42.84928975685531
 30
0.0
 10
14.81086455071739
 20
41.69860279657438
 30
0.0
 10
14.40430556893444
 20
40.72629232455417
 30
0.0
 10
13.81776489689646
 20
39.80487403165608
 30
0.0
 10
13.32468453375993
 20
39.31702386371882
 30
0.0
 10
13.07957418640729
 20
39.0745134563353
 30
0.0
 11
1.894468515999797
 21
51.60980009613011
 31
0.0
 11
2.846398135141466
 21
52.30031426246212
 31
0.0
 11
3.655539275632478
 21
52.69267496150192
 31
0.0
 11
4.522446707302644
 21
52.96371140229125
 31
0.0
 11
5.704849367233663
 21
53.12889108824596
 31
0.0
 11
7.943092145038989
 21
52.89099508337724
 31
0.0
 11
9.375816269405789
 21
52.38009844105665
 31
0.0
 11
11.49525779635161
 21
51.04767385500631
 31
0.0
 11
12.64400557858083
 21
49.94368007452913
 31
0.0
 11
13.61051597894938
 21
48.67707777684991
 31
0.0
 11
14.69383352127299
 21
46.42013055412827
 31
0.0
 11
15.1107568986689
 21
44.11692902615616
 31
0.0
 11
15.02123145090958
 21
42.68790614755814
 31
0.0
 11
14.80835928115274
 21
41.78692969370377
 31
0.0
 11
14.35529000861943
 21
40.70133161932858
 31
0.0
 11
13.78556729497536
 21
39.82681451717264
 31
0.0
 11
13.07957418640729
 21
39.0745134563353
 31
0.0
  0
SPLINE
  5
D1
330
47
100
AcDbEntity
  8
0
  6
Continuous
 62
     7
100
AcDbSpline
210
0.0
220
0.0
230
1.0
 70
     8
 71
     3
 72
    17
 73
    13
 74
    11
 42
0.000000001
 43
0.0000000001
 44
0.00000001
 40
0.0
 40
0.0
 40
0.0
 40
0.0
 40
2.370689390346572
 40
4.72881899021057
 40
7.439406546829927
 40
10.49270015130499
 40
13.77104946442899
 40
17.04939877755299
 40
20.10269238202805
 40
22.8132799386474
 40
25.17140953851139
 40
27.54209892885796
 40
27.54209892885796
 40
27.54209892885796
 40
27.54209892885796
 10
-9.722607594285478
 20
40.17183078639484
 30
0.0
 10
-9.37495361651688
 20
40.90290023545565
 30
0.0
 10
-8.681487505984911
 20
42.36116595963754
 30
0.0
 10
-6.320297718146214
 20
43.55178010630081
 30
0.0
 10
-3.542646881102972
 20
43.51964746639361
 30
0.0
 10
-0.6993814269421104
 20
42.34644641752611
 30
0.0
 10
1.78637271310134
 20
40.25552738838795
 30
0.0
 10
3.581718727279283
 20
37.54856438152387
 30
0.0
 10
4.42470616502865
 20
34.5905360984128
 30
0.0
 10
4.141440891238878
 20
31.82717990281672
 30
0.0
 10
2.690583938321971
 20
29.61634445832949
 30
0.0
 10
1.163046976832374
 20
29.09283228076031
 30
0.0
 10
0.3972499170355874
 20
28.83038096943764
 30
0.0
 11
-9.722607594285478
 21
40.17183078639484
 31
0.0
 11
-8.476719095056252
 21
42.18874180873466
 31
0.0
 11
-6.40517497473148
 21
43.31545392219667
 31
0.0
 11
-3.694964349191292
 21
43.3606565641776
 31
0.0
 11
-0.8522772815191639
 21
42.24632623828321
 31
0.0
 11
1.668609929976458
 21
40.15044888391152
 31
0.0
 11
3.464895563299844
 21
37.40801709056345
 31
0.0
 11
4.249458155843572
 21
34.45724373798294
 31
0.0
 11
3.897009800455205
 21
31.76966767944673
 31
0.0
 11
2.54250930830986
 21
29.83935587928278
 31
0.0
 11
0.3972499170355874
 21
28.83038096943764
 31
0.0
  0
ENDBLK
  5
49
330
47
100
AcDbEntity
  8
0
100
AcDbBlockEnd
  0
BLOCK
  5
4C
330
4A
100
AcDbEntity
  8
0
100
AcDbBlockBegin
  2
Allg1
 70
     0
 10
1.49999999988466
 20
39.99999999992099
 30
0.0
  3
Allg1
  1

  0
INSERT
  5
4B
330
4A
100
AcDbEntity
  8
0
100
AcDbBlockReference
  2
G_INSEC_PG9_S68N_NNES_S-select__1
 10
-12.29053525769069
 20
26.66082629996568
 30
0.0
  0
MTEXT
  5
D3
330
4A
100
AcDbEntity
  8
1
 62
     6
100
AcDbMText
 10
1.49999999988506
 20
21.17476313927045
 30
0.0
 40
2.5
 41
0.0
 71
     2
 72
     1
  1
 
  7
CONVERTER_11
 73
     1
 44
1.32052821128451
  0
ENDBLK
  5
4D
330
4A
100
AcDbEntity
  8
0
100
AcDbBlockEnd
  0
BLOCK
  5
4F
330
4E
100
AcDbEntity
  8
0
100
AcDbBlockBegin
  2
G_INSEC_PG9_S68N_NNES_S-select__2
 70
     0
 10
-79.25476074284039
 20
35.10000019079487
 30
0.0
  3
G_INSEC_PG9_S68N_NNES_S-select__2
  1

  0
LINE
  5
D4
330
4E
100
AcDbEntity
  8
0
  6
Continuous
 62
     7
100
AcDbLine
 10
-52.81825282471033
 20
52.95000019079487
 30
0.0
 11
-56.99145790454541
 21
52.95000019079487
 31
0.0
  0
LINE
  5
D5
330
4E
100
AcDbEntity
  8
0
  6
Continuous
 62
     7
100
AcDbLine
 10
-60.26370109114959
 20
48.67946746869794
 30
0.0
 11
-60.26370109114957
 21
49.84648248401098
 31
0.0
  0
LINE
  5
D6
330
4E
100
AcDbEntity
  8
0
  6
Continuous
 62
     7
100
AcDbLine
 10
-60.26370109113929
 20
39.25351789762265
 30
0.0
 11
-60.26370109114752
 21
40.42053291287415
 31
0.0
  0
LINE
  5
D7
330
4E
100
AcDbEntity
  8
0
  6
Continuous
 62
     7
100
AcDbLine
 10
-57.27280455827207
 20
40.42053291288322
 30
0.0
 11
-60.26370109114752
 21
40.42053291287415
 31
0.0
  0
LINE
  5
D8
330
4E
100
AcDbEntity
  8
0
  6
Continuous
 62
     7
100
AcDbLine
 10
-57.27280455827105
 20
49.84648248401113
 30
0.0
 11
-57.27280455827105
 21
48.67946746869779
 31
0.0
  0
LINE
  5
D9
330
4E
100
AcDbEntity
  8
0
  6
Continuous
 62
     7
100
AcDbLine
 10
-57.27280455827207
 20
40.42053291288322
 30
0.0
 11
-57.27280455828137
 21
39.25351789762265
 31
0.0
  0
LINE
  5
DA
330
4E
100
AcDbEntity
  8
0
  6
Continuous
 62
     7
100
AcDbLine
 10
-60.26370109113927
 20
53.9759497619582
 30
0.0
 11
-57.27280455828139
 21
53.9759497619582
 31
0.0
  0
LINE
  5
DB
330
4E
100
AcDbEntity
  8
0
  6
Continuous
 62
     7
100
AcDbLine
 10
-60.54504774487524
 20
36.15000019079487
 30
0.0
 11
-60.54504774487524
 21
52.95000019079487
 31
0.0
  0
LINE
  5
DC
330
4E
100
AcDbEntity
  8
0
  6
Continuous
 62
     7
100
AcDbLine
 10
-56.99145790454541
 20
36.15000019079487
 30
0.0
 11
-56.99145790454541
 21
52.95000019079487
 31
0.0
  0
LINE
  5
DD
330
4E
100
AcDbEntity
  8
0
  6
Continuous
 62
     7
100
AcDbLine
 10
-56.99145790454541
 20
52.95000019079487
 30
0.0
 11
-57.27280455823038
 21
54.0000001906045
 31
0.0
  0
LINE
  5
DE
330
4E
100
AcDbEntity
  8
0
  6
Continuous
 62
     2
100
AcDbLine
 10
-52.81825282471033
 20
36.15000019079487
 30
0.0
 11
-52.81825282471033
 21
52.95000019079487
 31
0.0
  0
LINE
  5
DF
330
4E
100
AcDbEntity
  8
0
  6
Continuous
 62
     7
100
AcDbLine
 10
-50.01825282471033
 20
38.95000019079487
 30
0.0
 11
-50.01825282471033
 21
50.15000019079487
 31
0.0
  0
LINE
  5
E0
330
4E
100
AcDbEntity
  8
0
  6
Continuous
 62
     7
100
AcDbLine
 10
-73.25476074250764
 20
53.97594976195819
 30
0.0
 11
-73.25476074250764
 21
54.00000019079486
 31
0.0
  0
LINE
  5
E1
330
4E
100
AcDbEntity
  8
0
  6
Continuous
 62
     7
100
AcDbLine
 10
-73.25476074250764
 20
40.42053291280369
 30
0.0
 11
-70.00931247531722
 21
40.42053291280369
 31
0.0
  0
LINE
  5
E2
330
4E
100
AcDbEntity
  8
0
  6
Continuous
 62
     7
100
AcDbLine
 10
-73.25476074250764
 20
48.67946746878604
 30
0.0
 11
-73.25476074250764
 21
49.84648248396702
 31
0.0
  0
LINE
  5
E3
330
4E
100
AcDbEntity
  8
0
  6
Continuous
 62
     7
100
AcDbLine
 10
-73.25476074250764
 20
40.42053291280369
 30
0.0
 11
-73.25476074250764
 21
48.67946746878604
 31
0.0
  0
LINE
  5
E4
330
4E
100
AcDbEntity
  8
0
  6
Continuous
 62
     7
100
AcDbLine
 10
-73.25476074250764
 20
54.00000019079486
 30
0.0
 11
-70.00931247602769
 21
54.0000001906045
 31
0.0
  0
LINE
  5
E5
330
4E
100
AcDbEntity
  8
0
  6
Continuous
 62
     7
100
AcDbLine
 10
-79.25476074284039
 20
51.43261817922132
 30
0.0
 11
-79.25476074284039
 21
37.66738220236842
 31
0.0
  0
LINE
  5
E6
330
4E
100
AcDbEntity
  8
0
  6
Continuous
 62
     7
100
AcDbLine
 10
-73.72886389431866
 20
36.95000019079487
 30
0.0
 11
-73.72886389431866
 21
52.15000019079487
 31
0.0
  0
LINE
  5
E7
330
4E
100
AcDbEntity
  8
0
  6
Continuous
 62
     7
100
AcDbLine
 10
-73.25476074250764
 20
39.25351789762271
 30
0.0
 11
-73.25476074250764
 21
40.42053291280369
 31
0.0
  0
LINE
  5
E8
330
4E
100
AcDbEntity
  8
0
  6
Continuous
 62
     7
100
AcDbLine
 10
-73.25476074250764
 20
36.27248457865626
 30
0.0
 11
-73.25476074250764
 21
39.25351789762271
 31
0.0
  0
LINE
  5
E9
330
4E
100
AcDbEntity
  8
0
  6
Continuous
 62
     7
100
AcDbLine
 10
-78.65280576029679
 20
36.95000019079487
 30
0.0
 11
-78.65280576029679
 21
52.15000019079487
 31
0.0
  0
LINE
  5
EA
330
4E
100
AcDbEntity
  8
0
  6
Continuous
 62
     7
100
AcDbLine
 10
-78.65280576029679
 20
52.15000019079487
 30
0.0
 11
-73.72886389431866
 21
52.15000019079487
 31
0.0
  0
LINE
  5
EB
330
4E
100
AcDbEntity
  8
0
  6
Continuous
 62
     7
100
AcDbLine
 10
-60.26370109114959
 20
48.67946746869794
 30
0.0
 11
-57.27280455827105
 21
48.67946746869779
 31
0.0
  0
LINE
  5
EC
330
4E
100
AcDbEntity
  8
0
  6
Continuous
 62
     7
100
AcDbLine
 10
-73.25476074250764
 20
48.67946746878604
 30
0.0
 11
-70.00931247531722
 21
48.67946746878604
 31
0.0
  0
LINE
  5
ED
330
4E
100
AcDbEntity
  8
0
  6
Continuous
 62
     7
100
AcDbLine
 10
-57.27280455827105
 20
49.84648248401113
 30
0.0
 11
-60.26370109114957
 21
49.84648248401098
 31
0.0
  0
LINE
  5
EE
330
4E
100
AcDbEntity
  8
0
  6
Continuous
 62
     7
100
AcDbLine
 10
-79.25476074284039
 20
51.43261817922132
 30
0.0
 11
-78.65280576029679
 21
52.15000019079487
 31
0.0
  0
LINE
  5
EF
330
4E
100
AcDbEntity
  8
0
  6
Continuous
 62
     7
100
AcDbLine
 10
-57.27280455823038
 20
54.0000001906045
 30
0.0
 11
-57.27280455828139
 21
53.9759497619582
 31
0.0
  0
LINE
  5
F0
330
4E
100
AcDbEntity
  8
0
  6
Continuous
 62
     7
100
AcDbLine
 10
-69.75476074179716
 20
53.05000019098524
 30
0.0
 11
-70.00931247602769
 21
54.0000001906045
 31
0.0
  0
LINE
  5
F1
330
4E
100
AcDbEntity
  8
0
  6
Continuous
 62
     7
100
AcDbLine
 10
-60.26370109113927
 20
53.9759497619582
 30
0.0
 11
-60.26370109119028
 21
54.0000001906045
 31
0.0
  0
LINE
  5
F2
330
4E
100
AcDbEntity
  8
0
  6
Continuous
 62
     7
100
AcDbLine
 10
-64.01825282471033
 20
52.10000019079487
 30
0.0
 11
-64.01825282471033
 21
52.95000019079487
 31
0.0
  0
LINE
  5
F3
330
4E
100
AcDbEntity
  8
0
  6
Continuous
 62
     7
100
AcDbLine
 10
-60.54504774487524
 20
52.95000019079487
 30
0.0
 11
-64.01825282471033
 21
52.95000019079487
 31
0.0
  0
LINE
  5
F4
330
4E
100
AcDbEntity
  8
0
  6
Continuous
 62
     7
100
AcDbLine
 10
-69.75476074250764
 20
51.43000019079487
 30
0.0
 11
-67.26695749597802
 21
51.43000019079487
 31
0.0
  0
LINE
  5
F5
330
4E
100
AcDbEntity
  8
0
  6
Continuous
 62
     7
100
AcDbLine
 10
-67.26695749597802
 20
51.43000019079487
 30
0.0
 11
-66.70476074195074
 21
52.10000019079487
 31
0.0
  0
LINE
  5
F6
330
4E
100
AcDbEntity
  8
0
  6
Continuous
 62
     7
100
AcDbLine
 10
-66.70476074195074
 20
52.10000019079487
 30
0.0
 11
-64.01825282471033
 21
52.10000019079487
 31
0.0
  0
LINE
  5
F7
330
4E
100
AcDbEntity
  8
0
  6
Continuous
 62
     7
100
AcDbLine
 10
-73.25476074250764
 20
52.82751580293348
 30
0.0
 11
-73.25476074250764
 21
53.97594976195819
 31
0.0
  0
LINE
  5
F8
330
4E
100
AcDbEntity
  8
0
  6
Continuous
 62
     7
100
AcDbLine
 10
-73.25476074250764
 20
49.84648248396702
 30
0.0
 11
-73.25476074250764
 21
52.82751580293348
 31
0.0
  0
LINE
  5
F9
330
4E
100
AcDbEntity
  8
0
  6
Continuous
 62
     7
100
AcDbLine
 10
-73.25476074250764
 20
53.97594976195819
 30
0.0
 11
-70.0093124753172
 21
53.97594976195819
 31
0.0
  0
LINE
  5
FA
330
4E
100
AcDbEntity
  8
0
  6
Continuous
 62
     7
100
AcDbLine
 10
-73.25476074250764
 20
49.84648248396702
 30
0.0
 11
-70.00931247531722
 21
49.84648248396702
 31
0.0
  0
LINE
  5
FB
330
4E
100
AcDbEntity
  8
0
  6
Continuous
 62
     7
100
AcDbLine
 10
-60.54504774487524
 20
52.95000019079487
 30
0.0
 11
-60.26370109119028
 21
54.0000001906045
 31
0.0
  0
LINE
  5
FC
330
4E
100
AcDbEntity
  8
0
  6
Continuous
 62
     7
100
AcDbLine
 10
-57.27280455823038
 20
54.0000001906045
 30
0.0
 11
-60.26370109119028
 21
54.0000001906045
 31
0.0
  0
LINE
  5
FD
330
4E
100
AcDbEntity
  8
0
  6
Continuous
 62
     7
100
AcDbLine
 10
-66.70476074250764
 20
37.00000019079487
 30
0.0
 11
-66.70476074195074
 21
52.10000019079487
 31
0.0
  0
LINE
  5
FE
330
4E
100
AcDbEntity
  8
0
  6
Continuous
 62
     7
100
AcDbLine
 10
-67.26695749597802
 20
51.43000019079487
 30
0.0
 11
-67.26695749597802
 21
37.67000019079487
 31
0.0
  0
LINE
  5
FF
330
4E
100
AcDbEntity
  8
0
  6
Continuous
 62
     7
100
AcDbLine
 10
-67.26695749597802
 20
37.67000019079487
 30
0.0
 11
-66.70476074250764
 21
37.00000019079487
 31
0.0
  0
LINE
  5
100
330
4E
100
AcDbEntity
  8
0
  6
Continuous
 62
     7
100
AcDbLine
 10
-64.01825282471033
 20
37.00000019079487
 30
0.0
 11
-64.01825282471033
 21
52.10000019079487
 31
0.0
  0
LINE
  5
101
330
4E
100
AcDbEntity
  8
0
  6
Continuous
 62
     7
100
AcDbLine
 10
-52.81825282471033
 20
36.15000019079487
 30
0.0
 11
-56.99145790454541
 21
36.15000019079487
 31
0.0
  0
LINE
  5
102
330
4E
100
AcDbEntity
  8
0
  6
Continuous
 62
     7
100
AcDbLine
 10
-60.54504774487524
 20
36.15000019079487
 30
0.0
 11
-64.01825282471033
 21
36.15000019079487
 31
0.0
  0
LINE
  5
103
330
4E
100
AcDbEntity
  8
0
  6
Continuous
 62
     7
100
AcDbLine
 10
-73.25476074250764
 20
35.12405061963155
 30
0.0
 11
-73.25476074250764
 21
36.27248457865626
 31
0.0
  0
LINE
  5
104
330
4E
100
AcDbEntity
  8
0
  6
Continuous
 62
     7
100
AcDbLine
 10
-64.01825282471033
 20
36.15000019079487
 30
0.0
 11
-64.01825282471033
 21
37.00000019079487
 31
0.0
  0
LINE
  5
105
330
4E
100
AcDbEntity
  8
0
  6
Continuous
 62
     7
100
AcDbLine
 10
-66.70476074250764
 20
37.00000019079487
 30
0.0
 11
-64.01825282471033
 21
37.00000019079487
 31
0.0
  0
LINE
  5
106
330
4E
100
AcDbEntity
  8
0
  6
Continuous
 62
     7
100
AcDbLine
 10
-57.27280455823038
 20
35.10000019098524
 30
0.0
 11
-60.26370109119028
 21
35.10000019098524
 31
0.0
  0
LINE
  5
107
330
4E
100
AcDbEntity
  8
0
  6
Continuous
 62
     7
100
AcDbLine
 10
-57.27280455828139
 20
35.12405061963154
 30
0.0
 11
-57.27280455823038
 21
35.10000019098524
 31
0.0
  0
LINE
  5
108
330
4E
100
AcDbEntity
  8
0
  6
Continuous
 62
     7
100
AcDbLine
 10
-73.25476074250764
 20
35.10000019079487
 30
0.0
 11
-73.25476074250764
 21
35.12405061963155
 31
0.0
  0
LINE
  5
109
330
4E
100
AcDbEntity
  8
0
  6
Continuous
 62
     7
100
AcDbLine
 10
-57.27280455828139
 20
35.12405061963154
 30
0.0
 11
-60.26370109113927
 21
35.12405061963155
 31
0.0
  0
LINE
  5
10A
330
4E
100
AcDbEntity
  8
0
  6
Continuous
 62
     7
100
AcDbLine
 10
-73.25476074250764
 20
35.12405061963155
 30
0.0
 11
-70.0093124753172
 21
35.12405061963155
 31
0.0
  0
LINE
  5
10B
330
4E
100
AcDbEntity
  8
0
  6
Continuous
 62
     7
100
AcDbLine
 10
-60.26370109119028
 20
35.10000019098524
 30
0.0
 11
-60.26370109113927
 21
35.12405061963155
 31
0.0
  0
LINE
  5
10C
330
4E
100
AcDbEntity
  8
0
  6
Continuous
 62
     7
100
AcDbLine
 10
-73.25476074250764
 20
35.10000019079487
 30
0.0
 11
-70.0093124753172
 21
35.10000019079487
 31
0.0
  0
LINE
  5
10D
330
4E
100
AcDbEntity
  8
0
  6
Continuous
 62
     7
100
AcDbLine
 10
-60.54504774487524
 20
36.15000019079487
 30
0.0
 11
-60.26370109119028
 21
35.10000019098524
 31
0.0
  0
LINE
  5
10E
330
4E
100
AcDbEntity
  8
0
  6
Continuous
 62
     7
100
AcDbLine
 10
-56.99145790454541
 20
36.15000019079487
 30
0.0
 11
-57.27280455823038
 21
35.10000019098524
 31
0.0
  0
LINE
  5
10F
330
4E
100
AcDbEntity
  8
0
  6
Continuous
 62
     7
100
AcDbLine
 10
-78.65280576029679
 20
36.95000019079487
 30
0.0
 11
-73.72886389431866
 21
36.95000019079487
 31
0.0
  0
LINE
  5
110
330
4E
100
AcDbEntity
  8
0
  6
Continuous
 62
     7
100
AcDbLine
 10
-73.25476074250764
 20
39.25351789762271
 30
0.0
 11
-70.00931247531722
 21
39.25351789762271
 31
0.0
  0
LINE
  5
111
330
4E
100
AcDbEntity
  8
0
  6
Continuous
 62
     7
100
AcDbLine
 10
-60.26370109113929
 20
39.25351789762265
 30
0.0
 11
-57.27280455828137
 21
39.25351789762265
 31
0.0
  0
LINE
  5
112
330
4E
100
AcDbEntity
  8
0
  6
Continuous
 62
     7
100
AcDbLine
 10
-69.75476074250764
 20
37.67000019079487
 30
0.0
 11
-67.26695749597802
 21
37.67000019079487
 31
0.0
  0
LINE
  5
113
330
4E
100
AcDbEntity
  8
0
  6
Continuous
 62
     7
100
AcDbLine
 10
-79.25476074284039
 20
37.66738220236842
 30
0.0
 11
-78.65280576029679
 21
36.95000019079487
 31
0.0
  0
LINE
  5
114
330
4E
100
AcDbEntity
  8
0
  6
Continuous
 62
     7
100
AcDbLine
 10
-69.75476074250764
 20
37.67000019079487
 30
0.0
 11
-69.75476074250764
 21
44.55000019079487
 31
0.0
  0
LINE
  5
115
330
4E
100
AcDbEntity
  8
0
  6
Continuous
 62
     7
100
AcDbLine
 10
-69.75476074179716
 20
36.05000019060449
 30
0.0
 11
-70.0093124753172
 21
35.10000019079487
 31
0.0
  0
LINE
  5
116
330
4E
100
AcDbEntity
  8
0
  6
Continuous
 62
     7
100
AcDbLine
 10
-69.75476074179716
 20
36.05000019060449
 30
0.0
 11
-69.75476074250764
 21
37.18878425616596
 31
0.0
  0
LINE
  5
117
330
4E
100
AcDbEntity
  8
0
  6
Continuous
 62
     7
100
AcDbLine
 10
-70.00931247531722
 20
40.42053291280369
 30
0.0
 11
-70.00931247531722
 21
39.25351789762271
 31
0.0
  0
LINE
  5
118
330
4E
100
AcDbEntity
  8
0
  6
Continuous
 62
     7
100
AcDbLine
 10
-69.75476074250764
 20
51.91121612542377
 30
0.0
 11
-69.75476074179716
 21
53.05000019098524
 31
0.0
  0
LINE
  5
119
330
4E
100
AcDbEntity
  8
0
  6
Continuous
 62
     7
100
AcDbLine
 10
-70.00931247602769
 20
54.0000001906045
 30
0.0
 11
-70.0093124753172
 21
53.97594976195819
 31
0.0
  0
LINE
  5
11A
330
4E
100
AcDbEntity
  8
0
  6
Continuous
 62
     7
100
AcDbLine
 10
-69.75476074250764
 20
51.43000019079487
 30
0.0
 11
-69.75476074250764
 21
51.91121612542377
 31
0.0
  0
LINE
  5
11B
330
4E
100
AcDbEntity
  8
0
  6
Continuous
 62
     7
100
AcDbLine
 10
-70.00931247531722
 20
49.84648248396702
 30
0.0
 11
-70.00931247531722
 21
48.67946746878604
 31
0.0
  0
LINE
  5
11C
330
4E
100
AcDbEntity
  8
0
  6
Continuous
 62
     7
100
AcDbLine
 10
-70.0093124753172
 20
35.12405061963155
 30
0.0
 11
-70.0093124753172
 21
35.10000019079487
 31
0.0
  0
LINE
  5
11D
330
4E
100
AcDbEntity
  8
0
  6
Continuous
 62
     7
100
AcDbLine
 10
-69.75476074250764
 20
37.18878425616596
 30
0.0
 11
-69.75476074250764
 21
37.67000019079487
 31
0.0
  0
LINE
  5
11E
330
4E
100
AcDbEntity
  8
0
  6
Continuous
 62
     7
100
AcDbLine
 10
-69.75476074250764
 20
44.55000019079487
 30
0.0
 11
-69.75476074250764
 21
51.43000019079487
 31
0.0
  0
LINE
  5
11F
330
4E
100
AcDbEntity
  8
1
  6
DOT_CENTER
 62
     2
100
AcDbLine
 10
-52.81825282471039
 20
44.55000019079489
 30
0.0
 11
-57.27280455823038
 21
44.55000019079487
 31
0.0
  0
LINE
  5
120
330
4E
100
AcDbEntity
  8
1
  6
DOT_CENTER
 62
     2
100
AcDbLine
 10
-69.75476074250764
 20
44.55000019079487
 30
0.0
 11
-60.26370109119029
 21
44.55000019079488
 31
0.0
  0
LINE
  5
121
330
4E
100
AcDbEntity
  8
1
  6
DOT_CENTER
 62
     2
100
AcDbLine
 10
-79.25476074284039
 20
44.55000019079487
 30
0.0
 11
-73.72886389431866
 21
44.55000019079487
 31
0.0
  0
ARC
  5
122
330
4E
100
AcDbEntity
  8
0
  6
Continuous
 62
     7
100
AcDbCircle
 10
-72.9791306084096
 20
36.97000019079487
 30
0.0
 40
0.7499999999999968
100
AcDbArc
 50
181.528068594611
 51
248.4380600782417
  0
ARC
  5
123
330
4E
100
AcDbEntity
  8
0
  6
Continuous
 62
     7
100
AcDbCircle
 10
-72.9791306084096
 20
52.13000019079487
 30
0.0
 40
0.7500000000000071
100
AcDbArc
 50
111.5619399217581
 51
178.471931405389
  0
ARC
  5
124
330
4E
100
AcDbEntity
  8
0
  6
Continuous
 62
     7
100
AcDbCircle
 10
-52.81825282471032
 20
38.95000019079487
 30
0.0
 40
2.799999999999997
100
AcDbArc
 50
269.9999999999998
 51
0.0
  0
ARC
  5
125
330
4E
100
AcDbEntity
  8
0
  6
Continuous
 62
     7
100
AcDbCircle
 10
-52.81825282471032
 20
50.15000019079487
 30
0.0
 40
2.79999999999999
100
AcDbArc
 50
0.0
 51
90.00000000000016
  0
SPLINE
  5
126
330
4E
100
AcDbEntity
  8
0
  6
Continuous
 62
     7
100
AcDbSpline
210
0.0
220
0.0
230
1.0
 70
     8
 71
     3
 72
    11
 73
     7
 74
     5
 42
0.000000001
 43
0.0000000001
 44
0.00000001
 40
0.0
 40
0.0
 40
0.0
 40
0.0
 40
1.07738518376182
 40
2.083974973631442
 40
3.090494033473952
 40
4.167801667745022
 40
4.167801667745022
 40
4.167801667745022
 40
4.167801667745022
 10
-57.27280455828139
 20
35.12405061963154
 30
0.0
 10
-57.19995257616426
 20
35.47614056260782
 30
0.0
 10
-57.05903575803477
 20
36.15718448576776
 30
0.0
 10
-56.99855085527945
 20
37.18883517938382
 30
0.0
 10
-57.05904914520814
 20
38.22045841350359
 30
0.0
 10
-57.19995717820721
 20
38.90145349585687
 30
0.0
 10
-57.27280455828137
 20
39.25351789762265
 30
0.0
 11
-57.27280455828139
 21
35.12405061963154
 31
0.0
 11
-57.08101098719428
 21
36.18422704917649
 31
0.0
 11
-57.01825282429665
 21
37.18885853398783
 31
0.0
 11
-57.08102049049762
 21
38.19341855714244
 31
0.0
 11
-57.27280455828137
 21
39.25351789762265
 31
0.0
  0
SPLINE
  5
127
330
4E
100
AcDbEntity
  8
0
  6
Continuous
 62
     7
100
AcDbSpline
210
0.0
220
0.0
230
1.0
 70
     8
 71
     3
 72
    11
 73
     7
 74
     5
 42
0.000000001
 43
0.0000000001
 44
0.00000001
 40
0.0
 40
0.0
 40
0.0
 40
0.0
 40
1.077307634257996
 40
2.083826694090546
 40
3.090416483950191
 40
4.167801667699845
 40
4.167801667699845
 40
4.167801667699845
 40
4.167801667699845
 10
-57.27280455827105
 20
49.84648248401113
 30
0.0
 10
-57.19995717819916
 20
50.19854688577294
 30
0.0
 10
-57.05904914520434
 20
50.87954196811922
 30
0.0
 10
-56.99855085527987
 20
51.91116520222816
 30
0.0
 10
-57.0590357580368
 20
52.94281589583326
 30
0.0
 10
-57.19995257616497
 20
53.62385981898593
 30
0.0
 10
-57.27280455828139
 20
53.9759497619582
 30
0.0
 11
-57.27280455827105
 21
49.84648248401113
 31
0.0
 11
-57.08102049049369
 21
50.90658182447922
 31
0.0
 11
-57.01825282429665
 21
51.91114184762409
 31
0.0
 11
-57.08101098719577
 21
52.91577333242534
 31
0.0
 11
-57.27280455828139
 21
53.9759497619582
 31
0.0
  0
SPLINE
  5
128
330
4E
100
AcDbEntity
  8
0
  6
Continuous
 62
     7
100
AcDbSpline
210
0.0
220
0.0
230
1.0
 70
     8
 71
     3
 72
    11
 73
     7
 74
     5
 42
0.000000001
 43
0.0000000001
 44
0.00000001
 40
0.0
 40
0.0
 40
0.0
 40
0.0
 40
1.077307191204342
 40
2.08382583269528
 40
3.0904160392934
 40
4.167801667745157
 40
4.167801667745157
 40
4.167801667745157
 40
4.167801667745157
 10
-60.26370109113929
 20
39.25351789762265
 30
0.0
 10
-60.33654844492543
 20
38.90145364178138
 30
0.0
 10
-60.47745642677834
 20
38.22045884312594
 30
0.0
 10
-60.53795479410343
 20
37.18883576659681
 30
0.0
 10
-60.4774699688933
 20
36.15718491593385
 30
0.0
 10
-60.33655309964175
 20
35.4761407090673
 30
0.0
 10
-60.26370109113927
 20
35.12405061963155
 30
0.0
 11
-60.26370109113929
 21
39.25351789762265
 31
0.0
 11
-60.45548510462606
 21
38.1934189975784
 31
0.0
 11
-60.51825282511587
 21
37.18885939698333
 31
0.0
 11
-60.45549471671853
 21
36.18422749122661
 31
0.0
 11
-60.26370109113927
 21
35.12405061963155
 31
0.0
  0
SPLINE
  5
129
330
4E
100
AcDbEntity
  8
0
  6
Continuous
 62
     7
100
AcDbSpline
210
0.0
220
0.0
230
1.0
 70
     8
 71
     3
 72
    11
 73
     7
 74
     5
 42
0.000000001
 43
0.0000000001
 44
0.00000001
 40
0.0
 40
0.0
 40
0.0
 40
0.0
 40
2.128985492901051
 40
4.139252234854579
 40
6.149376416791501
 40
8.278207505437924
 40
8.278207505437924
 40
8.278207505437924
 40
8.278207505437924
 10
-57.27280455827207
 20
40.42053291288322
 30
0.0
 10
-57.19988882858032
 20
41.12665612692587
 30
0.0
 10
-57.05812338823597
 20
42.49952696340776
 30
0.0
 10
-56.99888606151137
 20
44.55010133112522
 30
0.0
 10
-57.05813679381814
 20
46.60062342960012
 30
0.0
 10
-57.19989341936203
 20
47.97339556985687
 30
0.0
 10
-57.27280455827105
 20
48.67946746869779
 30
0.0
 11
-57.27280455827207
 21
40.42053291288322
 31
0.0
 11
-57.08101245936155
 21
42.54086190179321
 31
0.0
 11
-57.01825282429665
 21
44.55014874151615
 31
0.0
 11
-57.08102196257089
 21
46.55929265481864
 31
0.0
 11
-57.27280455827105
 21
48.67946746869779
 31
0.0
  0
SPLINE
  5
12A
330
4E
100
AcDbEntity
  8
0
  6
Continuous
 62
     7
100
AcDbSpline
210
0.0
220
0.0
230
1.0
 70
     8
 71
     3
 72
    11
 73
     7
 74
     5
 42
0.000000001
 43
0.0000000001
 44
0.00000001
 40
0.0
 40
0.0
 40
0.0
 40
0.0
 40
2.128830206389704
 40
4.138953545394474
 40
6.149221127306619
 40
8.278207505447238
 40
8.278207505447238
 40
8.278207505447238
 40
8.278207505447238
 10
-60.26370109114959
 20
48.67946746869794
 30
0.0
 10
-60.33661220383326
 20
47.97339586306857
 30
0.0
 10
-60.47836877805074
 20
46.60062429615901
 30
0.0
 10
-60.53761958787492
 20
44.55010249742066
 30
0.0
 10
-60.47838233880174
 20
42.49952783095613
 30
0.0
 10
-60.3366168471545
 20
41.12665642111981
 30
0.0
 10
-60.26370109114752
 20
40.42053291287415
 30
0.0
 11
-60.26370109114959
 21
48.67946746869794
 31
0.0
 11
-60.45548363254751
 21
46.55929353576564
 31
0.0
 11
-60.51825282511587
 21
44.55015046750282
 31
0.0
 11
-60.45549324454056
 21
42.54086278570965
 31
0.0
 11
-60.26370109114752
 21
40.42053291287415
 31
0.0
  0
SPLINE
  5
12B
330
4E
100
AcDbEntity
  8
0
  6
Continuous
 62
     7
100
AcDbSpline
210
0.0
220
0.0
230
1.0
 70
     8
 71
     3
 72
    15
 73
    11
 74
     9
 42
0.000000001
 43
0.0000000001
 44
0.00000001
 40
0.0
 40
0.0
 40
0.0
 40
0.0
 40
0.2647556557151267
 40
0.5251443139021048
 40
0.7829433947555107
 40
1.03974980191822
 40
1.297029858963135
 40
1.556144629886963
 40
1.818383059109646
 40
2.084983401336027
 40
2.084983401336027
 40
2.084983401336027
 40
2.084983401336027
 10
-69.75476074250764
 20
51.91121612542377
 30
0.0
 10
-69.75560825203996
 20
51.82296005098874
 30
0.0
 10
-69.75728930646179
 20
51.64790363730276
 30
0.0
 10
-69.77073979715527
 20
51.38719912386093
 30
0.0
 10
-69.79160004062577
 20
51.12967980007168
 30
0.0
 10
-69.82037414167839
 20
50.87395729577477
 30
0.0
 10
-69.85652612969585
 20
50.61873623322707
 30
0.0
 10
-69.90012997059314
 20
50.36285448646463
 30
0.0
 10
-69.95053092402529
 20
50.10504388543276
 30
0.0
 10
-69.98961117422182
 20
49.93314223716613
 30
0.0
 10
-70.00931247531722
 20
49.84648248396702
 30
0.0
 11
-69.75476074250764
 21
51.91121612542377
 31
0.0
 11
-69.75916907548718
 21
51.64649717252218
 31
0.0
 11
-69.77205834535975
 21
51.38642771975187
 31
0.0
 11
-69.79296485864475
 21
51.12947775578235
 31
0.0
 11
-69.82157243249951
 21
50.87426972761345
 31
0.0
 11
-69.85762528964457
 21
50.61952825203215
 31
0.0
 11
-69.90098063280807
 21
50.36406635890919
 31
0.0
 11
-69.95154368387387
 21
50.10674871143999
 31
0.0
 11
-70.00931247531722
 21
49.84648248396702
 31
0.0
  0
SPLINE
  5
12C
330
4E
100
AcDbEntity
  8
0
  6
Continuous
 62
     7
100
AcDbSpline
210
0.0
220
0.0
230
1.0
 70
     8
 71
     3
 72
    15
 73
    11
 74
     9
 42
0.000000001
 43
0.0000000001
 44
0.00000001
 40
0.0
 40
0.0
 40
0.0
 40
0.0
 40
0.2666003422263777
 40
0.5288387714490639
 40
0.7879535423728865
 40
1.045233599417797
 40
1.302040006580518
 40
1.559839087433919
 40
1.820227745006364
 40
2.084983396415048
 40
2.084983396415048
 40
2.084983396415048
 40
2.084983396415048
 10
-70.0093124753172
 20
53.97594976195819
 30
0.0
 10
-69.98961117422185
 20
53.88929000875906
 30
0.0
 10
-69.95053092402526
 20
53.71738836049246
 30
0.0
 10
-69.90012997059318
 20
53.4595777594606
 30
0.0
 10
-69.85652612969568
 20
53.20369601269817
 30
0.0
 10
-69.82037414167894
 20
52.94847495015041
 30
0.0
 10
-69.79160004062372
 20
52.69275244585365
 30
0.0
 10
-69.77073979717973
 20
52.43523312226803
 30
0.0
 10
-69.75728930652377
 20
52.17452861046759
 30
0.0
 10
-69.75560825205686
 20
51.99947219842281
 30
0.0
 10
-69.75476074250764
 20
51.91121612542377
 30
0.0
 11
-70.0093124753172
 21
53.97594976195819
 31
0.0
 11
-69.95154368387387
 21
53.71568353448522
 31
0.0
 11
-69.90098063280806
 21
53.45836588701602
 31
0.0
 11
-69.85762528964455
 21
53.20290399389307
 31
0.0
 11
-69.82157243249951
 21
52.94816251831177
 31
0.0
 11
-69.79296485864478
 21
52.69295449014286
 31
0.0
 11
-69.77205834535975
 21
52.43600452617334
 31
0.0
 11
-69.7591690754872
 21
52.17593507401832
 31
0.0
 11
-69.75476074250764
 21
51.91121612542377
 31
0.0
  0
SPLINE
  5
12D
330
4E
100
AcDbEntity
  8
0
  6
Continuous
 62
     7
100
AcDbSpline
210
0.0
220
0.0
230
1.0
 70
     8
 71
     3
 72
    11
 73
     7
 74
     5
 42
0.000000001
 43
0.0000000001
 44
0.00000001
 40
0.0
 40
0.0
 40
0.0
 40
0.0
 40
1.077385628442225
 40
2.083975835029961
 40
3.090494476510477
 40
4.167801667700141
 40
4.167801667700141
 40
4.167801667700141
 40
4.167801667700141
 10
-60.26370109113927
 20
53.9759497619582
 30
0.0
 10
-60.33655309964114
 20
53.62385967252558
 30
0.0
 10
-60.47746996889146
 20
52.94281546566559
 30
0.0
 10
-60.537954794103
 20
51.91116461501296
 30
0.0
 10
-60.47745642678194
 20
50.8795415384955
 30
0.0
 10
-60.33654844493334
 20
50.19854673984774
 30
0.0
 10
-60.26370109114957
 20
49.84648248401098
 30
0.0
 11
-60.26370109113927
 21
53.9759497619582
 31
0.0
 11
-60.4554947167173
 21
52.9157728903726
 31
0.0
 11
-60.51825282511587
 21
51.91114098462636
 31
0.0
 11
-60.45548510462977
 21
50.9065813840415
 31
0.0
 11
-60.26370109114957
 21
49.84648248401098
 31
0.0
  0
SPLINE
  5
12E
330
4E
100
AcDbEntity
  8
0
  6
Continuous
 62
     7
100
AcDbSpline
210
0.0
220
0.0
230
1.0
 70
     8
 71
     3
 72
    15
 73
    11
 74
     9
 42
0.000000001
 43
0.0000000001
 44
0.00000001
 40
0.0
 40
0.0
 40
0.0
 40
0.0
 40
0.5294560282642233
 40
1.049754836270324
 40
1.564079327481618
 40
2.075296969071496
 40
2.586053277701569
 40
3.09881392680632
 40
3.615926448992571
 40
4.139655413294703
 40
4.139655413294703
 40
4.139655413294703
 40
4.139655413294703
 10
-69.75476074250764
 20
44.55000019079487
 30
0.0
 10
-69.75560766382193
 20
44.37351274958683
 30
0.0
 10
-69.75728687306086
 20
44.02359031033876
 30
0.0
 10
-69.77072693207566
 20
43.50236869795247
 30
0.0
 10
-69.79157303495761
 20
42.98749433067402
 30
0.0
 10
-69.8203302110307
 20
42.47618212603693
 30
0.0
 10
-69.8564615685111
 20
41.96586341735754
 30
0.0
 10
-69.90005067107352
 20
41.45416017636181
 30
0.0
 10
-69.95041541533797
 20
40.93872669626678
 30
0.0
 10
-69.98959709350191
 20
40.5939946399771
 30
0.0
 10
-70.00931247531722
 20
40.42053291280369
 30
0.0
 11
-69.75476074250764
 21
44.55000019079487
 31
0.0
 11
-69.75916899153002
 21
44.0205625142144
 31
0.0
 11
-69.77205834535975
 21
43.5004233843734
 31
0.0
 11
-69.7929647801095
 21
42.98652397453316
 31
0.0
 11
-69.82157243249951
 21
42.47610740009655
 31
0.0
 11
-69.85762520363811
 21
41.96662510929893
 31
0.0
 11
-69.90098063280807
 21
41.45570066268805
 31
0.0
 11
-69.95154358680489
 21
40.94106608517962
 31
0.0
 11
-70.00931247531722
 21
40.42053291280369
 31
0.0
  0
SPLINE
  5
12F
330
4E
100
AcDbEntity
  8
0
  6
Continuous
 62
     7
100
AcDbSpline
210
0.0
220
0.0
230
1.0
 70
     8
 71
     3
 72
    15
 73
    11
 74
     9
 42
0.000000001
 43
0.0000000001
 44
0.00000001
 40
0.0
 40
0.0
 40
0.0
 40
0.0
 40
0.2647556514086837
 40
0.5251443089811145
 40
0.7829433898345156
 40
1.039749796997229
 40
1.297029854042149
 40
1.556144624965969
 40
1.818383054188658
 40
2.08498339641504
 40
2.08498339641504
 40
2.08498339641504
 40
2.08498339641504
 10
-69.75476074250764
 20
37.18878425616596
 30
0.0
 10
-69.75560825205682
 20
37.10052818316692
 30
0.0
 10
-69.75728930652377
 20
36.92547177112215
 30
0.0
 10
-69.7707397971797
 20
36.66476725932172
 30
0.0
 10
-69.79160004062375
 20
36.4072479357361
 30
0.0
 10
-69.82037414167893
 20
36.15152543143934
 30
0.0
 10
-69.85652612969571
 20
35.89630436889158
 30
0.0
 10
-69.90012997059316
 20
35.64042262212915
 30
0.0
 10
-69.9505309240253
 20
35.38261202109729
 30
0.0
 10
-69.98961117422185
 20
35.21071037283067
 30
0.0
 10
-70.0093124753172
 20
35.12405061963155
 30
0.0
 11
-69.75476074250764
 21
37.18878425616596
 31
0.0
 11
-69.75916907548718
 21
36.92406530757141
 31
0.0
 11
-69.77205834535975
 21
36.6639958554164
 31
0.0
 11
-69.79296485864478
 21
36.40704589144688
 31
0.0
 11
-69.82157243249951
 21
36.15183786327798
 31
0.0
 11
-69.85762528964456
 21
35.89709638769668
 31
0.0
 11
-69.90098063280806
 21
35.64163449457372
 31
0.0
 11
-69.95154368387388
 21
35.38431684710452
 31
0.0
 11
-70.0093124753172
 21
35.12405061963155
 31
0.0
  0
SPLINE
  5
130
330
4E
100
AcDbEntity
  8
0
  6
Continuous
 62
     7
100
AcDbSpline
210
0.0
220
0.0
230
1.0
 70
     8
 71
     3
 72
    15
 73
    11
 74
     9
 42
0.000000001
 43
0.0000000001
 44
0.00000001
 40
0.0
 40
0.0
 40
0.0
 40
0.0
 40
0.2666003422263807
 40
0.5288387714490739
 40
0.7879535423728896
 40
1.045233599417808
 40
1.302040006580521
 40
1.559839087433923
 40
1.820227745620907
 40
2.084983401336027
 40
2.084983401336027
 40
2.084983401336027
 40
2.084983401336027
 10
-70.00931247531722
 20
39.25351789762271
 30
0.0
 10
-69.98961117422186
 20
39.16685814442358
 30
0.0
 10
-69.95053092402527
 20
38.99495649615699
 30
0.0
 10
-69.90012997059313
 20
38.7371458951251
 30
0.0
 10
-69.85652612969582
 20
38.48126414836267
 30
0.0
 10
-69.82037414167837
 20
38.22604308581496
 30
0.0
 10
-69.79160004062585
 20
37.97032058151806
 30
0.0
 10
-69.77073979715524
 20
37.71280125772876
 30
0.0
 10
-69.75728930646181
 20
37.452096744287
 30
0.0
 10
-69.75560825203996
 20
37.27704033060099
 30
0.0
 10
-69.75476074250764
 20
37.18878425616596
 30
0.0
 11
-70.00931247531722
 21
39.25351789762271
 31
0.0
 11
-69.95154368387387
 21
38.99325167014974
 31
0.0
 11
-69.90098063280806
 21
38.73593402268053
 31
0.0
 11
-69.85762528964455
 21
38.48047212955758
 31
0.0
 11
-69.82157243249951
 21
38.22573065397628
 31
0.0
 11
-69.79296485864478
 21
37.97052262580738
 31
0.0
 11
-69.77205834535975
 21
37.71357266183786
 31
0.0
 11
-69.7591690754872
 21
37.45350320906754
 31
0.0
 11
-69.75476074250764
 21
37.18878425616596
 31
0.0
  0
SPLINE
  5
131
330
4E
100
AcDbEntity
  8
0
  6
Continuous
 62
     7
100
AcDbSpline
210
0.0
220
0.0
230
1.0
 70
     8
 71
     3
 72
    15
 73
    11
 74
     9
 42
0.000000001
 43
0.0000000001
 44
0.00000001
 40
0.0
 40
0.0
 40
0.0
 40
0.0
 40
0.52372896430211
 40
1.040841486488362
 40
1.553602135593112
 40
2.064358444223186
 40
2.57557608581307
 40
3.089900577024365
 40
3.610199385030465
 40
4.139655413294689
 40
4.139655413294689
 40
4.139655413294689
 40
4.139655413294689
 10
-70.00931247531722
 20
48.67946746878604
 30
0.0
 10
-69.98959709350191
 20
48.50600574161263
 30
0.0
 10
-69.95041541533794
 20
48.16127368532294
 30
0.0
 10
-69.90005067107354
 20
47.64584020522794
 30
0.0
 10
-69.85646156851108
 20
47.1341369642322
 30
0.0
 10
-69.82033021103071
 20
46.62381825555281
 30
0.0
 10
-69.7915730349576
 20
46.11250605091571
 30
0.0
 10
-69.77072693207572
 20
45.59763168363729
 30
0.0
 10
-69.75728687306083
 20
45.07641007125098
 30
0.0
 10
-69.75560766382195
 20
44.72648763200289
 30
0.0
 10
-69.75476074250764
 20
44.55000019079487
 30
0.0
 11
-70.00931247531722
 21
48.67946746878604
 31
0.0
 11
-69.95154358680489
 21
48.15893429641012
 31
0.0
 11
-69.90098063280807
 21
47.64429971890169
 31
0.0
 11
-69.85762520363811
 21
47.13337527229081
 31
0.0
 11
-69.82157243249951
 21
46.62389298149319
 31
0.0
 11
-69.7929647801095
 21
46.11347640705657
 31
0.0
 11
-69.77205834535975
 21
45.59957699721634
 31
0.0
 11
-69.75916899153002
 21
45.07943786737534
 31
0.0
 11
-69.75476074250764
 21
44.55000019079487
 31
0.0
  0
ENDBLK
  5
50
330
4E
100
AcDbEntity
  8
0
100
AcDbBlockEnd
  0
BLOCK
  5
53
330
51
100
AcDbEntity
  8
0
100
AcDbBlockBegin
  2
Drfsicht1
 70
     0
 10
-64.63650703446189
 20
44.55000019075487
 30
0.0
  3
Drfsicht1
  1

  0
INSERT
  5
52
330
51
100
AcDbEntity
  8
0
100
AcDbBlockReference
  2
G_INSEC_PG9_S68N_NNES_S-select__2
 10
-79.25476074284039
 20
35.10000019079487
 30
0.0
  0
MTEXT
  5
132
330
51
100
AcDbEntity
  8
1
 62
     6
100
AcDbMText
 10
-64.63650703446189
 20
32.60000038148974
 30
0.0
 40
2.5
 41
0.0
 71
     2
 72
     1
  1
 
  7
CONVERTER_11
 73
     1
 44
1.32052821128451
  0
DIMENSION
  5
13D
330
51
100
AcDbEntity
  8
1
100
AcDbDimension
  2
*D17
 10
-84.25476074284039
 20
35.10000019079488
 30
0.0
 11
-86.2172607428404
 21
44.55000019079488
 31
0.0
 70
    32
  1
<>
 71
     5
 42
-1.0
 53
90.0
  3
ME10_DIM_10
100
AcDbAlignedDimension
 13
-73.25476074250764
 23
54.00000019079486
 33
0.0
 14
-73.25476074250764
 24
35.10000019079487
 34
0.0
 50
90.0
100
AcDbRotatedDimension
  0
ENDBLK
  5
54
330
51
100
AcDbEntity
  8
0
100
AcDbBlockEnd
  0
BLOCK
  5
56
330
55
100
AcDbEntity
  8
0
100
AcDbBlockBegin
  2
G_INSEC_PG9_S68N_NNES_S-select__3
 70
     0
 10
-14.61825420959154
 20
68.99999999996027
 30
0.0
  3
G_INSEC_PG9_S68N_NNES_S-select__3
  1

  0
LINE
  5
13E
330
55
100
AcDbEntity
  8
0
  6
Continuous
 62
     7
100
AcDbLine
 10
-4.09145928942662
 20
85.89999999996027
 30
0.0
 11
-0.61825420959154
 21
85.89999999996027
 31
0.0
  0
LINE
  5
13F
330
55
100
AcDbEntity
  8
0
  6
Continuous
 62
     7
100
AcDbLine
 10
-7.36370247603082
 20
85.32622356672078
 30
0.0
 11
-7.36370247603082
 21
85.99999999996028
 31
0.0
  0
LINE
  5
140
330
55
100
AcDbEntity
  8
0
  6
Continuous
 62
     7
100
AcDbLine
 10
5.11825370820578
 20
84.37999999996028
 30
0.0
 11
2.63045046167615
 21
84.37999999996028
 31
0.0
  0
LINE
  5
141
330
55
100
AcDbEntity
  8
0
  6
Continuous
 62
     7
100
AcDbLine
 10
9.0923568600168
 20
85.09999999996027
 30
0.0
 11
9.0923568600168
 21
69.89999999996027
 31
0.0
  0
LINE
  5
142
330
55
100
AcDbEntity
  8
0
  6
Continuous
 62
     7
100
AcDbLine
 10
8.61825370820578
 20
78.17377643312335
 30
0.0
 11
8.61825370820578
 21
76.82622356679721
 31
0.0
  0
LINE
  5
143
330
55
100
AcDbEntity
  8
0
  6
Continuous
 62
     7
100
AcDbLine
 10
8.61825370820578
 20
76.82622356679721
 30
0.0
 11
5.37280544101534
 21
76.82622356679721
 31
0.0
  0
LINE
  5
144
330
55
100
AcDbEntity
  8
0
  6
Continuous
 62
     7
100
AcDbLine
 10
5.11825370820578
 20
86.00000000280221
 30
0.0
 11
5.11825370820578
 21
84.37999999996028
 31
0.0
  0
LINE
  5
145
330
55
100
AcDbEntity
  8
0
  6
Continuous
 62
     7
100
AcDbLine
 10
5.11825370820578
 20
84.37999999996028
 30
0.0
 11
5.11825370820578
 21
81.74999999996028
 31
0.0
  0
LINE
  5
146
330
55
100
AcDbEntity
  8
0
  6
Continuous
 62
     7
100
AcDbLine
 10
5.37280544101534
 20
85.99999999996028
 30
0.0
 11
5.11825370820578
 21
86.00000000280221
 31
0.0
  0
LINE
  5
147
330
55
100
AcDbEntity
  8
0
  6
Continuous
 62
     7
100
AcDbLine
 10
5.37280544101534
 20
76.82622356679721
 30
0.0
 11
5.37280544101534
 21
78.17377643312335
 31
0.0
  0
LINE
  5
148
330
55
100
AcDbEntity
  8
0
  6
Continuous
 62
     7
100
AcDbLine
 10
5.11825370820578
 20
81.74999999996028
 30
0.0
 11
5.11825370820578
 21
73.24999999853932
 31
0.0
  0
LINE
  5
149
330
55
100
AcDbEntity
  8
0
  6
Continuous
 62
     7
100
AcDbLine
 10
5.37280544101534
 20
85.32622356679721
 30
0.0
 11
5.37280544101534
 21
85.99999999996028
 31
0.0
  0
LINE
  5
14A
330
55
100
AcDbEntity
  8
0
  6
Continuous
 62
     7
100
AcDbLine
 10
14.01629872599492
 20
85.09999999996027
 30
0.0
 11
14.01629872599492
 21
69.89999999996027
 31
0.0
  0
LINE
  5
14B
330
55
100
AcDbEntity
  8
0
  6
Continuous
 62
     7
100
AcDbLine
 10
-7.64504912975646
 20
85.89999999996027
 30
0.0
 11
-7.61825421035303
 21
85.99999999996028
 31
0.0
  0
LINE
  5
14C
330
55
100
AcDbEntity
  8
0
  6
Continuous
 62
     7
100
AcDbLine
 10
-11.81825420959154
 20
85.89999999996027
 30
0.0
 11
-7.64504912975646
 21
85.89999999996027
 31
0.0
  0
LINE
  5
14D
330
55
100
AcDbEntity
  8
0
  6
Continuous
 62
     2
100
AcDbLine
 10
-11.81825420959154
 20
85.89999999996027
 30
0.0
 11
-11.81825420959155
 21
69.09999999996029
 31
0.0
  0
LINE
  5
14E
330
55
100
AcDbEntity
  8
0
  6
Continuous
 62
     7
100
AcDbLine
 10
-7.61825421035303
 20
85.99999999996028
 30
0.0
 11
-7.36370247603082
 21
85.99999999996028
 31
0.0
  0
LINE
  5
14F
330
55
100
AcDbEntity
  8
0
  6
Continuous
 62
     7
100
AcDbLine
 10
-7.3637024760205
 20
76.8262235667971
 30
0.0
 11
-7.3637024760195
 21
78.17377643311606
 31
0.0
  0
LINE
  5
150
330
55
100
AcDbEntity
  8
0
  6
Continuous
 62
     7
100
AcDbLine
 10
-4.37280594315228
 20
85.99999999996028
 30
0.0
 11
-7.36370247603082
 21
85.99999999996028
 31
0.0
  0
LINE
  5
151
330
55
100
AcDbEntity
  8
0
  6
Continuous
 62
     7
100
AcDbLine
 10
-4.3728059431626
 20
78.17377643312335
 30
0.0
 11
-7.3637024760195
 21
78.17377643311606
 31
0.0
  0
LINE
  5
152
330
55
100
AcDbEntity
  8
0
  6
Continuous
 62
     7
100
AcDbLine
 10
-4.37280594315228
 20
85.99999999996028
 30
0.0
 11
-4.37280594315228
 21
85.32622356672093
 31
0.0
  0
LINE
  5
153
330
55
100
AcDbEntity
  8
0
  6
Continuous
 62
     7
100
AcDbLine
 10
-4.3728059431626
 20
78.17377643312335
 30
0.0
 11
-4.37280594316258
 21
76.8262235667971
 31
0.0
  0
LINE
  5
154
330
55
100
AcDbEntity
  8
0
  6
Continuous
 62
     7
100
AcDbLine
 10
-4.37280594315228
 20
85.99999999996028
 30
0.0
 11
-4.11825420883005
 21
85.99999999996028
 31
0.0
  0
LINE
  5
155
330
55
100
AcDbEntity
  8
0
  6
Continuous
 62
     7
100
AcDbLine
 10
-7.64504912975646
 20
85.89999999996027
 30
0.0
 11
-7.64504912975646
 21
69.09999999996029
 31
0.0
  0
LINE
  5
156
330
55
100
AcDbEntity
  8
0
  6
Continuous
 62
     7
100
AcDbLine
 10
2.63045046167615
 20
70.61999999996027
 30
0.0
 11
2.63045046167615
 21
84.37999999996028
 31
0.0
  0
LINE
  5
157
330
55
100
AcDbEntity
  8
0
  6
Continuous
 62
     7
100
AcDbLine
 10
2.06825370820577
 20
85.04999999996028
 30
0.0
 11
2.06825370764887
 21
77.49999999996028
 31
0.0
  0
LINE
  5
158
330
55
100
AcDbEntity
  8
0
  6
Continuous
 62
     7
100
AcDbLine
 10
2.06825370764887
 20
77.49999999996028
 30
0.0
 11
2.06825370820577
 21
69.94999999996028
 31
0.0
  0
LINE
  5
159
330
55
100
AcDbEntity
  8
0
  6
Continuous
 62
     7
100
AcDbLine
 10
2.06825370820577
 20
69.94999999996028
 30
0.0
 11
-0.61825420959154
 21
69.94999999996028
 31
0.0
  0
LINE
  5
15A
330
55
100
AcDbEntity
  8
0
  6
Continuous
 62
     7
100
AcDbLine
 10
-0.61825420959154
 20
69.94999999996028
 30
0.0
 11
-0.61825420959154
 21
69.09999999996029
 31
0.0
  0
LINE
  5
15B
330
55
100
AcDbEntity
  8
0
  6
Continuous
 62
     7
100
AcDbLine
 10
-0.61825420959154
 20
85.89999999996027
 30
0.0
 11
-0.61825420959154
 21
85.04999999996028
 31
0.0
  0
LINE
  5
15C
330
55
100
AcDbEntity
  8
0
  6
Continuous
 62
     7
100
AcDbLine
 10
-0.61825420959154
 20
85.04999999996028
 30
0.0
 11
-0.61825420959154
 21
69.94999999996028
 31
0.0
  0
LINE
  5
15D
330
55
100
AcDbEntity
  8
0
  6
Continuous
 62
     7
100
AcDbLine
 10
2.63045046167615
 20
84.37999999996028
 30
0.0
 11
2.06825370820577
 21
85.04999999996028
 31
0.0
  0
LINE
  5
15E
330
55
100
AcDbEntity
  8
0
  6
Continuous
 62
     7
100
AcDbLine
 10
8.61825370820578
 20
69.22248438782167
 30
0.0
 11
8.61825370820578
 21
68.99999999996027
 31
0.0
  0
LINE
  5
15F
330
55
100
AcDbEntity
  8
0
  6
Continuous
 62
     7
100
AcDbLine
 10
8.61825370820578
 20
69.67377643312335
 30
0.0
 11
8.61825370820578
 21
69.22248438782167
 31
0.0
  0
LINE
  5
160
330
55
100
AcDbEntity
  8
0
  6
Continuous
 62
     7
100
AcDbLine
 10
8.61825370820578
 20
76.82622356679721
 30
0.0
 11
8.61825370820578
 21
69.67377643312335
 31
0.0
  0
LINE
  5
161
330
55
100
AcDbEntity
  8
0
  6
Continuous
 62
     7
100
AcDbLine
 10
14.61825370853852
 20
70.61738201153383
 30
0.0
 11
14.61825370820577
 21
77.49999999996028
 31
0.0
  0
LINE
  5
162
330
55
100
AcDbEntity
  8
0
  6
Continuous
 62
     7
100
AcDbLine
 10
8.61825370820578
 20
69.67377643312335
 30
0.0
 11
5.37280544101534
 21
69.67377643312335
 31
0.0
  0
LINE
  5
163
330
55
100
AcDbEntity
  8
0
  6
Continuous
 62
     7
100
AcDbLine
 10
14.01629872599492
 20
69.89999999996027
 30
0.0
 11
9.0923568600168
 21
69.89999999996027
 31
0.0
  0
LINE
  5
164
330
55
100
AcDbEntity
  8
0
  6
Continuous
 62
     7
100
AcDbLine
 10
8.61825370820578
 20
68.99999999996027
 30
0.0
 11
5.37280544101534
 21
68.99999999996027
 31
0.0
  0
LINE
  5
165
330
55
100
AcDbEntity
  8
0
  6
Continuous
 62
     7
100
AcDbLine
 10
5.11825370820578
 20
70.61999999996027
 30
0.0
 11
5.11825370820578
 21
68.99999999996027
 31
0.0
  0
LINE
  5
166
330
55
100
AcDbEntity
  8
0
  6
Continuous
 62
     7
100
AcDbLine
 10
5.11825370820578
 20
68.99999999996027
 30
0.0
 11
5.37280544101534
 21
68.99999999996027
 31
0.0
  0
LINE
  5
167
330
55
100
AcDbEntity
  8
0
  6
Continuous
 62
     7
100
AcDbLine
 10
5.37280544101534
 20
68.99999999996027
 30
0.0
 11
5.37280544101534
 21
69.67377643312335
 31
0.0
  0
LINE
  5
168
330
55
100
AcDbEntity
  8
0
  6
Continuous
 62
     7
100
AcDbLine
 10
5.11825370820578
 20
73.24999999853932
 30
0.0
 11
5.11825370820578
 21
70.61999999996027
 31
0.0
  0
LINE
  5
169
330
55
100
AcDbEntity
  8
0
  6
Continuous
 62
     7
100
AcDbLine
 10
14.61825370853852
 20
70.61738201153383
 30
0.0
 11
14.01629872599492
 21
69.89999999996027
 31
0.0
  0
LINE
  5
16A
330
55
100
AcDbEntity
  8
0
  6
Continuous
 62
     7
100
AcDbLine
 10
-4.09145928942662
 20
69.09999999996029
 30
0.0
 11
-0.61825420959154
 21
69.09999999996029
 31
0.0
  0
LINE
  5
16B
330
55
100
AcDbEntity
  8
0
  6
Continuous
 62
     7
100
AcDbLine
 10
-7.3637024760205
 20
68.99999999996027
 30
0.0
 11
-4.37280594316258
 21
68.99999999996027
 31
0.0
  0
LINE
  5
16C
330
55
100
AcDbEntity
  8
0
  6
Continuous
 62
     7
100
AcDbLine
 10
2.63045046167615
 20
70.61999999996027
 30
0.0
 11
2.06825370820577
 21
69.94999999996028
 31
0.0
  0
LINE
  5
16D
330
55
100
AcDbEntity
  8
0
  6
Continuous
 62
     7
100
AcDbLine
 10
5.11825370820578
 20
70.61999999996027
 30
0.0
 11
2.63045046167615
 21
70.61999999996027
 31
0.0
  0
LINE
  5
16E
330
55
100
AcDbEntity
  8
0
  6
Continuous
 62
     7
100
AcDbLine
 10
-4.09145928942662
 20
85.89999999996027
 30
0.0
 11
-4.11825420883005
 21
85.99999999996028
 31
0.0
  0
LINE
  5
16F
330
55
100
AcDbEntity
  8
0
  6
Continuous
 62
     7
100
AcDbLine
 10
-4.09145928942662
 20
85.89999999996027
 30
0.0
 11
-4.09145928942662
 21
69.09999999996029
 31
0.0
  0
LINE
  5
170
330
55
100
AcDbEntity
  8
0
  6
Continuous
 62
     7
100
AcDbLine
 10
14.61825370820577
 20
77.49999999996028
 30
0.0
 11
14.61825370853852
 21
84.38261798838673
 31
0.0
  0
LINE
  5
171
330
55
100
AcDbEntity
  8
0
  6
Continuous
 62
     7
100
AcDbLine
 10
8.61825370820578
 20
78.17377643312335
 30
0.0
 11
5.37280544101534
 21
78.17377643312335
 31
0.0
  0
LINE
  5
172
330
55
100
AcDbEntity
  8
0
  6
Continuous
 62
     7
100
AcDbLine
 10
8.61825370820578
 20
85.99999999996028
 30
0.0
 11
5.37280544101534
 21
85.99999999996028
 31
0.0
  0
LINE
  5
173
330
55
100
AcDbEntity
  8
0
  6
Continuous
 62
     7
100
AcDbLine
 10
8.61825370820578
 20
85.99999999996028
 30
0.0
 11
8.61825370820578
 21
85.77751561209888
 31
0.0
  0
LINE
  5
174
330
55
100
AcDbEntity
  8
0
  6
Continuous
 62
     7
100
AcDbLine
 10
8.61825370820578
 20
85.77751561209888
 30
0.0
 11
8.61825370820578
 21
85.32622356679721
 31
0.0
  0
LINE
  5
175
330
55
100
AcDbEntity
  8
0
  6
Continuous
 62
     7
100
AcDbLine
 10
8.61825370820578
 20
85.32622356679721
 30
0.0
 11
8.61825370820578
 21
78.17377643312335
 31
0.0
  0
LINE
  5
176
330
55
100
AcDbEntity
  8
0
  6
Continuous
 62
     7
100
AcDbLine
 10
14.01629872599492
 20
85.09999999996027
 30
0.0
 11
9.0923568600168
 21
85.09999999996027
 31
0.0
  0
LINE
  5
177
330
55
100
AcDbEntity
  8
0
  6
Continuous
 62
     7
100
AcDbLine
 10
2.06825370820577
 20
85.04999999996028
 30
0.0
 11
-0.61825420959154
 21
85.04999999996028
 31
0.0
  0
LINE
  5
178
330
55
100
AcDbEntity
  8
0
  6
Continuous
 62
     7
100
AcDbLine
 10
8.61825370820578
 20
85.32622356679721
 30
0.0
 11
5.37280544101534
 21
85.32622356679721
 31
0.0
  0
LINE
  5
179
330
55
100
AcDbEntity
  8
0
  6
Continuous
 62
     7
100
AcDbLine
 10
-7.36370247603082
 20
85.32622356672078
 30
0.0
 11
-4.37280594315228
 21
85.32622356672093
 31
0.0
  0
LINE
  5
17A
330
55
100
AcDbEntity
  8
0
  6
Continuous
 62
     7
100
AcDbLine
 10
14.61825370853852
 20
84.38261798838673
 30
0.0
 11
14.01629872599492
 21
85.09999999996027
 31
0.0
  0
LINE
  5
17B
330
55
100
AcDbEntity
  8
0
  6
Continuous
 62
     7
100
AcDbLine
 10
-7.64504912975646
 20
69.09999999996029
 30
0.0
 11
-7.61825421035303
 21
68.9999999999603
 31
0.0
  0
LINE
  5
17C
330
55
100
AcDbEntity
  8
0
  6
Continuous
 62
     7
100
AcDbLine
 10
-11.81825420959155
 20
69.09999999996029
 30
0.0
 11
-7.64504912975646
 21
69.09999999996029
 31
0.0
  0
LINE
  5
17D
330
55
100
AcDbEntity
  8
0
  6
Continuous
 62
     7
100
AcDbLine
 10
-7.3637024760205
 20
68.99999999996027
 30
0.0
 11
-7.61825421035303
 21
68.9999999999603
 31
0.0
  0
LINE
  5
17E
330
55
100
AcDbEntity
  8
0
  6
Continuous
 62
     7
100
AcDbLine
 10
-7.3637024760205
 20
68.99999999996027
 30
0.0
 11
-7.3637024760195
 21
69.67377643311607
 31
0.0
  0
LINE
  5
17F
330
55
100
AcDbEntity
  8
0
  6
Continuous
 62
     7
100
AcDbLine
 10
-7.3637024760205
 20
76.8262235667971
 30
0.0
 11
-4.37280594316258
 21
76.8262235667971
 31
0.0
  0
LINE
  5
180
330
55
100
AcDbEntity
  8
0
  6
Continuous
 62
     7
100
AcDbLine
 10
-4.37280594316358
 20
69.67377643311605
 30
0.0
 11
-4.37280594316258
 21
68.99999999996027
 31
0.0
  0
LINE
  5
181
330
55
100
AcDbEntity
  8
0
  6
Continuous
 62
     7
100
AcDbLine
 10
-4.11825420883005
 20
68.9999999999603
 30
0.0
 11
-4.37280594316258
 21
68.99999999996027
 31
0.0
  0
LINE
  5
182
330
55
100
AcDbEntity
  8
0
  6
Continuous
 62
     7
100
AcDbLine
 10
-4.09145928942662
 20
69.09999999996029
 30
0.0
 11
-4.11825420883005
 21
68.9999999999603
 31
0.0
  0
LINE
  5
183
330
55
100
AcDbEntity
  8
0
  6
Continuous
 62
     7
100
AcDbLine
 10
-4.37280594316358
 20
69.67377643311605
 30
0.0
 11
-7.3637024760195
 21
69.67377643311607
 31
0.0
  0
LINE
  5
184
330
55
100
AcDbEntity
  8
0
  6
Continuous
 62
     7
100
AcDbLine
 10
-14.61825420959154
 20
83.09999999996029
 30
0.0
 11
-14.61825420959154
 21
71.89999999996027
 31
0.0
  0
LINE
  5
185
330
55
100
AcDbEntity
  8
1
  6
DOT_CENTER
 62
     2
100
AcDbLine
 10
5.11825370820578
 20
77.49999999995995
 30
0.0
 11
-4.1182542088302
 21
77.4999999999593
 31
0.0
  0
LINE
  5
186
330
55
100
AcDbEntity
  8
1
  6
DOT_CENTER
 62
     2
100
AcDbLine
 10
-11.81825420959155
 20
77.49999999996028
 30
0.0
 11
-7.61825421035288
 21
77.4999999999594
 31
0.0
  0
LINE
  5
187
330
55
100
AcDbEntity
  8
1
  6
DOT_CENTER
 62
     2
100
AcDbLine
 10
14.61825370853856
 20
77.49999999996032
 30
0.0
 11
9.0923568600168
 21
77.49999999996027
 31
0.0
  0
ARC
  5
188
330
55
100
AcDbEntity
  8
0
  6
Continuous
 62
     7
100
AcDbCircle
 10
8.34262357410774
 20
69.91999999996028
 30
0.0
 40
0.7500000000000084
100
AcDbArc
 50
291.5619399217583
 51
358.4719314053885
  0
ARC
  5
189
330
55
100
AcDbEntity
  8
0
  6
Continuous
 62
     7
100
AcDbCircle
 10
-11.81825420959155
 20
71.89999999996027
 30
0.0
 40
2.79999999999999
100
AcDbArc
 50
180.0
 51
270.0
  0
ARC
  5
18A
330
55
100
AcDbEntity
  8
0
  6
Continuous
 62
     7
100
AcDbCircle
 10
8.34262357410774
 20
85.07999999996028
 30
0.0
 40
0.7500000000000001
100
AcDbArc
 50
1.52806859461045
 51
68.4380600782413
  0
ARC
  5
18B
330
55
100
AcDbEntity
  8
0
  6
Continuous
 62
     7
100
AcDbCircle
 10
-11.81825420959155
 20
83.09999999996029
 30
0.0
 40
2.799999999999983
100
AcDbArc
 50
89.99999999999979
 51
180.0
  0
SPLINE
  5
18C
330
55
100
AcDbEntity
  8
0
  6
Continuous
 62
     7
100
AcDbSpline
210
0.0
220
0.0
230
1.0
 70
     8
 71
     3
 72
    15
 73
    11
 74
     9
 42
0.000000001
 43
0.0000000001
 44
0.00000001
 40
0.0
 40
0.0
 40
0.0
 40
0.0
 40
0.4585276915834143
 40
0.9091657404405032
 40
1.354706509706636
 40
1.797664929538481
 40
2.240360100048076
 40
2.684952584331645
 40
3.1334982771116
 40
3.587979592757319
 40
3.587979592757319
 40
3.587979592757319
 40
3.587979592757319
 10
5.118253708205776
 20
73.24999999853932
 30
0.0
 10
5.119100694939632
 20
73.40284498498922
 30
0.0
 10
5.120780109315152
 20
73.70590503515584
 30
0.0
 10
5.134221329817294
 20
74.15731431563441
 30
0.0
 10
5.155069018651426
 20
74.60322463738302
 30
0.0
 10
5.183828105496165
 20
75.0460471423883
 30
0.0
 10
5.219961822987761
 20
75.48800856814594
 30
0.0
 10
5.263552629492176
 20
75.93116290322064
 30
0.0
 10
5.313921598639515
 20
76.37756072794232
 30
0.0
 10
5.353091666704236
 20
76.6760153707765
 30
0.0
 10
5.372805441015342
 20
76.82622356679721
 30
0.0
 11
5.118253708205776
 21
73.24999999853932
 31
0.0
 11
5.122661966664572
 21
73.7085064994583
 31
0.0
 11
5.135551311057887
 21
74.15896017754422
 31
0.0
 11
5.15645775471756
 21
74.60401017235446
 31
0.0
 11
5.185065398197637
 21
75.04604384143045
 31
0.0
 11
5.221118179205179
 21
75.48726851335137
 31
0.0
 11
5.264473598506196
 21
75.92974199821899
 31
0.0
 11
5.315036563764395
 21
76.37542868765092
 31
0.0
 11
5.372805441015342
 21
76.82622356679721
 31
0.0
  0
SPLINE
  5
18D
330
55
100
AcDbEntity
  8
0
  6
Continuous
 62
     7
100
AcDbSpline
210
0.0
220
0.0
230
1.0
 70
     8
 71
     3
 72
    15
 73
    11
 74
     9
 42
0.000000001
 43
0.0000000001
 44
0.00000001
 40
0.0
 40
0.0
 40
0.0
 40
0.0
 40
0.454481315645719
 40
0.9030270084256737
 40
1.347619492709229
 40
1.790314663218866
 40
2.233273083050697
 40
2.678813852316816
 40
3.129451900996385
 40
3.587979591336492
 40
3.587979591336492
 40
3.587979591336492
 40
3.587979591336492
 10
5.372805441015342
 20
78.17377643312335
 30
0.0
 10
5.353091666704233
 20
78.32398462914408
 30
0.0
 10
5.313921598639513
 20
78.62243927197824
 30
0.0
 10
5.263552629492183
 20
79.06883709669991
 30
0.0
 10
5.219961822987733
 20
79.51199143177465
 30
0.0
 10
5.183828105496264
 20
79.95395285753224
 30
0.0
 10
5.155069018651076
 20
80.39677536253755
 30
0.0
 10
5.134221329821378
 20
80.84268568422708
 30
0.0
 10
5.120780109325479
 20
81.29409496423195
 30
0.0
 10
5.119100694942448
 20
81.59715501392485
 30
0.0
 10
5.118253708205776
 20
81.74999999996028
 30
0.0
 11
5.372805441015342
 21
78.17377643312335
 31
0.0
 11
5.315036563764394
 21
78.62457131226964
 31
0.0
 11
5.264473598506196
 21
79.07025800170157
 31
0.0
 11
5.221118179205178
 21
79.51273148656918
 31
0.0
 11
5.185065398197639
 21
79.95395615849014
 31
0.0
 11
5.156457754717561
 21
80.39598982756611
 31
0.0
 11
5.135551311057889
 21
80.84103982237635
 31
0.0
 11
5.122661966664573
 21
81.29149350028467
 31
0.0
 11
5.118253708205776
 21
81.74999999996028
 31
0.0
  0
SPLINE
  5
18E
330
55
100
AcDbEntity
  8
0
  6
Continuous
 62
     7
100
AcDbSpline
210
0.0
220
0.0
230
1.0
 70
     8
 71
     3
 72
    15
 73
    11
 74
     9
 42
0.000000001
 43
0.0000000001
 44
0.00000001
 40
0.0
 40
0.0
 40
0.0
 40
0.0
 40
0.4585276903401073
 40
0.9091657390196759
 40
1.354706508285809
 40
1.79766492811764
 40
2.240360098627249
 40
2.684952582910832
 40
3.133498275690773
 40
3.587979591336492
 40
3.587979591336492
 40
3.587979591336492
 40
3.587979591336492
 10
5.118253708205776
 20
81.74999999996028
 30
0.0
 10
5.119100694942447
 20
81.9028449859957
 30
0.0
 10
5.120780109325477
 20
82.20590503568862
 30
0.0
 10
5.134221329821381
 20
82.6573143156935
 30
0.0
 10
5.155069018651073
 20
83.10322463738301
 30
0.0
 10
5.183828105496261
 20
83.54604714238832
 30
0.0
 10
5.219961822987738
 20
83.98800856814594
 30
0.0
 10
5.263552629492183
 20
84.43116290322064
 30
0.0
 10
5.313921598639516
 20
84.87756072794235
 30
0.0
 10
5.353091666704234
 20
85.17601537077648
 30
0.0
 10
5.372805441015343
 20
85.32622356679721
 30
0.0
 11
5.118253708205776
 21
81.74999999996028
 31
0.0
 11
5.122661966664572
 21
82.20850649963589
 31
0.0
 11
5.135551311057889
 21
82.65896017754422
 31
0.0
 11
5.15645775471756
 21
83.10401017235446
 31
0.0
 11
5.185065398197637
 21
83.54604384143043
 31
0.0
 11
5.22111817920518
 21
83.98726851335137
 31
0.0
 11
5.264473598506199
 21
84.429741998219
 31
0.0
 11
5.315036563764396
 21
84.87542868765092
 31
0.0
 11
5.372805441015343
 21
85.32622356679721
 31
0.0
  0
SPLINE
  5
18F
330
55
100
AcDbEntity
  8
0
  6
Continuous
 62
     7
100
AcDbSpline
210
0.0
220
0.0
230
1.0
 70
     8
 71
     3
 72
    11
 73
     7
 74
     5
 42
0.000000001
 43
0.0000000001
 44
0.00000001
 40
0.0
 40
0.0
 40
0.0
 40
0.0
 40
1.846250783991721
 40
3.587474016426834
 40
5.3285724380779
 40
7.174687905979058
 40
7.174687905979058
 40
7.174687905979058
 40
7.174687905979058
 10
-4.372805943162597
 20
78.17377643312335
 30
0.0
 10
-4.299897251999615
 20
78.78510982788796
 30
0.0
 10
-4.158227436399718
 20
79.97299973471678
 30
0.0
 10
-4.098849443388211
 20
81.75008866801447
 30
0.0
 10
-4.158240995094657
 20
83.52713155959401
 30
0.0
 10
-4.299901896587779
 20
84.71493509857537
 30
0.0
 10
-4.372805943152278
 20
85.32622356672093
 30
0.0
 11
-4.372805943162597
 21
78.17377643312335
 31
0.0
 11
-4.181013623246582
 21
80.01003830574675
 31
0.0
 11
-4.118254209185993
 21
81.75013014337624
 31
0.0
 11
-4.18102323524721
 21
83.49009674233987
 31
0.0
 11
-4.372805943152278
 21
85.32622356672093
 31
0.0
  0
SPLINE
  5
190
330
55
100
AcDbEntity
  8
0
  6
Continuous
 62
     7
100
AcDbSpline
210
0.0
220
0.0
230
1.0
 70
     8
 71
     3
 72
    11
 73
     7
 74
     5
 42
0.000000001
 43
0.0000000001
 44
0.00000001
 40
0.0
 40
0.0
 40
0.0
 40
0.0
 40
1.84611623233397
 40
3.587215383388153
 40
5.328437889026839
 40
7.174687905986228
 40
7.174687905986228
 40
7.174687905986228
 40
7.174687905986228
 10
-7.363702476030818
 20
85.32622356672078
 30
0.0
 10
-7.436606548827824
 20
84.71493484477459
 30
0.0
 10
-7.578267501627621
 20
83.52713080982984
 30
0.0
 10
-7.637658975829636
 20
81.75008765718704
 30
0.0
 10
-7.578280905177754
 20
79.97299898407965
 30
0.0
 10
-7.436611140859866
 20
78.7851095732168
 30
0.0
 10
-7.363702476019498
 20
78.17377643311606
 30
0.0
 11
-7.363702476030818
 21
85.32622356672078
 31
0.0
 11
-7.555485238237853
 21
83.49009597942018
 31
0.0
 11
-7.618254210005214
 21
81.75012864862032
 31
0.0
 11
-7.555494741453172
 21
80.01003754022514
 31
0.0
 11
-7.363702476019498
 21
78.17377643311606
 31
0.0
  0
SPLINE
  5
191
330
55
100
AcDbEntity
  8
0
  6
Continuous
 62
     7
100
AcDbSpline
210
0.0
220
0.0
230
1.0
 70
     8
 71
     3
 72
    15
 73
    11
 74
     9
 42
0.000000001
 43
0.0000000001
 44
0.00000001
 40
0.0
 40
0.0
 40
0.0
 40
0.0
 40
0.454481315645719
 40
0.9030270084256733
 40
1.347619492709256
 40
1.790314663218852
 40
2.233273083050683
 40
2.678813852316816
 40
3.129451900818821
 40
3.587979589915664
 40
3.587979589915664
 40
3.587979589915664
 40
3.587979589915664
 10
5.372805441015341
 20
69.67377643312335
 30
0.0
 10
5.353091666704233
 20
69.82398462914406
 30
0.0
 10
5.313921598639508
 20
70.12243927197821
 30
0.0
 10
5.263552629492191
 20
70.56883709669992
 30
0.0
 10
5.219961822987713
 20
71.01199143177463
 30
0.0
 10
5.183828105496351
 20
71.45395285753224
 30
0.0
 10
5.155069018650726
 20
71.89677536253754
 30
0.0
 10
5.13422132982546
 20
72.342685684168
 30
0.0
 10
5.120780109335807
 20
72.79409496369917
 30
0.0
 10
5.119100694945263
 20
73.09715501291838
 30
0.0
 10
5.118253708205776
 20
73.24999999853932
 30
0.0
 11
5.372805441015341
 21
69.67377643312335
 31
0.0
 11
5.315036563764393
 21
70.12457131226964
 31
0.0
 11
5.264473598506198
 21
70.57025800170157
 31
0.0
 11
5.22111817920518
 21
71.01273148656921
 31
0.0
 11
5.185065398197637
 21
71.45395615849013
 31
0.0
 11
5.15645775471756
 21
71.8959898275661
 31
0.0
 11
5.135551311057889
 21
72.34103982237635
 31
0.0
 11
5.122661966664573
 21
72.79149350010704
 31
0.0
 11
5.118253708205776
 21
73.24999999853932
 31
0.0
  0
SPLINE
  5
192
330
55
100
AcDbEntity
  8
0
  6
Continuous
 62
     7
100
AcDbSpline
210
0.0
220
0.0
230
1.0
 70
     8
 71
     3
 72
    11
 73
     7
 74
     5
 42
0.000000001
 43
0.0000000001
 44
0.00000001
 40
0.0
 40
0.0
 40
0.0
 40
0.0
 40
1.846250784009569
 40
3.587474016468727
 40
5.328572438138391
 40
7.174687906063252
 40
7.174687906063252
 40
7.174687906063252
 40
7.174687906063252
 10
-4.372805943163581
 20
69.67377643311605
 30
0.0
 10
-4.299897251999836
 20
70.28510982788656
 30
0.0
 10
-4.158227436398176
 20
71.47299973472923
 30
0.0
 10
-4.098849443387715
 20
73.25008866804724
 30
0.0
 10
-4.158240995098203
 20
75.02713155964884
 30
0.0
 10
-4.299901896595733
 20
76.21493509864385
 30
0.0
 10
-4.372805943162577
 20
76.8262235667971
 30
0.0
 11
-4.372805943163581
 21
69.67377643311605
 31
0.0
 11
-4.181013623245823
 21
71.5100383057572
 31
0.0
 11
-4.118254209185993
 21
73.25013014341079
 31
0.0
 11
-4.181023235250984
 21
74.9900967423929
 31
0.0
 11
-4.372805943162577
 21
76.8262235667971
 31
0.0
  0
SPLINE
  5
193
330
55
100
AcDbEntity
  8
0
  6
Continuous
 62
     7
100
AcDbSpline
210
0.0
220
0.0
230
1.0
 70
     8
 71
     3
 72
    11
 73
     7
 74
     5
 42
0.000000001
 43
0.0000000001
 44
0.00000001
 40
0.0
 40
0.0
 40
0.0
 40
0.0
 40
1.846116232355352
 40
3.587215383426718
 40
5.328437889086165
 40
7.174687906063182
 40
7.174687906063182
 40
7.174687906063182
 40
7.174687906063182
 10
-7.363702476020499
 20
76.8262235667971
 30
0.0
 10
-7.436606548819771
 20
76.21493484484398
 30
0.0
 10
-7.578267501623859
 20
75.02713080988678
 30
0.0
 10
-7.637658975830079
 20
73.2500876572243
 30
0.0
 10
-7.578280905179698
 20
71.47299898409827
 30
0.0
 10
-7.436611140860473
 20
70.28510957322267
 30
0.0
 10
-7.363702476019499
 20
69.67377643311607
 30
0.0
 11
-7.363702476020499
 21
76.8262235667971
 31
0.0
 11
-7.555485238233904
 21
74.99009597947565
 31
0.0
 11
-7.618254210005214
 21
73.25012864865874
 31
0.0
 11
-7.55549474145443
 21
71.51003754024275
 31
0.0
 11
-7.363702476019499
 21
69.67377643311607
 31
0.0
  0
ENDBLK
  5
57
330
55
100
AcDbEntity
  8
0
100
AcDbBlockEnd
  0
BLOCK
  5
5A
330
58
100
AcDbEntity
  8
0
100
AcDbBlockBegin
  2
Rckans1
 70
     0
 10
0.00000000016001
 20
77.49999999998028
 30
0.0
  3
Rckans1
  1

  0
INSERT
  5
59
330
58
100
AcDbEntity
  8
0
100
AcDbBlockReference
  2
G_INSEC_PG9_S68N_NNES_S-select__3
 10
-14.61825420959154
 20
68.99999999996027
 30
0.0
  0
MTEXT
  5
194
330
58
100
AcDbEntity
  8
1
 62
     6
100
AcDbMText
 10
0.00000000016001
 20
66.49999999997999
 30
0.0
 40
2.5
 41
0.0
 71
     2
 72
     1
  1
 
  7
CONVERTER_11
 73
     1
 44
1.32052821128451
  0
ENDBLK
  5
5B
330
58
100
AcDbEntity
  8
0
100
AcDbBlockEnd
  0
BLOCK
  5
5D
330
5C
100
AcDbEntity
  8
0
100
AcDbBlockBegin
  2
G_INSEC_PG9_S68N_NNES_S-select__4
 70
     0
 10
-43.51825351723096
 20
68.99999999996001
 30
0.0
  3
G_INSEC_PG9_S68N_NNES_S-select__4
  1

  0
LINE
  5
195
330
5C
100
AcDbEntity
  8
0
  6
Continuous
 62
     7
100
AcDbLine
 10
-28.77177122405874
 20
85.32622356679681
 30
0.0
 11
-24.64230394606763
 21
78.17377643312305
 31
0.0
  0
LINE
  5
196
330
5C
100
AcDbEntity
  8
0
  6
Continuous
 62
     7
100
AcDbLine
 10
-24.64230394606763
 20
76.82622356679695
 30
0.0
 11
-28.77177122405882
 21
69.67377643312304
 31
0.0
  0
LINE
  5
197
330
5C
100
AcDbEntity
  8
0
  6
Continuous
 62
     7
100
AcDbLine
 10
-29.93878623923136
 20
68.99999999996001
 30
0.0
 11
-38.197720795222
 21
68.99999999996001
 31
0.0
  0
LINE
  5
198
330
5C
100
AcDbEntity
  8
0
  6
Continuous
 62
     7
100
AcDbLine
 10
-39.36473581039888
 20
69.67377643311578
 30
0.0
 11
-43.4942030883942
 21
76.82622356679683
 31
0.0
  0
LINE
  5
199
330
5C
100
AcDbEntity
  8
0
  6
Continuous
 62
     7
100
AcDbLine
 10
-43.49420308839427
 20
78.17377643312307
 30
0.0
 11
-39.36473581044714
 21
85.32622356672064
 31
0.0
  0
LINE
  5
19A
330
5C
100
AcDbEntity
  8
0
  6
Continuous
 62
     7
100
AcDbLine
 10
-38.19772079513402
 20
85.99999999996
 30
0.0
 11
-29.93878623931057
 21
85.99999999996
 31
0.0
  0
LINE
  5
19B
330
5C
100
AcDbEntity
  8
1
  6
DOT_CENTER
 62
     2
100
AcDbLine
 10
-25.70825351723095
 20
77.49999999996
 30
0.0
 11
-42.42825351723096
 21
77.49999999996
 31
0.0
  0
LINE
  5
19C
330
5C
100
AcDbEntity
  8
1
  6
DOT_CENTER
 62
     2
100
AcDbLine
 10
-34.06825351723096
 20
85.85999999996001
 30
0.0
 11
-34.06825351723096
 21
69.13999999995998
 31
0.0
  0
ARC
  5
19D
330
5C
100
AcDbEntity
  8
0
  6
Continuous
 62
     7
100
AcDbCircle
 10
-34.06825351704349
 20
77.49999999985175
 30
0.0
 40
9.44999999998451
100
AcDbArc
 50
55.91139374752909
 51
64.0886062554745
  0
ARC
  5
19E
330
5C
100
AcDbEntity
  8
0
  6
Continuous
 62
     7
100
AcDbCircle
 10
-34.06825351723096
 20
77.49999999996
 30
0.0
 40
9.45
100
AcDbArc
 50
355.9113937462209
 51
4.08860625377922
  0
ARC
  5
19F
330
5C
100
AcDbEntity
  8
0
  6
Continuous
 62
     7
100
AcDbCircle
 10
-34.06825351725323
 20
77.49999999994714
 30
0.0
 40
9.450000000001825
100
AcDbArc
 50
295.9113937464222
 51
304.0886062539347
  0
ARC
  5
1A0
330
5C
100
AcDbEntity
  8
0
  6
Continuous
 62
     7
100
AcDbCircle
 10
-34.06825351725369
 20
77.49999999997311
 30
0.0
 40
9.450000000001783
100
AcDbArc
 50
235.9113937464254
 51
244.0886062539387
  0
ARC
  5
1A1
330
5C
100
AcDbEntity
  8
0
  6
Continuous
 62
     7
100
AcDbCircle
 10
-34.06825351723096
 20
77.49999999996
 30
0.0
 40
9.449999999999992
100
AcDbArc
 50
175.9113937462207
 51
184.0886062537799
  0
ARC
  5
1A2
330
5C
100
AcDbEntity
  8
0
  6
Continuous
 62
     7
100
AcDbCircle
 10
-34.06825351723096
 20
77.49999999996
 30
0.0
 40
9.449999999961488
100
AcDbArc
 50
115.9113937457402
 51
124.0886062542597
  0
CIRCLE
  5
1A3
330
5C
100
AcDbEntity
  8
0
  6
Continuous
 62
     7
100
AcDbCircle
 10
-34.06825351723096
 20
77.49999999996
 30
0.0
 40
7.599999999999998
  0
CIRCLE
  5
1A4
330
5C
100
AcDbEntity
  8
0
  6
Continuous
 62
     7
100
AcDbCircle
 10
-34.06825351723096
 20
77.49999999996
 30
0.0
 40
4.0
  0
CIRCLE
  5
1A5
330
5C
100
AcDbEntity
  8
0
  6
Continuous
 62
     7
100
AcDbCircle
 10
-34.06825351723096
 20
77.49999999996
 30
0.0
 40
6.882617988147246
  0
CIRCLE
  5
1A6
330
5C
100
AcDbEntity
  8
0
  6
Continuous
 62
     7
100
AcDbCircle
 10
-34.06825351723096
 20
77.49999999996
 30
0.0
 40
8.2775156121386
  0
ENDBLK
  5
5E
330
5C
100
AcDbEntity
  8
0
100
AcDbBlockEnd
  0
BLOCK
  5
61
330
5F
100
AcDbEntity
  8
0
100
AcDbBlockBegin
  2
SA_Links1
 70
     0
 10
-34.06825351719095
 20
77.49999999997999
 30
0.0
  3
SA_Links1
  1

  0
INSERT
  5
60
330
5F
100
AcDbEntity
  8
0
100
AcDbBlockReference
  2
G_INSEC_PG9_S68N_NNES_S-select__4
 10
-43.51825351723096
 20
68.99999999996001
 30
0.0
  0
MTEXT
  5
1A7
330
5F
100
AcDbEntity
  8
1
 62
     6
100
AcDbMText
 10
-34.0682535171909
 20
66.49999999997999
 30
0.0
 40
2.5
 41
0.0
 71
     2
 72
     1
  1
 
  7
CONVERTER_11
 73
     1
 44
1.32052821128451
  0
ENDBLK
  5
62
330
5F
100
AcDbEntity
  8
0
100
AcDbBlockEnd
  0
BLOCK
  5
64
330
63
100
AcDbEntity
  8
0
100
AcDbBlockBegin
  2
G_INSEC_PG9_S68N_NNES_S-select__5
 70
     0
 10
-111.6547617585356
 20
68.99999999996027
 30
0.0
  3
G_INSEC_PG9_S68N_NNES_S-select__5
  1

  0
LINE
  5
1A8
330
63
100
AcDbEntity
  8
0
  6
Continuous
 62
     7
100
AcDbLine
 10
-106.3342290364473
 20
85.99999999996028
 30
0.0
 11
-98.07529448063269
 21
85.99999999996028
 31
0.0
  0
LINE
  5
1A9
330
63
100
AcDbEntity
  8
0
  6
Continuous
 62
     7
100
AcDbLine
 10
-96.90827946531934
 20
85.32622356672078
 30
0.0
 11
-92.77881218737228
 21
78.17377643312335
 31
0.0
  0
LINE
  5
1AA
330
63
100
AcDbEntity
  8
0
  6
Continuous
 62
     7
100
AcDbLine
 10
-98.07529448054456
 20
68.99999999996027
 30
0.0
 11
-106.3342290365268
 21
68.99999999996027
 31
0.0
  0
LINE
  5
1AB
330
63
100
AcDbEntity
  8
0
  6
Continuous
 62
     7
100
AcDbLine
 10
-111.6307113296989
 20
78.17377643312335
 30
0.0
 11
-107.5012440517078
 21
85.32622356679708
 31
0.0
  0
LINE
  5
1AC
330
63
100
AcDbEntity
  8
0
  6
Continuous
 62
     7
100
AcDbLine
 10
-107.5012440517077
 20
69.67377643312332
 30
0.0
 11
-111.6307113296989
 21
76.82622356679721
 31
0.0
  0
LINE
  5
1AD
330
63
100
AcDbEntity
  8
0
  6
Continuous
 62
     7
100
AcDbLine
 10
-96.90827946536766
 20
69.67377643311605
 30
0.0
 11
-92.77881218737228
 21
76.82622356679721
 31
0.0
  0
LINE
  5
1AE
330
63
100
AcDbEntity
  8
1
  6
DOT_CENTER
 62
     2
100
AcDbLine
 10
-92.96476175853562
 20
77.49999999996028
 30
0.0
 11
-111.4447617585356
 21
77.49999999996028
 31
0.0
  0
LINE
  5
1AF
330
63
100
AcDbEntity
  8
1
  6
DOT_CENTER
 62
     2
100
AcDbLine
 10
-102.2047617585356
 20
86.73999999996028
 30
0.0
 11
-102.2047617585356
 21
68.25999999996029
 31
0.0
  0
ARC
  5
1B0
330
63
100
AcDbEntity
  8
0
  6
Continuous
 62
     7
100
AcDbCircle
 10
-102.2047617585356
 20
77.49999999996028
 30
0.0
 40
9.44999999996142
100
AcDbArc
 50
55.91139374573947
 51
64.08860625426068
  0
ARC
  5
1B1
330
63
100
AcDbEntity
  8
0
  6
Continuous
 62
     7
100
AcDbCircle
 10
-102.2047617585356
 20
77.49999999996028
 30
0.0
 40
9.449999999999992
100
AcDbArc
 50
235.911393746221
 51
244.0886062537791
  0
ARC
  5
1B2
330
63
100
AcDbEntity
  8
0
  6
Continuous
 62
     7
100
AcDbCircle
 10
-102.2047617587463
 20
77.49999999983865
 30
0.0
 40
9.449999999982593
100
AcDbArc
 50
115.911393744316
 51
124.0886062523088
  0
ARC
  5
1B3
330
63
100
AcDbEntity
  8
0
  6
Continuous
 62
     7
100
AcDbCircle
 10
-102.2047617585356
 20
77.49999999996028
 30
0.0
 40
9.449999999999992
100
AcDbArc
 50
355.9113937462207
 51
4.08860625377931
  0
ARC
  5
1B4
330
63
100
AcDbEntity
  8
0
  6
Continuous
 62
     7
100
AcDbCircle
 10
-102.2047617585356
 20
77.49999999996028
 30
0.0
 40
9.449999999999978
100
AcDbArc
 50
175.9113937462207
 51
184.0886062537793
  0
ARC
  5
1B5
330
63
100
AcDbEntity
  8
0
  6
Continuous
 62
     7
100
AcDbCircle
 10
-102.2047617585129
 20
77.4999999999734
 30
0.0
 40
9.450000000001825
100
AcDbArc
 50
295.9113937460614
 51
304.0886062535749
  0
CIRCLE
  5
1B6
330
63
100
AcDbEntity
  8
0
  6
Continuous
 62
     7
100
AcDbCircle
 10
-102.2047617585356
 20
77.49999999996028
 30
0.0
 40
3.999999999999986
  0
CIRCLE
  5
1B7
330
63
100
AcDbEntity
  8
0
  6
Continuous
 62
     2
100
AcDbCircle
 10
-102.2047617585356
 20
77.49999999996028
 30
0.0
 40
5.599999999999994
  0
CIRCLE
  5
1B8
330
63
100
AcDbEntity
  8
0
  6
Continuous
 62
     7
100
AcDbCircle
 10
-102.2047617585356
 20
77.49999999996028
 30
0.0
 40
8.399999999999991
  0
ENDBLK
  5
65
330
63
100
AcDbEntity
  8
0
100
AcDbBlockEnd
  0
BLOCK
  5
68
330
66
100
AcDbEntity
  8
0
100
AcDbBlockBegin
  2
SA_Rechts1
 70
     0
 10
-102.2047617585756
 20
77.49999999998028
 30
0.0
  3
SA_Rechts1
  1

  0
INSERT
  5
67
330
66
100
AcDbEntity
  8
0
100
AcDbBlockReference
  2
G_INSEC_PG9_S68N_NNES_S-select__5
 10
-111.6547617585356
 20
68.99999999996027
 30
0.0
  0
MTEXT
  5
1B9
330
66
100
AcDbEntity
  8
1
 62
     6
100
AcDbMText
 10
-102.2047617585756
 20
66.49999999997999
 30
0.0
 40
2.5
 41
0.0
 71
     2
 72
     1
  1
 
  7
CONVERTER_11
 73
     1
 44
1.32052821128451
  0
ENDBLK
  5
69
330
66
100
AcDbEntity
  8
0
100
AcDbBlockEnd
  0
BLOCK
  5
6B
330
6A
100
AcDbEntity
  8
0
100
AcDbBlockBegin
  2
G_INSEC_PG9_S68N_NNES_S-select__6
 70
     0
 10
-79.25476074284073
 20
68.9999999999603
 30
0.0
  3
G_INSEC_PG9_S68N_NNES_S-select__6
  1

  0
LINE
  5
1BA
330
6A
100
AcDbEntity
  8
0
  6
Continuous
 62
     7
100
AcDbLine
 10
-64.01825282471067
 20
69.0999999999603
 30
0.0
 11
-64.01825282471067
 21
69.94999999996031
 31
0.0
  0
LINE
  5
1BB
330
6A
100
AcDbEntity
  8
0
  6
Continuous
 62
     7
100
AcDbLine
 10
-66.704760742508
 20
69.94999999996031
 30
0.0
 11
-64.01825282471067
 21
69.94999999996031
 31
0.0
  0
LINE
  5
1BC
330
6A
100
AcDbEntity
  8
0
  6
Continuous
 62
     7
100
AcDbLine
 10
-69.75476074250798
 20
68.9999999999603
 30
0.0
 11
-69.75476074250798
 21
70.6199999999603
 31
0.0
  0
LINE
  5
1BD
330
6A
100
AcDbEntity
  8
0
  6
Continuous
 62
     7
100
AcDbLine
 10
-56.99145790454575
 20
69.0999999999603
 30
0.0
 11
-57.01825282394918
 21
68.99999999996032
 31
0.0
  0
LINE
  5
1BE
330
6A
100
AcDbEntity
  8
0
  6
Continuous
 62
     7
100
AcDbLine
 10
-57.01825282394918
 20
68.99999999996032
 30
0.0
 11
-57.27280455828173
 21
68.9999999999603
 31
0.0
  0
LINE
  5
1BF
330
6A
100
AcDbEntity
  8
0
  6
Continuous
 62
     7
100
AcDbLine
 10
-60.26370109113863
 20
68.9999999999603
 30
0.0
 11
-60.51825282547216
 21
68.99999999996032
 31
0.0
  0
LINE
  5
1C0
330
6A
100
AcDbEntity
  8
0
  6
Continuous
 62
     7
100
AcDbLine
 10
-57.27280455828272
 20
69.67377643311607
 30
0.0
 11
-57.27280455828173
 21
68.9999999999603
 31
0.0
  0
LINE
  5
1C1
330
6A
100
AcDbEntity
  8
0
  6
Continuous
 62
     7
100
AcDbLine
 10
-60.26370109113863
 20
68.9999999999603
 30
0.0
 11
-60.2637010911386
 21
69.67377643311579
 31
0.0
  0
LINE
  5
1C2
330
6A
100
AcDbEntity
  8
0
  6
Continuous
 62
     7
100
AcDbLine
 10
-70.00931247531756
 20
68.9999999999603
 30
0.0
 11
-69.75476074250798
 21
68.9999999999603
 31
0.0
  0
LINE
  5
1C3
330
6A
100
AcDbEntity
  8
0
  6
Continuous
 62
     7
100
AcDbLine
 10
-73.25476074250798
 20
69.2224843878217
 30
0.0
 11
-73.25476074250798
 21
69.67377643312335
 31
0.0
  0
LINE
  5
1C4
330
6A
100
AcDbEntity
  8
0
  6
Continuous
 62
     7
100
AcDbLine
 10
-73.25476074250798
 20
69.67377643312335
 30
0.0
 11
-70.00931247531756
 21
69.67377643312335
 31
0.0
  0
LINE
  5
1C5
330
6A
100
AcDbEntity
  8
0
  6
Continuous
 62
     7
100
AcDbLine
 10
-73.25476074250798
 20
68.9999999999603
 30
0.0
 11
-70.00931247531756
 21
68.9999999999603
 31
0.0
  0
LINE
  5
1C6
330
6A
100
AcDbEntity
  8
0
  6
Continuous
 62
     7
100
AcDbLine
 10
-60.54504774487559
 20
69.0999999999603
 30
0.0
 11
-60.51825282547216
 21
68.99999999996032
 31
0.0
  0
LINE
  5
1C7
330
6A
100
AcDbEntity
  8
0
  6
Continuous
 62
     7
100
AcDbLine
 10
-60.26370109113863
 20
68.9999999999603
 30
0.0
 11
-57.27280455828173
 21
68.9999999999603
 31
0.0
  0
LINE
  5
1C8
330
6A
100
AcDbEntity
  8
0
  6
Continuous
 62
     7
100
AcDbLine
 10
-60.54504774487559
 20
69.0999999999603
 30
0.0
 11
-64.01825282471067
 21
69.0999999999603
 31
0.0
  0
LINE
  5
1C9
330
6A
100
AcDbEntity
  8
0
  6
Continuous
 62
     7
100
AcDbLine
 10
-67.26695749597836
 20
70.6199999999603
 30
0.0
 11
-66.704760742508
 21
69.94999999996031
 31
0.0
  0
LINE
  5
1CA
330
6A
100
AcDbEntity
  8
0
  6
Continuous
 62
     7
100
AcDbLine
 10
-79.25476074284073
 20
70.61738201153386
 30
0.0
 11
-78.65280576029713
 21
69.8999999999603
 31
0.0
  0
LINE
  5
1CB
330
6A
100
AcDbEntity
  8
0
  6
Continuous
 62
     7
100
AcDbLine
 10
-73.25476074250798
 20
76.82622356679724
 30
0.0
 11
-73.25476074250798
 21
78.17377643312336
 31
0.0
  0
LINE
  5
1CC
330
6A
100
AcDbEntity
  8
0
  6
Continuous
 62
     7
100
AcDbLine
 10
-73.25476074250798
 20
69.67377643312335
 30
0.0
 11
-73.25476074250798
 21
76.82622356679724
 31
0.0
  0
LINE
  5
1CD
330
6A
100
AcDbEntity
  8
0
  6
Continuous
 62
     7
100
AcDbLine
 10
-73.25476074250798
 20
68.9999999999603
 30
0.0
 11
-73.25476074250798
 21
69.2224843878217
 31
0.0
  0
LINE
  5
1CE
330
6A
100
AcDbEntity
  8
0
  6
Continuous
 62
     7
100
AcDbLine
 10
-73.25476074250798
 20
78.17377643312336
 30
0.0
 11
-73.25476074250798
 21
85.32622356679724
 31
0.0
  0
LINE
  5
1CF
330
6A
100
AcDbEntity
  8
0
  6
Continuous
 62
     7
100
AcDbLine
 10
-73.728863894319
 20
77.49999999996031
 30
0.0
 11
-73.728863894319
 21
85.0999999999603
 31
0.0
  0
LINE
  5
1D0
330
6A
100
AcDbEntity
  8
0
  6
Continuous
 62
     7
100
AcDbLine
 10
-78.65280576029713
 20
77.49999999996031
 30
0.0
 11
-78.65280576029713
 21
85.0999999999603
 31
0.0
  0
LINE
  5
1D1
330
6A
100
AcDbEntity
  8
0
  6
Continuous
 62
     7
100
AcDbLine
 10
-69.75476074250798
 20
73.24999999853934
 30
0.0
 11
-69.75476074250798
 21
81.75000000138125
 31
0.0
  0
LINE
  5
1D2
330
6A
100
AcDbEntity
  8
0
  6
Continuous
 62
     7
100
AcDbLine
 10
-70.00931247531756
 20
69.67377643312335
 30
0.0
 11
-70.00931247531756
 21
68.9999999999603
 31
0.0
  0
LINE
  5
1D3
330
6A
100
AcDbEntity
  8
0
  6
Continuous
 62
     7
100
AcDbLine
 10
-70.00931247531756
 20
78.17377643312336
 30
0.0
 11
-70.00931247531756
 21
76.82622356679724
 31
0.0
  0
LINE
  5
1D4
330
6A
100
AcDbEntity
  8
0
  6
Continuous
 62
     7
100
AcDbLine
 10
-69.75476074250798
 20
70.6199999999603
 30
0.0
 11
-69.75476074250798
 21
73.24999999853934
 31
0.0
  0
LINE
  5
1D5
330
6A
100
AcDbEntity
  8
0
  6
Continuous
 62
     7
100
AcDbLine
 10
-69.75476074250798
 20
84.3799999999603
 30
0.0
 11
-69.75476074250798
 21
86.00000000280222
 31
0.0
  0
LINE
  5
1D6
330
6A
100
AcDbEntity
  8
0
  6
Continuous
 62
     7
100
AcDbLine
 10
-66.704760742508
 20
69.94999999996031
 30
0.0
 11
-66.704760742508
 21
85.0499999999603
 31
0.0
  0
LINE
  5
1D7
330
6A
100
AcDbEntity
  8
0
  6
Continuous
 62
     7
100
AcDbLine
 10
-64.01825282471067
 20
69.94999999996031
 30
0.0
 11
-64.01825282471067
 21
85.0499999999603
 31
0.0
  0
LINE
  5
1D8
330
6A
100
AcDbEntity
  8
0
  6
Continuous
 62
     7
100
AcDbLine
 10
-52.81825282471067
 20
85.8999999999603
 30
0.0
 11
-56.99145790454575
 21
85.8999999999603
 31
0.0
  0
LINE
  5
1D9
330
6A
100
AcDbEntity
  8
0
  6
Continuous
 62
     7
100
AcDbLine
 10
-52.81825282471067
 20
69.09999999996032
 30
0.0
 11
-56.99145790454575
 21
69.0999999999603
 31
0.0
  0
LINE
  5
1DA
330
6A
100
AcDbEntity
  8
0
  6
Continuous
 62
     7
100
AcDbLine
 10
-50.01825282471067
 20
71.8999999999603
 30
0.0
 11
-50.01825282471067
 21
83.0999999999603
 31
0.0
  0
LINE
  5
1DB
330
6A
100
AcDbEntity
  8
0
  6
Continuous
 62
     7
100
AcDbLine
 10
-60.26370109113962
 20
76.82622356679725
 30
0.0
 11
-60.2637010911386
 21
78.17377643311579
 31
0.0
  0
LINE
  5
1DC
330
6A
100
AcDbEntity
  8
0
  6
Continuous
 62
     7
100
AcDbLine
 10
-57.27280455828272
 20
78.17377643311609
 30
0.0
 11
-57.27280455828172
 21
76.82622356679711
 31
0.0
  0
LINE
  5
1DD
330
6A
100
AcDbEntity
  8
0
  6
Continuous
 62
     7
100
AcDbLine
 10
-60.26370109113962
 20
76.82622356679725
 30
0.0
 11
-57.27280455828172
 21
76.82622356679711
 31
0.0
  0
LINE
  5
1DE
330
6A
100
AcDbEntity
  8
0
  6
Continuous
 62
     7
100
AcDbLine
 10
-57.27280455828272
 20
69.67377643311607
 30
0.0
 11
-60.2637010911386
 21
69.67377643311579
 31
0.0
  0
LINE
  5
1DF
330
6A
100
AcDbEntity
  8
0
  6
Continuous
 62
     7
100
AcDbLine
 10
-57.27280455828272
 20
78.17377643311609
 30
0.0
 11
-60.2637010911386
 21
78.17377643311579
 31
0.0
  0
LINE
  5
1E0
330
6A
100
AcDbEntity
  8
0
  6
Continuous
 62
     7
100
AcDbLine
 10
-56.99145790454575
 20
69.0999999999603
 30
0.0
 11
-56.99145790454575
 21
85.8999999999603
 31
0.0
  0
LINE
  5
1E1
330
6A
100
AcDbEntity
  8
0
  6
Continuous
 62
     7
100
AcDbLine
 10
-60.54504774487559
 20
69.0999999999603
 30
0.0
 11
-60.54504774487559
 21
85.8999999999603
 31
0.0
  0
LINE
  5
1E2
330
6A
100
AcDbEntity
  8
0
  6
Continuous
 62
     2
100
AcDbLine
 10
-52.81825282471067
 20
69.09999999996032
 30
0.0
 11
-52.81825282471067
 21
85.8999999999603
 31
0.0
  0
LINE
  5
1E3
330
6A
100
AcDbEntity
  8
0
  6
Continuous
 62
     7
100
AcDbLine
 10
-73.25476074250798
 20
85.32622356679724
 30
0.0
 11
-73.25476074250798
 21
85.77751561209891
 31
0.0
  0
LINE
  5
1E4
330
6A
100
AcDbEntity
  8
0
  6
Continuous
 62
     7
100
AcDbLine
 10
-67.26695749597836
 20
84.3799999999603
 30
0.0
 11
-66.704760742508
 21
85.0499999999603
 31
0.0
  0
LINE
  5
1E5
330
6A
100
AcDbEntity
  8
0
  6
Continuous
 62
     7
100
AcDbLine
 10
-78.65280576029713
 20
85.0999999999603
 30
0.0
 11
-73.728863894319
 21
85.0999999999603
 31
0.0
  0
LINE
  5
1E6
330
6A
100
AcDbEntity
  8
0
  6
Continuous
 62
     7
100
AcDbLine
 10
-79.25476074284073
 20
84.38261798838676
 30
0.0
 11
-78.65280576029713
 21
85.0999999999603
 31
0.0
  0
LINE
  5
1E7
330
6A
100
AcDbEntity
  8
0
  6
Continuous
 62
     7
100
AcDbLine
 10
-78.65280576029713
 20
69.8999999999603
 30
0.0
 11
-73.728863894319
 21
69.8999999999603
 31
0.0
  0
LINE
  5
1E8
330
6A
100
AcDbEntity
  8
0
  6
Continuous
 62
     7
100
AcDbLine
 10
-73.728863894319
 20
69.8999999999603
 30
0.0
 11
-73.728863894319
 21
77.49999999996031
 31
0.0
  0
LINE
  5
1E9
330
6A
100
AcDbEntity
  8
0
  6
Continuous
 62
     7
100
AcDbLine
 10
-78.65280576029713
 20
69.8999999999603
 30
0.0
 11
-78.65280576029713
 21
77.49999999996031
 31
0.0
  0
LINE
  5
1EA
330
6A
100
AcDbEntity
  8
0
  6
Continuous
 62
     7
100
AcDbLine
 10
-79.25476074284073
 20
84.38261798838676
 30
0.0
 11
-79.25476074284073
 21
70.61738201153386
 31
0.0
  0
LINE
  5
1EB
330
6A
100
AcDbEntity
  8
0
  6
Continuous
 62
     7
100
AcDbLine
 10
-69.75476074250798
 20
81.75000000138125
 30
0.0
 11
-69.75476074250798
 21
84.3799999999603
 31
0.0
  0
LINE
  5
1EC
330
6A
100
AcDbEntity
  8
0
  6
Continuous
 62
     7
100
AcDbLine
 10
-69.75476074250798
 20
84.3799999999603
 30
0.0
 11
-67.26695749597836
 21
84.3799999999603
 31
0.0
  0
LINE
  5
1ED
330
6A
100
AcDbEntity
  8
0
  6
Continuous
 62
     7
100
AcDbLine
 10
-73.25476074250798
 20
78.17377643312336
 30
0.0
 11
-70.00931247531756
 21
78.17377643312336
 31
0.0
  0
LINE
  5
1EE
330
6A
100
AcDbEntity
  8
0
  6
Continuous
 62
     7
100
AcDbLine
 10
-67.26695749597836
 20
84.3799999999603
 30
0.0
 11
-67.26695749597836
 21
77.49999999996031
 31
0.0
  0
LINE
  5
1EF
330
6A
100
AcDbEntity
  8
0
  6
Continuous
 62
     7
100
AcDbLine
 10
-69.75476074250798
 20
70.6199999999603
 30
0.0
 11
-67.26695749597836
 21
70.6199999999603
 31
0.0
  0
LINE
  5
1F0
330
6A
100
AcDbEntity
  8
0
  6
Continuous
 62
     7
100
AcDbLine
 10
-73.25476074250798
 20
76.82622356679724
 30
0.0
 11
-70.00931247531756
 21
76.82622356679724
 31
0.0
  0
LINE
  5
1F1
330
6A
100
AcDbEntity
  8
0
  6
Continuous
 62
     7
100
AcDbLine
 10
-67.26695749597836
 20
77.49999999996031
 30
0.0
 11
-67.26695749597836
 21
70.6199999999603
 31
0.0
  0
LINE
  5
1F2
330
6A
100
AcDbEntity
  8
0
  6
Continuous
 62
     7
100
AcDbLine
 10
-64.01825282471067
 20
85.0499999999603
 30
0.0
 11
-64.01825282471067
 21
85.8999999999603
 31
0.0
  0
LINE
  5
1F3
330
6A
100
AcDbEntity
  8
0
  6
Continuous
 62
     7
100
AcDbLine
 10
-66.704760742508
 20
85.0499999999603
 30
0.0
 11
-64.01825282471067
 21
85.0499999999603
 31
0.0
  0
LINE
  5
1F4
330
6A
100
AcDbEntity
  8
0
  6
Continuous
 62
     7
100
AcDbLine
 10
-57.27280455827241
 20
85.99999999996031
 30
0.0
 11
-57.27280455828171
 21
85.32622356679711
 31
0.0
  0
LINE
  5
1F5
330
6A
100
AcDbEntity
  8
0
  6
Continuous
 62
     7
100
AcDbLine
 10
-60.26370109113964
 20
85.32622356679711
 30
0.0
 11
-60.26370109114791
 21
85.99999999996031
 31
0.0
  0
LINE
  5
1F6
330
6A
100
AcDbEntity
  8
0
  6
Continuous
 62
     7
100
AcDbLine
 10
-57.27280455827241
 20
85.99999999996031
 30
0.0
 11
-57.01825282394918
 21
85.99999999996031
 31
0.0
  0
LINE
  5
1F7
330
6A
100
AcDbEntity
  8
0
  6
Continuous
 62
     7
100
AcDbLine
 10
-60.54504774487559
 20
85.8999999999603
 30
0.0
 11
-60.51825282547216
 21
85.99999999996031
 31
0.0
  0
LINE
  5
1F8
330
6A
100
AcDbEntity
  8
0
  6
Continuous
 62
     7
100
AcDbLine
 10
-60.51825282547216
 20
85.99999999996031
 30
0.0
 11
-60.26370109114791
 21
85.99999999996031
 31
0.0
  0
LINE
  5
1F9
330
6A
100
AcDbEntity
  8
0
  6
Continuous
 62
     7
100
AcDbLine
 10
-69.75476074250798
 20
86.00000000280222
 30
0.0
 11
-70.00931247531756
 21
85.99999999996031
 31
0.0
  0
LINE
  5
1FA
330
6A
100
AcDbEntity
  8
0
  6
Continuous
 62
     7
100
AcDbLine
 10
-73.25476074250798
 20
85.99999999996031
 30
0.0
 11
-70.00931247531756
 21
85.99999999996031
 31
0.0
  0
LINE
  5
1FB
330
6A
100
AcDbEntity
  8
0
  6
Continuous
 62
     7
100
AcDbLine
 10
-73.25476074250798
 20
85.77751561209891
 30
0.0
 11
-73.25476074250798
 21
85.99999999996031
 31
0.0
  0
LINE
  5
1FC
330
6A
100
AcDbEntity
  8
0
  6
Continuous
 62
     7
100
AcDbLine
 10
-70.00931247531756
 20
85.99999999996031
 30
0.0
 11
-70.00931247531756
 21
85.32622356679724
 31
0.0
  0
LINE
  5
1FD
330
6A
100
AcDbEntity
  8
0
  6
Continuous
 62
     7
100
AcDbLine
 10
-73.25476074250798
 20
85.32622356679724
 30
0.0
 11
-70.00931247531756
 21
85.32622356679724
 31
0.0
  0
LINE
  5
1FE
330
6A
100
AcDbEntity
  8
0
  6
Continuous
 62
     7
100
AcDbLine
 10
-60.26370109113964
 20
85.32622356679711
 30
0.0
 11
-57.27280455828171
 21
85.32622356679711
 31
0.0
  0
LINE
  5
1FF
330
6A
100
AcDbEntity
  8
0
  6
Continuous
 62
     7
100
AcDbLine
 10
-56.99145790454575
 20
85.8999999999603
 30
0.0
 11
-57.01825282394918
 21
85.99999999996031
 31
0.0
  0
LINE
  5
200
330
6A
100
AcDbEntity
  8
0
  6
Continuous
 62
     7
100
AcDbLine
 10
-57.27280455827241
 20
85.99999999996031
 30
0.0
 11
-60.26370109114791
 21
85.99999999996031
 31
0.0
  0
LINE
  5
201
330
6A
100
AcDbEntity
  8
0
  6
Continuous
 62
     7
100
AcDbLine
 10
-60.54504774487559
 20
85.8999999999603
 30
0.0
 11
-64.01825282471067
 21
85.8999999999603
 31
0.0
  0
LINE
  5
202
330
6A
100
AcDbEntity
  8
1
  6
DOT_CENTER
 62
     2
100
AcDbLine
 10
-79.25476074284076
 20
77.49999999996035
 30
0.0
 11
-73.6871756265318
 21
77.49999999995995
 31
0.0
  0
LINE
  5
203
330
6A
100
AcDbEntity
  8
1
  6
DOT_CENTER
 62
     2
100
AcDbLine
 10
-52.81825282471073
 20
77.49999999995998
 30
0.0
 11
-57.01825282394949
 21
77.4999999999592
 31
0.0
  0
LINE
  5
204
330
6A
100
AcDbEntity
  8
1
  6
DOT_CENTER
 62
     2
100
AcDbLine
 10
-69.7547607425077
 20
77.49999999995998
 30
0.0
 11
-60.51825282547173
 21
77.49999999995944
 31
0.0
  0
ARC
  5
205
330
6A
100
AcDbEntity
  8
0
  6
Continuous
 62
     7
100
AcDbCircle
 10
-72.97913060840995
 20
69.91999999996031
 30
0.0
 40
0.7499999999999969
100
AcDbArc
 50
181.5280685946115
 51
248.4380600782419
  0
ARC
  5
206
330
6A
100
AcDbEntity
  8
0
  6
Continuous
 62
     7
100
AcDbCircle
 10
-52.81825282471067
 20
71.8999999999603
 30
0.0
 40
2.799999999999983
100
AcDbArc
 50
270.0
 51
0.0
  0
ARC
  5
207
330
6A
100
AcDbEntity
  8
0
  6
Continuous
 62
     7
100
AcDbCircle
 10
-72.97913060840995
 20
85.07999999996031
 30
0.0
 40
0.7499999999999939
100
AcDbArc
 50
111.5619399217585
 51
178.4719314053895
  0
ARC
  5
208
330
6A
100
AcDbEntity
  8
0
  6
Continuous
 62
     7
100
AcDbCircle
 10
-52.81825282471067
 20
83.09999999996032
 30
0.0
 40
2.799999999999997
100
AcDbArc
 50
359.9999999999997
 51
90.0
  0
SPLINE
  5
209
330
6A
100
AcDbEntity
  8
0
  6
Continuous
 62
     7
100
AcDbSpline
210
0.0
220
0.0
230
1.0
 70
     8
 71
     3
 72
    15
 73
    11
 74
     9
 42
0.000000001
 43
0.0000000001
 44
0.00000001
 40
0.0
 40
0.0
 40
0.0
 40
0.0
 40
0.4544813156457189
 40
0.903027008425673
 40
1.347619492709258
 40
1.790314663218866
 40
2.233273083050684
 40
2.67881385231683
 40
3.12945190117392
 40
3.587979592757334
 40
3.587979592757334
 40
3.587979592757334
 40
3.587979592757334
 10
-70.00931247531756
 20
76.82622356679724
 30
0.0
 10
-69.98959870100644
 20
76.67601537077651
 30
0.0
 10
-69.95042863294172
 20
76.37756072794235
 30
0.0
 10
-69.90005966379442
 20
75.93116290322067
 30
0.0
 10
-69.85646885728997
 20
75.48800856814596
 30
0.0
 10
-69.82033513979839
 20
75.04604714238832
 30
0.0
 10
-69.79157605295363
 20
74.60322463738304
 30
0.0
 10
-69.7707283641195
 20
74.1573143156344
 30
0.0
 10
-69.75728714361736
 20
73.70590503515587
 30
0.0
 10
-69.75560772924183
 20
73.40284498498923
 30
0.0
 10
-69.75476074250798
 20
73.24999999853934
 30
0.0
 11
-70.00931247531756
 21
76.82622356679724
 31
0.0
 11
-69.9515435980666
 21
76.37542868765095
 31
0.0
 11
-69.90098063280841
 21
75.92974199821901
 31
0.0
 11
-69.85762521350739
 21
75.48726851335138
 31
0.0
 11
-69.82157243249985
 21
75.04604384143045
 31
0.0
 11
-69.79296478901976
 21
74.60401017235449
 31
0.0
 11
-69.77205834536011
 21
74.15896017754423
 31
0.0
 11
-69.75916900096678
 21
73.70850649945831
 31
0.0
 11
-69.75476074250798
 21
73.24999999853934
 31
0.0
  0
SPLINE
  5
20A
330
6A
100
AcDbEntity
  8
0
  6
Continuous
 62
     7
100
AcDbSpline
210
0.0
220
0.0
230
1.0
 70
     8
 71
     3
 72
    15
 73
    11
 74
     9
 42
0.000000001
 43
0.0000000001
 44
0.00000001
 40
0.0
 40
0.0
 40
0.0
 40
0.0
 40
0.4585276890968428
 40
0.9091657375988489
 40
1.35470650686498
 40
1.797664926696799
 40
2.240360097206423
 40
2.684952581490006
 40
3.13349827426996
 40
3.587979589915679
 40
3.587979589915679
 40
3.587979589915679
 40
3.587979589915679
 10
-69.75476074250798
 20
73.24999999853934
 30
0.0
 10
-69.75560772924746
 20
73.09715501291838
 30
0.0
 10
-69.75728714363801
 20
72.79409496369917
 30
0.0
 10
-69.77072836412766
 20
72.342685684168
 30
0.0
 10
-69.7915760529529
 20
71.89677536253754
 30
0.0
 10
-69.82033513979856
 20
71.45395285753227
 30
0.0
 10
-69.85646885728995
 20
71.01199143177467
 30
0.0
 10
-69.9000596637944
 20
70.56883709669991
 30
0.0
 10
-69.95042863294174
 20
70.12243927197824
 30
0.0
 10
-69.98959870100643
 20
69.82398462914406
 30
0.0
 10
-70.00931247531756
 20
69.67377643312335
 30
0.0
 11
-69.75476074250798
 21
73.24999999853934
 31
0.0
 11
-69.75916900096678
 21
72.79149350010705
 31
0.0
 11
-69.77205834536011
 21
72.34103982237636
 31
0.0
 11
-69.79296478901975
 21
71.89598982756611
 31
0.0
 11
-69.82157243249985
 21
71.45395615849016
 31
0.0
 11
-69.8576252135074
 21
71.01273148656921
 31
0.0
 11
-69.90098063280841
 21
70.57025800170157
 31
0.0
 11
-69.9515435980666
 21
70.12457131226964
 31
0.0
 11
-70.00931247531756
 21
69.67377643312335
 31
0.0
  0
SPLINE
  5
20B
330
6A
100
AcDbEntity
  8
0
  6
Continuous
 62
     7
100
AcDbSpline
210
0.0
220
0.0
230
1.0
 70
     8
 71
     3
 72
    15
 73
    11
 74
     9
 42
0.000000001
 43
0.0000000001
 44
0.00000001
 40
0.0
 40
0.0
 40
0.0
 40
0.0
 40
0.4585276915833858
 40
0.9091657404405037
 40
1.354706509706622
 40
1.797664929538453
 40
2.240360100048076
 40
2.684952584331646
 40
3.133498277111586
 40
3.587979592757319
 40
3.587979592757319
 40
3.587979592757319
 40
3.587979592757319
 10
-69.75476074250798
 20
81.75000000138125
 30
0.0
 10
-69.75560772924185
 20
81.59715501493136
 30
0.0
 10
-69.75728714361735
 20
81.29409496476475
 30
0.0
 10
-69.7707283641195
 20
80.84268568428618
 30
0.0
 10
-69.79157605295363
 20
80.39677536253755
 30
0.0
 10
-69.82033513979839
 20
79.9539528575323
 30
0.0
 10
-69.85646885728994
 20
79.51199143177463
 30
0.0
 10
-69.90005966379441
 20
79.06883709669997
 30
0.0
 10
-69.95042863294172
 20
78.62243927197821
 30
0.0
 10
-69.98959870100644
 20
78.3239846291441
 30
0.0
 10
-70.00931247531756
 20
78.17377643312336
 30
0.0
 11
-69.75476074250798
 21
81.75000000138125
 31
0.0
 11
-69.75916900096678
 21
81.29149350046231
 31
0.0
 11
-69.77205834536011
 21
80.84103982237636
 31
0.0
 11
-69.79296478901978
 21
80.39598982756613
 31
0.0
 11
-69.82157243249985
 21
79.95395615849016
 31
0.0
 11
-69.85762521350739
 21
79.51273148656921
 31
0.0
 11
-69.90098063280841
 21
79.07025800170159
 31
0.0
 11
-69.9515435980666
 21
78.62457131226967
 31
0.0
 11
-70.00931247531756
 21
78.17377643312336
 31
0.0
  0
SPLINE
  5
20C
330
6A
100
AcDbEntity
  8
0
  6
Continuous
 62
     7
100
AcDbSpline
210
0.0
220
0.0
230
1.0
 70
     8
 71
     3
 72
    15
 73
    11
 74
     9
 42
0.000000001
 43
0.0000000001
 44
0.00000001
 40
0.0
 40
0.0
 40
0.0
 40
0.0
 40
0.4544813156457488
 40
0.9030270084256873
 40
1.347619492709258
 40
1.790314663218866
 40
2.233273083050713
 40
2.678813852316831
 40
3.129451900818823
 40
3.58797958991568
 40
3.58797958991568
 40
3.58797958991568
 40
3.58797958991568
 10
-70.00931247531756
 20
85.32622356679724
 30
0.0
 10
-69.98959870100643
 20
85.1760153707765
 30
0.0
 10
-69.95042863294171
 20
84.87756072794237
 30
0.0
 10
-69.90005966379441
 20
84.43116290322064
 30
0.0
 10
-69.85646885728991
 20
83.98800856814594
 30
0.0
 10
-69.82033513979859
 20
83.54604714238835
 30
0.0
 10
-69.7915760529529
 20
83.10322463738302
 30
0.0
 10
-69.7707283641277
 20
82.65731431575259
 30
0.0
 10
-69.757287143638
 20
82.20590503622142
 30
0.0
 10
-69.75560772924747
 20
81.90284498700223
 30
0.0
 10
-69.75476074250798
 20
81.75000000138125
 30
0.0
 11
-70.00931247531756
 21
85.32622356679724
 31
0.0
 11
-69.95154359806659
 21
84.87542868765092
 31
0.0
 11
-69.90098063280841
 21
84.429741998219
 31
0.0
 11
-69.85762521350739
 21
83.98726851335138
 31
0.0
 11
-69.82157243249985
 21
83.54604384143045
 31
0.0
 11
-69.79296478901976
 21
83.10401017235446
 31
0.0
 11
-69.77205834536011
 21
82.65896017754423
 31
0.0
 11
-69.75916900096678
 21
82.20850649981355
 31
0.0
 11
-69.75476074250798
 21
81.75000000138125
 31
0.0
  0
SPLINE
  5
20D
330
6A
100
AcDbEntity
  8
0
  6
Continuous
 62
     7
100
AcDbSpline
210
0.0
220
0.0
230
1.0
 70
     8
 71
     3
 72
    11
 73
     7
 74
     5
 42
0.000000001
 43
0.0000000001
 44
0.00000001
 40
0.0
 40
0.0
 40
0.0
 40
0.0
 40
1.84625001698015
 40
3.587472522636478
 40
5.32857167370756
 40
7.174687906063184
 40
7.174687906063184
 40
7.174687906063184
 40
7.174687906063184
 10
-57.27280455828272
 20
78.17377643311609
 30
0.0
 10
-57.19989589344166
 20
78.78510957322374
 30
0.0
 10
-57.05822612912243
 20
79.97299898409929
 30
0.0
 10
-56.99884805847216
 20
81.7500876572253
 30
0.0
 10
-57.05823953267834
 20
83.52713080988673
 30
0.0
 10
-57.19990048548241
 20
84.71493484484391
 30
0.0
 10
-57.27280455828171
 20
85.32622356679711
 30
0.0
 11
-57.27280455828272
 21
78.17377643311609
 31
0.0
 11
-57.08101229284757
 21
80.01003754024589
 31
0.0
 11
-57.01825282429699
 21
81.75012864865877
 31
0.0
 11
-57.08102179606828
 21
83.4900959794754
 31
0.0
 11
-57.27280455828171
 21
85.32622356679711
 31
0.0
  0
SPLINE
  5
20E
330
6A
100
AcDbEntity
  8
0
  6
Continuous
 62
     7
100
AcDbSpline
210
0.0
220
0.0
230
1.0
 70
     8
 71
     3
 72
    11
 73
     7
 74
     5
 42
0.000000001
 43
0.0000000001
 44
0.00000001
 40
0.0
 40
0.0
 40
0.0
 40
0.0
 40
1.846115467926513
 40
3.587213889594653
 40
5.32843712205216
 40
7.174687906063666
 40
7.174687906063666
 40
7.174687906063666
 40
7.174687906063666
 10
-60.26370109113962
 20
76.82622356679725
 30
0.0
 10
-60.33660513770652
 20
76.21493509864345
 30
0.0
 10
-60.47826603920407
 20
75.0271315596484
 30
0.0
 10
-60.53765759091446
 20
73.25008866804731
 30
0.0
 10
-60.47827959790408
 20
71.47299973472971
 30
0.0
 10
-60.33660978230242
 20
70.28510982788696
 30
0.0
 10
-60.2637010911386
 20
69.67377643311579
 30
0.0
 11
-60.26370109113962
 21
76.82622356679725
 31
0.0
 11
-60.45548379905134
 21
74.9900967423914
 31
0.0
 11
-60.51825282511622
 21
73.25013014341081
 31
0.0
 11
-60.45549341105651
 21
71.51003830575888
 31
0.0
 11
-60.2637010911386
 21
69.67377643311579
 31
0.0
  0
SPLINE
  5
20F
330
6A
100
AcDbEntity
  8
0
  6
Continuous
 62
     7
100
AcDbSpline
210
0.0
220
0.0
230
1.0
 70
     8
 71
     3
 72
    11
 73
     7
 74
     5
 42
0.000000001
 43
0.0000000001
 44
0.00000001
 40
0.0
 40
0.0
 40
0.0
 40
0.0
 40
1.846250016977288
 40
3.587472522636493
 40
5.328571673707247
 40
7.174687906063199
 40
7.174687906063199
 40
7.174687906063199
 40
7.174687906063199
 10
-57.27280455828272
 20
69.67377643311607
 30
0.0
 10
-57.19989589344173
 20
70.28510957322277
 30
0.0
 10
-57.05822612912251
 20
71.47299898409835
 30
0.0
 10
-56.99884805847213
 20
73.25008765722421
 30
0.0
 10
-57.05823953267836
 20
75.02713080988663
 30
0.0
 10
-57.19990048548241
 20
76.2149348448438
 30
0.0
 10
-57.27280455828172
 20
76.82622356679711
 30
0.0
 11
-57.27280455828272
 21
69.67377643311607
 31
0.0
 11
-57.08101229284777
 21
71.51003754024302
 31
0.0
 11
-57.01825282429699
 21
73.25012864865877
 31
0.0
 11
-57.08102179606826
 21
74.99009597947507
 31
0.0
 11
-57.27280455828172
 21
76.82622356679711
 31
0.0
  0
SPLINE
  5
210
330
6A
100
AcDbEntity
  8
0
  6
Continuous
 62
     7
100
AcDbSpline
210
0.0
220
0.0
230
1.0
 70
     8
 71
     3
 72
    11
 73
     7
 74
     5
 42
0.000000001
 43
0.0000000001
 44
0.00000001
 40
0.0
 40
0.0
 40
0.0
 40
0.0
 40
1.846115467925261
 40
3.587213889594511
 40
5.328437122049468
 40
7.174687906063524
 40
7.174687906063524
 40
7.174687906063524
 40
7.174687906063524
 10
-60.26370109113964
 20
85.32622356679711
 30
0.0
 10
-60.33660513770652
 20
84.71493509864375
 30
0.0
 10
-60.47826603920402
 20
83.52713155964868
 30
0.0
 10
-60.53765759091445
 20
81.75008866804856
 30
0.0
 10
-60.47827959790416
 20
79.97299973473056
 30
0.0
 10
-60.3366097823025
 20
78.78510982788781
 30
0.0
 10
-60.2637010911386
 20
78.17377643311579
 30
0.0
 11
-60.26370109113964
 21
85.32622356679711
 31
0.0
 11
-60.45548379905127
 21
83.49009674239251
 31
0.0
 11
-60.51825282511622
 21
81.75013014341081
 31
0.0
 11
-60.45549341105669
 21
80.01003830576143
 31
0.0
 11
-60.2637010911386
 21
78.17377643311579
 31
0.0
  0
ENDBLK
  5
6C
330
6A
100
AcDbEntity
  8
0
100
AcDbBlockEnd
  0
BLOCK
  5
6F
330
6D
100
AcDbEntity
  8
0
100
AcDbBlockBegin
  2
Vordans1
 70
     0
 10
-64.63650703446223
 20
77.4999999999803
 30
0.0
  3
Vordans1
  1

  0
INSERT
  5
6E
330
6D
100
AcDbEntity
  8
0
100
AcDbBlockReference
  2
G_INSEC_PG9_S68N_NNES_S-select__6
 10
-79.25476074284073
 20
68.9999999999603
 30
0.0
  0
MTEXT
  5
211
330
6D
100
AcDbEntity
  8
1
 62
     6
100
AcDbMText
 10
-64.63650703446189
 20
66.49999999997999
 30
0.0
 40
2.5
 41
0.0
 71
     2
 72
     1
  1
 
  7
CONVERTER_11
 73
     1
 44
1.32052821128451
  0
DIMENSION
  5
21C
330
6D
100
AcDbEntity
  8
1
100
AcDbDimension
  2
*D18
 10
-79.25476074284073
 20
63.29258876789856
 30
0.0
 11
-64.63650703446193
 21
65.00508876789856
 31
0.0
 70
    32
  1
<>
 71
     5
 42
-1.0
 53
0.00013888888889
  3
ME10_DIM_11
100
AcDbAlignedDimension
 13
-50.01825282471067
 23
71.8999999999603
 33
0.0
 14
-79.25476074284073
 24
70.61738201153386
 34
0.0
100
AcDbRotatedDimension
  0
DIMENSION
  5
227
330
6D
100
AcDbEntity
  8
1
100
AcDbDimension
  2
*D19
 10
-83.08858987493252
 20
68.9999999999603
 30
0.0
 11
-84.71358987493252
 21
77.85547540941506
 31
0.0
 70
    32
  1
<>
 71
     5
 42
-1.0
 53
90.0
  3
ME10_DIM_12
100
AcDbAlignedDimension
 13
-60.26370109114791
 23
85.99999999996031
 33
0.0
 14
-60.26370109113863
 24
68.9999999999603
 34
0.0
 50
90.0
100
AcDbRotatedDimension
  0
ENDBLK
  5
70
330
6D
100
AcDbEntity
  8
0
100
AcDbBlockEnd
  0
BLOCK
  5
72
330
71
100
AcDbEntity
  8
0
100
AcDbBlockBegin
  2
_rahmen
 70
     0
 10
47.05092441554181
 20
0.41476313923056
 30
0.0
  3
_rahmen
  1

  0
LINE
  5
228
330
71
100
AcDbEntity
  8
1
  6
Continuous
 62
     6
100
AcDbLine
 10
-82.4938801112082
 20
30.91476313923067
 30
0.0
 11
47.05092441554351
 21
30.91476313923067
 31
0.0
  0
LINE
  5
229
330
71
100
AcDbEntity
  8
1
  6
Continuous
 62
     7
100
AcDbLine
 10
-64.29388011120818
 20
9.66476313923067
 30
0.0
 11
-46.09388011120828
 21
9.66476313923067
 31
0.0
  0
LINE
  5
22A
330
71
100
AcDbEntity
  8
1
  6
Continuous
 62
     6
100
AcDbLine
 10
-64.29388011120818
 20
5.41476313923067
 30
0.0
 11
-82.4938801112082
 21
5.41476313923056
 31
0.0
  0
LINE
  5
22B
330
71
100
AcDbEntity
  8
1
  6
Continuous
 62
     7
100
AcDbLine
 10
-64.29388011120818
 20
9.66476313923067
 30
0.0
 11
-64.29388011120818
 21
5.41476313923067
 31
0.0
  0
LINE
  5
22C
330
71
100
AcDbEntity
  8
1
  6
Continuous
 62
     7
100
AcDbLine
 10
-46.09388011120828
 20
9.66476313923067
 30
0.0
 11
-46.09388011120828
 21
5.41476313923056
 31
0.0
  0
LINE
  5
22D
330
71
100
AcDbEntity
  8
1
  6
Continuous
 62
     7
100
AcDbLine
 10
-82.4938801112082
 20
9.66476313923056
 30
0.0
 11
-82.4938801112082
 21
5.41476313923056
 31
0.0
  0
LINE
  5
22E
330
71
100
AcDbEntity
  8
1
  6
Continuous
 62
     7
100
AcDbLine
 10
-82.4938801112082
 20
9.66476313923056
 30
0.0
 11
-64.29388011120818
 21
9.66476313923067
 31
0.0
  0
LINE
  5
22F
330
71
100
AcDbEntity
  8
1
  6
Continuous
 62
     2
100
AcDbLine
 10
-73.2572252246456
 20
29.03976313923059
 30
0.0
 11
-73.2572252246456
 21
24.03976313923059
 31
0.0
  0
LINE
  5
230
330
71
100
AcDbEntity
  8
1
  6
Continuous
 62
     2
100
AcDbLine
 10
-73.2572252246456
 20
24.03976313923059
 30
0.0
 11
-78.2572252246456
 21
25.28976313923059
 31
0.0
  0
LINE
  5
231
330
71
100
AcDbEntity
  8
1
  6
Continuous
 62
     2
100
AcDbLine
 10
-78.2572252246456
 20
25.28976313923059
 30
0.0
 11
-78.2572252246456
 21
27.78976313923059
 31
0.0
  0
LINE
  5
232
330
71
100
AcDbEntity
  8
1
  6
Continuous
 62
     2
100
AcDbLine
 10
-78.2572252246456
 20
27.78976313923059
 30
0.0
 11
-73.2572252246456
 21
29.03976313923059
 31
0.0
  0
LINE
  5
233
330
71
100
AcDbEntity
  8
1
  6
Continuous
 62
     6
100
AcDbLine
 10
-204.9490755844564
 20
5.41476313923067
 30
0.0
 11
-239.9490755844563
 21
5.41476313923067
 31
0.0
  0
LINE
  5
234
330
71
100
AcDbEntity
  8
1
  6
Continuous
 62
     6
100
AcDbLine
 10
47.05092441554351
 20
22.41476313923067
 30
0.0
 11
47.05092441554311
 21
13.91476313923067
 31
0.0
  0
LINE
  5
235
330
71
100
AcDbEntity
  8
1
  6
Continuous
 62
     6
100
AcDbLine
 10
-46.09388011120828
 20
5.41476313923056
 30
0.0
 11
-46.4490755844582
 21
5.41476313923067
 31
0.0
  0
LINE
  5
236
330
71
100
AcDbEntity
  8
1
  6
Continuous
 62
     6
100
AcDbLine
 10
-198.7490755844584
 20
5.41476313923056
 30
0.0
 11
-204.9490755844564
 21
5.41476313923067
 31
0.0
  0
LINE
  5
237
330
71
100
AcDbEntity
  8
1
  6
Continuous
 62
     7
100
AcDbLine
 10
-46.09388011120828
 20
22.41476313923067
 30
0.0
 11
-46.09388011120828
 21
9.66476313923067
 31
0.0
  0
LINE
  5
238
330
71
100
AcDbEntity
  8
1
  6
Continuous
 62
     7
100
AcDbLine
 10
-82.4938801112082
 20
22.41476313923067
 30
0.0
 11
-82.4938801112082
 21
9.66476313923056
 31
0.0
  0
LINE
  5
239
330
71
100
AcDbEntity
  8
1
  6
Continuous
 62
     6
100
AcDbLine
 10
-96.44907558445817
 20
5.41476313923067
 30
0.0
 11
-146.4490755844584
 21
5.41476313923067
 31
0.0
  0
LINE
  5
23A
330
71
100
AcDbEntity
  8
1
  6
Continuous
 62
     6
100
AcDbLine
 10
-198.7490755844584
 20
5.41476313923056
 30
0.0
 11
-196.4490755844582
 21
5.41476313923067
 31
0.0
  0
LINE
  5
23B
330
71
100
AcDbEntity
  8
1
  6
Continuous
 62
     6
100
AcDbLine
 10
-46.09388011120828
 20
5.41476313923056
 30
0.0
 11
3.5509244155418
 21
5.41476313923067
 31
0.0
  0
LINE
  5
23C
330
71
100
AcDbEntity
  8
1
  6
Continuous
 62
     6
100
AcDbLine
 10
47.05092441554181
 20
5.41476313923067
 30
0.0
 11
47.05092441554311
 21
13.91476313923067
 31
0.0
  0
LINE
  5
23D
330
71
100
AcDbEntity
  8
1
  6
Continuous
 62
     2
100
AcDbLine
 10
-244.9490755844573
 20
5.41476313923067
 30
0.0
 11
-244.9490755844573
 21
0.41476313923056
 31
0.0
  0
LINE
  5
23E
330
71
100
AcDbEntity
  8
1
  6
Continuous
 62
     2
100
AcDbLine
 10
-239.9490755844563
 20
5.41476313923067
 30
0.0
 11
-244.9490755844573
 21
5.41476313923067
 31
0.0
  0
LINE
  5
23F
330
71
100
AcDbEntity
  8
1
  6
Continuous
 62
     2
100
AcDbLine
 10
-239.9490755844563
 20
0.41476313923056
 30
0.0
 11
-196.4490755844582
 21
0.41476313923056
 31
0.0
  0
LINE
  5
240
330
71
100
AcDbEntity
  8
1
  6
Continuous
 62
     2
100
AcDbLine
 10
-239.9490755844563
 20
5.41476313923067
 30
0.0
 11
-239.9490755844563
 21
0.41476313923056
 31
0.0
  0
LINE
  5
241
330
71
100
AcDbEntity
  8
1
  6
Continuous
 62
     2
100
AcDbLine
 10
3.5509244155418
 20
0.41476313923056
 30
0.0
 11
-46.4490755844582
 21
0.41476313923056
 31
0.0
  0
LINE
  5
242
330
71
100
AcDbEntity
  8
1
  6
Continuous
 62
     2
100
AcDbLine
 10
3.5509244155418
 20
0.41476313923056
 30
0.0
 11
3.5509244155418
 21
5.41476313923067
 31
0.0
  0
LINE
  5
243
330
71
100
AcDbEntity
  8
1
  6
Continuous
 62
     2
100
AcDbLine
 10
-46.4490755844582
 20
0.41476313923056
 30
0.0
 11
-46.4490755844582
 21
5.41476313923067
 31
0.0
  0
LINE
  5
244
330
71
100
AcDbEntity
  8
1
  6
Continuous
 62
     2
100
AcDbLine
 10
-96.44907558445817
 20
0.41476313923056
 30
0.0
 11
-46.4490755844582
 21
0.41476313923056
 31
0.0
  0
LINE
  5
245
330
71
100
AcDbEntity
  8
1
  6
Continuous
 62
     2
100
AcDbLine
 10
-96.44907558445817
 20
0.41476313923056
 30
0.0
 11
-96.44907558445817
 21
5.41476313923067
 31
0.0
  0
LINE
  5
246
330
71
100
AcDbEntity
  8
1
  6
Continuous
 62
     2
100
AcDbLine
 10
-146.4490755844584
 20
0.41476313923056
 30
0.0
 11
-96.44907558445817
 21
0.41476313923056
 31
0.0
  0
LINE
  5
247
330
71
100
AcDbEntity
  8
1
  6
Continuous
 62
     2
100
AcDbLine
 10
-146.4490755844584
 20
0.41476313923056
 30
0.0
 11
-146.4490755844584
 21
5.41476313923067
 31
0.0
  0
LINE
  5
248
330
71
100
AcDbEntity
  8
1
  6
Continuous
 62
     2
100
AcDbLine
 10
-196.4490755844582
 20
0.41476313923056
 30
0.0
 11
-146.4490755844584
 21
0.41476313923056
 31
0.0
  0
LINE
  5
249
330
71
100
AcDbEntity
  8
1
  6
Continuous
 62
     2
100
AcDbLine
 10
-196.4490755844582
 20
0.41476313923056
 30
0.0
 11
-196.4490755844582
 21
5.41476313923067
 31
0.0
  0
LINE
  5
24A
330
71
100
AcDbEntity
  8
1
  6
Continuous
 62
     6
100
AcDbLine
 10
-239.9490755844565
 20
55.41476313923079
 30
0.0
 11
-239.9490755844563
 21
5.41476313923067
 31
0.0
  0
LINE
  5
24B
330
71
100
AcDbEntity
  8
1
  6
Continuous
 62
     2
100
AcDbLine
 10
-244.9490755844573
 20
55.41476313923079
 30
0.0
 11
-244.9490755844573
 21
5.41476313923067
 31
0.0
  0
LINE
  5
24C
330
71
100
AcDbEntity
  8
1
  6
Continuous
 62
     2
100
AcDbLine
 10
-244.9490755844573
 20
55.41476313923079
 30
0.0
 11
-239.9490755844565
 21
55.41476313923079
 31
0.0
  0
LINE
  5
24D
330
71
100
AcDbEntity
  8
1
  6
Continuous
 62
     6
100
AcDbLine
 10
-239.9490755844567
 20
105.4147631392306
 30
0.0
 11
-239.9490755844565
 21
55.41476313923079
 31
0.0
  0
LINE
  5
24E
330
71
100
AcDbEntity
  8
1
  6
Continuous
 62
     2
100
AcDbLine
 10
-244.9490755844573
 20
105.4147631392306
 30
0.0
 11
-244.9490755844573
 21
55.41476313923079
 31
0.0
  0
LINE
  5
24F
330
71
100
AcDbEntity
  8
1
  6
Continuous
 62
     2
100
AcDbLine
 10
-244.9490755844573
 20
105.4147631392306
 30
0.0
 11
-239.9490755844567
 21
105.4147631392306
 31
0.0
  0
LINE
  5
250
330
71
100
AcDbEntity
  8
1
  6
Continuous
 62
     6
100
AcDbLine
 10
-239.9490755844572
 20
155.4147631392307
 30
0.0
 11
-239.9490755844567
 21
105.4147631392306
 31
0.0
  0
LINE
  5
251
330
71
100
AcDbEntity
  8
1
  6
Continuous
 62
     2
100
AcDbLine
 10
-244.9490755844573
 20
155.4147631392307
 30
0.0
 11
-244.9490755844573
 21
105.4147631392306
 31
0.0
  0
LINE
  5
252
330
71
100
AcDbEntity
  8
1
  6
Continuous
 62
     2
100
AcDbLine
 10
-244.9490755844573
 20
155.4147631392307
 30
0.0
 11
-239.9490755844572
 21
155.4147631392307
 31
0.0
  0
LINE
  5
253
330
71
100
AcDbEntity
  8
1
  6
Continuous
 62
     6
100
AcDbLine
 10
-239.9490755844573
 20
190.4147631392307
 30
0.0
 11
-239.9490755844572
 21
155.4147631392307
 31
0.0
  0
LINE
  5
254
330
71
100
AcDbEntity
  8
1
  6
Continuous
 62
     2
100
AcDbLine
 10
-244.9490755844573
 20
210.4147631392307
 30
0.0
 11
-244.9490755844573
 21
155.4147631392307
 31
0.0
  0
LINE
  5
255
330
71
100
AcDbEntity
  8
1
  6
Continuous
 62
     2
100
AcDbLine
 10
-244.9490755844573
 20
0.41476313923056
 30
0.0
 11
-239.9490755844563
 21
0.41476313923056
 31
0.0
  0
LINE
  5
256
330
71
100
AcDbEntity
  8
1
  6
Continuous
 62
     2
100
AcDbLine
 10
-96.44907558445817
 20
210.4147631392307
 30
0.0
 11
-96.44907558445817
 21
201.2060712945294
 31
0.0
  0
LINE
  5
257
330
71
100
AcDbEntity
  8
1
  6
Continuous
 62
     2
100
AcDbLine
 10
-96.44907558445817
 20
210.4147631392307
 30
0.0
 11
-244.9490755844573
 21
210.4147631392307
 31
0.0
  0
LINE
  5
258
330
71
100
AcDbEntity
  8
1
  6
Continuous
 62
     2
100
AcDbLine
 10
52.05092441554081
 20
5.41476313923067
 30
0.0
 11
52.05092441554081
 21
55.41476313923079
 31
0.0
  0
LINE
  5
259
330
71
100
AcDbEntity
  8
1
  6
Continuous
 62
     2
100
AcDbLine
 10
52.05092441554081
 20
155.4147631392307
 30
0.0
 11
52.05092441554081
 21
210.4147631392307
 31
0.0
  0
LINE
  5
25A
330
71
100
AcDbEntity
  8
1
  6
Continuous
 62
     6
100
AcDbLine
 10
47.050924415541
 20
155.4147631392307
 30
0.0
 11
47.05092441554081
 21
190.4147631392307
 31
0.0
  0
LINE
  5
25B
330
71
100
AcDbEntity
  8
1
  6
Continuous
 62
     2
100
AcDbLine
 10
47.050924415541
 20
155.4147631392307
 30
0.0
 11
52.05092441554081
 21
155.4147631392307
 31
0.0
  0
LINE
  5
25C
330
71
100
AcDbEntity
  8
1
  6
Continuous
 62
     2
100
AcDbLine
 10
52.05092441554081
 20
105.4147631392306
 30
0.0
 11
52.05092441554081
 21
155.4147631392307
 31
0.0
  0
LINE
  5
25D
330
71
100
AcDbEntity
  8
1
  6
Continuous
 62
     6
100
AcDbLine
 10
47.05092441554221
 20
105.4147631392306
 30
0.0
 11
47.050924415541
 21
155.4147631392307
 31
0.0
  0
LINE
  5
25E
330
71
100
AcDbEntity
  8
1
  6
Continuous
 62
     2
100
AcDbLine
 10
47.05092441554221
 20
105.4147631392306
 30
0.0
 11
52.05092441554081
 21
105.4147631392306
 31
0.0
  0
LINE
  5
25F
330
71
100
AcDbEntity
  8
1
  6
Continuous
 62
     2
100
AcDbLine
 10
52.05092441554081
 20
55.41476313923079
 30
0.0
 11
52.05092441554081
 21
105.4147631392306
 31
0.0
  0
LINE
  5
260
330
71
100
AcDbEntity
  8
1
  6
Continuous
 62
     6
100
AcDbLine
 10
47.05092441554271
 20
55.41476313923079
 30
0.0
 11
47.05092441554221
 21
105.4147631392306
 31
0.0
  0
LINE
  5
261
330
71
100
AcDbEntity
  8
1
  6
Continuous
 62
     2
100
AcDbLine
 10
47.05092441554271
 20
55.41476313923079
 30
0.0
 11
52.05092441554081
 21
55.41476313923079
 31
0.0
  0
LINE
  5
262
330
71
100
AcDbEntity
  8
1
  6
Continuous
 62
     6
100
AcDbLine
 10
47.05092441554081
 20
190.4147631392307
 30
0.0
 11
-239.9490755844573
 21
190.4147631392307
 31
0.0
  0
LINE
  5
263
330
71
100
AcDbEntity
  8
1
  6
Continuous
 62
     2
100
AcDbLine
 10
52.05092441554081
 20
210.4147631392307
 30
0.0
 11
-96.44907558445817
 21
210.4147631392307
 31
0.0
  0
LINE
  5
264
330
71
100
AcDbEntity
  8
1
  6
Continuous
 62
     6
100
AcDbLine
 10
47.05092441554351
 20
22.41476313923067
 30
0.0
 11
47.05092441554271
 21
55.41476313923079
 31
0.0
  0
LINE
  5
265
330
71
100
AcDbEntity
  8
1
  6
Continuous
 62
     2
100
AcDbLine
 10
47.05092441554181
 20
0.41476313923056
 30
0.0
 11
3.5509244155418
 21
0.41476313923056
 31
0.0
  0
LINE
  5
266
330
71
100
AcDbEntity
  8
1
  6
Continuous
 62
     2
100
AcDbLine
 10
52.05092441554081
 20
0.41476313923056
 30
0.0
 11
47.05092441554181
 21
0.41476313923056
 31
0.0
  0
LINE
  5
267
330
71
100
AcDbEntity
  8
1
  6
Continuous
 62
     2
100
AcDbLine
 10
52.05092441554081
 20
0.41476313923056
 30
0.0
 11
52.05092441554081
 21
5.41476313923067
 31
0.0
  0
LINE
  5
268
330
71
100
AcDbEntity
  8
1
  6
Continuous
 62
     6
100
AcDbLine
 10
-82.4938801112082
 20
22.41476313923067
 30
0.0
 11
-46.09388011120828
 21
22.41476313923067
 31
0.0
  0
LINE
  5
269
330
71
100
AcDbEntity
  8
1
  6
Continuous
 62
     2
100
AcDbLine
 10
47.05092441554181
 20
5.41476313923067
 30
0.0
 11
47.05092441554181
 21
0.41476313923056
 31
0.0
  0
LINE
  5
26A
330
71
100
AcDbEntity
  8
1
  6
Continuous
 62
     2
100
AcDbLine
 10
47.05092441554181
 20
5.41476313923067
 30
0.0
 11
52.05092441554081
 21
5.41476313923067
 31
0.0
  0
LINE
  5
26B
330
71
100
AcDbEntity
  8
1
  6
Continuous
 62
     6
100
AcDbLine
 10
-46.4490755844582
 20
5.41476313923067
 30
0.0
 11
-64.29388011120818
 21
5.41476313923067
 31
0.0
  0
LINE
  5
26C
330
71
100
AcDbEntity
  8
1
  6
Continuous
 62
     6
100
AcDbLine
 10
3.5509244155418
 20
5.41476313923067
 30
0.0
 11
47.05092441554181
 21
5.41476313923067
 31
0.0
  0
LINE
  5
26D
330
71
100
AcDbEntity
  8
1
  6
Continuous
 62
     6
100
AcDbLine
 10
-146.4490755844584
 20
5.41476313923067
 30
0.0
 11
-151.4938801112082
 21
5.41476313923067
 31
0.0
  0
LINE
  5
26E
330
71
100
AcDbEntity
  8
1
  6
Continuous
 62
     6
100
AcDbLine
 10
-96.44907558445817
 20
5.41476313923067
 30
0.0
 11
-82.4938801112082
 21
5.41476313923056
 31
0.0
  0
LINE
  5
26F
102
{ACAD_REACTORS
330
359
330
35A
102
}
330
71
100
AcDbEntity
  8
0
  6
Continuous
 62
     2
100
AcDbLine
 10
-74.97925416906139
 20
17.48727789544279
 30
0.0
 11
-74.97925416906139
 21
18.09281318394957
 31
0.0
  0
LINE
  5
270
102
{ACAD_REACTORS
330
359
330
35A
102
}
330
71
100
AcDbEntity
  8
0
  6
Continuous
 62
     2
100
AcDbLine
 10
-74.97925416906139
 20
14.68714328881148
 30
0.0
 11
-74.97925416906139
 21
15.26899469550656
 31
0.0
  0
LINE
  5
271
102
{ACAD_REACTORS
330
35B
330
35C
102
}
330
71
100
AcDbEntity
  8
0
  6
Continuous
 62
     2
100
AcDbLine
 10
-52.34976773358218
 20
14.97680735693447
 30
0.0
 11
-52.34976773358218
 21
12.70826313924698
 31
0.0
  0
LINE
  5
272
102
{ACAD_REACTORS
330
35B
330
35C
102
}
330
71
100
AcDbEntity
  8
0
  6
Continuous
 62
     2
100
AcDbLine
 10
-53.73082151256978
 20
15.76207266305758
 30
0.0
 11
-50.34587599394109
 21
15.76207266305806
 31
0.0
  0
LINE
  5
273
102
{ACAD_REACTORS
330
35B
330
35C
102
}
330
71
100
AcDbEntity
  8
0
  6
Continuous
 62
     2
100
AcDbLine
 10
-50.34587599394109
 20
14.97680735693447
 30
0.0
 11
-50.34587599394109
 21
15.76207266305806
 31
0.0
  0
LINE
  5
274
102
{ACAD_REACTORS
330
35B
330
35C
102
}
330
71
100
AcDbEntity
  8
0
  6
Continuous
 62
     2
100
AcDbLine
 10
-51.15697503141448
 20
14.97680735693447
 30
0.0
 11
-50.34587599394109
 21
14.97680735693447
 31
0.0
  0
LINE
  5
275
102
{ACAD_REACTORS
330
35B
330
35C
102
}
330
71
100
AcDbEntity
  8
0
  6
Continuous
 62
     2
100
AcDbLine
 10
-51.15697503141448
 20
12.70826313924698
 30
0.0
 11
-51.15697503141448
 21
14.97680735693447
 31
0.0
  0
LINE
  5
276
102
{ACAD_REACTORS
330
35B
330
35C
102
}
330
71
100
AcDbEntity
  8
0
  6
Continuous
 62
     2
100
AcDbLine
 10
-52.34976773358218
 20
12.70826313924698
 30
0.0
 11
-51.15697503141448
 21
12.70826313924698
 31
0.0
  0
LINE
  5
277
102
{ACAD_REACTORS
330
351
330
352
102
}
330
71
100
AcDbEntity
  8
0
  6
Continuous
 62
     2
100
AcDbLine
 10
-53.04635867164669
 20
19.12126313923247
 30
0.0
 11
-54.44908288939598
 21
19.12126313923247
 31
0.0
  0
LINE
  5
278
102
{ACAD_REACTORS
330
351
330
352
102
}
330
71
100
AcDbEntity
  8
0
  6
Continuous
 62
     2
100
AcDbLine
 10
-53.04635867164669
 20
19.12126313923247
 30
0.0
 11
-52.44519114975489
 21
18.44143981767698
 31
0.0
  0
LINE
  5
279
102
{ACAD_REACTORS
330
351
330
352
102
}
330
71
100
AcDbEntity
  8
0
  6
Continuous
 62
     2
100
AcDbLine
 10
-52.44519114975489
 20
18.44143981767698
 30
0.0
 11
-51.8440236278621
 21
19.12126313923247
 31
0.0
  0
LINE
  5
27A
102
{ACAD_REACTORS
330
351
330
352
102
}
330
71
100
AcDbEntity
  8
0
  6
Continuous
 62
     2
100
AcDbLine
 10
-51.74382904088139
 20
17.64831260919627
 30
0.0
 11
-50.44129941011488
 21
19.12126313923247
 31
0.0
  0
LINE
  5
27B
102
{ACAD_REACTORS
330
351
330
352
102
}
330
71
100
AcDbEntity
  8
0
  6
Continuous
 62
     2
100
AcDbLine
 10
-51.74382904088139
 20
17.64831260919627
 30
0.0
 11
-50.34587599394109
 21
16.06745361542127
 31
0.0
  0
LINE
  5
27C
102
{ACAD_REACTORS
330
351
330
352
102
}
330
71
100
AcDbEntity
  8
0
  6
Continuous
 62
     2
100
AcDbLine
 10
-51.74860021168939
 20
16.06745361542127
 30
0.0
 11
-50.34587599394109
 21
16.06745361542127
 31
0.0
  0
LINE
  5
27D
102
{ACAD_REACTORS
330
351
330
352
102
}
330
71
100
AcDbEntity
  8
0
  6
Continuous
 62
     2
100
AcDbLine
 10
-52.44519114975489
 20
16.85518540071499
 30
0.0
 11
-51.74860021168939
 21
16.06745361542127
 31
0.0
  0
LINE
  5
27E
102
{ACAD_REACTORS
330
34F
330
350
102
}
330
71
100
AcDbEntity
  8
0
  6
Continuous
 62
     2
100
AcDbLine
 10
-55.90428998603858
 20
19.12126313923247
 30
0.0
 11
-54.66378557578568
 21
19.12126313923247
 31
0.0
  0
LINE
  5
27F
102
{ACAD_REACTORS
330
34F
330
350
102
}
330
71
100
AcDbEntity
  8
0
  6
Continuous
 62
     2
100
AcDbLine
 10
-54.66378557578568
 20
19.12126313923247
 30
0.0
 11
-54.66378557578568
 21
16.06745361542127
 31
0.0
  0
LINE
  5
280
102
{ACAD_REACTORS
330
34F
330
350
102
}
330
71
100
AcDbEntity
  8
0
  6
Continuous
 62
     2
100
AcDbLine
 10
-55.90428998603858
 20
16.06745361542127
 30
0.0
 11
-55.90428998603858
 21
19.12126313923247
 31
0.0
  0
LINE
  5
281
102
{ACAD_REACTORS
330
34D
330
34E
102
}
330
71
100
AcDbEntity
  8
0
  6
Continuous
 62
     2
100
AcDbLine
 10
-57.37260006857619
 20
13.92978694877147
 30
0.0
 11
-57.07243483138379
 21
14.69760191475817
 31
0.0
  0
LINE
  5
282
102
{ACAD_REACTORS
330
34D
330
34E
102
}
330
71
100
AcDbEntity
  8
0
  6
Continuous
 62
     2
100
AcDbLine
 10
-57.850135673197
 20
12.70826313924698
 30
0.0
 11
-57.63865561972119
 21
13.24922368346486
 31
0.0
  0
LINE
  5
283
102
{ACAD_REACTORS
330
34D
330
34E
102
}
330
71
100
AcDbEntity
  8
0
  6
Continuous
 62
     2
100
AcDbLine
 10
-57.69268703651068
 20
15.76207266305806
 30
0.0
 11
-59.09064008344998
 21
12.70826313924698
 31
0.0
  0
LINE
  5
284
102
{ACAD_REACTORS
330
34D
330
34E
102
}
330
71
100
AcDbEntity
  8
0
  6
Continuous
 62
     2
100
AcDbLine
 10
-55.05422957931768
 20
12.70826313924698
 30
0.0
 11
-56.2947339895716
 21
12.70826313924698
 31
0.0
  0
LINE
  5
285
102
{ACAD_REACTORS
330
34D
330
34E
102
}
330
71
100
AcDbEntity
  8
0
  6
Continuous
 62
     2
100
AcDbLine
 10
-57.63865561972119
 20
13.24922368346486
 30
0.0
 11
-56.50621404304738
 21
13.24922368346486
 31
0.0
  0
LINE
  5
286
102
{ACAD_REACTORS
330
34B
330
34C
102
}
330
71
100
AcDbEntity
  8
0
  6
Continuous
 62
     2
100
AcDbLine
 10
-61.2481522226322
 20
14.97680735693447
 30
0.0
 11
-60.4370531851576
 21
14.97680735693447
 31
0.0
  0
LINE
  5
287
102
{ACAD_REACTORS
330
34B
330
34C
102
}
330
71
100
AcDbEntity
  8
0
  6
Continuous
 62
     2
100
AcDbLine
 10
-58.43316144551858
 20
15.76207266305806
 30
0.0
 11
-61.2481522226322
 21
15.76207266305806
 31
0.0
  0
LINE
  5
288
102
{ACAD_REACTORS
330
34B
330
34C
102
}
330
71
100
AcDbEntity
  8
0
  6
Continuous
 62
     2
100
AcDbLine
 10
-58.43316144551858
 20
14.97680735693447
 30
0.0
 11
-58.43316144551858
 21
15.76207266305806
 31
0.0
  0
LINE
  5
289
102
{ACAD_REACTORS
330
34B
330
34C
102
}
330
71
100
AcDbEntity
  8
0
  6
Continuous
 62
     2
100
AcDbLine
 10
-59.24426048299108
 20
14.97680735693447
 30
0.0
 11
-58.43316144551858
 21
14.97680735693447
 31
0.0
  0
LINE
  5
28A
102
{ACAD_REACTORS
330
34B
330
34C
102
}
330
71
100
AcDbEntity
  8
0
  6
Continuous
 62
     2
100
AcDbLine
 10
-59.24426048299108
 20
12.70826313924698
 30
0.0
 11
-59.24426048299108
 21
14.97680735693447
 31
0.0
  0
LINE
  5
28B
102
{ACAD_REACTORS
330
349
330
34A
102
}
330
71
100
AcDbEntity
  8
0
  6
Continuous
 62
     2
100
AcDbLine
 10
-58.57614563889308
 20
16.06745361542127
 30
0.0
 11
-58.57614563889308
 21
17.37622912562597
 31
0.0
  0
LINE
  5
28C
102
{ACAD_REACTORS
330
349
330
34A
102
}
330
71
100
AcDbEntity
  8
0
  6
Continuous
 62
     2
100
AcDbLine
 10
-59.7689383410596
 20
19.12126313923247
 30
0.0
 11
-59.7689383410596
 21
16.06745361542127
 31
0.0
  0
LINE
  5
28D
102
{ACAD_REACTORS
330
349
330
34A
102
}
330
71
100
AcDbEntity
  8
0
  6
Continuous
 62
     2
100
AcDbLine
 10
-58.57614563889308
 20
19.12126313923247
 30
0.0
 11
-59.7689383410596
 21
19.12126313923247
 31
0.0
  0
LINE
  5
28E
102
{ACAD_REACTORS
330
349
330
34A
102
}
330
71
100
AcDbEntity
  8
0
  6
Continuous
 62
     2
100
AcDbLine
 10
-57.33564122863908
 20
19.12126313923247
 30
0.0
 11
-57.33564122863908
 21
17.81248762902729
 31
0.0
  0
LINE
  5
28F
102
{ACAD_REACTORS
330
347
330
348
102
}
330
71
100
AcDbEntity
  8
0
  6
Continuous
 62
     2
100
AcDbLine
 10
-65.01737716147929
 20
15.76207266305806
 30
0.0
 11
-65.01737716147929
 21
12.70826313924698
 31
0.0
  0
LINE
  5
290
102
{ACAD_REACTORS
330
347
330
348
102
}
330
71
100
AcDbEntity
  8
0
  6
Continuous
 62
     2
100
AcDbLine
 10
-63.82458445931169
 20
15.76207266305806
 30
0.0
 11
-65.01737716147929
 21
15.76207266305806
 31
0.0
  0
LINE
  5
291
102
{ACAD_REACTORS
330
347
330
348
102
}
330
71
100
AcDbEntity
  8
0
  6
Continuous
 62
     2
100
AcDbLine
 10
-62.5840800490588
 20
12.70826313924698
 30
0.0
 11
-61.3912873468924
 21
12.70826313924698
 31
0.0
  0
LINE
  5
292
102
{ACAD_REACTORS
330
347
330
348
102
}
330
71
100
AcDbEntity
  8
0
  6
Continuous
 62
     2
100
AcDbLine
 10
-65.01737716147929
 20
12.70826313924698
 30
0.0
 11
-63.82458445931169
 21
12.70826313924698
 31
0.0
  0
LINE
  5
293
102
{ACAD_REACTORS
330
357
330
358
102
}
330
71
100
AcDbEntity
  8
0
  6
Continuous
 62
     2
100
AcDbLine
 10
-61.34342470792018
 20
17.94336518004778
 30
0.0
 11
-61.34342470792018
 21
18.42324953378949
 31
0.0
  0
LINE
  5
294
102
{ACAD_REACTORS
330
357
330
358
102
}
330
71
100
AcDbEntity
  8
0
  6
Continuous
 62
     2
100
AcDbLine
 10
-60.0074968814925
 20
17.94336518004778
 30
0.0
 11
-61.34342470792018
 21
17.94336518004778
 31
0.0
  0
LINE
  5
295
102
{ACAD_REACTORS
330
357
330
358
102
}
330
71
100
AcDbEntity
  8
0
  6
Continuous
 62
     2
100
AcDbLine
 10
-60.0074968814925
 20
17.24535157460548
 30
0.0
 11
-60.0074968814925
 21
17.94336518004778
 31
0.0
  0
LINE
  5
296
102
{ACAD_REACTORS
330
357
330
358
102
}
330
71
100
AcDbEntity
  8
0
  6
Continuous
 62
     2
100
AcDbLine
 10
-61.34342470792018
 20
17.24535157460548
 30
0.0
 11
-60.0074968814925
 21
17.24535157460548
 31
0.0
  0
LINE
  5
297
102
{ACAD_REACTORS
330
345
330
346
102
}
330
71
100
AcDbEntity
  8
0
  6
Continuous
 62
     2
100
AcDbLine
 10
-64.8263793982471
 20
19.12126313923247
 30
0.0
 11
-64.8263793982471
 21
16.06745361542127
 31
0.0
  0
LINE
  5
298
102
{ACAD_REACTORS
330
345
330
346
102
}
330
71
100
AcDbEntity
  8
0
  6
Continuous
 62
     2
100
AcDbLine
 10
-64.8263793982471
 20
16.06745361542127
 30
0.0
 11
-66.0191721004135
 21
16.06745361542127
 31
0.0
  0
LINE
  5
299
102
{ACAD_REACTORS
330
345
330
346
102
}
330
71
100
AcDbEntity
  8
0
  6
Continuous
 62
     2
100
AcDbLine
 10
-66.0191721004135
 20
16.06745361542127
 30
0.0
 11
-66.0191721004135
 21
17.20172572426509
 31
0.0
  0
LINE
  5
29A
102
{ACAD_REACTORS
330
345
330
346
102
}
330
71
100
AcDbEntity
  8
0
  6
Continuous
 62
     2
100
AcDbLine
 10
-67.06882967832098
 20
16.06745361542127
 30
0.0
 11
-68.26162238048758
 21
16.06745361542127
 31
0.0
  0
LINE
  5
29B
102
{ACAD_REACTORS
330
345
330
346
102
}
330
71
100
AcDbEntity
  8
0
  6
Continuous
 62
     2
100
AcDbLine
 10
-68.26162238048758
 20
19.12126313923247
 30
0.0
 11
-67.06882967832098
 21
19.12126313923247
 31
0.0
  0
LINE
  5
29C
102
{ACAD_REACTORS
330
345
330
346
102
}
330
71
100
AcDbEntity
  8
0
  6
Continuous
 62
     2
100
AcDbLine
 10
-67.06882967832098
 20
19.12126313923247
 30
0.0
 11
-67.06882967832098
 21
18.05242980589787
 31
0.0
  0
LINE
  5
29D
102
{ACAD_REACTORS
330
345
330
346
102
}
330
71
100
AcDbEntity
  8
0
  6
Continuous
 62
     2
100
AcDbLine
 10
-67.06882967832098
 20
18.05242980589787
 30
0.0
 11
-66.0191721004135
 21
18.05242980589787
 31
0.0
  0
LINE
  5
29E
102
{ACAD_REACTORS
330
353
330
354
102
}
330
71
100
AcDbEntity
  8
0
  6
Continuous
 62
     2
100
AcDbLine
 10
-70.21780241204118
 20
18.45815729379237
 30
0.0
 11
-69.90050735049928
 21
18.45815729379237
 31
0.0
  0
LINE
  5
29F
102
{ACAD_REACTORS
330
353
330
354
102
}
330
71
100
AcDbEntity
  8
0
  6
Continuous
 62
     2
100
AcDbLine
 10
-70.21780241204118
 20
17.75242964445016
 30
0.0
 11
-69.90050735049928
 21
17.75242964445016
 31
0.0
  0
LINE
  5
2A0
102
{ACAD_REACTORS
330
353
330
354
102
}
330
71
100
AcDbEntity
  8
0
  6
Continuous
 62
     2
100
AcDbLine
 10
-71.4583068222953
 20
19.12126313923247
 30
0.0
 11
-71.4583068222953
 21
16.06745361542127
 31
0.0
  0
LINE
  5
2A1
102
{ACAD_REACTORS
330
353
330
354
102
}
330
71
100
AcDbEntity
  8
0
  6
Continuous
 62
     2
100
AcDbLine
 10
-71.4583068222953
 20
19.12126313923247
 30
0.0
 11
-69.4590348242609
 21
19.12126313923247
 31
0.0
  0
LINE
  5
2A2
102
{ACAD_REACTORS
330
353
330
354
102
}
330
71
100
AcDbEntity
  8
0
  6
Continuous
 62
     2
100
AcDbLine
 10
-70.21780241204118
 20
17.01053185656508
 30
0.0
 11
-69.4590348242609
 21
17.01053185656508
 31
0.0
  0
LINE
  5
2A3
102
{ACAD_REACTORS
330
359
330
35A
102
}
330
71
100
AcDbEntity
  8
0
  6
Continuous
 62
     2
100
AcDbLine
 10
-77.55480285559199
 20
18.09299066059768
 30
0.0
 11
-77.55480285559199
 21
13.73653561788058
 31
0.0
  0
LINE
  5
2A4
102
{ACAD_REACTORS
330
359
330
35A
102
}
330
71
100
AcDbEntity
  8
0
  6
Continuous
 62
     2
100
AcDbLine
 10
-77.2390859325163
 20
18.40870758367387
 30
0.0
 11
-75.76325267150668
 21
18.40870758367387
 31
0.0
  0
LINE
  5
2A5
102
{ACAD_REACTORS
330
359
330
35A
102
}
330
71
100
AcDbEntity
  8
0
  6
Continuous
 62
     2
100
AcDbLine
 10
-75.44753574843008
 20
17.48896604153717
 30
0.0
 11
-75.44753574843008
 21
18.09299066059768
 31
0.0
  0
LINE
  5
2A6
102
{ACAD_REACTORS
330
359
330
35A
102
}
330
71
100
AcDbEntity
  8
0
  6
Continuous
 62
     2
100
AcDbLine
 10
-75.44753574843008
 20
13.73653561788058
 30
0.0
 11
-75.44753574843008
 21
15.26730654941218
 31
0.0
  0
LINE
  5
2A7
102
{ACAD_REACTORS
330
359
330
35A
102
}
330
71
100
AcDbEntity
  8
0
  6
Continuous
 62
     2
100
AcDbLine
 10
-72.35966851854599
 20
12.70826313924698
 30
0.0
 11
-77.83298060926279
 21
12.70826313924698
 31
0.0
  0
LINE
  5
2A8
102
{ACAD_REACTORS
330
359
330
35A
102
}
330
71
100
AcDbEntity
  8
0
  6
Continuous
 62
     2
100
AcDbLine
 10
-71.9354239031621
 20
18.69701852383048
 30
0.0
 11
-71.9354239031621
 21
13.13250775463027
 31
0.0
  0
LINE
  5
2A9
102
{ACAD_REACTORS
330
359
330
35A
102
}
330
71
100
AcDbEntity
  8
0
  6
Continuous
 62
     2
100
AcDbLine
 10
-77.83298060926279
 20
19.12126313921428
 30
0.0
 11
-72.35966851854599
 21
19.12126313921428
 31
0.0
  0
LINE
  5
2AA
102
{ACAD_REACTORS
330
359
330
35A
102
}
330
71
100
AcDbEntity
  8
0
  6
Continuous
 62
     2
100
AcDbLine
 10
-78.2572252246456
 20
18.69701852383048
 30
0.0
 11
-78.2572252246456
 21
13.13250775463027
 31
0.0
  0
LINE
  5
2AB
102
{ACAD_REACTORS
330
359
330
35A
102
}
330
71
100
AcDbEntity
  8
0
  6
Continuous
 62
     2
100
AcDbLine
 10
-75.76325267150668
 20
13.42081869480387
 30
0.0
 11
-77.2390859325163
 21
13.42081869480387
 31
0.0
  0
LINE
  5
2AC
102
{ACAD_REACTORS
330
353
330
354
102
}
330
71
100
AcDbEntity
  8
0
  6
Continuous
 62
     2
100
AcDbLine
 10
-70.21780241204118
 20
16.06745361542127
 30
0.0
 11
-70.21780241204118
 21
17.01053185656508
 31
0.0
  0
LINE
  5
2AD
102
{ACAD_REACTORS
330
353
330
354
102
}
330
71
100
AcDbEntity
  8
0
  6
Continuous
 62
     2
100
AcDbLine
 10
-71.4583068222953
 20
16.06745361542127
 30
0.0
 11
-70.21780241204118
 21
16.06745361542127
 31
0.0
  0
LINE
  5
2AE
102
{ACAD_REACTORS
330
353
330
354
102
}
330
71
100
AcDbEntity
  8
0
  6
Continuous
 62
     2
100
AcDbLine
 10
-70.21780241204118
 20
17.75242964445016
 30
0.0
 11
-70.21780241204118
 21
18.45815729379237
 31
0.0
  0
LINE
  5
2AF
102
{ACAD_REACTORS
330
345
330
346
102
}
330
71
100
AcDbEntity
  8
0
  6
Continuous
 62
     2
100
AcDbLine
 10
-68.26162238048758
 20
19.12126313923247
 30
0.0
 11
-68.26162238048758
 21
16.06745361542127
 31
0.0
  0
LINE
  5
2B0
102
{ACAD_REACTORS
330
345
330
346
102
}
330
71
100
AcDbEntity
  8
0
  6
Continuous
 62
     2
100
AcDbLine
 10
-67.06882967832098
 20
17.20172572426509
 30
0.0
 11
-67.06882967832098
 21
16.06745361542127
 31
0.0
  0
LINE
  5
2B1
102
{ACAD_REACTORS
330
345
330
346
102
}
330
71
100
AcDbEntity
  8
0
  6
Continuous
 62
     2
100
AcDbLine
 10
-66.0191721004135
 20
17.20172572426509
 30
0.0
 11
-67.06882967832098
 21
17.20172572426509
 31
0.0
  0
LINE
  5
2B2
102
{ACAD_REACTORS
330
345
330
346
102
}
330
71
100
AcDbEntity
  8
0
  6
Continuous
 62
     2
100
AcDbLine
 10
-66.0191721004135
 20
19.12126313923247
 30
0.0
 11
-64.8263793982471
 21
19.12126313923247
 31
0.0
  0
LINE
  5
2B3
102
{ACAD_REACTORS
330
345
330
346
102
}
330
71
100
AcDbEntity
  8
0
  6
Continuous
 62
     2
100
AcDbLine
 10
-66.0191721004135
 20
18.05242980589787
 30
0.0
 11
-66.0191721004135
 21
19.12126313923247
 31
0.0
  0
LINE
  5
2B4
102
{ACAD_REACTORS
330
357
330
358
102
}
330
71
100
AcDbEntity
  8
0
  6
Continuous
 62
     2
100
AcDbLine
 10
-60.0074968814925
 20
18.42324953378949
 30
0.0
 11
-60.0074968814925
 21
19.12126313923247
 31
0.0
  0
LINE
  5
2B5
102
{ACAD_REACTORS
330
357
330
358
102
}
330
71
100
AcDbEntity
  8
0
  6
Continuous
 62
     2
100
AcDbLine
 10
-63.1578166052735
 20
19.12126313923247
 30
0.0
 11
-60.0074968814925
 21
19.12126313923247
 31
0.0
  0
LINE
  5
2B6
102
{ACAD_REACTORS
330
357
330
358
102
}
330
71
100
AcDbEntity
  8
0
  6
Continuous
 62
     2
100
AcDbLine
 10
-63.1578166052735
 20
16.06745361542127
 30
0.0
 11
-60.0074968814925
 21
16.06745361542127
 31
0.0
  0
LINE
  5
2B7
102
{ACAD_REACTORS
330
357
330
358
102
}
330
71
100
AcDbEntity
  8
0
  6
Continuous
 62
     2
100
AcDbLine
 10
-60.0074968814925
 20
16.06745361542127
 30
0.0
 11
-60.0074968814925
 21
16.76546722086377
 31
0.0
  0
LINE
  5
2B8
102
{ACAD_REACTORS
330
357
330
358
102
}
330
71
100
AcDbEntity
  8
0
  6
Continuous
 62
     2
100
AcDbLine
 10
-60.0074968814925
 20
16.76546722086377
 30
0.0
 11
-61.34342470792018
 21
16.76546722086377
 31
0.0
  0
LINE
  5
2B9
102
{ACAD_REACTORS
330
357
330
358
102
}
330
71
100
AcDbEntity
  8
0
  6
Continuous
 62
     2
100
AcDbLine
 10
-61.34342470792018
 20
16.76546722086377
 30
0.0
 11
-61.34342470792018
 21
17.24535157460548
 31
0.0
  0
LINE
  5
2BA
102
{ACAD_REACTORS
330
357
330
358
102
}
330
71
100
AcDbEntity
  8
0
  6
Continuous
 62
     2
100
AcDbLine
 10
-61.34342470792018
 20
18.42324953378949
 30
0.0
 11
-60.0074968814925
 21
18.42324953378949
 31
0.0
  0
LINE
  5
2BB
102
{ACAD_REACTORS
330
347
330
348
102
}
330
71
100
AcDbEntity
  8
0
  6
Continuous
 62
     2
100
AcDbLine
 10
-63.82458445931169
 20
12.70826313924698
 30
0.0
 11
-63.82458445931169
 21
14.01703864945156
 31
0.0
  0
LINE
  5
2BC
102
{ACAD_REACTORS
330
347
330
348
102
}
330
71
100
AcDbEntity
  8
0
  6
Continuous
 62
     2
100
AcDbLine
 10
-63.82458445931169
 20
14.01703864945156
 30
0.0
 11
-62.5840800490588
 21
12.70826313924698
 31
0.0
  0
LINE
  5
2BD
102
{ACAD_REACTORS
330
347
330
348
102
}
330
71
100
AcDbEntity
  8
0
  6
Continuous
 62
     2
100
AcDbLine
 10
-61.3912873468924
 20
12.70826313924698
 30
0.0
 11
-61.3912873468924
 21
15.76207266305806
 31
0.0
  0
LINE
  5
2BE
102
{ACAD_REACTORS
330
347
330
348
102
}
330
71
100
AcDbEntity
  8
0
  6
Continuous
 62
     2
100
AcDbLine
 10
-61.3912873468924
 20
15.76207266305806
 30
0.0
 11
-62.5840800490588
 21
15.76207266305806
 31
0.0
  0
LINE
  5
2BF
102
{ACAD_REACTORS
330
347
330
348
102
}
330
71
100
AcDbEntity
  8
0
  6
Continuous
 62
     2
100
AcDbLine
 10
-62.5840800490588
 20
15.76207266305806
 30
0.0
 11
-62.5840800490588
 21
14.45329715285297
 31
0.0
  0
LINE
  5
2C0
102
{ACAD_REACTORS
330
347
330
348
102
}
330
71
100
AcDbEntity
  8
0
  6
Continuous
 62
     2
100
AcDbLine
 10
-62.5840800490588
 20
14.45329715285297
 30
0.0
 11
-63.82458445931169
 21
15.76207266305806
 31
0.0
  0
LINE
  5
2C1
102
{ACAD_REACTORS
330
349
330
34A
102
}
330
71
100
AcDbEntity
  8
0
  6
Continuous
 62
     2
100
AcDbLine
 10
-58.57614563889308
 20
17.37622912562597
 30
0.0
 11
-57.33564122863908
 21
16.06745361542127
 31
0.0
  0
LINE
  5
2C2
102
{ACAD_REACTORS
330
349
330
34A
102
}
330
71
100
AcDbEntity
  8
0
  6
Continuous
 62
     2
100
AcDbLine
 10
-57.33564122863908
 20
16.06745361542127
 30
0.0
 11
-56.14284852647248
 21
16.06745361542127
 31
0.0
  0
LINE
  5
2C3
102
{ACAD_REACTORS
330
349
330
34A
102
}
330
71
100
AcDbEntity
  8
0
  6
Continuous
 62
     2
100
AcDbLine
 10
-56.14284852647248
 20
16.06745361542127
 30
0.0
 11
-56.14284852647248
 21
19.12126313923247
 31
0.0
  0
LINE
  5
2C4
102
{ACAD_REACTORS
330
349
330
34A
102
}
330
71
100
AcDbEntity
  8
0
  6
Continuous
 62
     2
100
AcDbLine
 10
-56.14284852647248
 20
19.12126313923247
 30
0.0
 11
-57.33564122863908
 21
19.12126313923247
 31
0.0
  0
LINE
  5
2C5
102
{ACAD_REACTORS
330
349
330
34A
102
}
330
71
100
AcDbEntity
  8
0
  6
Continuous
 62
     2
100
AcDbLine
 10
-57.33564122863908
 20
17.81248762902729
 30
0.0
 11
-58.57614563889308
 21
19.12126313923247
 31
0.0
  0
LINE
  5
2C6
102
{ACAD_REACTORS
330
349
330
34A
102
}
330
71
100
AcDbEntity
  8
0
  6
Continuous
 62
     2
100
AcDbLine
 10
-59.7689383410596
 20
16.06745361542127
 30
0.0
 11
-58.57614563889308
 21
16.06745361542127
 31
0.0
  0
LINE
  5
2C7
102
{ACAD_REACTORS
330
34B
330
34C
102
}
330
71
100
AcDbEntity
  8
0
  6
Continuous
 62
     2
100
AcDbLine
 10
-61.2481522226322
 20
15.76207266305806
 30
0.0
 11
-61.2481522226322
 21
14.97680735693447
 31
0.0
  0
LINE
  5
2C8
102
{ACAD_REACTORS
330
34B
330
34C
102
}
330
71
100
AcDbEntity
  8
0
  6
Continuous
 62
     2
100
AcDbLine
 10
-60.4370531851576
 20
14.97680735693447
 30
0.0
 11
-60.4370531851576
 21
12.70826313924698
 31
0.0
  0
LINE
  5
2C9
102
{ACAD_REACTORS
330
34B
330
34C
102
}
330
71
100
AcDbEntity
  8
0
  6
Continuous
 62
     2
100
AcDbLine
 10
-60.4370531851576
 20
12.70826313924698
 30
0.0
 11
-59.24426048299108
 21
12.70826313924698
 31
0.0
  0
LINE
  5
2CA
102
{ACAD_REACTORS
330
34D
330
34E
102
}
330
71
100
AcDbEntity
  8
0
  6
Continuous
 62
     2
100
AcDbLine
 10
-56.2947339895716
 20
12.70826313924698
 30
0.0
 11
-56.50621404304738
 21
13.24922368346486
 31
0.0
  0
LINE
  5
2CB
102
{ACAD_REACTORS
330
34D
330
34E
102
}
330
71
100
AcDbEntity
  8
0
  6
Continuous
 62
     2
100
AcDbLine
 10
-56.45218262625798
 20
15.76207266305806
 30
0.0
 11
-55.05422957931768
 21
12.70826313924698
 31
0.0
  0
LINE
  5
2CC
102
{ACAD_REACTORS
330
34D
330
34E
102
}
330
71
100
AcDbEntity
  8
0
  6
Continuous
 62
     2
100
AcDbLine
 10
-57.69268703651068
 20
15.76207266305806
 30
0.0
 11
-56.45218262625798
 21
15.76207266305806
 31
0.0
  0
LINE
  5
2CD
102
{ACAD_REACTORS
330
34D
330
34E
102
}
330
71
100
AcDbEntity
  8
0
  6
Continuous
 62
     2
100
AcDbLine
 10
-59.09064008344998
 20
12.70826313924698
 30
0.0
 11
-57.850135673197
 21
12.70826313924698
 31
0.0
  0
LINE
  5
2CE
102
{ACAD_REACTORS
330
34D
330
34E
102
}
330
71
100
AcDbEntity
  8
0
  6
Continuous
 62
     2
100
AcDbLine
 10
-57.37260006857619
 20
13.92978694877147
 30
0.0
 11
-56.77226959419369
 21
13.92978694877147
 31
0.0
  0
LINE
  5
2CF
102
{ACAD_REACTORS
330
34D
330
34E
102
}
330
71
100
AcDbEntity
  8
0
  6
Continuous
 62
     2
100
AcDbLine
 10
-56.77226959419369
 20
13.92978694877147
 30
0.0
 11
-57.07243483138379
 21
14.69760191475817
 31
0.0
  0
LINE
  5
2D0
102
{ACAD_REACTORS
330
34F
330
350
102
}
330
71
100
AcDbEntity
  8
0
  6
Continuous
 62
     2
100
AcDbLine
 10
-54.66378557578568
 20
16.06745361542127
 30
0.0
 11
-55.90428998603858
 21
16.06745361542127
 31
0.0
  0
LINE
  5
2D1
102
{ACAD_REACTORS
330
351
330
352
102
}
330
71
100
AcDbEntity
  8
0
  6
Continuous
 62
     2
100
AcDbLine
 10
-53.14178208782059
 20
16.06745361542127
 30
0.0
 11
-54.5445063055688
 21
16.06745361542127
 31
0.0
  0
LINE
  5
2D2
102
{ACAD_REACTORS
330
351
330
352
102
}
330
71
100
AcDbEntity
  8
0
  6
Continuous
 62
     2
100
AcDbLine
 10
-53.14178208782059
 20
16.06745361542127
 30
0.0
 11
-52.44519114975489
 21
16.85518540071499
 31
0.0
  0
LINE
  5
2D3
102
{ACAD_REACTORS
330
351
330
352
102
}
330
71
100
AcDbEntity
  8
0
  6
Continuous
 62
     2
100
AcDbLine
 10
-51.8440236278621
 20
19.12126313923247
 30
0.0
 11
-50.44129941011488
 21
19.12126313923247
 31
0.0
  0
LINE
  5
2D4
102
{ACAD_REACTORS
330
351
330
352
102
}
330
71
100
AcDbEntity
  8
0
  6
Continuous
 62
     2
100
AcDbLine
 10
-54.44908288939598
 20
19.12126313923247
 30
0.0
 11
-53.1465532586285
 21
17.64831260919627
 31
0.0
  0
LINE
  5
2D5
102
{ACAD_REACTORS
330
351
330
352
102
}
330
71
100
AcDbEntity
  8
0
  6
Continuous
 62
     2
100
AcDbLine
 10
-54.5445063055688
 20
16.06745361542127
 30
0.0
 11
-53.1465532586285
 21
17.64831260919627
 31
0.0
  0
LINE
  5
2D6
102
{ACAD_REACTORS
330
35B
330
35C
102
}
330
71
100
AcDbEntity
  8
0
  6
Continuous
 62
     2
100
AcDbLine
 10
-52.68374969018888
 20
13.75528354741059
 30
0.0
 11
-52.68374969018888
 21
12.88276654060726
 31
0.0
  0
LINE
  5
2D7
102
{ACAD_REACTORS
330
35B
330
35C
102
}
330
71
100
AcDbEntity
  8
0
  6
Continuous
 62
     2
100
AcDbLine
 10
-53.45340703315029
 20
14.97680735693447
 30
0.0
 11
-52.34976773358218
 21
14.97680735693447
 31
0.0
  0
LINE
  5
2D8
102
{ACAD_REACTORS
330
35D
330
35E
102
}
330
71
100
AcDbEntity
  8
0
  6
Continuous
 62
     2
100
AcDbLine
 10
-68.7864511694408
 20
13.75528354741107
 30
0.0
 11
-68.7864511694408
 21
12.88276654060786
 31
0.0
  0
LINE
  5
2D9
102
{ACAD_REACTORS
330
35D
330
35E
102
}
330
71
100
AcDbEntity
  8
0
  6
Continuous
 62
     2
100
AcDbLine
 10
-68.7864511694408
 20
14.71505225489398
 30
0.0
 11
-68.7864511694408
 21
15.58756926169727
 31
0.0
  0
LINE
  5
2DA
330
71
100
AcDbEntity
  8
1
  6
Continuous
 62
     7
100
AcDbLine
 10
47.05092441554311
 20
13.91476313923067
 30
0.0
 11
-46.09388011120828
 21
13.91476313923067
 31
0.0
  0
LINE
  5
2DB
330
71
100
AcDbEntity
  8
1
  6
Continuous
 62
     6
100
AcDbLine
 10
-151.4938801112082
 20
5.41476313923067
 30
0.0
 11
-196.4490755844582
 21
5.41476313923067
 31
0.0
  0
LINE
  5
2DC
330
71
100
AcDbEntity
  8
1
  6
Continuous
 62
     7
100
AcDbLine
 10
38.1325161338643
 20
30.91476313923067
 30
0.0
 11
38.1325161338643
 21
22.41476313923067
 31
0.0
  0
LINE
  5
2DD
330
71
100
AcDbEntity
  8
1
  6
Continuous
 62
     7
100
AcDbLine
 10
11.6325161338647
 20
30.91476313923067
 30
0.0
 11
11.6325161338647
 21
22.41476313923067
 31
0.0
  0
LINE
  5
2DE
330
71
100
AcDbEntity
  8
1
  6
Continuous
 62
     7
100
AcDbLine
 10
-46.09388011120828
 20
22.41476313923067
 30
0.0
 11
-46.09388011120828
 21
30.91476313923067
 31
0.0
  0
LINE
  5
2DF
330
71
100
AcDbEntity
  8
1
  6
Continuous
 62
     7
100
AcDbLine
 10
-82.4938801112082
 20
22.41476313923067
 30
0.0
 11
-82.4938801112082
 21
30.91476313923067
 31
0.0
  0
LINE
  5
2E0
330
71
100
AcDbEntity
  8
1
  6
Continuous
 62
     6
100
AcDbLine
 10
-46.09388011120828
 20
22.41476313923067
 30
0.0
 11
47.05092441554351
 21
22.41476313923067
 31
0.0
  0
LINE
  5
2E1
330
71
100
AcDbEntity
  8
1
  6
Continuous
 62
     7
100
AcDbLine
 10
-18.19388011120819
 20
13.91476313923059
 30
0.0
 11
-18.19388011120819
 21
22.41476313923067
 31
0.0
  0
LINE
  5
2E2
330
71
100
AcDbEntity
  8
1
  6
PHANTOM
 62
     2
100
AcDbLine
 10
-67.0072252246456
 20
26.53976313923059
 30
0.0
 11
-72.5072252246456
 21
26.53976313923059
 31
0.0
  0
LINE
  5
2E3
330
71
100
AcDbEntity
  8
1
  6
PHANTOM
 62
     2
100
AcDbLine
 10
-69.7572252246456
 20
29.28976313923059
 30
0.0
 11
-69.7572252246456
 21
23.78976313923059
 31
0.0
  0
LINE
  5
2E4
330
71
100
AcDbEntity
  8
1
  6
DOT_CENTER
 62
     2
100
AcDbLine
 10
-78.5072252246456
 20
26.53976313923059
 30
0.0
 11
-73.0072252246456
 21
26.53976313923059
 31
0.0
  0
ARC
  5
2E5
102
{ACAD_REACTORS
330
35D
330
35E
102
}
330
71
100
AcDbEntity
  8
0
  6
Continuous
 62
     2
100
AcDbCircle
 10
-70.1223790865586
 20
10.92248695589638
 30
0.0
 40
4.852596863498064
100
AcDbArc
 50
74.02000874164737
 51
84.84185523037506
  0
ARC
  5
2E6
102
{ACAD_REACTORS
330
35D
330
35E
102
}
330
71
100
AcDbEntity
  8
0
  6
Continuous
 62
     2
100
AcDbCircle
 10
-69.54633847780488
 20
14.07824731178067
 30
0.0
 40
0.9059297849853228
100
AcDbArc
 50
71.55192388185348
 51
113.3722778881288
  0
ARC
  5
2E7
102
{ACAD_REACTORS
330
35D
330
35E
102
}
330
71
100
AcDbEntity
  8
0
  6
Continuous
 62
     2
100
AcDbCircle
 10
-69.7027785105069
 20
14.03009647181378
 30
0.0
 40
0.5115800601948034
100
AcDbArc
 50
208.5214732576956
 51
246.6277221118275
  0
ARC
  5
2E8
102
{ACAD_REACTORS
330
35D
330
35E
102
}
330
71
100
AcDbEntity
  8
0
  6
Continuous
 62
     2
100
AcDbCircle
 10
-69.54633847780488
 20
14.39208849052378
 30
0.0
 40
0.9059297849849242
100
AcDbArc
 50
246.6277221118712
 51
288.4480761181584
  0
ARC
  5
2E9
102
{ACAD_REACTORS
330
35D
330
35E
102
}
330
71
100
AcDbEntity
  8
0
  6
Continuous
 62
     2
100
AcDbCircle
 10
-69.96450621146568
 20
15.64563426656096
 30
0.0
 40
2.227384008972737
100
AcDbArc
 50
288.4480761181328
 51
301.9309089499593
  0
ARC
  5
2EA
102
{ACAD_REACTORS
330
359
330
35A
102
}
330
71
100
AcDbEntity
  8
0
  6
Continuous
 62
     2
100
AcDbCircle
 10
-75.18957994407248
 20
16.37813629547497
 30
0.0
 40
0.9118481501444573
100
AcDbArc
 50
295.3740086781765
 51
64.62599132180755
  0
ARC
  5
2EB
102
{ACAD_REACTORS
330
359
330
35A
102
}
330
71
100
AcDbEntity
  8
0
  6
Continuous
 62
     2
100
AcDbCircle
 10
-74.6635372459846
 20
18.09281318394957
 30
0.0
 40
0.3157169230760746
100
AcDbArc
 50
90.18896704254594
 51
180.0
  0
ARC
  5
2EC
102
{ACAD_REACTORS
330
35B
330
35C
102
}
330
71
100
AcDbEntity
  8
0
  6
Continuous
 62
     2
100
AcDbCircle
 10
-53.45340703315029
 20
14.02228435010838
 30
0.0
 40
0.9545230068260899
100
AcDbArc
 50
90.0
 51
109.3371432194321
  0
ARC
  5
2ED
102
{ACAD_REACTORS
330
35B
330
35C
102
}
330
71
100
AcDbEntity
  8
0
  6
Continuous
 62
     2
100
AcDbCircle
 10
-53.2227197731726
 20
14.23516790115227
 30
0.0
 40
0.941059735334897
100
AcDbArc
 50
151.4785267423628
 51
208.5214732576693
  0
ARC
  5
2EE
102
{ACAD_REACTORS
330
35B
330
35C
102
}
330
71
100
AcDbEntity
  8
0
  6
Continuous
 62
     2
100
AcDbCircle
 10
-53.44363699855089
 20
14.39208849052378
 30
0.0
 40
0.9059297849852821
100
AcDbArc
 50
246.6277221118188
 51
288.4480761180822
  0
ARC
  5
2EF
102
{ACAD_REACTORS
330
35B
330
35C
102
}
330
71
100
AcDbEntity
  8
0
  6
Continuous
 62
     2
100
AcDbCircle
 10
-53.86180473221279
 20
15.64563426656036
 30
0.0
 40
2.227384008972737
100
AcDbArc
 50
288.4480761181335
 51
301.9309089499397
  0
ARC
  5
2F0
102
{ACAD_REACTORS
330
35B
330
35C
102
}
330
71
100
AcDbEntity
  8
0
  6
Continuous
 62
     2
100
AcDbCircle
 10
-54.0196776073056
 20
17.54784884640867
 30
0.0
 40
4.852596863498825
100
AcDbArc
 50
275.1581447696364
 51
285.9799912583387
  0
ARC
  5
2F1
102
{ACAD_REACTORS
330
35B
330
35C
102
}
330
71
100
AcDbEntity
  8
0
  6
Continuous
 62
     2
100
AcDbCircle
 10
-53.73082151256978
 20
14.34795826318708
 30
0.0
 40
1.639695123940442
100
AcDbArc
 50
195.0618917771013
 51
275.1581447696765
  0
ARC
  5
2F2
102
{ACAD_REACTORS
330
353
330
354
102
}
330
71
100
AcDbEntity
  8
0
  6
Continuous
 62
     2
100
AcDbCircle
 10
-69.4590348242609
 20
18.06589749789879
 30
0.0
 40
1.055365641333708
100
AcDbArc
 50
270.0
 51
90.0
  0
ARC
  5
2F3
102
{ACAD_REACTORS
330
359
330
35A
102
}
330
71
100
AcDbEntity
  8
0
  6
Continuous
 62
     2
100
AcDbCircle
 10
-77.2390859325163
 20
13.73653561788058
 30
0.0
 40
0.3157169230756836
100
AcDbArc
 50
180.0
 51
270.0
  0
ARC
  5
2F4
102
{ACAD_REACTORS
330
359
330
35A
102
}
330
71
100
AcDbEntity
  8
0
  6
Continuous
 62
     2
100
AcDbCircle
 10
-75.76325267150668
 20
18.09299066059768
 30
0.0
 40
0.315716923076593
100
AcDbArc
 50
0.0
 51
90.0
  0
ARC
  5
2F5
102
{ACAD_REACTORS
330
359
330
35A
102
}
330
71
100
AcDbEntity
  8
0
  6
Continuous
 62
     2
100
AcDbCircle
 10
-75.76325267150668
 20
17.48896604153717
 30
0.0
 40
0.3157169230761203
100
AcDbArc
 50
295.1944106485397
 51
0.0
  0
ARC
  5
2F6
102
{ACAD_REACTORS
330
359
330
35A
102
}
330
71
100
AcDbEntity
  8
0
  6
Continuous
 62
     2
100
AcDbCircle
 10
-75.76325267150668
 20
13.73653561788058
 30
0.0
 40
0.3157169230767103
100
AcDbArc
 50
270.0
 51
0.0
  0
ARC
  5
2F7
102
{ACAD_REACTORS
330
359
330
35A
102
}
330
71
100
AcDbEntity
  8
0
  6
Continuous
 62
     2
100
AcDbCircle
 10
-77.83298060926279
 20
18.69701852383048
 30
0.0
 40
0.4242446153837989
100
AcDbArc
 50
90.0
 51
180.0
  0
ARC
  5
2F8
102
{ACAD_REACTORS
330
359
330
35A
102
}
330
71
100
AcDbEntity
  8
0
  6
Continuous
 62
     2
100
AcDbCircle
 10
-72.35966851854599
 20
18.69701852383048
 30
0.0
 40
0.4242446153838841
100
AcDbArc
 50
0.0
 51
90.0
  0
ARC
  5
2F9
102
{ACAD_REACTORS
330
359
330
35A
102
}
330
71
100
AcDbEntity
  8
0
  6
Continuous
 62
     2
100
AcDbCircle
 10
-72.35966851854599
 20
13.13250775463027
 30
0.0
 40
0.4242446153832891
100
AcDbArc
 50
270.0
 51
0.0
  0
ARC
  5
2FA
102
{ACAD_REACTORS
330
357
330
358
102
}
330
71
100
AcDbEntity
  8
0
  6
Continuous
 62
     2
100
AcDbCircle
 10
-63.14128463145448
 20
17.59435837732659
 30
0.0
 40
0.7717997786796417
100
AcDbArc
 50
321.8795802028433
 51
38.12041979715956
  0
ARC
  5
2FB
102
{ACAD_REACTORS
330
357
330
358
102
}
330
71
100
AcDbEntity
  8
0
  6
Continuous
 62
     2
100
AcDbCircle
 10
-62.9415445951083
 20
17.43762719920616
 30
0.0
 40
0.5179085730134372
100
AcDbArc
 50
218.1204197971511
 51
321.8795802028566
  0
ARC
  5
2FC
102
{ACAD_REACTORS
330
355
330
356
102
}
330
71
100
AcDbEntity
  8
0
  6
Continuous
 62
     2
100
AcDbCircle
 10
-66.62155218406849
 20
14.23516790115227
 30
0.0
 40
1.458034083652003
100
AcDbArc
 50
297.548148175701
 51
62.45185182429898
  0
ARC
  5
2FD
102
{ACAD_REACTORS
330
355
330
356
102
}
330
71
100
AcDbEntity
  8
0
  6
Continuous
 62
     2
100
AcDbCircle
 10
-67.18343196773509
 20
14.23516790115227
 30
0.0
 40
1.458034083651492
100
AcDbArc
 50
117.5481481756624
 51
242.4518518243375
  0
ARC
  5
2FE
102
{ACAD_REACTORS
330
355
330
356
102
}
330
71
100
AcDbEntity
  8
0
  6
Continuous
 62
     2
100
AcDbCircle
 10
-66.90249207590179
 20
13.69659289084947
 30
0.0
 40
2.065479772208576
100
AcDbArc
 50
62.45185182430648
 51
117.5481481756663
  0
ARC
  5
2FF
102
{ACAD_REACTORS
330
355
330
356
102
}
330
71
100
AcDbEntity
  8
0
  6
Continuous
 62
     2
100
AcDbCircle
 10
-66.90249207590179
 20
14.77374291145557
 30
0.0
 40
2.065479772208504
100
AcDbArc
 50
242.4518518243401
 51
297.5481481756871
  0
ARC
  5
300
102
{ACAD_REACTORS
330
357
330
358
102
}
330
71
100
AcDbEntity
  8
0
  6
Continuous
 62
     2
100
AcDbCircle
 10
-62.741804558762
 20
17.59435837732659
 30
0.0
 40
0.7717997786796724
100
AcDbArc
 50
141.8795802028404
 51
218.1204197971566
  0
ARC
  5
301
102
{ACAD_REACTORS
330
357
330
358
102
}
330
71
100
AcDbEntity
  8
0
  6
Continuous
 62
     2
100
AcDbCircle
 10
-62.9415445951083
 20
17.75108955544707
 30
0.0
 40
0.5179085730135266
100
AcDbArc
 50
38.12041979714334
 51
141.8795802028489
  0
ARC
  5
302
102
{ACAD_REACTORS
330
359
330
35A
102
}
330
71
100
AcDbEntity
  8
0
  6
Continuous
 62
     2
100
AcDbCircle
 10
-77.83298060926279
 20
13.13250775463027
 30
0.0
 40
0.4242446153828041
100
AcDbArc
 50
180.0
 51
270.0
  0
ARC
  5
303
102
{ACAD_REACTORS
330
359
330
35A
102
}
330
71
100
AcDbEntity
  8
0
  6
Continuous
 62
     2
100
AcDbCircle
 10
-75.76325267150668
 20
15.26730654941218
 30
0.0
 40
0.315716923076593
100
AcDbArc
 50
0.0
 51
64.80558935146027
  0
ARC
  5
304
102
{ACAD_REACTORS
330
359
330
35A
102
}
330
71
100
AcDbEntity
  8
0
  6
Continuous
 62
     2
100
AcDbCircle
 10
-75.24066822393169
 20
16.37813629547497
 30
0.0
 40
0.911897523557621
100
AcDbArc
 50
115.194410648528
 51
244.8055893514878
  0
ARC
  5
305
102
{ACAD_REACTORS
330
359
330
35A
102
}
330
71
100
AcDbEntity
  8
0
  6
Continuous
 62
     2
100
AcDbCircle
 10
-77.2390859325163
 20
18.09299066059768
 30
0.0
 40
0.3157169230761916
100
AcDbArc
 50
90.0
 51
180.0
  0
ARC
  5
306
102
{ACAD_REACTORS
330
353
330
354
102
}
330
71
100
AcDbEntity
  8
0
  6
Continuous
 62
     2
100
AcDbCircle
 10
-69.90050735049928
 20
18.10529346912128
 30
0.0
 40
0.3528638246711182
100
AcDbArc
 50
270.0
 51
90.0
  0
ARC
  5
307
102
{ACAD_REACTORS
330
357
330
358
102
}
330
71
100
AcDbEntity
  8
0
  6
Continuous
 62
     2
100
AcDbCircle
 10
-63.1578166052735
 20
17.59435837732659
 30
0.0
 40
1.526904761905882
100
AcDbArc
 50
90.0
 51
270.0
  0
ARC
  5
308
102
{ACAD_REACTORS
330
35B
330
35C
102
}
330
71
100
AcDbEntity
  8
0
  6
Continuous
 62
     2
100
AcDbCircle
 10
-53.73082151256978
 20
14.12237753911737
 30
0.0
 40
1.639695123940211
100
AcDbArc
 50
90.0
 51
164.938108222895
  0
ARC
  5
309
102
{ACAD_REACTORS
330
35B
330
35C
102
}
330
71
100
AcDbEntity
  8
0
  6
Continuous
 62
     2
100
AcDbCircle
 10
-54.14994935603139
 20
14.23516790115227
 30
0.0
 40
1.205656168392995
100
AcDbArc
 50
164.9381082229028
 51
195.0618917770962
  0
ARC
  5
30A
102
{ACAD_REACTORS
330
35B
330
35C
102
}
330
71
100
AcDbEntity
  8
0
  6
Continuous
 62
     2
100
AcDbCircle
 10
-53.60007703125399
 20
14.03009647181378
 30
0.0
 40
0.511580060196027
100
AcDbArc
 50
208.521473257686
 51
246.6277221118451
  0
ARC
  5
30B
102
{ACAD_REACTORS
330
35B
330
35C
102
}
330
71
100
AcDbEntity
  8
0
  6
Continuous
 62
     2
100
AcDbCircle
 10
-53.60007703125399
 20
14.44023933049127
 30
0.0
 40
0.5115800601944116
100
AcDbArc
 50
109.3371432194862
 51
151.4785267424232
  0
ARC
  5
30C
102
{ACAD_REACTORS
330
359
330
35A
102
}
330
71
100
AcDbEntity
  8
0
  6
Continuous
 62
     2
100
AcDbCircle
 10
-74.6635372459846
 20
14.68714328881148
 30
0.0
 40
0.315716923076792
100
AcDbArc
 50
180.0
 51
269.8110329574542
  0
ARC
  5
30D
102
{ACAD_REACTORS
330
359
330
35A
102
}
330
71
100
AcDbEntity
  8
0
  6
Continuous
 62
     2
100
AcDbCircle
 10
-74.65792111067458
 20
16.38997823638047
 30
0.0
 40
2.018561131933266
100
AcDbArc
 50
269.8110329575858
 51
90.18896704241416
  0
ARC
  5
30E
102
{ACAD_REACTORS
330
359
330
35A
102
}
330
71
100
AcDbEntity
  8
0
  6
Continuous
 62
     2
100
AcDbCircle
 10
-74.6635372459846
 20
17.48727789544279
 30
0.0
 40
0.315716923076792
100
AcDbArc
 50
180.0
 51
244.6259913216484
  0
ARC
  5
30F
102
{ACAD_REACTORS
330
359
330
35A
102
}
330
71
100
AcDbEntity
  8
0
  6
Continuous
 62
     2
100
AcDbCircle
 10
-74.6635372459846
 20
15.26899469550656
 30
0.0
 40
0.3157169230765344
100
AcDbArc
 50
115.3740086783517
 51
180.0
  0
ARC
  5
310
102
{ACAD_REACTORS
330
35D
330
35E
102
}
330
71
100
AcDbEntity
  8
0
  6
Continuous
 62
     2
100
AcDbCircle
 10
-69.83352299182269
 20
14.12237753911737
 30
0.0
 40
1.639695123940505
100
AcDbArc
 50
84.84185523036236
 51
164.9381082228865
  0
ARC
  5
311
102
{ACAD_REACTORS
330
35D
330
35E
102
}
330
71
100
AcDbEntity
  8
0
  6
Continuous
 62
     2
100
AcDbCircle
 10
-70.2526508352855
 20
14.23516790115227
 30
0.0
 40
1.205656168390943
100
AcDbArc
 50
164.9381082228765
 51
195.061891777095
  0
ARC
  5
312
102
{ACAD_REACTORS
330
35D
330
35E
102
}
330
71
100
AcDbEntity
  8
0
  6
Continuous
 62
     2
100
AcDbCircle
 10
-69.83352299182269
 20
14.34795826318708
 30
0.0
 40
1.639695123939387
100
AcDbArc
 50
195.0618917770895
 51
275.1581447696395
  0
ARC
  5
313
102
{ACAD_REACTORS
330
35D
330
35E
102
}
330
71
100
AcDbEntity
  8
0
  6
Continuous
 62
     2
100
AcDbCircle
 10
-70.1223790865586
 20
17.54784884640867
 30
0.0
 40
4.852596863498134
100
AcDbArc
 50
275.1581447696249
 51
285.9799912583529
  0
ARC
  5
314
102
{ACAD_REACTORS
330
35D
330
35E
102
}
330
71
100
AcDbEntity
  8
0
  6
Continuous
 62
     2
100
AcDbCircle
 10
-69.3254212524266
 20
14.23516790115227
 30
0.0
 40
0.9410597353332545
100
AcDbArc
 50
151.4785267422669
 51
208.5214732577058
  0
ARC
  5
315
102
{ACAD_REACTORS
330
35D
330
35E
102
}
330
71
100
AcDbEntity
  8
0
  6
Continuous
 62
     2
100
AcDbCircle
 10
-69.7027785105069
 20
14.44023933049127
 30
0.0
 40
0.5115800601948796
100
AcDbArc
 50
113.3722778881991
 51
151.4785267423044
  0
ARC
  5
316
102
{ACAD_REACTORS
330
35D
330
35E
102
}
330
71
100
AcDbEntity
  8
0
  6
Continuous
 62
     2
100
AcDbCircle
 10
-69.96450621146568
 20
12.82470153574408
 30
0.0
 40
2.227384008973484
100
AcDbArc
 50
58.06909105004083
 51
71.55192388186722
  0
ARC
  5
317
102
{ACAD_REACTORS
330
355
330
356
102
}
330
71
100
AcDbEntity
  8
0
  6
Continuous
 62
     2
100
AcDbCircle
 10
-66.90249207590179
 20
14.39189907927278
 30
0.0
 40
0.5179085730132965
100
AcDbArc
 50
38.12041979714657
 51
141.8795802028592
  0
ARC
  5
318
102
{ACAD_REACTORS
330
355
330
356
102
}
330
71
100
AcDbEntity
  8
0
  6
Continuous
 62
     2
100
AcDbCircle
 10
-66.70275203955569
 20
14.23516790115227
 30
0.0
 40
0.771799778679461
100
AcDbArc
 50
141.8795802028365
 51
218.1204197971687
  0
ARC
  5
319
102
{ACAD_REACTORS
330
355
330
356
102
}
330
71
100
AcDbEntity
  8
0
  6
Continuous
 62
     2
100
AcDbCircle
 10
-66.90249207590179
 20
14.07843672303227
 30
0.0
 40
0.5179085730137343
100
AcDbArc
 50
218.120419797193
 51
321.8795802028012
  0
ARC
  5
31A
102
{ACAD_REACTORS
330
355
330
356
102
}
330
71
100
AcDbEntity
  8
0
  6
Continuous
 62
     2
100
AcDbCircle
 10
-67.1022321122482
 20
14.23516790115227
 30
0.0
 40
0.7717997786796947
100
AcDbArc
 50
321.8795802028417
 51
38.12041979715308
  0
CIRCLE
  5
31B
330
71
100
AcDbEntity
  8
1
  6
Continuous
 62
     2
100
AcDbCircle
 10
-69.7572252246456
 20
26.53976313923059
 30
0.0
 40
2.5
  0
CIRCLE
  5
31C
330
71
100
AcDbEntity
  8
1
  6
Continuous
 62
     2
100
AcDbCircle
 10
-69.7572252246456
 20
26.53976313923059
 30
0.0
 40
1.249999999999915
  0
CIRCLE
  5
31D
102
{ACAD_REACTORS
330
359
330
35A
102
}
330
71
100
AcDbEntity
  8
0
  6
Continuous
 62
     2
100
AcDbCircle
 10
-75.21339495874528
 20
16.37813629547497
 30
0.0
 40
0.4709789327785074
  0
MTEXT
  5
31E
330
71
100
AcDbEntity
  8
1
 62
     3
100
AcDbMText
 10
-239.9440077983864
 20
192.2060712945295
 30
0.0
 40
1.8
 41
0.0
 71
     7
 72
     1
  3
Weitergabe sowie Vervielf\U+00e4ltigung dieses Dokuments, Verwertung und \PMitteilung seines Inhalts sind verboten, soweit nicht ausdr\U+00fccklich gestattet. \PZuwiderhandlungen verpflichten zu Schadenersatz. Alle Rechte f\U+00fcr den Fall\Pder Pat
  1
ent-, Gebrauchsmuster- oder Designeintragung vorbehalten.
  7
CONVERTER_11
 73
     1
 44
0.99639855942377
  0
MTEXT
  5
31F
330
71
100
AcDbEntity
  8
1
 62
     3
100
AcDbMText
 10
-57.09089795959829
 20
192.2060712945295
 30
0.0
 40
1.8
 41
0.0
 71
     7
 72
     1
  3
Transfer or duplication of this document as well as the utilisation or\Pcommunication of its content are not permitted unless express consent\Pis granted. Violations give rise to claims for damages. All rights reserved\Pin case of patent, utility mo
  1
del or design patent registrations.
  7
CONVERTER_11
 73
     1
 44
0.99639855942377
  0
TEXT
  5
320
330
71
100
AcDbEntity
  8
1
 62
     2
100
AcDbText
 10
-63.29388011120838
 20
6.65574592423906
 30
0.0
 40
1.8
  1
of
 41
0.9
  7
CONVERTER_11
100
AcDbText
  0
TEXT
  5
321
330
71
100
AcDbEntity
  8
1
 62
     2
100
AcDbText
 10
-81.4938801112082
 20
6.655745924239
 30
0.0
 40
1.8
  1
page
 41
0.9
  7
CONVERTER_11
100
AcDbText
  0
TEXT
  5
322
330
71
100
AcDbEntity
  8
1
 62
     2
100
AcDbText
 10
-72.8476151408662
 20
6.61551448542866
 30
0.0
 40
1.8
  1
1
 41
0.9
  7
CONVERTER_11
100
AcDbText
  0
TEXT
  5
323
330
71
100
AcDbEntity
  8
1
 62
     2
100
AcDbText
 10
-58.05857130139469
 20
6.66476313923056
 30
0.0
 40
1.8
  1
1
 41
0.9
  7
CONVERTER_11
100
AcDbText
  0
MTEXT
  5
325
330
71
100
AcDbEntity
  8
1
 62
     7
100
AcDbMText
 10
0.4785221521673
 20
8.6647631392309
 30
0.0
 40
3.0
 41
0.0
 71
     5
 72
     1
  1
G-INSEC-PG9-S68N-NNES-S
  7
CONVERTER_12
 73
     1
 44
1.20048019207683
  0
MTEXT
  5
326
330
71
100
AcDbEntity
  8
1
 62
     2
100
AcDbMText
 10
-45.09388011120828
 20
12.91476313923067
 30
0.0
 40
1.8
 41
0.0
 71
     1
 72
     1
  1
description
  7
CONVERTER_11
 73
     1
 44
1.20048019207683
  0
MTEXT
  5
327
330
71
100
AcDbEntity
  8
1
 62
     3
100
AcDbMText
 10
-56.2938801112083
 20
26.53976313923067
 30
0.0
 40
2.5
 41
0.0
 71
     5
 72
     1
  1
DIN A4
  7
CONVERTER_11
 73
     1
 44
1.20048019207683
  0
MTEXT
  5
328
330
71
100
AcDbEntity
  8
1
 62
     7
100
AcDbMText
 10
-242.4490755844573
 20
27.91476313923067
 30
0.0
 40
3.5
 41
0.0
 71
     5
 72
     1
  1
D
  7
CONVERTER_11
 73
     1
 44
1.20048019207683
  0
MTEXT
  5
329
330
71
100
AcDbEntity
  8
1
 62
     7
100
AcDbMText
 10
-242.4490755844573
 20
80.41476313923067
 30
0.0
 40
3.5
 41
0.0
 71
     5
 72
     1
  1
C
  7
CONVERTER_11
 73
     1
 44
1.20048019207683
  0
MTEXT
  5
32A
330
71
100
AcDbEntity
  8
1
 62
     7
100
AcDbMText
 10
-242.4490755844573
 20
130.4147631392307
 30
0.0
 40
3.5
 41
0.0
 71
     5
 72
     1
  1
B
  7
CONVERTER_11
 73
     1
 44
1.20048019207683
  0
MTEXT
  5
32B
330
71
100
AcDbEntity
  8
1
 62
     7
100
AcDbMText
 10
-242.4490755844573
 20
182.9147631392307
 30
0.0
 40
3.5
 41
0.0
 71
     5
 72
     1
  1
A
  7
CONVERTER_11
 73
     1
 44
1.20048019207683
  0
MTEXT
  5
32C
330
71
100
AcDbEntity
  8
1
 62
     7
100
AcDbMText
 10
27.800924415541
 20
2.91476313923056
 30
0.0
 40
3.5
 41
0.0
 71
     5
 72
     1
  1
6
  7
CONVERTER_11
 73
     1
 44
1.20048019207683
  0
MTEXT
  5
32D
330
71
100
AcDbEntity
  8
1
 62
     7
100
AcDbMText
 10
-21.4490755844582
 20
2.91476313923056
 30
0.0
 40
3.5
 41
0.0
 71
     5
 72
     1
  1
5
  7
CONVERTER_11
 73
     1
 44
1.20048019207683
  0
MTEXT
  5
32E
330
71
100
AcDbEntity
  8
1
 62
     7
100
AcDbMText
 10
-71.44907558445828
 20
2.91476313923056
 30
0.0
 40
3.5
 41
0.0
 71
     5
 72
     1
  1
4
  7
CONVERTER_11
 73
     1
 44
1.20048019207683
  0
MTEXT
  5
32F
330
71
100
AcDbEntity
  8
1
 62
     7
100
AcDbMText
 10
-121.4490755844582
 20
2.91476313923056
 30
0.0
 40
3.5
 41
0.0
 71
     5
 72
     1
  1
3
  7
CONVERTER_11
 73
     1
 44
1.20048019207683
  0
MTEXT
  5
330
330
71
100
AcDbEntity
  8
1
 62
     7
100
AcDbMText
 10
-171.4490755844582
 20
2.91476313923056
 30
0.0
 40
3.5
 41
0.0
 71
     5
 72
     1
  1
2
  7
CONVERTER_11
 73
     1
 44
1.20048019207683
  0
MTEXT
  5
331
330
71
100
AcDbEntity
  8
1
 62
     7
100
AcDbMText
 10
-220.6990755844578
 20
2.91476313923056
 30
0.0
 40
3.5
 41
0.0
 71
     5
 72
     1
  1
1
  7
CONVERTER_11
 73
     1
 44
1.20048019207683
  0
MTEXT
  5
332
330
71
100
AcDbEntity
  8
1
 62
     7
100
AcDbMText
 10
49.55092441554081
 20
27.91476313923067
 30
0.0
 40
3.5
 41
0.0
 71
     5
 72
     1
  1
D
  7
CONVERTER_11
 73
     1
 44
1.20048019207683
  0
MTEXT
  5
333
330
71
100
AcDbEntity
  8
1
 62
     7
100
AcDbMText
 10
49.55092441554081
 20
130.4147631392326
 30
0.0
 40
3.5
 41
0.0
 71
     5
 72
     1
  1
B
  7
CONVERTER_11
 73
     1
 44
1.20048019207683
  0
MTEXT
  5
334
330
71
100
AcDbEntity
  8
1
 62
     7
100
AcDbMText
 10
49.55092441554081
 20
182.9147631392307
 30
0.0
 40
3.5
 41
0.0
 71
     5
 72
     1
  1
A
  7
CONVERTER_11
 73
     1
 44
1.20048019207683
  0
MTEXT
  5
335
330
71
100
AcDbEntity
  8
1
 62
     7
100
AcDbMText
 10
49.55092441554081
 20
80.41476313923258
 30
0.0
 40
3.5
 41
0.0
 71
     5
 72
     1
  1
C
  7
CONVERTER_11
 73
     1
 44
1.20048019207683
  0
MTEXT
  5
336
330
71
100
AcDbEntity
  8
1
 62
     2
100
AcDbMText
 10
-116.9318948362557
 20
18.16476313923059
 30
0.0
 40
2.0
 41
0.0
 71
     5
 72
     1
  1
General Information\P- Simplified representation\P- Document excluded from change process\P- Linear dimensions [mm]
  7
CONVERTER_11
 73
     1
 44
1.20048019207683
  0
TEXT
  5
337
330
71
100
AcDbEntity
  8
1
 62
     7
100
AcDbText
 10
-44.59388011120848
 20
15.21476313923057
 30
0.0
 40
2.5
  1
1411196
 41
0.81
  7
CONVERTER_12
100
AcDbText
  0
MTEXT
  5
338
330
71
100
AcDbEntity
  8
1
 62
     2
100
AcDbMText
 10
-44.9938801112082
 20
21.41476313923067
 30
0.0
 40
1.8
 41
0.0
 71
     1
 72
     1
  1
ident.-No.
  7
CONVERTER_11
 73
     1
 44
1.20048019207683
  0
MTEXT
  5
339
330
71
100
AcDbEntity
  8
1
 62
     2
100
AcDbMText
 10
39.23251613386452
 20
29.91476313923067
 30
0.0
 40
1.8
 41
0.0
 71
     1
 72
     1
  1
scale
  7
CONVERTER_11
 73
     1
 44
1.20048019207683
  0
MTEXT
  5
33B
330
71
100
AcDbEntity
  8
1
 62
     3
100
AcDbMText
 10
42.59172027470412
 20
23.71476313923077
 30
0.0
 40
2.5
 41
0.0
 71
     8
 72
     1
  1
2:1
  7
CONVERTER_13
 73
     1
 44
1.32052821128451
  0
TEXT
  5
33C
330
71
100
AcDbEntity
  8
1
 62
     7
100
AcDbText
 10
-44.9938801112082
 20
23.71476313923057
 30
0.0
 40
2.5
  1
00789004
 41
0.81
  7
CONVERTER_12
100
AcDbText
  0
MTEXT
  5
33E
330
71
100
AcDbEntity
  8
1
 62
     2
100
AcDbMText
 10
-44.9938801112082
 20
29.91476313923067
 30
0.0
 40
1.8
 41
0.0
 71
     1
 72
     1
  1
document-No. / RI
  7
CONVERTER_14
 73
     1
 44
1.32052821128451
  0
TEXT
  5
33F
330
71
100
AcDbEntity
  8
1
 62
     3
100
AcDbText
 10
-17.19388011120819
 20
15.21476313923057
 30
0.0
 40
2.5
  1
 
 41
0.81
  7
CONVERTER_12
100
AcDbText
  0
MTEXT
  5
340
330
71
100
AcDbEntity
  8
1
 62
     2
100
AcDbMText
 10
-17.19388011120819
 20
21.41476313923059
 30
0.0
 40
1.8
 41
0.0
 71
     1
 72
     1
  1
document-type
  7
CONVERTER_11
 73
     1
 44
1.20048019207683
  0
MTEXT
  5
341
330
71
100
AcDbEntity
  8
1
 62
     2
100
AcDbMText
 10
12.6325161338647
 20
29.91476313923059
 30
0.0
 40
1.8
 41
0.0
 71
     1
 72
     1
  1
date
  7
CONVERTER_11
 73
     1
 44
1.32052821128451
  0
TEXT
  5
342
330
71
100
AcDbEntity
  8
1
 62
     3
100
AcDbText
 10
12.6325161338647
 20
23.71476313923057
 30
0.0
 40
2.5
  1
11.12.2018
 41
0.81
  7
CONVERTER_12
100
AcDbText
  0
TEXT
  5
343
330
71
100
AcDbEntity
  8
1
 62
     7
100
AcDbText
 10
-24.9639678921524
 20
23.71476313923057
 30
0.0
 40
2.5
  1
02
 41
0.81
  7
CONVERTER_12
100
AcDbText
  0
TEXT
  5
344
330
71
100
AcDbEntity
  8
1
 62
     7
100
AcDbText
 10
-27.1203323891944
 20
23.71476313923057
 30
0.0
 40
2.5
  1
/
 41
0.9
  7
CONVERTER_11
100
AcDbText
  0
HATCH
  5
345
330
71
100
AcDbEntity
  8
1
  6
Continuous
 62
     2
100
AcDbHatch
 10
0.0
 20
0.0
 30
0.0
210
0.0
220
0.0
230
1.0
  2
_USER
 70
     0
 71
     1
 91
        1
 92
        1
 93
       12
 72
     1
 10
-64.8263793982471
 20
16.06745361542127
 11
-66.0191721004135
 21
16.06745361542127
 72
     1
 10
-66.0191721004135
 20
16.06745361542127
 11
-66.0191721004135
 21
17.20172572426509
 72
     1
 10
-66.0191721004135
 20
17.20172572426509
 11
-67.06882967832098
 21
17.20172572426509
 72
     1
 10
-67.06882967832098
 20
17.20172572426509
 11
-67.06882967832098
 21
16.06745361542127
 72
     1
 10
-67.06882967832098
 20
16.06745361542127
 11
-68.26162238048758
 21
16.06745361542127
 72
     1
 10
-68.26162238048758
 20
16.06745361542127
 11
-68.26162238048758
 21
19.12126313923247
 72
     1
 10
-68.26162238048758
 20
19.12126313923247
 11
-67.06882967832098
 21
19.12126313923247
 72
     1
 10
-67.06882967832098
 20
19.12126313923247
 11
-67.06882967832098
 21
18.05242980589787
 72
     1
 10
-67.06882967832098
 20
18.05242980589787
 11
-66.0191721004135
 21
18.05242980589787
 72
     1
 10
-66.0191721004135
 20
18.05242980589787
 11
-66.0191721004135
 21
19.12126313923247
 72
     1
 10
-66.0191721004135
 20
19.12126313923247
 11
-64.8263793982471
 21
19.12126313923247
 72
     1
 10
-64.8263793982471
 20
19.12126313923247
 11
-64.8263793982471
 21
16.06745361542127
 97
       12
330
2B2
330
2B3
330
29D
330
29C
330
29B
330
2AF
330
29A
330
2B0
330
2B1
330
299
330
298
330
297
 75
     1
 76
     0
 52
45.0
 41
0.1
 77
     0
 78
     1
 53
45.0
 43
0.0
 44
0.0
 45
-0.0707106781186548
 46
0.0707106781186548
 79
     0
 98
        1
 10
0.0
 20
0.0
  0
HATCH
  5
346
330
71
100
AcDbEntity
  8
1
  6
Continuous
 62
     2
100
AcDbHatch
 10
0.0
 20
0.0
 30
0.0
210
0.0
220
0.0
230
1.0
  2
_USER
 70
     0
 71
     1
 91
        1
 92
        1
 93
       12
 72
     1
 10
-64.8263793982471
 20
16.06745361542127
 11
-66.0191721004135
 21
16.06745361542127
 72
     1
 10
-66.0191721004135
 20
16.06745361542127
 11
-66.0191721004135
 21
17.20172572426509
 72
     1
 10
-66.0191721004135
 20
17.20172572426509
 11
-67.06882967832098
 21
17.20172572426509
 72
     1
 10
-67.06882967832098
 20
17.20172572426509
 11
-67.06882967832098
 21
16.06745361542127
 72
     1
 10
-67.06882967832098
 20
16.06745361542127
 11
-68.26162238048758
 21
16.06745361542127
 72
     1
 10
-68.26162238048758
 20
16.06745361542127
 11
-68.26162238048758
 21
19.12126313923247
 72
     1
 10
-68.26162238048758
 20
19.12126313923247
 11
-67.06882967832098
 21
19.12126313923247
 72
     1
 10
-67.06882967832098
 20
19.12126313923247
 11
-67.06882967832098
 21
18.05242980589787
 72
     1
 10
-67.06882967832098
 20
18.05242980589787
 11
-66.0191721004135
 21
18.05242980589787
 72
     1
 10
-66.0191721004135
 20
18.05242980589787
 11
-66.0191721004135
 21
19.12126313923247
 72
     1
 10
-66.0191721004135
 20
19.12126313923247
 11
-64.8263793982471
 21
19.12126313923247
 72
     1
 10
-64.8263793982471
 20
19.12126313923247
 11
-64.8263793982471
 21
16.06745361542127
 97
       12
330
2B2
330
2B3
330
29D
330
29C
330
29B
330
2AF
330
29A
330
2B0
330
2B1
330
299
330
298
330
297
 75
     1
 76
     0
 52
45.0
 41
0.1
 77
     0
 78
     1
 53
45.0
 43
0.0
 44
0.0
 45
-0.0707106781186548
 46
0.0707106781186548
 79
     0
 98
        1
 10
0.0
 20
0.0
  0
HATCH
  5
347
330
71
100
AcDbEntity
  8
1
  6
Continuous
 62
     2
100
AcDbHatch
 10
0.0
 20
0.0
 30
0.0
210
0.0
220
0.0
230
1.0
  2
_USER
 70
     0
 71
     1
 91
        1
 92
        1
 93
       10
 72
     1
 10
-62.5840800490588
 20
14.45329715285297
 11
-63.82458445931169
 21
15.76207266305806
 72
     1
 10
-63.82458445931169
 20
15.76207266305806
 11
-65.01737716147929
 21
15.76207266305806
 72
     1
 10
-65.01737716147929
 20
15.76207266305806
 11
-65.01737716147929
 21
12.70826313924698
 72
     1
 10
-65.01737716147929
 20
12.70826313924698
 11
-63.82458445931169
 21
12.70826313924698
 72
     1
 10
-63.82458445931169
 20
12.70826313924698
 11
-63.82458445931169
 21
14.01703864945156
 72
     1
 10
-63.82458445931169
 20
14.01703864945156
 11
-62.5840800490588
 21
12.70826313924698
 72
     1
 10
-62.5840800490588
 20
12.70826313924698
 11
-61.3912873468924
 21
12.70826313924698
 72
     1
 10
-61.3912873468924
 20
12.70826313924698
 11
-61.3912873468924
 21
15.76207266305806
 72
     1
 10
-61.3912873468924
 20
15.76207266305806
 11
-62.5840800490588
 21
15.76207266305806
 72
     1
 10
-62.5840800490588
 20
15.76207266305806
 11
-62.5840800490588
 21
14.45329715285297
 97
       10
330
2C0
330
290
330
28F
330
292
330
2BB
330
2BC
330
291
330
2BD
330
2BE
330
2BF
 75
     1
 76
     0
 52
45.0
 41
0.1
 77
     0
 78
     1
 53
45.0
 43
0.0
 44
0.0
 45
-0.0707106781186548
 46
0.0707106781186548
 79
     0
 98
        1
 10
0.0
 20
0.0
  0
HATCH
  5
348
330
71
100
AcDbEntity
  8
1
  6
Continuous
 62
     2
100
AcDbHatch
 10
0.0
 20
0.0
 30
0.0
210
0.0
220
0.0
230
1.0
  2
_USER
 70
     0
 71
     1
 91
        1
 92
        1
 93
       10
 72
     1
 10
-62.5840800490588
 20
14.45329715285297
 11
-63.82458445931169
 21
15.76207266305806
 72
     1
 10
-63.82458445931169
 20
15.76207266305806
 11
-65.01737716147929
 21
15.76207266305806
 72
     1
 10
-65.01737716147929
 20
15.76207266305806
 11
-65.01737716147929
 21
12.70826313924698
 72
     1
 10
-65.01737716147929
 20
12.70826313924698
 11
-63.82458445931169
 21
12.70826313924698
 72
     1
 10
-63.82458445931169
 20
12.70826313924698
 11
-63.82458445931169
 21
14.01703864945156
 72
     1
 10
-63.82458445931169
 20
14.01703864945156
 11
-62.5840800490588
 21
12.70826313924698
 72
     1
 10
-62.5840800490588
 20
12.70826313924698
 11
-61.3912873468924
 21
12.70826313924698
 72
     1
 10
-61.3912873468924
 20
12.70826313924698
 11
-61.3912873468924
 21
15.76207266305806
 72
     1
 10
-61.3912873468924
 20
15.76207266305806
 11
-62.5840800490588
 21
15.76207266305806
 72
     1
 10
-62.5840800490588
 20
15.76207266305806
 11
-62.5840800490588
 21
14.45329715285297
 97
       10
330
2C0
330
290
330
28F
330
292
330
2BB
330
2BC
330
291
330
2BD
330
2BE
330
2BF
 75
     1
 76
     0
 52
45.0
 41
0.1
 77
     0
 78
     1
 53
45.0
 43
0.0
 44
0.0
 45
-0.0707106781186548
 46
0.0707106781186548
 79
     0
 98
        1
 10
0.0
 20
0.0
  0
HATCH
  5
349
330
71
100
AcDbEntity
  8
1
  6
Continuous
 62
     2
100
AcDbHatch
 10
0.0
 20
0.0
 30
0.0
210
0.0
220
0.0
230
1.0
  2
_USER
 70
     0
 71
     1
 91
        1
 92
        1
 93
       10
 72
     1
 10
-57.33564122863908
 20
17.81248762902729
 11
-58.57614563889308
 21
19.12126313923247
 72
     1
 10
-58.57614563889308
 20
19.12126313923247
 11
-59.7689383410596
 21
19.12126313923247
 72
     1
 10
-59.7689383410596
 20
19.12126313923247
 11
-59.7689383410596
 21
16.06745361542127
 72
     1
 10
-59.7689383410596
 20
16.06745361542127
 11
-58.57614563889308
 21
16.06745361542127
 72
     1
 10
-58.57614563889308
 20
16.06745361542127
 11
-58.57614563889308
 21
17.37622912562597
 72
     1
 10
-58.57614563889308
 20
17.37622912562597
 11
-57.33564122863908
 21
16.06745361542127
 72
     1
 10
-57.33564122863908
 20
16.06745361542127
 11
-56.14284852647248
 21
16.06745361542127
 72
     1
 10
-56.14284852647248
 20
16.06745361542127
 11
-56.14284852647248
 21
19.12126313923247
 72
     1
 10
-56.14284852647248
 20
19.12126313923247
 11
-57.33564122863908
 21
19.12126313923247
 72
     1
 10
-57.33564122863908
 20
19.12126313923247
 11
-57.33564122863908
 21
17.81248762902729
 97
       10
330
2C5
330
28D
330
28C
330
2C6
330
28B
330
2C1
330
2C2
330
2C3
330
2C4
330
28E
 75
     1
 76
     0
 52
45.0
 41
0.1
 77
     0
 78
     1
 53
45.0
 43
0.0
 44
0.0
 45
-0.0707106781186548
 46
0.0707106781186548
 79
     0
 98
        1
 10
0.0
 20
0.0
  0
HATCH
  5
34A
330
71
100
AcDbEntity
  8
1
  6
Continuous
 62
     2
100
AcDbHatch
 10
0.0
 20
0.0
 30
0.0
210
0.0
220
0.0
230
1.0
  2
_USER
 70
     0
 71
     1
 91
        1
 92
        1
 93
       10
 72
     1
 10
-57.33564122863908
 20
17.81248762902729
 11
-58.57614563889308
 21
19.12126313923247
 72
     1
 10
-58.57614563889308
 20
19.12126313923247
 11
-59.7689383410596
 21
19.12126313923247
 72
     1
 10
-59.7689383410596
 20
19.12126313923247
 11
-59.7689383410596
 21
16.06745361542127
 72
     1
 10
-59.7689383410596
 20
16.06745361542127
 11
-58.57614563889308
 21
16.06745361542127
 72
     1
 10
-58.57614563889308
 20
16.06745361542127
 11
-58.57614563889308
 21
17.37622912562597
 72
     1
 10
-58.57614563889308
 20
17.37622912562597
 11
-57.33564122863908
 21
16.06745361542127
 72
     1
 10
-57.33564122863908
 20
16.06745361542127
 11
-56.14284852647248
 21
16.06745361542127
 72
     1
 10
-56.14284852647248
 20
16.06745361542127
 11
-56.14284852647248
 21
19.12126313923247
 72
     1
 10
-56.14284852647248
 20
19.12126313923247
 11
-57.33564122863908
 21
19.12126313923247
 72
     1
 10
-57.33564122863908
 20
19.12126313923247
 11
-57.33564122863908
 21
17.81248762902729
 97
       10
330
2C5
330
28D
330
28C
330
2C6
330
28B
330
2C1
330
2C2
330
2C3
330
2C4
330
28E
 75
     1
 76
     0
 52
45.0
 41
0.1
 77
     0
 78
     1
 53
45.0
 43
0.0
 44
0.0
 45
-0.0707106781186548
 46
0.0707106781186548
 79
     0
 98
        1
 10
0.0
 20
0.0
  0
HATCH
  5
34B
330
71
100
AcDbEntity
  8
1
  6
Continuous
 62
     2
100
AcDbHatch
 10
0.0
 20
0.0
 30
0.0
210
0.0
220
0.0
230
1.0
  2
_USER
 70
     0
 71
     1
 91
        1
 92
        1
 93
        8
 72
     1
 10
-58.43316144551858
 20
15.76207266305806
 11
-61.2481522226322
 21
15.76207266305806
 72
     1
 10
-61.2481522226322
 20
15.76207266305806
 11
-61.2481522226322
 21
14.97680735693447
 72
     1
 10
-61.2481522226322
 20
14.97680735693447
 11
-60.4370531851576
 21
14.97680735693447
 72
     1
 10
-60.4370531851576
 20
14.97680735693447
 11
-60.4370531851576
 21
12.70826313924698
 72
     1
 10
-60.4370531851576
 20
12.70826313924698
 11
-59.24426048299108
 21
12.70826313924698
 72
     1
 10
-59.24426048299108
 20
12.70826313924698
 11
-59.24426048299108
 21
14.97680735693447
 72
     1
 10
-59.24426048299108
 20
14.97680735693447
 11
-58.43316144551858
 21
14.97680735693447
 72
     1
 10
-58.43316144551858
 20
14.97680735693447
 11
-58.43316144551858
 21
15.76207266305806
 97
        8
330
287
330
2C7
330
286
330
2C8
330
2C9
330
28A
330
289
330
288
 75
     1
 76
     0
 52
45.0
 41
0.1
 77
     0
 78
     1
 53
45.0
 43
0.0
 44
0.0
 45
-0.0707106781186548
 46
0.0707106781186548
 79
     0
 98
        1
 10
0.0
 20
0.0
  0
HATCH
  5
34C
330
71
100
AcDbEntity
  8
1
  6
Continuous
 62
     2
100
AcDbHatch
 10
0.0
 20
0.0
 30
0.0
210
0.0
220
0.0
230
1.0
  2
_USER
 70
     0
 71
     1
 91
        1
 92
        1
 93
        8
 72
     1
 10
-58.43316144551858
 20
15.76207266305806
 11
-61.2481522226322
 21
15.76207266305806
 72
     1
 10
-61.2481522226322
 20
15.76207266305806
 11
-61.2481522226322
 21
14.97680735693447
 72
     1
 10
-61.2481522226322
 20
14.97680735693447
 11
-60.4370531851576
 21
14.97680735693447
 72
     1
 10
-60.4370531851576
 20
14.97680735693447
 11
-60.4370531851576
 21
12.70826313924698
 72
     1
 10
-60.4370531851576
 20
12.70826313924698
 11
-59.24426048299108
 21
12.70826313924698
 72
     1
 10
-59.24426048299108
 20
12.70826313924698
 11
-59.24426048299108
 21
14.97680735693447
 72
     1
 10
-59.24426048299108
 20
14.97680735693447
 11
-58.43316144551858
 21
14.97680735693447
 72
     1
 10
-58.43316144551858
 20
14.97680735693447
 11
-58.43316144551858
 21
15.76207266305806
 97
        8
330
287
330
2C7
330
286
330
2C8
330
2C9
330
28A
330
289
330
288
 75
     1
 76
     0
 52
45.0
 41
0.1
 77
     0
 78
     1
 53
45.0
 43
0.0
 44
0.0
 45
-0.0707106781186548
 46
0.0707106781186548
 79
     0
 98
        1
 10
0.0
 20
0.0
  0
HATCH
  5
34D
330
71
100
AcDbEntity
  8
1
  6
Continuous
 62
     2
100
AcDbHatch
 10
0.0
 20
0.0
 30
0.0
210
0.0
220
0.0
230
1.0
  2
_USER
 70
     0
 71
     1
 91
        2
 92
        1
 93
        8
 72
     1
 10
-56.2947339895716
 20
12.70826313924698
 11
-56.50621404304738
 21
13.24922368346486
 72
     1
 10
-56.50621404304738
 20
13.24922368346486
 11
-57.63865561972119
 21
13.24922368346486
 72
     1
 10
-57.63865561972119
 20
13.24922368346486
 11
-57.850135673197
 21
12.70826313924698
 72
     1
 10
-57.850135673197
 20
12.70826313924698
 11
-59.09064008344998
 21
12.70826313924698
 72
     1
 10
-59.09064008344998
 20
12.70826313924698
 11
-57.69268703651068
 21
15.76207266305806
 72
     1
 10
-57.69268703651068
 20
15.76207266305806
 11
-56.45218262625798
 21
15.76207266305806
 72
     1
 10
-56.45218262625798
 20
15.76207266305806
 11
-55.05422957931768
 21
12.70826313924698
 72
     1
 10
-55.05422957931768
 20
12.70826313924698
 11
-56.2947339895716
 21
12.70826313924698
 97
        8
330
2CB
330
2CC
330
283
330
2CD
330
282
330
285
330
2CA
330
284
 92
       16
 93
        3
 72
     1
 10
-57.37260006857619
 20
13.92978694877147
 11
-57.07243483138379
 21
14.69760191475817
 72
     1
 10
-57.07243483138379
 20
14.69760191475817
 11
-56.77226959419369
 21
13.92978694877147
 72
     1
 10
-56.77226959419369
 20
13.92978694877147
 11
-57.37260006857619
 21
13.92978694877147
 97
        3
330
281
330
2CF
330
2CE
 75
     1
 76
     0
 52
45.0
 41
0.1
 77
     0
 78
     1
 53
45.0
 43
0.0
 44
0.0
 45
-0.0707106781186548
 46
0.0707106781186548
 79
     0
 98
        1
 10
0.0
 20
0.0
  0
HATCH
  5
34E
330
71
100
AcDbEntity
  8
1
  6
Continuous
 62
     2
100
AcDbHatch
 10
0.0
 20
0.0
 30
0.0
210
0.0
220
0.0
230
1.0
  2
_USER
 70
     0
 71
     1
 91
        2
 92
        1
 93
        8
 72
     1
 10
-56.2947339895716
 20
12.70826313924698
 11
-56.50621404304738
 21
13.24922368346486
 72
     1
 10
-56.50621404304738
 20
13.24922368346486
 11
-57.63865561972119
 21
13.24922368346486
 72
     1
 10
-57.63865561972119
 20
13.24922368346486
 11
-57.850135673197
 21
12.70826313924698
 72
     1
 10
-57.850135673197
 20
12.70826313924698
 11
-59.09064008344998
 21
12.70826313924698
 72
     1
 10
-59.09064008344998
 20
12.70826313924698
 11
-57.69268703651068
 21
15.76207266305806
 72
     1
 10
-57.69268703651068
 20
15.76207266305806
 11
-56.45218262625798
 21
15.76207266305806
 72
     1
 10
-56.45218262625798
 20
15.76207266305806
 11
-55.05422957931768
 21
12.70826313924698
 72
     1
 10
-55.05422957931768
 20
12.70826313924698
 11
-56.2947339895716
 21
12.70826313924698
 97
        8
330
2CB
330
2CC
330
283
330
2CD
330
282
330
285
330
2CA
330
284
 92
       16
 93
        3
 72
     1
 10
-57.37260006857619
 20
13.92978694877147
 11
-57.07243483138379
 21
14.69760191475817
 72
     1
 10
-57.07243483138379
 20
14.69760191475817
 11
-56.77226959419369
 21
13.92978694877147
 72
     1
 10
-56.77226959419369
 20
13.92978694877147
 11
-57.37260006857619
 21
13.92978694877147
 97
        3
330
281
330
2CF
330
2CE
 75
     1
 76
     0
 52
45.0
 41
0.1
 77
     0
 78
     1
 53
45.0
 43
0.0
 44
0.0
 45
-0.0707106781186548
 46
0.0707106781186548
 79
     0
 98
        1
 10
0.0
 20
0.0
  0
HATCH
  5
34F
330
71
100
AcDbEntity
  8
1
  6
Continuous
 62
     2
100
AcDbHatch
 10
0.0
 20
0.0
 30
0.0
210
0.0
220
0.0
230
1.0
  2
_USER
 70
     0
 71
     1
 91
        1
 92
        1
 93
        4
 72
     1
 10
-54.66378557578568
 20
16.06745361542127
 11
-55.90428998603858
 21
16.06745361542127
 72
     1
 10
-55.90428998603858
 20
16.06745361542127
 11
-55.90428998603858
 21
19.12126313923247
 72
     1
 10
-55.90428998603858
 20
19.12126313923247
 11
-54.66378557578568
 21
19.12126313923247
 72
     1
 10
-54.66378557578568
 20
19.12126313923247
 11
-54.66378557578568
 21
16.06745361542127
 97
        4
330
27E
330
280
330
2D0
330
27F
 75
     1
 76
     0
 52
45.0
 41
0.1
 77
     0
 78
     1
 53
45.0
 43
0.0
 44
0.0
 45
-0.0707106781186548
 46
0.0707106781186548
 79
     0
 98
        1
 10
0.0
 20
0.0
  0
HATCH
  5
350
330
71
100
AcDbEntity
  8
1
  6
Continuous
 62
     2
100
AcDbHatch
 10
0.0
 20
0.0
 30
0.0
210
0.0
220
0.0
230
1.0
  2
_USER
 70
     0
 71
     1
 91
        1
 92
        1
 93
        4
 72
     1
 10
-54.66378557578568
 20
16.06745361542127
 11
-55.90428998603858
 21
16.06745361542127
 72
     1
 10
-55.90428998603858
 20
16.06745361542127
 11
-55.90428998603858
 21
19.12126313923247
 72
     1
 10
-55.90428998603858
 20
19.12126313923247
 11
-54.66378557578568
 21
19.12126313923247
 72
     1
 10
-54.66378557578568
 20
19.12126313923247
 11
-54.66378557578568
 21
16.06745361542127
 97
        4
330
27E
330
280
330
2D0
330
27F
 75
     1
 76
     0
 52
45.0
 41
0.1
 77
     0
 78
     1
 53
45.0
 43
0.0
 44
0.0
 45
-0.0707106781186548
 46
0.0707106781186548
 79
     0
 98
        1
 10
0.0
 20
0.0
  0
HATCH
  5
351
330
71
100
AcDbEntity
  8
1
  6
Continuous
 62
     2
100
AcDbHatch
 10
0.0
 20
0.0
 30
0.0
210
0.0
220
0.0
230
1.0
  2
_USER
 70
     0
 71
     1
 91
        1
 92
        1
 93
       12
 72
     1
 10
-50.44129941011488
 20
19.12126313923247
 11
-51.74382904088139
 21
17.64831260919627
 72
     1
 10
-51.74382904088139
 20
17.64831260919627
 11
-50.34587599394109
 21
16.06745361542127
 72
     1
 10
-50.34587599394109
 20
16.06745361542127
 11
-51.74860021168939
 21
16.06745361542127
 72
     1
 10
-51.74860021168939
 20
16.06745361542127
 11
-52.44519114975489
 21
16.85518540071499
 72
     1
 10
-52.44519114975489
 20
16.85518540071499
 11
-53.14178208782059
 21
16.06745361542127
 72
     1
 10
-53.14178208782059
 20
16.06745361542127
 11
-54.5445063055688
 21
16.06745361542127
 72
     1
 10
-54.5445063055688
 20
16.06745361542127
 11
-53.1465532586285
 21
17.64831260919627
 72
     1
 10
-53.1465532586285
 20
17.64831260919627
 11
-54.44908288939598
 21
19.12126313923247
 72
     1
 10
-54.44908288939598
 20
19.12126313923247
 11
-53.04635867164669
 21
19.12126313923247
 72
     1
 10
-53.04635867164669
 20
19.12126313923247
 11
-52.44519114975489
 21
18.44143981767698
 72
     1
 10
-52.44519114975489
 20
18.44143981767698
 11
-51.8440236278621
 21
19.12126313923247
 72
     1
 10
-51.8440236278621
 20
19.12126313923247
 11
-50.44129941011488
 21
19.12126313923247
 97
       12
330
279
330
278
330
277
330
2D4
330
2D5
330
2D1
330
2D2
330
27D
330
27C
330
27B
330
27A
330
2D3
 75
     1
 76
     0
 52
45.0
 41
0.1
 77
     0
 78
     1
 53
45.0
 43
0.0
 44
0.0
 45
-0.0707106781186548
 46
0.0707106781186548
 79
     0
 98
        1
 10
0.0
 20
0.0
  0
HATCH
  5
352
330
71
100
AcDbEntity
  8
1
  6
Continuous
 62
     2
100
AcDbHatch
 10
0.0
 20
0.0
 30
0.0
210
0.0
220
0.0
230
1.0
  2
_USER
 70
     0
 71
     1
 91
        1
 92
        1
 93
       12
 72
     1
 10
-50.44129941011488
 20
19.12126313923247
 11
-51.74382904088139
 21
17.64831260919627
 72
     1
 10
-51.74382904088139
 20
17.64831260919627
 11
-50.34587599394109
 21
16.06745361542127
 72
     1
 10
-50.34587599394109
 20
16.06745361542127
 11
-51.74860021168939
 21
16.06745361542127
 72
     1
 10
-51.74860021168939
 20
16.06745361542127
 11
-52.44519114975489
 21
16.85518540071499
 72
     1
 10
-52.44519114975489
 20
16.85518540071499
 11
-53.14178208782059
 21
16.06745361542127
 72
     1
 10
-53.14178208782059
 20
16.06745361542127
 11
-54.5445063055688
 21
16.06745361542127
 72
     1
 10
-54.5445063055688
 20
16.06745361542127
 11
-53.1465532586285
 21
17.64831260919627
 72
     1
 10
-53.1465532586285
 20
17.64831260919627
 11
-54.44908288939598
 21
19.12126313923247
 72
     1
 10
-54.44908288939598
 20
19.12126313923247
 11
-53.04635867164669
 21
19.12126313923247
 72
     1
 10
-53.04635867164669
 20
19.12126313923247
 11
-52.44519114975489
 21
18.44143981767698
 72
     1
 10
-52.44519114975489
 20
18.44143981767698
 11
-51.8440236278621
 21
19.12126313923247
 72
     1
 10
-51.8440236278621
 20
19.12126313923247
 11
-50.44129941011488
 21
19.12126313923247
 97
       12
330
279
330
278
330
277
330
2D4
330
2D5
330
2D1
330
2D2
330
27D
330
27C
330
27B
330
27A
330
2D3
 75
     1
 76
     0
 52
45.0
 41
0.1
 77
     0
 78
     1
 53
45.0
 43
0.0
 44
0.0
 45
-0.0707106781186548
 46
0.0707106781186548
 79
     0
 98
        1
 10
0.0
 20
0.0
  0
HATCH
  5
353
330
71
100
AcDbEntity
  8
1
  6
Continuous
 62
     2
100
AcDbHatch
 10
0.0
 20
0.0
 30
0.0
210
0.0
220
0.0
230
1.0
  2
_USER
 70
     0
 71
     1
 91
        2
 92
        1
 93
        6
 72
     1
 10
-69.4590348242609
 20
17.01053185656508
 11
-70.21780241204118
 21
17.01053185656508
 72
     1
 10
-70.21780241204118
 20
17.01053185656508
 11
-70.21780241204118
 21
16.06745361542127
 72
     1
 10
-70.21780241204118
 20
16.06745361542127
 11
-71.4583068222953
 21
16.06745361542127
 72
     1
 10
-71.4583068222953
 20
16.06745361542127
 11
-71.4583068222953
 21
19.12126313923247
 72
     1
 10
-71.4583068222953
 20
19.12126313923247
 11
-69.4590348242609
 21
19.12126313923247
 72
     2
 10
-69.4590348242609
 20
18.06589749789879
 40
1.055365641333708
 50
270.0
 51
450.0
 73
     0
 97
        6
330
2A1
330
2A0
330
2AD
330
2AC
330
2A2
330
2F2
 92
       16
 93
        4
 72
     2
 10
-69.90050735049928
 20
18.10529346912128
 40
0.3528638246711182
 50
270.0
 51
450.0
 73
     1
 72
     1
 10
-69.90050735049928
 20
18.45815729379237
 11
-70.21780241204118
 21
18.45815729379237
 72
     1
 10
-70.21780241204118
 20
18.45815729379237
 11
-70.21780241204118
 21
17.75242964445016
 72
     1
 10
-70.21780241204118
 20
17.75242964445016
 11
-69.90050735049928
 21
17.75242964445016
 97
        4
330
306
330
29E
330
2AE
330
29F
 75
     1
 76
     0
 52
45.0
 41
0.1
 77
     0
 78
     1
 53
45.0
 43
0.0
 44
0.0
 45
-0.0707106781186548
 46
0.0707106781186548
 79
     0
 98
        1
 10
0.0
 20
0.0
  0
HATCH
  5
354
330
71
100
AcDbEntity
  8
1
  6
Continuous
 62
     2
100
AcDbHatch
 10
0.0
 20
0.0
 30
0.0
210
0.0
220
0.0
230
1.0
  2
_USER
 70
     0
 71
     1
 91
        2
 92
        1
 93
        6
 72
     1
 10
-69.4590348242609
 20
17.01053185656508
 11
-70.21780241204118
 21
17.01053185656508
 72
     1
 10
-70.21780241204118
 20
17.01053185656508
 11
-70.21780241204118
 21
16.06745361542127
 72
     1
 10
-70.21780241204118
 20
16.06745361542127
 11
-71.4583068222953
 21
16.06745361542127
 72
     1
 10
-71.4583068222953
 20
16.06745361542127
 11
-71.4583068222953
 21
19.12126313923247
 72
     1
 10
-71.4583068222953
 20
19.12126313923247
 11
-69.4590348242609
 21
19.12126313923247
 72
     2
 10
-69.4590348242609
 20
18.06589749789879
 40
1.055365641333708
 50
270.0
 51
450.0
 73
     0
 97
        6
330
2A1
330
2A0
330
2AD
330
2AC
330
2A2
330
2F2
 92
       16
 93
        4
 72
     2
 10
-69.90050735049928
 20
18.10529346912128
 40
0.3528638246711182
 50
270.0
 51
450.0
 73
     1
 72
     1
 10
-69.90050735049928
 20
18.45815729379237
 11
-70.21780241204118
 21
18.45815729379237
 72
     1
 10
-70.21780241204118
 20
18.45815729379237
 11
-70.21780241204118
 21
17.75242964445016
 72
     1
 10
-70.21780241204118
 20
17.75242964445016
 11
-69.90050735049928
 21
17.75242964445016
 97
        4
330
306
330
29E
330
2AE
330
29F
 75
     1
 76
     0
 52
45.0
 41
0.1
 77
     0
 78
     1
 53
45.0
 43
0.0
 44
0.0
 45
-0.0707106781186548
 46
0.0707106781186548
 79
     0
 98
        1
 10
0.0
 20
0.0
  0
HATCH
  5
355
330
71
100
AcDbEntity
  8
1
  6
Continuous
 62
     2
100
AcDbHatch
 10
0.0
 20
0.0
 30
0.0
210
0.0
220
0.0
230
1.0
  2
_USER
 70
     0
 71
     1
 91
        2
 92
        1
 93
        4
 72
     2
 10
-66.90249207590179
 20
13.69659289084947
 40
2.065479772208576
 50
62.45185182430648
 51
117.5481481756663
 73
     1
 72
     2
 10
-67.18343196773509
 20
14.23516790115227
 40
1.458034083651492
 50
117.5481481756624
 51
242.4518518243375
 73
     1
 72
     2
 10
-66.90249207590179
 20
14.77374291145557
 40
2.065479772208504
 50
242.4518518243401
 51
297.5481481756871
 73
     1
 72
     2
 10
-66.62155218406849
 20
14.23516790115227
 40
1.458034083652003
 50
297.548148175701
 51
422.451851824299
 73
     1
 97
        4
330
2FE
330
2FD
330
2FF
330
2FC
 92
       16
 93
        4
 72
     2
 10
-67.1022321122482
 20
14.23516790115227
 40
0.7717997786796947
 50
321.8795802028417
 51
398.120419797153
 73
     1
 72
     2
 10
-66.90249207590179
 20
14.39189907927278
 40
0.5179085730132965
 50
38.12041979714657
 51
141.8795802028592
 73
     1
 72
     2
 10
-66.70275203955569
 20
14.23516790115227
 40
0.771799778679461
 50
141.8795802028365
 51
218.1204197971687
 73
     1
 72
     2
 10
-66.90249207590179
 20
14.07843672303227
 40
0.5179085730137343
 50
218.120419797193
 51
321.8795802028012
 73
     1
 97
        4
330
31A
330
317
330
318
330
319
 75
     1
 76
     0
 52
45.0
 41
0.1
 77
     0
 78
     1
 53
45.0
 43
0.0
 44
0.0
 45
-0.0707106781186548
 46
0.0707106781186548
 79
     0
 98
        1
 10
0.0
 20
0.0
  0
HATCH
  5
356
330
71
100
AcDbEntity
  8
1
  6
Continuous
 62
     2
100
AcDbHatch
 10
0.0
 20
0.0
 30
0.0
210
0.0
220
0.0
230
1.0
  2
_USER
 70
     0
 71
     1
 91
        2
 92
        1
 93
        4
 72
     2
 10
-66.90249207590179
 20
13.69659289084947
 40
2.065479772208576
 50
62.45185182430648
 51
117.5481481756663
 73
     1
 72
     2
 10
-67.18343196773509
 20
14.23516790115227
 40
1.458034083651492
 50
117.5481481756624
 51
242.4518518243375
 73
     1
 72
     2
 10
-66.90249207590179
 20
14.77374291145557
 40
2.065479772208504
 50
242.4518518243401
 51
297.5481481756871
 73
     1
 72
     2
 10
-66.62155218406849
 20
14.23516790115227
 40
1.458034083652003
 50
297.548148175701
 51
422.451851824299
 73
     1
 97
        4
330
2FE
330
2FD
330
2FF
330
2FC
 92
       16
 93
        4
 72
     2
 10
-67.1022321122482
 20
14.23516790115227
 40
0.7717997786796947
 50
321.8795802028417
 51
398.120419797153
 73
     1
 72
     2
 10
-66.90249207590179
 20
14.39189907927278
 40
0.5179085730132965
 50
38.12041979714657
 51
141.8795802028592
 73
     1
 72
     2
 10
-66.70275203955569
 20
14.23516790115227
 40
0.771799778679461
 50
141.8795802028365
 51
218.1204197971687
 73
     1
 72
     2
 10
-66.90249207590179
 20
14.07843672303227
 40
0.5179085730137343
 50
218.120419797193
 51
321.8795802028012
 73
     1
 97
        4
330
31A
330
317
330
318
330
319
 75
     1
 76
     0
 52
45.0
 41
0.1
 77
     0
 78
     1
 53
45.0
 43
0.0
 44
0.0
 45
-0.0707106781186548
 46
0.0707106781186548
 79
     0
 98
        1
 10
0.0
 20
0.0
  0
HATCH
  5
357
330
71
100
AcDbEntity
  8
1
  6
Continuous
 62
     2
100
AcDbHatch
 10
0.0
 20
0.0
 30
0.0
210
0.0
220
0.0
230
1.0
  2
_USER
 70
     0
 71
     1
 91
        2
 92
        1
 93
       12
 72
     1
 10
-60.0074968814925
 20
18.42324953378949
 11
-61.34342470792018
 21
18.42324953378949
 72
     1
 10
-61.34342470792018
 20
18.42324953378949
 11
-61.34342470792018
 21
17.94336518004778
 72
     1
 10
-61.34342470792018
 20
17.94336518004778
 11
-60.0074968814925
 21
17.94336518004778
 72
     1
 10
-60.0074968814925
 20
17.94336518004778
 11
-60.0074968814925
 21
17.24535157460548
 72
     1
 10
-60.0074968814925
 20
17.24535157460548
 11
-61.34342470792018
 21
17.24535157460548
 72
     1
 10
-61.34342470792018
 20
17.24535157460548
 11
-61.34342470792018
 21
16.76546722086377
 72
     1
 10
-61.34342470792018
 20
16.76546722086377
 11
-60.0074968814925
 21
16.76546722086377
 72
     1
 10
-60.0074968814925
 20
16.76546722086377
 11
-60.0074968814925
 21
16.06745361542127
 72
     1
 10
-60.0074968814925
 20
16.06745361542127
 11
-63.1578166052735
 21
16.06745361542127
 72
     2
 10
-63.1578166052735
 20
17.59435837732659
 40
1.526904761905882
 50
90.0
 51
270.0
 73
     0
 72
     1
 10
-63.1578166052735
 20
19.12126313923247
 11
-60.0074968814925
 21
19.12126313923247
 72
     1
 10
-60.0074968814925
 20
19.12126313923247
 11
-60.0074968814925
 21
18.42324953378949
 97
       12
330
2B5
330
307
330
2B6
330
2B7
330
2B8
330
2B9
330
296
330
295
330
294
330
293
330
2BA
330
2B4
 92
       16
 93
        4
 72
     2
 10
-62.9415445951083
 20
17.75108955544707
 40
0.5179085730135266
 50
38.12041979714334
 51
141.8795802028489
 73
     1
 72
     2
 10
-62.741804558762
 20
17.59435837732659
 40
0.7717997786796724
 50
141.8795802028404
 51
218.1204197971566
 73
     1
 72
     2
 10
-62.9415445951083
 20
17.43762719920616
 40
0.5179085730134372
 50
218.1204197971511
 51
321.8795802028566
 73
     1
 72
     2
 10
-63.14128463145448
 20
17.59435837732659
 40
0.7717997786796417
 50
321.8795802028433
 51
398.1204197971596
 73
     1
 97
        4
330
301
330
300
330
2FB
330
2FA
 75
     1
 76
     0
 52
45.0
 41
0.1
 77
     0
 78
     1
 53
45.0
 43
0.0
 44
0.0
 45
-0.0707106781186548
 46
0.0707106781186548
 79
     0
 98
        1
 10
0.0
 20
0.0
  0
HATCH
  5
358
330
71
100
AcDbEntity
  8
1
  6
Continuous
 62
     2
100
AcDbHatch
 10
0.0
 20
0.0
 30
0.0
210
0.0
220
0.0
230
1.0
  2
_USER
 70
     0
 71
     1
 91
        2
 92
        1
 93
       12
 72
     1
 10
-60.0074968814925
 20
18.42324953378949
 11
-61.34342470792018
 21
18.42324953378949
 72
     1
 10
-61.34342470792018
 20
18.42324953378949
 11
-61.34342470792018
 21
17.94336518004778
 72
     1
 10
-61.34342470792018
 20
17.94336518004778
 11
-60.0074968814925
 21
17.94336518004778
 72
     1
 10
-60.0074968814925
 20
17.94336518004778
 11
-60.0074968814925
 21
17.24535157460548
 72
     1
 10
-60.0074968814925
 20
17.24535157460548
 11
-61.34342470792018
 21
17.24535157460548
 72
     1
 10
-61.34342470792018
 20
17.24535157460548
 11
-61.34342470792018
 21
16.76546722086377
 72
     1
 10
-61.34342470792018
 20
16.76546722086377
 11
-60.0074968814925
 21
16.76546722086377
 72
     1
 10
-60.0074968814925
 20
16.76546722086377
 11
-60.0074968814925
 21
16.06745361542127
 72
     1
 10
-60.0074968814925
 20
16.06745361542127
 11
-63.1578166052735
 21
16.06745361542127
 72
     2
 10
-63.1578166052735
 20
17.59435837732659
 40
1.526904761905882
 50
90.0
 51
270.0
 73
     0
 72
     1
 10
-63.1578166052735
 20
19.12126313923247
 11
-60.0074968814925
 21
19.12126313923247
 72
     1
 10
-60.0074968814925
 20
19.12126313923247
 11
-60.0074968814925
 21
18.42324953378949
 97
       12
330
2B5
330
307
330
2B6
330
2B7
330
2B8
330
2B9
330
296
330
295
330
294
330
293
330
2BA
330
2B4
 92
       16
 93
        4
 72
     2
 10
-62.9415445951083
 20
17.75108955544707
 40
0.5179085730135266
 50
38.12041979714334
 51
141.8795802028489
 73
     1
 72
     2
 10
-62.741804558762
 20
17.59435837732659
 40
0.7717997786796724
 50
141.8795802028404
 51
218.1204197971566
 73
     1
 72
     2
 10
-62.9415445951083
 20
17.43762719920616
 40
0.5179085730134372
 50
218.1204197971511
 51
321.8795802028566
 73
     1
 72
     2
 10
-63.14128463145448
 20
17.59435837732659
 40
0.7717997786796417
 50
321.8795802028433
 51
398.1204197971596
 73
     1
 97
        4
330
301
330
300
330
2FB
330
2FA
 75
     1
 76
     0
 52
45.0
 41
0.1
 77
     0
 78
     1
 53
45.0
 43
0.0
 44
0.0
 45
-0.0707106781186548
 46
0.0707106781186548
 79
     0
 98
        1
 10
0.0
 20
0.0
  0
HATCH
  5
359
330
71
100
AcDbEntity
  8
1
  6
Continuous
 62
     2
100
AcDbHatch
 10
0.0
 20
0.0
 30
0.0
210
0.0
220
0.0
230
1.0
  2
_USER
 70
     0
 71
     1
 91
        4
 92
        1
 93
        8
 72
     1
 10
-71.9354239031621
 20
18.69701852383048
 11
-71.9354239031621
 21
13.13250775463027
 72
     2
 10
-72.35966851854599
 20
13.13250775463027
 40
0.4242446153832891
 50
0.0
 51
90.0
 73
     0
 72
     1
 10
-72.35966851854599
 20
12.70826313924698
 11
-77.83298060926279
 21
12.70826313924698
 72
     2
 10
-77.83298060926279
 20
13.13250775463027
 40
0.4242446153828041
 50
90.0
 51
180.0
 73
     0
 72
     1
 10
-78.2572252246456
 20
13.13250775463027
 11
-78.2572252246456
 21
18.69701852383048
 72
     2
 10
-77.83298060926279
 20
18.69701852383048
 40
0.4242446153837989
 50
180.0
 51
270.0
 73
     0
 72
     1
 10
-77.83298060926279
 20
19.12126313921428
 11
-72.35966851854599
 21
19.12126313921428
 72
     2
 10
-72.35966851854599
 20
18.69701852383048
 40
0.4242446153838841
 50
270.0
 51
360.0
 73
     0
 97
        8
330
2A9
330
2F7
330
2AA
330
302
330
2A7
330
2F9
330
2A8
330
2F8
 92
       16
 93
        1
 72
     2
 10
-75.21339495874528
 20
16.37813629547497
 40
0.4709789327785074
 50
0.0
 51
360.0
 73
     1
 97
        1
330
31D
 92
       16
 93
        8
 72
     2
 10
-74.6635372459846
 20
15.26899469550656
 40
0.3157169230765344
 50
115.3740086783517
 51
180.0
 73
     1
 72
     1
 10
-74.97925416906139
 20
15.26899469550656
 11
-74.97925416906139
 21
14.68714328881148
 72
     2
 10
-74.6635372459846
 20
14.68714328881148
 40
0.315716923076792
 50
180.0
 51
269.8110329574542
 73
     1
 72
     2
 10
-74.65792111067458
 20
16.38997823638047
 40
2.018561131933266
 50
269.8110329575858
 51
450.1889670424142
 73
     1
 72
     2
 10
-74.6635372459846
 20
18.09281318394957
 40
0.3157169230760746
 50
90.18896704254594
 51
180.0
 73
     1
 72
     1
 10
-74.97925416906139
 20
18.09281318394957
 11
-74.97925416906139
 21
17.48727789544279
 72
     2
 10
-74.6635372459846
 20
17.48727789544279
 40
0.315716923076792
 50
180.0
 51
244.6259913216484
 73
     1
 72
     2
 10
-75.18957994407248
 20
16.37813629547497
 40
0.9118481501444573
 50
295.3740086781925
 51
424.6259913218234
 73
     0
 97
        8
330
30F
330
270
330
30C
330
30D
330
2EB
330
26F
330
30E
330
2EA
 92
       16
 93
       12
 72
     2
 10
-77.2390859325163
 20
13.73653561788058
 40
0.3157169230756836
 50
180.0
 51
270.0
 73
     1
 72
     1
 10
-77.2390859325163
 20
13.42081869480387
 11
-75.76325267150668
 21
13.42081869480387
 72
     2
 10
-75.76325267150668
 20
13.73653561788058
 40
0.3157169230767103
 50
270.0
 51
360.0
 73
     1
 72
     1
 10
-75.44753574843008
 20
13.73653561788058
 11
-75.44753574843008
 21
15.26730654941218
 72
     2
 10
-75.76325267150668
 20
15.26730654941218
 40
0.315716923076593
 50
0.0
 51
64.80558935146027
 73
     1
 72
     2
 10
-75.24066822393169
 20
16.37813629547497
 40
0.911897523557621
 50
115.1944106485122
 51
244.805589351472
 73
     0
 72
     2
 10
-75.76325267150668
 20
17.48896604153717
 40
0.3157169230761203
 50
295.1944106485397
 51
360.0
 73
     1
 72
     1
 10
-75.44753574843008
 20
17.48896604153717
 11
-75.44753574843008
 21
18.09299066059768
 72
     2
 10
-75.76325267150668
 20
18.09299066059768
 40
0.315716923076593
 50
0.0
 51
90.0
 73
     1
 72
     1
 10
-75.76325267150668
 20
18.40870758367387
 11
-77.2390859325163
 21
18.40870758367387
 72
     2
 10
-77.2390859325163
 20
18.09299066059768
 40
0.3157169230761916
 50
90.0
 51
180.0
 73
     1
 72
     1
 10
-77.55480285559199
 20
18.09299066059768
 11
-77.55480285559199
 21
13.73653561788058
 97
       12
330
2F3
330
2AB
330
2F6
330
2A6
330
303
330
304
330
2F5
330
2A5
330
2F4
330
2A4
330
305
330
2A3
 75
     1
 76
     0
 52
45.0
 41
0.1
 77
     0
 78
     1
 53
45.0
 43
0.0
 44
0.0
 45
-0.0707106781186548
 46
0.0707106781186548
 79
     0
 98
        1
 10
0.0
 20
0.0
  0
HATCH
  5
35A
330
71
100
AcDbEntity
  8
1
  6
Continuous
 62
     2
100
AcDbHatch
 10
0.0
 20
0.0
 30
0.0
210
0.0
220
0.0
230
1.0
  2
_USER
 70
     0
 71
     1
 91
        4
 92
        1
 93
        8
 72
     1
 10
-71.9354239031621
 20
18.69701852383048
 11
-71.9354239031621
 21
13.13250775463027
 72
     2
 10
-72.35966851854599
 20
13.13250775463027
 40
0.4242446153832891
 50
0.0
 51
90.0
 73
     0
 72
     1
 10
-72.35966851854599
 20
12.70826313924698
 11
-77.83298060926279
 21
12.70826313924698
 72
     2
 10
-77.83298060926279
 20
13.13250775463027
 40
0.4242446153828041
 50
90.0
 51
180.0
 73
     0
 72
     1
 10
-78.2572252246456
 20
13.13250775463027
 11
-78.2572252246456
 21
18.69701852383048
 72
     2
 10
-77.83298060926279
 20
18.69701852383048
 40
0.4242446153837989
 50
180.0
 51
270.0
 73
     0
 72
     1
 10
-77.83298060926279
 20
19.12126313921428
 11
-72.35966851854599
 21
19.12126313921428
 72
     2
 10
-72.35966851854599
 20
18.69701852383048
 40
0.4242446153838841
 50
270.0
 51
360.0
 73
     0
 97
        8
330
2A9
330
2F7
330
2AA
330
302
330
2A7
330
2F9
330
2A8
330
2F8
 92
       16
 93
        1
 72
     2
 10
-75.21339495874528
 20
16.37813629547497
 40
0.4709789327785074
 50
0.0
 51
360.0
 73
     1
 97
        1
330
31D
 92
       16
 93
        8
 72
     2
 10
-74.6635372459846
 20
15.26899469550656
 40
0.3157169230765344
 50
115.3740086783517
 51
180.0
 73
     1
 72
     1
 10
-74.97925416906139
 20
15.26899469550656
 11
-74.97925416906139
 21
14.68714328881148
 72
     2
 10
-74.6635372459846
 20
14.68714328881148
 40
0.315716923076792
 50
180.0
 51
269.8110329574542
 73
     1
 72
     2
 10
-74.65792111067458
 20
16.38997823638047
 40
2.018561131933266
 50
269.8110329575858
 51
450.1889670424142
 73
     1
 72
     2
 10
-74.6635372459846
 20
18.09281318394957
 40
0.3157169230760746
 50
90.18896704254594
 51
180.0
 73
     1
 72
     1
 10
-74.97925416906139
 20
18.09281318394957
 11
-74.97925416906139
 21
17.48727789544279
 72
     2
 10
-74.6635372459846
 20
17.48727789544279
 40
0.315716923076792
 50
180.0
 51
244.6259913216484
 73
     1
 72
     2
 10
-75.18957994407248
 20
16.37813629547497
 40
0.9118481501444573
 50
295.3740086781925
 51
424.6259913218234
 73
     0
 97
        8
330
30F
330
270
330
30C
330
30D
330
2EB
330
26F
330
30E
330
2EA
 92
       16
 93
       12
 72
     2
 10
-77.2390859325163
 20
13.73653561788058
 40
0.3157169230756836
 50
180.0
 51
270.0
 73
     1
 72
     1
 10
-77.2390859325163
 20
13.42081869480387
 11
-75.76325267150668
 21
13.42081869480387
 72
     2
 10
-75.76325267150668
 20
13.73653561788058
 40
0.3157169230767103
 50
270.0
 51
360.0
 73
     1
 72
     1
 10
-75.44753574843008
 20
13.73653561788058
 11
-75.44753574843008
 21
15.26730654941218
 72
     2
 10
-75.76325267150668
 20
15.26730654941218
 40
0.315716923076593
 50
0.0
 51
64.80558935146027
 73
     1
 72
     2
 10
-75.24066822393169
 20
16.37813629547497
 40
0.911897523557621
 50
115.1944106485122
 51
244.805589351472
 73
     0
 72
     2
 10
-75.76325267150668
 20
17.48896604153717
 40
0.3157169230761203
 50
295.1944106485397
 51
360.0
 73
     1
 72
     1
 10
-75.44753574843008
 20
17.48896604153717
 11
-75.44753574843008
 21
18.09299066059768
 72
     2
 10
-75.76325267150668
 20
18.09299066059768
 40
0.315716923076593
 50
0.0
 51
90.0
 73
     1
 72
     1
 10
-75.76325267150668
 20
18.40870758367387
 11
-77.2390859325163
 21
18.40870758367387
 72
     2
 10
-77.2390859325163
 20
18.09299066059768
 40
0.3157169230761916
 50
90.0
 51
180.0
 73
     1
 72
     1
 10
-77.55480285559199
 20
18.09299066059768
 11
-77.55480285559199
 21
13.73653561788058
 97
       12
330
2F3
330
2AB
330
2F6
330
2A6
330
303
330
304
330
2F5
330
2A5
330
2F4
330
2A4
330
305
330
2A3
 75
     1
 76
     0
 52
45.0
 41
0.1
 77
     0
 78
     1
 53
45.0
 43
0.0
 44
0.0
 45
-0.0707106781186548
 46
0.0707106781186548
 79
     0
 98
        1
 10
0.0
 20
0.0
  0
HATCH
  5
35B
330
71
100
AcDbEntity
  8
1
  6
Continuous
 62
     2
100
AcDbHatch
 10
0.0
 20
0.0
 30
0.0
210
0.0
220
0.0
230
1.0
  2
_USER
 70
     0
 71
     1
 91
        1
 92
        1
 93
       18
 72
     1
 10
-50.34587599394109
 20
14.97680735693447
 11
-51.15697503141448
 21
14.97680735693447
 72
     1
 10
-51.15697503141448
 20
14.97680735693447
 11
-51.15697503141448
 21
12.70826313924698
 72
     1
 10
-51.15697503141448
 20
12.70826313924698
 11
-52.34976773358218
 21
12.70826313924698
 72
     1
 10
-52.34976773358218
 20
12.70826313924698
 11
-52.34976773358218
 21
14.97680735693447
 72
     1
 10
-52.34976773358218
 20
14.97680735693447
 11
-53.45340703315029
 21
14.97680735693447
 72
     2
 10
-53.45340703315029
 20
14.02228435010838
 40
0.9545230068260899
 50
90.0
 51
109.3371432194321
 73
     1
 72
     2
 10
-53.60007703125399
 20
14.44023933049127
 40
0.5115800601944116
 50
109.3371432194862
 51
151.4785267424232
 73
     1
 72
     2
 10
-53.2227197731726
 20
14.23516790115227
 40
0.941059735334897
 50
151.4785267423628
 51
208.5214732576693
 73
     1
 72
     2
 10
-53.60007703125399
 20
14.03009647181378
 40
0.511580060196027
 50
208.521473257686
 51
246.6277221118451
 73
     1
 72
     2
 10
-53.44363699855089
 20
14.39208849052378
 40
0.9059297849852821
 50
246.6277221118188
 51
288.4480761180822
 73
     1
 72
     2
 10
-53.86180473221279
 20
15.64563426656036
 40
2.227384008972737
 50
288.4480761181335
 51
301.9309089499397
 73
     1
 72
     1
 10
-52.68374969018888
 20
13.75528354741059
 11
-52.68374969018888
 21
12.88276654060726
 72
     2
 10
-54.0196776073056
 20
17.54784884640867
 40
4.852596863498825
 50
74.02000874166129
 51
84.8418552303636
 73
     0
 72
     2
 10
-53.73082151256978
 20
14.34795826318708
 40
1.639695123940442
 50
84.8418552303235
 51
164.9381082228987
 73
     0
 72
     2
 10
-54.14994935603139
 20
14.23516790115227
 40
1.205656168392995
 50
164.9381082229037
 51
195.0618917770972
 73
     0
 72
     2
 10
-53.73082151256978
 20
14.12237753911737
 40
1.639695123940211
 50
195.0618917771051
 51
270.0
 73
     0
 72
     1
 10
-53.73082151256978
 20
15.76207266305758
 11
-50.34587599394109
 21
15.76207266305806
 72
     1
 10
-50.34587599394109
 20
15.76207266305806
 11
-50.34587599394109
 21
14.97680735693447
 97
       18
330
272
330
308
330
309
330
2F1
330
2F0
330
2D6
330
2EF
330
2EE
330
30A
330
2ED
330
30B
330
2EC
330
2D7
330
271
330
276
330
275
330
274
330
273
 75
     1
 76
     0
 52
45.0
 41
0.1
 77
     0
 78
     1
 53
45.0
 43
0.0
 44
0.0
 45
-0.0707106781186548
 46
0.0707106781186548
 79
     0
 98
        1
 10
0.0
 20
0.0
  0
HATCH
  5
35C
330
71
100
AcDbEntity
  8
1
  6
Continuous
 62
     2
100
AcDbHatch
 10
0.0
 20
0.0
 30
0.0
210
0.0
220
0.0
230
1.0
  2
_USER
 70
     0
 71
     1
 91
        1
 92
        1
 93
       18
 72
     1
 10
-50.34587599394109
 20
14.97680735693447
 11
-51.15697503141448
 21
14.97680735693447
 72
     1
 10
-51.15697503141448
 20
14.97680735693447
 11
-51.15697503141448
 21
12.70826313924698
 72
     1
 10
-51.15697503141448
 20
12.70826313924698
 11
-52.34976773358218
 21
12.70826313924698
 72
     1
 10
-52.34976773358218
 20
12.70826313924698
 11
-52.34976773358218
 21
14.97680735693447
 72
     1
 10
-52.34976773358218
 20
14.97680735693447
 11
-53.45340703315029
 21
14.97680735693447
 72
     2
 10
-53.45340703315029
 20
14.02228435010838
 40
0.9545230068260899
 50
90.0
 51
109.3371432194321
 73
     1
 72
     2
 10
-53.60007703125399
 20
14.44023933049127
 40
0.5115800601944116
 50
109.3371432194862
 51
151.4785267424232
 73
     1
 72
     2
 10
-53.2227197731726
 20
14.23516790115227
 40
0.941059735334897
 50
151.4785267423628
 51
208.5214732576693
 73
     1
 72
     2
 10
-53.60007703125399
 20
14.03009647181378
 40
0.511580060196027
 50
208.521473257686
 51
246.6277221118451
 73
     1
 72
     2
 10
-53.44363699855089
 20
14.39208849052378
 40
0.9059297849852821
 50
246.6277221118188
 51
288.4480761180822
 73
     1
 72
     2
 10
-53.86180473221279
 20
15.64563426656036
 40
2.227384008972737
 50
288.4480761181335
 51
301.9309089499397
 73
     1
 72
     1
 10
-52.68374969018888
 20
13.75528354741059
 11
-52.68374969018888
 21
12.88276654060726
 72
     2
 10
-54.0196776073056
 20
17.54784884640867
 40
4.852596863498825
 50
74.02000874166129
 51
84.8418552303636
 73
     0
 72
     2
 10
-53.73082151256978
 20
14.34795826318708
 40
1.639695123940442
 50
84.8418552303235
 51
164.9381082228987
 73
     0
 72
     2
 10
-54.14994935603139
 20
14.23516790115227
 40
1.205656168392995
 50
164.9381082229037
 51
195.0618917770972
 73
     0
 72
     2
 10
-53.73082151256978
 20
14.12237753911737
 40
1.639695123940211
 50
195.0618917771051
 51
270.0
 73
     0
 72
     1
 10
-53.73082151256978
 20
15.76207266305758
 11
-50.34587599394109
 21
15.76207266305806
 72
     1
 10
-50.34587599394109
 20
15.76207266305806
 11
-50.34587599394109
 21
14.97680735693447
 97
       18
330
272
330
308
330
309
330
2F1
330
2F0
330
2D6
330
2EF
330
2EE
330
30A
330
2ED
330
30B
330
2EC
330
2D7
330
271
330
276
330
275
330
274
330
273
 75
     1
 76
     0
 52
45.0
 41
0.1
 77
     0
 78
     1
 53
45.0
 43
0.0
 44
0.0
 45
-0.0707106781186548
 46
0.0707106781186548
 79
     0
 98
        1
 10
0.0
 20
0.0
  0
HATCH
  5
35D
330
71
100
AcDbEntity
  8
1
  6
Continuous
 62
     2
100
AcDbHatch
 10
0.0
 20
0.0
 30
0.0
210
0.0
220
0.0
230
1.0
  2
_USER
 70
     0
 71
     1
 91
        1
 92
        1
 93
       14
 72
     2
 10
-69.83352299182269
 20
14.12237753911737
 40
1.639695123940505
 50
84.84185523036236
 51
164.9381082228865
 73
     1
 72
     2
 10
-70.2526508352855
 20
14.23516790115227
 40
1.205656168390943
 50
164.9381082228765
 51
195.061891777095
 73
     1
 72
     2
 10
-69.83352299182269
 20
14.34795826318708
 40
1.639695123939387
 50
195.0618917770895
 51
275.1581447696395
 73
     1
 72
     2
 10
-70.1223790865586
 20
17.54784884640867
 40
4.852596863498134
 50
275.1581447696249
 51
285.9799912583529
 73
     1
 72
     1
 10
-68.7864511694408
 20
12.88276654060786
 11
-68.7864511694408
 21
13.75528354741107
 72
     2
 10
-69.96450621146568
 20
15.64563426656096
 40
2.227384008972737
 50
58.06909105004065
 51
71.55192388186722
 73
     0
 72
     2
 10
-69.54633847780488
 20
14.39208849052378
 40
0.9059297849849242
 50
71.55192388184163
 51
113.3722778881288
 73
     0
 72
     2
 10
-69.7027785105069
 20
14.03009647181378
 40
0.5115800601948034
 50
113.3722778881725
 51
151.4785267423044
 73
     0
 72
     2
 10
-69.3254212524266
 20
14.23516790115227
 40
0.9410597353332545
 50
151.4785267422942
 51
208.5214732577331
 73
     0
 72
     2
 10
-69.7027785105069
 20
14.44023933049127
 40
0.5115800601948796
 50
208.5214732576956
 51
246.6277221118009
 73
     0
 72
     2
 10
-69.54633847780488
 20
14.07824731178067
 40
0.9059297849853228
 50
246.6277221118712
 51
288.4480761181465
 73
     0
 72
     2
 10
-69.96450621146568
 20
12.82470153574408
 40
2.227384008973484
 50
288.4480761181328
 51
301.9309089499592
 73
     0
 72
     1
 10
-68.7864511694408
 20
14.71505225489398
 11
-68.7864511694408
 21
15.58756926169727
 72
     2
 10
-70.1223790865586
 20
10.92248695589638
 40
4.852596863498064
 50
74.02000874164737
 51
84.84185523037506
 73
     1
 97
       14
330
310
330
311
330
312
330
313
330
2D8
330
2E9
330
2E8
330
2E7
330
314
330
315
330
2E6
330
316
330
2D9
330
2E5
 75
     1
 76
     0
 52
45.0
 41
0.1
 77
     0
 78
     1
 53
45.0
 43
0.0
 44
0.0
 45
-0.0707106781186548
 46
0.0707106781186548
 79
     0
 98
        1
 10
0.0
 20
0.0
  0
HATCH
  5
35E
330
71
100
AcDbEntity
  8
1
  6
Continuous
 62
     2
100
AcDbHatch
 10
0.0
 20
0.0
 30
0.0
210
0.0
220
0.0
230
1.0
  2
_USER
 70
     0
 71
     1
 91
        1
 92
        1
 93
       14
 72
     2
 10
-69.83352299182269
 20
14.12237753911737
 40
1.639695123940505
 50
84.84185523036236
 51
164.9381082228865
 73
     1
 72
     2
 10
-70.2526508352855
 20
14.23516790115227
 40
1.205656168390943
 50
164.9381082228765
 51
195.061891777095
 73
     1
 72
     2
 10
-69.83352299182269
 20
14.34795826318708
 40
1.639695123939387
 50
195.0618917770895
 51
275.1581447696395
 73
     1
 72
     2
 10
-70.1223790865586
 20
17.54784884640867
 40
4.852596863498134
 50
275.1581447696249
 51
285.9799912583529
 73
     1
 72
     1
 10
-68.7864511694408
 20
12.88276654060786
 11
-68.7864511694408
 21
13.75528354741107
 72
     2
 10
-69.96450621146568
 20
15.64563426656096
 40
2.227384008972737
 50
58.06909105004065
 51
71.55192388186722
 73
     0
 72
     2
 10
-69.54633847780488
 20
14.39208849052378
 40
0.9059297849849242
 50
71.55192388184163
 51
113.3722778881288
 73
     0
 72
     2
 10
-69.7027785105069
 20
14.03009647181378
 40
0.5115800601948034
 50
113.3722778881725
 51
151.4785267423044
 73
     0
 72
     2
 10
-69.3254212524266
 20
14.23516790115227
 40
0.9410597353332545
 50
151.4785267422942
 51
208.5214732577331
 73
     0
 72
     2
 10
-69.7027785105069
 20
14.44023933049127
 40
0.5115800601948796
 50
208.5214732576956
 51
246.6277221118009
 73
     0
 72
     2
 10
-69.54633847780488
 20
14.07824731178067
 40
0.9059297849853228
 50
246.6277221118712
 51
288.4480761181465
 73
     0
 72
     2
 10
-69.96450621146568
 20
12.82470153574408
 40
2.227384008973484
 50
288.4480761181328
 51
301.9309089499592
 73
     0
 72
     1
 10
-68.7864511694408
 20
14.71505225489398
 11
-68.7864511694408
 21
15.58756926169727
 72
     2
 10
-70.1223790865586
 20
10.92248695589638
 40
4.852596863498064
 50
74.02000874164737
 51
84.84185523037506
 73
     1
 97
       14
330
310
330
311
330
312
330
313
330
2D8
330
2E9
330
2E8
330
2E7
330
314
330
315
330
2E6
330
316
330
2D9
330
2E5
 75
     1
 76
     0
 52
45.0
 41
0.1
 77
     0
 78
     1
 53
45.0
 43
0.0
 44
0.0
 45
-0.0707106781186548
 46
0.0707106781186548
 79
     0
 98
        1
 10
0.0
 20
0.0
  0
ENDBLK
  5
73
330
71
100
AcDbEntity
  8
0
100
AcDbBlockEnd
  0
BLOCK
  5
75
330
74
100
AcDbEntity
  8
0
100
AcDbBlockBegin
  2
_punkt
 70
     0
 10
47.05092441554181
 20
5.41476313923067
 30
0.0
  3
_punkt
  1

  0
LINE
  5
35F
330
74
100
AcDbEntity
  8
1
  6
Continuous
 62
     2
100
AcDbLine
 10
47.05092441554181
 20
5.41476313923067
 30
0.0
 11
52.05092441554081
 21
5.41476313923067
 31
0.0
  0
LINE
  5
360
330
74
100
AcDbEntity
  8
1
  6
Continuous
 62
     2
100
AcDbLine
 10
47.05092441554181
 20
5.41476313923067
 30
0.0
 11
47.05092441554181
 21
0.41476313923056
 31
0.0
  0
ENDBLK
  5
76
330
74
100
AcDbEntity
  8
0
100
AcDbBlockEnd
  0
BLOCK
  5
7A
330
77
100
AcDbEntity
  8
0
100
AcDbBlockBegin
  2
A4I_CS
 70
     0
 10
47.05092441554181
 20
0.41476313923056
 30
0.0
  3
A4I_CS
  1

  0
INSERT
  5
78
330
77
100
AcDbEntity
  8
1
100
AcDbBlockReference
  2
_rahmen
 10
47.05092441554181
 20
0.41476313923056
 30
0.0
  0
INSERT
  5
79
330
77
100
AcDbEntity
  8
1
100
AcDbBlockReference
  2
_punkt
 10
47.05092441554181
 20
5.41476313923067
 30
0.0
  0
ENDBLK
  5
7B
330
77
100
AcDbEntity
  8
0
100
AcDbBlockEnd
  0
BLOCK
  5
84
330
7C
100
AcDbEntity
  8
0
100
AcDbBlockBegin
  2
1
 70
     0
 10
0.0
 20
0.0
 30
0.0
  3
1
  1

  0
INSERT
  5
7D
330
7C
100
AcDbEntity
  8
0
100
AcDbBlockReference
  2
Allg1
 10
2.99999999976932
 20
79.99999999984198
 30
0.0
 41
2.0
 42
2.0
 43
2.0
  0
INSERT
  5
7E
330
7C
100
AcDbEntity
  8
0
100
AcDbBlockReference
  2
Drfsicht1
 10
-129.2730140689238
 20
89.10000038150974
 30
0.0
 41
2.0
 42
2.0
 43
2.0
  0
INSERT
  5
7F
330
7C
100
AcDbEntity
  8
0
100
AcDbBlockReference
  2
Rckans1
 10
0.00000000032003
 20
154.9999999999606
 30
0.0
 41
2.0
 42
2.0
 43
2.0
  0
INSERT
  5
80
330
7C
100
AcDbEntity
  8
0
100
AcDbBlockReference
  2
SA_Links1
 10
-68.1365070343819
 20
154.99999999996
 30
0.0
 41
2.0
 42
2.0
 43
2.0
  0
INSERT
  5
81
330
7C
100
AcDbEntity
  8
0
100
AcDbBlockReference
  2
SA_Rechts1
 10
-204.4095235171512
 20
154.9999999999606
 30
0.0
 41
2.0
 42
2.0
 43
2.0
  0
INSERT
  5
82
330
7C
100
AcDbEntity
  8
0
100
AcDbBlockReference
  2
Vordans1
 10
-129.2730140689245
 20
154.9999999999606
 30
0.0
 41
2.0
 42
2.0
 43
2.0
  0
INSERT
  5
83
330
7C
100
AcDbEntity
  8
0
100
AcDbBlockReference
  2
A4I_CS
 10
47.05092441554181
 20
0.41476313923056
 30
0.0
  0
ENDBLK
  5
85
330
7C
100
AcDbEntity
  8
0
100
AcDbBlockEnd
  0
BLOCK
  5
13A
330
133
100
AcDbEntity
  8
0
100
AcDbBlockBegin
  2
*D17
 70
     1
 10
0.0
 20
0.0
 30
0.0
  3
*D17
  1

  0
LINE
  5
134
330
133
100
AcDbEntity
  8
1
  6
Continuous
 62
     2
100
AcDbLine
 10
-84.25476074284039
 20
35.10000019079488
 30
0.0
 11
-84.25476074284039
 21
54.00000019079489
 31
0.0
  0
LINE
  5
135
330
133
100
AcDbEntity
  8
1
  6
Continuous
 62
     2
100
AcDbLine
 10
-73.25476074250764
 20
35.10000019079488
 30
0.0
 11
-85.25476074284039
 21
35.10000019079488
 31
0.0
  0
LINE
  5
136
330
133
100
AcDbEntity
  8
1
  6
Continuous
 62
     2
100
AcDbLine
 10
-73.25476074250764
 20
54.00000019079489
 30
0.0
 11
-85.25476074284039
 21
54.00000019079489
 31
0.0
  0
SOLID
  5
137
330
133
100
AcDbEntity
  8
1
 62
     2
100
AcDbTrace
 10
-84.48515261361833
 20
36.85000019079488
 30
0.0
 11
-84.02436887206245
 21
36.85000019079488
 31
0.0
 12
-84.25476074284039
 22
35.10000019079488
 32
0.0
 13
-84.25476074284039
 23
35.10000019079488
 33
0.0
  0
SOLID
  5
138
330
133
100
AcDbEntity
  8
1
 62
     2
100
AcDbTrace
 10
-84.02436887206245
 20
52.25000019079489
 30
0.0
 11
-84.48515261361833
 21
52.25000019079489
 31
0.0
 12
-84.25476074284039
 22
54.00000019079489
 32
0.0
 13
-84.25476074284039
 23
54.00000019079489
 33
0.0
  0
MTEXT
  5
139
330
133
100
AcDbEntity
  8
1
 62
     3
100
AcDbMText
 10
-85.4297607428404
 20
42.40625019079489
 30
0.0
 40
1.75
 41
0.0
 71
     7
 72
     1
  1
18,9
  7
CONVERTER_11
 11
0.0
 21
1.0
 31
0.0
 73
     1
 44
0.60024009603842
  0
ENDBLK
  5
13B
330
133
100
AcDbEntity
  8
0
100
AcDbBlockEnd
  0
BLOCK
  5
219
330
212
100
AcDbEntity
  8
0
100
AcDbBlockBegin
  2
*D18
 70
     1
 10
0.0
 20
0.0
 30
0.0
  3
*D18
  1

  0
LINE
  5
213
330
212
100
AcDbEntity
  8
1
  6
Continuous
 62
     2
100
AcDbLine
 10
-79.25476074284073
 20
63.29258876789856
 30
0.0
 11
-50.01825282471067
 21
63.29258876789856
 31
0.0
  0
LINE
  5
214
330
212
100
AcDbEntity
  8
1
  6
Continuous
 62
     2
100
AcDbLine
 10
-79.25476074284073
 20
70.61738201153386
 30
0.0
 11
-79.25476074284073
 21
62.54258876789856
 31
0.0
  0
LINE
  5
215
330
212
100
AcDbEntity
  8
1
  6
Continuous
 62
     2
100
AcDbLine
 10
-50.01825282471067
 20
71.8999999999603
 30
0.0
 11
-50.01825282471067
 21
62.54258876789856
 31
0.0
  0
SOLID
  5
216
330
212
100
AcDbEntity
  8
1
 62
     2
100
AcDbTrace
 10
-77.50476074284073
 20
63.5229806386765
 30
0.0
 11
-77.50476074284073
 21
63.06219689712061
 31
0.0
 12
-79.25476074284073
 22
63.29258876789856
 32
0.0
 13
-79.25476074284073
 23
63.29258876789856
 33
0.0
  0
SOLID
  5
217
330
212
100
AcDbEntity
  8
1
 62
     2
100
AcDbTrace
 10
-51.76825282471067
 20
63.06219689712061
 30
0.0
 11
-51.76825282471067
 21
63.5229806386765
 31
0.0
 12
-50.01825282471067
 22
63.29258876789856
 32
0.0
 13
-50.01825282471067
 23
63.29258876789856
 33
0.0
  0
MTEXT
  5
218
330
212
100
AcDbEntity
  8
1
 62
     3
100
AcDbMText
 10
-67.83025703446192
 20
64.21758876789856
 30
0.0
 40
1.75
 41
0.0
 71
     7
 72
     1
  1
29,24
  7
CONVERTER_11
 11
0.9999999999970619
 21
2.424068405545306E-6
 31
0.0
 73
     1
 44
0.60024009603842
  0
ENDBLK
  5
21A
330
212
100
AcDbEntity
  8
0
100
AcDbBlockEnd
  0
BLOCK
  5
224
330
21D
100
AcDbEntity
  8
0
100
AcDbBlockBegin
  2
*D19
 70
     1
 10
0.0
 20
0.0
 30
0.0
  3
*D19
  1

  0
LINE
  5
21E
330
21D
100
AcDbEntity
  8
1
  6
Continuous
 62
     2
100
AcDbLine
 10
-83.08858987493252
 20
68.9999999999603
 30
0.0
 11
-83.08858987493252
 21
85.99999999996031
 31
0.0
  0
LINE
  5
21F
330
21D
100
AcDbEntity
  8
1
  6
Continuous
 62
     2
100
AcDbLine
 10
-60.26370109113863
 20
68.9999999999603
 30
0.0
 11
-83.83858987493252
 21
68.9999999999603
 31
0.0
  0
LINE
  5
220
330
21D
100
AcDbEntity
  8
1
  6
Continuous
 62
     2
100
AcDbLine
 10
-60.26370109114791
 20
85.99999999996031
 30
0.0
 11
-83.83858987493252
 21
85.99999999996031
 31
0.0
  0
SOLID
  5
221
330
21D
100
AcDbEntity
  8
1
 62
     2
100
AcDbTrace
 10
-83.31898174571046
 20
70.7499999999603
 30
0.0
 11
-82.85819800415459
 21
70.7499999999603
 31
0.0
 12
-83.08858987493252
 22
68.9999999999603
 32
0.0
 13
-83.08858987493252
 23
68.9999999999603
 33
0.0
  0
SOLID
  5
222
330
21D
100
AcDbEntity
  8
1
 62
     2
100
AcDbTrace
 10
-82.85819800415459
 20
84.24999999996031
 30
0.0
 11
-83.31898174571046
 21
84.24999999996031
 31
0.0
 12
-83.08858987493252
 22
85.99999999996031
 32
0.0
 13
-83.08858987493252
 23
85.99999999996031
 33
0.0
  0
MTEXT
  5
223
330
21D
100
AcDbEntity
  8
1
 62
     3
100
AcDbMText
 10
-83.83858987493252
 20
76.80547540941507
 30
0.0
 40
1.75
 41
0.0
 71
     7
 72
     1
  1
17
  7
CONVERTER_11
 11
0.0
 21
1.0
 31
0.0
 73
     1
 44
0.60024009603842
  0
ENDBLK
  5
225
330
21D
100
AcDbEntity
  8
0
100
AcDbBlockEnd
  0
ENDSEC
  0
SECTION
  2
ENTITIES
  0
INSERT
  5
86
330
1F
100
AcDbEntity
  8
1
100
AcDbBlockReference
  2
1
 10
0.0
 20
0.0
 30
0.0
  0
ENDSEC
  0
SECTION
  2
OBJECTS
  0
DICTIONARY
  5
C
330
0
100
AcDbDictionary
281
     1
  3
ACAD_GROUP
350
D
  3
ACAD_LAYOUT
350
1A
  3
ACAD_MATERIAL
350
3B
  3
ACAD_MLEADERSTYLE
350
388
  3
ACAD_MLINESTYLE
350
17
  3
ACAD_PLOTSETTINGS
350
19
  3
ACAD_PLOTSTYLENAME
350
E
  3
ACAD_TABLESTYLE
350
387
  3
ACAD_VISUALSTYLE
350
2A
  0
DICTIONARY
  5
D
102
{ACAD_REACTORS
330
C
102
}
330
C
100
AcDbDictionary
281
     1
  0
DICTIONARY
  5
1A
102
{ACAD_REACTORS
330
C
102
}
330
C
100
AcDbDictionary
281
     1
  3
Layout1
350
1E
  3
Layout2
350
26
  3
Model
350
22
  0
DICTIONARY
  5
3B
102
{ACAD_REACTORS
330
C
102
}
330
C
100
AcDbDictionary
281
     1
  3
ByBlock
350
3D
  3
ByLayer
350
3C
  3
Global
350
3E
  0
DICTIONARY
  5
388
102
{ACAD_REACTORS
330
C
102
}
330
C
100
AcDbDictionary
281
     1
  0
DICTIONARY
  5
17
102
{ACAD_REACTORS
330
C
102
}
330
C
100
AcDbDictionary
281
     1
  3
Standard
350
18
  0
DICTIONARY
  5
19
102
{ACAD_REACTORS
330
C
102
}
330
C
100
AcDbDictionary
281
     1
  0
ACDBDICTIONARYWDFLT
  5
E
102
{ACAD_REACTORS
330
C
102
}
330
C
100
AcDbDictionary
281
     1
  3
Normal
350
F
100
AcDbDictionaryWithDefault
340
F
  0
DICTIONARY
  5
387
102
{ACAD_REACTORS
330
C
102
}
330
C
100
AcDbDictionary
281
     1
  0
DICTIONARY
  5
2A
102
{ACAD_REACTORS
330
C
102
}
330
C
100
AcDbDictionary
281
     1
  3
2dWireframe
350
2F
  3
3D Hidden
350
31
  3
3dWireframe
350
30
  3
Basic
350
32
  3
Brighten
350
36
  3
ColorChange
350
3A
  3
Conceptual
350
34
  3
Dim
350
35
  3
Facepattern
350
39
  3
Flat
350
2B
  3
FlatWithEdges
350
2C
  3
Gouraud
350
2D
  3
GouraudWithEdges
350
2E
  3
Linepattern
350
38
  3
Realistic
350
33
  3
Thicken
350
37
  0
LAYOUT
  5
1E
102
{ACAD_REACTORS
330
1A
102
}
330
1A
100
AcDbPlotSettings
  1

  2
none_device
  4

  6

 40
0.0
 41
0.0
 42
0.0
 43
0.0
 44
0.0
 45
0.0
 46
0.0
 47
0.0
 48
0.0
 49
0.0
140
0.0
141
0.0
142
1.0
143
1.0
 70
   688
 72
     0
 73
     0
 74
     5
  7

 75
    16
 76
     0
 77
     2
 78
   300
147
1.0
148
0.0
149
0.0
100
AcDbLayout
  1
Layout1
 70
     1
 71
     1
 10
0.0
 20
0.0
 11
12.0
 21
9.0
 12
0.0
 22
0.0
 32
0.0
 14
1.00000000000000E+20
 24
1.00000000000000E+20
 34
1.00000000000000E+20
 15
-1.00000000000000E+20
 25
-1.00000000000000E+20
 35
-1.00000000000000E+20
146
0.0
 13
0.0
 23
0.0
 33
0.0
 16
1.0
 26
0.0
 36
0.0
 17
0.0
 27
1.0
 37
0.0
 76
     0
330
1B
  0
LAYOUT
  5
26
102
{ACAD_REACTORS
330
1A
102
}
330
1A
100
AcDbPlotSettings
  1

  2
none_device
  4

  6

 40
0.0
 41
0.0
 42
0.0
 43
0.0
 44
0.0
 45
0.0
 46
0.0
 47
0.0
 48
0.0
 49
0.0
140
0.0
141
0.0
142
1.0
143
1.0
 70
   688
 72
     0
 73
     0
 74
     5
  7

 75
    16
 76
     0
 77
     2
 78
   300
147
1.0
148
0.0
149
0.0
100
AcDbLayout
  1
Layout2
 70
     1
 71
     2
 10
0.0
 20
0.0
 11
0.0
 21
0.0
 12
0.0
 22
0.0
 32
0.0
 14
0.0
 24
0.0
 34
0.0
 15
0.0
 25
0.0
 35
0.0
146
0.0
 13
0.0
 23
0.0
 33
0.0
 16
1.0
 26
0.0
 36
0.0
 17
0.0
 27
1.0
 37
0.0
 76
     0
330
23
  0
LAYOUT
  5
22
102
{ACAD_REACTORS
330
1A
102
}
330
1A
100
AcDbPlotSettings
  1

  2
none_device
  4

  6

 40
0.0
 41
0.0
 42
0.0
 43
0.0
 44
0.0
 45
0.0
 46
0.0
 47
0.0
 48
0.0
 49
0.0
140
0.0
141
0.0
142
1.0
143
1.0
 70
  1712
 72
     0
 73
     0
 74
     0
  7

 75
     0
 76
     0
 77
     2
 78
   300
147
1.0
148
0.0
149
0.0
100
AcDbLayout
  1
Model
 70
     1
 71
     0
 10
0.0
 20
0.0
 11
12.0
 21
9.0
 12
0.0
 22
0.0
 32
0.0
 14
-244.9490755844573
 24
0.41476313923056
 34
0.0
 15
52.05092441554081
 25
210.4147631392307
 35
0.0
146
0.0
 13
0.0
 23
0.0
 33
0.0
 16
1.0
 26
0.0
 36
0.0
 17
0.0
 27
1.0
 37
0.0
 76
     0
330
1F
331
29
  0
MATERIAL
  5
3D
102
{ACAD_REACTORS
330
3B
102
}
102
{ACAD_XDICTIONARY
360
383
102
}
330
3B
100
AcDbMaterial
  1
ByBlock
  0
MATERIAL
  5
3C
102
{ACAD_REACTORS
330
3B
102
}
102
{ACAD_XDICTIONARY
360
381
102
}
330
3B
100
AcDbMaterial
  1
ByLayer
  0
MATERIAL
  5
3E
102
{ACAD_REACTORS
330
3B
102
}
102
{ACAD_XDICTIONARY
360
385
102
}
330
3B
100
AcDbMaterial
  1
Global
  0
MLINESTYLE
  5
18
102
{ACAD_REACTORS
330
17
102
}
330
17
100
AcDbMlineStyle
  2
Standard
 70
     0
  3

 62
   256
 51
90.0
 52
90.0
 71
     2
 49
0.5
 62
   256
  6
BYLAYER
 49
-0.5
 62
   256
  6
BYLAYER
  0
ACDBPLACEHOLDER
  5
F
102
{ACAD_REACTORS
330
E
102
}
330
E
  0
VISUALSTYLE
  5
2F
102
{ACAD_REACTORS
330
2A
102
}
102
{ACAD_XDICTIONARY
360
369
102
}
330
2A
100
AcDbVisualStyle
  2
2dWireframe
 70
     4
 71
     0
 72
     2
 73
     0
 90
        0
 40
-0.6
 41
-30.0
 62
     5
 63
     7
421
 16777215
 74
     1
 91
        4
 64
     7
 65
   257
 75
     1
175
     1
 42
1.0
 92
        0
 66
   257
 43
1.0
 76
     1
 77
     6
 78
     2
 67
     7
 79
     5
170
     0
171
     0
290
     0
174
     0
 93
        1
 44
0.0
173
     0
291
     0
 45
0.0
1001
ACAD
1000
AcDbSavedByObjectVersion
1070
     0
  0
VISUALSTYLE
  5
31
102
{ACAD_REACTORS
330
2A
102
}
102
{ACAD_XDICTIONARY
360
36D
102
}
330
2A
100
AcDbVisualStyle
  2
3D Hidden
 70
     6
 71
     1
 72
     2
 73
     2
 90
        0
 40
-0.6
 41
-30.0
 62
     5
 63
     7
421
 16777215
 74
     2
 91
        2
 64
     7
 65
   257
 75
     2
175
     1
 42
40.0
 92
        0
 66
   257
 43
1.0
 76
     1
 77
     6
 78
     2
 67
     7
 79
     3
170
     0
171
     0
290
     0
174
     0
 93
        1
 44
0.0
173
     0
291
     0
 45
0.0
1001
ACAD
1000
AcDbSavedByObjectVersion
1070
     0
  0
VISUALSTYLE
  5
30
102
{ACAD_REACTORS
330
2A
102
}
102
{ACAD_XDICTIONARY
360
36B
102
}
330
2A
100
AcDbVisualStyle
  2
3dWireframe
 70
     5
 71
     0
 72
     2
 73
     0
 90
        0
 40
-0.6
 41
-30.0
 62
     5
 63
     7
421
 16777215
 74
     1
 91
        4
 64
     7
 65
   257
 75
     1
175
     1
 42
1.0
 92
        0
 66
   257
 43
1.0
 76
     1
 77
     6
 78
     2
 67
     7
 79
     5
170
     0
171
     0
290
     0
174
     0
 93
        1
 44
0.0
173
     0
291
     0
 45
0.0
1001
ACAD
1000
AcDbSavedByObjectVersion
1070
     0
  0
VISUALSTYLE
  5
32
102
{ACAD_REACTORS
330
2A
102
}
102
{ACAD_XDICTIONARY
360
36F
102
}
330
2A
100
AcDbVisualStyle
  2
Basic
 70
     7
 71
     1
 72
     0
 73
     1
 90
        0
 40
-0.6
 41
-30.0
 62
     5
 63
     7
421
 16777215
 74
     0
 91
        4
 64
     7
 65
   257
 75
     1
175
     1
 42
1.0
 92
        8
 66
     7
 43
1.0
 76
     1
 77
     6
 78
     2
 67
     7
 79
     5
170
     0
171
     0
290
     0
174
     0
 93
        1
 44
0.0
173
     0
291
     1
 45
0.0
1001
ACAD
1000
AcDbSavedByObjectVersion
1070
     0
  0
VISUALSTYLE
  5
36
102
{ACAD_REACTORS
330
2A
102
}
102
{ACAD_XDICTIONARY
360
377
102
}
330
2A
100
AcDbVisualStyle
  2
Brighten
 70
    12
 71
     2
 72
     2
 73
     0
 90
        0
 40
-0.6
 41
-30.0
 62
     5
 63
     7
421
 16777215
 74
     1
 91
        4
 64
     7
 65
   257
 75
     1
175
     1
 42
1.0
 92
        8
 66
     7
 43
1.0
 76
     1
 77
     6
 78
     2
 67
     7
 79
     5
170
     0
171
     0
290
     0
174
     0
 93
        1
 44
50.0
173
     0
291
     1
 45
0.0
1001
ACAD
1000
AcDbSavedByObjectVersion
1070
     0
  0
VISUALSTYLE
  5
3A
102
{ACAD_REACTORS
330
2A
102
}
102
{ACAD_XDICTIONARY
360
37F
102
}
330
2A
100
AcDbVisualStyle
  2
ColorChange
 70
    16
 71
     2
 72
     2
 73
     3
 90
        0
 40
-0.6
 41
-30.0
 62
     5
 63
     8
421
  8421504
 74
     1
 91
        4
 64
     7
 65
   257
 75
     1
175
     1
 42
1.0
 92
        8
 66
     8
424
  8421504
 43
1.0
 76
     1
 77
     6
 78
     2
 67
     7
 79
     5
170
     0
171
     0
290
     0
174
     0
 93
        1
 44
0.0
173
     0
291
     1
 45
0.0
1001
ACAD
1000
AcDbSavedByObjectVersion
1070
     0
  0
VISUALSTYLE
  5
34
102
{ACAD_REACTORS
330
2A
102
}
102
{ACAD_XDICTIONARY
360
373
102
}
330
2A
100
AcDbVisualStyle
  2
Conceptual
 70
     9
 71
     3
 72
     2
 73
     0
 90
        0
 40
-0.6
 41
-30.0
 62
     5
 63
     7
421
 16777215
 74
     2
 91
        2
 64
     7
 65
   257
 75
     1
175
     1
 42
40.0
 92
        8
 66
     7
 43
1.0
 76
     1
 77
     6
 78
     2
 67
     7
 79
     3
170
     0
171
     0
290
     0
174
     0
 93
        1
 44
0.0
173
     0
291
     0
 45
0.0
1001
ACAD
1000
AcDbSavedByObjectVersion
1070
     0
  0
VISUALSTYLE
  5
35
102
{ACAD_REACTORS
330
2A
102
}
102
{ACAD_XDICTIONARY
360
375
102
}
330
2A
100
AcDbVisualStyle
  2
Dim
 70
    11
 71
     2
 72
     2
 73
     0
 90
        0
 40
-0.6
 41
-30.0
 62
     5
 63
     7
421
 16777215
 74
     1
 91
        4
 64
     7
 65
   257
 75
     1
175
     1
 42
1.0
 92
        8
 66
     7
 43
1.0
 76
     1
 77
     6
 78
     2
 67
     7
 79
     5
170
     0
171
     0
290
     0
174
     0
 93
        1
 44
-50.0
173
     0
291
     1
 45
0.0
1001
ACAD
1000
AcDbSavedByObjectVersion
1070
     0
  0
VISUALSTYLE
  5
39
102
{ACAD_REACTORS
330
2A
102
}
102
{ACAD_XDICTIONARY
360
37D
102
}
330
2A
100
AcDbVisualStyle
  2
Facepattern
 70
    15
 71
     2
 72
     2
 73
     0
 90
        0
 40
-0.6
 41
-30.0
 62
     5
 63
     7
421
 16777215
 74
     1
 91
        4
 64
     7
 65
   257
 75
     1
175
     1
 42
1.0
 92
        8
 66
     7
 43
1.0
 76
     1
 77
     6
 78
     2
 67
     7
 79
     5
170
     0
171
     0
290
     0
174
     0
 93
        1
 44
0.0
173
     0
291
     1
 45
0.0
1001
ACAD
1000
AcDbSavedByObjectVersion
1070
     0
  0
VISUALSTYLE
  5
2B
102
{ACAD_REACTORS
330
2A
102
}
102
{ACAD_XDICTIONARY
360
361
102
}
330
2A
100
AcDbVisualStyle
  2
Flat
 70
     0
 71
     2
 72
     1
 73
     1
 90
        2
 40
-0.6
 41
30.0
 62
     5
 63
     7
421
 16777215
 74
     0
 91
        4
 64
     7
 65
   257
 75
     1
175
     1
 42
1.0
 92
        8
 66
     7
 43
1.0
 76
     1
 77
     6
 78
     2
 67
     7
 79
     5
170
     0
171
     0
290
     0
174
     0
 93
       13
 44
0.0
173
     0
291
     1
 45
0.0
1001
ACAD
1000
AcDbSavedByObjectVersion
1070
     0
  0
VISUALSTYLE
  5
2C
102
{ACAD_REACTORS
330
2A
102
}
102
{ACAD_XDICTIONARY
360
363
102
}
330
2A
100
AcDbVisualStyle
  2
FlatWithEdges
 70
     1
 71
     2
 72
     1
 73
     1
 90
        2
 40
-0.6
 41
30.0
 62
     5
 63
     7
421
 16777215
 74
     1
 91
        4
 64
     7
 65
   257
 75
     1
175
     1
 42
1.0
 92
        0
 66
   257
 43
1.0
 76
     1
 77
     6
 78
     2
 67
     7
 79
     5
170
     0
171
     0
290
     0
174
     0
 93
       13
 44
0.0
173
     0
291
     1
 45
0.0
1001
ACAD
1000
AcDbSavedByObjectVersion
1070
     0
  0
VISUALSTYLE
  5
2D
102
{ACAD_REACTORS
330
2A
102
}
102
{ACAD_XDICTIONARY
360
365
102
}
330
2A
100
AcDbVisualStyle
  2
Gouraud
 70
     2
 71
     2
 72
     2
 73
     1
 90
        2
 40
-0.6
 41
30.0
 62
     5
 63
     7
421
 16777215
 74
     0
 91
        4
 64
     7
 65
   257
 75
     1
175
     1
 42
1.0
 92
        0
 66
     7
 43
1.0
 76
     1
 77
     6
 78
     2
 67
     7
 79
     5
170
     0
171
     0
290
     0
174
     0
 93
       13
 44
0.0
173
     0
291
     1
 45
0.0
1001
ACAD
1000
AcDbSavedByObjectVersion
1070
     0
  0
VISUALSTYLE
  5
2E
102
{ACAD_REACTORS
330
2A
102
}
102
{ACAD_XDICTIONARY
360
367
102
}
330
2A
100
AcDbVisualStyle
  2
GouraudWithEdges
 70
     3
 71
     2
 72
     2
 73
     1
 90
        2
 40
-0.6
 41
30.0
 62
     5
 63
     7
421
 16777215
 74
     1
 91
        4
 64
     7
 65
   257
 75
     1
175
     1
 42
1.0
 92
        0
 66
   257
 43
1.0
 76
     1
 77
     6
 78
     2
 67
     7
 79
     5
170
     0
171
     0
290
     0
174
     0
 93
       13
 44
0.0
173
     0
291
     1
 45
0.0
1001
ACAD
1000
AcDbSavedByObjectVersion
1070
     0
  0
VISUALSTYLE
  5
38
102
{ACAD_REACTORS
330
2A
102
}
102
{ACAD_XDICTIONARY
360
37B
102
}
330
2A
100
AcDbVisualStyle
  2
Linepattern
 70
    14
 71
     2
 72
     2
 73
     0
 90
        0
 40
-0.6
 41
-30.0
 62
     5
 63
     7
421
 16777215
 74
     1
 91
        4
 64
     7
 65
   257
 75
     7
175
     7
 42
1.0
 92
        8
 66
     7
 43
1.0
 76
     1
 77
     6
 78
     2
 67
     7
 79
     5
170
     0
171
     0
290
     0
174
     0
 93
        1
 44
0.0
173
     0
291
     1
 45
0.0
1001
ACAD
1000
AcDbSavedByObjectVersion
1070
     0
  0
VISUALSTYLE
  5
33
102
{ACAD_REACTORS
330
2A
102
}
102
{ACAD_XDICTIONARY
360
371
102
}
330
2A
100
AcDbVisualStyle
  2
Realistic
 70
     8
 71
     2
 72
     2
 73
     0
 90
        0
 40
-0.6
 41
-30.0
 62
     5
 63
     7
421
 16777215
 74
     1
 91
        0
 64
     7
 65
   257
 75
     1
175
     1
 42
1.0
 92
        8
 66
     8
424
  7895160
 43
1.0
 76
     1
 77
     6
 78
     2
 67
     7
 79
     5
170
     0
171
     0
290
     0
174
     0
 93
       13
 44
0.0
173
     0
291
     0
 45
0.0
1001
ACAD
1000
AcDbSavedByObjectVersion
1070
     0
  0
VISUALSTYLE
  5
37
102
{ACAD_REACTORS
330
2A
102
}
102
{ACAD_XDICTIONARY
360
379
102
}
330
2A
100
AcDbVisualStyle
  2
Thicken
 70
    13
 71
     2
 72
     2
 73
     0
 90
        0
 40
-0.6
 41
-30.0
 62
     5
 63
     7
421
 16777215
 74
     1
 91
        4
 64
     7
 65
   257
 75
     1
175
     1
 42
1.0
 92
       12
 66
     7
 43
1.0
 76
     1
 77
     6
 78
     2
 67
     7
 79
     5
170
     0
171
     0
290
     0
174
     0
 93
        1
 44
0.0
173
     0
291
     1
 45
0.0
1001
ACAD
1000
AcDbSavedByObjectVersion
1070
     0
  0
DICTIONARY
  5
383
330
3D
100
AcDbDictionary
280
     1
281
     1
  3
ACAD_XREC_ROUNDTRIP
360
384
  0
DICTIONARY
  5
381
330
3C
100
AcDbDictionary
280
     1
281
     1
  3
ACAD_XREC_ROUNDTRIP
360
382
  0
DICTIONARY
  5
385
330
3E
100
AcDbDictionary
280
     1
281
     1
  3
ACAD_XREC_ROUNDTRIP
360
386
  0
DICTIONARY
  5
369
330
2F
100
AcDbDictionary
280
     1
281
     1
  3
ACAD_XREC_ROUNDTRIP
360
36A
  0
DICTIONARY
  5
36D
330
31
100
AcDbDictionary
280
     1
281
     1
  3
ACAD_XREC_ROUNDTRIP
360
36E
  0
DICTIONARY
  5
36B
330
30
100
AcDbDictionary
280
     1
281
     1
  3
ACAD_XREC_ROUNDTRIP
360
36C
  0
DICTIONARY
  5
36F
330
32
100
AcDbDictionary
280
     1
281
     1
  3
ACAD_XREC_ROUNDTRIP
360
370
  0
DICTIONARY
  5
377
330
36
100
AcDbDictionary
280
     1
281
     1
  3
ACAD_XREC_ROUNDTRIP
360
378
  0
DICTIONARY
  5
37F
330
3A
100
AcDbDictionary
280
     1
281
     1
  3
ACAD_XREC_ROUNDTRIP
360
380
  0
DICTIONARY
  5
373
330
34
100
AcDbDictionary
280
     1
281
     1
  3
ACAD_XREC_ROUNDTRIP
360
374
  0
DICTIONARY
  5
375
330
35
100
AcDbDictionary
280
     1
281
     1
  3
ACAD_XREC_ROUNDTRIP
360
376
  0
DICTIONARY
  5
37D
330
39
100
AcDbDictionary
280
     1
281
     1
  3
ACAD_XREC_ROUNDTRIP
360
37E
  0
DICTIONARY
  5
361
330
2B
100
AcDbDictionary
280
     1
281
     1
  3
ACAD_XREC_ROUNDTRIP
360
362
  0
DICTIONARY
  5
363
330
2C
100
AcDbDictionary
280
     1
281
     1
  3
ACAD_XREC_ROUNDTRIP
360
364
  0
DICTIONARY
  5
365
330
2D
100
AcDbDictionary
280
     1
281
     1
  3
ACAD_XREC_ROUNDTRIP
360
366
  0
DICTIONARY
  5
367
330
2E
100
AcDbDictionary
280
     1
281
     1
  3
ACAD_XREC_ROUNDTRIP
360
368
  0
DICTIONARY
  5
37B
330
38
100
AcDbDictionary
280
     1
281
     1
  3
ACAD_XREC_ROUNDTRIP
360
37C
  0
DICTIONARY
  5
371
330
33
100
AcDbDictionary
280
     1
281
     1
  3
ACAD_XREC_ROUNDTRIP
360
372
  0
DICTIONARY
  5
379
330
37
100
AcDbDictionary
280
     1
281
     1
  3
ACAD_XREC_ROUNDTRIP
360
37A
  0
XRECORD
  5
384
102
{ACAD_REACTORS
330
383
102
}
330
383
100
AcDbXrecord
280
     1
102
MATERIAL
148
0.0
149
0.0
149
0.0
 93
        0
 94
      127
282
     0
 72
     1
 77
     1
171
     1
175
     1
179
     1
273
     0
  0
XRECORD
  5
382
102
{ACAD_REACTORS
330
381
102
}
330
381
100
AcDbXrecord
280
     1
102
MATERIAL
148
0.0
149
0.0
149
0.0
 93
        0
 94
      127
282
     0
 72
     1
 77
     1
171
     1
175
     1
179
     1
273
     0
  0
XRECORD
  5
386
102
{ACAD_REACTORS
330
385
102
}
330
385
100
AcDbXrecord
280
     1
102
MATERIAL
148
0.0
149
0.0
149
0.0
 93
        0
 94
      127
282
     0
 72
     1
 77
     1
171
     1
175
     1
179
     1
273
     0
  0
XRECORD
  5
36A
102
{ACAD_REACTORS
330
369
102
}
330
369
100
AcDbXrecord
280
     1
102
RTVSPropertyOp0
 70
     1
102
RTVSPropertyOp1
 70
     1
102
RTVSPropertyOp2
 70
     1
102
RTVSPropertyOp3
 70
     1
102
RTVSPropertyOp4
 70
     1
102
RTVSPropertyOp5
 70
     1
102
RTVSPropertyOp6
 70
     1
102
RTVSPropertyOp7
 70
     1
102
RTVSPropertyOp8
 70
     1
102
RTVSPropertyOp9
 70
     1
102
RTVSPropertyOp10
 70
     1
102
RTVSPropertyOp11
 70
     1
102
RTVSPropertyOp12
 70
     1
102
RTVSPropertyOp13
 70
     1
102
RTVSPropertyOp14
 70
     1
102
RTVSPropertyOp15
 70
     1
102
RTVSPropertyOp16
 70
     1
102
RTVSPropertyOp17
 70
     1
102
RTVSPropertyOp18
 70
     1
102
RTVSPropertyOp19
 70
     1
102
RTVSPropertyOp20
 70
     1
102
RTVSPropertyOp21
 70
     1
102
RTVSPropertyOp22
 70
     1
102
RTVSPropertyOp23
 70
     1
102
RTVSPropertyOp24
 70
     1
102
RTVSPropertyOp25
 70
     1
102
RTVSPropertyOp26
 70
     1
102
RTVSPropertyOp27
 70
     1
102
RTVSPropertyOp28
 70
     1
102
RTVSPropertyOp29
 70
     1
102
RTVSPropertyOp30
 70
     1
102
RTVSPropertyOp31
 70
     1
102
RTVSPropertyOp32
 70
     1
  0
XRECORD
  5
36E
102
{ACAD_REACTORS
330
36D
102
}
330
36D
100
AcDbXrecord
280
     1
102
RTVSPropertyOp0
 70
     1
102
RTVSPropertyOp1
 70
     1
102
RTVSPropertyOp2
 70
     1
102
RTVSPropertyOp3
 70
     1
102
RTVSPropertyOp4
 70
     1
102
RTVSPropertyOp5
 70
     1
102
RTVSPropertyOp6
 70
     1
102
RTVSPropertyOp7
 70
     1
102
RTVSPropertyOp8
 70
     1
102
RTVSPropertyOp9
 70
     1
102
RTVSPropertyOp10
 70
     1
102
RTVSPropertyOp11
 70
     1
102
RTVSPropertyOp12
 70
     1
102
RTVSPropertyOp13
 70
     1
102
RTVSPropertyOp14
 70
     1
102
RTVSPropertyOp15
 70
     1
102
RTVSPropertyOp16
 70
     1
102
RTVSPropertyOp17
 70
     1
102
RTVSPropertyOp18
 70
     1
102
RTVSPropertyOp19
 70
     1
102
RTVSPropertyOp20
 70
     1
102
RTVSPropertyOp21
 70
     1
102
RTVSPropertyOp22
 70
     1
102
RTVSPropertyOp23
 70
     1
102
RTVSPropertyOp24
 70
     1
102
RTVSPropertyOp25
 70
     1
102
RTVSPropertyOp26
 70
     1
102
RTVSPropertyOp27
 70
     1
102
RTVSPropertyOp28
 70
     1
102
RTVSPropertyOp29
 70
     1
102
RTVSPropertyOp30
 70
     1
102
RTVSPropertyOp31
 70
     1
102
RTVSPropertyOp32
 70
     1
  0
XRECORD
  5
36C
102
{ACAD_REACTORS
330
36B
102
}
330
36B
100
AcDbXrecord
280
     1
102
RTVSPropertyOp0
 70
     1
102
RTVSPropertyOp1
 70
     1
102
RTVSPropertyOp2
 70
     1
102
RTVSPropertyOp3
 70
     1
102
RTVSPropertyOp4
 70
     1
102
RTVSPropertyOp5
 70
     1
102
RTVSPropertyOp6
 70
     1
102
RTVSPropertyOp7
 70
     1
102
RTVSPropertyOp8
 70
     1
102
RTVSPropertyOp9
 70
     1
102
RTVSPropertyOp10
 70
     1
102
RTVSPropertyOp11
 70
     1
102
RTVSPropertyOp12
 70
     1
102
RTVSPropertyOp13
 70
     1
102
RTVSPropertyOp14
 70
     1
102
RTVSPropertyOp15
 70
     1
102
RTVSPropertyOp16
 70
     1
102
RTVSPropertyOp17
 70
     1
102
RTVSPropertyOp18
 70
     1
102
RTVSPropertyOp19
 70
     1
102
RTVSPropertyOp20
 70
     1
102
RTVSPropertyOp21
 70
     1
102
RTVSPropertyOp22
 70
     1
102
RTVSPropertyOp23
 70
     1
102
RTVSPropertyOp24
 70
     1
102
RTVSPropertyOp25
 70
     1
102
RTVSPropertyOp26
 70
     1
102
RTVSPropertyOp27
 70
     1
102
RTVSPropertyOp28
 70
     1
102
RTVSPropertyOp29
 70
     1
102
RTVSPropertyOp30
 70
     1
102
RTVSPropertyOp31
 70
     1
102
RTVSPropertyOp32
 70
     1
  0
XRECORD
  5
370
102
{ACAD_REACTORS
330
36F
102
}
330
36F
100
AcDbXrecord
280
     1
102
RTVSPropertyOp0
 70
     1
102
RTVSPropertyOp1
 70
     1
102
RTVSPropertyOp2
 70
     1
102
RTVSPropertyOp3
 70
     1
102
RTVSPropertyOp4
 70
     1
102
RTVSPropertyOp5
 70
     1
102
RTVSPropertyOp6
 70
     1
102
RTVSPropertyOp7
 70
     1
102
RTVSPropertyOp8
 70
     1
102
RTVSPropertyOp9
 70
     1
102
RTVSPropertyOp10
 70
     1
102
RTVSPropertyOp11
 70
     1
102
RTVSPropertyOp12
 70
     1
102
RTVSPropertyOp13
 70
     1
102
RTVSPropertyOp14
 70
     1
102
RTVSPropertyOp15
 70
     1
102
RTVSPropertyOp16
 70
     1
102
RTVSPropertyOp17
 70
     1
102
RTVSPropertyOp18
 70
     1
102
RTVSPropertyOp19
 70
     1
102
RTVSPropertyOp20
 70
     1
102
RTVSPropertyOp21
 70
     1
102
RTVSPropertyOp22
 70
     1
102
RTVSPropertyOp23
 70
     1
102
RTVSPropertyOp24
 70
     1
102
RTVSPropertyOp25
 70
     1
102
RTVSPropertyOp26
 70
     1
102
RTVSPropertyOp27
 70
     1
102
RTVSPropertyOp28
 70
     1
102
RTVSPropertyOp29
 70
     1
102
RTVSPropertyOp30
 70
     1
102
RTVSPropertyOp31
 70
     1
102
RTVSPropertyOp32
 70
     1
  0
XRECORD
  5
378
102
{ACAD_REACTORS
330
377
102
}
330
377
100
AcDbXrecord
280
     1
102
RTVSPropertyOp0
 70
     1
102
RTVSPropertyOp1
 70
     1
102
RTVSPropertyOp2
 70
     1
102
RTVSPropertyOp3
 70
     1
102
RTVSPropertyOp4
 70
     1
102
RTVSPropertyOp5
 70
     1
102
RTVSPropertyOp6
 70
     1
102
RTVSPropertyOp7
 70
     1
102
RTVSPropertyOp8
 70
     1
102
RTVSPropertyOp9
 70
     1
102
RTVSPropertyOp10
 70
     1
102
RTVSPropertyOp11
 70
     1
102
RTVSPropertyOp12
 70
     1
102
RTVSPropertyOp13
 70
     1
102
RTVSPropertyOp14
 70
     1
102
RTVSPropertyOp15
 70
     1
102
RTVSPropertyOp16
 70
     1
102
RTVSPropertyOp17
 70
     1
102
RTVSPropertyOp18
 70
     1
102
RTVSPropertyOp19
 70
     1
102
RTVSPropertyOp20
 70
     1
102
RTVSPropertyOp21
 70
     1
102
RTVSPropertyOp22
 70
     1
102
RTVSPropertyOp23
 70
     1
102
RTVSPropertyOp24
 70
     1
102
RTVSPropertyOp25
 70
     1
102
RTVSPropertyOp26
 70
     1
102
RTVSPropertyOp27
 70
     1
102
RTVSPropertyOp28
 70
     1
102
RTVSPropertyOp29
 70
     1
102
RTVSPropertyOp30
 70
     1
102
RTVSPropertyOp31
 70
     1
102
RTVSPropertyOp32
 70
     1
  0
XRECORD
  5
380
102
{ACAD_REACTORS
330
37F
102
}
330
37F
100
AcDbXrecord
280
     1
102
RTVSPropertyOp0
 70
     1
102
RTVSPropertyOp1
 70
     1
102
RTVSPropertyOp2
 70
     1
102
RTVSPropertyOp3
 70
     1
102
RTVSPropertyOp4
 70
     1
102
RTVSPropertyOp5
 70
     1
102
RTVSPropertyOp6
 70
     1
102
RTVSPropertyOp7
 70
     1
102
RTVSPropertyOp8
 70
     1
102
RTVSPropertyOp9
 70
     1
102
RTVSPropertyOp10
 70
     1
102
RTVSPropertyOp11
 70
     1
102
RTVSPropertyOp12
 70
     1
102
RTVSPropertyOp13
 70
     1
102
RTVSPropertyOp14
 70
     1
102
RTVSPropertyOp15
 70
     1
102
RTVSPropertyOp16
 70
     1
102
RTVSPropertyOp17
 70
     1
102
RTVSPropertyOp18
 70
     1
102
RTVSPropertyOp19
 70
     1
102
RTVSPropertyOp20
 70
     1
102
RTVSPropertyOp21
 70
     1
102
RTVSPropertyOp22
 70
     1
102
RTVSPropertyOp23
 70
     1
102
RTVSPropertyOp24
 70
     1
102
RTVSPropertyOp25
 70
     1
102
RTVSPropertyOp26
 70
     1
102
RTVSPropertyOp27
 70
     1
102
RTVSPropertyOp28
 70
     1
102
RTVSPropertyOp29
 70
     1
102
RTVSPropertyOp30
 70
     1
102
RTVSPropertyOp31
 70
     1
102
RTVSPropertyOp32
 70
     1
  0
XRECORD
  5
374
102
{ACAD_REACTORS
330
373
102
}
330
373
100
AcDbXrecord
280
     1
102
RTVSPropertyOp0
 70
     1
102
RTVSPropertyOp1
 70
     1
102
RTVSPropertyOp2
 70
     1
102
RTVSPropertyOp3
 70
     1
102
RTVSPropertyOp4
 70
     1
102
RTVSPropertyOp5
 70
     1
102
RTVSPropertyOp6
 70
     1
102
RTVSPropertyOp7
 70
     1
102
RTVSPropertyOp8
 70
     1
102
RTVSPropertyOp9
 70
     1
102
RTVSPropertyOp10
 70
     1
102
RTVSPropertyOp11
 70
     1
102
RTVSPropertyOp12
 70
     1
102
RTVSPropertyOp13
 70
     1
102
RTVSPropertyOp14
 70
     1
102
RTVSPropertyOp15
 70
     1
102
RTVSPropertyOp16
 70
     1
102
RTVSPropertyOp17
 70
     1
102
RTVSPropertyOp18
 70
     1
102
RTVSPropertyOp19
 70
     1
102
RTVSPropertyOp20
 70
     1
102
RTVSPropertyOp21
 70
     1
102
RTVSPropertyOp22
 70
     1
102
RTVSPropertyOp23
 70
     1
102
RTVSPropertyOp24
 70
     1
102
RTVSPropertyOp25
 70
     1
102
RTVSPropertyOp26
 70
     1
102
RTVSPropertyOp27
 70
     1
102
RTVSPropertyOp28
 70
     1
102
RTVSPropertyOp29
 70
     1
102
RTVSPropertyOp30
 70
     1
102
RTVSPropertyOp31
 70
     1
102
RTVSPropertyOp32
 70
     1
  0
XRECORD
  5
376
102
{ACAD_REACTORS
330
375
102
}
330
375
100
AcDbXrecord
280
     1
102
RTVSPropertyOp0
 70
     1
102
RTVSPropertyOp1
 70
     1
102
RTVSPropertyOp2
 70
     1
102
RTVSPropertyOp3
 70
     1
102
RTVSPropertyOp4
 70
     1
102
RTVSPropertyOp5
 70
     1
102
RTVSPropertyOp6
 70
     1
102
RTVSPropertyOp7
 70
     1
102
RTVSPropertyOp8
 70
     1
102
RTVSPropertyOp9
 70
     1
102
RTVSPropertyOp10
 70
     1
102
RTVSPropertyOp11
 70
     1
102
RTVSPropertyOp12
 70
     1
102
RTVSPropertyOp13
 70
     1
102
RTVSPropertyOp14
 70
     1
102
RTVSPropertyOp15
 70
     1
102
RTVSPropertyOp16
 70
     1
102
RTVSPropertyOp17
 70
     1
102
RTVSPropertyOp18
 70
     1
102
RTVSPropertyOp19
 70
     1
102
RTVSPropertyOp20
 70
     1
102
RTVSPropertyOp21
 70
     1
102
RTVSPropertyOp22
 70
     1
102
RTVSPropertyOp23
 70
     1
102
RTVSPropertyOp24
 70
     1
102
RTVSPropertyOp25
 70
     1
102
RTVSPropertyOp26
 70
     1
102
RTVSPropertyOp27
 70
     1
102
RTVSPropertyOp28
 70
     1
102
RTVSPropertyOp29
 70
     1
102
RTVSPropertyOp30
 70
     1
102
RTVSPropertyOp31
 70
     1
102
RTVSPropertyOp32
 70
     1
  0
XRECORD
  5
37E
102
{ACAD_REACTORS
330
37D
102
}
330
37D
100
AcDbXrecord
280
     1
102
RTVSPropertyOp0
 70
     1
102
RTVSPropertyOp1
 70
     1
102
RTVSPropertyOp2
 70
     1
102
RTVSPropertyOp3
 70
     1
102
RTVSPropertyOp4
 70
     1
102
RTVSPropertyOp5
 70
     1
102
RTVSPropertyOp6
 70
     1
102
RTVSPropertyOp7
 70
     1
102
RTVSPropertyOp8
 70
     1
102
RTVSPropertyOp9
 70
     1
102
RTVSPropertyOp10
 70
     1
102
RTVSPropertyOp11
 70
     1
102
RTVSPropertyOp12
 70
     1
102
RTVSPropertyOp13
 70
     1
102
RTVSPropertyOp14
 70
     1
102
RTVSPropertyOp15
 70
     1
102
RTVSPropertyOp16
 70
     1
102
RTVSPropertyOp17
 70
     1
102
RTVSPropertyOp18
 70
     1
102
RTVSPropertyOp19
 70
     1
102
RTVSPropertyOp20
 70
     1
102
RTVSPropertyOp21
 70
     1
102
RTVSPropertyOp22
 70
     1
102
RTVSPropertyOp23
 70
     1
102
RTVSPropertyOp24
 70
     1
102
RTVSPropertyOp25
 70
     1
102
RTVSPropertyOp26
 70
     1
102
RTVSPropertyOp27
 70
     1
102
RTVSPropertyOp28
 70
     1
102
RTVSPropertyOp29
 70
     1
102
RTVSPropertyOp30
 70
     1
102
RTVSPropertyOp31
 70
     1
102
RTVSPropertyOp32
 70
     1
  0
XRECORD
  5
362
102
{ACAD_REACTORS
330
361
102
}
330
361
100
AcDbXrecord
280
     1
102
RTVSPropertyOp0
 70
     1
102
RTVSPropertyOp1
 70
     1
102
RTVSPropertyOp2
 70
     1
102
RTVSPropertyOp3
 70
     1
102
RTVSPropertyOp4
 70
     1
102
RTVSPropertyOp5
 70
     1
102
RTVSPropertyOp6
 70
     1
102
RTVSPropertyOp7
 70
     1
102
RTVSPropertyOp8
 70
     1
102
RTVSPropertyOp9
 70
     1
102
RTVSPropertyOp10
 70
     1
102
RTVSPropertyOp11
 70
     1
102
RTVSPropertyOp12
 70
     1
102
RTVSPropertyOp13
 70
     1
102
RTVSPropertyOp14
 70
     1
102
RTVSPropertyOp15
 70
     1
102
RTVSPropertyOp16
 70
     1
102
RTVSPropertyOp17
 70
     1
102
RTVSPropertyOp18
 70
     1
102
RTVSPropertyOp19
 70
     1
102
RTVSPropertyOp20
 70
     1
102
RTVSPropertyOp21
 70
     1
102
RTVSPropertyOp22
 70
     1
102
RTVSPropertyOp23
 70
     1
102
RTVSPropertyOp24
 70
     1
102
RTVSPropertyOp25
 70
     1
102
RTVSPropertyOp26
 70
     1
102
RTVSPropertyOp27
 70
     1
102
RTVSPropertyOp28
 70
     1
102
RTVSPropertyOp29
 70
     1
102
RTVSPropertyOp30
 70
     1
102
RTVSPropertyOp31
 70
     1
102
RTVSPropertyOp32
 70
     1
  0
XRECORD
  5
364
102
{ACAD_REACTORS
330
363
102
}
330
363
100
AcDbXrecord
280
     1
102
RTVSPropertyOp0
 70
     1
102
RTVSPropertyOp1
 70
     1
102
RTVSPropertyOp2
 70
     1
102
RTVSPropertyOp3
 70
     1
102
RTVSPropertyOp4
 70
     1
102
RTVSPropertyOp5
 70
     1
102
RTVSPropertyOp6
 70
     1
102
RTVSPropertyOp7
 70
     1
102
RTVSPropertyOp8
 70
     1
102
RTVSPropertyOp9
 70
     1
102
RTVSPropertyOp10
 70
     1
102
RTVSPropertyOp11
 70
     1
102
RTVSPropertyOp12
 70
     1
102
RTVSPropertyOp13
 70
     1
102
RTVSPropertyOp14
 70
     1
102
RTVSPropertyOp15
 70
     1
102
RTVSPropertyOp16
 70
     1
102
RTVSPropertyOp17
 70
     1
102
RTVSPropertyOp18
 70
     1
102
RTVSPropertyOp19
 70
     1
102
RTVSPropertyOp20
 70
     1
102
RTVSPropertyOp21
 70
     1
102
RTVSPropertyOp22
 70
     1
102
RTVSPropertyOp23
 70
     1
102
RTVSPropertyOp24
 70
     1
102
RTVSPropertyOp25
 70
     1
102
RTVSPropertyOp26
 70
     1
102
RTVSPropertyOp27
 70
     1
102
RTVSPropertyOp28
 70
     1
102
RTVSPropertyOp29
 70
     1
102
RTVSPropertyOp30
 70
     1
102
RTVSPropertyOp31
 70
     1
102
RTVSPropertyOp32
 70
     1
  0
XRECORD
  5
366
102
{ACAD_REACTORS
330
365
102
}
330
365
100
AcDbXrecord
280
     1
102
RTVSPropertyOp0
 70
     1
102
RTVSPropertyOp1
 70
     1
102
RTVSPropertyOp2
 70
     1
102
RTVSPropertyOp3
 70
     1
102
RTVSPropertyOp4
 70
     1
102
RTVSPropertyOp5
 70
     1
102
RTVSPropertyOp6
 70
     1
102
RTVSPropertyOp7
 70
     1
102
RTVSPropertyOp8
 70
     1
102
RTVSPropertyOp9
 70
     1
102
RTVSPropertyOp10
 70
     1
102
RTVSPropertyOp11
 70
     1
102
RTVSPropertyOp12
 70
     1
102
RTVSPropertyOp13
 70
     1
102
RTVSPropertyOp14
 70
     1
102
RTVSPropertyOp15
 70
     1
102
RTVSPropertyOp16
 70
     1
102
RTVSPropertyOp17
 70
     1
102
RTVSPropertyOp18
 70
     1
102
RTVSPropertyOp19
 70
     1
102
RTVSPropertyOp20
 70
     1
102
RTVSPropertyOp21
 70
     1
102
RTVSPropertyOp22
 70
     1
102
RTVSPropertyOp23
 70
     1
102
RTVSPropertyOp24
 70
     1
102
RTVSPropertyOp25
 70
     1
102
RTVSPropertyOp26
 70
     1
102
RTVSPropertyOp27
 70
     1
102
RTVSPropertyOp28
 70
     1
102
RTVSPropertyOp29
 70
     1
102
RTVSPropertyOp30
 70
     1
102
RTVSPropertyOp31
 70
     1
102
RTVSPropertyOp32
 70
     1
  0
XRECORD
  5
368
102
{ACAD_REACTORS
330
367
102
}
330
367
100
AcDbXrecord
280
     1
102
RTVSPropertyOp0
 70
     1
102
RTVSPropertyOp1
 70
     1
102
RTVSPropertyOp2
 70
     1
102
RTVSPropertyOp3
 70
     1
102
RTVSPropertyOp4
 70
     1
102
RTVSPropertyOp5
 70
     1
102
RTVSPropertyOp6
 70
     1
102
RTVSPropertyOp7
 70
     1
102
RTVSPropertyOp8
 70
     1
102
RTVSPropertyOp9
 70
     1
102
RTVSPropertyOp10
 70
     1
102
RTVSPropertyOp11
 70
     1
102
RTVSPropertyOp12
 70
     1
102
RTVSPropertyOp13
 70
     1
102
RTVSPropertyOp14
 70
     1
102
RTVSPropertyOp15
 70
     1
102
RTVSPropertyOp16
 70
     1
102
RTVSPropertyOp17
 70
     1
102
RTVSPropertyOp18
 70
     1
102
RTVSPropertyOp19
 70
     1
102
RTVSPropertyOp20
 70
     1
102
RTVSPropertyOp21
 70
     1
102
RTVSPropertyOp22
 70
     1
102
RTVSPropertyOp23
 70
     1
102
RTVSPropertyOp24
 70
     1
102
RTVSPropertyOp25
 70
     1
102
RTVSPropertyOp26
 70
     1
102
RTVSPropertyOp27
 70
     1
102
RTVSPropertyOp28
 70
     1
102
RTVSPropertyOp29
 70
     1
102
RTVSPropertyOp30
 70
     1
102
RTVSPropertyOp31
 70
     1
102
RTVSPropertyOp32
 70
     1
  0
XRECORD
  5
37C
102
{ACAD_REACTORS
330
37B
102
}
330
37B
100
AcDbXrecord
280
     1
102
RTVSPropertyOp0
 70
     1
102
RTVSPropertyOp1
 70
     1
102
RTVSPropertyOp2
 70
     1
102
RTVSPropertyOp3
 70
     1
102
RTVSPropertyOp4
 70
     1
102
RTVSPropertyOp5
 70
     1
102
RTVSPropertyOp6
 70
     1
102
RTVSPropertyOp7
 70
     1
102
RTVSPropertyOp8
 70
     1
102
RTVSPropertyOp9
 70
     1
102
RTVSPropertyOp10
 70
     1
102
RTVSPropertyOp11
 70
     1
102
RTVSPropertyOp12
 70
     1
102
RTVSPropertyOp13
 70
     1
102
RTVSPropertyOp14
 70
     1
102
RTVSPropertyOp15
 70
     1
102
RTVSPropertyOp16
 70
     1
102
RTVSPropertyOp17
 70
     1
102
RTVSPropertyOp18
 70
     1
102
RTVSPropertyOp19
 70
     1
102
RTVSPropertyOp20
 70
     1
102
RTVSPropertyOp21
 70
     1
102
RTVSPropertyOp22
 70
     1
102
RTVSPropertyOp23
 70
     1
102
RTVSPropertyOp24
 70
     1
102
RTVSPropertyOp25
 70
     1
102
RTVSPropertyOp26
 70
     1
102
RTVSPropertyOp27
 70
     1
102
RTVSPropertyOp28
 70
     1
102
RTVSPropertyOp29
 70
     1
102
RTVSPropertyOp30
 70
     1
102
RTVSPropertyOp31
 70
     1
102
RTVSPropertyOp32
 70
     1
  0
XRECORD
  5
372
102
{ACAD_REACTORS
330
371
102
}
330
371
100
AcDbXrecord
280
     1
102
RTVSPropertyOp0
 70
     1
102
RTVSPropertyOp1
 70
     1
102
RTVSPropertyOp2
 70
     1
102
RTVSPropertyOp3
 70
     1
102
RTVSPropertyOp4
 70
     1
102
RTVSPropertyOp5
 70
     1
102
RTVSPropertyOp6
 70
     1
102
RTVSPropertyOp7
 70
     1
102
RTVSPropertyOp8
 70
     1
102
RTVSPropertyOp9
 70
     1
102
RTVSPropertyOp10
 70
     1
102
RTVSPropertyOp11
 70
     1
102
RTVSPropertyOp12
 70
     1
102
RTVSPropertyOp13
 70
     1
102
RTVSPropertyOp14
 70
     1
102
RTVSPropertyOp15
 70
     1
102
RTVSPropertyOp16
 70
     1
102
RTVSPropertyOp17
 70
     1
102
RTVSPropertyOp18
 70
     1
102
RTVSPropertyOp19
 70
     1
102
RTVSPropertyOp20
 70
     1
102
RTVSPropertyOp21
 70
     1
102
RTVSPropertyOp22
 70
     1
102
RTVSPropertyOp23
 70
     1
102
RTVSPropertyOp24
 70
     1
102
RTVSPropertyOp25
 70
     1
102
RTVSPropertyOp26
 70
     1
102
RTVSPropertyOp27
 70
     1
102
RTVSPropertyOp28
 70
     1
102
RTVSPropertyOp29
 70
     1
102
RTVSPropertyOp30
 70
     1
102
RTVSPropertyOp31
 70
     1
102
RTVSPropertyOp32
 70
     1
  0
XRECORD
  5
37A
102
{ACAD_REACTORS
330
379
102
}
330
379
100
AcDbXrecord
280
     1
102
RTVSPropertyOp0
 70
     1
102
RTVSPropertyOp1
 70
     1
102
RTVSPropertyOp2
 70
     1
102
RTVSPropertyOp3
 70
     1
102
RTVSPropertyOp4
 70
     1
102
RTVSPropertyOp5
 70
     1
102
RTVSPropertyOp6
 70
     1
102
RTVSPropertyOp7
 70
     1
102
RTVSPropertyOp8
 70
     1
102
RTVSPropertyOp9
 70
     1
102
RTVSPropertyOp10
 70
     1
102
RTVSPropertyOp11
 70
     1
102
RTVSPropertyOp12
 70
     1
102
RTVSPropertyOp13
 70
     1
102
RTVSPropertyOp14
 70
     1
102
RTVSPropertyOp15
 70
     1
102
RTVSPropertyOp16
 70
     1
102
RTVSPropertyOp17
 70
     1
102
RTVSPropertyOp18
 70
     1
102
RTVSPropertyOp19
 70
     1
102
RTVSPropertyOp20
 70
     1
102
RTVSPropertyOp21
 70
     1
102
RTVSPropertyOp22
 70
     1
102
RTVSPropertyOp23
 70
     1
102
RTVSPropertyOp24
 70
     1
102
RTVSPropertyOp25
 70
     1
102
RTVSPropertyOp26
 70
     1
102
RTVSPropertyOp27
 70
     1
102
RTVSPropertyOp28
 70
     1
102
RTVSPropertyOp29
 70
     1
102
RTVSPropertyOp30
 70
     1
102
RTVSPropertyOp31
 70
     1
102
RTVSPropertyOp32
 70
     1
  0
ENDSEC
  0
EOF
