  0
SECTION
  2
HEADER
  9
$ACADVER
  1
AC1018
  9
$ACADMAINTVER
 70
     0
  9
$DWGCODEPAGE
  3
ANSI_1252
  9
$INSBASE
 10
0.0
 20
0.0
 30
0.0
  9
$EXTMIN
 10
-297.6531265495084
 20
-48.63349138098096
 30
0.0
  9
$EXTMAX
 10
122.34687345049
 20
248.366508619019
 30
0.0
  9
$LIMMIN
 10
0.0
 20
0.0
  9
$LIMMAX
 10
12.0
 20
9.0
  9
$ORTHOMODE
 70
     0
  9
$REGENMODE
 70
     1
  9
$FILLMODE
 70
     1
  9
$QTEXTMODE
 70
     0
  9
$MIRRTEXT
 70
     1
  9
$LTSCALE
 40
1.0
  9
$ATTMODE
 70
     1
  9
$TEXTSIZE
 40
0.2
  9
$TRACEWID
 40
0.05
  9
$TEXTSTYLE
  7
Standard
  9
$CLAYER
  8
0
  9
$CELTYPE
  6
ByLayer
  9
$CECOLOR
 62
   256
  9
$CELTSCALE
 40
1.0
  9
$DISPSILH
 70
     0
  9
$DIMSCALE
 40
1.0
  9
$DIMASZ
 40
0.18
  9
$DIMEXO
 40
0.0625
  9
$DIMDLI
 40
0.38
  9
$DIMRND
 40
0.0
  9
$DIMDLE
 40
0.0
  9
$DIMEXE
 40
0.18
  9
$DIMTP
 40
0.0
  9
$DIMTM
 40
0.0
  9
$DIMTXT
 40
0.18
  9
$DIMCEN
 40
0.09
  9
$DIMTSZ
 40
0.0
  9
$DIMTOL
 70
     0
  9
$DIMLIM
 70
     0
  9
$DIMTIH
 70
     1
  9
$DIMTOH
 70
     1
  9
$DIMSE1
 70
     0
  9
$DIMSE2
 70
     0
  9
$DIMTAD
 70
     0
  9
$DIMZIN
 70
     0
  9
$DIMBLK
  1

  9
$DIMASO
 70
     1
  9
$DIMSHO
 70
     1
  9
$DIMPOST
  1

  9
$DIMAPOST
  1

  9
$DIMALT
 70
     0
  9
$DIMALTD
 70
     2
  9
$DIMALTF
 40
25.4
  9
$DIMLFAC
 40
1.0
  9
$DIMTOFL
 70
     0
  9
$DIMTVP
 40
0.0
  9
$DIMTIX
 70
     0
  9
$DIMSOXD
 70
     0
  9
$DIMSAH
 70
     0
  9
$DIMBLK1
  1

  9
$DIMBLK2
  1

  9
$DIMSTYLE
  2
Standard
  9
$DIMCLRD
 70
     0
  9
$DIMCLRE
 70
     0
  9
$DIMCLRT
 70
     0
  9
$DIMTFAC
 40
1.0
  9
$DIMGAP
 40
0.09
  9
$DIMJUST
 70
     0
  9
$DIMSD1
 70
     0
  9
$DIMSD2
 70
     0
  9
$DIMTOLJ
 70
     1
  9
$DIMTZIN
 70
     0
  9
$DIMALTZ
 70
     0
  9
$DIMALTTZ
 70
     0
  9
$DIMUPT
 70
     0
  9
$DIMDEC
 70
     4
  9
$DIMTDEC
 70
     4
  9
$DIMALTU
 70
     2
  9
$DIMALTTD
 70
     2
  9
$DIMTXSTY
  7
Standard
  9
$DIMAUNIT
 70
     0
  9
$DIMADEC
 70
     0
  9
$DIMALTRND
 40
0.0
  9
$DIMAZIN
 70
     0
  9
$DIMDSEP
 70
    46
  9
$DIMATFIT
 70
     3
  9
$DIMFRAC
 70
     0
  9
$DIMLDRBLK
  1

  9
$DIMLUNIT
 70
     2
  9
$DIMLWD
 70
    -2
  9
$DIMLWE
 70
    -2
  9
$DIMTMOVE
 70
     0
  9
$LUNITS
 70
     2
  9
$LUPREC
 70
     4
  9
$SKETCHINC
 40
0.1
  9
$FILLETRAD
 40
0.5
  9
$AUNITS
 70
     0
  9
$AUPREC
 70
     0
  9
$MENU
  1
.
  9
$ELEVATION
 40
0.0
  9
$PELEVATION
 40
0.0
  9
$THICKNESS
 40
0.0
  9
$LIMCHECK
 70
     0
  9
$CHAMFERA
 40
0.0
  9
$CHAMFERB
 40
0.0
  9
$CHAMFERC
 40
0.0
  9
$CHAMFERD
 40
0.0
  9
$SKPOLY
 70
     0
  9
$TDCREATE
 40
2459306.479087731
  9
$TDUCREATE
 40
2459306.395754398
  9
$TDUPDATE
 40
2459306.479087905
  9
$TDUUPDATE
 40
2459306.395754572
  9
$TDINDWG
 40
0.0000000116
  9
$TDUSRTIMER
 40
0.0000000116
  9
$USRTIMER
 70
     1
  9
$ANGBASE
 50
0.0
  9
$ANGDIR
 70
     0
  9
$PDMODE
 70
     0
  9
$PDSIZE
 40
0.0
  9
$PLINEWID
 40
0.0
  9
$SPLFRAME
 70
     0
  9
$SPLINETYPE
 70
     6
  9
$SPLINESEGS
 70
     8
  9
$HANDSEED
  5
342
  9
$SURFTAB1
 70
     6
  9
$SURFTAB2
 70
     6
  9
$SURFTYPE
 70
     6
  9
$SURFU
 70
     6
  9
$SURFV
 70
     6
  9
$UCSBASE
  2

  9
$UCSNAME
  2

  9
$UCSORG
 10
0.0
 20
0.0
 30
0.0
  9
$UCSXDIR
 10
1.0
 20
0.0
 30
0.0
  9
$UCSYDIR
 10
0.0
 20
1.0
 30
0.0
  9
$UCSORTHOREF
  2

  9
$UCSORTHOVIEW
 70
     0
  9
$UCSORGTOP
 10
0.0
 20
0.0
 30
0.0
  9
$UCSORGBOTTOM
 10
0.0
 20
0.0
 30
0.0
  9
$UCSORGLEFT
 10
0.0
 20
0.0
 30
0.0
  9
$UCSORGRIGHT
 10
0.0
 20
0.0
 30
0.0
  9
$UCSORGFRONT
 10
0.0
 20
0.0
 30
0.0
  9
$UCSORGBACK
 10
0.0
 20
0.0
 30
0.0
  9
$PUCSBASE
  2

  9
$PUCSNAME
  2

  9
$PUCSORG
 10
0.0
 20
0.0
 30
0.0
  9
$PUCSXDIR
 10
1.0
 20
0.0
 30
0.0
  9
$PUCSYDIR
 10
0.0
 20
1.0
 30
0.0
  9
$PUCSORTHOREF
  2

  9
$PUCSORTHOVIEW
 70
     0
  9
$PUCSORGTOP
 10
0.0
 20
0.0
 30
0.0
  9
$PUCSORGBOTTOM
 10
0.0
 20
0.0
 30
0.0
  9
$PUCSORGLEFT
 10
0.0
 20
0.0
 30
0.0
  9
$PUCSORGRIGHT
 10
0.0
 20
0.0
 30
0.0
  9
$PUCSORGFRONT
 10
0.0
 20
0.0
 30
0.0
  9
$PUCSORGBACK
 10
0.0
 20
0.0
 30
0.0
  9
$USERI1
 70
     0
  9
$USERI2
 70
     0
  9
$USERI3
 70
     0
  9
$USERI4
 70
     0
  9
$USERI5
 70
     0
  9
$USERR1
 40
20.1
  9
$USERR2
 40
0.0
  9
$USERR3
 40
0.0
  9
$USERR4
 40
0.0
  9
$USERR5
 40
0.0
  9
$WORLDVIEW
 70
     1
  9
$SHADEDGE
 70
     3
  9
$SHADEDIF
 70
    70
  9
$TILEMODE
 70
     1
  9
$MAXACTVP
 70
    64
  9
$PINSBASE
 10
0.0
 20
0.0
 30
0.0
  9
$PLIMCHECK
 70
     0
  9
$PEXTMIN
 10
1.00000000000000E+20
 20
1.00000000000000E+20
 30
1.00000000000000E+20
  9
$PEXTMAX
 10
-1.00000000000000E+20
 20
-1.00000000000000E+20
 30
-1.00000000000000E+20
  9
$PLIMMIN
 10
0.0
 20
0.0
  9
$PLIMMAX
 10
12.0
 20
9.0
  9
$UNITMODE
 70
     0
  9
$VISRETAIN
 70
     1
  9
$PLINEGEN
 70
     0
  9
$PSLTSCALE
 70
     1
  9
$TREEDEPTH
 70
  3020
  9
$CMLSTYLE
  2
Standard
  9
$CMLJUST
 70
     0
  9
$CMLSCALE
 40
1.0
  9
$PROXYGRAPHICS
 70
     1
  9
$MEASUREMENT
 70
     1
  9
$CELWEIGHT
370
    -1
  9
$ENDCAPS
280
     0
  9
$JOINSTYLE
280
     0
  9
$LWDISPLAY
290
     0
  9
$INSUNITS
 70
     4
  9
$HYPERLINKBASE
  1

  9
$STYLESHEET
  1

  9
$XEDIT
290
     1
  9
$CEPSNTYPE
380
     0
  9
$PSTYLEMODE
290
     1
  9
$FINGERPRINTGUID
  2
{fb1c401a-6044-4cb2-b249-6c66d5f29ed2}
  9
$VERSIONGUID
  2
{FAEB1C32-E019-11D5-929B-00C0DF256EC4}
  9
$EXTNAMES
290
     1
  9
$PSVPSCALE
 40
0.0
  9
$OLESTARTUP
290
     0
  9
$SORTENTS
280
   127
  9
$INDEXCTL
280
     0
  9
$HIDETEXT
280
     1
  9
$XCLIPFRAME
290
     0
  9
$HALOGAP
280
     0
  9
$OBSCOLOR
 70
   257
  9
$OBSLTYPE
280
     0
  9
$INTERSECTIONDISPLAY
280
     0
  9
$INTERSECTIONCOLOR
 70
   257
  9
$DIMASSOC
280
     2
  9
$PROJECTNAME
  1

  0
ENDSEC
  0
SECTION
  2
CLASSES
  0
CLASS
  1
ACDBDICTIONARYWDFLT
  2
AcDbDictionaryWithDefault
  3
ObjectDBX Classes
 90
        0
 91
        3
280
     0
281
     0
  0
CLASS
  1
VISUALSTYLE
  2
AcDbVisualStyle
  3
ObjectDBX Classes
 90
     4095
 91
        3
280
     0
281
     0
  0
CLASS
  1
MATERIAL
  2
AcDbMaterial
  3
ObjectDBX Classes
 90
     1153
 91
        3
280
     0
281
     0
  0
CLASS
  1
SCALE
  2
AcDbScale
  3
ObjectDBX Classes
 90
     1153
 91
        3
280
     0
281
     0
  0
CLASS
  1
TABLESTYLE
  2
AcDbTableStyle
  3
ObjectDBX Classes
 90
     4095
 91
        3
280
     0
281
     0
  0
CLASS
  1
MLEADERSTYLE
  2
AcDbMLeaderStyle
  3
ACDB_MLEADERSTYLE_CLASS
 90
     4095
 91
        3
280
     0
281
     0
  0
CLASS
  1
SUN
  2
AcDbSun
  3
SCENEOE
 90
     1153
 91
        3
280
     0
281
     0
  0
CLASS
  1
DICTIONARYVAR
  2
AcDbDictionaryVar
  3
ObjectDBX Classes
 90
        0
 91
        3
280
     0
281
     0
  0
CLASS
  1
CELLSTYLEMAP
  2
AcDbCellStyleMap
  3
ObjectDBX Classes
 90
     1152
 91
        3
280
     0
281
     0
  0
ENDSEC
  0
SECTION
  2
TABLES
  0
TABLE
  2
VPORT
  5
8
102
{ACAD_XDICTIONARY
360
2FB
102
}
330
0
100
AcDbSymbolTable
 70
     1
  0
VPORT
  5
29
330
8
100
AcDbSymbolTableRecord
100
AcDbViewportTableRecord
  2
*Active
 70
     0
 10
0.0
 20
0.0
 11
1.0
 21
1.0
 12
-87.6531265495092
 22
99.86650861901902
 13
0.0
 23
0.0
 14
0.5
 24
0.5
 15
0.5
 25
0.5
 16
0.0
 26
0.0
 36
1.0
 17
0.0
 27
0.0
 37
0.0
 40
326.7
 41
1.60267857142857
 42
50.0
 43
0.0
 44
0.0
 50
0.0
 51
0.0
 71
     0
 72
   100
 73
     1
 74
     3
 75
     0
 76
     0
 77
     0
 78
     0
281
     0
 65
     1
110
0.0
120
0.0
130
0.0
111
1.0
121
0.0
131
0.0
112
0.0
122
1.0
132
0.0
 79
     0
146
0.0
  0
ENDTAB
  0
TABLE
  2
LTYPE
  5
5
330
0
100
AcDbSymbolTable
 70
     8
  0
LTYPE
  5
14
330
5
100
AcDbSymbolTableRecord
100
AcDbLinetypeTableRecord
  2
ByBlock
 70
     0
  3

 72
    65
 73
     0
 40
0.0
  0
LTYPE
  5
15
330
5
100
AcDbSymbolTableRecord
100
AcDbLinetypeTableRecord
  2
ByLayer
 70
     0
  3

 72
    65
 73
     0
 40
0.0
  0
LTYPE
  5
16
330
5
100
AcDbSymbolTableRecord
100
AcDbLinetypeTableRecord
  2
Continuous
 70
     0
  3
Solid line
 72
    65
 73
     0
 40
0.0
  0
LTYPE
  5
6E
330
5
100
AcDbSymbolTableRecord
100
AcDbLinetypeTableRecord
  2
DASHED
 70
     0
  3
Dashed
 72
    65
 73
     2
 40
15.0
 49
7.0
 74
     0
 49
-8.0
 74
     0
  0
LTYPE
  5
6F
330
5
100
AcDbSymbolTableRecord
100
AcDbLinetypeTableRecord
  2
DOTTED
 70
     0
  3
Dotted
 72
    65
 73
     2
 40
1.0
 49
0.0
 74
     0
 49
-1.0
 74
     0
  0
LTYPE
  5
70
330
5
100
AcDbSymbolTableRecord
100
AcDbLinetypeTableRecord
  2
DOT_CENTER
 70
     0
  3
Dot_Center
 72
    65
 73
     4
 40
14.0
 49
12.0
 74
     0
 49
-1.0
 74
     0
 49
0.0
 74
     0
 49
-1.0
 74
     0
  0
LTYPE
  5
71
330
5
100
AcDbSymbolTableRecord
100
AcDbLinetypeTableRecord
  2
LONG_DASHED
 70
     0
  3
Long_Dashed
 72
    65
 73
     2
 40
15.0
 49
10.0
 74
     0
 49
-5.0
 74
     0
  0
LTYPE
  5
72
330
5
100
AcDbSymbolTableRecord
100
AcDbLinetypeTableRecord
  2
DASH_CENTER
 70
     0
  3
Dash_Center
 72
    65
 73
     4
 40
14.0
 49
11.0
 74
     0
 49
-1.0
 74
     0
 49
1.0
 74
     0
 49
-1.0
 74
     0
  0
LTYPE
  5
73
330
5
100
AcDbSymbolTableRecord
100
AcDbLinetypeTableRecord
  2
PHANTOM
 70
     0
  3
Phantom
 72
    65
 73
     6
 40
13.0
 49
10.0
 74
     0
 49
-1.0
 74
     0
 49
0.0
 74
     0
 49
-1.0
 74
     0
 49
0.0
 74
     0
 49
-1.0
 74
     0
  0
LTYPE
  5
74
330
5
100
AcDbSymbolTableRecord
100
AcDbLinetypeTableRecord
  2
CENTER_DASH_DASH
 70
     0
  3
Center_Dash_Dash
 72
    65
 73
     6
 40
14.0
 49
9.0
 74
     0
 49
-1.0
 74
     0
 49
1.0
 74
     0
 49
-1.0
 74
     0
 49
1.0
 74
     0
 49
-1.0
 74
     0
  0
ENDTAB
  0
TABLE
  2
LAYER
  5
2
330
0
100
AcDbSymbolTable
 70
     2
  0
LAYER
  5
10
330
2
100
AcDbSymbolTableRecord
100
AcDbLayerTableRecord
  2
0
 70
     0
 62
     7
  6
Continuous
370
    -3
390
F
  0
LAYER
  5
75
330
2
100
AcDbSymbolTableRecord
100
AcDbLayerTableRecord
  2
1
 70
     0
 62
     7
  6
Continuous
370
    -3
390
F
  0
ENDTAB
  0
TABLE
  2
STYLE
  5
3
330
0
100
AcDbSymbolTable
 70
     5
  0
STYLE
  5
11
330
3
100
AcDbSymbolTableRecord
100
AcDbTextStyleTableRecord
  2
Standard
 70
     0
 40
0.0
 41
1.0
 50
0.0
 71
     0
 42
0.2
  3
txt
  4

  0
STYLE
  5
1BD
330
3
100
AcDbSymbolTableRecord
100
AcDbTextStyleTableRecord
  2
CONVERTER_11
 70
     0
 40
0.0
 41
0.9
 50
0.0
 71
     0
 42
0.2
  3
txt.shx
  4

  0
STYLE
  5
1D0
330
3
100
AcDbSymbolTableRecord
100
AcDbTextStyleTableRecord
  2
CONVERTER_12
 70
     0
 40
0.0
 41
0.81
 50
0.0
 71
     0
 42
0.2
  3
txt.shx
  4

  0
STYLE
  5
1D6
330
3
100
AcDbSymbolTableRecord
100
AcDbTextStyleTableRecord
  2
CONVERTER_13
 70
     0
 40
0.0
 41
0.855
 50
0.0
 71
     0
 42
0.2
  3
txt.shx
  4

  0
STYLE
  5
1D9
330
3
100
AcDbSymbolTableRecord
100
AcDbTextStyleTableRecord
  2
CONVERTER_14
 70
     0
 40
0.0
 41
0.72
 50
0.0
 71
     0
 42
0.2
  3
txt.shx
  4

  0
ENDTAB
  0
TABLE
  2
VIEW
  5
6
330
0
100
AcDbSymbolTable
 70
     0
  0
ENDTAB
  0
TABLE
  2
UCS
  5
7
330
0
100
AcDbSymbolTable
 70
     0
  0
ENDTAB
  0
TABLE
  2
APPID
  5
9
330
0
100
AcDbSymbolTable
 70
     2
  0
APPID
  5
12
330
9
100
AcDbSymbolTableRecord
100
AcDbRegAppTableRecord
  2
ACAD
 70
     0
  0
APPID
  5
33A
330
9
100
AcDbSymbolTableRecord
100
AcDbRegAppTableRecord
  2
ACAD_MLEADERVER
 70
     0
  0
ENDTAB
  0
TABLE
  2
DIMSTYLE
  5
A
330
0
100
AcDbSymbolTable
 70
     4
100
AcDbDimStyleTable
  0
DIMSTYLE
105
27
330
A
100
AcDbSymbolTableRecord
100
AcDbDimStyleTableRecord
  2
Standard
 70
     0
178
     0
340
11
  0
DIMSTYLE
105
256
102
{ACAD_REACTORS
330
257
102
}
330
A
100
AcDbSymbolTableRecord
100
AcDbDimStyleTableRecord
  2
ME10_DIM_10
 70
     0
 41
1.75
 42
0.0
 44
0.75
 73
     0
 74
     0
 77
     1
 78
     8
140
1.75
147
0.75
172
     1
173
     1
174
     1
175
     1
176
     2
177
     2
178
     3
340
1BD
  0
DIMSTYLE
105
2EE
102
{ACAD_REACTORS
330
2EF
102
}
330
A
100
AcDbSymbolTableRecord
100
AcDbDimStyleTableRecord
  2
ME10_DIM_11
 70
     0
 41
1.75
 42
0.0
 44
1.0
 73
     0
 74
     0
 77
     1
 78
     8
140
1.75
147
1.0
172
     1
173
     1
174
     1
175
     1
176
     2
177
     2
178
     3
340
1BD
  0
DIMSTYLE
105
2F9
102
{ACAD_REACTORS
330
2FA
102
}
330
A
100
AcDbSymbolTableRecord
100
AcDbDimStyleTableRecord
  2
ME10_DIM_12
 70
     0
 41
1.75
 42
0.0
 44
1.0
 73
     0
 74
     0
 77
     1
 78
     8
140
1.75
147
1.0
172
     1
173
     1
174
     1
175
     1
176
     2
177
     2
178
     3
340
1BD
  0
ENDTAB
  0
TABLE
  2
BLOCK_RECORD
  5
1
330
0
100
AcDbSymbolTable
 70
    20
  0
BLOCK_RECORD
  5
1F
330
1
100
AcDbSymbolTableRecord
100
AcDbBlockTableRecord
  2
*Model_Space
340
22
  0
BLOCK_RECORD
  5
1B
330
1
100
AcDbSymbolTableRecord
100
AcDbBlockTableRecord
  2
*Paper_Space
340
1E
  0
BLOCK_RECORD
  5
23
330
1
100
AcDbSymbolTableRecord
100
AcDbBlockTableRecord
  2
*Paper_Space0
340
26
  0
BLOCK_RECORD
  5
76
330
1
100
AcDbSymbolTableRecord
100
AcDbBlockTableRecord
  2
_rahmen
340
0
102
{BLKREFS
331
7D
102
}
  0
BLOCK_RECORD
  5
79
330
1
100
AcDbSymbolTableRecord
100
AcDbBlockTableRecord
  2
_punkt
340
0
102
{BLKREFS
331
7E
102
}
  0
BLOCK_RECORD
  5
7C
330
1
100
AcDbSymbolTableRecord
100
AcDbBlockTableRecord
  2
A3I_CS
340
0
102
{BLKREFS
331
AC
102
}
  0
BLOCK_RECORD
  5
81
330
1
100
AcDbSymbolTableRecord
100
AcDbBlockTableRecord
  2
CES_SRG_BK_15-select__1
340
0
102
{BLKREFS
331
85
102
}
  0
BLOCK_RECORD
  5
84
330
1
100
AcDbSymbolTableRecord
100
AcDbBlockTableRecord
  2
Allg1
340
0
102
{BLKREFS
331
AD
102
}
  0
BLOCK_RECORD
  5
88
330
1
100
AcDbSymbolTableRecord
100
AcDbBlockTableRecord
  2
CES_SRG_BK_15-select__2
340
0
102
{BLKREFS
331
8C
102
}
  0
BLOCK_RECORD
  5
8B
330
1
100
AcDbSymbolTableRecord
100
AcDbBlockTableRecord
  2
Drfsicht1
340
0
102
{BLKREFS
331
AE
102
}
  0
BLOCK_RECORD
  5
8F
330
1
100
AcDbSymbolTableRecord
100
AcDbBlockTableRecord
  2
CES_SRG_BK_15-select__3
340
0
102
{BLKREFS
331
93
102
}
  0
BLOCK_RECORD
  5
92
330
1
100
AcDbSymbolTableRecord
100
AcDbBlockTableRecord
  2
Rckans1
340
0
102
{BLKREFS
331
AF
102
}
  0
BLOCK_RECORD
  5
96
330
1
100
AcDbSymbolTableRecord
100
AcDbBlockTableRecord
  2
CES_SRG_BK_15-select__4
340
0
102
{BLKREFS
331
9A
102
}
  0
BLOCK_RECORD
  5
99
330
1
100
AcDbSymbolTableRecord
100
AcDbBlockTableRecord
  2
SA_Links1
340
0
102
{BLKREFS
331
B0
102
}
  0
BLOCK_RECORD
  5
9D
330
1
100
AcDbSymbolTableRecord
100
AcDbBlockTableRecord
  2
CES_SRG_BK_15-select__5
340
0
102
{BLKREFS
331
A1
102
}
  0
BLOCK_RECORD
  5
A0
330
1
100
AcDbSymbolTableRecord
100
AcDbBlockTableRecord
  2
SA_Rechts1
340
0
102
{BLKREFS
331
B1
102
}
  0
BLOCK_RECORD
  5
A4
330
1
100
AcDbSymbolTableRecord
100
AcDbBlockTableRecord
  2
CES_SRG_BK_15-select__6
340
0
102
{BLKREFS
331
A8
102
}
  0
BLOCK_RECORD
  5
A7
330
1
100
AcDbSymbolTableRecord
100
AcDbBlockTableRecord
  2
Vordans1
340
0
102
{BLKREFS
331
B2
102
}
  0
BLOCK_RECORD
  5
AB
330
1
100
AcDbSymbolTableRecord
100
AcDbBlockTableRecord
  2
1
340
0
102
{BLKREFS
331
B5
102
}
  0
BLOCK_RECORD
  5
24D
330
1
100
AcDbSymbolTableRecord
100
AcDbBlockTableRecord
  2
*D17
340
0
  0
BLOCK_RECORD
  5
2E5
330
1
100
AcDbSymbolTableRecord
100
AcDbBlockTableRecord
  2
*D18
340
0
  0
BLOCK_RECORD
  5
2F0
330
1
100
AcDbSymbolTableRecord
100
AcDbBlockTableRecord
  2
*D19
340
0
  0
ENDTAB
  0
ENDSEC
  0
SECTION
  2
BLOCKS
  0
BLOCK
  5
20
330
1F
100
AcDbEntity
  8
0
100
AcDbBlockBegin
  2
*Model_Space
 70
     0
 10
0.0
 20
0.0
 30
0.0
  3
*Model_Space
  1

  0
ENDBLK
  5
21
330
1F
100
AcDbEntity
  8
0
100
AcDbBlockEnd
  0
BLOCK
  5
1C
330
1B
100
AcDbEntity
 67
     1
  8
0
100
AcDbBlockBegin
  2
*Paper_Space
 70
     0
 10
0.0
 20
0.0
 30
0.0
  3
*Paper_Space
  1

  0
ENDBLK
  5
1D
330
1B
100
AcDbEntity
 67
     1
  8
0
100
AcDbBlockEnd
  0
BLOCK
  5
24
330
23
100
AcDbEntity
  8
0
100
AcDbBlockBegin
  2
*Paper_Space0
 70
     0
 10
0.0
 20
0.0
 30
0.0
  3
*Paper_Space0
  1

  0
ENDBLK
  5
25
330
23
100
AcDbEntity
  8
0
100
AcDbBlockEnd
  0
BLOCK
  5
77
330
76
100
AcDbEntity
  8
0
100
AcDbBlockBegin
  2
_rahmen
 70
     0
 10
117.3468734504924
 20
-48.63349138098096
 30
0.0
  3
_rahmen
  1

  0
LINE
  5
B6
330
76
100
AcDbEntity
  8
1
  6
Continuous
 62
     6
100
AcDbLine
 10
49.01354011715897
 20
-43.63349138098096
 30
0.0
 11
117.3468734504923
 21
-43.63349138098147
 31
0.0
  0
LINE
  5
B7
330
76
100
AcDbEntity
  8
1
  6
Continuous
 62
     6
100
AcDbLine
 10
117.3468734504919
 20
-35.13349138098153
 30
0.0
 11
117.3468734504924
 21
-26.63349138098153
 31
0.0
  0
LINE
  5
B8
330
76
100
AcDbEntity
  8
1
  6
Continuous
 62
     6
100
AcDbLine
 10
117.3468734504924
 20
-26.63349138098153
 30
0.0
 11
117.3468734504914
 21
-22.38349138098153
 31
0.0
  0
LINE
  5
B9
330
76
100
AcDbEntity
  8
1
  6
Continuous
 62
     6
100
AcDbLine
 10
117.3468734504914
 20
-22.38349138098153
 30
0.0
 11
117.3468734504923
 21
13.76650861901916
 31
0.0
  0
LINE
  5
BA
330
76
100
AcDbEntity
  8
1
  6
Continuous
 62
     2
100
AcDbLine
 10
-87.65312654950762
 20
-48.63349138098096
 30
0.0
 11
-155.9864598828407
 21
-48.63349138098096
 31
0.0
  0
LINE
  5
BB
330
76
100
AcDbEntity
  8
1
  6
Continuous
 62
     2
100
AcDbLine
 10
49.01354011715897
 20
-48.63349138098096
 30
0.0
 11
117.3468734504924
 21
-48.63349138098096
 31
0.0
  0
LINE
  5
BC
330
76
100
AcDbEntity
  8
1
  6
Continuous
 62
     2
100
AcDbLine
 10
49.01354011715897
 20
-48.63349138098096
 30
0.0
 11
49.01354011715897
 21
-43.63349138098096
 31
0.0
  0
LINE
  5
BD
330
76
100
AcDbEntity
  8
1
  6
Continuous
 62
     2
100
AcDbLine
 10
-19.31979321617422
 20
-48.63349138098096
 30
0.0
 11
-19.31979321617422
 21
-43.63349138098386
 31
0.0
  0
LINE
  5
BE
330
76
100
AcDbEntity
  8
1
  6
Continuous
 62
     2
100
AcDbLine
 10
-87.65312654950762
 20
-48.63349138098096
 30
0.0
 11
-87.65312654950762
 21
-43.63349138098096
 31
0.0
  0
LINE
  5
BF
330
76
100
AcDbEntity
  8
1
  6
Continuous
 62
     2
100
AcDbLine
 10
122.3468734504899
 20
13.76650861901916
 30
0.0
 11
122.3468734504899
 21
71.16650861901925
 31
0.0
  0
LINE
  5
C0
330
76
100
AcDbEntity
  8
1
  6
Continuous
 62
     2
100
AcDbLine
 10
122.3468734504899
 20
13.76650861901916
 30
0.0
 11
117.3468734504923
 21
13.76650861901916
 31
0.0
  0
LINE
  5
C1
330
76
100
AcDbEntity
  8
1
  6
Continuous
 62
     2
100
AcDbLine
 10
-277.6531265495083
 20
-48.63349138098096
 30
0.0
 11
-297.6531265495084
 21
-48.63349138098096
 31
0.0
  0
LINE
  5
C2
330
76
100
AcDbEntity
  8
1
  6
Continuous
 62
     2
100
AcDbLine
 10
-224.3197932161743
 20
-48.63349138098096
 30
0.0
 11
-224.3197932161743
 21
-43.63349138098096
 31
0.0
  0
LINE
  5
C3
330
76
100
AcDbEntity
  8
1
  6
Continuous
 62
     2
100
AcDbLine
 10
-224.3197932161743
 20
-48.63349138098096
 30
0.0
 11
-155.9864598828407
 21
-48.63349138098096
 31
0.0
  0
LINE
  5
C4
330
76
100
AcDbEntity
  8
1
  6
Continuous
 62
     6
100
AcDbLine
 10
-224.3197932161743
 20
-43.63349138098096
 30
0.0
 11
-155.9864598828407
 21
-43.63349138098096
 31
0.0
  0
LINE
  5
C5
330
76
100
AcDbEntity
  8
1
  6
Continuous
 62
     6
100
AcDbLine
 10
-224.3197932161743
 20
-43.63349138098096
 30
0.0
 11
-277.6531265495073
 21
-43.63349138098096
 31
0.0
  0
LINE
  5
C6
330
76
100
AcDbEntity
  8
1
  6
Continuous
 62
     2
100
AcDbLine
 10
-155.9864598828407
 20
-48.63349138098096
 30
0.0
 11
-155.9864598828407
 21
-43.63349138098096
 31
0.0
  0
LINE
  5
C7
330
76
100
AcDbEntity
  8
1
  6
Continuous
 62
     2
100
AcDbLine
 10
-277.6531265495083
 20
-48.63349138098096
 30
0.0
 11
-277.6531265495083
 21
-44.63349138098096
 31
0.0
  0
LINE
  5
C8
330
76
100
AcDbEntity
  8
1
  6
Continuous
 62
     2
100
AcDbLine
 10
-277.6531265495083
 20
-48.63349138098096
 30
0.0
 11
-224.3197932161743
 21
-48.63349138098096
 31
0.0
  0
LINE
  5
C9
330
76
100
AcDbEntity
  8
1
  6
Continuous
 62
     2
100
AcDbLine
 10
-67.65312654951043
 20
-48.63349138098096
 30
0.0
 11
-87.65312654950762
 21
-48.63349138098096
 31
0.0
  0
LINE
  5
CA
330
76
100
AcDbEntity
  8
1
  6
Continuous
 62
     2
100
AcDbLine
 10
-67.65312654951043
 20
-48.63349138098096
 30
0.0
 11
-67.65312654951043
 21
-44.63349138098096
 31
0.0
  0
LINE
  5
CB
330
76
100
AcDbEntity
  8
1
  6
Continuous
 62
     2
100
AcDbLine
 10
-67.65312654951043
 20
-48.63349138098096
 30
0.0
 11
-19.31979321617422
 21
-48.63349138098096
 31
0.0
  0
LINE
  5
CC
330
76
100
AcDbEntity
  8
1
  6
Continuous
 62
     2
100
AcDbLine
 10
-19.31979321617422
 20
-48.63349138098096
 30
0.0
 11
49.01354011715897
 21
-48.63349138098096
 31
0.0
  0
LINE
  5
CD
330
76
100
AcDbEntity
  8
1
  6
Continuous
 62
     2
100
AcDbLine
 10
122.3468734504899
 20
-48.63349138098096
 30
0.0
 11
117.3468734504924
 21
-48.63349138098096
 31
0.0
  0
LINE
  5
CE
330
76
100
AcDbEntity
  8
1
  6
Continuous
 62
     2
100
AcDbLine
 10
122.3468734504899
 20
-43.63349138098096
 30
0.0
 11
122.3468734504899
 21
-48.63349138098096
 31
0.0
  0
LINE
  5
CF
330
76
100
AcDbEntity
  8
1
  6
Continuous
 62
     2
100
AcDbLine
 10
122.3468734504899
 20
-43.63349138098096
 30
0.0
 11
122.3468734504899
 21
13.76650861901916
 31
0.0
  0
LINE
  5
D0
330
76
100
AcDbEntity
  8
1
  6
Continuous
 62
     2
100
AcDbLine
 10
122.3468734504899
 20
248.366508619019
 30
0.0
 11
117.3468734504899
 21
248.366508619019
 31
0.0
  0
LINE
  5
D1
330
76
100
AcDbEntity
  8
1
  6
Continuous
 62
     6
100
AcDbLine
 10
117.3468734504899
 20
243.366508619019
 30
0.0
 11
117.3468734504904
 21
185.966508619019
 31
0.0
  0
LINE
  5
D2
330
76
100
AcDbEntity
  8
1
  6
Continuous
 62
     2
100
AcDbLine
 10
122.3468734504899
 20
248.366508619019
 30
0.0
 11
122.3468734504899
 21
243.366508619019
 31
0.0
  0
LINE
  5
D3
330
76
100
AcDbEntity
  8
1
  6
Continuous
 62
     2
100
AcDbLine
 10
117.3468734504899
 20
243.366508619019
 30
0.0
 11
117.3468734504899
 21
248.366508619019
 31
0.0
  0
LINE
  5
D4
330
76
100
AcDbEntity
  8
1
  6
Continuous
 62
     2
100
AcDbLine
 10
117.3468734504899
 20
243.366508619019
 30
0.0
 11
122.3468734504899
 21
243.366508619019
 31
0.0
  0
LINE
  5
D5
330
76
100
AcDbEntity
  8
1
  6
Continuous
 62
     2
100
AcDbLine
 10
122.3468734504899
 20
243.366508619019
 30
0.0
 11
122.3468734504899
 21
185.966508619019
 31
0.0
  0
LINE
  5
D6
330
76
100
AcDbEntity
  8
1
  6
Continuous
 62
     2
100
AcDbLine
 10
117.3468734504904
 20
185.966508619019
 30
0.0
 11
122.3468734504899
 21
185.966508619019
 31
0.0
  0
LINE
  5
D7
330
76
100
AcDbEntity
  8
1
  6
Continuous
 62
     6
100
AcDbLine
 10
117.3468734504904
 20
185.966508619019
 30
0.0
 11
117.3468734504924
 21
128.5665086190191
 31
0.0
  0
LINE
  5
D8
330
76
100
AcDbEntity
  8
1
  6
Continuous
 62
     2
100
AcDbLine
 10
122.3468734504899
 20
185.966508619019
 30
0.0
 11
122.3468734504899
 21
128.5665086190191
 31
0.0
  0
LINE
  5
D9
330
76
100
AcDbEntity
  8
1
  6
Continuous
 62
     2
100
AcDbLine
 10
117.3468734504924
 20
128.5665086190191
 30
0.0
 11
122.3468734504899
 21
128.5665086190191
 31
0.0
  0
LINE
  5
DA
330
76
100
AcDbEntity
  8
1
  6
Continuous
 62
     6
100
AcDbLine
 10
117.3468734504924
 20
128.5665086190191
 30
0.0
 11
117.3468734504924
 21
71.16650861901925
 31
0.0
  0
LINE
  5
DB
330
76
100
AcDbEntity
  8
1
  6
Continuous
 62
     2
100
AcDbLine
 10
122.3468734504899
 20
128.5665086190191
 30
0.0
 11
122.3468734504899
 21
71.16650861901925
 31
0.0
  0
LINE
  5
DC
330
76
100
AcDbEntity
  8
1
  6
Continuous
 62
     2
100
AcDbLine
 10
117.3468734504924
 20
71.16650861901925
 30
0.0
 11
122.3468734504899
 21
71.16650861901925
 31
0.0
  0
LINE
  5
DD
330
76
100
AcDbEntity
  8
1
  6
Continuous
 62
     6
100
AcDbLine
 10
117.3468734504924
 20
71.16650861901925
 30
0.0
 11
117.3468734504923
 21
13.76650861901916
 31
0.0
  0
LINE
  5
DE
330
76
100
AcDbEntity
  8
1
  6
Continuous
 62
     6
100
AcDbLine
 10
-277.6531265495083
 20
243.3665086190193
 30
0.0
 11
-224.3197932161743
 21
243.3665086190193
 31
0.0
  0
LINE
  5
DF
330
76
100
AcDbEntity
  8
1
  6
Continuous
 62
     2
100
AcDbLine
 10
117.3468734504899
 20
248.366508619019
 30
0.0
 11
49.01354011715897
 21
248.366508619019
 31
0.0
  0
LINE
  5
E0
330
76
100
AcDbEntity
  8
1
  6
Continuous
 62
     2
100
AcDbLine
 10
49.01354011715897
 20
243.366508619019
 30
0.0
 11
49.01354011715897
 21
248.366508619019
 31
0.0
  0
LINE
  5
E1
330
76
100
AcDbEntity
  8
1
  6
Continuous
 62
     6
100
AcDbLine
 10
49.01354011715897
 20
243.366508619019
 30
0.0
 11
117.3468734504899
 21
243.366508619019
 31
0.0
  0
LINE
  5
E2
330
76
100
AcDbEntity
  8
1
  6
Continuous
 62
     2
100
AcDbLine
 10
49.01354011715897
 20
248.366508619019
 30
0.0
 11
-19.31979321617422
 21
248.366508619019
 31
0.0
  0
LINE
  5
E3
330
76
100
AcDbEntity
  8
1
  6
Continuous
 62
     2
100
AcDbLine
 10
-19.31979321617422
 20
243.366508619019
 30
0.0
 11
-19.31979321617422
 21
248.366508619019
 31
0.0
  0
LINE
  5
E4
330
76
100
AcDbEntity
  8
1
  6
Continuous
 62
     6
100
AcDbLine
 10
-19.31979321617422
 20
243.366508619019
 30
0.0
 11
49.01354011715897
 21
243.366508619019
 31
0.0
  0
LINE
  5
E5
330
76
100
AcDbEntity
  8
1
  6
Continuous
 62
     2
100
AcDbLine
 10
-19.31979321617422
 20
248.366508619019
 30
0.0
 11
-67.65312654951043
 21
248.366508619019
 31
0.0
  0
LINE
  5
E6
330
76
100
AcDbEntity
  8
1
  6
Continuous
 62
     2
100
AcDbLine
 10
-87.65312654950762
 20
243.366508619019
 30
0.0
 11
-87.65312654950762
 21
248.366508619019
 31
0.0
  0
LINE
  5
E7
330
76
100
AcDbEntity
  8
1
  6
Continuous
 62
     6
100
AcDbLine
 10
-87.65312654950762
 20
243.366508619019
 30
0.0
 11
-19.31979321617422
 21
243.366508619019
 31
0.0
  0
LINE
  5
E8
330
76
100
AcDbEntity
  8
1
  6
Continuous
 62
     2
100
AcDbLine
 10
-87.65312654950762
 20
248.366508619019
 30
0.0
 11
-155.9864598828407
 21
248.366508619019
 31
0.0
  0
LINE
  5
E9
330
76
100
AcDbEntity
  8
1
  6
Continuous
 62
     2
100
AcDbLine
 10
-155.9864598828407
 20
243.366508619019
 30
0.0
 11
-155.9864598828407
 21
248.366508619019
 31
0.0
  0
LINE
  5
EA
330
76
100
AcDbEntity
  8
1
  6
Continuous
 62
     6
100
AcDbLine
 10
-155.9864598828407
 20
243.366508619019
 30
0.0
 11
-87.65312654950762
 21
243.366508619019
 31
0.0
  0
LINE
  5
EB
330
76
100
AcDbEntity
  8
1
  6
Continuous
 62
     2
100
AcDbLine
 10
-155.9864598828407
 20
248.366508619019
 30
0.0
 11
-224.3197932161743
 21
248.366508619019
 31
0.0
  0
LINE
  5
EC
330
76
100
AcDbEntity
  8
1
  6
Continuous
 62
     2
100
AcDbLine
 10
-224.3197932161743
 20
243.3665086190193
 30
0.0
 11
-224.3197932161743
 21
248.366508619019
 31
0.0
  0
LINE
  5
ED
330
76
100
AcDbEntity
  8
1
  6
Continuous
 62
     6
100
AcDbLine
 10
-224.3197932161743
 20
243.3665086190193
 30
0.0
 11
-155.9864598828407
 21
243.366508619019
 31
0.0
  0
LINE
  5
EE
330
76
100
AcDbEntity
  8
1
  6
Continuous
 62
     2
100
AcDbLine
 10
-224.3197932161743
 20
248.366508619019
 30
0.0
 11
-277.6531265495083
 21
248.366508619019
 31
0.0
  0
LINE
  5
EF
330
76
100
AcDbEntity
  8
1
  6
Continuous
 62
     2
100
AcDbLine
 10
-277.6531265495083
 20
248.366508619019
 30
0.0
 11
-277.6531265495083
 21
244.3665086190193
 31
0.0
  0
LINE
  5
F0
330
76
100
AcDbEntity
  8
1
  6
Continuous
 62
     2
100
AcDbLine
 10
-277.6531265495083
 20
248.366508619019
 30
0.0
 11
-297.6531265495084
 21
248.366508619019
 31
0.0
  0
LINE
  5
F1
330
76
100
AcDbEntity
  8
1
  6
Continuous
 62
     2
100
AcDbLine
 10
-67.65312654951043
 20
248.366508619019
 30
0.0
 11
-67.65312654951043
 21
244.3665086190193
 31
0.0
  0
LINE
  5
F2
330
76
100
AcDbEntity
  8
1
  6
Continuous
 62
     2
100
AcDbLine
 10
-67.65312654951043
 20
248.366508619019
 30
0.0
 11
-87.65312654950762
 21
248.366508619019
 31
0.0
  0
LINE
  5
F3
330
76
100
AcDbEntity
  8
1
  6
Continuous
 62
     2
100
AcDbLine
 10
-297.6531265495084
 20
248.366508619019
 30
0.0
 11
-297.6531265495084
 21
99.86650861901907
 31
0.0
  0
LINE
  5
F4
330
76
100
AcDbEntity
  8
1
  6
Continuous
 62
     2
100
AcDbLine
 10
-297.6531265495084
 20
99.86650861901907
 30
0.0
 11
-287.6531265495083
 21
99.86650861901907
 31
0.0
  0
LINE
  5
F5
330
76
100
AcDbEntity
  8
1
  6
Continuous
 62
     2
100
AcDbLine
 10
-297.6531265495084
 20
99.86650861901907
 30
0.0
 11
-297.6531265495084
 21
-48.63349138098096
 31
0.0
  0
LINE
  5
F6
330
76
100
AcDbEntity
  8
1
  6
Continuous
 62
     6
100
AcDbLine
 10
-277.6531265495073
 20
-43.63349138098096
 30
0.0
 11
-277.6531265495083
 21
243.3665086190193
 31
0.0
  0
LINE
  5
F7
330
76
100
AcDbEntity
  8
1
  6
Continuous
 62
     6
100
AcDbLine
 10
117.3468734504923
 20
-43.63349138098147
 30
0.0
 11
117.3468734504919
 21
-35.13349138098153
 31
0.0
  0
LINE
  5
F8
330
76
100
AcDbEntity
  8
1
  6
Continuous
 62
     6
100
AcDbLine
 10
-155.9864598828407
 20
-43.63349138098096
 30
0.0
 11
-12.19793107625753
 21
-43.63349138098403
 31
0.0
  0
LINE
  5
F9
330
76
100
AcDbEntity
  8
1
  6
Continuous
 62
     2
100
AcDbLine
 10
-19.31979321617422
 20
-43.63349138098386
 30
0.0
 11
-19.31979321617422
 21
-43.63349138098096
 31
0.0
  0
LINE
  5
FA
330
76
100
AcDbEntity
  8
1
  6
Continuous
 62
     6
100
AcDbLine
 10
117.3468734504942
 20
-26.63349138098153
 30
0.0
 11
117.3468734504942
 21
-18.13349138098153
 31
0.0
  0
LINE
  5
FB
330
76
100
AcDbEntity
  8
1
  6
Continuous
 62
     7
100
AcDbLine
 10
52.10206892374238
 20
-35.13349138098153
 30
0.0
 11
52.10206892374238
 21
-26.63349138098153
 31
0.0
  0
LINE
  5
FC
330
76
100
AcDbEntity
  8
1
  6
Continuous
 62
     6
100
AcDbLine
 10
24.20206892374239
 20
-26.63349138098153
 30
0.0
 11
117.3468734504942
 21
-26.63349138098153
 31
0.0
  0
LINE
  5
FD
330
76
100
AcDbEntity
  8
1
  6
Continuous
 62
     7
100
AcDbLine
 10
-12.19793107625753
 20
-26.63349138098153
 30
0.0
 11
-12.19793107625753
 21
-18.13349138098153
 31
0.0
  0
LINE
  5
FE
330
76
100
AcDbEntity
  8
1
  6
Continuous
 62
     7
100
AcDbLine
 10
24.20206892374239
 20
-26.63349138098153
 30
0.0
 11
24.20206892374239
 21
-18.13349138098153
 31
0.0
  0
LINE
  5
FF
330
76
100
AcDbEntity
  8
1
  6
Continuous
 62
     7
100
AcDbLine
 10
81.92846516881535
 20
-18.13349138098153
 30
0.0
 11
81.92846516881535
 21
-26.63349138098153
 31
0.0
  0
LINE
  5
100
330
76
100
AcDbEntity
  8
1
  6
Continuous
 62
     7
100
AcDbLine
 10
108.428465168815
 20
-18.13349138098153
 30
0.0
 11
108.428465168815
 21
-26.63349138098153
 31
0.0
  0
LINE
  5
101
330
76
100
AcDbEntity
  8
1
  6
Continuous
 62
     7
100
AcDbLine
 10
117.3468734504937
 20
-35.13349138098153
 30
0.0
 11
24.20206892374239
 21
-35.13349138098153
 31
0.0
  0
LINE
  5
102
102
{ACAD_REACTORS
330
1E8
330
1E9
102
}
330
76
100
AcDbEntity
  8
0
  6
Continuous
 62
     2
100
AcDbLine
 10
1.50949786550987
 20
-34.33320226531822
 30
0.0
 11
1.50949786550987
 21
-33.46068525851496
 31
0.0
  0
LINE
  5
103
102
{ACAD_REACTORS
330
1E8
330
1E9
102
}
330
76
100
AcDbEntity
  8
0
  6
Continuous
 62
     2
100
AcDbLine
 10
1.50949786550987
 20
-35.29297097280102
 30
0.0
 11
1.50949786550987
 21
-36.16548797960434
 31
0.0
  0
LINE
  5
104
102
{ACAD_REACTORS
330
1EA
330
1EB
102
}
330
76
100
AcDbEntity
  8
0
  6
Continuous
 62
     2
100
AcDbLine
 10
16.84254200180027
 20
-34.07144716327775
 30
0.0
 11
17.94618130136837
 21
-34.07144716327775
 31
0.0
  0
LINE
  5
105
102
{ACAD_REACTORS
330
1EA
330
1EB
102
}
330
76
100
AcDbEntity
  8
0
  6
Continuous
 62
     2
100
AcDbLine
 10
17.61219934476168
 20
-35.29297097280153
 30
0.0
 11
17.61219934476168
 21
-36.16548797960485
 31
0.0
  0
LINE
  5
106
102
{ACAD_REACTORS
330
1F4
330
1F5
102
}
330
76
100
AcDbEntity
  8
0
  6
Continuous
 62
     2
100
AcDbLine
 10
15.75144272938186
 20
-32.98080090479084
 30
0.0
 11
17.14939577632217
 21
-31.39994191101596
 31
0.0
  0
LINE
  5
107
102
{ACAD_REACTORS
330
1F4
330
1F5
102
}
330
76
100
AcDbEntity
  8
0
  6
Continuous
 62
     2
100
AcDbLine
 10
15.84686614555469
 20
-29.92699138097976
 30
0.0
 11
17.14939577632217
 21
-31.39994191101596
 31
0.0
  0
LINE
  5
108
102
{ACAD_REACTORS
330
1F4
330
1F5
102
}
330
76
100
AcDbEntity
  8
0
  6
Continuous
 62
     2
100
AcDbLine
 10
18.45192540708857
 20
-29.92699138097976
 30
0.0
 11
19.85464962483579
 21
-29.92699138097976
 31
0.0
  0
LINE
  5
109
102
{ACAD_REACTORS
330
1F4
330
1F5
102
}
330
76
100
AcDbEntity
  8
0
  6
Continuous
 62
     2
100
AcDbLine
 10
17.15416694712997
 20
-32.98080090479084
 30
0.0
 11
17.85075788519578
 21
-32.19306911949713
 31
0.0
  0
LINE
  5
10A
102
{ACAD_REACTORS
330
1F4
330
1F5
102
}
330
76
100
AcDbEntity
  8
0
  6
Continuous
 62
     2
100
AcDbLine
 10
17.15416694712997
 20
-32.98080090479084
 30
0.0
 11
15.75144272938186
 21
-32.98080090479084
 31
0.0
  0
LINE
  5
10B
102
{ACAD_REACTORS
330
1F6
330
1F7
102
}
330
76
100
AcDbEntity
  8
0
  6
Continuous
 62
     2
100
AcDbLine
 10
15.63216345916499
 20
-32.98080090479084
 30
0.0
 11
14.39165904891206
 21
-32.98080090479084
 31
0.0
  0
LINE
  5
10C
102
{ACAD_REACTORS
330
1F8
330
1F9
102
}
330
76
100
AcDbEntity
  8
0
  6
Continuous
 62
     2
100
AcDbLine
 10
13.52367944075698
 20
-35.11846757144076
 30
0.0
 11
13.22351420356677
 21
-34.35065260545406
 31
0.0
  0
LINE
  5
10D
102
{ACAD_REACTORS
330
1F8
330
1F9
102
}
330
76
100
AcDbEntity
  8
0
  6
Continuous
 62
     2
100
AcDbLine
 10
12.92334896637448
 20
-35.11846757144076
 30
0.0
 11
13.52367944075698
 21
-35.11846757144076
 31
0.0
  0
LINE
  5
10E
102
{ACAD_REACTORS
330
1F8
330
1F9
102
}
330
76
100
AcDbEntity
  8
0
  6
Continuous
 62
     2
100
AcDbLine
 10
11.20530895150068
 20
-36.33999138096516
 30
0.0
 11
12.44581336175358
 21
-36.33999138096516
 31
0.0
  0
LINE
  5
10F
102
{ACAD_REACTORS
330
1F8
330
1F9
102
}
330
76
100
AcDbEntity
  8
0
  6
Continuous
 62
     2
100
AcDbLine
 10
12.60326199843988
 20
-33.28618185715402
 30
0.0
 11
13.84376640869269
 21
-33.28618185715402
 31
0.0
  0
LINE
  5
110
102
{ACAD_REACTORS
330
1F8
330
1F9
102
}
330
76
100
AcDbEntity
  8
0
  6
Continuous
 62
     2
100
AcDbLine
 10
13.84376640869269
 20
-33.28618185715402
 30
0.0
 11
15.24171945563296
 21
-36.33999138096516
 31
0.0
  0
LINE
  5
111
102
{ACAD_REACTORS
330
1F8
330
1F9
102
}
330
76
100
AcDbEntity
  8
0
  6
Continuous
 62
     2
100
AcDbLine
 10
14.00121504537907
 20
-36.33999138096516
 30
0.0
 11
13.78973499190329
 21
-35.79903083674736
 31
0.0
  0
LINE
  5
112
102
{ACAD_REACTORS
330
1FA
330
1FB
102
}
330
76
100
AcDbEntity
  8
0
  6
Continuous
 62
     2
100
AcDbLine
 10
9.85889584979307
 20
-36.33999138096516
 30
0.0
 11
11.05168855195947
 21
-36.33999138096516
 31
0.0
  0
LINE
  5
113
102
{ACAD_REACTORS
330
1FA
330
1FB
102
}
330
76
100
AcDbEntity
  8
0
  6
Continuous
 62
     2
100
AcDbLine
 10
9.85889584979307
 20
-34.07144716327775
 30
0.0
 11
9.85889584979307
 21
-36.33999138096516
 31
0.0
  0
LINE
  5
114
102
{ACAD_REACTORS
330
1FA
330
1FB
102
}
330
76
100
AcDbEntity
  8
0
  6
Continuous
 62
     2
100
AcDbLine
 10
9.04779681231838
 20
-33.28618185715402
 30
0.0
 11
9.04779681231838
 21
-34.07144716327775
 31
0.0
  0
LINE
  5
115
102
{ACAD_REACTORS
330
1FC
330
1FD
102
}
330
76
100
AcDbEntity
  8
0
  6
Continuous
 62
     2
100
AcDbLine
 10
10.52701069389107
 20
-32.98080090479084
 30
0.0
 11
11.71980339605747
 21
-32.98080090479084
 31
0.0
  0
LINE
  5
116
102
{ACAD_REACTORS
330
1FC
330
1FD
102
}
330
76
100
AcDbEntity
  8
0
  6
Continuous
 62
     2
100
AcDbLine
 10
12.96030780631156
 20
-31.23576689118482
 30
0.0
 11
11.71980339605747
 21
-29.92699138097976
 31
0.0
  0
LINE
  5
117
102
{ACAD_REACTORS
330
1FC
330
1FD
102
}
330
76
100
AcDbEntity
  8
0
  6
Continuous
 62
     2
100
AcDbLine
 10
14.15310050847816
 20
-29.92699138097976
 30
0.0
 11
12.96030780631156
 21
-29.92699138097976
 31
0.0
  0
LINE
  5
118
102
{ACAD_REACTORS
330
1FC
330
1FD
102
}
330
76
100
AcDbEntity
  8
0
  6
Continuous
 62
     2
100
AcDbLine
 10
14.15310050847816
 20
-32.98080090479084
 30
0.0
 11
14.15310050847816
 21
-29.92699138097976
 31
0.0
  0
LINE
  5
119
102
{ACAD_REACTORS
330
1FC
330
1FD
102
}
330
76
100
AcDbEntity
  8
0
  6
Continuous
 62
     2
100
AcDbLine
 10
12.96030780631156
 20
-32.98080090479084
 30
0.0
 11
14.15310050847816
 21
-32.98080090479084
 31
0.0
  0
LINE
  5
11A
102
{ACAD_REACTORS
330
1FC
330
1FD
102
}
330
76
100
AcDbEntity
  8
0
  6
Continuous
 62
     2
100
AcDbLine
 10
11.71980339605747
 20
-31.67202539458612
 30
0.0
 11
12.96030780631156
 21
-32.98080090479084
 31
0.0
  0
LINE
  5
11B
102
{ACAD_REACTORS
330
1FE
330
1FF
102
}
330
76
100
AcDbEntity
  8
0
  6
Continuous
 62
     2
100
AcDbLine
 10
7.71186898589187
 20
-34.59495736735926
 30
0.0
 11
6.47136457563889
 21
-33.28618185715402
 31
0.0
  0
LINE
  5
11C
102
{ACAD_REACTORS
330
1FE
330
1FF
102
}
330
76
100
AcDbEntity
  8
0
  6
Continuous
 62
     2
100
AcDbLine
 10
7.71186898589187
 20
-33.28618185715402
 30
0.0
 11
7.71186898589187
 21
-34.59495736735926
 31
0.0
  0
LINE
  5
11D
102
{ACAD_REACTORS
330
1FE
330
1FF
102
}
330
76
100
AcDbEntity
  8
0
  6
Continuous
 62
     2
100
AcDbLine
 10
8.90466168805827
 20
-33.28618185715402
 30
0.0
 11
7.71186898589187
 21
-33.28618185715402
 31
0.0
  0
LINE
  5
11E
102
{ACAD_REACTORS
330
1FE
330
1FF
102
}
330
76
100
AcDbEntity
  8
0
  6
Continuous
 62
     2
100
AcDbLine
 10
8.90466168805827
 20
-36.33999138096516
 30
0.0
 11
8.90466168805827
 21
-33.28618185715402
 31
0.0
  0
LINE
  5
11F
102
{ACAD_REACTORS
330
1FE
330
1FF
102
}
330
76
100
AcDbEntity
  8
0
  6
Continuous
 62
     2
100
AcDbLine
 10
6.47136457563889
 20
-35.03121587076066
 30
0.0
 11
7.71186898589187
 21
-36.33999138096516
 31
0.0
  0
LINE
  5
120
102
{ACAD_REACTORS
330
1FE
330
1FF
102
}
330
76
100
AcDbEntity
  8
0
  6
Continuous
 62
     2
100
AcDbLine
 10
6.47136457563889
 20
-36.33999138096516
 30
0.0
 11
6.47136457563889
 21
-35.03121587076066
 31
0.0
  0
LINE
  5
121
102
{ACAD_REACTORS
330
1EE
330
1EF
102
}
330
76
100
AcDbEntity
  8
0
  6
Continuous
 62
     2
100
AcDbLine
 10
8.95252432703046
 20
-30.62500498642265
 30
0.0
 11
10.28845215345808
 21
-30.62500498642265
 31
0.0
  0
LINE
  5
122
102
{ACAD_REACTORS
330
1EE
330
1EF
102
}
330
76
100
AcDbEntity
  8
0
  6
Continuous
 62
     2
100
AcDbLine
 10
8.95252432703046
 20
-32.28278729934846
 30
0.0
 11
8.95252432703046
 21
-31.80290294560672
 31
0.0
  0
LINE
  5
123
102
{ACAD_REACTORS
330
1EE
330
1EF
102
}
330
76
100
AcDbEntity
  8
0
  6
Continuous
 62
     2
100
AcDbLine
 10
10.28845215345808
 20
-32.28278729934846
 30
0.0
 11
8.95252432703046
 21
-32.28278729934846
 31
0.0
  0
LINE
  5
124
102
{ACAD_REACTORS
330
1EE
330
1EF
102
}
330
76
100
AcDbEntity
  8
0
  6
Continuous
 62
     2
100
AcDbLine
 10
10.28845215345808
 20
-32.98080090479084
 30
0.0
 11
10.28845215345808
 21
-32.28278729934846
 31
0.0
  0
LINE
  5
125
102
{ACAD_REACTORS
330
1EE
330
1EF
102
}
330
76
100
AcDbEntity
  8
0
  6
Continuous
 62
     2
100
AcDbLine
 10
7.13813242967717
 20
-32.98080090479084
 30
0.0
 11
10.28845215345808
 21
-32.98080090479084
 31
0.0
  0
LINE
  5
126
102
{ACAD_REACTORS
330
1EE
330
1EF
102
}
330
76
100
AcDbEntity
  8
0
  6
Continuous
 62
     2
100
AcDbLine
 10
7.13813242967717
 20
-29.92699138097976
 30
0.0
 11
10.28845215345808
 21
-29.92699138097976
 31
0.0
  0
LINE
  5
127
102
{ACAD_REACTORS
330
1EE
330
1EF
102
}
330
76
100
AcDbEntity
  8
0
  6
Continuous
 62
     2
100
AcDbLine
 10
10.28845215345808
 20
-30.62500498642265
 30
0.0
 11
10.28845215345808
 21
-29.92699138097976
 31
0.0
  0
LINE
  5
128
102
{ACAD_REACTORS
330
200
330
201
102
}
330
76
100
AcDbEntity
  8
0
  6
Continuous
 62
     2
100
AcDbLine
 10
4.27677693453708
 20
-30.99582471431432
 30
0.0
 11
4.27677693453708
 21
-29.92699138097976
 31
0.0
  0
LINE
  5
129
102
{ACAD_REACTORS
330
200
330
201
102
}
330
76
100
AcDbEntity
  8
0
  6
Continuous
 62
     2
100
AcDbLine
 10
4.27677693453708
 20
-29.92699138097976
 30
0.0
 11
5.46956963670357
 21
-29.92699138097976
 31
0.0
  0
LINE
  5
12A
102
{ACAD_REACTORS
330
200
330
201
102
}
330
76
100
AcDbEntity
  8
0
  6
Continuous
 62
     2
100
AcDbLine
 10
4.27677693453708
 20
-31.84652879594717
 30
0.0
 11
3.22711935662969
 21
-31.84652879594717
 31
0.0
  0
LINE
  5
12B
102
{ACAD_REACTORS
330
200
330
201
102
}
330
76
100
AcDbEntity
  8
0
  6
Continuous
 62
     2
100
AcDbLine
 10
3.22711935662969
 20
-31.84652879594717
 30
0.0
 11
3.22711935662969
 21
-32.98080090479084
 31
0.0
  0
LINE
  5
12C
102
{ACAD_REACTORS
330
200
330
201
102
}
330
76
100
AcDbEntity
  8
0
  6
Continuous
 62
     2
100
AcDbLine
 10
2.03432665446309
 20
-29.92699138097976
 30
0.0
 11
2.03432665446309
 21
-32.98080090479084
 31
0.0
  0
LINE
  5
12D
102
{ACAD_REACTORS
330
1F2
330
1F3
102
}
330
76
100
AcDbEntity
  8
0
  6
Continuous
 62
     2
100
AcDbLine
 10
0.07814662290937
 20
-31.29582487576204
 30
0.0
 11
0.07814662290937
 21
-30.59009722641974
 31
0.0
  0
LINE
  5
12E
102
{ACAD_REACTORS
330
1F2
330
1F3
102
}
330
76
100
AcDbEntity
  8
0
  6
Continuous
 62
     2
100
AcDbLine
 10
-1.16235778734463
 20
-32.98080090479084
 30
0.0
 11
0.07814662290937
 21
-32.98080090479084
 31
0.0
  0
LINE
  5
12F
102
{ACAD_REACTORS
330
1F2
330
1F3
102
}
330
76
100
AcDbEntity
  8
0
  6
Continuous
 62
     2
100
AcDbLine
 10
0.07814662290937
 20
-32.98080090479084
 30
0.0
 11
0.07814662290937
 21
-32.03772266364712
 31
0.0
  0
LINE
  5
130
102
{ACAD_REACTORS
330
1EC
330
1ED
102
}
330
76
100
AcDbEntity
  8
0
  6
Continuous
 62
     2
100
AcDbLine
 10
-5.46730363655613
 20
-35.62743582540827
 30
0.0
 11
-6.94313689756572
 21
-35.62743582540827
 31
0.0
  0
LINE
  5
131
102
{ACAD_REACTORS
330
1EC
330
1ED
102
}
330
76
100
AcDbEntity
  8
0
  6
Continuous
 62
     2
100
AcDbLine
 10
-7.96127618969501
 20
-30.35123599638172
 30
0.0
 11
-7.96127618969501
 21
-35.91574676558196
 31
0.0
  0
LINE
  5
132
102
{ACAD_REACTORS
330
1EC
330
1ED
102
}
330
76
100
AcDbEntity
  8
0
  6
Continuous
 62
     2
100
AcDbLine
 10
-7.53703157431224
 20
-29.92699138099783
 30
0.0
 11
-2.06371948359532
 21
-29.92699138099783
 31
0.0
  0
LINE
  5
133
102
{ACAD_REACTORS
330
1EC
330
1ED
102
}
330
76
100
AcDbEntity
  8
0
  6
Continuous
 62
     2
100
AcDbLine
 10
-1.63947486821144
 20
-30.35123599638172
 30
0.0
 11
-1.63947486821144
 21
-35.91574676558196
 31
0.0
  0
LINE
  5
134
102
{ACAD_REACTORS
330
1EC
330
1ED
102
}
330
76
100
AcDbEntity
  8
0
  6
Continuous
 62
     2
100
AcDbLine
 10
-2.06371948359532
 20
-36.33999138096516
 30
0.0
 11
-7.53703157431224
 21
-36.33999138096516
 31
0.0
  0
LINE
  5
135
102
{ACAD_REACTORS
330
1EC
330
1ED
102
}
330
76
100
AcDbEntity
  8
0
  6
Continuous
 62
     2
100
AcDbLine
 10
-5.15158671347953
 20
-35.31171890233156
 30
0.0
 11
-5.15158671347953
 21
-33.78094797079996
 31
0.0
  0
LINE
  5
136
102
{ACAD_REACTORS
330
1EC
330
1ED
102
}
330
76
100
AcDbEntity
  8
0
  6
Continuous
 62
     2
100
AcDbLine
 10
-5.15158671347953
 20
-31.55928847867506
 30
0.0
 11
-5.15158671347953
 21
-30.95526385961443
 31
0.0
  0
LINE
  5
137
102
{ACAD_REACTORS
330
1EC
330
1ED
102
}
330
76
100
AcDbEntity
  8
0
  6
Continuous
 62
     2
100
AcDbLine
 10
-6.94313689756572
 20
-30.63954693653835
 30
0.0
 11
-5.46730363655613
 21
-30.63954693653835
 31
0.0
  0
LINE
  5
138
102
{ACAD_REACTORS
330
1EC
330
1ED
102
}
330
76
100
AcDbEntity
  8
0
  6
Continuous
 62
     2
100
AcDbLine
 10
-7.25885382064132
 20
-30.95526385961443
 30
0.0
 11
-7.25885382064132
 21
-35.31171890233156
 31
0.0
  0
LINE
  5
139
102
{ACAD_REACTORS
330
1F2
330
1F3
102
}
330
76
100
AcDbEntity
  8
0
  6
Continuous
 62
     2
100
AcDbLine
 10
0.07814662290937
 20
-32.03772266364712
 30
0.0
 11
0.83691421068977
 21
-32.03772266364712
 31
0.0
  0
LINE
  5
13A
102
{ACAD_REACTORS
330
1F2
330
1F3
102
}
330
76
100
AcDbEntity
  8
0
  6
Continuous
 62
     2
100
AcDbLine
 10
-1.16235778734463
 20
-29.92699138097976
 30
0.0
 11
0.83691421068977
 21
-29.92699138097976
 31
0.0
  0
LINE
  5
13B
102
{ACAD_REACTORS
330
1F2
330
1F3
102
}
330
76
100
AcDbEntity
  8
0
  6
Continuous
 62
     2
100
AcDbLine
 10
-1.16235778734463
 20
-29.92699138097976
 30
0.0
 11
-1.16235778734463
 21
-32.98080090479084
 31
0.0
  0
LINE
  5
13C
102
{ACAD_REACTORS
330
1F2
330
1F3
102
}
330
76
100
AcDbEntity
  8
0
  6
Continuous
 62
     2
100
AcDbLine
 10
0.07814662290937
 20
-31.29582487576204
 30
0.0
 11
0.39544168445138
 21
-31.29582487576204
 31
0.0
  0
LINE
  5
13D
102
{ACAD_REACTORS
330
1F2
330
1F3
102
}
330
76
100
AcDbEntity
  8
0
  6
Continuous
 62
     2
100
AcDbLine
 10
0.07814662290937
 20
-30.59009722641974
 30
0.0
 11
0.39544168445138
 21
-30.59009722641974
 31
0.0
  0
LINE
  5
13E
102
{ACAD_REACTORS
330
200
330
201
102
}
330
76
100
AcDbEntity
  8
0
  6
Continuous
 62
     2
100
AcDbLine
 10
3.22711935662969
 20
-30.99582471431432
 30
0.0
 11
4.27677693453708
 21
-30.99582471431432
 31
0.0
  0
LINE
  5
13F
102
{ACAD_REACTORS
330
200
330
201
102
}
330
76
100
AcDbEntity
  8
0
  6
Continuous
 62
     2
100
AcDbLine
 10
3.22711935662969
 20
-29.92699138097976
 30
0.0
 11
3.22711935662969
 21
-30.99582471431432
 31
0.0
  0
LINE
  5
140
102
{ACAD_REACTORS
330
200
330
201
102
}
330
76
100
AcDbEntity
  8
0
  6
Continuous
 62
     2
100
AcDbLine
 10
2.03432665446309
 20
-29.92699138097976
 30
0.0
 11
3.22711935662969
 21
-29.92699138097976
 31
0.0
  0
LINE
  5
141
102
{ACAD_REACTORS
330
200
330
201
102
}
330
76
100
AcDbEntity
  8
0
  6
Continuous
 62
     2
100
AcDbLine
 10
3.22711935662969
 20
-32.98080090479084
 30
0.0
 11
2.03432665446309
 21
-32.98080090479084
 31
0.0
  0
LINE
  5
142
102
{ACAD_REACTORS
330
200
330
201
102
}
330
76
100
AcDbEntity
  8
0
  6
Continuous
 62
     2
100
AcDbLine
 10
4.27677693453708
 20
-32.98080090479084
 30
0.0
 11
4.27677693453708
 21
-31.84652879594717
 31
0.0
  0
LINE
  5
143
102
{ACAD_REACTORS
330
200
330
201
102
}
330
76
100
AcDbEntity
  8
0
  6
Continuous
 62
     2
100
AcDbLine
 10
5.46956963670357
 20
-32.98080090479084
 30
0.0
 11
4.27677693453708
 21
-32.98080090479084
 31
0.0
  0
LINE
  5
144
102
{ACAD_REACTORS
330
200
330
201
102
}
330
76
100
AcDbEntity
  8
0
  6
Continuous
 62
     2
100
AcDbLine
 10
5.46956963670357
 20
-29.92699138097976
 30
0.0
 11
5.46956963670357
 21
-32.98080090479084
 31
0.0
  0
LINE
  5
145
102
{ACAD_REACTORS
330
1EE
330
1EF
102
}
330
76
100
AcDbEntity
  8
0
  6
Continuous
 62
     2
100
AcDbLine
 10
8.95252432703046
 20
-31.80290294560672
 30
0.0
 11
10.28845215345808
 21
-31.80290294560672
 31
0.0
  0
LINE
  5
146
102
{ACAD_REACTORS
330
1EE
330
1EF
102
}
330
76
100
AcDbEntity
  8
0
  6
Continuous
 62
     2
100
AcDbLine
 10
10.28845215345808
 20
-31.80290294560672
 30
0.0
 11
10.28845215345808
 21
-31.10488934016433
 31
0.0
  0
LINE
  5
147
102
{ACAD_REACTORS
330
1EE
330
1EF
102
}
330
76
100
AcDbEntity
  8
0
  6
Continuous
 62
     2
100
AcDbLine
 10
10.28845215345808
 20
-31.10488934016433
 30
0.0
 11
8.95252432703046
 21
-31.10488934016433
 31
0.0
  0
LINE
  5
148
102
{ACAD_REACTORS
330
1EE
330
1EF
102
}
330
76
100
AcDbEntity
  8
0
  6
Continuous
 62
     2
100
AcDbLine
 10
8.95252432703046
 20
-31.10488934016433
 30
0.0
 11
8.95252432703046
 21
-30.62500498642265
 31
0.0
  0
LINE
  5
149
102
{ACAD_REACTORS
330
1FE
330
1FF
102
}
330
76
100
AcDbEntity
  8
0
  6
Continuous
 62
     2
100
AcDbLine
 10
5.27857187347138
 20
-36.33999138096516
 30
0.0
 11
6.47136457563889
 21
-36.33999138096516
 31
0.0
  0
LINE
  5
14A
102
{ACAD_REACTORS
330
1FE
330
1FF
102
}
330
76
100
AcDbEntity
  8
0
  6
Continuous
 62
     2
100
AcDbLine
 10
7.71186898589187
 20
-36.33999138096516
 30
0.0
 11
8.90466168805827
 21
-36.33999138096516
 31
0.0
  0
LINE
  5
14B
102
{ACAD_REACTORS
330
1FE
330
1FF
102
}
330
76
100
AcDbEntity
  8
0
  6
Continuous
 62
     2
100
AcDbLine
 10
6.47136457563889
 20
-33.28618185715402
 30
0.0
 11
5.27857187347138
 21
-33.28618185715402
 31
0.0
  0
LINE
  5
14C
102
{ACAD_REACTORS
330
1FE
330
1FF
102
}
330
76
100
AcDbEntity
  8
0
  6
Continuous
 62
     2
100
AcDbLine
 10
5.27857187347138
 20
-33.28618185715402
 30
0.0
 11
5.27857187347138
 21
-36.33999138096516
 31
0.0
  0
LINE
  5
14D
102
{ACAD_REACTORS
330
1FC
330
1FD
102
}
330
76
100
AcDbEntity
  8
0
  6
Continuous
 62
     2
100
AcDbLine
 10
12.96030780631156
 20
-29.92699138097976
 30
0.0
 11
12.96030780631156
 21
-31.23576689118482
 31
0.0
  0
LINE
  5
14E
102
{ACAD_REACTORS
330
1FC
330
1FD
102
}
330
76
100
AcDbEntity
  8
0
  6
Continuous
 62
     2
100
AcDbLine
 10
11.71980339605747
 20
-29.92699138097976
 30
0.0
 11
10.52701069389107
 21
-29.92699138097976
 31
0.0
  0
LINE
  5
14F
102
{ACAD_REACTORS
330
1FC
330
1FD
102
}
330
76
100
AcDbEntity
  8
0
  6
Continuous
 62
     2
100
AcDbLine
 10
10.52701069389107
 20
-29.92699138097976
 30
0.0
 11
10.52701069389107
 21
-32.98080090479084
 31
0.0
  0
LINE
  5
150
102
{ACAD_REACTORS
330
1FC
330
1FD
102
}
330
76
100
AcDbEntity
  8
0
  6
Continuous
 62
     2
100
AcDbLine
 10
11.71980339605747
 20
-32.98080090479084
 30
0.0
 11
11.71980339605747
 21
-31.67202539458612
 31
0.0
  0
LINE
  5
151
102
{ACAD_REACTORS
330
1FA
330
1FB
102
}
330
76
100
AcDbEntity
  8
0
  6
Continuous
 62
     2
100
AcDbLine
 10
11.05168855195947
 20
-36.33999138096516
 30
0.0
 11
11.05168855195947
 21
-34.07144716327775
 31
0.0
  0
LINE
  5
152
102
{ACAD_REACTORS
330
1FA
330
1FB
102
}
330
76
100
AcDbEntity
  8
0
  6
Continuous
 62
     2
100
AcDbLine
 10
11.05168855195947
 20
-34.07144716327775
 30
0.0
 11
11.86278758943209
 21
-34.07144716327775
 31
0.0
  0
LINE
  5
153
102
{ACAD_REACTORS
330
1FA
330
1FB
102
}
330
76
100
AcDbEntity
  8
0
  6
Continuous
 62
     2
100
AcDbLine
 10
11.86278758943209
 20
-34.07144716327775
 30
0.0
 11
11.86278758943209
 21
-33.28618185715402
 31
0.0
  0
LINE
  5
154
102
{ACAD_REACTORS
330
1FA
330
1FB
102
}
330
76
100
AcDbEntity
  8
0
  6
Continuous
 62
     2
100
AcDbLine
 10
11.86278758943209
 20
-33.28618185715402
 30
0.0
 11
9.04779681231838
 21
-33.28618185715402
 31
0.0
  0
LINE
  5
155
102
{ACAD_REACTORS
330
1FA
330
1FB
102
}
330
76
100
AcDbEntity
  8
0
  6
Continuous
 62
     2
100
AcDbLine
 10
9.04779681231838
 20
-34.07144716327775
 30
0.0
 11
9.85889584979307
 21
-34.07144716327775
 31
0.0
  0
LINE
  5
156
102
{ACAD_REACTORS
330
1F8
330
1F9
102
}
330
76
100
AcDbEntity
  8
0
  6
Continuous
 62
     2
100
AcDbLine
 10
12.65729341522936
 20
-35.79903083674736
 30
0.0
 11
13.78973499190329
 21
-35.79903083674736
 31
0.0
  0
LINE
  5
157
102
{ACAD_REACTORS
330
1F8
330
1F9
102
}
330
76
100
AcDbEntity
  8
0
  6
Continuous
 62
     2
100
AcDbLine
 10
15.24171945563296
 20
-36.33999138096516
 30
0.0
 11
14.00121504537907
 21
-36.33999138096516
 31
0.0
  0
LINE
  5
158
102
{ACAD_REACTORS
330
1F8
330
1F9
102
}
330
76
100
AcDbEntity
  8
0
  6
Continuous
 62
     2
100
AcDbLine
 10
12.60326199843988
 20
-33.28618185715402
 30
0.0
 11
11.20530895150068
 21
-36.33999138096516
 31
0.0
  0
LINE
  5
159
102
{ACAD_REACTORS
330
1F8
330
1F9
102
}
330
76
100
AcDbEntity
  8
0
  6
Continuous
 62
     2
100
AcDbLine
 10
12.44581336175358
 20
-36.33999138096516
 30
0.0
 11
12.65729341522936
 21
-35.79903083674736
 31
0.0
  0
LINE
  5
15A
102
{ACAD_REACTORS
330
1F8
330
1F9
102
}
330
76
100
AcDbEntity
  8
0
  6
Continuous
 62
     2
100
AcDbLine
 10
12.92334896637448
 20
-35.11846757144076
 30
0.0
 11
13.22351420356677
 21
-34.35065260545406
 31
0.0
  0
LINE
  5
15B
102
{ACAD_REACTORS
330
1F6
330
1F7
102
}
330
76
100
AcDbEntity
  8
0
  6
Continuous
 62
     2
100
AcDbLine
 10
14.39165904891206
 20
-32.98080090479084
 30
0.0
 11
14.39165904891206
 21
-29.92699138097976
 31
0.0
  0
LINE
  5
15C
102
{ACAD_REACTORS
330
1F6
330
1F7
102
}
330
76
100
AcDbEntity
  8
0
  6
Continuous
 62
     2
100
AcDbLine
 10
15.63216345916499
 20
-29.92699138097976
 30
0.0
 11
15.63216345916499
 21
-32.98080090479084
 31
0.0
  0
LINE
  5
15D
102
{ACAD_REACTORS
330
1F6
330
1F7
102
}
330
76
100
AcDbEntity
  8
0
  6
Continuous
 62
     2
100
AcDbLine
 10
14.39165904891206
 20
-29.92699138097976
 30
0.0
 11
15.63216345916499
 21
-29.92699138097976
 31
0.0
  0
LINE
  5
15E
102
{ACAD_REACTORS
330
1F4
330
1F5
102
}
330
76
100
AcDbEntity
  8
0
  6
Continuous
 62
     2
100
AcDbLine
 10
17.85075788519578
 20
-32.19306911949713
 30
0.0
 11
18.54734882326116
 21
-32.98080090479084
 31
0.0
  0
LINE
  5
15F
102
{ACAD_REACTORS
330
1F4
330
1F5
102
}
330
76
100
AcDbEntity
  8
0
  6
Continuous
 62
     2
100
AcDbLine
 10
18.54734882326116
 20
-32.98080090479084
 30
0.0
 11
19.95007304100946
 21
-32.98080090479084
 31
0.0
  0
LINE
  5
160
102
{ACAD_REACTORS
330
1F4
330
1F5
102
}
330
76
100
AcDbEntity
  8
0
  6
Continuous
 62
     2
100
AcDbLine
 10
18.55211999406919
 20
-31.39994191101596
 30
0.0
 11
19.95007304100946
 21
-32.98080090479084
 31
0.0
  0
LINE
  5
161
102
{ACAD_REACTORS
330
1F4
330
1F5
102
}
330
76
100
AcDbEntity
  8
0
  6
Continuous
 62
     2
100
AcDbLine
 10
18.55211999406919
 20
-31.39994191101596
 30
0.0
 11
19.85464962483579
 21
-29.92699138097976
 31
0.0
  0
LINE
  5
162
102
{ACAD_REACTORS
330
1F4
330
1F5
102
}
330
76
100
AcDbEntity
  8
0
  6
Continuous
 62
     2
100
AcDbLine
 10
17.85075788519578
 20
-30.60681470253525
 30
0.0
 11
18.45192540708857
 21
-29.92699138097976
 31
0.0
  0
LINE
  5
163
102
{ACAD_REACTORS
330
1F4
330
1F5
102
}
330
76
100
AcDbEntity
  8
0
  6
Continuous
 62
     2
100
AcDbLine
 10
17.24959036330387
 20
-29.92699138097976
 30
0.0
 11
17.85075788519578
 21
-30.60681470253525
 31
0.0
  0
LINE
  5
164
102
{ACAD_REACTORS
330
1F4
330
1F5
102
}
330
76
100
AcDbEntity
  8
0
  6
Continuous
 62
     2
100
AcDbLine
 10
17.24959036330387
 20
-29.92699138097976
 30
0.0
 11
15.84686614555469
 21
-29.92699138097976
 31
0.0
  0
LINE
  5
165
102
{ACAD_REACTORS
330
1EA
330
1EB
102
}
330
76
100
AcDbEntity
  8
0
  6
Continuous
 62
     2
100
AcDbLine
 10
17.94618130136837
 20
-36.33999138096516
 30
0.0
 11
19.13897400353608
 21
-36.33999138096516
 31
0.0
  0
LINE
  5
166
102
{ACAD_REACTORS
330
1EA
330
1EB
102
}
330
76
100
AcDbEntity
  8
0
  6
Continuous
 62
     2
100
AcDbLine
 10
19.13897400353608
 20
-36.33999138096516
 30
0.0
 11
19.13897400353608
 21
-34.07144716327775
 31
0.0
  0
LINE
  5
167
102
{ACAD_REACTORS
330
1EA
330
1EB
102
}
330
76
100
AcDbEntity
  8
0
  6
Continuous
 62
     2
100
AcDbLine
 10
19.13897400353608
 20
-34.07144716327775
 30
0.0
 11
19.95007304100946
 21
-34.07144716327775
 31
0.0
  0
LINE
  5
168
102
{ACAD_REACTORS
330
1EA
330
1EB
102
}
330
76
100
AcDbEntity
  8
0
  6
Continuous
 62
     2
100
AcDbLine
 10
19.95007304100946
 20
-34.07144716327775
 30
0.0
 11
19.95007304100946
 21
-33.28618185715402
 31
0.0
  0
LINE
  5
169
102
{ACAD_REACTORS
330
1EA
330
1EB
102
}
330
76
100
AcDbEntity
  8
0
  6
Continuous
 62
     2
100
AcDbLine
 10
16.56512752238086
 20
-33.28618185715465
 30
0.0
 11
19.95007304100946
 21
-33.28618185715402
 31
0.0
  0
LINE
  5
16A
102
{ACAD_REACTORS
330
1EA
330
1EB
102
}
330
76
100
AcDbEntity
  8
0
  6
Continuous
 62
     2
100
AcDbLine
 10
17.94618130136837
 20
-34.07144716327775
 30
0.0
 11
17.94618130136837
 21
-36.33999138096516
 31
0.0
  0
LINE
  5
16B
102
{ACAD_REACTORS
330
1EC
330
1ED
102
}
330
76
100
AcDbEntity
  8
0
  6
Continuous
 62
     2
100
AcDbLine
 10
-4.68330513411073
 20
-34.36111123140063
 30
0.0
 11
-4.68330513411073
 21
-33.77925982470555
 31
0.0
  0
LINE
  5
16C
102
{ACAD_REACTORS
330
1EC
330
1ED
102
}
330
76
100
AcDbEntity
  8
0
  6
Continuous
 62
     2
100
AcDbLine
 10
-4.68330513411073
 20
-31.56097662476947
 30
0.0
 11
-4.68330513411073
 21
-30.95544133626265
 31
0.0
  0
LINE
  5
16D
330
76
100
AcDbEntity
  8
1
  6
Continuous
 62
     6
100
AcDbLine
 10
73.84687345049238
 20
-43.63349138098147
 30
0.0
 11
117.3468734504923
 21
-43.63349138098147
 31
0.0
  0
LINE
  5
16E
330
76
100
AcDbEntity
  8
1
  6
Continuous
 62
     6
100
AcDbLine
 10
23.84687345049238
 20
-43.63349138098147
 30
0.0
 11
6.00206892374237
 21
-43.63349138098147
 31
0.0
  0
LINE
  5
16F
330
76
100
AcDbEntity
  8
1
  6
Continuous
 62
     6
100
AcDbLine
 10
-12.19793107625753
 20
-26.63349138098153
 30
0.0
 11
24.20206892374239
 21
-26.63349138098153
 31
0.0
  0
LINE
  5
170
330
76
100
AcDbEntity
  8
1
  6
Continuous
 62
     6
100
AcDbLine
 10
117.3468734504923
 20
-43.63349138098147
 30
0.0
 11
117.3468734504937
 21
-35.13349138098153
 31
0.0
  0
LINE
  5
171
330
76
100
AcDbEntity
  8
1
  6
Continuous
 62
     6
100
AcDbLine
 10
24.20206892374239
 20
-43.63349138098153
 30
0.0
 11
73.84687345049238
 21
-43.63349138098147
 31
0.0
  0
LINE
  5
172
330
76
100
AcDbEntity
  8
1
  6
Continuous
 62
     7
100
AcDbLine
 10
-12.19793107625753
 20
-26.63349138098153
 30
0.0
 11
-12.19793107625753
 21
-39.38349138098153
 31
0.0
  0
LINE
  5
173
330
76
100
AcDbEntity
  8
1
  6
Continuous
 62
     7
100
AcDbLine
 10
24.20206892374239
 20
-26.63349138098153
 30
0.0
 11
24.20206892374239
 21
-39.38349138098147
 31
0.0
  0
LINE
  5
174
330
76
100
AcDbEntity
  8
1
  6
Continuous
 62
     6
100
AcDbLine
 10
24.20206892374239
 20
-43.63349138098153
 30
0.0
 11
23.84687345049238
 21
-43.63349138098147
 31
0.0
  0
LINE
  5
175
330
76
100
AcDbEntity
  8
1
  6
Continuous
 62
     6
100
AcDbLine
 10
117.3468734504942
 20
-26.63349138098153
 30
0.0
 11
117.3468734504937
 21
-35.13349138098153
 31
0.0
  0
LINE
  5
176
330
76
100
AcDbEntity
  8
1
  6
Continuous
 62
     2
100
AcDbLine
 10
-7.96127618969501
 20
-21.25849138098164
 30
0.0
 11
-2.96127618969501
 21
-20.00849138098164
 31
0.0
  0
LINE
  5
177
330
76
100
AcDbEntity
  8
1
  6
Continuous
 62
     2
100
AcDbLine
 10
-7.96127618969501
 20
-23.75849138098164
 30
0.0
 11
-7.96127618969501
 21
-21.25849138098164
 31
0.0
  0
LINE
  5
178
330
76
100
AcDbEntity
  8
1
  6
Continuous
 62
     2
100
AcDbLine
 10
-2.96127618969501
 20
-25.00849138098164
 30
0.0
 11
-7.96127618969501
 21
-23.75849138098164
 31
0.0
  0
LINE
  5
179
330
76
100
AcDbEntity
  8
1
  6
Continuous
 62
     2
100
AcDbLine
 10
-2.96127618969501
 20
-20.00849138098164
 30
0.0
 11
-2.96127618969501
 21
-25.00849138098164
 31
0.0
  0
LINE
  5
17A
330
76
100
AcDbEntity
  8
1
  6
Continuous
 62
     7
100
AcDbLine
 10
-12.19793107625753
 20
-39.38349138098153
 30
0.0
 11
6.00206892374237
 21
-39.38349138098147
 31
0.0
  0
LINE
  5
17B
330
76
100
AcDbEntity
  8
1
  6
Continuous
 62
     7
100
AcDbLine
 10
-12.19793107625753
 20
-39.38349138098153
 30
0.0
 11
-12.19793107625753
 21
-43.63349138098153
 31
0.0
  0
LINE
  5
17C
330
76
100
AcDbEntity
  8
1
  6
Continuous
 62
     7
100
AcDbLine
 10
24.20206892374239
 20
-39.38349138098147
 30
0.0
 11
24.20206892374239
 21
-43.63349138098153
 31
0.0
  0
LINE
  5
17D
330
76
100
AcDbEntity
  8
1
  6
Continuous
 62
     7
100
AcDbLine
 10
6.00206892374237
 20
-39.38349138098147
 30
0.0
 11
6.00206892374237
 21
-43.63349138098147
 31
0.0
  0
LINE
  5
17E
330
76
100
AcDbEntity
  8
1
  6
Continuous
 62
     6
100
AcDbLine
 10
6.00206892374237
 20
-43.63349138098147
 30
0.0
 11
-12.19793107625753
 21
-43.63349138098153
 31
0.0
  0
LINE
  5
17F
330
76
100
AcDbEntity
  8
1
  6
Continuous
 62
     7
100
AcDbLine
 10
6.00206892374237
 20
-39.38349138098147
 30
0.0
 11
24.20206892374239
 21
-39.38349138098147
 31
0.0
  0
LINE
  5
180
330
76
100
AcDbEntity
  8
1
  6
Continuous
 62
     6
100
AcDbLine
 10
-12.19793107625753
 20
-18.13349138098153
 30
0.0
 11
117.3468734504942
 21
-18.13349138098153
 31
0.0
  0
LINE
  5
181
330
76
100
AcDbEntity
  8
1
  6
PHANTOM
 62
     2
100
AcDbLine
 10
3.28872381030499
 20
-22.50849138098164
 30
0.0
 11
-2.21127618969501
 21
-22.50849138098164
 31
0.0
  0
LINE
  5
182
330
76
100
AcDbEntity
  8
1
  6
PHANTOM
 62
     2
100
AcDbLine
 10
0.53872381030499
 20
-19.75849138098153
 30
0.0
 11
0.53872381030499
 21
-25.25849138098153
 31
0.0
  0
LINE
  5
183
330
76
100
AcDbEntity
  8
1
  6
DOT_CENTER
 62
     2
100
AcDbLine
 10
-8.21127618969501
 20
-22.50849138098164
 30
0.0
 11
-2.71127618969501
 21
-22.50849138098164
 31
0.0
  0
ARC
  5
184
102
{ACAD_REACTORS
330
1F0
330
1F1
102
}
330
76
100
AcDbEntity
  8
0
  6
Continuous
 62
     2
100
AcDbCircle
 10
3.19371692270246
 20
-34.81308661905996
 30
0.0
 40
0.7717997786795392
100
AcDbArc
 50
321.8795802028428
 51
38.12041979716682
  0
ARC
  5
185
102
{ACAD_REACTORS
330
1F0
330
1F1
102
}
330
76
100
AcDbEntity
  8
0
  6
Continuous
 62
     2
100
AcDbCircle
 10
3.39345695904888
 20
-34.96981779717982
 30
0.0
 40
0.5179085730138416
100
AcDbArc
 50
218.1204197971879
 51
321.8795802027908
  0
ARC
  5
186
102
{ACAD_REACTORS
330
1F0
330
1F1
102
}
330
76
100
AcDbEntity
  8
0
  6
Continuous
 62
     2
100
AcDbCircle
 10
3.59319699539486
 20
-34.81308661905996
 30
0.0
 40
0.7717997786795503
100
AcDbArc
 50
141.879580202828
 51
218.1204197971625
  0
ARC
  5
187
102
{ACAD_REACTORS
330
1F0
330
1F1
102
}
330
76
100
AcDbEntity
  8
0
  6
Continuous
 62
     2
100
AcDbCircle
 10
3.39345695904888
 20
-34.65635544093942
 30
0.0
 40
0.5179085730132806
100
AcDbArc
 50
38.12041979716469
 51
141.8795802028566
  0
ARC
  5
188
102
{ACAD_REACTORS
330
1E8
330
1E9
102
}
330
76
100
AcDbEntity
  8
0
  6
Continuous
 62
     2
100
AcDbCircle
 10
0.33144282348488
 20
-36.22355298446803
 30
0.0
 40
2.227384008973465
100
AcDbArc
 50
58.06909105003709
 51
71.55192388186676
  0
ARC
  5
189
102
{ACAD_REACTORS
330
1E8
330
1E9
102
}
330
76
100
AcDbEntity
  8
0
  6
Continuous
 62
     2
100
AcDbCircle
 10
0.59317052444368
 20
-34.60801518972085
 30
0.0
 40
0.5115800601948293
100
AcDbArc
 50
113.3722778881945
 51
151.478526742315
  0
ARC
  5
18A
102
{ACAD_REACTORS
330
1E8
330
1E9
102
}
330
76
100
AcDbEntity
  8
0
  6
Continuous
 62
     2
100
AcDbCircle
 10
0.97052778252407
 20
-34.81308661905996
 30
0.0
 40
0.9410597353333294
100
AcDbArc
 50
151.4785267422693
 51
208.5214732576968
  0
ARC
  5
18B
102
{ACAD_REACTORS
330
1E8
330
1E9
102
}
330
76
100
AcDbEntity
  8
0
  6
Continuous
 62
     2
100
AcDbCircle
 10
0.17356994839207
 20
-31.50040567380341
 30
0.0
 40
4.852596863498276
100
AcDbArc
 50
275.1581447696238
 51
285.9799912583525
  0
ARC
  5
18C
102
{ACAD_REACTORS
330
1E8
330
1E9
102
}
330
76
100
AcDbEntity
  8
0
  6
Continuous
 62
     2
100
AcDbCircle
 10
0.46242604312798
 20
-34.70029625702506
 30
0.0
 40
1.639695123939439
100
AcDbArc
 50
195.0618917770924
 51
275.1581447696363
  0
ARC
  5
18D
102
{ACAD_REACTORS
330
1E8
330
1E9
102
}
330
76
100
AcDbEntity
  8
0
  6
Continuous
 62
     2
100
AcDbCircle
 10
0.04329819966517
 20
-34.81308661905996
 30
0.0
 40
1.205656168390972
100
AcDbArc
 50
164.9381082228768
 51
195.0618917770948
  0
ARC
  5
18E
102
{ACAD_REACTORS
330
1E8
330
1E9
102
}
330
76
100
AcDbEntity
  8
0
  6
Continuous
 62
     2
100
AcDbCircle
 10
0.46242604312798
 20
-34.92587698109475
 30
0.0
 40
1.639695123940513
100
AcDbArc
 50
84.84185523036537
 51
164.9381082228903
  0
ARC
  5
18F
102
{ACAD_REACTORS
330
1EC
330
1ED
102
}
330
76
100
AcDbEntity
  8
0
  6
Continuous
 62
     2
100
AcDbCircle
 10
-4.36758821103393
 20
-33.77925982470555
 30
0.0
 40
0.3157169230765328
100
AcDbArc
 50
115.3740086783519
 51
180.0
  0
ARC
  5
190
102
{ACAD_REACTORS
330
1EC
330
1ED
102
}
330
76
100
AcDbEntity
  8
0
  6
Continuous
 62
     2
100
AcDbCircle
 10
-4.36758821103393
 20
-31.56097662476947
 30
0.0
 40
0.315716923076792
100
AcDbArc
 50
180.0
 51
244.6259913216351
  0
ARC
  5
191
102
{ACAD_REACTORS
330
1EC
330
1ED
102
}
330
76
100
AcDbEntity
  8
0
  6
Continuous
 62
     2
100
AcDbCircle
 10
-4.36197207572391
 20
-32.65827628383164
 30
0.0
 40
2.018561131933266
100
AcDbArc
 50
269.8110329575827
 51
90.18896704241737
  0
ARC
  5
192
102
{ACAD_REACTORS
330
1EC
330
1ED
102
}
330
76
100
AcDbEntity
  8
0
  6
Continuous
 62
     2
100
AcDbCircle
 10
-4.36758821103393
 20
-34.36111123140063
 30
0.0
 40
0.315716923076792
100
AcDbArc
 50
180.0
 51
269.8110329574335
  0
ARC
  5
193
102
{ACAD_REACTORS
330
1EA
330
1EB
102
}
330
76
100
AcDbEntity
  8
0
  6
Continuous
 62
     2
100
AcDbCircle
 10
16.69587200369656
 20
-34.60801518972085
 30
0.0
 40
0.5115800601944093
100
AcDbArc
 50
109.3371432194813
 51
151.4785267424164
  0
ARC
  5
194
102
{ACAD_REACTORS
330
1EA
330
1EB
102
}
330
76
100
AcDbEntity
  8
0
  6
Continuous
 62
     2
100
AcDbCircle
 10
16.69587200369656
 20
-35.01815804839845
 30
0.0
 40
0.5115800601959903
100
AcDbArc
 50
208.5214732576885
 51
246.6277221118402
  0
ARC
  5
195
102
{ACAD_REACTORS
330
1EA
330
1EB
102
}
330
76
100
AcDbEntity
  8
0
  6
Continuous
 62
     2
100
AcDbCircle
 10
16.14599967891917
 20
-34.81308661905996
 30
0.0
 40
1.20565616839298
100
AcDbArc
 50
164.9381082229025
 51
195.0618917770923
  0
ARC
  5
196
102
{ACAD_REACTORS
330
1EA
330
1EB
102
}
330
76
100
AcDbEntity
  8
0
  6
Continuous
 62
     2
100
AcDbCircle
 10
16.56512752238086
 20
-34.92587698109475
 30
0.0
 40
1.639695123940101
100
AcDbArc
 50
90.0
 51
164.9381082228991
  0
ARC
  5
197
102
{ACAD_REACTORS
330
1EE
330
1EF
102
}
330
76
100
AcDbEntity
  8
0
  6
Continuous
 62
     2
100
AcDbCircle
 10
7.13813242967717
 20
-31.45389614288553
 30
0.0
 40
1.526904761905769
100
AcDbArc
 50
90.0
 51
270.0
  0
ARC
  5
198
102
{ACAD_REACTORS
330
1F2
330
1F3
102
}
330
76
100
AcDbEntity
  8
0
  6
Continuous
 62
     2
100
AcDbCircle
 10
0.39544168445138
 20
-30.94296105109095
 30
0.0
 40
0.3528638246710898
100
AcDbArc
 50
270.0
 51
90.0
  0
ARC
  5
199
102
{ACAD_REACTORS
330
1EC
330
1ED
102
}
330
76
100
AcDbEntity
  8
0
  6
Continuous
 62
     2
100
AcDbCircle
 10
-6.94313689756572
 20
-30.95526385961443
 30
0.0
 40
0.3157169230760815
100
AcDbArc
 50
90.0
 51
180.0
  0
ARC
  5
19A
102
{ACAD_REACTORS
330
1EC
330
1ED
102
}
330
76
100
AcDbEntity
  8
0
  6
Continuous
 62
     2
100
AcDbCircle
 10
-4.94471918898114
 20
-32.67011822473722
 30
0.0
 40
0.9118975235576466
100
AcDbArc
 50
115.1944106485194
 51
244.8055893514911
  0
ARC
  5
19B
102
{ACAD_REACTORS
330
1EC
330
1ED
102
}
330
76
100
AcDbEntity
  8
0
  6
Continuous
 62
     2
100
AcDbCircle
 10
-5.46730363655613
 20
-33.78094797079996
 30
0.0
 40
0.315716923076593
100
AcDbArc
 50
0.0
 51
64.80558935144585
  0
ARC
  5
19C
102
{ACAD_REACTORS
330
1EC
330
1ED
102
}
330
76
100
AcDbEntity
  8
0
  6
Continuous
 62
     2
100
AcDbCircle
 10
-7.53703157431224
 20
-35.91574676558196
 30
0.0
 40
0.4242446153827757
100
AcDbArc
 50
180.0
 51
270.0
  0
ARC
  5
19D
102
{ACAD_REACTORS
330
1EE
330
1EF
102
}
330
76
100
AcDbEntity
  8
0
  6
Continuous
 62
     2
100
AcDbCircle
 10
7.35440443984237
 20
-31.29716496476505
 30
0.0
 40
0.5179085730133691
100
AcDbArc
 50
38.12041979714152
 51
141.8795802028663
  0
ARC
  5
19E
102
{ACAD_REACTORS
330
1EE
330
1EF
102
}
330
76
100
AcDbEntity
  8
0
  6
Continuous
 62
     2
100
AcDbCircle
 10
7.55414447618858
 20
-31.45389614288553
 30
0.0
 40
0.7717997786796268
100
AcDbArc
 50
141.8795802028482
 51
218.1204197971547
  0
ARC
  5
19F
102
{ACAD_REACTORS
330
1F0
330
1F1
102
}
330
76
100
AcDbEntity
  8
0
  6
Continuous
 62
     2
100
AcDbCircle
 10
3.39345695904888
 20
-34.27451160875654
 30
0.0
 40
2.065479772208636
100
AcDbArc
 50
242.4518518243385
 51
297.548148175686
  0
ARC
  5
1A0
102
{ACAD_REACTORS
330
1F0
330
1F1
102
}
330
76
100
AcDbEntity
  8
0
  6
Continuous
 62
     2
100
AcDbCircle
 10
3.39345695904888
 20
-35.35166162936275
 30
0.0
 40
2.065479772208694
100
AcDbArc
 50
62.45185182430818
 51
117.5481481756673
  0
ARC
  5
1A1
102
{ACAD_REACTORS
330
1F0
330
1F1
102
}
330
76
100
AcDbEntity
  8
0
  6
Continuous
 62
     2
100
AcDbCircle
 10
3.11251706721546
 20
-34.81308661905996
 30
0.0
 40
1.458034083651616
100
AcDbArc
 50
117.5481481756598
 51
242.451851824337
  0
ARC
  5
1A2
102
{ACAD_REACTORS
330
1F0
330
1F1
102
}
330
76
100
AcDbEntity
  8
0
  6
Continuous
 62
     2
100
AcDbCircle
 10
3.67439685088206
 20
-34.81308661905996
 30
0.0
 40
1.45803408365203
100
AcDbArc
 50
297.5481481757055
 51
62.45185182429758
  0
ARC
  5
1A3
102
{ACAD_REACTORS
330
1EE
330
1EF
102
}
330
76
100
AcDbEntity
  8
0
  6
Continuous
 62
     2
100
AcDbCircle
 10
7.35440443984237
 20
-31.61062732100606
 30
0.0
 40
0.5179085730134586
100
AcDbArc
 50
218.1204197971337
 51
321.8795802028584
  0
ARC
  5
1A4
102
{ACAD_REACTORS
330
1EE
330
1EF
102
}
330
76
100
AcDbEntity
  8
0
  6
Continuous
 62
     2
100
AcDbCircle
 10
7.15466440349618
 20
-31.45389614288553
 30
0.0
 40
0.7717997786795456
100
AcDbArc
 50
321.8795802028387
 51
38.12041979715835
  0
ARC
  5
1A5
102
{ACAD_REACTORS
330
1EC
330
1ED
102
}
330
76
100
AcDbEntity
  8
0
  6
Continuous
 62
     2
100
AcDbCircle
 10
-2.06371948359532
 20
-35.91574676558196
 30
0.0
 40
0.424244615383202
100
AcDbArc
 50
270.0
 51
0.0
  0
ARC
  5
1A6
102
{ACAD_REACTORS
330
1EC
330
1ED
102
}
330
76
100
AcDbEntity
  8
0
  6
Continuous
 62
     2
100
AcDbCircle
 10
-2.06371948359532
 20
-30.35123599638172
 30
0.0
 40
0.4242446153838839
100
AcDbArc
 50
0.0
 51
90.0
  0
ARC
  5
1A7
102
{ACAD_REACTORS
330
1EC
330
1ED
102
}
330
76
100
AcDbEntity
  8
0
  6
Continuous
 62
     2
100
AcDbCircle
 10
-7.53703157431224
 20
-30.35123599638172
 30
0.0
 40
0.4242446153838912
100
AcDbArc
 50
90.0
 51
180.0
  0
ARC
  5
1A8
102
{ACAD_REACTORS
330
1EC
330
1ED
102
}
330
76
100
AcDbEntity
  8
0
  6
Continuous
 62
     2
100
AcDbCircle
 10
-5.46730363655613
 20
-35.31171890233156
 30
0.0
 40
0.3157169230767067
100
AcDbArc
 50
270.0
 51
0.0
  0
ARC
  5
1A9
102
{ACAD_REACTORS
330
1EC
330
1ED
102
}
330
76
100
AcDbEntity
  8
0
  6
Continuous
 62
     2
100
AcDbCircle
 10
-5.46730363655613
 20
-31.55928847867506
 30
0.0
 40
0.3157169230760597
100
AcDbArc
 50
295.1944106485678
 51
0.0
  0
ARC
  5
1AA
102
{ACAD_REACTORS
330
1EC
330
1ED
102
}
330
76
100
AcDbEntity
  8
0
  6
Continuous
 62
     2
100
AcDbCircle
 10
-5.46730363655613
 20
-30.95526385961443
 30
0.0
 40
0.315716923076593
100
AcDbArc
 50
0.0
 51
90.0
  0
ARC
  5
1AB
102
{ACAD_REACTORS
330
1EC
330
1ED
102
}
330
76
100
AcDbEntity
  8
0
  6
Continuous
 62
     2
100
AcDbCircle
 10
-6.94313689756572
 20
-35.31171890233156
 30
0.0
 40
0.3157169230755992
100
AcDbArc
 50
180.0
 51
270.0
  0
ARC
  5
1AC
102
{ACAD_REACTORS
330
1F2
330
1F3
102
}
330
76
100
AcDbEntity
  8
0
  6
Continuous
 62
     2
100
AcDbCircle
 10
0.83691421068977
 20
-30.98235702231347
 30
0.0
 40
1.055365641333655
100
AcDbArc
 50
270.0
 51
90.0
  0
ARC
  5
1AD
102
{ACAD_REACTORS
330
1EA
330
1EB
102
}
330
76
100
AcDbEntity
  8
0
  6
Continuous
 62
     2
100
AcDbCircle
 10
16.56512752238086
 20
-34.70029625702506
 30
0.0
 40
1.639695123940502
100
AcDbArc
 50
195.0618917771007
 51
275.1581447696774
  0
ARC
  5
1AE
102
{ACAD_REACTORS
330
1EA
330
1EB
102
}
330
76
100
AcDbEntity
  8
0
  6
Continuous
 62
     2
100
AcDbCircle
 10
16.27627142764499
 20
-31.50040567380341
 30
0.0
 40
4.852596863498893
100
AcDbArc
 50
275.1581447696373
 51
285.9799912583383
  0
ARC
  5
1AF
102
{ACAD_REACTORS
330
1EA
330
1EB
102
}
330
76
100
AcDbEntity
  8
0
  6
Continuous
 62
     2
100
AcDbCircle
 10
16.43414430273776
 20
-33.40262025365172
 30
0.0
 40
2.227384008972775
100
AcDbArc
 50
288.4480761181334
 51
301.9309089499395
  0
ARC
  5
1B0
102
{ACAD_REACTORS
330
1EA
330
1EB
102
}
330
76
100
AcDbEntity
  8
0
  6
Continuous
 62
     2
100
AcDbCircle
 10
16.85231203639978
 20
-34.65616602968845
 30
0.0
 40
0.9059297849852208
100
AcDbArc
 50
246.6277221118088
 51
288.4480761180774
  0
ARC
  5
1B1
102
{ACAD_REACTORS
330
1EA
330
1EB
102
}
330
76
100
AcDbEntity
  8
0
  6
Continuous
 62
     2
100
AcDbCircle
 10
17.07322926177807
 20
-34.81308661905996
 30
0.0
 40
0.9410597353350386
100
AcDbArc
 50
151.4785267423569
 51
208.521473257667
  0
ARC
  5
1B2
102
{ACAD_REACTORS
330
1EA
330
1EB
102
}
330
76
100
AcDbEntity
  8
0
  6
Continuous
 62
     2
100
AcDbCircle
 10
16.84254200180027
 20
-35.02597017010385
 30
0.0
 40
0.9545230068260935
100
AcDbArc
 50
90.0
 51
109.3371432194279
  0
ARC
  5
1B3
102
{ACAD_REACTORS
330
1EC
330
1ED
102
}
330
76
100
AcDbEntity
  8
0
  6
Continuous
 62
     2
100
AcDbCircle
 10
-4.36758821103393
 20
-30.95544133626265
 30
0.0
 40
0.3157169230761815
100
AcDbArc
 50
90.1889670425665
 51
180.0
  0
ARC
  5
1B4
102
{ACAD_REACTORS
330
1EC
330
1ED
102
}
330
76
100
AcDbEntity
  8
0
  6
Continuous
 62
     2
100
AcDbCircle
 10
-4.89363090912184
 20
-32.67011822473722
 30
0.0
 40
0.9118481501443941
100
AcDbArc
 50
295.3740086781804
 51
64.62599132180873
  0
ARC
  5
1B5
102
{ACAD_REACTORS
330
1E8
330
1E9
102
}
330
76
100
AcDbEntity
  8
0
  6
Continuous
 62
     2
100
AcDbCircle
 10
0.33144282348488
 20
-33.40262025365126
 30
0.0
 40
2.227384008972732
100
AcDbArc
 50
288.4480761181336
 51
301.9309089499635
  0
ARC
  5
1B6
102
{ACAD_REACTORS
330
1E8
330
1E9
102
}
330
76
100
AcDbEntity
  8
0
  6
Continuous
 62
     2
100
AcDbCircle
 10
0.74961055714579
 20
-34.65616602968845
 30
0.0
 40
0.9059297849848262
100
AcDbArc
 50
246.6277221118665
 51
288.4480761181537
  0
ARC
  5
1B7
102
{ACAD_REACTORS
330
1E8
330
1E9
102
}
330
76
100
AcDbEntity
  8
0
  6
Continuous
 62
     2
100
AcDbCircle
 10
0.59317052444368
 20
-35.01815804839845
 30
0.0
 40
0.5115800601947457
100
AcDbArc
 50
208.5214732576837
 51
246.6277221118282
  0
ARC
  5
1B8
102
{ACAD_REACTORS
330
1E8
330
1E9
102
}
330
76
100
AcDbEntity
  8
0
  6
Continuous
 62
     2
100
AcDbCircle
 10
0.74961055714579
 20
-34.97000720843147
 30
0.0
 40
0.9059297849853497
100
AcDbArc
 50
71.55192388185975
 51
113.3722778881308
  0
ARC
  5
1B9
102
{ACAD_REACTORS
330
1E8
330
1E9
102
}
330
76
100
AcDbEntity
  8
0
  6
Continuous
 62
     2
100
AcDbCircle
 10
0.17356994839207
 20
-38.12576756431577
 30
0.0
 40
4.852596863497992
100
AcDbArc
 50
74.02000874164713
 51
84.84185523037611
  0
CIRCLE
  5
1BA
102
{ACAD_REACTORS
330
1EC
330
1ED
102
}
330
76
100
AcDbEntity
  8
0
  6
Continuous
 62
     2
100
AcDbCircle
 10
-4.91744592379462
 20
-32.67011822473722
 30
0.0
 40
0.470978932778479
  0
CIRCLE
  5
1BB
330
76
100
AcDbEntity
  8
1
  6
Continuous
 62
     2
100
AcDbCircle
 10
0.53872381030499
 20
-22.50849138098164
 30
0.0
 40
1.25
  0
CIRCLE
  5
1BC
330
76
100
AcDbEntity
  8
1
  6
Continuous
 62
     2
100
AcDbCircle
 10
0.53872381030499
 20
-22.50849138098164
 30
0.0
 40
2.5
  0
TEXT
  5
1BE
330
76
100
AcDbEntity
  8
1
 62
     7
100
AcDbText
 10
82.01354011715901
 20
-47.63349138098096
 30
0.0
 40
2.5
  1
6
 41
0.9
  7
CONVERTER_11
100
AcDbText
  0
TEXT
  5
1BF
330
76
100
AcDbEntity
  8
1
 62
     7
100
AcDbText
 10
13.68020678382558
 20
-47.63349138098096
 30
0.0
 40
2.5
  1
5
 41
0.9
  7
CONVERTER_11
100
AcDbText
  0
TEXT
  5
1C0
330
76
100
AcDbEntity
  8
1
 62
     7
100
AcDbText
 10
-54.65312654950762
 20
-47.63349138098096
 30
0.0
 40
2.5
  1
4
 41
0.9
  7
CONVERTER_11
100
AcDbText
  0
TEXT
  5
1C1
330
76
100
AcDbEntity
  8
1
 62
     7
100
AcDbText
 10
-122.9864598828407
 20
-47.63349138098096
 30
0.0
 40
2.5
  1
3
 41
0.9
  7
CONVERTER_11
100
AcDbText
  0
TEXT
  5
1C2
330
76
100
AcDbEntity
  8
1
 62
     7
100
AcDbText
 10
118.3468734504924
 20
-16.13349138098096
 30
0.0
 40
2.5
  1
E
 41
0.9
  7
CONVERTER_11
100
AcDbText
  0
TEXT
  5
1C3
330
76
100
AcDbEntity
  8
1
 62
     7
100
AcDbText
 10
-259.6531265495073
 20
-47.63349138098096
 30
0.0
 40
2.5
  1
1
 41
0.9
  7
CONVERTER_11
100
AcDbText
  0
TEXT
  5
1C4
330
76
100
AcDbEntity
  8
1
 62
     7
100
AcDbText
 10
-191.3197932161743
 20
-47.63349138098096
 30
0.0
 40
2.5
  1
2
 41
0.9
  7
CONVERTER_11
100
AcDbText
  0
TEXT
  5
1C5
330
76
100
AcDbEntity
  8
1
 62
     7
100
AcDbText
 10
118.3468734504924
 20
41.26650861901916
 30
0.0
 40
2.5
  1
D
 41
0.9
  7
CONVERTER_11
100
AcDbText
  0
TEXT
  5
1C6
330
76
100
AcDbEntity
  8
1
 62
     7
100
AcDbText
 10
118.3468734504924
 20
98.66650861901925
 30
0.0
 40
2.5
  1
C
 41
0.9
  7
CONVERTER_11
100
AcDbText
  0
TEXT
  5
1C7
330
76
100
AcDbEntity
  8
1
 62
     7
100
AcDbText
 10
118.3468734504924
 20
156.0665086190191
 30
0.0
 40
2.5
  1
B
 41
0.9
  7
CONVERTER_11
100
AcDbText
  0
TEXT
  5
1C8
330
76
100
AcDbEntity
  8
1
 62
     7
100
AcDbText
 10
118.3468734504924
 20
213.466508619019
 30
0.0
 40
2.5
  1
A
 41
0.9
  7
CONVERTER_11
100
AcDbText
  0
TEXT
  5
1C9
330
76
100
AcDbEntity
  8
1
 62
     7
100
AcDbText
 10
82.01354011715901
 20
244.3665086190193
 30
0.0
 40
2.5
  1
6
 41
0.9
  7
CONVERTER_11
100
AcDbText
  0
TEXT
  5
1CA
330
76
100
AcDbEntity
  8
1
 62
     7
100
AcDbText
 10
13.68020678382578
 20
244.3665086190193
 30
0.0
 40
2.5
  1
5
 41
0.9
  7
CONVERTER_11
100
AcDbText
  0
TEXT
  5
1CB
330
76
100
AcDbEntity
  8
1
 62
     7
100
AcDbText
 10
-54.65312654950762
 20
244.3665086190193
 30
0.0
 40
2.5
  1
4
 41
0.9
  7
CONVERTER_11
100
AcDbText
  0
TEXT
  5
1CC
330
76
100
AcDbEntity
  8
1
 62
     7
100
AcDbText
 10
-122.9864598828407
 20
244.3665086190193
 30
0.0
 40
2.5
  1
3
 41
0.9
  7
CONVERTER_11
100
AcDbText
  0
TEXT
  5
1CD
330
76
100
AcDbEntity
  8
1
 62
     7
100
AcDbText
 10
-191.3197932161743
 20
244.3665086190193
 30
0.0
 40
2.5
  1
2
 41
0.9
  7
CONVERTER_11
100
AcDbText
  0
TEXT
  5
1CE
330
76
100
AcDbEntity
  8
1
 62
     7
100
AcDbText
 10
-259.6531265495073
 20
244.3665086190193
 30
0.0
 40
2.5
  1
1
 41
0.9
  7
CONVERTER_11
100
AcDbText
  0
TEXT
  5
1CF
330
76
100
AcDbEntity
  8
1
 62
     7
100
AcDbText
 10
43.17561664575618
 20
-25.33349138098151
 30
0.0
 40
2.5
  1
/
 41
0.9
  7
CONVERTER_11
100
AcDbText
  0
TEXT
  5
1D1
330
76
100
AcDbEntity
  8
1
 62
     7
100
AcDbText
 10
45.33198114279817
 20
-25.33349138098151
 30
0.0
 40
2.5
  1
01
 41
0.81
  7
CONVERTER_12
100
AcDbText
  0
TEXT
  5
1D2
330
76
100
AcDbEntity
  8
1
 62
     3
100
AcDbText
 10
82.92846516881535
 20
-25.33349138098151
 30
0.0
 40
2.5
  1
01.04.2021
 41
0.81
  7
CONVERTER_12
100
AcDbText
  0
MTEXT
  5
1D3
330
76
100
AcDbEntity
  8
1
 62
     2
100
AcDbMText
 10
82.92846516881535
 20
-19.13349138098153
 30
0.0
 40
1.8
 41
0.0
 71
     1
 72
     1
  1
date
  7
CONVERTER_11
 73
     1
 44
1.32052821128451
  0
MTEXT
  5
1D4
330
76
100
AcDbEntity
  8
1
 62
     2
100
AcDbMText
 10
53.10206892374238
 20
-27.63349138098153
 30
0.0
 40
1.8
 41
0.0
 71
     1
 72
     1
  1
document-type
  7
CONVERTER_11
 73
     1
 44
1.20048019207683
  0
TEXT
  5
1D5
330
76
100
AcDbEntity
  8
1
 62
     3
100
AcDbText
 10
53.10206892374238
 20
-33.83349138098151
 30
0.0
 40
2.5
  1
TECDOC 2D_Productdrawing
 41
0.81
  7
CONVERTER_12
100
AcDbText
  0
MTEXT
  5
1D7
330
76
100
AcDbEntity
  8
1
 62
     2
100
AcDbMText
 10
25.30206892374238
 20
-19.13349138098153
 30
0.0
 40
1.8
 41
0.0
 71
     1
 72
     1
  1
document-No. / RI
  7
CONVERTER_13
 73
     1
 44
1.32052821128451
  0
TEXT
  5
1D8
330
76
100
AcDbEntity
  8
1
 62
     7
100
AcDbText
 10
25.30206892374238
 20
-25.33349138098151
 30
0.0
 40
2.5
  1
00709074
 41
0.81
  7
CONVERTER_12
100
AcDbText
  0
MTEXT
  5
1DA
330
76
100
AcDbEntity
  8
1
 62
     3
100
AcDbMText
 10
112.8876693096547
 20
-25.33349138098146
 30
0.0
 40
2.5
 41
0.0
 71
     8
 72
     1
  1
2:1
  7
CONVERTER_14
 73
     1
 44
1.32052821128451
  0
MTEXT
  5
1DB
330
76
100
AcDbEntity
  8
1
 62
     2
100
AcDbMText
 10
109.5284651688152
 20
-19.13349138098153
 30
0.0
 40
1.8
 41
0.0
 71
     1
 72
     1
  1
scale
  7
CONVERTER_11
 73
     1
 44
1.20048019207683
  0
MTEXT
  5
1DC
330
76
100
AcDbEntity
  8
1
 62
     2
100
AcDbMText
 10
25.30206892374238
 20
-27.63349138098153
 30
0.0
 40
1.8
 41
0.0
 71
     1
 72
     1
  1
ident.-No.
  7
CONVERTER_11
 73
     1
 44
1.20048019207683
  0
TEXT
  5
1DD
330
76
100
AcDbEntity
  8
1
 62
     7
100
AcDbText
 10
25.70206892374216
 20
-33.83349138098151
 30
0.0
 40
2.5
  1
1410563
 41
0.81
  7
CONVERTER_12
100
AcDbText
  0
MTEXT
  5
1DE
330
76
100
AcDbEntity
  8
1
 62
     2
100
AcDbMText
 10
-46.60895434546714
 20
-30.88349138098272
 30
0.0
 40
2.0
 41
0.0
 71
     5
 72
     1
  1
General Information\P- Simplified representation\P- Document excluded from change process\P- Linear dimensions [mm]
  7
CONVERTER_11
 73
     1
 44
1.20048019207683
  0
MTEXT
  5
1DF
330
76
100
AcDbEntity
  8
1
 62
     3
100
AcDbMText
 10
14.00206892374237
 20
-22.50849138098153
 30
0.0
 40
2.5
 41
0.0
 71
     5
 72
     1
  1
DIN A3
  7
CONVERTER_11
 73
     1
 44
1.20048019207683
  0
MTEXT
  5
1E0
330
76
100
AcDbEntity
  8
1
 62
     2
100
AcDbMText
 10
25.20206892374239
 20
-36.13349138098153
 30
0.0
 40
1.8
 41
0.0
 71
     1
 72
     1
  1
description
  7
CONVERTER_11
 73
     1
 44
1.20048019207683
  0
MTEXT
  5
1E1
330
76
100
AcDbEntity
  8
1
 62
     7
100
AcDbMText
 10
70.77447118711788
 20
-40.38349138098135
 30
0.0
 40
3.0
 41
0.0
 71
     5
 72
     1
  1
CES-SRG-BK-15
  7
CONVERTER_12
 73
     1
 44
1.20048019207683
  0
TEXT
  5
1E2
330
76
100
AcDbEntity
  8
1
 62
     2
100
AcDbText
 10
12.23737773355597
 20
-42.38349138098153
 30
0.0
 40
1.8
  1
1
 41
0.9
  7
CONVERTER_11
100
AcDbText
  0
TEXT
  5
1E3
330
76
100
AcDbEntity
  8
1
 62
     2
100
AcDbText
 10
-2.55166610591553
 20
-42.43274003478342
 30
0.0
 40
1.8
  1
1
 41
0.9
  7
CONVERTER_11
100
AcDbText
  0
TEXT
  5
1E4
330
76
100
AcDbEntity
  8
1
 62
     2
100
AcDbText
 10
-11.19793107625753
 20
-42.39250859597325
 30
0.0
 40
1.8
  1
page
 41
0.9
  7
CONVERTER_11
100
AcDbText
  0
TEXT
  5
1E5
330
76
100
AcDbEntity
  8
1
 62
     2
100
AcDbText
 10
7.00206892374229
 20
-42.39250859597303
 30
0.0
 40
1.8
  1
of
 41
0.9
  7
CONVERTER_11
100
AcDbText
  0
MTEXT
  5
1E6
330
76
100
AcDbEntity
  8
1
 62
     3
100
AcDbMText
 10
-279.3846595492483
 20
129.3527927326728
 30
0.0
 40
1.8
 41
0.0
 71
     7
 72
     1
  3
Transfer or duplication of this document as well as the utilisation or\Pcommunication of its content are not permitted unless express consent\Pis granted. Violations give rise to claims for damages. All rights reserved\Pin case of patent, utility mo
  1
del or design patent registrations.
  7
CONVERTER_11
 11
0.0
 21
1.0
 31
0.0
 73
     1
 44
0.99639855942377
  0
MTEXT
  5
1E7
330
76
100
AcDbEntity
  8
1
 62
     3
100
AcDbMText
 10
-279.2304532381544
 20
-43.60657728148033
 30
0.0
 40
1.8
 41
0.0
 71
     7
 72
     1
  3
Weitergabe sowie Vervielfältigung dieses Dokuments, Verwertung und \PMitteilung seines Inhalts sind verboten, soweit nicht ausdrücklich gestattet. \PZuwiderhandlungen verpflichten zu Schadenersatz. Alle Rechte für den Fall\Pder Patent-, Gebrauchsmus
  1
ter- oder Designeintragung vorbehalten.
  7
CONVERTER_11
 11
0.0
 21
1.0
 31
0.0
 73
     1
 44
0.99639855942377
  0
HATCH
  5
1E8
330
76
100
AcDbEntity
  8
1
  6
Continuous
 62
     2
100
AcDbHatch
 10
0.0
 20
0.0
 30
0.0
210
0.0
220
0.0
230
1.0
  2
CUSTOM0
 70
     0
 71
     1
 91
        1
 92
        1
 93
       14
 72
     2
 10
0.0432981996651733
 20
-34.81308661905996
 40
1.205656168390972
 50
164.9381082228768
 51
195.0618917770948
 73
     1
 72
     2
 10
0.4624260431279765
 20
-34.70029625702506
 40
1.639695123939439
 50
195.0618917770924
 51
275.1581447696363
 73
     1
 72
     2
 10
0.1735699483920712
 20
-31.50040567380341
 40
4.852596863498276
 50
275.1581447696238
 51
285.9799912583525
 73
     1
 72
     1
 10
1.509497865509871
 20
-36.16548797960434
 11
1.509497865509871
 21
-35.29297097280102
 72
     2
 10
0.3314428234848776
 20
-33.40262025365126
 40
2.227384008972732
 50
58.06909105003648
 51
71.55192388186641
 73
     0
 72
     2
 10
0.7496105571457861
 20
-34.65616602968845
 40
0.9059297849848262
 50
71.55192388184626
 51
113.3722778881334
 73
     0
 72
     2
 10
0.5931705244436785
 20
-35.01815804839845
 40
0.5115800601947457
 50
113.3722778881718
 51
151.4785267423163
 73
     0
 72
     2
 10
0.9705277825240728
 20
-34.81308661905996
 40
0.9410597353333294
 50
151.4785267423032
 51
208.5214732577306
 73
     0
 72
     2
 10
0.5931705244436785
 20
-34.60801518972085
 40
0.5115800601948293
 50
208.5214732576851
 51
246.6277221118054
 73
     0
 72
     2
 10
0.7496105571457861
 20
-34.97000720843147
 40
0.9059297849853497
 50
246.6277221118692
 51
288.4480761181402
 73
     0
 72
     2
 10
0.3314428234848776
 20
-36.22355298446803
 40
2.227384008973465
 50
288.4480761181333
 51
301.9309089499629
 73
     0
 72
     1
 10
1.509497865509871
 20
-34.33320226531822
 11
1.509497865509871
 21
-33.46068525851496
 72
     2
 10
0.1735699483920712
 20
-38.12576756431577
 40
4.852596863497992
 50
74.02000874164713
 51
84.84185523037611
 73
     1
 72
     2
 10
0.4624260431279765
 20
-34.92587698109475
 40
1.639695123940513
 50
84.84185523036537
 51
164.9381082228903
 73
     1
 97
       14
330
1B9
330
102
330
188
330
1B8
330
189
330
18A
330
1B7
330
1B6
330
1B5
330
103
330
18B
330
18C
330
18D
330
18E
 75
     1
 76
     2
 52
45.0
 41
0.1
 77
     0
 78
     1
 53
45.0
 43
62.7811309658083
 44
-72.3161373035813
 45
-0.1414213562373095
 46
0.0
 79
     0
 98
        1
 10
0.0
 20
0.0
  0
HATCH
  5
1E9
330
76
100
AcDbEntity
  8
1
  6
Continuous
 62
     2
100
AcDbHatch
 10
0.0
 20
0.0
 30
0.0
210
0.0
220
0.0
230
1.0
  2
CUSTOM1
 70
     0
 71
     1
 91
        1
 92
        1
 93
       14
 72
     2
 10
0.0432981996651733
 20
-34.81308661905996
 40
1.205656168390972
 50
164.9381082228768
 51
195.0618917770948
 73
     1
 72
     2
 10
0.4624260431279765
 20
-34.70029625702506
 40
1.639695123939439
 50
195.0618917770924
 51
275.1581447696363
 73
     1
 72
     2
 10
0.1735699483920712
 20
-31.50040567380341
 40
4.852596863498276
 50
275.1581447696238
 51
285.9799912583525
 73
     1
 72
     1
 10
1.509497865509871
 20
-36.16548797960434
 11
1.509497865509871
 21
-35.29297097280102
 72
     2
 10
0.3314428234848776
 20
-33.40262025365126
 40
2.227384008972732
 50
58.06909105003648
 51
71.55192388186641
 73
     0
 72
     2
 10
0.7496105571457861
 20
-34.65616602968845
 40
0.9059297849848262
 50
71.55192388184626
 51
113.3722778881334
 73
     0
 72
     2
 10
0.5931705244436785
 20
-35.01815804839845
 40
0.5115800601947457
 50
113.3722778881718
 51
151.4785267423163
 73
     0
 72
     2
 10
0.9705277825240728
 20
-34.81308661905996
 40
0.9410597353333294
 50
151.4785267423032
 51
208.5214732577306
 73
     0
 72
     2
 10
0.5931705244436785
 20
-34.60801518972085
 40
0.5115800601948293
 50
208.5214732576851
 51
246.6277221118054
 73
     0
 72
     2
 10
0.7496105571457861
 20
-34.97000720843147
 40
0.9059297849853497
 50
246.6277221118692
 51
288.4480761181402
 73
     0
 72
     2
 10
0.3314428234848776
 20
-36.22355298446803
 40
2.227384008973465
 50
288.4480761181333
 51
301.9309089499629
 73
     0
 72
     1
 10
1.509497865509871
 20
-34.33320226531822
 11
1.509497865509871
 21
-33.46068525851496
 72
     2
 10
0.1735699483920712
 20
-38.12576756431577
 40
4.852596863497992
 50
74.02000874164713
 51
84.84185523037611
 73
     1
 72
     2
 10
0.4624260431279765
 20
-34.92587698109475
 40
1.639695123940513
 50
84.84185523036537
 51
164.9381082228903
 73
     1
 97
       14
330
1B9
330
102
330
188
330
1B8
330
189
330
18A
330
1B7
330
1B6
330
1B5
330
103
330
18B
330
18C
330
18D
330
18E
 75
     1
 76
     2
 52
45.0
 41
0.1
 77
     0
 78
     1
 53
45.0
 43
62.7811309658083
 44
-72.3161373035813
 45
-0.1414213562373095
 46
0.0
 79
     0
 98
        1
 10
0.0
 20
0.0
  0
HATCH
  5
1EA
330
76
100
AcDbEntity
  8
1
  6
Continuous
 62
     2
100
AcDbHatch
 10
0.0
 20
0.0
 30
0.0
210
0.0
220
0.0
230
1.0
  2
CUSTOM2
 70
     0
 71
     1
 91
        1
 92
        1
 93
       18
 72
     2
 10
16.56512752238086
 20
-34.92587698109475
 40
1.639695123940101
 50
90.0
 51
164.9381082228991
 73
     1
 72
     2
 10
16.14599967891917
 20
-34.81308661905996
 40
1.20565616839298
 50
164.9381082229025
 51
195.0618917770923
 73
     1
 72
     2
 10
16.56512752238086
 20
-34.70029625702506
 40
1.639695123940502
 50
195.0618917771007
 51
275.1581447696774
 73
     1
 72
     2
 10
16.27627142764499
 20
-31.50040567380341
 40
4.852596863498893
 50
275.1581447696373
 51
285.9799912583383
 73
     1
 72
     1
 10
17.61219934476168
 20
-36.16548797960485
 11
17.61219934476168
 21
-35.29297097280153
 72
     2
 10
16.43414430273776
 20
-33.40262025365172
 40
2.227384008972775
 50
58.0690910500605
 51
71.55192388186657
 73
     0
 72
     2
 10
16.85231203639978
 20
-34.65616602968845
 40
0.9059297849852208
 50
71.55192388192259
 51
113.3722778881912
 73
     0
 72
     2
 10
16.69587200369656
 20
-35.01815804839845
 40
0.5115800601959903
 50
113.3722778881598
 51
151.4785267423115
 73
     0
 72
     2
 10
17.07322926177807
 20
-34.81308661905996
 40
0.9410597353350386
 50
151.478526742333
 51
208.5214732576431
 73
     0
 72
     2
 10
16.69587200369656
 20
-34.60801518972085
 40
0.5115800601944093
 50
208.5214732575836
 51
250.6628567805188
 73
     0
 72
     2
 10
16.84254200180027
 20
-35.02597017010385
 40
0.9545230068260935
 50
250.6628567805721
 51
270.0
 73
     0
 72
     1
 10
16.84254200180027
 20
-34.07144716327775
 11
17.94618130136837
 21
-34.07144716327775
 72
     1
 10
17.94618130136837
 20
-34.07144716327775
 11
17.94618130136837
 21
-36.33999138096516
 72
     1
 10
17.94618130136837
 20
-36.33999138096516
 11
19.13897400353608
 21
-36.33999138096516
 72
     1
 10
19.13897400353608
 20
-36.33999138096516
 11
19.13897400353608
 21
-34.07144716327775
 72
     1
 10
19.13897400353608
 20
-34.07144716327775
 11
19.95007304100946
 21
-34.07144716327775
 72
     1
 10
19.95007304100946
 20
-34.07144716327775
 11
19.95007304100946
 21
-33.28618185715402
 72
     1
 10
19.95007304100946
 20
-33.28618185715402
 11
16.56512752238086
 21
-33.28618185715465
 97
       18
330
168
330
167
330
166
330
165
330
16A
330
104
330
1B2
330
193
330
1B1
330
194
330
1B0
330
1AF
330
105
330
1AE
330
1AD
330
195
330
196
330
169
 75
     1
 76
     2
 52
45.0
 41
0.1
 77
     0
 78
     1
 53
45.0
 43
62.7811309658083
 44
-72.3161373035813
 45
-0.1414213562373095
 46
0.0
 79
     0
 98
        1
 10
0.0
 20
0.0
  0
HATCH
  5
1EB
330
76
100
AcDbEntity
  8
1
  6
Continuous
 62
     2
100
AcDbHatch
 10
0.0
 20
0.0
 30
0.0
210
0.0
220
0.0
230
1.0
  2
CUSTOM3
 70
     0
 71
     1
 91
        1
 92
        1
 93
       18
 72
     2
 10
16.56512752238086
 20
-34.92587698109475
 40
1.639695123940101
 50
90.0
 51
164.9381082228991
 73
     1
 72
     2
 10
16.14599967891917
 20
-34.81308661905996
 40
1.20565616839298
 50
164.9381082229025
 51
195.0618917770923
 73
     1
 72
     2
 10
16.56512752238086
 20
-34.70029625702506
 40
1.639695123940502
 50
195.0618917771007
 51
275.1581447696774
 73
     1
 72
     2
 10
16.27627142764499
 20
-31.50040567380341
 40
4.852596863498893
 50
275.1581447696373
 51
285.9799912583383
 73
     1
 72
     1
 10
17.61219934476168
 20
-36.16548797960485
 11
17.61219934476168
 21
-35.29297097280153
 72
     2
 10
16.43414430273776
 20
-33.40262025365172
 40
2.227384008972775
 50
58.0690910500605
 51
71.55192388186657
 73
     0
 72
     2
 10
16.85231203639978
 20
-34.65616602968845
 40
0.9059297849852208
 50
71.55192388192259
 51
113.3722778881912
 73
     0
 72
     2
 10
16.69587200369656
 20
-35.01815804839845
 40
0.5115800601959903
 50
113.3722778881598
 51
151.4785267423115
 73
     0
 72
     2
 10
17.07322926177807
 20
-34.81308661905996
 40
0.9410597353350386
 50
151.478526742333
 51
208.5214732576431
 73
     0
 72
     2
 10
16.69587200369656
 20
-34.60801518972085
 40
0.5115800601944093
 50
208.5214732575836
 51
250.6628567805188
 73
     0
 72
     2
 10
16.84254200180027
 20
-35.02597017010385
 40
0.9545230068260935
 50
250.6628567805721
 51
270.0
 73
     0
 72
     1
 10
16.84254200180027
 20
-34.07144716327775
 11
17.94618130136837
 21
-34.07144716327775
 72
     1
 10
17.94618130136837
 20
-34.07144716327775
 11
17.94618130136837
 21
-36.33999138096516
 72
     1
 10
17.94618130136837
 20
-36.33999138096516
 11
19.13897400353608
 21
-36.33999138096516
 72
     1
 10
19.13897400353608
 20
-36.33999138096516
 11
19.13897400353608
 21
-34.07144716327775
 72
     1
 10
19.13897400353608
 20
-34.07144716327775
 11
19.95007304100946
 21
-34.07144716327775
 72
     1
 10
19.95007304100946
 20
-34.07144716327775
 11
19.95007304100946
 21
-33.28618185715402
 72
     1
 10
19.95007304100946
 20
-33.28618185715402
 11
16.56512752238086
 21
-33.28618185715465
 97
       18
330
168
330
167
330
166
330
165
330
16A
330
104
330
1B2
330
193
330
1B1
330
194
330
1B0
330
1AF
330
105
330
1AE
330
1AD
330
195
330
196
330
169
 75
     1
 76
     2
 52
45.0
 41
0.1
 77
     0
 78
     1
 53
45.0
 43
62.7811309658083
 44
-72.3161373035813
 45
-0.1414213562373095
 46
0.0
 79
     0
 98
        1
 10
0.0
 20
0.0
  0
HATCH
  5
1EC
330
76
100
AcDbEntity
  8
1
  6
Continuous
 62
     2
100
AcDbHatch
 10
0.0
 20
0.0
 30
0.0
210
0.0
220
0.0
230
1.0
  2
CUSTOM4
 70
     0
 71
     1
 91
        4
 92
        1
 93
        8
 72
     2
 10
-7.537031574312238
 20
-30.35123599638172
 40
0.4242446153838912
 50
90.0
 51
180.0
 73
     1
 72
     1
 10
-7.961276189695013
 20
-30.35123599638172
 11
-7.961276189695013
 21
-35.91574676558196
 72
     2
 10
-7.537031574312238
 20
-35.91574676558196
 40
0.4242446153827757
 50
180.0
 51
270.0
 73
     1
 72
     1
 10
-7.537031574312238
 20
-36.33999138096516
 11
-2.063719483595321
 21
-36.33999138096516
 72
     2
 10
-2.063719483595321
 20
-35.91574676558196
 40
0.424244615383202
 50
270.0
 51
360.0
 73
     1
 72
     1
 10
-1.639474868211437
 20
-35.91574676558196
 11
-1.639474868211437
 21
-30.35123599638172
 72
     2
 10
-2.063719483595321
 20
-30.35123599638172
 40
0.4242446153838839
 50
0.0
 51
90.0
 73
     1
 72
     1
 10
-2.063719483595321
 20
-29.92699138099783
 11
-7.537031574312238
 21
-29.92699138099783
 97
        8
330
1A6
330
133
330
1A5
330
134
330
19C
330
131
330
1A7
330
132
 92
       16
 93
       12
 72
     1
 10
-6.943136897565722
 20
-35.62743582540827
 11
-5.467303636556125
 21
-35.62743582540827
 72
     2
 10
-5.467303636556125
 20
-35.31171890233156
 40
0.3157169230767067
 50
270.0
 51
360.0
 73
     1
 72
     1
 10
-5.151586713479532
 20
-35.31171890233156
 11
-5.151586713479532
 21
-33.78094797079996
 72
     2
 10
-5.467303636556125
 20
-33.78094797079996
 40
0.315716923076593
 50
0.0
 51
64.80558935144585
 73
     1
 72
     2
 10
-4.944719188981139
 20
-32.67011822473722
 40
0.9118975235576466
 50
115.1944106485089
 51
244.8055893514806
 73
     0
 72
     2
 10
-5.467303636556125
 20
-31.55928847867506
 40
0.3157169230760597
 50
295.1944106485678
 51
360.0
 73
     1
 72
     1
 10
-5.151586713479532
 20
-31.55928847867506
 11
-5.151586713479532
 21
-30.95526385961443
 72
     2
 10
-5.467303636556125
 20
-30.95526385961443
 40
0.315716923076593
 50
0.0
 51
90.0
 73
     1
 72
     1
 10
-5.467303636556125
 20
-30.63954693653835
 11
-6.943136897565722
 21
-30.63954693653835
 72
     2
 10
-6.943136897565722
 20
-30.95526385961443
 40
0.3157169230760815
 50
90.0
 51
180.0
 73
     1
 72
     1
 10
-7.258853820641321
 20
-30.95526385961443
 11
-7.258853820641321
 21
-35.31171890233156
 72
     2
 10
-6.943136897565722
 20
-35.31171890233156
 40
0.3157169230755992
 50
180.0
 51
270.0
 73
     1
 97
       12
330
138
330
199
330
137
330
1AA
330
136
330
1A9
330
19A
330
19B
330
135
330
1A8
330
130
330
1AB
 92
       16
 93
        8
 72
     2
 10
-4.893630909121839
 20
-32.67011822473722
 40
0.9118481501443941
 50
295.3740086781804
 51
424.6259913218087
 73
     1
 72
     2
 10
-4.367588211033933
 20
-31.56097662476947
 40
0.315716923076792
 50
115.3740086783648
 51
180.0
 73
     0
 72
     1
 10
-4.683305134110725
 20
-31.56097662476947
 11
-4.683305134110725
 21
-30.95544133626265
 72
     2
 10
-4.367588211033933
 20
-30.95544133626265
 40
0.3157169230761815
 50
180.0
 51
269.8110329574335
 73
     0
 72
     2
 10
-4.361972075723912
 20
-32.65827628383164
 40
2.018561131933266
 50
269.8110329575827
 51
450.1889670424174
 73
     0
 72
     2
 10
-4.367588211033933
 20
-34.36111123140063
 40
0.315716923076792
 50
90.18896704256652
 51
180.0
 73
     0
 72
     1
 10
-4.683305134110725
 20
-34.36111123140063
 11
-4.683305134110725
 21
-33.77925982470555
 72
     2
 10
-4.367588211033933
 20
-33.77925982470555
 40
0.3157169230765328
 50
180.0
 51
244.6259913216482
 73
     0
 97
        8
330
1B4
330
190
330
16C
330
1B3
330
191
330
192
330
16B
330
18F
 92
       16
 93
        1
 72
     2
 10
-4.917445923794617
 20
-32.67011822473722
 40
0.470978932778479
 50
0.0
 51
360.0
 73
     1
 97
        1
330
1BA
 75
     1
 76
     2
 52
45.0
 41
0.1
 77
     0
 78
     1
 53
45.0
 43
62.7811309658083
 44
-72.3161373035813
 45
-0.1414213562373095
 46
0.0
 79
     0
 98
        1
 10
0.0
 20
0.0
  0
HATCH
  5
1ED
330
76
100
AcDbEntity
  8
1
  6
Continuous
 62
     2
100
AcDbHatch
 10
0.0
 20
0.0
 30
0.0
210
0.0
220
0.0
230
1.0
  2
CUSTOM5
 70
     0
 71
     1
 91
        4
 92
        1
 93
        8
 72
     2
 10
-7.537031574312238
 20
-30.35123599638172
 40
0.4242446153838912
 50
90.0
 51
180.0
 73
     1
 72
     1
 10
-7.961276189695013
 20
-30.35123599638172
 11
-7.961276189695013
 21
-35.91574676558196
 72
     2
 10
-7.537031574312238
 20
-35.91574676558196
 40
0.4242446153827757
 50
180.0
 51
270.0
 73
     1
 72
     1
 10
-7.537031574312238
 20
-36.33999138096516
 11
-2.063719483595321
 21
-36.33999138096516
 72
     2
 10
-2.063719483595321
 20
-35.91574676558196
 40
0.424244615383202
 50
270.0
 51
360.0
 73
     1
 72
     1
 10
-1.639474868211437
 20
-35.91574676558196
 11
-1.639474868211437
 21
-30.35123599638172
 72
     2
 10
-2.063719483595321
 20
-30.35123599638172
 40
0.4242446153838839
 50
0.0
 51
90.0
 73
     1
 72
     1
 10
-2.063719483595321
 20
-29.92699138099783
 11
-7.537031574312238
 21
-29.92699138099783
 97
        8
330
1A6
330
133
330
1A5
330
134
330
19C
330
131
330
1A7
330
132
 92
       16
 93
       12
 72
     1
 10
-6.943136897565722
 20
-35.62743582540827
 11
-5.467303636556125
 21
-35.62743582540827
 72
     2
 10
-5.467303636556125
 20
-35.31171890233156
 40
0.3157169230767067
 50
270.0
 51
360.0
 73
     1
 72
     1
 10
-5.151586713479532
 20
-35.31171890233156
 11
-5.151586713479532
 21
-33.78094797079996
 72
     2
 10
-5.467303636556125
 20
-33.78094797079996
 40
0.315716923076593
 50
0.0
 51
64.80558935144585
 73
     1
 72
     2
 10
-4.944719188981139
 20
-32.67011822473722
 40
0.9118975235576466
 50
115.1944106485089
 51
244.8055893514806
 73
     0
 72
     2
 10
-5.467303636556125
 20
-31.55928847867506
 40
0.3157169230760597
 50
295.1944106485678
 51
360.0
 73
     1
 72
     1
 10
-5.151586713479532
 20
-31.55928847867506
 11
-5.151586713479532
 21
-30.95526385961443
 72
     2
 10
-5.467303636556125
 20
-30.95526385961443
 40
0.315716923076593
 50
0.0
 51
90.0
 73
     1
 72
     1
 10
-5.467303636556125
 20
-30.63954693653835
 11
-6.943136897565722
 21
-30.63954693653835
 72
     2
 10
-6.943136897565722
 20
-30.95526385961443
 40
0.3157169230760815
 50
90.0
 51
180.0
 73
     1
 72
     1
 10
-7.258853820641321
 20
-30.95526385961443
 11
-7.258853820641321
 21
-35.31171890233156
 72
     2
 10
-6.943136897565722
 20
-35.31171890233156
 40
0.3157169230755992
 50
180.0
 51
270.0
 73
     1
 97
       12
330
138
330
199
330
137
330
1AA
330
136
330
1A9
330
19A
330
19B
330
135
330
1A8
330
130
330
1AB
 92
       16
 93
        8
 72
     2
 10
-4.893630909121839
 20
-32.67011822473722
 40
0.9118481501443941
 50
295.3740086781804
 51
424.6259913218087
 73
     1
 72
     2
 10
-4.367588211033933
 20
-31.56097662476947
 40
0.315716923076792
 50
115.3740086783648
 51
180.0
 73
     0
 72
     1
 10
-4.683305134110725
 20
-31.56097662476947
 11
-4.683305134110725
 21
-30.95544133626265
 72
     2
 10
-4.367588211033933
 20
-30.95544133626265
 40
0.3157169230761815
 50
180.0
 51
269.8110329574335
 73
     0
 72
     2
 10
-4.361972075723912
 20
-32.65827628383164
 40
2.018561131933266
 50
269.8110329575827
 51
450.1889670424174
 73
     0
 72
     2
 10
-4.367588211033933
 20
-34.36111123140063
 40
0.315716923076792
 50
90.18896704256652
 51
180.0
 73
     0
 72
     1
 10
-4.683305134110725
 20
-34.36111123140063
 11
-4.683305134110725
 21
-33.77925982470555
 72
     2
 10
-4.367588211033933
 20
-33.77925982470555
 40
0.3157169230765328
 50
180.0
 51
244.6259913216482
 73
     0
 97
        8
330
1B4
330
190
330
16C
330
1B3
330
191
330
192
330
16B
330
18F
 92
       16
 93
        1
 72
     2
 10
-4.917445923794617
 20
-32.67011822473722
 40
0.470978932778479
 50
0.0
 51
360.0
 73
     1
 97
        1
330
1BA
 75
     1
 76
     2
 52
45.0
 41
0.1
 77
     0
 78
     1
 53
45.0
 43
62.7811309658083
 44
-72.3161373035813
 45
-0.1414213562373095
 46
0.0
 79
     0
 98
        1
 10
0.0
 20
0.0
  0
HATCH
  5
1EE
330
76
100
AcDbEntity
  8
1
  6
Continuous
 62
     2
100
AcDbHatch
 10
0.0
 20
0.0
 30
0.0
210
0.0
220
0.0
230
1.0
  2
CUSTOM6
 70
     0
 71
     1
 91
        2
 92
        1
 93
       12
 72
     2
 10
7.138132429677171
 20
-31.45389614288553
 40
1.526904761905769
 50
90.0
 51
270.0
 73
     1
 72
     1
 10
7.138132429677171
 20
-32.98080090479084
 11
10.28845215345808
 21
-32.98080090479084
 72
     1
 10
10.28845215345808
 20
-32.98080090479084
 11
10.28845215345808
 21
-32.28278729934846
 72
     1
 10
10.28845215345808
 20
-32.28278729934846
 11
8.95252432703046
 21
-32.28278729934846
 72
     1
 10
8.95252432703046
 20
-32.28278729934846
 11
8.95252432703046
 21
-31.80290294560672
 72
     1
 10
8.95252432703046
 20
-31.80290294560672
 11
10.28845215345808
 21
-31.80290294560672
 72
     1
 10
10.28845215345808
 20
-31.80290294560672
 11
10.28845215345808
 21
-31.10488934016433
 72
     1
 10
10.28845215345808
 20
-31.10488934016433
 11
8.95252432703046
 21
-31.10488934016433
 72
     1
 10
8.95252432703046
 20
-31.10488934016433
 11
8.95252432703046
 21
-30.62500498642265
 72
     1
 10
8.95252432703046
 20
-30.62500498642265
 11
10.28845215345808
 21
-30.62500498642265
 72
     1
 10
10.28845215345808
 20
-30.62500498642265
 11
10.28845215345808
 21
-29.92699138097976
 72
     1
 10
10.28845215345808
 20
-29.92699138097976
 11
7.138132429677171
 21
-29.92699138097976
 97
       12
330
127
330
121
330
148
330
147
330
146
330
145
330
122
330
123
330
124
330
125
330
197
330
126
 92
       16
 93
        4
 72
     2
 10
7.554144476188583
 20
-31.45389614288553
 40
0.7717997786796268
 50
141.8795802028482
 51
218.1204197971547
 73
     1
 72
     2
 10
7.354404439842369
 20
-31.61062732100606
 40
0.5179085730134586
 50
218.1204197971337
 51
321.8795802028584
 73
     1
 72
     2
 10
7.154664403496184
 20
-31.45389614288553
 40
0.7717997786795456
 50
321.8795802028387
 51
398.1204197971583
 73
     1
 72
     2
 10
7.354404439842369
 20
-31.29716496476505
 40
0.5179085730133691
 50
38.12041979714152
 51
141.8795802028663
 73
     1
 97
        4
330
1A4
330
1A3
330
19E
330
19D
 75
     1
 76
     2
 52
45.0
 41
0.1
 77
     0
 78
     1
 53
45.0
 43
62.7811309658083
 44
-72.3161373035813
 45
-0.1414213562373095
 46
0.0
 79
     0
 98
        1
 10
0.0
 20
0.0
  0
HATCH
  5
1EF
330
76
100
AcDbEntity
  8
1
  6
Continuous
 62
     2
100
AcDbHatch
 10
0.0
 20
0.0
 30
0.0
210
0.0
220
0.0
230
1.0
  2
CUSTOM7
 70
     0
 71
     1
 91
        2
 92
        1
 93
       12
 72
     2
 10
7.138132429677171
 20
-31.45389614288553
 40
1.526904761905769
 50
90.0
 51
270.0
 73
     1
 72
     1
 10
7.138132429677171
 20
-32.98080090479084
 11
10.28845215345808
 21
-32.98080090479084
 72
     1
 10
10.28845215345808
 20
-32.98080090479084
 11
10.28845215345808
 21
-32.28278729934846
 72
     1
 10
10.28845215345808
 20
-32.28278729934846
 11
8.95252432703046
 21
-32.28278729934846
 72
     1
 10
8.95252432703046
 20
-32.28278729934846
 11
8.95252432703046
 21
-31.80290294560672
 72
     1
 10
8.95252432703046
 20
-31.80290294560672
 11
10.28845215345808
 21
-31.80290294560672
 72
     1
 10
10.28845215345808
 20
-31.80290294560672
 11
10.28845215345808
 21
-31.10488934016433
 72
     1
 10
10.28845215345808
 20
-31.10488934016433
 11
8.95252432703046
 21
-31.10488934016433
 72
     1
 10
8.95252432703046
 20
-31.10488934016433
 11
8.95252432703046
 21
-30.62500498642265
 72
     1
 10
8.95252432703046
 20
-30.62500498642265
 11
10.28845215345808
 21
-30.62500498642265
 72
     1
 10
10.28845215345808
 20
-30.62500498642265
 11
10.28845215345808
 21
-29.92699138097976
 72
     1
 10
10.28845215345808
 20
-29.92699138097976
 11
7.138132429677171
 21
-29.92699138097976
 97
       12
330
127
330
121
330
148
330
147
330
146
330
145
330
122
330
123
330
124
330
125
330
197
330
126
 92
       16
 93
        4
 72
     2
 10
7.554144476188583
 20
-31.45389614288553
 40
0.7717997786796268
 50
141.8795802028482
 51
218.1204197971547
 73
     1
 72
     2
 10
7.354404439842369
 20
-31.61062732100606
 40
0.5179085730134586
 50
218.1204197971337
 51
321.8795802028584
 73
     1
 72
     2
 10
7.154664403496184
 20
-31.45389614288553
 40
0.7717997786795456
 50
321.8795802028387
 51
398.1204197971583
 73
     1
 72
     2
 10
7.354404439842369
 20
-31.29716496476505
 40
0.5179085730133691
 50
38.12041979714152
 51
141.8795802028663
 73
     1
 97
        4
330
1A4
330
1A3
330
19E
330
19D
 75
     1
 76
     2
 52
45.0
 41
0.1
 77
     0
 78
     1
 53
45.0
 43
62.7811309658083
 44
-72.3161373035813
 45
-0.1414213562373095
 46
0.0
 79
     0
 98
        1
 10
0.0
 20
0.0
  0
HATCH
  5
1F0
330
76
100
AcDbEntity
  8
1
  6
Continuous
 62
     2
100
AcDbHatch
 10
0.0
 20
0.0
 30
0.0
210
0.0
220
0.0
230
1.0
  2
CUSTOM8
 70
     0
 71
     1
 91
        2
 92
        1
 93
        4
 72
     2
 10
3.112517067215464
 20
-34.81308661905996
 40
1.458034083651616
 50
117.5481481756598
 51
242.451851824337
 73
     1
 72
     2
 10
3.393456959048876
 20
-34.27451160875654
 40
2.065479772208636
 50
242.4518518243385
 51
297.548148175686
 73
     1
 72
     2
 10
3.674396850882062
 20
-34.81308661905996
 40
1.45803408365203
 50
297.5481481757055
 51
422.4518518242976
 73
     1
 72
     2
 10
3.393456959048876
 20
-35.35166162936275
 40
2.065479772208694
 50
62.45185182430818
 51
117.5481481756673
 73
     1
 97
        4
330
1A2
330
19F
330
1A1
330
1A0
 92
       16
 93
        4
 72
     2
 10
3.393456959048876
 20
-34.65635544093942
 40
0.5179085730132806
 50
38.12041979716469
 51
141.8795802028566
 73
     1
 72
     2
 10
3.593196995394862
 20
-34.81308661905996
 40
0.7717997786795503
 50
141.879580202828
 51
218.1204197971625
 73
     1
 72
     2
 10
3.393456959048876
 20
-34.96981779717982
 40
0.5179085730138416
 50
218.1204197971879
 51
321.8795802027908
 73
     1
 72
     2
 10
3.193716922702464
 20
-34.81308661905996
 40
0.7717997786795392
 50
321.8795802028428
 51
398.1204197971668
 73
     1
 97
        4
330
185
330
186
330
187
330
184
 75
     1
 76
     2
 52
45.0
 41
0.1
 77
     0
 78
     1
 53
45.0
 43
62.7811309658083
 44
-72.3161373035813
 45
-0.1414213562373095
 46
0.0
 79
     0
 98
        1
 10
0.0
 20
0.0
  0
HATCH
  5
1F1
330
76
100
AcDbEntity
  8
1
  6
Continuous
 62
     2
100
AcDbHatch
 10
0.0
 20
0.0
 30
0.0
210
0.0
220
0.0
230
1.0
  2
CUSTOM9
 70
     0
 71
     1
 91
        2
 92
        1
 93
        4
 72
     2
 10
3.112517067215464
 20
-34.81308661905996
 40
1.458034083651616
 50
117.5481481756598
 51
242.451851824337
 73
     1
 72
     2
 10
3.393456959048876
 20
-34.27451160875654
 40
2.065479772208636
 50
242.4518518243385
 51
297.548148175686
 73
     1
 72
     2
 10
3.674396850882062
 20
-34.81308661905996
 40
1.45803408365203
 50
297.5481481757055
 51
422.4518518242976
 73
     1
 72
     2
 10
3.393456959048876
 20
-35.35166162936275
 40
2.065479772208694
 50
62.45185182430818
 51
117.5481481756673
 73
     1
 97
        4
330
1A2
330
19F
330
1A1
330
1A0
 92
       16
 93
        4
 72
     2
 10
3.393456959048876
 20
-34.65635544093942
 40
0.5179085730132806
 50
38.12041979716469
 51
141.8795802028566
 73
     1
 72
     2
 10
3.593196995394862
 20
-34.81308661905996
 40
0.7717997786795503
 50
141.879580202828
 51
218.1204197971625
 73
     1
 72
     2
 10
3.393456959048876
 20
-34.96981779717982
 40
0.5179085730138416
 50
218.1204197971879
 51
321.8795802027908
 73
     1
 72
     2
 10
3.193716922702464
 20
-34.81308661905996
 40
0.7717997786795392
 50
321.8795802028428
 51
398.1204197971668
 73
     1
 97
        4
330
185
330
186
330
187
330
184
 75
     1
 76
     2
 52
45.0
 41
0.1
 77
     0
 78
     1
 53
45.0
 43
62.7811309658083
 44
-72.3161373035813
 45
-0.1414213562373095
 46
0.0
 79
     0
 98
        1
 10
0.0
 20
0.0
  0
HATCH
  5
1F2
330
76
100
AcDbEntity
  8
1
  6
Continuous
 62
     2
100
AcDbHatch
 10
0.0
 20
0.0
 30
0.0
210
0.0
220
0.0
230
1.0
  2
CUSTOM10
 70
     0
 71
     1
 91
        2
 92
        1
 93
        6
 72
     1
 10
-1.162357787344632
 20
-29.92699138097976
 11
-1.162357787344632
 21
-32.98080090479084
 72
     1
 10
-1.162357787344632
 20
-32.98080090479084
 11
0.0781466229093724
 21
-32.98080090479084
 72
     1
 10
0.0781466229093724
 20
-32.98080090479084
 11
0.0781466229093724
 21
-32.03772266364712
 72
     1
 10
0.0781466229093724
 20
-32.03772266364712
 11
0.8369142106897698
 21
-32.03772266364712
 72
     2
 10
0.8369142106897698
 20
-30.98235702231347
 40
1.055365641333655
 50
270.0
 51
450.0
 73
     1
 72
     1
 10
0.8369142106897698
 20
-29.92699138097976
 11
-1.162357787344632
 21
-29.92699138097976
 97
        6
330
1AC
330
139
330
12F
330
12E
330
13B
330
13A
 92
       16
 93
        4
 72
     1
 10
0.3954416844513844
 20
-30.59009722641974
 11
0.0781466229093724
 21
-30.59009722641974
 72
     1
 10
0.0781466229093724
 20
-30.59009722641974
 11
0.0781466229093724
 21
-31.29582487576204
 72
     1
 10
0.0781466229093724
 20
-31.29582487576204
 11
0.3954416844513844
 21
-31.29582487576204
 72
     2
 10
0.3954416844513844
 20
-30.94296105109095
 40
0.3528638246710898
 50
270.0
 51
450.0
 73
     1
 97
        4
330
13C
330
12D
330
13D
330
198
 75
     1
 76
     2
 52
45.0
 41
0.1
 77
     0
 78
     1
 53
45.0
 43
62.7811309658083
 44
-72.3161373035813
 45
-0.1414213562373095
 46
0.0
 79
     0
 98
        1
 10
0.0
 20
0.0
  0
HATCH
  5
1F3
330
76
100
AcDbEntity
  8
1
  6
Continuous
 62
     2
100
AcDbHatch
 10
0.0
 20
0.0
 30
0.0
210
0.0
220
0.0
230
1.0
  2
CUSTOM11
 70
     0
 71
     1
 91
        2
 92
        1
 93
        6
 72
     1
 10
-1.162357787344632
 20
-29.92699138097976
 11
-1.162357787344632
 21
-32.98080090479084
 72
     1
 10
-1.162357787344632
 20
-32.98080090479084
 11
0.0781466229093724
 21
-32.98080090479084
 72
     1
 10
0.0781466229093724
 20
-32.98080090479084
 11
0.0781466229093724
 21
-32.03772266364712
 72
     1
 10
0.0781466229093724
 20
-32.03772266364712
 11
0.8369142106897698
 21
-32.03772266364712
 72
     2
 10
0.8369142106897698
 20
-30.98235702231347
 40
1.055365641333655
 50
270.0
 51
450.0
 73
     1
 72
     1
 10
0.8369142106897698
 20
-29.92699138097976
 11
-1.162357787344632
 21
-29.92699138097976
 97
        6
330
1AC
330
139
330
12F
330
12E
330
13B
330
13A
 92
       16
 93
        4
 72
     1
 10
0.3954416844513844
 20
-30.59009722641974
 11
0.0781466229093724
 21
-30.59009722641974
 72
     1
 10
0.0781466229093724
 20
-30.59009722641974
 11
0.0781466229093724
 21
-31.29582487576204
 72
     1
 10
0.0781466229093724
 20
-31.29582487576204
 11
0.3954416844513844
 21
-31.29582487576204
 72
     2
 10
0.3954416844513844
 20
-30.94296105109095
 40
0.3528638246710898
 50
270.0
 51
450.0
 73
     1
 97
        4
330
13C
330
12D
330
13D
330
198
 75
     1
 76
     2
 52
45.0
 41
0.1
 77
     0
 78
     1
 53
45.0
 43
62.7811309658083
 44
-72.3161373035813
 45
-0.1414213562373095
 46
0.0
 79
     0
 98
        1
 10
0.0
 20
0.0
  0
HATCH
  5
1F4
330
76
100
AcDbEntity
  8
1
  6
Continuous
 62
     2
100
AcDbHatch
 10
0.0
 20
0.0
 30
0.0
210
0.0
220
0.0
230
1.0
  2
CUSTOM12
 70
     0
 71
     1
 91
        1
 92
        1
 93
       12
 72
     1
 10
18.45192540708857
 20
-29.92699138097976
 11
19.85464962483579
 21
-29.92699138097976
 72
     1
 10
19.85464962483579
 20
-29.92699138097976
 11
18.55211999406919
 21
-31.39994191101596
 72
     1
 10
18.55211999406919
 20
-31.39994191101596
 11
19.95007304100946
 21
-32.98080090479084
 72
     1
 10
19.95007304100946
 20
-32.98080090479084
 11
18.54734882326116
 21
-32.98080090479084
 72
     1
 10
18.54734882326116
 20
-32.98080090479084
 11
17.85075788519578
 21
-32.19306911949713
 72
     1
 10
17.85075788519578
 20
-32.19306911949713
 11
17.15416694712997
 21
-32.98080090479084
 72
     1
 10
17.15416694712997
 20
-32.98080090479084
 11
15.75144272938186
 21
-32.98080090479084
 72
     1
 10
15.75144272938186
 20
-32.98080090479084
 11
17.14939577632217
 21
-31.39994191101596
 72
     1
 10
17.14939577632217
 20
-31.39994191101596
 11
15.84686614555469
 21
-29.92699138097976
 72
     1
 10
15.84686614555469
 20
-29.92699138097976
 11
17.24959036330387
 21
-29.92699138097976
 72
     1
 10
17.24959036330387
 20
-29.92699138097976
 11
17.85075788519578
 21
-30.60681470253525
 72
     1
 10
17.85075788519578
 20
-30.60681470253525
 11
18.45192540708857
 21
-29.92699138097976
 97
       12
330
108
330
161
330
160
330
15F
330
15E
330
109
330
10A
330
106
330
107
330
164
330
163
330
162
 75
     1
 76
     2
 52
45.0
 41
0.1
 77
     0
 78
     1
 53
45.0
 43
62.7811309658083
 44
-72.3161373035813
 45
-0.1414213562373095
 46
0.0
 79
     0
 98
        1
 10
0.0
 20
0.0
  0
HATCH
  5
1F5
330
76
100
AcDbEntity
  8
1
  6
Continuous
 62
     2
100
AcDbHatch
 10
0.0
 20
0.0
 30
0.0
210
0.0
220
0.0
230
1.0
  2
CUSTOM13
 70
     0
 71
     1
 91
        1
 92
        1
 93
       12
 72
     1
 10
18.45192540708857
 20
-29.92699138097976
 11
19.85464962483579
 21
-29.92699138097976
 72
     1
 10
19.85464962483579
 20
-29.92699138097976
 11
18.55211999406919
 21
-31.39994191101596
 72
     1
 10
18.55211999406919
 20
-31.39994191101596
 11
19.95007304100946
 21
-32.98080090479084
 72
     1
 10
19.95007304100946
 20
-32.98080090479084
 11
18.54734882326116
 21
-32.98080090479084
 72
     1
 10
18.54734882326116
 20
-32.98080090479084
 11
17.85075788519578
 21
-32.19306911949713
 72
     1
 10
17.85075788519578
 20
-32.19306911949713
 11
17.15416694712997
 21
-32.98080090479084
 72
     1
 10
17.15416694712997
 20
-32.98080090479084
 11
15.75144272938186
 21
-32.98080090479084
 72
     1
 10
15.75144272938186
 20
-32.98080090479084
 11
17.14939577632217
 21
-31.39994191101596
 72
     1
 10
17.14939577632217
 20
-31.39994191101596
 11
15.84686614555469
 21
-29.92699138097976
 72
     1
 10
15.84686614555469
 20
-29.92699138097976
 11
17.24959036330387
 21
-29.92699138097976
 72
     1
 10
17.24959036330387
 20
-29.92699138097976
 11
17.85075788519578
 21
-30.60681470253525
 72
     1
 10
17.85075788519578
 20
-30.60681470253525
 11
18.45192540708857
 21
-29.92699138097976
 97
       12
330
108
330
161
330
160
330
15F
330
15E
330
109
330
10A
330
106
330
107
330
164
330
163
330
162
 75
     1
 76
     2
 52
45.0
 41
0.1
 77
     0
 78
     1
 53
45.0
 43
62.7811309658083
 44
-72.3161373035813
 45
-0.1414213562373095
 46
0.0
 79
     0
 98
        1
 10
0.0
 20
0.0
  0
HATCH
  5
1F6
330
76
100
AcDbEntity
  8
1
  6
Continuous
 62
     2
100
AcDbHatch
 10
0.0
 20
0.0
 30
0.0
210
0.0
220
0.0
230
1.0
  2
CUSTOM14
 70
     0
 71
     1
 91
        1
 92
        1
 93
        4
 72
     1
 10
15.63216345916499
 20
-29.92699138097976
 11
15.63216345916499
 21
-32.98080090479084
 72
     1
 10
15.63216345916499
 20
-32.98080090479084
 11
14.39165904891206
 21
-32.98080090479084
 72
     1
 10
14.39165904891206
 20
-32.98080090479084
 11
14.39165904891206
 21
-29.92699138097976
 72
     1
 10
14.39165904891206
 20
-29.92699138097976
 11
15.63216345916499
 21
-29.92699138097976
 97
        4
330
15C
330
10B
330
15B
330
15D
 75
     1
 76
     2
 52
45.0
 41
0.1
 77
     0
 78
     1
 53
45.0
 43
62.7811309658083
 44
-72.3161373035813
 45
-0.1414213562373095
 46
0.0
 79
     0
 98
        1
 10
0.0
 20
0.0
  0
HATCH
  5
1F7
330
76
100
AcDbEntity
  8
1
  6
Continuous
 62
     2
100
AcDbHatch
 10
0.0
 20
0.0
 30
0.0
210
0.0
220
0.0
230
1.0
  2
CUSTOM15
 70
     0
 71
     1
 91
        1
 92
        1
 93
        4
 72
     1
 10
15.63216345916499
 20
-29.92699138097976
 11
15.63216345916499
 21
-32.98080090479084
 72
     1
 10
15.63216345916499
 20
-32.98080090479084
 11
14.39165904891206
 21
-32.98080090479084
 72
     1
 10
14.39165904891206
 20
-32.98080090479084
 11
14.39165904891206
 21
-29.92699138097976
 72
     1
 10
14.39165904891206
 20
-29.92699138097976
 11
15.63216345916499
 21
-29.92699138097976
 97
        4
330
15C
330
10B
330
15B
330
15D
 75
     1
 76
     2
 52
45.0
 41
0.1
 77
     0
 78
     1
 53
45.0
 43
62.7811309658083
 44
-72.3161373035813
 45
-0.1414213562373095
 46
0.0
 79
     0
 98
        1
 10
0.0
 20
0.0
  0
HATCH
  5
1F8
330
76
100
AcDbEntity
  8
1
  6
Continuous
 62
     2
100
AcDbHatch
 10
0.0
 20
0.0
 30
0.0
210
0.0
220
0.0
230
1.0
  2
CUSTOM16
 70
     0
 71
     1
 91
        2
 92
        1
 93
        8
 72
     1
 10
15.24171945563296
 20
-36.33999138096516
 11
14.00121504537907
 21
-36.33999138096516
 72
     1
 10
14.00121504537907
 20
-36.33999138096516
 11
13.78973499190329
 21
-35.79903083674736
 72
     1
 10
13.78973499190329
 20
-35.79903083674736
 11
12.65729341522936
 21
-35.79903083674736
 72
     1
 10
12.65729341522936
 20
-35.79903083674736
 11
12.44581336175358
 21
-36.33999138096516
 72
     1
 10
12.44581336175358
 20
-36.33999138096516
 11
11.20530895150068
 21
-36.33999138096516
 72
     1
 10
11.20530895150068
 20
-36.33999138096516
 11
12.60326199843988
 21
-33.28618185715402
 72
     1
 10
12.60326199843988
 20
-33.28618185715402
 11
13.84376640869269
 21
-33.28618185715402
 72
     1
 10
13.84376640869269
 20
-33.28618185715402
 11
15.24171945563296
 21
-36.33999138096516
 97
        8
330
157
330
111
330
156
330
159
330
10E
330
158
330
10F
330
110
 92
       16
 93
        3
 72
     1
 10
12.92334896637448
 20
-35.11846757144076
 11
13.52367944075698
 21
-35.11846757144076
 72
     1
 10
13.52367944075698
 20
-35.11846757144076
 11
13.22351420356677
 21
-34.35065260545406
 72
     1
 10
13.22351420356677
 20
-34.35065260545406
 11
12.92334896637448
 21
-35.11846757144076
 97
        3
330
10D
330
10C
330
15A
 75
     1
 76
     2
 52
45.0
 41
0.1
 77
     0
 78
     1
 53
45.0
 43
62.7811309658083
 44
-72.3161373035813
 45
-0.1414213562373095
 46
0.0
 79
     0
 98
        1
 10
0.0
 20
0.0
  0
HATCH
  5
1F9
330
76
100
AcDbEntity
  8
1
  6
Continuous
 62
     2
100
AcDbHatch
 10
0.0
 20
0.0
 30
0.0
210
0.0
220
0.0
230
1.0
  2
CUSTOM17
 70
     0
 71
     1
 91
        2
 92
        1
 93
        8
 72
     1
 10
15.24171945563296
 20
-36.33999138096516
 11
14.00121504537907
 21
-36.33999138096516
 72
     1
 10
14.00121504537907
 20
-36.33999138096516
 11
13.78973499190329
 21
-35.79903083674736
 72
     1
 10
13.78973499190329
 20
-35.79903083674736
 11
12.65729341522936
 21
-35.79903083674736
 72
     1
 10
12.65729341522936
 20
-35.79903083674736
 11
12.44581336175358
 21
-36.33999138096516
 72
     1
 10
12.44581336175358
 20
-36.33999138096516
 11
11.20530895150068
 21
-36.33999138096516
 72
     1
 10
11.20530895150068
 20
-36.33999138096516
 11
12.60326199843988
 21
-33.28618185715402
 72
     1
 10
12.60326199843988
 20
-33.28618185715402
 11
13.84376640869269
 21
-33.28618185715402
 72
     1
 10
13.84376640869269
 20
-33.28618185715402
 11
15.24171945563296
 21
-36.33999138096516
 97
        8
330
157
330
111
330
156
330
159
330
10E
330
158
330
10F
330
110
 92
       16
 93
        3
 72
     1
 10
12.92334896637448
 20
-35.11846757144076
 11
13.52367944075698
 21
-35.11846757144076
 72
     1
 10
13.52367944075698
 20
-35.11846757144076
 11
13.22351420356677
 21
-34.35065260545406
 72
     1
 10
13.22351420356677
 20
-34.35065260545406
 11
12.92334896637448
 21
-35.11846757144076
 97
        3
330
10D
330
10C
330
15A
 75
     1
 76
     2
 52
45.0
 41
0.1
 77
     0
 78
     1
 53
45.0
 43
62.7811309658083
 44
-72.3161373035813
 45
-0.1414213562373095
 46
0.0
 79
     0
 98
        1
 10
0.0
 20
0.0
  0
HATCH
  5
1FA
330
76
100
AcDbEntity
  8
1
  6
Continuous
 62
     2
100
AcDbHatch
 10
0.0
 20
0.0
 30
0.0
210
0.0
220
0.0
230
1.0
  2
CUSTOM18
 70
     0
 71
     1
 91
        1
 92
        1
 93
        8
 72
     1
 10
9.047796812318381
 20
-33.28618185715402
 11
9.047796812318381
 21
-34.07144716327775
 72
     1
 10
9.047796812318381
 20
-34.07144716327775
 11
9.858895849793072
 21
-34.07144716327775
 72
     1
 10
9.858895849793072
 20
-34.07144716327775
 11
9.858895849793072
 21
-36.33999138096516
 72
     1
 10
9.858895849793072
 20
-36.33999138096516
 11
11.05168855195947
 21
-36.33999138096516
 72
     1
 10
11.05168855195947
 20
-36.33999138096516
 11
11.05168855195947
 21
-34.07144716327775
 72
     1
 10
11.05168855195947
 20
-34.07144716327775
 11
11.86278758943209
 21
-34.07144716327775
 72
     1
 10
11.86278758943209
 20
-34.07144716327775
 11
11.86278758943209
 21
-33.28618185715402
 72
     1
 10
11.86278758943209
 20
-33.28618185715402
 11
9.047796812318381
 21
-33.28618185715402
 97
        8
330
153
330
152
330
151
330
112
330
113
330
155
330
114
330
154
 75
     1
 76
     2
 52
45.0
 41
0.1
 77
     0
 78
     1
 53
45.0
 43
62.7811309658083
 44
-72.3161373035813
 45
-0.1414213562373095
 46
0.0
 79
     0
 98
        1
 10
0.0
 20
0.0
  0
HATCH
  5
1FB
330
76
100
AcDbEntity
  8
1
  6
Continuous
 62
     2
100
AcDbHatch
 10
0.0
 20
0.0
 30
0.0
210
0.0
220
0.0
230
1.0
  2
CUSTOM19
 70
     0
 71
     1
 91
        1
 92
        1
 93
        8
 72
     1
 10
9.047796812318381
 20
-33.28618185715402
 11
9.047796812318381
 21
-34.07144716327775
 72
     1
 10
9.047796812318381
 20
-34.07144716327775
 11
9.858895849793072
 21
-34.07144716327775
 72
     1
 10
9.858895849793072
 20
-34.07144716327775
 11
9.858895849793072
 21
-36.33999138096516
 72
     1
 10
9.858895849793072
 20
-36.33999138096516
 11
11.05168855195947
 21
-36.33999138096516
 72
     1
 10
11.05168855195947
 20
-36.33999138096516
 11
11.05168855195947
 21
-34.07144716327775
 72
     1
 10
11.05168855195947
 20
-34.07144716327775
 11
11.86278758943209
 21
-34.07144716327775
 72
     1
 10
11.86278758943209
 20
-34.07144716327775
 11
11.86278758943209
 21
-33.28618185715402
 72
     1
 10
11.86278758943209
 20
-33.28618185715402
 11
9.047796812318381
 21
-33.28618185715402
 97
        8
330
153
330
152
330
151
330
112
330
113
330
155
330
114
330
154
 75
     1
 76
     2
 52
45.0
 41
0.1
 77
     0
 78
     1
 53
45.0
 43
62.7811309658083
 44
-72.3161373035813
 45
-0.1414213562373095
 46
0.0
 79
     0
 98
        1
 10
0.0
 20
0.0
  0
HATCH
  5
1FC
330
76
100
AcDbEntity
  8
1
  6
Continuous
 62
     2
100
AcDbHatch
 10
0.0
 20
0.0
 30
0.0
210
0.0
220
0.0
230
1.0
  2
CUSTOM20
 70
     0
 71
     1
 91
        1
 92
        1
 93
       10
 72
     1
 10
11.71980339605747
 20
-29.92699138097976
 11
10.52701069389107
 21
-29.92699138097976
 72
     1
 10
10.52701069389107
 20
-29.92699138097976
 11
10.52701069389107
 21
-32.98080090479084
 72
     1
 10
10.52701069389107
 20
-32.98080090479084
 11
11.71980339605747
 21
-32.98080090479084
 72
     1
 10
11.71980339605747
 20
-32.98080090479084
 11
11.71980339605747
 21
-31.67202539458612
 72
     1
 10
11.71980339605747
 20
-31.67202539458612
 11
12.96030780631156
 21
-32.98080090479084
 72
     1
 10
12.96030780631156
 20
-32.98080090479084
 11
14.15310050847816
 21
-32.98080090479084
 72
     1
 10
14.15310050847816
 20
-32.98080090479084
 11
14.15310050847816
 21
-29.92699138097976
 72
     1
 10
14.15310050847816
 20
-29.92699138097976
 11
12.96030780631156
 21
-29.92699138097976
 72
     1
 10
12.96030780631156
 20
-29.92699138097976
 11
12.96030780631156
 21
-31.23576689118482
 72
     1
 10
12.96030780631156
 20
-31.23576689118482
 11
11.71980339605747
 21
-29.92699138097976
 97
       10
330
14D
330
117
330
118
330
119
330
11A
330
150
330
115
330
14F
330
14E
330
116
 75
     1
 76
     2
 52
45.0
 41
0.1
 77
     0
 78
     1
 53
45.0
 43
62.7811309658083
 44
-72.3161373035813
 45
-0.1414213562373095
 46
0.0
 79
     0
 98
        1
 10
0.0
 20
0.0
  0
HATCH
  5
1FD
330
76
100
AcDbEntity
  8
1
  6
Continuous
 62
     2
100
AcDbHatch
 10
0.0
 20
0.0
 30
0.0
210
0.0
220
0.0
230
1.0
  2
CUSTOM21
 70
     0
 71
     1
 91
        1
 92
        1
 93
       10
 72
     1
 10
11.71980339605747
 20
-29.92699138097976
 11
10.52701069389107
 21
-29.92699138097976
 72
     1
 10
10.52701069389107
 20
-29.92699138097976
 11
10.52701069389107
 21
-32.98080090479084
 72
     1
 10
10.52701069389107
 20
-32.98080090479084
 11
11.71980339605747
 21
-32.98080090479084
 72
     1
 10
11.71980339605747
 20
-32.98080090479084
 11
11.71980339605747
 21
-31.67202539458612
 72
     1
 10
11.71980339605747
 20
-31.67202539458612
 11
12.96030780631156
 21
-32.98080090479084
 72
     1
 10
12.96030780631156
 20
-32.98080090479084
 11
14.15310050847816
 21
-32.98080090479084
 72
     1
 10
14.15310050847816
 20
-32.98080090479084
 11
14.15310050847816
 21
-29.92699138097976
 72
     1
 10
14.15310050847816
 20
-29.92699138097976
 11
12.96030780631156
 21
-29.92699138097976
 72
     1
 10
12.96030780631156
 20
-29.92699138097976
 11
12.96030780631156
 21
-31.23576689118482
 72
     1
 10
12.96030780631156
 20
-31.23576689118482
 11
11.71980339605747
 21
-29.92699138097976
 97
       10
330
14D
330
117
330
118
330
119
330
11A
330
150
330
115
330
14F
330
14E
330
116
 75
     1
 76
     2
 52
45.0
 41
0.1
 77
     0
 78
     1
 53
45.0
 43
62.7811309658083
 44
-72.3161373035813
 45
-0.1414213562373095
 46
0.0
 79
     0
 98
        1
 10
0.0
 20
0.0
  0
HATCH
  5
1FE
330
76
100
AcDbEntity
  8
1
  6
Continuous
 62
     2
100
AcDbHatch
 10
0.0
 20
0.0
 30
0.0
210
0.0
220
0.0
230
1.0
  2
CUSTOM22
 70
     0
 71
     1
 91
        1
 92
        1
 93
       10
 72
     1
 10
6.471364575638887
 20
-33.28618185715402
 11
5.278571873471378
 21
-33.28618185715402
 72
     1
 10
5.278571873471378
 20
-33.28618185715402
 11
5.278571873471378
 21
-36.33999138096516
 72
     1
 10
5.278571873471378
 20
-36.33999138096516
 11
6.471364575638887
 21
-36.33999138096516
 72
     1
 10
6.471364575638887
 20
-36.33999138096516
 11
6.471364575638887
 21
-35.03121587076066
 72
     1
 10
6.471364575638887
 20
-35.03121587076066
 11
7.711868985891869
 21
-36.33999138096516
 72
     1
 10
7.711868985891869
 20
-36.33999138096516
 11
8.904661688058269
 21
-36.33999138096516
 72
     1
 10
8.904661688058269
 20
-36.33999138096516
 11
8.904661688058269
 21
-33.28618185715402
 72
     1
 10
8.904661688058269
 20
-33.28618185715402
 11
7.711868985891869
 21
-33.28618185715402
 72
     1
 10
7.711868985891869
 20
-33.28618185715402
 11
7.711868985891869
 21
-34.59495736735926
 72
     1
 10
7.711868985891869
 20
-34.59495736735926
 11
6.471364575638887
 21
-33.28618185715402
 97
       10
330
11C
330
11D
330
11E
330
14A
330
11F
330
120
330
149
330
14C
330
14B
330
11B
 75
     1
 76
     2
 52
45.0
 41
0.1
 77
     0
 78
     1
 53
45.0
 43
62.7811309658083
 44
-72.3161373035813
 45
-0.1414213562373095
 46
0.0
 79
     0
 98
        1
 10
0.0
 20
0.0
  0
HATCH
  5
1FF
330
76
100
AcDbEntity
  8
1
  6
Continuous
 62
     2
100
AcDbHatch
 10
0.0
 20
0.0
 30
0.0
210
0.0
220
0.0
230
1.0
  2
CUSTOM23
 70
     0
 71
     1
 91
        1
 92
        1
 93
       10
 72
     1
 10
6.471364575638887
 20
-33.28618185715402
 11
5.278571873471378
 21
-33.28618185715402
 72
     1
 10
5.278571873471378
 20
-33.28618185715402
 11
5.278571873471378
 21
-36.33999138096516
 72
     1
 10
5.278571873471378
 20
-36.33999138096516
 11
6.471364575638887
 21
-36.33999138096516
 72
     1
 10
6.471364575638887
 20
-36.33999138096516
 11
6.471364575638887
 21
-35.03121587076066
 72
     1
 10
6.471364575638887
 20
-35.03121587076066
 11
7.711868985891869
 21
-36.33999138096516
 72
     1
 10
7.711868985891869
 20
-36.33999138096516
 11
8.904661688058269
 21
-36.33999138096516
 72
     1
 10
8.904661688058269
 20
-36.33999138096516
 11
8.904661688058269
 21
-33.28618185715402
 72
     1
 10
8.904661688058269
 20
-33.28618185715402
 11
7.711868985891869
 21
-33.28618185715402
 72
     1
 10
7.711868985891869
 20
-33.28618185715402
 11
7.711868985891869
 21
-34.59495736735926
 72
     1
 10
7.711868985891869
 20
-34.59495736735926
 11
6.471364575638887
 21
-33.28618185715402
 97
       10
330
11C
330
11D
330
11E
330
14A
330
11F
330
120
330
149
330
14C
330
14B
330
11B
 75
     1
 76
     2
 52
45.0
 41
0.1
 77
     0
 78
     1
 53
45.0
 43
62.7811309658083
 44
-72.3161373035813
 45
-0.1414213562373095
 46
0.0
 79
     0
 98
        1
 10
0.0
 20
0.0
  0
HATCH
  5
200
330
76
100
AcDbEntity
  8
1
  6
Continuous
 62
     2
100
AcDbHatch
 10
0.0
 20
0.0
 30
0.0
210
0.0
220
0.0
230
1.0
  2
CUSTOM24
 70
     0
 71
     1
 91
        1
 92
        1
 93
       12
 72
     1
 10
5.469569636703568
 20
-29.92699138097976
 11
5.469569636703568
 21
-32.98080090479084
 72
     1
 10
5.469569636703568
 20
-32.98080090479084
 11
4.276776934537082
 21
-32.98080090479084
 72
     1
 10
4.276776934537082
 20
-32.98080090479084
 11
4.276776934537082
 21
-31.84652879594717
 72
     1
 10
4.276776934537082
 20
-31.84652879594717
 11
3.227119356629686
 21
-31.84652879594717
 72
     1
 10
3.227119356629686
 20
-31.84652879594717
 11
3.227119356629686
 21
-32.98080090479084
 72
     1
 10
3.227119356629686
 20
-32.98080090479084
 11
2.034326654463087
 21
-32.98080090479084
 72
     1
 10
2.034326654463087
 20
-32.98080090479084
 11
2.034326654463087
 21
-29.92699138097976
 72
     1
 10
2.034326654463087
 20
-29.92699138097976
 11
3.227119356629686
 21
-29.92699138097976
 72
     1
 10
3.227119356629686
 20
-29.92699138097976
 11
3.227119356629686
 21
-30.99582471431432
 72
     1
 10
3.227119356629686
 20
-30.99582471431432
 11
4.276776934537082
 21
-30.99582471431432
 72
     1
 10
4.276776934537082
 20
-30.99582471431432
 11
4.276776934537082
 21
-29.92699138097976
 72
     1
 10
4.276776934537082
 20
-29.92699138097976
 11
5.469569636703568
 21
-29.92699138097976
 97
       12
330
144
330
143
330
142
330
12A
330
12B
330
141
330
12C
330
140
330
13F
330
13E
330
128
330
129
 75
     1
 76
     2
 52
45.0
 41
0.1
 77
     0
 78
     1
 53
45.0
 43
62.7811309658083
 44
-72.3161373035813
 45
-0.1414213562373095
 46
0.0
 79
     0
 98
        1
 10
0.0
 20
0.0
  0
HATCH
  5
201
330
76
100
AcDbEntity
  8
1
  6
Continuous
 62
     2
100
AcDbHatch
 10
0.0
 20
0.0
 30
0.0
210
0.0
220
0.0
230
1.0
  2
CUSTOM25
 70
     0
 71
     1
 91
        1
 92
        1
 93
       12
 72
     1
 10
5.469569636703568
 20
-29.92699138097976
 11
5.469569636703568
 21
-32.98080090479084
 72
     1
 10
5.469569636703568
 20
-32.98080090479084
 11
4.276776934537082
 21
-32.98080090479084
 72
     1
 10
4.276776934537082
 20
-32.98080090479084
 11
4.276776934537082
 21
-31.84652879594717
 72
     1
 10
4.276776934537082
 20
-31.84652879594717
 11
3.227119356629686
 21
-31.84652879594717
 72
     1
 10
3.227119356629686
 20
-31.84652879594717
 11
3.227119356629686
 21
-32.98080090479084
 72
     1
 10
3.227119356629686
 20
-32.98080090479084
 11
2.034326654463087
 21
-32.98080090479084
 72
     1
 10
2.034326654463087
 20
-32.98080090479084
 11
2.034326654463087
 21
-29.92699138097976
 72
     1
 10
2.034326654463087
 20
-29.92699138097976
 11
3.227119356629686
 21
-29.92699138097976
 72
     1
 10
3.227119356629686
 20
-29.92699138097976
 11
3.227119356629686
 21
-30.99582471431432
 72
     1
 10
3.227119356629686
 20
-30.99582471431432
 11
4.276776934537082
 21
-30.99582471431432
 72
     1
 10
4.276776934537082
 20
-30.99582471431432
 11
4.276776934537082
 21
-29.92699138097976
 72
     1
 10
4.276776934537082
 20
-29.92699138097976
 11
5.469569636703568
 21
-29.92699138097976
 97
       12
330
144
330
143
330
142
330
12A
330
12B
330
141
330
12C
330
140
330
13F
330
13E
330
128
330
129
 75
     1
 76
     2
 52
45.0
 41
0.1
 77
     0
 78
     1
 53
45.0
 43
62.7811309658083
 44
-72.3161373035813
 45
-0.1414213562373095
 46
0.0
 79
     0
 98
        1
 10
0.0
 20
0.0
  0
ENDBLK
  5
78
330
76
100
AcDbEntity
  8
0
100
AcDbBlockEnd
  0
BLOCK
  5
7A
330
79
100
AcDbEntity
  8
0
100
AcDbBlockBegin
  2
_punkt
 70
     0
 10
117.3468734504923
 20
-43.63349138098147
 30
0.0
  3
_punkt
  1

  0
LINE
  5
202
330
79
100
AcDbEntity
  8
1
  6
Continuous
 62
     2
100
AcDbLine
 10
117.3468734504924
 20
-43.63349138098147
 30
0.0
 11
117.3468734504924
 21
-48.63349138098096
 31
0.0
  0
LINE
  5
203
330
79
100
AcDbEntity
  8
1
  6
Continuous
 62
     2
100
AcDbLine
 10
117.3468734504924
 20
-43.63349138098147
 30
0.0
 11
122.34687345049
 21
-43.63349138098147
 31
0.0
  0
ENDBLK
  5
7B
330
79
100
AcDbEntity
  8
0
100
AcDbBlockEnd
  0
BLOCK
  5
7F
330
7C
100
AcDbEntity
  8
0
100
AcDbBlockBegin
  2
A3I_CS
 70
     0
 10
117.3468734504924
 20
-48.63349138098096
 30
0.0
  3
A3I_CS
  1

  0
INSERT
  5
7D
330
7C
100
AcDbEntity
  8
1
100
AcDbBlockReference
  2
_rahmen
 10
117.3468734504924
 20
-48.63349138098096
 30
0.0
  0
INSERT
  5
7E
330
7C
100
AcDbEntity
  8
1
100
AcDbBlockReference
  2
_punkt
 10
117.3468734504923
 20
-43.63349138098147
 30
0.0
  0
ENDBLK
  5
80
330
7C
100
AcDbEntity
  8
0
100
AcDbBlockEnd
  0
BLOCK
  5
82
330
81
100
AcDbEntity
  8
0
100
AcDbBlockBegin
  2
CES_SRG_BK_15-select__1
 70
     0
 10
20.80625152718246
 20
0.70609333071186
 30
0.0
  3
CES_SRG_BK_15-select__1
  1

  0
LINE
  5
204
330
81
100
AcDbEntity
  8
0
  6
Continuous
 62
     7
100
AcDbLine
 10
37.69374690097902
 20
0.70609333071186
 30
0.0
 11
37.69374690098327
 21
18.45961410829167
 31
0.0
  0
LINE
  5
205
330
81
100
AcDbEntity
  8
0
  6
Continuous
 62
     7
100
AcDbLine
 10
22.38125152718666
 20
24.69860411925617
 30
0.0
 11
27.30625152718665
 21
28.96377923289451
 31
0.0
  0
LINE
  5
206
330
81
100
AcDbEntity
  8
0
  6
Continuous
 62
     7
100
AcDbLine
 10
27.30625152718665
 20
28.96377923289451
 30
0.0
 11
27.3062515271879
 21
34.15993165560076
 31
0.0
  0
LINE
  5
207
330
81
100
AcDbEntity
  8
0
  6
Continuous
 62
     7
100
AcDbLine
 10
29.30625152718791
 20
35.89198246316965
 30
0.0
 11
27.3062515271879
 21
34.15993165560076
 31
0.0
  0
LINE
  5
208
330
81
100
AcDbEntity
  8
0
  6
Continuous
 62
     7
100
AcDbLine
 10
46.19374690098447
 20
31.0169824631656
 30
0.0
 11
46.19374690097897
 21
8.06730926287952
 31
0.0
  0
LINE
  5
209
330
81
100
AcDbEntity
  8
0
  6
Continuous
 62
     7
100
AcDbLine
 10
36.17710633144048
 20
25.88886782619247
 30
0.0
 11
34.87806822576381
 21
26.26386782619278
 31
0.0
  0
LINE
  5
20A
330
81
100
AcDbEntity
  8
0
  6
Continuous
 62
     7
100
AcDbLine
 10
34.87806822576381
 20
26.26386782619278
 30
0.0
 11
34.87806822576324
 21
24.4108479246259
 31
0.0
  0
LINE
  5
20B
330
81
100
AcDbEntity
  8
0
  6
Continuous
 62
     7
100
AcDbLine
 10
32.52193020240637
 20
25.09100638564296
 30
0.0
 11
32.52193020240696
 21
26.94402628720984
 31
0.0
  0
LINE
  5
20C
330
81
100
AcDbEntity
  8
0
  6
Continuous
 62
     7
100
AcDbLine
 10
37.05206154711141
 20
26.15040621365492
 30
0.0
 11
37.05206154711156
 21
26.53907543301772
 31
0.0
  0
LINE
  5
20D
330
81
100
AcDbEntity
  8
0
  6
Continuous
 62
     7
100
AcDbLine
 10
36.17710633144105
 20
27.81199314765695
 30
0.0
 11
36.17710633144048
 21
25.88886782619247
 31
0.0
  0
LINE
  5
20E
330
81
100
AcDbEntity
  8
0
  6
Continuous
 62
     7
100
AcDbLine
 10
38.35109965278861
 20
27.50443279387334
 30
0.0
 11
36.17710633144048
 21
25.88886782619247
 31
0.0
  0
LINE
  5
20F
330
81
100
AcDbEntity
  8
0
  6
Continuous
 62
     7
100
AcDbLine
 10
34.87806822576324
 20
24.4108479246259
 30
0.0
 11
37.05206154711141
 21
26.15040621365492
 31
0.0
  0
LINE
  5
210
330
81
100
AcDbEntity
  8
0
  6
Continuous
 62
     7
100
AcDbLine
 10
34.87806822576324
 20
24.4108479246259
 30
0.0
 11
32.52193020240637
 21
25.09100638564296
 31
0.0
  0
LINE
  5
211
330
81
100
AcDbEntity
  8
0
  6
Continuous
 62
     7
100
AcDbLine
 10
44.19374690098445
 20
29.28493165559672
 30
0.0
 11
44.19374690098321
 21
24.08877923289046
 31
0.0
  0
LINE
  5
212
330
81
100
AcDbEntity
  8
0
  6
Continuous
 62
     7
100
AcDbLine
 10
44.19374690098321
 20
24.08877923289046
 30
0.0
 11
43.41874690098319
 21
23.41760954495753
 31
0.0
  0
LINE
  5
213
330
81
100
AcDbEntity
  8
0
  6
Continuous
 62
     7
100
AcDbLine
 10
37.05206154711141
 20
26.15040621365492
 30
0.0
 11
44.19374690098321
 21
24.08877923289046
 31
0.0
  0
LINE
  5
214
330
81
100
AcDbEntity
  8
0
  6
Continuous
 62
     7
100
AcDbLine
 10
22.38125152718666
 20
24.69860411925617
 30
0.0
 11
21.69823882529443
 21
24.60709776831014
 31
0.0
  0
LINE
  5
215
330
81
100
AcDbEntity
  8
0
  6
Continuous
 62
     7
100
AcDbLine
 10
21.69823882529443
 20
24.60709776831014
 30
0.0
 11
21.69823882529431
 21
24.10709776830993
 31
0.0
  0
LINE
  5
216
330
81
100
AcDbEntity
  8
0
  6
Continuous
 62
     7
100
AcDbLine
 10
20.80625152718672
 20
23.33461410829571
 30
0.0
 11
20.80625152718246
 21
5.58109333071589
 31
0.0
  0
LINE
  5
217
330
81
100
AcDbEntity
  8
0
  6
Continuous
 62
     7
100
AcDbLine
 10
21.69823882529443
 20
24.60709776831014
 30
0.0
 11
21.88125152718666
 21
24.26559141736394
 31
0.0
  0
LINE
  5
218
330
81
100
AcDbEntity
  8
0
  6
Continuous
 62
     7
100
AcDbLine
 10
20.80625152718672
 20
23.33461410829571
 30
0.0
 11
21.88125152718666
 21
24.26559141736394
 31
0.0
  0
LINE
  5
219
330
81
100
AcDbEntity
  8
0
  6
Continuous
 62
     7
100
AcDbLine
 10
42.91874690097897
 20
5.2310760654855
 30
0.0
 11
43.60175960287116
 21
5.3225824164315
 31
0.0
  0
LINE
  5
21A
330
81
100
AcDbEntity
  8
0
  6
Continuous
 62
     7
100
AcDbLine
 10
42.91874690097897
 20
5.2310760654855
 30
0.0
 11
42.91874690098322
 21
22.98459684306533
 31
0.0
  0
LINE
  5
21B
330
81
100
AcDbEntity
  8
0
  6
Continuous
 62
     7
100
AcDbLine
 10
42.91874690098322
 20
22.98459684306533
 30
0.0
 11
43.6017596028754
 21
23.07610319401131
 31
0.0
  0
LINE
  5
21C
330
81
100
AcDbEntity
  8
0
  6
Continuous
 62
     7
100
AcDbLine
 10
43.6017596028754
 20
23.07610319401131
 30
0.0
 11
43.41874690098319
 21
23.41760954495753
 31
0.0
  0
LINE
  5
21D
330
81
100
AcDbEntity
  8
0
  6
Continuous
 62
     7
100
AcDbLine
 10
43.60175960287116
 20
5.3225824164315
 30
0.0
 11
43.6017596028754
 21
23.07610319401131
 31
0.0
  0
LINE
  5
21E
330
81
100
AcDbEntity
  8
0
  6
Continuous
 62
     7
100
AcDbLine
 10
46.19374690097897
 20
8.06730926287952
 30
0.0
 11
43.60175960287128
 21
5.82258241643169
 31
0.0
  0
LINE
  5
21F
330
81
100
AcDbEntity
  8
0
  6
Continuous
 62
     7
100
AcDbLine
 10
33.14889877538275
 20
31.17729079650997
 30
0.0
 11
31.22289209673087
 21
29.24215160867463
 31
0.0
  0
LINE
  5
220
330
81
100
AcDbEntity
  8
0
  6
Continuous
 62
     7
100
AcDbLine
 10
38.35109965278861
 20
27.50443279387334
 30
0.0
 11
38.35109965278927
 21
29.67554475803414
 31
0.0
  0
LINE
  5
221
330
81
100
AcDbEntity
  8
0
  6
Continuous
 62
     7
100
AcDbLine
 10
31.22289209673028
 20
27.31902628721015
 30
0.0
 11
31.22289209673087
 21
29.24215160867463
 31
0.0
  0
LINE
  5
222
330
81
100
AcDbEntity
  8
0
  6
Continuous
 62
     7
100
AcDbLine
 10
31.22289209673087
 20
29.24215160867463
 30
0.0
 11
36.17710633144105
 21
27.81199314765695
 31
0.0
  0
LINE
  5
223
330
81
100
AcDbEntity
  8
0
  6
Continuous
 62
     7
100
AcDbLine
 10
38.35109965278927
 20
29.67554475803414
 30
0.0
 11
36.17710633144105
 21
27.81199314765695
 31
0.0
  0
LINE
  5
224
330
81
100
AcDbEntity
  8
0
  6
Continuous
 62
     7
100
AcDbLine
 10
32.52193020240696
 20
26.94402628720984
 30
0.0
 11
31.22289209673028
 21
27.31902628721015
 31
0.0
  0
LINE
  5
225
330
81
100
AcDbEntity
  8
0
  6
Continuous
 62
     7
100
AcDbLine
 10
44.19374690098445
 20
29.28493165559672
 30
0.0
 11
46.19374690098447
 21
31.0169824631656
 31
0.0
  0
LINE
  5
226
330
81
100
AcDbEntity
  8
0
  6
Continuous
 62
     7
100
AcDbLine
 10
27.30625152718665
 20
28.96377923289451
 30
0.0
 11
31.22289209673045
 21
27.83314248932103
 31
0.0
  0
LINE
  5
227
330
81
100
AcDbEntity
  8
0
  6
Continuous
 62
     7
100
AcDbLine
 10
38.35109965278927
 20
29.67554475803414
 30
0.0
 11
33.14889877538275
 21
31.17729079650997
 31
0.0
  0
LINE
  5
228
330
81
100
AcDbEntity
  8
0
  6
Continuous
 62
     7
100
AcDbLine
 10
27.3062515271879
 20
34.15993165560076
 30
0.0
 11
44.19374690098445
 21
29.28493165559672
 31
0.0
  0
LINE
  5
229
330
81
100
AcDbEntity
  8
0
  6
Continuous
 62
     7
100
AcDbLine
 10
29.30625152718791
 20
35.89198246316965
 30
0.0
 11
46.19374690098447
 21
31.0169824631656
 31
0.0
  0
LINE
  5
22A
330
81
100
AcDbEntity
  8
0
  6
Continuous
 62
     7
100
AcDbLine
 10
20.80625152718672
 20
23.33461410829571
 30
0.0
 11
37.69374690098327
 21
18.45961410829167
 31
0.0
  0
LINE
  5
22B
330
81
100
AcDbEntity
  8
0
  6
Continuous
 62
     7
100
AcDbLine
 10
42.91874690098322
 20
22.98459684306533
 30
0.0
 11
37.69374690098327
 21
18.45961410829167
 31
0.0
  0
LINE
  5
22C
330
81
100
AcDbEntity
  8
0
  6
Continuous
 62
     7
100
AcDbLine
 10
37.69374690097902
 20
0.70609333071186
 30
0.0
 11
20.80625152718246
 21
5.58109333071589
 31
0.0
  0
LINE
  5
22D
330
81
100
AcDbEntity
  8
0
  6
Continuous
 62
     7
100
AcDbLine
 10
42.91874690097897
 20
5.2310760654855
 30
0.0
 11
37.69374690097902
 21
0.70609333071186
 31
0.0
  0
SPLINE
  5
22E
330
81
100
AcDbEntity
  8
0
  6
Continuous
 62
     7
100
AcDbSpline
210
0.0
220
0.0
230
1.0
 70
  1064
 71
     3
 72
    11
 73
     7
 74
     5
 42
0.000000001
 43
0.0000000001
 44
0.00000001
 40
0.0
 40
0.0
 40
0.0
 40
0.0
 40
1.097342405839128
 40
2.142169017018764
 40
3.145308353185829
 40
4.12419207927108
 40
4.12419207927108
 40
4.12419207927108
 40
4.12419207927108
 10
22.75480868584391
 20
13.89539702073387
 30
0.0
 10
22.77244438325684
 20
14.2619882189002
 30
0.0
 10
22.80687179662522
 20
14.97762656546822
 30
0.0
 10
23.10694432316384
 20
15.99049682901032
 30
0.0
 10
23.57146171965443
 20
16.89923088440774
 30
0.0
 10
24.0302923349223
 20
17.37891839608028
 30
0.0
 10
24.25690010854058
 20
17.61582698626332
 30
0.0
 11
22.75480868584391
 21
13.89539702073387
 31
0.0
 11
22.852310005508
 21
14.98839923911658
 31
0.0
 11
23.1418714264744
 21
15.99230004844638
 31
0.0
 11
23.614800791224
 21
16.87696176251151
 31
0.0
 11
24.25690010854058
 21
17.61582698626332
 31
0.0
  0
SPLINE
  5
22F
330
81
100
AcDbEntity
  8
0
  6
Continuous
 62
     7
100
AcDbSpline
210
0.0
220
0.0
230
1.0
 70
  1064
 71
     3
 72
    11
 73
     7
 74
     5
 42
0.000000001
 43
0.0000000001
 44
0.00000001
 40
0.0
 40
0.0
 40
0.0
 40
0.0
 40
0.2547098409948779
 40
0.5154521000235723
 40
0.7871386633995587
 40
1.072837837626871
 40
1.072837837626871
 40
1.072837837626871
 40
1.072837837626871
 10
41.97348726019112
 20
25.81757774491678
 30
0.0
 10
42.03396054251693
 20
25.87777985301771
 30
0.0
 10
42.15633931447463
 20
25.99960987509508
 30
0.0
 10
42.2808057559387
 20
26.23424689274922
 30
0.0
 10
42.36116556693261
 20
26.49715257463153
 30
0.0
 10
42.37037373192804
 20
26.68338539561392
 30
0.0
 10
42.37509355303641
 20
26.77884274235144
 30
0.0
 11
41.97348726019112
 21
25.81757774491678
 31
0.0
 11
42.14492667140338
 21
26.00595404964989
 31
0.0
 11
42.27142633731607
 21
26.23395484219476
 31
0.0
 11
42.34896932373617
 21
26.49434046979696
 31
0.0
 11
42.37509355303641
 21
26.77884274235144
 31
0.0
  0
SPLINE
  5
230
330
81
100
AcDbEntity
  8
0
  6
Continuous
 62
     7
100
AcDbSpline
210
0.0
220
0.0
230
1.0
 70
  1064
 71
     3
 72
    19
 73
    15
 74
    13
 42
0.000000001
 43
0.0000000001
 44
0.00000001
 40
0.0
 40
0.0
 40
0.0
 40
0.0
 40
0.3744562152559315
 40
0.7670704375272042
 40
1.189292076436523
 40
1.643305351972153
 40
2.123152451108063
 40
2.617299908807233
 40
3.111447366506411
 40
3.591294465642327
 40
4.045307741177963
 40
4.467529380087281
 40
4.86014360235855
 40
5.234599817614479
 40
5.234599817614479
 40
5.234599817614479
 40
5.234599817614479
 10
39.48580331150082
 20
28.6901077397869
 30
0.0
 10
39.39961692040159
 20
28.59811801798465
 30
0.0
 10
39.22306482684157
 20
28.40967783085434
 30
0.0
 10
39.09339672095945
 20
28.02370749717398
 30
0.0
 10
39.07057019650008
 20
27.59801870477453
 30
0.0
 10
39.16135208955837
 20
27.15042261007026
 30
0.0
 10
39.35541690110917
 20
26.71225394720415
 30
0.0
 10
39.64031681538943
 20
26.31045661387084
 30
0.0
 10
39.99729305373739
 20
25.97107920819153
 30
0.0
 10
40.40324401572649
 20
25.71640933431508
 30
0.0
 10
40.83328041803086
 20
25.56261626296633
 30
0.0
 10
41.25786398818133
 20
25.5243959784086
 30
0.0
 10
41.65839956224946
 20
25.59759550074516
 30
0.0
 10
41.87012870607087
 20
25.74541672900003
 30
0.0
 10
41.97348726019112
 20
25.81757774491678
 30
0.0
 11
39.48580331150082
 21
28.6901077397869
 31
0.0
 11
39.24938704228636
 21
28.39972039722785
 31
0.0
 11
39.11384716373153
 21
28.03124397631755
 31
0.0
 11
39.08842208917133
 21
27.60978854563387
 31
0.0
 11
39.17484281791452
 21
27.16407618001215
 31
0.0
 11
39.3672215662045
 21
26.72448130350123
 31
0.0
 11
39.65244653776967
 21
26.32096126159297
 31
0.0
 11
40.01108137866461
 21
25.98101603141278
 31
0.0
 11
40.41868479225968
 21
25.72781118257708
 31
0.0
 11
40.84747980976412
 21
25.57860364862521
 31
0.0
 11
41.26824465988412
 21
25.54356002762724
 31
0.0
 11
41.65230457533925
 21
25.62507022813073
 31
0.0
 11
41.97348726019112
 21
25.81757774491678
 31
0.0
  0
SPLINE
  5
231
330
81
100
AcDbEntity
  8
0
  6
Continuous
 62
     7
100
AcDbSpline
210
0.0
220
0.0
230
1.0
 70
  1064
 71
     3
 72
    17
 73
    13
 74
    11
 42
0.000000001
 43
0.0000000001
 44
0.00000001
 40
0.0
 40
0.0
 40
0.0
 40
0.0
 40
0.4123445935380337
 40
0.849389216491542
 40
1.303343801936785
 40
1.763501209713166
 40
2.218152175251143
 40
2.656475578578491
 40
3.070450178925529
 40
3.45677680384721
 40
3.818525624584726
 40
4.165610292794244
 40
4.165610292794244
 40
4.165610292794244
 40
4.165610292794244
 10
42.37509355303641
 20
26.77884274235144
 30
0.0
 10
42.36509045207654
 20
26.91648487381377
 30
0.0
 10
42.344485035349
 20
27.20001409502709
 30
0.0
 10
42.19404821026112
 20
27.61283700256798
 30
0.0
 10
41.96808030981646
 20
28.00440572099043
 30
0.0
 10
41.66916678020168
 20
28.35278036265355
 30
0.0
 10
41.31692734452917
 20
28.63852035939288
 30
0.0
 10
40.93031207211876
 20
28.84517950468882
 30
0.0
 10
40.53002918618515
 20
28.96135331027872
 30
0.0
 10
40.14009730465145
 20
28.97647792842952
 30
0.0
 10
39.77523367303678
 20
28.89565116611941
 30
0.0
 10
39.58094026689362
 20
28.75767071853908
 30
0.0
 10
39.48580331150082
 20
28.6901077397869
 30
0.0
 11
42.37509355303641
 21
26.77884274235144
 31
0.0
 11
42.32683519301898
 21
27.18835366241648
 31
0.0
 11
42.18489184522328
 21
27.60170591883469
 31
0.0
 11
41.95758839978489
 21
27.99465363657212
 31
0.0
 11
41.65825855654299
 21
28.34414825004229
 31
0.0
 11
41.30445923598248
 21
28.62968903795822
 31
0.0
 11
40.91694355041648
 21
28.83452799899067
 31
0.0
 11
40.51844154913028
 21
28.94664903055642
 31
0.0
 11
40.13232794286466
 21
28.95947658693225
 31
0.0
 11
39.78125105693486
 21
28.87225713025873
 31
0.0
 11
39.48580331150082
 21
28.6901077397869
 31
0.0
  0
SPLINE
  5
232
330
81
100
AcDbEntity
  8
0
  6
Continuous
 62
     7
100
AcDbSpline
210
0.0
220
0.0
230
1.0
 70
  1064
 71
     3
 72
    19
 73
    15
 74
    13
 42
0.000000001
 43
0.0000000001
 44
0.00000001
 40
0.0
 40
0.0
 40
0.0
 40
0.0
 40
1.13317159844295
 40
2.302830263116693
 40
3.533685162923612
 40
4.83807644030451
 40
6.215672948622443
 40
7.655396925910518
 40
9.138204908286598
 40
10.64003800551352
 40
12.13473885519677
 40
13.59692908985171
 40
15.00490229458453
 40
16.34356883443735
 40
16.34356883443735
 40
16.34356883443735
 40
16.34356883443735
 10
34.07478162210305
 20
6.279113916809017
 30
0.0
 10
33.76303347486738
 20
6.061943935623032
 30
0.0
 10
33.12949917453513
 20
5.620611314580763
 30
0.0
 10
31.97768686413383
 20
5.293312298738519
 30
0.0
 10
30.73751032346706
 20
5.222560058399653
 30
0.0
 10
29.43992873406327
 20
5.429807639902124
 30
0.0
 10
28.14054226721824
 20
5.89685069753456
 30
0.0
 10
26.88733963299614
 20
6.605754242125911
 30
0.0
 10
25.7286881554378
 20
7.527589940100418
 30
0.0
 10
24.70977778085557
 20
8.626328231256121
 30
0.0
 10
23.86815794362492
 20
9.859062184233917
 30
0.0
 10
23.2444960134482
 20
11.17806058883643
 30
0.0
 10
22.83624259976019
 20
12.53215547577203
 30
0.0
 10
22.78149281388191
 20
13.44869224100339
 30
0.0
 10
22.75480868584391
 20
13.89539702073387
 30
0.0
 11
34.07478162210305
 21
6.279113916809017
 31
0.0
 11
33.11118779539907
 21
5.682821353344377
 31
0.0
 11
31.99262604242045
 21
5.34088421122188
 31
0.0
 11
30.76398900383336
 21
5.267027475168645
 31
0.0
 11
29.4745883290815
 21
5.464213953270985
 31
0.0
 11
28.17617377365051
 21
5.924531000140696
 31
0.0
 11
26.92085695824962
 21
6.629502506605746
 31
0.0
 11
25.7590202314939
 21
7.550835743657453
 31
0.0
 11
24.73729315289625
 21
8.651552068993354
 31
0.0
 11
23.89668346271606
 21
9.887475196802992
 31
0.0
 11
23.27092788370181
 21
11.20900091943487
 31
0.0
 11
22.88514224065002
 21
12.56309027422919
 31
0.0
 11
22.75480868584391
 21
13.89539702073387
 31
0.0
  0
SPLINE
  5
233
330
81
100
AcDbEntity
  8
0
  6
Continuous
 62
     7
100
AcDbSpline
210
0.0
220
0.0
230
1.0
 70
  1064
 71
     3
 72
    11
 73
     7
 74
     5
 42
0.000000001
 43
0.0000000001
 44
0.00000001
 40
0.0
 40
0.0
 40
0.0
 40
0.0
 40
1.440034357851117
 40
2.902416318911334
 40
4.364798279971553
 40
5.80483263782266
 40
5.80483263782266
 40
5.80483263782266
 40
5.80483263782266
 10
31.30342674240203
 20
17.58963635190435
 30
0.0
 10
31.52055751801886
 20
17.16047732726958
 30
0.0
 10
31.95818869113074
 20
16.29549925282759
 30
0.0
 10
32.84727433922938
 20
15.13568536228252
 30
0.0
 10
33.86818015278569
 20
14.09003108375485
 30
0.0
 10
34.66176768369347
 20
13.53332025780271
 30
0.0
 10
35.05550627871629
 20
13.2571080912805
 30
0.0
 11
31.30342674240203
 21
17.58963635190435
 31
0.0
 11
31.99262391950003
 21
16.32523680872542
 31
0.0
 11
32.86935684496216
 21
15.15480937322631
 31
0.0
 11
33.90253201838585
 21
14.11986489868707
 31
0.0
 11
35.05550627871629
 21
13.2571080912805
 31
0.0
  0
SPLINE
  5
234
330
81
100
AcDbEntity
  8
0
  6
Continuous
 62
     7
100
AcDbSpline
210
0.0
220
0.0
230
1.0
 70
  1064
 71
     3
 72
    15
 73
    11
 74
     9
 42
0.000000001
 43
0.0000000001
 44
0.00000001
 40
0.0
 40
0.0
 40
0.0
 40
0.0
 40
0.4707114933045999
 40
0.9524961990666645
 40
1.431994747186822
 40
1.896251429612198
 40
2.33512922168265
 40
2.743755953951206
 40
3.124712319572801
 40
3.488876974056526
 40
3.488876974056526
 40
3.488876974056526
 40
3.488876974056526
 10
32.29184522416956
 20
30.31617337079733
 30
0.0
 10
32.22849945599313
 20
30.46027735826662
 30
0.0
 10
32.10031773462191
 20
30.7518752888544
 30
0.0
 10
31.80379151212427
 20
31.13172061355833
 30
0.0
 10
31.44917837286419
 20
31.45138608287335
 30
0.0
 10
31.04961157015824
 20
31.68755331999024
 30
0.0
 10
30.63058859554094
 20
31.82685148026297
 30
0.0
 10
30.21894235157801
 20
31.85602329504761
 30
0.0
 10
29.83189634739981
 20
31.7796942137646
 30
0.0
 10
29.62676531205579
 20
31.63555380725721
 30
0.0
 10
29.52651116797978
 20
31.56510773979002
 30
0.0
 11
32.29184522416956
 21
30.31617337079733
 31
0.0
 11
32.08494354714298
 21
30.73897474677046
 31
0.0
 11
31.7932526611017
 21
31.12242347734217
 31
0.0
 11
31.43558531868078
 21
31.44178679696369
 31
0.0
 11
31.03501144823591
 21
31.67646709481448
 31
0.0
 11
30.61736726261842
 21
31.81132647310491
 31
0.0
 11
30.2095904483762
 21
31.83766804677155
 31
0.0
 11
29.8379825194815
 21
31.75379132813505
 31
0.0
 11
29.52651116797978
 21
31.56510773979002
 31
0.0
  0
SPLINE
  5
235
330
81
100
AcDbEntity
  8
0
  6
Continuous
 62
     7
100
AcDbSpline
210
0.0
220
0.0
230
1.0
 70
  1064
 71
     3
 72
    11
 73
     7
 74
     5
 42
0.000000001
 43
0.0000000001
 44
0.00000001
 40
0.0
 40
0.0
 40
0.0
 40
0.0
 40
0.3549681902609634
 40
0.7155528236794578
 40
1.076137457097953
 40
1.431105647358916
 40
1.431105647358916
 40
1.431105647358916
 40
1.431105647358916
 10
31.30795772300343
 20
31.52879638577404
 30
0.0
 10
31.3612229978392
 20
31.42287354537943
 30
0.0
 10
31.46859634427615
 20
31.20935191997327
 30
0.0
 10
31.68765747918035
 20
30.92325160107338
 30
0.0
 10
31.93952891042046
 20
30.6655658323061
 30
0.0
 10
32.13552146305413
 20
30.52879069072953
 30
0.0
 10
32.23274856164643
 20
30.46093990650475
 30
0.0
 11
31.30795772300343
 21
31.52879638577404
 31
0.0
 11
31.47717546309827
 21
31.2167582903243
 31
0.0
 11
31.69315439424864
 21
30.92801206916498
 31
0.0
 11
31.94808490439371
 21
30.67299890493258
 31
0.0
 11
32.23274856164643
 21
30.46093990650475
 31
0.0
  0
SPLINE
  5
236
330
81
100
AcDbEntity
  8
0
  6
Continuous
 62
     7
100
AcDbSpline
210
0.0
220
0.0
230
1.0
 70
  1064
 71
     3
 72
    11
 73
     7
 74
     5
 42
0.000000001
 43
0.0000000001
 44
0.00000001
 40
0.0
 40
0.0
 40
0.0
 40
0.0
 40
0.3549681902609632
 40
0.715552823679459
 40
1.07613745709796
 40
1.43110564735892
 40
1.43110564735892
 40
1.43110564735892
 40
1.43110564735892
 10
41.26724986652447
 20
28.65379638577093
 30
0.0
 10
41.32051514136025
 20
28.54787354537632
 30
0.0
 10
41.42788848779719
 20
28.33435191997016
 30
0.0
 10
41.64694962270137
 20
28.04825160107026
 30
0.0
 10
41.89882105394149
 20
27.79056583230298
 30
0.0
 10
42.09481360657517
 20
27.65379069072641
 30
0.0
 10
42.19204070516747
 20
27.58593990650164
 30
0.0
 11
41.26724986652447
 21
28.65379638577093
 31
0.0
 11
41.43646760661931
 21
28.34175829032118
 31
0.0
 11
41.65244653776968
 21
28.05301206916186
 31
0.0
 11
41.90737704791474
 21
27.79799890492945
 31
0.0
 11
42.19204070516747
 21
27.58593990650164
 31
0.0
  0
SPLINE
  5
237
330
81
100
AcDbEntity
  8
0
  6
Continuous
 62
     7
100
AcDbSpline
210
0.0
220
0.0
230
1.0
 70
  1064
 71
     3
 72
    17
 73
    13
 74
    11
 42
0.000000001
 43
0.0000000001
 44
0.00000001
 40
0.0
 40
0.0
 40
0.0
 40
0.0
 40
0.3665543932997246
 40
0.7502120696067202
 40
1.161985140530104
 40
1.604369340554929
 40
2.07224982633022
 40
2.555173370473357
 40
3.039875426751973
 40
3.512773394052396
 40
3.96245110049555
 40
4.38218504972816
 40
4.38218504972816
 40
4.38218504972816
 40
4.38218504972816
 10
29.52651116797978
 20
31.56510773979002
 30
0.0
 10
29.44196737143606
 20
31.47529086690481
 30
0.0
 10
29.26893500902901
 20
31.29146629294777
 30
0.0
 10
29.13833912964478
 20
30.91609835349295
 30
0.0
 10
29.1100256616691
 20
30.50124419474405
 30
0.0
 10
29.19091992666164
 20
30.063527592755
 30
0.0
 10
29.37173269776637
 20
29.63241486013298
 30
0.0
 10
29.64131754374526
 20
29.23359926611895
 30
0.0
 10
29.98249718697491
 20
28.89099922824372
 30
0.0
 10
30.37429595815736
 20
28.62946304331294
 30
0.0
 10
30.79254511300702
 20
28.45331342550369
 30
0.0
 10
31.08277507722465
 20
28.42829113568198
 30
0.0
 10
31.22289209673063
 20
28.41621089931303
 30
0.0
 11
29.52651116797978
 21
31.56510773979002
 31
0.0
 11
29.29405898548747
 21
31.281685598656
 31
0.0
 11
29.15806392049633
 21
30.92293978416353
 31
0.0
 11
29.12741299205467
 21
30.51230906833125
 31
0.0
 11
29.20410738526724
 21
30.07662368687484
 31
0.0
 11
29.38313751617978
 21
29.64435020648214
 31
0.0
 11
29.65280461129813
 21
29.24373217445973
 31
0.0
 11
29.99549035806982
 21
28.90094570718597
 31
0.0
 11
30.38880356975562
 21
28.63838675287233
 31
0.0
 11
30.80704655813963
 21
28.47321156640337
 31
0.0
 11
31.22289209673063
 21
28.41621089931303
 31
0.0
  0
SPLINE
  5
238
330
81
100
AcDbEntity
  8
0
  6
Continuous
 62
     7
100
AcDbSpline
210
0.0
220
0.0
230
1.0
 70
  1064
 71
     3
 72
    21
 73
    17
 74
    15
 42
0.000000001
 43
0.0000000001
 44
0.00000001
 40
0.0
 40
0.0
 40
0.0
 40
0.0
 40
1.279750135688213
 40
2.603623434156766
 40
4.00731926551193
 40
5.506226973450845
 40
7.095450258282601
 40
8.753901066391927
 40
10.44965260154453
 40
12.14540413669713
 40
13.80385494480646
 40
15.39307822963821
 40
16.89198593757712
 40
18.29568176893228
 40
19.61955506740084
 40
20.89930520308907
 40
20.89930520308907
 40
20.89930520308907
 40
20.89930520308907
 10
24.25690010854058
 20
17.61582698626332
 30
0.0
 10
24.59893134702122
 20
17.87615066628199
 30
0.0
 10
25.29478636747744
 20
18.40577344234725
 30
0.0
 10
26.60836202415855
 20
18.77420480766147
 30
0.0
 10
28.02685047645945
 20
18.8105456684731
 30
0.0
 10
29.50382698695658
 20
18.49275073012799
 30
0.0
 10
30.95991769820661
 20
17.85028902847534
 30
0.0
 10
32.32716083014336
 20
16.9148042120682
 30
0.0
 10
33.53829560672008
 20
15.7341273344848
 30
0.0
 10
34.53384340394985
 20
14.36674665606175
 30
0.0
 10
35.26441280323111
 20
12.87988621325271
 30
0.0
 10
35.69227202115512
 20
11.34694991740853
 30
0.0
 10
35.7958107937138
 20
9.839723007492466
 30
0.0
 10
35.55720146206137
 20
8.440975090845633
 30
0.0
 10
35.0048953146348
 20
7.19350541334345
 30
0.0
 10
34.38129685057494
 20
6.580447952705873
 30
0.0
 10
34.07478162210305
 20
6.279113916809017
 30
0.0
 11
24.25690010854058
 21
17.61582698626332
 31
0.0
 11
25.32106911040962
 21
18.32667490229251
 31
0.0
 11
26.58722505679981
 21
18.71331380638496
 31
0.0
 11
27.99027584421864
 21
18.75586355646537
 31
0.0
 11
29.45808921781402
 21
18.45213963512364
 31
0.0
 11
30.91520455759285
 21
17.81775368296685
 31
0.0
 11
32.28671141606493
 21
16.88532244268134
 31
0.0
 11
33.50209905090588
 21
15.70278019762019
 31
0.0
 11
34.49888553195287
 21
14.33092380007689
 31
0.0
 11
35.22582357087913
 21
12.84027958757735
 31
0.0
 11
35.64554349419273
 21
11.30748285099213
 31
0.0
 11
35.73646459124365
 21
9.811335239888306
 31
0.0
 11
35.49391543361888
 21
8.428753633094686
 31
0.0
 11
34.9303627406655
 21
7.230818373991737
 31
0.0
 11
34.07478162210305
 21
6.279113916809017
 31
0.0
  0
ENDBLK
  5
83
330
81
100
AcDbEntity
  8
0
100
AcDbBlockEnd
  0
BLOCK
  5
86
330
84
100
AcDbEntity
  8
0
100
AcDbBlockBegin
  2
Allg1
 70
     0
 10
33.49999999999704
 20
16.99999999997408
 30
0.0
  3
Allg1
  1

  0
INSERT
  5
85
330
84
100
AcDbEntity
  8
0
100
AcDbBlockReference
  2
CES_SRG_BK_15-select__1
 10
20.80625152718246
 20
0.70609333071186
 30
0.0
  0
MTEXT
  5
239
330
84
100
AcDbEntity
  8
1
 62
     6
100
AcDbMText
 10
33.49999921408346
 20
-1.79390666928814
 30
0.0
 40
2.5
 41
0.0
 71
     2
 72
     1
  1
 
  7
CONVERTER_11
 73
     1
 44
1.32052821128451
  0
ENDBLK
  5
87
330
84
100
AcDbEntity
  8
0
100
AcDbBlockEnd
  0
BLOCK
  5
89
330
88
100
AcDbEntity
  8
0
100
AcDbBlockBegin
  2
CES_SRG_BK_15-select__2
 70
     0
 10
-67.62500090748364
 20
40.87499952313155
 30
0.0
  3
CES_SRG_BK_15-select__2
  1

  0
LINE
  5
23A
330
88
100
AcDbEntity
  8
0
  6
Continuous
 62
     7
100
AcDbLine
 10
-60.37849298443156
 20
53.87499952313144
 30
0.0
 11
-54.37150883053323
 21
53.87499952313144
 31
0.0
  0
LINE
  5
23B
330
88
100
AcDbEntity
  8
0
  6
Continuous
 62
     7
100
AcDbLine
 10
-67.12500090748364
 20
53.87499952313144
 30
0.0
 11
-60.37849298443156
 21
53.87499952313144
 31
0.0
  0
LINE
  5
23C
330
88
100
AcDbEntity
  8
0
  6
Continuous
 62
     7
100
AcDbLine
 10
-54.37150883053323
 20
53.87499952313144
 30
0.0
 11
-47.62500090748364
 21
53.87499952313144
 31
0.0
  0
LINE
  5
23D
330
88
100
AcDbEntity
  8
0
  6
Continuous
 62
     7
100
AcDbLine
 10
-67.12500090748219
 20
57.87499952313146
 30
0.0
 11
-67.12500090748364
 21
53.87499952313144
 31
0.0
  0
LINE
  5
23E
330
88
100
AcDbEntity
  8
0
  6
Continuous
 62
     7
100
AcDbLine
 10
-47.62500090748364
 20
53.87499952313144
 30
0.0
 11
-47.62500090748364
 21
52.32499952313142
 31
0.0
  0
LINE
  5
23F
330
88
100
AcDbEntity
  8
0
  6
Continuous
 62
     7
100
AcDbLine
 10
-47.62500090748364
 20
53.87499952313144
 30
0.0
 11
-47.62500090748222
 21
57.87499952313146
 31
0.0
  0
LINE
  5
240
330
88
100
AcDbEntity
  8
0
  6
Continuous
 62
     7
100
AcDbLine
 10
-67.12500090748219
 20
57.87499952313146
 30
0.0
 11
-47.62500090748222
 21
57.87499952313146
 31
0.0
  0
LINE
  5
241
330
88
100
AcDbEntity
  8
0
  6
Continuous
 62
     7
100
AcDbLine
 10
-67.12500090748364
 20
44.02499952313144
 30
0.0
 11
-67.62500090748364
 21
43.52499952313141
 31
0.0
  0
LINE
  5
242
330
88
100
AcDbEntity
  8
0
  6
Continuous
 62
     7
100
AcDbLine
 10
-60.23531782951545
 20
49.77499952313144
 30
0.0
 11
-54.51468398544945
 21
49.77499952313144
 31
0.0
  0
LINE
  5
243
330
88
100
AcDbEntity
  8
0
  6
Continuous
 62
     7
100
AcDbLine
 10
-54.37150883053323
 20
53.87499952313144
 30
0.0
 11
-54.51468398544945
 21
49.77499952313144
 31
0.0
  0
LINE
  5
244
330
88
100
AcDbEntity
  8
0
  6
Continuous
 62
     7
100
AcDbLine
 10
-47.12500090748367
 20
51.82499952313142
 30
0.0
 11
-47.62500090748364
 21
52.32499952313142
 31
0.0
  0
LINE
  5
245
330
88
100
AcDbEntity
  8
0
  6
Continuous
 62
     7
100
AcDbLine
 10
-47.62500090748364
 20
51.32499952313148
 30
0.0
 11
-47.12500090748367
 21
51.82499952313142
 31
0.0
  0
LINE
  5
246
330
88
100
AcDbEntity
  8
0
  6
Continuous
 62
     7
100
AcDbLine
 10
-47.62500090748364
 20
51.32499952313148
 30
0.0
 11
-47.62500090748362
 21
40.87499952313155
 31
0.0
  0
LINE
  5
247
330
88
100
AcDbEntity
  8
0
  6
Continuous
 62
     7
100
AcDbLine
 10
-67.12500090748362
 20
40.87499952313155
 30
0.0
 11
-47.62500090748362
 21
40.87499952313155
 31
0.0
  0
LINE
  5
248
330
88
100
AcDbEntity
  8
0
  6
Continuous
 62
     7
100
AcDbLine
 10
-67.12500090748362
 20
40.87499952313155
 30
0.0
 11
-67.12500090748364
 21
43.02499952313144
 31
0.0
  0
LINE
  5
249
330
88
100
AcDbEntity
  8
0
  6
Continuous
 62
     7
100
AcDbLine
 10
-67.62500090748364
 20
43.52499952313141
 30
0.0
 11
-67.12500090748364
 21
43.02499952313144
 31
0.0
  0
LINE
  5
24A
330
88
100
AcDbEntity
  8
0
  6
Continuous
 62
     7
100
AcDbLine
 10
-67.12500090748364
 20
44.02499952313144
 30
0.0
 11
-67.12500090748364
 21
53.87499952313144
 31
0.0
  0
LINE
  5
24B
330
88
100
AcDbEntity
  8
0
  6
Continuous
 62
     7
100
AcDbLine
 10
-60.37849298443156
 20
53.87499952313144
 30
0.0
 11
-60.23531782951545
 21
49.77499952313144
 31
0.0
  0
ENDBLK
  5
8A
330
88
100
AcDbEntity
  8
0
100
AcDbBlockEnd
  0
BLOCK
  5
8D
330
8B
100
AcDbEntity
  8
0
100
AcDbBlockBegin
  2
Drfsicht1
 70
     0
 10
-57.37499999999629
 20
49.37499952314145
 30
0.0
  3
Drfsicht1
  1

  0
INSERT
  5
8C
330
8B
100
AcDbEntity
  8
0
100
AcDbBlockReference
  2
CES_SRG_BK_15-select__2
 10
-67.62500090748364
 20
40.87499952313155
 30
0.0
  0
MTEXT
  5
24C
330
8B
100
AcDbEntity
  8
1
 62
     6
100
AcDbMText
 10
-57.37500090748365
 20
38.37499952313155
 30
0.0
 40
2.5
 41
0.0
 71
     2
 72
     1
  1
 
  7
CONVERTER_11
 73
     1
 44
1.32052821128451
  0
DIMENSION
  5
257
330
8B
100
AcDbEntity
  8
1
100
AcDbDimension
  2
*D17
 10
-74.12500090748222
 20
57.87499952313146
 30
0.0
 11
-75.75000090748222
 21
49.67702634197615
 31
0.0
 70
    32
  1
<>
 71
     5
 42
-1.0
 53
90.0
  3
ME10_DIM_10
100
AcDbAlignedDimension
 13
-67.12500090748362
 23
40.87499952313155
 33
0.0
 14
-67.12500090748219
 24
57.87499952313146
 34
0.0
 50
90.0
100
AcDbRotatedDimension
  0
ENDBLK
  5
8E
330
8B
100
AcDbEntity
  8
0
100
AcDbBlockEnd
  0
BLOCK
  5
90
330
8F
100
AcDbEntity
  8
0
100
AcDbBlockBegin
  2
CES_SRG_BK_15-select__3
 70
     0
 10
4.12500090748379
 20
79.24999949701493
 30
0.0
  3
CES_SRG_BK_15-select__3
  1

  0
LINE
  5
258
330
8F
100
AcDbEntity
  8
0
  6
Continuous
 62
     7
100
AcDbLine
 10
21.82115333019601
 20
79.24999949701574
 30
0.0
 11
22.62500090748867
 21
82.24999949701592
 31
0.0
  0
LINE
  5
259
330
8F
100
AcDbEntity
  8
0
  6
Continuous
 62
     7
100
AcDbLine
 10
18.42884848478275
 20
79.24999949701493
 30
0.0
 11
21.82115333019601
 21
79.24999949701574
 31
0.0
  0
LINE
  5
25A
330
8F
100
AcDbEntity
  8
0
  6
Continuous
 62
     7
100
AcDbLine
 10
24.12500090748867
 20
82.24999949701626
 30
0.0
 11
22.62500090748867
 21
82.24999949701592
 31
0.0
  0
LINE
  5
25B
330
8F
100
AcDbEntity
  8
0
  6
Continuous
 62
     7
100
AcDbLine
 10
22.62500090748867
 20
82.24999949701592
 30
0.0
 11
17.62500090748866
 21
82.24999949701473
 31
0.0
  0
LINE
  5
25C
330
8F
100
AcDbEntity
  8
0
  6
Continuous
 62
     7
100
AcDbLine
 10
17.62500090748866
 20
82.24999949701473
 30
0.0
 11
4.62500090748868
 21
82.24999949701157
 31
0.0
  0
LINE
  5
25D
330
8F
100
AcDbEntity
  8
0
  6
Continuous
 62
     7
100
AcDbLine
 10
18.42884848478275
 20
79.24999949701493
 30
0.0
 11
17.62500090748866
 21
82.24999949701473
 31
0.0
  0
LINE
  5
25E
330
8F
100
AcDbEntity
  8
0
  6
Continuous
 62
     7
100
AcDbLine
 10
4.12500090748379
 20
102.7499994970115
 30
0.0
 11
4.62500090748377
 21
102.7499994970117
 31
0.0
  0
LINE
  5
25F
330
8F
100
AcDbEntity
  8
0
  6
Continuous
 62
     7
100
AcDbLine
 10
24.12500090748378
 20
102.7499994970164
 30
0.0
 11
24.62500090748378
 21
102.7499994970165
 31
0.0
  0
LINE
  5
260
330
8F
100
AcDbEntity
  8
0
  6
Continuous
 62
     7
100
AcDbLine
 10
4.1250009074887
 20
82.24999949701149
 30
0.0
 11
4.12500090748379
 21
102.7499994970115
 31
0.0
  0
LINE
  5
261
330
8F
100
AcDbEntity
  8
0
  6
Continuous
 62
     7
100
AcDbLine
 10
24.12500090748867
 20
82.24999949701626
 30
0.0
 11
24.62500090748868
 21
82.2499994970164
 31
0.0
  0
LINE
  5
262
330
8F
100
AcDbEntity
  8
0
  6
Continuous
 62
     7
100
AcDbLine
 10
24.62500090748378
 20
102.7499994970165
 30
0.0
 11
24.62500090748868
 21
82.2499994970164
 31
0.0
  0
LINE
  5
263
330
8F
100
AcDbEntity
  8
0
  6
Continuous
 62
     7
100
AcDbLine
 10
4.1250009074887
 20
82.24999949701149
 30
0.0
 11
4.62500090748868
 21
82.24999949701157
 31
0.0
  0
LINE
  5
264
330
8F
100
AcDbEntity
  8
0
  6
Continuous
 62
     7
100
AcDbLine
 10
4.62500090748234
 20
108.7499994970116
 30
0.0
 11
4.62500090748377
 21
102.7499994970117
 31
0.0
  0
LINE
  5
265
330
8F
100
AcDbEntity
  8
0
  6
Continuous
 62
     7
100
AcDbLine
 10
4.62500090748377
 20
102.7499994970117
 30
0.0
 11
4.62500090748868
 21
82.24999949701157
 31
0.0
  0
LINE
  5
266
330
8F
100
AcDbEntity
  8
0
  6
Continuous
 62
     7
100
AcDbLine
 10
24.12500090748233
 20
108.7499994970163
 30
0.0
 11
4.62500090748234
 21
108.7499994970116
 31
0.0
  0
LINE
  5
267
330
8F
100
AcDbEntity
  8
0
  6
Continuous
 62
     7
100
AcDbLine
 10
24.12500090748378
 20
102.7499994970164
 30
0.0
 11
24.12500090748233
 21
108.7499994970163
 31
0.0
  0
LINE
  5
268
330
8F
100
AcDbEntity
  8
0
  6
Continuous
 62
     7
100
AcDbLine
 10
24.12500090748867
 20
82.24999949701626
 30
0.0
 11
24.12500090748378
 21
102.7499994970164
 31
0.0
  0
LINE
  5
269
330
8F
100
AcDbEntity
  8
1
  6
DOT_CENTER
 62
     2
100
AcDbLine
 10
22.21500090748317
 20
105.2499994970158
 30
0.0
 11
18.03500090748318
 21
105.2499994970158
 31
0.0
  0
LINE
  5
26A
330
8F
100
AcDbEntity
  8
1
  6
DOT_CENTER
 62
     2
100
AcDbLine
 10
20.12500090748318
 20
107.3399994970158
 30
0.0
 11
20.12500090748318
 21
103.1599994970158
 31
0.0
  0
LINE
  5
26B
330
8F
100
AcDbEntity
  8
1
  6
DOT_CENTER
 62
     2
100
AcDbLine
 10
10.71500090748318
 20
105.2499994970122
 30
0.0
 11
6.53500090748318
 21
105.2499994970122
 31
0.0
  0
LINE
  5
26C
330
8F
100
AcDbEntity
  8
1
  6
DOT_CENTER
 62
     2
100
AcDbLine
 10
8.62500090748318
 20
107.3399994970122
 30
0.0
 11
8.62500090748318
 21
103.1599994970122
 31
0.0
  0
LINE
  5
26D
330
8F
100
AcDbEntity
  8
1
  6
DOT_CENTER
 62
     2
100
AcDbLine
 10
21.52500090748623
 20
92.49999949701396
 30
0.0
 11
7.22500090748623
 21
92.49999949701396
 31
0.0
  0
LINE
  5
26E
330
8F
100
AcDbEntity
  8
1
  6
DOT_CENTER
 62
     2
100
AcDbLine
 10
14.37500090748623
 20
99.64999949701397
 30
0.0
 11
14.37500090748623
 21
85.34999949701395
 31
0.0
  0
LINE
  5
26F
330
8F
100
AcDbEntity
  8
1
  6
DOT_CENTER
 62
     2
100
AcDbLine
 10
20.12500090748938
 20
79.24999949701532
 30
0.0
 11
20.12500090748867
 21
82.24999949701532
 31
0.0
  0
CIRCLE
  5
270
330
8F
100
AcDbEntity
  8
0
  6
Continuous
 62
     7
100
AcDbCircle
 10
8.62500090748318
 20
105.2499994970122
 30
0.0
 40
1.899999999999999
  0
CIRCLE
  5
271
330
8F
100
AcDbEntity
  8
0
  6
Continuous
 62
     7
100
AcDbCircle
 10
20.12500090748318
 20
105.2499994970158
 30
0.0
 40
1.899999999999999
  0
CIRCLE
  5
272
330
8F
100
AcDbEntity
  8
0
  6
Continuous
 62
     7
100
AcDbCircle
 10
14.37500090748623
 20
92.49999949701396
 30
0.0
 40
6.499999999999998
  0
ENDBLK
  5
91
330
8F
100
AcDbEntity
  8
0
100
AcDbBlockEnd
  0
BLOCK
  5
94
330
92
100
AcDbEntity
  8
0
100
AcDbBlockBegin
  2
Rckans1
 70
     0
 10
14.37499999999641
 20
93.99999999997604
 30
0.0
  3
Rckans1
  1

  0
INSERT
  5
93
330
92
100
AcDbEntity
  8
0
100
AcDbBlockReference
  2
CES_SRG_BK_15-select__3
 10
4.12500090748379
 20
79.24999949701493
 30
0.0
  0
MTEXT
  5
273
330
92
100
AcDbEntity
  8
1
 62
     6
100
AcDbMText
 10
14.37500090748624
 20
76.74999949701493
 30
0.0
 40
2.5
 41
0.0
 71
     2
 72
     1
  1
 
  7
CONVERTER_11
 73
     1
 44
1.32052821128451
  0
ENDBLK
  5
95
330
92
100
AcDbEntity
  8
0
100
AcDbBlockEnd
  0
BLOCK
  5
97
330
96
100
AcDbEntity
  8
0
100
AcDbBlockBegin
  2
CES_SRG_BK_15-select__4
 70
     0
 10
-29.49999999996999
 20
79.24999949699131
 30
0.0
  3
CES_SRG_BK_15-select__4
  1

  0
LINE
  5
274
330
96
100
AcDbEntity
  8
0
  6
Continuous
 62
     7
100
AcDbLine
 10
-15.64999999996996
 20
82.24999949699225
 30
0.0
 11
-15.14999999996993
 21
82.24999949699239
 31
0.0
  0
LINE
  5
275
330
96
100
AcDbEntity
  8
0
  6
Continuous
 62
     7
100
AcDbLine
 10
-15.14999999996993
 20
82.24999949699239
 30
0.0
 11
-14.64999999996995
 21
82.24999949699225
 31
0.0
  0
LINE
  5
276
330
96
100
AcDbEntity
  8
0
  6
Continuous
 62
     7
100
AcDbLine
 10
-26.19615242267662
 20
79.24999949699131
 30
0.0
 11
-22.80384757726336
 21
79.24999949699131
 31
0.0
  0
LINE
  5
277
330
96
100
AcDbEntity
  8
0
  6
Continuous
 62
     7
100
AcDbLine
 10
-22.80384757726336
 20
79.24999949699131
 30
0.0
 11
-21.99999999996999
 21
82.24999949699131
 31
0.0
  0
LINE
  5
278
330
96
100
AcDbEntity
  8
0
  6
Continuous
 62
     7
100
AcDbLine
 10
-29.49999999996999
 20
108.7499994969923
 30
0.0
 11
-25.49999999996997
 21
108.7499994969923
 31
0.0
  0
LINE
  5
279
330
96
100
AcDbEntity
  8
0
  6
Continuous
 62
     7
100
AcDbLine
 10
-25.49999999996997
 20
107.2534915739398
 30
0.0
 11
-25.49999999996997
 21
108.7499994969923
 31
0.0
  0
LINE
  5
27A
330
96
100
AcDbEntity
  8
0
  6
Continuous
 62
     7
100
AcDbLine
 10
-25.49999999996997
 20
102.7499994969923
 30
0.0
 11
-25.49999999996997
 21
104.7465074200415
 31
0.0
  0
LINE
  5
27B
330
96
100
AcDbEntity
  8
0
  6
Continuous
 62
     7
100
AcDbLine
 10
-25.49999999996997
 20
104.7465074200415
 30
0.0
 11
-25.49999999996997
 21
107.2534915739398
 31
0.0
  0
LINE
  5
27C
330
96
100
AcDbEntity
  8
0
  6
Continuous
 62
     7
100
AcDbLine
 10
-29.49999999996999
 20
82.24999949699225
 30
0.0
 11
-29.49999999996999
 21
108.7499994969923
 31
0.0
  0
LINE
  5
27D
330
96
100
AcDbEntity
  8
0
  6
Continuous
 62
     7
100
AcDbLine
 10
-12.49999999997008
 20
82.24999949699227
 30
0.0
 11
-14.64999999996995
 21
82.24999949699225
 31
0.0
  0
LINE
  5
27E
330
96
100
AcDbEntity
  8
0
  6
Continuous
 62
     7
100
AcDbLine
 10
-12.49999999997008
 20
102.7499994969923
 30
0.0
 11
-12.49999999997008
 21
82.24999949699227
 31
0.0
  0
LINE
  5
27F
330
96
100
AcDbEntity
  8
0
  6
Continuous
 62
     7
100
AcDbLine
 10
-15.14999999996996
 20
102.7499994969924
 30
0.0
 11
-15.14999999996993
 21
82.24999949699239
 31
0.0
  0
LINE
  5
280
330
96
100
AcDbEntity
  8
0
  6
Continuous
 62
     7
100
AcDbLine
 10
-21.39999999996996
 20
104.8896825749576
 30
0.0
 11
-21.39999999996996
 21
107.1103164190236
 31
0.0
  0
LINE
  5
281
330
96
100
AcDbEntity
  8
0
  6
Continuous
 62
     7
100
AcDbLine
 10
-25.49999999996997
 20
104.7465074200415
 30
0.0
 11
-21.39999999996996
 21
104.8896825749576
 31
0.0
  0
LINE
  5
282
330
96
100
AcDbEntity
  8
0
  6
Continuous
 62
     7
100
AcDbLine
 10
-21.39999999996996
 20
102.7499994969903
 30
0.0
 11
-21.39999999996996
 21
104.8896825749576
 31
0.0
  0
LINE
  5
283
330
96
100
AcDbEntity
  8
0
  6
Continuous
 62
     7
100
AcDbLine
 10
-25.49999999996997
 20
107.2534915739398
 30
0.0
 11
-21.39999999996996
 21
107.1103164190236
 31
0.0
  0
LINE
  5
284
330
96
100
AcDbEntity
  8
0
  6
Continuous
 62
     7
100
AcDbLine
 10
-15.64999999996996
 20
82.24999949699225
 30
0.0
 11
-15.64999999996999
 21
102.7499994969923
 31
0.0
  0
LINE
  5
285
330
96
100
AcDbEntity
  8
0
  6
Continuous
 62
     7
100
AcDbLine
 10
-14.64999999996998
 20
102.7499994969923
 30
0.0
 11
-14.64999999996995
 21
82.24999949699225
 31
0.0
  0
LINE
  5
286
330
96
100
AcDbEntity
  8
0
  6
Continuous
 62
     7
100
AcDbLine
 10
-15.64999999996999
 20
102.7499994969923
 30
0.0
 11
-15.14999999996996
 21
102.7499994969924
 31
0.0
  0
LINE
  5
287
330
96
100
AcDbEntity
  8
0
  6
Continuous
 62
     7
100
AcDbLine
 10
-12.49999999997008
 20
102.7499994969923
 30
0.0
 11
-14.64999999996998
 21
102.7499994969923
 31
0.0
  0
LINE
  5
288
330
96
100
AcDbEntity
  8
0
  6
Continuous
 62
     7
100
AcDbLine
 10
-15.14999999996996
 20
102.7499994969924
 30
0.0
 11
-14.64999999996998
 21
102.7499994969923
 31
0.0
  0
LINE
  5
289
330
96
100
AcDbEntity
  8
0
  6
Continuous
 62
     7
100
AcDbLine
 10
-21.39999999996996
 20
102.7499994969903
 30
0.0
 11
-25.49999999996997
 21
102.7499994969923
 31
0.0
  0
LINE
  5
28A
330
96
100
AcDbEntity
  8
0
  6
Continuous
 62
     7
100
AcDbLine
 10
-15.64999999996999
 20
102.7499994969923
 30
0.0
 11
-21.39999999996996
 21
102.7499994969903
 31
0.0
  0
LINE
  5
28B
330
96
100
AcDbEntity
  8
0
  6
Continuous
 62
     7
100
AcDbLine
 10
-21.99999999996999
 20
82.24999949699131
 30
0.0
 11
-26.99999999996999
 21
82.24999949699131
 31
0.0
  0
LINE
  5
28C
330
96
100
AcDbEntity
  8
0
  6
Continuous
 62
     7
100
AcDbLine
 10
-26.99999999996999
 20
82.24999949699131
 30
0.0
 11
-29.49999999996999
 21
82.24999949699225
 31
0.0
  0
LINE
  5
28D
330
96
100
AcDbEntity
  8
0
  6
Continuous
 62
     7
100
AcDbLine
 10
-15.64999999996996
 20
82.24999949699225
 30
0.0
 11
-21.99999999996999
 21
82.24999949699131
 31
0.0
  0
LINE
  5
28E
330
96
100
AcDbEntity
  8
0
  6
Continuous
 62
     7
100
AcDbLine
 10
-26.19615242267662
 20
79.24999949699131
 30
0.0
 11
-26.99999999996999
 21
82.24999949699131
 31
0.0
  0
LINE
  5
28F
330
96
100
AcDbEntity
  8
1
  6
DOT_CENTER
 62
     2
100
AcDbLine
 10
-24.49999999996999
 20
79.24999949699131
 30
0.0
 11
-24.49999999996999
 21
82.24999949699131
 31
0.0
  0
ENDBLK
  5
98
330
96
100
AcDbEntity
  8
0
100
AcDbBlockEnd
  0
BLOCK
  5
9B
330
99
100
AcDbEntity
  8
0
100
AcDbBlockBegin
  2
SA_Links1
 70
     0
 10
-20.99999999997999
 20
93.99999999995202
 30
0.0
  3
SA_Links1
  1

  0
INSERT
  5
9A
330
99
100
AcDbEntity
  8
0
100
AcDbBlockReference
  2
CES_SRG_BK_15-select__4
 10
-29.49999999996999
 20
79.24999949699131
 30
0.0
  0
MTEXT
  5
290
330
99
100
AcDbEntity
  8
1
 62
     6
100
AcDbMText
 10
-20.99999999997003
 20
66.24218131573706
 30
0.0
 40
2.5
 41
0.0
 71
     2
 72
     1
  1
 
  7
CONVERTER_11
 73
     1
 44
1.32052821128451
  0
ENDBLK
  5
9C
330
99
100
AcDbEntity
  8
0
100
AcDbBlockEnd
  0
BLOCK
  5
9E
330
9D
100
AcDbEntity
  8
0
100
AcDbBlockBegin
  2
CES_SRG_BK_15-select__5
 70
     0
 10
-108.2500000000029
 20
79.2499994970149
 30
0.0
  3
CES_SRG_BK_15-select__5
  1

  0
LINE
  5
291
330
9D
100
AcDbEntity
  8
0
  6
Continuous
 62
     7
100
AcDbLine
 10
-108.2500000000029
 20
82.24999949701157
 30
0.0
 11
-108.2500000000029
 21
102.7499994970117
 31
0.0
  0
LINE
  5
292
330
9D
100
AcDbEntity
  8
0
  6
Continuous
 62
     7
100
AcDbLine
 10
-98.75000000000298
 20
82.24999949701527
 30
0.0
 11
-108.2500000000029
 21
82.24999949701157
 31
0.0
  0
LINE
  5
293
330
9D
100
AcDbEntity
  8
0
  6
Continuous
 62
     7
100
AcDbLine
 10
-97.30000000000302
 20
82.24999949701146
 30
0.0
 11
-97.30000000000302
 21
102.7499994970115
 31
0.0
  0
LINE
  5
294
330
9D
100
AcDbEntity
  8
0
  6
Continuous
 62
     7
100
AcDbLine
 10
-97.800000000003
 20
82.24999949701157
 30
0.0
 11
-97.80000000000297
 21
102.7499994970116
 31
0.0
  0
LINE
  5
295
330
9D
100
AcDbEntity
  8
0
  6
Continuous
 62
     7
100
AcDbLine
 10
-97.800000000003
 20
82.24999949701157
 30
0.0
 11
-97.30000000000302
 21
82.24999949701146
 31
0.0
  0
LINE
  5
296
330
9D
100
AcDbEntity
  8
0
  6
Continuous
 62
     7
100
AcDbLine
 10
-97.800000000003
 20
82.24999949701157
 30
0.0
 11
-98.75000000000298
 21
82.24999949701527
 31
0.0
  0
LINE
  5
297
330
9D
100
AcDbEntity
  8
0
  6
Continuous
 62
     7
100
AcDbLine
 10
-97.30000000000302
 20
82.24999949701146
 30
0.0
 11
-96.80000000000305
 21
82.24999949701157
 31
0.0
  0
LINE
  5
298
330
9D
100
AcDbEntity
  8
0
  6
Continuous
 62
     7
100
AcDbLine
 10
-97.94615242270962
 20
79.2499994970153
 30
0.0
 11
-96.25000000000298
 21
79.2499994970149
 31
0.0
  0
LINE
  5
299
330
9D
100
AcDbEntity
  8
0
  6
Continuous
 62
     7
100
AcDbLine
 10
-96.25000000000298
 20
79.2499994970149
 30
0.0
 11
-94.55384757729635
 21
79.2499994970153
 31
0.0
  0
LINE
  5
29A
330
9D
100
AcDbEntity
  8
0
  6
Continuous
 62
     7
100
AcDbLine
 10
-97.94615242270962
 20
79.2499994970153
 30
0.0
 11
-98.75000000000298
 21
82.24999949701527
 31
0.0
  0
LINE
  5
29B
330
9D
100
AcDbEntity
  8
0
  6
Continuous
 62
     7
100
AcDbLine
 10
-97.80000000000297
 20
102.7499994970116
 30
0.0
 11
-99.350000000003
 21
102.7499994970137
 31
0.0
  0
LINE
  5
29C
330
9D
100
AcDbEntity
  8
0
  6
Continuous
 62
     7
100
AcDbLine
 10
-95.25000000000301
 20
102.7499994970116
 30
0.0
 11
-96.80000000000302
 21
102.7499994970116
 31
0.0
  0
LINE
  5
29D
330
9D
100
AcDbEntity
  8
0
  6
Continuous
 62
     7
100
AcDbLine
 10
-95.25000000000301
 20
104.746507420064
 30
0.0
 11
-99.350000000003
 21
104.8896825749802
 31
0.0
  0
LINE
  5
29E
330
9D
100
AcDbEntity
  8
0
  6
Continuous
 62
     7
100
AcDbLine
 10
-97.80000000000297
 20
102.7499994970116
 30
0.0
 11
-97.30000000000302
 21
102.7499994970115
 31
0.0
  0
LINE
  5
29F
330
9D
100
AcDbEntity
  8
0
  6
Continuous
 62
     7
100
AcDbLine
 10
-97.30000000000302
 20
102.7499994970115
 30
0.0
 11
-96.80000000000302
 21
102.7499994970116
 31
0.0
  0
LINE
  5
2A0
330
9D
100
AcDbEntity
  8
0
  6
Continuous
 62
     7
100
AcDbLine
 10
-99.350000000003
 20
104.8896825749802
 30
0.0
 11
-99.350000000003
 21
102.7499994970137
 31
0.0
  0
LINE
  5
2A1
330
9D
100
AcDbEntity
  8
0
  6
Continuous
 62
     7
100
AcDbLine
 10
-99.350000000003
 20
102.7499994970137
 30
0.0
 11
-108.2500000000029
 21
102.7499994970117
 31
0.0
  0
LINE
  5
2A2
330
9D
100
AcDbEntity
  8
0
  6
Continuous
 62
     7
100
AcDbLine
 10
-99.350000000003
 20
107.1103164190462
 30
0.0
 11
-99.350000000003
 21
104.8896825749802
 31
0.0
  0
LINE
  5
2A3
330
9D
100
AcDbEntity
  8
0
  6
Continuous
 62
     7
100
AcDbLine
 10
-95.25000000000301
 20
107.2534915739624
 30
0.0
 11
-99.350000000003
 21
107.1103164190462
 31
0.0
  0
LINE
  5
2A4
330
9D
100
AcDbEntity
  8
0
  6
Continuous
 62
     7
100
AcDbLine
 10
-96.80000000000302
 20
102.7499994970116
 30
0.0
 11
-96.80000000000305
 21
82.24999949701157
 31
0.0
  0
LINE
  5
2A5
330
9D
100
AcDbEntity
  8
0
  6
Continuous
 62
     7
100
AcDbLine
 10
-91.25000000000298
 20
108.7499994970116
 30
0.0
 11
-91.25000000000298
 21
82.24999949701157
 31
0.0
  0
LINE
  5
2A6
330
9D
100
AcDbEntity
  8
0
  6
Continuous
 62
     7
100
AcDbLine
 10
-95.25000000000301
 20
108.7499994970116
 30
0.0
 11
-95.25000000000301
 21
107.2534915739624
 31
0.0
  0
LINE
  5
2A7
330
9D
100
AcDbEntity
  8
0
  6
Continuous
 62
     7
100
AcDbLine
 10
-95.25000000000301
 20
104.746507420064
 30
0.0
 11
-95.25000000000301
 21
102.7499994970116
 31
0.0
  0
LINE
  5
2A8
330
9D
100
AcDbEntity
  8
0
  6
Continuous
 62
     7
100
AcDbLine
 10
-95.25000000000301
 20
107.2534915739624
 30
0.0
 11
-95.25000000000301
 21
104.746507420064
 31
0.0
  0
LINE
  5
2A9
330
9D
100
AcDbEntity
  8
0
  6
Continuous
 62
     7
100
AcDbLine
 10
-95.25000000000301
 20
108.7499994970116
 30
0.0
 11
-91.25000000000298
 21
108.7499994970116
 31
0.0
  0
LINE
  5
2AA
330
9D
100
AcDbEntity
  8
0
  6
Continuous
 62
     7
100
AcDbLine
 10
-91.25000000000298
 20
82.24999949701157
 30
0.0
 11
-93.75000000000301
 21
82.24999949701527
 31
0.0
  0
LINE
  5
2AB
330
9D
100
AcDbEntity
  8
0
  6
Continuous
 62
     7
100
AcDbLine
 10
-93.75000000000301
 20
82.24999949701527
 30
0.0
 11
-96.80000000000305
 21
82.24999949701157
 31
0.0
  0
LINE
  5
2AC
330
9D
100
AcDbEntity
  8
0
  6
Continuous
 62
     7
100
AcDbLine
 10
-94.55384757729635
 20
79.2499994970153
 30
0.0
 11
-93.75000000000301
 21
82.24999949701527
 31
0.0
  0
LINE
  5
2AD
330
9D
100
AcDbEntity
  8
1
  6
DOT_CENTER
 62
     2
100
AcDbLine
 10
-96.25000000000298
 20
79.2499994970149
 30
0.0
 11
-96.25000000000298
 21
82.24999949701527
 31
0.0
  0
ENDBLK
  5
9F
330
9D
100
AcDbEntity
  8
0
100
AcDbBlockEnd
  0
BLOCK
  5
A2
330
A0
100
AcDbEntity
  8
0
100
AcDbBlockBegin
  2
SA_Rechts1
 70
     0
 10
-99.74999999999301
 20
93.99999999997601
 30
0.0
  3
SA_Rechts1
  1

  0
INSERT
  5
A1
330
A0
100
AcDbEntity
  8
0
100
AcDbBlockReference
  2
CES_SRG_BK_15-select__5
 10
-108.2500000000029
 20
79.2499994970149
 30
0.0
  0
MTEXT
  5
2AE
330
A0
100
AcDbEntity
  8
1
 62
     6
100
AcDbMText
 10
-99.75000000000296
 20
76.7499994970149
 30
0.0
 40
2.5
 41
0.0
 71
     2
 72
     1
  1
 
  7
CONVERTER_11
 73
     1
 44
1.32052821128451
  0
ENDBLK
  5
A3
330
A0
100
AcDbEntity
  8
0
100
AcDbBlockEnd
  0
BLOCK
  5
A5
330
A4
100
AcDbEntity
  8
0
100
AcDbBlockBegin
  2
CES_SRG_BK_15-select__6
 70
     0
 10
-67.62500090748856
 20
79.2499994970149
 30
0.0
  3
CES_SRG_BK_15-select__6
  1

  0
LINE
  5
2AF
330
A4
100
AcDbEntity
  8
0
  6
Continuous
 62
     7
100
AcDbLine
 10
-47.62500090748362
 20
102.7499994970117
 30
0.0
 11
-47.12500090748367
 21
102.7499994970115
 31
0.0
  0
LINE
  5
2B0
330
A4
100
AcDbEntity
  8
0
  6
Continuous
 62
     7
100
AcDbLine
 10
-47.62500090748853
 20
82.24999949701157
 30
0.0
 11
-47.62500090748362
 21
102.7499994970117
 31
0.0
  0
LINE
  5
2B1
330
A4
100
AcDbEntity
  8
0
  6
Continuous
 62
     7
100
AcDbLine
 10
-47.62500090748222
 20
108.7499994970116
 30
0.0
 11
-47.62500090748362
 21
102.7499994970117
 31
0.0
  0
LINE
  5
2B2
330
A4
100
AcDbEntity
  8
0
  6
Continuous
 62
     7
100
AcDbLine
 10
-47.12500090748857
 20
82.24999949701146
 30
0.0
 11
-47.12500090748367
 21
102.7499994970115
 31
0.0
  0
LINE
  5
2B3
330
A4
100
AcDbEntity
  8
0
  6
Continuous
 62
     7
100
AcDbLine
 10
-60.62500090748853
 20
82.2499994970147
 30
0.0
 11
-65.62500090748854
 21
82.24999949701589
 31
0.0
  0
LINE
  5
2B4
330
A4
100
AcDbEntity
  8
0
  6
Continuous
 62
     7
100
AcDbLine
 10
-65.62500090748854
 20
82.24999949701589
 30
0.0
 11
-67.12500090748854
 21
82.24999949701626
 31
0.0
  0
LINE
  5
2B5
330
A4
100
AcDbEntity
  8
0
  6
Continuous
 62
     7
100
AcDbLine
 10
-47.62500090748853
 20
82.24999949701157
 30
0.0
 11
-60.62500090748853
 21
82.2499994970147
 31
0.0
  0
LINE
  5
2B6
330
A4
100
AcDbEntity
  8
0
  6
Continuous
 62
     7
100
AcDbLine
 10
-47.62500090748853
 20
82.24999949701157
 30
0.0
 11
-47.12500090748857
 21
82.24999949701146
 31
0.0
  0
LINE
  5
2B7
330
A4
100
AcDbEntity
  8
0
  6
Continuous
 62
     7
100
AcDbLine
 10
-67.62500090748364
 20
102.7499994970164
 30
0.0
 11
-67.12500090748362
 21
102.7499994970163
 31
0.0
  0
LINE
  5
2B8
330
A4
100
AcDbEntity
  8
0
  6
Continuous
 62
     7
100
AcDbLine
 10
-67.12500090748362
 20
102.7499994970163
 30
0.0
 11
-67.12500090748854
 21
82.24999949701626
 31
0.0
  0
LINE
  5
2B9
330
A4
100
AcDbEntity
  8
0
  6
Continuous
 62
     7
100
AcDbLine
 10
-67.12500090748362
 20
102.7499994970163
 30
0.0
 11
-67.1250009074822
 21
108.7499994970163
 31
0.0
  0
LINE
  5
2BA
330
A4
100
AcDbEntity
  8
0
  6
Continuous
 62
     7
100
AcDbLine
 10
-55.87150883053462
 20
102.7499994970136
 30
0.0
 11
-55.871508830534
 21
104.7465074200644
 31
0.0
  0
LINE
  5
2BB
330
A4
100
AcDbEntity
  8
0
  6
Continuous
 62
     7
100
AcDbLine
 10
-58.73531782951612
 20
104.8896825749812
 30
0.0
 11
-60.23531782951613
 21
104.8896825749816
 31
0.0
  0
LINE
  5
2BC
330
A4
100
AcDbEntity
  8
0
  6
Continuous
 62
     7
100
AcDbLine
 10
-54.51468398545012
 20
104.8896825749802
 30
0.0
 11
-56.01468398545012
 21
104.8896825749806
 31
0.0
  0
LINE
  5
2BD
330
A4
100
AcDbEntity
  8
0
  6
Continuous
 62
     7
100
AcDbLine
 10
-54.371508830534
 20
104.746507420064
 30
0.0
 11
-54.51468398545012
 21
104.8896825749802
 31
0.0
  0
LINE
  5
2BE
330
A4
100
AcDbEntity
  8
0
  6
Continuous
 62
     7
100
AcDbLine
 10
-58.73531782951677
 20
102.7499994970143
 30
0.0
 11
-58.73531782951612
 21
104.8896825749812
 31
0.0
  0
LINE
  5
2BF
330
A4
100
AcDbEntity
  8
0
  6
Continuous
 62
     7
100
AcDbLine
 10
-58.87849298443234
 20
104.7465074200651
 30
0.0
 11
-58.87849298443295
 21
102.7499994970143
 31
0.0
  0
LINE
  5
2C0
330
A4
100
AcDbEntity
  8
0
  6
Continuous
 62
     7
100
AcDbLine
 10
-60.37849298443234
 20
104.7465074200655
 30
0.0
 11
-58.87849298443234
 21
104.7465074200651
 31
0.0
  0
LINE
  5
2C1
330
A4
100
AcDbEntity
  8
0
  6
Continuous
 62
     7
100
AcDbLine
 10
-58.73531782951612
 20
104.8896825749812
 30
0.0
 11
-58.87849298443234
 21
104.7465074200651
 31
0.0
  0
LINE
  5
2C2
330
A4
100
AcDbEntity
  8
0
  6
Continuous
 62
     7
100
AcDbLine
 10
-67.62500090748364
 20
102.7499994970164
 30
0.0
 11
-67.62500090748856
 21
82.24999949701638
 31
0.0
  0
LINE
  5
2C3
330
A4
100
AcDbEntity
  8
0
  6
Continuous
 62
     7
100
AcDbLine
 10
-56.01468398545077
 20
102.7499994970137
 30
0.0
 11
-55.87150883053462
 21
102.7499994970136
 31
0.0
  0
LINE
  5
2C4
330
A4
100
AcDbEntity
  8
0
  6
Continuous
 62
     7
100
AcDbLine
 10
-58.73531782951677
 20
102.7499994970143
 30
0.0
 11
-56.01468398545077
 21
102.7499994970137
 31
0.0
  0
LINE
  5
2C5
330
A4
100
AcDbEntity
  8
0
  6
Continuous
 62
     7
100
AcDbLine
 10
-58.87849298443295
 20
102.7499994970143
 30
0.0
 11
-58.73531782951677
 21
102.7499994970143
 31
0.0
  0
LINE
  5
2C6
330
A4
100
AcDbEntity
  8
0
  6
Continuous
 62
     7
100
AcDbLine
 10
-67.12500090748362
 20
102.7499994970163
 30
0.0
 11
-58.87849298443295
 21
102.7499994970143
 31
0.0
  0
LINE
  5
2C7
330
A4
100
AcDbEntity
  8
0
  6
Continuous
 62
     7
100
AcDbLine
 10
-55.87150883053462
 20
102.7499994970136
 30
0.0
 11
-47.62500090748362
 21
102.7499994970117
 31
0.0
  0
LINE
  5
2C8
330
A4
100
AcDbEntity
  8
0
  6
Continuous
 62
     7
100
AcDbLine
 10
-67.1250009074822
 20
108.7499994970163
 30
0.0
 11
-47.62500090748222
 21
108.7499994970116
 31
0.0
  0
LINE
  5
2C9
330
A4
100
AcDbEntity
  8
0
  6
Continuous
 62
     7
100
AcDbLine
 10
-54.37150883053323
 20
107.2534915739624
 30
0.0
 11
-60.37849298443156
 21
107.2534915739638
 31
0.0
  0
LINE
  5
2CA
330
A4
100
AcDbEntity
  8
0
  6
Continuous
 62
     7
100
AcDbLine
 10
-54.371508830534
 20
104.746507420064
 30
0.0
 11
-54.37150883053323
 21
107.2534915739624
 31
0.0
  0
LINE
  5
2CB
330
A4
100
AcDbEntity
  8
0
  6
Continuous
 62
     7
100
AcDbLine
 10
-60.23531782951545
 20
107.1103164190476
 30
0.0
 11
-54.51468398544945
 21
107.1103164190462
 31
0.0
  0
LINE
  5
2CC
330
A4
100
AcDbEntity
  8
0
  6
Continuous
 62
     7
100
AcDbLine
 10
-60.23531782951613
 20
104.8896825749816
 30
0.0
 11
-60.23531782951545
 21
107.1103164190476
 31
0.0
  0
LINE
  5
2CD
330
A4
100
AcDbEntity
  8
0
  6
Continuous
 62
     7
100
AcDbLine
 10
-60.37849298443156
 20
107.2534915739638
 30
0.0
 11
-60.37849298443234
 21
104.7465074200655
 31
0.0
  0
LINE
  5
2CE
330
A4
100
AcDbEntity
  8
0
  6
Continuous
 62
     7
100
AcDbLine
 10
-60.37849298443156
 20
107.2534915739638
 30
0.0
 11
-60.23531782951545
 21
107.1103164190476
 31
0.0
  0
LINE
  5
2CF
330
A4
100
AcDbEntity
  8
0
  6
Continuous
 62
     7
100
AcDbLine
 10
-60.37849298443234
 20
104.7465074200655
 30
0.0
 11
-60.23531782951613
 21
104.8896825749816
 31
0.0
  0
LINE
  5
2D0
330
A4
100
AcDbEntity
  8
0
  6
Continuous
 62
     7
100
AcDbLine
 10
-67.62500090748856
 20
82.24999949701638
 30
0.0
 11
-67.12500090748854
 21
82.24999949701626
 31
0.0
  0
LINE
  5
2D1
330
A4
100
AcDbEntity
  8
0
  6
Continuous
 62
     7
100
AcDbLine
 10
-64.82115333019587
 20
79.24999949701571
 30
0.0
 11
-65.62500090748854
 21
82.24999949701589
 31
0.0
  0
LINE
  5
2D2
330
A4
100
AcDbEntity
  8
0
  6
Continuous
 62
     7
100
AcDbLine
 10
-64.82115333019587
 20
79.24999949701571
 30
0.0
 11
-61.42884848478262
 21
79.2499994970149
 31
0.0
  0
LINE
  5
2D3
330
A4
100
AcDbEntity
  8
0
  6
Continuous
 62
     7
100
AcDbLine
 10
-61.42884848478262
 20
79.2499994970149
 30
0.0
 11
-60.62500090748853
 21
82.2499994970147
 31
0.0
  0
LINE
  5
2D4
330
A4
100
AcDbEntity
  8
0
  6
Continuous
 62
     7
100
AcDbLine
 10
-56.01468398545012
 20
104.8896825749806
 30
0.0
 11
-56.01468398545077
 21
102.7499994970137
 31
0.0
  0
LINE
  5
2D5
330
A4
100
AcDbEntity
  8
0
  6
Continuous
 62
     7
100
AcDbLine
 10
-55.871508830534
 20
104.7465074200644
 30
0.0
 11
-54.371508830534
 21
104.746507420064
 31
0.0
  0
LINE
  5
2D6
330
A4
100
AcDbEntity
  8
0
  6
Continuous
 62
     7
100
AcDbLine
 10
-54.51468398544945
 20
107.1103164190462
 30
0.0
 11
-54.51468398545012
 21
104.8896825749802
 31
0.0
  0
LINE
  5
2D7
330
A4
100
AcDbEntity
  8
0
  6
Continuous
 62
     7
100
AcDbLine
 10
-54.37150883053323
 20
107.2534915739624
 30
0.0
 11
-54.51468398544945
 21
107.1103164190462
 31
0.0
  0
LINE
  5
2D8
330
A4
100
AcDbEntity
  8
0
  6
Continuous
 62
     7
100
AcDbLine
 10
-56.01468398545012
 20
104.8896825749806
 30
0.0
 11
-55.871508830534
 21
104.7465074200644
 31
0.0
  0
LINE
  5
2D9
330
A4
100
AcDbEntity
  8
1
  6
DOT_CENTER
 62
     2
100
AcDbLine
 10
-49.53500090748305
 20
105.2499994970121
 30
0.0
 11
-53.71500090748303
 21
105.2499994970121
 31
0.0
  0
LINE
  5
2DA
330
A4
100
AcDbEntity
  8
1
  6
DOT_CENTER
 62
     2
100
AcDbLine
 10
-51.62500090748304
 20
107.3399994970121
 30
0.0
 11
-51.62500090748304
 21
103.1599994970121
 31
0.0
  0
LINE
  5
2DB
330
A4
100
AcDbEntity
  8
1
  6
DOT_CENTER
 62
     2
100
AcDbLine
 10
-61.03500090748305
 20
105.2499994970157
 30
0.0
 11
-65.21500090748303
 21
105.2499994970157
 31
0.0
  0
LINE
  5
2DC
330
A4
100
AcDbEntity
  8
1
  6
DOT_CENTER
 62
     2
100
AcDbLine
 10
-63.12500090748304
 20
107.3399994970157
 30
0.0
 11
-63.12500090748304
 21
103.1599994970158
 31
0.0
  0
LINE
  5
2DD
330
A4
100
AcDbEntity
  8
1
  6
DOT_CENTER
 62
     2
100
AcDbLine
 10
-49.1250009074861
 20
92.49999949701396
 30
0.0
 11
-65.6250009074861
 21
92.49999949701396
 31
0.0
  0
LINE
  5
2DE
330
A4
100
AcDbEntity
  8
1
  6
DOT_CENTER
 62
     2
100
AcDbLine
 10
-57.3750009074861
 20
100.749999497014
 30
0.0
 11
-57.3750009074861
 21
84.24999949701396
 31
0.0
  0
LINE
  5
2DF
330
A4
100
AcDbEntity
  8
1
  6
DOT_CENTER
 62
     2
100
AcDbLine
 10
-63.12500090748924
 20
79.2499994970153
 30
0.0
 11
-63.12500090748853
 21
82.2499994970153
 31
0.0
  0
CIRCLE
  5
2E0
330
A4
100
AcDbEntity
  8
0
  6
Continuous
 62
     7
100
AcDbCircle
 10
-63.12500090748304
 20
105.2499994970157
 30
0.0
 40
1.899999999999991
  0
CIRCLE
  5
2E1
330
A4
100
AcDbEntity
  8
0
  6
Continuous
 62
     7
100
AcDbCircle
 10
-57.3750009074861
 20
92.49999949701396
 30
0.0
 40
6.499999999999992
  0
CIRCLE
  5
2E2
330
A4
100
AcDbEntity
  8
0
  6
Continuous
 62
     7
100
AcDbCircle
 10
-51.62500090748304
 20
105.2499994970121
 30
0.0
 40
1.899999999999991
  0
CIRCLE
  5
2E3
330
A4
100
AcDbEntity
  8
0
  6
Continuous
 62
     7
100
AcDbCircle
 10
-57.3750009074861
 20
92.49999949701396
 30
0.0
 40
7.500000000000002
  0
ENDBLK
  5
A6
330
A4
100
AcDbEntity
  8
0
100
AcDbBlockEnd
  0
BLOCK
  5
A9
330
A7
100
AcDbEntity
  8
0
100
AcDbBlockBegin
  2
Vordans1
 70
     0
 10
-57.37499999999629
 20
93.99999999997601
 30
0.0
  3
Vordans1
  1

  0
INSERT
  5
A8
330
A7
100
AcDbEntity
  8
0
100
AcDbBlockReference
  2
CES_SRG_BK_15-select__6
 10
-67.62500090748856
 20
79.2499994970149
 30
0.0
  0
MTEXT
  5
2E4
330
A7
100
AcDbEntity
  8
1
 62
     6
100
AcDbMText
 10
-58.14842161492227
 20
66.24218131573704
 30
0.0
 40
2.5
 41
0.0
 71
     2
 72
     1
  1
 
  7
CONVERTER_11
 73
     1
 44
1.32052821128451
  0
DIMENSION
  5
2EF
330
A7
100
AcDbEntity
  8
1
100
AcDbDimension
  2
*D18
 10
-74.12500090748222
 20
108.7499994970163
 30
0.0
 11
-76.08750090748222
 21
94.041710114779
 31
0.0
 70
    32
  1
<>
 71
     5
 42
-1.0
 53
90.0
  3
ME10_DIM_11
100
AcDbAlignedDimension
 13
-64.82115333019587
 23
79.24999949701571
 33
0.0
 14
-67.1250009074822
 24
108.7499994970163
 34
0.0
 50
90.0
100
AcDbRotatedDimension
  0
DIMENSION
  5
2FA
330
A7
100
AcDbEntity
  8
1
100
AcDbDimension
  2
*D19
 10
-47.12500090748851
 20
72.74218131573704
 30
0.0
 11
-57.37499999999606
 21
74.70468131573705
 31
0.0
 70
    32
  1
<>
 71
     5
 42
-1.0
 53
0.00013888888889
  3
ME10_DIM_12
100
AcDbAlignedDimension
 13
-67.62500090748856
 23
82.24999949701638
 33
0.0
 14
-47.12500090748857
 24
82.24999949701146
 34
0.0
100
AcDbRotatedDimension
  0
ENDBLK
  5
AA
330
A7
100
AcDbEntity
  8
0
100
AcDbBlockEnd
  0
BLOCK
  5
B3
330
AB
100
AcDbEntity
  8
0
100
AcDbBlockBegin
  2
1
 70
     0
 10
0.0
 20
0.0
 30
0.0
  3
1
  1

  0
INSERT
  5
AC
330
AB
100
AcDbEntity
  8
0
100
AcDbBlockReference
  2
A3I_CS
 10
117.3468734504924
 20
-48.63349138098096
 30
0.0
  0
INSERT
  5
AD
330
AB
100
AcDbEntity
  8
0
100
AcDbBlockReference
  2
Allg1
 10
66.99999999999407
 20
33.99999999994816
 30
0.0
 41
2.0
 42
2.0
 43
2.0
  0
INSERT
  5
AE
330
AB
100
AcDbEntity
  8
0
100
AcDbBlockReference
  2
Drfsicht1
 10
-114.7499999999926
 20
98.7499990462829
 30
0.0
 41
2.0
 42
2.0
 43
2.0
  0
INSERT
  5
AF
330
AB
100
AcDbEntity
  8
0
100
AcDbBlockReference
  2
Rckans1
 10
28.74999999999282
 20
187.9999999999521
 30
0.0
 41
2.0
 42
2.0
 43
2.0
  0
INSERT
  5
B0
330
AB
100
AcDbEntity
  8
0
100
AcDbBlockReference
  2
SA_Links1
 10
-41.99999999995998
 20
187.999999999904
 30
0.0
 41
2.0
 42
2.0
 43
2.0
  0
INSERT
  5
B1
330
AB
100
AcDbEntity
  8
0
100
AcDbBlockReference
  2
SA_Rechts1
 10
-199.499999999986
 20
187.999999999952
 30
0.0
 41
2.0
 42
2.0
 43
2.0
  0
INSERT
  5
B2
330
AB
100
AcDbEntity
  8
0
100
AcDbBlockReference
  2
Vordans1
 10
-114.7499999999926
 20
187.999999999952
 30
0.0
 41
2.0
 42
2.0
 43
2.0
  0
ENDBLK
  5
B4
330
AB
100
AcDbEntity
  8
0
100
AcDbBlockEnd
  0
BLOCK
  5
254
330
24D
100
AcDbEntity
  8
0
100
AcDbBlockBegin
  2
*D17
 70
     1
 10
0.0
 20
0.0
 30
0.0
  3
*D17
  1

  0
LINE
  5
24E
330
24D
100
AcDbEntity
  8
1
  6
Continuous
 62
     2
100
AcDbLine
 10
-74.12500090748222
 20
57.87499952313146
 30
0.0
 11
-74.12500090748222
 21
40.87499952313155
 31
0.0
  0
LINE
  5
24F
330
24D
100
AcDbEntity
  8
1
  6
Continuous
 62
     2
100
AcDbLine
 10
-67.12500090748219
 20
57.87499952313146
 30
0.0
 11
-74.87500090748222
 21
57.87499952313146
 31
0.0
  0
LINE
  5
250
330
24D
100
AcDbEntity
  8
1
  6
Continuous
 62
     2
100
AcDbLine
 10
-67.12500090748362
 20
40.87499952313155
 30
0.0
 11
-74.87500090748222
 21
40.87499952313155
 31
0.0
  0
SOLID
  5
251
330
24D
100
AcDbEntity
  8
1
 62
     2
100
AcDbTrace
 10
-73.89460903670428
 20
56.12499952313146
 30
0.0
 11
-74.35539277826015
 21
56.12499952313146
 31
0.0
 12
-74.12500090748222
 22
57.87499952313146
 32
0.0
 13
-74.12500090748222
 23
57.87499952313146
 33
0.0
  0
SOLID
  5
252
330
24D
100
AcDbEntity
  8
1
 62
     2
100
AcDbTrace
 10
-74.35539277826015
 20
42.62499952313155
 30
0.0
 11
-73.89460903670428
 21
42.62499952313155
 31
0.0
 12
-74.12500090748222
 22
40.87499952313155
 32
0.0
 13
-74.12500090748222
 23
40.87499952313155
 33
0.0
  0
MTEXT
  5
253
330
24D
100
AcDbEntity
  8
1
 62
     3
100
AcDbMText
 10
-74.87500090748222
 20
48.62702634197615
 30
0.0
 40
1.75
 41
0.0
 71
     7
 72
     1
  1
17
  7
CONVERTER_11
 11
0.0
 21
1.0
 31
0.0
 73
     1
 44
0.60024009603842
  0
ENDBLK
  5
255
330
24D
100
AcDbEntity
  8
0
100
AcDbBlockEnd
  0
BLOCK
  5
2EC
330
2E5
100
AcDbEntity
  8
0
100
AcDbBlockBegin
  2
*D18
 70
     1
 10
0.0
 20
0.0
 30
0.0
  3
*D18
  1

  0
LINE
  5
2E6
330
2E5
100
AcDbEntity
  8
1
  6
Continuous
 62
     2
100
AcDbLine
 10
-74.12500090748222
 20
108.7499994970163
 30
0.0
 11
-74.12500090748222
 21
79.24999949701572
 31
0.0
  0
LINE
  5
2E7
330
2E5
100
AcDbEntity
  8
1
  6
Continuous
 62
     2
100
AcDbLine
 10
-67.1250009074822
 20
108.7499994970163
 30
0.0
 11
-75.12500090748222
 21
108.7499994970163
 31
0.0
  0
LINE
  5
2E8
330
2E5
100
AcDbEntity
  8
1
  6
Continuous
 62
     2
100
AcDbLine
 10
-64.82115333019593
 20
79.24999949701572
 30
0.0
 11
-75.12500090748222
 21
79.24999949701572
 31
0.0
  0
SOLID
  5
2E9
330
2E5
100
AcDbEntity
  8
1
 62
     2
100
AcDbTrace
 10
-73.89460903670428
 20
106.9999994970163
 30
0.0
 11
-74.35539277826015
 21
106.9999994970163
 31
0.0
 12
-74.12500090748222
 22
108.7499994970163
 32
0.0
 13
-74.12500090748222
 23
108.7499994970163
 33
0.0
  0
SOLID
  5
2EA
330
2E5
100
AcDbEntity
  8
1
 62
     2
100
AcDbTrace
 10
-74.35539277826015
 20
80.99999949701572
 30
0.0
 11
-73.89460903670428
 21
80.99999949701572
 31
0.0
 12
-74.12500090748222
 22
79.24999949701572
 32
0.0
 13
-74.12500090748222
 23
79.24999949701572
 33
0.0
  0
MTEXT
  5
2EB
330
2E5
100
AcDbEntity
  8
1
 62
     3
100
AcDbMText
 10
-75.30000090748223
 20
91.635460114779
 30
0.0
 40
1.75
 41
0.0
 71
     7
 72
     1
  1
29,5
  7
CONVERTER_11
 11
0.0
 21
1.0
 31
0.0
 73
     1
 44
0.60024009603842
  0
ENDBLK
  5
2ED
330
2E5
100
AcDbEntity
  8
0
100
AcDbBlockEnd
  0
BLOCK
  5
2F7
330
2F0
100
AcDbEntity
  8
0
100
AcDbBlockBegin
  2
*D19
 70
     1
 10
0.0
 20
0.0
 30
0.0
  3
*D19
  1

  0
LINE
  5
2F1
330
2F0
100
AcDbEntity
  8
1
  6
Continuous
 62
     2
100
AcDbLine
 10
-47.12500090748851
 20
72.74218131573704
 30
0.0
 11
-67.6250009074885
 21
72.74218131573704
 31
0.0
  0
LINE
  5
2F2
330
2F0
100
AcDbEntity
  8
1
  6
Continuous
 62
     2
100
AcDbLine
 10
-47.12500090748851
 20
82.24999949701149
 30
0.0
 11
-47.12500090748851
 21
71.74218131573704
 31
0.0
  0
LINE
  5
2F3
330
2F0
100
AcDbEntity
  8
1
  6
Continuous
 62
     2
100
AcDbLine
 10
-67.6250009074885
 20
82.24999949701632
 30
0.0
 11
-67.6250009074885
 21
71.74218131573704
 31
0.0
  0
SOLID
  5
2F4
330
2F0
100
AcDbEntity
  8
1
 62
     2
100
AcDbTrace
 10
-48.87500090748851
 20
72.5117894449591
 30
0.0
 11
-48.87500090748851
 21
72.97257318651498
 31
0.0
 12
-47.12500090748851
 22
72.74218131573704
 32
0.0
 13
-47.12500090748851
 23
72.74218131573704
 33
0.0
  0
SOLID
  5
2F5
330
2F0
100
AcDbEntity
  8
1
 62
     2
100
AcDbTrace
 10
-65.8750009074885
 20
72.97257318651498
 30
0.0
 11
-65.8750009074885
 21
72.5117894449591
 31
0.0
 12
-67.6250009074885
 22
72.74218131573704
 32
0.0
 13
-67.6250009074885
 23
72.74218131573704
 33
0.0
  0
MTEXT
  5
2F6
330
2F0
100
AcDbEntity
  8
1
 62
     3
100
AcDbMText
 10
-59.78124999999606
 20
73.91718131573705
 30
0.0
 40
1.75
 41
0.0
 71
     7
 72
     1
  1
20,5
  7
CONVERTER_11
 11
0.9999999999970619
 21
2.424068405545306E-6
 31
0.0
 73
     1
 44
0.60024009603842
  0
ENDBLK
  5
2F8
330
2F0
100
AcDbEntity
  8
0
100
AcDbBlockEnd
  0
ENDSEC
  0
SECTION
  2
ENTITIES
  0
INSERT
  5
B5
330
1F
100
AcDbEntity
  8
1
100
AcDbBlockReference
  2
1
 10
0.0
 20
0.0
 30
0.0
  0
ENDSEC
  0
SECTION
  2
OBJECTS
  0
DICTIONARY
  5
C
330
0
100
AcDbDictionary
281
     1
  3
ACAD_DETAILVIEWSTYLE
350
340
  3
ACAD_GROUP
350
D
  3
ACAD_LAYOUT
350
1A
  3
ACAD_MATERIAL
350
43
  3
ACAD_MLEADERSTYLE
350
6B
  3
ACAD_MLINESTYLE
350
17
  3
ACAD_PLOTSETTINGS
350
19
  3
ACAD_PLOTSTYLENAME
350
E
  3
ACAD_SCALELIST
350
47
  3
ACAD_SECTIONVIEWSTYLE
350
341
  3
ACAD_TABLESTYLE
350
69
  3
ACAD_VISUALSTYLE
350
2A
  3
ACDB_RECOMPOSE_DATA
350
33D
  3
AcDbVariableDictionary
350
2FD
  0
DICTIONARY
  5
2FB
330
8
100
AcDbDictionary
280
     1
281
     1
  3
ACAD_XREC_ROUNDTRIP
360
2FC
  0
DICTIONARY
  5
340
102
{ACAD_REACTORS
330
C
102
}
330
C
100
AcDbDictionary
281
     1
  0
DICTIONARY
  5
D
102
{ACAD_REACTORS
330
C
102
}
330
C
100
AcDbDictionary
281
     1
  0
DICTIONARY
  5
1A
102
{ACAD_REACTORS
330
C
102
}
330
C
100
AcDbDictionary
281
     1
  3
Layout1
350
1E
  3
Layout2
350
26
  3
Model
350
22
  0
DICTIONARY
  5
43
102
{ACAD_REACTORS
330
C
102
}
330
C
100
AcDbDictionary
281
     1
  3
ByBlock
350
45
  3
ByLayer
350
44
  3
Global
350
46
  0
DICTIONARY
  5
6B
102
{ACAD_REACTORS
330
C
102
}
330
C
100
AcDbDictionary
281
     1
  3
Standard
350
6C
  0
DICTIONARY
  5
17
102
{ACAD_REACTORS
330
C
102
}
330
C
100
AcDbDictionary
281
     1
  3
Standard
350
18
  0
DICTIONARY
  5
19
102
{ACAD_REACTORS
330
C
102
}
330
C
100
AcDbDictionary
281
     1
  0
ACDBDICTIONARYWDFLT
  5
E
102
{ACAD_REACTORS
330
C
102
}
330
C
100
AcDbDictionary
281
     1
  3
Normal
350
F
100
AcDbDictionaryWithDefault
340
F
  0
DICTIONARY
  5
47
102
{ACAD_REACTORS
330
C
102
}
330
C
100
AcDbDictionary
281
     1
  3
A0
350
48
  3
A1
350
49
  3
A2
350
4A
  3
A3
350
4B
  3
A4
350
4C
  3
A5
350
4D
  3
A6
350
4E
  3
A7
350
4F
  3
A8
350
50
  3
A9
350
51
  3
B0
350
52
  3
B1
350
53
  3
B2
350
54
  3
B3
350
55
  3
B4
350
56
  3
B5
350
57
  3
B6
350
58
  3
B7
350
59
  3
B8
350
5A
  3
B9
350
5B
  3
C0
350
5C
  3
C1
350
5D
  3
C2
350
5E
  3
C3
350
5F
  3
C4
350
60
  3
C5
350
61
  3
C6
350
62
  3
C7
350
63
  3
C8
350
64
  3
C9
350
65
  3
D0
350
66
  3
D1
350
67
  3
D2
350
68
  0
DICTIONARY
  5
341
102
{ACAD_REACTORS
330
C
102
}
330
C
100
AcDbDictionary
281
     1
  0
DICTIONARY
  5
69
102
{ACAD_REACTORS
330
C
102
}
330
C
100
AcDbDictionary
281
     1
  3
Standard
350
6A
  0
DICTIONARY
  5
2A
102
{ACAD_REACTORS
330
C
102
}
330
C
100
AcDbDictionary
281
     1
  3
2dWireframe
350
2F
  3
Basic
350
32
  3
Brighten
350
36
  3
ColorChange
350
3A
  3
Conceptual
350
34
  3
Dim
350
35
  3
EdgeColorOff
350
3D
  3
Facepattern
350
39
  3
Flat
350
2B
  3
FlatWithEdges
350
2C
  3
Gouraud
350
2D
  3
GouraudWithEdges
350
2E
  3
Hidden
350
31
  3
JitterOff
350
3B
  3
Linepattern
350
38
  3
OverhangOff
350
3C
  3
Realistic
350
33
  3
Shaded
350
42
  3
Shaded with edges
350
41
  3
Shades of Gray
350
3E
  3
Sketchy
350
3F
  3
Thicken
350
37
  3
Wireframe
350
30
  3
X-Ray
350
40
  0
XRECORD
  5
33D
102
{ACAD_REACTORS
330
C
102
}
330
C
100
AcDbXrecord
280
     1
 90
        1
330
6A
  0
DICTIONARY
  5
2FD
102
{ACAD_REACTORS
330
C
102
}
330
C
100
AcDbDictionary
281
     1
  3
CANNOSCALE
350
2FE
  3
CMLEADERSTYLE
350
33F
  3
CTABLESTYLE
350
33E
  3
MSLTSCALE
350
2FF
  3
XCLIPFRAME
350
300
  0
XRECORD
  5
2FC
102
{ACAD_REACTORS
330
2FB
102
}
330
2FB
100
AcDbXrecord
280
     1
102
VTR_0.000_0.000_1.000_1.000_VISUALSTYLE
340
2F
102
VTR_0.000_0.000_1.000_1.000_GRIDDISPLAY
 70
     3
102
VTR_0.000_0.000_1.000_1.000_GRIDMAJOR
 70
     5
102
VTR_0.000_0.000_1.000_1.000_DEFAULTLIGHTING
280
     1
102
VTR_0.000_0.000_1.000_1.000_DEFAULTLIGHTINGTYPE
 70
     1
102
VTR_0.000_0.000_1.000_1.000_BRIGHTNESS
141
0.0
102
VTR_0.000_0.000_1.000_1.000_CONTRAST
142
0.0
  0
LAYOUT
  5
1E
102
{ACAD_REACTORS
330
1A
102
}
330
1A
100
AcDbPlotSettings
  1

  2
none_device
  4

  6

 40
0.0
 41
0.0
 42
0.0
 43
0.0
 44
0.0
 45
0.0
 46
0.0
 47
0.0
 48
0.0
 49
0.0
140
0.0
141
0.0
142
1.0
143
1.0
 70
   688
 72
     0
 73
     0
 74
     5
  7

 75
    16
 76
     0
 77
     2
 78
   300
147
1.0
148
0.0
149
0.0
100
AcDbLayout
  1
Layout1
 70
     1
 71
     1
 10
0.0
 20
0.0
 11
12.0
 21
9.0
 12
0.0
 22
0.0
 32
0.0
 14
1.00000000000000E+20
 24
1.00000000000000E+20
 34
1.00000000000000E+20
 15
-1.00000000000000E+20
 25
-1.00000000000000E+20
 35
-1.00000000000000E+20
146
0.0
 13
0.0
 23
0.0
 33
0.0
 16
1.0
 26
0.0
 36
0.0
 17
0.0
 27
1.0
 37
0.0
 76
     0
330
1B
  0
LAYOUT
  5
26
102
{ACAD_REACTORS
330
1A
102
}
330
1A
100
AcDbPlotSettings
  1

  2
none_device
  4

  6

 40
0.0
 41
0.0
 42
0.0
 43
0.0
 44
0.0
 45
0.0
 46
0.0
 47
0.0
 48
0.0
 49
0.0
140
0.0
141
0.0
142
1.0
143
1.0
 70
   688
 72
     0
 73
     0
 74
     5
  7

 75
    16
 76
     0
 77
     2
 78
   300
147
1.0
148
0.0
149
0.0
100
AcDbLayout
  1
Layout2
 70
     1
 71
     2
 10
0.0
 20
0.0
 11
0.0
 21
0.0
 12
0.0
 22
0.0
 32
0.0
 14
0.0
 24
0.0
 34
0.0
 15
0.0
 25
0.0
 35
0.0
146
0.0
 13
0.0
 23
0.0
 33
0.0
 16
1.0
 26
0.0
 36
0.0
 17
0.0
 27
1.0
 37
0.0
 76
     0
330
23
  0
LAYOUT
  5
22
102
{ACAD_REACTORS
330
1A
102
}
330
1A
100
AcDbPlotSettings
  1

  2
none_device
  4
Letter_(8.50_x_11.00_Inches)
  6

 40
6.35
 41
6.35
 42
6.35000508
 43
6.35000508
 44
215.9
 45
279.4
 46
0.0
 47
0.0
 48
0.0
 49
0.0
140
0.0
141
0.0
142
1.0
143
1.0
 70
  1712
 72
     0
 73
     0
 74
     0
  7

 75
     0
 76
     0
 77
     2
 78
   300
147
1.0
148
0.0
149
0.0
100
AcDbLayout
  1
Model
 70
     1
 71
     0
 10
0.0
 20
0.0
 11
12.0
 21
9.0
 12
0.0
 22
0.0
 32
0.0
 14
-297.6531265495084
 24
-48.63349138098096
 34
0.0
 15
122.34687345049
 25
248.366508619019
 35
0.0
146
0.0
 13
0.0
 23
0.0
 33
0.0
 16
1.0
 26
0.0
 36
0.0
 17
0.0
 27
1.0
 37
0.0
 76
     0
330
1F
331
29
  0
MATERIAL
  5
45
102
{ACAD_REACTORS
330
43
102
}
102
{ACAD_XDICTIONARY
360
333
102
}
330
43
100
AcDbMaterial
  1
ByBlock
  0
MATERIAL
  5
44
102
{ACAD_REACTORS
330
43
102
}
102
{ACAD_XDICTIONARY
360
331
102
}
330
43
100
AcDbMaterial
  1
ByLayer
  0
MATERIAL
  5
46
102
{ACAD_REACTORS
330
43
102
}
102
{ACAD_XDICTIONARY
360
335
102
}
330
43
100
AcDbMaterial
  1
Global
  0
MLEADERSTYLE
  5
6C
102
{ACAD_REACTORS
330
6B
102
}
102
{ACAD_XDICTIONARY
360
33B
102
}
330
6B
100
AcDbMLeaderStyle
170
     2
171
     1
172
     0
 90
        2
 40
0.0
 41
0.0
173
     1
 91
-1056964608
340
14
 92
       -2
290
     1
 42
0.09
291
     1
 43
0.36
  3
Standard
341
0
 44
0.18
300

342
11
174
     1
178
     6
175
     1
176
     0
 93
-1056964608
 45
0.18
292
     0
297
     0
 46
0.18
343
0
 94
-1056964608
 47
1.0
 49
1.0
140
1.0
293
     1
141
0.0
294
     1
177
     0
142
1.0
295
     0
296
     0
143
0.125
1001
ACAD_MLEADERVER
1070
     2
  0
MLINESTYLE
  5
18
102
{ACAD_REACTORS
330
17
102
}
330
17
100
AcDbMlineStyle
  2
Standard
 70
     0
  3

 62
   256
 51
90.0
 52
90.0
 71
     2
 49
0.5
 62
   256
  6
BYLAYER
 49
-0.5
 62
   256
  6
BYLAYER
  0
ACDBPLACEHOLDER
  5
F
102
{ACAD_REACTORS
330
E
102
}
330
E
  0
SCALE
  5
48
102
{ACAD_REACTORS
330
47
102
}
330
47
100
AcDbScale
 70
     0
300
1:1
140
1.0
141
1.0
290
     1
  0
SCALE
  5
49
102
{ACAD_REACTORS
330
47
102
}
330
47
100
AcDbScale
 70
     0
300
1:2
140
1.0
141
2.0
290
     0
  0
SCALE
  5
4A
102
{ACAD_REACTORS
330
47
102
}
330
47
100
AcDbScale
 70
     0
300
1:4
140
1.0
141
4.0
290
     0
  0
SCALE
  5
4B
102
{ACAD_REACTORS
330
47
102
}
330
47
100
AcDbScale
 70
     0
300
1:5
140
1.0
141
5.0
290
     0
  0
SCALE
  5
4C
102
{ACAD_REACTORS
330
47
102
}
330
47
100
AcDbScale
 70
     0
300
1:8
140
1.0
141
8.0
290
     0
  0
SCALE
  5
4D
102
{ACAD_REACTORS
330
47
102
}
330
47
100
AcDbScale
 70
     0
300
1:10
140
1.0
141
10.0
290
     0
  0
SCALE
  5
4E
102
{ACAD_REACTORS
330
47
102
}
330
47
100
AcDbScale
 70
     0
300
1:16
140
1.0
141
16.0
290
     0
  0
SCALE
  5
4F
102
{ACAD_REACTORS
330
47
102
}
330
47
100
AcDbScale
 70
     0
300
1:20
140
1.0
141
20.0
290
     0
  0
SCALE
  5
50
102
{ACAD_REACTORS
330
47
102
}
330
47
100
AcDbScale
 70
     0
300
1:30
140
1.0
141
30.0
290
     0
  0
SCALE
  5
51
102
{ACAD_REACTORS
330
47
102
}
330
47
100
AcDbScale
 70
     0
300
1:40
140
1.0
141
40.0
290
     0
  0
SCALE
  5
52
102
{ACAD_REACTORS
330
47
102
}
330
47
100
AcDbScale
 70
     0
300
1:50
140
1.0
141
50.0
290
     0
  0
SCALE
  5
53
102
{ACAD_REACTORS
330
47
102
}
330
47
100
AcDbScale
 70
     0
300
1:100
140
1.0
141
100.0
290
     0
  0
SCALE
  5
54
102
{ACAD_REACTORS
330
47
102
}
330
47
100
AcDbScale
 70
     0
300
2:1
140
2.0
141
1.0
290
     0
  0
SCALE
  5
55
102
{ACAD_REACTORS
330
47
102
}
330
47
100
AcDbScale
 70
     0
300
4:1
140
4.0
141
1.0
290
     0
  0
SCALE
  5
56
102
{ACAD_REACTORS
330
47
102
}
330
47
100
AcDbScale
 70
     0
300
8:1
140
8.0
141
1.0
290
     0
  0
SCALE
  5
57
102
{ACAD_REACTORS
330
47
102
}
330
47
100
AcDbScale
 70
     0
300
10:1
140
10.0
141
1.0
290
     0
  0
SCALE
  5
58
102
{ACAD_REACTORS
330
47
102
}
330
47
100
AcDbScale
 70
     0
300
100:1
140
100.0
141
1.0
290
     0
  0
SCALE
  5
59
102
{ACAD_REACTORS
330
47
102
}
330
47
100
AcDbScale
 70
     0
300
1/128" = 1'-0"
140
0.0078125
141
12.0
290
     0
  0
SCALE
  5
5A
102
{ACAD_REACTORS
330
47
102
}
330
47
100
AcDbScale
 70
     0
300
1/64" = 1'-0"
140
0.015625
141
12.0
290
     0
  0
SCALE
  5
5B
102
{ACAD_REACTORS
330
47
102
}
330
47
100
AcDbScale
 70
     0
300
1/32" = 1'-0"
140
0.03125
141
12.0
290
     0
  0
SCALE
  5
5C
102
{ACAD_REACTORS
330
47
102
}
330
47
100
AcDbScale
 70
     0
300
1/16" = 1'-0"
140
0.0625
141
12.0
290
     0
  0
SCALE
  5
5D
102
{ACAD_REACTORS
330
47
102
}
330
47
100
AcDbScale
 70
     0
300
3/32" = 1'-0"
140
0.09375
141
12.0
290
     0
  0
SCALE
  5
5E
102
{ACAD_REACTORS
330
47
102
}
330
47
100
AcDbScale
 70
     0
300
1/8" = 1'-0"
140
0.125
141
12.0
290
     0
  0
SCALE
  5
5F
102
{ACAD_REACTORS
330
47
102
}
330
47
100
AcDbScale
 70
     0
300
3/16" = 1'-0"
140
0.1875
141
12.0
290
     0
  0
SCALE
  5
60
102
{ACAD_REACTORS
330
47
102
}
330
47
100
AcDbScale
 70
     0
300
1/4" = 1'-0"
140
0.25
141
12.0
290
     0
  0
SCALE
  5
61
102
{ACAD_REACTORS
330
47
102
}
330
47
100
AcDbScale
 70
     0
300
3/8" = 1'-0"
140
0.375
141
12.0
290
     0
  0
SCALE
  5
62
102
{ACAD_REACTORS
330
47
102
}
330
47
100
AcDbScale
 70
     0
300
1/2" = 1'-0"
140
0.5
141
12.0
290
     0
  0
SCALE
  5
63
102
{ACAD_REACTORS
330
47
102
}
330
47
100
AcDbScale
 70
     0
300
3/4" = 1'-0"
140
0.75
141
12.0
290
     0
  0
SCALE
  5
64
102
{ACAD_REACTORS
330
47
102
}
330
47
100
AcDbScale
 70
     0
300
1" = 1'-0"
140
1.0
141
12.0
290
     0
  0
SCALE
  5
65
102
{ACAD_REACTORS
330
47
102
}
330
47
100
AcDbScale
 70
     0
300
1-1/2" = 1'-0"
140
1.5
141
12.0
290
     0
  0
SCALE
  5
66
102
{ACAD_REACTORS
330
47
102
}
330
47
100
AcDbScale
 70
     0
300
3" = 1'-0"
140
3.0
141
12.0
290
     0
  0
SCALE
  5
67
102
{ACAD_REACTORS
330
47
102
}
330
47
100
AcDbScale
 70
     0
300
6" = 1'-0"
140
6.0
141
12.0
290
     0
  0
SCALE
  5
68
102
{ACAD_REACTORS
330
47
102
}
330
47
100
AcDbScale
 70
     0
300
1'-0" = 1'-0"
140
12.0
141
12.0
290
     0
  0
TABLESTYLE
  5
6A
102
{ACAD_REACTORS
330
69
102
}
102
{ACAD_XDICTIONARY
360
337
102
}
330
69
100
AcDbTableStyle
  3
Standard
 70
     0
 71
     0
 40
0.06
 41
0.06
280
     0
281
     0
  7
Standard
140
0.18
170
     2
 62
     0
 63
   257
283
     0
274
    -2
284
     1
 64
     0
275
    -2
285
     1
 65
     0
276
    -2
286
     1
 66
     0
277
    -2
287
     1
 67
     0
278
    -2
288
     1
 68
     0
279
    -2
289
     1
 69
     0
  7
Standard
140
0.25
170
     5
 62
     0
 63
   257
283
     0
274
    -2
284
     1
 64
     0
275
    -2
285
     1
 65
     0
276
    -2
286
     1
 66
     0
277
    -2
287
     1
 67
     0
278
    -2
288
     1
 68
     0
279
    -2
289
     1
 69
     0
  7
Standard
140
0.18
170
     5
 62
     0
 63
   257
283
     0
274
    -2
284
     1
 64
     0
275
    -2
285
     1
 65
     0
276
    -2
286
     1
 66
     0
277
    -2
287
     1
 67
     0
278
    -2
288
     1
 68
     0
279
    -2
289
     1
 69
     0
  0
VISUALSTYLE
  5
2F
102
{ACAD_REACTORS
330
2A
102
}
102
{ACAD_XDICTIONARY
360
309
102
}
330
2A
100
AcDbVisualStyle
  2
2dWireframe
 70
     4
 71
     0
 72
     2
 73
     0
 90
        0
 40
0.6
 41
30.0
 62
     5
 63
     7
421
 16777215
 74
     1
 91
        4
 64
     7
 65
   257
 75
     1
175
     1
 42
1.0
 92
        0
 66
   257
 43
1.0
 76
     1
 77
     6
 78
     2
 67
     7
 79
     5
170
     0
171
     0
290
     0
174
     0
 93
        1
 44
0.0
173
     0
291
     0
 45
0.0
1001
ACAD
1000
AcDbSavedByObjectVersion
1070
     0
  0
VISUALSTYLE
  5
32
102
{ACAD_REACTORS
330
2A
102
}
102
{ACAD_XDICTIONARY
360
30F
102
}
330
2A
100
AcDbVisualStyle
  2
Basic
 70
     7
 71
     1
 72
     0
 73
     1
 90
        0
 40
0.6
 41
30.0
 62
     5
 63
     7
421
 16777215
 74
     0
 91
        4
 64
     7
 65
   257
 75
     1
175
     1
 42
1.0
 92
        8
 66
     7
 43
1.0
 76
     1
 77
     6
 78
     2
 67
     7
 79
     5
170
     0
171
     0
290
     0
174
     0
 93
        1
 44
0.0
173
     0
291
     1
 45
0.0
1001
ACAD
1000
AcDbSavedByObjectVersion
1070
     0
  0
VISUALSTYLE
  5
36
102
{ACAD_REACTORS
330
2A
102
}
102
{ACAD_XDICTIONARY
360
317
102
}
330
2A
100
AcDbVisualStyle
  2
Brighten
 70
    12
 71
     2
 72
     2
 73
     0
 90
        0
 40
0.6
 41
30.0
 62
     5
 63
     7
421
 16777215
 74
     1
 91
        4
 64
     7
 65
   257
 75
     1
175
     1
 42
1.0
 92
        8
 66
     7
 43
1.0
 76
     1
 77
     6
 78
     2
 67
     7
 79
     5
170
     0
171
     0
290
     0
174
     0
 93
        1
 44
50.0
173
     0
291
     1
 45
0.0
1001
ACAD
1000
AcDbSavedByObjectVersion
1070
     0
  0
VISUALSTYLE
  5
3A
102
{ACAD_REACTORS
330
2A
102
}
102
{ACAD_XDICTIONARY
360
31F
102
}
330
2A
100
AcDbVisualStyle
  2
ColorChange
 70
    16
 71
     2
 72
     2
 73
     3
 90
        0
 40
0.6
 41
30.0
 62
     5
 63
     8
421
  8421504
 74
     1
 91
        4
 64
     7
 65
   257
 75
     1
175
     1
 42
1.0
 92
        8
 66
     8
424
  8421504
 43
1.0
 76
     1
 77
     6
 78
     2
 67
     7
 79
     5
170
     0
171
     0
290
     0
174
     0
 93
        1
 44
0.0
173
     0
291
     1
 45
0.0
1001
ACAD
1000
AcDbSavedByObjectVersion
1070
     0
  0
VISUALSTYLE
  5
34
102
{ACAD_REACTORS
330
2A
102
}
102
{ACAD_XDICTIONARY
360
313
102
}
330
2A
100
AcDbVisualStyle
  2
Conceptual
 70
     9
 71
     3
 72
     2
 73
     0
 90
        0
 40
0.6
 41
30.0
 62
     5
 63
     7
421
 16777215
 74
     2
 91
        2
 64
     7
 65
   257
 75
     1
175
     1
 42
179.0
 92
        8
 66
     7
 43
1.0
 76
     1
 77
     6
 78
     2
 67
     7
 79
     3
170
     0
171
     0
290
     0
174
     0
 93
        1
 44
0.0
173
     0
291
     0
 45
0.0
1001
ACAD
1000
AcDbSavedByObjectVersion
1070
     0
  0
VISUALSTYLE
  5
35
102
{ACAD_REACTORS
330
2A
102
}
102
{ACAD_XDICTIONARY
360
315
102
}
330
2A
100
AcDbVisualStyle
  2
Dim
 70
    11
 71
     2
 72
     2
 73
     0
 90
        0
 40
0.6
 41
30.0
 62
     5
 63
     7
421
 16777215
 74
     1
 91
        4
 64
     7
 65
   257
 75
     1
175
     1
 42
1.0
 92
        8
 66
     7
 43
1.0
 76
     1
 77
     6
 78
     2
 67
     7
 79
     5
170
     0
171
     0
290
     0
174
     0
 93
        1
 44
-50.0
173
     0
291
     1
 45
0.0
1001
ACAD
1000
AcDbSavedByObjectVersion
1070
     0
  0
VISUALSTYLE
  5
3D
102
{ACAD_REACTORS
330
2A
102
}
102
{ACAD_XDICTIONARY
360
325
102
}
330
2A
100
AcDbVisualStyle
  2
EdgeColorOff
 70
    22
 71
     2
 72
     2
 73
     0
 90
        0
 40
0.6
 41
30.0
 62
     5
 63
     7
421
 16777215
 74
     1
 91
        4
 64
     7
 65
   257
 75
     1
175
     1
 42
1.0
 92
        8
 66
     7
 43
1.0
 76
     1
 77
     6
 78
     2
 67
     7
 79
     5
170
     0
171
     0
290
     0
174
     0
 93
        1
 44
0.0
173
     0
291
     1
 45
0.0
1001
ACAD
1000
AcDbSavedByObjectVersion
1070
     0
  0
VISUALSTYLE
  5
39
102
{ACAD_REACTORS
330
2A
102
}
102
{ACAD_XDICTIONARY
360
31D
102
}
330
2A
100
AcDbVisualStyle
  2
Facepattern
 70
    15
 71
     2
 72
     2
 73
     0
 90
        0
 40
0.6
 41
30.0
 62
     5
 63
     7
421
 16777215
 74
     1
 91
        4
 64
     7
 65
   257
 75
     1
175
     1
 42
1.0
 92
        8
 66
     7
 43
1.0
 76
     1
 77
     6
 78
     2
 67
     7
 79
     5
170
     0
171
     0
290
     0
174
     0
 93
        1
 44
0.0
173
     0
291
     1
 45
0.0
1001
ACAD
1000
AcDbSavedByObjectVersion
1070
     0
  0
VISUALSTYLE
  5
2B
102
{ACAD_REACTORS
330
2A
102
}
102
{ACAD_XDICTIONARY
360
301
102
}
330
2A
100
AcDbVisualStyle
  2
Flat
 70
     0
 71
     2
 72
     1
 73
     1
 90
        2
 40
0.6
 41
30.0
 62
     5
 63
     7
421
 16777215
 74
     0
 91
        0
 64
     7
 65
   257
 75
     1
175
     1
 42
1.0
 92
        8
 66
     7
 43
1.0
 76
     1
 77
     6
 78
     2
 67
     7
 79
     5
170
     0
171
     0
290
     0
174
     0
 93
       13
 44
0.0
173
     0
291
     1
 45
0.0
1001
ACAD
1000
AcDbSavedByObjectVersion
1070
     0
  0
VISUALSTYLE
  5
2C
102
{ACAD_REACTORS
330
2A
102
}
102
{ACAD_XDICTIONARY
360
303
102
}
330
2A
100
AcDbVisualStyle
  2
FlatWithEdges
 70
     1
 71
     2
 72
     1
 73
     1
 90
        2
 40
0.6
 41
30.0
 62
     5
 63
     7
421
 16777215
 74
     1
 91
        0
 64
     7
 65
   257
 75
     1
175
     1
 42
1.0
 92
        0
 66
   257
 43
1.0
 76
     1
 77
     6
 78
     2
 67
     7
 79
     5
170
     0
171
     0
290
     0
174
     0
 93
       13
 44
0.0
173
     0
291
     1
 45
0.0
1001
ACAD
1000
AcDbSavedByObjectVersion
1070
     0
  0
VISUALSTYLE
  5
2D
102
{ACAD_REACTORS
330
2A
102
}
102
{ACAD_XDICTIONARY
360
305
102
}
330
2A
100
AcDbVisualStyle
  2
Gouraud
 70
     2
 71
     2
 72
     2
 73
     1
 90
        2
 40
0.6
 41
30.0
 62
     5
 63
     7
421
 16777215
 74
     0
 91
        0
 64
     7
 65
   257
 75
     1
175
     1
 42
1.0
 92
        0
 66
     7
 43
1.0
 76
     1
 77
     6
 78
     2
 67
     7
 79
     5
170
     0
171
     0
290
     0
174
     0
 93
       13
 44
0.0
173
     0
291
     1
 45
0.0
1001
ACAD
1000
AcDbSavedByObjectVersion
1070
     0
  0
VISUALSTYLE
  5
2E
102
{ACAD_REACTORS
330
2A
102
}
102
{ACAD_XDICTIONARY
360
307
102
}
330
2A
100
AcDbVisualStyle
  2
GouraudWithEdges
 70
     3
 71
     2
 72
     2
 73
     1
 90
        2
 40
0.6
 41
30.0
 62
     5
 63
     7
421
 16777215
 74
     1
 91
        0
 64
     7
 65
   257
 75
     1
175
     1
 42
1.0
 92
        0
 66
   257
 43
1.0
 76
     1
 77
     6
 78
     2
 67
     7
 79
     5
170
     0
171
     0
290
     0
174
     0
 93
       13
 44
0.0
173
     0
291
     1
 45
0.0
1001
ACAD
1000
AcDbSavedByObjectVersion
1070
     0
  0
VISUALSTYLE
  5
31
102
{ACAD_REACTORS
330
2A
102
}
102
{ACAD_XDICTIONARY
360
30D
102
}
330
2A
100
AcDbVisualStyle
  2
Hidden
 70
     6
 71
     1
 72
     2
 73
     2
 90
        0
 40
0.6
 41
30.0
 62
     5
 63
     7
421
 16777215
 74
     2
 91
        2
 64
     7
 65
   257
 75
     2
175
     1
 42
40.0
 92
        0
 66
   257
 43
1.0
 76
     1
 77
     6
 78
     2
 67
     7
 79
     3
170
     0
171
     0
290
     0
174
     0
 93
        1
 44
0.0
173
     0
291
     0
 45
0.0
1001
ACAD
1000
AcDbSavedByObjectVersion
1070
     0
  0
VISUALSTYLE
  5
3B
102
{ACAD_REACTORS
330
2A
102
}
102
{ACAD_XDICTIONARY
360
321
102
}
330
2A
100
AcDbVisualStyle
  2
JitterOff
 70
    20
 71
     2
 72
     2
 73
     0
 90
        0
 40
0.6
 41
30.0
 62
     5
 63
     7
421
 16777215
 74
     1
 91
        4
 64
     7
 65
   257
 75
     1
175
     1
 42
1.0
 92
       10
 66
     7
 43
1.0
 76
     1
 77
     6
 78
     2
 67
     7
 79
     5
170
     0
171
     0
290
     0
174
     0
 93
        1
 44
0.0
173
     0
291
     1
 45
0.0
1001
ACAD
1000
AcDbSavedByObjectVersion
1070
     0
  0
VISUALSTYLE
  5
38
102
{ACAD_REACTORS
330
2A
102
}
102
{ACAD_XDICTIONARY
360
31B
102
}
330
2A
100
AcDbVisualStyle
  2
Linepattern
 70
    14
 71
     2
 72
     2
 73
     0
 90
        0
 40
0.6
 41
30.0
 62
     5
 63
     7
421
 16777215
 74
     1
 91
        4
 64
     7
 65
   257
 75
     7
175
     7
 42
1.0
 92
        8
 66
     7
 43
1.0
 76
     1
 77
     6
 78
     2
 67
     7
 79
     5
170
     0
171
     0
290
     0
174
     0
 93
        1
 44
0.0
173
     0
291
     1
 45
0.0
1001
ACAD
1000
AcDbSavedByObjectVersion
1070
     0
  0
VISUALSTYLE
  5
3C
102
{ACAD_REACTORS
330
2A
102
}
102
{ACAD_XDICTIONARY
360
323
102
}
330
2A
100
AcDbVisualStyle
  2
OverhangOff
 70
    21
 71
     2
 72
     2
 73
     0
 90
        0
 40
0.6
 41
30.0
 62
     5
 63
     7
421
 16777215
 74
     1
 91
        4
 64
     7
 65
   257
 75
     1
175
     1
 42
1.0
 92
        9
 66
     7
 43
1.0
 76
     1
 77
     6
 78
     2
 67
     7
 79
     5
170
     0
171
     0
290
     0
174
     0
 93
        1
 44
0.0
173
     0
291
     1
 45
0.0
1001
ACAD
1000
AcDbSavedByObjectVersion
1070
     0
  0
VISUALSTYLE
  5
33
102
{ACAD_REACTORS
330
2A
102
}
102
{ACAD_XDICTIONARY
360
311
102
}
330
2A
100
AcDbVisualStyle
  2
Realistic
 70
     8
 71
     2
 72
     3
 73
     0
 90
        2
 40
0.6
 41
30.0
 62
     5
 63
     7
421
 16777215
 74
     0
 91
        0
 64
     7
 65
   257
 75
     1
175
     1
 42
1.0
 92
        8
 66
   257
 43
1.0
 76
     1
 77
     6
 78
     2
 67
     7
 79
     3
170
     0
171
     0
290
     0
174
     0
 93
       13
 44
0.0
173
     0
291
     0
 45
0.0
1001
ACAD
1000
AcDbSavedByObjectVersion
1070
     0
  0
VISUALSTYLE
  5
42
102
{ACAD_REACTORS
330
2A
102
}
102
{ACAD_XDICTIONARY
360
32F
102
}
330
2A
100
AcDbVisualStyle
  2
Shaded
 70
    27
 71
     2
 72
     2
 73
     1
 90
        2
 40
0.6
 41
30.0
 62
     5
 63
     7
421
 16777215
 74
     0
 91
        4
 64
     7
 65
   257
 75
     1
175
     1
 42
1.0
 92
        8
 66
   257
 43
1.0
 76
     1
 77
     6
 78
     2
 67
     8
425
  7895160
 79
     3
170
     0
171
     0
290
     0
174
     0
 93
        5
 44
0.0
173
     0
291
     0
 45
0.0
1001
ACAD
1000
AcDbSavedByObjectVersion
1070
     0
  0
VISUALSTYLE
  5
41
102
{ACAD_REACTORS
330
2A
102
}
102
{ACAD_XDICTIONARY
360
32D
102
}
330
2A
100
AcDbVisualStyle
  2
Shaded with edges
 70
    26
 71
     2
 72
     2
 73
     1
 90
        2
 40
0.6
 41
30.0
 62
     5
 63
     7
421
 16777215
 74
     1
 91
       10
 64
     7
 65
   257
 75
     2
175
     1
 42
1.0
 92
        8
 66
   257
 43
1.0
 76
     1
 77
     6
 78
     2
 67
     7
 79
     3
170
     0
171
     0
290
     0
174
     0
 93
        5
 44
0.0
173
     0
291
     0
 45
0.0
1001
ACAD
1000
AcDbSavedByObjectVersion
1070
     0
  0
VISUALSTYLE
  5
3E
102
{ACAD_REACTORS
330
2A
102
}
102
{ACAD_XDICTIONARY
360
327
102
}
330
2A
100
AcDbVisualStyle
  2
Shades of Gray
 70
    23
 71
     2
 72
     2
 73
     3
 90
        0
 40
0.6
 41
30.0
 62
     5
 63
     7
421
 16777215
 74
     2
 91
        2
 64
     7
 65
     7
 75
     1
175
     1
 42
40.0
 92
        8
 66
     7
 43
1.0
 76
     1
 77
     6
 78
     2
 67
     7
 79
     3
170
     0
171
     0
290
     0
174
     0
 93
        1
 44
0.0
173
     0
291
     0
 45
0.0
1001
ACAD
1000
AcDbSavedByObjectVersion
1070
     0
  0
VISUALSTYLE
  5
3F
102
{ACAD_REACTORS
330
2A
102
}
102
{ACAD_XDICTIONARY
360
329
102
}
330
2A
100
AcDbVisualStyle
  2
Sketchy
 70
    24
 71
     1
 72
     2
 73
     2
 90
        0
 40
0.6
 41
30.0
 62
     5
 63
     7
421
 16777215
 74
     2
 91
        2
 64
     7
 65
     7
 75
     1
175
     1
 42
40.0
 92
       11
 66
     7
 43
1.0
 76
     1
 77
     6
 78
     2
 67
     7
 79
     6
170
     0
171
     0
290
     0
174
     0
 93
        1
 44
0.0
173
     0
291
     0
 45
0.0
1001
ACAD
1000
AcDbSavedByObjectVersion
1070
     0
  0
VISUALSTYLE
  5
37
102
{ACAD_REACTORS
330
2A
102
}
102
{ACAD_XDICTIONARY
360
319
102
}
330
2A
100
AcDbVisualStyle
  2
Thicken
 70
    13
 71
     2
 72
     2
 73
     0
 90
        0
 40
0.6
 41
30.0
 62
     5
 63
     7
421
 16777215
 74
     1
 91
        4
 64
     7
 65
   257
 75
     1
175
     1
 42
1.0
 92
       12
 66
     7
 43
1.0
 76
     1
 77
     6
 78
     2
 67
     7
 79
     5
170
     0
171
     0
290
     0
174
     0
 93
        1
 44
0.0
173
     0
291
     1
 45
0.0
1001
ACAD
1000
AcDbSavedByObjectVersion
1070
     0
  0
VISUALSTYLE
  5
30
102
{ACAD_REACTORS
330
2A
102
}
102
{ACAD_XDICTIONARY
360
30B
102
}
330
2A
100
AcDbVisualStyle
  2
Wireframe
 70
     5
 71
     0
 72
     2
 73
     0
 90
        0
 40
0.6
 41
30.0
 62
     5
 63
     7
421
 16777215
 74
     1
 91
        4
 64
     7
 65
   257
 75
     1
175
     1
 42
1.0
 92
        0
 66
   257
 43
1.0
 76
     1
 77
     6
 78
     2
 67
     7
 79
     3
170
     0
171
     0
290
     0
174
     0
 93
        1
 44
0.0
173
     0
291
     0
 45
0.0
1001
ACAD
1000
AcDbSavedByObjectVersion
1070
     0
  0
VISUALSTYLE
  5
40
102
{ACAD_REACTORS
330
2A
102
}
102
{ACAD_XDICTIONARY
360
32B
102
}
330
2A
100
AcDbVisualStyle
  2
X-Ray
 70
    25
 71
     2
 72
     2
 73
     1
 90
        1
 40
0.5
 41
30.0
 62
     5
 63
     7
421
 16777215
 74
     1
 91
        0
 64
     7
 65
   257
 75
     1
175
     1
 42
1.0
 92
        8
 66
     7
 43
1.0
 76
     1
 77
     6
 78
     2
 67
     7
 79
     3
170
     0
171
     0
290
     0
174
     0
 93
       13
 44
0.0
173
     0
291
     0
 45
0.0
1001
ACAD
1000
AcDbSavedByObjectVersion
1070
     0
  0
DICTIONARYVAR
  5
2FE
102
{ACAD_REACTORS
330
2FD
102
}
330
2FD
100
DictionaryVariables
280
     0
  1
1:1
  0
DICTIONARYVAR
  5
33F
102
{ACAD_REACTORS
330
2FD
102
}
330
2FD
100
DictionaryVariables
280
     0
  1
Standard
  0
DICTIONARYVAR
  5
33E
102
{ACAD_REACTORS
330
2FD
102
}
330
2FD
100
DictionaryVariables
280
     0
  1
Standard
  0
DICTIONARYVAR
  5
2FF
102
{ACAD_REACTORS
330
2FD
102
}
330
2FD
100
DictionaryVariables
280
     0
  1
1
  0
DICTIONARYVAR
  5
300
102
{ACAD_REACTORS
330
2FD
102
}
330
2FD
100
DictionaryVariables
280
     0
  1
2
  0
DICTIONARY
  5
333
330
45
100
AcDbDictionary
280
     1
281
     1
  3
ACAD_XREC_ROUNDTRIP
360
334
  0
DICTIONARY
  5
331
330
44
100
AcDbDictionary
280
     1
281
     1
  3
ACAD_XREC_ROUNDTRIP
360
332
  0
DICTIONARY
  5
335
330
46
100
AcDbDictionary
280
     1
281
     1
  3
ACAD_XREC_ROUNDTRIP
360
336
  0
DICTIONARY
  5
33B
330
6C
100
AcDbDictionary
280
     1
281
     1
  3
ACAD_XREC_ROUNDTRIP
360
33C
  0
DICTIONARY
  5
337
330
6A
100
AcDbDictionary
280
     1
281
     1
  3
ACAD_ROUNDTRIP_2008_TABLESTYLE_CELLSTYLEMAP
360
339
  3
ACAD_XREC_ROUNDTRIP
360
338
  0
DICTIONARY
  5
309
330
2F
100
AcDbDictionary
280
     1
281
     1
  3
ACAD_XREC_ROUNDTRIP
360
30A
  0
DICTIONARY
  5
30F
330
32
100
AcDbDictionary
280
     1
281
     1
  3
ACAD_XREC_ROUNDTRIP
360
310
  0
DICTIONARY
  5
317
330
36
100
AcDbDictionary
280
     1
281
     1
  3
ACAD_XREC_ROUNDTRIP
360
318
  0
DICTIONARY
  5
31F
330
3A
100
AcDbDictionary
280
     1
281
     1
  3
ACAD_XREC_ROUNDTRIP
360
320
  0
DICTIONARY
  5
313
330
34
100
AcDbDictionary
280
     1
281
     1
  3
ACAD_XREC_ROUNDTRIP
360
314
  0
DICTIONARY
  5
315
330
35
100
AcDbDictionary
280
     1
281
     1
  3
ACAD_XREC_ROUNDTRIP
360
316
  0
DICTIONARY
  5
325
330
3D
100
AcDbDictionary
280
     1
281
     1
  3
ACAD_XREC_ROUNDTRIP
360
326
  0
DICTIONARY
  5
31D
330
39
100
AcDbDictionary
280
     1
281
     1
  3
ACAD_XREC_ROUNDTRIP
360
31E
  0
DICTIONARY
  5
301
330
2B
100
AcDbDictionary
280
     1
281
     1
  3
ACAD_XREC_ROUNDTRIP
360
302
  0
DICTIONARY
  5
303
330
2C
100
AcDbDictionary
280
     1
281
     1
  3
ACAD_XREC_ROUNDTRIP
360
304
  0
DICTIONARY
  5
305
330
2D
100
AcDbDictionary
280
     1
281
     1
  3
ACAD_XREC_ROUNDTRIP
360
306
  0
DICTIONARY
  5
307
330
2E
100
AcDbDictionary
280
     1
281
     1
  3
ACAD_XREC_ROUNDTRIP
360
308
  0
DICTIONARY
  5
30D
330
31
100
AcDbDictionary
280
     1
281
     1
  3
ACAD_XREC_ROUNDTRIP
360
30E
  0
DICTIONARY
  5
321
330
3B
100
AcDbDictionary
280
     1
281
     1
  3
ACAD_XREC_ROUNDTRIP
360
322
  0
DICTIONARY
  5
31B
330
38
100
AcDbDictionary
280
     1
281
     1
  3
ACAD_XREC_ROUNDTRIP
360
31C
  0
DICTIONARY
  5
323
330
3C
100
AcDbDictionary
280
     1
281
     1
  3
ACAD_XREC_ROUNDTRIP
360
324
  0
DICTIONARY
  5
311
330
33
100
AcDbDictionary
280
     1
281
     1
  3
ACAD_XREC_ROUNDTRIP
360
312
  0
DICTIONARY
  5
32F
330
42
100
AcDbDictionary
280
     1
281
     1
  3
ACAD_XREC_ROUNDTRIP
360
330
  0
DICTIONARY
  5
32D
330
41
100
AcDbDictionary
280
     1
281
     1
  3
ACAD_XREC_ROUNDTRIP
360
32E
  0
DICTIONARY
  5
327
330
3E
100
AcDbDictionary
280
     1
281
     1
  3
ACAD_XREC_ROUNDTRIP
360
328
  0
DICTIONARY
  5
329
330
3F
100
AcDbDictionary
280
     1
281
     1
  3
ACAD_XREC_ROUNDTRIP
360
32A
  0
DICTIONARY
  5
319
330
37
100
AcDbDictionary
280
     1
281
     1
  3
ACAD_XREC_ROUNDTRIP
360
31A
  0
DICTIONARY
  5
30B
330
30
100
AcDbDictionary
280
     1
281
     1
  3
ACAD_XREC_ROUNDTRIP
360
30C
  0
DICTIONARY
  5
32B
330
40
100
AcDbDictionary
280
     1
281
     1
  3
ACAD_XREC_ROUNDTRIP
360
32C
  0
XRECORD
  5
334
102
{ACAD_REACTORS
330
333
102
}
330
333
100
AcDbXrecord
280
     1
102
MATERIAL
148
0.0
149
0.0
149
0.0
 93
        0
 94
      127
282
     0
 72
     1
 77
     1
171
     1
175
     1
179
     1
273
     0
  0
XRECORD
  5
332
102
{ACAD_REACTORS
330
331
102
}
330
331
100
AcDbXrecord
280
     1
102
MATERIAL
148
0.0
149
0.0
149
0.0
 93
        0
 94
      127
282
     0
 72
     1
 77
     1
171
     1
175
     1
179
     1
273
     0
  0
XRECORD
  5
336
102
{ACAD_REACTORS
330
335
102
}
330
335
100
AcDbXrecord
280
     1
102
MATERIAL
148
0.0
149
0.0
149
0.0
 93
        0
 94
      127
282
     0
 72
     1
 77
     1
171
     1
175
     1
179
     1
273
     0
  0
XRECORD
  5
33C
102
{ACAD_REACTORS
330
33B
102
}
330
33B
100
AcDbXrecord
280
     1
102
ACAD_ROUNDTRIP_2010_MLEADER_STYLE
  0
CELLSTYLEMAP
  5
339
102
{ACAD_REACTORS
330
337
102
}
330
337
100
AcDbCellStyleMap
 90
        3
300
CELLSTYLE
  1
TABLEFORMAT_BEGIN
 90
        5
170
     1
 91
        0
 92
    32768
 62
   257
 93
        1
300
CONTENTFORMAT
  1
CONTENTFORMAT_BEGIN
 90
        0
 91
        0
 92
        4
 93
        0
300

 40
0.0
140
1.0
 94
        5
 62
     0
340
11
144
0.25
309
CONTENTFORMAT_END
171
     1
301
MARGIN
  1
CELLMARGIN_BEGIN
 40
0.06
 40
0.06
 40
0.06
 40
0.06
 40
0.06
 40
0.06
309
CELLMARGIN_END
 94
        6
 95
        1
302
GRIDFORMAT
  1
GRIDFORMAT_BEGIN
 90
        0
 91
        1
 62
     0
 92
       -2
340
14
 93
        0
 40
0.045
309
GRIDFORMAT_END
 95
        2
302
GRIDFORMAT
  1
GRIDFORMAT_BEGIN
 90
        0
 91
        1
 62
     0
 92
       -2
340
14
 93
        0
 40
0.045
309
GRIDFORMAT_END
 95
        4
302
GRIDFORMAT
  1
GRIDFORMAT_BEGIN
 90
        0
 91
        1
 62
     0
 92
       -2
340
14
 93
        0
 40
0.045
309
GRIDFORMAT_END
 95
        8
302
GRIDFORMAT
  1
GRIDFORMAT_BEGIN
 90
        0
 91
        1
 62
     0
 92
       -2
340
14
 93
        0
 40
0.045
309
GRIDFORMAT_END
 95
       16
302
GRIDFORMAT
  1
GRIDFORMAT_BEGIN
 90
        0
 91
        1
 62
     0
 92
       -2
340
14
 93
        0
 40
0.045
309
GRIDFORMAT_END
 95
       32
302
GRIDFORMAT
  1
GRIDFORMAT_BEGIN
 90
        0
 91
        1
 62
     0
 92
       -2
340
14
 93
        0
 40
0.045
309
GRIDFORMAT_END
309
TABLEFORMAT_END
  1
CELLSTYLE_BEGIN
 90
        1
 91
        1
300
_TITLE
309
CELLSTYLE_END
300
CELLSTYLE
  1
TABLEFORMAT_BEGIN
 90
        5
170
     1
 91
        0
 92
        0
 62
   257
 93
        1
300
CONTENTFORMAT
  1
CONTENTFORMAT_BEGIN
 90
        0
 91
        0
 92
        4
 93
        0
300

 40
0.0
140
1.0
 94
        5
 62
     0
340
11
144
0.18
309
CONTENTFORMAT_END
171
     1
301
MARGIN
  1
CELLMARGIN_BEGIN
 40
0.06
 40
0.06
 40
0.06
 40
0.06
 40
0.06
 40
0.06
309
CELLMARGIN_END
 94
        6
 95
        1
302
GRIDFORMAT
  1
GRIDFORMAT_BEGIN
 90
        0
 91
        1
 62
     0
 92
       -2
340
14
 93
        0
 40
0.045
309
GRIDFORMAT_END
 95
        2
302
GRIDFORMAT
  1
GRIDFORMAT_BEGIN
 90
        0
 91
        1
 62
     0
 92
       -2
340
14
 93
        0
 40
0.045
309
GRIDFORMAT_END
 95
        4
302
GRIDFORMAT
  1
GRIDFORMAT_BEGIN
 90
        0
 91
        1
 62
     0
 92
       -2
340
14
 93
        0
 40
0.045
309
GRIDFORMAT_END
 95
        8
302
GRIDFORMAT
  1
GRIDFORMAT_BEGIN
 90
        0
 91
        1
 62
     0
 92
       -2
340
14
 93
        0
 40
0.045
309
GRIDFORMAT_END
 95
       16
302
GRIDFORMAT
  1
GRIDFORMAT_BEGIN
 90
        0
 91
        1
 62
     0
 92
       -2
340
14
 93
        0
 40
0.045
309
GRIDFORMAT_END
 95
       32
302
GRIDFORMAT
  1
GRIDFORMAT_BEGIN
 90
        0
 91
        1
 62
     0
 92
       -2
340
14
 93
        0
 40
0.045
309
GRIDFORMAT_END
309
TABLEFORMAT_END
  1
CELLSTYLE_BEGIN
 90
        2
 91
        1
300
_HEADER
309
CELLSTYLE_END
300
CELLSTYLE
  1
TABLEFORMAT_BEGIN
 90
        5
170
     1
 91
        0
 92
        0
 62
   257
 93
        1
300
CONTENTFORMAT
  1
CONTENTFORMAT_BEGIN
 90
        0
 91
        0
 92
        4
 93
        0
300

 40
0.0
140
1.0
 94
        2
 62
     0
340
11
144
0.18
309
CONTENTFORMAT_END
171
     1
301
MARGIN
  1
CELLMARGIN_BEGIN
 40
0.06
 40
0.06
 40
0.06
 40
0.06
 40
0.06
 40
0.06
309
CELLMARGIN_END
 94
        6
 95
        1
302
GRIDFORMAT
  1
GRIDFORMAT_BEGIN
 90
        0
 91
        1
 62
     0
 92
       -2
340
14
 93
        0
 40
0.045
309
GRIDFORMAT_END
 95
        2
302
GRIDFORMAT
  1
GRIDFORMAT_BEGIN
 90
        0
 91
        1
 62
     0
 92
       -2
340
14
 93
        0
 40
0.045
309
GRIDFORMAT_END
 95
        4
302
GRIDFORMAT
  1
GRIDFORMAT_BEGIN
 90
        0
 91
        1
 62
     0
 92
       -2
340
14
 93
        0
 40
0.045
309
GRIDFORMAT_END
 95
        8
302
GRIDFORMAT
  1
GRIDFORMAT_BEGIN
 90
        0
 91
        1
 62
     0
 92
       -2
340
14
 93
        0
 40
0.045
309
GRIDFORMAT_END
 95
       16
302
GRIDFORMAT
  1
GRIDFORMAT_BEGIN
 90
        0
 91
        1
 62
     0
 92
       -2
340
14
 93
        0
 40
0.045
309
GRIDFORMAT_END
 95
       32
302
GRIDFORMAT
  1
GRIDFORMAT_BEGIN
 90
        0
 91
        1
 62
     0
 92
       -2
340
14
 93
        0
 40
0.045
309
GRIDFORMAT_END
309
TABLEFORMAT_END
  1
CELLSTYLE_BEGIN
 90
        3
 91
        2
300
_DATA
309
CELLSTYLE_END
  0
XRECORD
  5
338
102
{ACAD_REACTORS
330
337
102
}
330
337
100
AcDbXrecord
280
     1
102
ACAD_ROUNDTRIP_PRE2007_TABLESTYLE
 90
        4
 91
        0
  1

 92
        4
 93
        0
  2

 94
        4
 95
        0
  3

  0
XRECORD
  5
30A
102
{ACAD_REACTORS
330
309
102
}
330
309
100
AcDbXrecord
280
     1
102
RTVSPropertyOp0
 70
     1
102
RTVSPropertyOp1
 70
     1
102
RTVSPropertyOp2
 70
     1
102
RTVSPropertyOp3
 70
     1
102
RTVSPropertyOp4
 70
     1
102
RTVSPropertyOp5
 70
     1
102
RTVSPropertyOp6
 70
     1
102
RTVSPropertyOp7
 70
     1
102
RTVSPropertyOp8
 70
     1
102
RTVSPropertyOp9
 70
     1
102
RTVSPropertyOp10
 70
     1
102
RTVSPropertyOp11
 70
     1
102
RTVSPropertyOp12
 70
     1
102
RTVSPropertyOp13
 70
     1
102
RTVSPropertyOp14
 70
     1
102
RTVSPropertyOp15
 70
     1
102
RTVSPropertyOp16
 70
     1
102
RTVSPropertyOp17
 70
     1
102
RTVSPropertyOp18
 70
     1
102
RTVSPropertyOp19
 70
     1
102
RTVSPropertyOp20
 70
     1
102
RTVSPropertyOp21
 70
     1
102
RTVSPropertyOp22
 70
     1
102
RTVSPropertyOp23
 70
     1
102
RTVSPropertyOp24
 70
     1
102
RTVSPropertyOp25
 70
     1
102
RTVSPropertyOp26
 70
     1
102
RTVSPropertyOp27
 70
     1
102
RTVSPropertyOp28
 70
     1
102
RTVSPropertyOp29
 70
     1
102
RTVSPropertyOp30
 70
     1
102
RTVSPropertyOp31
 70
     1
102
RTVSPropertyOp32
 70
     1
102
RTVSPropertyOp33
 70
     1
102
RTVSPropertyOp34
 70
     1
102
RTVSPropertyOp35
 70
     1
102
RTVSPropertyOp36
 70
     1
102
RTVSPropertyOp37
 70
     1
102
RTVSPropertyOp38
 70
     1
102
RTVSPropertyOp39
 70
     1
102
RTVSPropertyOp40
 70
     1
102
RTVSPropertyOp41
 70
     1
102
RTVSPropertyOp42
 70
     1
102
RTVSPropertyOp43
 70
     1
102
RTVSPropertyOp44
 70
     1
102
RTVSPropertyOp45
 70
     1
102
RTVSPropertyOp46
 70
     1
102
RTVSPropertyOp47
 70
     1
102
RTVSPropertyOp48
 70
     1
102
RTVSPropertyOp49
 70
     1
102
RTVSPropertyOp50
 70
     1
102
RTVSPropertyOp51
 70
     0
102
RTVSPropertyOp52
 70
     0
102
RTVSPropertyOp53
 70
     1
102
RTVSPropertyOp54
 70
     1
102
RTVSPropertyOp55
 70
     1
102
RTVSPropertyOp56
 70
     1
102
RTVSPropertyOp57
 70
     1
102
RTVSPost2010Prop28
280
     1
102
RTVSPost2010PropOp28
 70
     1
102
RTVSPost2010Prop29
280
     1
102
RTVSPost2010PropOp29
 70
     1
102
RTVSPost2010Prop30
280
     0
102
RTVSPost2010PropOp30
 70
     1
102
RTVSPost2010Prop31
280
     0
102
RTVSPost2010PropOp31
 70
     1
102
RTVSPost2010Prop32
280
     0
102
RTVSPost2010PropOp32
 70
     1
102
RTVSPost2010Prop33
280
     0
102
RTVSPost2010PropOp33
 70
     1
102
RTVSPost2010Prop34
280
     0
102
RTVSPost2010PropOp34
 70
     1
102
RTVSPost2010Prop35
280
     0
102
RTVSPost2010PropOp35
 70
     1
102
RTVSPost2010Prop36
280
     0
102
RTVSPost2010PropOp36
 70
     1
102
RTVSPost2010Prop37
 90
       50
102
RTVSPost2010PropOp37
 70
     1
102
RTVSPost2010Prop38
140
0.0
102
RTVSPost2010PropOp38
 70
     1
102
RTVSPost2010Prop39
140
1.0
102
RTVSPost2010PropOp39
 70
     1
102
RTVSPost2010Prop40
 90
        0
102
RTVSPost2010PropOp40
 70
     1
102
RTVSPost2010Prop41ColorIndex
 90
       18
102
RTVSPost2010Prop41ColorRGB
 90
        0
102
RTVSPost2010PropOp41
 70
     1
102
RTVSPost2010Prop42
 90
       50
102
RTVSPost2010PropOp42
 70
     1
102
RTVSPost2010Prop43
 90
        3
102
RTVSPost2010PropOp43
 70
     1
102
RTVSPost2010Prop44ColorIndex
 90
        5
102
RTVSPost2010Prop44ColorRGB
 90
      255
102
RTVSPost2010PropOp44
 70
     1
102
RTVSPost2010Prop45
280
     0
102
RTVSPost2010PropOp45
 70
     1
102
RTVSPost2010Prop46
 90
       50
102
RTVSPost2010PropOp46
 70
     1
102
RTVSPost2010Prop47
 90
       50
102
RTVSPost2010PropOp47
 70
     1
102
RTVSPost2010Prop48
 90
       50
102
RTVSPost2010PropOp48
 70
     1
102
RTVSPost2010Prop49
280
     0
102
RTVSPost2010PropOp49
 70
     1
102
RTVSPost2010Prop50
 90
       50
102
RTVSPost2010PropOp50
 70
     1
102
RTVSPost2010Prop51ColorIndex
 90
      256
102
RTVSPost2010Prop51ColorRGB
 90
-16777216
102
RTVSPost2010PropOp51
 70
     0
102
RTVSPost2010Prop52
140
1.0
102
RTVSPost2010PropOp52
 70
     0
102
RTVSPost2010Prop53
 90
        2
102
RTVSPost2010PropOp53
 70
     1
102
RTVSPost2010Prop54
  1
strokes_ogs.tif
102
RTVSPost2010PropOp54
 70
     1
102
RTVSPost2010Prop55
280
     0
102
RTVSPost2010PropOp55
 70
     1
102
RTVSPost2010Prop56
140
1.0
102
RTVSPost2010PropOp56
 70
     1
102
RTVSPost2010Prop57
140
1.0
102
RTVSPost2010PropOp57
 70
     1
  0
XRECORD
  5
310
102
{ACAD_REACTORS
330
30F
102
}
330
30F
100
AcDbXrecord
280
     1
102
RTVSPropertyOp0
 70
     1
102
RTVSPropertyOp1
 70
     1
102
RTVSPropertyOp2
 70
     1
102
RTVSPropertyOp3
 70
     1
102
RTVSPropertyOp4
 70
     1
102
RTVSPropertyOp5
 70
     1
102
RTVSPropertyOp6
 70
     1
102
RTVSPropertyOp7
 70
     1
102
RTVSPropertyOp8
 70
     1
102
RTVSPropertyOp9
 70
     1
102
RTVSPropertyOp10
 70
     1
102
RTVSPropertyOp11
 70
     1
102
RTVSPropertyOp12
 70
     1
102
RTVSPropertyOp13
 70
     1
102
RTVSPropertyOp14
 70
     1
102
RTVSPropertyOp15
 70
     1
102
RTVSPropertyOp16
 70
     1
102
RTVSPropertyOp17
 70
     1
102
RTVSPropertyOp18
 70
     1
102
RTVSPropertyOp19
 70
     1
102
RTVSPropertyOp20
 70
     1
102
RTVSPropertyOp21
 70
     1
102
RTVSPropertyOp22
 70
     1
102
RTVSPropertyOp23
 70
     1
102
RTVSPropertyOp24
 70
     1
102
RTVSPropertyOp25
 70
     1
102
RTVSPropertyOp26
 70
     1
102
RTVSPropertyOp27
 70
     1
102
RTVSPropertyOp28
 70
     1
102
RTVSPropertyOp29
 70
     1
102
RTVSPropertyOp30
 70
     1
102
RTVSPropertyOp31
 70
     1
102
RTVSPropertyOp32
 70
     1
102
RTVSPropertyOp33
 70
     1
102
RTVSPropertyOp34
 70
     1
102
RTVSPropertyOp35
 70
     1
102
RTVSPropertyOp36
 70
     1
102
RTVSPropertyOp37
 70
     1
102
RTVSPropertyOp38
 70
     1
102
RTVSPropertyOp39
 70
     1
102
RTVSPropertyOp40
 70
     1
102
RTVSPropertyOp41
 70
     1
102
RTVSPropertyOp42
 70
     1
102
RTVSPropertyOp43
 70
     1
102
RTVSPropertyOp44
 70
     1
102
RTVSPropertyOp45
 70
     1
102
RTVSPropertyOp46
 70
     1
102
RTVSPropertyOp47
 70
     1
102
RTVSPropertyOp48
 70
     1
102
RTVSPropertyOp49
 70
     1
102
RTVSPropertyOp50
 70
     1
102
RTVSPropertyOp51
 70
     0
102
RTVSPropertyOp52
 70
     0
102
RTVSPropertyOp53
 70
     1
102
RTVSPropertyOp54
 70
     1
102
RTVSPropertyOp55
 70
     1
102
RTVSPropertyOp56
 70
     1
102
RTVSPropertyOp57
 70
     1
102
RTVSPost2010Prop28
280
     0
102
RTVSPost2010PropOp28
 70
     1
102
RTVSPost2010Prop29
280
     1
102
RTVSPost2010PropOp29
 70
     1
102
RTVSPost2010Prop30
280
     1
102
RTVSPost2010PropOp30
 70
     1
102
RTVSPost2010Prop31
280
     0
102
RTVSPost2010PropOp31
 70
     1
102
RTVSPost2010Prop32
280
     0
102
RTVSPost2010PropOp32
 70
     1
102
RTVSPost2010Prop33
280
     0
102
RTVSPost2010PropOp33
 70
     1
102
RTVSPost2010Prop34
280
     0
102
RTVSPost2010PropOp34
 70
     1
102
RTVSPost2010Prop35
280
     0
102
RTVSPost2010PropOp35
 70
     1
102
RTVSPost2010Prop36
280
     0
102
RTVSPost2010PropOp36
 70
     1
102
RTVSPost2010Prop37
 90
       50
102
RTVSPost2010PropOp37
 70
     1
102
RTVSPost2010Prop38
140
0.0
102
RTVSPost2010PropOp38
 70
     1
102
RTVSPost2010Prop39
140
1.0
102
RTVSPost2010PropOp39
 70
     1
102
RTVSPost2010Prop40
 90
        0
102
RTVSPost2010PropOp40
 70
     1
102
RTVSPost2010Prop41ColorIndex
 90
       18
102
RTVSPost2010Prop41ColorRGB
 90
        0
102
RTVSPost2010PropOp41
 70
     1
102
RTVSPost2010Prop42
 90
       50
102
RTVSPost2010PropOp42
 70
     1
102
RTVSPost2010Prop43
 90
        3
102
RTVSPost2010PropOp43
 70
     1
102
RTVSPost2010Prop44ColorIndex
 90
        5
102
RTVSPost2010Prop44ColorRGB
 90
      255
102
RTVSPost2010PropOp44
 70
     1
102
RTVSPost2010Prop45
280
     0
102
RTVSPost2010PropOp45
 70
     1
102
RTVSPost2010Prop46
 90
       50
102
RTVSPost2010PropOp46
 70
     1
102
RTVSPost2010Prop47
 90
       50
102
RTVSPost2010PropOp47
 70
     1
102
RTVSPost2010Prop48
 90
       50
102
RTVSPost2010PropOp48
 70
     1
102
RTVSPost2010Prop49
280
     0
102
RTVSPost2010PropOp49
 70
     1
102
RTVSPost2010Prop50
 90
       50
102
RTVSPost2010PropOp50
 70
     1
102
RTVSPost2010Prop51ColorIndex
 90
      256
102
RTVSPost2010Prop51ColorRGB
 90
-16777216
102
RTVSPost2010PropOp51
 70
     0
102
RTVSPost2010Prop52
140
1.0
102
RTVSPost2010PropOp52
 70
     0
102
RTVSPost2010Prop53
 90
        2
102
RTVSPost2010PropOp53
 70
     1
102
RTVSPost2010Prop54
  1
strokes_ogs.tif
102
RTVSPost2010PropOp54
 70
     1
102
RTVSPost2010Prop55
280
     0
102
RTVSPost2010PropOp55
 70
     1
102
RTVSPost2010Prop56
140
1.0
102
RTVSPost2010PropOp56
 70
     1
102
RTVSPost2010Prop57
140
1.0
102
RTVSPost2010PropOp57
 70
     1
  0
XRECORD
  5
318
102
{ACAD_REACTORS
330
317
102
}
330
317
100
AcDbXrecord
280
     1
102
RTVSPropertyOp0
 70
     1
102
RTVSPropertyOp1
 70
     1
102
RTVSPropertyOp2
 70
     1
102
RTVSPropertyOp3
 70
     1
102
RTVSPropertyOp4
 70
     1
102
RTVSPropertyOp5
 70
     1
102
RTVSPropertyOp6
 70
     1
102
RTVSPropertyOp7
 70
     1
102
RTVSPropertyOp8
 70
     1
102
RTVSPropertyOp9
 70
     1
102
RTVSPropertyOp10
 70
     1
102
RTVSPropertyOp11
 70
     1
102
RTVSPropertyOp12
 70
     1
102
RTVSPropertyOp13
 70
     1
102
RTVSPropertyOp14
 70
     1
102
RTVSPropertyOp15
 70
     1
102
RTVSPropertyOp16
 70
     1
102
RTVSPropertyOp17
 70
     1
102
RTVSPropertyOp18
 70
     1
102
RTVSPropertyOp19
 70
     1
102
RTVSPropertyOp20
 70
     1
102
RTVSPropertyOp21
 70
     1
102
RTVSPropertyOp22
 70
     1
102
RTVSPropertyOp23
 70
     1
102
RTVSPropertyOp24
 70
     1
102
RTVSPropertyOp25
 70
     1
102
RTVSPropertyOp26
 70
     1
102
RTVSPropertyOp27
 70
     1
102
RTVSPropertyOp28
 70
     1
102
RTVSPropertyOp29
 70
     1
102
RTVSPropertyOp30
 70
     1
102
RTVSPropertyOp31
 70
     1
102
RTVSPropertyOp32
 70
     1
102
RTVSPropertyOp33
 70
     1
102
RTVSPropertyOp34
 70
     1
102
RTVSPropertyOp35
 70
     1
102
RTVSPropertyOp36
 70
     1
102
RTVSPropertyOp37
 70
     1
102
RTVSPropertyOp38
 70
     1
102
RTVSPropertyOp39
 70
     1
102
RTVSPropertyOp40
 70
     1
102
RTVSPropertyOp41
 70
     1
102
RTVSPropertyOp42
 70
     1
102
RTVSPropertyOp43
 70
     1
102
RTVSPropertyOp44
 70
     1
102
RTVSPropertyOp45
 70
     1
102
RTVSPropertyOp46
 70
     1
102
RTVSPropertyOp47
 70
     1
102
RTVSPropertyOp48
 70
     1
102
RTVSPropertyOp49
 70
     1
102
RTVSPropertyOp50
 70
     1
102
RTVSPropertyOp51
 70
     0
102
RTVSPropertyOp52
 70
     0
102
RTVSPropertyOp53
 70
     1
102
RTVSPropertyOp54
 70
     1
102
RTVSPropertyOp55
 70
     1
102
RTVSPropertyOp56
 70
     1
102
RTVSPropertyOp57
 70
     1
102
RTVSPost2010Prop28
280
     0
102
RTVSPost2010PropOp28
 70
     1
102
RTVSPost2010Prop29
280
     1
102
RTVSPost2010PropOp29
 70
     1
102
RTVSPost2010Prop30
280
     1
102
RTVSPost2010PropOp30
 70
     1
102
RTVSPost2010Prop31
280
     0
102
RTVSPost2010PropOp31
 70
     1
102
RTVSPost2010Prop32
280
     0
102
RTVSPost2010PropOp32
 70
     1
102
RTVSPost2010Prop33
280
     0
102
RTVSPost2010PropOp33
 70
     1
102
RTVSPost2010Prop34
280
     0
102
RTVSPost2010PropOp34
 70
     1
102
RTVSPost2010Prop35
280
     0
102
RTVSPost2010PropOp35
 70
     1
102
RTVSPost2010Prop36
280
     0
102
RTVSPost2010PropOp36
 70
     1
102
RTVSPost2010Prop37
 90
       50
102
RTVSPost2010PropOp37
 70
     1
102
RTVSPost2010Prop38
140
0.0
102
RTVSPost2010PropOp38
 70
     1
102
RTVSPost2010Prop39
140
1.0
102
RTVSPost2010PropOp39
 70
     1
102
RTVSPost2010Prop40
 90
        0
102
RTVSPost2010PropOp40
 70
     1
102
RTVSPost2010Prop41ColorIndex
 90
       18
102
RTVSPost2010Prop41ColorRGB
 90
        0
102
RTVSPost2010PropOp41
 70
     1
102
RTVSPost2010Prop42
 90
       50
102
RTVSPost2010PropOp42
 70
     1
102
RTVSPost2010Prop43
 90
        3
102
RTVSPost2010PropOp43
 70
     1
102
RTVSPost2010Prop44ColorIndex
 90
        5
102
RTVSPost2010Prop44ColorRGB
 90
      255
102
RTVSPost2010PropOp44
 70
     1
102
RTVSPost2010Prop45
280
     0
102
RTVSPost2010PropOp45
 70
     1
102
RTVSPost2010Prop46
 90
       50
102
RTVSPost2010PropOp46
 70
     1
102
RTVSPost2010Prop47
 90
       50
102
RTVSPost2010PropOp47
 70
     1
102
RTVSPost2010Prop48
 90
       50
102
RTVSPost2010PropOp48
 70
     1
102
RTVSPost2010Prop49
280
     0
102
RTVSPost2010PropOp49
 70
     1
102
RTVSPost2010Prop50
 90
       50
102
RTVSPost2010PropOp50
 70
     1
102
RTVSPost2010Prop51ColorIndex
 90
      256
102
RTVSPost2010Prop51ColorRGB
 90
-16777216
102
RTVSPost2010PropOp51
 70
     0
102
RTVSPost2010Prop52
140
1.0
102
RTVSPost2010PropOp52
 70
     0
102
RTVSPost2010Prop53
 90
        2
102
RTVSPost2010PropOp53
 70
     1
102
RTVSPost2010Prop54
  1
strokes_ogs.tif
102
RTVSPost2010PropOp54
 70
     1
102
RTVSPost2010Prop55
280
     0
102
RTVSPost2010PropOp55
 70
     1
102
RTVSPost2010Prop56
140
1.0
102
RTVSPost2010PropOp56
 70
     1
102
RTVSPost2010Prop57
140
1.0
102
RTVSPost2010PropOp57
 70
     1
  0
XRECORD
  5
320
102
{ACAD_REACTORS
330
31F
102
}
330
31F
100
AcDbXrecord
280
     1
102
RTVSPropertyOp0
 70
     1
102
RTVSPropertyOp1
 70
     1
102
RTVSPropertyOp2
 70
     1
102
RTVSPropertyOp3
 70
     1
102
RTVSPropertyOp4
 70
     1
102
RTVSPropertyOp5
 70
     1
102
RTVSPropertyOp6
 70
     1
102
RTVSPropertyOp7
 70
     1
102
RTVSPropertyOp8
 70
     1
102
RTVSPropertyOp9
 70
     1
102
RTVSPropertyOp10
 70
     1
102
RTVSPropertyOp11
 70
     1
102
RTVSPropertyOp12
 70
     1
102
RTVSPropertyOp13
 70
     1
102
RTVSPropertyOp14
 70
     1
102
RTVSPropertyOp15
 70
     1
102
RTVSPropertyOp16
 70
     1
102
RTVSPropertyOp17
 70
     1
102
RTVSPropertyOp18
 70
     1
102
RTVSPropertyOp19
 70
     1
102
RTVSPropertyOp20
 70
     1
102
RTVSPropertyOp21
 70
     1
102
RTVSPropertyOp22
 70
     1
102
RTVSPropertyOp23
 70
     1
102
RTVSPropertyOp24
 70
     1
102
RTVSPropertyOp25
 70
     1
102
RTVSPropertyOp26
 70
     1
102
RTVSPropertyOp27
 70
     1
102
RTVSPropertyOp28
 70
     1
102
RTVSPropertyOp29
 70
     1
102
RTVSPropertyOp30
 70
     1
102
RTVSPropertyOp31
 70
     1
102
RTVSPropertyOp32
 70
     1
102
RTVSPropertyOp33
 70
     1
102
RTVSPropertyOp34
 70
     1
102
RTVSPropertyOp35
 70
     1
102
RTVSPropertyOp36
 70
     1
102
RTVSPropertyOp37
 70
     1
102
RTVSPropertyOp38
 70
     1
102
RTVSPropertyOp39
 70
     1
102
RTVSPropertyOp40
 70
     1
102
RTVSPropertyOp41
 70
     1
102
RTVSPropertyOp42
 70
     1
102
RTVSPropertyOp43
 70
     1
102
RTVSPropertyOp44
 70
     1
102
RTVSPropertyOp45
 70
     1
102
RTVSPropertyOp46
 70
     1
102
RTVSPropertyOp47
 70
     1
102
RTVSPropertyOp48
 70
     1
102
RTVSPropertyOp49
 70
     1
102
RTVSPropertyOp50
 70
     1
102
RTVSPropertyOp51
 70
     0
102
RTVSPropertyOp52
 70
     0
102
RTVSPropertyOp53
 70
     1
102
RTVSPropertyOp54
 70
     1
102
RTVSPropertyOp55
 70
     1
102
RTVSPropertyOp56
 70
     1
102
RTVSPropertyOp57
 70
     1
102
RTVSPost2010Prop28
280
     0
102
RTVSPost2010PropOp28
 70
     1
102
RTVSPost2010Prop29
280
     1
102
RTVSPost2010PropOp29
 70
     1
102
RTVSPost2010Prop30
280
     1
102
RTVSPost2010PropOp30
 70
     1
102
RTVSPost2010Prop31
280
     0
102
RTVSPost2010PropOp31
 70
     1
102
RTVSPost2010Prop32
280
     0
102
RTVSPost2010PropOp32
 70
     1
102
RTVSPost2010Prop33
280
     0
102
RTVSPost2010PropOp33
 70
     1
102
RTVSPost2010Prop34
280
     0
102
RTVSPost2010PropOp34
 70
     1
102
RTVSPost2010Prop35
280
     0
102
RTVSPost2010PropOp35
 70
     1
102
RTVSPost2010Prop36
280
     0
102
RTVSPost2010PropOp36
 70
     1
102
RTVSPost2010Prop37
 90
       50
102
RTVSPost2010PropOp37
 70
     1
102
RTVSPost2010Prop38
140
0.0
102
RTVSPost2010PropOp38
 70
     1
102
RTVSPost2010Prop39
140
1.0
102
RTVSPost2010PropOp39
 70
     1
102
RTVSPost2010Prop40
 90
        0
102
RTVSPost2010PropOp40
 70
     1
102
RTVSPost2010Prop41ColorIndex
 90
       18
102
RTVSPost2010Prop41ColorRGB
 90
        0
102
RTVSPost2010PropOp41
 70
     1
102
RTVSPost2010Prop42
 90
       50
102
RTVSPost2010PropOp42
 70
     1
102
RTVSPost2010Prop43
 90
        3
102
RTVSPost2010PropOp43
 70
     1
102
RTVSPost2010Prop44ColorIndex
 90
        5
102
RTVSPost2010Prop44ColorRGB
 90
      255
102
RTVSPost2010PropOp44
 70
     1
102
RTVSPost2010Prop45
280
     0
102
RTVSPost2010PropOp45
 70
     1
102
RTVSPost2010Prop46
 90
       50
102
RTVSPost2010PropOp46
 70
     1
102
RTVSPost2010Prop47
 90
       50
102
RTVSPost2010PropOp47
 70
     1
102
RTVSPost2010Prop48
 90
       50
102
RTVSPost2010PropOp48
 70
     1
102
RTVSPost2010Prop49
280
     0
102
RTVSPost2010PropOp49
 70
     1
102
RTVSPost2010Prop50
 90
       50
102
RTVSPost2010PropOp50
 70
     1
102
RTVSPost2010Prop51ColorIndex
 90
      256
102
RTVSPost2010Prop51ColorRGB
 90
-16777216
102
RTVSPost2010PropOp51
 70
     0
102
RTVSPost2010Prop52
140
1.0
102
RTVSPost2010PropOp52
 70
     0
102
RTVSPost2010Prop53
 90
        2
102
RTVSPost2010PropOp53
 70
     1
102
RTVSPost2010Prop54
  1
strokes_ogs.tif
102
RTVSPost2010PropOp54
 70
     1
102
RTVSPost2010Prop55
280
     0
102
RTVSPost2010PropOp55
 70
     1
102
RTVSPost2010Prop56
140
1.0
102
RTVSPost2010PropOp56
 70
     1
102
RTVSPost2010Prop57
140
1.0
102
RTVSPost2010PropOp57
 70
     1
  0
XRECORD
  5
314
102
{ACAD_REACTORS
330
313
102
}
330
313
100
AcDbXrecord
280
     1
102
RTVSPropertyOp0
 70
     1
102
RTVSPropertyOp1
 70
     1
102
RTVSPropertyOp2
 70
     1
102
RTVSPropertyOp3
 70
     1
102
RTVSPropertyOp4
 70
     1
102
RTVSPropertyOp5
 70
     1
102
RTVSPropertyOp6
 70
     1
102
RTVSPropertyOp7
 70
     1
102
RTVSPropertyOp8
 70
     1
102
RTVSPropertyOp9
 70
     1
102
RTVSPropertyOp10
 70
     1
102
RTVSPropertyOp11
 70
     1
102
RTVSPropertyOp12
 70
     1
102
RTVSPropertyOp13
 70
     1
102
RTVSPropertyOp14
 70
     1
102
RTVSPropertyOp15
 70
     1
102
RTVSPropertyOp16
 70
     1
102
RTVSPropertyOp17
 70
     1
102
RTVSPropertyOp18
 70
     1
102
RTVSPropertyOp19
 70
     1
102
RTVSPropertyOp20
 70
     1
102
RTVSPropertyOp21
 70
     1
102
RTVSPropertyOp22
 70
     1
102
RTVSPropertyOp23
 70
     1
102
RTVSPropertyOp24
 70
     1
102
RTVSPropertyOp25
 70
     1
102
RTVSPropertyOp26
 70
     1
102
RTVSPropertyOp27
 70
     1
102
RTVSPropertyOp28
 70
     1
102
RTVSPropertyOp29
 70
     1
102
RTVSPropertyOp30
 70
     1
102
RTVSPropertyOp31
 70
     1
102
RTVSPropertyOp32
 70
     1
102
RTVSPropertyOp33
 70
     1
102
RTVSPropertyOp34
 70
     1
102
RTVSPropertyOp35
 70
     1
102
RTVSPropertyOp36
 70
     1
102
RTVSPropertyOp37
 70
     1
102
RTVSPropertyOp38
 70
     1
102
RTVSPropertyOp39
 70
     1
102
RTVSPropertyOp40
 70
     1
102
RTVSPropertyOp41
 70
     1
102
RTVSPropertyOp42
 70
     1
102
RTVSPropertyOp43
 70
     1
102
RTVSPropertyOp44
 70
     1
102
RTVSPropertyOp45
 70
     1
102
RTVSPropertyOp46
 70
     1
102
RTVSPropertyOp47
 70
     1
102
RTVSPropertyOp48
 70
     1
102
RTVSPropertyOp49
 70
     1
102
RTVSPropertyOp50
 70
     1
102
RTVSPropertyOp51
 70
     0
102
RTVSPropertyOp52
 70
     0
102
RTVSPropertyOp53
 70
     1
102
RTVSPropertyOp54
 70
     1
102
RTVSPropertyOp55
 70
     1
102
RTVSPropertyOp56
 70
     1
102
RTVSPropertyOp57
 70
     1
102
RTVSPost2010Prop28
280
     0
102
RTVSPost2010PropOp28
 70
     1
102
RTVSPost2010Prop29
280
     1
102
RTVSPost2010PropOp29
 70
     1
102
RTVSPost2010Prop30
280
     1
102
RTVSPost2010PropOp30
 70
     1
102
RTVSPost2010Prop31
280
     0
102
RTVSPost2010PropOp31
 70
     1
102
RTVSPost2010Prop32
280
     0
102
RTVSPost2010PropOp32
 70
     1
102
RTVSPost2010Prop33
280
     0
102
RTVSPost2010PropOp33
 70
     1
102
RTVSPost2010Prop34
280
     0
102
RTVSPost2010PropOp34
 70
     1
102
RTVSPost2010Prop35
280
     0
102
RTVSPost2010PropOp35
 70
     1
102
RTVSPost2010Prop36
280
     0
102
RTVSPost2010PropOp36
 70
     1
102
RTVSPost2010Prop37
 90
       50
102
RTVSPost2010PropOp37
 70
     1
102
RTVSPost2010Prop38
140
0.0
102
RTVSPost2010PropOp38
 70
     1
102
RTVSPost2010Prop39
140
1.0
102
RTVSPost2010PropOp39
 70
     1
102
RTVSPost2010Prop40
 90
        0
102
RTVSPost2010PropOp40
 70
     1
102
RTVSPost2010Prop41ColorIndex
 90
       18
102
RTVSPost2010Prop41ColorRGB
 90
        0
102
RTVSPost2010PropOp41
 70
     1
102
RTVSPost2010Prop42
 90
       50
102
RTVSPost2010PropOp42
 70
     1
102
RTVSPost2010Prop43
 90
        3
102
RTVSPost2010PropOp43
 70
     1
102
RTVSPost2010Prop44ColorIndex
 90
        5
102
RTVSPost2010Prop44ColorRGB
 90
      255
102
RTVSPost2010PropOp44
 70
     1
102
RTVSPost2010Prop45
280
     0
102
RTVSPost2010PropOp45
 70
     1
102
RTVSPost2010Prop46
 90
       50
102
RTVSPost2010PropOp46
 70
     1
102
RTVSPost2010Prop47
 90
       50
102
RTVSPost2010PropOp47
 70
     1
102
RTVSPost2010Prop48
 90
       50
102
RTVSPost2010PropOp48
 70
     1
102
RTVSPost2010Prop49
280
     0
102
RTVSPost2010PropOp49
 70
     1
102
RTVSPost2010Prop50
 90
       50
102
RTVSPost2010PropOp50
 70
     1
102
RTVSPost2010Prop51ColorIndex
 90
      256
102
RTVSPost2010Prop51ColorRGB
 90
-16777216
102
RTVSPost2010PropOp51
 70
     0
102
RTVSPost2010Prop52
140
1.0
102
RTVSPost2010PropOp52
 70
     0
102
RTVSPost2010Prop53
 90
        2
102
RTVSPost2010PropOp53
 70
     1
102
RTVSPost2010Prop54
  1
strokes_ogs.tif
102
RTVSPost2010PropOp54
 70
     1
102
RTVSPost2010Prop55
280
     0
102
RTVSPost2010PropOp55
 70
     1
102
RTVSPost2010Prop56
140
1.0
102
RTVSPost2010PropOp56
 70
     1
102
RTVSPost2010Prop57
140
1.0
102
RTVSPost2010PropOp57
 70
     1
  0
XRECORD
  5
316
102
{ACAD_REACTORS
330
315
102
}
330
315
100
AcDbXrecord
280
     1
102
RTVSPropertyOp0
 70
     1
102
RTVSPropertyOp1
 70
     1
102
RTVSPropertyOp2
 70
     1
102
RTVSPropertyOp3
 70
     1
102
RTVSPropertyOp4
 70
     1
102
RTVSPropertyOp5
 70
     1
102
RTVSPropertyOp6
 70
     1
102
RTVSPropertyOp7
 70
     1
102
RTVSPropertyOp8
 70
     1
102
RTVSPropertyOp9
 70
     1
102
RTVSPropertyOp10
 70
     1
102
RTVSPropertyOp11
 70
     1
102
RTVSPropertyOp12
 70
     1
102
RTVSPropertyOp13
 70
     1
102
RTVSPropertyOp14
 70
     1
102
RTVSPropertyOp15
 70
     1
102
RTVSPropertyOp16
 70
     1
102
RTVSPropertyOp17
 70
     1
102
RTVSPropertyOp18
 70
     1
102
RTVSPropertyOp19
 70
     1
102
RTVSPropertyOp20
 70
     1
102
RTVSPropertyOp21
 70
     1
102
RTVSPropertyOp22
 70
     1
102
RTVSPropertyOp23
 70
     1
102
RTVSPropertyOp24
 70
     1
102
RTVSPropertyOp25
 70
     1
102
RTVSPropertyOp26
 70
     1
102
RTVSPropertyOp27
 70
     1
102
RTVSPropertyOp28
 70
     1
102
RTVSPropertyOp29
 70
     1
102
RTVSPropertyOp30
 70
     1
102
RTVSPropertyOp31
 70
     1
102
RTVSPropertyOp32
 70
     1
102
RTVSPropertyOp33
 70
     1
102
RTVSPropertyOp34
 70
     1
102
RTVSPropertyOp35
 70
     1
102
RTVSPropertyOp36
 70
     1
102
RTVSPropertyOp37
 70
     1
102
RTVSPropertyOp38
 70
     1
102
RTVSPropertyOp39
 70
     1
102
RTVSPropertyOp40
 70
     1
102
RTVSPropertyOp41
 70
     1
102
RTVSPropertyOp42
 70
     1
102
RTVSPropertyOp43
 70
     1
102
RTVSPropertyOp44
 70
     1
102
RTVSPropertyOp45
 70
     1
102
RTVSPropertyOp46
 70
     1
102
RTVSPropertyOp47
 70
     1
102
RTVSPropertyOp48
 70
     1
102
RTVSPropertyOp49
 70
     1
102
RTVSPropertyOp50
 70
     1
102
RTVSPropertyOp51
 70
     0
102
RTVSPropertyOp52
 70
     0
102
RTVSPropertyOp53
 70
     1
102
RTVSPropertyOp54
 70
     1
102
RTVSPropertyOp55
 70
     1
102
RTVSPropertyOp56
 70
     1
102
RTVSPropertyOp57
 70
     1
102
RTVSPost2010Prop28
280
     0
102
RTVSPost2010PropOp28
 70
     1
102
RTVSPost2010Prop29
280
     1
102
RTVSPost2010PropOp29
 70
     1
102
RTVSPost2010Prop30
280
     1
102
RTVSPost2010PropOp30
 70
     1
102
RTVSPost2010Prop31
280
     0
102
RTVSPost2010PropOp31
 70
     1
102
RTVSPost2010Prop32
280
     0
102
RTVSPost2010PropOp32
 70
     1
102
RTVSPost2010Prop33
280
     0
102
RTVSPost2010PropOp33
 70
     1
102
RTVSPost2010Prop34
280
     0
102
RTVSPost2010PropOp34
 70
     1
102
RTVSPost2010Prop35
280
     0
102
RTVSPost2010PropOp35
 70
     1
102
RTVSPost2010Prop36
280
     0
102
RTVSPost2010PropOp36
 70
     1
102
RTVSPost2010Prop37
 90
       50
102
RTVSPost2010PropOp37
 70
     1
102
RTVSPost2010Prop38
140
0.0
102
RTVSPost2010PropOp38
 70
     1
102
RTVSPost2010Prop39
140
1.0
102
RTVSPost2010PropOp39
 70
     1
102
RTVSPost2010Prop40
 90
        0
102
RTVSPost2010PropOp40
 70
     1
102
RTVSPost2010Prop41ColorIndex
 90
       18
102
RTVSPost2010Prop41ColorRGB
 90
        0
102
RTVSPost2010PropOp41
 70
     1
102
RTVSPost2010Prop42
 90
       50
102
RTVSPost2010PropOp42
 70
     1
102
RTVSPost2010Prop43
 90
        3
102
RTVSPost2010PropOp43
 70
     1
102
RTVSPost2010Prop44ColorIndex
 90
        5
102
RTVSPost2010Prop44ColorRGB
 90
      255
102
RTVSPost2010PropOp44
 70
     1
102
RTVSPost2010Prop45
280
     0
102
RTVSPost2010PropOp45
 70
     1
102
RTVSPost2010Prop46
 90
       50
102
RTVSPost2010PropOp46
 70
     1
102
RTVSPost2010Prop47
 90
       50
102
RTVSPost2010PropOp47
 70
     1
102
RTVSPost2010Prop48
 90
       50
102
RTVSPost2010PropOp48
 70
     1
102
RTVSPost2010Prop49
280
     0
102
RTVSPost2010PropOp49
 70
     1
102
RTVSPost2010Prop50
 90
       50
102
RTVSPost2010PropOp50
 70
     1
102
RTVSPost2010Prop51ColorIndex
 90
      256
102
RTVSPost2010Prop51ColorRGB
 90
-16777216
102
RTVSPost2010PropOp51
 70
     0
102
RTVSPost2010Prop52
140
1.0
102
RTVSPost2010PropOp52
 70
     0
102
RTVSPost2010Prop53
 90
        2
102
RTVSPost2010PropOp53
 70
     1
102
RTVSPost2010Prop54
  1
strokes_ogs.tif
102
RTVSPost2010PropOp54
 70
     1
102
RTVSPost2010Prop55
280
     0
102
RTVSPost2010PropOp55
 70
     1
102
RTVSPost2010Prop56
140
1.0
102
RTVSPost2010PropOp56
 70
     1
102
RTVSPost2010Prop57
140
1.0
102
RTVSPost2010PropOp57
 70
     1
  0
XRECORD
  5
326
102
{ACAD_REACTORS
330
325
102
}
330
325
100
AcDbXrecord
280
     1
102
RTVSPropertyOp0
 70
     0
102
RTVSPropertyOp1
 70
     0
102
RTVSPropertyOp2
 70
     0
102
RTVSPropertyOp3
 70
     0
102
RTVSPropertyOp4
 70
     0
102
RTVSPropertyOp5
 70
     0
102
RTVSPropertyOp6
 70
     0
102
RTVSPropertyOp7
 70
     0
102
RTVSPropertyOp8
 70
     0
102
RTVSPropertyOp9
 70
     0
102
RTVSPropertyOp10
 70
     0
102
RTVSPropertyOp11
 70
     0
102
RTVSPropertyOp12
 70
     0
102
RTVSPropertyOp13
 70
     0
102
RTVSPropertyOp14
 70
     2
102
RTVSPropertyOp15
 70
     0
102
RTVSPropertyOp16
 70
     0
102
RTVSPropertyOp17
 70
     0
102
RTVSPropertyOp18
 70
     0
102
RTVSPropertyOp19
 70
     0
102
RTVSPropertyOp20
 70
     0
102
RTVSPropertyOp21
 70
     0
102
RTVSPropertyOp22
 70
     0
102
RTVSPropertyOp23
 70
     0
102
RTVSPropertyOp24
 70
     0
102
RTVSPropertyOp25
 70
     0
102
RTVSPropertyOp26
 70
     0
102
RTVSPropertyOp27
 70
     0
102
RTVSPropertyOp28
 70
     0
102
RTVSPropertyOp29
 70
     0
102
RTVSPropertyOp30
 70
     0
102
RTVSPropertyOp31
 70
     0
102
RTVSPropertyOp32
 70
     0
102
RTVSPropertyOp33
 70
     0
102
RTVSPropertyOp34
 70
     0
102
RTVSPropertyOp35
 70
     0
102
RTVSPropertyOp36
 70
     0
102
RTVSPropertyOp37
 70
     0
102
RTVSPropertyOp38
 70
     0
102
RTVSPropertyOp39
 70
     0
102
RTVSPropertyOp40
 70
     0
102
RTVSPropertyOp41
 70
     0
102
RTVSPropertyOp42
 70
     0
102
RTVSPropertyOp43
 70
     0
102
RTVSPropertyOp44
 70
     0
102
RTVSPropertyOp45
 70
     0
102
RTVSPropertyOp46
 70
     0
102
RTVSPropertyOp47
 70
     0
102
RTVSPropertyOp48
 70
     0
102
RTVSPropertyOp49
 70
     0
102
RTVSPropertyOp50
 70
     0
102
RTVSPropertyOp51
 70
     0
102
RTVSPropertyOp52
 70
     0
102
RTVSPropertyOp53
 70
     0
102
RTVSPropertyOp54
 70
     0
102
RTVSPropertyOp55
 70
     0
102
RTVSPropertyOp56
 70
     0
102
RTVSPropertyOp57
 70
     0
102
RTVSPost2010Prop28
280
     0
102
RTVSPost2010PropOp28
 70
     0
102
RTVSPost2010Prop29
280
     1
102
RTVSPost2010PropOp29
 70
     0
102
RTVSPost2010Prop30
280
     1
102
RTVSPost2010PropOp30
 70
     0
102
RTVSPost2010Prop31
280
     0
102
RTVSPost2010PropOp31
 70
     0
102
RTVSPost2010Prop32
280
     0
102
RTVSPost2010PropOp32
 70
     0
102
RTVSPost2010Prop33
280
     0
102
RTVSPost2010PropOp33
 70
     0
102
RTVSPost2010Prop34
280
     0
102
RTVSPost2010PropOp34
 70
     0
102
RTVSPost2010Prop35
280
     0
102
RTVSPost2010PropOp35
 70
     0
102
RTVSPost2010Prop36
280
     0
102
RTVSPost2010PropOp36
 70
     0
102
RTVSPost2010Prop37
 90
       50
102
RTVSPost2010PropOp37
 70
     0
102
RTVSPost2010Prop38
140
0.0
102
RTVSPost2010PropOp38
 70
     0
102
RTVSPost2010Prop39
140
1.0
102
RTVSPost2010PropOp39
 70
     0
102
RTVSPost2010Prop40
 90
        0
102
RTVSPost2010PropOp40
 70
     0
102
RTVSPost2010Prop41ColorIndex
 90
       18
102
RTVSPost2010Prop41ColorRGB
 90
        0
102
RTVSPost2010PropOp41
 70
     0
102
RTVSPost2010Prop42
 90
       50
102
RTVSPost2010PropOp42
 70
     0
102
RTVSPost2010Prop43
 90
        3
102
RTVSPost2010PropOp43
 70
     0
102
RTVSPost2010Prop44ColorIndex
 90
        5
102
RTVSPost2010Prop44ColorRGB
 90
      255
102
RTVSPost2010PropOp44
 70
     0
102
RTVSPost2010Prop45
280
     0
102
RTVSPost2010PropOp45
 70
     0
102
RTVSPost2010Prop46
 90
       50
102
RTVSPost2010PropOp46
 70
     0
102
RTVSPost2010Prop47
 90
       50
102
RTVSPost2010PropOp47
 70
     0
102
RTVSPost2010Prop48
 90
       50
102
RTVSPost2010PropOp48
 70
     0
102
RTVSPost2010Prop49
280
     0
102
RTVSPost2010PropOp49
 70
     0
102
RTVSPost2010Prop50
 90
       50
102
RTVSPost2010PropOp50
 70
     0
102
RTVSPost2010Prop51ColorIndex
 90
      256
102
RTVSPost2010Prop51ColorRGB
 90
-16777216
102
RTVSPost2010PropOp51
 70
     0
102
RTVSPost2010Prop52
140
1.0
102
RTVSPost2010PropOp52
 70
     0
102
RTVSPost2010Prop53
 90
        2
102
RTVSPost2010PropOp53
 70
     0
102
RTVSPost2010Prop54
  1
strokes_ogs.tif
102
RTVSPost2010PropOp54
 70
     0
102
RTVSPost2010Prop55
280
     0
102
RTVSPost2010PropOp55
 70
     0
102
RTVSPost2010Prop56
140
1.0
102
RTVSPost2010PropOp56
 70
     0
102
RTVSPost2010Prop57
140
1.0
102
RTVSPost2010PropOp57
 70
     0
  0
XRECORD
  5
31E
102
{ACAD_REACTORS
330
31D
102
}
330
31D
100
AcDbXrecord
280
     1
102
RTVSPropertyOp0
 70
     1
102
RTVSPropertyOp1
 70
     1
102
RTVSPropertyOp2
 70
     1
102
RTVSPropertyOp3
 70
     1
102
RTVSPropertyOp4
 70
     1
102
RTVSPropertyOp5
 70
     1
102
RTVSPropertyOp6
 70
     1
102
RTVSPropertyOp7
 70
     1
102
RTVSPropertyOp8
 70
     1
102
RTVSPropertyOp9
 70
     1
102
RTVSPropertyOp10
 70
     1
102
RTVSPropertyOp11
 70
     1
102
RTVSPropertyOp12
 70
     1
102
RTVSPropertyOp13
 70
     1
102
RTVSPropertyOp14
 70
     1
102
RTVSPropertyOp15
 70
     1
102
RTVSPropertyOp16
 70
     1
102
RTVSPropertyOp17
 70
     1
102
RTVSPropertyOp18
 70
     1
102
RTVSPropertyOp19
 70
     1
102
RTVSPropertyOp20
 70
     1
102
RTVSPropertyOp21
 70
     1
102
RTVSPropertyOp22
 70
     1
102
RTVSPropertyOp23
 70
     1
102
RTVSPropertyOp24
 70
     1
102
RTVSPropertyOp25
 70
     1
102
RTVSPropertyOp26
 70
     1
102
RTVSPropertyOp27
 70
     1
102
RTVSPropertyOp28
 70
     1
102
RTVSPropertyOp29
 70
     1
102
RTVSPropertyOp30
 70
     1
102
RTVSPropertyOp31
 70
     1
102
RTVSPropertyOp32
 70
     1
102
RTVSPropertyOp33
 70
     1
102
RTVSPropertyOp34
 70
     1
102
RTVSPropertyOp35
 70
     1
102
RTVSPropertyOp36
 70
     1
102
RTVSPropertyOp37
 70
     1
102
RTVSPropertyOp38
 70
     1
102
RTVSPropertyOp39
 70
     1
102
RTVSPropertyOp40
 70
     1
102
RTVSPropertyOp41
 70
     1
102
RTVSPropertyOp42
 70
     1
102
RTVSPropertyOp43
 70
     1
102
RTVSPropertyOp44
 70
     1
102
RTVSPropertyOp45
 70
     1
102
RTVSPropertyOp46
 70
     1
102
RTVSPropertyOp47
 70
     1
102
RTVSPropertyOp48
 70
     1
102
RTVSPropertyOp49
 70
     1
102
RTVSPropertyOp50
 70
     1
102
RTVSPropertyOp51
 70
     0
102
RTVSPropertyOp52
 70
     0
102
RTVSPropertyOp53
 70
     1
102
RTVSPropertyOp54
 70
     1
102
RTVSPropertyOp55
 70
     1
102
RTVSPropertyOp56
 70
     1
102
RTVSPropertyOp57
 70
     1
102
RTVSPost2010Prop28
280
     0
102
RTVSPost2010PropOp28
 70
     1
102
RTVSPost2010Prop29
280
     1
102
RTVSPost2010PropOp29
 70
     1
102
RTVSPost2010Prop30
280
     1
102
RTVSPost2010PropOp30
 70
     1
102
RTVSPost2010Prop31
280
     0
102
RTVSPost2010PropOp31
 70
     1
102
RTVSPost2010Prop32
280
     0
102
RTVSPost2010PropOp32
 70
     1
102
RTVSPost2010Prop33
280
     0
102
RTVSPost2010PropOp33
 70
     1
102
RTVSPost2010Prop34
280
     0
102
RTVSPost2010PropOp34
 70
     1
102
RTVSPost2010Prop35
280
     0
102
RTVSPost2010PropOp35
 70
     1
102
RTVSPost2010Prop36
280
     0
102
RTVSPost2010PropOp36
 70
     1
102
RTVSPost2010Prop37
 90
       50
102
RTVSPost2010PropOp37
 70
     1
102
RTVSPost2010Prop38
140
0.0
102
RTVSPost2010PropOp38
 70
     1
102
RTVSPost2010Prop39
140
1.0
102
RTVSPost2010PropOp39
 70
     1
102
RTVSPost2010Prop40
 90
        0
102
RTVSPost2010PropOp40
 70
     1
102
RTVSPost2010Prop41ColorIndex
 90
       18
102
RTVSPost2010Prop41ColorRGB
 90
        0
102
RTVSPost2010PropOp41
 70
     1
102
RTVSPost2010Prop42
 90
       50
102
RTVSPost2010PropOp42
 70
     1
102
RTVSPost2010Prop43
 90
        3
102
RTVSPost2010PropOp43
 70
     1
102
RTVSPost2010Prop44ColorIndex
 90
        5
102
RTVSPost2010Prop44ColorRGB
 90
      255
102
RTVSPost2010PropOp44
 70
     1
102
RTVSPost2010Prop45
280
     0
102
RTVSPost2010PropOp45
 70
     1
102
RTVSPost2010Prop46
 90
       50
102
RTVSPost2010PropOp46
 70
     1
102
RTVSPost2010Prop47
 90
       50
102
RTVSPost2010PropOp47
 70
     1
102
RTVSPost2010Prop48
 90
       50
102
RTVSPost2010PropOp48
 70
     1
102
RTVSPost2010Prop49
280
     0
102
RTVSPost2010PropOp49
 70
     1
102
RTVSPost2010Prop50
 90
       50
102
RTVSPost2010PropOp50
 70
     1
102
RTVSPost2010Prop51ColorIndex
 90
      256
102
RTVSPost2010Prop51ColorRGB
 90
-16777216
102
RTVSPost2010PropOp51
 70
     0
102
RTVSPost2010Prop52
140
1.0
102
RTVSPost2010PropOp52
 70
     0
102
RTVSPost2010Prop53
 90
        2
102
RTVSPost2010PropOp53
 70
     1
102
RTVSPost2010Prop54
  1
strokes_ogs.tif
102
RTVSPost2010PropOp54
 70
     1
102
RTVSPost2010Prop55
280
     0
102
RTVSPost2010PropOp55
 70
     1
102
RTVSPost2010Prop56
140
1.0
102
RTVSPost2010PropOp56
 70
     1
102
RTVSPost2010Prop57
140
1.0
102
RTVSPost2010PropOp57
 70
     1
  0
XRECORD
  5
302
102
{ACAD_REACTORS
330
301
102
}
330
301
100
AcDbXrecord
280
     1
102
RTVSPropertyOp0
 70
     1
102
RTVSPropertyOp1
 70
     1
102
RTVSPropertyOp2
 70
     1
102
RTVSPropertyOp3
 70
     1
102
RTVSPropertyOp4
 70
     1
102
RTVSPropertyOp5
 70
     1
102
RTVSPropertyOp6
 70
     1
102
RTVSPropertyOp7
 70
     1
102
RTVSPropertyOp8
 70
     1
102
RTVSPropertyOp9
 70
     1
102
RTVSPropertyOp10
 70
     1
102
RTVSPropertyOp11
 70
     1
102
RTVSPropertyOp12
 70
     1
102
RTVSPropertyOp13
 70
     1
102
RTVSPropertyOp14
 70
     1
102
RTVSPropertyOp15
 70
     1
102
RTVSPropertyOp16
 70
     1
102
RTVSPropertyOp17
 70
     1
102
RTVSPropertyOp18
 70
     1
102
RTVSPropertyOp19
 70
     1
102
RTVSPropertyOp20
 70
     1
102
RTVSPropertyOp21
 70
     1
102
RTVSPropertyOp22
 70
     1
102
RTVSPropertyOp23
 70
     1
102
RTVSPropertyOp24
 70
     1
102
RTVSPropertyOp25
 70
     1
102
RTVSPropertyOp26
 70
     1
102
RTVSPropertyOp27
 70
     1
102
RTVSPropertyOp28
 70
     1
102
RTVSPropertyOp29
 70
     1
102
RTVSPropertyOp30
 70
     1
102
RTVSPropertyOp31
 70
     1
102
RTVSPropertyOp32
 70
     1
102
RTVSPropertyOp33
 70
     1
102
RTVSPropertyOp34
 70
     1
102
RTVSPropertyOp35
 70
     1
102
RTVSPropertyOp36
 70
     1
102
RTVSPropertyOp37
 70
     1
102
RTVSPropertyOp38
 70
     1
102
RTVSPropertyOp39
 70
     1
102
RTVSPropertyOp40
 70
     1
102
RTVSPropertyOp41
 70
     1
102
RTVSPropertyOp42
 70
     1
102
RTVSPropertyOp43
 70
     1
102
RTVSPropertyOp44
 70
     1
102
RTVSPropertyOp45
 70
     1
102
RTVSPropertyOp46
 70
     1
102
RTVSPropertyOp47
 70
     1
102
RTVSPropertyOp48
 70
     1
102
RTVSPropertyOp49
 70
     1
102
RTVSPropertyOp50
 70
     1
102
RTVSPropertyOp51
 70
     0
102
RTVSPropertyOp52
 70
     0
102
RTVSPropertyOp53
 70
     1
102
RTVSPropertyOp54
 70
     1
102
RTVSPropertyOp55
 70
     1
102
RTVSPropertyOp56
 70
     1
102
RTVSPropertyOp57
 70
     1
102
RTVSPost2010Prop28
280
     0
102
RTVSPost2010PropOp28
 70
     1
102
RTVSPost2010Prop29
280
     1
102
RTVSPost2010PropOp29
 70
     1
102
RTVSPost2010Prop30
280
     1
102
RTVSPost2010PropOp30
 70
     1
102
RTVSPost2010Prop31
280
     0
102
RTVSPost2010PropOp31
 70
     1
102
RTVSPost2010Prop32
280
     0
102
RTVSPost2010PropOp32
 70
     1
102
RTVSPost2010Prop33
280
     0
102
RTVSPost2010PropOp33
 70
     1
102
RTVSPost2010Prop34
280
     0
102
RTVSPost2010PropOp34
 70
     1
102
RTVSPost2010Prop35
280
     0
102
RTVSPost2010PropOp35
 70
     1
102
RTVSPost2010Prop36
280
     0
102
RTVSPost2010PropOp36
 70
     1
102
RTVSPost2010Prop37
 90
       50
102
RTVSPost2010PropOp37
 70
     1
102
RTVSPost2010Prop38
140
0.0
102
RTVSPost2010PropOp38
 70
     1
102
RTVSPost2010Prop39
140
1.0
102
RTVSPost2010PropOp39
 70
     1
102
RTVSPost2010Prop40
 90
        0
102
RTVSPost2010PropOp40
 70
     1
102
RTVSPost2010Prop41ColorIndex
 90
       18
102
RTVSPost2010Prop41ColorRGB
 90
        0
102
RTVSPost2010PropOp41
 70
     1
102
RTVSPost2010Prop42
 90
       50
102
RTVSPost2010PropOp42
 70
     1
102
RTVSPost2010Prop43
 90
        3
102
RTVSPost2010PropOp43
 70
     1
102
RTVSPost2010Prop44ColorIndex
 90
        5
102
RTVSPost2010Prop44ColorRGB
 90
      255
102
RTVSPost2010PropOp44
 70
     1
102
RTVSPost2010Prop45
280
     0
102
RTVSPost2010PropOp45
 70
     1
102
RTVSPost2010Prop46
 90
       50
102
RTVSPost2010PropOp46
 70
     1
102
RTVSPost2010Prop47
 90
       50
102
RTVSPost2010PropOp47
 70
     1
102
RTVSPost2010Prop48
 90
       50
102
RTVSPost2010PropOp48
 70
     1
102
RTVSPost2010Prop49
280
     0
102
RTVSPost2010PropOp49
 70
     1
102
RTVSPost2010Prop50
 90
       50
102
RTVSPost2010PropOp50
 70
     1
102
RTVSPost2010Prop51ColorIndex
 90
      256
102
RTVSPost2010Prop51ColorRGB
 90
-16777216
102
RTVSPost2010PropOp51
 70
     0
102
RTVSPost2010Prop52
140
1.0
102
RTVSPost2010PropOp52
 70
     0
102
RTVSPost2010Prop53
 90
        2
102
RTVSPost2010PropOp53
 70
     1
102
RTVSPost2010Prop54
  1
strokes_ogs.tif
102
RTVSPost2010PropOp54
 70
     1
102
RTVSPost2010Prop55
280
     0
102
RTVSPost2010PropOp55
 70
     1
102
RTVSPost2010Prop56
140
1.0
102
RTVSPost2010PropOp56
 70
     1
102
RTVSPost2010Prop57
140
1.0
102
RTVSPost2010PropOp57
 70
     1
  0
XRECORD
  5
304
102
{ACAD_REACTORS
330
303
102
}
330
303
100
AcDbXrecord
280
     1
102
RTVSPropertyOp0
 70
     1
102
RTVSPropertyOp1
 70
     1
102
RTVSPropertyOp2
 70
     1
102
RTVSPropertyOp3
 70
     1
102
RTVSPropertyOp4
 70
     1
102
RTVSPropertyOp5
 70
     1
102
RTVSPropertyOp6
 70
     1
102
RTVSPropertyOp7
 70
     1
102
RTVSPropertyOp8
 70
     1
102
RTVSPropertyOp9
 70
     1
102
RTVSPropertyOp10
 70
     1
102
RTVSPropertyOp11
 70
     1
102
RTVSPropertyOp12
 70
     1
102
RTVSPropertyOp13
 70
     1
102
RTVSPropertyOp14
 70
     1
102
RTVSPropertyOp15
 70
     1
102
RTVSPropertyOp16
 70
     1
102
RTVSPropertyOp17
 70
     1
102
RTVSPropertyOp18
 70
     1
102
RTVSPropertyOp19
 70
     1
102
RTVSPropertyOp20
 70
     1
102
RTVSPropertyOp21
 70
     1
102
RTVSPropertyOp22
 70
     1
102
RTVSPropertyOp23
 70
     1
102
RTVSPropertyOp24
 70
     1
102
RTVSPropertyOp25
 70
     1
102
RTVSPropertyOp26
 70
     1
102
RTVSPropertyOp27
 70
     1
102
RTVSPropertyOp28
 70
     1
102
RTVSPropertyOp29
 70
     1
102
RTVSPropertyOp30
 70
     1
102
RTVSPropertyOp31
 70
     1
102
RTVSPropertyOp32
 70
     1
102
RTVSPropertyOp33
 70
     1
102
RTVSPropertyOp34
 70
     1
102
RTVSPropertyOp35
 70
     1
102
RTVSPropertyOp36
 70
     1
102
RTVSPropertyOp37
 70
     1
102
RTVSPropertyOp38
 70
     1
102
RTVSPropertyOp39
 70
     1
102
RTVSPropertyOp40
 70
     1
102
RTVSPropertyOp41
 70
     1
102
RTVSPropertyOp42
 70
     1
102
RTVSPropertyOp43
 70
     1
102
RTVSPropertyOp44
 70
     1
102
RTVSPropertyOp45
 70
     1
102
RTVSPropertyOp46
 70
     1
102
RTVSPropertyOp47
 70
     1
102
RTVSPropertyOp48
 70
     1
102
RTVSPropertyOp49
 70
     1
102
RTVSPropertyOp50
 70
     1
102
RTVSPropertyOp51
 70
     0
102
RTVSPropertyOp52
 70
     0
102
RTVSPropertyOp53
 70
     1
102
RTVSPropertyOp54
 70
     1
102
RTVSPropertyOp55
 70
     1
102
RTVSPropertyOp56
 70
     1
102
RTVSPropertyOp57
 70
     1
102
RTVSPost2010Prop28
280
     0
102
RTVSPost2010PropOp28
 70
     1
102
RTVSPost2010Prop29
280
     1
102
RTVSPost2010PropOp29
 70
     1
102
RTVSPost2010Prop30
280
     1
102
RTVSPost2010PropOp30
 70
     1
102
RTVSPost2010Prop31
280
     0
102
RTVSPost2010PropOp31
 70
     1
102
RTVSPost2010Prop32
280
     0
102
RTVSPost2010PropOp32
 70
     1
102
RTVSPost2010Prop33
280
     0
102
RTVSPost2010PropOp33
 70
     1
102
RTVSPost2010Prop34
280
     0
102
RTVSPost2010PropOp34
 70
     1
102
RTVSPost2010Prop35
280
     0
102
RTVSPost2010PropOp35
 70
     1
102
RTVSPost2010Prop36
280
     0
102
RTVSPost2010PropOp36
 70
     1
102
RTVSPost2010Prop37
 90
       50
102
RTVSPost2010PropOp37
 70
     1
102
RTVSPost2010Prop38
140
0.0
102
RTVSPost2010PropOp38
 70
     1
102
RTVSPost2010Prop39
140
1.0
102
RTVSPost2010PropOp39
 70
     1
102
RTVSPost2010Prop40
 90
        0
102
RTVSPost2010PropOp40
 70
     1
102
RTVSPost2010Prop41ColorIndex
 90
       18
102
RTVSPost2010Prop41ColorRGB
 90
        0
102
RTVSPost2010PropOp41
 70
     1
102
RTVSPost2010Prop42
 90
       50
102
RTVSPost2010PropOp42
 70
     1
102
RTVSPost2010Prop43
 90
        3
102
RTVSPost2010PropOp43
 70
     1
102
RTVSPost2010Prop44ColorIndex
 90
        5
102
RTVSPost2010Prop44ColorRGB
 90
      255
102
RTVSPost2010PropOp44
 70
     1
102
RTVSPost2010Prop45
280
     0
102
RTVSPost2010PropOp45
 70
     1
102
RTVSPost2010Prop46
 90
       50
102
RTVSPost2010PropOp46
 70
     1
102
RTVSPost2010Prop47
 90
       50
102
RTVSPost2010PropOp47
 70
     1
102
RTVSPost2010Prop48
 90
       50
102
RTVSPost2010PropOp48
 70
     1
102
RTVSPost2010Prop49
280
     0
102
RTVSPost2010PropOp49
 70
     1
102
RTVSPost2010Prop50
 90
       50
102
RTVSPost2010PropOp50
 70
     1
102
RTVSPost2010Prop51ColorIndex
 90
      256
102
RTVSPost2010Prop51ColorRGB
 90
-16777216
102
RTVSPost2010PropOp51
 70
     0
102
RTVSPost2010Prop52
140
1.0
102
RTVSPost2010PropOp52
 70
     0
102
RTVSPost2010Prop53
 90
        2
102
RTVSPost2010PropOp53
 70
     1
102
RTVSPost2010Prop54
  1
strokes_ogs.tif
102
RTVSPost2010PropOp54
 70
     1
102
RTVSPost2010Prop55
280
     0
102
RTVSPost2010PropOp55
 70
     1
102
RTVSPost2010Prop56
140
1.0
102
RTVSPost2010PropOp56
 70
     1
102
RTVSPost2010Prop57
140
1.0
102
RTVSPost2010PropOp57
 70
     1
  0
XRECORD
  5
306
102
{ACAD_REACTORS
330
305
102
}
330
305
100
AcDbXrecord
280
     1
102
RTVSPropertyOp0
 70
     1
102
RTVSPropertyOp1
 70
     1
102
RTVSPropertyOp2
 70
     1
102
RTVSPropertyOp3
 70
     1
102
RTVSPropertyOp4
 70
     1
102
RTVSPropertyOp5
 70
     1
102
RTVSPropertyOp6
 70
     1
102
RTVSPropertyOp7
 70
     1
102
RTVSPropertyOp8
 70
     1
102
RTVSPropertyOp9
 70
     1
102
RTVSPropertyOp10
 70
     1
102
RTVSPropertyOp11
 70
     1
102
RTVSPropertyOp12
 70
     1
102
RTVSPropertyOp13
 70
     1
102
RTVSPropertyOp14
 70
     1
102
RTVSPropertyOp15
 70
     1
102
RTVSPropertyOp16
 70
     1
102
RTVSPropertyOp17
 70
     1
102
RTVSPropertyOp18
 70
     1
102
RTVSPropertyOp19
 70
     1
102
RTVSPropertyOp20
 70
     1
102
RTVSPropertyOp21
 70
     1
102
RTVSPropertyOp22
 70
     1
102
RTVSPropertyOp23
 70
     1
102
RTVSPropertyOp24
 70
     1
102
RTVSPropertyOp25
 70
     1
102
RTVSPropertyOp26
 70
     1
102
RTVSPropertyOp27
 70
     1
102
RTVSPropertyOp28
 70
     1
102
RTVSPropertyOp29
 70
     1
102
RTVSPropertyOp30
 70
     1
102
RTVSPropertyOp31
 70
     1
102
RTVSPropertyOp32
 70
     1
102
RTVSPropertyOp33
 70
     1
102
RTVSPropertyOp34
 70
     1
102
RTVSPropertyOp35
 70
     1
102
RTVSPropertyOp36
 70
     1
102
RTVSPropertyOp37
 70
     1
102
RTVSPropertyOp38
 70
     1
102
RTVSPropertyOp39
 70
     1
102
RTVSPropertyOp40
 70
     1
102
RTVSPropertyOp41
 70
     1
102
RTVSPropertyOp42
 70
     1
102
RTVSPropertyOp43
 70
     1
102
RTVSPropertyOp44
 70
     1
102
RTVSPropertyOp45
 70
     1
102
RTVSPropertyOp46
 70
     1
102
RTVSPropertyOp47
 70
     1
102
RTVSPropertyOp48
 70
     1
102
RTVSPropertyOp49
 70
     1
102
RTVSPropertyOp50
 70
     1
102
RTVSPropertyOp51
 70
     0
102
RTVSPropertyOp52
 70
     0
102
RTVSPropertyOp53
 70
     1
102
RTVSPropertyOp54
 70
     1
102
RTVSPropertyOp55
 70
     1
102
RTVSPropertyOp56
 70
     1
102
RTVSPropertyOp57
 70
     1
102
RTVSPost2010Prop28
280
     0
102
RTVSPost2010PropOp28
 70
     1
102
RTVSPost2010Prop29
280
     1
102
RTVSPost2010PropOp29
 70
     1
102
RTVSPost2010Prop30
280
     1
102
RTVSPost2010PropOp30
 70
     1
102
RTVSPost2010Prop31
280
     0
102
RTVSPost2010PropOp31
 70
     1
102
RTVSPost2010Prop32
280
     0
102
RTVSPost2010PropOp32
 70
     1
102
RTVSPost2010Prop33
280
     0
102
RTVSPost2010PropOp33
 70
     1
102
RTVSPost2010Prop34
280
     0
102
RTVSPost2010PropOp34
 70
     1
102
RTVSPost2010Prop35
280
     0
102
RTVSPost2010PropOp35
 70
     1
102
RTVSPost2010Prop36
280
     0
102
RTVSPost2010PropOp36
 70
     1
102
RTVSPost2010Prop37
 90
       50
102
RTVSPost2010PropOp37
 70
     1
102
RTVSPost2010Prop38
140
0.0
102
RTVSPost2010PropOp38
 70
     1
102
RTVSPost2010Prop39
140
1.0
102
RTVSPost2010PropOp39
 70
     1
102
RTVSPost2010Prop40
 90
        0
102
RTVSPost2010PropOp40
 70
     1
102
RTVSPost2010Prop41ColorIndex
 90
       18
102
RTVSPost2010Prop41ColorRGB
 90
        0
102
RTVSPost2010PropOp41
 70
     1
102
RTVSPost2010Prop42
 90
       50
102
RTVSPost2010PropOp42
 70
     1
102
RTVSPost2010Prop43
 90
        3
102
RTVSPost2010PropOp43
 70
     1
102
RTVSPost2010Prop44ColorIndex
 90
        5
102
RTVSPost2010Prop44ColorRGB
 90
      255
102
RTVSPost2010PropOp44
 70
     1
102
RTVSPost2010Prop45
280
     0
102
RTVSPost2010PropOp45
 70
     1
102
RTVSPost2010Prop46
 90
       50
102
RTVSPost2010PropOp46
 70
     1
102
RTVSPost2010Prop47
 90
       50
102
RTVSPost2010PropOp47
 70
     1
102
RTVSPost2010Prop48
 90
       50
102
RTVSPost2010PropOp48
 70
     1
102
RTVSPost2010Prop49
280
     0
102
RTVSPost2010PropOp49
 70
     1
102
RTVSPost2010Prop50
 90
       50
102
RTVSPost2010PropOp50
 70
     1
102
RTVSPost2010Prop51ColorIndex
 90
      256
102
RTVSPost2010Prop51ColorRGB
 90
-16777216
102
RTVSPost2010PropOp51
 70
     0
102
RTVSPost2010Prop52
140
1.0
102
RTVSPost2010PropOp52
 70
     0
102
RTVSPost2010Prop53
 90
        2
102
RTVSPost2010PropOp53
 70
     1
102
RTVSPost2010Prop54
  1
strokes_ogs.tif
102
RTVSPost2010PropOp54
 70
     1
102
RTVSPost2010Prop55
280
     0
102
RTVSPost2010PropOp55
 70
     1
102
RTVSPost2010Prop56
140
1.0
102
RTVSPost2010PropOp56
 70
     1
102
RTVSPost2010Prop57
140
1.0
102
RTVSPost2010PropOp57
 70
     1
  0
XRECORD
  5
308
102
{ACAD_REACTORS
330
307
102
}
330
307
100
AcDbXrecord
280
     1
102
RTVSPropertyOp0
 70
     1
102
RTVSPropertyOp1
 70
     1
102
RTVSPropertyOp2
 70
     1
102
RTVSPropertyOp3
 70
     1
102
RTVSPropertyOp4
 70
     1
102
RTVSPropertyOp5
 70
     1
102
RTVSPropertyOp6
 70
     1
102
RTVSPropertyOp7
 70
     1
102
RTVSPropertyOp8
 70
     1
102
RTVSPropertyOp9
 70
     1
102
RTVSPropertyOp10
 70
     1
102
RTVSPropertyOp11
 70
     1
102
RTVSPropertyOp12
 70
     1
102
RTVSPropertyOp13
 70
     1
102
RTVSPropertyOp14
 70
     1
102
RTVSPropertyOp15
 70
     1
102
RTVSPropertyOp16
 70
     1
102
RTVSPropertyOp17
 70
     1
102
RTVSPropertyOp18
 70
     1
102
RTVSPropertyOp19
 70
     1
102
RTVSPropertyOp20
 70
     1
102
RTVSPropertyOp21
 70
     1
102
RTVSPropertyOp22
 70
     1
102
RTVSPropertyOp23
 70
     1
102
RTVSPropertyOp24
 70
     1
102
RTVSPropertyOp25
 70
     1
102
RTVSPropertyOp26
 70
     1
102
RTVSPropertyOp27
 70
     1
102
RTVSPropertyOp28
 70
     1
102
RTVSPropertyOp29
 70
     1
102
RTVSPropertyOp30
 70
     1
102
RTVSPropertyOp31
 70
     1
102
RTVSPropertyOp32
 70
     1
102
RTVSPropertyOp33
 70
     1
102
RTVSPropertyOp34
 70
     1
102
RTVSPropertyOp35
 70
     1
102
RTVSPropertyOp36
 70
     1
102
RTVSPropertyOp37
 70
     1
102
RTVSPropertyOp38
 70
     1
102
RTVSPropertyOp39
 70
     1
102
RTVSPropertyOp40
 70
     1
102
RTVSPropertyOp41
 70
     1
102
RTVSPropertyOp42
 70
     1
102
RTVSPropertyOp43
 70
     1
102
RTVSPropertyOp44
 70
     1
102
RTVSPropertyOp45
 70
     1
102
RTVSPropertyOp46
 70
     1
102
RTVSPropertyOp47
 70
     1
102
RTVSPropertyOp48
 70
     1
102
RTVSPropertyOp49
 70
     1
102
RTVSPropertyOp50
 70
     1
102
RTVSPropertyOp51
 70
     0
102
RTVSPropertyOp52
 70
     0
102
RTVSPropertyOp53
 70
     1
102
RTVSPropertyOp54
 70
     1
102
RTVSPropertyOp55
 70
     1
102
RTVSPropertyOp56
 70
     1
102
RTVSPropertyOp57
 70
     1
102
RTVSPost2010Prop28
280
     0
102
RTVSPost2010PropOp28
 70
     1
102
RTVSPost2010Prop29
280
     1
102
RTVSPost2010PropOp29
 70
     1
102
RTVSPost2010Prop30
280
     1
102
RTVSPost2010PropOp30
 70
     1
102
RTVSPost2010Prop31
280
     0
102
RTVSPost2010PropOp31
 70
     1
102
RTVSPost2010Prop32
280
     0
102
RTVSPost2010PropOp32
 70
     1
102
RTVSPost2010Prop33
280
     0
102
RTVSPost2010PropOp33
 70
     1
102
RTVSPost2010Prop34
280
     0
102
RTVSPost2010PropOp34
 70
     1
102
RTVSPost2010Prop35
280
     0
102
RTVSPost2010PropOp35
 70
     1
102
RTVSPost2010Prop36
280
     0
102
RTVSPost2010PropOp36
 70
     1
102
RTVSPost2010Prop37
 90
       50
102
RTVSPost2010PropOp37
 70
     1
102
RTVSPost2010Prop38
140
0.0
102
RTVSPost2010PropOp38
 70
     1
102
RTVSPost2010Prop39
140
1.0
102
RTVSPost2010PropOp39
 70
     1
102
RTVSPost2010Prop40
 90
        0
102
RTVSPost2010PropOp40
 70
     1
102
RTVSPost2010Prop41ColorIndex
 90
       18
102
RTVSPost2010Prop41ColorRGB
 90
        0
102
RTVSPost2010PropOp41
 70
     1
102
RTVSPost2010Prop42
 90
       50
102
RTVSPost2010PropOp42
 70
     1
102
RTVSPost2010Prop43
 90
        3
102
RTVSPost2010PropOp43
 70
     1
102
RTVSPost2010Prop44ColorIndex
 90
        5
102
RTVSPost2010Prop44ColorRGB
 90
      255
102
RTVSPost2010PropOp44
 70
     1
102
RTVSPost2010Prop45
280
     0
102
RTVSPost2010PropOp45
 70
     1
102
RTVSPost2010Prop46
 90
       50
102
RTVSPost2010PropOp46
 70
     1
102
RTVSPost2010Prop47
 90
       50
102
RTVSPost2010PropOp47
 70
     1
102
RTVSPost2010Prop48
 90
       50
102
RTVSPost2010PropOp48
 70
     1
102
RTVSPost2010Prop49
280
     0
102
RTVSPost2010PropOp49
 70
     1
102
RTVSPost2010Prop50
 90
       50
102
RTVSPost2010PropOp50
 70
     1
102
RTVSPost2010Prop51ColorIndex
 90
      256
102
RTVSPost2010Prop51ColorRGB
 90
-16777216
102
RTVSPost2010PropOp51
 70
     0
102
RTVSPost2010Prop52
140
1.0
102
RTVSPost2010PropOp52
 70
     0
102
RTVSPost2010Prop53
 90
        2
102
RTVSPost2010PropOp53
 70
     1
102
RTVSPost2010Prop54
  1
strokes_ogs.tif
102
RTVSPost2010PropOp54
 70
     1
102
RTVSPost2010Prop55
280
     0
102
RTVSPost2010PropOp55
 70
     1
102
RTVSPost2010Prop56
140
1.0
102
RTVSPost2010PropOp56
 70
     1
102
RTVSPost2010Prop57
140
1.0
102
RTVSPost2010PropOp57
 70
     1
  0
XRECORD
  5
30E
102
{ACAD_REACTORS
330
30D
102
}
330
30D
100
AcDbXrecord
280
     1
102
RTVSPropertyOp0
 70
     1
102
RTVSPropertyOp1
 70
     1
102
RTVSPropertyOp2
 70
     1
102
RTVSPropertyOp3
 70
     1
102
RTVSPropertyOp4
 70
     1
102
RTVSPropertyOp5
 70
     1
102
RTVSPropertyOp6
 70
     1
102
RTVSPropertyOp7
 70
     1
102
RTVSPropertyOp8
 70
     1
102
RTVSPropertyOp9
 70
     1
102
RTVSPropertyOp10
 70
     1
102
RTVSPropertyOp11
 70
     1
102
RTVSPropertyOp12
 70
     1
102
RTVSPropertyOp13
 70
     1
102
RTVSPropertyOp14
 70
     1
102
RTVSPropertyOp15
 70
     1
102
RTVSPropertyOp16
 70
     1
102
RTVSPropertyOp17
 70
     1
102
RTVSPropertyOp18
 70
     1
102
RTVSPropertyOp19
 70
     1
102
RTVSPropertyOp20
 70
     1
102
RTVSPropertyOp21
 70
     1
102
RTVSPropertyOp22
 70
     1
102
RTVSPropertyOp23
 70
     1
102
RTVSPropertyOp24
 70
     1
102
RTVSPropertyOp25
 70
     1
102
RTVSPropertyOp26
 70
     1
102
RTVSPropertyOp27
 70
     1
102
RTVSPropertyOp28
 70
     1
102
RTVSPropertyOp29
 70
     1
102
RTVSPropertyOp30
 70
     1
102
RTVSPropertyOp31
 70
     1
102
RTVSPropertyOp32
 70
     1
102
RTVSPropertyOp33
 70
     1
102
RTVSPropertyOp34
 70
     1
102
RTVSPropertyOp35
 70
     1
102
RTVSPropertyOp36
 70
     1
102
RTVSPropertyOp37
 70
     1
102
RTVSPropertyOp38
 70
     1
102
RTVSPropertyOp39
 70
     1
102
RTVSPropertyOp40
 70
     1
102
RTVSPropertyOp41
 70
     1
102
RTVSPropertyOp42
 70
     1
102
RTVSPropertyOp43
 70
     1
102
RTVSPropertyOp44
 70
     1
102
RTVSPropertyOp45
 70
     1
102
RTVSPropertyOp46
 70
     1
102
RTVSPropertyOp47
 70
     1
102
RTVSPropertyOp48
 70
     1
102
RTVSPropertyOp49
 70
     1
102
RTVSPropertyOp50
 70
     1
102
RTVSPropertyOp51
 70
     0
102
RTVSPropertyOp52
 70
     0
102
RTVSPropertyOp53
 70
     1
102
RTVSPropertyOp54
 70
     1
102
RTVSPropertyOp55
 70
     1
102
RTVSPropertyOp56
 70
     1
102
RTVSPropertyOp57
 70
     1
102
RTVSPost2010Prop28
280
     0
102
RTVSPost2010PropOp28
 70
     1
102
RTVSPost2010Prop29
280
     1
102
RTVSPost2010PropOp29
 70
     1
102
RTVSPost2010Prop30
280
     1
102
RTVSPost2010PropOp30
 70
     1
102
RTVSPost2010Prop31
280
     0
102
RTVSPost2010PropOp31
 70
     1
102
RTVSPost2010Prop32
280
     0
102
RTVSPost2010PropOp32
 70
     1
102
RTVSPost2010Prop33
280
     0
102
RTVSPost2010PropOp33
 70
     1
102
RTVSPost2010Prop34
280
     0
102
RTVSPost2010PropOp34
 70
     1
102
RTVSPost2010Prop35
280
     0
102
RTVSPost2010PropOp35
 70
     1
102
RTVSPost2010Prop36
280
     0
102
RTVSPost2010PropOp36
 70
     1
102
RTVSPost2010Prop37
 90
       50
102
RTVSPost2010PropOp37
 70
     1
102
RTVSPost2010Prop38
140
0.0
102
RTVSPost2010PropOp38
 70
     1
102
RTVSPost2010Prop39
140
1.0
102
RTVSPost2010PropOp39
 70
     1
102
RTVSPost2010Prop40
 90
        0
102
RTVSPost2010PropOp40
 70
     1
102
RTVSPost2010Prop41ColorIndex
 90
       18
102
RTVSPost2010Prop41ColorRGB
 90
        0
102
RTVSPost2010PropOp41
 70
     1
102
RTVSPost2010Prop42
 90
       50
102
RTVSPost2010PropOp42
 70
     1
102
RTVSPost2010Prop43
 90
        3
102
RTVSPost2010PropOp43
 70
     1
102
RTVSPost2010Prop44ColorIndex
 90
        5
102
RTVSPost2010Prop44ColorRGB
 90
      255
102
RTVSPost2010PropOp44
 70
     1
102
RTVSPost2010Prop45
280
     0
102
RTVSPost2010PropOp45
 70
     1
102
RTVSPost2010Prop46
 90
       50
102
RTVSPost2010PropOp46
 70
     1
102
RTVSPost2010Prop47
 90
       50
102
RTVSPost2010PropOp47
 70
     1
102
RTVSPost2010Prop48
 90
       50
102
RTVSPost2010PropOp48
 70
     1
102
RTVSPost2010Prop49
280
     0
102
RTVSPost2010PropOp49
 70
     1
102
RTVSPost2010Prop50
 90
       50
102
RTVSPost2010PropOp50
 70
     1
102
RTVSPost2010Prop51ColorIndex
 90
      256
102
RTVSPost2010Prop51ColorRGB
 90
-16777216
102
RTVSPost2010PropOp51
 70
     0
102
RTVSPost2010Prop52
140
1.0
102
RTVSPost2010PropOp52
 70
     0
102
RTVSPost2010Prop53
 90
        2
102
RTVSPost2010PropOp53
 70
     1
102
RTVSPost2010Prop54
  1
strokes_ogs.tif
102
RTVSPost2010PropOp54
 70
     1
102
RTVSPost2010Prop55
280
     0
102
RTVSPost2010PropOp55
 70
     1
102
RTVSPost2010Prop56
140
1.0
102
RTVSPost2010PropOp56
 70
     1
102
RTVSPost2010Prop57
140
1.0
102
RTVSPost2010PropOp57
 70
     1
  0
XRECORD
  5
322
102
{ACAD_REACTORS
330
321
102
}
330
321
100
AcDbXrecord
280
     1
102
RTVSPropertyOp0
 70
     0
102
RTVSPropertyOp1
 70
     0
102
RTVSPropertyOp2
 70
     0
102
RTVSPropertyOp3
 70
     0
102
RTVSPropertyOp4
 70
     0
102
RTVSPropertyOp5
 70
     0
102
RTVSPropertyOp6
 70
     0
102
RTVSPropertyOp7
 70
     0
102
RTVSPropertyOp8
 70
     0
102
RTVSPropertyOp9
 70
     0
102
RTVSPropertyOp10
 70
     0
102
RTVSPropertyOp11
 70
     0
102
RTVSPropertyOp12
 70
     0
102
RTVSPropertyOp13
 70
     0
102
RTVSPropertyOp14
 70
     2
102
RTVSPropertyOp15
 70
     0
102
RTVSPropertyOp16
 70
     0
102
RTVSPropertyOp17
 70
     0
102
RTVSPropertyOp18
 70
     0
102
RTVSPropertyOp19
 70
     0
102
RTVSPropertyOp20
 70
     0
102
RTVSPropertyOp21
 70
     0
102
RTVSPropertyOp22
 70
     0
102
RTVSPropertyOp23
 70
     0
102
RTVSPropertyOp24
 70
     0
102
RTVSPropertyOp25
 70
     0
102
RTVSPropertyOp26
 70
     0
102
RTVSPropertyOp27
 70
     0
102
RTVSPropertyOp28
 70
     0
102
RTVSPropertyOp29
 70
     0
102
RTVSPropertyOp30
 70
     0
102
RTVSPropertyOp31
 70
     0
102
RTVSPropertyOp32
 70
     0
102
RTVSPropertyOp33
 70
     0
102
RTVSPropertyOp34
 70
     0
102
RTVSPropertyOp35
 70
     0
102
RTVSPropertyOp36
 70
     0
102
RTVSPropertyOp37
 70
     0
102
RTVSPropertyOp38
 70
     0
102
RTVSPropertyOp39
 70
     0
102
RTVSPropertyOp40
 70
     0
102
RTVSPropertyOp41
 70
     0
102
RTVSPropertyOp42
 70
     0
102
RTVSPropertyOp43
 70
     0
102
RTVSPropertyOp44
 70
     0
102
RTVSPropertyOp45
 70
     0
102
RTVSPropertyOp46
 70
     0
102
RTVSPropertyOp47
 70
     0
102
RTVSPropertyOp48
 70
     0
102
RTVSPropertyOp49
 70
     0
102
RTVSPropertyOp50
 70
     0
102
RTVSPropertyOp51
 70
     0
102
RTVSPropertyOp52
 70
     0
102
RTVSPropertyOp53
 70
     0
102
RTVSPropertyOp54
 70
     0
102
RTVSPropertyOp55
 70
     0
102
RTVSPropertyOp56
 70
     0
102
RTVSPropertyOp57
 70
     0
102
RTVSPost2010Prop28
280
     0
102
RTVSPost2010PropOp28
 70
     0
102
RTVSPost2010Prop29
280
     1
102
RTVSPost2010PropOp29
 70
     0
102
RTVSPost2010Prop30
280
     1
102
RTVSPost2010PropOp30
 70
     0
102
RTVSPost2010Prop31
280
     0
102
RTVSPost2010PropOp31
 70
     0
102
RTVSPost2010Prop32
280
     0
102
RTVSPost2010PropOp32
 70
     0
102
RTVSPost2010Prop33
280
     0
102
RTVSPost2010PropOp33
 70
     0
102
RTVSPost2010Prop34
280
     0
102
RTVSPost2010PropOp34
 70
     0
102
RTVSPost2010Prop35
280
     0
102
RTVSPost2010PropOp35
 70
     0
102
RTVSPost2010Prop36
280
     0
102
RTVSPost2010PropOp36
 70
     0
102
RTVSPost2010Prop37
 90
       50
102
RTVSPost2010PropOp37
 70
     0
102
RTVSPost2010Prop38
140
0.0
102
RTVSPost2010PropOp38
 70
     0
102
RTVSPost2010Prop39
140
1.0
102
RTVSPost2010PropOp39
 70
     0
102
RTVSPost2010Prop40
 90
        0
102
RTVSPost2010PropOp40
 70
     0
102
RTVSPost2010Prop41ColorIndex
 90
       18
102
RTVSPost2010Prop41ColorRGB
 90
        0
102
RTVSPost2010PropOp41
 70
     0
102
RTVSPost2010Prop42
 90
       50
102
RTVSPost2010PropOp42
 70
     0
102
RTVSPost2010Prop43
 90
        3
102
RTVSPost2010PropOp43
 70
     0
102
RTVSPost2010Prop44ColorIndex
 90
        5
102
RTVSPost2010Prop44ColorRGB
 90
      255
102
RTVSPost2010PropOp44
 70
     0
102
RTVSPost2010Prop45
280
     0
102
RTVSPost2010PropOp45
 70
     0
102
RTVSPost2010Prop46
 90
       50
102
RTVSPost2010PropOp46
 70
     0
102
RTVSPost2010Prop47
 90
       50
102
RTVSPost2010PropOp47
 70
     0
102
RTVSPost2010Prop48
 90
       50
102
RTVSPost2010PropOp48
 70
     0
102
RTVSPost2010Prop49
280
     0
102
RTVSPost2010PropOp49
 70
     0
102
RTVSPost2010Prop50
 90
       50
102
RTVSPost2010PropOp50
 70
     0
102
RTVSPost2010Prop51ColorIndex
 90
      256
102
RTVSPost2010Prop51ColorRGB
 90
-16777216
102
RTVSPost2010PropOp51
 70
     0
102
RTVSPost2010Prop52
140
1.0
102
RTVSPost2010PropOp52
 70
     0
102
RTVSPost2010Prop53
 90
        2
102
RTVSPost2010PropOp53
 70
     0
102
RTVSPost2010Prop54
  1
strokes_ogs.tif
102
RTVSPost2010PropOp54
 70
     0
102
RTVSPost2010Prop55
280
     0
102
RTVSPost2010PropOp55
 70
     0
102
RTVSPost2010Prop56
140
1.0
102
RTVSPost2010PropOp56
 70
     0
102
RTVSPost2010Prop57
140
1.0
102
RTVSPost2010PropOp57
 70
     0
  0
XRECORD
  5
31C
102
{ACAD_REACTORS
330
31B
102
}
330
31B
100
AcDbXrecord
280
     1
102
RTVSPropertyOp0
 70
     1
102
RTVSPropertyOp1
 70
     1
102
RTVSPropertyOp2
 70
     1
102
RTVSPropertyOp3
 70
     1
102
RTVSPropertyOp4
 70
     1
102
RTVSPropertyOp5
 70
     1
102
RTVSPropertyOp6
 70
     1
102
RTVSPropertyOp7
 70
     1
102
RTVSPropertyOp8
 70
     1
102
RTVSPropertyOp9
 70
     1
102
RTVSPropertyOp10
 70
     1
102
RTVSPropertyOp11
 70
     1
102
RTVSPropertyOp12
 70
     1
102
RTVSPropertyOp13
 70
     1
102
RTVSPropertyOp14
 70
     1
102
RTVSPropertyOp15
 70
     1
102
RTVSPropertyOp16
 70
     1
102
RTVSPropertyOp17
 70
     1
102
RTVSPropertyOp18
 70
     1
102
RTVSPropertyOp19
 70
     1
102
RTVSPropertyOp20
 70
     1
102
RTVSPropertyOp21
 70
     1
102
RTVSPropertyOp22
 70
     1
102
RTVSPropertyOp23
 70
     1
102
RTVSPropertyOp24
 70
     1
102
RTVSPropertyOp25
 70
     1
102
RTVSPropertyOp26
 70
     1
102
RTVSPropertyOp27
 70
     1
102
RTVSPropertyOp28
 70
     1
102
RTVSPropertyOp29
 70
     1
102
RTVSPropertyOp30
 70
     1
102
RTVSPropertyOp31
 70
     1
102
RTVSPropertyOp32
 70
     1
102
RTVSPropertyOp33
 70
     1
102
RTVSPropertyOp34
 70
     1
102
RTVSPropertyOp35
 70
     1
102
RTVSPropertyOp36
 70
     1
102
RTVSPropertyOp37
 70
     1
102
RTVSPropertyOp38
 70
     1
102
RTVSPropertyOp39
 70
     1
102
RTVSPropertyOp40
 70
     1
102
RTVSPropertyOp41
 70
     1
102
RTVSPropertyOp42
 70
     1
102
RTVSPropertyOp43
 70
     1
102
RTVSPropertyOp44
 70
     1
102
RTVSPropertyOp45
 70
     1
102
RTVSPropertyOp46
 70
     1
102
RTVSPropertyOp47
 70
     1
102
RTVSPropertyOp48
 70
     1
102
RTVSPropertyOp49
 70
     1
102
RTVSPropertyOp50
 70
     1
102
RTVSPropertyOp51
 70
     0
102
RTVSPropertyOp52
 70
     0
102
RTVSPropertyOp53
 70
     1
102
RTVSPropertyOp54
 70
     1
102
RTVSPropertyOp55
 70
     1
102
RTVSPropertyOp56
 70
     1
102
RTVSPropertyOp57
 70
     1
102
RTVSPost2010Prop28
280
     0
102
RTVSPost2010PropOp28
 70
     1
102
RTVSPost2010Prop29
280
     1
102
RTVSPost2010PropOp29
 70
     1
102
RTVSPost2010Prop30
280
     1
102
RTVSPost2010PropOp30
 70
     1
102
RTVSPost2010Prop31
280
     0
102
RTVSPost2010PropOp31
 70
     1
102
RTVSPost2010Prop32
280
     0
102
RTVSPost2010PropOp32
 70
     1
102
RTVSPost2010Prop33
280
     0
102
RTVSPost2010PropOp33
 70
     1
102
RTVSPost2010Prop34
280
     0
102
RTVSPost2010PropOp34
 70
     1
102
RTVSPost2010Prop35
280
     0
102
RTVSPost2010PropOp35
 70
     1
102
RTVSPost2010Prop36
280
     0
102
RTVSPost2010PropOp36
 70
     1
102
RTVSPost2010Prop37
 90
       50
102
RTVSPost2010PropOp37
 70
     1
102
RTVSPost2010Prop38
140
0.0
102
RTVSPost2010PropOp38
 70
     1
102
RTVSPost2010Prop39
140
1.0
102
RTVSPost2010PropOp39
 70
     1
102
RTVSPost2010Prop40
 90
        0
102
RTVSPost2010PropOp40
 70
     1
102
RTVSPost2010Prop41ColorIndex
 90
       18
102
RTVSPost2010Prop41ColorRGB
 90
        0
102
RTVSPost2010PropOp41
 70
     1
102
RTVSPost2010Prop42
 90
       50
102
RTVSPost2010PropOp42
 70
     1
102
RTVSPost2010Prop43
 90
        3
102
RTVSPost2010PropOp43
 70
     1
102
RTVSPost2010Prop44ColorIndex
 90
        5
102
RTVSPost2010Prop44ColorRGB
 90
      255
102
RTVSPost2010PropOp44
 70
     1
102
RTVSPost2010Prop45
280
     0
102
RTVSPost2010PropOp45
 70
     1
102
RTVSPost2010Prop46
 90
       50
102
RTVSPost2010PropOp46
 70
     1
102
RTVSPost2010Prop47
 90
       50
102
RTVSPost2010PropOp47
 70
     1
102
RTVSPost2010Prop48
 90
       50
102
RTVSPost2010PropOp48
 70
     1
102
RTVSPost2010Prop49
280
     0
102
RTVSPost2010PropOp49
 70
     1
102
RTVSPost2010Prop50
 90
       50
102
RTVSPost2010PropOp50
 70
     1
102
RTVSPost2010Prop51ColorIndex
 90
      256
102
RTVSPost2010Prop51ColorRGB
 90
-16777216
102
RTVSPost2010PropOp51
 70
     0
102
RTVSPost2010Prop52
140
1.0
102
RTVSPost2010PropOp52
 70
     0
102
RTVSPost2010Prop53
 90
        2
102
RTVSPost2010PropOp53
 70
     1
102
RTVSPost2010Prop54
  1
strokes_ogs.tif
102
RTVSPost2010PropOp54
 70
     1
102
RTVSPost2010Prop55
280
     0
102
RTVSPost2010PropOp55
 70
     1
102
RTVSPost2010Prop56
140
1.0
102
RTVSPost2010PropOp56
 70
     1
102
RTVSPost2010Prop57
140
1.0
102
RTVSPost2010PropOp57
 70
     1
  0
XRECORD
  5
324
102
{ACAD_REACTORS
330
323
102
}
330
323
100
AcDbXrecord
280
     1
102
RTVSPropertyOp0
 70
     0
102
RTVSPropertyOp1
 70
     0
102
RTVSPropertyOp2
 70
     0
102
RTVSPropertyOp3
 70
     0
102
RTVSPropertyOp4
 70
     0
102
RTVSPropertyOp5
 70
     0
102
RTVSPropertyOp6
 70
     0
102
RTVSPropertyOp7
 70
     0
102
RTVSPropertyOp8
 70
     0
102
RTVSPropertyOp9
 70
     0
102
RTVSPropertyOp10
 70
     0
102
RTVSPropertyOp11
 70
     0
102
RTVSPropertyOp12
 70
     0
102
RTVSPropertyOp13
 70
     0
102
RTVSPropertyOp14
 70
     2
102
RTVSPropertyOp15
 70
     0
102
RTVSPropertyOp16
 70
     0
102
RTVSPropertyOp17
 70
     0
102
RTVSPropertyOp18
 70
     0
102
RTVSPropertyOp19
 70
     0
102
RTVSPropertyOp20
 70
     0
102
RTVSPropertyOp21
 70
     0
102
RTVSPropertyOp22
 70
     0
102
RTVSPropertyOp23
 70
     0
102
RTVSPropertyOp24
 70
     0
102
RTVSPropertyOp25
 70
     0
102
RTVSPropertyOp26
 70
     0
102
RTVSPropertyOp27
 70
     0
102
RTVSPropertyOp28
 70
     0
102
RTVSPropertyOp29
 70
     0
102
RTVSPropertyOp30
 70
     0
102
RTVSPropertyOp31
 70
     0
102
RTVSPropertyOp32
 70
     0
102
RTVSPropertyOp33
 70
     0
102
RTVSPropertyOp34
 70
     0
102
RTVSPropertyOp35
 70
     0
102
RTVSPropertyOp36
 70
     0
102
RTVSPropertyOp37
 70
     0
102
RTVSPropertyOp38
 70
     0
102
RTVSPropertyOp39
 70
     0
102
RTVSPropertyOp40
 70
     0
102
RTVSPropertyOp41
 70
     0
102
RTVSPropertyOp42
 70
     0
102
RTVSPropertyOp43
 70
     0
102
RTVSPropertyOp44
 70
     0
102
RTVSPropertyOp45
 70
     0
102
RTVSPropertyOp46
 70
     0
102
RTVSPropertyOp47
 70
     0
102
RTVSPropertyOp48
 70
     0
102
RTVSPropertyOp49
 70
     0
102
RTVSPropertyOp50
 70
     0
102
RTVSPropertyOp51
 70
     0
102
RTVSPropertyOp52
 70
     0
102
RTVSPropertyOp53
 70
     0
102
RTVSPropertyOp54
 70
     0
102
RTVSPropertyOp55
 70
     0
102
RTVSPropertyOp56
 70
     0
102
RTVSPropertyOp57
 70
     0
102
RTVSPost2010Prop28
280
     0
102
RTVSPost2010PropOp28
 70
     0
102
RTVSPost2010Prop29
280
     1
102
RTVSPost2010PropOp29
 70
     0
102
RTVSPost2010Prop30
280
     1
102
RTVSPost2010PropOp30
 70
     0
102
RTVSPost2010Prop31
280
     0
102
RTVSPost2010PropOp31
 70
     0
102
RTVSPost2010Prop32
280
     0
102
RTVSPost2010PropOp32
 70
     0
102
RTVSPost2010Prop33
280
     0
102
RTVSPost2010PropOp33
 70
     0
102
RTVSPost2010Prop34
280
     0
102
RTVSPost2010PropOp34
 70
     0
102
RTVSPost2010Prop35
280
     0
102
RTVSPost2010PropOp35
 70
     0
102
RTVSPost2010Prop36
280
     0
102
RTVSPost2010PropOp36
 70
     0
102
RTVSPost2010Prop37
 90
       50
102
RTVSPost2010PropOp37
 70
     0
102
RTVSPost2010Prop38
140
0.0
102
RTVSPost2010PropOp38
 70
     0
102
RTVSPost2010Prop39
140
1.0
102
RTVSPost2010PropOp39
 70
     0
102
RTVSPost2010Prop40
 90
        0
102
RTVSPost2010PropOp40
 70
     0
102
RTVSPost2010Prop41ColorIndex
 90
       18
102
RTVSPost2010Prop41ColorRGB
 90
        0
102
RTVSPost2010PropOp41
 70
     0
102
RTVSPost2010Prop42
 90
       50
102
RTVSPost2010PropOp42
 70
     0
102
RTVSPost2010Prop43
 90
        3
102
RTVSPost2010PropOp43
 70
     0
102
RTVSPost2010Prop44ColorIndex
 90
        5
102
RTVSPost2010Prop44ColorRGB
 90
      255
102
RTVSPost2010PropOp44
 70
     0
102
RTVSPost2010Prop45
280
     0
102
RTVSPost2010PropOp45
 70
     0
102
RTVSPost2010Prop46
 90
       50
102
RTVSPost2010PropOp46
 70
     0
102
RTVSPost2010Prop47
 90
       50
102
RTVSPost2010PropOp47
 70
     0
102
RTVSPost2010Prop48
 90
       50
102
RTVSPost2010PropOp48
 70
     0
102
RTVSPost2010Prop49
280
     0
102
RTVSPost2010PropOp49
 70
     0
102
RTVSPost2010Prop50
 90
       50
102
RTVSPost2010PropOp50
 70
     0
102
RTVSPost2010Prop51ColorIndex
 90
      256
102
RTVSPost2010Prop51ColorRGB
 90
-16777216
102
RTVSPost2010PropOp51
 70
     0
102
RTVSPost2010Prop52
140
1.0
102
RTVSPost2010PropOp52
 70
     0
102
RTVSPost2010Prop53
 90
        2
102
RTVSPost2010PropOp53
 70
     0
102
RTVSPost2010Prop54
  1
strokes_ogs.tif
102
RTVSPost2010PropOp54
 70
     0
102
RTVSPost2010Prop55
280
     0
102
RTVSPost2010PropOp55
 70
     0
102
RTVSPost2010Prop56
140
1.0
102
RTVSPost2010PropOp56
 70
     0
102
RTVSPost2010Prop57
140
1.0
102
RTVSPost2010PropOp57
 70
     0
  0
XRECORD
  5
312
102
{ACAD_REACTORS
330
311
102
}
330
311
100
AcDbXrecord
280
     1
102
RTVSPropertyOp0
 70
     1
102
RTVSPropertyOp1
 70
     1
102
RTVSPropertyOp2
 70
     1
102
RTVSPropertyOp3
 70
     1
102
RTVSPropertyOp4
 70
     1
102
RTVSPropertyOp5
 70
     1
102
RTVSPropertyOp6
 70
     1
102
RTVSPropertyOp7
 70
     1
102
RTVSPropertyOp8
 70
     1
102
RTVSPropertyOp9
 70
     1
102
RTVSPropertyOp10
 70
     1
102
RTVSPropertyOp11
 70
     1
102
RTVSPropertyOp12
 70
     1
102
RTVSPropertyOp13
 70
     1
102
RTVSPropertyOp14
 70
     1
102
RTVSPropertyOp15
 70
     1
102
RTVSPropertyOp16
 70
     1
102
RTVSPropertyOp17
 70
     1
102
RTVSPropertyOp18
 70
     1
102
RTVSPropertyOp19
 70
     1
102
RTVSPropertyOp20
 70
     1
102
RTVSPropertyOp21
 70
     1
102
RTVSPropertyOp22
 70
     1
102
RTVSPropertyOp23
 70
     1
102
RTVSPropertyOp24
 70
     1
102
RTVSPropertyOp25
 70
     1
102
RTVSPropertyOp26
 70
     1
102
RTVSPropertyOp27
 70
     1
102
RTVSPropertyOp28
 70
     1
102
RTVSPropertyOp29
 70
     1
102
RTVSPropertyOp30
 70
     1
102
RTVSPropertyOp31
 70
     1
102
RTVSPropertyOp32
 70
     1
102
RTVSPropertyOp33
 70
     1
102
RTVSPropertyOp34
 70
     1
102
RTVSPropertyOp35
 70
     1
102
RTVSPropertyOp36
 70
     1
102
RTVSPropertyOp37
 70
     1
102
RTVSPropertyOp38
 70
     1
102
RTVSPropertyOp39
 70
     1
102
RTVSPropertyOp40
 70
     1
102
RTVSPropertyOp41
 70
     1
102
RTVSPropertyOp42
 70
     1
102
RTVSPropertyOp43
 70
     1
102
RTVSPropertyOp44
 70
     1
102
RTVSPropertyOp45
 70
     1
102
RTVSPropertyOp46
 70
     1
102
RTVSPropertyOp47
 70
     1
102
RTVSPropertyOp48
 70
     1
102
RTVSPropertyOp49
 70
     1
102
RTVSPropertyOp50
 70
     1
102
RTVSPropertyOp51
 70
     0
102
RTVSPropertyOp52
 70
     0
102
RTVSPropertyOp53
 70
     1
102
RTVSPropertyOp54
 70
     1
102
RTVSPropertyOp55
 70
     1
102
RTVSPropertyOp56
 70
     1
102
RTVSPropertyOp57
 70
     1
102
RTVSPost2010Prop28
280
     0
102
RTVSPost2010PropOp28
 70
     1
102
RTVSPost2010Prop29
280
     1
102
RTVSPost2010PropOp29
 70
     1
102
RTVSPost2010Prop30
280
     1
102
RTVSPost2010PropOp30
 70
     1
102
RTVSPost2010Prop31
280
     0
102
RTVSPost2010PropOp31
 70
     1
102
RTVSPost2010Prop32
280
     0
102
RTVSPost2010PropOp32
 70
     1
102
RTVSPost2010Prop33
280
     0
102
RTVSPost2010PropOp33
 70
     1
102
RTVSPost2010Prop34
280
     0
102
RTVSPost2010PropOp34
 70
     1
102
RTVSPost2010Prop35
280
     0
102
RTVSPost2010PropOp35
 70
     1
102
RTVSPost2010Prop36
280
     0
102
RTVSPost2010PropOp36
 70
     1
102
RTVSPost2010Prop37
 90
       50
102
RTVSPost2010PropOp37
 70
     1
102
RTVSPost2010Prop38
140
0.0
102
RTVSPost2010PropOp38
 70
     1
102
RTVSPost2010Prop39
140
1.0
102
RTVSPost2010PropOp39
 70
     1
102
RTVSPost2010Prop40
 90
        0
102
RTVSPost2010PropOp40
 70
     1
102
RTVSPost2010Prop41ColorIndex
 90
       18
102
RTVSPost2010Prop41ColorRGB
 90
        0
102
RTVSPost2010PropOp41
 70
     1
102
RTVSPost2010Prop42
 90
       50
102
RTVSPost2010PropOp42
 70
     1
102
RTVSPost2010Prop43
 90
        3
102
RTVSPost2010PropOp43
 70
     1
102
RTVSPost2010Prop44ColorIndex
 90
        5
102
RTVSPost2010Prop44ColorRGB
 90
      255
102
RTVSPost2010PropOp44
 70
     1
102
RTVSPost2010Prop45
280
     0
102
RTVSPost2010PropOp45
 70
     1
102
RTVSPost2010Prop46
 90
       50
102
RTVSPost2010PropOp46
 70
     1
102
RTVSPost2010Prop47
 90
       50
102
RTVSPost2010PropOp47
 70
     1
102
RTVSPost2010Prop48
 90
       50
102
RTVSPost2010PropOp48
 70
     1
102
RTVSPost2010Prop49
280
     0
102
RTVSPost2010PropOp49
 70
     1
102
RTVSPost2010Prop50
 90
       50
102
RTVSPost2010PropOp50
 70
     1
102
RTVSPost2010Prop51ColorIndex
 90
      256
102
RTVSPost2010Prop51ColorRGB
 90
-16777216
102
RTVSPost2010PropOp51
 70
     0
102
RTVSPost2010Prop52
140
1.0
102
RTVSPost2010PropOp52
 70
     0
102
RTVSPost2010Prop53
 90
        2
102
RTVSPost2010PropOp53
 70
     1
102
RTVSPost2010Prop54
  1
strokes_ogs.tif
102
RTVSPost2010PropOp54
 70
     1
102
RTVSPost2010Prop55
280
     0
102
RTVSPost2010PropOp55
 70
     1
102
RTVSPost2010Prop56
140
1.0
102
RTVSPost2010PropOp56
 70
     1
102
RTVSPost2010Prop57
140
1.0
102
RTVSPost2010PropOp57
 70
     1
  0
XRECORD
  5
330
102
{ACAD_REACTORS
330
32F
102
}
330
32F
100
AcDbXrecord
280
     1
102
RTVSPropertyOp0
 70
     1
102
RTVSPropertyOp1
 70
     1
102
RTVSPropertyOp2
 70
     1
102
RTVSPropertyOp3
 70
     1
102
RTVSPropertyOp4
 70
     1
102
RTVSPropertyOp5
 70
     1
102
RTVSPropertyOp6
 70
     1
102
RTVSPropertyOp7
 70
     1
102
RTVSPropertyOp8
 70
     1
102
RTVSPropertyOp9
 70
     1
102
RTVSPropertyOp10
 70
     1
102
RTVSPropertyOp11
 70
     1
102
RTVSPropertyOp12
 70
     1
102
RTVSPropertyOp13
 70
     1
102
RTVSPropertyOp14
 70
     1
102
RTVSPropertyOp15
 70
     1
102
RTVSPropertyOp16
 70
     1
102
RTVSPropertyOp17
 70
     1
102
RTVSPropertyOp18
 70
     1
102
RTVSPropertyOp19
 70
     1
102
RTVSPropertyOp20
 70
     1
102
RTVSPropertyOp21
 70
     1
102
RTVSPropertyOp22
 70
     1
102
RTVSPropertyOp23
 70
     1
102
RTVSPropertyOp24
 70
     1
102
RTVSPropertyOp25
 70
     1
102
RTVSPropertyOp26
 70
     1
102
RTVSPropertyOp27
 70
     1
102
RTVSPropertyOp28
 70
     1
102
RTVSPropertyOp29
 70
     1
102
RTVSPropertyOp30
 70
     1
102
RTVSPropertyOp31
 70
     1
102
RTVSPropertyOp32
 70
     1
102
RTVSPropertyOp33
 70
     1
102
RTVSPropertyOp34
 70
     1
102
RTVSPropertyOp35
 70
     1
102
RTVSPropertyOp36
 70
     1
102
RTVSPropertyOp37
 70
     1
102
RTVSPropertyOp38
 70
     1
102
RTVSPropertyOp39
 70
     1
102
RTVSPropertyOp40
 70
     1
102
RTVSPropertyOp41
 70
     1
102
RTVSPropertyOp42
 70
     1
102
RTVSPropertyOp43
 70
     1
102
RTVSPropertyOp44
 70
     1
102
RTVSPropertyOp45
 70
     1
102
RTVSPropertyOp46
 70
     1
102
RTVSPropertyOp47
 70
     1
102
RTVSPropertyOp48
 70
     1
102
RTVSPropertyOp49
 70
     1
102
RTVSPropertyOp50
 70
     1
102
RTVSPropertyOp51
 70
     0
102
RTVSPropertyOp52
 70
     0
102
RTVSPropertyOp53
 70
     1
102
RTVSPropertyOp54
 70
     1
102
RTVSPropertyOp55
 70
     1
102
RTVSPropertyOp56
 70
     1
102
RTVSPropertyOp57
 70
     1
102
RTVSPost2010Prop28
280
     0
102
RTVSPost2010PropOp28
 70
     1
102
RTVSPost2010Prop29
280
     1
102
RTVSPost2010PropOp29
 70
     1
102
RTVSPost2010Prop30
280
     1
102
RTVSPost2010PropOp30
 70
     1
102
RTVSPost2010Prop31
280
     0
102
RTVSPost2010PropOp31
 70
     1
102
RTVSPost2010Prop32
280
     0
102
RTVSPost2010PropOp32
 70
     1
102
RTVSPost2010Prop33
280
     0
102
RTVSPost2010PropOp33
 70
     1
102
RTVSPost2010Prop34
280
     0
102
RTVSPost2010PropOp34
 70
     1
102
RTVSPost2010Prop35
280
     0
102
RTVSPost2010PropOp35
 70
     1
102
RTVSPost2010Prop36
280
     0
102
RTVSPost2010PropOp36
 70
     1
102
RTVSPost2010Prop37
 90
       50
102
RTVSPost2010PropOp37
 70
     1
102
RTVSPost2010Prop38
140
0.0
102
RTVSPost2010PropOp38
 70
     1
102
RTVSPost2010Prop39
140
1.0
102
RTVSPost2010PropOp39
 70
     1
102
RTVSPost2010Prop40
 90
        0
102
RTVSPost2010PropOp40
 70
     1
102
RTVSPost2010Prop41ColorIndex
 90
       18
102
RTVSPost2010Prop41ColorRGB
 90
        0
102
RTVSPost2010PropOp41
 70
     1
102
RTVSPost2010Prop42
 90
       50
102
RTVSPost2010PropOp42
 70
     1
102
RTVSPost2010Prop43
 90
        3
102
RTVSPost2010PropOp43
 70
     1
102
RTVSPost2010Prop44ColorIndex
 90
        5
102
RTVSPost2010Prop44ColorRGB
 90
      255
102
RTVSPost2010PropOp44
 70
     1
102
RTVSPost2010Prop45
280
     0
102
RTVSPost2010PropOp45
 70
     1
102
RTVSPost2010Prop46
 90
       50
102
RTVSPost2010PropOp46
 70
     1
102
RTVSPost2010Prop47
 90
       50
102
RTVSPost2010PropOp47
 70
     1
102
RTVSPost2010Prop48
 90
       50
102
RTVSPost2010PropOp48
 70
     1
102
RTVSPost2010Prop49
280
     0
102
RTVSPost2010PropOp49
 70
     1
102
RTVSPost2010Prop50
 90
       50
102
RTVSPost2010PropOp50
 70
     1
102
RTVSPost2010Prop51ColorIndex
 90
      256
102
RTVSPost2010Prop51ColorRGB
 90
-16777216
102
RTVSPost2010PropOp51
 70
     0
102
RTVSPost2010Prop52
140
1.0
102
RTVSPost2010PropOp52
 70
     0
102
RTVSPost2010Prop53
 90
        2
102
RTVSPost2010PropOp53
 70
     1
102
RTVSPost2010Prop54
  1
strokes_ogs.tif
102
RTVSPost2010PropOp54
 70
     1
102
RTVSPost2010Prop55
280
     0
102
RTVSPost2010PropOp55
 70
     1
102
RTVSPost2010Prop56
140
1.0
102
RTVSPost2010PropOp56
 70
     1
102
RTVSPost2010Prop57
140
1.0
102
RTVSPost2010PropOp57
 70
     1
  0
XRECORD
  5
32E
102
{ACAD_REACTORS
330
32D
102
}
330
32D
100
AcDbXrecord
280
     1
102
RTVSPropertyOp0
 70
     1
102
RTVSPropertyOp1
 70
     1
102
RTVSPropertyOp2
 70
     1
102
RTVSPropertyOp3
 70
     1
102
RTVSPropertyOp4
 70
     1
102
RTVSPropertyOp5
 70
     1
102
RTVSPropertyOp6
 70
     1
102
RTVSPropertyOp7
 70
     1
102
RTVSPropertyOp8
 70
     1
102
RTVSPropertyOp9
 70
     1
102
RTVSPropertyOp10
 70
     1
102
RTVSPropertyOp11
 70
     1
102
RTVSPropertyOp12
 70
     1
102
RTVSPropertyOp13
 70
     1
102
RTVSPropertyOp14
 70
     1
102
RTVSPropertyOp15
 70
     1
102
RTVSPropertyOp16
 70
     1
102
RTVSPropertyOp17
 70
     1
102
RTVSPropertyOp18
 70
     1
102
RTVSPropertyOp19
 70
     1
102
RTVSPropertyOp20
 70
     1
102
RTVSPropertyOp21
 70
     1
102
RTVSPropertyOp22
 70
     1
102
RTVSPropertyOp23
 70
     1
102
RTVSPropertyOp24
 70
     1
102
RTVSPropertyOp25
 70
     1
102
RTVSPropertyOp26
 70
     1
102
RTVSPropertyOp27
 70
     1
102
RTVSPropertyOp28
 70
     1
102
RTVSPropertyOp29
 70
     1
102
RTVSPropertyOp30
 70
     1
102
RTVSPropertyOp31
 70
     1
102
RTVSPropertyOp32
 70
     1
102
RTVSPropertyOp33
 70
     1
102
RTVSPropertyOp34
 70
     1
102
RTVSPropertyOp35
 70
     1
102
RTVSPropertyOp36
 70
     1
102
RTVSPropertyOp37
 70
     1
102
RTVSPropertyOp38
 70
     1
102
RTVSPropertyOp39
 70
     1
102
RTVSPropertyOp40
 70
     1
102
RTVSPropertyOp41
 70
     1
102
RTVSPropertyOp42
 70
     1
102
RTVSPropertyOp43
 70
     1
102
RTVSPropertyOp44
 70
     1
102
RTVSPropertyOp45
 70
     1
102
RTVSPropertyOp46
 70
     1
102
RTVSPropertyOp47
 70
     1
102
RTVSPropertyOp48
 70
     1
102
RTVSPropertyOp49
 70
     1
102
RTVSPropertyOp50
 70
     1
102
RTVSPropertyOp51
 70
     0
102
RTVSPropertyOp52
 70
     0
102
RTVSPropertyOp53
 70
     1
102
RTVSPropertyOp54
 70
     1
102
RTVSPropertyOp55
 70
     1
102
RTVSPropertyOp56
 70
     1
102
RTVSPropertyOp57
 70
     1
102
RTVSPost2010Prop28
280
     0
102
RTVSPost2010PropOp28
 70
     1
102
RTVSPost2010Prop29
280
     1
102
RTVSPost2010PropOp29
 70
     1
102
RTVSPost2010Prop30
280
     1
102
RTVSPost2010PropOp30
 70
     1
102
RTVSPost2010Prop31
280
     0
102
RTVSPost2010PropOp31
 70
     1
102
RTVSPost2010Prop32
280
     0
102
RTVSPost2010PropOp32
 70
     1
102
RTVSPost2010Prop33
280
     0
102
RTVSPost2010PropOp33
 70
     1
102
RTVSPost2010Prop34
280
     0
102
RTVSPost2010PropOp34
 70
     1
102
RTVSPost2010Prop35
280
     0
102
RTVSPost2010PropOp35
 70
     1
102
RTVSPost2010Prop36
280
     0
102
RTVSPost2010PropOp36
 70
     1
102
RTVSPost2010Prop37
 90
       50
102
RTVSPost2010PropOp37
 70
     1
102
RTVSPost2010Prop38
140
0.0
102
RTVSPost2010PropOp38
 70
     1
102
RTVSPost2010Prop39
140
1.0
102
RTVSPost2010PropOp39
 70
     1
102
RTVSPost2010Prop40
 90
        0
102
RTVSPost2010PropOp40
 70
     1
102
RTVSPost2010Prop41ColorIndex
 90
       18
102
RTVSPost2010Prop41ColorRGB
 90
        0
102
RTVSPost2010PropOp41
 70
     1
102
RTVSPost2010Prop42
 90
       50
102
RTVSPost2010PropOp42
 70
     1
102
RTVSPost2010Prop43
 90
        3
102
RTVSPost2010PropOp43
 70
     1
102
RTVSPost2010Prop44ColorIndex
 90
        5
102
RTVSPost2010Prop44ColorRGB
 90
      255
102
RTVSPost2010PropOp44
 70
     1
102
RTVSPost2010Prop45
280
     0
102
RTVSPost2010PropOp45
 70
     1
102
RTVSPost2010Prop46
 90
       50
102
RTVSPost2010PropOp46
 70
     1
102
RTVSPost2010Prop47
 90
       50
102
RTVSPost2010PropOp47
 70
     1
102
RTVSPost2010Prop48
 90
       50
102
RTVSPost2010PropOp48
 70
     1
102
RTVSPost2010Prop49
280
     0
102
RTVSPost2010PropOp49
 70
     1
102
RTVSPost2010Prop50
 90
       50
102
RTVSPost2010PropOp50
 70
     1
102
RTVSPost2010Prop51ColorIndex
 90
      256
102
RTVSPost2010Prop51ColorRGB
 90
-16777216
102
RTVSPost2010PropOp51
 70
     0
102
RTVSPost2010Prop52
140
1.0
102
RTVSPost2010PropOp52
 70
     0
102
RTVSPost2010Prop53
 90
        2
102
RTVSPost2010PropOp53
 70
     1
102
RTVSPost2010Prop54
  1
strokes_ogs.tif
102
RTVSPost2010PropOp54
 70
     1
102
RTVSPost2010Prop55
280
     0
102
RTVSPost2010PropOp55
 70
     1
102
RTVSPost2010Prop56
140
1.0
102
RTVSPost2010PropOp56
 70
     1
102
RTVSPost2010Prop57
140
1.0
102
RTVSPost2010PropOp57
 70
     1
  0
XRECORD
  5
328
102
{ACAD_REACTORS
330
327
102
}
330
327
100
AcDbXrecord
280
     1
102
RTVSPropertyOp0
 70
     1
102
RTVSPropertyOp1
 70
     1
102
RTVSPropertyOp2
 70
     1
102
RTVSPropertyOp3
 70
     1
102
RTVSPropertyOp4
 70
     1
102
RTVSPropertyOp5
 70
     1
102
RTVSPropertyOp6
 70
     1
102
RTVSPropertyOp7
 70
     1
102
RTVSPropertyOp8
 70
     1
102
RTVSPropertyOp9
 70
     1
102
RTVSPropertyOp10
 70
     1
102
RTVSPropertyOp11
 70
     1
102
RTVSPropertyOp12
 70
     1
102
RTVSPropertyOp13
 70
     1
102
RTVSPropertyOp14
 70
     1
102
RTVSPropertyOp15
 70
     1
102
RTVSPropertyOp16
 70
     1
102
RTVSPropertyOp17
 70
     1
102
RTVSPropertyOp18
 70
     1
102
RTVSPropertyOp19
 70
     1
102
RTVSPropertyOp20
 70
     1
102
RTVSPropertyOp21
 70
     1
102
RTVSPropertyOp22
 70
     1
102
RTVSPropertyOp23
 70
     1
102
RTVSPropertyOp24
 70
     1
102
RTVSPropertyOp25
 70
     1
102
RTVSPropertyOp26
 70
     1
102
RTVSPropertyOp27
 70
     1
102
RTVSPropertyOp28
 70
     1
102
RTVSPropertyOp29
 70
     1
102
RTVSPropertyOp30
 70
     1
102
RTVSPropertyOp31
 70
     1
102
RTVSPropertyOp32
 70
     1
102
RTVSPropertyOp33
 70
     1
102
RTVSPropertyOp34
 70
     1
102
RTVSPropertyOp35
 70
     1
102
RTVSPropertyOp36
 70
     1
102
RTVSPropertyOp37
 70
     1
102
RTVSPropertyOp38
 70
     1
102
RTVSPropertyOp39
 70
     1
102
RTVSPropertyOp40
 70
     1
102
RTVSPropertyOp41
 70
     1
102
RTVSPropertyOp42
 70
     1
102
RTVSPropertyOp43
 70
     1
102
RTVSPropertyOp44
 70
     1
102
RTVSPropertyOp45
 70
     1
102
RTVSPropertyOp46
 70
     1
102
RTVSPropertyOp47
 70
     1
102
RTVSPropertyOp48
 70
     1
102
RTVSPropertyOp49
 70
     1
102
RTVSPropertyOp50
 70
     1
102
RTVSPropertyOp51
 70
     0
102
RTVSPropertyOp52
 70
     0
102
RTVSPropertyOp53
 70
     1
102
RTVSPropertyOp54
 70
     1
102
RTVSPropertyOp55
 70
     1
102
RTVSPropertyOp56
 70
     1
102
RTVSPropertyOp57
 70
     1
102
RTVSPost2010Prop28
280
     0
102
RTVSPost2010PropOp28
 70
     1
102
RTVSPost2010Prop29
280
     1
102
RTVSPost2010PropOp29
 70
     1
102
RTVSPost2010Prop30
280
     1
102
RTVSPost2010PropOp30
 70
     1
102
RTVSPost2010Prop31
280
     0
102
RTVSPost2010PropOp31
 70
     1
102
RTVSPost2010Prop32
280
     0
102
RTVSPost2010PropOp32
 70
     1
102
RTVSPost2010Prop33
280
     0
102
RTVSPost2010PropOp33
 70
     1
102
RTVSPost2010Prop34
280
     0
102
RTVSPost2010PropOp34
 70
     1
102
RTVSPost2010Prop35
280
     0
102
RTVSPost2010PropOp35
 70
     1
102
RTVSPost2010Prop36
280
     0
102
RTVSPost2010PropOp36
 70
     1
102
RTVSPost2010Prop37
 90
       50
102
RTVSPost2010PropOp37
 70
     1
102
RTVSPost2010Prop38
140
0.0
102
RTVSPost2010PropOp38
 70
     1
102
RTVSPost2010Prop39
140
1.0
102
RTVSPost2010PropOp39
 70
     1
102
RTVSPost2010Prop40
 90
        0
102
RTVSPost2010PropOp40
 70
     1
102
RTVSPost2010Prop41ColorIndex
 90
       18
102
RTVSPost2010Prop41ColorRGB
 90
        0
102
RTVSPost2010PropOp41
 70
     1
102
RTVSPost2010Prop42
 90
       50
102
RTVSPost2010PropOp42
 70
     1
102
RTVSPost2010Prop43
 90
        3
102
RTVSPost2010PropOp43
 70
     1
102
RTVSPost2010Prop44ColorIndex
 90
        5
102
RTVSPost2010Prop44ColorRGB
 90
      255
102
RTVSPost2010PropOp44
 70
     1
102
RTVSPost2010Prop45
280
     0
102
RTVSPost2010PropOp45
 70
     1
102
RTVSPost2010Prop46
 90
       50
102
RTVSPost2010PropOp46
 70
     1
102
RTVSPost2010Prop47
 90
       50
102
RTVSPost2010PropOp47
 70
     1
102
RTVSPost2010Prop48
 90
       50
102
RTVSPost2010PropOp48
 70
     1
102
RTVSPost2010Prop49
280
     0
102
RTVSPost2010PropOp49
 70
     1
102
RTVSPost2010Prop50
 90
       50
102
RTVSPost2010PropOp50
 70
     1
102
RTVSPost2010Prop51ColorIndex
 90
      256
102
RTVSPost2010Prop51ColorRGB
 90
-16777216
102
RTVSPost2010PropOp51
 70
     0
102
RTVSPost2010Prop52
140
1.0
102
RTVSPost2010PropOp52
 70
     0
102
RTVSPost2010Prop53
 90
        2
102
RTVSPost2010PropOp53
 70
     1
102
RTVSPost2010Prop54
  1
strokes_ogs.tif
102
RTVSPost2010PropOp54
 70
     1
102
RTVSPost2010Prop55
280
     0
102
RTVSPost2010PropOp55
 70
     1
102
RTVSPost2010Prop56
140
1.0
102
RTVSPost2010PropOp56
 70
     1
102
RTVSPost2010Prop57
140
1.0
102
RTVSPost2010PropOp57
 70
     1
  0
XRECORD
  5
32A
102
{ACAD_REACTORS
330
329
102
}
330
329
100
AcDbXrecord
280
     1
102
RTVSPropertyOp0
 70
     1
102
RTVSPropertyOp1
 70
     1
102
RTVSPropertyOp2
 70
     1
102
RTVSPropertyOp3
 70
     1
102
RTVSPropertyOp4
 70
     1
102
RTVSPropertyOp5
 70
     1
102
RTVSPropertyOp6
 70
     1
102
RTVSPropertyOp7
 70
     1
102
RTVSPropertyOp8
 70
     1
102
RTVSPropertyOp9
 70
     1
102
RTVSPropertyOp10
 70
     1
102
RTVSPropertyOp11
 70
     1
102
RTVSPropertyOp12
 70
     1
102
RTVSPropertyOp13
 70
     1
102
RTVSPropertyOp14
 70
     1
102
RTVSPropertyOp15
 70
     1
102
RTVSPropertyOp16
 70
     1
102
RTVSPropertyOp17
 70
     1
102
RTVSPropertyOp18
 70
     1
102
RTVSPropertyOp19
 70
     1
102
RTVSPropertyOp20
 70
     1
102
RTVSPropertyOp21
 70
     1
102
RTVSPropertyOp22
 70
     1
102
RTVSPropertyOp23
 70
     1
102
RTVSPropertyOp24
 70
     1
102
RTVSPropertyOp25
 70
     1
102
RTVSPropertyOp26
 70
     1
102
RTVSPropertyOp27
 70
     1
102
RTVSPropertyOp28
 70
     1
102
RTVSPropertyOp29
 70
     1
102
RTVSPropertyOp30
 70
     1
102
RTVSPropertyOp31
 70
     1
102
RTVSPropertyOp32
 70
     1
102
RTVSPropertyOp33
 70
     1
102
RTVSPropertyOp34
 70
     1
102
RTVSPropertyOp35
 70
     1
102
RTVSPropertyOp36
 70
     1
102
RTVSPropertyOp37
 70
     1
102
RTVSPropertyOp38
 70
     1
102
RTVSPropertyOp39
 70
     1
102
RTVSPropertyOp40
 70
     1
102
RTVSPropertyOp41
 70
     1
102
RTVSPropertyOp42
 70
     1
102
RTVSPropertyOp43
 70
     1
102
RTVSPropertyOp44
 70
     1
102
RTVSPropertyOp45
 70
     1
102
RTVSPropertyOp46
 70
     1
102
RTVSPropertyOp47
 70
     1
102
RTVSPropertyOp48
 70
     1
102
RTVSPropertyOp49
 70
     1
102
RTVSPropertyOp50
 70
     1
102
RTVSPropertyOp51
 70
     0
102
RTVSPropertyOp52
 70
     0
102
RTVSPropertyOp53
 70
     1
102
RTVSPropertyOp54
 70
     1
102
RTVSPropertyOp55
 70
     1
102
RTVSPropertyOp56
 70
     1
102
RTVSPropertyOp57
 70
     1
102
RTVSPost2010Prop28
280
     0
102
RTVSPost2010PropOp28
 70
     1
102
RTVSPost2010Prop29
280
     1
102
RTVSPost2010PropOp29
 70
     1
102
RTVSPost2010Prop30
280
     1
102
RTVSPost2010PropOp30
 70
     1
102
RTVSPost2010Prop31
280
     0
102
RTVSPost2010PropOp31
 70
     1
102
RTVSPost2010Prop32
280
     0
102
RTVSPost2010PropOp32
 70
     1
102
RTVSPost2010Prop33
280
     0
102
RTVSPost2010PropOp33
 70
     1
102
RTVSPost2010Prop34
280
     0
102
RTVSPost2010PropOp34
 70
     1
102
RTVSPost2010Prop35
280
     0
102
RTVSPost2010PropOp35
 70
     1
102
RTVSPost2010Prop36
280
     0
102
RTVSPost2010PropOp36
 70
     1
102
RTVSPost2010Prop37
 90
       50
102
RTVSPost2010PropOp37
 70
     1
102
RTVSPost2010Prop38
140
0.0
102
RTVSPost2010PropOp38
 70
     1
102
RTVSPost2010Prop39
140
1.0
102
RTVSPost2010PropOp39
 70
     1
102
RTVSPost2010Prop40
 90
        0
102
RTVSPost2010PropOp40
 70
     1
102
RTVSPost2010Prop41ColorIndex
 90
       18
102
RTVSPost2010Prop41ColorRGB
 90
        0
102
RTVSPost2010PropOp41
 70
     1
102
RTVSPost2010Prop42
 90
       50
102
RTVSPost2010PropOp42
 70
     1
102
RTVSPost2010Prop43
 90
        3
102
RTVSPost2010PropOp43
 70
     1
102
RTVSPost2010Prop44ColorIndex
 90
        5
102
RTVSPost2010Prop44ColorRGB
 90
      255
102
RTVSPost2010PropOp44
 70
     1
102
RTVSPost2010Prop45
280
     0
102
RTVSPost2010PropOp45
 70
     1
102
RTVSPost2010Prop46
 90
       50
102
RTVSPost2010PropOp46
 70
     1
102
RTVSPost2010Prop47
 90
       50
102
RTVSPost2010PropOp47
 70
     1
102
RTVSPost2010Prop48
 90
       50
102
RTVSPost2010PropOp48
 70
     1
102
RTVSPost2010Prop49
280
     0
102
RTVSPost2010PropOp49
 70
     1
102
RTVSPost2010Prop50
 90
       50
102
RTVSPost2010PropOp50
 70
     1
102
RTVSPost2010Prop51ColorIndex
 90
      256
102
RTVSPost2010Prop51ColorRGB
 90
-16777216
102
RTVSPost2010PropOp51
 70
     0
102
RTVSPost2010Prop52
140
1.0
102
RTVSPost2010PropOp52
 70
     0
102
RTVSPost2010Prop53
 90
        2
102
RTVSPost2010PropOp53
 70
     1
102
RTVSPost2010Prop54
  1
strokes_ogs.tif
102
RTVSPost2010PropOp54
 70
     1
102
RTVSPost2010Prop55
280
     0
102
RTVSPost2010PropOp55
 70
     1
102
RTVSPost2010Prop56
140
1.0
102
RTVSPost2010PropOp56
 70
     1
102
RTVSPost2010Prop57
140
1.0
102
RTVSPost2010PropOp57
 70
     1
  0
XRECORD
  5
31A
102
{ACAD_REACTORS
330
319
102
}
330
319
100
AcDbXrecord
280
     1
102
RTVSPropertyOp0
 70
     1
102
RTVSPropertyOp1
 70
     1
102
RTVSPropertyOp2
 70
     1
102
RTVSPropertyOp3
 70
     1
102
RTVSPropertyOp4
 70
     1
102
RTVSPropertyOp5
 70
     1
102
RTVSPropertyOp6
 70
     1
102
RTVSPropertyOp7
 70
     1
102
RTVSPropertyOp8
 70
     1
102
RTVSPropertyOp9
 70
     1
102
RTVSPropertyOp10
 70
     1
102
RTVSPropertyOp11
 70
     1
102
RTVSPropertyOp12
 70
     1
102
RTVSPropertyOp13
 70
     1
102
RTVSPropertyOp14
 70
     1
102
RTVSPropertyOp15
 70
     1
102
RTVSPropertyOp16
 70
     1
102
RTVSPropertyOp17
 70
     1
102
RTVSPropertyOp18
 70
     1
102
RTVSPropertyOp19
 70
     1
102
RTVSPropertyOp20
 70
     1
102
RTVSPropertyOp21
 70
     1
102
RTVSPropertyOp22
 70
     1
102
RTVSPropertyOp23
 70
     1
102
RTVSPropertyOp24
 70
     1
102
RTVSPropertyOp25
 70
     1
102
RTVSPropertyOp26
 70
     1
102
RTVSPropertyOp27
 70
     1
102
RTVSPropertyOp28
 70
     1
102
RTVSPropertyOp29
 70
     1
102
RTVSPropertyOp30
 70
     1
102
RTVSPropertyOp31
 70
     1
102
RTVSPropertyOp32
 70
     1
102
RTVSPropertyOp33
 70
     1
102
RTVSPropertyOp34
 70
     1
102
RTVSPropertyOp35
 70
     1
102
RTVSPropertyOp36
 70
     1
102
RTVSPropertyOp37
 70
     1
102
RTVSPropertyOp38
 70
     1
102
RTVSPropertyOp39
 70
     1
102
RTVSPropertyOp40
 70
     1
102
RTVSPropertyOp41
 70
     1
102
RTVSPropertyOp42
 70
     1
102
RTVSPropertyOp43
 70
     1
102
RTVSPropertyOp44
 70
     1
102
RTVSPropertyOp45
 70
     1
102
RTVSPropertyOp46
 70
     1
102
RTVSPropertyOp47
 70
     1
102
RTVSPropertyOp48
 70
     1
102
RTVSPropertyOp49
 70
     1
102
RTVSPropertyOp50
 70
     1
102
RTVSPropertyOp51
 70
     0
102
RTVSPropertyOp52
 70
     0
102
RTVSPropertyOp53
 70
     1
102
RTVSPropertyOp54
 70
     1
102
RTVSPropertyOp55
 70
     1
102
RTVSPropertyOp56
 70
     1
102
RTVSPropertyOp57
 70
     1
102
RTVSPost2010Prop28
280
     0
102
RTVSPost2010PropOp28
 70
     1
102
RTVSPost2010Prop29
280
     1
102
RTVSPost2010PropOp29
 70
     1
102
RTVSPost2010Prop30
280
     1
102
RTVSPost2010PropOp30
 70
     1
102
RTVSPost2010Prop31
280
     0
102
RTVSPost2010PropOp31
 70
     1
102
RTVSPost2010Prop32
280
     0
102
RTVSPost2010PropOp32
 70
     1
102
RTVSPost2010Prop33
280
     0
102
RTVSPost2010PropOp33
 70
     1
102
RTVSPost2010Prop34
280
     0
102
RTVSPost2010PropOp34
 70
     1
102
RTVSPost2010Prop35
280
     0
102
RTVSPost2010PropOp35
 70
     1
102
RTVSPost2010Prop36
280
     0
102
RTVSPost2010PropOp36
 70
     1
102
RTVSPost2010Prop37
 90
       50
102
RTVSPost2010PropOp37
 70
     1
102
RTVSPost2010Prop38
140
0.0
102
RTVSPost2010PropOp38
 70
     1
102
RTVSPost2010Prop39
140
1.0
102
RTVSPost2010PropOp39
 70
     1
102
RTVSPost2010Prop40
 90
        0
102
RTVSPost2010PropOp40
 70
     1
102
RTVSPost2010Prop41ColorIndex
 90
       18
102
RTVSPost2010Prop41ColorRGB
 90
        0
102
RTVSPost2010PropOp41
 70
     1
102
RTVSPost2010Prop42
 90
       50
102
RTVSPost2010PropOp42
 70
     1
102
RTVSPost2010Prop43
 90
        3
102
RTVSPost2010PropOp43
 70
     1
102
RTVSPost2010Prop44ColorIndex
 90
        5
102
RTVSPost2010Prop44ColorRGB
 90
      255
102
RTVSPost2010PropOp44
 70
     1
102
RTVSPost2010Prop45
280
     0
102
RTVSPost2010PropOp45
 70
     1
102
RTVSPost2010Prop46
 90
       50
102
RTVSPost2010PropOp46
 70
     1
102
RTVSPost2010Prop47
 90
       50
102
RTVSPost2010PropOp47
 70
     1
102
RTVSPost2010Prop48
 90
       50
102
RTVSPost2010PropOp48
 70
     1
102
RTVSPost2010Prop49
280
     0
102
RTVSPost2010PropOp49
 70
     1
102
RTVSPost2010Prop50
 90
       50
102
RTVSPost2010PropOp50
 70
     1
102
RTVSPost2010Prop51ColorIndex
 90
      256
102
RTVSPost2010Prop51ColorRGB
 90
-16777216
102
RTVSPost2010PropOp51
 70
     0
102
RTVSPost2010Prop52
140
1.0
102
RTVSPost2010PropOp52
 70
     0
102
RTVSPost2010Prop53
 90
        2
102
RTVSPost2010PropOp53
 70
     1
102
RTVSPost2010Prop54
  1
strokes_ogs.tif
102
RTVSPost2010PropOp54
 70
     1
102
RTVSPost2010Prop55
280
     0
102
RTVSPost2010PropOp55
 70
     1
102
RTVSPost2010Prop56
140
1.0
102
RTVSPost2010PropOp56
 70
     1
102
RTVSPost2010Prop57
140
1.0
102
RTVSPost2010PropOp57
 70
     1
  0
XRECORD
  5
30C
102
{ACAD_REACTORS
330
30B
102
}
330
30B
100
AcDbXrecord
280
     1
102
RTVSPropertyOp0
 70
     1
102
RTVSPropertyOp1
 70
     1
102
RTVSPropertyOp2
 70
     1
102
RTVSPropertyOp3
 70
     1
102
RTVSPropertyOp4
 70
     1
102
RTVSPropertyOp5
 70
     1
102
RTVSPropertyOp6
 70
     1
102
RTVSPropertyOp7
 70
     1
102
RTVSPropertyOp8
 70
     1
102
RTVSPropertyOp9
 70
     1
102
RTVSPropertyOp10
 70
     1
102
RTVSPropertyOp11
 70
     1
102
RTVSPropertyOp12
 70
     1
102
RTVSPropertyOp13
 70
     1
102
RTVSPropertyOp14
 70
     1
102
RTVSPropertyOp15
 70
     1
102
RTVSPropertyOp16
 70
     1
102
RTVSPropertyOp17
 70
     1
102
RTVSPropertyOp18
 70
     1
102
RTVSPropertyOp19
 70
     1
102
RTVSPropertyOp20
 70
     1
102
RTVSPropertyOp21
 70
     1
102
RTVSPropertyOp22
 70
     1
102
RTVSPropertyOp23
 70
     1
102
RTVSPropertyOp24
 70
     1
102
RTVSPropertyOp25
 70
     1
102
RTVSPropertyOp26
 70
     1
102
RTVSPropertyOp27
 70
     1
102
RTVSPropertyOp28
 70
     1
102
RTVSPropertyOp29
 70
     1
102
RTVSPropertyOp30
 70
     1
102
RTVSPropertyOp31
 70
     1
102
RTVSPropertyOp32
 70
     1
102
RTVSPropertyOp33
 70
     1
102
RTVSPropertyOp34
 70
     1
102
RTVSPropertyOp35
 70
     1
102
RTVSPropertyOp36
 70
     1
102
RTVSPropertyOp37
 70
     1
102
RTVSPropertyOp38
 70
     1
102
RTVSPropertyOp39
 70
     1
102
RTVSPropertyOp40
 70
     1
102
RTVSPropertyOp41
 70
     1
102
RTVSPropertyOp42
 70
     1
102
RTVSPropertyOp43
 70
     1
102
RTVSPropertyOp44
 70
     1
102
RTVSPropertyOp45
 70
     1
102
RTVSPropertyOp46
 70
     1
102
RTVSPropertyOp47
 70
     1
102
RTVSPropertyOp48
 70
     1
102
RTVSPropertyOp49
 70
     1
102
RTVSPropertyOp50
 70
     1
102
RTVSPropertyOp51
 70
     0
102
RTVSPropertyOp52
 70
     0
102
RTVSPropertyOp53
 70
     1
102
RTVSPropertyOp54
 70
     1
102
RTVSPropertyOp55
 70
     1
102
RTVSPropertyOp56
 70
     1
102
RTVSPropertyOp57
 70
     1
102
RTVSPost2010Prop28
280
     0
102
RTVSPost2010PropOp28
 70
     1
102
RTVSPost2010Prop29
280
     1
102
RTVSPost2010PropOp29
 70
     1
102
RTVSPost2010Prop30
280
     1
102
RTVSPost2010PropOp30
 70
     1
102
RTVSPost2010Prop31
280
     0
102
RTVSPost2010PropOp31
 70
     1
102
RTVSPost2010Prop32
280
     0
102
RTVSPost2010PropOp32
 70
     1
102
RTVSPost2010Prop33
280
     0
102
RTVSPost2010PropOp33
 70
     1
102
RTVSPost2010Prop34
280
     0
102
RTVSPost2010PropOp34
 70
     1
102
RTVSPost2010Prop35
280
     0
102
RTVSPost2010PropOp35
 70
     1
102
RTVSPost2010Prop36
280
     0
102
RTVSPost2010PropOp36
 70
     1
102
RTVSPost2010Prop37
 90
       50
102
RTVSPost2010PropOp37
 70
     1
102
RTVSPost2010Prop38
140
0.0
102
RTVSPost2010PropOp38
 70
     1
102
RTVSPost2010Prop39
140
1.0
102
RTVSPost2010PropOp39
 70
     1
102
RTVSPost2010Prop40
 90
        0
102
RTVSPost2010PropOp40
 70
     1
102
RTVSPost2010Prop41ColorIndex
 90
       18
102
RTVSPost2010Prop41ColorRGB
 90
        0
102
RTVSPost2010PropOp41
 70
     1
102
RTVSPost2010Prop42
 90
       50
102
RTVSPost2010PropOp42
 70
     1
102
RTVSPost2010Prop43
 90
        3
102
RTVSPost2010PropOp43
 70
     1
102
RTVSPost2010Prop44ColorIndex
 90
        5
102
RTVSPost2010Prop44ColorRGB
 90
      255
102
RTVSPost2010PropOp44
 70
     1
102
RTVSPost2010Prop45
280
     0
102
RTVSPost2010PropOp45
 70
     1
102
RTVSPost2010Prop46
 90
       50
102
RTVSPost2010PropOp46
 70
     1
102
RTVSPost2010Prop47
 90
       50
102
RTVSPost2010PropOp47
 70
     1
102
RTVSPost2010Prop48
 90
       50
102
RTVSPost2010PropOp48
 70
     1
102
RTVSPost2010Prop49
280
     0
102
RTVSPost2010PropOp49
 70
     1
102
RTVSPost2010Prop50
 90
       50
102
RTVSPost2010PropOp50
 70
     1
102
RTVSPost2010Prop51ColorIndex
 90
      256
102
RTVSPost2010Prop51ColorRGB
 90
-16777216
102
RTVSPost2010PropOp51
 70
     0
102
RTVSPost2010Prop52
140
1.0
102
RTVSPost2010PropOp52
 70
     0
102
RTVSPost2010Prop53
 90
        2
102
RTVSPost2010PropOp53
 70
     1
102
RTVSPost2010Prop54
  1
strokes_ogs.tif
102
RTVSPost2010PropOp54
 70
     1
102
RTVSPost2010Prop55
280
     0
102
RTVSPost2010PropOp55
 70
     1
102
RTVSPost2010Prop56
140
1.0
102
RTVSPost2010PropOp56
 70
     1
102
RTVSPost2010Prop57
140
1.0
102
RTVSPost2010PropOp57
 70
     1
  0
XRECORD
  5
32C
102
{ACAD_REACTORS
330
32B
102
}
330
32B
100
AcDbXrecord
280
     1
102
RTVSPropertyOp0
 70
     1
102
RTVSPropertyOp1
 70
     1
102
RTVSPropertyOp2
 70
     1
102
RTVSPropertyOp3
 70
     1
102
RTVSPropertyOp4
 70
     1
102
RTVSPropertyOp5
 70
     1
102
RTVSPropertyOp6
 70
     1
102
RTVSPropertyOp7
 70
     1
102
RTVSPropertyOp8
 70
     1
102
RTVSPropertyOp9
 70
     1
102
RTVSPropertyOp10
 70
     1
102
RTVSPropertyOp11
 70
     1
102
RTVSPropertyOp12
 70
     1
102
RTVSPropertyOp13
 70
     1
102
RTVSPropertyOp14
 70
     1
102
RTVSPropertyOp15
 70
     1
102
RTVSPropertyOp16
 70
     1
102
RTVSPropertyOp17
 70
     1
102
RTVSPropertyOp18
 70
     1
102
RTVSPropertyOp19
 70
     1
102
RTVSPropertyOp20
 70
     1
102
RTVSPropertyOp21
 70
     1
102
RTVSPropertyOp22
 70
     1
102
RTVSPropertyOp23
 70
     1
102
RTVSPropertyOp24
 70
     1
102
RTVSPropertyOp25
 70
     1
102
RTVSPropertyOp26
 70
     1
102
RTVSPropertyOp27
 70
     1
102
RTVSPropertyOp28
 70
     1
102
RTVSPropertyOp29
 70
     1
102
RTVSPropertyOp30
 70
     1
102
RTVSPropertyOp31
 70
     1
102
RTVSPropertyOp32
 70
     1
102
RTVSPropertyOp33
 70
     1
102
RTVSPropertyOp34
 70
     1
102
RTVSPropertyOp35
 70
     1
102
RTVSPropertyOp36
 70
     1
102
RTVSPropertyOp37
 70
     1
102
RTVSPropertyOp38
 70
     1
102
RTVSPropertyOp39
 70
     1
102
RTVSPropertyOp40
 70
     1
102
RTVSPropertyOp41
 70
     1
102
RTVSPropertyOp42
 70
     1
102
RTVSPropertyOp43
 70
     1
102
RTVSPropertyOp44
 70
     1
102
RTVSPropertyOp45
 70
     1
102
RTVSPropertyOp46
 70
     1
102
RTVSPropertyOp47
 70
     1
102
RTVSPropertyOp48
 70
     1
102
RTVSPropertyOp49
 70
     1
102
RTVSPropertyOp50
 70
     1
102
RTVSPropertyOp51
 70
     0
102
RTVSPropertyOp52
 70
     0
102
RTVSPropertyOp53
 70
     1
102
RTVSPropertyOp54
 70
     1
102
RTVSPropertyOp55
 70
     1
102
RTVSPropertyOp56
 70
     1
102
RTVSPropertyOp57
 70
     1
102
RTVSPost2010Prop28
280
     0
102
RTVSPost2010PropOp28
 70
     1
102
RTVSPost2010Prop29
280
     1
102
RTVSPost2010PropOp29
 70
     1
102
RTVSPost2010Prop30
280
     1
102
RTVSPost2010PropOp30
 70
     1
102
RTVSPost2010Prop31
280
     0
102
RTVSPost2010PropOp31
 70
     1
102
RTVSPost2010Prop32
280
     0
102
RTVSPost2010PropOp32
 70
     1
102
RTVSPost2010Prop33
280
     0
102
RTVSPost2010PropOp33
 70
     1
102
RTVSPost2010Prop34
280
     0
102
RTVSPost2010PropOp34
 70
     1
102
RTVSPost2010Prop35
280
     0
102
RTVSPost2010PropOp35
 70
     1
102
RTVSPost2010Prop36
280
     0
102
RTVSPost2010PropOp36
 70
     1
102
RTVSPost2010Prop37
 90
       50
102
RTVSPost2010PropOp37
 70
     1
102
RTVSPost2010Prop38
140
0.0
102
RTVSPost2010PropOp38
 70
     1
102
RTVSPost2010Prop39
140
1.0
102
RTVSPost2010PropOp39
 70
     1
102
RTVSPost2010Prop40
 90
        0
102
RTVSPost2010PropOp40
 70
     1
102
RTVSPost2010Prop41ColorIndex
 90
       18
102
RTVSPost2010Prop41ColorRGB
 90
        0
102
RTVSPost2010PropOp41
 70
     1
102
RTVSPost2010Prop42
 90
       50
102
RTVSPost2010PropOp42
 70
     1
102
RTVSPost2010Prop43
 90
        3
102
RTVSPost2010PropOp43
 70
     1
102
RTVSPost2010Prop44ColorIndex
 90
        5
102
RTVSPost2010Prop44ColorRGB
 90
      255
102
RTVSPost2010PropOp44
 70
     1
102
RTVSPost2010Prop45
280
     0
102
RTVSPost2010PropOp45
 70
     1
102
RTVSPost2010Prop46
 90
       50
102
RTVSPost2010PropOp46
 70
     1
102
RTVSPost2010Prop47
 90
       50
102
RTVSPost2010PropOp47
 70
     1
102
RTVSPost2010Prop48
 90
       50
102
RTVSPost2010PropOp48
 70
     1
102
RTVSPost2010Prop49
280
     0
102
RTVSPost2010PropOp49
 70
     1
102
RTVSPost2010Prop50
 90
       50
102
RTVSPost2010PropOp50
 70
     1
102
RTVSPost2010Prop51ColorIndex
 90
      256
102
RTVSPost2010Prop51ColorRGB
 90
-16777216
102
RTVSPost2010PropOp51
 70
     0
102
RTVSPost2010Prop52
140
1.0
102
RTVSPost2010PropOp52
 70
     0
102
RTVSPost2010Prop53
 90
        2
102
RTVSPost2010PropOp53
 70
     1
102
RTVSPost2010Prop54
  1
strokes_ogs.tif
102
RTVSPost2010PropOp54
 70
     1
102
RTVSPost2010Prop55
280
     0
102
RTVSPost2010PropOp55
 70
     1
102
RTVSPost2010Prop56
140
1.0
102
RTVSPost2010PropOp56
 70
     1
102
RTVSPost2010Prop57
140
1.0
102
RTVSPost2010PropOp57
 70
     1
  0
ENDSEC
  0
EOF
