  0
SECTION
  2
HEADER
  9
$ACADVER
  1
AC1018
  9
$ACADMAINTVER
 70
     0
  9
$DWGCODEPAGE
  3
ANSI_1252
  9
$INSBASE
 10
0.0
 20
0.0
 30
0.0
  9
$EXTMIN
 10
-403.1698740342927
 20
-275.1663053051076
 30
0.0
  9
$EXTMAX
 10
-106.1698740342947
 20
-65.16630530510747
 30
0.0
  9
$LIMMIN
 10
0.0
 20
0.0
  9
$LIMMAX
 10
12.0
 20
9.0
  9
$ORTHOMODE
 70
     0
  9
$REGENMODE
 70
     1
  9
$FILLMODE
 70
     1
  9
$QTEXTMODE
 70
     0
  9
$MIRRTEXT
 70
     1
  9
$LTSCALE
 40
1.0
  9
$ATTMODE
 70
     1
  9
$TEXTSIZE
 40
0.2
  9
$TRACEWID
 40
0.05
  9
$TEXTSTYLE
  7
Standard
  9
$CLAYER
  8
0
  9
$CELTYPE
  6
ByLayer
  9
$CECOLOR
 62
   256
  9
$CELTSCALE
 40
1.0
  9
$DISPSILH
 70
     0
  9
$DIMSCALE
 40
1.0
  9
$DIMASZ
 40
0.18
  9
$DIMEXO
 40
0.0625
  9
$DIMDLI
 40
0.38
  9
$DIMRND
 40
0.0
  9
$DIMDLE
 40
0.0
  9
$DIMEXE
 40
0.18
  9
$DIMTP
 40
0.0
  9
$DIMTM
 40
0.0
  9
$DIMTXT
 40
0.18
  9
$DIMCEN
 40
0.09
  9
$DIMTSZ
 40
0.0
  9
$DIMTOL
 70
     0
  9
$DIMLIM
 70
     0
  9
$DIMTIH
 70
     1
  9
$DIMTOH
 70
     1
  9
$DIMSE1
 70
     0
  9
$DIMSE2
 70
     0
  9
$DIMTAD
 70
     0
  9
$DIMZIN
 70
     0
  9
$DIMBLK
  1

  9
$DIMASO
 70
     1
  9
$DIMSHO
 70
     1
  9
$DIMPOST
  1

  9
$DIMAPOST
  1

  9
$DIMALT
 70
     0
  9
$DIMALTD
 70
     2
  9
$DIMALTF
 40
25.4
  9
$DIMLFAC
 40
1.0
  9
$DIMTOFL
 70
     0
  9
$DIMTVP
 40
0.0
  9
$DIMTIX
 70
     0
  9
$DIMSOXD
 70
     0
  9
$DIMSAH
 70
     0
  9
$DIMBLK1
  1

  9
$DIMBLK2
  1

  9
$DIMSTYLE
  2
Standard
  9
$DIMCLRD
 70
     0
  9
$DIMCLRE
 70
     0
  9
$DIMCLRT
 70
     0
  9
$DIMTFAC
 40
1.0
  9
$DIMGAP
 40
0.09
  9
$DIMJUST
 70
     0
  9
$DIMSD1
 70
     0
  9
$DIMSD2
 70
     0
  9
$DIMTOLJ
 70
     1
  9
$DIMTZIN
 70
     0
  9
$DIMALTZ
 70
     0
  9
$DIMALTTZ
 70
     0
  9
$DIMUPT
 70
     0
  9
$DIMDEC
 70
     4
  9
$DIMTDEC
 70
     4
  9
$DIMALTU
 70
     2
  9
$DIMALTTD
 70
     2
  9
$DIMTXSTY
  7
Standard
  9
$DIMAUNIT
 70
     0
  9
$DIMADEC
 70
     0
  9
$DIMALTRND
 40
0.0
  9
$DIMAZIN
 70
     0
  9
$DIMDSEP
 70
    46
  9
$DIMATFIT
 70
     3
  9
$DIMFRAC
 70
     0
  9
$DIMLDRBLK
  1

  9
$DIMLUNIT
 70
     2
  9
$DIMLWD
 70
    -2
  9
$DIMLWE
 70
    -2
  9
$DIMTMOVE
 70
     0
  9
$LUNITS
 70
     2
  9
$LUPREC
 70
     4
  9
$SKETCHINC
 40
0.1
  9
$FILLETRAD
 40
0.5
  9
$AUNITS
 70
     0
  9
$AUPREC
 70
     0
  9
$MENU
  1
.
  9
$ELEVATION
 40
0.0
  9
$PELEVATION
 40
0.0
  9
$THICKNESS
 40
0.0
  9
$LIMCHECK
 70
     0
  9
$CHAMFERA
 40
0.5
  9
$CHAMFERB
 40
0.5
  9
$CHAMFERC
 40
1.0
  9
$CHAMFERD
 40
0.0
  9
$SKPOLY
 70
     0
  9
$TDCREATE
 40
2458213.456516296
  9
$TDUCREATE
 40
2458213.373182963
  9
$TDUPDATE
 40
2458213.456516655
  9
$TDUUPDATE
 40
2458213.373183322
  9
$TDINDWG
 40
0.0000000116
  9
$TDUSRTIMER
 40
0.0000000116
  9
$USRTIMER
 70
     1
  9
$ANGBASE
 50
0.0
  9
$ANGDIR
 70
     0
  9
$PDMODE
 70
     0
  9
$PDSIZE
 40
0.0
  9
$PLINEWID
 40
0.0
  9
$SPLFRAME
 70
     0
  9
$SPLINETYPE
 70
     6
  9
$SPLINESEGS
 70
     8
  9
$HANDSEED
  5
255
  9
$SURFTAB1
 70
     6
  9
$SURFTAB2
 70
     6
  9
$SURFTYPE
 70
     6
  9
$SURFU
 70
     6
  9
$SURFV
 70
     6
  9
$UCSBASE
  2

  9
$UCSNAME
  2

  9
$UCSORG
 10
0.0
 20
0.0
 30
0.0
  9
$UCSXDIR
 10
1.0
 20
0.0
 30
0.0
  9
$UCSYDIR
 10
0.0
 20
1.0
 30
0.0
  9
$UCSORTHOREF
  2

  9
$UCSORTHOVIEW
 70
     0
  9
$UCSORGTOP
 10
0.0
 20
0.0
 30
0.0
  9
$UCSORGBOTTOM
 10
0.0
 20
0.0
 30
0.0
  9
$UCSORGLEFT
 10
0.0
 20
0.0
 30
0.0
  9
$UCSORGRIGHT
 10
0.0
 20
0.0
 30
0.0
  9
$UCSORGFRONT
 10
0.0
 20
0.0
 30
0.0
  9
$UCSORGBACK
 10
0.0
 20
0.0
 30
0.0
  9
$PUCSBASE
  2

  9
$PUCSNAME
  2

  9
$PUCSORG
 10
0.0
 20
0.0
 30
0.0
  9
$PUCSXDIR
 10
1.0
 20
0.0
 30
0.0
  9
$PUCSYDIR
 10
0.0
 20
1.0
 30
0.0
  9
$PUCSORTHOREF
  2

  9
$PUCSORTHOVIEW
 70
     0
  9
$PUCSORGTOP
 10
0.0
 20
0.0
 30
0.0
  9
$PUCSORGBOTTOM
 10
0.0
 20
0.0
 30
0.0
  9
$PUCSORGLEFT
 10
0.0
 20
0.0
 30
0.0
  9
$PUCSORGRIGHT
 10
0.0
 20
0.0
 30
0.0
  9
$PUCSORGFRONT
 10
0.0
 20
0.0
 30
0.0
  9
$PUCSORGBACK
 10
0.0
 20
0.0
 30
0.0
  9
$USERI1
 70
     0
  9
$USERI2
 70
     0
  9
$USERI3
 70
     0
  9
$USERI4
 70
     0
  9
$USERI5
 70
     0
  9
$USERR1
 40
18.1
  9
$USERR2
 40
0.0
  9
$USERR3
 40
0.0
  9
$USERR4
 40
0.0
  9
$USERR5
 40
0.0
  9
$WORLDVIEW
 70
     1
  9
$SHADEDGE
 70
     3
  9
$SHADEDIF
 70
    70
  9
$TILEMODE
 70
     1
  9
$MAXACTVP
 70
    64
  9
$PINSBASE
 10
0.0
 20
0.0
 30
0.0
  9
$PLIMCHECK
 70
     0
  9
$PEXTMIN
 10
1.00000000000000E+20
 20
1.00000000000000E+20
 30
1.00000000000000E+20
  9
$PEXTMAX
 10
-1.00000000000000E+20
 20
-1.00000000000000E+20
 30
-1.00000000000000E+20
  9
$PLIMMIN
 10
0.0
 20
0.0
  9
$PLIMMAX
 10
12.0
 20
9.0
  9
$UNITMODE
 70
     0
  9
$VISRETAIN
 70
     1
  9
$PLINEGEN
 70
     0
  9
$PSLTSCALE
 70
     1
  9
$TREEDEPTH
 70
  3020
  9
$CMLSTYLE
  2
Standard
  9
$CMLJUST
 70
     0
  9
$CMLSCALE
 40
1.0
  9
$PROXYGRAPHICS
 70
     1
  9
$MEASUREMENT
 70
     1
  9
$CELWEIGHT
370
    -1
  9
$ENDCAPS
280
     0
  9
$JOINSTYLE
280
     0
  9
$LWDISPLAY
290
     0
  9
$INSUNITS
 70
     4
  9
$HYPERLINKBASE
  1

  9
$STYLESHEET
  1

  9
$XEDIT
290
     1
  9
$CEPSNTYPE
380
     0
  9
$PSTYLEMODE
290
     1
  9
$FINGERPRINTGUID
  2
{DCE01B83-C7D8-4823-A117-A97EA1BCB5A1}
  9
$VERSIONGUID
  2
{FAEB1C32-E019-11D5-929B-00C0DF256EC4}
  9
$EXTNAMES
290
     1
  9
$PSVPSCALE
 40
0.0
  9
$OLESTARTUP
290
     0
  9
$SORTENTS
280
   127
  9
$INDEXCTL
280
     0
  9
$HIDETEXT
280
     1
  9
$XCLIPFRAME
290
     0
  9
$HALOGAP
280
     0
  9
$OBSCOLOR
 70
   257
  9
$OBSLTYPE
280
     0
  9
$INTERSECTIONDISPLAY
280
     0
  9
$INTERSECTIONCOLOR
 70
   257
  9
$DIMASSOC
280
     2
  9
$PROJECTNAME
  1

  0
ENDSEC
  0
SECTION
  2
CLASSES
  0
CLASS
  1
ACDBDICTIONARYWDFLT
  2
AcDbDictionaryWithDefault
  3
ObjectDBX Classes
 90
        0
 91
        4
280
     0
281
     0
  0
CLASS
  1
VISUALSTYLE
  2
AcDbVisualStyle
  3
ObjectDBX Classes
 90
     4095
 91
        4
280
     0
281
     0
  0
CLASS
  1
MATERIAL
  2
AcDbMaterial
  3
ObjectDBX Classes
 90
     1153
 91
        4
280
     0
281
     0
  0
ENDSEC
  0
SECTION
  2
TABLES
  0
TABLE
  2
VPORT
  5
8
330
0
100
AcDbSymbolTable
 70
     1
  0
VPORT
  5
29
330
8
100
AcDbSymbolTableRecord
100
AcDbViewportTableRecord
  2
*Active
 70
     0
 10
0.0
 20
0.0
 11
1.0
 21
1.0
 12
-254.6698740342937
 22
-170.1663053051075
 13
0.0
 23
0.0
 14
0.5
 24
0.5
 15
0.5
 25
0.5
 16
0.0
 26
0.0
 36
1.0
 17
0.0
 27
0.0
 37
0.0
 40
231.0000000000001
 41
1.60267857142857
 42
50.0
 43
0.0
 44
0.0
 50
0.0
 51
0.0
 71
     0
 72
   100
 73
     1
 74
     3
 75
     0
 76
     0
 77
     0
 78
     0
281
     0
 65
     1
110
0.0
120
0.0
130
0.0
111
1.0
121
0.0
131
0.0
112
0.0
122
1.0
132
0.0
 79
     0
146
0.0
  0
ENDTAB
  0
TABLE
  2
LTYPE
  5
5
330
0
100
AcDbSymbolTable
 70
     8
  0
LTYPE
  5
14
330
5
100
AcDbSymbolTableRecord
100
AcDbLinetypeTableRecord
  2
ByBlock
 70
     0
  3

 72
    65
 73
     0
 40
0.0
  0
LTYPE
  5
15
330
5
100
AcDbSymbolTableRecord
100
AcDbLinetypeTableRecord
  2
ByLayer
 70
     0
  3

 72
    65
 73
     0
 40
0.0
  0
LTYPE
  5
16
330
5
100
AcDbSymbolTableRecord
100
AcDbLinetypeTableRecord
  2
Continuous
 70
     0
  3
Solid line
 72
    65
 73
     0
 40
0.0
  0
LTYPE
  5
3F
330
5
100
AcDbSymbolTableRecord
100
AcDbLinetypeTableRecord
  2
DASHED
 70
     0
  3
Dashed
 72
    65
 73
     2
 40
15.0
 49
7.0
 74
     0
 49
-8.0
 74
     0
  0
LTYPE
  5
40
330
5
100
AcDbSymbolTableRecord
100
AcDbLinetypeTableRecord
  2
DOTTED
 70
     0
  3
Dotted
 72
    65
 73
     2
 40
1.0
 49
0.0
 74
     0
 49
-1.0
 74
     0
  0
LTYPE
  5
41
330
5
100
AcDbSymbolTableRecord
100
AcDbLinetypeTableRecord
  2
DOT_CENTER
 70
     0
  3
Dot_Center
 72
    65
 73
     4
 40
14.0
 49
12.0
 74
     0
 49
-1.0
 74
     0
 49
0.0
 74
     0
 49
-1.0
 74
     0
  0
LTYPE
  5
42
330
5
100
AcDbSymbolTableRecord
100
AcDbLinetypeTableRecord
  2
LONG_DASHED
 70
     0
  3
Long_Dashed
 72
    65
 73
     2
 40
15.0
 49
10.0
 74
     0
 49
-5.0
 74
     0
  0
LTYPE
  5
43
330
5
100
AcDbSymbolTableRecord
100
AcDbLinetypeTableRecord
  2
DASH_CENTER
 70
     0
  3
Dash_Center
 72
    65
 73
     4
 40
14.0
 49
11.0
 74
     0
 49
-1.0
 74
     0
 49
1.0
 74
     0
 49
-1.0
 74
     0
  0
LTYPE
  5
44
330
5
100
AcDbSymbolTableRecord
100
AcDbLinetypeTableRecord
  2
PHANTOM
 70
     0
  3
Phantom
 72
    65
 73
     6
 40
13.0
 49
10.0
 74
     0
 49
-1.0
 74
     0
 49
0.0
 74
     0
 49
-1.0
 74
     0
 49
0.0
 74
     0
 49
-1.0
 74
     0
  0
LTYPE
  5
45
330
5
100
AcDbSymbolTableRecord
100
AcDbLinetypeTableRecord
  2
CENTER_DASH_DASH
 70
     0
  3
Center_Dash_Dash
 72
    65
 73
     6
 40
14.0
 49
9.0
 74
     0
 49
-1.0
 74
     0
 49
1.0
 74
     0
 49
-1.0
 74
     0
 49
1.0
 74
     0
 49
-1.0
 74
     0
  0
ENDTAB
  0
TABLE
  2
LAYER
  5
2
330
0
100
AcDbSymbolTable
 70
     2
  0
LAYER
  5
10
330
2
100
AcDbSymbolTableRecord
100
AcDbLayerTableRecord
  2
0
 70
     0
 62
     7
  6
Continuous
370
    -3
390
F
  0
LAYER
  5
46
330
2
100
AcDbSymbolTableRecord
100
AcDbLayerTableRecord
  2
1
 70
     0
 62
     7
  6
Continuous
370
    -3
390
F
  0
ENDTAB
  0
TABLE
  2
STYLE
  5
3
330
0
100
AcDbSymbolTable
 70
     5
  0
STYLE
  5
11
330
3
100
AcDbSymbolTableRecord
100
AcDbTextStyleTableRecord
  2
Standard
 70
     0
 40
0.0
 41
1.0
 50
0.0
 71
     0
 42
0.2
  3
txt
  4

  0
STYLE
  5
99
330
3
100
AcDbSymbolTableRecord
100
AcDbTextStyleTableRecord
  2
CONVERTER_11
 70
     0
 40
0.0
 41
0.9
 50
0.0
 71
     0
 42
0.2
  3
txt.shx
  4

  0
STYLE
  5
1EB
330
3
100
AcDbSymbolTableRecord
100
AcDbTextStyleTableRecord
  2
CONVERTER_12
 70
     0
 40
0.0
 41
0.81
 50
0.0
 71
     0
 42
0.2
  3
txt.shx
  4

  0
STYLE
  5
1F1
330
3
100
AcDbSymbolTableRecord
100
AcDbTextStyleTableRecord
  2
CONVERTER_13
 70
     0
 40
0.0
 41
0.855
 50
0.0
 71
     0
 42
0.2
  3
txt.shx
  4

  0
STYLE
  5
1F4
330
3
100
AcDbSymbolTableRecord
100
AcDbTextStyleTableRecord
  2
CONVERTER_14
 70
     0
 40
0.0
 41
0.72
 50
0.0
 71
     0
 42
0.2
  3
txt.shx
  4

  0
ENDTAB
  0
TABLE
  2
VIEW
  5
6
330
0
100
AcDbSymbolTable
 70
     0
  0
ENDTAB
  0
TABLE
  2
UCS
  5
7
330
0
100
AcDbSymbolTable
 70
     0
  0
ENDTAB
  0
TABLE
  2
APPID
  5
9
330
0
100
AcDbSymbolTable
 70
     1
  0
APPID
  5
12
330
9
100
AcDbSymbolTableRecord
100
AcDbRegAppTableRecord
  2
ACAD
 70
     0
  0
ENDTAB
  0
TABLE
  2
DIMSTYLE
  5
A
330
0
100
AcDbSymbolTable
 70
     4
100
AcDbDimStyleTable
  0
DIMSTYLE
105
27
330
A
100
AcDbSymbolTableRecord
100
AcDbDimStyleTableRecord
  2
Standard
 70
     0
178
     0
340
11
  0
DIMSTYLE
105
A9
102
{ACAD_REACTORS
330
AA
102
}
330
A
100
AcDbSymbolTableRecord
100
AcDbDimStyleTableRecord
  2
ME10_DIM_10
 70
     0
 41
0.35
 42
0.0
 44
0.15
 73
     0
 74
     0
 77
     1
 78
     8
140
0.35
147
0.15
172
     1
173
     1
174
     1
175
     1
176
     2
177
     2
178
     3
340
99
  0
DIMSTYLE
105
C1
102
{ACAD_REACTORS
330
C2
102
}
330
A
100
AcDbSymbolTableRecord
100
AcDbDimStyleTableRecord
  2
ME10_DIM_11
 70
     0
 41
0.35
 42
0.0
 44
0.15
 73
     0
 74
     0
 77
     1
 78
     8
140
0.35
147
0.15
172
     1
173
     1
174
     1
175
     1
176
     2
177
     2
178
     3
340
99
  0
DIMSTYLE
105
CC
102
{ACAD_REACTORS
330
CD
102
}
330
A
100
AcDbSymbolTableRecord
100
AcDbDimStyleTableRecord
  2
ME10_DIM_12
 70
     0
 41
0.35
 42
0.0
 44
0.15
 73
     0
 74
     0
 77
     1
 78
     8
140
0.35
147
0.15
172
     1
173
     1
174
     1
175
     1
176
     2
177
     2
178
     3
340
99
  0
ENDTAB
  0
TABLE
  2
BLOCK_RECORD
  5
1
330
0
100
AcDbSymbolTable
 70
    20
  0
BLOCK_RECORD
  5
1F
330
1
100
AcDbSymbolTableRecord
100
AcDbBlockTableRecord
  2
*Model_Space
340
22
  0
BLOCK_RECORD
  5
1B
330
1
100
AcDbSymbolTableRecord
100
AcDbBlockTableRecord
  2
*Paper_Space
340
1E
  0
BLOCK_RECORD
  5
23
330
1
100
AcDbSymbolTableRecord
100
AcDbBlockTableRecord
  2
*Paper_Space0
340
26
  0
BLOCK_RECORD
  5
47
330
1
100
AcDbSymbolTableRecord
100
AcDbBlockTableRecord
  2
BN_WH-select__1
340
0
102
{BLKREFS
331
4B
102
}
  0
BLOCK_RECORD
  5
4A
330
1
100
AcDbSymbolTableRecord
100
AcDbBlockTableRecord
  2
Allg1
340
0
102
{BLKREFS
331
7D
102
}
  0
BLOCK_RECORD
  5
4E
330
1
100
AcDbSymbolTableRecord
100
AcDbBlockTableRecord
  2
BN_WH-select__2
340
0
102
{BLKREFS
331
52
102
}
  0
BLOCK_RECORD
  5
51
330
1
100
AcDbSymbolTableRecord
100
AcDbBlockTableRecord
  2
Drfsicht1
340
0
102
{BLKREFS
331
7E
102
}
  0
BLOCK_RECORD
  5
55
330
1
100
AcDbSymbolTableRecord
100
AcDbBlockTableRecord
  2
BN_WH-select__3
340
0
102
{BLKREFS
331
59
102
}
  0
BLOCK_RECORD
  5
58
330
1
100
AcDbSymbolTableRecord
100
AcDbBlockTableRecord
  2
Vordans1
340
0
102
{BLKREFS
331
7F
102
}
  0
BLOCK_RECORD
  5
5C
330
1
100
AcDbSymbolTableRecord
100
AcDbBlockTableRecord
  2
BN_WH-select__4
340
0
102
{BLKREFS
331
60
102
}
  0
BLOCK_RECORD
  5
5F
330
1
100
AcDbSymbolTableRecord
100
AcDbBlockTableRecord
  2
SA_Rechts1
340
0
102
{BLKREFS
331
80
102
}
  0
BLOCK_RECORD
  5
63
330
1
100
AcDbSymbolTableRecord
100
AcDbBlockTableRecord
  2
BN_WH-select__5
340
0
102
{BLKREFS
331
67
102
}
  0
BLOCK_RECORD
  5
66
330
1
100
AcDbSymbolTableRecord
100
AcDbBlockTableRecord
  2
SA_Links1
340
0
102
{BLKREFS
331
81
102
}
  0
BLOCK_RECORD
  5
6A
330
1
100
AcDbSymbolTableRecord
100
AcDbBlockTableRecord
  2
BN_WH-select__6
340
0
102
{BLKREFS
331
6E
102
}
  0
BLOCK_RECORD
  5
6D
330
1
100
AcDbSymbolTableRecord
100
AcDbBlockTableRecord
  2
Rckans1
340
0
102
{BLKREFS
331
82
102
}
  0
BLOCK_RECORD
  5
71
330
1
100
AcDbSymbolTableRecord
100
AcDbBlockTableRecord
  2
_rahmen
340
0
102
{BLKREFS
331
78
102
}
  0
BLOCK_RECORD
  5
74
330
1
100
AcDbSymbolTableRecord
100
AcDbBlockTableRecord
  2
_punkt
340
0
102
{BLKREFS
331
79
102
}
  0
BLOCK_RECORD
  5
77
330
1
100
AcDbSymbolTableRecord
100
AcDbBlockTableRecord
  2
A4I_CS
340
0
102
{BLKREFS
331
83
102
}
  0
BLOCK_RECORD
  5
7C
330
1
100
AcDbSymbolTableRecord
100
AcDbBlockTableRecord
  2
1
340
0
102
{BLKREFS
331
86
102
}
  0
BLOCK_RECORD
  5
A0
330
1
100
AcDbSymbolTableRecord
100
AcDbBlockTableRecord
  2
*D17
340
0
  0
BLOCK_RECORD
  5
B8
330
1
100
AcDbSymbolTableRecord
100
AcDbBlockTableRecord
  2
*D18
340
0
  0
BLOCK_RECORD
  5
C3
330
1
100
AcDbSymbolTableRecord
100
AcDbBlockTableRecord
  2
*D19
340
0
  0
ENDTAB
  0
ENDSEC
  0
SECTION
  2
BLOCKS
  0
BLOCK
  5
20
330
1F
100
AcDbEntity
  8
0
100
AcDbBlockBegin
  2
*Model_Space
 70
     0
 10
0.0
 20
0.0
 30
0.0
  3
*Model_Space
  1

  0
ENDBLK
  5
21
330
1F
100
AcDbEntity
  8
0
100
AcDbBlockEnd
  0
BLOCK
  5
1C
330
1B
100
AcDbEntity
 67
     1
  8
0
100
AcDbBlockBegin
  2
*Paper_Space
 70
     0
 10
0.0
 20
0.0
 30
0.0
  3
*Paper_Space
  1

  0
ENDBLK
  5
1D
330
1B
100
AcDbEntity
 67
     1
  8
0
100
AcDbBlockEnd
  0
BLOCK
  5
24
330
23
100
AcDbEntity
  8
0
100
AcDbBlockBegin
  2
*Paper_Space0
 70
     0
 10
0.0
 20
0.0
 30
0.0
  3
*Paper_Space0
  1

  0
ENDBLK
  5
25
330
23
100
AcDbEntity
  8
0
100
AcDbBlockEnd
  0
BLOCK
  5
48
330
47
100
AcDbEntity
  8
0
100
AcDbBlockBegin
  2
BN_WH-select__1
 70
     0
 10
-21.83205071657012
 20
-23.18403265406179
 30
0.0
  3
BN_WH-select__1
  1

  0
LINE
  5
87
330
47
100
AcDbEntity
  8
0
  6
Continuous
 62
     7
100
AcDbLine
 10
-16.36794910143237
 20
-17.85240456914512
 30
0.0
 11
-18.36794910143237
 21
-19.584455376714
 31
0.0
  0
LINE
  5
88
330
47
100
AcDbEntity
  8
0
  6
Continuous
 62
     7
100
AcDbLine
 10
-16.36794910143237
 20
-18.71842997292956
 30
0.0
 11
-18.36794910143237
 21
-20.45048078049844
 31
0.0
  0
LINE
  5
89
330
47
100
AcDbEntity
  8
0
  6
Continuous
 62
     7
100
AcDbLine
 10
-16.36794910143237
 20
-18.71842997292956
 30
0.0
 11
-16.36794910143237
 21
-17.85240456914512
 31
0.0
  0
LINE
  5
8A
330
47
100
AcDbEntity
  8
0
  6
Continuous
 62
     7
100
AcDbLine
 10
-18.38966669903333
 20
-21.15435228119118
 30
0.0
 11
-18.56599367974179
 21
-23.03910673342616
 31
0.0
  0
LINE
  5
8B
330
47
100
AcDbEntity
  8
0
  6
Continuous
 62
     7
100
AcDbLine
 10
-18.90966669903333
 20
-21.60468549115906
 30
0.0
 11
-19.81033311896916
 21
-21.34468549115906
 31
0.0
  0
LINE
  5
8C
330
47
100
AcDbEntity
  8
0
  6
Continuous
 62
     7
100
AcDbLine
 10
-19.81033311896916
 20
-21.34468549115906
 30
0.0
 11
-19.16990452312294
 21
-23.05800725027736
 31
0.0
  0
LINE
  5
8D
330
47
100
AcDbEntity
  8
0
  6
Continuous
 62
     7
100
AcDbLine
 10
-18.73333971832487
 20
-23.18403265406179
 30
0.0
 11
-18.90966669903333
 21
-21.60468549115906
 31
0.0
  0
LINE
  5
8E
330
47
100
AcDbEntity
  8
0
  6
Continuous
 62
     7
100
AcDbLine
 10
-18.90966669903333
 20
-20.2941003800986
 30
0.0
 11
-18.90966669903333
 21
-21.60468549115906
 31
0.0
  0
LINE
  5
8F
330
47
100
AcDbEntity
  8
0
  6
Continuous
 62
     7
100
AcDbLine
 10
-18.38966669903333
 20
-20.44421145008791
 30
0.0
 11
-18.38966669903333
 21
-21.15435228119118
 31
0.0
  0
LINE
  5
90
330
47
100
AcDbEntity
  8
0
  6
Continuous
 62
     7
100
AcDbLine
 10
-19.81033311896915
 20
-20.0341003800986
 30
0.0
 11
-19.81033311896916
 21
-21.34468549115906
 31
0.0
  0
LINE
  5
91
330
47
100
AcDbEntity
  8
0
  6
Continuous
 62
     7
100
AcDbLine
 10
-18.73333971832487
 20
-23.18403265406179
 30
0.0
 11
-18.56599367974179
 21
-23.03910673342616
 31
0.0
  0
LINE
  5
92
330
47
100
AcDbEntity
  8
0
  6
Continuous
 62
     7
100
AcDbLine
 10
-19.16990452312294
 20
-23.05800725027736
 30
0.0
 11
-18.73333971832487
 21
-23.18403265406179
 31
0.0
  0
LINE
  5
93
330
47
100
AcDbEntity
  8
0
  6
Continuous
 62
     7
100
AcDbLine
 10
-21.83205071657012
 20
-18.584455376714
 30
0.0
 11
-19.83205071657012
 21
-16.85240456914512
 31
0.0
  0
LINE
  5
94
330
47
100
AcDbEntity
  8
0
  6
Continuous
 62
     7
100
AcDbLine
 10
-18.36794910143237
 20
-20.45048078049844
 30
0.0
 11
-18.36794910143237
 21
-19.584455376714
 31
0.0
  0
LINE
  5
95
330
47
100
AcDbEntity
  8
0
  6
Continuous
 62
     7
100
AcDbLine
 10
-21.83205071657012
 20
-19.45048078049844
 30
0.0
 11
-21.83205071657012
 21
-18.584455376714
 31
0.0
  0
LINE
  5
96
330
47
100
AcDbEntity
  8
0
  6
Continuous
 62
     7
100
AcDbLine
 10
-18.36794910143237
 20
-19.584455376714
 30
0.0
 11
-21.83205071657012
 21
-18.584455376714
 31
0.0
  0
LINE
  5
97
330
47
100
AcDbEntity
  8
0
  6
Continuous
 62
     7
100
AcDbLine
 10
-18.36794910143237
 20
-20.45048078049844
 30
0.0
 11
-21.83205071657012
 21
-19.45048078049844
 31
0.0
  0
LINE
  5
98
330
47
100
AcDbEntity
  8
0
  6
Continuous
 62
     7
100
AcDbLine
 10
-19.83205071657012
 20
-16.85240456914512
 30
0.0
 11
-16.36794910143237
 21
-17.85240456914512
 31
0.0
  0
ENDBLK
  5
49
330
47
100
AcDbEntity
  8
0
100
AcDbBlockEnd
  0
BLOCK
  5
4C
330
4A
100
AcDbEntity
  8
0
100
AcDbBlockBegin
  2
Allg1
 70
     0
 10
-19.09999999999999
 20
-20.6000000000173
 30
0.0
  3
Allg1
  1

  0
INSERT
  5
4B
330
4A
100
AcDbEntity
  8
0
100
AcDbBlockReference
  2
BN_WH-select__1
 10
-21.83205071657012
 20
-23.18403265406179
 30
0.0
  0
MTEXT
  5
9A
330
4A
100
AcDbEntity
  8
1
 62
     6
100
AcDbMText
 10
-19.09999999999999
 20
-24.84759526420893
 30
0.0
 40
0.5
 41
0.0
 71
     2
 72
     1
  1
 
  7
CONVERTER_11
 73
     1
 44
1.32052821128451
  0
ENDBLK
  5
4D
330
4A
100
AcDbEntity
  8
0
100
AcDbBlockEnd
  0
BLOCK
  5
4F
330
4E
100
AcDbEntity
  8
0
100
AcDbBlockBegin
  2
BN_WH-select__2
 70
     0
 10
-30.90000008789062
 20
-22.79999966577148
 30
0.0
  3
BN_WH-select__2
  1

  0
LINE
  5
9B
330
4E
100
AcDbEntity
  8
0
  6
Continuous
 62
     7
100
AcDbLine
 10
-26.90000008789062
 20
-22.79999966577148
 30
0.0
 11
-30.90000008789062
 21
-22.79999966577148
 31
0.0
  0
LINE
  5
9C
330
4E
100
AcDbEntity
  8
0
  6
Continuous
 62
     7
100
AcDbLine
 10
-30.90000008789062
 20
-22.79999966577148
 30
0.0
 11
-30.90000008789062
 21
-18.79999966577148
 31
0.0
  0
LINE
  5
9D
330
4E
100
AcDbEntity
  8
0
  6
Continuous
 62
     7
100
AcDbLine
 10
-30.90000008789062
 20
-18.79999966577148
 30
0.0
 11
-26.90000008789062
 21
-18.79999966577148
 31
0.0
  0
LINE
  5
9E
330
4E
100
AcDbEntity
  8
0
  6
Continuous
 62
     7
100
AcDbLine
 10
-26.90000008789062
 20
-18.79999966577148
 30
0.0
 11
-26.90000008789062
 21
-22.79999966577148
 31
0.0
  0
ENDBLK
  5
50
330
4E
100
AcDbEntity
  8
0
100
AcDbBlockEnd
  0
BLOCK
  5
53
330
51
100
AcDbEntity
  8
0
100
AcDbBlockBegin
  2
Drfsicht1
 70
     0
 10
-28.89999999999999
 20
-20.8
 30
0.0
  3
Drfsicht1
  1

  0
INSERT
  5
52
330
51
100
AcDbEntity
  8
0
100
AcDbBlockReference
  2
BN_WH-select__2
 10
-30.90000008789062
 20
-22.79999966577148
 30
0.0
  0
MTEXT
  5
9F
330
51
100
AcDbEntity
  8
1
 62
     6
100
AcDbMText
 10
-28.89999999999999
 20
-23.3
 30
0.0
 40
0.5
 41
0.0
 71
     2
 72
     1
  1
 
  7
CONVERTER_11
 73
     1
 44
1.32052821128451
  0
DIMENSION
  5
AA
330
51
100
AcDbEntity
  8
1
100
AcDbDimension
  2
*D17
 10
-32.7603710430709
 20
-18.79999966577148
 30
0.0
 11
-33.0853710430709
 21
-20.9405562313705
 31
0.0
 70
    32
  1
<>
 71
     5
 42
-1.0
 53
90.0
  3
ME10_DIM_10
100
AcDbAlignedDimension
 13
-30.90000008789062
 23
-22.79999966577148
 33
0.0
 14
-30.90000008789062
 24
-18.79999966577148
 34
0.0
 50
90.0
100
AcDbRotatedDimension
  0
ENDBLK
  5
54
330
51
100
AcDbEntity
  8
0
100
AcDbBlockEnd
  0
BLOCK
  5
56
330
55
100
AcDbEntity
  8
0
100
AcDbBlockBegin
  2
BN_WH-select__3
 70
     0
 10
-30.90000008789062
 20
-15.80000000003997
 30
0.0
  3
BN_WH-select__3
  1

  0
LINE
  5
AB
330
55
100
AcDbEntity
  8
0
  6
Continuous
 62
     7
100
AcDbLine
 10
-29.42000008789062
 20
-11.30000000003996
 30
0.0
 11
-30.90000008789062
 21
-11.30000000003996
 31
0.0
  0
LINE
  5
AC
330
55
100
AcDbEntity
  8
0
  6
Continuous
 62
     7
100
AcDbLine
 10
-30.90000008789062
 20
-11.30000000003996
 30
0.0
 11
-30.90000008789062
 21
-10.30000000003996
 31
0.0
  0
LINE
  5
AD
330
55
100
AcDbEntity
  8
0
  6
Continuous
 62
     7
100
AcDbLine
 10
-26.90000008789062
 20
-11.30000000003996
 30
0.0
 11
-26.90000008789062
 21
-10.30000000003996
 31
0.0
  0
LINE
  5
AE
330
55
100
AcDbEntity
  8
0
  6
Continuous
 62
     7
100
AcDbLine
 10
-28.38000008789062
 20
-11.30000000003996
 30
0.0
 11
-29.42000008789062
 21
-11.30000000003996
 31
0.0
  0
LINE
  5
AF
330
55
100
AcDbEntity
  8
0
  6
Continuous
 62
     7
100
AcDbLine
 10
-26.90000008789062
 20
-11.30000000003996
 30
0.0
 11
-28.38000008789062
 21
-11.30000000003996
 31
0.0
  0
LINE
  5
B0
330
55
100
AcDbEntity
  8
0
  6
Continuous
 62
     7
100
AcDbLine
 10
-26.90000008789062
 20
-10.30000000003996
 30
0.0
 11
-30.90000008789062
 21
-10.30000000003996
 31
0.0
  0
LINE
  5
B1
330
55
100
AcDbEntity
  8
0
  6
Continuous
 62
     7
100
AcDbLine
 10
-28.38000008789062
 20
-15.80000000003996
 30
0.0
 11
-28.38000008789062
 21
-13.80000000003997
 31
0.0
  0
LINE
  5
B2
330
55
100
AcDbEntity
  8
0
  6
Continuous
 62
     7
100
AcDbLine
 10
-28.88410170302838
 20
-15.80000000003997
 30
0.0
 11
-28.38000008789062
 21
-15.80000000003996
 31
0.0
  0
LINE
  5
B3
330
55
100
AcDbEntity
  8
0
  6
Continuous
 62
     7
100
AcDbLine
 10
-29.42000008789062
 20
-11.30000000003996
 30
0.0
 11
-29.42000008789062
 21
-13.80000000003997
 31
0.0
  0
LINE
  5
B4
330
55
100
AcDbEntity
  8
0
  6
Continuous
 62
     7
100
AcDbLine
 10
-28.38000008789062
 20
-11.30000000003996
 30
0.0
 11
-28.38000008789062
 21
-13.80000000003997
 31
0.0
  0
LINE
  5
B5
330
55
100
AcDbEntity
  8
0
  6
Continuous
 62
     7
100
AcDbLine
 10
-28.38000008789062
 20
-13.80000000003997
 30
0.0
 11
-29.42000008789062
 21
-13.80000000003997
 31
0.0
  0
LINE
  5
B6
330
55
100
AcDbEntity
  8
0
  6
Continuous
 62
     7
100
AcDbLine
 10
-29.42000008789062
 20
-13.80000000003997
 30
0.0
 11
-28.88410170302838
 21
-15.80000000003997
 31
0.0
  0
ENDBLK
  5
57
330
55
100
AcDbEntity
  8
0
100
AcDbBlockEnd
  0
BLOCK
  5
5A
330
58
100
AcDbEntity
  8
0
100
AcDbBlockBegin
  2
Vordans1
 70
     0
 10
-28.89999999999999
 20
-13.05000000001996
 30
0.0
  3
Vordans1
  1

  0
INSERT
  5
59
330
58
100
AcDbEntity
  8
0
100
AcDbBlockReference
  2
BN_WH-select__3
 10
-30.90000008789062
 20
-15.80000000003997
 30
0.0
  0
MTEXT
  5
B7
330
58
100
AcDbEntity
  8
1
 62
     6
100
AcDbMText
 10
-28.89999999999999
 20
-16.30000000001996
 30
0.0
 40
0.5
 41
0.0
 71
     2
 72
     1
  1
 
  7
CONVERTER_11
 73
     1
 44
1.32052821128451
  0
DIMENSION
  5
C2
330
58
100
AcDbEntity
  8
1
100
AcDbDimension
  2
*D18
 10
-31.90000008789062
 20
-10.30000000003996
 30
0.0
 11
-32.24250008789062
 21
-13.1353561959647
 31
0.0
 70
    32
  1
<>
 71
     5
 42
-1.0
 53
90.0
  3
ME10_DIM_11
100
AcDbAlignedDimension
 13
-28.38000008789062
 23
-15.80000000003996
 33
0.0
 14
-30.90000008789062
 24
-10.30000000003996
 34
0.0
 50
90.0
100
AcDbRotatedDimension
  0
DIMENSION
  5
CD
330
58
100
AcDbEntity
  8
1
100
AcDbDimension
  2
*D19
 10
-30.90000008789062
 20
-17.2725387283929
 30
0.0
 11
-28.7511426095838
 21
-16.9475387283929
 31
0.0
 70
    32
  1
<>
 71
     5
 42
-1.0
 53
0.00013888888889
  3
ME10_DIM_12
100
AcDbAlignedDimension
 13
-26.90000008789062
 23
-11.30000000003996
 33
0.0
 14
-30.90000008789062
 24
-11.30000000003996
 34
0.0
100
AcDbRotatedDimension
  0
ENDBLK
  5
5B
330
58
100
AcDbEntity
  8
0
100
AcDbBlockEnd
  0
BLOCK
  5
5D
330
5C
100
AcDbEntity
  8
0
100
AcDbBlockBegin
  2
BN_WH-select__4
 70
     0
 10
-38.19999966577147
 20
-15.80000000003998
 30
0.0
  3
BN_WH-select__4
  1

  0
LINE
  5
CE
330
5C
100
AcDbEntity
  8
0
  6
Continuous
 62
     7
100
AcDbLine
 10
-38.19999966577147
 20
-11.30000000003998
 30
0.0
 11
-38.19999966577147
 21
-10.30000000003998
 31
0.0
  0
LINE
  5
CF
330
5C
100
AcDbEntity
  8
0
  6
Continuous
 62
     7
100
AcDbLine
 10
-34.19999966577147
 20
-10.30000000003998
 30
0.0
 11
-38.19999966577147
 21
-10.30000000003998
 31
0.0
  0
LINE
  5
D0
330
5C
100
AcDbEntity
  8
0
  6
Continuous
 62
     7
100
AcDbLine
 10
-34.19999966577147
 20
-11.30000000003998
 30
0.0
 11
-34.19999966577147
 21
-10.30000000003998
 31
0.0
  0
LINE
  5
D1
330
5C
100
AcDbEntity
  8
0
  6
Continuous
 62
     7
100
AcDbLine
 10
-34.19999966577147
 20
-11.30000000003998
 30
0.0
 11
-35.67999966577147
 21
-11.30000000003998
 31
0.0
  0
LINE
  5
D2
330
5C
100
AcDbEntity
  8
0
  6
Continuous
 62
     7
100
AcDbLine
 10
-35.67999966577147
 20
-11.30000000003998
 30
0.0
 11
-36.71999966577148
 21
-11.30000000003998
 31
0.0
  0
LINE
  5
D3
330
5C
100
AcDbEntity
  8
0
  6
Continuous
 62
     7
100
AcDbLine
 10
-36.71999966577148
 20
-11.30000000003998
 30
0.0
 11
-38.19999966577147
 21
-11.30000000003998
 31
0.0
  0
LINE
  5
D4
330
5C
100
AcDbEntity
  8
0
  6
Continuous
 62
     7
100
AcDbLine
 10
-35.67999966577147
 20
-11.30000000003998
 30
0.0
 11
-35.67999966577147
 21
-13.80000000004002
 31
0.0
  0
LINE
  5
D5
330
5C
100
AcDbEntity
  8
0
  6
Continuous
 62
     7
100
AcDbLine
 10
-35.67999966577147
 20
-13.80000000004002
 30
0.0
 11
-36.03265362718839
 21
-15.80000000003998
 31
0.0
  0
LINE
  5
D6
330
5C
100
AcDbEntity
  8
0
  6
Continuous
 62
     7
100
AcDbLine
 10
-36.36734570435454
 20
-15.80000000003998
 30
0.0
 11
-36.03265362718839
 21
-15.80000000003998
 31
0.0
  0
LINE
  5
D7
330
5C
100
AcDbEntity
  8
0
  6
Continuous
 62
     7
100
AcDbLine
 10
-36.71999966577148
 20
-11.30000000003998
 30
0.0
 11
-36.71999966577148
 21
-13.80000000003998
 31
0.0
  0
LINE
  5
D8
330
5C
100
AcDbEntity
  8
0
  6
Continuous
 62
     7
100
AcDbLine
 10
-36.36734570435454
 20
-15.80000000003998
 30
0.0
 11
-36.71999966577148
 21
-13.80000000003998
 31
0.0
  0
ENDBLK
  5
5E
330
5C
100
AcDbEntity
  8
0
100
AcDbBlockEnd
  0
BLOCK
  5
61
330
5F
100
AcDbEntity
  8
0
100
AcDbBlockBegin
  2
SA_Rechts1
 70
     0
 10
-36.19999999999999
 20
-13.05000000001998
 30
0.0
  3
SA_Rechts1
  1

  0
INSERT
  5
60
330
5F
100
AcDbEntity
  8
0
100
AcDbBlockReference
  2
BN_WH-select__4
 10
-38.19999966577147
 20
-15.80000000003998
 30
0.0
  0
MTEXT
  5
D9
330
5F
100
AcDbEntity
  8
1
 62
     6
100
AcDbMText
 10
-36.19999999999999
 20
-16.30000000001999
 30
0.0
 40
0.5
 41
0.0
 71
     2
 72
     1
  1
 
  7
CONVERTER_11
 73
     1
 44
1.32052821128451
  0
ENDBLK
  5
62
330
5F
100
AcDbEntity
  8
0
100
AcDbBlockEnd
  0
BLOCK
  5
64
330
63
100
AcDbEntity
  8
0
100
AcDbBlockBegin
  2
BN_WH-select__5
 70
     0
 10
-24.90000033422851
 20
-15.80000000003998
 30
0.0
  3
BN_WH-select__5
  1

  0
LINE
  5
DA
330
63
100
AcDbEntity
  8
0
  6
Continuous
 62
     7
100
AcDbLine
 10
-23.42000033422851
 20
-11.30000000003998
 30
0.0
 11
-24.90000033422851
 21
-11.30000000003998
 31
0.0
  0
LINE
  5
DB
330
63
100
AcDbEntity
  8
0
  6
Continuous
 62
     7
100
AcDbLine
 10
-24.90000033422851
 20
-11.30000000003998
 30
0.0
 11
-24.90000033422851
 21
-10.30000000003998
 31
0.0
  0
LINE
  5
DC
330
63
100
AcDbEntity
  8
0
  6
Continuous
 62
     7
100
AcDbLine
 10
-20.90000033422851
 20
-11.30000000003998
 30
0.0
 11
-20.90000033422851
 21
-10.30000000003998
 31
0.0
  0
LINE
  5
DD
330
63
100
AcDbEntity
  8
0
  6
Continuous
 62
     7
100
AcDbLine
 10
-22.38000033422851
 20
-11.30000000003998
 30
0.0
 11
-23.42000033422851
 21
-11.30000000003998
 31
0.0
  0
LINE
  5
DE
330
63
100
AcDbEntity
  8
0
  6
Continuous
 62
     7
100
AcDbLine
 10
-20.90000033422851
 20
-11.30000000003998
 30
0.0
 11
-22.38000033422851
 21
-11.30000000003998
 31
0.0
  0
LINE
  5
DF
330
63
100
AcDbEntity
  8
0
  6
Continuous
 62
     7
100
AcDbLine
 10
-20.90000033422851
 20
-10.30000000003998
 30
0.0
 11
-24.90000033422851
 21
-10.30000000003998
 31
0.0
  0
LINE
  5
E0
330
63
100
AcDbEntity
  8
0
  6
Continuous
 62
     7
100
AcDbLine
 10
-23.06734637281159
 20
-15.80000000003998
 30
0.0
 11
-23.42000033422851
 21
-13.80000000003998
 31
0.0
  0
LINE
  5
E1
330
63
100
AcDbEntity
  8
0
  6
Continuous
 62
     7
100
AcDbLine
 10
-23.42000033422851
 20
-11.30000000003998
 30
0.0
 11
-23.42000033422851
 21
-13.80000000003998
 31
0.0
  0
LINE
  5
E2
330
63
100
AcDbEntity
  8
0
  6
Continuous
 62
     7
100
AcDbLine
 10
-23.06734637281159
 20
-15.80000000003998
 30
0.0
 11
-22.73265429564543
 21
-15.80000000003998
 31
0.0
  0
LINE
  5
E3
330
63
100
AcDbEntity
  8
0
  6
Continuous
 62
     7
100
AcDbLine
 10
-22.38000033422851
 20
-11.30000000003998
 30
0.0
 11
-22.3800003342285
 21
-13.80000000003998
 31
0.0
  0
LINE
  5
E4
330
63
100
AcDbEntity
  8
0
  6
Continuous
 62
     7
100
AcDbLine
 10
-22.3800003342285
 20
-13.80000000003998
 30
0.0
 11
-23.42000033422851
 21
-13.80000000003998
 31
0.0
  0
LINE
  5
E5
330
63
100
AcDbEntity
  8
0
  6
Continuous
 62
     7
100
AcDbLine
 10
-22.3800003342285
 20
-13.80000000003998
 30
0.0
 11
-22.73265429564543
 21
-15.80000000003998
 31
0.0
  0
ENDBLK
  5
65
330
63
100
AcDbEntity
  8
0
100
AcDbBlockEnd
  0
BLOCK
  5
68
330
66
100
AcDbEntity
  8
0
100
AcDbBlockBegin
  2
SA_Links1
 70
     0
 10
-22.89999999999999
 20
-13.05000000001998
 30
0.0
  3
SA_Links1
  1

  0
INSERT
  5
67
330
66
100
AcDbEntity
  8
0
100
AcDbBlockReference
  2
BN_WH-select__5
 10
-24.90000033422851
 20
-15.80000000003998
 30
0.0
  0
MTEXT
  5
E6
330
66
100
AcDbEntity
  8
1
 62
     6
100
AcDbMText
 10
-22.89999999999999
 20
-16.30000000001998
 30
0.0
 40
0.5
 41
0.0
 71
     2
 72
     1
  1
 
  7
CONVERTER_11
 73
     1
 44
1.32052821128451
  0
ENDBLK
  5
69
330
66
100
AcDbEntity
  8
0
100
AcDbBlockEnd
  0
BLOCK
  5
6B
330
6A
100
AcDbEntity
  8
0
100
AcDbBlockBegin
  2
BN_WH-select__6
 70
     0
 10
-18.89999991210935
 20
-15.80000000003998
 30
0.0
  3
BN_WH-select__6
  1

  0
LINE
  5
E7
330
6A
100
AcDbEntity
  8
0
  6
Continuous
 62
     7
100
AcDbLine
 10
-17.41999991210935
 20
-11.30000000003998
 30
0.0
 11
-18.89999991210935
 21
-11.30000000003998
 31
0.0
  0
LINE
  5
E8
330
6A
100
AcDbEntity
  8
0
  6
Continuous
 62
     7
100
AcDbLine
 10
-18.89999991210935
 20
-11.30000000003998
 30
0.0
 11
-18.89999991210935
 21
-10.30000000003998
 31
0.0
  0
LINE
  5
E9
330
6A
100
AcDbEntity
  8
0
  6
Continuous
 62
     7
100
AcDbLine
 10
-14.89999991210935
 20
-11.30000000003998
 30
0.0
 11
-14.89999991210935
 21
-10.30000000003998
 31
0.0
  0
LINE
  5
EA
330
6A
100
AcDbEntity
  8
0
  6
Continuous
 62
     7
100
AcDbLine
 10
-16.37999991210935
 20
-11.30000000003998
 30
0.0
 11
-17.41999991210935
 21
-11.30000000003998
 31
0.0
  0
LINE
  5
EB
330
6A
100
AcDbEntity
  8
0
  6
Continuous
 62
     7
100
AcDbLine
 10
-14.89999991210935
 20
-11.30000000003998
 30
0.0
 11
-16.37999991210935
 21
-11.30000000003998
 31
0.0
  0
LINE
  5
EC
330
6A
100
AcDbEntity
  8
0
  6
Continuous
 62
     7
100
AcDbLine
 10
-14.89999991210935
 20
-10.30000000003998
 30
0.0
 11
-18.89999991210935
 21
-10.30000000003998
 31
0.0
  0
LINE
  5
ED
330
6A
100
AcDbEntity
  8
0
  6
Continuous
 62
     7
100
AcDbLine
 10
-16.91589829697159
 20
-15.80000000003998
 30
0.0
 11
-17.41999991210935
 21
-15.80000000003998
 31
0.0
  0
LINE
  5
EE
330
6A
100
AcDbEntity
  8
0
  6
Continuous
 62
     7
100
AcDbLine
 10
-17.41999991210935
 20
-13.80000000004002
 30
0.0
 11
-17.41999991210935
 21
-15.80000000003998
 31
0.0
  0
LINE
  5
EF
330
6A
100
AcDbEntity
  8
0
  6
Continuous
 62
     7
100
AcDbLine
 10
-17.41999991210935
 20
-11.30000000003998
 30
0.0
 11
-17.41999991210935
 21
-13.80000000004002
 31
0.0
  0
LINE
  5
F0
330
6A
100
AcDbEntity
  8
0
  6
Continuous
 62
     7
100
AcDbLine
 10
-16.37999991210935
 20
-11.30000000003998
 30
0.0
 11
-16.37999991210935
 21
-13.80000000003998
 31
0.0
  0
LINE
  5
F1
330
6A
100
AcDbEntity
  8
0
  6
Continuous
 62
     7
100
AcDbLine
 10
-16.37999991210935
 20
-13.80000000003998
 30
0.0
 11
-17.41999991210935
 21
-13.80000000004002
 31
0.0
  0
LINE
  5
F2
330
6A
100
AcDbEntity
  8
0
  6
Continuous
 62
     7
100
AcDbLine
 10
-16.91589829697159
 20
-15.80000000003998
 30
0.0
 11
-16.37999991210935
 21
-13.80000000003998
 31
0.0
  0
ENDBLK
  5
6C
330
6A
100
AcDbEntity
  8
0
100
AcDbBlockEnd
  0
BLOCK
  5
6F
330
6D
100
AcDbEntity
  8
0
100
AcDbBlockBegin
  2
Rckans1
 70
     0
 10
-16.89999999999998
 20
-13.05000000001998
 30
0.0
  3
Rckans1
  1

  0
INSERT
  5
6E
330
6D
100
AcDbEntity
  8
0
100
AcDbBlockReference
  2
BN_WH-select__6
 10
-18.89999991210935
 20
-15.80000000003998
 30
0.0
  0
MTEXT
  5
F3
330
6D
100
AcDbEntity
  8
1
 62
     6
100
AcDbMText
 10
-16.89999999999999
 20
-16.30000000001998
 30
0.0
 40
0.5
 41
0.0
 71
     2
 72
     1
  1
 
  7
CONVERTER_11
 73
     1
 44
1.32052821128451
  0
ENDBLK
  5
70
330
6D
100
AcDbEntity
  8
0
100
AcDbBlockEnd
  0
BLOCK
  5
72
330
71
100
AcDbEntity
  8
0
100
AcDbBlockBegin
  2
_rahmen
 70
     0
 10
-111.1698740342936
 20
-275.1663053051076
 30
0.0
  3
_rahmen
  1

  0
LINE
  5
F4
330
71
100
AcDbEntity
  8
1
  6
DOT_CENTER
 62
     2
100
AcDbLine
 10
-236.7280236744811
 20
-249.0413053051076
 30
0.0
 11
-231.2280236744811
 21
-249.0413053051076
 31
0.0
  0
LINE
  5
F5
330
71
100
AcDbEntity
  8
1
  6
PHANTOM
 62
     2
100
AcDbLine
 10
-227.9780236744811
 20
-246.2913053051076
 30
0.0
 11
-227.9780236744811
 21
-251.7913053051076
 31
0.0
  0
LINE
  5
F6
330
71
100
AcDbEntity
  8
1
  6
PHANTOM
 62
     2
100
AcDbLine
 10
-225.2280236744811
 20
-249.0413053051076
 30
0.0
 11
-230.7280236744811
 21
-249.0413053051076
 31
0.0
  0
LINE
  5
F7
330
71
100
AcDbEntity
  8
1
  6
Continuous
 62
     7
100
AcDbLine
 10
-176.4146785610436
 20
-261.6663053051076
 30
0.0
 11
-176.4146785610436
 21
-253.1663053051075
 31
0.0
  0
LINE
  5
F8
330
71
100
AcDbEntity
  8
1
  6
Continuous
 62
     6
100
AcDbLine
 10
-204.3146785610437
 20
-253.1663053051075
 30
0.0
 11
-111.169874034292
 21
-253.1663053051075
 31
0.0
  0
LINE
  5
F9
330
71
100
AcDbEntity
  8
1
  6
Continuous
 62
     7
100
AcDbLine
 10
-240.7146785610437
 20
-253.1663053051075
 30
0.0
 11
-240.7146785610437
 21
-244.6663053051075
 31
0.0
  0
LINE
  5
FA
330
71
100
AcDbEntity
  8
1
  6
Continuous
 62
     7
100
AcDbLine
 10
-204.3146785610437
 20
-253.1663053051075
 30
0.0
 11
-204.3146785610437
 21
-244.6663053051075
 31
0.0
  0
LINE
  5
FB
330
71
100
AcDbEntity
  8
1
  6
Continuous
 62
     7
100
AcDbLine
 10
-146.5882823159708
 20
-244.6663053051075
 30
0.0
 11
-146.5882823159708
 21
-253.1663053051075
 31
0.0
  0
LINE
  5
FC
330
71
100
AcDbEntity
  8
1
  6
Continuous
 62
     7
100
AcDbLine
 10
-120.0882823159712
 20
-244.6663053051075
 30
0.0
 11
-120.0882823159712
 21
-253.1663053051075
 31
0.0
  0
LINE
  5
FD
330
71
100
AcDbEntity
  8
1
  6
Continuous
 62
     6
100
AcDbLine
 10
-309.7146785610436
 20
-270.1663053051075
 30
0.0
 11
-354.6698740342936
 21
-270.1663053051075
 31
0.0
  0
LINE
  5
FE
330
71
100
AcDbEntity
  8
1
  6
Continuous
 62
     7
100
AcDbLine
 10
-111.1698740342924
 20
-261.6663053051075
 30
0.0
 11
-204.3146785610437
 21
-261.6663053051075
 31
0.0
  0
LINE
  5
FF
102
{ACAD_REACTORS
330
211
330
212
102
}
330
71
100
AcDbEntity
  8
0
  6
Continuous
 62
     2
100
AcDbLine
 10
-227.0072496192763
 20
-260.8660161894442
 30
0.0
 11
-227.0072496192763
 21
-259.9934991826409
 31
0.0
  0
LINE
  5
100
102
{ACAD_REACTORS
330
211
330
212
102
}
330
71
100
AcDbEntity
  8
0
  6
Continuous
 62
     2
100
AcDbLine
 10
-227.0072496192763
 20
-261.8257848969271
 30
0.0
 11
-227.0072496192763
 21
-262.6983019037303
 31
0.0
  0
LINE
  5
101
102
{ACAD_REACTORS
330
213
330
214
102
}
330
71
100
AcDbEntity
  8
0
  6
Continuous
 62
     2
100
AcDbLine
 10
-211.6742054829857
 20
-260.6042610874036
 30
0.0
 11
-210.5705661834176
 21
-260.6042610874036
 31
0.0
  0
LINE
  5
102
102
{ACAD_REACTORS
330
213
330
214
102
}
330
71
100
AcDbEntity
  8
0
  6
Continuous
 62
     2
100
AcDbLine
 10
-210.9045481400243
 20
-261.8257848969275
 30
0.0
 11
-210.9045481400243
 21
-262.6983019037309
 31
0.0
  0
LINE
  5
103
102
{ACAD_REACTORS
330
21D
330
21E
102
}
330
71
100
AcDbEntity
  8
0
  6
Continuous
 62
     2
100
AcDbLine
 10
-212.7653047554043
 20
-259.5136148289168
 30
0.0
 11
-211.367351708464
 21
-257.9327558351419
 31
0.0
  0
LINE
  5
104
102
{ACAD_REACTORS
330
21D
330
21E
102
}
330
71
100
AcDbEntity
  8
0
  6
Continuous
 62
     2
100
AcDbLine
 10
-212.6698813392314
 20
-256.4598053051057
 30
0.0
 11
-211.367351708464
 21
-257.9327558351419
 31
0.0
  0
LINE
  5
105
102
{ACAD_REACTORS
330
21D
330
21E
102
}
330
71
100
AcDbEntity
  8
0
  6
Continuous
 62
     2
100
AcDbLine
 10
-210.0648220776976
 20
-256.4598053051057
 30
0.0
 11
-208.6620978599503
 21
-256.4598053051057
 31
0.0
  0
LINE
  5
106
102
{ACAD_REACTORS
330
21D
330
21E
102
}
330
71
100
AcDbEntity
  8
0
  6
Continuous
 62
     2
100
AcDbLine
 10
-211.362580537656
 20
-259.5136148289168
 30
0.0
 11
-210.6659895995904
 21
-258.7258830436232
 31
0.0
  0
LINE
  5
107
102
{ACAD_REACTORS
330
21D
330
21E
102
}
330
71
100
AcDbEntity
  8
0
  6
Continuous
 62
     2
100
AcDbLine
 10
-211.362580537656
 20
-259.5136148289168
 30
0.0
 11
-212.7653047554043
 21
-259.5136148289168
 31
0.0
  0
LINE
  5
108
102
{ACAD_REACTORS
330
21F
330
220
102
}
330
71
100
AcDbEntity
  8
0
  6
Continuous
 62
     2
100
AcDbLine
 10
-212.8845840256211
 20
-259.5136148289168
 30
0.0
 11
-214.125088435874
 21
-259.5136148289168
 31
0.0
  0
LINE
  5
109
102
{ACAD_REACTORS
330
221
330
222
102
}
330
71
100
AcDbEntity
  8
0
  6
Continuous
 62
     2
100
AcDbLine
 10
-214.9930680440291
 20
-261.6512814955667
 30
0.0
 11
-215.2932332812192
 21
-260.88346652958
 31
0.0
  0
LINE
  5
10A
102
{ACAD_REACTORS
330
221
330
222
102
}
330
71
100
AcDbEntity
  8
0
  6
Continuous
 62
     2
100
AcDbLine
 10
-215.5933985184117
 20
-261.6512814955667
 30
0.0
 11
-214.9930680440291
 21
-261.6512814955667
 31
0.0
  0
LINE
  5
10B
102
{ACAD_REACTORS
330
221
330
222
102
}
330
71
100
AcDbEntity
  8
0
  6
Continuous
 62
     2
100
AcDbLine
 10
-217.3114385332854
 20
-262.8728053050912
 30
0.0
 11
-216.0709341230325
 21
-262.8728053050912
 31
0.0
  0
LINE
  5
10C
102
{ACAD_REACTORS
330
221
330
222
102
}
330
71
100
AcDbEntity
  8
0
  6
Continuous
 62
     2
100
AcDbLine
 10
-215.9134854863461
 20
-259.8189957812801
 30
0.0
 11
-214.6729810760934
 21
-259.8189957812801
 31
0.0
  0
LINE
  5
10D
102
{ACAD_REACTORS
330
221
330
222
102
}
330
71
100
AcDbEntity
  8
0
  6
Continuous
 62
     2
100
AcDbLine
 10
-214.6729810760934
 20
-259.8189957812801
 30
0.0
 11
-213.2750280291531
 21
-262.8728053050912
 31
0.0
  0
LINE
  5
10E
102
{ACAD_REACTORS
330
221
330
222
102
}
330
71
100
AcDbEntity
  8
0
  6
Continuous
 62
     2
100
AcDbLine
 10
-214.5155324394071
 20
-262.8728053050912
 30
0.0
 11
-214.7270124928828
 21
-262.3318447608733
 31
0.0
  0
LINE
  5
10F
102
{ACAD_REACTORS
330
223
330
224
102
}
330
71
100
AcDbEntity
  8
0
  6
Continuous
 62
     2
100
AcDbLine
 10
-218.6578516349931
 20
-262.8728053050912
 30
0.0
 11
-217.4650589328265
 21
-262.8728053050912
 31
0.0
  0
LINE
  5
110
102
{ACAD_REACTORS
330
223
330
224
102
}
330
71
100
AcDbEntity
  8
0
  6
Continuous
 62
     2
100
AcDbLine
 10
-218.6578516349931
 20
-260.6042610874036
 30
0.0
 11
-218.6578516349931
 21
-262.8728053050912
 31
0.0
  0
LINE
  5
111
102
{ACAD_REACTORS
330
223
330
224
102
}
330
71
100
AcDbEntity
  8
0
  6
Continuous
 62
     2
100
AcDbLine
 10
-219.4689506724677
 20
-259.8189957812801
 30
0.0
 11
-219.4689506724677
 21
-260.6042610874036
 31
0.0
  0
LINE
  5
112
102
{ACAD_REACTORS
330
225
330
226
102
}
330
71
100
AcDbEntity
  8
0
  6
Continuous
 62
     2
100
AcDbLine
 10
-217.9897367908951
 20
-259.5136148289168
 30
0.0
 11
-216.7969440887285
 21
-259.5136148289168
 31
0.0
  0
LINE
  5
113
102
{ACAD_REACTORS
330
225
330
226
102
}
330
71
100
AcDbEntity
  8
0
  6
Continuous
 62
     2
100
AcDbLine
 10
-215.5564396784745
 20
-257.7685808153109
 30
0.0
 11
-216.7969440887285
 21
-256.4598053051057
 31
0.0
  0
LINE
  5
114
102
{ACAD_REACTORS
330
225
330
226
102
}
330
71
100
AcDbEntity
  8
0
  6
Continuous
 62
     2
100
AcDbLine
 10
-214.3636469763079
 20
-256.4598053051057
 30
0.0
 11
-215.5564396784745
 21
-256.4598053051057
 31
0.0
  0
LINE
  5
115
102
{ACAD_REACTORS
330
225
330
226
102
}
330
71
100
AcDbEntity
  8
0
  6
Continuous
 62
     2
100
AcDbLine
 10
-214.3636469763079
 20
-259.5136148289168
 30
0.0
 11
-214.3636469763079
 21
-256.4598053051057
 31
0.0
  0
LINE
  5
116
102
{ACAD_REACTORS
330
225
330
226
102
}
330
71
100
AcDbEntity
  8
0
  6
Continuous
 62
     2
100
AcDbLine
 10
-215.5564396784745
 20
-259.5136148289168
 30
0.0
 11
-214.3636469763079
 21
-259.5136148289168
 31
0.0
  0
LINE
  5
117
102
{ACAD_REACTORS
330
225
330
226
102
}
330
71
100
AcDbEntity
  8
0
  6
Continuous
 62
     2
100
AcDbLine
 10
-216.7969440887285
 20
-258.2048393187122
 30
0.0
 11
-215.5564396784745
 21
-259.5136148289168
 31
0.0
  0
LINE
  5
118
102
{ACAD_REACTORS
330
227
330
228
102
}
330
71
100
AcDbEntity
  8
0
  6
Continuous
 62
     2
100
AcDbLine
 10
-220.8048784988943
 20
-261.1277712914852
 30
0.0
 11
-222.0453829091472
 21
-259.8189957812801
 31
0.0
  0
LINE
  5
119
102
{ACAD_REACTORS
330
227
330
228
102
}
330
71
100
AcDbEntity
  8
0
  6
Continuous
 62
     2
100
AcDbLine
 10
-220.8048784988943
 20
-259.8189957812801
 30
0.0
 11
-220.8048784988943
 21
-261.1277712914852
 31
0.0
  0
LINE
  5
11A
102
{ACAD_REACTORS
330
227
330
228
102
}
330
71
100
AcDbEntity
  8
0
  6
Continuous
 62
     2
100
AcDbLine
 10
-219.6120857967279
 20
-259.8189957812801
 30
0.0
 11
-220.8048784988943
 21
-259.8189957812801
 31
0.0
  0
LINE
  5
11B
102
{ACAD_REACTORS
330
227
330
228
102
}
330
71
100
AcDbEntity
  8
0
  6
Continuous
 62
     2
100
AcDbLine
 10
-219.6120857967279
 20
-262.8728053050912
 30
0.0
 11
-219.6120857967279
 21
-259.8189957812801
 31
0.0
  0
LINE
  5
11C
102
{ACAD_REACTORS
330
227
330
228
102
}
330
71
100
AcDbEntity
  8
0
  6
Continuous
 62
     2
100
AcDbLine
 10
-222.0453829091472
 20
-261.5640297948866
 30
0.0
 11
-220.8048784988943
 21
-262.8728053050912
 31
0.0
  0
LINE
  5
11D
102
{ACAD_REACTORS
330
227
330
228
102
}
330
71
100
AcDbEntity
  8
0
  6
Continuous
 62
     2
100
AcDbLine
 10
-222.0453829091472
 20
-262.8728053050912
 30
0.0
 11
-222.0453829091472
 21
-261.5640297948866
 31
0.0
  0
LINE
  5
11E
102
{ACAD_REACTORS
330
217
330
218
102
}
330
71
100
AcDbEntity
  8
0
  6
Continuous
 62
     2
100
AcDbLine
 10
-219.5642231577556
 20
-257.1578189105487
 30
0.0
 11
-218.228295331328
 21
-257.1578189105487
 31
0.0
  0
LINE
  5
11F
102
{ACAD_REACTORS
330
217
330
218
102
}
330
71
100
AcDbEntity
  8
0
  6
Continuous
 62
     2
100
AcDbLine
 10
-219.5642231577556
 20
-258.8156012234744
 30
0.0
 11
-219.5642231577556
 21
-258.3357168697327
 31
0.0
  0
LINE
  5
120
102
{ACAD_REACTORS
330
217
330
218
102
}
330
71
100
AcDbEntity
  8
0
  6
Continuous
 62
     2
100
AcDbLine
 10
-218.228295331328
 20
-258.8156012234744
 30
0.0
 11
-219.5642231577556
 21
-258.8156012234744
 31
0.0
  0
LINE
  5
121
102
{ACAD_REACTORS
330
217
330
218
102
}
330
71
100
AcDbEntity
  8
0
  6
Continuous
 62
     2
100
AcDbLine
 10
-218.228295331328
 20
-259.5136148289168
 30
0.0
 11
-218.228295331328
 21
-258.8156012234744
 31
0.0
  0
LINE
  5
122
102
{ACAD_REACTORS
330
217
330
218
102
}
330
71
100
AcDbEntity
  8
0
  6
Continuous
 62
     2
100
AcDbLine
 10
-221.378615055109
 20
-259.5136148289168
 30
0.0
 11
-218.228295331328
 21
-259.5136148289168
 31
0.0
  0
LINE
  5
123
102
{ACAD_REACTORS
330
217
330
218
102
}
330
71
100
AcDbEntity
  8
0
  6
Continuous
 62
     2
100
AcDbLine
 10
-221.378615055109
 20
-256.4598053051057
 30
0.0
 11
-218.228295331328
 21
-256.4598053051057
 31
0.0
  0
LINE
  5
124
102
{ACAD_REACTORS
330
217
330
218
102
}
330
71
100
AcDbEntity
  8
0
  6
Continuous
 62
     2
100
AcDbLine
 10
-218.228295331328
 20
-257.1578189105487
 30
0.0
 11
-218.228295331328
 21
-256.4598053051057
 31
0.0
  0
LINE
  5
125
102
{ACAD_REACTORS
330
229
330
22A
102
}
330
71
100
AcDbEntity
  8
0
  6
Continuous
 62
     2
100
AcDbLine
 10
-224.239970550249
 20
-257.5286386384403
 30
0.0
 11
-224.239970550249
 21
-256.4598053051057
 31
0.0
  0
LINE
  5
126
102
{ACAD_REACTORS
330
229
330
22A
102
}
330
71
100
AcDbEntity
  8
0
  6
Continuous
 62
     2
100
AcDbLine
 10
-224.239970550249
 20
-256.4598053051057
 30
0.0
 11
-223.0471778480826
 21
-256.4598053051057
 31
0.0
  0
LINE
  5
127
102
{ACAD_REACTORS
330
229
330
22A
102
}
330
71
100
AcDbEntity
  8
0
  6
Continuous
 62
     2
100
AcDbLine
 10
-224.239970550249
 20
-258.3793427200731
 30
0.0
 11
-225.2896281281564
 21
-258.3793427200731
 31
0.0
  0
LINE
  5
128
102
{ACAD_REACTORS
330
229
330
22A
102
}
330
71
100
AcDbEntity
  8
0
  6
Continuous
 62
     2
100
AcDbLine
 10
-225.2896281281564
 20
-258.3793427200731
 30
0.0
 11
-225.2896281281564
 21
-259.5136148289168
 31
0.0
  0
LINE
  5
129
102
{ACAD_REACTORS
330
229
330
22A
102
}
330
71
100
AcDbEntity
  8
0
  6
Continuous
 62
     2
100
AcDbLine
 10
-226.482420830323
 20
-256.4598053051057
 30
0.0
 11
-226.482420830323
 21
-259.5136148289168
 31
0.0
  0
LINE
  5
12A
102
{ACAD_REACTORS
330
21B
330
21C
102
}
330
71
100
AcDbEntity
  8
0
  6
Continuous
 62
     2
100
AcDbLine
 10
-228.4386008618766
 20
-257.828638799888
 30
0.0
 11
-228.4386008618766
 21
-257.1229111505458
 31
0.0
  0
LINE
  5
12B
102
{ACAD_REACTORS
330
21B
330
21C
102
}
330
71
100
AcDbEntity
  8
0
  6
Continuous
 62
     2
100
AcDbLine
 10
-229.6791052721308
 20
-259.5136148289168
 30
0.0
 11
-228.4386008618766
 21
-259.5136148289168
 31
0.0
  0
LINE
  5
12C
102
{ACAD_REACTORS
330
21B
330
21C
102
}
330
71
100
AcDbEntity
  8
0
  6
Continuous
 62
     2
100
AcDbLine
 10
-228.4386008618766
 20
-259.5136148289168
 30
0.0
 11
-228.4386008618766
 21
-258.5705365877731
 31
0.0
  0
LINE
  5
12D
102
{ACAD_REACTORS
330
215
330
216
102
}
330
71
100
AcDbEntity
  8
0
  6
Continuous
 62
     2
100
AcDbLine
 10
-233.9840511213421
 20
-262.1602497495343
 30
0.0
 11
-235.4598843823518
 21
-262.1602497495343
 31
0.0
  0
LINE
  5
12E
102
{ACAD_REACTORS
330
215
330
216
102
}
330
71
100
AcDbEntity
  8
0
  6
Continuous
 62
     2
100
AcDbLine
 10
-236.4780236744811
 20
-256.8840499205077
 30
0.0
 11
-236.4780236744811
 21
-262.4485606897079
 31
0.0
  0
LINE
  5
12F
102
{ACAD_REACTORS
330
215
330
216
102
}
330
71
100
AcDbEntity
  8
0
  6
Continuous
 62
     2
100
AcDbLine
 10
-236.0537790590983
 20
-256.4598053051238
 30
0.0
 11
-230.5804669683814
 21
-256.4598053051238
 31
0.0
  0
LINE
  5
130
102
{ACAD_REACTORS
330
215
330
216
102
}
330
71
100
AcDbEntity
  8
0
  6
Continuous
 62
     2
100
AcDbLine
 10
-230.1562223529976
 20
-256.8840499205077
 30
0.0
 11
-230.1562223529976
 21
-262.4485606897079
 31
0.0
  0
LINE
  5
131
102
{ACAD_REACTORS
330
215
330
216
102
}
330
71
100
AcDbEntity
  8
0
  6
Continuous
 62
     2
100
AcDbLine
 10
-230.5804669683814
 20
-262.8728053050912
 30
0.0
 11
-236.0537790590983
 21
-262.8728053050912
 31
0.0
  0
LINE
  5
132
102
{ACAD_REACTORS
330
215
330
216
102
}
330
71
100
AcDbEntity
  8
0
  6
Continuous
 62
     2
100
AcDbLine
 10
-233.6683341982655
 20
-261.8445328264576
 30
0.0
 11
-233.6683341982655
 21
-260.313761894926
 31
0.0
  0
LINE
  5
133
102
{ACAD_REACTORS
330
215
330
216
102
}
330
71
100
AcDbEntity
  8
0
  6
Continuous
 62
     2
100
AcDbLine
 10
-233.6683341982655
 20
-258.092102402801
 30
0.0
 11
-233.6683341982655
 21
-257.4880777837404
 31
0.0
  0
LINE
  5
134
102
{ACAD_REACTORS
330
215
330
216
102
}
330
71
100
AcDbEntity
  8
0
  6
Continuous
 62
     2
100
AcDbLine
 10
-235.4598843823518
 20
-257.1723608606643
 30
0.0
 11
-233.9840511213421
 21
-257.1723608606643
 31
0.0
  0
LINE
  5
135
102
{ACAD_REACTORS
330
215
330
216
102
}
330
71
100
AcDbEntity
  8
0
  6
Continuous
 62
     2
100
AcDbLine
 10
-235.7756013054274
 20
-257.4880777837404
 30
0.0
 11
-235.7756013054274
 21
-261.8445328264576
 31
0.0
  0
LINE
  5
136
102
{ACAD_REACTORS
330
21B
330
21C
102
}
330
71
100
AcDbEntity
  8
0
  6
Continuous
 62
     2
100
AcDbLine
 10
-228.4386008618766
 20
-258.5705365877731
 30
0.0
 11
-227.6798332740964
 21
-258.5705365877731
 31
0.0
  0
LINE
  5
137
102
{ACAD_REACTORS
330
21B
330
21C
102
}
330
71
100
AcDbEntity
  8
0
  6
Continuous
 62
     2
100
AcDbLine
 10
-229.6791052721308
 20
-256.4598053051057
 30
0.0
 11
-227.6798332740964
 21
-256.4598053051057
 31
0.0
  0
LINE
  5
138
102
{ACAD_REACTORS
330
21B
330
21C
102
}
330
71
100
AcDbEntity
  8
0
  6
Continuous
 62
     2
100
AcDbLine
 10
-229.6791052721308
 20
-256.4598053051057
 30
0.0
 11
-229.6791052721308
 21
-259.5136148289168
 31
0.0
  0
LINE
  5
139
102
{ACAD_REACTORS
330
21B
330
21C
102
}
330
71
100
AcDbEntity
  8
0
  6
Continuous
 62
     2
100
AcDbLine
 10
-228.4386008618766
 20
-257.828638799888
 30
0.0
 11
-228.1213058003347
 21
-257.828638799888
 31
0.0
  0
LINE
  5
13A
102
{ACAD_REACTORS
330
21B
330
21C
102
}
330
71
100
AcDbEntity
  8
0
  6
Continuous
 62
     2
100
AcDbLine
 10
-228.4386008618766
 20
-257.1229111505458
 30
0.0
 11
-228.1213058003347
 21
-257.1229111505458
 31
0.0
  0
LINE
  5
13B
102
{ACAD_REACTORS
330
229
330
22A
102
}
330
71
100
AcDbEntity
  8
0
  6
Continuous
 62
     2
100
AcDbLine
 10
-225.2896281281564
 20
-257.5286386384403
 30
0.0
 11
-224.239970550249
 21
-257.5286386384403
 31
0.0
  0
LINE
  5
13C
102
{ACAD_REACTORS
330
229
330
22A
102
}
330
71
100
AcDbEntity
  8
0
  6
Continuous
 62
     2
100
AcDbLine
 10
-225.2896281281564
 20
-256.4598053051057
 30
0.0
 11
-225.2896281281564
 21
-257.5286386384403
 31
0.0
  0
LINE
  5
13D
102
{ACAD_REACTORS
330
229
330
22A
102
}
330
71
100
AcDbEntity
  8
0
  6
Continuous
 62
     2
100
AcDbLine
 10
-226.482420830323
 20
-256.4598053051057
 30
0.0
 11
-225.2896281281564
 21
-256.4598053051057
 31
0.0
  0
LINE
  5
13E
102
{ACAD_REACTORS
330
229
330
22A
102
}
330
71
100
AcDbEntity
  8
0
  6
Continuous
 62
     2
100
AcDbLine
 10
-225.2896281281564
 20
-259.5136148289168
 30
0.0
 11
-226.482420830323
 21
-259.5136148289168
 31
0.0
  0
LINE
  5
13F
102
{ACAD_REACTORS
330
229
330
22A
102
}
330
71
100
AcDbEntity
  8
0
  6
Continuous
 62
     2
100
AcDbLine
 10
-224.239970550249
 20
-259.5136148289168
 30
0.0
 11
-224.239970550249
 21
-258.3793427200731
 31
0.0
  0
LINE
  5
140
102
{ACAD_REACTORS
330
229
330
22A
102
}
330
71
100
AcDbEntity
  8
0
  6
Continuous
 62
     2
100
AcDbLine
 10
-223.0471778480826
 20
-259.5136148289168
 30
0.0
 11
-224.239970550249
 21
-259.5136148289168
 31
0.0
  0
LINE
  5
141
102
{ACAD_REACTORS
330
229
330
22A
102
}
330
71
100
AcDbEntity
  8
0
  6
Continuous
 62
     2
100
AcDbLine
 10
-223.0471778480826
 20
-256.4598053051057
 30
0.0
 11
-223.0471778480826
 21
-259.5136148289168
 31
0.0
  0
LINE
  5
142
102
{ACAD_REACTORS
330
217
330
218
102
}
330
71
100
AcDbEntity
  8
0
  6
Continuous
 62
     2
100
AcDbLine
 10
-219.5642231577556
 20
-258.3357168697327
 30
0.0
 11
-218.228295331328
 21
-258.3357168697327
 31
0.0
  0
LINE
  5
143
102
{ACAD_REACTORS
330
217
330
218
102
}
330
71
100
AcDbEntity
  8
0
  6
Continuous
 62
     2
100
AcDbLine
 10
-218.228295331328
 20
-258.3357168697327
 30
0.0
 11
-218.228295331328
 21
-257.6377032642904
 31
0.0
  0
LINE
  5
144
102
{ACAD_REACTORS
330
217
330
218
102
}
330
71
100
AcDbEntity
  8
0
  6
Continuous
 62
     2
100
AcDbLine
 10
-218.228295331328
 20
-257.6377032642904
 30
0.0
 11
-219.5642231577556
 21
-257.6377032642904
 31
0.0
  0
LINE
  5
145
102
{ACAD_REACTORS
330
217
330
218
102
}
330
71
100
AcDbEntity
  8
0
  6
Continuous
 62
     2
100
AcDbLine
 10
-219.5642231577556
 20
-257.6377032642904
 30
0.0
 11
-219.5642231577556
 21
-257.1578189105487
 31
0.0
  0
LINE
  5
146
102
{ACAD_REACTORS
330
227
330
228
102
}
330
71
100
AcDbEntity
  8
0
  6
Continuous
 62
     2
100
AcDbLine
 10
-223.2381756113147
 20
-262.8728053050912
 30
0.0
 11
-222.0453829091472
 21
-262.8728053050912
 31
0.0
  0
LINE
  5
147
102
{ACAD_REACTORS
330
227
330
228
102
}
330
71
100
AcDbEntity
  8
0
  6
Continuous
 62
     2
100
AcDbLine
 10
-220.8048784988943
 20
-262.8728053050912
 30
0.0
 11
-219.6120857967279
 21
-262.8728053050912
 31
0.0
  0
LINE
  5
148
102
{ACAD_REACTORS
330
227
330
228
102
}
330
71
100
AcDbEntity
  8
0
  6
Continuous
 62
     2
100
AcDbLine
 10
-222.0453829091472
 20
-259.8189957812801
 30
0.0
 11
-223.2381756113147
 21
-259.8189957812801
 31
0.0
  0
LINE
  5
149
102
{ACAD_REACTORS
330
227
330
228
102
}
330
71
100
AcDbEntity
  8
0
  6
Continuous
 62
     2
100
AcDbLine
 10
-223.2381756113147
 20
-259.8189957812801
 30
0.0
 11
-223.2381756113147
 21
-262.8728053050912
 31
0.0
  0
LINE
  5
14A
102
{ACAD_REACTORS
330
225
330
226
102
}
330
71
100
AcDbEntity
  8
0
  6
Continuous
 62
     2
100
AcDbLine
 10
-215.5564396784745
 20
-256.4598053051057
 30
0.0
 11
-215.5564396784745
 21
-257.7685808153109
 31
0.0
  0
LINE
  5
14B
102
{ACAD_REACTORS
330
225
330
226
102
}
330
71
100
AcDbEntity
  8
0
  6
Continuous
 62
     2
100
AcDbLine
 10
-216.7969440887285
 20
-256.4598053051057
 30
0.0
 11
-217.9897367908951
 21
-256.4598053051057
 31
0.0
  0
LINE
  5
14C
102
{ACAD_REACTORS
330
225
330
226
102
}
330
71
100
AcDbEntity
  8
0
  6
Continuous
 62
     2
100
AcDbLine
 10
-217.9897367908951
 20
-256.4598053051057
 30
0.0
 11
-217.9897367908951
 21
-259.5136148289168
 31
0.0
  0
LINE
  5
14D
102
{ACAD_REACTORS
330
225
330
226
102
}
330
71
100
AcDbEntity
  8
0
  6
Continuous
 62
     2
100
AcDbLine
 10
-216.7969440887285
 20
-259.5136148289168
 30
0.0
 11
-216.7969440887285
 21
-258.2048393187122
 31
0.0
  0
LINE
  5
14E
102
{ACAD_REACTORS
330
223
330
224
102
}
330
71
100
AcDbEntity
  8
0
  6
Continuous
 62
     2
100
AcDbLine
 10
-217.4650589328265
 20
-262.8728053050912
 30
0.0
 11
-217.4650589328265
 21
-260.6042610874036
 31
0.0
  0
LINE
  5
14F
102
{ACAD_REACTORS
330
223
330
224
102
}
330
71
100
AcDbEntity
  8
0
  6
Continuous
 62
     2
100
AcDbLine
 10
-217.4650589328265
 20
-260.6042610874036
 30
0.0
 11
-216.653959895354
 21
-260.6042610874036
 31
0.0
  0
LINE
  5
150
102
{ACAD_REACTORS
330
223
330
224
102
}
330
71
100
AcDbEntity
  8
0
  6
Continuous
 62
     2
100
AcDbLine
 10
-216.653959895354
 20
-260.6042610874036
 30
0.0
 11
-216.653959895354
 21
-259.8189957812801
 31
0.0
  0
LINE
  5
151
102
{ACAD_REACTORS
330
223
330
224
102
}
330
71
100
AcDbEntity
  8
0
  6
Continuous
 62
     2
100
AcDbLine
 10
-216.653959895354
 20
-259.8189957812801
 30
0.0
 11
-219.4689506724677
 21
-259.8189957812801
 31
0.0
  0
LINE
  5
152
102
{ACAD_REACTORS
330
223
330
224
102
}
330
71
100
AcDbEntity
  8
0
  6
Continuous
 62
     2
100
AcDbLine
 10
-219.4689506724677
 20
-260.6042610874036
 30
0.0
 11
-218.6578516349931
 21
-260.6042610874036
 31
0.0
  0
LINE
  5
153
102
{ACAD_REACTORS
330
221
330
222
102
}
330
71
100
AcDbEntity
  8
0
  6
Continuous
 62
     2
100
AcDbLine
 10
-215.8594540695567
 20
-262.3318447608733
 30
0.0
 11
-214.7270124928828
 21
-262.3318447608733
 31
0.0
  0
LINE
  5
154
102
{ACAD_REACTORS
330
221
330
222
102
}
330
71
100
AcDbEntity
  8
0
  6
Continuous
 62
     2
100
AcDbLine
 10
-213.2750280291531
 20
-262.8728053050912
 30
0.0
 11
-214.5155324394071
 21
-262.8728053050912
 31
0.0
  0
LINE
  5
155
102
{ACAD_REACTORS
330
221
330
222
102
}
330
71
100
AcDbEntity
  8
0
  6
Continuous
 62
     2
100
AcDbLine
 10
-215.9134854863461
 20
-259.8189957812801
 30
0.0
 11
-217.3114385332854
 21
-262.8728053050912
 31
0.0
  0
LINE
  5
156
102
{ACAD_REACTORS
330
221
330
222
102
}
330
71
100
AcDbEntity
  8
0
  6
Continuous
 62
     2
100
AcDbLine
 10
-216.0709341230325
 20
-262.8728053050912
 30
0.0
 11
-215.8594540695567
 21
-262.3318447608733
 31
0.0
  0
LINE
  5
157
102
{ACAD_REACTORS
330
221
330
222
102
}
330
71
100
AcDbEntity
  8
0
  6
Continuous
 62
     2
100
AcDbLine
 10
-215.5933985184117
 20
-261.6512814955667
 30
0.0
 11
-215.2932332812192
 21
-260.88346652958
 31
0.0
  0
LINE
  5
158
102
{ACAD_REACTORS
330
21F
330
220
102
}
330
71
100
AcDbEntity
  8
0
  6
Continuous
 62
     2
100
AcDbLine
 10
-214.125088435874
 20
-259.5136148289168
 30
0.0
 11
-214.125088435874
 21
-256.4598053051057
 31
0.0
  0
LINE
  5
159
102
{ACAD_REACTORS
330
21F
330
220
102
}
330
71
100
AcDbEntity
  8
0
  6
Continuous
 62
     2
100
AcDbLine
 10
-212.8845840256211
 20
-256.4598053051057
 30
0.0
 11
-212.8845840256211
 21
-259.5136148289168
 31
0.0
  0
LINE
  5
15A
102
{ACAD_REACTORS
330
21F
330
220
102
}
330
71
100
AcDbEntity
  8
0
  6
Continuous
 62
     2
100
AcDbLine
 10
-214.125088435874
 20
-256.4598053051057
 30
0.0
 11
-212.8845840256211
 21
-256.4598053051057
 31
0.0
  0
LINE
  5
15B
102
{ACAD_REACTORS
330
21D
330
21E
102
}
330
71
100
AcDbEntity
  8
0
  6
Continuous
 62
     2
100
AcDbLine
 10
-210.6659895995904
 20
-258.7258830436232
 30
0.0
 11
-209.9693986615249
 21
-259.5136148289168
 31
0.0
  0
LINE
  5
15C
102
{ACAD_REACTORS
330
21D
330
21E
102
}
330
71
100
AcDbEntity
  8
0
  6
Continuous
 62
     2
100
AcDbLine
 10
-209.9693986615249
 20
-259.5136148289168
 30
0.0
 11
-208.5666744437766
 21
-259.5136148289168
 31
0.0
  0
LINE
  5
15D
102
{ACAD_REACTORS
330
21D
330
21E
102
}
330
71
100
AcDbEntity
  8
0
  6
Continuous
 62
     2
100
AcDbLine
 10
-209.9646274907169
 20
-257.9327558351419
 30
0.0
 11
-208.5666744437766
 21
-259.5136148289168
 31
0.0
  0
LINE
  5
15E
102
{ACAD_REACTORS
330
21D
330
21E
102
}
330
71
100
AcDbEntity
  8
0
  6
Continuous
 62
     2
100
AcDbLine
 10
-209.9646274907169
 20
-257.9327558351419
 30
0.0
 11
-208.6620978599503
 21
-256.4598053051057
 31
0.0
  0
LINE
  5
15F
102
{ACAD_REACTORS
330
21D
330
21E
102
}
330
71
100
AcDbEntity
  8
0
  6
Continuous
 62
     2
100
AcDbLine
 10
-210.6659895995904
 20
-257.1396286266612
 30
0.0
 11
-210.0648220776976
 21
-256.4598053051057
 31
0.0
  0
LINE
  5
160
102
{ACAD_REACTORS
330
21D
330
21E
102
}
330
71
100
AcDbEntity
  8
0
  6
Continuous
 62
     2
100
AcDbLine
 10
-211.2671571214821
 20
-256.4598053051057
 30
0.0
 11
-210.6659895995904
 21
-257.1396286266612
 31
0.0
  0
LINE
  5
161
102
{ACAD_REACTORS
330
21D
330
21E
102
}
330
71
100
AcDbEntity
  8
0
  6
Continuous
 62
     2
100
AcDbLine
 10
-211.2671571214821
 20
-256.4598053051057
 30
0.0
 11
-212.6698813392314
 21
-256.4598053051057
 31
0.0
  0
LINE
  5
162
102
{ACAD_REACTORS
330
213
330
214
102
}
330
71
100
AcDbEntity
  8
0
  6
Continuous
 62
     2
100
AcDbLine
 10
-210.5705661834176
 20
-262.8728053050912
 30
0.0
 11
-209.3777734812499
 21
-262.8728053050912
 31
0.0
  0
LINE
  5
163
102
{ACAD_REACTORS
330
213
330
214
102
}
330
71
100
AcDbEntity
  8
0
  6
Continuous
 62
     2
100
AcDbLine
 10
-209.3777734812499
 20
-262.8728053050912
 30
0.0
 11
-209.3777734812499
 21
-260.6042610874036
 31
0.0
  0
LINE
  5
164
102
{ACAD_REACTORS
330
213
330
214
102
}
330
71
100
AcDbEntity
  8
0
  6
Continuous
 62
     2
100
AcDbLine
 10
-209.3777734812499
 20
-260.6042610874036
 30
0.0
 11
-208.5666744437766
 21
-260.6042610874036
 31
0.0
  0
LINE
  5
165
102
{ACAD_REACTORS
330
213
330
214
102
}
330
71
100
AcDbEntity
  8
0
  6
Continuous
 62
     2
100
AcDbLine
 10
-208.5666744437766
 20
-260.6042610874036
 30
0.0
 11
-208.5666744437766
 21
-259.8189957812801
 31
0.0
  0
LINE
  5
166
102
{ACAD_REACTORS
330
213
330
214
102
}
330
71
100
AcDbEntity
  8
0
  6
Continuous
 62
     2
100
AcDbLine
 10
-211.9516199624052
 20
-259.8189957812806
 30
0.0
 11
-208.5666744437766
 21
-259.8189957812801
 31
0.0
  0
LINE
  5
167
102
{ACAD_REACTORS
330
213
330
214
102
}
330
71
100
AcDbEntity
  8
0
  6
Continuous
 62
     2
100
AcDbLine
 10
-210.5705661834176
 20
-260.6042610874036
 30
0.0
 11
-210.5705661834176
 21
-262.8728053050912
 31
0.0
  0
LINE
  5
168
102
{ACAD_REACTORS
330
215
330
216
102
}
330
71
100
AcDbEntity
  8
0
  6
Continuous
 62
     2
100
AcDbLine
 10
-233.2000526188969
 20
-260.8939251555266
 30
0.0
 11
-233.2000526188969
 21
-260.3120737488316
 31
0.0
  0
LINE
  5
169
102
{ACAD_REACTORS
330
215
330
216
102
}
330
71
100
AcDbEntity
  8
0
  6
Continuous
 62
     2
100
AcDbLine
 10
-233.2000526188969
 20
-258.0937905488954
 30
0.0
 11
-233.2000526188969
 21
-257.4882552603885
 31
0.0
  0
LINE
  5
16A
330
71
100
AcDbEntity
  8
1
  6
Continuous
 62
     6
100
AcDbLine
 10
-254.6698740342936
 20
-270.1663053051075
 30
0.0
 11
-240.7146785610437
 21
-270.1663053051076
 31
0.0
  0
LINE
  5
16B
330
71
100
AcDbEntity
  8
1
  6
Continuous
 62
     6
100
AcDbLine
 10
-304.6698740342939
 20
-270.1663053051075
 30
0.0
 11
-309.7146785610436
 21
-270.1663053051075
 31
0.0
  0
LINE
  5
16C
330
71
100
AcDbEntity
  8
1
  6
Continuous
 62
     6
100
AcDbLine
 10
-154.6698740342937
 20
-270.1663053051075
 30
0.0
 11
-111.1698740342936
 21
-270.1663053051075
 31
0.0
  0
LINE
  5
16D
330
71
100
AcDbEntity
  8
1
  6
Continuous
 62
     6
100
AcDbLine
 10
-204.6698740342937
 20
-270.1663053051075
 30
0.0
 11
-222.5146785610436
 21
-270.1663053051075
 31
0.0
  0
LINE
  5
16E
330
71
100
AcDbEntity
  8
1
  6
Continuous
 62
     2
100
AcDbLine
 10
-111.1698740342936
 20
-270.1663053051075
 30
0.0
 11
-106.1698740342947
 21
-270.1663053051075
 31
0.0
  0
LINE
  5
16F
330
71
100
AcDbEntity
  8
1
  6
Continuous
 62
     2
100
AcDbLine
 10
-111.1698740342936
 20
-270.1663053051075
 30
0.0
 11
-111.1698740342936
 21
-275.1663053051076
 31
0.0
  0
LINE
  5
170
330
71
100
AcDbEntity
  8
1
  6
Continuous
 62
     6
100
AcDbLine
 10
-240.7146785610437
 20
-253.1663053051075
 30
0.0
 11
-204.3146785610437
 21
-253.1663053051075
 31
0.0
  0
LINE
  5
171
330
71
100
AcDbEntity
  8
1
  6
Continuous
 62
     2
100
AcDbLine
 10
-106.1698740342947
 20
-275.1663053051076
 30
0.0
 11
-106.1698740342947
 21
-270.1663053051075
 31
0.0
  0
LINE
  5
172
330
71
100
AcDbEntity
  8
1
  6
Continuous
 62
     2
100
AcDbLine
 10
-106.1698740342947
 20
-275.1663053051076
 30
0.0
 11
-111.1698740342936
 21
-275.1663053051076
 31
0.0
  0
LINE
  5
173
330
71
100
AcDbEntity
  8
1
  6
Continuous
 62
     2
100
AcDbLine
 10
-111.1698740342936
 20
-275.1663053051076
 30
0.0
 11
-154.6698740342937
 21
-275.1663053051076
 31
0.0
  0
LINE
  5
174
330
71
100
AcDbEntity
  8
1
  6
Continuous
 62
     6
100
AcDbLine
 10
-111.169874034292
 20
-253.1663053051075
 30
0.0
 11
-111.1698740342928
 21
-220.1663053051074
 31
0.0
  0
LINE
  5
175
330
71
100
AcDbEntity
  8
1
  6
Continuous
 62
     2
100
AcDbLine
 10
-106.1698740342947
 20
-65.16630530510747
 30
0.0
 11
-254.6698740342936
 21
-65.16630530510747
 31
0.0
  0
LINE
  5
176
330
71
100
AcDbEntity
  8
1
  6
Continuous
 62
     6
100
AcDbLine
 10
-111.1698740342947
 20
-85.16630530510747
 30
0.0
 11
-398.1698740342927
 21
-85.16630530510747
 31
0.0
  0
LINE
  5
177
330
71
100
AcDbEntity
  8
1
  6
Continuous
 62
     2
100
AcDbLine
 10
-111.1698740342928
 20
-220.1663053051074
 30
0.0
 11
-106.1698740342947
 21
-220.1663053051074
 31
0.0
  0
LINE
  5
178
330
71
100
AcDbEntity
  8
1
  6
Continuous
 62
     6
100
AcDbLine
 10
-111.1698740342928
 20
-220.1663053051074
 30
0.0
 11
-111.1698740342932
 21
-170.1663053051076
 31
0.0
  0
LINE
  5
179
330
71
100
AcDbEntity
  8
1
  6
Continuous
 62
     2
100
AcDbLine
 10
-106.1698740342947
 20
-220.1663053051074
 30
0.0
 11
-106.1698740342947
 21
-170.1663053051076
 31
0.0
  0
LINE
  5
17A
330
71
100
AcDbEntity
  8
1
  6
Continuous
 62
     2
100
AcDbLine
 10
-111.1698740342932
 20
-170.1663053051076
 30
0.0
 11
-106.1698740342947
 21
-170.1663053051076
 31
0.0
  0
LINE
  5
17B
330
71
100
AcDbEntity
  8
1
  6
Continuous
 62
     6
100
AcDbLine
 10
-111.1698740342932
 20
-170.1663053051076
 30
0.0
 11
-111.1698740342945
 21
-120.1663053051075
 31
0.0
  0
LINE
  5
17C
330
71
100
AcDbEntity
  8
1
  6
Continuous
 62
     2
100
AcDbLine
 10
-106.1698740342947
 20
-170.1663053051076
 30
0.0
 11
-106.1698740342947
 21
-120.1663053051075
 31
0.0
  0
LINE
  5
17D
330
71
100
AcDbEntity
  8
1
  6
Continuous
 62
     2
100
AcDbLine
 10
-111.1698740342945
 20
-120.1663053051075
 30
0.0
 11
-106.1698740342947
 21
-120.1663053051075
 31
0.0
  0
LINE
  5
17E
330
71
100
AcDbEntity
  8
1
  6
Continuous
 62
     6
100
AcDbLine
 10
-111.1698740342945
 20
-120.1663053051075
 30
0.0
 11
-111.1698740342947
 21
-85.16630530510747
 31
0.0
  0
LINE
  5
17F
330
71
100
AcDbEntity
  8
1
  6
Continuous
 62
     2
100
AcDbLine
 10
-106.1698740342947
 20
-120.1663053051075
 30
0.0
 11
-106.1698740342947
 21
-65.16630530510747
 31
0.0
  0
LINE
  5
180
330
71
100
AcDbEntity
  8
1
  6
Continuous
 62
     2
100
AcDbLine
 10
-106.1698740342947
 20
-270.1663053051075
 30
0.0
 11
-106.1698740342947
 21
-220.1663053051074
 31
0.0
  0
LINE
  5
181
330
71
100
AcDbEntity
  8
1
  6
Continuous
 62
     2
100
AcDbLine
 10
-254.6698740342936
 20
-65.16630530510747
 30
0.0
 11
-403.1698740342927
 21
-65.16630530510747
 31
0.0
  0
LINE
  5
182
330
71
100
AcDbEntity
  8
1
  6
Continuous
 62
     2
100
AcDbLine
 10
-254.6698740342936
 20
-65.16630530510747
 30
0.0
 11
-254.6698740342936
 21
-74.37499714980879
 31
0.0
  0
LINE
  5
183
330
71
100
AcDbEntity
  8
1
  6
Continuous
 62
     2
100
AcDbLine
 10
-403.1698740342927
 20
-275.1663053051076
 30
0.0
 11
-398.1698740342918
 21
-275.1663053051076
 31
0.0
  0
LINE
  5
184
330
71
100
AcDbEntity
  8
1
  6
Continuous
 62
     2
100
AcDbLine
 10
-403.1698740342927
 20
-65.16630530510747
 30
0.0
 11
-403.1698740342927
 21
-120.1663053051075
 31
0.0
  0
LINE
  5
185
330
71
100
AcDbEntity
  8
1
  6
Continuous
 62
     6
100
AcDbLine
 10
-398.1698740342927
 20
-85.16630530510747
 30
0.0
 11
-398.1698740342927
 21
-120.1663053051075
 31
0.0
  0
LINE
  5
186
330
71
100
AcDbEntity
  8
1
  6
Continuous
 62
     2
100
AcDbLine
 10
-403.1698740342927
 20
-120.1663053051075
 30
0.0
 11
-398.1698740342927
 21
-120.1663053051075
 31
0.0
  0
LINE
  5
187
330
71
100
AcDbEntity
  8
1
  6
Continuous
 62
     2
100
AcDbLine
 10
-403.1698740342927
 20
-120.1663053051075
 30
0.0
 11
-403.1698740342927
 21
-170.1663053051076
 31
0.0
  0
LINE
  5
188
330
71
100
AcDbEntity
  8
1
  6
Continuous
 62
     6
100
AcDbLine
 10
-398.1698740342927
 20
-120.1663053051075
 30
0.0
 11
-398.1698740342922
 21
-170.1663053051076
 31
0.0
  0
LINE
  5
189
330
71
100
AcDbEntity
  8
1
  6
Continuous
 62
     2
100
AcDbLine
 10
-403.1698740342927
 20
-170.1663053051076
 30
0.0
 11
-398.1698740342922
 21
-170.1663053051076
 31
0.0
  0
LINE
  5
18A
330
71
100
AcDbEntity
  8
1
  6
Continuous
 62
     2
100
AcDbLine
 10
-403.1698740342927
 20
-170.1663053051076
 30
0.0
 11
-403.1698740342927
 21
-220.1663053051074
 31
0.0
  0
LINE
  5
18B
330
71
100
AcDbEntity
  8
1
  6
Continuous
 62
     6
100
AcDbLine
 10
-398.1698740342922
 20
-170.1663053051076
 30
0.0
 11
-398.1698740342919
 21
-220.1663053051074
 31
0.0
  0
LINE
  5
18C
330
71
100
AcDbEntity
  8
1
  6
Continuous
 62
     2
100
AcDbLine
 10
-403.1698740342927
 20
-220.1663053051074
 30
0.0
 11
-398.1698740342919
 21
-220.1663053051074
 31
0.0
  0
LINE
  5
18D
330
71
100
AcDbEntity
  8
1
  6
Continuous
 62
     2
100
AcDbLine
 10
-403.1698740342927
 20
-220.1663053051074
 30
0.0
 11
-403.1698740342927
 21
-270.1663053051075
 31
0.0
  0
LINE
  5
18E
330
71
100
AcDbEntity
  8
1
  6
Continuous
 62
     6
100
AcDbLine
 10
-398.1698740342919
 20
-220.1663053051074
 30
0.0
 11
-398.1698740342918
 21
-270.1663053051075
 31
0.0
  0
LINE
  5
18F
330
71
100
AcDbEntity
  8
1
  6
Continuous
 62
     2
100
AcDbLine
 10
-354.6698740342936
 20
-275.1663053051076
 30
0.0
 11
-354.6698740342936
 21
-270.1663053051075
 31
0.0
  0
LINE
  5
190
330
71
100
AcDbEntity
  8
1
  6
Continuous
 62
     2
100
AcDbLine
 10
-354.6698740342936
 20
-275.1663053051076
 30
0.0
 11
-304.6698740342939
 21
-275.1663053051076
 31
0.0
  0
LINE
  5
191
330
71
100
AcDbEntity
  8
1
  6
Continuous
 62
     2
100
AcDbLine
 10
-304.6698740342939
 20
-275.1663053051076
 30
0.0
 11
-304.6698740342939
 21
-270.1663053051075
 31
0.0
  0
LINE
  5
192
330
71
100
AcDbEntity
  8
1
  6
Continuous
 62
     2
100
AcDbLine
 10
-304.6698740342939
 20
-275.1663053051076
 30
0.0
 11
-254.6698740342936
 21
-275.1663053051076
 31
0.0
  0
LINE
  5
193
330
71
100
AcDbEntity
  8
1
  6
Continuous
 62
     2
100
AcDbLine
 10
-254.6698740342936
 20
-275.1663053051076
 30
0.0
 11
-254.6698740342936
 21
-270.1663053051075
 31
0.0
  0
LINE
  5
194
330
71
100
AcDbEntity
  8
1
  6
Continuous
 62
     2
100
AcDbLine
 10
-254.6698740342936
 20
-275.1663053051076
 30
0.0
 11
-204.6698740342937
 21
-275.1663053051076
 31
0.0
  0
LINE
  5
195
330
71
100
AcDbEntity
  8
1
  6
Continuous
 62
     2
100
AcDbLine
 10
-204.6698740342937
 20
-275.1663053051076
 30
0.0
 11
-204.6698740342937
 21
-270.1663053051075
 31
0.0
  0
LINE
  5
196
330
71
100
AcDbEntity
  8
1
  6
Continuous
 62
     2
100
AcDbLine
 10
-154.6698740342937
 20
-275.1663053051076
 30
0.0
 11
-154.6698740342937
 21
-270.1663053051075
 31
0.0
  0
LINE
  5
197
330
71
100
AcDbEntity
  8
1
  6
Continuous
 62
     2
100
AcDbLine
 10
-154.6698740342937
 20
-275.1663053051076
 30
0.0
 11
-204.6698740342937
 21
-275.1663053051076
 31
0.0
  0
LINE
  5
198
330
71
100
AcDbEntity
  8
1
  6
Continuous
 62
     2
100
AcDbLine
 10
-398.1698740342918
 20
-270.1663053051075
 30
0.0
 11
-398.1698740342918
 21
-275.1663053051076
 31
0.0
  0
LINE
  5
199
330
71
100
AcDbEntity
  8
1
  6
Continuous
 62
     2
100
AcDbLine
 10
-398.1698740342918
 20
-275.1663053051076
 30
0.0
 11
-354.6698740342936
 21
-275.1663053051076
 31
0.0
  0
LINE
  5
19A
330
71
100
AcDbEntity
  8
1
  6
Continuous
 62
     2
100
AcDbLine
 10
-398.1698740342918
 20
-270.1663053051075
 30
0.0
 11
-403.1698740342927
 21
-270.1663053051075
 31
0.0
  0
LINE
  5
19B
330
71
100
AcDbEntity
  8
1
  6
Continuous
 62
     2
100
AcDbLine
 10
-403.1698740342927
 20
-270.1663053051075
 30
0.0
 11
-403.1698740342927
 21
-275.1663053051076
 31
0.0
  0
LINE
  5
19C
330
71
100
AcDbEntity
  8
1
  6
Continuous
 62
     6
100
AcDbLine
 10
-111.1698740342936
 20
-270.1663053051075
 30
0.0
 11
-111.1698740342924
 21
-261.6663053051075
 31
0.0
  0
LINE
  5
19D
330
71
100
AcDbEntity
  8
1
  6
Continuous
 62
     6
100
AcDbLine
 10
-204.3146785610437
 20
-270.1663053051076
 30
0.0
 11
-154.6698740342937
 21
-270.1663053051075
 31
0.0
  0
LINE
  5
19E
330
71
100
AcDbEntity
  8
1
  6
Continuous
 62
     6
100
AcDbLine
 10
-356.9698740342939
 20
-270.1663053051076
 30
0.0
 11
-354.6698740342936
 21
-270.1663053051075
 31
0.0
  0
LINE
  5
19F
330
71
100
AcDbEntity
  8
1
  6
Continuous
 62
     6
100
AcDbLine
 10
-254.6698740342936
 20
-270.1663053051075
 30
0.0
 11
-304.6698740342939
 21
-270.1663053051075
 31
0.0
  0
LINE
  5
1A0
330
71
100
AcDbEntity
  8
1
  6
Continuous
 62
     7
100
AcDbLine
 10
-240.7146785610437
 20
-253.1663053051075
 30
0.0
 11
-240.7146785610437
 21
-265.9163053051076
 31
0.0
  0
LINE
  5
1A1
330
71
100
AcDbEntity
  8
1
  6
Continuous
 62
     7
100
AcDbLine
 10
-204.3146785610437
 20
-253.1663053051075
 30
0.0
 11
-204.3146785610437
 21
-265.9163053051075
 31
0.0
  0
LINE
  5
1A2
330
71
100
AcDbEntity
  8
1
  6
Continuous
 62
     6
100
AcDbLine
 10
-356.9698740342939
 20
-270.1663053051076
 30
0.0
 11
-363.1698740342919
 21
-270.1663053051075
 31
0.0
  0
LINE
  5
1A3
330
71
100
AcDbEntity
  8
1
  6
Continuous
 62
     6
100
AcDbLine
 10
-204.3146785610437
 20
-270.1663053051076
 30
0.0
 11
-204.6698740342937
 21
-270.1663053051075
 31
0.0
  0
LINE
  5
1A4
330
71
100
AcDbEntity
  8
1
  6
Continuous
 62
     6
100
AcDbLine
 10
-111.169874034292
 20
-253.1663053051075
 30
0.0
 11
-111.1698740342924
 21
-261.6663053051075
 31
0.0
  0
LINE
  5
1A5
330
71
100
AcDbEntity
  8
1
  6
Continuous
 62
     6
100
AcDbLine
 10
-363.1698740342919
 20
-270.1663053051075
 30
0.0
 11
-398.1698740342918
 21
-270.1663053051075
 31
0.0
  0
LINE
  5
1A6
330
71
100
AcDbEntity
  8
1
  6
Continuous
 62
     2
100
AcDbLine
 10
-236.4780236744811
 20
-247.7913053051076
 30
0.0
 11
-231.4780236744811
 21
-246.5413053051076
 31
0.0
  0
LINE
  5
1A7
330
71
100
AcDbEntity
  8
1
  6
Continuous
 62
     2
100
AcDbLine
 10
-236.4780236744811
 20
-250.2913053051076
 30
0.0
 11
-236.4780236744811
 21
-247.7913053051076
 31
0.0
  0
LINE
  5
1A8
330
71
100
AcDbEntity
  8
1
  6
Continuous
 62
     2
100
AcDbLine
 10
-231.4780236744811
 20
-251.5413053051076
 30
0.0
 11
-236.4780236744811
 21
-250.2913053051076
 31
0.0
  0
LINE
  5
1A9
330
71
100
AcDbEntity
  8
1
  6
Continuous
 62
     2
100
AcDbLine
 10
-231.4780236744811
 20
-246.5413053051076
 30
0.0
 11
-231.4780236744811
 21
-251.5413053051076
 31
0.0
  0
LINE
  5
1AA
330
71
100
AcDbEntity
  8
1
  6
Continuous
 62
     7
100
AcDbLine
 10
-240.7146785610437
 20
-265.9163053051076
 30
0.0
 11
-222.5146785610436
 21
-265.9163053051075
 31
0.0
  0
LINE
  5
1AB
330
71
100
AcDbEntity
  8
1
  6
Continuous
 62
     7
100
AcDbLine
 10
-240.7146785610437
 20
-265.9163053051076
 30
0.0
 11
-240.7146785610437
 21
-270.1663053051076
 31
0.0
  0
LINE
  5
1AC
330
71
100
AcDbEntity
  8
1
  6
Continuous
 62
     7
100
AcDbLine
 10
-204.3146785610437
 20
-265.9163053051075
 30
0.0
 11
-204.3146785610437
 21
-270.1663053051076
 31
0.0
  0
LINE
  5
1AD
330
71
100
AcDbEntity
  8
1
  6
Continuous
 62
     7
100
AcDbLine
 10
-222.5146785610436
 20
-265.9163053051075
 30
0.0
 11
-222.5146785610436
 21
-270.1663053051075
 31
0.0
  0
LINE
  5
1AE
330
71
100
AcDbEntity
  8
1
  6
Continuous
 62
     6
100
AcDbLine
 10
-222.5146785610436
 20
-270.1663053051075
 30
0.0
 11
-240.7146785610437
 21
-270.1663053051076
 31
0.0
  0
LINE
  5
1AF
330
71
100
AcDbEntity
  8
1
  6
Continuous
 62
     7
100
AcDbLine
 10
-222.5146785610436
 20
-265.9163053051075
 30
0.0
 11
-204.3146785610437
 21
-265.9163053051075
 31
0.0
  0
LINE
  5
1B0
330
71
100
AcDbEntity
  8
1
  6
Continuous
 62
     6
100
AcDbLine
 10
-240.7146785610437
 20
-244.6663053051075
 30
0.0
 11
-111.169874034292
 21
-244.6663053051075
 31
0.0
  0
ARC
  5
1B1
102
{ACAD_REACTORS
330
219
330
21A
102
}
330
71
100
AcDbEntity
  8
0
  6
Continuous
 62
     2
100
AcDbCircle
 10
-225.3230305620837
 20
-261.3459005431859
 30
0.0
 40
0.7717997786797395
100
AcDbArc
 50
321.8795802028443
 51
38.12041979715234
  0
ARC
  5
1B2
102
{ACAD_REACTORS
330
219
330
21A
102
}
330
71
100
AcDbEntity
  8
0
  6
Continuous
 62
     2
100
AcDbCircle
 10
-225.1232905257373
 20
-261.5026317213059
 30
0.0
 40
0.5179085730136858
100
AcDbArc
 50
218.1204197972015
 51
321.8795802028044
  0
ARC
  5
1B3
102
{ACAD_REACTORS
330
219
330
21A
102
}
330
71
100
AcDbEntity
  8
0
  6
Continuous
 62
     2
100
AcDbCircle
 10
-224.9235504893912
 20
-261.3459005431859
 30
0.0
 40
0.7717997786794137
100
AcDbArc
 50
141.8795802028307
 51
218.1204197971726
  0
ARC
  5
1B4
102
{ACAD_REACTORS
330
219
330
21A
102
}
330
71
100
AcDbEntity
  8
0
  6
Continuous
 62
     2
100
AcDbCircle
 10
-225.1232905257373
 20
-261.1891693650654
 30
0.0
 40
0.517908573013402
100
AcDbArc
 50
38.12041979714616
 51
141.879580202848
  0
ARC
  5
1B5
102
{ACAD_REACTORS
330
211
330
212
102
}
330
71
100
AcDbEntity
  8
0
  6
Continuous
 62
     2
100
AcDbCircle
 10
-228.1853046613011
 20
-262.756366908594
 30
0.0
 40
2.227384008973312
100
AcDbArc
 50
58.06909105004065
 51
71.55192388186792
  0
ARC
  5
1B6
102
{ACAD_REACTORS
330
211
330
212
102
}
330
71
100
AcDbEntity
  8
0
  6
Continuous
 62
     2
100
AcDbCircle
 10
-227.9235769603424
 20
-261.1408291138469
 30
0.0
 40
0.5115800601948293
100
AcDbArc
 50
113.3722778881945
 51
151.4785267423044
  0
ARC
  5
1B7
102
{ACAD_REACTORS
330
211
330
212
102
}
330
71
100
AcDbEntity
  8
0
  6
Continuous
 62
     2
100
AcDbCircle
 10
-227.5462197022621
 20
-261.3459005431859
 30
0.0
 40
0.9410597353332295
100
AcDbArc
 50
151.4785267422661
 51
208.5214732577066
  0
ARC
  5
1B8
102
{ACAD_REACTORS
330
211
330
212
102
}
330
71
100
AcDbEntity
  8
0
  6
Continuous
 62
     2
100
AcDbCircle
 10
-228.3431775363941
 20
-258.0332195979295
 30
0.0
 40
4.852596863498169
100
AcDbArc
 50
275.1581447696253
 51
285.9799912583529
  0
ARC
  5
1B9
102
{ACAD_REACTORS
330
211
330
212
102
}
330
71
100
AcDbEntity
  8
0
  6
Continuous
 62
     2
100
AcDbCircle
 10
-228.0543214416582
 20
-261.2331101811511
 30
0.0
 40
1.639695123939298
100
AcDbArc
 50
195.0618917770894
 51
275.1581447696406
  0
ARC
  5
1BA
102
{ACAD_REACTORS
330
211
330
212
102
}
330
71
100
AcDbEntity
  8
0
  6
Continuous
 62
     2
100
AcDbCircle
 10
-228.473449285121
 20
-261.3459005431859
 30
0.0
 40
1.205656168390862
100
AcDbArc
 50
164.9381082228754
 51
195.0618917770959
  0
ARC
  5
1BB
102
{ACAD_REACTORS
330
211
330
212
102
}
330
71
100
AcDbEntity
  8
0
  6
Continuous
 62
     2
100
AcDbCircle
 10
-228.0543214416582
 20
-261.4586909052208
 30
0.0
 40
1.639695123940509
100
AcDbArc
 50
84.84185523036136
 51
164.9381082228857
  0
ARC
  5
1BC
102
{ACAD_REACTORS
330
215
330
216
102
}
330
71
100
AcDbEntity
  8
0
  6
Continuous
 62
     2
100
AcDbCircle
 10
-232.8843356958201
 20
-260.3120737488316
 30
0.0
 40
0.315716923076599
100
AcDbArc
 50
115.374008678329
 51
180.0
  0
ARC
  5
1BD
102
{ACAD_REACTORS
330
215
330
216
102
}
330
71
100
AcDbEntity
  8
0
  6
Continuous
 62
     2
100
AcDbCircle
 10
-232.8843356958201
 20
-258.0937905488954
 30
0.0
 40
0.315716923076792
100
AcDbArc
 50
180.0
 51
244.6259913216578
  0
ARC
  5
1BE
102
{ACAD_REACTORS
330
215
330
216
102
}
330
71
100
AcDbEntity
  8
0
  6
Continuous
 62
     2
100
AcDbCircle
 10
-232.87871956051
 20
-259.1910902079577
 30
0.0
 40
2.018561131933266
100
AcDbArc
 50
269.8110329575866
 51
90.18896704241334
  0
ARC
  5
1BF
102
{ACAD_REACTORS
330
215
330
216
102
}
330
71
100
AcDbEntity
  8
0
  6
Continuous
 62
     2
100
AcDbCircle
 10
-232.8843356958201
 20
-260.8939251555266
 30
0.0
 40
0.315716923076792
100
AcDbArc
 50
180.0
 51
269.8110329574749
  0
ARC
  5
1C0
102
{ACAD_REACTORS
330
213
330
214
102
}
330
71
100
AcDbEntity
  8
0
  6
Continuous
 62
     2
100
AcDbCircle
 10
-211.8208754810894
 20
-261.1408291138469
 30
0.0
 40
0.5115800601944519
100
AcDbArc
 50
109.3371432194973
 51
151.4785267424257
  0
ARC
  5
1C1
102
{ACAD_REACTORS
330
213
330
214
102
}
330
71
100
AcDbEntity
  8
0
  6
Continuous
 62
     2
100
AcDbCircle
 10
-211.8208754810894
 20
-261.5509719725244
 30
0.0
 40
0.5115800601961216
100
AcDbArc
 50
208.5214732576805
 51
246.6277221118282
  0
ARC
  5
1C2
102
{ACAD_REACTORS
330
213
330
214
102
}
330
71
100
AcDbEntity
  8
0
  6
Continuous
 62
     2
100
AcDbCircle
 10
-212.3707478058668
 20
-261.3459005431859
 30
0.0
 40
1.205656168393085
100
AcDbArc
 50
164.9381082229038
 51
195.0618917770962
  0
ARC
  5
1C3
102
{ACAD_REACTORS
330
213
330
214
102
}
330
71
100
AcDbEntity
  8
0
  6
Continuous
 62
     2
100
AcDbCircle
 10
-211.9516199624052
 20
-261.4586909052208
 30
0.0
 40
1.639695123940214
100
AcDbArc
 50
90.0
 51
164.9381082228957
  0
ARC
  5
1C4
102
{ACAD_REACTORS
330
217
330
218
102
}
330
71
100
AcDbEntity
  8
0
  6
Continuous
 62
     2
100
AcDbCircle
 10
-221.378615055109
 20
-257.9867100670116
 30
0.0
 40
1.526904761905882
100
AcDbArc
 50
90.0
 51
270.0
  0
ARC
  5
1C5
102
{ACAD_REACTORS
330
21B
330
21C
102
}
330
71
100
AcDbEntity
  8
0
  6
Continuous
 62
     2
100
AcDbCircle
 10
-228.1213058003347
 20
-257.4757749752168
 30
0.0
 40
0.3528638246712035
100
AcDbArc
 50
270.0
 51
90.0
  0
ARC
  5
1C6
102
{ACAD_REACTORS
330
215
330
216
102
}
330
71
100
AcDbEntity
  8
0
  6
Continuous
 62
     2
100
AcDbCircle
 10
-235.4598843823518
 20
-257.4880777837404
 30
0.0
 40
0.3157169230760815
100
AcDbArc
 50
90.0
 51
180.0
  0
ARC
  5
1C7
102
{ACAD_REACTORS
330
215
330
216
102
}
330
71
100
AcDbEntity
  8
0
  6
Continuous
 62
     2
100
AcDbCircle
 10
-233.4614666737672
 20
-259.2029321488632
 30
0.0
 40
0.911897523557604
100
AcDbArc
 50
115.1944106485226
 51
244.8055893514911
  0
ARC
  5
1C8
102
{ACAD_REACTORS
330
215
330
216
102
}
330
71
100
AcDbEntity
  8
0
  6
Continuous
 62
     2
100
AcDbCircle
 10
-233.9840511213421
 20
-260.313761894926
 30
0.0
 40
0.315716923076593
100
AcDbArc
 50
0.0
 51
64.80558935146468
  0
ARC
  5
1C9
102
{ACAD_REACTORS
330
215
330
216
102
}
330
71
100
AcDbEntity
  8
0
  6
Continuous
 62
     2
100
AcDbCircle
 10
-236.0537790590983
 20
-262.4485606897079
 30
0.0
 40
0.4242446153828041
100
AcDbArc
 50
180.0
 51
270.0
  0
ARC
  5
1CA
102
{ACAD_REACTORS
330
217
330
218
102
}
330
71
100
AcDbEntity
  8
0
  6
Continuous
 62
     2
100
AcDbCircle
 10
-221.1623430449438
 20
-257.8299788888911
 30
0.0
 40
0.5179085730135266
100
AcDbArc
 50
38.12041979714334
 51
141.8795802028489
  0
ARC
  5
1CB
102
{ACAD_REACTORS
330
217
330
218
102
}
330
71
100
AcDbEntity
  8
0
  6
Continuous
 62
     2
100
AcDbCircle
 10
-220.9626030085975
 20
-257.9867100670116
 30
0.0
 40
0.7717997786796724
100
AcDbArc
 50
141.8795802028404
 51
218.1204197971562
  0
ARC
  5
1CC
102
{ACAD_REACTORS
330
219
330
21A
102
}
330
71
100
AcDbEntity
  8
0
  6
Continuous
 62
     2
100
AcDbCircle
 10
-225.1232905257373
 20
-260.8073255328826
 30
0.0
 40
2.065479772208444
100
AcDbArc
 50
242.4518518243419
 51
297.5481481756875
  0
ARC
  5
1CD
102
{ACAD_REACTORS
330
219
330
21A
102
}
330
71
100
AcDbEntity
  8
0
  6
Continuous
 62
     2
100
AcDbCircle
 10
-225.1232905257373
 20
-261.8844755534886
 30
0.0
 40
2.065479772208492
100
AcDbArc
 50
62.45185182430527
 51
117.5481481756654
  0
ARC
  5
1CE
102
{ACAD_REACTORS
330
219
330
21A
102
}
330
71
100
AcDbEntity
  8
0
  6
Continuous
 62
     2
100
AcDbCircle
 10
-225.4042304175706
 20
-261.3459005431859
 30
0.0
 40
1.458034083651476
100
AcDbArc
 50
117.548148175659
 51
242.45185182434
  0
ARC
  5
1CF
102
{ACAD_REACTORS
330
219
330
21A
102
}
330
71
100
AcDbEntity
  8
0
  6
Continuous
 62
     2
100
AcDbCircle
 10
-224.842350633904
 20
-261.3459005431859
 30
0.0
 40
1.458034083651977
100
AcDbArc
 50
297.5481481757016
 51
62.45185182429947
  0
ARC
  5
1D0
102
{ACAD_REACTORS
330
217
330
218
102
}
330
71
100
AcDbEntity
  8
0
  6
Continuous
 62
     2
100
AcDbCircle
 10
-221.1623430449438
 20
-258.143441245132
 30
0.0
 40
0.5179085730134372
100
AcDbArc
 50
218.1204197971511
 51
321.8795802028566
  0
ARC
  5
1D1
102
{ACAD_REACTORS
330
217
330
218
102
}
330
71
100
AcDbEntity
  8
0
  6
Continuous
 62
     2
100
AcDbCircle
 10
-221.3620830812899
 20
-257.9867100670116
 30
0.0
 40
0.7717997786795702
100
AcDbArc
 50
321.8795802028399
 51
38.12041979716347
  0
ARC
  5
1D2
102
{ACAD_REACTORS
330
215
330
216
102
}
330
71
100
AcDbEntity
  8
0
  6
Continuous
 62
     2
100
AcDbCircle
 10
-230.5804669683814
 20
-262.4485606897079
 30
0.0
 40
0.4242446153833157
100
AcDbArc
 50
270.0
 51
0.0
  0
ARC
  5
1D3
102
{ACAD_REACTORS
330
215
330
216
102
}
330
71
100
AcDbEntity
  8
0
  6
Continuous
 62
     2
100
AcDbCircle
 10
-230.5804669683814
 20
-256.8840499205077
 30
0.0
 40
0.4242446153837989
100
AcDbArc
 50
0.0
 51
90.0
  0
ARC
  5
1D4
102
{ACAD_REACTORS
330
215
330
216
102
}
330
71
100
AcDbEntity
  8
0
  6
Continuous
 62
     2
100
AcDbCircle
 10
-236.0537790590983
 20
-256.8840499205077
 30
0.0
 40
0.424244615383941
100
AcDbArc
 50
90.0
 51
180.0
  0
ARC
  5
1D5
102
{ACAD_REACTORS
330
215
330
216
102
}
330
71
100
AcDbEntity
  8
0
  6
Continuous
 62
     2
100
AcDbCircle
 10
-233.9840511213421
 20
-261.8445328264576
 30
0.0
 40
0.3157169230766499
100
AcDbArc
 50
270.0
 51
0.0
  0
ARC
  5
1D6
102
{ACAD_REACTORS
330
215
330
216
102
}
330
71
100
AcDbEntity
  8
0
  6
Continuous
 62
     2
100
AcDbCircle
 10
-233.9840511213421
 20
-258.092102402801
 30
0.0
 40
0.3157169230761203
100
AcDbArc
 50
295.1944106485397
 51
0.0
  0
ARC
  5
1D7
102
{ACAD_REACTORS
330
215
330
216
102
}
330
71
100
AcDbEntity
  8
0
  6
Continuous
 62
     2
100
AcDbCircle
 10
-233.9840511213421
 20
-257.4880777837404
 30
0.0
 40
0.315716923076593
100
AcDbArc
 50
0.0
 51
90.0
  0
ARC
  5
1D8
102
{ACAD_REACTORS
330
215
330
216
102
}
330
71
100
AcDbEntity
  8
0
  6
Continuous
 62
     2
100
AcDbCircle
 10
-235.4598843823518
 20
-261.8445328264576
 30
0.0
 40
0.3157169230755983
100
AcDbArc
 50
180.0
 51
270.0
  0
ARC
  5
1D9
102
{ACAD_REACTORS
330
21B
330
21C
102
}
330
71
100
AcDbEntity
  8
0
  6
Continuous
 62
     2
100
AcDbCircle
 10
-227.6798332740964
 20
-257.5151709464394
 30
0.0
 40
1.055365641333708
100
AcDbArc
 50
270.0
 51
90.0
  0
ARC
  5
1DA
102
{ACAD_REACTORS
330
213
330
214
102
}
330
71
100
AcDbEntity
  8
0
  6
Continuous
 62
     2
100
AcDbCircle
 10
-211.9516199624052
 20
-261.2331101811511
 30
0.0
 40
1.639695123940531
100
AcDbArc
 50
195.0618917771004
 51
275.1581447696762
  0
ARC
  5
1DB
102
{ACAD_REACTORS
330
213
330
214
102
}
330
71
100
AcDbEntity
  8
0
  6
Continuous
 62
     2
100
AcDbCircle
 10
-212.2404760571411
 20
-258.0332195979295
 30
0.0
 40
4.852596863498889
100
AcDbArc
 50
275.1581447696373
 51
285.9799912583396
  0
ARC
  5
1DC
102
{ACAD_REACTORS
330
213
330
214
102
}
330
71
100
AcDbEntity
  8
0
  6
Continuous
 62
     2
100
AcDbCircle
 10
-212.0826031820483
 20
-259.9354341777778
 30
0.0
 40
2.227384008972701
100
AcDbArc
 50
288.448076118137
 51
301.9309089499428
  0
ARC
  5
1DD
102
{ACAD_REACTORS
330
213
330
214
102
}
330
71
100
AcDbEntity
  8
0
  6
Continuous
 62
     2
100
AcDbCircle
 10
-211.6644354483863
 20
-261.1889799538144
 30
0.0
 40
0.9059297849852095
100
AcDbArc
 50
246.6277221118105
 51
288.4480761180857
  0
ARC
  5
1DE
102
{ACAD_REACTORS
330
213
330
214
102
}
330
71
100
AcDbEntity
  8
0
  6
Continuous
 62
     2
100
AcDbCircle
 10
-211.4435182230081
 20
-261.3459005431859
 30
0.0
 40
0.941059735334906
100
AcDbArc
 50
151.4785267423609
 51
208.5214732576695
  0
ARC
  5
1DF
102
{ACAD_REACTORS
330
213
330
214
102
}
330
71
100
AcDbEntity
  8
0
  6
Continuous
 62
     2
100
AcDbCircle
 10
-211.6742054829857
 20
-261.5587840942297
 30
0.0
 40
0.9545230068260935
100
AcDbArc
 50
90.0
 51
109.3371432194391
  0
ARC
  5
1E0
102
{ACAD_REACTORS
330
215
330
216
102
}
330
71
100
AcDbEntity
  8
0
  6
Continuous
 62
     2
100
AcDbCircle
 10
-232.8843356958201
 20
-257.4882552603885
 30
0.0
 40
0.315716923075957
100
AcDbArc
 50
90.18896704252538
 51
180.0
  0
ARC
  5
1E1
102
{ACAD_REACTORS
330
215
330
216
102
}
330
71
100
AcDbEntity
  8
0
  6
Continuous
 62
     2
100
AcDbCircle
 10
-233.4103783939079
 20
-259.2029321488632
 30
0.0
 40
0.9118481501443305
100
AcDbArc
 50
295.3740086781803
 51
64.625991321809
  0
ARC
  5
1E2
102
{ACAD_REACTORS
330
211
330
212
102
}
330
71
100
AcDbEntity
  8
0
  6
Continuous
 62
     2
100
AcDbCircle
 10
-228.1853046613011
 20
-259.9354341777772
 30
0.0
 40
2.227384008972746
100
AcDbArc
 50
288.4480761181312
 51
301.9309089499578
  0
ARC
  5
1E3
102
{ACAD_REACTORS
330
211
330
212
102
}
330
71
100
AcDbEntity
  8
0
  6
Continuous
 62
     2
100
AcDbCircle
 10
-227.7671369276403
 20
-261.1889799538144
 30
0.0
 40
0.9059297849848149
100
AcDbArc
 50
246.6277221118682
 51
288.4480761181545
  0
ARC
  5
1E4
102
{ACAD_REACTORS
330
211
330
212
102
}
330
71
100
AcDbEntity
  8
0
  6
Continuous
 62
     2
100
AcDbCircle
 10
-227.9235769603424
 20
-261.5509719725244
 30
0.0
 40
0.5115800601948034
100
AcDbArc
 50
208.5214732576956
 51
246.6277221118282
  0
ARC
  5
1E5
102
{ACAD_REACTORS
330
211
330
212
102
}
330
71
100
AcDbEntity
  8
0
  6
Continuous
 62
     2
100
AcDbCircle
 10
-227.7671369276403
 20
-261.5028211325575
 30
0.0
 40
0.9059297849853049
100
AcDbArc
 50
71.5519238818569
 51
113.3722778881304
  0
ARC
  5
1E6
102
{ACAD_REACTORS
330
211
330
212
102
}
330
71
100
AcDbEntity
  8
0
  6
Continuous
 62
     2
100
AcDbCircle
 10
-228.3431775363941
 20
-264.6585814884418
 30
0.0
 40
4.852596863498095
100
AcDbArc
 50
74.02000874164747
 51
84.84185523037475
  0
CIRCLE
  5
1E7
102
{ACAD_REACTORS
330
215
330
216
102
}
330
71
100
AcDbEntity
  8
0
  6
Continuous
 62
     2
100
AcDbCircle
 10
-233.4341934085807
 20
-259.2029321488632
 30
0.0
 40
0.4709789327785074
  0
CIRCLE
  5
1E8
330
71
100
AcDbEntity
  8
1
  6
Continuous
 62
     2
100
AcDbCircle
 10
-227.9780236744811
 20
-249.0413053051076
 30
0.0
 40
1.25
  0
CIRCLE
  5
1E9
330
71
100
AcDbEntity
  8
1
  6
Continuous
 62
     2
100
AcDbCircle
 10
-227.9780236744811
 20
-249.0413053051076
 30
0.0
 40
2.5
  0
TEXT
  5
1EA
330
71
100
AcDbEntity
  8
1
 62
     7
100
AcDbText
 10
-185.3411308390299
 20
-251.8663053051076
 30
0.0
 40
2.5
  1
/
 41
0.9
  7
CONVERTER_11
100
AcDbText
  0
TEXT
  5
1EC
330
71
100
AcDbEntity
  8
1
 62
     7
100
AcDbText
 10
-183.1847663419879
 20
-251.8663053051076
 30
0.0
 40
2.5
  1
01
 41
0.81
  7
CONVERTER_12
100
AcDbText
  0
TEXT
  5
1ED
330
71
100
AcDbEntity
  8
1
 62
     3
100
AcDbText
 10
-145.5882823159708
 20
-251.8663053051076
 30
0.0
 40
2.5
  1
04.04.2018
 41
0.81
  7
CONVERTER_12
100
AcDbText
  0
MTEXT
  5
1EE
330
71
100
AcDbEntity
  8
1
 62
     2
100
AcDbMText
 10
-145.5882823159708
 20
-245.6663053051076
 30
0.0
 40
1.8
 41
0.0
 71
     1
 72
     1
  1
date
  7
CONVERTER_11
 73
     1
 44
1.32052821128451
  0
MTEXT
  5
1EF
330
71
100
AcDbEntity
  8
1
 62
     2
100
AcDbMText
 10
-175.4146785610436
 20
-254.1663053051076
 30
0.0
 40
1.8
 41
0.0
 71
     1
 72
     1
  1
document-type
  7
CONVERTER_11
 73
     1
 44
1.20048019207683
  0
TEXT
  5
1F0
330
71
100
AcDbEntity
  8
1
 62
     3
100
AcDbText
 10
-175.4146785610436
 20
-260.3663053051076
 30
0.0
 40
2.5
  1
TECDOC 2D_Productdrawing
 41
0.81
  7
CONVERTER_12
100
AcDbText
  0
MTEXT
  5
1F2
330
71
100
AcDbEntity
  8
1
 62
     2
100
AcDbMText
 10
-203.2146785610437
 20
-245.6663053051075
 30
0.0
 40
1.8
 41
0.0
 71
     1
 72
     1
  1
document-No. / RI
  7
CONVERTER_13
 73
     1
 44
1.32052821128451
  0
TEXT
  5
1F3
330
71
100
AcDbEntity
  8
1
 62
     7
100
AcDbText
 10
-203.2146785610437
 20
-251.8663053051076
 30
0.0
 40
2.5
  1
01036525
 41
0.81
  7
CONVERTER_12
100
AcDbText
  0
MTEXT
  5
1F5
330
71
100
AcDbEntity
  8
1
 62
     3
100
AcDbMText
 10
-115.6290781751313
 20
-251.8663053051074
 30
0.0
 40
2.5
 41
0.0
 71
     8
 72
     1
  1
10:1
  7
CONVERTER_14
 73
     1
 44
1.32052821128451
  0
MTEXT
  5
1F6
330
71
100
AcDbEntity
  8
1
 62
     2
100
AcDbMText
 10
-118.9882823159709
 20
-245.6663053051075
 30
0.0
 40
1.8
 41
0.0
 71
     1
 72
     1
  1
scale
  7
CONVERTER_11
 73
     1
 44
1.20048019207683
  0
MTEXT
  5
1F7
330
71
100
AcDbEntity
  8
1
 62
     2
100
AcDbMText
 10
-203.2146785610437
 20
-254.1663053051075
 30
0.0
 40
1.8
 41
0.0
 71
     1
 72
     1
  1
ident.-No.
  7
CONVERTER_11
 73
     1
 44
1.20048019207683
  0
TEXT
  5
1F8
330
71
100
AcDbEntity
  8
1
 62
     7
100
AcDbText
 10
-202.8146785610439
 20
-260.3663053051076
 30
0.0
 40
2.5
  1
1401404
 41
0.81
  7
CONVERTER_12
100
AcDbText
  0
MTEXT
  5
1F9
330
71
100
AcDbEntity
  8
1
 62
     2
100
AcDbMText
 10
-275.1526932860912
 20
-257.4163053051076
 30
0.0
 40
2.0
 41
0.0
 71
     5
 72
     1
  1
General Information\P- Simplified representation\P- Document excluded from change process\P- Linear dimensions [mm]
  7
CONVERTER_11
 73
     1
 44
1.20048019207683
  0
MTEXT
  5
1FA
330
71
100
AcDbEntity
  8
1
 62
     7
100
AcDbMText
 10
-108.6698740342947
 20
-195.1663053051056
 30
0.0
 40
3.5
 41
0.0
 71
     5
 72
     1
  1
C
  7
CONVERTER_11
 73
     1
 44
1.20048019207683
  0
MTEXT
  5
1FB
330
71
100
AcDbEntity
  8
1
 62
     7
100
AcDbMText
 10
-108.6698740342947
 20
-92.66630530510747
 30
0.0
 40
3.5
 41
0.0
 71
     5
 72
     1
  1
A
  7
CONVERTER_11
 73
     1
 44
1.20048019207683
  0
MTEXT
  5
1FC
330
71
100
AcDbEntity
  8
1
 62
     7
100
AcDbMText
 10
-108.6698740342947
 20
-145.1663053051056
 30
0.0
 40
3.5
 41
0.0
 71
     5
 72
     1
  1
B
  7
CONVERTER_11
 73
     1
 44
1.20048019207683
  0
MTEXT
  5
1FD
330
71
100
AcDbEntity
  8
1
 62
     7
100
AcDbMText
 10
-108.6698740342947
 20
-247.6663053051075
 30
0.0
 40
3.5
 41
0.0
 71
     5
 72
     1
  1
D
  7
CONVERTER_11
 73
     1
 44
1.20048019207683
  0
MTEXT
  5
1FE
330
71
100
AcDbEntity
  8
1
 62
     7
100
AcDbMText
 10
-378.9198740342932
 20
-272.6663053051076
 30
0.0
 40
3.5
 41
0.0
 71
     5
 72
     1
  1
1
  7
CONVERTER_11
 73
     1
 44
1.20048019207683
  0
MTEXT
  5
1FF
330
71
100
AcDbEntity
  8
1
 62
     7
100
AcDbMText
 10
-329.6698740342936
 20
-272.6663053051076
 30
0.0
 40
3.5
 41
0.0
 71
     5
 72
     1
  1
2
  7
CONVERTER_11
 73
     1
 44
1.20048019207683
  0
MTEXT
  5
200
330
71
100
AcDbEntity
  8
1
 62
     7
100
AcDbMText
 10
-279.6698740342936
 20
-272.6663053051076
 30
0.0
 40
3.5
 41
0.0
 71
     5
 72
     1
  1
3
  7
CONVERTER_11
 73
     1
 44
1.20048019207683
  0
MTEXT
  5
201
330
71
100
AcDbEntity
  8
1
 62
     7
100
AcDbMText
 10
-229.6698740342937
 20
-272.6663053051076
 30
0.0
 40
3.5
 41
0.0
 71
     5
 72
     1
  1
4
  7
CONVERTER_11
 73
     1
 44
1.20048019207683
  0
MTEXT
  5
202
330
71
100
AcDbEntity
  8
1
 62
     7
100
AcDbMText
 10
-179.6698740342937
 20
-272.6663053051076
 30
0.0
 40
3.5
 41
0.0
 71
     5
 72
     1
  1
5
  7
CONVERTER_11
 73
     1
 44
1.20048019207683
  0
MTEXT
  5
203
330
71
100
AcDbEntity
  8
1
 62
     7
100
AcDbMText
 10
-130.4198740342945
 20
-272.6663053051076
 30
0.0
 40
3.5
 41
0.0
 71
     5
 72
     1
  1
6
  7
CONVERTER_11
 73
     1
 44
1.20048019207683
  0
MTEXT
  5
204
330
71
100
AcDbEntity
  8
1
 62
     7
100
AcDbMText
 10
-400.6698740342927
 20
-92.66630530510747
 30
0.0
 40
3.5
 41
0.0
 71
     5
 72
     1
  1
A
  7
CONVERTER_11
 73
     1
 44
1.20048019207683
  0
MTEXT
  5
205
330
71
100
AcDbEntity
  8
1
 62
     7
100
AcDbMText
 10
-400.6698740342927
 20
-145.1663053051075
 30
0.0
 40
3.5
 41
0.0
 71
     5
 72
     1
  1
B
  7
CONVERTER_11
 73
     1
 44
1.20048019207683
  0
MTEXT
  5
206
330
71
100
AcDbEntity
  8
1
 62
     7
100
AcDbMText
 10
-400.6698740342927
 20
-195.1663053051075
 30
0.0
 40
3.5
 41
0.0
 71
     5
 72
     1
  1
C
  7
CONVERTER_11
 73
     1
 44
1.20048019207683
  0
MTEXT
  5
207
330
71
100
AcDbEntity
  8
1
 62
     7
100
AcDbMText
 10
-400.6698740342927
 20
-247.6663053051075
 30
0.0
 40
3.5
 41
0.0
 71
     5
 72
     1
  1
D
  7
CONVERTER_11
 73
     1
 44
1.20048019207683
  0
MTEXT
  5
208
330
71
100
AcDbEntity
  8
1
 62
     3
100
AcDbMText
 10
-214.5146785610438
 20
-249.0413053051075
 30
0.0
 40
2.5
 41
0.0
 71
     5
 72
     1
  1
DIN A4
  7
CONVERTER_11
 73
     1
 44
1.20048019207683
  0
MTEXT
  5
209
330
71
100
AcDbEntity
  8
1
 62
     2
100
AcDbMText
 10
-203.3146785610437
 20
-262.6663053051075
 30
0.0
 40
1.8
 41
0.0
 71
     1
 72
     1
  1
description
  7
CONVERTER_11
 73
     1
 44
1.20048019207683
  0
MTEXT
  5
20A
330
71
100
AcDbEntity
  8
1
 62
     7
100
AcDbMText
 10
-157.7422762976682
 20
-266.9163053051072
 30
0.0
 40
3.0
 41
0.0
 71
     5
 72
     1
  1
BN WH
  7
CONVERTER_12
 73
     1
 44
1.20048019207683
  0
TEXT
  5
20B
330
71
100
AcDbEntity
  8
1
 62
     2
100
AcDbText
 10
-216.2793697512302
 20
-268.9163053051076
 30
0.0
 40
1.8
  1
1
 41
0.9
  7
CONVERTER_11
100
AcDbText
  0
TEXT
  5
20C
330
71
100
AcDbEntity
  8
1
 62
     2
100
AcDbText
 10
-231.0684135907017
 20
-268.9655539589095
 30
0.0
 40
1.8
  1
1
 41
0.9
  7
CONVERTER_11
100
AcDbText
  0
TEXT
  5
20D
330
71
100
AcDbEntity
  8
1
 62
     2
100
AcDbText
 10
-239.7146785610437
 20
-268.9253225200991
 30
0.0
 40
1.8
  1
page
 41
0.9
  7
CONVERTER_11
100
AcDbText
  0
TEXT
  5
20E
330
71
100
AcDbEntity
  8
1
 62
     2
100
AcDbText
 10
-221.5146785610438
 20
-268.9253225200991
 30
0.0
 40
1.8
  1
of
 41
0.9
  7
CONVERTER_11
100
AcDbText
  0
MTEXT
  5
20F
330
71
100
AcDbEntity
  8
1
 62
     3
100
AcDbMText
 10
-215.3116964094338
 20
-83.37499714980868
 30
0.0
 40
1.8
 41
0.0
 71
     7
 72
     1
  3
Transfer or duplication of this document as well as the utilisation or\Pcommunication of its content are not permitted unless express consent\Pis granted. Violations give rise to claims for damages. All rights reserved\Pin case of patent, utility mo
  1
del or design patent registrations.
  7
CONVERTER_11
 73
     1
 44
0.99639855942377
  0
MTEXT
  5
210
330
71
100
AcDbEntity
  8
1
 62
     3
100
AcDbMText
 10
-398.1648062482219
 20
-83.37499714980868
 30
0.0
 40
1.8
 41
0.0
 71
     7
 72
     1
  3
Weitergabe sowie Vervielf\U+00e4ltigung dieses Dokuments, Verwertung und \PMitteilung seines Inhalts sind verboten, soweit nicht ausdr\U+00fccklich gestattet. \PZuwiderhandlungen verpflichten zu Schadenersatz. Alle Rechte f\U+00fcr den Fall\Pder Pat
  1
ent-, Gebrauchsmuster- oder Designeintragung vorbehalten.
  7
CONVERTER_11
 73
     1
 44
0.99639855942377
  0
HATCH
  5
211
330
71
100
AcDbEntity
  8
1
  6
Continuous
 62
     2
100
AcDbHatch
 10
0.0
 20
0.0
 30
0.0
210
0.0
220
0.0
230
1.0
  2
_USER
 70
     0
 71
     1
 91
        1
 92
        1
 93
       14
 72
     2
 10
-228.473449285121
 20
-261.3459005431859
 40
1.205656168390862
 50
164.9381082228754
 51
195.0618917770959
 73
     1
 72
     2
 10
-228.0543214416582
 20
-261.2331101811511
 40
1.639695123939298
 50
195.0618917770894
 51
275.1581447696406
 73
     1
 72
     2
 10
-228.3431775363941
 20
-258.0332195979295
 40
4.852596863498169
 50
275.1581447696253
 51
285.9799912583529
 73
     1
 72
     1
 10
-227.0072496192763
 20
-262.6983019037303
 11
-227.0072496192763
 21
-261.8257848969271
 72
     2
 10
-228.1853046613011
 20
-259.9354341777772
 40
2.227384008972746
 50
58.06909105004218
 51
71.55192388186886
 73
     0
 72
     2
 10
-227.7671369276403
 20
-261.1889799538144
 40
0.9059297849848149
 50
71.5519238818455
 51
113.3722778881318
 73
     0
 72
     2
 10
-227.9235769603424
 20
-261.5509719725244
 40
0.5115800601948034
 50
113.3722778881718
 51
151.4785267423044
 73
     0
 72
     2
 10
-227.5462197022621
 20
-261.3459005431859
 40
0.9410597353332295
 50
151.4785267422934
 51
208.5214732577339
 73
     0
 72
     2
 10
-227.9235769603424
 20
-261.1408291138469
 40
0.5115800601948293
 50
208.5214732576956
 51
246.6277221118054
 73
     0
 72
     2
 10
-227.7671369276403
 20
-261.5028211325575
 40
0.9059297849853049
 50
246.6277221118696
 51
288.4480761181431
 73
     0
 72
     2
 10
-228.1853046613011
 20
-262.756366908594
 40
2.227384008973312
 50
288.4480761181321
 51
301.9309089499593
 73
     0
 72
     1
 10
-227.0072496192763
 20
-260.8660161894442
 11
-227.0072496192763
 21
-259.9934991826409
 72
     2
 10
-228.3431775363941
 20
-264.6585814884418
 40
4.852596863498095
 50
74.02000874164747
 51
84.84185523037475
 73
     1
 72
     2
 10
-228.0543214416582
 20
-261.4586909052208
 40
1.639695123940509
 50
84.84185523036136
 51
164.9381082228857
 73
     1
 97
       14
330
1E6
330
FF
330
1B5
330
1E5
330
1B6
330
1B7
330
1E4
330
1E3
330
1E2
330
100
330
1B8
330
1B9
330
1BA
330
1BB
 75
     1
 76
     0
 52
45.0
 41
0.1
 77
     0
 78
     1
 53
45.0
 43
0.0
 44
0.0
 45
-0.0707106781186548
 46
0.0707106781186548
 79
     0
 98
        1
 10
0.0
 20
0.0
  0
HATCH
  5
212
330
71
100
AcDbEntity
  8
1
  6
Continuous
 62
     2
100
AcDbHatch
 10
0.0
 20
0.0
 30
0.0
210
0.0
220
0.0
230
1.0
  2
_USER
 70
     0
 71
     1
 91
        1
 92
        1
 93
       14
 72
     2
 10
-228.473449285121
 20
-261.3459005431859
 40
1.205656168390862
 50
164.9381082228754
 51
195.0618917770959
 73
     1
 72
     2
 10
-228.0543214416582
 20
-261.2331101811511
 40
1.639695123939298
 50
195.0618917770894
 51
275.1581447696406
 73
     1
 72
     2
 10
-228.3431775363941
 20
-258.0332195979295
 40
4.852596863498169
 50
275.1581447696253
 51
285.9799912583529
 73
     1
 72
     1
 10
-227.0072496192763
 20
-262.6983019037303
 11
-227.0072496192763
 21
-261.8257848969271
 72
     2
 10
-228.1853046613011
 20
-259.9354341777772
 40
2.227384008972746
 50
58.06909105004218
 51
71.55192388186886
 73
     0
 72
     2
 10
-227.7671369276403
 20
-261.1889799538144
 40
0.9059297849848149
 50
71.5519238818455
 51
113.3722778881318
 73
     0
 72
     2
 10
-227.9235769603424
 20
-261.5509719725244
 40
0.5115800601948034
 50
113.3722778881718
 51
151.4785267423044
 73
     0
 72
     2
 10
-227.5462197022621
 20
-261.3459005431859
 40
0.9410597353332295
 50
151.4785267422934
 51
208.5214732577339
 73
     0
 72
     2
 10
-227.9235769603424
 20
-261.1408291138469
 40
0.5115800601948293
 50
208.5214732576956
 51
246.6277221118054
 73
     0
 72
     2
 10
-227.7671369276403
 20
-261.5028211325575
 40
0.9059297849853049
 50
246.6277221118696
 51
288.4480761181431
 73
     0
 72
     2
 10
-228.1853046613011
 20
-262.756366908594
 40
2.227384008973312
 50
288.4480761181321
 51
301.9309089499593
 73
     0
 72
     1
 10
-227.0072496192763
 20
-260.8660161894442
 11
-227.0072496192763
 21
-259.9934991826409
 72
     2
 10
-228.3431775363941
 20
-264.6585814884418
 40
4.852596863498095
 50
74.02000874164747
 51
84.84185523037475
 73
     1
 72
     2
 10
-228.0543214416582
 20
-261.4586909052208
 40
1.639695123940509
 50
84.84185523036136
 51
164.9381082228857
 73
     1
 97
       14
330
1E6
330
FF
330
1B5
330
1E5
330
1B6
330
1B7
330
1E4
330
1E3
330
1E2
330
100
330
1B8
330
1B9
330
1BA
330
1BB
 75
     1
 76
     0
 52
45.0
 41
0.1
 77
     0
 78
     1
 53
45.0
 43
0.0
 44
0.0
 45
-0.0707106781186548
 46
0.0707106781186548
 79
     0
 98
        1
 10
0.0
 20
0.0
  0
HATCH
  5
213
330
71
100
AcDbEntity
  8
1
  6
Continuous
 62
     2
100
AcDbHatch
 10
0.0
 20
0.0
 30
0.0
210
0.0
220
0.0
230
1.0
  2
_USER
 70
     0
 71
     1
 91
        1
 92
        1
 93
       18
 72
     2
 10
-211.9516199624052
 20
-261.4586909052208
 40
1.639695123940214
 50
90.0
 51
164.9381082228957
 73
     1
 72
     2
 10
-212.3707478058668
 20
-261.3459005431859
 40
1.205656168393085
 50
164.9381082229038
 51
195.0618917770962
 73
     1
 72
     2
 10
-211.9516199624052
 20
-261.2331101811511
 40
1.639695123940531
 50
195.0618917771004
 51
275.1581447696762
 73
     1
 72
     2
 10
-212.2404760571411
 20
-258.0332195979295
 40
4.852596863498889
 50
275.1581447696373
 51
285.9799912583396
 73
     1
 72
     1
 10
-210.9045481400243
 20
-262.6983019037309
 11
-210.9045481400243
 21
-261.8257848969275
 72
     2
 10
-212.0826031820483
 20
-259.9354341777778
 40
2.227384008972701
 50
58.06909105005724
 51
71.55192388186305
 73
     0
 72
     2
 10
-211.6644354483863
 20
-261.1889799538144
 40
0.9059297849852095
 50
71.5519238819143
 51
113.3722778881895
 73
     0
 72
     2
 10
-211.8208754810894
 20
-261.5509719725244
 40
0.5115800601961216
 50
113.3722778881718
 51
151.4785267423195
 73
     0
 72
     2
 10
-211.4435182230081
 20
-261.3459005431859
 40
0.941059735334906
 50
151.4785267423305
 51
208.5214732576391
 73
     0
 72
     2
 10
-211.8208754810894
 20
-261.1408291138469
 40
0.5115800601944519
 50
208.5214732575743
 51
250.6628567805027
 73
     0
 72
     2
 10
-211.6742054829857
 20
-261.5587840942297
 40
0.9545230068260935
 50
250.6628567805609
 51
270.0
 73
     0
 72
     1
 10
-211.6742054829857
 20
-260.6042610874036
 11
-210.5705661834176
 21
-260.6042610874036
 72
     1
 10
-210.5705661834176
 20
-260.6042610874036
 11
-210.5705661834176
 21
-262.8728053050912
 72
     1
 10
-210.5705661834176
 20
-262.8728053050912
 11
-209.3777734812499
 21
-262.8728053050912
 72
     1
 10
-209.3777734812499
 20
-262.8728053050912
 11
-209.3777734812499
 21
-260.6042610874036
 72
     1
 10
-209.3777734812499
 20
-260.6042610874036
 11
-208.5666744437766
 21
-260.6042610874036
 72
     1
 10
-208.5666744437766
 20
-260.6042610874036
 11
-208.5666744437766
 21
-259.8189957812801
 72
     1
 10
-208.5666744437766
 20
-259.8189957812801
 11
-211.9516199624052
 21
-259.8189957812806
 97
       18
330
165
330
164
330
163
330
162
330
167
330
101
330
1DF
330
1C0
330
1DE
330
1C1
330
1DD
330
1DC
330
102
330
1DB
330
1DA
330
1C2
330
1C3
330
166
 75
     1
 76
     0
 52
45.0
 41
0.1
 77
     0
 78
     1
 53
45.0
 43
0.0
 44
0.0
 45
-0.0707106781186548
 46
0.0707106781186548
 79
     0
 98
        1
 10
0.0
 20
0.0
  0
HATCH
  5
214
330
71
100
AcDbEntity
  8
1
  6
Continuous
 62
     2
100
AcDbHatch
 10
0.0
 20
0.0
 30
0.0
210
0.0
220
0.0
230
1.0
  2
_USER
 70
     0
 71
     1
 91
        1
 92
        1
 93
       18
 72
     2
 10
-211.9516199624052
 20
-261.4586909052208
 40
1.639695123940214
 50
90.0
 51
164.9381082228957
 73
     1
 72
     2
 10
-212.3707478058668
 20
-261.3459005431859
 40
1.205656168393085
 50
164.9381082229038
 51
195.0618917770962
 73
     1
 72
     2
 10
-211.9516199624052
 20
-261.2331101811511
 40
1.639695123940531
 50
195.0618917771004
 51
275.1581447696762
 73
     1
 72
     2
 10
-212.2404760571411
 20
-258.0332195979295
 40
4.852596863498889
 50
275.1581447696373
 51
285.9799912583396
 73
     1
 72
     1
 10
-210.9045481400243
 20
-262.6983019037309
 11
-210.9045481400243
 21
-261.8257848969275
 72
     2
 10
-212.0826031820483
 20
-259.9354341777778
 40
2.227384008972701
 50
58.06909105005724
 51
71.55192388186305
 73
     0
 72
     2
 10
-211.6644354483863
 20
-261.1889799538144
 40
0.9059297849852095
 50
71.5519238819143
 51
113.3722778881895
 73
     0
 72
     2
 10
-211.8208754810894
 20
-261.5509719725244
 40
0.5115800601961216
 50
113.3722778881718
 51
151.4785267423195
 73
     0
 72
     2
 10
-211.4435182230081
 20
-261.3459005431859
 40
0.941059735334906
 50
151.4785267423305
 51
208.5214732576391
 73
     0
 72
     2
 10
-211.8208754810894
 20
-261.1408291138469
 40
0.5115800601944519
 50
208.5214732575743
 51
250.6628567805027
 73
     0
 72
     2
 10
-211.6742054829857
 20
-261.5587840942297
 40
0.9545230068260935
 50
250.6628567805609
 51
270.0
 73
     0
 72
     1
 10
-211.6742054829857
 20
-260.6042610874036
 11
-210.5705661834176
 21
-260.6042610874036
 72
     1
 10
-210.5705661834176
 20
-260.6042610874036
 11
-210.5705661834176
 21
-262.8728053050912
 72
     1
 10
-210.5705661834176
 20
-262.8728053050912
 11
-209.3777734812499
 21
-262.8728053050912
 72
     1
 10
-209.3777734812499
 20
-262.8728053050912
 11
-209.3777734812499
 21
-260.6042610874036
 72
     1
 10
-209.3777734812499
 20
-260.6042610874036
 11
-208.5666744437766
 21
-260.6042610874036
 72
     1
 10
-208.5666744437766
 20
-260.6042610874036
 11
-208.5666744437766
 21
-259.8189957812801
 72
     1
 10
-208.5666744437766
 20
-259.8189957812801
 11
-211.9516199624052
 21
-259.8189957812806
 97
       18
330
165
330
164
330
163
330
162
330
167
330
101
330
1DF
330
1C0
330
1DE
330
1C1
330
1DD
330
1DC
330
102
330
1DB
330
1DA
330
1C2
330
1C3
330
166
 75
     1
 76
     0
 52
45.0
 41
0.1
 77
     0
 78
     1
 53
45.0
 43
0.0
 44
0.0
 45
-0.0707106781186548
 46
0.0707106781186548
 79
     0
 98
        1
 10
0.0
 20
0.0
  0
HATCH
  5
215
330
71
100
AcDbEntity
  8
1
  6
Continuous
 62
     2
100
AcDbHatch
 10
0.0
 20
0.0
 30
0.0
210
0.0
220
0.0
230
1.0
  2
_USER
 70
     0
 71
     1
 91
        4
 92
        1
 93
        8
 72
     2
 10
-236.0537790590983
 20
-256.8840499205077
 40
0.424244615383941
 50
90.0
 51
180.0
 73
     1
 72
     1
 10
-236.4780236744811
 20
-256.8840499205077
 11
-236.4780236744811
 21
-262.4485606897079
 72
     2
 10
-236.0537790590983
 20
-262.4485606897079
 40
0.4242446153828041
 50
180.0
 51
270.0
 73
     1
 72
     1
 10
-236.0537790590983
 20
-262.8728053050912
 11
-230.5804669683814
 21
-262.8728053050912
 72
     2
 10
-230.5804669683814
 20
-262.4485606897079
 40
0.4242446153833157
 50
270.0
 51
360.0
 73
     1
 72
     1
 10
-230.1562223529976
 20
-262.4485606897079
 11
-230.1562223529976
 21
-256.8840499205077
 72
     2
 10
-230.5804669683814
 20
-256.8840499205077
 40
0.4242446153837989
 50
0.0
 51
90.0
 73
     1
 72
     1
 10
-230.5804669683814
 20
-256.4598053051238
 11
-236.0537790590983
 21
-256.4598053051238
 97
        8
330
1D3
330
130
330
1D2
330
131
330
1C9
330
12E
330
1D4
330
12F
 92
       16
 93
        1
 72
     2
 10
-233.4341934085807
 20
-259.2029321488632
 40
0.4709789327785074
 50
0.0
 51
360.0
 73
     1
 97
        1
330
1E7
 92
       16
 93
        8
 72
     2
 10
-233.4103783939079
 20
-259.2029321488632
 40
0.9118481501443305
 50
295.3740086781803
 51
424.625991321809
 73
     1
 72
     2
 10
-232.8843356958201
 20
-258.0937905488954
 40
0.315716923076792
 50
115.3740086783423
 51
180.0
 73
     0
 72
     1
 10
-233.2000526188969
 20
-258.0937905488954
 11
-233.2000526188969
 21
-257.4882552603885
 72
     2
 10
-232.8843356958201
 20
-257.4882552603885
 40
0.315716923075957
 50
180.0
 51
269.8110329574747
 73
     0
 72
     2
 10
-232.87871956051
 20
-259.1910902079577
 40
2.018561131933266
 50
269.8110329575866
 51
450.1889670424133
 73
     0
 72
     2
 10
-232.8843356958201
 20
-260.8939251555266
 40
0.315716923076792
 50
90.18896704252514
 51
180.0
 73
     0
 72
     1
 10
-233.2000526188969
 20
-260.8939251555266
 11
-233.2000526188969
 21
-260.3120737488316
 72
     2
 10
-232.8843356958201
 20
-260.3120737488316
 40
0.315716923076599
 50
180.0
 51
244.625991321671
 73
     0
 97
        8
330
1E1
330
1BD
330
169
330
1E0
330
1BE
330
1BF
330
168
330
1BC
 92
       16
 93
       12
 72
     1
 10
-235.4598843823518
 20
-262.1602497495343
 11
-233.9840511213421
 21
-262.1602497495343
 72
     2
 10
-233.9840511213421
 20
-261.8445328264576
 40
0.3157169230766499
 50
270.0
 51
360.0
 73
     1
 72
     1
 10
-233.6683341982655
 20
-261.8445328264576
 11
-233.6683341982655
 21
-260.313761894926
 72
     2
 10
-233.9840511213421
 20
-260.313761894926
 40
0.315716923076593
 50
0.0
 51
64.80558935146468
 73
     1
 72
     2
 10
-233.4614666737672
 20
-259.2029321488632
 40
0.911897523557604
 50
115.1944106485089
 51
244.8055893514774
 73
     0
 72
     2
 10
-233.9840511213421
 20
-258.092102402801
 40
0.3157169230761203
 50
295.1944106485397
 51
360.0
 73
     1
 72
     1
 10
-233.6683341982655
 20
-258.092102402801
 11
-233.6683341982655
 21
-257.4880777837404
 72
     2
 10
-233.9840511213421
 20
-257.4880777837404
 40
0.315716923076593
 50
0.0
 51
90.0
 73
     1
 72
     1
 10
-233.9840511213421
 20
-257.1723608606643
 11
-235.4598843823518
 21
-257.1723608606643
 72
     2
 10
-235.4598843823518
 20
-257.4880777837404
 40
0.3157169230760815
 50
90.0
 51
180.0
 73
     1
 72
     1
 10
-235.7756013054274
 20
-257.4880777837404
 11
-235.7756013054274
 21
-261.8445328264576
 72
     2
 10
-235.4598843823518
 20
-261.8445328264576
 40
0.3157169230755983
 50
180.0
 51
270.0
 73
     1
 97
       12
330
135
330
1C6
330
134
330
1D7
330
133
330
1D6
330
1C7
330
1C8
330
132
330
1D5
330
12D
330
1D8
 75
     1
 76
     0
 52
45.0
 41
0.1
 77
     0
 78
     1
 53
45.0
 43
0.0
 44
0.0
 45
-0.0707106781186548
 46
0.0707106781186548
 79
     0
 98
        1
 10
0.0
 20
0.0
  0
HATCH
  5
216
330
71
100
AcDbEntity
  8
1
  6
Continuous
 62
     2
100
AcDbHatch
 10
0.0
 20
0.0
 30
0.0
210
0.0
220
0.0
230
1.0
  2
_USER
 70
     0
 71
     1
 91
        4
 92
        1
 93
        8
 72
     2
 10
-236.0537790590983
 20
-256.8840499205077
 40
0.424244615383941
 50
90.0
 51
180.0
 73
     1
 72
     1
 10
-236.4780236744811
 20
-256.8840499205077
 11
-236.4780236744811
 21
-262.4485606897079
 72
     2
 10
-236.0537790590983
 20
-262.4485606897079
 40
0.4242446153828041
 50
180.0
 51
270.0
 73
     1
 72
     1
 10
-236.0537790590983
 20
-262.8728053050912
 11
-230.5804669683814
 21
-262.8728053050912
 72
     2
 10
-230.5804669683814
 20
-262.4485606897079
 40
0.4242446153833157
 50
270.0
 51
360.0
 73
     1
 72
     1
 10
-230.1562223529976
 20
-262.4485606897079
 11
-230.1562223529976
 21
-256.8840499205077
 72
     2
 10
-230.5804669683814
 20
-256.8840499205077
 40
0.4242446153837989
 50
0.0
 51
90.0
 73
     1
 72
     1
 10
-230.5804669683814
 20
-256.4598053051238
 11
-236.0537790590983
 21
-256.4598053051238
 97
        8
330
1D3
330
130
330
1D2
330
131
330
1C9
330
12E
330
1D4
330
12F
 92
       16
 93
        1
 72
     2
 10
-233.4341934085807
 20
-259.2029321488632
 40
0.4709789327785074
 50
0.0
 51
360.0
 73
     1
 97
        1
330
1E7
 92
       16
 93
        8
 72
     2
 10
-233.4103783939079
 20
-259.2029321488632
 40
0.9118481501443305
 50
295.3740086781803
 51
424.625991321809
 73
     1
 72
     2
 10
-232.8843356958201
 20
-258.0937905488954
 40
0.315716923076792
 50
115.3740086783423
 51
180.0
 73
     0
 72
     1
 10
-233.2000526188969
 20
-258.0937905488954
 11
-233.2000526188969
 21
-257.4882552603885
 72
     2
 10
-232.8843356958201
 20
-257.4882552603885
 40
0.315716923075957
 50
180.0
 51
269.8110329574747
 73
     0
 72
     2
 10
-232.87871956051
 20
-259.1910902079577
 40
2.018561131933266
 50
269.8110329575866
 51
450.1889670424133
 73
     0
 72
     2
 10
-232.8843356958201
 20
-260.8939251555266
 40
0.315716923076792
 50
90.18896704252514
 51
180.0
 73
     0
 72
     1
 10
-233.2000526188969
 20
-260.8939251555266
 11
-233.2000526188969
 21
-260.3120737488316
 72
     2
 10
-232.8843356958201
 20
-260.3120737488316
 40
0.315716923076599
 50
180.0
 51
244.625991321671
 73
     0
 97
        8
330
1E1
330
1BD
330
169
330
1E0
330
1BE
330
1BF
330
168
330
1BC
 92
       16
 93
       12
 72
     1
 10
-235.4598843823518
 20
-262.1602497495343
 11
-233.9840511213421
 21
-262.1602497495343
 72
     2
 10
-233.9840511213421
 20
-261.8445328264576
 40
0.3157169230766499
 50
270.0
 51
360.0
 73
     1
 72
     1
 10
-233.6683341982655
 20
-261.8445328264576
 11
-233.6683341982655
 21
-260.313761894926
 72
     2
 10
-233.9840511213421
 20
-260.313761894926
 40
0.315716923076593
 50
0.0
 51
64.80558935146468
 73
     1
 72
     2
 10
-233.4614666737672
 20
-259.2029321488632
 40
0.911897523557604
 50
115.1944106485089
 51
244.8055893514774
 73
     0
 72
     2
 10
-233.9840511213421
 20
-258.092102402801
 40
0.3157169230761203
 50
295.1944106485397
 51
360.0
 73
     1
 72
     1
 10
-233.6683341982655
 20
-258.092102402801
 11
-233.6683341982655
 21
-257.4880777837404
 72
     2
 10
-233.9840511213421
 20
-257.4880777837404
 40
0.315716923076593
 50
0.0
 51
90.0
 73
     1
 72
     1
 10
-233.9840511213421
 20
-257.1723608606643
 11
-235.4598843823518
 21
-257.1723608606643
 72
     2
 10
-235.4598843823518
 20
-257.4880777837404
 40
0.3157169230760815
 50
90.0
 51
180.0
 73
     1
 72
     1
 10
-235.7756013054274
 20
-257.4880777837404
 11
-235.7756013054274
 21
-261.8445328264576
 72
     2
 10
-235.4598843823518
 20
-261.8445328264576
 40
0.3157169230755983
 50
180.0
 51
270.0
 73
     1
 97
       12
330
135
330
1C6
330
134
330
1D7
330
133
330
1D6
330
1C7
330
1C8
330
132
330
1D5
330
12D
330
1D8
 75
     1
 76
     0
 52
45.0
 41
0.1
 77
     0
 78
     1
 53
45.0
 43
0.0
 44
0.0
 45
-0.0707106781186548
 46
0.0707106781186548
 79
     0
 98
        1
 10
0.0
 20
0.0
  0
HATCH
  5
217
330
71
100
AcDbEntity
  8
1
  6
Continuous
 62
     2
100
AcDbHatch
 10
0.0
 20
0.0
 30
0.0
210
0.0
220
0.0
230
1.0
  2
_USER
 70
     0
 71
     1
 91
        2
 92
        1
 93
       12
 72
     2
 10
-221.378615055109
 20
-257.9867100670116
 40
1.526904761905882
 50
90.0
 51
270.0
 73
     1
 72
     1
 10
-221.378615055109
 20
-259.5136148289168
 11
-218.228295331328
 21
-259.5136148289168
 72
     1
 10
-218.228295331328
 20
-259.5136148289168
 11
-218.228295331328
 21
-258.8156012234744
 72
     1
 10
-218.228295331328
 20
-258.8156012234744
 11
-219.5642231577556
 21
-258.8156012234744
 72
     1
 10
-219.5642231577556
 20
-258.8156012234744
 11
-219.5642231577556
 21
-258.3357168697327
 72
     1
 10
-219.5642231577556
 20
-258.3357168697327
 11
-218.228295331328
 21
-258.3357168697327
 72
     1
 10
-218.228295331328
 20
-258.3357168697327
 11
-218.228295331328
 21
-257.6377032642904
 72
     1
 10
-218.228295331328
 20
-257.6377032642904
 11
-219.5642231577556
 21
-257.6377032642904
 72
     1
 10
-219.5642231577556
 20
-257.6377032642904
 11
-219.5642231577556
 21
-257.1578189105487
 72
     1
 10
-219.5642231577556
 20
-257.1578189105487
 11
-218.228295331328
 21
-257.1578189105487
 72
     1
 10
-218.228295331328
 20
-257.1578189105487
 11
-218.228295331328
 21
-256.4598053051057
 72
     1
 10
-218.228295331328
 20
-256.4598053051057
 11
-221.378615055109
 21
-256.4598053051057
 97
       12
330
124
330
11E
330
145
330
144
330
143
330
142
330
11F
330
120
330
121
330
122
330
1C4
330
123
 92
       16
 93
        4
 72
     2
 10
-220.9626030085975
 20
-257.9867100670116
 40
0.7717997786796724
 50
141.8795802028404
 51
218.1204197971562
 73
     1
 72
     2
 10
-221.1623430449438
 20
-258.143441245132
 40
0.5179085730134372
 50
218.1204197971511
 51
321.8795802028566
 73
     1
 72
     2
 10
-221.3620830812899
 20
-257.9867100670116
 40
0.7717997786795702
 50
321.8795802028399
 51
398.1204197971634
 73
     1
 72
     2
 10
-221.1623430449438
 20
-257.8299788888911
 40
0.5179085730135266
 50
38.12041979714334
 51
141.8795802028489
 73
     1
 97
        4
330
1D1
330
1D0
330
1CB
330
1CA
 75
     1
 76
     0
 52
45.0
 41
0.1
 77
     0
 78
     1
 53
45.0
 43
0.0
 44
0.0
 45
-0.0707106781186548
 46
0.0707106781186548
 79
     0
 98
        1
 10
0.0
 20
0.0
  0
HATCH
  5
218
330
71
100
AcDbEntity
  8
1
  6
Continuous
 62
     2
100
AcDbHatch
 10
0.0
 20
0.0
 30
0.0
210
0.0
220
0.0
230
1.0
  2
_USER
 70
     0
 71
     1
 91
        2
 92
        1
 93
       12
 72
     2
 10
-221.378615055109
 20
-257.9867100670116
 40
1.526904761905882
 50
90.0
 51
270.0
 73
     1
 72
     1
 10
-221.378615055109
 20
-259.5136148289168
 11
-218.228295331328
 21
-259.5136148289168
 72
     1
 10
-218.228295331328
 20
-259.5136148289168
 11
-218.228295331328
 21
-258.8156012234744
 72
     1
 10
-218.228295331328
 20
-258.8156012234744
 11
-219.5642231577556
 21
-258.8156012234744
 72
     1
 10
-219.5642231577556
 20
-258.8156012234744
 11
-219.5642231577556
 21
-258.3357168697327
 72
     1
 10
-219.5642231577556
 20
-258.3357168697327
 11
-218.228295331328
 21
-258.3357168697327
 72
     1
 10
-218.228295331328
 20
-258.3357168697327
 11
-218.228295331328
 21
-257.6377032642904
 72
     1
 10
-218.228295331328
 20
-257.6377032642904
 11
-219.5642231577556
 21
-257.6377032642904
 72
     1
 10
-219.5642231577556
 20
-257.6377032642904
 11
-219.5642231577556
 21
-257.1578189105487
 72
     1
 10
-219.5642231577556
 20
-257.1578189105487
 11
-218.228295331328
 21
-257.1578189105487
 72
     1
 10
-218.228295331328
 20
-257.1578189105487
 11
-218.228295331328
 21
-256.4598053051057
 72
     1
 10
-218.228295331328
 20
-256.4598053051057
 11
-221.378615055109
 21
-256.4598053051057
 97
       12
330
124
330
11E
330
145
330
144
330
143
330
142
330
11F
330
120
330
121
330
122
330
1C4
330
123
 92
       16
 93
        4
 72
     2
 10
-220.9626030085975
 20
-257.9867100670116
 40
0.7717997786796724
 50
141.8795802028404
 51
218.1204197971562
 73
     1
 72
     2
 10
-221.1623430449438
 20
-258.143441245132
 40
0.5179085730134372
 50
218.1204197971511
 51
321.8795802028566
 73
     1
 72
     2
 10
-221.3620830812899
 20
-257.9867100670116
 40
0.7717997786795702
 50
321.8795802028399
 51
398.1204197971634
 73
     1
 72
     2
 10
-221.1623430449438
 20
-257.8299788888911
 40
0.5179085730135266
 50
38.12041979714334
 51
141.8795802028489
 73
     1
 97
        4
330
1D1
330
1D0
330
1CB
330
1CA
 75
     1
 76
     0
 52
45.0
 41
0.1
 77
     0
 78
     1
 53
45.0
 43
0.0
 44
0.0
 45
-0.0707106781186548
 46
0.0707106781186548
 79
     0
 98
        1
 10
0.0
 20
0.0
  0
HATCH
  5
219
330
71
100
AcDbEntity
  8
1
  6
Continuous
 62
     2
100
AcDbHatch
 10
0.0
 20
0.0
 30
0.0
210
0.0
220
0.0
230
1.0
  2
_USER
 70
     0
 71
     1
 91
        2
 92
        1
 93
        4
 72
     2
 10
-225.4042304175706
 20
-261.3459005431859
 40
1.458034083651476
 50
117.548148175659
 51
242.45185182434
 73
     1
 72
     2
 10
-225.1232905257373
 20
-260.8073255328826
 40
2.065479772208444
 50
242.4518518243419
 51
297.5481481756875
 73
     1
 72
     2
 10
-224.842350633904
 20
-261.3459005431859
 40
1.458034083651977
 50
297.5481481757016
 51
422.4518518242994
 73
     1
 72
     2
 10
-225.1232905257373
 20
-261.8844755534886
 40
2.065479772208492
 50
62.45185182430527
 51
117.5481481756654
 73
     1
 97
        4
330
1CF
330
1CC
330
1CE
330
1CD
 92
       16
 93
        4
 72
     2
 10
-225.1232905257373
 20
-261.1891693650654
 40
0.517908573013402
 50
38.12041979714616
 51
141.879580202848
 73
     1
 72
     2
 10
-224.9235504893912
 20
-261.3459005431859
 40
0.7717997786794137
 50
141.8795802028307
 51
218.1204197971726
 73
     1
 72
     2
 10
-225.1232905257373
 20
-261.5026317213059
 40
0.5179085730136858
 50
218.1204197972015
 51
321.8795802028044
 73
     1
 72
     2
 10
-225.3230305620837
 20
-261.3459005431859
 40
0.7717997786797395
 50
321.8795802028443
 51
398.1204197971524
 73
     1
 97
        4
330
1B2
330
1B3
330
1B4
330
1B1
 75
     1
 76
     0
 52
45.0
 41
0.1
 77
     0
 78
     1
 53
45.0
 43
0.0
 44
0.0
 45
-0.0707106781186548
 46
0.0707106781186548
 79
     0
 98
        1
 10
0.0
 20
0.0
  0
HATCH
  5
21A
330
71
100
AcDbEntity
  8
1
  6
Continuous
 62
     2
100
AcDbHatch
 10
0.0
 20
0.0
 30
0.0
210
0.0
220
0.0
230
1.0
  2
_USER
 70
     0
 71
     1
 91
        2
 92
        1
 93
        4
 72
     2
 10
-225.4042304175706
 20
-261.3459005431859
 40
1.458034083651476
 50
117.548148175659
 51
242.45185182434
 73
     1
 72
     2
 10
-225.1232905257373
 20
-260.8073255328826
 40
2.065479772208444
 50
242.4518518243419
 51
297.5481481756875
 73
     1
 72
     2
 10
-224.842350633904
 20
-261.3459005431859
 40
1.458034083651977
 50
297.5481481757016
 51
422.4518518242994
 73
     1
 72
     2
 10
-225.1232905257373
 20
-261.8844755534886
 40
2.065479772208492
 50
62.45185182430527
 51
117.5481481756654
 73
     1
 97
        4
330
1CF
330
1CC
330
1CE
330
1CD
 92
       16
 93
        4
 72
     2
 10
-225.1232905257373
 20
-261.1891693650654
 40
0.517908573013402
 50
38.12041979714616
 51
141.879580202848
 73
     1
 72
     2
 10
-224.9235504893912
 20
-261.3459005431859
 40
0.7717997786794137
 50
141.8795802028307
 51
218.1204197971726
 73
     1
 72
     2
 10
-225.1232905257373
 20
-261.5026317213059
 40
0.5179085730136858
 50
218.1204197972015
 51
321.8795802028044
 73
     1
 72
     2
 10
-225.3230305620837
 20
-261.3459005431859
 40
0.7717997786797395
 50
321.8795802028443
 51
398.1204197971524
 73
     1
 97
        4
330
1B2
330
1B3
330
1B4
330
1B1
 75
     1
 76
     0
 52
45.0
 41
0.1
 77
     0
 78
     1
 53
45.0
 43
0.0
 44
0.0
 45
-0.0707106781186548
 46
0.0707106781186548
 79
     0
 98
        1
 10
0.0
 20
0.0
  0
HATCH
  5
21B
330
71
100
AcDbEntity
  8
1
  6
Continuous
 62
     2
100
AcDbHatch
 10
0.0
 20
0.0
 30
0.0
210
0.0
220
0.0
230
1.0
  2
_USER
 70
     0
 71
     1
 91
        2
 92
        1
 93
        6
 72
     1
 10
-229.6791052721308
 20
-256.4598053051057
 11
-229.6791052721308
 21
-259.5136148289168
 72
     1
 10
-229.6791052721308
 20
-259.5136148289168
 11
-228.4386008618766
 21
-259.5136148289168
 72
     1
 10
-228.4386008618766
 20
-259.5136148289168
 11
-228.4386008618766
 21
-258.5705365877731
 72
     1
 10
-228.4386008618766
 20
-258.5705365877731
 11
-227.6798332740964
 21
-258.5705365877731
 72
     2
 10
-227.6798332740964
 20
-257.5151709464394
 40
1.055365641333708
 50
270.0
 51
450.0
 73
     1
 72
     1
 10
-227.6798332740964
 20
-256.4598053051057
 11
-229.6791052721308
 21
-256.4598053051057
 97
        6
330
1D9
330
136
330
12C
330
12B
330
138
330
137
 92
       16
 93
        4
 72
     1
 10
-228.1213058003347
 20
-257.1229111505458
 11
-228.4386008618766
 21
-257.1229111505458
 72
     1
 10
-228.4386008618766
 20
-257.1229111505458
 11
-228.4386008618766
 21
-257.828638799888
 72
     1
 10
-228.4386008618766
 20
-257.828638799888
 11
-228.1213058003347
 21
-257.828638799888
 72
     2
 10
-228.1213058003347
 20
-257.4757749752168
 40
0.3528638246712035
 50
270.0
 51
450.0
 73
     1
 97
        4
330
139
330
12A
330
13A
330
1C5
 75
     1
 76
     0
 52
45.0
 41
0.1
 77
     0
 78
     1
 53
45.0
 43
0.0
 44
0.0
 45
-0.0707106781186548
 46
0.0707106781186548
 79
     0
 98
        1
 10
0.0
 20
0.0
  0
HATCH
  5
21C
330
71
100
AcDbEntity
  8
1
  6
Continuous
 62
     2
100
AcDbHatch
 10
0.0
 20
0.0
 30
0.0
210
0.0
220
0.0
230
1.0
  2
_USER
 70
     0
 71
     1
 91
        2
 92
        1
 93
        6
 72
     1
 10
-229.6791052721308
 20
-256.4598053051057
 11
-229.6791052721308
 21
-259.5136148289168
 72
     1
 10
-229.6791052721308
 20
-259.5136148289168
 11
-228.4386008618766
 21
-259.5136148289168
 72
     1
 10
-228.4386008618766
 20
-259.5136148289168
 11
-228.4386008618766
 21
-258.5705365877731
 72
     1
 10
-228.4386008618766
 20
-258.5705365877731
 11
-227.6798332740964
 21
-258.5705365877731
 72
     2
 10
-227.6798332740964
 20
-257.5151709464394
 40
1.055365641333708
 50
270.0
 51
450.0
 73
     1
 72
     1
 10
-227.6798332740964
 20
-256.4598053051057
 11
-229.6791052721308
 21
-256.4598053051057
 97
        6
330
1D9
330
136
330
12C
330
12B
330
138
330
137
 92
       16
 93
        4
 72
     1
 10
-228.1213058003347
 20
-257.1229111505458
 11
-228.4386008618766
 21
-257.1229111505458
 72
     1
 10
-228.4386008618766
 20
-257.1229111505458
 11
-228.4386008618766
 21
-257.828638799888
 72
     1
 10
-228.4386008618766
 20
-257.828638799888
 11
-228.1213058003347
 21
-257.828638799888
 72
     2
 10
-228.1213058003347
 20
-257.4757749752168
 40
0.3528638246712035
 50
270.0
 51
450.0
 73
     1
 97
        4
330
139
330
12A
330
13A
330
1C5
 75
     1
 76
     0
 52
45.0
 41
0.1
 77
     0
 78
     1
 53
45.0
 43
0.0
 44
0.0
 45
-0.0707106781186548
 46
0.0707106781186548
 79
     0
 98
        1
 10
0.0
 20
0.0
  0
HATCH
  5
21D
330
71
100
AcDbEntity
  8
1
  6
Continuous
 62
     2
100
AcDbHatch
 10
0.0
 20
0.0
 30
0.0
210
0.0
220
0.0
230
1.0
  2
_USER
 70
     0
 71
     1
 91
        1
 92
        1
 93
       12
 72
     1
 10
-210.0648220776976
 20
-256.4598053051057
 11
-208.6620978599503
 21
-256.4598053051057
 72
     1
 10
-208.6620978599503
 20
-256.4598053051057
 11
-209.9646274907169
 21
-257.9327558351419
 72
     1
 10
-209.9646274907169
 20
-257.9327558351419
 11
-208.5666744437766
 21
-259.5136148289168
 72
     1
 10
-208.5666744437766
 20
-259.5136148289168
 11
-209.9693986615249
 21
-259.5136148289168
 72
     1
 10
-209.9693986615249
 20
-259.5136148289168
 11
-210.6659895995904
 21
-258.7258830436232
 72
     1
 10
-210.6659895995904
 20
-258.7258830436232
 11
-211.362580537656
 21
-259.5136148289168
 72
     1
 10
-211.362580537656
 20
-259.5136148289168
 11
-212.7653047554043
 21
-259.5136148289168
 72
     1
 10
-212.7653047554043
 20
-259.5136148289168
 11
-211.367351708464
 21
-257.9327558351419
 72
     1
 10
-211.367351708464
 20
-257.9327558351419
 11
-212.6698813392314
 21
-256.4598053051057
 72
     1
 10
-212.6698813392314
 20
-256.4598053051057
 11
-211.2671571214821
 21
-256.4598053051057
 72
     1
 10
-211.2671571214821
 20
-256.4598053051057
 11
-210.6659895995904
 21
-257.1396286266612
 72
     1
 10
-210.6659895995904
 20
-257.1396286266612
 11
-210.0648220776976
 21
-256.4598053051057
 97
       12
330
105
330
15E
330
15D
330
15C
330
15B
330
106
330
107
330
103
330
104
330
161
330
160
330
15F
 75
     1
 76
     0
 52
45.0
 41
0.1
 77
     0
 78
     1
 53
45.0
 43
0.0
 44
0.0
 45
-0.0707106781186548
 46
0.0707106781186548
 79
     0
 98
        1
 10
0.0
 20
0.0
  0
HATCH
  5
21E
330
71
100
AcDbEntity
  8
1
  6
Continuous
 62
     2
100
AcDbHatch
 10
0.0
 20
0.0
 30
0.0
210
0.0
220
0.0
230
1.0
  2
_USER
 70
     0
 71
     1
 91
        1
 92
        1
 93
       12
 72
     1
 10
-210.0648220776976
 20
-256.4598053051057
 11
-208.6620978599503
 21
-256.4598053051057
 72
     1
 10
-208.6620978599503
 20
-256.4598053051057
 11
-209.9646274907169
 21
-257.9327558351419
 72
     1
 10
-209.9646274907169
 20
-257.9327558351419
 11
-208.5666744437766
 21
-259.5136148289168
 72
     1
 10
-208.5666744437766
 20
-259.5136148289168
 11
-209.9693986615249
 21
-259.5136148289168
 72
     1
 10
-209.9693986615249
 20
-259.5136148289168
 11
-210.6659895995904
 21
-258.7258830436232
 72
     1
 10
-210.6659895995904
 20
-258.7258830436232
 11
-211.362580537656
 21
-259.5136148289168
 72
     1
 10
-211.362580537656
 20
-259.5136148289168
 11
-212.7653047554043
 21
-259.5136148289168
 72
     1
 10
-212.7653047554043
 20
-259.5136148289168
 11
-211.367351708464
 21
-257.9327558351419
 72
     1
 10
-211.367351708464
 20
-257.9327558351419
 11
-212.6698813392314
 21
-256.4598053051057
 72
     1
 10
-212.6698813392314
 20
-256.4598053051057
 11
-211.2671571214821
 21
-256.4598053051057
 72
     1
 10
-211.2671571214821
 20
-256.4598053051057
 11
-210.6659895995904
 21
-257.1396286266612
 72
     1
 10
-210.6659895995904
 20
-257.1396286266612
 11
-210.0648220776976
 21
-256.4598053051057
 97
       12
330
105
330
15E
330
15D
330
15C
330
15B
330
106
330
107
330
103
330
104
330
161
330
160
330
15F
 75
     1
 76
     0
 52
45.0
 41
0.1
 77
     0
 78
     1
 53
45.0
 43
0.0
 44
0.0
 45
-0.0707106781186548
 46
0.0707106781186548
 79
     0
 98
        1
 10
0.0
 20
0.0
  0
HATCH
  5
21F
330
71
100
AcDbEntity
  8
1
  6
Continuous
 62
     2
100
AcDbHatch
 10
0.0
 20
0.0
 30
0.0
210
0.0
220
0.0
230
1.0
  2
_USER
 70
     0
 71
     1
 91
        1
 92
        1
 93
        4
 72
     1
 10
-212.8845840256211
 20
-256.4598053051057
 11
-212.8845840256211
 21
-259.5136148289168
 72
     1
 10
-212.8845840256211
 20
-259.5136148289168
 11
-214.125088435874
 21
-259.5136148289168
 72
     1
 10
-214.125088435874
 20
-259.5136148289168
 11
-214.125088435874
 21
-256.4598053051057
 72
     1
 10
-214.125088435874
 20
-256.4598053051057
 11
-212.8845840256211
 21
-256.4598053051057
 97
        4
330
159
330
108
330
158
330
15A
 75
     1
 76
     0
 52
45.0
 41
0.1
 77
     0
 78
     1
 53
45.0
 43
0.0
 44
0.0
 45
-0.0707106781186548
 46
0.0707106781186548
 79
     0
 98
        1
 10
0.0
 20
0.0
  0
HATCH
  5
220
330
71
100
AcDbEntity
  8
1
  6
Continuous
 62
     2
100
AcDbHatch
 10
0.0
 20
0.0
 30
0.0
210
0.0
220
0.0
230
1.0
  2
_USER
 70
     0
 71
     1
 91
        1
 92
        1
 93
        4
 72
     1
 10
-212.8845840256211
 20
-256.4598053051057
 11
-212.8845840256211
 21
-259.5136148289168
 72
     1
 10
-212.8845840256211
 20
-259.5136148289168
 11
-214.125088435874
 21
-259.5136148289168
 72
     1
 10
-214.125088435874
 20
-259.5136148289168
 11
-214.125088435874
 21
-256.4598053051057
 72
     1
 10
-214.125088435874
 20
-256.4598053051057
 11
-212.8845840256211
 21
-256.4598053051057
 97
        4
330
159
330
108
330
158
330
15A
 75
     1
 76
     0
 52
45.0
 41
0.1
 77
     0
 78
     1
 53
45.0
 43
0.0
 44
0.0
 45
-0.0707106781186548
 46
0.0707106781186548
 79
     0
 98
        1
 10
0.0
 20
0.0
  0
HATCH
  5
221
330
71
100
AcDbEntity
  8
1
  6
Continuous
 62
     2
100
AcDbHatch
 10
0.0
 20
0.0
 30
0.0
210
0.0
220
0.0
230
1.0
  2
_USER
 70
     0
 71
     1
 91
        2
 92
        1
 93
        8
 72
     1
 10
-213.2750280291531
 20
-262.8728053050912
 11
-214.5155324394071
 21
-262.8728053050912
 72
     1
 10
-214.5155324394071
 20
-262.8728053050912
 11
-214.7270124928828
 21
-262.3318447608733
 72
     1
 10
-214.7270124928828
 20
-262.3318447608733
 11
-215.8594540695567
 21
-262.3318447608733
 72
     1
 10
-215.8594540695567
 20
-262.3318447608733
 11
-216.0709341230325
 21
-262.8728053050912
 72
     1
 10
-216.0709341230325
 20
-262.8728053050912
 11
-217.3114385332854
 21
-262.8728053050912
 72
     1
 10
-217.3114385332854
 20
-262.8728053050912
 11
-215.9134854863461
 21
-259.8189957812801
 72
     1
 10
-215.9134854863461
 20
-259.8189957812801
 11
-214.6729810760934
 21
-259.8189957812801
 72
     1
 10
-214.6729810760934
 20
-259.8189957812801
 11
-213.2750280291531
 21
-262.8728053050912
 97
        8
330
154
330
10E
330
153
330
156
330
10B
330
155
330
10C
330
10D
 92
       16
 93
        3
 72
     1
 10
-215.5933985184117
 20
-261.6512814955667
 11
-214.9930680440291
 21
-261.6512814955667
 72
     1
 10
-214.9930680440291
 20
-261.6512814955667
 11
-215.2932332812192
 21
-260.88346652958
 72
     1
 10
-215.2932332812192
 20
-260.88346652958
 11
-215.5933985184117
 21
-261.6512814955667
 97
        3
330
10A
330
109
330
157
 75
     1
 76
     0
 52
45.0
 41
0.1
 77
     0
 78
     1
 53
45.0
 43
0.0
 44
0.0
 45
-0.0707106781186548
 46
0.0707106781186548
 79
     0
 98
        1
 10
0.0
 20
0.0
  0
HATCH
  5
222
330
71
100
AcDbEntity
  8
1
  6
Continuous
 62
     2
100
AcDbHatch
 10
0.0
 20
0.0
 30
0.0
210
0.0
220
0.0
230
1.0
  2
_USER
 70
     0
 71
     1
 91
        2
 92
        1
 93
        8
 72
     1
 10
-213.2750280291531
 20
-262.8728053050912
 11
-214.5155324394071
 21
-262.8728053050912
 72
     1
 10
-214.5155324394071
 20
-262.8728053050912
 11
-214.7270124928828
 21
-262.3318447608733
 72
     1
 10
-214.7270124928828
 20
-262.3318447608733
 11
-215.8594540695567
 21
-262.3318447608733
 72
     1
 10
-215.8594540695567
 20
-262.3318447608733
 11
-216.0709341230325
 21
-262.8728053050912
 72
     1
 10
-216.0709341230325
 20
-262.8728053050912
 11
-217.3114385332854
 21
-262.8728053050912
 72
     1
 10
-217.3114385332854
 20
-262.8728053050912
 11
-215.9134854863461
 21
-259.8189957812801
 72
     1
 10
-215.9134854863461
 20
-259.8189957812801
 11
-214.6729810760934
 21
-259.8189957812801
 72
     1
 10
-214.6729810760934
 20
-259.8189957812801
 11
-213.2750280291531
 21
-262.8728053050912
 97
        8
330
154
330
10E
330
153
330
156
330
10B
330
155
330
10C
330
10D
 92
       16
 93
        3
 72
     1
 10
-215.5933985184117
 20
-261.6512814955667
 11
-214.9930680440291
 21
-261.6512814955667
 72
     1
 10
-214.9930680440291
 20
-261.6512814955667
 11
-215.2932332812192
 21
-260.88346652958
 72
     1
 10
-215.2932332812192
 20
-260.88346652958
 11
-215.5933985184117
 21
-261.6512814955667
 97
        3
330
10A
330
109
330
157
 75
     1
 76
     0
 52
45.0
 41
0.1
 77
     0
 78
     1
 53
45.0
 43
0.0
 44
0.0
 45
-0.0707106781186548
 46
0.0707106781186548
 79
     0
 98
        1
 10
0.0
 20
0.0
  0
HATCH
  5
223
330
71
100
AcDbEntity
  8
1
  6
Continuous
 62
     2
100
AcDbHatch
 10
0.0
 20
0.0
 30
0.0
210
0.0
220
0.0
230
1.0
  2
_USER
 70
     0
 71
     1
 91
        1
 92
        1
 93
        8
 72
     1
 10
-219.4689506724677
 20
-259.8189957812801
 11
-219.4689506724677
 21
-260.6042610874036
 72
     1
 10
-219.4689506724677
 20
-260.6042610874036
 11
-218.6578516349931
 21
-260.6042610874036
 72
     1
 10
-218.6578516349931
 20
-260.6042610874036
 11
-218.6578516349931
 21
-262.8728053050912
 72
     1
 10
-218.6578516349931
 20
-262.8728053050912
 11
-217.4650589328265
 21
-262.8728053050912
 72
     1
 10
-217.4650589328265
 20
-262.8728053050912
 11
-217.4650589328265
 21
-260.6042610874036
 72
     1
 10
-217.4650589328265
 20
-260.6042610874036
 11
-216.653959895354
 21
-260.6042610874036
 72
     1
 10
-216.653959895354
 20
-260.6042610874036
 11
-216.653959895354
 21
-259.8189957812801
 72
     1
 10
-216.653959895354
 20
-259.8189957812801
 11
-219.4689506724677
 21
-259.8189957812801
 97
        8
330
150
330
14F
330
14E
330
10F
330
110
330
152
330
111
330
151
 75
     1
 76
     0
 52
45.0
 41
0.1
 77
     0
 78
     1
 53
45.0
 43
0.0
 44
0.0
 45
-0.0707106781186548
 46
0.0707106781186548
 79
     0
 98
        1
 10
0.0
 20
0.0
  0
HATCH
  5
224
330
71
100
AcDbEntity
  8
1
  6
Continuous
 62
     2
100
AcDbHatch
 10
0.0
 20
0.0
 30
0.0
210
0.0
220
0.0
230
1.0
  2
_USER
 70
     0
 71
     1
 91
        1
 92
        1
 93
        8
 72
     1
 10
-219.4689506724677
 20
-259.8189957812801
 11
-219.4689506724677
 21
-260.6042610874036
 72
     1
 10
-219.4689506724677
 20
-260.6042610874036
 11
-218.6578516349931
 21
-260.6042610874036
 72
     1
 10
-218.6578516349931
 20
-260.6042610874036
 11
-218.6578516349931
 21
-262.8728053050912
 72
     1
 10
-218.6578516349931
 20
-262.8728053050912
 11
-217.4650589328265
 21
-262.8728053050912
 72
     1
 10
-217.4650589328265
 20
-262.8728053050912
 11
-217.4650589328265
 21
-260.6042610874036
 72
     1
 10
-217.4650589328265
 20
-260.6042610874036
 11
-216.653959895354
 21
-260.6042610874036
 72
     1
 10
-216.653959895354
 20
-260.6042610874036
 11
-216.653959895354
 21
-259.8189957812801
 72
     1
 10
-216.653959895354
 20
-259.8189957812801
 11
-219.4689506724677
 21
-259.8189957812801
 97
        8
330
150
330
14F
330
14E
330
10F
330
110
330
152
330
111
330
151
 75
     1
 76
     0
 52
45.0
 41
0.1
 77
     0
 78
     1
 53
45.0
 43
0.0
 44
0.0
 45
-0.0707106781186548
 46
0.0707106781186548
 79
     0
 98
        1
 10
0.0
 20
0.0
  0
HATCH
  5
225
330
71
100
AcDbEntity
  8
1
  6
Continuous
 62
     2
100
AcDbHatch
 10
0.0
 20
0.0
 30
0.0
210
0.0
220
0.0
230
1.0
  2
_USER
 70
     0
 71
     1
 91
        1
 92
        1
 93
       10
 72
     1
 10
-216.7969440887285
 20
-256.4598053051057
 11
-217.9897367908951
 21
-256.4598053051057
 72
     1
 10
-217.9897367908951
 20
-256.4598053051057
 11
-217.9897367908951
 21
-259.5136148289168
 72
     1
 10
-217.9897367908951
 20
-259.5136148289168
 11
-216.7969440887285
 21
-259.5136148289168
 72
     1
 10
-216.7969440887285
 20
-259.5136148289168
 11
-216.7969440887285
 21
-258.2048393187122
 72
     1
 10
-216.7969440887285
 20
-258.2048393187122
 11
-215.5564396784745
 21
-259.5136148289168
 72
     1
 10
-215.5564396784745
 20
-259.5136148289168
 11
-214.3636469763079
 21
-259.5136148289168
 72
     1
 10
-214.3636469763079
 20
-259.5136148289168
 11
-214.3636469763079
 21
-256.4598053051057
 72
     1
 10
-214.3636469763079
 20
-256.4598053051057
 11
-215.5564396784745
 21
-256.4598053051057
 72
     1
 10
-215.5564396784745
 20
-256.4598053051057
 11
-215.5564396784745
 21
-257.7685808153109
 72
     1
 10
-215.5564396784745
 20
-257.7685808153109
 11
-216.7969440887285
 21
-256.4598053051057
 97
       10
330
14A
330
114
330
115
330
116
330
117
330
14D
330
112
330
14C
330
14B
330
113
 75
     1
 76
     0
 52
45.0
 41
0.1
 77
     0
 78
     1
 53
45.0
 43
0.0
 44
0.0
 45
-0.0707106781186548
 46
0.0707106781186548
 79
     0
 98
        1
 10
0.0
 20
0.0
  0
HATCH
  5
226
330
71
100
AcDbEntity
  8
1
  6
Continuous
 62
     2
100
AcDbHatch
 10
0.0
 20
0.0
 30
0.0
210
0.0
220
0.0
230
1.0
  2
_USER
 70
     0
 71
     1
 91
        1
 92
        1
 93
       10
 72
     1
 10
-216.7969440887285
 20
-256.4598053051057
 11
-217.9897367908951
 21
-256.4598053051057
 72
     1
 10
-217.9897367908951
 20
-256.4598053051057
 11
-217.9897367908951
 21
-259.5136148289168
 72
     1
 10
-217.9897367908951
 20
-259.5136148289168
 11
-216.7969440887285
 21
-259.5136148289168
 72
     1
 10
-216.7969440887285
 20
-259.5136148289168
 11
-216.7969440887285
 21
-258.2048393187122
 72
     1
 10
-216.7969440887285
 20
-258.2048393187122
 11
-215.5564396784745
 21
-259.5136148289168
 72
     1
 10
-215.5564396784745
 20
-259.5136148289168
 11
-214.3636469763079
 21
-259.5136148289168
 72
     1
 10
-214.3636469763079
 20
-259.5136148289168
 11
-214.3636469763079
 21
-256.4598053051057
 72
     1
 10
-214.3636469763079
 20
-256.4598053051057
 11
-215.5564396784745
 21
-256.4598053051057
 72
     1
 10
-215.5564396784745
 20
-256.4598053051057
 11
-215.5564396784745
 21
-257.7685808153109
 72
     1
 10
-215.5564396784745
 20
-257.7685808153109
 11
-216.7969440887285
 21
-256.4598053051057
 97
       10
330
14A
330
114
330
115
330
116
330
117
330
14D
330
112
330
14C
330
14B
330
113
 75
     1
 76
     0
 52
45.0
 41
0.1
 77
     0
 78
     1
 53
45.0
 43
0.0
 44
0.0
 45
-0.0707106781186548
 46
0.0707106781186548
 79
     0
 98
        1
 10
0.0
 20
0.0
  0
HATCH
  5
227
330
71
100
AcDbEntity
  8
1
  6
Continuous
 62
     2
100
AcDbHatch
 10
0.0
 20
0.0
 30
0.0
210
0.0
220
0.0
230
1.0
  2
_USER
 70
     0
 71
     1
 91
        1
 92
        1
 93
       10
 72
     1
 10
-222.0453829091472
 20
-259.8189957812801
 11
-223.2381756113147
 21
-259.8189957812801
 72
     1
 10
-223.2381756113147
 20
-259.8189957812801
 11
-223.2381756113147
 21
-262.8728053050912
 72
     1
 10
-223.2381756113147
 20
-262.8728053050912
 11
-222.0453829091472
 21
-262.8728053050912
 72
     1
 10
-222.0453829091472
 20
-262.8728053050912
 11
-222.0453829091472
 21
-261.5640297948866
 72
     1
 10
-222.0453829091472
 20
-261.5640297948866
 11
-220.8048784988943
 21
-262.8728053050912
 72
     1
 10
-220.8048784988943
 20
-262.8728053050912
 11
-219.6120857967279
 21
-262.8728053050912
 72
     1
 10
-219.6120857967279
 20
-262.8728053050912
 11
-219.6120857967279
 21
-259.8189957812801
 72
     1
 10
-219.6120857967279
 20
-259.8189957812801
 11
-220.8048784988943
 21
-259.8189957812801
 72
     1
 10
-220.8048784988943
 20
-259.8189957812801
 11
-220.8048784988943
 21
-261.1277712914852
 72
     1
 10
-220.8048784988943
 20
-261.1277712914852
 11
-222.0453829091472
 21
-259.8189957812801
 97
       10
330
119
330
11A
330
11B
330
147
330
11C
330
11D
330
146
330
149
330
148
330
118
 75
     1
 76
     0
 52
45.0
 41
0.1
 77
     0
 78
     1
 53
45.0
 43
0.0
 44
0.0
 45
-0.0707106781186548
 46
0.0707106781186548
 79
     0
 98
        1
 10
0.0
 20
0.0
  0
HATCH
  5
228
330
71
100
AcDbEntity
  8
1
  6
Continuous
 62
     2
100
AcDbHatch
 10
0.0
 20
0.0
 30
0.0
210
0.0
220
0.0
230
1.0
  2
_USER
 70
     0
 71
     1
 91
        1
 92
        1
 93
       10
 72
     1
 10
-222.0453829091472
 20
-259.8189957812801
 11
-223.2381756113147
 21
-259.8189957812801
 72
     1
 10
-223.2381756113147
 20
-259.8189957812801
 11
-223.2381756113147
 21
-262.8728053050912
 72
     1
 10
-223.2381756113147
 20
-262.8728053050912
 11
-222.0453829091472
 21
-262.8728053050912
 72
     1
 10
-222.0453829091472
 20
-262.8728053050912
 11
-222.0453829091472
 21
-261.5640297948866
 72
     1
 10
-222.0453829091472
 20
-261.5640297948866
 11
-220.8048784988943
 21
-262.8728053050912
 72
     1
 10
-220.8048784988943
 20
-262.8728053050912
 11
-219.6120857967279
 21
-262.8728053050912
 72
     1
 10
-219.6120857967279
 20
-262.8728053050912
 11
-219.6120857967279
 21
-259.8189957812801
 72
     1
 10
-219.6120857967279
 20
-259.8189957812801
 11
-220.8048784988943
 21
-259.8189957812801
 72
     1
 10
-220.8048784988943
 20
-259.8189957812801
 11
-220.8048784988943
 21
-261.1277712914852
 72
     1
 10
-220.8048784988943
 20
-261.1277712914852
 11
-222.0453829091472
 21
-259.8189957812801
 97
       10
330
119
330
11A
330
11B
330
147
330
11C
330
11D
330
146
330
149
330
148
330
118
 75
     1
 76
     0
 52
45.0
 41
0.1
 77
     0
 78
     1
 53
45.0
 43
0.0
 44
0.0
 45
-0.0707106781186548
 46
0.0707106781186548
 79
     0
 98
        1
 10
0.0
 20
0.0
  0
HATCH
  5
229
330
71
100
AcDbEntity
  8
1
  6
Continuous
 62
     2
100
AcDbHatch
 10
0.0
 20
0.0
 30
0.0
210
0.0
220
0.0
230
1.0
  2
_USER
 70
     0
 71
     1
 91
        1
 92
        1
 93
       12
 72
     1
 10
-223.0471778480826
 20
-256.4598053051057
 11
-223.0471778480826
 21
-259.5136148289168
 72
     1
 10
-223.0471778480826
 20
-259.5136148289168
 11
-224.239970550249
 21
-259.5136148289168
 72
     1
 10
-224.239970550249
 20
-259.5136148289168
 11
-224.239970550249
 21
-258.3793427200731
 72
     1
 10
-224.239970550249
 20
-258.3793427200731
 11
-225.2896281281564
 21
-258.3793427200731
 72
     1
 10
-225.2896281281564
 20
-258.3793427200731
 11
-225.2896281281564
 21
-259.5136148289168
 72
     1
 10
-225.2896281281564
 20
-259.5136148289168
 11
-226.482420830323
 21
-259.5136148289168
 72
     1
 10
-226.482420830323
 20
-259.5136148289168
 11
-226.482420830323
 21
-256.4598053051057
 72
     1
 10
-226.482420830323
 20
-256.4598053051057
 11
-225.2896281281564
 21
-256.4598053051057
 72
     1
 10
-225.2896281281564
 20
-256.4598053051057
 11
-225.2896281281564
 21
-257.5286386384403
 72
     1
 10
-225.2896281281564
 20
-257.5286386384403
 11
-224.239970550249
 21
-257.5286386384403
 72
     1
 10
-224.239970550249
 20
-257.5286386384403
 11
-224.239970550249
 21
-256.4598053051057
 72
     1
 10
-224.239970550249
 20
-256.4598053051057
 11
-223.0471778480826
 21
-256.4598053051057
 97
       12
330
141
330
140
330
13F
330
127
330
128
330
13E
330
129
330
13D
330
13C
330
13B
330
125
330
126
 75
     1
 76
     0
 52
45.0
 41
0.1
 77
     0
 78
     1
 53
45.0
 43
0.0
 44
0.0
 45
-0.0707106781186548
 46
0.0707106781186548
 79
     0
 98
        1
 10
0.0
 20
0.0
  0
HATCH
  5
22A
330
71
100
AcDbEntity
  8
1
  6
Continuous
 62
     2
100
AcDbHatch
 10
0.0
 20
0.0
 30
0.0
210
0.0
220
0.0
230
1.0
  2
_USER
 70
     0
 71
     1
 91
        1
 92
        1
 93
       12
 72
     1
 10
-223.0471778480826
 20
-256.4598053051057
 11
-223.0471778480826
 21
-259.5136148289168
 72
     1
 10
-223.0471778480826
 20
-259.5136148289168
 11
-224.239970550249
 21
-259.5136148289168
 72
     1
 10
-224.239970550249
 20
-259.5136148289168
 11
-224.239970550249
 21
-258.3793427200731
 72
     1
 10
-224.239970550249
 20
-258.3793427200731
 11
-225.2896281281564
 21
-258.3793427200731
 72
     1
 10
-225.2896281281564
 20
-258.3793427200731
 11
-225.2896281281564
 21
-259.5136148289168
 72
     1
 10
-225.2896281281564
 20
-259.5136148289168
 11
-226.482420830323
 21
-259.5136148289168
 72
     1
 10
-226.482420830323
 20
-259.5136148289168
 11
-226.482420830323
 21
-256.4598053051057
 72
     1
 10
-226.482420830323
 20
-256.4598053051057
 11
-225.2896281281564
 21
-256.4598053051057
 72
     1
 10
-225.2896281281564
 20
-256.4598053051057
 11
-225.2896281281564
 21
-257.5286386384403
 72
     1
 10
-225.2896281281564
 20
-257.5286386384403
 11
-224.239970550249
 21
-257.5286386384403
 72
     1
 10
-224.239970550249
 20
-257.5286386384403
 11
-224.239970550249
 21
-256.4598053051057
 72
     1
 10
-224.239970550249
 20
-256.4598053051057
 11
-223.0471778480826
 21
-256.4598053051057
 97
       12
330
141
330
140
330
13F
330
127
330
128
330
13E
330
129
330
13D
330
13C
330
13B
330
125
330
126
 75
     1
 76
     0
 52
45.0
 41
0.1
 77
     0
 78
     1
 53
45.0
 43
0.0
 44
0.0
 45
-0.0707106781186548
 46
0.0707106781186548
 79
     0
 98
        1
 10
0.0
 20
0.0
  0
ENDBLK
  5
73
330
71
100
AcDbEntity
  8
0
100
AcDbBlockEnd
  0
BLOCK
  5
75
330
74
100
AcDbEntity
  8
0
100
AcDbBlockBegin
  2
_punkt
 70
     0
 10
-111.1698740342936
 20
-270.1663053051075
 30
0.0
  3
_punkt
  1

  0
LINE
  5
22B
330
74
100
AcDbEntity
  8
1
  6
Continuous
 62
     2
100
AcDbLine
 10
-111.1698740342936
 20
-270.1663053051075
 30
0.0
 11
-111.1698740342936
 21
-275.1663053051076
 31
0.0
  0
LINE
  5
22C
330
74
100
AcDbEntity
  8
1
  6
Continuous
 62
     2
100
AcDbLine
 10
-111.1698740342936
 20
-270.1663053051075
 30
0.0
 11
-106.1698740342947
 21
-270.1663053051075
 31
0.0
  0
ENDBLK
  5
76
330
74
100
AcDbEntity
  8
0
100
AcDbBlockEnd
  0
BLOCK
  5
7A
330
77
100
AcDbEntity
  8
0
100
AcDbBlockBegin
  2
A4I_CS
 70
     0
 10
-111.1698740342936
 20
-275.1663053051076
 30
0.0
  3
A4I_CS
  1

  0
INSERT
  5
78
330
77
100
AcDbEntity
  8
1
100
AcDbBlockReference
  2
_rahmen
 10
-111.1698740342936
 20
-275.1663053051076
 30
0.0
  0
INSERT
  5
79
330
77
100
AcDbEntity
  8
1
100
AcDbBlockReference
  2
_punkt
 10
-111.1698740342936
 20
-270.1663053051075
 30
0.0
  0
ENDBLK
  5
7B
330
77
100
AcDbEntity
  8
0
100
AcDbBlockEnd
  0
BLOCK
  5
84
330
7C
100
AcDbEntity
  8
0
100
AcDbBlockBegin
  2
1
 70
     0
 10
0.0
 20
0.0
 30
0.0
  3
1
  1

  0
INSERT
  5
7D
330
7C
100
AcDbEntity
  8
0
100
AcDbBlockReference
  2
Allg1
 10
-190.9999999999999
 20
-206.000000000173
 30
0.0
 41
10.0
 42
10.0
 43
10.0
  0
INSERT
  5
7E
330
7C
100
AcDbEntity
  8
0
100
AcDbBlockReference
  2
Drfsicht1
 10
-288.9999999999999
 20
-208.0
 30
0.0
 41
10.0
 42
10.0
 43
10.0
  0
INSERT
  5
7F
330
7C
100
AcDbEntity
  8
0
100
AcDbBlockReference
  2
Vordans1
 10
-288.9999999999999
 20
-130.5000000001996
 30
0.0
 41
10.0
 42
10.0
 43
10.0
  0
INSERT
  5
80
330
7C
100
AcDbEntity
  8
0
100
AcDbBlockReference
  2
SA_Rechts1
 10
-361.9999999999999
 20
-130.5000000001998
 30
0.0
 41
10.0
 42
10.0
 43
10.0
  0
INSERT
  5
81
330
7C
100
AcDbEntity
  8
0
100
AcDbBlockReference
  2
SA_Links1
 10
-228.9999999999999
 20
-130.5000000001998
 30
0.0
 41
10.0
 42
10.0
 43
10.0
  0
INSERT
  5
82
330
7C
100
AcDbEntity
  8
0
100
AcDbBlockReference
  2
Rckans1
 10
-168.9999999999998
 20
-130.5000000001998
 30
0.0
 41
10.0
 42
10.0
 43
10.0
  0
INSERT
  5
83
330
7C
100
AcDbEntity
  8
0
100
AcDbBlockReference
  2
A4I_CS
 10
-111.1698740342936
 20
-275.1663053051076
 30
0.0
  0
ENDBLK
  5
85
330
7C
100
AcDbEntity
  8
0
100
AcDbBlockEnd
  0
BLOCK
  5
A7
330
A0
100
AcDbEntity
  8
0
100
AcDbBlockBegin
  2
*D17
 70
     1
 10
0.0
 20
0.0
 30
0.0
  3
*D17
  1

  0
LINE
  5
A1
330
A0
100
AcDbEntity
  8
1
  6
Continuous
 62
     2
100
AcDbLine
 10
-32.7603710430709
 20
-18.79999966577148
 30
0.0
 11
-32.7603710430709
 21
-22.79999966577148
 31
0.0
  0
LINE
  5
A2
330
A0
100
AcDbEntity
  8
1
  6
Continuous
 62
     2
100
AcDbLine
 10
-30.90000008789062
 20
-18.79999966577148
 30
0.0
 11
-32.9103710430709
 21
-18.79999966577148
 31
0.0
  0
LINE
  5
A3
330
A0
100
AcDbEntity
  8
1
  6
Continuous
 62
     2
100
AcDbLine
 10
-30.90000008789062
 20
-22.79999966577148
 30
0.0
 11
-32.9103710430709
 21
-22.79999966577148
 31
0.0
  0
SOLID
  5
A4
330
A0
100
AcDbEntity
  8
1
 62
     2
100
AcDbTrace
 10
-32.71429266891531
 20
-19.14999966577148
 30
0.0
 11
-32.80644941722649
 21
-19.14999966577148
 31
0.0
 12
-32.7603710430709
 22
-18.79999966577148
 32
0.0
 13
-32.7603710430709
 23
-18.79999966577148
 33
0.0
  0
SOLID
  5
A5
330
A0
100
AcDbEntity
  8
1
 62
     2
100
AcDbTrace
 10
-32.80644941722649
 20
-22.44999966577148
 30
0.0
 11
-32.71429266891531
 21
-22.44999966577148
 31
0.0
 12
-32.7603710430709
 22
-22.79999966577148
 32
0.0
 13
-32.7603710430709
 23
-22.79999966577148
 33
0.0
  0
MTEXT
  5
A6
330
A0
100
AcDbEntity
  8
1
 62
     3
100
AcDbMText
 10
-32.9103710430709
 20
-21.0455562313705
 30
0.0
 40
0.35
 41
0.0
 71
     7
 72
     1
  1
4
  7
CONVERTER_11
 11
0.0
 21
1.0
 31
0.0
 73
     1
 44
0.60024009603842
  0
ENDBLK
  5
A8
330
A0
100
AcDbEntity
  8
0
100
AcDbBlockEnd
  0
BLOCK
  5
BF
330
B8
100
AcDbEntity
  8
0
100
AcDbBlockBegin
  2
*D18
 70
     1
 10
0.0
 20
0.0
 30
0.0
  3
*D18
  1

  0
LINE
  5
B9
330
B8
100
AcDbEntity
  8
1
  6
Continuous
 62
     2
100
AcDbLine
 10
-31.90000008789062
 20
-10.30000000003996
 30
0.0
 11
-31.90000008789062
 21
-15.80000000003996
 31
0.0
  0
LINE
  5
BA
330
B8
100
AcDbEntity
  8
1
  6
Continuous
 62
     2
100
AcDbLine
 10
-30.90000008789062
 20
-10.30000000003996
 30
0.0
 11
-32.05000008789062
 21
-10.30000000003996
 31
0.0
  0
LINE
  5
BB
330
B8
100
AcDbEntity
  8
1
  6
Continuous
 62
     2
100
AcDbLine
 10
-28.38000008789061
 20
-15.80000000003996
 30
0.0
 11
-32.05000008789062
 21
-15.80000000003996
 31
0.0
  0
SOLID
  5
BC
330
B8
100
AcDbEntity
  8
1
 62
     2
100
AcDbTrace
 10
-31.85392171373503
 20
-10.65000000003996
 30
0.0
 11
-31.94607846204621
 21
-10.65000000003996
 31
0.0
 12
-31.90000008789062
 22
-10.30000000003996
 32
0.0
 13
-31.90000008789062
 23
-10.30000000003996
 33
0.0
  0
SOLID
  5
BD
330
B8
100
AcDbEntity
  8
1
 62
     2
100
AcDbTrace
 10
-31.94607846204621
 20
-15.45000000003996
 30
0.0
 11
-31.85392171373503
 21
-15.45000000003996
 31
0.0
 12
-31.90000008789062
 22
-15.80000000003996
 32
0.0
 13
-31.90000008789062
 23
-15.80000000003996
 33
0.0
  0
MTEXT
  5
BE
330
B8
100
AcDbEntity
  8
1
 62
     3
100
AcDbMText
 10
-32.08500008789062
 20
-13.4591061959647
 30
0.0
 40
0.35
 41
0.0
 71
     7
 72
     1
  1
5,5
  7
CONVERTER_11
 11
0.0
 21
1.0
 31
0.0
 73
     1
 44
0.60024009603842
  0
ENDBLK
  5
C0
330
B8
100
AcDbEntity
  8
0
100
AcDbBlockEnd
  0
BLOCK
  5
CA
330
C3
100
AcDbEntity
  8
0
100
AcDbBlockBegin
  2
*D19
 70
     1
 10
0.0
 20
0.0
 30
0.0
  3
*D19
  1

  0
LINE
  5
C4
330
C3
100
AcDbEntity
  8
1
  6
Continuous
 62
     2
100
AcDbLine
 10
-30.90000008789062
 20
-17.2725387283929
 30
0.0
 11
-26.90000008789062
 21
-17.2725387283929
 31
0.0
  0
LINE
  5
C5
330
C3
100
AcDbEntity
  8
1
  6
Continuous
 62
     2
100
AcDbLine
 10
-30.90000008789062
 20
-11.30000000003996
 30
0.0
 11
-30.90000008789062
 21
-17.4225387283929
 31
0.0
  0
LINE
  5
C6
330
C3
100
AcDbEntity
  8
1
  6
Continuous
 62
     2
100
AcDbLine
 10
-26.90000008789062
 20
-11.30000000003996
 30
0.0
 11
-26.90000008789062
 21
-17.4225387283929
 31
0.0
  0
SOLID
  5
C7
330
C3
100
AcDbEntity
  8
1
 62
     2
100
AcDbTrace
 10
-30.55000008789062
 20
-17.22646035423731
 30
0.0
 11
-30.55000008789062
 21
-17.31861710254849
 31
0.0
 12
-30.90000008789062
 22
-17.2725387283929
 32
0.0
 13
-30.90000008789062
 23
-17.2725387283929
 33
0.0
  0
SOLID
  5
C8
330
C3
100
AcDbEntity
  8
1
 62
     2
100
AcDbTrace
 10
-27.25000008789062
 20
-17.31861710254849
 30
0.0
 11
-27.25000008789062
 21
-17.22646035423731
 31
0.0
 12
-26.90000008789062
 22
-17.2725387283929
 32
0.0
 13
-26.90000008789062
 23
-17.2725387283929
 33
0.0
  0
MTEXT
  5
C9
330
C3
100
AcDbEntity
  8
1
 62
     3
100
AcDbMText
 10
-28.8561426095838
 20
-17.1225387283929
 30
0.0
 40
0.35
 41
0.0
 71
     7
 72
     1
  1
4
  7
CONVERTER_11
 11
0.9999999999970619
 21
2.424068405545306E-6
 31
0.0
 73
     1
 44
0.60024009603842
  0
ENDBLK
  5
CB
330
C3
100
AcDbEntity
  8
0
100
AcDbBlockEnd
  0
ENDSEC
  0
SECTION
  2
ENTITIES
  0
INSERT
  5
86
330
1F
100
AcDbEntity
  8
1
100
AcDbBlockReference
  2
1
 10
0.0
 20
0.0
 30
0.0
  0
ENDSEC
  0
SECTION
  2
OBJECTS
  0
DICTIONARY
  5
C
330
0
100
AcDbDictionary
281
     1
  3
ACAD_GROUP
350
D
  3
ACAD_LAYOUT
350
1A
  3
ACAD_MATERIAL
350
3B
  3
ACAD_MLEADERSTYLE
350
254
  3
ACAD_MLINESTYLE
350
17
  3
ACAD_PLOTSETTINGS
350
19
  3
ACAD_PLOTSTYLENAME
350
E
  3
ACAD_TABLESTYLE
350
253
  3
ACAD_VISUALSTYLE
350
2A
  0
DICTIONARY
  5
D
102
{ACAD_REACTORS
330
C
102
}
330
C
100
AcDbDictionary
281
     1
  0
DICTIONARY
  5
1A
102
{ACAD_REACTORS
330
C
102
}
330
C
100
AcDbDictionary
281
     1
  3
Layout1
350
1E
  3
Layout2
350
26
  3
Model
350
22
  0
DICTIONARY
  5
3B
102
{ACAD_REACTORS
330
C
102
}
330
C
100
AcDbDictionary
281
     1
  3
ByBlock
350
3D
  3
ByLayer
350
3C
  3
Global
350
3E
  0
DICTIONARY
  5
254
102
{ACAD_REACTORS
330
C
102
}
330
C
100
AcDbDictionary
281
     1
  0
DICTIONARY
  5
17
102
{ACAD_REACTORS
330
C
102
}
330
C
100
AcDbDictionary
281
     1
  3
Standard
350
18
  0
DICTIONARY
  5
19
102
{ACAD_REACTORS
330
C
102
}
330
C
100
AcDbDictionary
281
     1
  0
ACDBDICTIONARYWDFLT
  5
E
102
{ACAD_REACTORS
330
C
102
}
330
C
100
AcDbDictionary
281
     1
  3
Normal
350
F
100
AcDbDictionaryWithDefault
340
F
  0
DICTIONARY
  5
253
102
{ACAD_REACTORS
330
C
102
}
330
C
100
AcDbDictionary
281
     1
  0
DICTIONARY
  5
2A
102
{ACAD_REACTORS
330
C
102
}
330
C
100
AcDbDictionary
281
     1
  3
2dWireframe
350
2F
  3
3D Hidden
350
31
  3
3dWireframe
350
30
  3
Basic
350
32
  3
Brighten
350
36
  3
ColorChange
350
3A
  3
Conceptual
350
34
  3
Dim
350
35
  3
Facepattern
350
39
  3
Flat
350
2B
  3
FlatWithEdges
350
2C
  3
Gouraud
350
2D
  3
GouraudWithEdges
350
2E
  3
Linepattern
350
38
  3
Realistic
350
33
  3
Thicken
350
37
  0
LAYOUT
  5
1E
102
{ACAD_REACTORS
330
1A
102
}
330
1A
100
AcDbPlotSettings
  1

  2
none_device
  4

  6

 40
0.0
 41
0.0
 42
0.0
 43
0.0
 44
0.0
 45
0.0
 46
0.0
 47
0.0
 48
0.0
 49
0.0
140
0.0
141
0.0
142
1.0
143
1.0
 70
   688
 72
     0
 73
     0
 74
     5
  7

 75
    16
 76
     0
 77
     2
 78
   300
147
1.0
148
0.0
149
0.0
100
AcDbLayout
  1
Layout1
 70
     1
 71
     1
 10
0.0
 20
0.0
 11
12.0
 21
9.0
 12
0.0
 22
0.0
 32
0.0
 14
1.00000000000000E+20
 24
1.00000000000000E+20
 34
1.00000000000000E+20
 15
-1.00000000000000E+20
 25
-1.00000000000000E+20
 35
-1.00000000000000E+20
146
0.0
 13
0.0
 23
0.0
 33
0.0
 16
1.0
 26
0.0
 36
0.0
 17
0.0
 27
1.0
 37
0.0
 76
     0
330
1B
  0
LAYOUT
  5
26
102
{ACAD_REACTORS
330
1A
102
}
330
1A
100
AcDbPlotSettings
  1

  2
none_device
  4

  6

 40
0.0
 41
0.0
 42
0.0
 43
0.0
 44
0.0
 45
0.0
 46
0.0
 47
0.0
 48
0.0
 49
0.0
140
0.0
141
0.0
142
1.0
143
1.0
 70
   688
 72
     0
 73
     0
 74
     5
  7

 75
    16
 76
     0
 77
     2
 78
   300
147
1.0
148
0.0
149
0.0
100
AcDbLayout
  1
Layout2
 70
     1
 71
     2
 10
0.0
 20
0.0
 11
0.0
 21
0.0
 12
0.0
 22
0.0
 32
0.0
 14
0.0
 24
0.0
 34
0.0
 15
0.0
 25
0.0
 35
0.0
146
0.0
 13
0.0
 23
0.0
 33
0.0
 16
1.0
 26
0.0
 36
0.0
 17
0.0
 27
1.0
 37
0.0
 76
     0
330
23
  0
LAYOUT
  5
22
102
{ACAD_REACTORS
330
1A
102
}
330
1A
100
AcDbPlotSettings
  1

  2
none_device
  4

  6

 40
0.0
 41
0.0
 42
0.0
 43
0.0
 44
0.0
 45
0.0
 46
0.0
 47
0.0
 48
0.0
 49
0.0
140
0.0
141
0.0
142
1.0
143
1.0
 70
  1712
 72
     0
 73
     0
 74
     0
  7

 75
     0
 76
     0
 77
     2
 78
   300
147
1.0
148
0.0
149
0.0
100
AcDbLayout
  1
Model
 70
     1
 71
     0
 10
0.0
 20
0.0
 11
12.0
 21
9.0
 12
0.0
 22
0.0
 32
0.0
 14
-403.1698740342927
 24
-275.1663053051076
 34
0.0
 15
-106.1698740342947
 25
-65.16630530510747
 35
0.0
146
0.0
 13
0.0
 23
0.0
 33
0.0
 16
1.0
 26
0.0
 36
0.0
 17
0.0
 27
1.0
 37
0.0
 76
     0
330
1F
331
29
  0
MATERIAL
  5
3D
102
{ACAD_REACTORS
330
3B
102
}
102
{ACAD_XDICTIONARY
360
24F
102
}
330
3B
100
AcDbMaterial
  1
ByBlock
  0
MATERIAL
  5
3C
102
{ACAD_REACTORS
330
3B
102
}
102
{ACAD_XDICTIONARY
360
24D
102
}
330
3B
100
AcDbMaterial
  1
ByLayer
  0
MATERIAL
  5
3E
102
{ACAD_REACTORS
330
3B
102
}
102
{ACAD_XDICTIONARY
360
251
102
}
330
3B
100
AcDbMaterial
  1
Global
  0
MLINESTYLE
  5
18
102
{ACAD_REACTORS
330
17
102
}
330
17
100
AcDbMlineStyle
  2
Standard
 70
     0
  3

 62
   256
 51
90.0
 52
90.0
 71
     2
 49
0.5
 62
   256
  6
BYLAYER
 49
-0.5
 62
   256
  6
BYLAYER
  0
ACDBPLACEHOLDER
  5
F
102
{ACAD_REACTORS
330
E
102
}
330
E
  0
VISUALSTYLE
  5
2F
102
{ACAD_REACTORS
330
2A
102
}
102
{ACAD_XDICTIONARY
360
235
102
}
330
2A
100
AcDbVisualStyle
  2
2dWireframe
 70
     4
 71
     0
 72
     2
 73
     0
 90
        0
 40
-0.6
 41
-30.0
 62
     5
 63
     7
421
 16777215
 74
     1
 91
        4
 64
     7
 65
   257
 75
     1
175
     1
 42
1.0
 92
        0
 66
   257
 43
1.0
 76
     1
 77
     6
 78
     2
 67
     7
 79
     5
170
     0
171
     0
290
     0
174
     0
 93
        1
 44
0.0
173
     0
291
     0
 45
0.0
1001
ACAD
1000
AcDbSavedByObjectVersion
1070
     0
  0
VISUALSTYLE
  5
31
102
{ACAD_REACTORS
330
2A
102
}
102
{ACAD_XDICTIONARY
360
239
102
}
330
2A
100
AcDbVisualStyle
  2
3D Hidden
 70
     6
 71
     1
 72
     2
 73
     2
 90
        0
 40
-0.6
 41
-30.0
 62
     5
 63
     7
421
 16777215
 74
     2
 91
        2
 64
     7
 65
   257
 75
     2
175
     1
 42
40.0
 92
        0
 66
   257
 43
1.0
 76
     1
 77
     6
 78
     2
 67
     7
 79
     3
170
     0
171
     0
290
     0
174
     0
 93
        1
 44
0.0
173
     0
291
     0
 45
0.0
1001
ACAD
1000
AcDbSavedByObjectVersion
1070
     0
  0
VISUALSTYLE
  5
30
102
{ACAD_REACTORS
330
2A
102
}
102
{ACAD_XDICTIONARY
360
237
102
}
330
2A
100
AcDbVisualStyle
  2
3dWireframe
 70
     5
 71
     0
 72
     2
 73
     0
 90
        0
 40
-0.6
 41
-30.0
 62
     5
 63
     7
421
 16777215
 74
     1
 91
        4
 64
     7
 65
   257
 75
     1
175
     1
 42
1.0
 92
        0
 66
   257
 43
1.0
 76
     1
 77
     6
 78
     2
 67
     7
 79
     5
170
     0
171
     0
290
     0
174
     0
 93
        1
 44
0.0
173
     0
291
     0
 45
0.0
1001
ACAD
1000
AcDbSavedByObjectVersion
1070
     0
  0
VISUALSTYLE
  5
32
102
{ACAD_REACTORS
330
2A
102
}
102
{ACAD_XDICTIONARY
360
23B
102
}
330
2A
100
AcDbVisualStyle
  2
Basic
 70
     7
 71
     1
 72
     0
 73
     1
 90
        0
 40
-0.6
 41
-30.0
 62
     5
 63
     7
421
 16777215
 74
     0
 91
        4
 64
     7
 65
   257
 75
     1
175
     1
 42
1.0
 92
        8
 66
     7
 43
1.0
 76
     1
 77
     6
 78
     2
 67
     7
 79
     5
170
     0
171
     0
290
     0
174
     0
 93
        1
 44
0.0
173
     0
291
     1
 45
0.0
1001
ACAD
1000
AcDbSavedByObjectVersion
1070
     0
  0
VISUALSTYLE
  5
36
102
{ACAD_REACTORS
330
2A
102
}
102
{ACAD_XDICTIONARY
360
243
102
}
330
2A
100
AcDbVisualStyle
  2
Brighten
 70
    12
 71
     2
 72
     2
 73
     0
 90
        0
 40
-0.6
 41
-30.0
 62
     5
 63
     7
421
 16777215
 74
     1
 91
        4
 64
     7
 65
   257
 75
     1
175
     1
 42
1.0
 92
        8
 66
     7
 43
1.0
 76
     1
 77
     6
 78
     2
 67
     7
 79
     5
170
     0
171
     0
290
     0
174
     0
 93
        1
 44
50.0
173
     0
291
     1
 45
0.0
1001
ACAD
1000
AcDbSavedByObjectVersion
1070
     0
  0
VISUALSTYLE
  5
3A
102
{ACAD_REACTORS
330
2A
102
}
102
{ACAD_XDICTIONARY
360
24B
102
}
330
2A
100
AcDbVisualStyle
  2
ColorChange
 70
    16
 71
     2
 72
     2
 73
     3
 90
        0
 40
-0.6
 41
-30.0
 62
     5
 63
     8
421
  8421504
 74
     1
 91
        4
 64
     7
 65
   257
 75
     1
175
     1
 42
1.0
 92
        8
 66
     8
424
  8421504
 43
1.0
 76
     1
 77
     6
 78
     2
 67
     7
 79
     5
170
     0
171
     0
290
     0
174
     0
 93
        1
 44
0.0
173
     0
291
     1
 45
0.0
1001
ACAD
1000
AcDbSavedByObjectVersion
1070
     0
  0
VISUALSTYLE
  5
34
102
{ACAD_REACTORS
330
2A
102
}
102
{ACAD_XDICTIONARY
360
23F
102
}
330
2A
100
AcDbVisualStyle
  2
Conceptual
 70
     9
 71
     3
 72
     2
 73
     0
 90
        0
 40
-0.6
 41
-30.0
 62
     5
 63
     7
421
 16777215
 74
     2
 91
        2
 64
     7
 65
   257
 75
     1
175
     1
 42
40.0
 92
        8
 66
     7
 43
1.0
 76
     1
 77
     6
 78
     2
 67
     7
 79
     3
170
     0
171
     0
290
     0
174
     0
 93
        1
 44
0.0
173
     0
291
     0
 45
0.0
1001
ACAD
1000
AcDbSavedByObjectVersion
1070
     0
  0
VISUALSTYLE
  5
35
102
{ACAD_REACTORS
330
2A
102
}
102
{ACAD_XDICTIONARY
360
241
102
}
330
2A
100
AcDbVisualStyle
  2
Dim
 70
    11
 71
     2
 72
     2
 73
     0
 90
        0
 40
-0.6
 41
-30.0
 62
     5
 63
     7
421
 16777215
 74
     1
 91
        4
 64
     7
 65
   257
 75
     1
175
     1
 42
1.0
 92
        8
 66
     7
 43
1.0
 76
     1
 77
     6
 78
     2
 67
     7
 79
     5
170
     0
171
     0
290
     0
174
     0
 93
        1
 44
-50.0
173
     0
291
     1
 45
0.0
1001
ACAD
1000
AcDbSavedByObjectVersion
1070
     0
  0
VISUALSTYLE
  5
39
102
{ACAD_REACTORS
330
2A
102
}
102
{ACAD_XDICTIONARY
360
249
102
}
330
2A
100
AcDbVisualStyle
  2
Facepattern
 70
    15
 71
     2
 72
     2
 73
     0
 90
        0
 40
-0.6
 41
-30.0
 62
     5
 63
     7
421
 16777215
 74
     1
 91
        4
 64
     7
 65
   257
 75
     1
175
     1
 42
1.0
 92
        8
 66
     7
 43
1.0
 76
     1
 77
     6
 78
     2
 67
     7
 79
     5
170
     0
171
     0
290
     0
174
     0
 93
        1
 44
0.0
173
     0
291
     1
 45
0.0
1001
ACAD
1000
AcDbSavedByObjectVersion
1070
     0
  0
VISUALSTYLE
  5
2B
102
{ACAD_REACTORS
330
2A
102
}
102
{ACAD_XDICTIONARY
360
22D
102
}
330
2A
100
AcDbVisualStyle
  2
Flat
 70
     0
 71
     2
 72
     1
 73
     1
 90
        2
 40
-0.6
 41
30.0
 62
     5
 63
     7
421
 16777215
 74
     0
 91
        4
 64
     7
 65
   257
 75
     1
175
     1
 42
1.0
 92
        8
 66
     7
 43
1.0
 76
     1
 77
     6
 78
     2
 67
     7
 79
     5
170
     0
171
     0
290
     0
174
     0
 93
       13
 44
0.0
173
     0
291
     1
 45
0.0
1001
ACAD
1000
AcDbSavedByObjectVersion
1070
     0
  0
VISUALSTYLE
  5
2C
102
{ACAD_REACTORS
330
2A
102
}
102
{ACAD_XDICTIONARY
360
22F
102
}
330
2A
100
AcDbVisualStyle
  2
FlatWithEdges
 70
     1
 71
     2
 72
     1
 73
     1
 90
        2
 40
-0.6
 41
30.0
 62
     5
 63
     7
421
 16777215
 74
     1
 91
        4
 64
     7
 65
   257
 75
     1
175
     1
 42
1.0
 92
        0
 66
   257
 43
1.0
 76
     1
 77
     6
 78
     2
 67
     7
 79
     5
170
     0
171
     0
290
     0
174
     0
 93
       13
 44
0.0
173
     0
291
     1
 45
0.0
1001
ACAD
1000
AcDbSavedByObjectVersion
1070
     0
  0
VISUALSTYLE
  5
2D
102
{ACAD_REACTORS
330
2A
102
}
102
{ACAD_XDICTIONARY
360
231
102
}
330
2A
100
AcDbVisualStyle
  2
Gouraud
 70
     2
 71
     2
 72
     2
 73
     1
 90
        2
 40
-0.6
 41
30.0
 62
     5
 63
     7
421
 16777215
 74
     0
 91
        4
 64
     7
 65
   257
 75
     1
175
     1
 42
1.0
 92
        0
 66
     7
 43
1.0
 76
     1
 77
     6
 78
     2
 67
     7
 79
     5
170
     0
171
     0
290
     0
174
     0
 93
       13
 44
0.0
173
     0
291
     1
 45
0.0
1001
ACAD
1000
AcDbSavedByObjectVersion
1070
     0
  0
VISUALSTYLE
  5
2E
102
{ACAD_REACTORS
330
2A
102
}
102
{ACAD_XDICTIONARY
360
233
102
}
330
2A
100
AcDbVisualStyle
  2
GouraudWithEdges
 70
     3
 71
     2
 72
     2
 73
     1
 90
        2
 40
-0.6
 41
30.0
 62
     5
 63
     7
421
 16777215
 74
     1
 91
        4
 64
     7
 65
   257
 75
     1
175
     1
 42
1.0
 92
        0
 66
   257
 43
1.0
 76
     1
 77
     6
 78
     2
 67
     7
 79
     5
170
     0
171
     0
290
     0
174
     0
 93
       13
 44
0.0
173
     0
291
     1
 45
0.0
1001
ACAD
1000
AcDbSavedByObjectVersion
1070
     0
  0
VISUALSTYLE
  5
38
102
{ACAD_REACTORS
330
2A
102
}
102
{ACAD_XDICTIONARY
360
247
102
}
330
2A
100
AcDbVisualStyle
  2
Linepattern
 70
    14
 71
     2
 72
     2
 73
     0
 90
        0
 40
-0.6
 41
-30.0
 62
     5
 63
     7
421
 16777215
 74
     1
 91
        4
 64
     7
 65
   257
 75
     7
175
     7
 42
1.0
 92
        8
 66
     7
 43
1.0
 76
     1
 77
     6
 78
     2
 67
     7
 79
     5
170
     0
171
     0
290
     0
174
     0
 93
        1
 44
0.0
173
     0
291
     1
 45
0.0
1001
ACAD
1000
AcDbSavedByObjectVersion
1070
     0
  0
VISUALSTYLE
  5
33
102
{ACAD_REACTORS
330
2A
102
}
102
{ACAD_XDICTIONARY
360
23D
102
}
330
2A
100
AcDbVisualStyle
  2
Realistic
 70
     8
 71
     2
 72
     2
 73
     0
 90
        0
 40
-0.6
 41
-30.0
 62
     5
 63
     7
421
 16777215
 74
     1
 91
        0
 64
     7
 65
   257
 75
     1
175
     1
 42
1.0
 92
        8
 66
     8
424
  7895160
 43
1.0
 76
     1
 77
     6
 78
     2
 67
     7
 79
     5
170
     0
171
     0
290
     0
174
     0
 93
       13
 44
0.0
173
     0
291
     0
 45
0.0
1001
ACAD
1000
AcDbSavedByObjectVersion
1070
     0
  0
VISUALSTYLE
  5
37
102
{ACAD_REACTORS
330
2A
102
}
102
{ACAD_XDICTIONARY
360
245
102
}
330
2A
100
AcDbVisualStyle
  2
Thicken
 70
    13
 71
     2
 72
     2
 73
     0
 90
        0
 40
-0.6
 41
-30.0
 62
     5
 63
     7
421
 16777215
 74
     1
 91
        4
 64
     7
 65
   257
 75
     1
175
     1
 42
1.0
 92
       12
 66
     7
 43
1.0
 76
     1
 77
     6
 78
     2
 67
     7
 79
     5
170
     0
171
     0
290
     0
174
     0
 93
        1
 44
0.0
173
     0
291
     1
 45
0.0
1001
ACAD
1000
AcDbSavedByObjectVersion
1070
     0
  0
DICTIONARY
  5
24F
330
3D
100
AcDbDictionary
280
     1
281
     1
  3
ACAD_XREC_ROUNDTRIP
360
250
  0
DICTIONARY
  5
24D
330
3C
100
AcDbDictionary
280
     1
281
     1
  3
ACAD_XREC_ROUNDTRIP
360
24E
  0
DICTIONARY
  5
251
330
3E
100
AcDbDictionary
280
     1
281
     1
  3
ACAD_XREC_ROUNDTRIP
360
252
  0
DICTIONARY
  5
235
330
2F
100
AcDbDictionary
280
     1
281
     1
  3
ACAD_XREC_ROUNDTRIP
360
236
  0
DICTIONARY
  5
239
330
31
100
AcDbDictionary
280
     1
281
     1
  3
ACAD_XREC_ROUNDTRIP
360
23A
  0
DICTIONARY
  5
237
330
30
100
AcDbDictionary
280
     1
281
     1
  3
ACAD_XREC_ROUNDTRIP
360
238
  0
DICTIONARY
  5
23B
330
32
100
AcDbDictionary
280
     1
281
     1
  3
ACAD_XREC_ROUNDTRIP
360
23C
  0
DICTIONARY
  5
243
330
36
100
AcDbDictionary
280
     1
281
     1
  3
ACAD_XREC_ROUNDTRIP
360
244
  0
DICTIONARY
  5
24B
330
3A
100
AcDbDictionary
280
     1
281
     1
  3
ACAD_XREC_ROUNDTRIP
360
24C
  0
DICTIONARY
  5
23F
330
34
100
AcDbDictionary
280
     1
281
     1
  3
ACAD_XREC_ROUNDTRIP
360
240
  0
DICTIONARY
  5
241
330
35
100
AcDbDictionary
280
     1
281
     1
  3
ACAD_XREC_ROUNDTRIP
360
242
  0
DICTIONARY
  5
249
330
39
100
AcDbDictionary
280
     1
281
     1
  3
ACAD_XREC_ROUNDTRIP
360
24A
  0
DICTIONARY
  5
22D
330
2B
100
AcDbDictionary
280
     1
281
     1
  3
ACAD_XREC_ROUNDTRIP
360
22E
  0
DICTIONARY
  5
22F
330
2C
100
AcDbDictionary
280
     1
281
     1
  3
ACAD_XREC_ROUNDTRIP
360
230
  0
DICTIONARY
  5
231
330
2D
100
AcDbDictionary
280
     1
281
     1
  3
ACAD_XREC_ROUNDTRIP
360
232
  0
DICTIONARY
  5
233
330
2E
100
AcDbDictionary
280
     1
281
     1
  3
ACAD_XREC_ROUNDTRIP
360
234
  0
DICTIONARY
  5
247
330
38
100
AcDbDictionary
280
     1
281
     1
  3
ACAD_XREC_ROUNDTRIP
360
248
  0
DICTIONARY
  5
23D
330
33
100
AcDbDictionary
280
     1
281
     1
  3
ACAD_XREC_ROUNDTRIP
360
23E
  0
DICTIONARY
  5
245
330
37
100
AcDbDictionary
280
     1
281
     1
  3
ACAD_XREC_ROUNDTRIP
360
246
  0
XRECORD
  5
250
102
{ACAD_REACTORS
330
24F
102
}
330
24F
100
AcDbXrecord
280
     1
102
MATERIAL
148
0.0
149
0.0
149
0.0
 93
        0
 94
      127
282
     0
 72
     1
 77
     1
171
     1
175
     1
179
     1
273
     0
  0
XRECORD
  5
24E
102
{ACAD_REACTORS
330
24D
102
}
330
24D
100
AcDbXrecord
280
     1
102
MATERIAL
148
0.0
149
0.0
149
0.0
 93
        0
 94
      127
282
     0
 72
     1
 77
     1
171
     1
175
     1
179
     1
273
     0
  0
XRECORD
  5
252
102
{ACAD_REACTORS
330
251
102
}
330
251
100
AcDbXrecord
280
     1
102
MATERIAL
148
0.0
149
0.0
149
0.0
 93
        0
 94
      127
282
     0
 72
     1
 77
     1
171
     1
175
     1
179
     1
273
     0
  0
XRECORD
  5
236
102
{ACAD_REACTORS
330
235
102
}
330
235
100
AcDbXrecord
280
     1
102
RTVSPropertyOp0
 70
     1
102
RTVSPropertyOp1
 70
     1
102
RTVSPropertyOp2
 70
     1
102
RTVSPropertyOp3
 70
     1
102
RTVSPropertyOp4
 70
     1
102
RTVSPropertyOp5
 70
     1
102
RTVSPropertyOp6
 70
     1
102
RTVSPropertyOp7
 70
     1
102
RTVSPropertyOp8
 70
     1
102
RTVSPropertyOp9
 70
     1
102
RTVSPropertyOp10
 70
     1
102
RTVSPropertyOp11
 70
     1
102
RTVSPropertyOp12
 70
     1
102
RTVSPropertyOp13
 70
     1
102
RTVSPropertyOp14
 70
     1
102
RTVSPropertyOp15
 70
     1
102
RTVSPropertyOp16
 70
     1
102
RTVSPropertyOp17
 70
     1
102
RTVSPropertyOp18
 70
     1
102
RTVSPropertyOp19
 70
     1
102
RTVSPropertyOp20
 70
     1
102
RTVSPropertyOp21
 70
     1
102
RTVSPropertyOp22
 70
     1
102
RTVSPropertyOp23
 70
     1
102
RTVSPropertyOp24
 70
     1
102
RTVSPropertyOp25
 70
     1
102
RTVSPropertyOp26
 70
     1
102
RTVSPropertyOp27
 70
     1
102
RTVSPropertyOp28
 70
     1
102
RTVSPropertyOp29
 70
     1
102
RTVSPropertyOp30
 70
     1
102
RTVSPropertyOp31
 70
     1
102
RTVSPropertyOp32
 70
     1
  0
XRECORD
  5
23A
102
{ACAD_REACTORS
330
239
102
}
330
239
100
AcDbXrecord
280
     1
102
RTVSPropertyOp0
 70
     1
102
RTVSPropertyOp1
 70
     1
102
RTVSPropertyOp2
 70
     1
102
RTVSPropertyOp3
 70
     1
102
RTVSPropertyOp4
 70
     1
102
RTVSPropertyOp5
 70
     1
102
RTVSPropertyOp6
 70
     1
102
RTVSPropertyOp7
 70
     1
102
RTVSPropertyOp8
 70
     1
102
RTVSPropertyOp9
 70
     1
102
RTVSPropertyOp10
 70
     1
102
RTVSPropertyOp11
 70
     1
102
RTVSPropertyOp12
 70
     1
102
RTVSPropertyOp13
 70
     1
102
RTVSPropertyOp14
 70
     1
102
RTVSPropertyOp15
 70
     1
102
RTVSPropertyOp16
 70
     1
102
RTVSPropertyOp17
 70
     1
102
RTVSPropertyOp18
 70
     1
102
RTVSPropertyOp19
 70
     1
102
RTVSPropertyOp20
 70
     1
102
RTVSPropertyOp21
 70
     1
102
RTVSPropertyOp22
 70
     1
102
RTVSPropertyOp23
 70
     1
102
RTVSPropertyOp24
 70
     1
102
RTVSPropertyOp25
 70
     1
102
RTVSPropertyOp26
 70
     1
102
RTVSPropertyOp27
 70
     1
102
RTVSPropertyOp28
 70
     1
102
RTVSPropertyOp29
 70
     1
102
RTVSPropertyOp30
 70
     1
102
RTVSPropertyOp31
 70
     1
102
RTVSPropertyOp32
 70
     1
  0
XRECORD
  5
238
102
{ACAD_REACTORS
330
237
102
}
330
237
100
AcDbXrecord
280
     1
102
RTVSPropertyOp0
 70
     1
102
RTVSPropertyOp1
 70
     1
102
RTVSPropertyOp2
 70
     1
102
RTVSPropertyOp3
 70
     1
102
RTVSPropertyOp4
 70
     1
102
RTVSPropertyOp5
 70
     1
102
RTVSPropertyOp6
 70
     1
102
RTVSPropertyOp7
 70
     1
102
RTVSPropertyOp8
 70
     1
102
RTVSPropertyOp9
 70
     1
102
RTVSPropertyOp10
 70
     1
102
RTVSPropertyOp11
 70
     1
102
RTVSPropertyOp12
 70
     1
102
RTVSPropertyOp13
 70
     1
102
RTVSPropertyOp14
 70
     1
102
RTVSPropertyOp15
 70
     1
102
RTVSPropertyOp16
 70
     1
102
RTVSPropertyOp17
 70
     1
102
RTVSPropertyOp18
 70
     1
102
RTVSPropertyOp19
 70
     1
102
RTVSPropertyOp20
 70
     1
102
RTVSPropertyOp21
 70
     1
102
RTVSPropertyOp22
 70
     1
102
RTVSPropertyOp23
 70
     1
102
RTVSPropertyOp24
 70
     1
102
RTVSPropertyOp25
 70
     1
102
RTVSPropertyOp26
 70
     1
102
RTVSPropertyOp27
 70
     1
102
RTVSPropertyOp28
 70
     1
102
RTVSPropertyOp29
 70
     1
102
RTVSPropertyOp30
 70
     1
102
RTVSPropertyOp31
 70
     1
102
RTVSPropertyOp32
 70
     1
  0
XRECORD
  5
23C
102
{ACAD_REACTORS
330
23B
102
}
330
23B
100
AcDbXrecord
280
     1
102
RTVSPropertyOp0
 70
     1
102
RTVSPropertyOp1
 70
     1
102
RTVSPropertyOp2
 70
     1
102
RTVSPropertyOp3
 70
     1
102
RTVSPropertyOp4
 70
     1
102
RTVSPropertyOp5
 70
     1
102
RTVSPropertyOp6
 70
     1
102
RTVSPropertyOp7
 70
     1
102
RTVSPropertyOp8
 70
     1
102
RTVSPropertyOp9
 70
     1
102
RTVSPropertyOp10
 70
     1
102
RTVSPropertyOp11
 70
     1
102
RTVSPropertyOp12
 70
     1
102
RTVSPropertyOp13
 70
     1
102
RTVSPropertyOp14
 70
     1
102
RTVSPropertyOp15
 70
     1
102
RTVSPropertyOp16
 70
     1
102
RTVSPropertyOp17
 70
     1
102
RTVSPropertyOp18
 70
     1
102
RTVSPropertyOp19
 70
     1
102
RTVSPropertyOp20
 70
     1
102
RTVSPropertyOp21
 70
     1
102
RTVSPropertyOp22
 70
     1
102
RTVSPropertyOp23
 70
     1
102
RTVSPropertyOp24
 70
     1
102
RTVSPropertyOp25
 70
     1
102
RTVSPropertyOp26
 70
     1
102
RTVSPropertyOp27
 70
     1
102
RTVSPropertyOp28
 70
     1
102
RTVSPropertyOp29
 70
     1
102
RTVSPropertyOp30
 70
     1
102
RTVSPropertyOp31
 70
     1
102
RTVSPropertyOp32
 70
     1
  0
XRECORD
  5
244
102
{ACAD_REACTORS
330
243
102
}
330
243
100
AcDbXrecord
280
     1
102
RTVSPropertyOp0
 70
     1
102
RTVSPropertyOp1
 70
     1
102
RTVSPropertyOp2
 70
     1
102
RTVSPropertyOp3
 70
     1
102
RTVSPropertyOp4
 70
     1
102
RTVSPropertyOp5
 70
     1
102
RTVSPropertyOp6
 70
     1
102
RTVSPropertyOp7
 70
     1
102
RTVSPropertyOp8
 70
     1
102
RTVSPropertyOp9
 70
     1
102
RTVSPropertyOp10
 70
     1
102
RTVSPropertyOp11
 70
     1
102
RTVSPropertyOp12
 70
     1
102
RTVSPropertyOp13
 70
     1
102
RTVSPropertyOp14
 70
     1
102
RTVSPropertyOp15
 70
     1
102
RTVSPropertyOp16
 70
     1
102
RTVSPropertyOp17
 70
     1
102
RTVSPropertyOp18
 70
     1
102
RTVSPropertyOp19
 70
     1
102
RTVSPropertyOp20
 70
     1
102
RTVSPropertyOp21
 70
     1
102
RTVSPropertyOp22
 70
     1
102
RTVSPropertyOp23
 70
     1
102
RTVSPropertyOp24
 70
     1
102
RTVSPropertyOp25
 70
     1
102
RTVSPropertyOp26
 70
     1
102
RTVSPropertyOp27
 70
     1
102
RTVSPropertyOp28
 70
     1
102
RTVSPropertyOp29
 70
     1
102
RTVSPropertyOp30
 70
     1
102
RTVSPropertyOp31
 70
     1
102
RTVSPropertyOp32
 70
     1
  0
XRECORD
  5
24C
102
{ACAD_REACTORS
330
24B
102
}
330
24B
100
AcDbXrecord
280
     1
102
RTVSPropertyOp0
 70
     1
102
RTVSPropertyOp1
 70
     1
102
RTVSPropertyOp2
 70
     1
102
RTVSPropertyOp3
 70
     1
102
RTVSPropertyOp4
 70
     1
102
RTVSPropertyOp5
 70
     1
102
RTVSPropertyOp6
 70
     1
102
RTVSPropertyOp7
 70
     1
102
RTVSPropertyOp8
 70
     1
102
RTVSPropertyOp9
 70
     1
102
RTVSPropertyOp10
 70
     1
102
RTVSPropertyOp11
 70
     1
102
RTVSPropertyOp12
 70
     1
102
RTVSPropertyOp13
 70
     1
102
RTVSPropertyOp14
 70
     1
102
RTVSPropertyOp15
 70
     1
102
RTVSPropertyOp16
 70
     1
102
RTVSPropertyOp17
 70
     1
102
RTVSPropertyOp18
 70
     1
102
RTVSPropertyOp19
 70
     1
102
RTVSPropertyOp20
 70
     1
102
RTVSPropertyOp21
 70
     1
102
RTVSPropertyOp22
 70
     1
102
RTVSPropertyOp23
 70
     1
102
RTVSPropertyOp24
 70
     1
102
RTVSPropertyOp25
 70
     1
102
RTVSPropertyOp26
 70
     1
102
RTVSPropertyOp27
 70
     1
102
RTVSPropertyOp28
 70
     1
102
RTVSPropertyOp29
 70
     1
102
RTVSPropertyOp30
 70
     1
102
RTVSPropertyOp31
 70
     1
102
RTVSPropertyOp32
 70
     1
  0
XRECORD
  5
240
102
{ACAD_REACTORS
330
23F
102
}
330
23F
100
AcDbXrecord
280
     1
102
RTVSPropertyOp0
 70
     1
102
RTVSPropertyOp1
 70
     1
102
RTVSPropertyOp2
 70
     1
102
RTVSPropertyOp3
 70
     1
102
RTVSPropertyOp4
 70
     1
102
RTVSPropertyOp5
 70
     1
102
RTVSPropertyOp6
 70
     1
102
RTVSPropertyOp7
 70
     1
102
RTVSPropertyOp8
 70
     1
102
RTVSPropertyOp9
 70
     1
102
RTVSPropertyOp10
 70
     1
102
RTVSPropertyOp11
 70
     1
102
RTVSPropertyOp12
 70
     1
102
RTVSPropertyOp13
 70
     1
102
RTVSPropertyOp14
 70
     1
102
RTVSPropertyOp15
 70
     1
102
RTVSPropertyOp16
 70
     1
102
RTVSPropertyOp17
 70
     1
102
RTVSPropertyOp18
 70
     1
102
RTVSPropertyOp19
 70
     1
102
RTVSPropertyOp20
 70
     1
102
RTVSPropertyOp21
 70
     1
102
RTVSPropertyOp22
 70
     1
102
RTVSPropertyOp23
 70
     1
102
RTVSPropertyOp24
 70
     1
102
RTVSPropertyOp25
 70
     1
102
RTVSPropertyOp26
 70
     1
102
RTVSPropertyOp27
 70
     1
102
RTVSPropertyOp28
 70
     1
102
RTVSPropertyOp29
 70
     1
102
RTVSPropertyOp30
 70
     1
102
RTVSPropertyOp31
 70
     1
102
RTVSPropertyOp32
 70
     1
  0
XRECORD
  5
242
102
{ACAD_REACTORS
330
241
102
}
330
241
100
AcDbXrecord
280
     1
102
RTVSPropertyOp0
 70
     1
102
RTVSPropertyOp1
 70
     1
102
RTVSPropertyOp2
 70
     1
102
RTVSPropertyOp3
 70
     1
102
RTVSPropertyOp4
 70
     1
102
RTVSPropertyOp5
 70
     1
102
RTVSPropertyOp6
 70
     1
102
RTVSPropertyOp7
 70
     1
102
RTVSPropertyOp8
 70
     1
102
RTVSPropertyOp9
 70
     1
102
RTVSPropertyOp10
 70
     1
102
RTVSPropertyOp11
 70
     1
102
RTVSPropertyOp12
 70
     1
102
RTVSPropertyOp13
 70
     1
102
RTVSPropertyOp14
 70
     1
102
RTVSPropertyOp15
 70
     1
102
RTVSPropertyOp16
 70
     1
102
RTVSPropertyOp17
 70
     1
102
RTVSPropertyOp18
 70
     1
102
RTVSPropertyOp19
 70
     1
102
RTVSPropertyOp20
 70
     1
102
RTVSPropertyOp21
 70
     1
102
RTVSPropertyOp22
 70
     1
102
RTVSPropertyOp23
 70
     1
102
RTVSPropertyOp24
 70
     1
102
RTVSPropertyOp25
 70
     1
102
RTVSPropertyOp26
 70
     1
102
RTVSPropertyOp27
 70
     1
102
RTVSPropertyOp28
 70
     1
102
RTVSPropertyOp29
 70
     1
102
RTVSPropertyOp30
 70
     1
102
RTVSPropertyOp31
 70
     1
102
RTVSPropertyOp32
 70
     1
  0
XRECORD
  5
24A
102
{ACAD_REACTORS
330
249
102
}
330
249
100
AcDbXrecord
280
     1
102
RTVSPropertyOp0
 70
     1
102
RTVSPropertyOp1
 70
     1
102
RTVSPropertyOp2
 70
     1
102
RTVSPropertyOp3
 70
     1
102
RTVSPropertyOp4
 70
     1
102
RTVSPropertyOp5
 70
     1
102
RTVSPropertyOp6
 70
     1
102
RTVSPropertyOp7
 70
     1
102
RTVSPropertyOp8
 70
     1
102
RTVSPropertyOp9
 70
     1
102
RTVSPropertyOp10
 70
     1
102
RTVSPropertyOp11
 70
     1
102
RTVSPropertyOp12
 70
     1
102
RTVSPropertyOp13
 70
     1
102
RTVSPropertyOp14
 70
     1
102
RTVSPropertyOp15
 70
     1
102
RTVSPropertyOp16
 70
     1
102
RTVSPropertyOp17
 70
     1
102
RTVSPropertyOp18
 70
     1
102
RTVSPropertyOp19
 70
     1
102
RTVSPropertyOp20
 70
     1
102
RTVSPropertyOp21
 70
     1
102
RTVSPropertyOp22
 70
     1
102
RTVSPropertyOp23
 70
     1
102
RTVSPropertyOp24
 70
     1
102
RTVSPropertyOp25
 70
     1
102
RTVSPropertyOp26
 70
     1
102
RTVSPropertyOp27
 70
     1
102
RTVSPropertyOp28
 70
     1
102
RTVSPropertyOp29
 70
     1
102
RTVSPropertyOp30
 70
     1
102
RTVSPropertyOp31
 70
     1
102
RTVSPropertyOp32
 70
     1
  0
XRECORD
  5
22E
102
{ACAD_REACTORS
330
22D
102
}
330
22D
100
AcDbXrecord
280
     1
102
RTVSPropertyOp0
 70
     1
102
RTVSPropertyOp1
 70
     1
102
RTVSPropertyOp2
 70
     1
102
RTVSPropertyOp3
 70
     1
102
RTVSPropertyOp4
 70
     1
102
RTVSPropertyOp5
 70
     1
102
RTVSPropertyOp6
 70
     1
102
RTVSPropertyOp7
 70
     1
102
RTVSPropertyOp8
 70
     1
102
RTVSPropertyOp9
 70
     1
102
RTVSPropertyOp10
 70
     1
102
RTVSPropertyOp11
 70
     1
102
RTVSPropertyOp12
 70
     1
102
RTVSPropertyOp13
 70
     1
102
RTVSPropertyOp14
 70
     1
102
RTVSPropertyOp15
 70
     1
102
RTVSPropertyOp16
 70
     1
102
RTVSPropertyOp17
 70
     1
102
RTVSPropertyOp18
 70
     1
102
RTVSPropertyOp19
 70
     1
102
RTVSPropertyOp20
 70
     1
102
RTVSPropertyOp21
 70
     1
102
RTVSPropertyOp22
 70
     1
102
RTVSPropertyOp23
 70
     1
102
RTVSPropertyOp24
 70
     1
102
RTVSPropertyOp25
 70
     1
102
RTVSPropertyOp26
 70
     1
102
RTVSPropertyOp27
 70
     1
102
RTVSPropertyOp28
 70
     1
102
RTVSPropertyOp29
 70
     1
102
RTVSPropertyOp30
 70
     1
102
RTVSPropertyOp31
 70
     1
102
RTVSPropertyOp32
 70
     1
  0
XRECORD
  5
230
102
{ACAD_REACTORS
330
22F
102
}
330
22F
100
AcDbXrecord
280
     1
102
RTVSPropertyOp0
 70
     1
102
RTVSPropertyOp1
 70
     1
102
RTVSPropertyOp2
 70
     1
102
RTVSPropertyOp3
 70
     1
102
RTVSPropertyOp4
 70
     1
102
RTVSPropertyOp5
 70
     1
102
RTVSPropertyOp6
 70
     1
102
RTVSPropertyOp7
 70
     1
102
RTVSPropertyOp8
 70
     1
102
RTVSPropertyOp9
 70
     1
102
RTVSPropertyOp10
 70
     1
102
RTVSPropertyOp11
 70
     1
102
RTVSPropertyOp12
 70
     1
102
RTVSPropertyOp13
 70
     1
102
RTVSPropertyOp14
 70
     1
102
RTVSPropertyOp15
 70
     1
102
RTVSPropertyOp16
 70
     1
102
RTVSPropertyOp17
 70
     1
102
RTVSPropertyOp18
 70
     1
102
RTVSPropertyOp19
 70
     1
102
RTVSPropertyOp20
 70
     1
102
RTVSPropertyOp21
 70
     1
102
RTVSPropertyOp22
 70
     1
102
RTVSPropertyOp23
 70
     1
102
RTVSPropertyOp24
 70
     1
102
RTVSPropertyOp25
 70
     1
102
RTVSPropertyOp26
 70
     1
102
RTVSPropertyOp27
 70
     1
102
RTVSPropertyOp28
 70
     1
102
RTVSPropertyOp29
 70
     1
102
RTVSPropertyOp30
 70
     1
102
RTVSPropertyOp31
 70
     1
102
RTVSPropertyOp32
 70
     1
  0
XRECORD
  5
232
102
{ACAD_REACTORS
330
231
102
}
330
231
100
AcDbXrecord
280
     1
102
RTVSPropertyOp0
 70
     1
102
RTVSPropertyOp1
 70
     1
102
RTVSPropertyOp2
 70
     1
102
RTVSPropertyOp3
 70
     1
102
RTVSPropertyOp4
 70
     1
102
RTVSPropertyOp5
 70
     1
102
RTVSPropertyOp6
 70
     1
102
RTVSPropertyOp7
 70
     1
102
RTVSPropertyOp8
 70
     1
102
RTVSPropertyOp9
 70
     1
102
RTVSPropertyOp10
 70
     1
102
RTVSPropertyOp11
 70
     1
102
RTVSPropertyOp12
 70
     1
102
RTVSPropertyOp13
 70
     1
102
RTVSPropertyOp14
 70
     1
102
RTVSPropertyOp15
 70
     1
102
RTVSPropertyOp16
 70
     1
102
RTVSPropertyOp17
 70
     1
102
RTVSPropertyOp18
 70
     1
102
RTVSPropertyOp19
 70
     1
102
RTVSPropertyOp20
 70
     1
102
RTVSPropertyOp21
 70
     1
102
RTVSPropertyOp22
 70
     1
102
RTVSPropertyOp23
 70
     1
102
RTVSPropertyOp24
 70
     1
102
RTVSPropertyOp25
 70
     1
102
RTVSPropertyOp26
 70
     1
102
RTVSPropertyOp27
 70
     1
102
RTVSPropertyOp28
 70
     1
102
RTVSPropertyOp29
 70
     1
102
RTVSPropertyOp30
 70
     1
102
RTVSPropertyOp31
 70
     1
102
RTVSPropertyOp32
 70
     1
  0
XRECORD
  5
234
102
{ACAD_REACTORS
330
233
102
}
330
233
100
AcDbXrecord
280
     1
102
RTVSPropertyOp0
 70
     1
102
RTVSPropertyOp1
 70
     1
102
RTVSPropertyOp2
 70
     1
102
RTVSPropertyOp3
 70
     1
102
RTVSPropertyOp4
 70
     1
102
RTVSPropertyOp5
 70
     1
102
RTVSPropertyOp6
 70
     1
102
RTVSPropertyOp7
 70
     1
102
RTVSPropertyOp8
 70
     1
102
RTVSPropertyOp9
 70
     1
102
RTVSPropertyOp10
 70
     1
102
RTVSPropertyOp11
 70
     1
102
RTVSPropertyOp12
 70
     1
102
RTVSPropertyOp13
 70
     1
102
RTVSPropertyOp14
 70
     1
102
RTVSPropertyOp15
 70
     1
102
RTVSPropertyOp16
 70
     1
102
RTVSPropertyOp17
 70
     1
102
RTVSPropertyOp18
 70
     1
102
RTVSPropertyOp19
 70
     1
102
RTVSPropertyOp20
 70
     1
102
RTVSPropertyOp21
 70
     1
102
RTVSPropertyOp22
 70
     1
102
RTVSPropertyOp23
 70
     1
102
RTVSPropertyOp24
 70
     1
102
RTVSPropertyOp25
 70
     1
102
RTVSPropertyOp26
 70
     1
102
RTVSPropertyOp27
 70
     1
102
RTVSPropertyOp28
 70
     1
102
RTVSPropertyOp29
 70
     1
102
RTVSPropertyOp30
 70
     1
102
RTVSPropertyOp31
 70
     1
102
RTVSPropertyOp32
 70
     1
  0
XRECORD
  5
248
102
{ACAD_REACTORS
330
247
102
}
330
247
100
AcDbXrecord
280
     1
102
RTVSPropertyOp0
 70
     1
102
RTVSPropertyOp1
 70
     1
102
RTVSPropertyOp2
 70
     1
102
RTVSPropertyOp3
 70
     1
102
RTVSPropertyOp4
 70
     1
102
RTVSPropertyOp5
 70
     1
102
RTVSPropertyOp6
 70
     1
102
RTVSPropertyOp7
 70
     1
102
RTVSPropertyOp8
 70
     1
102
RTVSPropertyOp9
 70
     1
102
RTVSPropertyOp10
 70
     1
102
RTVSPropertyOp11
 70
     1
102
RTVSPropertyOp12
 70
     1
102
RTVSPropertyOp13
 70
     1
102
RTVSPropertyOp14
 70
     1
102
RTVSPropertyOp15
 70
     1
102
RTVSPropertyOp16
 70
     1
102
RTVSPropertyOp17
 70
     1
102
RTVSPropertyOp18
 70
     1
102
RTVSPropertyOp19
 70
     1
102
RTVSPropertyOp20
 70
     1
102
RTVSPropertyOp21
 70
     1
102
RTVSPropertyOp22
 70
     1
102
RTVSPropertyOp23
 70
     1
102
RTVSPropertyOp24
 70
     1
102
RTVSPropertyOp25
 70
     1
102
RTVSPropertyOp26
 70
     1
102
RTVSPropertyOp27
 70
     1
102
RTVSPropertyOp28
 70
     1
102
RTVSPropertyOp29
 70
     1
102
RTVSPropertyOp30
 70
     1
102
RTVSPropertyOp31
 70
     1
102
RTVSPropertyOp32
 70
     1
  0
XRECORD
  5
23E
102
{ACAD_REACTORS
330
23D
102
}
330
23D
100
AcDbXrecord
280
     1
102
RTVSPropertyOp0
 70
     1
102
RTVSPropertyOp1
 70
     1
102
RTVSPropertyOp2
 70
     1
102
RTVSPropertyOp3
 70
     1
102
RTVSPropertyOp4
 70
     1
102
RTVSPropertyOp5
 70
     1
102
RTVSPropertyOp6
 70
     1
102
RTVSPropertyOp7
 70
     1
102
RTVSPropertyOp8
 70
     1
102
RTVSPropertyOp9
 70
     1
102
RTVSPropertyOp10
 70
     1
102
RTVSPropertyOp11
 70
     1
102
RTVSPropertyOp12
 70
     1
102
RTVSPropertyOp13
 70
     1
102
RTVSPropertyOp14
 70
     1
102
RTVSPropertyOp15
 70
     1
102
RTVSPropertyOp16
 70
     1
102
RTVSPropertyOp17
 70
     1
102
RTVSPropertyOp18
 70
     1
102
RTVSPropertyOp19
 70
     1
102
RTVSPropertyOp20
 70
     1
102
RTVSPropertyOp21
 70
     1
102
RTVSPropertyOp22
 70
     1
102
RTVSPropertyOp23
 70
     1
102
RTVSPropertyOp24
 70
     1
102
RTVSPropertyOp25
 70
     1
102
RTVSPropertyOp26
 70
     1
102
RTVSPropertyOp27
 70
     1
102
RTVSPropertyOp28
 70
     1
102
RTVSPropertyOp29
 70
     1
102
RTVSPropertyOp30
 70
     1
102
RTVSPropertyOp31
 70
     1
102
RTVSPropertyOp32
 70
     1
  0
XRECORD
  5
246
102
{ACAD_REACTORS
330
245
102
}
330
245
100
AcDbXrecord
280
     1
102
RTVSPropertyOp0
 70
     1
102
RTVSPropertyOp1
 70
     1
102
RTVSPropertyOp2
 70
     1
102
RTVSPropertyOp3
 70
     1
102
RTVSPropertyOp4
 70
     1
102
RTVSPropertyOp5
 70
     1
102
RTVSPropertyOp6
 70
     1
102
RTVSPropertyOp7
 70
     1
102
RTVSPropertyOp8
 70
     1
102
RTVSPropertyOp9
 70
     1
102
RTVSPropertyOp10
 70
     1
102
RTVSPropertyOp11
 70
     1
102
RTVSPropertyOp12
 70
     1
102
RTVSPropertyOp13
 70
     1
102
RTVSPropertyOp14
 70
     1
102
RTVSPropertyOp15
 70
     1
102
RTVSPropertyOp16
 70
     1
102
RTVSPropertyOp17
 70
     1
102
RTVSPropertyOp18
 70
     1
102
RTVSPropertyOp19
 70
     1
102
RTVSPropertyOp20
 70
     1
102
RTVSPropertyOp21
 70
     1
102
RTVSPropertyOp22
 70
     1
102
RTVSPropertyOp23
 70
     1
102
RTVSPropertyOp24
 70
     1
102
RTVSPropertyOp25
 70
     1
102
RTVSPropertyOp26
 70
     1
102
RTVSPropertyOp27
 70
     1
102
RTVSPropertyOp28
 70
     1
102
RTVSPropertyOp29
 70
     1
102
RTVSPropertyOp30
 70
     1
102
RTVSPropertyOp31
 70
     1
102
RTVSPropertyOp32
 70
     1
  0
ENDSEC
  0
EOF
