  0
SECTION
  2
HEADER
  9
$ACADVER
  1
AC1018
  9
$ACADMAINTVER
 70
     0
  9
$DWGCODEPAGE
  3
ANSI_1252
  9
$INSBASE
 10
0.0
 20
0.0
 30
0.0
  9
$EXTMIN
 10
-245.0250004253539
 20
12.46718658766201
 30
0.0
  9
$EXTMAX
 10
51.97499957464419
 20
222.4671865876621
 30
0.0
  9
$LIMMIN
 10
0.0
 20
0.0
  9
$LIMMAX
 10
12.0
 20
9.0
  9
$ORTHOMODE
 70
     0
  9
$REGENMODE
 70
     1
  9
$FILLMODE
 70
     1
  9
$QTEXTMODE
 70
     0
  9
$MIRRTEXT
 70
     1
  9
$LTSCALE
 40
1.0
  9
$ATTMODE
 70
     1
  9
$TEXTSIZE
 40
0.2
  9
$TRACEWID
 40
0.05
  9
$TEXTSTYLE
  7
Standard
  9
$CLAYER
  8
0
  9
$CELTYPE
  6
ByLayer
  9
$CECOLOR
 62
   256
  9
$CELTSCALE
 40
1.0
  9
$DISPSILH
 70
     0
  9
$DIMSCALE
 40
1.0
  9
$DIMASZ
 40
0.18
  9
$DIMEXO
 40
0.0625
  9
$DIMDLI
 40
0.38
  9
$DIMRND
 40
0.0
  9
$DIMDLE
 40
0.0
  9
$DIMEXE
 40
0.18
  9
$DIMTP
 40
0.0
  9
$DIMTM
 40
0.0
  9
$DIMTXT
 40
0.18
  9
$DIMCEN
 40
0.09
  9
$DIMTSZ
 40
0.0
  9
$DIMTOL
 70
     0
  9
$DIMLIM
 70
     0
  9
$DIMTIH
 70
     1
  9
$DIMTOH
 70
     1
  9
$DIMSE1
 70
     0
  9
$DIMSE2
 70
     0
  9
$DIMTAD
 70
     0
  9
$DIMZIN
 70
     0
  9
$DIMBLK
  1

  9
$DIMASO
 70
     1
  9
$DIMSHO
 70
     1
  9
$DIMPOST
  1

  9
$DIMAPOST
  1

  9
$DIMALT
 70
     0
  9
$DIMALTD
 70
     2
  9
$DIMALTF
 40
25.4
  9
$DIMLFAC
 40
1.0
  9
$DIMTOFL
 70
     0
  9
$DIMTVP
 40
0.0
  9
$DIMTIX
 70
     0
  9
$DIMSOXD
 70
     0
  9
$DIMSAH
 70
     0
  9
$DIMBLK1
  1

  9
$DIMBLK2
  1

  9
$DIMSTYLE
  2
Standard
  9
$DIMCLRD
 70
     0
  9
$DIMCLRE
 70
     0
  9
$DIMCLRT
 70
     0
  9
$DIMTFAC
 40
1.0
  9
$DIMGAP
 40
0.09
  9
$DIMJUST
 70
     0
  9
$DIMSD1
 70
     0
  9
$DIMSD2
 70
     0
  9
$DIMTOLJ
 70
     1
  9
$DIMTZIN
 70
     0
  9
$DIMALTZ
 70
     0
  9
$DIMALTTZ
 70
     0
  9
$DIMUPT
 70
     0
  9
$DIMDEC
 70
     4
  9
$DIMTDEC
 70
     4
  9
$DIMALTU
 70
     2
  9
$DIMALTTD
 70
     2
  9
$DIMTXSTY
  7
Standard
  9
$DIMAUNIT
 70
     0
  9
$DIMADEC
 70
     0
  9
$DIMALTRND
 40
0.0
  9
$DIMAZIN
 70
     0
  9
$DIMDSEP
 70
    46
  9
$DIMATFIT
 70
     3
  9
$DIMFRAC
 70
     0
  9
$DIMLDRBLK
  1

  9
$DIMLUNIT
 70
     2
  9
$DIMLWD
 70
    -2
  9
$DIMLWE
 70
    -2
  9
$DIMTMOVE
 70
     0
  9
$LUNITS
 70
     2
  9
$LUPREC
 70
     4
  9
$SKETCHINC
 40
0.1
  9
$FILLETRAD
 40
0.5
  9
$AUNITS
 70
     0
  9
$AUPREC
 70
     0
  9
$MENU
  1
.
  9
$ELEVATION
 40
0.0
  9
$PELEVATION
 40
0.0
  9
$THICKNESS
 40
0.0
  9
$LIMCHECK
 70
     0
  9
$CHAMFERA
 40
0.5
  9
$CHAMFERB
 40
0.5
  9
$CHAMFERC
 40
1.0
  9
$CHAMFERD
 40
0.0
  9
$SKPOLY
 70
     0
  9
$TDCREATE
 40
2458068.604303264
  9
$TDUCREATE
 40
2458068.562636597
  9
$TDUPDATE
 40
2458068.604303634
  9
$TDUUPDATE
 40
2458068.562636968
  9
$TDINDWG
 40
0.0000000116
  9
$TDUSRTIMER
 40
0.0000000116
  9
$USRTIMER
 70
     1
  9
$ANGBASE
 50
0.0
  9
$ANGDIR
 70
     0
  9
$PDMODE
 70
     0
  9
$PDSIZE
 40
0.0
  9
$PLINEWID
 40
0.0
  9
$SPLFRAME
 70
     0
  9
$SPLINETYPE
 70
     6
  9
$SPLINESEGS
 70
     8
  9
$HANDSEED
  5
309
  9
$SURFTAB1
 70
     6
  9
$SURFTAB2
 70
     6
  9
$SURFTYPE
 70
     6
  9
$SURFU
 70
     6
  9
$SURFV
 70
     6
  9
$UCSBASE
  2

  9
$UCSNAME
  2

  9
$UCSORG
 10
0.0
 20
0.0
 30
0.0
  9
$UCSXDIR
 10
1.0
 20
0.0
 30
0.0
  9
$UCSYDIR
 10
0.0
 20
1.0
 30
0.0
  9
$UCSORTHOREF
  2

  9
$UCSORTHOVIEW
 70
     0
  9
$UCSORGTOP
 10
0.0
 20
0.0
 30
0.0
  9
$UCSORGBOTTOM
 10
0.0
 20
0.0
 30
0.0
  9
$UCSORGLEFT
 10
0.0
 20
0.0
 30
0.0
  9
$UCSORGRIGHT
 10
0.0
 20
0.0
 30
0.0
  9
$UCSORGFRONT
 10
0.0
 20
0.0
 30
0.0
  9
$UCSORGBACK
 10
0.0
 20
0.0
 30
0.0
  9
$PUCSBASE
  2

  9
$PUCSNAME
  2

  9
$PUCSORG
 10
0.0
 20
0.0
 30
0.0
  9
$PUCSXDIR
 10
1.0
 20
0.0
 30
0.0
  9
$PUCSYDIR
 10
0.0
 20
1.0
 30
0.0
  9
$PUCSORTHOREF
  2

  9
$PUCSORTHOVIEW
 70
     0
  9
$PUCSORGTOP
 10
0.0
 20
0.0
 30
0.0
  9
$PUCSORGBOTTOM
 10
0.0
 20
0.0
 30
0.0
  9
$PUCSORGLEFT
 10
0.0
 20
0.0
 30
0.0
  9
$PUCSORGRIGHT
 10
0.0
 20
0.0
 30
0.0
  9
$PUCSORGFRONT
 10
0.0
 20
0.0
 30
0.0
  9
$PUCSORGBACK
 10
0.0
 20
0.0
 30
0.0
  9
$USERI1
 70
     0
  9
$USERI2
 70
     0
  9
$USERI3
 70
     0
  9
$USERI4
 70
     0
  9
$USERI5
 70
     0
  9
$USERR1
 40
18.1
  9
$USERR2
 40
0.0
  9
$USERR3
 40
0.0
  9
$USERR4
 40
0.0
  9
$USERR5
 40
0.0
  9
$WORLDVIEW
 70
     1
  9
$SHADEDGE
 70
     3
  9
$SHADEDIF
 70
    70
  9
$TILEMODE
 70
     1
  9
$MAXACTVP
 70
    64
  9
$PINSBASE
 10
0.0
 20
0.0
 30
0.0
  9
$PLIMCHECK
 70
     0
  9
$PEXTMIN
 10
1.00000000000000E+20
 20
1.00000000000000E+20
 30
1.00000000000000E+20
  9
$PEXTMAX
 10
-1.00000000000000E+20
 20
-1.00000000000000E+20
 30
-1.00000000000000E+20
  9
$PLIMMIN
 10
0.0
 20
0.0
  9
$PLIMMAX
 10
12.0
 20
9.0
  9
$UNITMODE
 70
     0
  9
$VISRETAIN
 70
     1
  9
$PLINEGEN
 70
     0
  9
$PSLTSCALE
 70
     1
  9
$TREEDEPTH
 70
  3020
  9
$CMLSTYLE
  2
Standard
  9
$CMLJUST
 70
     0
  9
$CMLSCALE
 40
1.0
  9
$PROXYGRAPHICS
 70
     1
  9
$MEASUREMENT
 70
     1
  9
$CELWEIGHT
370
    -1
  9
$ENDCAPS
280
     0
  9
$JOINSTYLE
280
     0
  9
$LWDISPLAY
290
     0
  9
$INSUNITS
 70
     4
  9
$HYPERLINKBASE
  1

  9
$STYLESHEET
  1

  9
$XEDIT
290
     1
  9
$CEPSNTYPE
380
     0
  9
$PSTYLEMODE
290
     1
  9
$FINGERPRINTGUID
  2
{599AACBA-5171-4F7C-A6AB-C7B4CFA7BF9B}
  9
$VERSIONGUID
  2
{FAEB1C32-E019-11D5-929B-00C0DF256EC4}
  9
$EXTNAMES
290
     1
  9
$PSVPSCALE
 40
0.0
  9
$OLESTARTUP
290
     0
  9
$SORTENTS
280
   127
  9
$INDEXCTL
280
     0
  9
$HIDETEXT
280
     1
  9
$XCLIPFRAME
290
     0
  9
$HALOGAP
280
     0
  9
$OBSCOLOR
 70
   257
  9
$OBSLTYPE
280
     0
  9
$INTERSECTIONDISPLAY
280
     0
  9
$INTERSECTIONCOLOR
 70
   257
  9
$DIMASSOC
280
     2
  9
$PROJECTNAME
  1

  0
ENDSEC
  0
SECTION
  2
CLASSES
  0
CLASS
  1
ACDBDICTIONARYWDFLT
  2
AcDbDictionaryWithDefault
  3
ObjectDBX Classes
 90
        0
 91
        4
280
     0
281
     0
  0
CLASS
  1
VISUALSTYLE
  2
AcDbVisualStyle
  3
ObjectDBX Classes
 90
     4095
 91
        4
280
     0
281
     0
  0
CLASS
  1
MATERIAL
  2
AcDbMaterial
  3
ObjectDBX Classes
 90
     1153
 91
        4
280
     0
281
     0
  0
ENDSEC
  0
SECTION
  2
TABLES
  0
TABLE
  2
VPORT
  5
8
330
0
100
AcDbSymbolTable
 70
     1
  0
VPORT
  5
29
330
8
100
AcDbSymbolTableRecord
100
AcDbViewportTableRecord
  2
*Active
 70
     0
 10
0.0
 20
0.0
 11
1.0
 21
1.0
 12
-96.52500042535486
 22
117.4671865876621
 13
0.0
 23
0.0
 14
0.5
 24
0.5
 15
0.5
 25
0.5
 16
0.0
 26
0.0
 36
1.0
 17
0.0
 27
0.0
 37
0.0
 40
231.0000000000001
 41
1.60267857142857
 42
50.0
 43
0.0
 44
0.0
 50
0.0
 51
0.0
 71
     0
 72
   100
 73
     1
 74
     3
 75
     0
 76
     0
 77
     0
 78
     0
281
     0
 65
     1
110
0.0
120
0.0
130
0.0
111
1.0
121
0.0
131
0.0
112
0.0
122
1.0
132
0.0
 79
     0
146
0.0
  0
ENDTAB
  0
TABLE
  2
LTYPE
  5
5
330
0
100
AcDbSymbolTable
 70
     8
  0
LTYPE
  5
14
330
5
100
AcDbSymbolTableRecord
100
AcDbLinetypeTableRecord
  2
ByBlock
 70
     0
  3

 72
    65
 73
     0
 40
0.0
  0
LTYPE
  5
15
330
5
100
AcDbSymbolTableRecord
100
AcDbLinetypeTableRecord
  2
ByLayer
 70
     0
  3

 72
    65
 73
     0
 40
0.0
  0
LTYPE
  5
16
330
5
100
AcDbSymbolTableRecord
100
AcDbLinetypeTableRecord
  2
Continuous
 70
     0
  3
Solid line
 72
    65
 73
     0
 40
0.0
  0
LTYPE
  5
3F
330
5
100
AcDbSymbolTableRecord
100
AcDbLinetypeTableRecord
  2
DASHED
 70
     0
  3
Dashed
 72
    65
 73
     2
 40
15.0
 49
7.0
 74
     0
 49
-8.0
 74
     0
  0
LTYPE
  5
40
330
5
100
AcDbSymbolTableRecord
100
AcDbLinetypeTableRecord
  2
DOTTED
 70
     0
  3
Dotted
 72
    65
 73
     2
 40
1.0
 49
0.0
 74
     0
 49
-1.0
 74
     0
  0
LTYPE
  5
41
330
5
100
AcDbSymbolTableRecord
100
AcDbLinetypeTableRecord
  2
DOT_CENTER
 70
     0
  3
Dot_Center
 72
    65
 73
     4
 40
14.0
 49
12.0
 74
     0
 49
-1.0
 74
     0
 49
0.0
 74
     0
 49
-1.0
 74
     0
  0
LTYPE
  5
42
330
5
100
AcDbSymbolTableRecord
100
AcDbLinetypeTableRecord
  2
LONG_DASHED
 70
     0
  3
Long_Dashed
 72
    65
 73
     2
 40
15.0
 49
10.0
 74
     0
 49
-5.0
 74
     0
  0
LTYPE
  5
43
330
5
100
AcDbSymbolTableRecord
100
AcDbLinetypeTableRecord
  2
DASH_CENTER
 70
     0
  3
Dash_Center
 72
    65
 73
     4
 40
14.0
 49
11.0
 74
     0
 49
-1.0
 74
     0
 49
1.0
 74
     0
 49
-1.0
 74
     0
  0
LTYPE
  5
44
330
5
100
AcDbSymbolTableRecord
100
AcDbLinetypeTableRecord
  2
PHANTOM
 70
     0
  3
Phantom
 72
    65
 73
     6
 40
13.0
 49
10.0
 74
     0
 49
-1.0
 74
     0
 49
0.0
 74
     0
 49
-1.0
 74
     0
 49
0.0
 74
     0
 49
-1.0
 74
     0
  0
LTYPE
  5
45
330
5
100
AcDbSymbolTableRecord
100
AcDbLinetypeTableRecord
  2
CENTER_DASH_DASH
 70
     0
  3
Center_Dash_Dash
 72
    65
 73
     6
 40
14.0
 49
9.0
 74
     0
 49
-1.0
 74
     0
 49
1.0
 74
     0
 49
-1.0
 74
     0
 49
1.0
 74
     0
 49
-1.0
 74
     0
  0
ENDTAB
  0
TABLE
  2
LAYER
  5
2
330
0
100
AcDbSymbolTable
 70
     2
  0
LAYER
  5
10
330
2
100
AcDbSymbolTableRecord
100
AcDbLayerTableRecord
  2
0
 70
     0
 62
     7
  6
Continuous
370
    -3
390
F
  0
LAYER
  5
46
330
2
100
AcDbSymbolTableRecord
100
AcDbLayerTableRecord
  2
1
 70
     0
 62
     7
  6
Continuous
370
    -3
390
F
  0
ENDTAB
  0
TABLE
  2
STYLE
  5
3
330
0
100
AcDbSymbolTable
 70
     5
  0
STYLE
  5
11
330
3
100
AcDbSymbolTableRecord
100
AcDbTextStyleTableRecord
  2
Standard
 70
     0
 40
0.0
 41
1.0
 50
0.0
 71
     0
 42
0.2
  3
txt
  4

  0
STYLE
  5
D3
330
3
100
AcDbSymbolTableRecord
100
AcDbTextStyleTableRecord
  2
CONVERTER_11
 70
     0
 40
0.0
 41
0.9
 50
0.0
 71
     0
 42
0.2
  3
txt.shx
  4

  0
STYLE
  5
2A4
330
3
100
AcDbSymbolTableRecord
100
AcDbTextStyleTableRecord
  2
CONVERTER_12
 70
     0
 40
0.0
 41
0.81
 50
0.0
 71
     0
 42
0.2
  3
txt.shx
  4

  0
STYLE
  5
2BA
330
3
100
AcDbSymbolTableRecord
100
AcDbTextStyleTableRecord
  2
CONVERTER_13
 70
     0
 40
0.0
 41
0.72
 50
0.0
 71
     0
 42
0.2
  3
txt.shx
  4

  0
STYLE
  5
2BD
330
3
100
AcDbSymbolTableRecord
100
AcDbTextStyleTableRecord
  2
CONVERTER_14
 70
     0
 40
0.0
 41
0.855
 50
0.0
 71
     0
 42
0.2
  3
txt.shx
  4

  0
ENDTAB
  0
TABLE
  2
VIEW
  5
6
330
0
100
AcDbSymbolTable
 70
     0
  0
ENDTAB
  0
TABLE
  2
UCS
  5
7
330
0
100
AcDbSymbolTable
 70
     0
  0
ENDTAB
  0
TABLE
  2
APPID
  5
9
330
0
100
AcDbSymbolTable
 70
     1
  0
APPID
  5
12
330
9
100
AcDbSymbolTableRecord
100
AcDbRegAppTableRecord
  2
ACAD
 70
     0
  0
ENDTAB
  0
TABLE
  2
DIMSTYLE
  5
A
330
0
100
AcDbSymbolTable
 70
     6
100
AcDbDimStyleTable
  0
DIMSTYLE
105
27
330
A
100
AcDbSymbolTableRecord
100
AcDbDimStyleTableRecord
  2
Standard
 70
     0
178
     0
340
11
  0
DIMSTYLE
105
101
102
{ACAD_REACTORS
330
102
102
}
330
A
100
AcDbSymbolTableRecord
100
AcDbDimStyleTableRecord
  2
ME10_DIM_10
 70
     0
 41
1.75
 42
0.0
 44
0.75
 73
     0
 74
     0
 77
     1
 78
     8
140
1.75
147
0.75
172
     1
173
     1
174
     1
175
     1
176
     2
177
     2
178
     3
340
D3
  0
DIMSTYLE
105
17B
102
{ACAD_REACTORS
330
17C
102
}
330
A
100
AcDbSymbolTableRecord
100
AcDbDimStyleTableRecord
  2
ME10_DIM_11
 70
     0
 41
1.75
 42
0.0
 44
0.75
 73
     0
 74
     0
 77
     1
 78
     8
140
1.75
147
0.75
172
     1
173
     1
174
     1
175
     1
176
     2
177
     2
178
     3
340
D3
  0
DIMSTYLE
105
186
102
{ACAD_REACTORS
330
187
102
}
330
A
100
AcDbSymbolTableRecord
100
AcDbDimStyleTableRecord
  2
ME10_DIM_12
 70
     0
 41
1.75
 42
0.0
 44
0.75
 73
     0
 74
     0
 77
     1
 78
     8
140
1.75
147
0.75
172
     1
173
     1
174
     1
175
     1
176
     2
177
     2
271
     2
178
     3
271
     2
340
D3
  0
DIMSTYLE
105
191
102
{ACAD_REACTORS
330
192
102
}
330
A
100
AcDbSymbolTableRecord
100
AcDbDimStyleTableRecord
  2
ME10_DIM_13
 70
     0
 41
1.75
 42
0.0
 44
0.75
 73
     0
 74
     0
 77
     1
 78
     8
140
1.75
147
0.75
172
     1
173
     1
174
     1
175
     1
176
     2
177
     2
271
     2
178
     3
271
     2
340
D3
  0
DIMSTYLE
105
19C
102
{ACAD_REACTORS
330
19D
102
}
330
A
100
AcDbSymbolTableRecord
100
AcDbDimStyleTableRecord
  2
ME10_DIM_14
 70
     0
 41
1.75
 42
0.0
 44
0.75
 73
     0
 74
     0
 77
     1
 78
     8
140
1.75
147
0.75
172
     1
173
     1
174
     1
175
     1
176
     2
177
     2
178
     3
340
D3
  0
ENDTAB
  0
TABLE
  2
BLOCK_RECORD
  5
1
330
0
100
AcDbSymbolTable
 70
    23
  0
BLOCK_RECORD
  5
1F
330
1
100
AcDbSymbolTableRecord
100
AcDbBlockTableRecord
  2
*Model_Space
340
22
  0
BLOCK_RECORD
  5
1B
330
1
100
AcDbSymbolTableRecord
100
AcDbBlockTableRecord
  2
*Paper_Space
340
1E
  0
BLOCK_RECORD
  5
23
330
1
100
AcDbSymbolTableRecord
100
AcDbBlockTableRecord
  2
*Paper_Space0
340
26
  0
BLOCK_RECORD
  5
47
330
1
100
AcDbSymbolTableRecord
100
AcDbBlockTableRecord
  2
MBK_BU-select__1
340
0
102
{BLKREFS
331
4B
102
}
  0
BLOCK_RECORD
  5
4A
330
1
100
AcDbSymbolTableRecord
100
AcDbBlockTableRecord
  2
Allg1
340
0
102
{BLKREFS
331
7D
102
}
  0
BLOCK_RECORD
  5
4E
330
1
100
AcDbSymbolTableRecord
100
AcDbBlockTableRecord
  2
MBK_BU-select__2
340
0
102
{BLKREFS
331
52
102
}
  0
BLOCK_RECORD
  5
51
330
1
100
AcDbSymbolTableRecord
100
AcDbBlockTableRecord
  2
Drfsicht2
340
0
102
{BLKREFS
331
7E
102
}
  0
BLOCK_RECORD
  5
55
330
1
100
AcDbSymbolTableRecord
100
AcDbBlockTableRecord
  2
MBK_BU-select__3
340
0
102
{BLKREFS
331
59
102
}
  0
BLOCK_RECORD
  5
58
330
1
100
AcDbSymbolTableRecord
100
AcDbBlockTableRecord
  2
Rckans2
340
0
102
{BLKREFS
331
7F
102
}
  0
BLOCK_RECORD
  5
5C
330
1
100
AcDbSymbolTableRecord
100
AcDbBlockTableRecord
  2
MBK_BU-select__4
340
0
102
{BLKREFS
331
60
102
}
  0
BLOCK_RECORD
  5
5F
330
1
100
AcDbSymbolTableRecord
100
AcDbBlockTableRecord
  2
SA_Links2
340
0
102
{BLKREFS
331
80
102
}
  0
BLOCK_RECORD
  5
63
330
1
100
AcDbSymbolTableRecord
100
AcDbBlockTableRecord
  2
MBK_BU-select__5
340
0
102
{BLKREFS
331
67
102
}
  0
BLOCK_RECORD
  5
66
330
1
100
AcDbSymbolTableRecord
100
AcDbBlockTableRecord
  2
SA_Rechts2
340
0
102
{BLKREFS
331
81
102
}
  0
BLOCK_RECORD
  5
6A
330
1
100
AcDbSymbolTableRecord
100
AcDbBlockTableRecord
  2
MBK_BU-select__6
340
0
102
{BLKREFS
331
6E
102
}
  0
BLOCK_RECORD
  5
6D
330
1
100
AcDbSymbolTableRecord
100
AcDbBlockTableRecord
  2
Vordans1
340
0
102
{BLKREFS
331
82
102
}
  0
BLOCK_RECORD
  5
71
330
1
100
AcDbSymbolTableRecord
100
AcDbBlockTableRecord
  2
_rahmen
340
0
102
{BLKREFS
331
78
102
}
  0
BLOCK_RECORD
  5
74
330
1
100
AcDbSymbolTableRecord
100
AcDbBlockTableRecord
  2
_punkt
340
0
102
{BLKREFS
331
79
102
}
  0
BLOCK_RECORD
  5
77
330
1
100
AcDbSymbolTableRecord
100
AcDbBlockTableRecord
  2
A4I_CS
340
0
102
{BLKREFS
331
83
102
}
  0
BLOCK_RECORD
  5
7C
330
1
100
AcDbSymbolTableRecord
100
AcDbBlockTableRecord
  2
1
340
0
102
{BLKREFS
331
86
102
}
  0
BLOCK_RECORD
  5
F8
330
1
100
AcDbSymbolTableRecord
100
AcDbBlockTableRecord
  2
*D17
340
0
  0
BLOCK_RECORD
  5
172
330
1
100
AcDbSymbolTableRecord
100
AcDbBlockTableRecord
  2
*D18
340
0
  0
BLOCK_RECORD
  5
17D
330
1
100
AcDbSymbolTableRecord
100
AcDbBlockTableRecord
  2
*D19
340
0
  0
BLOCK_RECORD
  5
188
330
1
100
AcDbSymbolTableRecord
100
AcDbBlockTableRecord
  2
*D20
340
0
  0
BLOCK_RECORD
  5
193
330
1
100
AcDbSymbolTableRecord
100
AcDbBlockTableRecord
  2
*D21
340
0
  0
BLOCK_RECORD
  5
19E
330
1
100
AcDbSymbolTableRecord
100
AcDbBlockTableRecord
  2
*D22
340
0
102
{BLKREFS
331
1A7
102
}
  0
ENDTAB
  0
ENDSEC
  0
SECTION
  2
BLOCKS
  0
BLOCK
  5
20
330
1F
100
AcDbEntity
  8
0
100
AcDbBlockBegin
  2
*Model_Space
 70
     0
 10
0.0
 20
0.0
 30
0.0
  3
*Model_Space
  1

  0
ENDBLK
  5
21
330
1F
100
AcDbEntity
  8
0
100
AcDbBlockEnd
  0
BLOCK
  5
1C
330
1B
100
AcDbEntity
 67
     1
  8
0
100
AcDbBlockBegin
  2
*Paper_Space
 70
     0
 10
0.0
 20
0.0
 30
0.0
  3
*Paper_Space
  1

  0
ENDBLK
  5
1D
330
1B
100
AcDbEntity
 67
     1
  8
0
100
AcDbBlockEnd
  0
BLOCK
  5
24
330
23
100
AcDbEntity
  8
0
100
AcDbBlockBegin
  2
*Paper_Space0
 70
     0
 10
0.0
 20
0.0
 30
0.0
  3
*Paper_Space0
  1

  0
ENDBLK
  5
25
330
23
100
AcDbEntity
  8
0
100
AcDbBlockEnd
  0
BLOCK
  5
48
330
47
100
AcDbEntity
  8
0
100
AcDbBlockBegin
  2
MBK_BU-select__1
 70
     0
 10
-16.53883206237757
 20
34.70508251737189
 30
0.0
  3
MBK_BU-select__1
  1

  0
LINE
  5
87
330
47
100
AcDbEntity
  8
0
  6
Continuous
 62
     7
100
AcDbLine
 10
0.74296155206549
 20
35.90134690771853
 30
0.0
 11
0.69229018711164
 21
37.06033906884777
 31
0.0
  0
LINE
  5
88
330
47
100
AcDbEntity
  8
0
  6
Continuous
 62
     7
100
AcDbLine
 10
2.82043543821314
 20
35.97555606531841
 30
0.0
 11
2.84822296092979
 21
35.33997971889277
 31
0.0
  0
LINE
  5
89
330
47
100
AcDbEntity
  8
0
  6
Continuous
 62
     7
100
AcDbLine
 10
2.71674660065832
 20
36.89002839298232
 30
0.0
 11
2.22547025744721
 21
36.13420331433446
 31
0.0
  0
LINE
  5
8A
330
47
100
AcDbEntity
  8
0
  6
Continuous
 62
     7
100
AcDbLine
 10
3.31171178142427
 20
36.73138114396635
 30
0.0
 11
2.82043543821314
 21
35.97555606531841
 31
0.0
  0
LINE
  5
8B
330
47
100
AcDbEntity
  8
0
  6
Continuous
 62
     2
100
AcDbLine
 10
2.84822296092979
 20
35.33997971889277
 30
0.0
 11
3.68748671391539
 21
36.63118089491626
 31
0.0
  0
LINE
  5
8C
330
47
100
AcDbEntity
  8
0
  6
Continuous
 62
     7
100
AcDbLine
 10
2.75980821993573
 20
34.99393564050727
 30
0.0
 11
3.80383135667395
 21
36.60015763824831
 31
0.0
  0
LINE
  5
8D
330
47
100
AcDbEntity
  8
0
  6
Continuous
 62
     7
100
AcDbLine
 10
-13.92358561943633
 20
41.32716692608327
 30
0.0
 11
-15.93731392356732
 21
41.86412684582967
 31
0.0
  0
LINE
  5
8E
330
47
100
AcDbEntity
  8
0
  6
Continuous
 62
     7
100
AcDbLine
 10
-12.94287442992781
 20
41.65687646872846
 30
0.0
 11
-12.90037586577274
 21
40.68481852713609
 31
0.0
  0
LINE
  5
8F
330
47
100
AcDbEntity
  8
0
  6
Continuous
 62
     7
100
AcDbLine
 10
-9.64768265953158
 20
40.77821478187069
 30
0.0
 11
-12.94287442992781
 21
41.65687646872846
 31
0.0
  0
LINE
  5
90
330
47
100
AcDbEntity
  8
0
  6
Continuous
 62
     7
100
AcDbLine
 10
-6.1251095526857
 20
54.29474122485992
 30
0.0
 11
-5.72373711783329
 21
54.91225098113378
 31
0.0
  0
LINE
  5
91
330
47
100
AcDbEntity
  8
0
  6
Continuous
 62
     7
100
AcDbLine
 10
-5.72373711783329
 20
54.91225098113378
 30
0.0
 11
-5.69168663669514
 21
54.17916916198072
 31
0.0
  0
LINE
  5
92
330
47
100
AcDbEntity
  8
0
  6
Continuous
 62
     7
100
AcDbLine
 10
-5.72373711783329
 20
54.91225098113378
 30
0.0
 11
-4.80840607050102
 21
54.66817829033997
 31
0.0
  0
LINE
  5
93
330
47
100
AcDbEntity
  8
0
  6
Continuous
 62
     7
100
AcDbLine
 10
-5.20977916255276
 20
54.05066870930806
 30
0.0
 11
-6.1251095526857
 21
54.29474122485992
 31
0.0
  0
LINE
  5
94
330
47
100
AcDbEntity
  8
0
  6
Continuous
 62
     7
100
AcDbLine
 10
-0.52717143494061
 20
52.59658377963192
 30
0.0
 11
-1.91829377628601
 21
52.20204077976274
 31
0.0
  0
LINE
  5
95
330
47
100
AcDbEntity
  8
0
  6
Continuous
 62
     7
100
AcDbLine
 10
2.43323541127151
 20
52.01266165355864
 30
0.0
 11
1.51790436393922
 21
52.25673434435247
 31
0.0
  0
LINE
  5
96
330
47
100
AcDbEntity
  8
0
  6
Continuous
 62
     7
100
AcDbLine
 10
1.91927745599098
 20
52.87424392538437
 30
0.0
 11
1.95132793712914
 21
52.14116210623131
 31
0.0
  0
LINE
  5
97
330
47
100
AcDbEntity
  8
0
  6
Continuous
 62
     7
100
AcDbLine
 10
2.83460850332325
 20
52.63017123459055
 30
0.0
 11
2.43323541127151
 21
52.01266165355864
 31
0.0
  0
LINE
  5
98
330
47
100
AcDbEntity
  8
0
  6
Continuous
 62
     7
100
AcDbLine
 10
1.51790436393922
 20
52.25673434435247
 30
0.0
 11
1.91927745599098
 21
52.87424392538437
 31
0.0
  0
LINE
  5
99
330
47
100
AcDbEntity
  8
0
  6
Continuous
 62
     7
100
AcDbLine
 10
1.91927745599098
 20
52.87424392538437
 30
0.0
 11
2.83460850332325
 21
52.63017123459055
 31
0.0
  0
LINE
  5
9A
330
47
100
AcDbEntity
  8
0
  6
Continuous
 62
     7
100
AcDbLine
 10
-4.80840607050102
 20
54.66817829033997
 30
0.0
 11
-5.20977916255276
 21
54.05066870930806
 31
0.0
  0
LINE
  5
9B
330
47
100
AcDbEntity
  8
0
  6
Continuous
 62
     7
100
AcDbLine
 10
-15.93731392356732
 20
41.86412684582967
 30
0.0
 11
-16.53883206237757
 21
55.62248540375217
 31
0.0
  0
LINE
  5
9C
330
47
100
AcDbEntity
  8
0
  6
Continuous
 62
     7
100
AcDbLine
 10
-16.53883206237757
 20
55.62248540375217
 30
0.0
 11
3.59845097893253
 21
50.25288620628809
 31
0.0
  0
LINE
  5
9D
330
47
100
AcDbEntity
  8
0
  6
Continuous
 62
     7
100
AcDbLine
 10
4.1999691177428
 20
36.49452764836553
 30
0.0
 11
2.18624081361178
 21
37.03148756811194
 31
0.0
  0
LINE
  5
9E
330
47
100
AcDbEntity
  8
0
  6
Continuous
 62
     7
100
AcDbLine
 10
6.20683457800152
 20
39.58207555352504
 30
0.0
 11
4.1999691177428
 21
36.49452764836553
 31
0.0
  0
LINE
  5
9F
330
47
100
AcDbEntity
  8
0
  6
Continuous
 62
     7
100
AcDbLine
 10
5.77785513381237
 20
41.55559958658792
 30
0.0
 11
4.30421498496672
 21
41.94854519619968
 31
0.0
  0
LINE
  5
A0
330
47
100
AcDbEntity
  8
0
  6
Continuous
 62
     7
100
AcDbLine
 10
4.41318662083644
 20
39.45606701107944
 30
0.0
 11
5.77785513381237
 21
41.55559958658792
 31
0.0
  0
LINE
  5
A1
330
47
100
AcDbEntity
  8
0
  6
Continuous
 62
     7
100
AcDbLine
 10
5.77785513381237
 20
41.55559958658792
 30
0.0
 11
5.44171286943356
 21
49.2440889294743
 31
0.0
  0
LINE
  5
A2
330
47
100
AcDbEntity
  8
0
  6
Continuous
 62
     7
100
AcDbLine
 10
5.44171286943356
 20
49.2440889294743
 30
0.0
 11
4.07704435645763
 21
47.14455635396583
 31
0.0
  0
LINE
  5
A3
330
47
100
AcDbEntity
  8
0
  6
Continuous
 62
     7
100
AcDbLine
 10
4.07704435645763
 20
47.14455635396583
 30
0.0
 11
4.41318662083644
 21
39.45606701107944
 31
0.0
  0
LINE
  5
A4
330
47
100
AcDbEntity
  8
0
  6
Continuous
 62
     7
100
AcDbLine
 10
3.59845097893253
 20
50.25288620628809
 30
0.0
 11
4.1999691177428
 21
36.49452764836553
 31
0.0
  0
LINE
  5
A5
330
47
100
AcDbEntity
  8
0
  6
Continuous
 62
     7
100
AcDbLine
 10
6.20683457800152
 20
39.58207555352504
 30
0.0
 11
5.60531643919124
 21
53.34043411144761
 31
0.0
  0
LINE
  5
A6
330
47
100
AcDbEntity
  8
0
  6
Continuous
 62
     7
100
AcDbLine
 10
5.60531643919124
 20
53.34043411144761
 30
0.0
 11
3.59845097893253
 21
50.25288620628809
 31
0.0
  0
LINE
  5
A7
330
47
100
AcDbEntity
  8
0
  6
Continuous
 62
     7
100
AcDbLine
 10
-2.14196807140691
 20
38.77681871736135
 30
0.0
 11
-2.05697094309687
 21
36.83270283417667
 31
0.0
  0
LINE
  5
A8
330
47
100
AcDbEntity
  8
0
  6
Continuous
 62
     7
100
AcDbLine
 10
1.1957222631443
 20
36.92609908891119
 30
0.0
 11
1.15322369898922
 21
37.89815703050353
 31
0.0
  0
LINE
  5
A9
330
47
100
AcDbEntity
  8
0
  6
Continuous
 62
     7
100
AcDbLine
 10
2.22547025744721
 20
36.13420331433446
 30
0.0
 11
2.82043543821314
 21
35.97555606531841
 31
0.0
  0
LINE
  5
AA
330
47
100
AcDbEntity
  8
0
  6
Continuous
 62
     2
100
AcDbLine
 10
-2.05697094309687
 20
36.83270283417667
 30
0.0
 11
-0.99253886613953
 21
38.47032383791385
 31
0.0
  0
LINE
  5
AB
330
47
100
AcDbEntity
  8
0
  6
Continuous
 62
     7
100
AcDbLine
 10
1.15322369898922
 20
37.89815703050353
 30
0.0
 11
-2.14196807140691
 21
38.77681871736135
 31
0.0
  0
LINE
  5
AC
330
47
100
AcDbEntity
  8
0
  6
Continuous
 62
     7
100
AcDbLine
 10
-2.13385332656995
 20
36.53179493992849
 30
0.0
 11
-0.89136961156686
 21
38.4433470929852
 31
0.0
  0
LINE
  5
AD
330
47
100
AcDbEntity
  8
0
  6
Continuous
 62
     7
100
AcDbLine
 10
-13.76812412650985
 20
56.3327482806093
 30
0.0
 11
-13.36675103445811
 21
56.9502578616412
 31
0.0
  0
LINE
  5
AE
330
47
100
AcDbEntity
  8
0
  6
Continuous
 62
     7
100
AcDbLine
 10
-13.36675103445811
 20
56.9502578616412
 30
0.0
 11
-13.33470055331995
 21
56.21717604248815
 31
0.0
  0
LINE
  5
AF
330
47
100
AcDbEntity
  8
0
  6
Continuous
 62
     7
100
AcDbLine
 10
-12.36815982729402
 20
41.50362902900468
 30
0.0
 11
-12.90037586577274
 21
40.68481852713609
 31
0.0
  0
LINE
  5
B0
330
47
100
AcDbEntity
  8
0
  6
Continuous
 62
     7
100
AcDbLine
 10
-13.98804501315576
 20
41.34435499996962
 30
0.0
 11
-14.47932135636687
 21
40.58852992132171
 31
0.0
  0
LINE
  5
B1
330
47
100
AcDbEntity
  8
0
  6
Continuous
 62
     7
100
AcDbLine
 10
-12.85279307917757
 20
56.08867558981547
 30
0.0
 11
-13.76812412650985
 21
56.3327482806093
 31
0.0
  0
LINE
  5
B2
330
47
100
AcDbEntity
  8
0
  6
Continuous
 62
     7
100
AcDbLine
 10
-12.45141998712582
 20
56.70618517084738
 30
0.0
 11
-12.85279307917757
 21
56.08867558981547
 31
0.0
  0
LINE
  5
B3
330
47
100
AcDbEntity
  8
0
  6
Continuous
 62
     7
100
AcDbLine
 10
-13.36675103445811
 20
56.9502578616412
 30
0.0
 11
-12.45141998712582
 21
56.70618517084738
 31
0.0
  0
LINE
  5
B4
330
47
100
AcDbEntity
  8
0
  6
Continuous
 62
     7
100
AcDbLine
 10
-12.39694378973996
 20
40.55057854719949
 30
0.0
 11
-12.34627242478585
 21
39.39158638607017
 31
0.0
  0
LINE
  5
B5
330
47
100
AcDbEntity
  8
0
  6
Continuous
 62
     7
100
AcDbLine
 10
-13.88435617560089
 20
40.42988267230572
 30
0.0
 11
-13.92358561943633
 21
41.32716692608327
 31
0.0
  0
LINE
  5
B6
330
47
100
AcDbEntity
  8
0
  6
Continuous
 62
     7
100
AcDbLine
 10
-12.90037586577274
 20
40.68481852713609
 30
0.0
 11
-12.39694378973996
 21
40.55057854719949
 31
0.0
  0
LINE
  5
B7
330
47
100
AcDbEntity
  8
0
  6
Continuous
 62
     7
100
AcDbLine
 10
-14.53196660211887
 20
58.71003330891169
 30
0.0
 11
-16.53883206237757
 21
55.62248540375217
 31
0.0
  0
LINE
  5
B8
330
47
100
AcDbEntity
  8
0
  6
Continuous
 62
     7
100
AcDbLine
 10
0.69229018711164
 20
37.06033906884777
 30
0.0
 11
1.1957222631443
 21
36.92609908891119
 31
0.0
  0
LINE
  5
B9
330
47
100
AcDbEntity
  8
0
  6
Continuous
 62
     7
100
AcDbLine
 10
2.18624081361178
 20
37.03148756811194
 30
0.0
 11
2.22547025744721
 21
36.13420331433446
 31
0.0
  0
LINE
  5
BA
330
47
100
AcDbEntity
  8
0
  6
Continuous
 62
     7
100
AcDbLine
 10
-2.93961078723295
 20
36.32903864682255
 30
0.0
 11
-8.61466328069305
 21
37.84228932974421
 31
0.0
  0
LINE
  5
BB
330
47
100
AcDbEntity
  8
0
  6
Continuous
 62
     7
100
AcDbLine
 10
-7.66675360413255
 20
54.50035076782368
 30
0.0
 11
-9.05787594547765
 21
54.10580776795457
 31
0.0
  0
LINE
  5
BC
330
47
100
AcDbEntity
  8
0
  6
Continuous
 62
     7
100
AcDbLine
 10
-11.86472775126129
 20
41.36938904906808
 30
0.0
 11
-12.39694378973996
 21
40.55057854719949
 31
0.0
  0
LINE
  5
BD
330
47
100
AcDbEntity
  8
0
  6
Continuous
 62
     2
100
AcDbLine
 10
-11.17949110965964
 20
41.18667094785904
 30
0.0
 11
-12.34627242478585
 21
39.39158638607017
 31
0.0
  0
LINE
  5
BE
330
47
100
AcDbEntity
  8
0
  6
Continuous
 62
     7
100
AcDbLine
 10
-11.06314646690108
 20
41.15564769119109
 30
0.0
 11
-12.43468716578008
 21
39.04554230768476
 31
0.0
  0
LINE
  5
BF
330
47
100
AcDbEntity
  8
0
  6
Continuous
 62
     7
100
AcDbLine
 10
-14.47932135636687
 20
40.58852992132171
 30
0.0
 11
-13.88435617560089
 21
40.42988267230572
 31
0.0
  0
LINE
  5
C0
330
47
100
AcDbEntity
  8
0
  6
Continuous
 62
     7
100
AcDbLine
 10
-14.45153383365032
 20
39.95295357489601
 30
0.0
 11
-14.47932135636687
 21
40.58852992132171
 31
0.0
  0
LINE
  5
C1
330
47
100
AcDbEntity
  8
0
  6
Continuous
 62
     7
100
AcDbLine
 10
-9.56268553122165
 20
38.83409889868604
 30
0.0
 11
-9.64768265953158
 21
40.77821478187069
 31
0.0
  0
LINE
  5
C2
330
47
100
AcDbEntity
  8
0
  6
Continuous
 62
     7
100
AcDbLine
 10
1.15849484577412
 20
37.77759154328282
 30
0.0
 11
0.69229018711164
 21
37.06033906884777
 31
0.0
  0
LINE
  5
C3
330
47
100
AcDbEntity
  8
0
  6
Continuous
 62
     7
100
AcDbLine
 10
-14.53196660211887
 20
58.71003330891169
 30
0.0
 11
5.60531643919124
 21
53.34043411144761
 31
0.0
  0
SPLINE
  5
C4
330
47
100
AcDbEntity
  8
0
  6
Continuous
 62
     7
100
AcDbSpline
210
0.0
220
0.0
230
1.0
 70
     8
 71
     3
 72
    15
 73
    11
 74
     9
 42
0.000000001
 43
0.0000000001
 44
0.00000001
 40
0.0
 40
0.0
 40
0.0
 40
0.0
 40
0.470732855217621
 40
0.9480489898933504
 40
1.416817114108307
 40
1.863073392860868
 40
2.276184157062184
 40
2.651270322537008
 40
2.991804398075179
 40
3.311235722694145
 40
3.311235722694145
 40
3.311235722694145
 40
3.311235722694145
 10
-1.170120416150098
 20
52.31111492958782
 30
0.0
 10
-1.323337766745508
 20
52.27573879937854
 30
0.0
 10
-1.631915241139653
 20
52.20449181023963
 30
0.0
 10
-2.107077241179377
 20
52.19309934463855
 30
0.0
 10
-2.569353107110925
 20
52.24990480815555
 30
0.0
 10
-2.995231687566913
 20
52.37905872816973
 30
0.0
 10
-3.36247967633061
 20
52.57238160255044
 30
0.0
 10
-3.647344922003763
 20
52.82178520620478
 30
0.0
 10
-3.844942515429537
 20
53.11617598271361
 30
0.0
 10
-3.8787127885901
 20
53.3358799240595
 30
0.0
 10
-3.895058007310041
 20
53.44221932022862
 30
0.0
 11
-1.170120416150098
 21
52.31111492958782
 31
0.0
 11
-1.632083140440169
 21
52.22067236711119
 31
0.0
 11
-2.109135024428106
 21
52.20479184216413
 31
0.0
 11
-2.574100560328272
 21
52.26437879210125
 31
0.0
 11
-3.000492998209175
 21
52.39603803214693
 31
0.0
 11
-3.364022120508139
 21
52.59227024469079
 31
0.0
 11
-3.643980065724996
 21
52.84189632881227
 31
0.0
 11
-3.824417905527707
 21
53.13069668715054
 31
0.0
 11
-3.895058007310041
 21
53.44221932022862
 31
0.0
  0
SPLINE
  5
C5
330
47
100
AcDbEntity
  8
0
  6
Continuous
 62
     7
100
AcDbSpline
210
0.0
220
0.0
230
1.0
 70
     8
 71
     3
 72
    15
 73
    11
 74
     9
 42
0.000000001
 43
0.0000000001
 44
0.00000001
 40
0.0
 40
0.0
 40
0.0
 40
0.0
 40
0.3935758873219618
 40
0.8222162444044485
 40
1.277607809876895
 40
1.747354604561274
 40
2.217101399245654
 40
2.672492964718104
 40
3.101133321800582
 40
3.49470920912254
 40
3.49470920912254
 40
3.49470920912254
 40
3.49470920912254
 10
-3.482931150987383
 20
52.68297771297181
 30
0.0
 10
-3.383187734977498
 20
52.76898013759001
 30
0.0
 10
-3.174814551525853
 20
52.94864710457337
 30
0.0
 10
-2.78561786085707
 20
53.13229807967243
 30
0.0
 10
-2.351308106958674
 20
53.25922896179836
 30
0.0
 10
-1.887589859288669
 20
53.31510175348909
 30
0.0
 10
-1.420764765022354
 20
53.29991249950146
 30
0.0
 10
-0.9770344594909111
 20
53.21136970125378
 30
0.0
 10
-0.5732949177907782
 20
53.06238605399636
 30
0.0
 10
-0.3500366285449426
 20
52.90159009978792
 30
0.0
 10
-0.2431680563752252
 20
52.82462079187929
 30
0.0
 11
-3.482931150987383
 21
52.68297771297181
 31
0.0
 11
-3.174054938171058
 21
52.92689873452888
 31
0.0
 11
-2.790403525454771
 21
53.1180639789434
 31
0.0
 11
-2.353306682060535
 21
53.24584437267721
 31
0.0
 11
-1.887066723026663
 21
53.30313620199039
 31
0.0
 11
-1.417605694799187
 21
53.28675340364705
 31
0.0
 11
-0.9710247943265102
 21
53.19760757446257
 31
0.0
 11
-0.5721535747837656
 21
53.04065437324724
 31
0.0
 11
-0.2431680563752252
 21
52.82462079187929
 31
0.0
  0
SPLINE
  5
C6
330
47
100
AcDbEntity
  8
0
  6
Continuous
 62
     7
100
AcDbSpline
210
0.0
220
0.0
230
1.0
 70
     8
 71
     3
 72
    19
 73
    15
 74
    13
 42
0.000000001
 43
0.0000000001
 44
0.00000001
 40
0.0
 40
0.0
 40
0.0
 40
0.0
 40
0.3499912022777247
 40
0.7271578309502646
 40
1.147255369526529
 40
1.612017239795353
 40
2.112248055289935
 40
2.631855315163741
 40
3.151462575037551
 40
3.651693390532134
 40
4.116455260800956
 40
4.536552799377228
 40
4.913719428049752
 40
5.263710630327467
 40
5.263710630327467
 40
5.263710630327467
 40
5.263710630327467
 10
-3.895058007310041
 20
53.44221932022862
 30
0.0
 10
-3.886044992256596
 20
53.55997668177911
 30
0.0
 10
-3.867319123108432
 20
53.80463479353276
 30
0.0
 10
-3.6603611590944
 20
54.14071212769307
 30
0.0
 10
-3.34942182586661
 20
54.42796722768661
 30
0.0
 10
-2.941282230162281
 20
54.65296250308674
 30
0.0
 10
-2.467018210922289
 20
54.80312030957834
 30
0.0
 10
-1.955549727042596
 20
54.86952907293281
 30
0.0
 10
-1.440237081320902
 20
54.84801138226285
 30
0.0
 10
-0.9546778639661042
 20
54.73981723622047
 30
0.0
 10
-0.5284594312919259
 20
54.55130025772029
 30
0.0
 10
-0.1936367446792916
 20
54.29227800008606
 30
0.0
 10
0.0418622167126706
 20
53.97554496961963
 30
0.0
 10
0.0818688227554117
 20
53.73345465321861
 30
0.0
 10
0.1011245533153158
 20
53.61693320677937
 30
0.0
 11
-3.895058007310041
 21
53.44221932022862
 31
0.0
 11
-3.841968664749864
 21
53.78816059689427
 31
0.0
 11
-3.656331656159026
 21
54.11647991175221
 31
0.0
 11
-3.350795928985608
 21
54.40480241060567
 31
0.0
 11
-2.946184893047501
 21
54.6334801446928
 31
0.0
 11
-2.470070832615826
 21
54.78692808500659
 31
0.0
 11
-1.954900969658788
 21
54.85469022414726
 31
0.0
 11
-1.435782953966618
 21
54.83214735423407
 31
0.0
 11
-0.9480936127348303
 21
54.72083708796816
 31
0.0
 11
-0.5250688948633302
 21
54.52834375161631
 31
0.0
 11
-0.1955360404971174
 21
54.26778657589905
 31
0.0
 11
0.0180462480216352
 21
53.9569212071324
 31
0.0
 11
0.1011245533153158
 21
53.61693320677937
 31
0.0
  0
SPLINE
  5
C7
330
47
100
AcDbEntity
  8
0
  6
Continuous
 62
     7
100
AcDbSpline
210
0.0
220
0.0
230
1.0
 70
     8
 71
     3
 72
    13
 73
     9
 74
     7
 42
0.000000001
 43
0.0000000001
 44
0.00000001
 40
0.0
 40
0.0
 40
0.0
 40
0.0
 40
0.27270523302509
 40
0.5589308803224594
 40
0.8684325274175587
 40
1.205592312926582
 40
1.569773904337581
 40
1.956447067004718
 40
1.956447067004718
 40
1.956447067004718
 40
1.956447067004718
 10
0.1011245533153158
 20
53.61693320677937
 30
0.0
 10
0.0967030159509217
 20
53.52543146755123
 30
0.0
 10
0.0876407123812743
 20
53.33789143895001
 30
0.0
 10
-0.0350619492578093
 20
53.06898742067328
 30
0.0
 10
-0.2280850386153584
 20
52.82273630554342
 30
0.0
 10
-0.4910427074592479
 20
52.60841289947301
 30
0.0
 10
-0.8090832693785903
 20
52.42945924195639
 30
0.0
 10
-1.047395184414669
 20
52.35134301014138
 30
0.0
 10
-1.170120416150098
 20
52.31111492958782
 30
0.0
 11
0.1011245533153158
 21
53.61693320677937
 31
0.0
 11
0.0712177111191048
 21
53.34587283153326
 31
0.0
 11
-0.0407969940235304
 21
53.08247611621807
 31
0.0
 11
-0.2302470228279061
 21
52.83773143686666
 31
0.0
 11
-0.4892285398351959
 21
52.62184883929255
 31
0.0
 11
-0.8069378015187496
 21
52.4438346357784
 31
0.0
 11
-1.170120416150098
 21
52.31111492958782
 31
0.0
  0
SPLINE
  5
C8
330
47
100
AcDbEntity
  8
0
  6
Continuous
 62
     7
100
AcDbSpline
210
0.0
220
0.0
230
1.0
 70
     8
 71
     3
 72
    13
 73
     9
 74
     7
 42
0.000000001
 43
0.0000000001
 44
0.00000001
 40
0.0
 40
0.0
 40
0.0
 40
0.0
 40
0.2727052330250767
 40
0.5589308803224375
 40
0.8684325274175286
 40
1.205592312926543
 40
1.569773904337519
 40
1.956447067004651
 40
1.956447067004651
 40
1.956447067004651
 40
1.956447067004651
 10
-7.038457615876503
 20
55.52070019497117
 30
0.0
 10
-7.042879153240901
 20
55.42919845574304
 30
0.0
 10
-7.051941456810559
 20
55.24165842714185
 30
0.0
 10
-7.174644118449628
 20
54.97275440886506
 30
0.0
 10
-7.367667207807177
 20
54.72650329373526
 30
0.0
 10
-7.630624876651053
 20
54.51217988766484
 30
0.0
 10
-7.948665438570397
 20
54.33322623014827
 30
0.0
 10
-8.186977353606459
 20
54.25510999833322
 30
0.0
 10
-8.309702585341881
 20
54.21488191777966
 30
0.0
 11
-7.038457615876503
 21
55.52070019497117
 31
0.0
 11
-7.068364458072722
 21
55.24963981972508
 31
0.0
 11
-7.180379163215353
 21
54.98624310440989
 31
0.0
 11
-7.369829192019724
 21
54.74149842505849
 31
0.0
 11
-7.628810709027007
 21
54.52561582748439
 31
0.0
 11
-7.946519970710547
 21
54.34760162397026
 31
0.0
 11
-8.309702585341881
 21
54.21488191777966
 31
0.0
  0
SPLINE
  5
C9
330
47
100
AcDbEntity
  8
0
  6
Continuous
 62
     7
100
AcDbSpline
210
0.0
220
0.0
230
1.0
 70
     8
 71
     3
 72
    15
 73
    11
 74
     9
 42
0.000000001
 43
0.0000000001
 44
0.00000001
 40
0.0
 40
0.0
 40
0.0
 40
0.0
 40
0.4707328552176173
 40
0.94804898989335
 40
1.416817114108308
 40
1.863073392860868
 40
2.276184157062184
 40
2.651270322537009
 40
2.991804398075191
 40
3.311235722694176
 40
3.311235722694176
 40
3.311235722694176
 40
3.311235722694176
 10
-8.309702585341881
 20
54.21488191777966
 30
0.0
 10
-8.46291993593729
 20
54.17950578757038
 30
0.0
 10
-8.771497410331436
 20
54.10825879843145
 30
0.0
 10
-9.246659410371159
 20
54.09686633283037
 30
0.0
 10
-9.708935276302707
 20
54.15367179634738
 30
0.0
 10
-10.13481385675869
 20
54.28282571636157
 30
0.0
 10
-10.5020618455224
 20
54.47614859074223
 30
0.0
 10
-10.78692709119557
 20
54.72555219439661
 30
0.0
 10
-10.98452468462134
 20
55.0199429709054
 30
0.0
 10
-11.01829495778192
 20
55.23964691225135
 30
0.0
 10
-11.03464017650187
 20
55.34598630842044
 30
0.0
 11
-8.309702585341881
 21
54.21488191777966
 31
0.0
 11
-8.771665309631947
 21
54.12443935530302
 31
0.0
 11
-9.248717193619889
 21
54.10855883035595
 31
0.0
 11
-9.713682729520055
 21
54.16814578029308
 31
0.0
 11
-10.14007516740096
 21
54.29980502033875
 31
0.0
 11
-10.50360428969993
 21
54.49603723288261
 31
0.0
 11
-10.7835622349168
 21
54.74566331700407
 31
0.0
 11
-10.96400007471952
 21
55.03446367534235
 31
0.0
 11
-11.03464017650187
 21
55.34598630842044
 31
0.0
  0
SPLINE
  5
CA
330
47
100
AcDbEntity
  8
0
  6
Continuous
 62
     7
100
AcDbSpline
210
0.0
220
0.0
230
1.0
 70
     8
 71
     3
 72
     9
 73
     5
 74
     3
 42
0.000000001
 43
0.0000000001
 44
0.00000001
 40
0.0
 40
0.0
 40
0.0
 40
0.0
 40
0.1759382328011994
 40
0.3615771405745746
 40
0.3615771405745746
 40
0.3615771405745746
 40
0.3615771405745746
 10
-12.43468716578008
 20
39.04554230768476
 30
0.0
 10
-12.40695691251724
 20
39.09818742722965
 30
0.0
 10
-12.34996746645623
 20
39.2063803573743
 30
0.0
 10
-12.34752593320532
 20
39.32875663969436
 30
0.0
 10
-12.34627242478585
 20
39.39158638607017
 30
0.0
 11
-12.43468716578008
 21
39.04554230768476
 31
0.0
 11
-12.3644114811053
 21
39.20683579934886
 31
0.0
 11
-12.34627242478585
 21
39.39158638607017
 31
0.0
  0
SPLINE
  5
CB
330
47
100
AcDbEntity
  8
0
  6
Continuous
 62
     7
100
AcDbSpline
210
0.0
220
0.0
230
1.0
 70
     8
 71
     3
 72
     9
 73
     5
 74
     3
 42
0.000000001
 43
0.0000000001
 44
0.00000001
 40
0.0
 40
0.0
 40
0.0
 40
0.0
 40
0.1614251369909166
 40
0.3144149044407952
 40
0.3144149044407952
 40
0.3144149044407952
 40
0.3144149044407952
 10
-2.056970943096872
 20
36.83270283417667
 30
0.0
 10
-2.058060950416722
 20
36.77806827217955
 30
0.0
 10
-2.06018402531855
 20
36.67165411423497
 30
0.0
 10
-2.109740062895173
 20
36.57757330468927
 30
0.0
 10
-2.133853326569948
 20
36.53179493992849
 30
0.0
 11
-2.056970943096872
 21
36.83270283417667
 31
0.0
 11
-2.072744035548427
 21
36.67205015007117
 31
0.0
 11
-2.133853326569948
 21
36.53179493992849
 31
0.0
  0
SPLINE
  5
CC
330
47
100
AcDbEntity
  8
0
  6
Continuous
 62
     7
100
AcDbSpline
210
0.0
220
0.0
230
1.0
 70
     8
 71
     3
 72
    11
 73
     7
 74
     5
 42
0.000000001
 43
0.0000000001
 44
0.00000001
 40
0.0
 40
0.0
 40
0.0
 40
0.0
 40
0.1911018924736204
 40
0.3978386204526614
 40
0.6286579198995536
 40
0.8834286431154643
 40
0.8834286431154643
 40
0.8834286431154643
 40
0.8834286431154643
 10
-2.133853326569948
 20
36.53179493992849
 30
0.0
 10
-2.175592681223302
 20
36.48250306489961
 30
0.0
 10
-2.262486269778913
 20
36.37988655329756
 30
0.0
 10
-2.464439024178668
 20
36.30180382386644
 30
0.0
 10
-2.696526762398523
 20
36.27882425425125
 30
0.0
 10
-2.855961441007531
 20
36.31175901556349
 30
0.0
 10
-2.939610787232951
 20
36.32903864682255
 30
0.0
 11
-2.133853326569948
 21
36.53179493992849
 31
0.0
 11
-2.268510772673554
 21
36.39619513649566
 31
0.0
 11
-2.458068613966546
 21
36.31368512921654
 31
0.0
 11
-2.687740870768712
 21
36.29070242336796
 31
0.0
 11
-2.939610787232951
 21
36.32903864682255
 31
0.0
  0
SPLINE
  5
CD
330
47
100
AcDbEntity
  8
0
  6
Continuous
 62
     7
100
AcDbSpline
210
0.0
220
0.0
230
1.0
 70
     8
 71
     3
 72
    15
 73
    11
 74
     9
 42
0.000000001
 43
0.0000000001
 44
0.00000001
 40
0.0
 40
0.0
 40
0.0
 40
0.0
 40
0.3935758873219633
 40
0.8222162444044452
 40
1.277607809876893
 40
1.747354604561268
 40
2.217101399245647
 40
2.672492964718103
 40
3.101133321800587
 40
3.49470920912256
 40
3.49470920912256
 40
3.49470920912256
 40
3.49470920912256
 10
-10.62251332017919
 20
54.58674470116362
 30
0.0
 10
-10.52276990416931
 20
54.6727471257818
 30
0.0
 10
-10.31439672071767
 20
54.85241409276521
 30
0.0
 10
-9.92520003004889
 20
55.03606506786424
 30
0.0
 10
-9.490890276150497
 20
55.1629959499902
 30
0.0
 10
-9.027172028480495
 20
55.21886874168091
 30
0.0
 10
-8.560346934214177
 20
55.20367948769331
 30
0.0
 10
-8.116616628682731
 20
55.11513668944561
 30
0.0
 10
-7.712877086982585
 20
54.96615304218821
 30
0.0
 10
-7.489618797736744
 20
54.80535708797976
 30
0.0
 10
-7.382750225567023
 20
54.72838778007113
 30
0.0
 11
-10.62251332017919
 21
54.58674470116362
 31
0.0
 11
-10.31363710736287
 21
54.8306657227207
 31
0.0
 11
-9.929985694646593
 21
55.02183096713522
 31
0.0
 11
-9.492888851252356
 21
55.14961136086904
 31
0.0
 11
-9.026648892218489
 21
55.20690319018222
 31
0.0
 11
-8.557187863991015
 21
55.19052039183889
 31
0.0
 11
-8.110606963518329
 21
55.10137456265441
 31
0.0
 11
-7.711735743975576
 21
54.94442136143908
 31
0.0
 11
-7.382750225567023
 21
54.72838778007113
 31
0.0
  0
SPLINE
  5
CE
330
47
100
AcDbEntity
  8
0
  6
Continuous
 62
     7
100
AcDbSpline
210
0.0
220
0.0
230
1.0
 70
     8
 71
     3
 72
    17
 73
    13
 74
    11
 42
0.000000001
 43
0.0000000001
 44
0.00000001
 40
0.0
 40
0.0
 40
0.0
 40
0.0
 40
0.2435333516941712
 40
0.5135801416467968
 40
0.8060651241843044
 40
1.112013319241027
 40
1.419936978749849
 40
1.718001478797091
 40
1.996157063193457
 40
2.248439844508708
 40
2.475491221925829
 40
2.686463138214678
 40
2.686463138214678
 40
2.686463138214678
 40
2.686463138214678
 10
-14.45153383365032
 20
39.95295357489601
 30
0.0
 10
-14.43988268695032
 20
39.87208666741846
 30
0.0
 10
-14.41531192000902
 20
39.70154888780816
 30
0.0
 10
-14.28638233960717
 20
39.46058436743451
 30
0.0
 10
-14.10331844875835
 20
39.23506834687112
 30
0.0
 10
-13.86964107193283
 20
39.04041727147506
 30
0.0
 10
-13.60394568656654
 20
38.88949908209007
 30
0.0
 10
-13.3237475090816
 20
38.79284010878679
 30
0.0
 10
-13.04721710523899
 20
38.75679427022548
 30
0.0
 10
-12.79478824050035
 20
38.78644675680238
 30
0.0
 10
-12.57535334098458
 20
38.8776335267066
 30
0.0
 10
-12.48041417579141
 20
38.99095940939003
 30
0.0
 10
-12.43468716578008
 20
39.04554230768476
 30
0.0
 11
-14.45153383365032
 21
39.95295357489601
 31
0.0
 11
-14.40363419258367
 21
39.71417728351131
 31
0.0
 11
-14.28338090973859
 21
39.47238312386139
 31
0.0
 11
-14.09943270400721
 21
39.24498364794341
 31
0.0
 11
-13.86503730125207
 21
39.04835431875289
 31
0.0
 11
-13.59707363844985
 21
38.89665575078294
 31
0.0
 11
-13.31483913386837
 21
38.80081144688441
 31
0.0
 11
-13.03865842715411
 21
38.76772449576362
 31
0.0
 11
-12.78842000198772
 21
38.7997765279589
 31
0.0
 11
-12.58214500537628
 21
38.89466044174722
 31
0.0
 11
-12.43468716578008
 21
39.04554230768476
 31
0.0
  0
SPLINE
  5
CF
330
47
100
AcDbEntity
  8
0
  6
Continuous
 62
     7
100
AcDbSpline
210
0.0
220
0.0
230
1.0
 70
     8
 71
     3
 72
    13
 73
     9
 74
     7
 42
0.000000001
 43
0.0000000001
 44
0.00000001
 40
0.0
 40
0.0
 40
0.0
 40
0.0
 40
0.2539916196711221
 40
0.5148121306299005
 40
0.7729264657273867
 40
1.019249589354681
 40
1.246795497640642
 40
1.45249823757536
 40
1.45249823757536
 40
1.45249823757536
 40
1.45249823757536
 10
-8.614663280693051
 20
37.84228932974421
 30
0.0
 10
-8.695297126509793
 20
37.86888177640255
 30
0.0
 10
-8.858732757617524
 20
37.92278165553768
 30
0.0
 10
-9.0801632441392
 20
38.05842866110756
 30
0.0
 10
-9.274704066054237
 20
38.22541971579961
 30
0.0
 10
-9.426276465645696
 20
38.41778908257359
 30
0.0
 10
-9.532731990934598
 20
38.62189760407684
 30
0.0
 10
-9.553042352691126
 20
38.76578323472496
 30
0.0
 10
-9.562685531221646
 20
38.83409889868604
 30
0.0
 11
-8.614663280693051
 21
37.84228932974421
 31
0.0
 11
-8.852682259311255
 21
37.93093868250373
 31
0.0
 11
-9.07670859510726
 21
38.06450342146647
 31
0.0
 11
-9.271474936629232
 21
38.2338819405234
 31
0.0
 11
-9.423708822153621
 21
38.42753091941568
 31
0.0
 11
-9.52303504265579
 21
38.63225376737351
 31
0.0
 11
-9.562685531221646
 21
38.83409889868604
 31
0.0
  0
SPLINE
  5
D0
330
47
100
AcDbEntity
  8
0
  6
Continuous
 62
     7
100
AcDbSpline
210
0.0
220
0.0
230
1.0
 70
     8
 71
     3
 72
    19
 73
    15
 74
    13
 42
0.000000001
 43
0.0000000001
 44
0.00000001
 40
0.0
 40
0.0
 40
0.0
 40
0.0
 40
0.3499912022777107
 40
0.7271578309502538
 40
1.147255369526516
 40
1.612017239795339
 40
2.11224805528993
 40
2.631855315163753
 40
3.151462575037571
 40
3.651693390532153
 40
4.116455260800983
 40
4.53655279937725
 40
4.91371942804979
 40
5.263710630327505
 40
5.263710630327505
 40
5.263710630327505
 40
5.263710630327505
 10
-11.03464017650187
 20
55.34598630842044
 30
0.0
 10
-11.02562716144843
 20
55.46374366997094
 30
0.0
 10
-11.00690129230026
 20
55.70840178172458
 30
0.0
 10
-10.79994332828623
 20
56.04447911588488
 30
0.0
 10
-10.48900399505845
 20
56.33173421587845
 30
0.0
 10
-10.08086439935412
 20
56.55672949127854
 30
0.0
 10
-9.606600380114116
 20
56.70688729777016
 30
0.0
 10
-9.095131896234417
 20
56.77329606112465
 30
0.0
 10
-8.579819250512712
 20
56.75177837045467
 30
0.0
 10
-8.094260033157909
 20
56.64358422441231
 30
0.0
 10
-7.668041600483736
 20
56.45506724591211
 30
0.0
 10
-7.333218913871094
 20
56.19604498827787
 30
0.0
 10
-7.097719952479149
 20
55.87931195781144
 30
0.0
 10
-7.057713346436409
 20
55.63722164141041
 30
0.0
 10
-7.038457615876503
 20
55.52070019497117
 30
0.0
 11
-11.03464017650187
 21
55.34598630842044
 31
0.0
 11
-10.98155083394169
 21
55.69192758508608
 31
0.0
 11
-10.79591382535086
 21
56.02024689994403
 31
0.0
 11
-10.49037809817745
 21
56.30856939879749
 31
0.0
 11
-10.08576706223934
 21
56.53724713288462
 31
0.0
 11
-9.609653001807656
 21
56.69069507319841
 31
0.0
 11
-9.094483138850602
 21
56.7584572123391
 31
0.0
 11
-8.575365123158425
 21
56.73591434242591
 31
0.0
 11
-8.087675781926638
 21
56.62460407616
 31
0.0
 11
-7.664651064055136
 21
56.43211073980813
 31
0.0
 11
-7.335118209688929
 21
56.17155356409087
 31
0.0
 11
-7.12153592117018
 21
55.8606881953242
 31
0.0
 11
-7.038457615876503
 21
55.52070019497117
 31
0.0
  0
SPLINE
  5
D1
330
47
100
AcDbEntity
  8
0
  6
Continuous
 62
     7
100
AcDbSpline
210
0.0
220
0.0
230
1.0
 70
     8
 71
     3
 72
     9
 73
     5
 74
     3
 42
0.000000001
 43
0.0000000001
 44
0.00000001
 40
0.0
 40
0.0
 40
0.0
 40
0.0
 40
0.1856389077734303
 40
0.3615771405746425
 40
0.3615771405746425
 40
0.3615771405746425
 40
0.3615771405746425
 10
2.848222960929789
 20
35.33997971889277
 30
0.0
 10
2.846969452510386
 20
35.27714997251694
 30
0.0
 10
2.844527919259602
 20
35.15477369019685
 30
0.0
 10
2.787538473198585
 20
35.04658076005214
 30
0.0
 10
2.759808219935735
 20
34.99393564050727
 30
0.0
 11
2.848222960929789
 21
35.33997971889277
 31
0.0
 11
2.8300839046105
 21
35.15522913217139
 31
0.0
 11
2.759808219935735
 21
34.99393564050727
 31
0.0
  0
SPLINE
  5
D2
330
47
100
AcDbEntity
  8
0
  6
Continuous
 62
     7
100
AcDbSpline
210
0.0
220
0.0
230
1.0
 70
     8
 71
     3
 72
    17
 73
    13
 74
    11
 42
0.000000001
 43
0.0000000001
 44
0.00000001
 40
0.0
 40
0.0
 40
0.0
 40
0.0
 40
0.2109719162888463
 40
0.4380232937059673
 40
0.6903060750212241
 40
0.9684616594175872
 40
1.266526159464827
 40
1.574449818973648
 40
1.88039801403038
 40
2.172882996567896
 40
2.442929786520511
 40
2.686463138214696
 40
2.686463138214696
 40
2.686463138214696
 40
2.686463138214696
 10
2.759808219935735
 20
34.99393564050727
 30
0.0
 10
2.714081209924402
 20
34.93935274221254
 30
0.0
 10
2.619142044731237
 20
34.8260268595291
 30
0.0
 10
2.399707145215469
 20
34.7348400896249
 30
0.0
 10
2.147278280476816
 20
34.705187603048
 30
0.0
 10
1.870747876634221
 20
34.74123344160931
 30
0.0
 10
1.590549699149271
 20
34.83789241491258
 30
0.0
 10
1.324854313782978
 20
34.98881060429756
 30
0.0
 10
1.091176936957461
 20
35.18346167969362
 30
0.0
 10
0.9081130461086293
 20
35.40897770025703
 30
0.0
 10
0.7791834657067884
 20
35.64994222063068
 30
0.0
 10
0.7546126987654865
 20
35.82048000024099
 30
0.0
 10
0.7429615520654949
 20
35.90134690771853
 30
0.0
 11
2.759808219935735
 21
34.99393564050727
 31
0.0
 11
2.612350380339542
 21
34.84305377456973
 31
0.0
 11
2.406075383728094
 21
34.7481698607814
 31
0.0
 11
2.155836958561701
 21
34.71611782858614
 31
0.0
 11
1.879656251847444
 21
34.74920477970693
 31
0.0
 11
1.597421747265963
 21
34.84504908360545
 31
0.0
 11
1.329458084463738
 21
34.99674765157539
 31
0.0
 11
1.0950626817086
 21
35.19337698076592
 31
0.0
 11
0.9111144759772074
 21
35.42077645668391
 31
0.0
 11
0.7908611931321365
 21
35.66257061633382
 31
0.0
 11
0.7429615520654949
 21
35.90134690771853
 31
0.0
  0
ENDBLK
  5
49
330
47
100
AcDbEntity
  8
0
100
AcDbBlockEnd
  0
BLOCK
  5
4C
330
4A
100
AcDbEntity
  8
0
100
AcDbBlockBegin
  2
Allg1
 70
     0
 10
-5.00000000000021
 20
46.5
 30
0.0
  3
Allg1
  1

  0
INSERT
  5
4B
330
4A
100
AcDbEntity
  8
0
100
AcDbBlockReference
  2
MBK_BU-select__1
 10
-16.53883206237757
 20
34.70508251737189
 30
0.0
  0
MTEXT
  5
D4
330
4A
100
AcDbEntity
  8
1
 62
     6
100
AcDbMText
 10
-5.11368944157499
 20
31.6017676546727
 30
0.0
 40
2.5
 41
0.0
 71
     2
 72
     1
  1
 
  7
CONVERTER_11
 73
     1
 44
1.32052821128451
  0
ENDBLK
  5
4D
330
4A
100
AcDbEntity
  8
0
100
AcDbBlockEnd
  0
BLOCK
  5
4F
330
4E
100
AcDbEntity
  8
0
100
AcDbBlockBegin
  2
MBK_BU-select__2
 70
     0
 10
-66.00000534003055
 20
38.22499990462757
 30
0.0
  3
MBK_BU-select__2
  1

  0
LINE
  5
D5
330
4E
100
AcDbEntity
  8
0
  6
Continuous
 62
     7
100
AcDbLine
 10
-54.50000569902622
 20
40.22499990462757
 30
0.0
 11
-55.50000498103534
 21
40.22499990462757
 31
0.0
  0
LINE
  5
D6
330
4E
100
AcDbEntity
  8
0
  6
Continuous
 62
     7
100
AcDbLine
 10
-55.50000498103534
 20
40.22499990462757
 30
0.0
 11
-55.50000569902622
 21
41.22499990462757
 31
0.0
  0
LINE
  5
D7
330
4E
100
AcDbEntity
  8
0
  6
Continuous
 62
     7
100
AcDbLine
 10
-54.50000569902622
 20
41.22499990462757
 30
0.0
 11
-54.50000569902622
 21
40.22499990462757
 31
0.0
  0
LINE
  5
D8
330
4E
100
AcDbEntity
  8
0
  6
Continuous
 62
     7
100
AcDbLine
 10
-55.50000569902622
 20
41.22499990462757
 30
0.0
 11
-54.50000569902622
 21
41.22499990462757
 31
0.0
  0
LINE
  5
D9
330
4E
100
AcDbEntity
  8
0
  6
Continuous
 62
     7
100
AcDbLine
 10
-57.75510268188157
 20
42.36487730960729
 30
0.0
 11
-60.53988274501043
 21
39.58009724647843
 31
0.0
  0
LINE
  5
DA
330
4E
100
AcDbEntity
  8
0
  6
Continuous
 62
     7
100
AcDbLine
 10
-60.04490799817984
 20
39.08512249964785
 30
0.0
 11
-57.260127935051
 21
41.86990256277672
 31
0.0
  0
LINE
  5
DB
330
4E
100
AcDbEntity
  8
0
  6
Continuous
 62
     7
100
AcDbLine
 10
-66.00000534003055
 20
43.22499990462757
 30
0.0
 11
-66.00000534003055
 21
38.22499990462757
 31
0.0
  0
LINE
  5
DC
330
4E
100
AcDbEntity
  8
0
  6
Continuous
 62
     7
100
AcDbLine
 10
-47.1500053400307
 20
41.22499990462757
 30
0.0
 11
-46.1500053400307
 21
41.22499990462757
 31
0.0
  0
LINE
  5
DD
330
4E
100
AcDbEntity
  8
0
  6
Continuous
 62
     7
100
AcDbLine
 10
-46.1500053400307
 20
40.22499990462757
 30
0.0
 11
-47.1500053400307
 21
40.22499990462757
 31
0.0
  0
LINE
  5
DE
330
4E
100
AcDbEntity
  8
0
  6
Continuous
 62
     7
100
AcDbLine
 10
-46.1500053400307
 20
41.22499990462757
 30
0.0
 11
-46.1500053400307
 21
40.22499990462757
 31
0.0
  0
LINE
  5
DF
330
4E
100
AcDbEntity
  8
0
  6
Continuous
 62
     7
100
AcDbLine
 10
-47.1500053400307
 20
40.22499990462757
 30
0.0
 11
-47.1500053400307
 21
41.22499990462757
 31
0.0
  0
LINE
  5
E0
330
4E
100
AcDbEntity
  8
0
  6
Continuous
 62
     7
100
AcDbLine
 10
-52.24490799817983
 20
39.08512249964785
 30
0.0
 11
-49.46012793505099
 21
41.86990256277672
 31
0.0
  0
LINE
  5
E1
330
4E
100
AcDbEntity
  8
0
  6
Continuous
 62
     7
100
AcDbLine
 10
-49.95510268188155
 20
42.36487730960729
 30
0.0
 11
-52.73988274501042
 21
39.58009724647843
 31
0.0
  0
LINE
  5
E2
330
4E
100
AcDbEntity
  8
0
  6
Continuous
 62
     7
100
AcDbLine
 10
-66.00000534003055
 20
43.22499990462757
 30
0.0
 11
-44.00000534003058
 21
43.22499990462757
 31
0.0
  0
LINE
  5
E3
330
4E
100
AcDbEntity
  8
0
  6
Continuous
 62
     7
100
AcDbLine
 10
-66.00000534003055
 20
38.22499990462757
 30
0.0
 11
-44.00000534003058
 21
38.22499990462757
 31
0.0
  0
LINE
  5
E4
330
4E
100
AcDbEntity
  8
0
  6
Continuous
 62
     7
100
AcDbLine
 10
-44.00000534003058
 20
43.22499990462757
 30
0.0
 11
-44.00000534003058
 21
38.22499990462757
 31
0.0
  0
LINE
  5
E5
330
4E
100
AcDbEntity
  8
0
  6
Continuous
 62
     7
100
AcDbLine
 10
-62.85000534003072
 20
40.22499990462757
 30
0.0
 11
-63.85000534003072
 21
40.22499990462757
 31
0.0
  0
LINE
  5
E6
330
4E
100
AcDbEntity
  8
0
  6
Continuous
 62
     7
100
AcDbLine
 10
-63.85000534003072
 20
41.22499990462757
 30
0.0
 11
-62.85000534003072
 21
41.22499990462757
 31
0.0
  0
LINE
  5
E7
330
4E
100
AcDbEntity
  8
0
  6
Continuous
 62
     7
100
AcDbLine
 10
-63.85000534003072
 20
40.22499990462757
 30
0.0
 11
-63.85000534003072
 21
41.22499990462757
 31
0.0
  0
LINE
  5
E8
330
4E
100
AcDbEntity
  8
0
  6
Continuous
 62
     7
100
AcDbLine
 10
-62.85000534003072
 20
41.22499990462757
 30
0.0
 11
-62.85000534003072
 21
40.22499990462757
 31
0.0
  0
LINE
  5
E9
330
4E
100
AcDbEntity
  8
1
  6
DOT_CENTER
 62
     2
100
AcDbLine
 10
-56.70000534003071
 20
40.72499990462757
 30
0.0
 11
-61.1000053400307
 21
40.72499990462757
 31
0.0
  0
LINE
  5
EA
330
4E
100
AcDbEntity
  8
1
  6
DOT_CENTER
 62
     2
100
AcDbLine
 10
-58.9000053400307
 20
42.92499990462756
 30
0.0
 11
-58.9000053400307
 21
38.52499990462757
 31
0.0
  0
LINE
  5
EB
330
4E
100
AcDbEntity
  8
1
  6
DOT_CENTER
 62
     2
100
AcDbLine
 10
-48.90000534003069
 20
40.72499990462757
 30
0.0
 11
-53.30000534003069
 21
40.72499990462757
 31
0.0
  0
LINE
  5
EC
330
4E
100
AcDbEntity
  8
1
  6
DOT_CENTER
 62
     2
100
AcDbLine
 10
-51.10000534003069
 20
42.92499990462757
 30
0.0
 11
-51.10000534003069
 21
38.52499990462756
 31
0.0
  0
ARC
  5
ED
330
4E
100
AcDbEntity
  8
0
  6
Continuous
 62
     7
100
AcDbCircle
 10
-58.9000053400307
 20
40.72499990462757
 30
0.0
 40
1.999999999999995
100
AcDbArc
 50
235.0786581077877
 51
314.9999999999995
  0
ARC
  5
EE
330
4E
100
AcDbEntity
  8
0
  6
Continuous
 62
     7
100
AcDbCircle
 10
-58.9000053400307
 20
40.72499990462757
 30
0.0
 40
2.000000000000005
100
AcDbArc
 50
214.9213418922123
 51
235.0786581077877
  0
ARC
  5
EF
330
4E
100
AcDbEntity
  8
0
  6
Continuous
 62
     7
100
AcDbCircle
 10
-58.9000053400307
 20
40.72499990462757
 30
0.0
 40
1.999999999999986
100
AcDbArc
 50
34.92134189221294
 51
55.07865810778762
  0
ARC
  5
F0
330
4E
100
AcDbEntity
  8
0
  6
Continuous
 62
     7
100
AcDbCircle
 10
-58.9000053400307
 20
40.72499990462757
 30
0.0
 40
2.000000000000001
100
AcDbArc
 50
314.9999999999995
 51
34.92134189221294
  0
ARC
  5
F1
330
4E
100
AcDbEntity
  8
0
  6
Continuous
 62
     7
100
AcDbCircle
 10
-51.10000534003069
 20
40.72499990462757
 30
0.0
 40
1.999999999999986
100
AcDbArc
 50
34.92134189221294
 51
55.07865810778746
  0
ARC
  5
F2
330
4E
100
AcDbEntity
  8
0
  6
Continuous
 62
     7
100
AcDbCircle
 10
-51.10000534003069
 20
40.72499990462757
 30
0.0
 40
1.999999999999996
100
AcDbArc
 50
314.9999999999994
 51
34.92134189221294
  0
ARC
  5
F3
330
4E
100
AcDbEntity
  8
0
  6
Continuous
 62
     7
100
AcDbCircle
 10
-51.10000534003069
 20
40.72499990462757
 30
0.0
 40
2.000000000000005
100
AcDbArc
 50
214.9213418922123
 51
235.0786581077876
  0
ARC
  5
F4
330
4E
100
AcDbEntity
  8
0
  6
Continuous
 62
     7
100
AcDbCircle
 10
-51.10000534003069
 20
40.72499990462757
 30
0.0
 40
1.999999999999999
100
AcDbArc
 50
235.0786581077876
 51
314.9999999999994
  0
ARC
  5
F5
330
4E
100
AcDbEntity
  8
0
  6
Continuous
 62
     7
100
AcDbCircle
 10
-51.10000534003069
 20
40.72499990462757
 30
0.0
 40
1.999999999999993
100
AcDbArc
 50
55.07865810778746
 51
214.9213418922123
  0
ARC
  5
F6
330
4E
100
AcDbEntity
  8
0
  6
Continuous
 62
     7
100
AcDbCircle
 10
-58.9000053400307
 20
40.72499990462757
 30
0.0
 40
1.999999999999989
100
AcDbArc
 50
55.07865810778762
 51
214.9213418922123
  0
ENDBLK
  5
50
330
4E
100
AcDbEntity
  8
0
100
AcDbBlockEnd
  0
BLOCK
  5
53
330
51
100
AcDbEntity
  8
0
100
AcDbBlockBegin
  2
Drfsicht2
 70
     0
 10
-55.00000000000014
 20
41.0
 30
0.0
  3
Drfsicht2
  1

  0
INSERT
  5
52
330
51
100
AcDbEntity
  8
0
100
AcDbBlockReference
  2
MBK_BU-select__2
 10
-66.00000534003055
 20
38.22499990462757
 30
0.0
  0
MTEXT
  5
F7
330
51
100
AcDbEntity
  8
1
 62
     6
100
AcDbMText
 10
-55.00000167001497
 20
35.72499990462802
 30
0.0
 40
2.5
 41
0.0
 71
     2
 72
     1
  1
 
  7
CONVERTER_11
 73
     1
 44
1.32052821128451
  0
DIMENSION
  5
102
330
51
100
AcDbEntity
  8
1
100
AcDbDimension
  2
*D17
 10
-71.00000534003055
 20
43.22499990462754
 30
0.0
 11
-72.62500534003055
 21
40.35849236658693
 31
0.0
 70
    33
  1
<>
 71
     5
 42
-1.0
 53
90.0
  3
ME10_DIM_10
100
AcDbAlignedDimension
 13
-66.00000534003055
 23
38.22499990462757
 33
0.0
 14
-66.00000534003055
 24
43.22499990462757
 34
0.0
  0
ENDBLK
  5
54
330
51
100
AcDbEntity
  8
0
100
AcDbBlockEnd
  0
BLOCK
  5
56
330
55
100
AcDbEntity
  8
0
100
AcDbBlockBegin
  2
MBK_BU-select__3
 70
     0
 10
-10.50000265996968
 20
66.7250013682835
 30
0.0
  3
MBK_BU-select__3
  1

  0
LINE
  5
103
330
55
100
AcDbEntity
  8
0
  6
Continuous
 62
     7
100
AcDbLine
 10
11.49999734003029
 20
88.32500136828347
 30
0.0
 11
-10.50000265996968
 21
88.32500136828347
 31
0.0
  0
LINE
  5
104
330
55
100
AcDbEntity
  8
0
  6
Continuous
 62
     7
100
AcDbLine
 10
-8.30000265996966
 20
69.92500136828349
 30
0.0
 11
-8.30000265996966
 21
68.72500136828359
 31
0.0
  0
LINE
  5
105
330
55
100
AcDbEntity
  8
0
  6
Continuous
 62
     7
100
AcDbLine
 10
9.29999734003033
 20
68.72500136828359
 30
0.0
 11
9.29999734003033
 21
69.92500136828357
 31
0.0
  0
LINE
  5
106
330
55
100
AcDbEntity
  8
0
  6
Continuous
 62
     7
100
AcDbLine
 10
7.64999734003032
 20
69.42500136828357
 30
0.0
 11
8.19999734003034
 21
69.42500136828357
 31
0.0
  0
LINE
  5
107
330
55
100
AcDbEntity
  8
0
  6
Continuous
 62
     7
100
AcDbLine
 10
-7.20000265996959
 20
70.72500136828347
 30
0.0
 11
-7.20000265996959
 21
69.42500136828349
 31
0.0
  0
LINE
  5
108
330
55
100
AcDbEntity
  8
0
  6
Continuous
 62
     7
100
AcDbLine
 10
-7.20000265996959
 20
69.42500136828349
 30
0.0
 11
-6.65000265996969
 21
69.42500136828349
 31
0.0
  0
LINE
  5
109
330
55
100
AcDbEntity
  8
0
  6
Continuous
 62
     7
100
AcDbLine
 10
-3.60000265996967
 20
70.72500136828359
 30
0.0
 11
-7.20000265996959
 21
70.72500136828347
 31
0.0
  0
LINE
  5
10A
330
55
100
AcDbEntity
  8
0
  6
Continuous
 62
     7
100
AcDbLine
 10
8.19999734003034
 20
69.42500136828357
 30
0.0
 11
8.19999734003034
 21
70.72500136828359
 31
0.0
  0
LINE
  5
10B
330
55
100
AcDbEntity
  8
0
  6
Continuous
 62
     7
100
AcDbLine
 10
-8.30000265996966
 20
69.92500136828349
 30
0.0
 11
-10.50000265996968
 21
69.92500136828349
 31
0.0
  0
LINE
  5
10C
330
55
100
AcDbEntity
  8
0
  6
Continuous
 62
     7
100
AcDbLine
 10
4.59999734003031
 20
70.72500136828359
 30
0.0
 11
8.19999734003034
 21
70.72500136828359
 31
0.0
  0
LINE
  5
10D
330
55
100
AcDbEntity
  8
0
  6
Continuous
 62
     7
100
AcDbLine
 10
11.49999734003029
 20
69.92500136828357
 30
0.0
 11
9.29999734003033
 21
69.92500136828357
 31
0.0
  0
LINE
  5
10E
330
55
100
AcDbEntity
  8
0
  6
Continuous
 62
     7
100
AcDbLine
 10
-6.65000265996969
 20
69.42500136828349
 30
0.0
 11
-6.65000265996938
 21
67.87500136828353
 31
0.0
  0
LINE
  5
10F
330
55
100
AcDbEntity
  8
0
  6
Continuous
 62
     7
100
AcDbLine
 10
7.64999734003052
 20
67.87500136828362
 30
0.0
 11
7.64999734003032
 21
69.42500136828357
 31
0.0
  0
LINE
  5
110
330
55
100
AcDbEntity
  8
0
  6
Continuous
 62
     7
100
AcDbLine
 10
-8.95000265996959
 20
68.72500136828347
 30
0.0
 11
-8.95000265996944
 21
67.87500136828362
 31
0.0
  0
LINE
  5
111
330
55
100
AcDbEntity
  8
0
  6
Continuous
 62
     7
100
AcDbLine
 10
3.59999734003046
 20
67.12500136828362
 30
0.0
 11
-2.60000265996953
 21
67.12500136828362
 31
0.0
  0
LINE
  5
112
330
55
100
AcDbEntity
  8
0
  6
Continuous
 62
     7
100
AcDbLine
 10
9.94999734003034
 20
68.72500136828359
 30
0.0
 11
9.29999734003033
 21
68.72500136828359
 31
0.0
  0
LINE
  5
113
330
55
100
AcDbEntity
  8
0
  6
Continuous
 62
     7
100
AcDbLine
 10
-8.30000265996966
 20
68.72500136828359
 30
0.0
 11
-8.95000265996959
 21
68.72500136828347
 31
0.0
  0
LINE
  5
114
330
55
100
AcDbEntity
  8
0
  6
Continuous
 62
     7
100
AcDbLine
 10
9.94999734003059
 20
67.87500136828362
 30
0.0
 11
9.94999734003034
 21
68.72500136828359
 31
0.0
  0
LINE
  5
115
330
55
100
AcDbEntity
  8
0
  6
Continuous
 62
     7
100
AcDbLine
 10
-3.60000265996967
 20
70.72500136828359
 30
0.0
 11
-3.60000265996953
 21
68.12500136828362
 31
0.0
  0
LINE
  5
116
330
55
100
AcDbEntity
  8
0
  6
Continuous
 62
     7
100
AcDbLine
 10
4.59999734003031
 20
70.72500136828359
 30
0.0
 11
4.59999734003057
 21
68.12500136828362
 31
0.0
  0
LINE
  5
117
330
55
100
AcDbEntity
  8
0
  6
Continuous
 62
     7
100
AcDbLine
 10
-10.50000265996968
 20
69.92500136828349
 30
0.0
 11
-10.50000265996968
 21
88.32500136828347
 31
0.0
  0
LINE
  5
118
330
55
100
AcDbEntity
  8
0
  6
Continuous
 62
     7
100
AcDbLine
 10
11.49999734003029
 20
69.92500136828357
 30
0.0
 11
11.49999734003029
 21
88.32500136828347
 31
0.0
  0
ARC
  5
119
330
55
100
AcDbEntity
  8
0
  6
Continuous
 62
     7
100
AcDbCircle
 10
3.59999734003057
 20
68.12500136828362
 30
0.0
 40
1.0
100
AcDbArc
 50
269.9999999999935
 51
0.0
  0
ARC
  5
11A
330
55
100
AcDbEntity
  8
0
  6
Continuous
 62
     7
100
AcDbCircle
 10
8.79999734003056
 20
67.87500136828362
 30
0.0
 40
1.150000000000034
100
AcDbArc
 50
180.0
 51
0.0
  0
ARC
  5
11B
330
55
100
AcDbEntity
  8
0
  6
Continuous
 62
     7
100
AcDbCircle
 10
-2.60000265996953
 20
68.12500136828362
 30
0.0
 40
1.0
100
AcDbArc
 50
180.0
 51
270.0
  0
ARC
  5
11C
330
55
100
AcDbEntity
  8
0
  6
Continuous
 62
     7
100
AcDbCircle
 10
-7.80000265996941
 20
67.87500136828353
 30
0.0
 40
1.150000000000027
100
AcDbArc
 50
179.9999999999957
 51
0.0
  0
ENDBLK
  5
57
330
55
100
AcDbEntity
  8
0
100
AcDbBlockEnd
  0
BLOCK
  5
5A
330
58
100
AcDbEntity
  8
0
100
AcDbBlockBegin
  2
Rckans2
 70
     0
 10
0.49999199999988
 20
77.42374200000015
 30
0.0
  3
Rckans2
  1

  0
INSERT
  5
59
330
58
100
AcDbEntity
  8
0
100
AcDbBlockReference
  2
MBK_BU-select__3
 10
-10.50000265996968
 20
66.7250013682835
 30
0.0
  0
MTEXT
  5
11D
330
58
100
AcDbEntity
  8
1
 62
     6
100
AcDbMText
 10
0.49999432998459
 20
64.22499987213001
 30
0.0
 40
2.5
 41
0.0
 71
     2
 72
     1
  1
 
  7
CONVERTER_11
 73
     1
 44
1.32052821128451
  0
ENDBLK
  5
5B
330
58
100
AcDbEntity
  8
0
100
AcDbBlockEnd
  0
BLOCK
  5
5D
330
5C
100
AcDbEntity
  8
0
100
AcDbBlockBegin
  2
MBK_BU-select__4
 70
     0
 10
-29.00000390462772
 20
66.72500136828344
 30
0.0
  3
MBK_BU-select__4
  1

  0
LINE
  5
11E
330
5C
100
AcDbEntity
  8
0
  6
Continuous
 62
     7
100
AcDbLine
 10
-24.80000390462772
 20
83.50734742820981
 30
0.0
 11
-28.20000390462772
 21
83.50734742820981
 31
0.0
  0
LINE
  5
11F
330
5C
100
AcDbEntity
  8
0
  6
Continuous
 62
     7
100
AcDbLine
 10
-24.80000390462772
 20
82.22500136828367
 30
0.0
 11
-28.20000390462772
 21
82.22500136828364
 31
0.0
  0
LINE
  5
120
330
5C
100
AcDbEntity
  8
0
  6
Continuous
 62
     7
100
AcDbLine
 10
-25.15000390462772
 20
73.85000136828353
 30
0.0
 11
-25.15000390462772
 21
75.85000136828353
 31
0.0
  0
LINE
  5
121
330
5C
100
AcDbEntity
  8
0
  6
Continuous
 62
     7
100
AcDbLine
 10
-25.15000390462772
 20
75.85000136828353
 30
0.0
 11
-25.15000390462772
 21
77.40000136828354
 31
0.0
  0
LINE
  5
122
330
5C
100
AcDbEntity
  8
0
  6
Continuous
 62
     7
100
AcDbLine
 10
-27.85000390462772
 20
73.85000136828353
 30
0.0
 11
-25.15000390462772
 21
73.85000136828353
 31
0.0
  0
LINE
  5
123
330
5C
100
AcDbEntity
  8
0
  6
Continuous
 62
     7
100
AcDbLine
 10
-25.15000390462772
 20
77.40000136828354
 30
0.0
 11
-27.85000390462772
 21
77.40000136828354
 31
0.0
  0
LINE
  5
124
330
5C
100
AcDbEntity
  8
0
  6
Continuous
 62
     7
100
AcDbLine
 10
-27.85000390462772
 20
77.40000136828354
 30
0.0
 11
-27.85000390462772
 21
75.85000136828353
 31
0.0
  0
LINE
  5
125
330
5C
100
AcDbEntity
  8
0
  6
Continuous
 62
     7
100
AcDbLine
 10
-27.85000390462772
 20
75.85000136828353
 30
0.0
 11
-27.85000390462772
 21
73.85000136828353
 31
0.0
  0
LINE
  5
126
330
5C
100
AcDbEntity
  8
0
  6
Continuous
 62
     7
100
AcDbLine
 10
-25.15000390462772
 20
75.85000136828353
 30
0.0
 11
-27.85000390462772
 21
75.85000136828353
 31
0.0
  0
LINE
  5
127
330
5C
100
AcDbEntity
  8
0
  6
Continuous
 62
     7
100
AcDbLine
 10
-28.20000390462772
 20
83.50734742820981
 30
0.0
 11
-28.20000390462772
 21
82.22500136828364
 31
0.0
  0
LINE
  5
128
330
5C
100
AcDbEntity
  8
0
  6
Continuous
 62
     7
100
AcDbLine
 10
-28.20000390462772
 20
82.22500136828364
 30
0.0
 11
-28.20000390462772
 21
73.22500136828347
 31
0.0
  0
LINE
  5
129
330
5C
100
AcDbEntity
  8
0
  6
Continuous
 62
     7
100
AcDbLine
 10
-24.80000390462772
 20
82.22500136828367
 30
0.0
 11
-24.80000390462772
 21
83.50734742820981
 31
0.0
  0
LINE
  5
12A
330
5C
100
AcDbEntity
  8
0
  6
Continuous
 62
     7
100
AcDbLine
 10
-29.00000390462772
 20
88.32500136828341
 30
0.0
 11
-24.00000390462772
 21
88.32500136828341
 31
0.0
  0
LINE
  5
12B
330
5C
100
AcDbEntity
  8
0
  6
Continuous
 62
     7
100
AcDbLine
 10
-28.20000390462772
 20
73.22500136828347
 30
0.0
 11
-24.80000390462772
 21
73.22500136828347
 31
0.0
  0
LINE
  5
12C
330
5C
100
AcDbEntity
  8
0
  6
Continuous
 62
     7
100
AcDbLine
 10
-24.00000390462772
 20
68.72500136828353
 30
0.0
 11
-24.00000390462772
 21
69.92500136828352
 31
0.0
  0
LINE
  5
12D
330
5C
100
AcDbEntity
  8
0
  6
Continuous
 62
     7
100
AcDbLine
 10
-24.00000390462772
 20
69.92500136828352
 30
0.0
 11
-24.00000390462772
 21
88.32500136828341
 31
0.0
  0
LINE
  5
12E
330
5C
100
AcDbEntity
  8
0
  6
Continuous
 62
     7
100
AcDbLine
 10
-29.00000390462772
 20
68.72500136828353
 30
0.0
 11
-29.00000390462772
 21
69.92500136828352
 31
0.0
  0
LINE
  5
12F
330
5C
100
AcDbEntity
  8
0
  6
Continuous
 62
     7
100
AcDbLine
 10
-29.00000390462772
 20
88.32500136828341
 30
0.0
 11
-29.00000390462772
 21
69.92500136828352
 31
0.0
  0
LINE
  5
130
330
5C
100
AcDbEntity
  8
0
  6
Continuous
 62
     7
100
AcDbLine
 10
-24.80000390462772
 20
73.22500136828347
 30
0.0
 11
-24.80000390462772
 21
82.22500136828367
 31
0.0
  0
LINE
  5
131
330
5C
100
AcDbEntity
  8
0
  6
Continuous
 62
     7
100
AcDbLine
 10
-29.00000390462772
 20
68.72500136828353
 30
0.0
 11
-24.00000390462772
 21
68.72500136828353
 31
0.0
  0
LINE
  5
132
330
5C
100
AcDbEntity
  8
0
  6
Continuous
 62
     7
100
AcDbLine
 10
-29.00000390462772
 20
69.92500136828352
 30
0.0
 11
-24.00000390462772
 21
69.92500136828352
 31
0.0
  0
LINE
  5
133
330
5C
100
AcDbEntity
  8
0
  6
Continuous
 62
     7
100
AcDbLine
 10
-24.00000390462772
 20
66.72500136828344
 30
0.0
 11
-24.00000390462772
 21
67.87500136828348
 31
0.0
  0
LINE
  5
134
330
5C
100
AcDbEntity
  8
0
  6
Continuous
 62
     7
100
AcDbLine
 10
-24.00000390462772
 20
66.72500136828344
 30
0.0
 11
-29.00000390462772
 21
66.72500136828344
 31
0.0
  0
LINE
  5
135
330
5C
100
AcDbEntity
  8
0
  6
Continuous
 62
     7
100
AcDbLine
 10
-29.00000390462772
 20
66.72500136828344
 30
0.0
 11
-29.00000390462772
 21
67.87500136828348
 31
0.0
  0
LINE
  5
136
330
5C
100
AcDbEntity
  8
0
  6
Continuous
 62
     7
100
AcDbLine
 10
-29.00000390462772
 20
68.72500136828353
 30
0.0
 11
-29.00000390462772
 21
67.87500136828348
 31
0.0
  0
LINE
  5
137
330
5C
100
AcDbEntity
  8
0
  6
Continuous
 62
     2
100
AcDbLine
 10
-24.00000390462772
 20
67.87500136828348
 30
0.0
 11
-29.00000390462772
 21
67.87500136828348
 31
0.0
  0
LINE
  5
138
330
5C
100
AcDbEntity
  8
0
  6
Continuous
 62
     7
100
AcDbLine
 10
-24.00000390462772
 20
67.87500136828348
 30
0.0
 11
-24.00000390462772
 21
68.72500136828353
 31
0.0
  0
ENDBLK
  5
5E
330
5C
100
AcDbEntity
  8
0
100
AcDbBlockEnd
  0
BLOCK
  5
61
330
5F
100
AcDbEntity
  8
0
100
AcDbBlockBegin
  2
SA_Links2
 70
     0
 10
-26.77500400000015
 20
77.42374200000009
 30
0.0
  3
SA_Links2
  1

  0
INSERT
  5
60
330
5F
100
AcDbEntity
  8
0
100
AcDbBlockReference
  2
MBK_BU-select__4
 10
-29.00000390462772
 20
66.72500136828344
 30
0.0
  0
MTEXT
  5
139
330
5F
100
AcDbEntity
  8
1
 62
     6
100
AcDbMText
 10
-26.50000357464319
 20
64.22499987213001
 30
0.0
 40
2.5
 41
0.0
 71
     2
 72
     1
  1
 
  7
CONVERTER_11
 73
     1
 44
1.32052821128451
  0
ENDBLK
  5
62
330
5F
100
AcDbEntity
  8
0
100
AcDbBlockEnd
  0
BLOCK
  5
64
330
63
100
AcDbEntity
  8
0
100
AcDbBlockBegin
  2
MBK_BU-select__5
 70
     0
 10
-103.5000000953723
 20
66.72500136828344
 30
0.0
  3
MBK_BU-select__5
  1

  0
LINE
  5
13A
330
63
100
AcDbEntity
  8
0
  6
Continuous
 62
     7
100
AcDbLine
 10
-102.7000000953723
 20
83.50734742820975
 30
0.0
 11
-102.7000000953723
 21
82.22500136828361
 31
0.0
  0
LINE
  5
13B
330
63
100
AcDbEntity
  8
0
  6
Continuous
 62
     7
100
AcDbLine
 10
-102.7000000953723
 20
82.22500136828361
 30
0.0
 11
-102.7000000953723
 21
73.22500136828339
 31
0.0
  0
LINE
  5
13C
330
63
100
AcDbEntity
  8
0
  6
Continuous
 62
     7
100
AcDbLine
 10
-102.3500000953723
 20
75.85000136828344
 30
0.0
 11
-102.3500000953723
 21
73.85000136828344
 31
0.0
  0
LINE
  5
13D
330
63
100
AcDbEntity
  8
0
  6
Continuous
 62
     7
100
AcDbLine
 10
-98.50000009537231
 20
67.87500136828348
 30
0.0
 11
-98.50000009537231
 21
68.72500136828344
 31
0.0
  0
LINE
  5
13E
330
63
100
AcDbEntity
  8
0
  6
Continuous
 62
     7
100
AcDbLine
 10
-98.50000009537231
 20
69.92500136828335
 30
0.0
 11
-98.50000009537231
 21
68.72500136828344
 31
0.0
  0
LINE
  5
13F
330
63
100
AcDbEntity
  8
0
  6
Continuous
 62
     7
100
AcDbLine
 10
-98.50000009537231
 20
69.92500136828335
 30
0.0
 11
-98.50000009537231
 21
88.32500136828332
 31
0.0
  0
LINE
  5
140
330
63
100
AcDbEntity
  8
0
  6
Continuous
 62
     7
100
AcDbLine
 10
-98.50000009537231
 20
88.32500136828332
 30
0.0
 11
-103.5000000953723
 21
88.32500136828332
 31
0.0
  0
LINE
  5
141
330
63
100
AcDbEntity
  8
0
  6
Continuous
 62
     7
100
AcDbLine
 10
-99.30000009537231
 20
82.22500136828359
 30
0.0
 11
-99.30000009537231
 21
83.50734742820975
 31
0.0
  0
LINE
  5
142
330
63
100
AcDbEntity
  8
0
  6
Continuous
 62
     7
100
AcDbLine
 10
-99.30000009537231
 20
73.22500136828339
 30
0.0
 11
-99.30000009537231
 21
82.22500136828359
 31
0.0
  0
LINE
  5
143
330
63
100
AcDbEntity
  8
0
  6
Continuous
 62
     7
100
AcDbLine
 10
-102.3500000953723
 20
77.40000136828345
 30
0.0
 11
-102.3500000953723
 21
75.85000136828344
 31
0.0
  0
LINE
  5
144
330
63
100
AcDbEntity
  8
0
  6
Continuous
 62
     7
100
AcDbLine
 10
-99.65000009537232
 20
73.85000136828344
 30
0.0
 11
-99.65000009537232
 21
75.85000136828344
 31
0.0
  0
LINE
  5
145
330
63
100
AcDbEntity
  8
0
  6
Continuous
 62
     7
100
AcDbLine
 10
-99.65000009537232
 20
75.85000136828344
 30
0.0
 11
-99.65000009537232
 21
77.40000136828345
 31
0.0
  0
LINE
  5
146
330
63
100
AcDbEntity
  8
0
  6
Continuous
 62
     7
100
AcDbLine
 10
-102.3500000953723
 20
73.85000136828344
 30
0.0
 11
-99.65000009537232
 21
73.85000136828344
 31
0.0
  0
LINE
  5
147
330
63
100
AcDbEntity
  8
0
  6
Continuous
 62
     7
100
AcDbLine
 10
-99.65000009537232
 20
77.40000136828345
 30
0.0
 11
-102.3500000953723
 21
77.40000136828345
 31
0.0
  0
LINE
  5
148
330
63
100
AcDbEntity
  8
0
  6
Continuous
 62
     7
100
AcDbLine
 10
-102.7000000953723
 20
73.22500136828339
 30
0.0
 11
-99.30000009537231
 21
73.22500136828339
 31
0.0
  0
LINE
  5
149
330
63
100
AcDbEntity
  8
0
  6
Continuous
 62
     7
100
AcDbLine
 10
-102.3500000953723
 20
75.85000136828344
 30
0.0
 11
-99.65000009537232
 21
75.85000136828344
 31
0.0
  0
LINE
  5
14A
330
63
100
AcDbEntity
  8
0
  6
Continuous
 62
     7
100
AcDbLine
 10
-98.50000009537231
 20
66.72500136828344
 30
0.0
 11
-98.50000009537231
 21
67.87500136828348
 31
0.0
  0
LINE
  5
14B
330
63
100
AcDbEntity
  8
0
  6
Continuous
 62
     7
100
AcDbLine
 10
-98.50000009537231
 20
66.72500136828344
 30
0.0
 11
-103.5000000953723
 21
66.72500136828344
 31
0.0
  0
LINE
  5
14C
330
63
100
AcDbEntity
  8
0
  6
Continuous
 62
     7
100
AcDbLine
 10
-98.50000009537231
 20
68.72500136828344
 30
0.0
 11
-103.5000000953723
 21
68.72500136828344
 31
0.0
  0
LINE
  5
14D
330
63
100
AcDbEntity
  8
0
  6
Continuous
 62
     2
100
AcDbLine
 10
-98.50000009537231
 20
67.87500136828348
 30
0.0
 11
-103.5000000953723
 21
67.87500136828348
 31
0.0
  0
LINE
  5
14E
330
63
100
AcDbEntity
  8
0
  6
Continuous
 62
     7
100
AcDbLine
 10
-98.50000009537231
 20
69.92500136828335
 30
0.0
 11
-103.5000000953723
 21
69.92500136828335
 31
0.0
  0
LINE
  5
14F
330
63
100
AcDbEntity
  8
0
  6
Continuous
 62
     7
100
AcDbLine
 10
-103.5000000953723
 20
66.72500136828344
 30
0.0
 11
-103.5000000953723
 21
67.87500136828348
 31
0.0
  0
LINE
  5
150
330
63
100
AcDbEntity
  8
0
  6
Continuous
 62
     7
100
AcDbLine
 10
-103.5000000953723
 20
68.72500136828344
 30
0.0
 11
-103.5000000953723
 21
67.87500136828348
 31
0.0
  0
LINE
  5
151
330
63
100
AcDbEntity
  8
0
  6
Continuous
 62
     7
100
AcDbLine
 10
-103.5000000953723
 20
69.92500136828335
 30
0.0
 11
-103.5000000953723
 21
68.72500136828344
 31
0.0
  0
LINE
  5
152
330
63
100
AcDbEntity
  8
0
  6
Continuous
 62
     7
100
AcDbLine
 10
-103.5000000953723
 20
88.32500136828332
 30
0.0
 11
-103.5000000953723
 21
69.92500136828335
 31
0.0
  0
LINE
  5
153
330
63
100
AcDbEntity
  8
0
  6
Continuous
 62
     7
100
AcDbLine
 10
-99.30000009537231
 20
83.50734742820975
 30
0.0
 11
-102.7000000953723
 21
83.50734742820975
 31
0.0
  0
LINE
  5
154
330
63
100
AcDbEntity
  8
0
  6
Continuous
 62
     7
100
AcDbLine
 10
-99.30000009537231
 20
82.22500136828359
 30
0.0
 11
-102.7000000953723
 21
82.22500136828361
 31
0.0
  0
ENDBLK
  5
65
330
63
100
AcDbEntity
  8
0
100
AcDbBlockEnd
  0
BLOCK
  5
68
330
66
100
AcDbEntity
  8
0
100
AcDbBlockBegin
  2
SA_Rechts2
 70
     0
 10
-100.7249999999999
 20
77.423742
 30
0.0
  3
SA_Rechts2
  1

  0
INSERT
  5
67
330
66
100
AcDbEntity
  8
0
100
AcDbBlockReference
  2
MBK_BU-select__5
 10
-103.5000000953723
 20
66.72500136828344
 30
0.0
  0
MTEXT
  5
155
330
66
100
AcDbEntity
  8
1
 62
     6
100
AcDbMText
 10
-101.0000004253568
 20
64.22499987213001
 30
0.0
 40
2.5
 41
0.0
 71
     2
 72
     1
  1
 
  7
CONVERTER_11
 73
     1
 44
1.32052821128451
  0
ENDBLK
  5
69
330
66
100
AcDbEntity
  8
0
100
AcDbBlockEnd
  0
BLOCK
  5
6B
330
6A
100
AcDbEntity
  8
0
100
AcDbBlockBegin
  2
MBK_BU-select__6
 70
     0
 10
-66.00000534003041
 20
66.72500136828367
 30
0.0
  3
MBK_BU-select__6
  1

  0
LINE
  5
156
330
6A
100
AcDbEntity
  8
0
  6
Continuous
 62
     7
100
AcDbLine
 10
-66.00000534003041
 20
88.32500136828332
 30
0.0
 11
-44.00000534003044
 21
88.32500136828332
 31
0.0
  0
LINE
  5
157
330
6A
100
AcDbEntity
  8
0
  6
Continuous
 62
     7
100
AcDbLine
 10
-62.70000534003046
 20
69.42500136828343
 30
0.0
 11
-62.15000534003045
 21
69.42500136828343
 31
0.0
  0
LINE
  5
158
330
6A
100
AcDbEntity
  8
0
  6
Continuous
 62
     7
100
AcDbLine
 10
-63.80000534003045
 20
68.72500136828344
 30
0.0
 11
-63.80000534003045
 21
69.92500136828343
 31
0.0
  0
LINE
  5
159
330
6A
100
AcDbEntity
  8
0
  6
Continuous
 62
     7
100
AcDbLine
 10
-62.15000534003045
 20
69.42500136828343
 30
0.0
 11
-62.15000534003045
 21
67.87500136828348
 31
0.0
  0
LINE
  5
15A
330
6A
100
AcDbEntity
  8
0
  6
Continuous
 62
     7
100
AcDbLine
 10
-59.10000534003044
 20
68.12500136828348
 30
0.0
 11
-59.10000534003044
 21
70.72500136828344
 31
0.0
  0
LINE
  5
15B
330
6A
100
AcDbEntity
  8
0
  6
Continuous
 62
     7
100
AcDbLine
 10
-63.80000534003045
 20
69.92500136828343
 30
0.0
 11
-66.00000534003041
 21
69.92500136828343
 31
0.0
  0
LINE
  5
15C
330
6A
100
AcDbEntity
  8
0
  6
Continuous
 62
     7
100
AcDbLine
 10
-62.70000534003046
 20
70.72500136828344
 30
0.0
 11
-62.70000534003046
 21
69.42500136828343
 31
0.0
  0
LINE
  5
15D
330
6A
100
AcDbEntity
  8
0
  6
Continuous
 62
     7
100
AcDbLine
 10
-59.10000534003044
 20
70.72500136828344
 30
0.0
 11
-62.70000534003046
 21
70.72500136828344
 31
0.0
  0
LINE
  5
15E
330
6A
100
AcDbEntity
  8
0
  6
Continuous
 62
     7
100
AcDbLine
 10
-66.00000534003041
 20
69.92500136828343
 30
0.0
 11
-66.00000534003041
 21
88.32500136828332
 31
0.0
  0
LINE
  5
15F
330
6A
100
AcDbEntity
  8
0
  6
Continuous
 62
     7
100
AcDbLine
 10
-46.20000534003046
 20
68.72500136828344
 30
0.0
 11
-45.55000534003054
 21
68.72500136828333
 31
0.0
  0
LINE
  5
160
330
6A
100
AcDbEntity
  8
0
  6
Continuous
 62
     7
100
AcDbLine
 10
-47.85000534003044
 20
67.87500136828339
 30
0.0
 11
-47.85000534003044
 21
69.42500136828335
 31
0.0
  0
LINE
  5
161
330
6A
100
AcDbEntity
  8
0
  6
Continuous
 62
     7
100
AcDbLine
 10
-44.00000534003044
 20
88.32500136828332
 30
0.0
 11
-44.00000534003044
 21
69.92500136828335
 31
0.0
  0
LINE
  5
162
330
6A
100
AcDbEntity
  8
0
  6
Continuous
 62
     7
100
AcDbLine
 10
-47.85000534003044
 20
69.42500136828335
 30
0.0
 11
-47.30000534003054
 21
69.42500136828335
 31
0.0
  0
LINE
  5
163
330
6A
100
AcDbEntity
  8
0
  6
Continuous
 62
     7
100
AcDbLine
 10
-47.30000534003054
 20
69.42500136828335
 30
0.0
 11
-47.30000534003054
 21
70.72500136828333
 31
0.0
  0
LINE
  5
164
330
6A
100
AcDbEntity
  8
0
  6
Continuous
 62
     7
100
AcDbLine
 10
-46.20000534003046
 20
69.92500136828335
 30
0.0
 11
-46.20000534003046
 21
68.72500136828344
 31
0.0
  0
LINE
  5
165
330
6A
100
AcDbEntity
  8
0
  6
Continuous
 62
     7
100
AcDbLine
 10
-50.90000534003045
 20
70.72500136828344
 30
0.0
 11
-50.90000534003059
 21
68.12500136828348
 31
0.0
  0
LINE
  5
166
330
6A
100
AcDbEntity
  8
0
  6
Continuous
 62
     7
100
AcDbLine
 10
-51.90000534003059
 20
67.12500136828348
 30
0.0
 11
-58.10000534003058
 21
67.12500136828348
 31
0.0
  0
LINE
  5
167
330
6A
100
AcDbEntity
  8
0
  6
Continuous
 62
     7
100
AcDbLine
 10
-45.55000534003054
 20
68.72500136828333
 30
0.0
 11
-45.55000534003068
 21
67.87500136828348
 31
0.0
  0
LINE
  5
168
330
6A
100
AcDbEntity
  8
0
  6
Continuous
 62
     7
100
AcDbLine
 10
-44.00000534003044
 20
69.92500136828335
 30
0.0
 11
-46.20000534003046
 21
69.92500136828335
 31
0.0
  0
LINE
  5
169
330
6A
100
AcDbEntity
  8
0
  6
Continuous
 62
     7
100
AcDbLine
 10
-47.30000534003054
 20
70.72500136828333
 30
0.0
 11
-50.90000534003045
 21
70.72500136828344
 31
0.0
  0
LINE
  5
16A
330
6A
100
AcDbEntity
  8
0
  6
Continuous
 62
     7
100
AcDbLine
 10
-64.45000534003046
 20
68.72500136828344
 30
0.0
 11
-63.80000534003045
 21
68.72500136828344
 31
0.0
  0
LINE
  5
16B
330
6A
100
AcDbEntity
  8
0
  6
Continuous
 62
     7
100
AcDbLine
 10
-64.45000534003046
 20
67.87500136828348
 30
0.0
 11
-64.45000534003046
 21
68.72500136828344
 31
0.0
  0
ARC
  5
16C
330
6A
100
AcDbEntity
  8
0
  6
Continuous
 62
     7
100
AcDbCircle
 10
-51.90000534003059
 20
68.12500136828348
 30
0.0
 40
1.0
100
AcDbArc
 50
270.0
 51
0.0
  0
ARC
  5
16D
330
6A
100
AcDbEntity
  8
0
  6
Continuous
 62
     7
100
AcDbCircle
 10
-63.30000534003068
 20
67.87500136828348
 30
0.0
 40
1.149999999999778
100
AcDbArc
 50
180.0
 51
0.0
  0
ARC
  5
16E
330
6A
100
AcDbEntity
  8
0
  6
Continuous
 62
     7
100
AcDbCircle
 10
-58.10000534003069
 20
68.12500136828348
 30
0.0
 40
0.9999999999997513
100
AcDbArc
 50
180.0
 51
270.0000000000065
  0
ARC
  5
16F
330
6A
100
AcDbEntity
  8
0
  6
Continuous
 62
     7
100
AcDbCircle
 10
-46.70000534003071
 20
67.87500136828339
 30
0.0
 40
1.149999999999736
100
AcDbArc
 50
180.0
 51
0.00000000000425
  0
ENDBLK
  5
6C
330
6A
100
AcDbEntity
  8
0
100
AcDbBlockEnd
  0
BLOCK
  5
6F
330
6D
100
AcDbEntity
  8
0
100
AcDbBlockBegin
  2
Vordans1
 70
     0
 10
-55.0
 20
77.423742
 30
0.0
  3
Vordans1
  1

  0
INSERT
  5
6E
330
6D
100
AcDbEntity
  8
0
100
AcDbBlockReference
  2
MBK_BU-select__6
 10
-66.00000534003041
 20
66.72500136828367
 30
0.0
  0
LINE
  5
170
330
6D
100
AcDbEntity
  8
1
  6
Continuous
 62
     2
100
AcDbLine
 10
-54.80000534003054
 20
68.873168479097
 30
0.0
 11
-54.80000534003054
 21
64.893204852086
 31
0.0
  0
MTEXT
  5
171
330
6D
100
AcDbEntity
  8
1
 62
     6
100
AcDbMText
 10
-55.00000167001502
 20
64.22499987213001
 30
0.0
 40
2.5
 41
0.0
 71
     2
 72
     1
  1
 
  7
CONVERTER_11
 73
     1
 44
1.32052821128451
  0
DIMENSION
  5
17C
330
6D
100
AcDbEntity
  8
1
100
AcDbDimension
  2
*D18
 10
-71.514198691082
 20
69.92500136828343
 30
0.0
 11
-73.226698691082
 21
79.97090515922
 31
0.0
 70
    32
  1
<>
 71
     5
 42
-1.0
 53
90.0
  3
ME10_DIM_11
100
AcDbAlignedDimension
 13
-66.00000534003041
 23
88.32500136828332
 33
0.0
 14
-66.00000534003041
 24
69.92500136828343
 34
0.0
 50
90.0
100
AcDbRotatedDimension
  0
DIMENSION
  5
187
330
6D
100
AcDbEntity
  8
1
100
AcDbDimension
  2
*D19
 10
-54.80000534003054
 20
55.393204852086
 30
0.0
 11
-49.8623272945312
 21
57.105704852086
 31
0.0
 70
    32
  1
<>
 71
     5
 42
-1.0
 53
0.00013888888889
  3
ME10_DIM_12
100
AcDbAlignedDimension
 13
-44.00000534003044
 23
69.92500136828335
 33
0.0
 14
-54.80000534003054
 24
64.893204852086
 34
0.0
100
AcDbRotatedDimension
  0
DIMENSION
  5
192
330
6D
100
AcDbEntity
  8
1
100
AcDbDimension
  2
*D20
 10
-47.30000534003054
 20
60.643204852086
 30
0.0
 11
-50.90000534003045
 21
62.355704852086
 31
0.0
 70
    32
  1
<>
 71
     5
 42
-1.0
 53
0.00013888888889
  3
ME10_DIM_13
100
AcDbAlignedDimension
 13
-54.80000534003054
 23
68.873168479097
 33
0.0
 14
-47.30000534003054
 24
69.42500136828335
 34
0.0
100
AcDbRotatedDimension
  0
DIMENSION
  5
19D
330
6D
100
AcDbEntity
  8
1
100
AcDbDimension
  2
*D21
 10
-66.00000534003041
 20
50.393204852086
 30
0.0
 11
-53.8669305924245
 21
52.018204852086
 31
0.0
 70
    33
  1
<>
 71
     5
 42
-1.0
 53
0.00013888888889
  3
ME10_DIM_14
100
AcDbAlignedDimension
 13
-44.00000534003044
 23
69.92500136828335
 33
0.0
 14
-66.00000534003041
 24
69.92500136828343
 34
0.0
  0
INSERT
  5
1A7
330
6D
100
AcDbEntity
  8
1
100
AcDbBlockReference
  2
*D22
 10
0.0
 20
0.0
 30
0.0
  0
ENDBLK
  5
70
330
6D
100
AcDbEntity
  8
0
100
AcDbBlockEnd
  0
BLOCK
  5
72
330
71
100
AcDbEntity
  8
0
100
AcDbBlockBegin
  2
_rahmen
 70
     0
 10
46.9749995746452
 20
12.46718658766201
 30
0.0
  3
_rahmen
  1

  0
LINE
  5
1A8
330
71
100
AcDbEntity
  8
1
  6
Continuous
 62
     6
100
AcDbLine
 10
-82.56980495210482
 20
42.96718658766213
 30
0.0
 11
46.97499957464689
 21
42.96718658766213
 31
0.0
  0
LINE
  5
1A9
330
71
100
AcDbEntity
  8
1
  6
Continuous
 62
     7
100
AcDbLine
 10
-64.3698049521048
 20
21.71718658766213
 30
0.0
 11
-46.1698049521049
 21
21.71718658766213
 31
0.0
  0
LINE
  5
1AA
330
71
100
AcDbEntity
  8
1
  6
Continuous
 62
     6
100
AcDbLine
 10
-64.3698049521048
 20
17.46718658766213
 30
0.0
 11
-82.56980495210482
 21
17.46718658766201
 31
0.0
  0
LINE
  5
1AB
330
71
100
AcDbEntity
  8
1
  6
Continuous
 62
     7
100
AcDbLine
 10
-64.3698049521048
 20
21.71718658766213
 30
0.0
 11
-64.3698049521048
 21
17.46718658766213
 31
0.0
  0
LINE
  5
1AC
330
71
100
AcDbEntity
  8
1
  6
Continuous
 62
     7
100
AcDbLine
 10
-46.1698049521049
 20
21.71718658766213
 30
0.0
 11
-46.1698049521049
 21
17.46718658766201
 31
0.0
  0
LINE
  5
1AD
330
71
100
AcDbEntity
  8
1
  6
Continuous
 62
     7
100
AcDbLine
 10
-82.56980495210482
 20
21.71718658766201
 30
0.0
 11
-82.56980495210482
 21
17.46718658766201
 31
0.0
  0
LINE
  5
1AE
330
71
100
AcDbEntity
  8
1
  6
Continuous
 62
     7
100
AcDbLine
 10
-82.56980495210482
 20
21.71718658766201
 30
0.0
 11
-64.3698049521048
 21
21.71718658766213
 31
0.0
  0
LINE
  5
1AF
330
71
100
AcDbEntity
  8
1
  6
Continuous
 62
     2
100
AcDbLine
 10
-73.33315006554221
 20
41.09218658766204
 30
0.0
 11
-73.33315006554221
 21
36.09218658766204
 31
0.0
  0
LINE
  5
1B0
330
71
100
AcDbEntity
  8
1
  6
Continuous
 62
     2
100
AcDbLine
 10
-73.33315006554221
 20
36.09218658766204
 30
0.0
 11
-78.33315006554221
 21
37.34218658766204
 31
0.0
  0
LINE
  5
1B1
330
71
100
AcDbEntity
  8
1
  6
Continuous
 62
     2
100
AcDbLine
 10
-78.33315006554221
 20
37.34218658766204
 30
0.0
 11
-78.33315006554221
 21
39.84218658766204
 31
0.0
  0
LINE
  5
1B2
330
71
100
AcDbEntity
  8
1
  6
Continuous
 62
     2
100
AcDbLine
 10
-78.33315006554221
 20
39.84218658766204
 30
0.0
 11
-73.33315006554221
 21
41.09218658766204
 31
0.0
  0
LINE
  5
1B3
330
71
100
AcDbEntity
  8
1
  6
Continuous
 62
     6
100
AcDbLine
 10
-205.025000425353
 20
17.46718658766213
 30
0.0
 11
-240.0250004253529
 21
17.46718658766213
 31
0.0
  0
LINE
  5
1B4
330
71
100
AcDbEntity
  8
1
  6
Continuous
 62
     6
100
AcDbLine
 10
46.97499957464689
 20
34.46718658766213
 30
0.0
 11
46.97499957464649
 21
25.96718658766213
 31
0.0
  0
LINE
  5
1B5
330
71
100
AcDbEntity
  8
1
  6
Continuous
 62
     6
100
AcDbLine
 10
-46.1698049521049
 20
17.46718658766201
 30
0.0
 11
-46.52500042535482
 21
17.46718658766213
 31
0.0
  0
LINE
  5
1B6
330
71
100
AcDbEntity
  8
1
  6
Continuous
 62
     6
100
AcDbLine
 10
-198.825000425355
 20
17.46718658766201
 30
0.0
 11
-205.025000425353
 21
17.46718658766213
 31
0.0
  0
LINE
  5
1B7
330
71
100
AcDbEntity
  8
1
  6
Continuous
 62
     7
100
AcDbLine
 10
-46.1698049521049
 20
34.46718658766213
 30
0.0
 11
-46.1698049521049
 21
21.71718658766213
 31
0.0
  0
LINE
  5
1B8
330
71
100
AcDbEntity
  8
1
  6
Continuous
 62
     7
100
AcDbLine
 10
-82.56980495210482
 20
34.46718658766213
 30
0.0
 11
-82.56980495210482
 21
21.71718658766201
 31
0.0
  0
LINE
  5
1B9
330
71
100
AcDbEntity
  8
1
  6
Continuous
 62
     6
100
AcDbLine
 10
-96.52500042535479
 20
17.46718658766213
 30
0.0
 11
-146.525000425355
 21
17.46718658766213
 31
0.0
  0
LINE
  5
1BA
330
71
100
AcDbEntity
  8
1
  6
Continuous
 62
     6
100
AcDbLine
 10
-198.825000425355
 20
17.46718658766201
 30
0.0
 11
-196.5250004253548
 21
17.46718658766213
 31
0.0
  0
LINE
  5
1BB
330
71
100
AcDbEntity
  8
1
  6
Continuous
 62
     6
100
AcDbLine
 10
-46.1698049521049
 20
17.46718658766201
 30
0.0
 11
3.47499957464518
 21
17.46718658766213
 31
0.0
  0
LINE
  5
1BC
330
71
100
AcDbEntity
  8
1
  6
Continuous
 62
     6
100
AcDbLine
 10
46.9749995746452
 20
17.46718658766213
 30
0.0
 11
46.97499957464649
 21
25.96718658766213
 31
0.0
  0
LINE
  5
1BD
330
71
100
AcDbEntity
  8
1
  6
Continuous
 62
     2
100
AcDbLine
 10
-245.0250004253539
 20
17.46718658766213
 30
0.0
 11
-245.0250004253539
 21
12.46718658766201
 31
0.0
  0
LINE
  5
1BE
330
71
100
AcDbEntity
  8
1
  6
Continuous
 62
     2
100
AcDbLine
 10
-240.0250004253529
 20
17.46718658766213
 30
0.0
 11
-245.0250004253539
 21
17.46718658766213
 31
0.0
  0
LINE
  5
1BF
330
71
100
AcDbEntity
  8
1
  6
Continuous
 62
     2
100
AcDbLine
 10
-240.0250004253529
 20
12.46718658766201
 30
0.0
 11
-196.5250004253548
 21
12.46718658766201
 31
0.0
  0
LINE
  5
1C0
330
71
100
AcDbEntity
  8
1
  6
Continuous
 62
     2
100
AcDbLine
 10
-240.0250004253529
 20
17.46718658766213
 30
0.0
 11
-240.0250004253529
 21
12.46718658766201
 31
0.0
  0
LINE
  5
1C1
330
71
100
AcDbEntity
  8
1
  6
Continuous
 62
     2
100
AcDbLine
 10
3.47499957464518
 20
12.46718658766201
 30
0.0
 11
-46.52500042535482
 21
12.46718658766201
 31
0.0
  0
LINE
  5
1C2
330
71
100
AcDbEntity
  8
1
  6
Continuous
 62
     2
100
AcDbLine
 10
3.47499957464518
 20
12.46718658766201
 30
0.0
 11
3.47499957464518
 21
17.46718658766213
 31
0.0
  0
LINE
  5
1C3
330
71
100
AcDbEntity
  8
1
  6
Continuous
 62
     2
100
AcDbLine
 10
-46.52500042535482
 20
12.46718658766201
 30
0.0
 11
-46.52500042535482
 21
17.46718658766213
 31
0.0
  0
LINE
  5
1C4
330
71
100
AcDbEntity
  8
1
  6
Continuous
 62
     2
100
AcDbLine
 10
-96.52500042535479
 20
12.46718658766201
 30
0.0
 11
-46.52500042535482
 21
12.46718658766201
 31
0.0
  0
LINE
  5
1C5
330
71
100
AcDbEntity
  8
1
  6
Continuous
 62
     2
100
AcDbLine
 10
-96.52500042535479
 20
12.46718658766201
 30
0.0
 11
-96.52500042535479
 21
17.46718658766213
 31
0.0
  0
LINE
  5
1C6
330
71
100
AcDbEntity
  8
1
  6
Continuous
 62
     2
100
AcDbLine
 10
-146.525000425355
 20
12.46718658766201
 30
0.0
 11
-96.52500042535479
 21
12.46718658766201
 31
0.0
  0
LINE
  5
1C7
330
71
100
AcDbEntity
  8
1
  6
Continuous
 62
     2
100
AcDbLine
 10
-146.525000425355
 20
12.46718658766201
 30
0.0
 11
-146.525000425355
 21
17.46718658766213
 31
0.0
  0
LINE
  5
1C8
330
71
100
AcDbEntity
  8
1
  6
Continuous
 62
     2
100
AcDbLine
 10
-196.5250004253548
 20
12.46718658766201
 30
0.0
 11
-146.525000425355
 21
12.46718658766201
 31
0.0
  0
LINE
  5
1C9
330
71
100
AcDbEntity
  8
1
  6
Continuous
 62
     2
100
AcDbLine
 10
-196.5250004253548
 20
12.46718658766201
 30
0.0
 11
-196.5250004253548
 21
17.46718658766213
 31
0.0
  0
LINE
  5
1CA
330
71
100
AcDbEntity
  8
1
  6
Continuous
 62
     6
100
AcDbLine
 10
-240.0250004253531
 20
67.46718658766224
 30
0.0
 11
-240.0250004253529
 21
17.46718658766213
 31
0.0
  0
LINE
  5
1CB
330
71
100
AcDbEntity
  8
1
  6
Continuous
 62
     2
100
AcDbLine
 10
-245.0250004253539
 20
67.46718658766224
 30
0.0
 11
-245.0250004253539
 21
17.46718658766213
 31
0.0
  0
LINE
  5
1CC
330
71
100
AcDbEntity
  8
1
  6
Continuous
 62
     2
100
AcDbLine
 10
-245.0250004253539
 20
67.46718658766224
 30
0.0
 11
-240.0250004253531
 21
67.46718658766224
 31
0.0
  0
LINE
  5
1CD
330
71
100
AcDbEntity
  8
1
  6
Continuous
 62
     6
100
AcDbLine
 10
-240.0250004253533
 20
117.467186587662
 30
0.0
 11
-240.0250004253531
 21
67.46718658766224
 31
0.0
  0
LINE
  5
1CE
330
71
100
AcDbEntity
  8
1
  6
Continuous
 62
     2
100
AcDbLine
 10
-245.0250004253539
 20
117.467186587662
 30
0.0
 11
-245.0250004253539
 21
67.46718658766224
 31
0.0
  0
LINE
  5
1CF
330
71
100
AcDbEntity
  8
1
  6
Continuous
 62
     2
100
AcDbLine
 10
-245.0250004253539
 20
117.467186587662
 30
0.0
 11
-240.0250004253533
 21
117.467186587662
 31
0.0
  0
LINE
  5
1D0
330
71
100
AcDbEntity
  8
1
  6
Continuous
 62
     6
100
AcDbLine
 10
-240.0250004253538
 20
167.4671865876621
 30
0.0
 11
-240.0250004253533
 21
117.467186587662
 31
0.0
  0
LINE
  5
1D1
330
71
100
AcDbEntity
  8
1
  6
Continuous
 62
     2
100
AcDbLine
 10
-245.0250004253539
 20
167.4671865876621
 30
0.0
 11
-245.0250004253539
 21
117.467186587662
 31
0.0
  0
LINE
  5
1D2
330
71
100
AcDbEntity
  8
1
  6
Continuous
 62
     2
100
AcDbLine
 10
-245.0250004253539
 20
167.4671865876621
 30
0.0
 11
-240.0250004253538
 21
167.4671865876621
 31
0.0
  0
LINE
  5
1D3
330
71
100
AcDbEntity
  8
1
  6
Continuous
 62
     6
100
AcDbLine
 10
-240.0250004253539
 20
202.4671865876621
 30
0.0
 11
-240.0250004253538
 21
167.4671865876621
 31
0.0
  0
LINE
  5
1D4
330
71
100
AcDbEntity
  8
1
  6
Continuous
 62
     2
100
AcDbLine
 10
-245.0250004253539
 20
222.4671865876621
 30
0.0
 11
-245.0250004253539
 21
167.4671865876621
 31
0.0
  0
LINE
  5
1D5
330
71
100
AcDbEntity
  8
1
  6
Continuous
 62
     2
100
AcDbLine
 10
-245.0250004253539
 20
12.46718658766201
 30
0.0
 11
-240.0250004253529
 21
12.46718658766201
 31
0.0
  0
LINE
  5
1D6
330
71
100
AcDbEntity
  8
1
  6
Continuous
 62
     2
100
AcDbLine
 10
-96.52500042535479
 20
222.4671865876621
 30
0.0
 11
-96.52500042535479
 21
213.2584947429608
 31
0.0
  0
LINE
  5
1D7
330
71
100
AcDbEntity
  8
1
  6
Continuous
 62
     2
100
AcDbLine
 10
-96.52500042535479
 20
222.4671865876621
 30
0.0
 11
-245.0250004253539
 21
222.4671865876621
 31
0.0
  0
LINE
  5
1D8
330
71
100
AcDbEntity
  8
1
  6
Continuous
 62
     2
100
AcDbLine
 10
51.97499957464419
 20
17.46718658766213
 30
0.0
 11
51.97499957464419
 21
67.46718658766224
 31
0.0
  0
LINE
  5
1D9
330
71
100
AcDbEntity
  8
1
  6
Continuous
 62
     2
100
AcDbLine
 10
51.97499957464419
 20
167.4671865876621
 30
0.0
 11
51.97499957464419
 21
222.4671865876621
 31
0.0
  0
LINE
  5
1DA
330
71
100
AcDbEntity
  8
1
  6
Continuous
 62
     6
100
AcDbLine
 10
46.97499957464439
 20
167.4671865876621
 30
0.0
 11
46.97499957464419
 21
202.4671865876621
 31
0.0
  0
LINE
  5
1DB
330
71
100
AcDbEntity
  8
1
  6
Continuous
 62
     2
100
AcDbLine
 10
46.97499957464439
 20
167.4671865876621
 30
0.0
 11
51.97499957464419
 21
167.4671865876621
 31
0.0
  0
LINE
  5
1DC
330
71
100
AcDbEntity
  8
1
  6
Continuous
 62
     2
100
AcDbLine
 10
51.97499957464419
 20
117.467186587662
 30
0.0
 11
51.97499957464419
 21
167.4671865876621
 31
0.0
  0
LINE
  5
1DD
330
71
100
AcDbEntity
  8
1
  6
Continuous
 62
     6
100
AcDbLine
 10
46.97499957464559
 20
117.467186587662
 30
0.0
 11
46.97499957464439
 21
167.4671865876621
 31
0.0
  0
LINE
  5
1DE
330
71
100
AcDbEntity
  8
1
  6
Continuous
 62
     2
100
AcDbLine
 10
46.97499957464559
 20
117.467186587662
 30
0.0
 11
51.97499957464419
 21
117.467186587662
 31
0.0
  0
LINE
  5
1DF
330
71
100
AcDbEntity
  8
1
  6
Continuous
 62
     2
100
AcDbLine
 10
51.97499957464419
 20
67.46718658766224
 30
0.0
 11
51.97499957464419
 21
117.467186587662
 31
0.0
  0
LINE
  5
1E0
330
71
100
AcDbEntity
  8
1
  6
Continuous
 62
     6
100
AcDbLine
 10
46.97499957464609
 20
67.46718658766224
 30
0.0
 11
46.97499957464559
 21
117.467186587662
 31
0.0
  0
LINE
  5
1E1
330
71
100
AcDbEntity
  8
1
  6
Continuous
 62
     2
100
AcDbLine
 10
46.97499957464609
 20
67.46718658766224
 30
0.0
 11
51.97499957464419
 21
67.46718658766224
 31
0.0
  0
LINE
  5
1E2
330
71
100
AcDbEntity
  8
1
  6
Continuous
 62
     6
100
AcDbLine
 10
46.97499957464419
 20
202.4671865876621
 30
0.0
 11
-240.0250004253539
 21
202.4671865876621
 31
0.0
  0
LINE
  5
1E3
330
71
100
AcDbEntity
  8
1
  6
Continuous
 62
     2
100
AcDbLine
 10
51.97499957464419
 20
222.4671865876621
 30
0.0
 11
-96.52500042535479
 21
222.4671865876621
 31
0.0
  0
LINE
  5
1E4
330
71
100
AcDbEntity
  8
1
  6
Continuous
 62
     6
100
AcDbLine
 10
46.97499957464689
 20
34.46718658766213
 30
0.0
 11
46.97499957464609
 21
67.46718658766224
 31
0.0
  0
LINE
  5
1E5
330
71
100
AcDbEntity
  8
1
  6
Continuous
 62
     2
100
AcDbLine
 10
46.9749995746452
 20
12.46718658766201
 30
0.0
 11
3.47499957464518
 21
12.46718658766201
 31
0.0
  0
LINE
  5
1E6
330
71
100
AcDbEntity
  8
1
  6
Continuous
 62
     2
100
AcDbLine
 10
51.97499957464419
 20
12.46718658766201
 30
0.0
 11
46.9749995746452
 21
12.46718658766201
 31
0.0
  0
LINE
  5
1E7
330
71
100
AcDbEntity
  8
1
  6
Continuous
 62
     2
100
AcDbLine
 10
51.97499957464419
 20
12.46718658766201
 30
0.0
 11
51.97499957464419
 21
17.46718658766213
 31
0.0
  0
LINE
  5
1E8
330
71
100
AcDbEntity
  8
1
  6
Continuous
 62
     6
100
AcDbLine
 10
-82.56980495210482
 20
34.46718658766213
 30
0.0
 11
-46.1698049521049
 21
34.46718658766213
 31
0.0
  0
LINE
  5
1E9
330
71
100
AcDbEntity
  8
1
  6
Continuous
 62
     2
100
AcDbLine
 10
46.9749995746452
 20
17.46718658766213
 30
0.0
 11
46.9749995746452
 21
12.46718658766201
 31
0.0
  0
LINE
  5
1EA
330
71
100
AcDbEntity
  8
1
  6
Continuous
 62
     2
100
AcDbLine
 10
46.9749995746452
 20
17.46718658766213
 30
0.0
 11
51.97499957464419
 21
17.46718658766213
 31
0.0
  0
LINE
  5
1EB
330
71
100
AcDbEntity
  8
1
  6
Continuous
 62
     6
100
AcDbLine
 10
-46.52500042535482
 20
17.46718658766213
 30
0.0
 11
-64.3698049521048
 21
17.46718658766213
 31
0.0
  0
LINE
  5
1EC
330
71
100
AcDbEntity
  8
1
  6
Continuous
 62
     6
100
AcDbLine
 10
3.47499957464518
 20
17.46718658766213
 30
0.0
 11
46.9749995746452
 21
17.46718658766213
 31
0.0
  0
LINE
  5
1ED
330
71
100
AcDbEntity
  8
1
  6
Continuous
 62
     6
100
AcDbLine
 10
-146.525000425355
 20
17.46718658766213
 30
0.0
 11
-151.5698049521048
 21
17.46718658766213
 31
0.0
  0
LINE
  5
1EE
330
71
100
AcDbEntity
  8
1
  6
Continuous
 62
     6
100
AcDbLine
 10
-96.52500042535479
 20
17.46718658766213
 30
0.0
 11
-82.56980495210482
 21
17.46718658766201
 31
0.0
  0
LINE
  5
1EF
102
{ACAD_REACTORS
330
2D9
330
2DA
102
}
330
71
100
AcDbEntity
  8
0
  6
Continuous
 62
     2
100
AcDbLine
 10
-75.05517900995801
 20
29.53970134387424
 30
0.0
 11
-75.05517900995801
 21
30.14523663238103
 31
0.0
  0
LINE
  5
1F0
102
{ACAD_REACTORS
330
2D9
330
2DA
102
}
330
71
100
AcDbEntity
  8
0
  6
Continuous
 62
     2
100
AcDbLine
 10
-75.05517900995801
 20
26.73956673724294
 30
0.0
 11
-75.05517900995801
 21
27.32141814393802
 31
0.0
  0
LINE
  5
1F1
102
{ACAD_REACTORS
330
2DB
330
2DC
102
}
330
71
100
AcDbEntity
  8
0
  6
Continuous
 62
     2
100
AcDbLine
 10
-52.4256925744788
 20
27.02923080536593
 30
0.0
 11
-52.4256925744788
 21
24.76068658767844
 31
0.0
  0
LINE
  5
1F2
102
{ACAD_REACTORS
330
2DB
330
2DC
102
}
330
71
100
AcDbEntity
  8
0
  6
Continuous
 62
     2
100
AcDbLine
 10
-53.80674635346639
 20
27.81449611148904
 30
0.0
 11
-50.42180083483771
 21
27.81449611148952
 31
0.0
  0
LINE
  5
1F3
102
{ACAD_REACTORS
330
2DB
330
2DC
102
}
330
71
100
AcDbEntity
  8
0
  6
Continuous
 62
     2
100
AcDbLine
 10
-50.42180083483771
 20
27.02923080536593
 30
0.0
 11
-50.42180083483771
 21
27.81449611148952
 31
0.0
  0
LINE
  5
1F4
102
{ACAD_REACTORS
330
2DB
330
2DC
102
}
330
71
100
AcDbEntity
  8
0
  6
Continuous
 62
     2
100
AcDbLine
 10
-51.23289987231109
 20
27.02923080536593
 30
0.0
 11
-50.42180083483771
 21
27.02923080536593
 31
0.0
  0
LINE
  5
1F5
102
{ACAD_REACTORS
330
2DB
330
2DC
102
}
330
71
100
AcDbEntity
  8
0
  6
Continuous
 62
     2
100
AcDbLine
 10
-51.23289987231109
 20
24.76068658767844
 30
0.0
 11
-51.23289987231109
 21
27.02923080536593
 31
0.0
  0
LINE
  5
1F6
102
{ACAD_REACTORS
330
2DB
330
2DC
102
}
330
71
100
AcDbEntity
  8
0
  6
Continuous
 62
     2
100
AcDbLine
 10
-52.4256925744788
 20
24.76068658767844
 30
0.0
 11
-51.23289987231109
 21
24.76068658767844
 31
0.0
  0
LINE
  5
1F7
102
{ACAD_REACTORS
330
2D1
330
2D2
102
}
330
71
100
AcDbEntity
  8
0
  6
Continuous
 62
     2
100
AcDbLine
 10
-53.12228351254331
 20
31.17368658766392
 30
0.0
 11
-54.5250077302926
 21
31.17368658766392
 31
0.0
  0
LINE
  5
1F8
102
{ACAD_REACTORS
330
2D1
330
2D2
102
}
330
71
100
AcDbEntity
  8
0
  6
Continuous
 62
     2
100
AcDbLine
 10
-53.12228351254331
 20
31.17368658766392
 30
0.0
 11
-52.52111599065151
 21
30.49386326610843
 31
0.0
  0
LINE
  5
1F9
102
{ACAD_REACTORS
330
2D1
330
2D2
102
}
330
71
100
AcDbEntity
  8
0
  6
Continuous
 62
     2
100
AcDbLine
 10
-52.52111599065151
 20
30.49386326610843
 30
0.0
 11
-51.91994846875872
 21
31.17368658766392
 31
0.0
  0
LINE
  5
1FA
102
{ACAD_REACTORS
330
2D1
330
2D2
102
}
330
71
100
AcDbEntity
  8
0
  6
Continuous
 62
     2
100
AcDbLine
 10
-51.81975388177801
 20
29.70073605762772
 30
0.0
 11
-50.5172242510115
 21
31.17368658766392
 31
0.0
  0
LINE
  5
1FB
102
{ACAD_REACTORS
330
2D1
330
2D2
102
}
330
71
100
AcDbEntity
  8
0
  6
Continuous
 62
     2
100
AcDbLine
 10
-51.81975388177801
 20
29.70073605762772
 30
0.0
 11
-50.42180083483771
 21
28.11987706385273
 31
0.0
  0
LINE
  5
1FC
102
{ACAD_REACTORS
330
2D1
330
2D2
102
}
330
71
100
AcDbEntity
  8
0
  6
Continuous
 62
     2
100
AcDbLine
 10
-51.82452505258601
 20
28.11987706385273
 30
0.0
 11
-50.42180083483771
 21
28.11987706385273
 31
0.0
  0
LINE
  5
1FD
102
{ACAD_REACTORS
330
2D1
330
2D2
102
}
330
71
100
AcDbEntity
  8
0
  6
Continuous
 62
     2
100
AcDbLine
 10
-52.52111599065151
 20
28.90760884914644
 30
0.0
 11
-51.82452505258601
 21
28.11987706385273
 31
0.0
  0
LINE
  5
1FE
102
{ACAD_REACTORS
330
2CF
330
2D0
102
}
330
71
100
AcDbEntity
  8
0
  6
Continuous
 62
     2
100
AcDbLine
 10
-55.9802148269352
 20
31.17368658766392
 30
0.0
 11
-54.7397104166823
 21
31.17368658766392
 31
0.0
  0
LINE
  5
1FF
102
{ACAD_REACTORS
330
2CF
330
2D0
102
}
330
71
100
AcDbEntity
  8
0
  6
Continuous
 62
     2
100
AcDbLine
 10
-54.7397104166823
 20
31.17368658766392
 30
0.0
 11
-54.7397104166823
 21
28.11987706385273
 31
0.0
  0
LINE
  5
200
102
{ACAD_REACTORS
330
2CF
330
2D0
102
}
330
71
100
AcDbEntity
  8
0
  6
Continuous
 62
     2
100
AcDbLine
 10
-55.9802148269352
 20
28.11987706385273
 30
0.0
 11
-55.9802148269352
 21
31.17368658766392
 31
0.0
  0
LINE
  5
201
102
{ACAD_REACTORS
330
2CD
330
2CE
102
}
330
71
100
AcDbEntity
  8
0
  6
Continuous
 62
     2
100
AcDbLine
 10
-57.44852490947281
 20
25.98221039720292
 30
0.0
 11
-57.14835967228041
 21
26.75002536318962
 31
0.0
  0
LINE
  5
202
102
{ACAD_REACTORS
330
2CD
330
2CE
102
}
330
71
100
AcDbEntity
  8
0
  6
Continuous
 62
     2
100
AcDbLine
 10
-57.92606051409362
 20
24.76068658767844
 30
0.0
 11
-57.71458046061781
 21
25.30164713189632
 31
0.0
  0
LINE
  5
203
102
{ACAD_REACTORS
330
2CD
330
2CE
102
}
330
71
100
AcDbEntity
  8
0
  6
Continuous
 62
     2
100
AcDbLine
 10
-57.7686118774073
 20
27.81449611148952
 30
0.0
 11
-59.1665649243466
 21
24.76068658767844
 31
0.0
  0
LINE
  5
204
102
{ACAD_REACTORS
330
2CD
330
2CE
102
}
330
71
100
AcDbEntity
  8
0
  6
Continuous
 62
     2
100
AcDbLine
 10
-55.1301544202143
 20
24.76068658767844
 30
0.0
 11
-56.37065883046822
 21
24.76068658767844
 31
0.0
  0
LINE
  5
205
102
{ACAD_REACTORS
330
2CD
330
2CE
102
}
330
71
100
AcDbEntity
  8
0
  6
Continuous
 62
     2
100
AcDbLine
 10
-57.71458046061781
 20
25.30164713189632
 30
0.0
 11
-56.582138883944
 21
25.30164713189632
 31
0.0
  0
LINE
  5
206
102
{ACAD_REACTORS
330
2CB
330
2CC
102
}
330
71
100
AcDbEntity
  8
0
  6
Continuous
 62
     2
100
AcDbLine
 10
-61.32407706352882
 20
27.02923080536593
 30
0.0
 11
-60.51297802605421
 21
27.02923080536593
 31
0.0
  0
LINE
  5
207
102
{ACAD_REACTORS
330
2CB
330
2CC
102
}
330
71
100
AcDbEntity
  8
0
  6
Continuous
 62
     2
100
AcDbLine
 10
-58.5090862864152
 20
27.81449611148952
 30
0.0
 11
-61.32407706352882
 21
27.81449611148952
 31
0.0
  0
LINE
  5
208
102
{ACAD_REACTORS
330
2CB
330
2CC
102
}
330
71
100
AcDbEntity
  8
0
  6
Continuous
 62
     2
100
AcDbLine
 10
-58.5090862864152
 20
27.02923080536593
 30
0.0
 11
-58.5090862864152
 21
27.81449611148952
 31
0.0
  0
LINE
  5
209
102
{ACAD_REACTORS
330
2CB
330
2CC
102
}
330
71
100
AcDbEntity
  8
0
  6
Continuous
 62
     2
100
AcDbLine
 10
-59.3201853238877
 20
27.02923080536593
 30
0.0
 11
-58.5090862864152
 21
27.02923080536593
 31
0.0
  0
LINE
  5
20A
102
{ACAD_REACTORS
330
2CB
330
2CC
102
}
330
71
100
AcDbEntity
  8
0
  6
Continuous
 62
     2
100
AcDbLine
 10
-59.3201853238877
 20
24.76068658767844
 30
0.0
 11
-59.3201853238877
 21
27.02923080536593
 31
0.0
  0
LINE
  5
20B
102
{ACAD_REACTORS
330
2C9
330
2CA
102
}
330
71
100
AcDbEntity
  8
0
  6
Continuous
 62
     2
100
AcDbLine
 10
-58.6520704797897
 20
28.11987706385273
 30
0.0
 11
-58.6520704797897
 21
29.42865257405742
 31
0.0
  0
LINE
  5
20C
102
{ACAD_REACTORS
330
2C9
330
2CA
102
}
330
71
100
AcDbEntity
  8
0
  6
Continuous
 62
     2
100
AcDbLine
 10
-59.84486318195621
 20
31.17368658766392
 30
0.0
 11
-59.84486318195621
 21
28.11987706385273
 31
0.0
  0
LINE
  5
20D
102
{ACAD_REACTORS
330
2C9
330
2CA
102
}
330
71
100
AcDbEntity
  8
0
  6
Continuous
 62
     2
100
AcDbLine
 10
-58.6520704797897
 20
31.17368658766392
 30
0.0
 11
-59.84486318195621
 21
31.17368658766392
 31
0.0
  0
LINE
  5
20E
102
{ACAD_REACTORS
330
2C9
330
2CA
102
}
330
71
100
AcDbEntity
  8
0
  6
Continuous
 62
     2
100
AcDbLine
 10
-57.4115660695357
 20
31.17368658766392
 30
0.0
 11
-57.4115660695357
 21
29.86491107745874
 31
0.0
  0
LINE
  5
20F
102
{ACAD_REACTORS
330
2C7
330
2C8
102
}
330
71
100
AcDbEntity
  8
0
  6
Continuous
 62
     2
100
AcDbLine
 10
-65.0933020023759
 20
27.81449611148952
 30
0.0
 11
-65.0933020023759
 21
24.76068658767844
 31
0.0
  0
LINE
  5
210
102
{ACAD_REACTORS
330
2C7
330
2C8
102
}
330
71
100
AcDbEntity
  8
0
  6
Continuous
 62
     2
100
AcDbLine
 10
-63.90050930020831
 20
27.81449611148952
 30
0.0
 11
-65.0933020023759
 21
27.81449611148952
 31
0.0
  0
LINE
  5
211
102
{ACAD_REACTORS
330
2C7
330
2C8
102
}
330
71
100
AcDbEntity
  8
0
  6
Continuous
 62
     2
100
AcDbLine
 10
-62.66000488995542
 20
24.76068658767844
 30
0.0
 11
-61.46721218778902
 21
24.76068658767844
 31
0.0
  0
LINE
  5
212
102
{ACAD_REACTORS
330
2C7
330
2C8
102
}
330
71
100
AcDbEntity
  8
0
  6
Continuous
 62
     2
100
AcDbLine
 10
-65.0933020023759
 20
24.76068658767844
 30
0.0
 11
-63.90050930020831
 21
24.76068658767844
 31
0.0
  0
LINE
  5
213
102
{ACAD_REACTORS
330
2D7
330
2D8
102
}
330
71
100
AcDbEntity
  8
0
  6
Continuous
 62
     2
100
AcDbLine
 10
-61.4193495488168
 20
29.99578862847923
 30
0.0
 11
-61.4193495488168
 21
30.47567298222094
 31
0.0
  0
LINE
  5
214
102
{ACAD_REACTORS
330
2D7
330
2D8
102
}
330
71
100
AcDbEntity
  8
0
  6
Continuous
 62
     2
100
AcDbLine
 10
-60.08342172238912
 20
29.99578862847923
 30
0.0
 11
-61.4193495488168
 21
29.99578862847923
 31
0.0
  0
LINE
  5
215
102
{ACAD_REACTORS
330
2D7
330
2D8
102
}
330
71
100
AcDbEntity
  8
0
  6
Continuous
 62
     2
100
AcDbLine
 10
-60.08342172238912
 20
29.29777502303693
 30
0.0
 11
-60.08342172238912
 21
29.99578862847923
 31
0.0
  0
LINE
  5
216
102
{ACAD_REACTORS
330
2D7
330
2D8
102
}
330
71
100
AcDbEntity
  8
0
  6
Continuous
 62
     2
100
AcDbLine
 10
-61.4193495488168
 20
29.29777502303693
 30
0.0
 11
-60.08342172238912
 21
29.29777502303693
 31
0.0
  0
LINE
  5
217
102
{ACAD_REACTORS
330
2C5
330
2C6
102
}
330
71
100
AcDbEntity
  8
0
  6
Continuous
 62
     2
100
AcDbLine
 10
-64.90230423914372
 20
31.17368658766392
 30
0.0
 11
-64.90230423914372
 21
28.11987706385273
 31
0.0
  0
LINE
  5
218
102
{ACAD_REACTORS
330
2C5
330
2C6
102
}
330
71
100
AcDbEntity
  8
0
  6
Continuous
 62
     2
100
AcDbLine
 10
-64.90230423914372
 20
28.11987706385273
 30
0.0
 11
-66.09509694131012
 21
28.11987706385273
 31
0.0
  0
LINE
  5
219
102
{ACAD_REACTORS
330
2C5
330
2C6
102
}
330
71
100
AcDbEntity
  8
0
  6
Continuous
 62
     2
100
AcDbLine
 10
-66.09509694131012
 20
28.11987706385273
 30
0.0
 11
-66.09509694131012
 21
29.25414917269654
 31
0.0
  0
LINE
  5
21A
102
{ACAD_REACTORS
330
2C5
330
2C6
102
}
330
71
100
AcDbEntity
  8
0
  6
Continuous
 62
     2
100
AcDbLine
 10
-67.1447545192176
 20
28.11987706385273
 30
0.0
 11
-68.3375472213842
 21
28.11987706385273
 31
0.0
  0
LINE
  5
21B
102
{ACAD_REACTORS
330
2C5
330
2C6
102
}
330
71
100
AcDbEntity
  8
0
  6
Continuous
 62
     2
100
AcDbLine
 10
-68.3375472213842
 20
31.17368658766392
 30
0.0
 11
-67.1447545192176
 21
31.17368658766392
 31
0.0
  0
LINE
  5
21C
102
{ACAD_REACTORS
330
2C5
330
2C6
102
}
330
71
100
AcDbEntity
  8
0
  6
Continuous
 62
     2
100
AcDbLine
 10
-67.1447545192176
 20
31.17368658766392
 30
0.0
 11
-67.1447545192176
 21
30.10485325432933
 31
0.0
  0
LINE
  5
21D
102
{ACAD_REACTORS
330
2C5
330
2C6
102
}
330
71
100
AcDbEntity
  8
0
  6
Continuous
 62
     2
100
AcDbLine
 10
-67.1447545192176
 20
30.10485325432933
 30
0.0
 11
-66.09509694131012
 21
30.10485325432933
 31
0.0
  0
LINE
  5
21E
102
{ACAD_REACTORS
330
2D3
330
2D4
102
}
330
71
100
AcDbEntity
  8
0
  6
Continuous
 62
     2
100
AcDbLine
 10
-70.2937272529378
 20
30.51058074222382
 30
0.0
 11
-69.9764321913959
 21
30.51058074222382
 31
0.0
  0
LINE
  5
21F
102
{ACAD_REACTORS
330
2D3
330
2D4
102
}
330
71
100
AcDbEntity
  8
0
  6
Continuous
 62
     2
100
AcDbLine
 10
-70.2937272529378
 20
29.80485309288162
 30
0.0
 11
-69.9764321913959
 21
29.80485309288162
 31
0.0
  0
LINE
  5
220
102
{ACAD_REACTORS
330
2D3
330
2D4
102
}
330
71
100
AcDbEntity
  8
0
  6
Continuous
 62
     2
100
AcDbLine
 10
-71.53423166319192
 20
31.17368658766392
 30
0.0
 11
-71.53423166319192
 21
28.11987706385273
 31
0.0
  0
LINE
  5
221
102
{ACAD_REACTORS
330
2D3
330
2D4
102
}
330
71
100
AcDbEntity
  8
0
  6
Continuous
 62
     2
100
AcDbLine
 10
-71.53423166319192
 20
31.17368658766392
 30
0.0
 11
-69.53495966515752
 21
31.17368658766392
 31
0.0
  0
LINE
  5
222
102
{ACAD_REACTORS
330
2D3
330
2D4
102
}
330
71
100
AcDbEntity
  8
0
  6
Continuous
 62
     2
100
AcDbLine
 10
-70.2937272529378
 20
29.06295530499654
 30
0.0
 11
-69.53495966515752
 21
29.06295530499654
 31
0.0
  0
LINE
  5
223
102
{ACAD_REACTORS
330
2D9
330
2DA
102
}
330
71
100
AcDbEntity
  8
0
  6
Continuous
 62
     2
100
AcDbLine
 10
-77.6307276964886
 20
30.14541410902913
 30
0.0
 11
-77.6307276964886
 21
25.78895906631203
 31
0.0
  0
LINE
  5
224
102
{ACAD_REACTORS
330
2D9
330
2DA
102
}
330
71
100
AcDbEntity
  8
0
  6
Continuous
 62
     2
100
AcDbLine
 10
-77.31501077341292
 20
30.46113103210533
 30
0.0
 11
-75.8391775124033
 21
30.46113103210533
 31
0.0
  0
LINE
  5
225
102
{ACAD_REACTORS
330
2D9
330
2DA
102
}
330
71
100
AcDbEntity
  8
0
  6
Continuous
 62
     2
100
AcDbLine
 10
-75.5234605893267
 20
29.54138948996862
 30
0.0
 11
-75.5234605893267
 21
30.14541410902913
 31
0.0
  0
LINE
  5
226
102
{ACAD_REACTORS
330
2D9
330
2DA
102
}
330
71
100
AcDbEntity
  8
0
  6
Continuous
 62
     2
100
AcDbLine
 10
-75.5234605893267
 20
25.78895906631203
 30
0.0
 11
-75.5234605893267
 21
27.31972999784364
 31
0.0
  0
LINE
  5
227
102
{ACAD_REACTORS
330
2D9
330
2DA
102
}
330
71
100
AcDbEntity
  8
0
  6
Continuous
 62
     2
100
AcDbLine
 10
-72.4355933594426
 20
24.76068658767844
 30
0.0
 11
-77.90890545015941
 21
24.76068658767844
 31
0.0
  0
LINE
  5
228
102
{ACAD_REACTORS
330
2D9
330
2DA
102
}
330
71
100
AcDbEntity
  8
0
  6
Continuous
 62
     2
100
AcDbLine
 10
-72.01134874405872
 20
30.74944197226193
 30
0.0
 11
-72.01134874405872
 21
25.18493120306172
 31
0.0
  0
LINE
  5
229
102
{ACAD_REACTORS
330
2D9
330
2DA
102
}
330
71
100
AcDbEntity
  8
0
  6
Continuous
 62
     2
100
AcDbLine
 10
-77.90890545015941
 20
31.17368658764573
 30
0.0
 11
-72.4355933594426
 21
31.17368658764573
 31
0.0
  0
LINE
  5
22A
102
{ACAD_REACTORS
330
2D9
330
2DA
102
}
330
71
100
AcDbEntity
  8
0
  6
Continuous
 62
     2
100
AcDbLine
 10
-78.33315006554221
 20
30.74944197226193
 30
0.0
 11
-78.33315006554221
 21
25.18493120306172
 31
0.0
  0
LINE
  5
22B
102
{ACAD_REACTORS
330
2D9
330
2DA
102
}
330
71
100
AcDbEntity
  8
0
  6
Continuous
 62
     2
100
AcDbLine
 10
-75.8391775124033
 20
25.47324214323533
 30
0.0
 11
-77.31501077341292
 21
25.47324214323533
 31
0.0
  0
LINE
  5
22C
102
{ACAD_REACTORS
330
2D3
330
2D4
102
}
330
71
100
AcDbEntity
  8
0
  6
Continuous
 62
     2
100
AcDbLine
 10
-70.2937272529378
 20
28.11987706385273
 30
0.0
 11
-70.2937272529378
 21
29.06295530499654
 31
0.0
  0
LINE
  5
22D
102
{ACAD_REACTORS
330
2D3
330
2D4
102
}
330
71
100
AcDbEntity
  8
0
  6
Continuous
 62
     2
100
AcDbLine
 10
-71.53423166319192
 20
28.11987706385273
 30
0.0
 11
-70.2937272529378
 21
28.11987706385273
 31
0.0
  0
LINE
  5
22E
102
{ACAD_REACTORS
330
2D3
330
2D4
102
}
330
71
100
AcDbEntity
  8
0
  6
Continuous
 62
     2
100
AcDbLine
 10
-70.2937272529378
 20
29.80485309288162
 30
0.0
 11
-70.2937272529378
 21
30.51058074222382
 31
0.0
  0
LINE
  5
22F
102
{ACAD_REACTORS
330
2C5
330
2C6
102
}
330
71
100
AcDbEntity
  8
0
  6
Continuous
 62
     2
100
AcDbLine
 10
-68.3375472213842
 20
31.17368658766392
 30
0.0
 11
-68.3375472213842
 21
28.11987706385273
 31
0.0
  0
LINE
  5
230
102
{ACAD_REACTORS
330
2C5
330
2C6
102
}
330
71
100
AcDbEntity
  8
0
  6
Continuous
 62
     2
100
AcDbLine
 10
-67.1447545192176
 20
29.25414917269654
 30
0.0
 11
-67.1447545192176
 21
28.11987706385273
 31
0.0
  0
LINE
  5
231
102
{ACAD_REACTORS
330
2C5
330
2C6
102
}
330
71
100
AcDbEntity
  8
0
  6
Continuous
 62
     2
100
AcDbLine
 10
-66.09509694131012
 20
29.25414917269654
 30
0.0
 11
-67.1447545192176
 21
29.25414917269654
 31
0.0
  0
LINE
  5
232
102
{ACAD_REACTORS
330
2C5
330
2C6
102
}
330
71
100
AcDbEntity
  8
0
  6
Continuous
 62
     2
100
AcDbLine
 10
-66.09509694131012
 20
31.17368658766392
 30
0.0
 11
-64.90230423914372
 21
31.17368658766392
 31
0.0
  0
LINE
  5
233
102
{ACAD_REACTORS
330
2C5
330
2C6
102
}
330
71
100
AcDbEntity
  8
0
  6
Continuous
 62
     2
100
AcDbLine
 10
-66.09509694131012
 20
30.10485325432933
 30
0.0
 11
-66.09509694131012
 21
31.17368658766392
 31
0.0
  0
LINE
  5
234
102
{ACAD_REACTORS
330
2D7
330
2D8
102
}
330
71
100
AcDbEntity
  8
0
  6
Continuous
 62
     2
100
AcDbLine
 10
-60.08342172238912
 20
30.47567298222094
 30
0.0
 11
-60.08342172238912
 21
31.17368658766392
 31
0.0
  0
LINE
  5
235
102
{ACAD_REACTORS
330
2D7
330
2D8
102
}
330
71
100
AcDbEntity
  8
0
  6
Continuous
 62
     2
100
AcDbLine
 10
-63.23374144617011
 20
31.17368658766392
 30
0.0
 11
-60.08342172238912
 21
31.17368658766392
 31
0.0
  0
LINE
  5
236
102
{ACAD_REACTORS
330
2D7
330
2D8
102
}
330
71
100
AcDbEntity
  8
0
  6
Continuous
 62
     2
100
AcDbLine
 10
-63.23374144617011
 20
28.11987706385273
 30
0.0
 11
-60.08342172238912
 21
28.11987706385273
 31
0.0
  0
LINE
  5
237
102
{ACAD_REACTORS
330
2D7
330
2D8
102
}
330
71
100
AcDbEntity
  8
0
  6
Continuous
 62
     2
100
AcDbLine
 10
-60.08342172238912
 20
28.11987706385273
 30
0.0
 11
-60.08342172238912
 21
28.81789066929522
 31
0.0
  0
LINE
  5
238
102
{ACAD_REACTORS
330
2D7
330
2D8
102
}
330
71
100
AcDbEntity
  8
0
  6
Continuous
 62
     2
100
AcDbLine
 10
-60.08342172238912
 20
28.81789066929522
 30
0.0
 11
-61.4193495488168
 21
28.81789066929522
 31
0.0
  0
LINE
  5
239
102
{ACAD_REACTORS
330
2D7
330
2D8
102
}
330
71
100
AcDbEntity
  8
0
  6
Continuous
 62
     2
100
AcDbLine
 10
-61.4193495488168
 20
28.81789066929522
 30
0.0
 11
-61.4193495488168
 21
29.29777502303693
 31
0.0
  0
LINE
  5
23A
102
{ACAD_REACTORS
330
2D7
330
2D8
102
}
330
71
100
AcDbEntity
  8
0
  6
Continuous
 62
     2
100
AcDbLine
 10
-61.4193495488168
 20
30.47567298222094
 30
0.0
 11
-60.08342172238912
 21
30.47567298222094
 31
0.0
  0
LINE
  5
23B
102
{ACAD_REACTORS
330
2C7
330
2C8
102
}
330
71
100
AcDbEntity
  8
0
  6
Continuous
 62
     2
100
AcDbLine
 10
-63.90050930020831
 20
24.76068658767844
 30
0.0
 11
-63.90050930020831
 21
26.06946209788302
 31
0.0
  0
LINE
  5
23C
102
{ACAD_REACTORS
330
2C7
330
2C8
102
}
330
71
100
AcDbEntity
  8
0
  6
Continuous
 62
     2
100
AcDbLine
 10
-63.90050930020831
 20
26.06946209788302
 30
0.0
 11
-62.66000488995542
 21
24.76068658767844
 31
0.0
  0
LINE
  5
23D
102
{ACAD_REACTORS
330
2C7
330
2C8
102
}
330
71
100
AcDbEntity
  8
0
  6
Continuous
 62
     2
100
AcDbLine
 10
-61.46721218778902
 20
24.76068658767844
 30
0.0
 11
-61.46721218778902
 21
27.81449611148952
 31
0.0
  0
LINE
  5
23E
102
{ACAD_REACTORS
330
2C7
330
2C8
102
}
330
71
100
AcDbEntity
  8
0
  6
Continuous
 62
     2
100
AcDbLine
 10
-61.46721218778902
 20
27.81449611148952
 30
0.0
 11
-62.66000488995542
 21
27.81449611148952
 31
0.0
  0
LINE
  5
23F
102
{ACAD_REACTORS
330
2C7
330
2C8
102
}
330
71
100
AcDbEntity
  8
0
  6
Continuous
 62
     2
100
AcDbLine
 10
-62.66000488995542
 20
27.81449611148952
 30
0.0
 11
-62.66000488995542
 21
26.50572060128442
 31
0.0
  0
LINE
  5
240
102
{ACAD_REACTORS
330
2C7
330
2C8
102
}
330
71
100
AcDbEntity
  8
0
  6
Continuous
 62
     2
100
AcDbLine
 10
-62.66000488995542
 20
26.50572060128442
 30
0.0
 11
-63.90050930020831
 21
27.81449611148952
 31
0.0
  0
LINE
  5
241
102
{ACAD_REACTORS
330
2C9
330
2CA
102
}
330
71
100
AcDbEntity
  8
0
  6
Continuous
 62
     2
100
AcDbLine
 10
-58.6520704797897
 20
29.42865257405742
 30
0.0
 11
-57.4115660695357
 21
28.11987706385273
 31
0.0
  0
LINE
  5
242
102
{ACAD_REACTORS
330
2C9
330
2CA
102
}
330
71
100
AcDbEntity
  8
0
  6
Continuous
 62
     2
100
AcDbLine
 10
-57.4115660695357
 20
28.11987706385273
 30
0.0
 11
-56.2187733673691
 21
28.11987706385273
 31
0.0
  0
LINE
  5
243
102
{ACAD_REACTORS
330
2C9
330
2CA
102
}
330
71
100
AcDbEntity
  8
0
  6
Continuous
 62
     2
100
AcDbLine
 10
-56.2187733673691
 20
28.11987706385273
 30
0.0
 11
-56.2187733673691
 21
31.17368658766392
 31
0.0
  0
LINE
  5
244
102
{ACAD_REACTORS
330
2C9
330
2CA
102
}
330
71
100
AcDbEntity
  8
0
  6
Continuous
 62
     2
100
AcDbLine
 10
-56.2187733673691
 20
31.17368658766392
 30
0.0
 11
-57.4115660695357
 21
31.17368658766392
 31
0.0
  0
LINE
  5
245
102
{ACAD_REACTORS
330
2C9
330
2CA
102
}
330
71
100
AcDbEntity
  8
0
  6
Continuous
 62
     2
100
AcDbLine
 10
-57.4115660695357
 20
29.86491107745874
 30
0.0
 11
-58.6520704797897
 21
31.17368658766392
 31
0.0
  0
LINE
  5
246
102
{ACAD_REACTORS
330
2C9
330
2CA
102
}
330
71
100
AcDbEntity
  8
0
  6
Continuous
 62
     2
100
AcDbLine
 10
-59.84486318195621
 20
28.11987706385273
 30
0.0
 11
-58.6520704797897
 21
28.11987706385273
 31
0.0
  0
LINE
  5
247
102
{ACAD_REACTORS
330
2CB
330
2CC
102
}
330
71
100
AcDbEntity
  8
0
  6
Continuous
 62
     2
100
AcDbLine
 10
-61.32407706352882
 20
27.81449611148952
 30
0.0
 11
-61.32407706352882
 21
27.02923080536593
 31
0.0
  0
LINE
  5
248
102
{ACAD_REACTORS
330
2CB
330
2CC
102
}
330
71
100
AcDbEntity
  8
0
  6
Continuous
 62
     2
100
AcDbLine
 10
-60.51297802605421
 20
27.02923080536593
 30
0.0
 11
-60.51297802605421
 21
24.76068658767844
 31
0.0
  0
LINE
  5
249
102
{ACAD_REACTORS
330
2CB
330
2CC
102
}
330
71
100
AcDbEntity
  8
0
  6
Continuous
 62
     2
100
AcDbLine
 10
-60.51297802605421
 20
24.76068658767844
 30
0.0
 11
-59.3201853238877
 21
24.76068658767844
 31
0.0
  0
LINE
  5
24A
102
{ACAD_REACTORS
330
2CD
330
2CE
102
}
330
71
100
AcDbEntity
  8
0
  6
Continuous
 62
     2
100
AcDbLine
 10
-56.37065883046822
 20
24.76068658767844
 30
0.0
 11
-56.582138883944
 21
25.30164713189632
 31
0.0
  0
LINE
  5
24B
102
{ACAD_REACTORS
330
2CD
330
2CE
102
}
330
71
100
AcDbEntity
  8
0
  6
Continuous
 62
     2
100
AcDbLine
 10
-56.5281074671546
 20
27.81449611148952
 30
0.0
 11
-55.1301544202143
 21
24.76068658767844
 31
0.0
  0
LINE
  5
24C
102
{ACAD_REACTORS
330
2CD
330
2CE
102
}
330
71
100
AcDbEntity
  8
0
  6
Continuous
 62
     2
100
AcDbLine
 10
-57.7686118774073
 20
27.81449611148952
 30
0.0
 11
-56.5281074671546
 21
27.81449611148952
 31
0.0
  0
LINE
  5
24D
102
{ACAD_REACTORS
330
2CD
330
2CE
102
}
330
71
100
AcDbEntity
  8
0
  6
Continuous
 62
     2
100
AcDbLine
 10
-59.1665649243466
 20
24.76068658767844
 30
0.0
 11
-57.92606051409362
 21
24.76068658767844
 31
0.0
  0
LINE
  5
24E
102
{ACAD_REACTORS
330
2CD
330
2CE
102
}
330
71
100
AcDbEntity
  8
0
  6
Continuous
 62
     2
100
AcDbLine
 10
-57.44852490947281
 20
25.98221039720292
 30
0.0
 11
-56.84819443509031
 21
25.98221039720292
 31
0.0
  0
LINE
  5
24F
102
{ACAD_REACTORS
330
2CD
330
2CE
102
}
330
71
100
AcDbEntity
  8
0
  6
Continuous
 62
     2
100
AcDbLine
 10
-56.84819443509031
 20
25.98221039720292
 30
0.0
 11
-57.14835967228041
 21
26.75002536318962
 31
0.0
  0
LINE
  5
250
102
{ACAD_REACTORS
330
2CF
330
2D0
102
}
330
71
100
AcDbEntity
  8
0
  6
Continuous
 62
     2
100
AcDbLine
 10
-54.7397104166823
 20
28.11987706385273
 30
0.0
 11
-55.9802148269352
 21
28.11987706385273
 31
0.0
  0
LINE
  5
251
102
{ACAD_REACTORS
330
2D1
330
2D2
102
}
330
71
100
AcDbEntity
  8
0
  6
Continuous
 62
     2
100
AcDbLine
 10
-53.21770692871721
 20
28.11987706385273
 30
0.0
 11
-54.62043114646542
 21
28.11987706385273
 31
0.0
  0
LINE
  5
252
102
{ACAD_REACTORS
330
2D1
330
2D2
102
}
330
71
100
AcDbEntity
  8
0
  6
Continuous
 62
     2
100
AcDbLine
 10
-53.21770692871721
 20
28.11987706385273
 30
0.0
 11
-52.52111599065151
 21
28.90760884914644
 31
0.0
  0
LINE
  5
253
102
{ACAD_REACTORS
330
2D1
330
2D2
102
}
330
71
100
AcDbEntity
  8
0
  6
Continuous
 62
     2
100
AcDbLine
 10
-51.91994846875872
 20
31.17368658766392
 30
0.0
 11
-50.5172242510115
 21
31.17368658766392
 31
0.0
  0
LINE
  5
254
102
{ACAD_REACTORS
330
2D1
330
2D2
102
}
330
71
100
AcDbEntity
  8
0
  6
Continuous
 62
     2
100
AcDbLine
 10
-54.5250077302926
 20
31.17368658766392
 30
0.0
 11
-53.22247809952512
 21
29.70073605762772
 31
0.0
  0
LINE
  5
255
102
{ACAD_REACTORS
330
2D1
330
2D2
102
}
330
71
100
AcDbEntity
  8
0
  6
Continuous
 62
     2
100
AcDbLine
 10
-54.62043114646542
 20
28.11987706385273
 30
0.0
 11
-53.22247809952512
 21
29.70073605762772
 31
0.0
  0
LINE
  5
256
102
{ACAD_REACTORS
330
2DB
330
2DC
102
}
330
71
100
AcDbEntity
  8
0
  6
Continuous
 62
     2
100
AcDbLine
 10
-52.75967453108549
 20
25.80770699584204
 30
0.0
 11
-52.75967453108549
 21
24.93518998903872
 31
0.0
  0
LINE
  5
257
102
{ACAD_REACTORS
330
2DB
330
2DC
102
}
330
71
100
AcDbEntity
  8
0
  6
Continuous
 62
     2
100
AcDbLine
 10
-53.5293318740469
 20
27.02923080536593
 30
0.0
 11
-52.4256925744788
 21
27.02923080536593
 31
0.0
  0
LINE
  5
258
102
{ACAD_REACTORS
330
2DD
330
2DE
102
}
330
71
100
AcDbEntity
  8
0
  6
Continuous
 62
     2
100
AcDbLine
 10
-68.86237601033741
 20
25.80770699584252
 30
0.0
 11
-68.86237601033741
 21
24.93518998903932
 31
0.0
  0
LINE
  5
259
102
{ACAD_REACTORS
330
2DD
330
2DE
102
}
330
71
100
AcDbEntity
  8
0
  6
Continuous
 62
     2
100
AcDbLine
 10
-68.86237601033741
 20
26.76747570332543
 30
0.0
 11
-68.86237601033741
 21
27.63999271012872
 31
0.0
  0
LINE
  5
25A
330
71
100
AcDbEntity
  8
1
  6
Continuous
 62
     7
100
AcDbLine
 10
46.97499957464649
 20
25.96718658766213
 30
0.0
 11
-46.1698049521049
 21
25.96718658766213
 31
0.0
  0
LINE
  5
25B
330
71
100
AcDbEntity
  8
1
  6
Continuous
 62
     6
100
AcDbLine
 10
-151.5698049521048
 20
17.46718658766213
 30
0.0
 11
-196.5250004253548
 21
17.46718658766213
 31
0.0
  0
LINE
  5
25C
330
71
100
AcDbEntity
  8
1
  6
Continuous
 62
     7
100
AcDbLine
 10
38.05659129296768
 20
42.96718658766213
 30
0.0
 11
38.05659129296768
 21
34.46718658766213
 31
0.0
  0
LINE
  5
25D
330
71
100
AcDbEntity
  8
1
  6
Continuous
 62
     7
100
AcDbLine
 10
11.55659129296808
 20
42.96718658766213
 30
0.0
 11
11.55659129296808
 21
34.46718658766213
 31
0.0
  0
LINE
  5
25E
330
71
100
AcDbEntity
  8
1
  6
Continuous
 62
     7
100
AcDbLine
 10
-46.1698049521049
 20
34.46718658766213
 30
0.0
 11
-46.1698049521049
 21
42.96718658766213
 31
0.0
  0
LINE
  5
25F
330
71
100
AcDbEntity
  8
1
  6
Continuous
 62
     7
100
AcDbLine
 10
-82.56980495210482
 20
34.46718658766213
 30
0.0
 11
-82.56980495210482
 21
42.96718658766213
 31
0.0
  0
LINE
  5
260
330
71
100
AcDbEntity
  8
1
  6
Continuous
 62
     6
100
AcDbLine
 10
-46.1698049521049
 20
34.46718658766213
 30
0.0
 11
46.97499957464689
 21
34.46718658766213
 31
0.0
  0
LINE
  5
261
330
71
100
AcDbEntity
  8
1
  6
Continuous
 62
     7
100
AcDbLine
 10
-18.26980495210481
 20
25.96718658766204
 30
0.0
 11
-18.26980495210481
 21
34.46718658766213
 31
0.0
  0
LINE
  5
262
330
71
100
AcDbEntity
  8
1
  6
PHANTOM
 62
     2
100
AcDbLine
 10
-67.08315006554221
 20
38.59218658766204
 30
0.0
 11
-72.58315006554221
 21
38.59218658766204
 31
0.0
  0
LINE
  5
263
330
71
100
AcDbEntity
  8
1
  6
PHANTOM
 62
     2
100
AcDbLine
 10
-69.83315006554221
 20
41.34218658766204
 30
0.0
 11
-69.83315006554221
 21
35.84218658766204
 31
0.0
  0
LINE
  5
264
330
71
100
AcDbEntity
  8
1
  6
DOT_CENTER
 62
     2
100
AcDbLine
 10
-78.58315006554221
 20
38.59218658766204
 30
0.0
 11
-73.08315006554221
 21
38.59218658766204
 31
0.0
  0
ARC
  5
265
102
{ACAD_REACTORS
330
2DD
330
2DE
102
}
330
71
100
AcDbEntity
  8
0
  6
Continuous
 62
     2
100
AcDbCircle
 10
-70.19830392745521
 20
22.97491040432783
 30
0.0
 40
4.852596863498064
100
AcDbArc
 50
74.02000874164737
 51
84.84185523037506
  0
ARC
  5
266
102
{ACAD_REACTORS
330
2DD
330
2DE
102
}
330
71
100
AcDbEntity
  8
0
  6
Continuous
 62
     2
100
AcDbCircle
 10
-69.6222633187015
 20
26.13067076021213
 30
0.0
 40
0.9059297849853228
100
AcDbArc
 50
71.55192388185348
 51
113.372277888129
  0
ARC
  5
267
102
{ACAD_REACTORS
330
2DD
330
2DE
102
}
330
71
100
AcDbEntity
  8
0
  6
Continuous
 62
     2
100
AcDbCircle
 10
-69.77870335140352
 20
26.08251992024523
 30
0.0
 40
0.5115800601948034
100
AcDbArc
 50
208.5214732576956
 51
246.627722111827
  0
ARC
  5
268
102
{ACAD_REACTORS
330
2DD
330
2DE
102
}
330
71
100
AcDbEntity
  8
0
  6
Continuous
 62
     2
100
AcDbCircle
 10
-69.6222633187015
 20
26.44451193895523
 30
0.0
 40
0.905929784984916
100
AcDbArc
 50
246.6277221118709
 51
288.4480761181586
  0
ARC
  5
269
102
{ACAD_REACTORS
330
2DD
330
2DE
102
}
330
71
100
AcDbEntity
  8
0
  6
Continuous
 62
     2
100
AcDbCircle
 10
-70.0404310523623
 20
27.69805771499242
 30
0.0
 40
2.227384008972737
100
AcDbArc
 50
288.4480761181328
 51
301.9309089499592
  0
ARC
  5
26A
102
{ACAD_REACTORS
330
2D9
330
2DA
102
}
330
71
100
AcDbEntity
  8
0
  6
Continuous
 62
     2
100
AcDbCircle
 10
-75.2655047849691
 20
28.43055974390643
 30
0.0
 40
0.9118481501444557
100
AcDbArc
 50
295.3740086781766
 51
64.62599132180736
  0
ARC
  5
26B
102
{ACAD_REACTORS
330
2D9
330
2DA
102
}
330
71
100
AcDbEntity
  8
0
  6
Continuous
 62
     2
100
AcDbCircle
 10
-74.73946208688122
 20
30.14523663238103
 30
0.0
 40
0.3157169230760711
100
AcDbArc
 50
90.18896704254594
 51
180.0
  0
ARC
  5
26C
102
{ACAD_REACTORS
330
2DB
330
2DC
102
}
330
71
100
AcDbEntity
  8
0
  6
Continuous
 62
     2
100
AcDbCircle
 10
-53.5293318740469
 20
26.07470779853983
 30
0.0
 40
0.9545230068261006
100
AcDbArc
 50
90.0
 51
109.3371432194319
  0
ARC
  5
26D
102
{ACAD_REACTORS
330
2DB
330
2DC
102
}
330
71
100
AcDbEntity
  8
0
  6
Continuous
 62
     2
100
AcDbCircle
 10
-53.29864461406922
 20
26.28759134958372
 30
0.0
 40
0.9410597353348844
100
AcDbArc
 50
151.4785267423624
 51
208.5214732576697
  0
ARC
  5
26E
102
{ACAD_REACTORS
330
2DB
330
2DC
102
}
330
71
100
AcDbEntity
  8
0
  6
Continuous
 62
     2
100
AcDbCircle
 10
-53.51956183944751
 20
26.44451193895523
 30
0.0
 40
0.905929784985274
100
AcDbArc
 50
246.6277221118186
 51
288.4480761180817
  0
ARC
  5
26F
102
{ACAD_REACTORS
330
2DB
330
2DC
102
}
330
71
100
AcDbEntity
  8
0
  6
Continuous
 62
     2
100
AcDbCircle
 10
-53.93772957310941
 20
27.69805771499182
 30
0.0
 40
2.227384008972744
100
AcDbArc
 50
288.4480761181333
 51
301.9309089499399
  0
ARC
  5
270
102
{ACAD_REACTORS
330
2DB
330
2DC
102
}
330
71
100
AcDbEntity
  8
0
  6
Continuous
 62
     2
100
AcDbCircle
 10
-54.09560244820221
 20
29.60027229484012
 30
0.0
 40
4.852596863498824
100
AcDbArc
 50
275.1581447696362
 51
285.9799912583387
  0
ARC
  5
271
102
{ACAD_REACTORS
330
2DB
330
2DC
102
}
330
71
100
AcDbEntity
  8
0
  6
Continuous
 62
     2
100
AcDbCircle
 10
-53.80674635346639
 20
26.40038171161854
 30
0.0
 40
1.639695123940455
100
AcDbArc
 50
195.0618917771012
 51
275.158144769676
  0
ARC
  5
272
102
{ACAD_REACTORS
330
2D3
330
2D4
102
}
330
71
100
AcDbEntity
  8
0
  6
Continuous
 62
     2
100
AcDbCircle
 10
-69.53495966515752
 20
30.11832094633024
 30
0.0
 40
1.055365641333701
100
AcDbArc
 50
270.0
 51
90.0
  0
ARC
  5
273
102
{ACAD_REACTORS
330
2D9
330
2DA
102
}
330
71
100
AcDbEntity
  8
0
  6
Continuous
 62
     2
100
AcDbCircle
 10
-77.31501077341292
 20
25.78895906631203
 30
0.0
 40
0.3157169230756836
100
AcDbArc
 50
180.0
 51
270.0
  0
ARC
  5
274
102
{ACAD_REACTORS
330
2D9
330
2DA
102
}
330
71
100
AcDbEntity
  8
0
  6
Continuous
 62
     2
100
AcDbCircle
 10
-75.8391775124033
 20
30.14541410902913
 30
0.0
 40
0.315716923076593
100
AcDbArc
 50
0.0
 51
90.0
  0
ARC
  5
275
102
{ACAD_REACTORS
330
2D9
330
2DA
102
}
330
71
100
AcDbEntity
  8
0
  6
Continuous
 62
     2
100
AcDbCircle
 10
-75.8391775124033
 20
29.54138948996862
 30
0.0
 40
0.3157169230761203
100
AcDbArc
 50
295.1944106485397
 51
0.0
  0
ARC
  5
276
102
{ACAD_REACTORS
330
2D9
330
2DA
102
}
330
71
100
AcDbEntity
  8
0
  6
Continuous
 62
     2
100
AcDbCircle
 10
-75.8391775124033
 20
25.78895906631203
 30
0.0
 40
0.3157169230767032
100
AcDbArc
 50
270.0
 51
0.0
  0
ARC
  5
277
102
{ACAD_REACTORS
330
2D9
330
2DA
102
}
330
71
100
AcDbEntity
  8
0
  6
Continuous
 62
     2
100
AcDbCircle
 10
-77.90890545015941
 20
30.74944197226193
 30
0.0
 40
0.4242446153837989
100
AcDbArc
 50
90.0
 51
180.0
  0
ARC
  5
278
102
{ACAD_REACTORS
330
2D9
330
2DA
102
}
330
71
100
AcDbEntity
  8
0
  6
Continuous
 62
     2
100
AcDbCircle
 10
-72.4355933594426
 20
30.74944197226193
 30
0.0
 40
0.4242446153838841
100
AcDbArc
 50
0.0
 51
90.0
  0
ARC
  5
279
102
{ACAD_REACTORS
330
2D9
330
2DA
102
}
330
71
100
AcDbEntity
  8
0
  6
Continuous
 62
     2
100
AcDbCircle
 10
-72.4355933594426
 20
25.18493120306172
 30
0.0
 40
0.4242446153832802
100
AcDbArc
 50
270.0
 51
0.0
  0
ARC
  5
27A
102
{ACAD_REACTORS
330
2D7
330
2D8
102
}
330
71
100
AcDbEntity
  8
0
  6
Continuous
 62
     2
100
AcDbCircle
 10
-63.2172094723511
 20
29.64678182575804
 30
0.0
 40
0.7717997786796351
100
AcDbArc
 50
321.879580202844
 51
38.12041979715956
  0
ARC
  5
27B
102
{ACAD_REACTORS
330
2D7
330
2D8
102
}
330
71
100
AcDbEntity
  8
0
  6
Continuous
 62
     2
100
AcDbCircle
 10
-63.01746943600492
 20
29.49005064763762
 30
0.0
 40
0.5179085730134315
100
AcDbArc
 50
218.1204197971516
 51
321.8795802028571
  0
ARC
  5
27C
102
{ACAD_REACTORS
330
2D5
330
2D6
102
}
330
71
100
AcDbEntity
  8
0
  6
Continuous
 62
     2
100
AcDbCircle
 10
-66.69747702496511
 20
26.28759134958372
 30
0.0
 40
1.458034083652006
100
AcDbArc
 50
297.548148175701
 51
62.45185182429896
  0
ARC
  5
27D
102
{ACAD_REACTORS
330
2D5
330
2D6
102
}
330
71
100
AcDbEntity
  8
0
  6
Continuous
 62
     2
100
AcDbCircle
 10
-67.25935680863171
 20
26.28759134958372
 30
0.0
 40
1.45803408365149
100
AcDbArc
 50
117.5481481756624
 51
242.4518518243376
  0
ARC
  5
27E
102
{ACAD_REACTORS
330
2D5
330
2D6
102
}
330
71
100
AcDbEntity
  8
0
  6
Continuous
 62
     2
100
AcDbCircle
 10
-66.97841691679841
 20
25.74901633928093
 30
0.0
 40
2.065479772208564
100
AcDbArc
 50
62.45185182430632
 51
117.5481481756664
  0
ARC
  5
27F
102
{ACAD_REACTORS
330
2D5
330
2D6
102
}
330
71
100
AcDbEntity
  8
0
  6
Continuous
 62
     2
100
AcDbCircle
 10
-66.97841691679841
 20
26.82616635988703
 30
0.0
 40
2.065479772208515
100
AcDbArc
 50
242.4518518243403
 51
297.548148175687
  0
ARC
  5
280
102
{ACAD_REACTORS
330
2D7
330
2D8
102
}
330
71
100
AcDbEntity
  8
0
  6
Continuous
 62
     2
100
AcDbCircle
 10
-62.81772939965862
 20
29.64678182575804
 30
0.0
 40
0.7717997786796724
100
AcDbArc
 50
141.8795802028404
 51
218.120419797156
  0
ARC
  5
281
102
{ACAD_REACTORS
330
2D7
330
2D8
102
}
330
71
100
AcDbEntity
  8
0
  6
Continuous
 62
     2
100
AcDbCircle
 10
-63.01746943600492
 20
29.80351300387852
 30
0.0
 40
0.5179085730135321
100
AcDbArc
 50
38.12041979714286
 51
141.8795802028484
  0
ARC
  5
282
102
{ACAD_REACTORS
330
2D9
330
2DA
102
}
330
71
100
AcDbEntity
  8
0
  6
Continuous
 62
     2
100
AcDbCircle
 10
-77.90890545015941
 20
25.18493120306172
 30
0.0
 40
0.4242446153828041
100
AcDbArc
 50
180.0
 51
270.0
  0
ARC
  5
283
102
{ACAD_REACTORS
330
2D9
330
2DA
102
}
330
71
100
AcDbEntity
  8
0
  6
Continuous
 62
     2
100
AcDbCircle
 10
-75.8391775124033
 20
27.31972999784364
 30
0.0
 40
0.315716923076593
100
AcDbArc
 50
0.0
 51
64.80558935146027
  0
ARC
  5
284
102
{ACAD_REACTORS
330
2D9
330
2DA
102
}
330
71
100
AcDbEntity
  8
0
  6
Continuous
 62
     2
100
AcDbCircle
 10
-75.31659306482831
 20
28.43055974390643
 30
0.0
 40
0.9118975235576114
100
AcDbArc
 50
115.1944106485283
 51
244.8055893514877
  0
ARC
  5
285
102
{ACAD_REACTORS
330
2D9
330
2DA
102
}
330
71
100
AcDbEntity
  8
0
  6
Continuous
 62
     2
100
AcDbCircle
 10
-77.31501077341292
 20
30.14541410902913
 30
0.0
 40
0.3157169230762022
100
AcDbArc
 50
90.0
 51
180.0
  0
ARC
  5
286
102
{ACAD_REACTORS
330
2D3
330
2D4
102
}
330
71
100
AcDbEntity
  8
0
  6
Continuous
 62
     2
100
AcDbCircle
 10
-69.9764321913959
 20
30.15771691755273
 30
0.0
 40
0.3528638246711111
100
AcDbArc
 50
270.0
 51
90.0
  0
ARC
  5
287
102
{ACAD_REACTORS
330
2D7
330
2D8
102
}
330
71
100
AcDbEntity
  8
0
  6
Continuous
 62
     2
100
AcDbCircle
 10
-63.23374144617011
 20
29.64678182575804
 30
0.0
 40
1.526904761905879
100
AcDbArc
 50
90.0
 51
270.0
  0
ARC
  5
288
102
{ACAD_REACTORS
330
2DB
330
2DC
102
}
330
71
100
AcDbEntity
  8
0
  6
Continuous
 62
     2
100
AcDbCircle
 10
-53.80674635346639
 20
26.17480098754882
 30
0.0
 40
1.639695123940218
100
AcDbArc
 50
90.0
 51
164.9381082228952
  0
ARC
  5
289
102
{ACAD_REACTORS
330
2DB
330
2DC
102
}
330
71
100
AcDbEntity
  8
0
  6
Continuous
 62
     2
100
AcDbCircle
 10
-54.225874196928
 20
26.28759134958372
 30
0.0
 40
1.205656168393008
100
AcDbArc
 50
164.9381082229031
 51
195.0618917770957
  0
ARC
  5
28A
102
{ACAD_REACTORS
330
2DB
330
2DC
102
}
330
71
100
AcDbEntity
  8
0
  6
Continuous
 62
     2
100
AcDbCircle
 10
-53.67600187215061
 20
26.08251992024523
 30
0.0
 40
0.5115800601960137
100
AcDbArc
 50
208.5214732576866
 51
246.6277221118445
  0
ARC
  5
28B
102
{ACAD_REACTORS
330
2DB
330
2DC
102
}
330
71
100
AcDbEntity
  8
0
  6
Continuous
 62
     2
100
AcDbCircle
 10
-53.67600187215061
 20
26.49266277892272
 30
0.0
 40
0.5115800601944176
100
AcDbArc
 50
109.3371432194852
 51
151.4785267424224
  0
ARC
  5
28C
102
{ACAD_REACTORS
330
2D9
330
2DA
102
}
330
71
100
AcDbEntity
  8
0
  6
Continuous
 62
     2
100
AcDbCircle
 10
-74.73946208688122
 20
26.73956673724294
 30
0.0
 40
0.315716923076792
100
AcDbArc
 50
180.0
 51
269.8110329574542
  0
ARC
  5
28D
102
{ACAD_REACTORS
330
2D9
330
2DA
102
}
330
71
100
AcDbEntity
  8
0
  6
Continuous
 62
     2
100
AcDbCircle
 10
-74.7338459515712
 20
28.44240168481193
 30
0.0
 40
2.018561131933266
100
AcDbArc
 50
269.8110329575858
 51
90.18896704241416
  0
ARC
  5
28E
102
{ACAD_REACTORS
330
2D9
330
2DA
102
}
330
71
100
AcDbEntity
  8
0
  6
Continuous
 62
     2
100
AcDbCircle
 10
-74.73946208688122
 20
29.53970134387424
 30
0.0
 40
0.315716923076792
100
AcDbArc
 50
180.0
 51
244.6259913216482
  0
ARC
  5
28F
102
{ACAD_REACTORS
330
2D9
330
2DA
102
}
330
71
100
AcDbEntity
  8
0
  6
Continuous
 62
     2
100
AcDbCircle
 10
-74.73946208688122
 20
27.32141814393802
 30
0.0
 40
0.315716923076536
100
AcDbArc
 50
115.3740086783516
 51
180.0
  0
ARC
  5
290
102
{ACAD_REACTORS
330
2DD
330
2DE
102
}
330
71
100
AcDbEntity
  8
0
  6
Continuous
 62
     2
100
AcDbCircle
 10
-69.90944783271931
 20
26.17480098754882
 30
0.0
 40
1.639695123940503
100
AcDbArc
 50
84.84185523036234
 51
164.9381082228866
  0
ARC
  5
291
102
{ACAD_REACTORS
330
2DD
330
2DE
102
}
330
71
100
AcDbEntity
  8
0
  6
Continuous
 62
     2
100
AcDbCircle
 10
-70.32857567618211
 20
26.28759134958372
 30
0.0
 40
1.205656168390943
100
AcDbArc
 50
164.9381082228766
 51
195.061891777095
  0
ARC
  5
292
102
{ACAD_REACTORS
330
2DD
330
2DE
102
}
330
71
100
AcDbEntity
  8
0
  6
Continuous
 62
     2
100
AcDbCircle
 10
-69.90944783271931
 20
26.40038171161854
 30
0.0
 40
1.639695123939389
100
AcDbArc
 50
195.0618917770898
 51
275.1581447696395
  0
ARC
  5
293
102
{ACAD_REACTORS
330
2DD
330
2DE
102
}
330
71
100
AcDbEntity
  8
0
  6
Continuous
 62
     2
100
AcDbCircle
 10
-70.19830392745521
 20
29.60027229484012
 30
0.0
 40
4.852596863498134
100
AcDbArc
 50
275.1581447696249
 51
285.9799912583529
  0
ARC
  5
294
102
{ACAD_REACTORS
330
2DD
330
2DE
102
}
330
71
100
AcDbEntity
  8
0
  6
Continuous
 62
     2
100
AcDbCircle
 10
-69.40134609332321
 20
26.28759134958372
 30
0.0
 40
0.9410597353332545
100
AcDbArc
 50
151.4785267422669
 51
208.5214732577059
  0
ARC
  5
295
102
{ACAD_REACTORS
330
2DD
330
2DE
102
}
330
71
100
AcDbEntity
  8
0
  6
Continuous
 62
     2
100
AcDbCircle
 10
-69.77870335140352
 20
26.49266277892272
 30
0.0
 40
0.5115800601948779
100
AcDbArc
 50
113.3722778881992
 51
151.4785267423044
  0
ARC
  5
296
102
{ACAD_REACTORS
330
2DD
330
2DE
102
}
330
71
100
AcDbEntity
  8
0
  6
Continuous
 62
     2
100
AcDbCircle
 10
-70.0404310523623
 20
24.87712498417554
 30
0.0
 40
2.227384008973474
100
AcDbArc
 50
58.06909105004068
 51
71.55192388186722
  0
ARC
  5
297
102
{ACAD_REACTORS
330
2D5
330
2D6
102
}
330
71
100
AcDbEntity
  8
0
  6
Continuous
 62
     2
100
AcDbCircle
 10
-66.97841691679841
 20
26.44432252770423
 30
0.0
 40
0.5179085730133021
100
AcDbArc
 50
38.12041979714734
 51
141.8795802028585
  0
ARC
  5
298
102
{ACAD_REACTORS
330
2D5
330
2D6
102
}
330
71
100
AcDbEntity
  8
0
  6
Continuous
 62
     2
100
AcDbCircle
 10
-66.77867688045231
 20
26.28759134958372
 30
0.0
 40
0.7717997786794654
100
AcDbArc
 50
141.8795802028361
 51
218.1204197971687
  0
ARC
  5
299
102
{ACAD_REACTORS
330
2D5
330
2D6
102
}
330
71
100
AcDbEntity
  8
0
  6
Continuous
 62
     2
100
AcDbCircle
 10
-66.97841691679841
 20
26.13086017146372
 30
0.0
 40
0.5179085730137332
100
AcDbArc
 50
218.1204197971929
 51
321.8795802028013
  0
ARC
  5
29A
102
{ACAD_REACTORS
330
2D5
330
2D6
102
}
330
71
100
AcDbEntity
  8
0
  6
Continuous
 62
     2
100
AcDbCircle
 10
-67.17815695314482
 20
26.28759134958372
 30
0.0
 40
0.7717997786796947
100
AcDbArc
 50
321.8795802028417
 51
38.12041979715349
  0
CIRCLE
  5
29B
330
71
100
AcDbEntity
  8
1
  6
Continuous
 62
     2
100
AcDbCircle
 10
-69.83315006554221
 20
38.59218658766204
 30
0.0
 40
2.5
  0
CIRCLE
  5
29C
330
71
100
AcDbEntity
  8
1
  6
Continuous
 62
     2
100
AcDbCircle
 10
-69.83315006554221
 20
38.59218658766204
 30
0.0
 40
1.249999999999915
  0
CIRCLE
  5
29D
102
{ACAD_REACTORS
330
2D9
330
2DA
102
}
330
71
100
AcDbEntity
  8
0
  6
Continuous
 62
     2
100
AcDbCircle
 10
-75.2893197996419
 20
28.43055974390643
 30
0.0
 40
0.4709789327785074
  0
MTEXT
  5
29E
330
71
100
AcDbEntity
  8
1
 62
     3
100
AcDbMText
 10
-240.019932639283
 20
204.2584947429609
 30
0.0
 40
1.8
 41
0.0
 71
     7
 72
     1
  3
Weitergabe sowie Vervielf\U+00e4ltigung dieses Dokuments, Verwertung und \PMitteilung seines Inhalts sind verboten, soweit nicht ausdr\U+00fccklich gestattet. \PZuwiderhandlungen verpflichten zu Schadenersatz. Alle Rechte f\U+00fcr den Fall\Pder Pat
  1
ent-, Gebrauchsmuster- oder Designeintragung vorbehalten.
  7
CONVERTER_11
 73
     1
 44
0.99639855942377
  0
MTEXT
  5
29F
330
71
100
AcDbEntity
  8
1
 62
     3
100
AcDbMText
 10
-57.16682280049491
 20
204.2584947429609
 30
0.0
 40
1.8
 41
0.0
 71
     7
 72
     1
  3
Transfer or duplication of this document as well as the utilisation or\Pcommunication of its content are not permitted unless express consent\Pis granted. Violations give rise to claims for damages. All rights reserved\Pin case of patent, utility mo
  1
del or design patent registrations.
  7
CONVERTER_11
 73
     1
 44
0.99639855942377
  0
TEXT
  5
2A0
330
71
100
AcDbEntity
  8
1
 62
     2
100
AcDbText
 10
-63.369804952105
 20
18.70816937267051
 30
0.0
 40
1.8
  1
of
 41
0.9
  7
CONVERTER_11
100
AcDbText
  0
TEXT
  5
2A1
330
71
100
AcDbEntity
  8
1
 62
     2
100
AcDbText
 10
-81.56980495210482
 20
18.70816937267045
 30
0.0
 40
1.8
  1
page
 41
0.9
  7
CONVERTER_11
100
AcDbText
  0
TEXT
  5
2A2
330
71
100
AcDbEntity
  8
1
 62
     2
100
AcDbText
 10
-72.92353998176281
 20
18.66793793386012
 30
0.0
 40
1.8
  1
1
 41
0.9
  7
CONVERTER_11
100
AcDbText
  0
TEXT
  5
2A3
330
71
100
AcDbEntity
  8
1
 62
     2
100
AcDbText
 10
-58.13449614229131
 20
18.71718658766201
 30
0.0
 40
1.8
  1
1
 41
0.9
  7
CONVERTER_11
100
AcDbText
  0
MTEXT
  5
2A5
330
71
100
AcDbEntity
  8
1
 62
     7
100
AcDbMText
 10
0.40259731127068
 20
20.71718658766235
 30
0.0
 40
3.0
 41
0.0
 71
     5
 72
     1
  1
MBK BU
  7
CONVERTER_12
 73
     1
 44
1.20048019207683
  0
MTEXT
  5
2A6
330
71
100
AcDbEntity
  8
1
 62
     2
100
AcDbMText
 10
-45.1698049521049
 20
24.96718658766213
 30
0.0
 40
1.8
 41
0.0
 71
     1
 72
     1
  1
description
  7
CONVERTER_11
 73
     1
 44
1.20048019207683
  0
MTEXT
  5
2A7
330
71
100
AcDbEntity
  8
1
 62
     3
100
AcDbMText
 10
-56.36980495210491
 20
38.59218658766213
 30
0.0
 40
2.5
 41
0.0
 71
     5
 72
     1
  1
DIN A4
  7
CONVERTER_11
 73
     1
 44
1.20048019207683
  0
MTEXT
  5
2A8
330
71
100
AcDbEntity
  8
1
 62
     7
100
AcDbMText
 10
-242.5250004253539
 20
39.96718658766213
 30
0.0
 40
3.5
 41
0.0
 71
     5
 72
     1
  1
D
  7
CONVERTER_11
 73
     1
 44
1.20048019207683
  0
MTEXT
  5
2A9
330
71
100
AcDbEntity
  8
1
 62
     7
100
AcDbMText
 10
-242.5250004253539
 20
92.46718658766213
 30
0.0
 40
3.5
 41
0.0
 71
     5
 72
     1
  1
C
  7
CONVERTER_11
 73
     1
 44
1.20048019207683
  0
MTEXT
  5
2AA
330
71
100
AcDbEntity
  8
1
 62
     7
100
AcDbMText
 10
-242.5250004253539
 20
142.4671865876621
 30
0.0
 40
3.5
 41
0.0
 71
     5
 72
     1
  1
B
  7
CONVERTER_11
 73
     1
 44
1.20048019207683
  0
MTEXT
  5
2AB
330
71
100
AcDbEntity
  8
1
 62
     7
100
AcDbMText
 10
-242.5250004253539
 20
194.9671865876621
 30
0.0
 40
3.5
 41
0.0
 71
     5
 72
     1
  1
A
  7
CONVERTER_11
 73
     1
 44
1.20048019207683
  0
MTEXT
  5
2AC
330
71
100
AcDbEntity
  8
1
 62
     7
100
AcDbMText
 10
27.72499957464439
 20
14.96718658766201
 30
0.0
 40
3.5
 41
0.0
 71
     5
 72
     1
  1
6
  7
CONVERTER_11
 73
     1
 44
1.20048019207683
  0
MTEXT
  5
2AD
330
71
100
AcDbEntity
  8
1
 62
     7
100
AcDbMText
 10
-21.52500042535482
 20
14.96718658766201
 30
0.0
 40
3.5
 41
0.0
 71
     5
 72
     1
  1
5
  7
CONVERTER_11
 73
     1
 44
1.20048019207683
  0
MTEXT
  5
2AE
330
71
100
AcDbEntity
  8
1
 62
     7
100
AcDbMText
 10
-71.5250004253549
 20
14.96718658766201
 30
0.0
 40
3.5
 41
0.0
 71
     5
 72
     1
  1
4
  7
CONVERTER_11
 73
     1
 44
1.20048019207683
  0
MTEXT
  5
2AF
330
71
100
AcDbEntity
  8
1
 62
     7
100
AcDbMText
 10
-121.5250004253548
 20
14.96718658766201
 30
0.0
 40
3.5
 41
0.0
 71
     5
 72
     1
  1
3
  7
CONVERTER_11
 73
     1
 44
1.20048019207683
  0
MTEXT
  5
2B0
330
71
100
AcDbEntity
  8
1
 62
     7
100
AcDbMText
 10
-171.5250004253548
 20
14.96718658766201
 30
0.0
 40
3.5
 41
0.0
 71
     5
 72
     1
  1
2
  7
CONVERTER_11
 73
     1
 44
1.20048019207683
  0
MTEXT
  5
2B1
330
71
100
AcDbEntity
  8
1
 62
     7
100
AcDbMText
 10
-220.7750004253544
 20
14.96718658766201
 30
0.0
 40
3.5
 41
0.0
 71
     5
 72
     1
  1
1
  7
CONVERTER_11
 73
     1
 44
1.20048019207683
  0
MTEXT
  5
2B2
330
71
100
AcDbEntity
  8
1
 62
     7
100
AcDbMText
 10
49.47499957464419
 20
39.96718658766213
 30
0.0
 40
3.5
 41
0.0
 71
     5
 72
     1
  1
D
  7
CONVERTER_11
 73
     1
 44
1.20048019207683
  0
MTEXT
  5
2B3
330
71
100
AcDbEntity
  8
1
 62
     7
100
AcDbMText
 10
49.47499957464419
 20
142.467186587664
 30
0.0
 40
3.5
 41
0.0
 71
     5
 72
     1
  1
B
  7
CONVERTER_11
 73
     1
 44
1.20048019207683
  0
MTEXT
  5
2B4
330
71
100
AcDbEntity
  8
1
 62
     7
100
AcDbMText
 10
49.47499957464419
 20
194.9671865876621
 30
0.0
 40
3.5
 41
0.0
 71
     5
 72
     1
  1
A
  7
CONVERTER_11
 73
     1
 44
1.20048019207683
  0
MTEXT
  5
2B5
330
71
100
AcDbEntity
  8
1
 62
     7
100
AcDbMText
 10
49.47499957464419
 20
92.46718658766403
 30
0.0
 40
3.5
 41
0.0
 71
     5
 72
     1
  1
C
  7
CONVERTER_11
 73
     1
 44
1.20048019207683
  0
MTEXT
  5
2B6
330
71
100
AcDbEntity
  8
1
 62
     2
100
AcDbMText
 10
-117.0078196771523
 20
30.21718658766204
 30
0.0
 40
2.0
 41
0.0
 71
     5
 72
     1
  1
General Information\P- Simplified representation\P- Document excluded from change process\P- Linear dimensions [mm]
  7
CONVERTER_11
 73
     1
 44
1.20048019207683
  0
TEXT
  5
2B7
330
71
100
AcDbEntity
  8
1
 62
     7
100
AcDbText
 10
-44.6698049521051
 20
27.26718658766203
 30
0.0
 40
2.5
  1
1401093
 41
0.81
  7
CONVERTER_12
100
AcDbText
  0
MTEXT
  5
2B8
330
71
100
AcDbEntity
  8
1
 62
     2
100
AcDbMText
 10
-45.06980495210482
 20
33.46718658766213
 30
0.0
 40
1.8
 41
0.0
 71
     1
 72
     1
  1
ident.-No.
  7
CONVERTER_11
 73
     1
 44
1.20048019207683
  0
MTEXT
  5
2B9
330
71
100
AcDbEntity
  8
1
 62
     2
100
AcDbMText
 10
39.1565912929679
 20
41.96718658766213
 30
0.0
 40
1.8
 41
0.0
 71
     1
 72
     1
  1
scale
  7
CONVERTER_11
 73
     1
 44
1.20048019207683
  0
MTEXT
  5
2BB
330
71
100
AcDbEntity
  8
1
 62
     3
100
AcDbMText
 10
42.5157954338075
 20
35.76718658766222
 30
0.0
 40
2.5
 41
0.0
 71
     8
 72
     1
  1
2:1
  7
CONVERTER_13
 73
     1
 44
1.32052821128451
  0
TEXT
  5
2BC
330
71
100
AcDbEntity
  8
1
 62
     7
100
AcDbText
 10
-45.06980495210482
 20
35.76718658766203
 30
0.0
 40
2.5
  1
00351604
 41
0.81
  7
CONVERTER_12
100
AcDbText
  0
MTEXT
  5
2BE
330
71
100
AcDbEntity
  8
1
 62
     2
100
AcDbMText
 10
-45.06980495210482
 20
41.96718658766213
 30
0.0
 40
1.8
 41
0.0
 71
     1
 72
     1
  1
document-No. / RI
  7
CONVERTER_14
 73
     1
 44
1.32052821128451
  0
TEXT
  5
2BF
330
71
100
AcDbEntity
  8
1
 62
     3
100
AcDbText
 10
-17.26980495210481
 20
27.26718658766203
 30
0.0
 40
2.5
  1
TECDOC 2D_Productdrawing
 41
0.81
  7
CONVERTER_12
100
AcDbText
  0
MTEXT
  5
2C0
330
71
100
AcDbEntity
  8
1
 62
     2
100
AcDbMText
 10
-17.26980495210481
 20
33.46718658766204
 30
0.0
 40
1.8
 41
0.0
 71
     1
 72
     1
  1
document-type
  7
CONVERTER_11
 73
     1
 44
1.20048019207683
  0
MTEXT
  5
2C1
330
71
100
AcDbEntity
  8
1
 62
     2
100
AcDbMText
 10
12.55659129296808
 20
41.96718658766204
 30
0.0
 40
1.8
 41
0.0
 71
     1
 72
     1
  1
date
  7
CONVERTER_11
 73
     1
 44
1.32052821128451
  0
TEXT
  5
2C2
330
71
100
AcDbEntity
  8
1
 62
     3
100
AcDbText
 10
12.55659129296808
 20
35.76718658766203
 30
0.0
 40
2.5
  1
10.11.2017
 41
0.81
  7
CONVERTER_12
100
AcDbText
  0
TEXT
  5
2C3
330
71
100
AcDbEntity
  8
1
 62
     7
100
AcDbText
 10
-25.03989273304902
 20
35.76718658766203
 30
0.0
 40
2.5
  1
01
 41
0.81
  7
CONVERTER_12
100
AcDbText
  0
TEXT
  5
2C4
330
71
100
AcDbEntity
  8
1
 62
     7
100
AcDbText
 10
-27.19625723009102
 20
35.76718658766203
 30
0.0
 40
2.5
  1
/
 41
0.9
  7
CONVERTER_11
100
AcDbText
  0
HATCH
  5
2C5
330
71
100
AcDbEntity
  8
1
  6
Continuous
 62
     2
100
AcDbHatch
 10
0.0
 20
0.0
 30
0.0
210
0.0
220
0.0
230
1.0
  2
_USER
 70
     0
 71
     1
 91
        1
 92
        1
 93
       12
 72
     1
 10
-64.90230423914372
 20
28.11987706385273
 11
-66.09509694131012
 21
28.11987706385273
 72
     1
 10
-66.09509694131012
 20
28.11987706385273
 11
-66.09509694131012
 21
29.25414917269654
 72
     1
 10
-66.09509694131012
 20
29.25414917269654
 11
-67.1447545192176
 21
29.25414917269654
 72
     1
 10
-67.1447545192176
 20
29.25414917269654
 11
-67.1447545192176
 21
28.11987706385273
 72
     1
 10
-67.1447545192176
 20
28.11987706385273
 11
-68.3375472213842
 21
28.11987706385273
 72
     1
 10
-68.3375472213842
 20
28.11987706385273
 11
-68.3375472213842
 21
31.17368658766392
 72
     1
 10
-68.3375472213842
 20
31.17368658766392
 11
-67.1447545192176
 21
31.17368658766392
 72
     1
 10
-67.1447545192176
 20
31.17368658766392
 11
-67.1447545192176
 21
30.10485325432933
 72
     1
 10
-67.1447545192176
 20
30.10485325432933
 11
-66.09509694131012
 21
30.10485325432933
 72
     1
 10
-66.09509694131012
 20
30.10485325432933
 11
-66.09509694131012
 21
31.17368658766392
 72
     1
 10
-66.09509694131012
 20
31.17368658766392
 11
-64.90230423914372
 21
31.17368658766392
 72
     1
 10
-64.90230423914372
 20
31.17368658766392
 11
-64.90230423914372
 21
28.11987706385273
 97
       12
330
232
330
233
330
21D
330
21C
330
21B
330
22F
330
21A
330
230
330
231
330
219
330
218
330
217
 75
     1
 76
     0
 52
45.0
 41
0.1
 77
     0
 78
     1
 53
45.0
 43
0.0
 44
0.0
 45
-0.0707106781186548
 46
0.0707106781186548
 79
     0
 98
        1
 10
0.0
 20
0.0
  0
HATCH
  5
2C6
330
71
100
AcDbEntity
  8
1
  6
Continuous
 62
     2
100
AcDbHatch
 10
0.0
 20
0.0
 30
0.0
210
0.0
220
0.0
230
1.0
  2
_USER
 70
     0
 71
     1
 91
        1
 92
        1
 93
       12
 72
     1
 10
-64.90230423914372
 20
28.11987706385273
 11
-66.09509694131012
 21
28.11987706385273
 72
     1
 10
-66.09509694131012
 20
28.11987706385273
 11
-66.09509694131012
 21
29.25414917269654
 72
     1
 10
-66.09509694131012
 20
29.25414917269654
 11
-67.1447545192176
 21
29.25414917269654
 72
     1
 10
-67.1447545192176
 20
29.25414917269654
 11
-67.1447545192176
 21
28.11987706385273
 72
     1
 10
-67.1447545192176
 20
28.11987706385273
 11
-68.3375472213842
 21
28.11987706385273
 72
     1
 10
-68.3375472213842
 20
28.11987706385273
 11
-68.3375472213842
 21
31.17368658766392
 72
     1
 10
-68.3375472213842
 20
31.17368658766392
 11
-67.1447545192176
 21
31.17368658766392
 72
     1
 10
-67.1447545192176
 20
31.17368658766392
 11
-67.1447545192176
 21
30.10485325432933
 72
     1
 10
-67.1447545192176
 20
30.10485325432933
 11
-66.09509694131012
 21
30.10485325432933
 72
     1
 10
-66.09509694131012
 20
30.10485325432933
 11
-66.09509694131012
 21
31.17368658766392
 72
     1
 10
-66.09509694131012
 20
31.17368658766392
 11
-64.90230423914372
 21
31.17368658766392
 72
     1
 10
-64.90230423914372
 20
31.17368658766392
 11
-64.90230423914372
 21
28.11987706385273
 97
       12
330
232
330
233
330
21D
330
21C
330
21B
330
22F
330
21A
330
230
330
231
330
219
330
218
330
217
 75
     1
 76
     0
 52
45.0
 41
0.1
 77
     0
 78
     1
 53
45.0
 43
0.0
 44
0.0
 45
-0.0707106781186548
 46
0.0707106781186548
 79
     0
 98
        1
 10
0.0
 20
0.0
  0
HATCH
  5
2C7
330
71
100
AcDbEntity
  8
1
  6
Continuous
 62
     2
100
AcDbHatch
 10
0.0
 20
0.0
 30
0.0
210
0.0
220
0.0
230
1.0
  2
_USER
 70
     0
 71
     1
 91
        1
 92
        1
 93
       10
 72
     1
 10
-62.66000488995542
 20
26.50572060128442
 11
-63.90050930020831
 21
27.81449611148952
 72
     1
 10
-63.90050930020831
 20
27.81449611148952
 11
-65.0933020023759
 21
27.81449611148952
 72
     1
 10
-65.0933020023759
 20
27.81449611148952
 11
-65.0933020023759
 21
24.76068658767844
 72
     1
 10
-65.0933020023759
 20
24.76068658767844
 11
-63.90050930020831
 21
24.76068658767844
 72
     1
 10
-63.90050930020831
 20
24.76068658767844
 11
-63.90050930020831
 21
26.06946209788302
 72
     1
 10
-63.90050930020831
 20
26.06946209788302
 11
-62.66000488995542
 21
24.76068658767844
 72
     1
 10
-62.66000488995542
 20
24.76068658767844
 11
-61.46721218778902
 21
24.76068658767844
 72
     1
 10
-61.46721218778902
 20
24.76068658767844
 11
-61.46721218778902
 21
27.81449611148952
 72
     1
 10
-61.46721218778902
 20
27.81449611148952
 11
-62.66000488995542
 21
27.81449611148952
 72
     1
 10
-62.66000488995542
 20
27.81449611148952
 11
-62.66000488995542
 21
26.50572060128442
 97
       10
330
240
330
210
330
20F
330
212
330
23B
330
23C
330
211
330
23D
330
23E
330
23F
 75
     1
 76
     0
 52
45.0
 41
0.1
 77
     0
 78
     1
 53
45.0
 43
0.0
 44
0.0
 45
-0.0707106781186548
 46
0.0707106781186548
 79
     0
 98
        1
 10
0.0
 20
0.0
  0
HATCH
  5
2C8
330
71
100
AcDbEntity
  8
1
  6
Continuous
 62
     2
100
AcDbHatch
 10
0.0
 20
0.0
 30
0.0
210
0.0
220
0.0
230
1.0
  2
_USER
 70
     0
 71
     1
 91
        1
 92
        1
 93
       10
 72
     1
 10
-62.66000488995542
 20
26.50572060128442
 11
-63.90050930020831
 21
27.81449611148952
 72
     1
 10
-63.90050930020831
 20
27.81449611148952
 11
-65.0933020023759
 21
27.81449611148952
 72
     1
 10
-65.0933020023759
 20
27.81449611148952
 11
-65.0933020023759
 21
24.76068658767844
 72
     1
 10
-65.0933020023759
 20
24.76068658767844
 11
-63.90050930020831
 21
24.76068658767844
 72
     1
 10
-63.90050930020831
 20
24.76068658767844
 11
-63.90050930020831
 21
26.06946209788302
 72
     1
 10
-63.90050930020831
 20
26.06946209788302
 11
-62.66000488995542
 21
24.76068658767844
 72
     1
 10
-62.66000488995542
 20
24.76068658767844
 11
-61.46721218778902
 21
24.76068658767844
 72
     1
 10
-61.46721218778902
 20
24.76068658767844
 11
-61.46721218778902
 21
27.81449611148952
 72
     1
 10
-61.46721218778902
 20
27.81449611148952
 11
-62.66000488995542
 21
27.81449611148952
 72
     1
 10
-62.66000488995542
 20
27.81449611148952
 11
-62.66000488995542
 21
26.50572060128442
 97
       10
330
240
330
210
330
20F
330
212
330
23B
330
23C
330
211
330
23D
330
23E
330
23F
 75
     1
 76
     0
 52
45.0
 41
0.1
 77
     0
 78
     1
 53
45.0
 43
0.0
 44
0.0
 45
-0.0707106781186548
 46
0.0707106781186548
 79
     0
 98
        1
 10
0.0
 20
0.0
  0
HATCH
  5
2C9
330
71
100
AcDbEntity
  8
1
  6
Continuous
 62
     2
100
AcDbHatch
 10
0.0
 20
0.0
 30
0.0
210
0.0
220
0.0
230
1.0
  2
_USER
 70
     0
 71
     1
 91
        1
 92
        1
 93
       10
 72
     1
 10
-57.4115660695357
 20
29.86491107745874
 11
-58.6520704797897
 21
31.17368658766392
 72
     1
 10
-58.6520704797897
 20
31.17368658766392
 11
-59.84486318195621
 21
31.17368658766392
 72
     1
 10
-59.84486318195621
 20
31.17368658766392
 11
-59.84486318195621
 21
28.11987706385273
 72
     1
 10
-59.84486318195621
 20
28.11987706385273
 11
-58.6520704797897
 21
28.11987706385273
 72
     1
 10
-58.6520704797897
 20
28.11987706385273
 11
-58.6520704797897
 21
29.42865257405742
 72
     1
 10
-58.6520704797897
 20
29.42865257405742
 11
-57.4115660695357
 21
28.11987706385273
 72
     1
 10
-57.4115660695357
 20
28.11987706385273
 11
-56.2187733673691
 21
28.11987706385273
 72
     1
 10
-56.2187733673691
 20
28.11987706385273
 11
-56.2187733673691
 21
31.17368658766392
 72
     1
 10
-56.2187733673691
 20
31.17368658766392
 11
-57.4115660695357
 21
31.17368658766392
 72
     1
 10
-57.4115660695357
 20
31.17368658766392
 11
-57.4115660695357
 21
29.86491107745874
 97
       10
330
245
330
20D
330
20C
330
246
330
20B
330
241
330
242
330
243
330
244
330
20E
 75
     1
 76
     0
 52
45.0
 41
0.1
 77
     0
 78
     1
 53
45.0
 43
0.0
 44
0.0
 45
-0.0707106781186548
 46
0.0707106781186548
 79
     0
 98
        1
 10
0.0
 20
0.0
  0
HATCH
  5
2CA
330
71
100
AcDbEntity
  8
1
  6
Continuous
 62
     2
100
AcDbHatch
 10
0.0
 20
0.0
 30
0.0
210
0.0
220
0.0
230
1.0
  2
_USER
 70
     0
 71
     1
 91
        1
 92
        1
 93
       10
 72
     1
 10
-57.4115660695357
 20
29.86491107745874
 11
-58.6520704797897
 21
31.17368658766392
 72
     1
 10
-58.6520704797897
 20
31.17368658766392
 11
-59.84486318195621
 21
31.17368658766392
 72
     1
 10
-59.84486318195621
 20
31.17368658766392
 11
-59.84486318195621
 21
28.11987706385273
 72
     1
 10
-59.84486318195621
 20
28.11987706385273
 11
-58.6520704797897
 21
28.11987706385273
 72
     1
 10
-58.6520704797897
 20
28.11987706385273
 11
-58.6520704797897
 21
29.42865257405742
 72
     1
 10
-58.6520704797897
 20
29.42865257405742
 11
-57.4115660695357
 21
28.11987706385273
 72
     1
 10
-57.4115660695357
 20
28.11987706385273
 11
-56.2187733673691
 21
28.11987706385273
 72
     1
 10
-56.2187733673691
 20
28.11987706385273
 11
-56.2187733673691
 21
31.17368658766392
 72
     1
 10
-56.2187733673691
 20
31.17368658766392
 11
-57.4115660695357
 21
31.17368658766392
 72
     1
 10
-57.4115660695357
 20
31.17368658766392
 11
-57.4115660695357
 21
29.86491107745874
 97
       10
330
245
330
20D
330
20C
330
246
330
20B
330
241
330
242
330
243
330
244
330
20E
 75
     1
 76
     0
 52
45.0
 41
0.1
 77
     0
 78
     1
 53
45.0
 43
0.0
 44
0.0
 45
-0.0707106781186548
 46
0.0707106781186548
 79
     0
 98
        1
 10
0.0
 20
0.0
  0
HATCH
  5
2CB
330
71
100
AcDbEntity
  8
1
  6
Continuous
 62
     2
100
AcDbHatch
 10
0.0
 20
0.0
 30
0.0
210
0.0
220
0.0
230
1.0
  2
_USER
 70
     0
 71
     1
 91
        1
 92
        1
 93
        8
 72
     1
 10
-58.5090862864152
 20
27.81449611148952
 11
-61.32407706352882
 21
27.81449611148952
 72
     1
 10
-61.32407706352882
 20
27.81449611148952
 11
-61.32407706352882
 21
27.02923080536593
 72
     1
 10
-61.32407706352882
 20
27.02923080536593
 11
-60.51297802605421
 21
27.02923080536593
 72
     1
 10
-60.51297802605421
 20
27.02923080536593
 11
-60.51297802605421
 21
24.76068658767844
 72
     1
 10
-60.51297802605421
 20
24.76068658767844
 11
-59.3201853238877
 21
24.76068658767844
 72
     1
 10
-59.3201853238877
 20
24.76068658767844
 11
-59.3201853238877
 21
27.02923080536593
 72
     1
 10
-59.3201853238877
 20
27.02923080536593
 11
-58.5090862864152
 21
27.02923080536593
 72
     1
 10
-58.5090862864152
 20
27.02923080536593
 11
-58.5090862864152
 21
27.81449611148952
 97
        8
330
207
330
247
330
206
330
248
330
249
330
20A
330
209
330
208
 75
     1
 76
     0
 52
45.0
 41
0.1
 77
     0
 78
     1
 53
45.0
 43
0.0
 44
0.0
 45
-0.0707106781186548
 46
0.0707106781186548
 79
     0
 98
        1
 10
0.0
 20
0.0
  0
HATCH
  5
2CC
330
71
100
AcDbEntity
  8
1
  6
Continuous
 62
     2
100
AcDbHatch
 10
0.0
 20
0.0
 30
0.0
210
0.0
220
0.0
230
1.0
  2
_USER
 70
     0
 71
     1
 91
        1
 92
        1
 93
        8
 72
     1
 10
-58.5090862864152
 20
27.81449611148952
 11
-61.32407706352882
 21
27.81449611148952
 72
     1
 10
-61.32407706352882
 20
27.81449611148952
 11
-61.32407706352882
 21
27.02923080536593
 72
     1
 10
-61.32407706352882
 20
27.02923080536593
 11
-60.51297802605421
 21
27.02923080536593
 72
     1
 10
-60.51297802605421
 20
27.02923080536593
 11
-60.51297802605421
 21
24.76068658767844
 72
     1
 10
-60.51297802605421
 20
24.76068658767844
 11
-59.3201853238877
 21
24.76068658767844
 72
     1
 10
-59.3201853238877
 20
24.76068658767844
 11
-59.3201853238877
 21
27.02923080536593
 72
     1
 10
-59.3201853238877
 20
27.02923080536593
 11
-58.5090862864152
 21
27.02923080536593
 72
     1
 10
-58.5090862864152
 20
27.02923080536593
 11
-58.5090862864152
 21
27.81449611148952
 97
        8
330
207
330
247
330
206
330
248
330
249
330
20A
330
209
330
208
 75
     1
 76
     0
 52
45.0
 41
0.1
 77
     0
 78
     1
 53
45.0
 43
0.0
 44
0.0
 45
-0.0707106781186548
 46
0.0707106781186548
 79
     0
 98
        1
 10
0.0
 20
0.0
  0
HATCH
  5
2CD
330
71
100
AcDbEntity
  8
1
  6
Continuous
 62
     2
100
AcDbHatch
 10
0.0
 20
0.0
 30
0.0
210
0.0
220
0.0
230
1.0
  2
_USER
 70
     0
 71
     1
 91
        2
 92
        1
 93
        8
 72
     1
 10
-56.37065883046822
 20
24.76068658767844
 11
-56.582138883944
 21
25.30164713189632
 72
     1
 10
-56.582138883944
 20
25.30164713189632
 11
-57.71458046061781
 21
25.30164713189632
 72
     1
 10
-57.71458046061781
 20
25.30164713189632
 11
-57.92606051409362
 21
24.76068658767844
 72
     1
 10
-57.92606051409362
 20
24.76068658767844
 11
-59.1665649243466
 21
24.76068658767844
 72
     1
 10
-59.1665649243466
 20
24.76068658767844
 11
-57.7686118774073
 21
27.81449611148952
 72
     1
 10
-57.7686118774073
 20
27.81449611148952
 11
-56.5281074671546
 21
27.81449611148952
 72
     1
 10
-56.5281074671546
 20
27.81449611148952
 11
-55.1301544202143
 21
24.76068658767844
 72
     1
 10
-55.1301544202143
 20
24.76068658767844
 11
-56.37065883046822
 21
24.76068658767844
 97
        8
330
24B
330
24C
330
203
330
24D
330
202
330
205
330
24A
330
204
 92
       16
 93
        3
 72
     1
 10
-57.44852490947281
 20
25.98221039720292
 11
-57.14835967228041
 21
26.75002536318962
 72
     1
 10
-57.14835967228041
 20
26.75002536318962
 11
-56.84819443509031
 21
25.98221039720292
 72
     1
 10
-56.84819443509031
 20
25.98221039720292
 11
-57.44852490947281
 21
25.98221039720292
 97
        3
330
201
330
24F
330
24E
 75
     1
 76
     0
 52
45.0
 41
0.1
 77
     0
 78
     1
 53
45.0
 43
0.0
 44
0.0
 45
-0.0707106781186548
 46
0.0707106781186548
 79
     0
 98
        1
 10
0.0
 20
0.0
  0
HATCH
  5
2CE
330
71
100
AcDbEntity
  8
1
  6
Continuous
 62
     2
100
AcDbHatch
 10
0.0
 20
0.0
 30
0.0
210
0.0
220
0.0
230
1.0
  2
_USER
 70
     0
 71
     1
 91
        2
 92
        1
 93
        8
 72
     1
 10
-56.37065883046822
 20
24.76068658767844
 11
-56.582138883944
 21
25.30164713189632
 72
     1
 10
-56.582138883944
 20
25.30164713189632
 11
-57.71458046061781
 21
25.30164713189632
 72
     1
 10
-57.71458046061781
 20
25.30164713189632
 11
-57.92606051409362
 21
24.76068658767844
 72
     1
 10
-57.92606051409362
 20
24.76068658767844
 11
-59.1665649243466
 21
24.76068658767844
 72
     1
 10
-59.1665649243466
 20
24.76068658767844
 11
-57.7686118774073
 21
27.81449611148952
 72
     1
 10
-57.7686118774073
 20
27.81449611148952
 11
-56.5281074671546
 21
27.81449611148952
 72
     1
 10
-56.5281074671546
 20
27.81449611148952
 11
-55.1301544202143
 21
24.76068658767844
 72
     1
 10
-55.1301544202143
 20
24.76068658767844
 11
-56.37065883046822
 21
24.76068658767844
 97
        8
330
24B
330
24C
330
203
330
24D
330
202
330
205
330
24A
330
204
 92
       16
 93
        3
 72
     1
 10
-57.44852490947281
 20
25.98221039720292
 11
-57.14835967228041
 21
26.75002536318962
 72
     1
 10
-57.14835967228041
 20
26.75002536318962
 11
-56.84819443509031
 21
25.98221039720292
 72
     1
 10
-56.84819443509031
 20
25.98221039720292
 11
-57.44852490947281
 21
25.98221039720292
 97
        3
330
201
330
24F
330
24E
 75
     1
 76
     0
 52
45.0
 41
0.1
 77
     0
 78
     1
 53
45.0
 43
0.0
 44
0.0
 45
-0.0707106781186548
 46
0.0707106781186548
 79
     0
 98
        1
 10
0.0
 20
0.0
  0
HATCH
  5
2CF
330
71
100
AcDbEntity
  8
1
  6
Continuous
 62
     2
100
AcDbHatch
 10
0.0
 20
0.0
 30
0.0
210
0.0
220
0.0
230
1.0
  2
_USER
 70
     0
 71
     1
 91
        1
 92
        1
 93
        4
 72
     1
 10
-54.7397104166823
 20
28.11987706385273
 11
-55.9802148269352
 21
28.11987706385273
 72
     1
 10
-55.9802148269352
 20
28.11987706385273
 11
-55.9802148269352
 21
31.17368658766392
 72
     1
 10
-55.9802148269352
 20
31.17368658766392
 11
-54.7397104166823
 21
31.17368658766392
 72
     1
 10
-54.7397104166823
 20
31.17368658766392
 11
-54.7397104166823
 21
28.11987706385273
 97
        4
330
1FE
330
200
330
250
330
1FF
 75
     1
 76
     0
 52
45.0
 41
0.1
 77
     0
 78
     1
 53
45.0
 43
0.0
 44
0.0
 45
-0.0707106781186548
 46
0.0707106781186548
 79
     0
 98
        1
 10
0.0
 20
0.0
  0
HATCH
  5
2D0
330
71
100
AcDbEntity
  8
1
  6
Continuous
 62
     2
100
AcDbHatch
 10
0.0
 20
0.0
 30
0.0
210
0.0
220
0.0
230
1.0
  2
_USER
 70
     0
 71
     1
 91
        1
 92
        1
 93
        4
 72
     1
 10
-54.7397104166823
 20
28.11987706385273
 11
-55.9802148269352
 21
28.11987706385273
 72
     1
 10
-55.9802148269352
 20
28.11987706385273
 11
-55.9802148269352
 21
31.17368658766392
 72
     1
 10
-55.9802148269352
 20
31.17368658766392
 11
-54.7397104166823
 21
31.17368658766392
 72
     1
 10
-54.7397104166823
 20
31.17368658766392
 11
-54.7397104166823
 21
28.11987706385273
 97
        4
330
1FE
330
200
330
250
330
1FF
 75
     1
 76
     0
 52
45.0
 41
0.1
 77
     0
 78
     1
 53
45.0
 43
0.0
 44
0.0
 45
-0.0707106781186548
 46
0.0707106781186548
 79
     0
 98
        1
 10
0.0
 20
0.0
  0
HATCH
  5
2D1
330
71
100
AcDbEntity
  8
1
  6
Continuous
 62
     2
100
AcDbHatch
 10
0.0
 20
0.0
 30
0.0
210
0.0
220
0.0
230
1.0
  2
_USER
 70
     0
 71
     1
 91
        1
 92
        1
 93
       12
 72
     1
 10
-50.5172242510115
 20
31.17368658766392
 11
-51.81975388177801
 21
29.70073605762772
 72
     1
 10
-51.81975388177801
 20
29.70073605762772
 11
-50.42180083483771
 21
28.11987706385273
 72
     1
 10
-50.42180083483771
 20
28.11987706385273
 11
-51.82452505258601
 21
28.11987706385273
 72
     1
 10
-51.82452505258601
 20
28.11987706385273
 11
-52.52111599065151
 21
28.90760884914644
 72
     1
 10
-52.52111599065151
 20
28.90760884914644
 11
-53.21770692871721
 21
28.11987706385273
 72
     1
 10
-53.21770692871721
 20
28.11987706385273
 11
-54.62043114646542
 21
28.11987706385273
 72
     1
 10
-54.62043114646542
 20
28.11987706385273
 11
-53.22247809952512
 21
29.70073605762772
 72
     1
 10
-53.22247809952512
 20
29.70073605762772
 11
-54.5250077302926
 21
31.17368658766392
 72
     1
 10
-54.5250077302926
 20
31.17368658766392
 11
-53.12228351254331
 21
31.17368658766392
 72
     1
 10
-53.12228351254331
 20
31.17368658766392
 11
-52.52111599065151
 21
30.49386326610843
 72
     1
 10
-52.52111599065151
 20
30.49386326610843
 11
-51.91994846875872
 21
31.17368658766392
 72
     1
 10
-51.91994846875872
 20
31.17368658766392
 11
-50.5172242510115
 21
31.17368658766392
 97
       12
330
1F9
330
1F8
330
1F7
330
254
330
255
330
251
330
252
330
1FD
330
1FC
330
1FB
330
1FA
330
253
 75
     1
 76
     0
 52
45.0
 41
0.1
 77
     0
 78
     1
 53
45.0
 43
0.0
 44
0.0
 45
-0.0707106781186548
 46
0.0707106781186548
 79
     0
 98
        1
 10
0.0
 20
0.0
  0
HATCH
  5
2D2
330
71
100
AcDbEntity
  8
1
  6
Continuous
 62
     2
100
AcDbHatch
 10
0.0
 20
0.0
 30
0.0
210
0.0
220
0.0
230
1.0
  2
_USER
 70
     0
 71
     1
 91
        1
 92
        1
 93
       12
 72
     1
 10
-50.5172242510115
 20
31.17368658766392
 11
-51.81975388177801
 21
29.70073605762772
 72
     1
 10
-51.81975388177801
 20
29.70073605762772
 11
-50.42180083483771
 21
28.11987706385273
 72
     1
 10
-50.42180083483771
 20
28.11987706385273
 11
-51.82452505258601
 21
28.11987706385273
 72
     1
 10
-51.82452505258601
 20
28.11987706385273
 11
-52.52111599065151
 21
28.90760884914644
 72
     1
 10
-52.52111599065151
 20
28.90760884914644
 11
-53.21770692871721
 21
28.11987706385273
 72
     1
 10
-53.21770692871721
 20
28.11987706385273
 11
-54.62043114646542
 21
28.11987706385273
 72
     1
 10
-54.62043114646542
 20
28.11987706385273
 11
-53.22247809952512
 21
29.70073605762772
 72
     1
 10
-53.22247809952512
 20
29.70073605762772
 11
-54.5250077302926
 21
31.17368658766392
 72
     1
 10
-54.5250077302926
 20
31.17368658766392
 11
-53.12228351254331
 21
31.17368658766392
 72
     1
 10
-53.12228351254331
 20
31.17368658766392
 11
-52.52111599065151
 21
30.49386326610843
 72
     1
 10
-52.52111599065151
 20
30.49386326610843
 11
-51.91994846875872
 21
31.17368658766392
 72
     1
 10
-51.91994846875872
 20
31.17368658766392
 11
-50.5172242510115
 21
31.17368658766392
 97
       12
330
1F9
330
1F8
330
1F7
330
254
330
255
330
251
330
252
330
1FD
330
1FC
330
1FB
330
1FA
330
253
 75
     1
 76
     0
 52
45.0
 41
0.1
 77
     0
 78
     1
 53
45.0
 43
0.0
 44
0.0
 45
-0.0707106781186548
 46
0.0707106781186548
 79
     0
 98
        1
 10
0.0
 20
0.0
  0
HATCH
  5
2D3
330
71
100
AcDbEntity
  8
1
  6
Continuous
 62
     2
100
AcDbHatch
 10
0.0
 20
0.0
 30
0.0
210
0.0
220
0.0
230
1.0
  2
_USER
 70
     0
 71
     1
 91
        2
 92
        1
 93
        6
 72
     1
 10
-69.53495966515752
 20
29.06295530499654
 11
-70.2937272529378
 21
29.06295530499654
 72
     1
 10
-70.2937272529378
 20
29.06295530499654
 11
-70.2937272529378
 21
28.11987706385273
 72
     1
 10
-70.2937272529378
 20
28.11987706385273
 11
-71.53423166319192
 21
28.11987706385273
 72
     1
 10
-71.53423166319192
 20
28.11987706385273
 11
-71.53423166319192
 21
31.17368658766392
 72
     1
 10
-71.53423166319192
 20
31.17368658766392
 11
-69.53495966515752
 21
31.17368658766392
 72
     2
 10
-69.53495966515752
 20
30.11832094633024
 40
1.055365641333701
 50
270.0
 51
450.0
 73
     0
 97
        6
330
221
330
220
330
22D
330
22C
330
222
330
272
 92
       16
 93
        4
 72
     2
 10
-69.9764321913959
 20
30.15771691755273
 40
0.3528638246711111
 50
270.0
 51
450.0
 73
     1
 72
     1
 10
-69.9764321913959
 20
30.51058074222382
 11
-70.2937272529378
 21
30.51058074222382
 72
     1
 10
-70.2937272529378
 20
30.51058074222382
 11
-70.2937272529378
 21
29.80485309288162
 72
     1
 10
-70.2937272529378
 20
29.80485309288162
 11
-69.9764321913959
 21
29.80485309288162
 97
        4
330
286
330
21E
330
22E
330
21F
 75
     1
 76
     0
 52
45.0
 41
0.1
 77
     0
 78
     1
 53
45.0
 43
0.0
 44
0.0
 45
-0.0707106781186548
 46
0.0707106781186548
 79
     0
 98
        1
 10
0.0
 20
0.0
  0
HATCH
  5
2D4
330
71
100
AcDbEntity
  8
1
  6
Continuous
 62
     2
100
AcDbHatch
 10
0.0
 20
0.0
 30
0.0
210
0.0
220
0.0
230
1.0
  2
_USER
 70
     0
 71
     1
 91
        2
 92
        1
 93
        6
 72
     1
 10
-69.53495966515752
 20
29.06295530499654
 11
-70.2937272529378
 21
29.06295530499654
 72
     1
 10
-70.2937272529378
 20
29.06295530499654
 11
-70.2937272529378
 21
28.11987706385273
 72
     1
 10
-70.2937272529378
 20
28.11987706385273
 11
-71.53423166319192
 21
28.11987706385273
 72
     1
 10
-71.53423166319192
 20
28.11987706385273
 11
-71.53423166319192
 21
31.17368658766392
 72
     1
 10
-71.53423166319192
 20
31.17368658766392
 11
-69.53495966515752
 21
31.17368658766392
 72
     2
 10
-69.53495966515752
 20
30.11832094633024
 40
1.055365641333701
 50
270.0
 51
450.0
 73
     0
 97
        6
330
221
330
220
330
22D
330
22C
330
222
330
272
 92
       16
 93
        4
 72
     2
 10
-69.9764321913959
 20
30.15771691755273
 40
0.3528638246711111
 50
270.0
 51
450.0
 73
     1
 72
     1
 10
-69.9764321913959
 20
30.51058074222382
 11
-70.2937272529378
 21
30.51058074222382
 72
     1
 10
-70.2937272529378
 20
30.51058074222382
 11
-70.2937272529378
 21
29.80485309288162
 72
     1
 10
-70.2937272529378
 20
29.80485309288162
 11
-69.9764321913959
 21
29.80485309288162
 97
        4
330
286
330
21E
330
22E
330
21F
 75
     1
 76
     0
 52
45.0
 41
0.1
 77
     0
 78
     1
 53
45.0
 43
0.0
 44
0.0
 45
-0.0707106781186548
 46
0.0707106781186548
 79
     0
 98
        1
 10
0.0
 20
0.0
  0
HATCH
  5
2D5
330
71
100
AcDbEntity
  8
1
  6
Continuous
 62
     2
100
AcDbHatch
 10
0.0
 20
0.0
 30
0.0
210
0.0
220
0.0
230
1.0
  2
_USER
 70
     0
 71
     1
 91
        2
 92
        1
 93
        4
 72
     2
 10
-66.97841691679841
 20
25.74901633928093
 40
2.065479772208564
 50
62.45185182430632
 51
117.5481481756664
 73
     1
 72
     2
 10
-67.25935680863171
 20
26.28759134958372
 40
1.45803408365149
 50
117.5481481756624
 51
242.4518518243376
 73
     1
 72
     2
 10
-66.97841691679841
 20
26.82616635988703
 40
2.065479772208515
 50
242.4518518243403
 51
297.548148175687
 73
     1
 72
     2
 10
-66.69747702496511
 20
26.28759134958372
 40
1.458034083652006
 50
297.548148175701
 51
422.451851824299
 73
     1
 97
        4
330
27E
330
27D
330
27F
330
27C
 92
       16
 93
        4
 72
     2
 10
-67.17815695314482
 20
26.28759134958372
 40
0.7717997786796947
 50
321.8795802028417
 51
398.1204197971534
 73
     1
 72
     2
 10
-66.97841691679841
 20
26.44432252770423
 40
0.5179085730133021
 50
38.12041979714734
 51
141.8795802028585
 73
     1
 72
     2
 10
-66.77867688045231
 20
26.28759134958372
 40
0.7717997786794654
 50
141.8795802028361
 51
218.1204197971687
 73
     1
 72
     2
 10
-66.97841691679841
 20
26.13086017146372
 40
0.5179085730137332
 50
218.1204197971929
 51
321.8795802028013
 73
     1
 97
        4
330
29A
330
297
330
298
330
299
 75
     1
 76
     0
 52
45.0
 41
0.1
 77
     0
 78
     1
 53
45.0
 43
0.0
 44
0.0
 45
-0.0707106781186548
 46
0.0707106781186548
 79
     0
 98
        1
 10
0.0
 20
0.0
  0
HATCH
  5
2D6
330
71
100
AcDbEntity
  8
1
  6
Continuous
 62
     2
100
AcDbHatch
 10
0.0
 20
0.0
 30
0.0
210
0.0
220
0.0
230
1.0
  2
_USER
 70
     0
 71
     1
 91
        2
 92
        1
 93
        4
 72
     2
 10
-66.97841691679841
 20
25.74901633928093
 40
2.065479772208564
 50
62.45185182430632
 51
117.5481481756664
 73
     1
 72
     2
 10
-67.25935680863171
 20
26.28759134958372
 40
1.45803408365149
 50
117.5481481756624
 51
242.4518518243376
 73
     1
 72
     2
 10
-66.97841691679841
 20
26.82616635988703
 40
2.065479772208515
 50
242.4518518243403
 51
297.548148175687
 73
     1
 72
     2
 10
-66.69747702496511
 20
26.28759134958372
 40
1.458034083652006
 50
297.548148175701
 51
422.451851824299
 73
     1
 97
        4
330
27E
330
27D
330
27F
330
27C
 92
       16
 93
        4
 72
     2
 10
-67.17815695314482
 20
26.28759134958372
 40
0.7717997786796947
 50
321.8795802028417
 51
398.1204197971534
 73
     1
 72
     2
 10
-66.97841691679841
 20
26.44432252770423
 40
0.5179085730133021
 50
38.12041979714734
 51
141.8795802028585
 73
     1
 72
     2
 10
-66.77867688045231
 20
26.28759134958372
 40
0.7717997786794654
 50
141.8795802028361
 51
218.1204197971687
 73
     1
 72
     2
 10
-66.97841691679841
 20
26.13086017146372
 40
0.5179085730137332
 50
218.1204197971929
 51
321.8795802028013
 73
     1
 97
        4
330
29A
330
297
330
298
330
299
 75
     1
 76
     0
 52
45.0
 41
0.1
 77
     0
 78
     1
 53
45.0
 43
0.0
 44
0.0
 45
-0.0707106781186548
 46
0.0707106781186548
 79
     0
 98
        1
 10
0.0
 20
0.0
  0
HATCH
  5
2D7
330
71
100
AcDbEntity
  8
1
  6
Continuous
 62
     2
100
AcDbHatch
 10
0.0
 20
0.0
 30
0.0
210
0.0
220
0.0
230
1.0
  2
_USER
 70
     0
 71
     1
 91
        2
 92
        1
 93
       12
 72
     1
 10
-60.08342172238912
 20
30.47567298222094
 11
-61.4193495488168
 21
30.47567298222094
 72
     1
 10
-61.4193495488168
 20
30.47567298222094
 11
-61.4193495488168
 21
29.99578862847923
 72
     1
 10
-61.4193495488168
 20
29.99578862847923
 11
-60.08342172238912
 21
29.99578862847923
 72
     1
 10
-60.08342172238912
 20
29.99578862847923
 11
-60.08342172238912
 21
29.29777502303693
 72
     1
 10
-60.08342172238912
 20
29.29777502303693
 11
-61.4193495488168
 21
29.29777502303693
 72
     1
 10
-61.4193495488168
 20
29.29777502303693
 11
-61.4193495488168
 21
28.81789066929522
 72
     1
 10
-61.4193495488168
 20
28.81789066929522
 11
-60.08342172238912
 21
28.81789066929522
 72
     1
 10
-60.08342172238912
 20
28.81789066929522
 11
-60.08342172238912
 21
28.11987706385273
 72
     1
 10
-60.08342172238912
 20
28.11987706385273
 11
-63.23374144617011
 21
28.11987706385273
 72
     2
 10
-63.23374144617011
 20
29.64678182575804
 40
1.526904761905879
 50
90.0
 51
270.0
 73
     0
 72
     1
 10
-63.23374144617011
 20
31.17368658766392
 11
-60.08342172238912
 21
31.17368658766392
 72
     1
 10
-60.08342172238912
 20
31.17368658766392
 11
-60.08342172238912
 21
30.47567298222094
 97
       12
330
235
330
287
330
236
330
237
330
238
330
239
330
216
330
215
330
214
330
213
330
23A
330
234
 92
       16
 93
        4
 72
     2
 10
-63.01746943600492
 20
29.80351300387852
 40
0.5179085730135321
 50
38.12041979714286
 51
141.8795802028484
 73
     1
 72
     2
 10
-62.81772939965862
 20
29.64678182575804
 40
0.7717997786796724
 50
141.8795802028404
 51
218.120419797156
 73
     1
 72
     2
 10
-63.01746943600492
 20
29.49005064763762
 40
0.5179085730134315
 50
218.1204197971516
 51
321.8795802028571
 73
     1
 72
     2
 10
-63.2172094723511
 20
29.64678182575804
 40
0.7717997786796351
 50
321.879580202844
 51
398.1204197971596
 73
     1
 97
        4
330
281
330
280
330
27B
330
27A
 75
     1
 76
     0
 52
45.0
 41
0.1
 77
     0
 78
     1
 53
45.0
 43
0.0
 44
0.0
 45
-0.0707106781186548
 46
0.0707106781186548
 79
     0
 98
        1
 10
0.0
 20
0.0
  0
HATCH
  5
2D8
330
71
100
AcDbEntity
  8
1
  6
Continuous
 62
     2
100
AcDbHatch
 10
0.0
 20
0.0
 30
0.0
210
0.0
220
0.0
230
1.0
  2
_USER
 70
     0
 71
     1
 91
        2
 92
        1
 93
       12
 72
     1
 10
-60.08342172238912
 20
30.47567298222094
 11
-61.4193495488168
 21
30.47567298222094
 72
     1
 10
-61.4193495488168
 20
30.47567298222094
 11
-61.4193495488168
 21
29.99578862847923
 72
     1
 10
-61.4193495488168
 20
29.99578862847923
 11
-60.08342172238912
 21
29.99578862847923
 72
     1
 10
-60.08342172238912
 20
29.99578862847923
 11
-60.08342172238912
 21
29.29777502303693
 72
     1
 10
-60.08342172238912
 20
29.29777502303693
 11
-61.4193495488168
 21
29.29777502303693
 72
     1
 10
-61.4193495488168
 20
29.29777502303693
 11
-61.4193495488168
 21
28.81789066929522
 72
     1
 10
-61.4193495488168
 20
28.81789066929522
 11
-60.08342172238912
 21
28.81789066929522
 72
     1
 10
-60.08342172238912
 20
28.81789066929522
 11
-60.08342172238912
 21
28.11987706385273
 72
     1
 10
-60.08342172238912
 20
28.11987706385273
 11
-63.23374144617011
 21
28.11987706385273
 72
     2
 10
-63.23374144617011
 20
29.64678182575804
 40
1.526904761905879
 50
90.0
 51
270.0
 73
     0
 72
     1
 10
-63.23374144617011
 20
31.17368658766392
 11
-60.08342172238912
 21
31.17368658766392
 72
     1
 10
-60.08342172238912
 20
31.17368658766392
 11
-60.08342172238912
 21
30.47567298222094
 97
       12
330
235
330
287
330
236
330
237
330
238
330
239
330
216
330
215
330
214
330
213
330
23A
330
234
 92
       16
 93
        4
 72
     2
 10
-63.01746943600492
 20
29.80351300387852
 40
0.5179085730135321
 50
38.12041979714286
 51
141.8795802028484
 73
     1
 72
     2
 10
-62.81772939965862
 20
29.64678182575804
 40
0.7717997786796724
 50
141.8795802028404
 51
218.120419797156
 73
     1
 72
     2
 10
-63.01746943600492
 20
29.49005064763762
 40
0.5179085730134315
 50
218.1204197971516
 51
321.8795802028571
 73
     1
 72
     2
 10
-63.2172094723511
 20
29.64678182575804
 40
0.7717997786796351
 50
321.879580202844
 51
398.1204197971596
 73
     1
 97
        4
330
281
330
280
330
27B
330
27A
 75
     1
 76
     0
 52
45.0
 41
0.1
 77
     0
 78
     1
 53
45.0
 43
0.0
 44
0.0
 45
-0.0707106781186548
 46
0.0707106781186548
 79
     0
 98
        1
 10
0.0
 20
0.0
  0
HATCH
  5
2D9
330
71
100
AcDbEntity
  8
1
  6
Continuous
 62
     2
100
AcDbHatch
 10
0.0
 20
0.0
 30
0.0
210
0.0
220
0.0
230
1.0
  2
_USER
 70
     0
 71
     1
 91
        4
 92
        1
 93
        8
 72
     1
 10
-72.01134874405872
 20
30.74944197226193
 11
-72.01134874405872
 21
25.18493120306172
 72
     2
 10
-72.4355933594426
 20
25.18493120306172
 40
0.4242446153832802
 50
0.0
 51
90.0
 73
     0
 72
     1
 10
-72.4355933594426
 20
24.76068658767844
 11
-77.90890545015941
 21
24.76068658767844
 72
     2
 10
-77.90890545015941
 20
25.18493120306172
 40
0.4242446153828041
 50
90.0
 51
180.0
 73
     0
 72
     1
 10
-78.33315006554221
 20
25.18493120306172
 11
-78.33315006554221
 21
30.74944197226193
 72
     2
 10
-77.90890545015941
 20
30.74944197226193
 40
0.4242446153837989
 50
180.0
 51
270.0
 73
     0
 72
     1
 10
-77.90890545015941
 20
31.17368658764573
 11
-72.4355933594426
 21
31.17368658764573
 72
     2
 10
-72.4355933594426
 20
30.74944197226193
 40
0.4242446153838841
 50
270.0
 51
360.0
 73
     0
 97
        8
330
229
330
277
330
22A
330
282
330
227
330
279
330
228
330
278
 92
       16
 93
        1
 72
     2
 10
-75.2893197996419
 20
28.43055974390643
 40
0.4709789327785074
 50
0.0
 51
360.0
 73
     1
 97
        1
330
29D
 92
       16
 93
        8
 72
     2
 10
-74.73946208688122
 20
27.32141814393802
 40
0.315716923076536
 50
115.3740086783516
 51
180.0
 73
     1
 72
     1
 10
-75.05517900995801
 20
27.32141814393802
 11
-75.05517900995801
 21
26.73956673724294
 72
     2
 10
-74.73946208688122
 20
26.73956673724294
 40
0.315716923076792
 50
180.0
 51
269.8110329574542
 73
     1
 72
     2
 10
-74.7338459515712
 20
28.44240168481193
 40
2.018561131933266
 50
269.8110329575858
 51
450.1889670424142
 73
     1
 72
     2
 10
-74.73946208688122
 20
30.14523663238103
 40
0.3157169230760711
 50
90.18896704254594
 51
180.0
 73
     1
 72
     1
 10
-75.05517900995801
 20
30.14523663238103
 11
-75.05517900995801
 21
29.53970134387424
 72
     2
 10
-74.73946208688122
 20
29.53970134387424
 40
0.315716923076792
 50
180.0
 51
244.6259913216482
 73
     1
 72
     2
 10
-75.2655047849691
 20
28.43055974390643
 40
0.9118481501444557
 50
295.3740086781926
 51
424.6259913218234
 73
     0
 97
        8
330
28F
330
1F0
330
28C
330
28D
330
26B
330
1EF
330
28E
330
26A
 92
       16
 93
       12
 72
     2
 10
-77.31501077341292
 20
25.78895906631203
 40
0.3157169230756836
 50
180.0
 51
270.0
 73
     1
 72
     1
 10
-77.31501077341292
 20
25.47324214323533
 11
-75.8391775124033
 21
25.47324214323533
 72
     2
 10
-75.8391775124033
 20
25.78895906631203
 40
0.3157169230767032
 50
270.0
 51
360.0
 73
     1
 72
     1
 10
-75.5234605893267
 20
25.78895906631203
 11
-75.5234605893267
 21
27.31972999784364
 72
     2
 10
-75.8391775124033
 20
27.31972999784364
 40
0.315716923076593
 50
0.0
 51
64.80558935146027
 73
     1
 72
     2
 10
-75.31659306482831
 20
28.43055974390643
 40
0.9118975235576114
 50
115.1944106485123
 51
244.8055893514717
 73
     0
 72
     2
 10
-75.8391775124033
 20
29.54138948996862
 40
0.3157169230761203
 50
295.1944106485397
 51
360.0
 73
     1
 72
     1
 10
-75.5234605893267
 20
29.54138948996862
 11
-75.5234605893267
 21
30.14541410902913
 72
     2
 10
-75.8391775124033
 20
30.14541410902913
 40
0.315716923076593
 50
0.0
 51
90.0
 73
     1
 72
     1
 10
-75.8391775124033
 20
30.46113103210533
 11
-77.31501077341292
 21
30.46113103210533
 72
     2
 10
-77.31501077341292
 20
30.14541410902913
 40
0.3157169230762022
 50
90.0
 51
180.0
 73
     1
 72
     1
 10
-77.6307276964886
 20
30.14541410902913
 11
-77.6307276964886
 21
25.78895906631203
 97
       12
330
273
330
22B
330
276
330
226
330
283
330
284
330
275
330
225
330
274
330
224
330
285
330
223
 75
     1
 76
     0
 52
45.0
 41
0.1
 77
     0
 78
     1
 53
45.0
 43
0.0
 44
0.0
 45
-0.0707106781186548
 46
0.0707106781186548
 79
     0
 98
        1
 10
0.0
 20
0.0
  0
HATCH
  5
2DA
330
71
100
AcDbEntity
  8
1
  6
Continuous
 62
     2
100
AcDbHatch
 10
0.0
 20
0.0
 30
0.0
210
0.0
220
0.0
230
1.0
  2
_USER
 70
     0
 71
     1
 91
        4
 92
        1
 93
        8
 72
     1
 10
-72.01134874405872
 20
30.74944197226193
 11
-72.01134874405872
 21
25.18493120306172
 72
     2
 10
-72.4355933594426
 20
25.18493120306172
 40
0.4242446153832802
 50
0.0
 51
90.0
 73
     0
 72
     1
 10
-72.4355933594426
 20
24.76068658767844
 11
-77.90890545015941
 21
24.76068658767844
 72
     2
 10
-77.90890545015941
 20
25.18493120306172
 40
0.4242446153828041
 50
90.0
 51
180.0
 73
     0
 72
     1
 10
-78.33315006554221
 20
25.18493120306172
 11
-78.33315006554221
 21
30.74944197226193
 72
     2
 10
-77.90890545015941
 20
30.74944197226193
 40
0.4242446153837989
 50
180.0
 51
270.0
 73
     0
 72
     1
 10
-77.90890545015941
 20
31.17368658764573
 11
-72.4355933594426
 21
31.17368658764573
 72
     2
 10
-72.4355933594426
 20
30.74944197226193
 40
0.4242446153838841
 50
270.0
 51
360.0
 73
     0
 97
        8
330
229
330
277
330
22A
330
282
330
227
330
279
330
228
330
278
 92
       16
 93
        1
 72
     2
 10
-75.2893197996419
 20
28.43055974390643
 40
0.4709789327785074
 50
0.0
 51
360.0
 73
     1
 97
        1
330
29D
 92
       16
 93
        8
 72
     2
 10
-74.73946208688122
 20
27.32141814393802
 40
0.315716923076536
 50
115.3740086783516
 51
180.0
 73
     1
 72
     1
 10
-75.05517900995801
 20
27.32141814393802
 11
-75.05517900995801
 21
26.73956673724294
 72
     2
 10
-74.73946208688122
 20
26.73956673724294
 40
0.315716923076792
 50
180.0
 51
269.8110329574542
 73
     1
 72
     2
 10
-74.7338459515712
 20
28.44240168481193
 40
2.018561131933266
 50
269.8110329575858
 51
450.1889670424142
 73
     1
 72
     2
 10
-74.73946208688122
 20
30.14523663238103
 40
0.3157169230760711
 50
90.18896704254594
 51
180.0
 73
     1
 72
     1
 10
-75.05517900995801
 20
30.14523663238103
 11
-75.05517900995801
 21
29.53970134387424
 72
     2
 10
-74.73946208688122
 20
29.53970134387424
 40
0.315716923076792
 50
180.0
 51
244.6259913216482
 73
     1
 72
     2
 10
-75.2655047849691
 20
28.43055974390643
 40
0.9118481501444557
 50
295.3740086781926
 51
424.6259913218234
 73
     0
 97
        8
330
28F
330
1F0
330
28C
330
28D
330
26B
330
1EF
330
28E
330
26A
 92
       16
 93
       12
 72
     2
 10
-77.31501077341292
 20
25.78895906631203
 40
0.3157169230756836
 50
180.0
 51
270.0
 73
     1
 72
     1
 10
-77.31501077341292
 20
25.47324214323533
 11
-75.8391775124033
 21
25.47324214323533
 72
     2
 10
-75.8391775124033
 20
25.78895906631203
 40
0.3157169230767032
 50
270.0
 51
360.0
 73
     1
 72
     1
 10
-75.5234605893267
 20
25.78895906631203
 11
-75.5234605893267
 21
27.31972999784364
 72
     2
 10
-75.8391775124033
 20
27.31972999784364
 40
0.315716923076593
 50
0.0
 51
64.80558935146027
 73
     1
 72
     2
 10
-75.31659306482831
 20
28.43055974390643
 40
0.9118975235576114
 50
115.1944106485123
 51
244.8055893514717
 73
     0
 72
     2
 10
-75.8391775124033
 20
29.54138948996862
 40
0.3157169230761203
 50
295.1944106485397
 51
360.0
 73
     1
 72
     1
 10
-75.5234605893267
 20
29.54138948996862
 11
-75.5234605893267
 21
30.14541410902913
 72
     2
 10
-75.8391775124033
 20
30.14541410902913
 40
0.315716923076593
 50
0.0
 51
90.0
 73
     1
 72
     1
 10
-75.8391775124033
 20
30.46113103210533
 11
-77.31501077341292
 21
30.46113103210533
 72
     2
 10
-77.31501077341292
 20
30.14541410902913
 40
0.3157169230762022
 50
90.0
 51
180.0
 73
     1
 72
     1
 10
-77.6307276964886
 20
30.14541410902913
 11
-77.6307276964886
 21
25.78895906631203
 97
       12
330
273
330
22B
330
276
330
226
330
283
330
284
330
275
330
225
330
274
330
224
330
285
330
223
 75
     1
 76
     0
 52
45.0
 41
0.1
 77
     0
 78
     1
 53
45.0
 43
0.0
 44
0.0
 45
-0.0707106781186548
 46
0.0707106781186548
 79
     0
 98
        1
 10
0.0
 20
0.0
  0
HATCH
  5
2DB
330
71
100
AcDbEntity
  8
1
  6
Continuous
 62
     2
100
AcDbHatch
 10
0.0
 20
0.0
 30
0.0
210
0.0
220
0.0
230
1.0
  2
_USER
 70
     0
 71
     1
 91
        1
 92
        1
 93
       18
 72
     1
 10
-50.42180083483771
 20
27.02923080536593
 11
-51.23289987231109
 21
27.02923080536593
 72
     1
 10
-51.23289987231109
 20
27.02923080536593
 11
-51.23289987231109
 21
24.76068658767844
 72
     1
 10
-51.23289987231109
 20
24.76068658767844
 11
-52.4256925744788
 21
24.76068658767844
 72
     1
 10
-52.4256925744788
 20
24.76068658767844
 11
-52.4256925744788
 21
27.02923080536593
 72
     1
 10
-52.4256925744788
 20
27.02923080536593
 11
-53.5293318740469
 21
27.02923080536593
 72
     2
 10
-53.5293318740469
 20
26.07470779853983
 40
0.9545230068261006
 50
90.0
 51
109.3371432194319
 73
     1
 72
     2
 10
-53.67600187215061
 20
26.49266277892272
 40
0.5115800601944176
 50
109.3371432194852
 51
151.4785267424224
 73
     1
 72
     2
 10
-53.29864461406922
 20
26.28759134958372
 40
0.9410597353348844
 50
151.4785267423624
 51
208.5214732576697
 73
     1
 72
     2
 10
-53.67600187215061
 20
26.08251992024523
 40
0.5115800601960137
 50
208.5214732576866
 51
246.6277221118445
 73
     1
 72
     2
 10
-53.51956183944751
 20
26.44451193895523
 40
0.905929784985274
 50
246.6277221118186
 51
288.4480761180817
 73
     1
 72
     2
 10
-53.93772957310941
 20
27.69805771499182
 40
2.227384008972744
 50
288.4480761181333
 51
301.9309089499399
 73
     1
 72
     1
 10
-52.75967453108549
 20
25.80770699584204
 11
-52.75967453108549
 21
24.93518998903872
 72
     2
 10
-54.09560244820221
 20
29.60027229484012
 40
4.852596863498824
 50
74.02000874166129
 51
84.84185523036375
 73
     0
 72
     2
 10
-53.80674635346639
 20
26.40038171161854
 40
1.639695123940455
 50
84.84185523032407
 51
164.9381082228989
 73
     0
 72
     2
 10
-54.225874196928
 20
26.28759134958372
 40
1.205656168393008
 50
164.9381082229043
 51
195.0618917770969
 73
     0
 72
     2
 10
-53.80674635346639
 20
26.17480098754882
 40
1.639695123940218
 50
195.0618917771049
 51
270.0
 73
     0
 72
     1
 10
-53.80674635346639
 20
27.81449611148904
 11
-50.42180083483771
 21
27.81449611148952
 72
     1
 10
-50.42180083483771
 20
27.81449611148952
 11
-50.42180083483771
 21
27.02923080536593
 97
       18
330
1F2
330
288
330
289
330
271
330
270
330
256
330
26F
330
26E
330
28A
330
26D
330
28B
330
26C
330
257
330
1F1
330
1F6
330
1F5
330
1F4
330
1F3
 75
     1
 76
     0
 52
45.0
 41
0.1
 77
     0
 78
     1
 53
45.0
 43
0.0
 44
0.0
 45
-0.0707106781186548
 46
0.0707106781186548
 79
     0
 98
        1
 10
0.0
 20
0.0
  0
HATCH
  5
2DC
330
71
100
AcDbEntity
  8
1
  6
Continuous
 62
     2
100
AcDbHatch
 10
0.0
 20
0.0
 30
0.0
210
0.0
220
0.0
230
1.0
  2
_USER
 70
     0
 71
     1
 91
        1
 92
        1
 93
       18
 72
     1
 10
-50.42180083483771
 20
27.02923080536593
 11
-51.23289987231109
 21
27.02923080536593
 72
     1
 10
-51.23289987231109
 20
27.02923080536593
 11
-51.23289987231109
 21
24.76068658767844
 72
     1
 10
-51.23289987231109
 20
24.76068658767844
 11
-52.4256925744788
 21
24.76068658767844
 72
     1
 10
-52.4256925744788
 20
24.76068658767844
 11
-52.4256925744788
 21
27.02923080536593
 72
     1
 10
-52.4256925744788
 20
27.02923080536593
 11
-53.5293318740469
 21
27.02923080536593
 72
     2
 10
-53.5293318740469
 20
26.07470779853983
 40
0.9545230068261006
 50
90.0
 51
109.3371432194319
 73
     1
 72
     2
 10
-53.67600187215061
 20
26.49266277892272
 40
0.5115800601944176
 50
109.3371432194852
 51
151.4785267424224
 73
     1
 72
     2
 10
-53.29864461406922
 20
26.28759134958372
 40
0.9410597353348844
 50
151.4785267423624
 51
208.5214732576697
 73
     1
 72
     2
 10
-53.67600187215061
 20
26.08251992024523
 40
0.5115800601960137
 50
208.5214732576866
 51
246.6277221118445
 73
     1
 72
     2
 10
-53.51956183944751
 20
26.44451193895523
 40
0.905929784985274
 50
246.6277221118186
 51
288.4480761180817
 73
     1
 72
     2
 10
-53.93772957310941
 20
27.69805771499182
 40
2.227384008972744
 50
288.4480761181333
 51
301.9309089499399
 73
     1
 72
     1
 10
-52.75967453108549
 20
25.80770699584204
 11
-52.75967453108549
 21
24.93518998903872
 72
     2
 10
-54.09560244820221
 20
29.60027229484012
 40
4.852596863498824
 50
74.02000874166129
 51
84.84185523036375
 73
     0
 72
     2
 10
-53.80674635346639
 20
26.40038171161854
 40
1.639695123940455
 50
84.84185523032407
 51
164.9381082228989
 73
     0
 72
     2
 10
-54.225874196928
 20
26.28759134958372
 40
1.205656168393008
 50
164.9381082229043
 51
195.0618917770969
 73
     0
 72
     2
 10
-53.80674635346639
 20
26.17480098754882
 40
1.639695123940218
 50
195.0618917771049
 51
270.0
 73
     0
 72
     1
 10
-53.80674635346639
 20
27.81449611148904
 11
-50.42180083483771
 21
27.81449611148952
 72
     1
 10
-50.42180083483771
 20
27.81449611148952
 11
-50.42180083483771
 21
27.02923080536593
 97
       18
330
1F2
330
288
330
289
330
271
330
270
330
256
330
26F
330
26E
330
28A
330
26D
330
28B
330
26C
330
257
330
1F1
330
1F6
330
1F5
330
1F4
330
1F3
 75
     1
 76
     0
 52
45.0
 41
0.1
 77
     0
 78
     1
 53
45.0
 43
0.0
 44
0.0
 45
-0.0707106781186548
 46
0.0707106781186548
 79
     0
 98
        1
 10
0.0
 20
0.0
  0
HATCH
  5
2DD
330
71
100
AcDbEntity
  8
1
  6
Continuous
 62
     2
100
AcDbHatch
 10
0.0
 20
0.0
 30
0.0
210
0.0
220
0.0
230
1.0
  2
_USER
 70
     0
 71
     1
 91
        1
 92
        1
 93
       14
 72
     2
 10
-69.90944783271931
 20
26.17480098754882
 40
1.639695123940503
 50
84.84185523036234
 51
164.9381082228866
 73
     1
 72
     2
 10
-70.32857567618211
 20
26.28759134958372
 40
1.205656168390943
 50
164.9381082228766
 51
195.061891777095
 73
     1
 72
     2
 10
-69.90944783271931
 20
26.40038171161854
 40
1.639695123939389
 50
195.0618917770898
 51
275.1581447696395
 73
     1
 72
     2
 10
-70.19830392745521
 20
29.60027229484012
 40
4.852596863498134
 50
275.1581447696249
 51
285.9799912583529
 73
     1
 72
     1
 10
-68.86237601033741
 20
24.93518998903932
 11
-68.86237601033741
 21
25.80770699584252
 72
     2
 10
-70.0404310523623
 20
27.69805771499242
 40
2.227384008972737
 50
58.0690910500408
 51
71.55192388186722
 73
     0
 72
     2
 10
-69.6222633187015
 20
26.44451193895523
 40
0.905929784984916
 50
71.55192388184147
 51
113.3722778881291
 73
     0
 72
     2
 10
-69.77870335140352
 20
26.08251992024523
 40
0.5115800601948034
 50
113.3722778881729
 51
151.4785267423044
 73
     0
 72
     2
 10
-69.40134609332321
 20
26.28759134958372
 40
0.9410597353332545
 50
151.4785267422941
 51
208.5214732577331
 73
     0
 72
     2
 10
-69.77870335140352
 20
26.49266277892272
 40
0.5115800601948779
 50
208.5214732576956
 51
246.6277221118009
 73
     0
 72
     2
 10
-69.6222633187015
 20
26.13067076021213
 40
0.9059297849853228
 50
246.6277221118709
 51
288.4480761181465
 73
     0
 72
     2
 10
-70.0404310523623
 20
24.87712498417554
 40
2.227384008973474
 50
288.4480761181328
 51
301.9309089499593
 73
     0
 72
     1
 10
-68.86237601033741
 20
26.76747570332543
 11
-68.86237601033741
 21
27.63999271012872
 72
     2
 10
-70.19830392745521
 20
22.97491040432783
 40
4.852596863498064
 50
74.02000874164737
 51
84.84185523037506
 73
     1
 97
       14
330
290
330
291
330
292
330
293
330
258
330
269
330
268
330
267
330
294
330
295
330
266
330
296
330
259
330
265
 75
     1
 76
     0
 52
45.0
 41
0.1
 77
     0
 78
     1
 53
45.0
 43
0.0
 44
0.0
 45
-0.0707106781186548
 46
0.0707106781186548
 79
     0
 98
        1
 10
0.0
 20
0.0
  0
HATCH
  5
2DE
330
71
100
AcDbEntity
  8
1
  6
Continuous
 62
     2
100
AcDbHatch
 10
0.0
 20
0.0
 30
0.0
210
0.0
220
0.0
230
1.0
  2
_USER
 70
     0
 71
     1
 91
        1
 92
        1
 93
       14
 72
     2
 10
-69.90944783271931
 20
26.17480098754882
 40
1.639695123940503
 50
84.84185523036234
 51
164.9381082228866
 73
     1
 72
     2
 10
-70.32857567618211
 20
26.28759134958372
 40
1.205656168390943
 50
164.9381082228766
 51
195.061891777095
 73
     1
 72
     2
 10
-69.90944783271931
 20
26.40038171161854
 40
1.639695123939389
 50
195.0618917770898
 51
275.1581447696395
 73
     1
 72
     2
 10
-70.19830392745521
 20
29.60027229484012
 40
4.852596863498134
 50
275.1581447696249
 51
285.9799912583529
 73
     1
 72
     1
 10
-68.86237601033741
 20
24.93518998903932
 11
-68.86237601033741
 21
25.80770699584252
 72
     2
 10
-70.0404310523623
 20
27.69805771499242
 40
2.227384008972737
 50
58.0690910500408
 51
71.55192388186722
 73
     0
 72
     2
 10
-69.6222633187015
 20
26.44451193895523
 40
0.905929784984916
 50
71.55192388184147
 51
113.3722778881291
 73
     0
 72
     2
 10
-69.77870335140352
 20
26.08251992024523
 40
0.5115800601948034
 50
113.3722778881729
 51
151.4785267423044
 73
     0
 72
     2
 10
-69.40134609332321
 20
26.28759134958372
 40
0.9410597353332545
 50
151.4785267422941
 51
208.5214732577331
 73
     0
 72
     2
 10
-69.77870335140352
 20
26.49266277892272
 40
0.5115800601948779
 50
208.5214732576956
 51
246.6277221118009
 73
     0
 72
     2
 10
-69.6222633187015
 20
26.13067076021213
 40
0.9059297849853228
 50
246.6277221118709
 51
288.4480761181465
 73
     0
 72
     2
 10
-70.0404310523623
 20
24.87712498417554
 40
2.227384008973474
 50
288.4480761181328
 51
301.9309089499593
 73
     0
 72
     1
 10
-68.86237601033741
 20
26.76747570332543
 11
-68.86237601033741
 21
27.63999271012872
 72
     2
 10
-70.19830392745521
 20
22.97491040432783
 40
4.852596863498064
 50
74.02000874164737
 51
84.84185523037506
 73
     1
 97
       14
330
290
330
291
330
292
330
293
330
258
330
269
330
268
330
267
330
294
330
295
330
266
330
296
330
259
330
265
 75
     1
 76
     0
 52
45.0
 41
0.1
 77
     0
 78
     1
 53
45.0
 43
0.0
 44
0.0
 45
-0.0707106781186548
 46
0.0707106781186548
 79
     0
 98
        1
 10
0.0
 20
0.0
  0
ENDBLK
  5
73
330
71
100
AcDbEntity
  8
0
100
AcDbBlockEnd
  0
BLOCK
  5
75
330
74
100
AcDbEntity
  8
0
100
AcDbBlockBegin
  2
_punkt
 70
     0
 10
46.9749995746452
 20
17.46718658766213
 30
0.0
  3
_punkt
  1

  0
LINE
  5
2DF
330
74
100
AcDbEntity
  8
1
  6
Continuous
 62
     2
100
AcDbLine
 10
46.9749995746452
 20
17.46718658766213
 30
0.0
 11
51.97499957464419
 21
17.46718658766213
 31
0.0
  0
LINE
  5
2E0
330
74
100
AcDbEntity
  8
1
  6
Continuous
 62
     2
100
AcDbLine
 10
46.9749995746452
 20
17.46718658766213
 30
0.0
 11
46.9749995746452
 21
12.46718658766201
 31
0.0
  0
ENDBLK
  5
76
330
74
100
AcDbEntity
  8
0
100
AcDbBlockEnd
  0
BLOCK
  5
7A
330
77
100
AcDbEntity
  8
0
100
AcDbBlockBegin
  2
A4I_CS
 70
     0
 10
46.9749995746452
 20
12.46718658766201
 30
0.0
  3
A4I_CS
  1

  0
INSERT
  5
78
330
77
100
AcDbEntity
  8
1
100
AcDbBlockReference
  2
_rahmen
 10
46.9749995746452
 20
12.46718658766201
 30
0.0
  0
INSERT
  5
79
330
77
100
AcDbEntity
  8
1
100
AcDbBlockReference
  2
_punkt
 10
46.9749995746452
 20
17.46718658766213
 30
0.0
  0
ENDBLK
  5
7B
330
77
100
AcDbEntity
  8
0
100
AcDbBlockEnd
  0
BLOCK
  5
84
330
7C
100
AcDbEntity
  8
0
100
AcDbBlockBegin
  2
1
 70
     0
 10
0.0
 20
0.0
 30
0.0
  3
1
  1

  0
INSERT
  5
7D
330
7C
100
AcDbEntity
  8
0
100
AcDbBlockReference
  2
Allg1
 10
-10.00000000000043
 20
93.0
 30
0.0
 41
2.0
 42
2.0
 43
2.0
  0
INSERT
  5
7E
330
7C
100
AcDbEntity
  8
0
100
AcDbBlockReference
  2
Drfsicht2
 10
-110.0000000000003
 20
82.0
 30
0.0
 41
2.0
 42
2.0
 43
2.0
  0
INSERT
  5
7F
330
7C
100
AcDbEntity
  8
0
100
AcDbBlockReference
  2
Rckans2
 10
0.99998399999976
 20
154.8474840000003
 30
0.0
 41
2.0
 42
2.0
 43
2.0
  0
INSERT
  5
80
330
7C
100
AcDbEntity
  8
0
100
AcDbBlockReference
  2
SA_Links2
 10
-53.5500080000003
 20
154.8474840000002
 30
0.0
 41
2.0
 42
2.0
 43
2.0
  0
INSERT
  5
81
330
7C
100
AcDbEntity
  8
0
100
AcDbBlockReference
  2
SA_Rechts2
 10
-201.4499999999998
 20
154.847484
 30
0.0
 41
2.0
 42
2.0
 43
2.0
  0
INSERT
  5
82
330
7C
100
AcDbEntity
  8
0
100
AcDbBlockReference
  2
Vordans1
 10
-110.0
 20
154.847484
 30
0.0
 41
2.0
 42
2.0
 43
2.0
  0
INSERT
  5
83
330
7C
100
AcDbEntity
  8
0
100
AcDbBlockReference
  2
A4I_CS
 10
46.9749995746452
 20
12.46718658766201
 30
0.0
  0
ENDBLK
  5
85
330
7C
100
AcDbEntity
  8
0
100
AcDbBlockEnd
  0
BLOCK
  5
FF
330
F8
100
AcDbEntity
  8
0
100
AcDbBlockBegin
  2
*D17
 70
     1
 10
0.0
 20
0.0
 30
0.0
  3
*D17
  1

  0
LINE
  5
F9
330
F8
100
AcDbEntity
  8
1
  6
Continuous
 62
     2
100
AcDbLine
 10
-71.00000534003055
 20
43.22499990462754
 30
0.0
 11
-71.00000534003055
 21
38.22499990462754
 31
0.0
  0
LINE
  5
FA
330
F8
100
AcDbEntity
  8
1
  6
Continuous
 62
     2
100
AcDbLine
 10
-66.00000534003055
 20
43.22499990462754
 30
0.0
 11
-71.75000534003055
 21
43.22499990462754
 31
0.0
  0
LINE
  5
FB
330
F8
100
AcDbEntity
  8
1
  6
Continuous
 62
     2
100
AcDbLine
 10
-66.00000534003055
 20
38.22499990462754
 30
0.0
 11
-71.75000534003055
 21
38.22499990462754
 31
0.0
  0
SOLID
  5
FC
330
F8
100
AcDbEntity
  8
1
 62
     2
100
AcDbTrace
 10
-70.76961346925262
 20
41.47499990462754
 30
0.0
 11
-71.23039721080849
 21
41.47499990462754
 31
0.0
 12
-71.00000534003055
 22
43.22499990462754
 32
0.0
 13
-71.00000534003055
 23
43.22499990462754
 33
0.0
  0
SOLID
  5
FD
330
F8
100
AcDbEntity
  8
1
 62
     2
100
AcDbTrace
 10
-71.23039721080849
 20
39.97499990462754
 30
0.0
 11
-70.76961346925262
 21
39.97499990462754
 31
0.0
 12
-71.00000534003055
 22
38.22499990462754
 32
0.0
 13
-71.00000534003055
 23
38.22499990462754
 33
0.0
  0
MTEXT
  5
FE
330
F8
100
AcDbEntity
  8
1
 62
     3
100
AcDbMText
 10
-71.75000534003055
 20
39.83349236658693
 30
0.0
 40
1.75
 41
0.0
 71
     7
 72
     1
  1
5
  7
CONVERTER_11
 11
0.0
 21
1.0
 31
0.0
 73
     1
 44
0.60024009603842
  0
ENDBLK
  5
100
330
F8
100
AcDbEntity
  8
0
100
AcDbBlockEnd
  0
BLOCK
  5
179
330
172
100
AcDbEntity
  8
0
100
AcDbBlockBegin
  2
*D18
 70
     1
 10
0.0
 20
0.0
 30
0.0
  3
*D18
  1

  0
LINE
  5
173
330
172
100
AcDbEntity
  8
1
  6
Continuous
 62
     2
100
AcDbLine
 10
-71.514198691082
 20
69.92500136828343
 30
0.0
 11
-71.514198691082
 21
88.32500136828332
 31
0.0
  0
LINE
  5
174
330
172
100
AcDbEntity
  8
1
  6
Continuous
 62
     2
100
AcDbLine
 10
-66.00000534003041
 20
69.92500136828343
 30
0.0
 11
-72.264198691082
 21
69.92500136828343
 31
0.0
  0
LINE
  5
175
330
172
100
AcDbEntity
  8
1
  6
Continuous
 62
     2
100
AcDbLine
 10
-66.00000534003041
 20
88.32500136828332
 30
0.0
 11
-72.264198691082
 21
88.32500136828332
 31
0.0
  0
SOLID
  5
176
330
172
100
AcDbEntity
  8
1
 62
     2
100
AcDbTrace
 10
-71.74459056185994
 20
71.67500136828343
 30
0.0
 11
-71.28380682030406
 21
71.67500136828343
 31
0.0
 12
-71.514198691082
 22
69.92500136828343
 32
0.0
 13
-71.514198691082
 23
69.92500136828343
 33
0.0
  0
SOLID
  5
177
330
172
100
AcDbEntity
  8
1
 62
     2
100
AcDbTrace
 10
-71.28380682030406
 20
86.57500136828332
 30
0.0
 11
-71.74459056185994
 21
86.57500136828332
 31
0.0
 12
-71.514198691082
 22
88.32500136828332
 32
0.0
 13
-71.514198691082
 23
88.32500136828332
 33
0.0
  0
MTEXT
  5
178
330
172
100
AcDbEntity
  8
1
 62
     3
100
AcDbMText
 10
-72.43919869108201
 20
77.82715515922
 30
0.0
 40
1.75
 41
0.0
 71
     7
 72
     1
  1
18,4
  7
CONVERTER_11
 11
0.0
 21
1.0
 31
0.0
 73
     1
 44
0.60024009603842
  0
ENDBLK
  5
17A
330
172
100
AcDbEntity
  8
0
100
AcDbBlockEnd
  0
BLOCK
  5
184
330
17D
100
AcDbEntity
  8
0
100
AcDbBlockBegin
  2
*D19
 70
     1
 10
0.0
 20
0.0
 30
0.0
  3
*D19
  1

  0
LINE
  5
17E
330
17D
100
AcDbEntity
  8
1
  6
Continuous
 62
     2
100
AcDbLine
 10
-54.80000534003054
 20
55.393204852086
 30
0.0
 11
-44.00000534003044
 21
55.393204852086
 31
0.0
  0
LINE
  5
17F
330
17D
100
AcDbEntity
  8
1
  6
Continuous
 62
     2
100
AcDbLine
 10
-54.80000534003054
 20
64.893204852086
 30
0.0
 11
-54.80000534003054
 21
54.643204852086
 31
0.0
  0
LINE
  5
180
330
17D
100
AcDbEntity
  8
1
  6
Continuous
 62
     2
100
AcDbLine
 10
-44.00000534003044
 20
69.92500136828335
 30
0.0
 11
-44.00000534003044
 21
54.643204852086
 31
0.0
  0
SOLID
  5
181
330
17D
100
AcDbEntity
  8
1
 62
     2
100
AcDbTrace
 10
-53.05000534003054
 20
55.62359672286394
 30
0.0
 11
-53.05000534003054
 21
55.16281298130806
 31
0.0
 12
-54.80000534003054
 22
55.393204852086
 32
0.0
 13
-54.80000534003054
 23
55.393204852086
 33
0.0
  0
SOLID
  5
182
330
17D
100
AcDbEntity
  8
1
 62
     2
100
AcDbTrace
 10
-45.75000534003044
 20
55.16281298130806
 30
0.0
 11
-45.75000534003044
 21
55.62359672286394
 31
0.0
 12
-44.00000534003044
 22
55.393204852086
 32
0.0
 13
-44.00000534003044
 23
55.393204852086
 33
0.0
  0
MTEXT
  5
183
330
17D
100
AcDbEntity
  8
1
 62
     3
100
AcDbMText
 10
-52.0060772945312
 20
56.318204852086
 30
0.0
 40
1.75
 41
0.0
 71
     7
 72
     1
  1
10,8
  7
CONVERTER_11
 11
0.9999999999970619
 21
2.424068405545306E-6
 31
0.0
 73
     1
 44
0.60024009603842
  0
ENDBLK
  5
185
330
17D
100
AcDbEntity
  8
0
100
AcDbBlockEnd
  0
BLOCK
  5
18F
330
188
100
AcDbEntity
  8
0
100
AcDbBlockBegin
  2
*D20
 70
     1
 10
0.0
 20
0.0
 30
0.0
  3
*D20
  1

  0
LINE
  5
189
330
188
100
AcDbEntity
  8
1
  6
Continuous
 62
     2
100
AcDbLine
 10
-47.30000534003054
 20
60.643204852086
 30
0.0
 11
-54.80000534003054
 21
60.643204852086
 31
0.0
  0
LINE
  5
18A
330
188
100
AcDbEntity
  8
1
  6
Continuous
 62
     2
100
AcDbLine
 10
-47.30000534003054
 20
69.42500136828335
 30
0.0
 11
-47.30000534003054
 21
59.893204852086
 31
0.0
  0
LINE
  5
18B
330
188
100
AcDbEntity
  8
1
  6
Continuous
 62
     2
100
AcDbLine
 10
-54.80000534003054
 20
68.873168479097
 30
0.0
 11
-54.80000534003054
 21
59.893204852086
 31
0.0
  0
SOLID
  5
18C
330
188
100
AcDbEntity
  8
1
 62
     2
100
AcDbTrace
 10
-49.05000534003054
 20
60.41281298130806
 30
0.0
 11
-49.05000534003054
 21
60.87359672286394
 31
0.0
 12
-47.30000534003054
 22
60.643204852086
 32
0.0
 13
-47.30000534003054
 23
60.643204852086
 33
0.0
  0
SOLID
  5
18D
330
188
100
AcDbEntity
  8
1
 62
     2
100
AcDbTrace
 10
-53.05000534003054
 20
60.87359672286394
 30
0.0
 11
-53.05000534003054
 21
60.41281298130806
 31
0.0
 12
-54.80000534003054
 22
60.643204852086
 32
0.0
 13
-54.80000534003054
 23
60.643204852086
 33
0.0
  0
MTEXT
  5
18E
330
188
100
AcDbEntity
  8
1
 62
     3
100
AcDbMText
 10
-52.51875534003045
 20
61.568204852086
 30
0.0
 40
1.75
 41
0.0
 71
     7
 72
     1
  1
7,5
  7
CONVERTER_11
 11
0.9999999999970619
 21
2.424068405545306E-6
 31
0.0
 73
     1
 44
0.60024009603842
  0
ENDBLK
  5
190
330
188
100
AcDbEntity
  8
0
100
AcDbBlockEnd
  0
BLOCK
  5
19A
330
193
100
AcDbEntity
  8
0
100
AcDbBlockBegin
  2
*D21
 70
     1
 10
0.0
 20
0.0
 30
0.0
  3
*D21
  1

  0
LINE
  5
194
330
193
100
AcDbEntity
  8
1
  6
Continuous
 62
     2
100
AcDbLine
 10
-66.00000534003041
 20
50.393204852086
 30
0.0
 11
-44.00000534003044
 21
50.393204852086
 31
0.0
  0
LINE
  5
195
330
193
100
AcDbEntity
  8
1
  6
Continuous
 62
     2
100
AcDbLine
 10
-66.00000534003041
 20
69.92500136828343
 30
0.0
 11
-66.00000534003041
 21
49.643204852086
 31
0.0
  0
LINE
  5
196
330
193
100
AcDbEntity
  8
1
  6
Continuous
 62
     2
100
AcDbLine
 10
-44.00000534003044
 20
69.92500136828335
 30
0.0
 11
-44.00000534003044
 21
49.643204852086
 31
0.0
  0
SOLID
  5
197
330
193
100
AcDbEntity
  8
1
 62
     2
100
AcDbTrace
 10
-64.25000534003041
 20
50.62359672286394
 30
0.0
 11
-64.25000534003041
 21
50.16281298130806
 31
0.0
 12
-66.00000534003041
 22
50.393204852086
 32
0.0
 13
-66.00000534003041
 23
50.393204852086
 33
0.0
  0
SOLID
  5
198
330
193
100
AcDbEntity
  8
1
 62
     2
100
AcDbTrace
 10
-45.75000534003044
 20
50.16281298130806
 30
0.0
 11
-45.75000534003044
 21
50.62359672286394
 31
0.0
 12
-44.00000534003044
 22
50.393204852086
 32
0.0
 13
-44.00000534003044
 23
50.393204852086
 33
0.0
  0
MTEXT
  5
199
330
193
100
AcDbEntity
  8
1
 62
     3
100
AcDbMText
 10
-55.1794305924245
 20
51.143204852086
 30
0.0
 40
1.75
 41
0.0
 71
     7
 72
     1
  1
22
  7
CONVERTER_11
 11
0.9999999999970619
 21
2.424068405545306E-6
 31
0.0
 73
     1
 44
0.60024009603842
  0
ENDBLK
  5
19B
330
193
100
AcDbEntity
  8
0
100
AcDbBlockEnd
  0
BLOCK
  5
1A5
330
19E
100
AcDbEntity
  8
0
100
AcDbBlockBegin
  2
*D22
 70
     1
 10
0.0
 20
0.0
 30
0.0
  3
*D22
  1

  0
LINE
  5
19F
330
19E
100
AcDbEntity
  8
1
  6
Continuous
 62
     2
100
AcDbLine
 10
-77.23617208822803
 20
66.72500136828324
 30
0.0
 11
-77.23617208822803
 21
88.32500136828332
 31
0.0
  0
LINE
  5
1A0
330
19E
100
AcDbEntity
  8
1
  6
Continuous
 62
     2
100
AcDbLine
 10
-63.30000534003068
 20
66.72500136828324
 30
0.0
 11
-77.98617208822803
 21
66.72500136828324
 31
0.0
  0
LINE
  5
1A1
330
19E
100
AcDbEntity
  8
1
  6
Continuous
 62
     2
100
AcDbLine
 10
-66.00000534003041
 20
88.32500136828332
 30
0.0
 11
-77.98617208822803
 21
88.32500136828332
 31
0.0
  0
SOLID
  5
1A2
330
19E
100
AcDbEntity
  8
1
 62
     2
100
AcDbTrace
 10
-77.46656395900597
 20
68.47500136828324
 30
0.0
 11
-77.0057802174501
 21
68.47500136828324
 31
0.0
 12
-77.23617208822803
 22
66.72500136828324
 32
0.0
 13
-77.23617208822803
 23
66.72500136828324
 33
0.0
  0
SOLID
  5
1A3
330
19E
100
AcDbEntity
  8
1
 62
     2
100
AcDbTrace
 10
-77.0057802174501
 20
86.57500136828332
 30
0.0
 11
-77.46656395900597
 21
86.57500136828332
 31
0.0
 12
-77.23617208822803
 22
88.32500136828332
 32
0.0
 13
-77.23617208822803
 23
88.32500136828332
 33
0.0
  0
MTEXT
  5
1A4
330
19E
100
AcDbEntity
  8
1
 62
     3
100
AcDbMText
 10
-78.16117208822804
 20
77.82715515921967
 30
0.0
 40
1.75
 41
0.0
 71
     7
 72
     1
  1
21,6
  7
CONVERTER_11
 11
0.0
 21
1.0
 31
0.0
 73
     1
 44
0.60024009603842
  0
ENDBLK
  5
1A6
330
19E
100
AcDbEntity
  8
0
100
AcDbBlockEnd
  0
ENDSEC
  0
SECTION
  2
ENTITIES
  0
INSERT
  5
86
330
1F
100
AcDbEntity
  8
1
100
AcDbBlockReference
  2
1
 10
0.0
 20
0.0
 30
0.0
  0
ENDSEC
  0
SECTION
  2
OBJECTS
  0
DICTIONARY
  5
C
330
0
100
AcDbDictionary
281
     1
  3
ACAD_GROUP
350
D
  3
ACAD_LAYOUT
350
1A
  3
ACAD_MATERIAL
350
3B
  3
ACAD_MLEADERSTYLE
350
308
  3
ACAD_MLINESTYLE
350
17
  3
ACAD_PLOTSETTINGS
350
19
  3
ACAD_PLOTSTYLENAME
350
E
  3
ACAD_TABLESTYLE
350
307
  3
ACAD_VISUALSTYLE
350
2A
  0
DICTIONARY
  5
D
102
{ACAD_REACTORS
330
C
102
}
330
C
100
AcDbDictionary
281
     1
  0
DICTIONARY
  5
1A
102
{ACAD_REACTORS
330
C
102
}
330
C
100
AcDbDictionary
281
     1
  3
Layout1
350
1E
  3
Layout2
350
26
  3
Model
350
22
  0
DICTIONARY
  5
3B
102
{ACAD_REACTORS
330
C
102
}
330
C
100
AcDbDictionary
281
     1
  3
ByBlock
350
3D
  3
ByLayer
350
3C
  3
Global
350
3E
  0
DICTIONARY
  5
308
102
{ACAD_REACTORS
330
C
102
}
330
C
100
AcDbDictionary
281
     1
  0
DICTIONARY
  5
17
102
{ACAD_REACTORS
330
C
102
}
330
C
100
AcDbDictionary
281
     1
  3
Standard
350
18
  0
DICTIONARY
  5
19
102
{ACAD_REACTORS
330
C
102
}
330
C
100
AcDbDictionary
281
     1
  0
ACDBDICTIONARYWDFLT
  5
E
102
{ACAD_REACTORS
330
C
102
}
330
C
100
AcDbDictionary
281
     1
  3
Normal
350
F
100
AcDbDictionaryWithDefault
340
F
  0
DICTIONARY
  5
307
102
{ACAD_REACTORS
330
C
102
}
330
C
100
AcDbDictionary
281
     1
  0
DICTIONARY
  5
2A
102
{ACAD_REACTORS
330
C
102
}
330
C
100
AcDbDictionary
281
     1
  3
2dWireframe
350
2F
  3
3D Hidden
350
31
  3
3dWireframe
350
30
  3
Basic
350
32
  3
Brighten
350
36
  3
ColorChange
350
3A
  3
Conceptual
350
34
  3
Dim
350
35
  3
Facepattern
350
39
  3
Flat
350
2B
  3
FlatWithEdges
350
2C
  3
Gouraud
350
2D
  3
GouraudWithEdges
350
2E
  3
Linepattern
350
38
  3
Realistic
350
33
  3
Thicken
350
37
  0
LAYOUT
  5
1E
102
{ACAD_REACTORS
330
1A
102
}
330
1A
100
AcDbPlotSettings
  1

  2
none_device
  4

  6

 40
0.0
 41
0.0
 42
0.0
 43
0.0
 44
0.0
 45
0.0
 46
0.0
 47
0.0
 48
0.0
 49
0.0
140
0.0
141
0.0
142
1.0
143
1.0
 70
   688
 72
     0
 73
     0
 74
     5
  7

 75
    16
 76
     0
 77
     2
 78
   300
147
1.0
148
0.0
149
0.0
100
AcDbLayout
  1
Layout1
 70
     1
 71
     1
 10
0.0
 20
0.0
 11
12.0
 21
9.0
 12
0.0
 22
0.0
 32
0.0
 14
1.00000000000000E+20
 24
1.00000000000000E+20
 34
1.00000000000000E+20
 15
-1.00000000000000E+20
 25
-1.00000000000000E+20
 35
-1.00000000000000E+20
146
0.0
 13
0.0
 23
0.0
 33
0.0
 16
1.0
 26
0.0
 36
0.0
 17
0.0
 27
1.0
 37
0.0
 76
     0
330
1B
  0
LAYOUT
  5
26
102
{ACAD_REACTORS
330
1A
102
}
330
1A
100
AcDbPlotSettings
  1

  2
none_device
  4

  6

 40
0.0
 41
0.0
 42
0.0
 43
0.0
 44
0.0
 45
0.0
 46
0.0
 47
0.0
 48
0.0
 49
0.0
140
0.0
141
0.0
142
1.0
143
1.0
 70
   688
 72
     0
 73
     0
 74
     5
  7

 75
    16
 76
     0
 77
     2
 78
   300
147
1.0
148
0.0
149
0.0
100
AcDbLayout
  1
Layout2
 70
     1
 71
     2
 10
0.0
 20
0.0
 11
0.0
 21
0.0
 12
0.0
 22
0.0
 32
0.0
 14
0.0
 24
0.0
 34
0.0
 15
0.0
 25
0.0
 35
0.0
146
0.0
 13
0.0
 23
0.0
 33
0.0
 16
1.0
 26
0.0
 36
0.0
 17
0.0
 27
1.0
 37
0.0
 76
     0
330
23
  0
LAYOUT
  5
22
102
{ACAD_REACTORS
330
1A
102
}
330
1A
100
AcDbPlotSettings
  1

  2
none_device
  4

  6

 40
0.0
 41
0.0
 42
0.0
 43
0.0
 44
0.0
 45
0.0
 46
0.0
 47
0.0
 48
0.0
 49
0.0
140
0.0
141
0.0
142
1.0
143
1.0
 70
  1712
 72
     0
 73
     0
 74
     0
  7

 75
     0
 76
     0
 77
     2
 78
   300
147
1.0
148
0.0
149
0.0
100
AcDbLayout
  1
Model
 70
     1
 71
     0
 10
0.0
 20
0.0
 11
12.0
 21
9.0
 12
0.0
 22
0.0
 32
0.0
 14
-245.0250004253539
 24
12.46718658766201
 34
0.0
 15
51.97499957464419
 25
222.4671865876621
 35
0.0
146
0.0
 13
0.0
 23
0.0
 33
0.0
 16
1.0
 26
0.0
 36
0.0
 17
0.0
 27
1.0
 37
0.0
 76
     0
330
1F
331
29
  0
MATERIAL
  5
3D
102
{ACAD_REACTORS
330
3B
102
}
102
{ACAD_XDICTIONARY
360
303
102
}
330
3B
100
AcDbMaterial
  1
ByBlock
  0
MATERIAL
  5
3C
102
{ACAD_REACTORS
330
3B
102
}
102
{ACAD_XDICTIONARY
360
301
102
}
330
3B
100
AcDbMaterial
  1
ByLayer
  0
MATERIAL
  5
3E
102
{ACAD_REACTORS
330
3B
102
}
102
{ACAD_XDICTIONARY
360
305
102
}
330
3B
100
AcDbMaterial
  1
Global
  0
MLINESTYLE
  5
18
102
{ACAD_REACTORS
330
17
102
}
330
17
100
AcDbMlineStyle
  2
Standard
 70
     0
  3

 62
   256
 51
90.0
 52
90.0
 71
     2
 49
0.5
 62
   256
  6
BYLAYER
 49
-0.5
 62
   256
  6
BYLAYER
  0
ACDBPLACEHOLDER
  5
F
102
{ACAD_REACTORS
330
E
102
}
330
E
  0
VISUALSTYLE
  5
2F
102
{ACAD_REACTORS
330
2A
102
}
102
{ACAD_XDICTIONARY
360
2E9
102
}
330
2A
100
AcDbVisualStyle
  2
2dWireframe
 70
     4
 71
     0
 72
     2
 73
     0
 90
        0
 40
-0.6
 41
-30.0
 62
     5
 63
     7
421
 16777215
 74
     1
 91
        4
 64
     7
 65
   257
 75
     1
175
     1
 42
1.0
 92
        0
 66
   257
 43
1.0
 76
     1
 77
     6
 78
     2
 67
     7
 79
     5
170
     0
171
     0
290
     0
174
     0
 93
        1
 44
0.0
173
     0
291
     0
 45
0.0
1001
ACAD
1000
AcDbSavedByObjectVersion
1070
     0
  0
VISUALSTYLE
  5
31
102
{ACAD_REACTORS
330
2A
102
}
102
{ACAD_XDICTIONARY
360
2ED
102
}
330
2A
100
AcDbVisualStyle
  2
3D Hidden
 70
     6
 71
     1
 72
     2
 73
     2
 90
        0
 40
-0.6
 41
-30.0
 62
     5
 63
     7
421
 16777215
 74
     2
 91
        2
 64
     7
 65
   257
 75
     2
175
     1
 42
40.0
 92
        0
 66
   257
 43
1.0
 76
     1
 77
     6
 78
     2
 67
     7
 79
     3
170
     0
171
     0
290
     0
174
     0
 93
        1
 44
0.0
173
     0
291
     0
 45
0.0
1001
ACAD
1000
AcDbSavedByObjectVersion
1070
     0
  0
VISUALSTYLE
  5
30
102
{ACAD_REACTORS
330
2A
102
}
102
{ACAD_XDICTIONARY
360
2EB
102
}
330
2A
100
AcDbVisualStyle
  2
3dWireframe
 70
     5
 71
     0
 72
     2
 73
     0
 90
        0
 40
-0.6
 41
-30.0
 62
     5
 63
     7
421
 16777215
 74
     1
 91
        4
 64
     7
 65
   257
 75
     1
175
     1
 42
1.0
 92
        0
 66
   257
 43
1.0
 76
     1
 77
     6
 78
     2
 67
     7
 79
     5
170
     0
171
     0
290
     0
174
     0
 93
        1
 44
0.0
173
     0
291
     0
 45
0.0
1001
ACAD
1000
AcDbSavedByObjectVersion
1070
     0
  0
VISUALSTYLE
  5
32
102
{ACAD_REACTORS
330
2A
102
}
102
{ACAD_XDICTIONARY
360
2EF
102
}
330
2A
100
AcDbVisualStyle
  2
Basic
 70
     7
 71
     1
 72
     0
 73
     1
 90
        0
 40
-0.6
 41
-30.0
 62
     5
 63
     7
421
 16777215
 74
     0
 91
        4
 64
     7
 65
   257
 75
     1
175
     1
 42
1.0
 92
        8
 66
     7
 43
1.0
 76
     1
 77
     6
 78
     2
 67
     7
 79
     5
170
     0
171
     0
290
     0
174
     0
 93
        1
 44
0.0
173
     0
291
     1
 45
0.0
1001
ACAD
1000
AcDbSavedByObjectVersion
1070
     0
  0
VISUALSTYLE
  5
36
102
{ACAD_REACTORS
330
2A
102
}
102
{ACAD_XDICTIONARY
360
2F7
102
}
330
2A
100
AcDbVisualStyle
  2
Brighten
 70
    12
 71
     2
 72
     2
 73
     0
 90
        0
 40
-0.6
 41
-30.0
 62
     5
 63
     7
421
 16777215
 74
     1
 91
        4
 64
     7
 65
   257
 75
     1
175
     1
 42
1.0
 92
        8
 66
     7
 43
1.0
 76
     1
 77
     6
 78
     2
 67
     7
 79
     5
170
     0
171
     0
290
     0
174
     0
 93
        1
 44
50.0
173
     0
291
     1
 45
0.0
1001
ACAD
1000
AcDbSavedByObjectVersion
1070
     0
  0
VISUALSTYLE
  5
3A
102
{ACAD_REACTORS
330
2A
102
}
102
{ACAD_XDICTIONARY
360
2FF
102
}
330
2A
100
AcDbVisualStyle
  2
ColorChange
 70
    16
 71
     2
 72
     2
 73
     3
 90
        0
 40
-0.6
 41
-30.0
 62
     5
 63
     8
421
  8421504
 74
     1
 91
        4
 64
     7
 65
   257
 75
     1
175
     1
 42
1.0
 92
        8
 66
     8
424
  8421504
 43
1.0
 76
     1
 77
     6
 78
     2
 67
     7
 79
     5
170
     0
171
     0
290
     0
174
     0
 93
        1
 44
0.0
173
     0
291
     1
 45
0.0
1001
ACAD
1000
AcDbSavedByObjectVersion
1070
     0
  0
VISUALSTYLE
  5
34
102
{ACAD_REACTORS
330
2A
102
}
102
{ACAD_XDICTIONARY
360
2F3
102
}
330
2A
100
AcDbVisualStyle
  2
Conceptual
 70
     9
 71
     3
 72
     2
 73
     0
 90
        0
 40
-0.6
 41
-30.0
 62
     5
 63
     7
421
 16777215
 74
     2
 91
        2
 64
     7
 65
   257
 75
     1
175
     1
 42
40.0
 92
        8
 66
     7
 43
1.0
 76
     1
 77
     6
 78
     2
 67
     7
 79
     3
170
     0
171
     0
290
     0
174
     0
 93
        1
 44
0.0
173
     0
291
     0
 45
0.0
1001
ACAD
1000
AcDbSavedByObjectVersion
1070
     0
  0
VISUALSTYLE
  5
35
102
{ACAD_REACTORS
330
2A
102
}
102
{ACAD_XDICTIONARY
360
2F5
102
}
330
2A
100
AcDbVisualStyle
  2
Dim
 70
    11
 71
     2
 72
     2
 73
     0
 90
        0
 40
-0.6
 41
-30.0
 62
     5
 63
     7
421
 16777215
 74
     1
 91
        4
 64
     7
 65
   257
 75
     1
175
     1
 42
1.0
 92
        8
 66
     7
 43
1.0
 76
     1
 77
     6
 78
     2
 67
     7
 79
     5
170
     0
171
     0
290
     0
174
     0
 93
        1
 44
-50.0
173
     0
291
     1
 45
0.0
1001
ACAD
1000
AcDbSavedByObjectVersion
1070
     0
  0
VISUALSTYLE
  5
39
102
{ACAD_REACTORS
330
2A
102
}
102
{ACAD_XDICTIONARY
360
2FD
102
}
330
2A
100
AcDbVisualStyle
  2
Facepattern
 70
    15
 71
     2
 72
     2
 73
     0
 90
        0
 40
-0.6
 41
-30.0
 62
     5
 63
     7
421
 16777215
 74
     1
 91
        4
 64
     7
 65
   257
 75
     1
175
     1
 42
1.0
 92
        8
 66
     7
 43
1.0
 76
     1
 77
     6
 78
     2
 67
     7
 79
     5
170
     0
171
     0
290
     0
174
     0
 93
        1
 44
0.0
173
     0
291
     1
 45
0.0
1001
ACAD
1000
AcDbSavedByObjectVersion
1070
     0
  0
VISUALSTYLE
  5
2B
102
{ACAD_REACTORS
330
2A
102
}
102
{ACAD_XDICTIONARY
360
2E1
102
}
330
2A
100
AcDbVisualStyle
  2
Flat
 70
     0
 71
     2
 72
     1
 73
     1
 90
        2
 40
-0.6
 41
30.0
 62
     5
 63
     7
421
 16777215
 74
     0
 91
        4
 64
     7
 65
   257
 75
     1
175
     1
 42
1.0
 92
        8
 66
     7
 43
1.0
 76
     1
 77
     6
 78
     2
 67
     7
 79
     5
170
     0
171
     0
290
     0
174
     0
 93
       13
 44
0.0
173
     0
291
     1
 45
0.0
1001
ACAD
1000
AcDbSavedByObjectVersion
1070
     0
  0
VISUALSTYLE
  5
2C
102
{ACAD_REACTORS
330
2A
102
}
102
{ACAD_XDICTIONARY
360
2E3
102
}
330
2A
100
AcDbVisualStyle
  2
FlatWithEdges
 70
     1
 71
     2
 72
     1
 73
     1
 90
        2
 40
-0.6
 41
30.0
 62
     5
 63
     7
421
 16777215
 74
     1
 91
        4
 64
     7
 65
   257
 75
     1
175
     1
 42
1.0
 92
        0
 66
   257
 43
1.0
 76
     1
 77
     6
 78
     2
 67
     7
 79
     5
170
     0
171
     0
290
     0
174
     0
 93
       13
 44
0.0
173
     0
291
     1
 45
0.0
1001
ACAD
1000
AcDbSavedByObjectVersion
1070
     0
  0
VISUALSTYLE
  5
2D
102
{ACAD_REACTORS
330
2A
102
}
102
{ACAD_XDICTIONARY
360
2E5
102
}
330
2A
100
AcDbVisualStyle
  2
Gouraud
 70
     2
 71
     2
 72
     2
 73
     1
 90
        2
 40
-0.6
 41
30.0
 62
     5
 63
     7
421
 16777215
 74
     0
 91
        4
 64
     7
 65
   257
 75
     1
175
     1
 42
1.0
 92
        0
 66
     7
 43
1.0
 76
     1
 77
     6
 78
     2
 67
     7
 79
     5
170
     0
171
     0
290
     0
174
     0
 93
       13
 44
0.0
173
     0
291
     1
 45
0.0
1001
ACAD
1000
AcDbSavedByObjectVersion
1070
     0
  0
VISUALSTYLE
  5
2E
102
{ACAD_REACTORS
330
2A
102
}
102
{ACAD_XDICTIONARY
360
2E7
102
}
330
2A
100
AcDbVisualStyle
  2
GouraudWithEdges
 70
     3
 71
     2
 72
     2
 73
     1
 90
        2
 40
-0.6
 41
30.0
 62
     5
 63
     7
421
 16777215
 74
     1
 91
        4
 64
     7
 65
   257
 75
     1
175
     1
 42
1.0
 92
        0
 66
   257
 43
1.0
 76
     1
 77
     6
 78
     2
 67
     7
 79
     5
170
     0
171
     0
290
     0
174
     0
 93
       13
 44
0.0
173
     0
291
     1
 45
0.0
1001
ACAD
1000
AcDbSavedByObjectVersion
1070
     0
  0
VISUALSTYLE
  5
38
102
{ACAD_REACTORS
330
2A
102
}
102
{ACAD_XDICTIONARY
360
2FB
102
}
330
2A
100
AcDbVisualStyle
  2
Linepattern
 70
    14
 71
     2
 72
     2
 73
     0
 90
        0
 40
-0.6
 41
-30.0
 62
     5
 63
     7
421
 16777215
 74
     1
 91
        4
 64
     7
 65
   257
 75
     7
175
     7
 42
1.0
 92
        8
 66
     7
 43
1.0
 76
     1
 77
     6
 78
     2
 67
     7
 79
     5
170
     0
171
     0
290
     0
174
     0
 93
        1
 44
0.0
173
     0
291
     1
 45
0.0
1001
ACAD
1000
AcDbSavedByObjectVersion
1070
     0
  0
VISUALSTYLE
  5
33
102
{ACAD_REACTORS
330
2A
102
}
102
{ACAD_XDICTIONARY
360
2F1
102
}
330
2A
100
AcDbVisualStyle
  2
Realistic
 70
     8
 71
     2
 72
     2
 73
     0
 90
        0
 40
-0.6
 41
-30.0
 62
     5
 63
     7
421
 16777215
 74
     1
 91
        0
 64
     7
 65
   257
 75
     1
175
     1
 42
1.0
 92
        8
 66
     8
424
  7895160
 43
1.0
 76
     1
 77
     6
 78
     2
 67
     7
 79
     5
170
     0
171
     0
290
     0
174
     0
 93
       13
 44
0.0
173
     0
291
     0
 45
0.0
1001
ACAD
1000
AcDbSavedByObjectVersion
1070
     0
  0
VISUALSTYLE
  5
37
102
{ACAD_REACTORS
330
2A
102
}
102
{ACAD_XDICTIONARY
360
2F9
102
}
330
2A
100
AcDbVisualStyle
  2
Thicken
 70
    13
 71
     2
 72
     2
 73
     0
 90
        0
 40
-0.6
 41
-30.0
 62
     5
 63
     7
421
 16777215
 74
     1
 91
        4
 64
     7
 65
   257
 75
     1
175
     1
 42
1.0
 92
       12
 66
     7
 43
1.0
 76
     1
 77
     6
 78
     2
 67
     7
 79
     5
170
     0
171
     0
290
     0
174
     0
 93
        1
 44
0.0
173
     0
291
     1
 45
0.0
1001
ACAD
1000
AcDbSavedByObjectVersion
1070
     0
  0
DICTIONARY
  5
303
330
3D
100
AcDbDictionary
280
     1
281
     1
  3
ACAD_XREC_ROUNDTRIP
360
304
  0
DICTIONARY
  5
301
330
3C
100
AcDbDictionary
280
     1
281
     1
  3
ACAD_XREC_ROUNDTRIP
360
302
  0
DICTIONARY
  5
305
330
3E
100
AcDbDictionary
280
     1
281
     1
  3
ACAD_XREC_ROUNDTRIP
360
306
  0
DICTIONARY
  5
2E9
330
2F
100
AcDbDictionary
280
     1
281
     1
  3
ACAD_XREC_ROUNDTRIP
360
2EA
  0
DICTIONARY
  5
2ED
330
31
100
AcDbDictionary
280
     1
281
     1
  3
ACAD_XREC_ROUNDTRIP
360
2EE
  0
DICTIONARY
  5
2EB
330
30
100
AcDbDictionary
280
     1
281
     1
  3
ACAD_XREC_ROUNDTRIP
360
2EC
  0
DICTIONARY
  5
2EF
330
32
100
AcDbDictionary
280
     1
281
     1
  3
ACAD_XREC_ROUNDTRIP
360
2F0
  0
DICTIONARY
  5
2F7
330
36
100
AcDbDictionary
280
     1
281
     1
  3
ACAD_XREC_ROUNDTRIP
360
2F8
  0
DICTIONARY
  5
2FF
330
3A
100
AcDbDictionary
280
     1
281
     1
  3
ACAD_XREC_ROUNDTRIP
360
300
  0
DICTIONARY
  5
2F3
330
34
100
AcDbDictionary
280
     1
281
     1
  3
ACAD_XREC_ROUNDTRIP
360
2F4
  0
DICTIONARY
  5
2F5
330
35
100
AcDbDictionary
280
     1
281
     1
  3
ACAD_XREC_ROUNDTRIP
360
2F6
  0
DICTIONARY
  5
2FD
330
39
100
AcDbDictionary
280
     1
281
     1
  3
ACAD_XREC_ROUNDTRIP
360
2FE
  0
DICTIONARY
  5
2E1
330
2B
100
AcDbDictionary
280
     1
281
     1
  3
ACAD_XREC_ROUNDTRIP
360
2E2
  0
DICTIONARY
  5
2E3
330
2C
100
AcDbDictionary
280
     1
281
     1
  3
ACAD_XREC_ROUNDTRIP
360
2E4
  0
DICTIONARY
  5
2E5
330
2D
100
AcDbDictionary
280
     1
281
     1
  3
ACAD_XREC_ROUNDTRIP
360
2E6
  0
DICTIONARY
  5
2E7
330
2E
100
AcDbDictionary
280
     1
281
     1
  3
ACAD_XREC_ROUNDTRIP
360
2E8
  0
DICTIONARY
  5
2FB
330
38
100
AcDbDictionary
280
     1
281
     1
  3
ACAD_XREC_ROUNDTRIP
360
2FC
  0
DICTIONARY
  5
2F1
330
33
100
AcDbDictionary
280
     1
281
     1
  3
ACAD_XREC_ROUNDTRIP
360
2F2
  0
DICTIONARY
  5
2F9
330
37
100
AcDbDictionary
280
     1
281
     1
  3
ACAD_XREC_ROUNDTRIP
360
2FA
  0
XRECORD
  5
304
102
{ACAD_REACTORS
330
303
102
}
330
303
100
AcDbXrecord
280
     1
102
MATERIAL
148
0.0
149
0.0
149
0.0
 93
        0
 94
      127
282
     0
 72
     1
 77
     1
171
     1
175
     1
179
     1
273
     0
  0
XRECORD
  5
302
102
{ACAD_REACTORS
330
301
102
}
330
301
100
AcDbXrecord
280
     1
102
MATERIAL
148
0.0
149
0.0
149
0.0
 93
        0
 94
      127
282
     0
 72
     1
 77
     1
171
     1
175
     1
179
     1
273
     0
  0
XRECORD
  5
306
102
{ACAD_REACTORS
330
305
102
}
330
305
100
AcDbXrecord
280
     1
102
MATERIAL
148
0.0
149
0.0
149
0.0
 93
        0
 94
      127
282
     0
 72
     1
 77
     1
171
     1
175
     1
179
     1
273
     0
  0
XRECORD
  5
2EA
102
{ACAD_REACTORS
330
2E9
102
}
330
2E9
100
AcDbXrecord
280
     1
102
RTVSPropertyOp0
 70
     1
102
RTVSPropertyOp1
 70
     1
102
RTVSPropertyOp2
 70
     1
102
RTVSPropertyOp3
 70
     1
102
RTVSPropertyOp4
 70
     1
102
RTVSPropertyOp5
 70
     1
102
RTVSPropertyOp6
 70
     1
102
RTVSPropertyOp7
 70
     1
102
RTVSPropertyOp8
 70
     1
102
RTVSPropertyOp9
 70
     1
102
RTVSPropertyOp10
 70
     1
102
RTVSPropertyOp11
 70
     1
102
RTVSPropertyOp12
 70
     1
102
RTVSPropertyOp13
 70
     1
102
RTVSPropertyOp14
 70
     1
102
RTVSPropertyOp15
 70
     1
102
RTVSPropertyOp16
 70
     1
102
RTVSPropertyOp17
 70
     1
102
RTVSPropertyOp18
 70
     1
102
RTVSPropertyOp19
 70
     1
102
RTVSPropertyOp20
 70
     1
102
RTVSPropertyOp21
 70
     1
102
RTVSPropertyOp22
 70
     1
102
RTVSPropertyOp23
 70
     1
102
RTVSPropertyOp24
 70
     1
102
RTVSPropertyOp25
 70
     1
102
RTVSPropertyOp26
 70
     1
102
RTVSPropertyOp27
 70
     1
102
RTVSPropertyOp28
 70
     1
102
RTVSPropertyOp29
 70
     1
102
RTVSPropertyOp30
 70
     1
102
RTVSPropertyOp31
 70
     1
102
RTVSPropertyOp32
 70
     1
  0
XRECORD
  5
2EE
102
{ACAD_REACTORS
330
2ED
102
}
330
2ED
100
AcDbXrecord
280
     1
102
RTVSPropertyOp0
 70
     1
102
RTVSPropertyOp1
 70
     1
102
RTVSPropertyOp2
 70
     1
102
RTVSPropertyOp3
 70
     1
102
RTVSPropertyOp4
 70
     1
102
RTVSPropertyOp5
 70
     1
102
RTVSPropertyOp6
 70
     1
102
RTVSPropertyOp7
 70
     1
102
RTVSPropertyOp8
 70
     1
102
RTVSPropertyOp9
 70
     1
102
RTVSPropertyOp10
 70
     1
102
RTVSPropertyOp11
 70
     1
102
RTVSPropertyOp12
 70
     1
102
RTVSPropertyOp13
 70
     1
102
RTVSPropertyOp14
 70
     1
102
RTVSPropertyOp15
 70
     1
102
RTVSPropertyOp16
 70
     1
102
RTVSPropertyOp17
 70
     1
102
RTVSPropertyOp18
 70
     1
102
RTVSPropertyOp19
 70
     1
102
RTVSPropertyOp20
 70
     1
102
RTVSPropertyOp21
 70
     1
102
RTVSPropertyOp22
 70
     1
102
RTVSPropertyOp23
 70
     1
102
RTVSPropertyOp24
 70
     1
102
RTVSPropertyOp25
 70
     1
102
RTVSPropertyOp26
 70
     1
102
RTVSPropertyOp27
 70
     1
102
RTVSPropertyOp28
 70
     1
102
RTVSPropertyOp29
 70
     1
102
RTVSPropertyOp30
 70
     1
102
RTVSPropertyOp31
 70
     1
102
RTVSPropertyOp32
 70
     1
  0
XRECORD
  5
2EC
102
{ACAD_REACTORS
330
2EB
102
}
330
2EB
100
AcDbXrecord
280
     1
102
RTVSPropertyOp0
 70
     1
102
RTVSPropertyOp1
 70
     1
102
RTVSPropertyOp2
 70
     1
102
RTVSPropertyOp3
 70
     1
102
RTVSPropertyOp4
 70
     1
102
RTVSPropertyOp5
 70
     1
102
RTVSPropertyOp6
 70
     1
102
RTVSPropertyOp7
 70
     1
102
RTVSPropertyOp8
 70
     1
102
RTVSPropertyOp9
 70
     1
102
RTVSPropertyOp10
 70
     1
102
RTVSPropertyOp11
 70
     1
102
RTVSPropertyOp12
 70
     1
102
RTVSPropertyOp13
 70
     1
102
RTVSPropertyOp14
 70
     1
102
RTVSPropertyOp15
 70
     1
102
RTVSPropertyOp16
 70
     1
102
RTVSPropertyOp17
 70
     1
102
RTVSPropertyOp18
 70
     1
102
RTVSPropertyOp19
 70
     1
102
RTVSPropertyOp20
 70
     1
102
RTVSPropertyOp21
 70
     1
102
RTVSPropertyOp22
 70
     1
102
RTVSPropertyOp23
 70
     1
102
RTVSPropertyOp24
 70
     1
102
RTVSPropertyOp25
 70
     1
102
RTVSPropertyOp26
 70
     1
102
RTVSPropertyOp27
 70
     1
102
RTVSPropertyOp28
 70
     1
102
RTVSPropertyOp29
 70
     1
102
RTVSPropertyOp30
 70
     1
102
RTVSPropertyOp31
 70
     1
102
RTVSPropertyOp32
 70
     1
  0
XRECORD
  5
2F0
102
{ACAD_REACTORS
330
2EF
102
}
330
2EF
100
AcDbXrecord
280
     1
102
RTVSPropertyOp0
 70
     1
102
RTVSPropertyOp1
 70
     1
102
RTVSPropertyOp2
 70
     1
102
RTVSPropertyOp3
 70
     1
102
RTVSPropertyOp4
 70
     1
102
RTVSPropertyOp5
 70
     1
102
RTVSPropertyOp6
 70
     1
102
RTVSPropertyOp7
 70
     1
102
RTVSPropertyOp8
 70
     1
102
RTVSPropertyOp9
 70
     1
102
RTVSPropertyOp10
 70
     1
102
RTVSPropertyOp11
 70
     1
102
RTVSPropertyOp12
 70
     1
102
RTVSPropertyOp13
 70
     1
102
RTVSPropertyOp14
 70
     1
102
RTVSPropertyOp15
 70
     1
102
RTVSPropertyOp16
 70
     1
102
RTVSPropertyOp17
 70
     1
102
RTVSPropertyOp18
 70
     1
102
RTVSPropertyOp19
 70
     1
102
RTVSPropertyOp20
 70
     1
102
RTVSPropertyOp21
 70
     1
102
RTVSPropertyOp22
 70
     1
102
RTVSPropertyOp23
 70
     1
102
RTVSPropertyOp24
 70
     1
102
RTVSPropertyOp25
 70
     1
102
RTVSPropertyOp26
 70
     1
102
RTVSPropertyOp27
 70
     1
102
RTVSPropertyOp28
 70
     1
102
RTVSPropertyOp29
 70
     1
102
RTVSPropertyOp30
 70
     1
102
RTVSPropertyOp31
 70
     1
102
RTVSPropertyOp32
 70
     1
  0
XRECORD
  5
2F8
102
{ACAD_REACTORS
330
2F7
102
}
330
2F7
100
AcDbXrecord
280
     1
102
RTVSPropertyOp0
 70
     1
102
RTVSPropertyOp1
 70
     1
102
RTVSPropertyOp2
 70
     1
102
RTVSPropertyOp3
 70
     1
102
RTVSPropertyOp4
 70
     1
102
RTVSPropertyOp5
 70
     1
102
RTVSPropertyOp6
 70
     1
102
RTVSPropertyOp7
 70
     1
102
RTVSPropertyOp8
 70
     1
102
RTVSPropertyOp9
 70
     1
102
RTVSPropertyOp10
 70
     1
102
RTVSPropertyOp11
 70
     1
102
RTVSPropertyOp12
 70
     1
102
RTVSPropertyOp13
 70
     1
102
RTVSPropertyOp14
 70
     1
102
RTVSPropertyOp15
 70
     1
102
RTVSPropertyOp16
 70
     1
102
RTVSPropertyOp17
 70
     1
102
RTVSPropertyOp18
 70
     1
102
RTVSPropertyOp19
 70
     1
102
RTVSPropertyOp20
 70
     1
102
RTVSPropertyOp21
 70
     1
102
RTVSPropertyOp22
 70
     1
102
RTVSPropertyOp23
 70
     1
102
RTVSPropertyOp24
 70
     1
102
RTVSPropertyOp25
 70
     1
102
RTVSPropertyOp26
 70
     1
102
RTVSPropertyOp27
 70
     1
102
RTVSPropertyOp28
 70
     1
102
RTVSPropertyOp29
 70
     1
102
RTVSPropertyOp30
 70
     1
102
RTVSPropertyOp31
 70
     1
102
RTVSPropertyOp32
 70
     1
  0
XRECORD
  5
300
102
{ACAD_REACTORS
330
2FF
102
}
330
2FF
100
AcDbXrecord
280
     1
102
RTVSPropertyOp0
 70
     1
102
RTVSPropertyOp1
 70
     1
102
RTVSPropertyOp2
 70
     1
102
RTVSPropertyOp3
 70
     1
102
RTVSPropertyOp4
 70
     1
102
RTVSPropertyOp5
 70
     1
102
RTVSPropertyOp6
 70
     1
102
RTVSPropertyOp7
 70
     1
102
RTVSPropertyOp8
 70
     1
102
RTVSPropertyOp9
 70
     1
102
RTVSPropertyOp10
 70
     1
102
RTVSPropertyOp11
 70
     1
102
RTVSPropertyOp12
 70
     1
102
RTVSPropertyOp13
 70
     1
102
RTVSPropertyOp14
 70
     1
102
RTVSPropertyOp15
 70
     1
102
RTVSPropertyOp16
 70
     1
102
RTVSPropertyOp17
 70
     1
102
RTVSPropertyOp18
 70
     1
102
RTVSPropertyOp19
 70
     1
102
RTVSPropertyOp20
 70
     1
102
RTVSPropertyOp21
 70
     1
102
RTVSPropertyOp22
 70
     1
102
RTVSPropertyOp23
 70
     1
102
RTVSPropertyOp24
 70
     1
102
RTVSPropertyOp25
 70
     1
102
RTVSPropertyOp26
 70
     1
102
RTVSPropertyOp27
 70
     1
102
RTVSPropertyOp28
 70
     1
102
RTVSPropertyOp29
 70
     1
102
RTVSPropertyOp30
 70
     1
102
RTVSPropertyOp31
 70
     1
102
RTVSPropertyOp32
 70
     1
  0
XRECORD
  5
2F4
102
{ACAD_REACTORS
330
2F3
102
}
330
2F3
100
AcDbXrecord
280
     1
102
RTVSPropertyOp0
 70
     1
102
RTVSPropertyOp1
 70
     1
102
RTVSPropertyOp2
 70
     1
102
RTVSPropertyOp3
 70
     1
102
RTVSPropertyOp4
 70
     1
102
RTVSPropertyOp5
 70
     1
102
RTVSPropertyOp6
 70
     1
102
RTVSPropertyOp7
 70
     1
102
RTVSPropertyOp8
 70
     1
102
RTVSPropertyOp9
 70
     1
102
RTVSPropertyOp10
 70
     1
102
RTVSPropertyOp11
 70
     1
102
RTVSPropertyOp12
 70
     1
102
RTVSPropertyOp13
 70
     1
102
RTVSPropertyOp14
 70
     1
102
RTVSPropertyOp15
 70
     1
102
RTVSPropertyOp16
 70
     1
102
RTVSPropertyOp17
 70
     1
102
RTVSPropertyOp18
 70
     1
102
RTVSPropertyOp19
 70
     1
102
RTVSPropertyOp20
 70
     1
102
RTVSPropertyOp21
 70
     1
102
RTVSPropertyOp22
 70
     1
102
RTVSPropertyOp23
 70
     1
102
RTVSPropertyOp24
 70
     1
102
RTVSPropertyOp25
 70
     1
102
RTVSPropertyOp26
 70
     1
102
RTVSPropertyOp27
 70
     1
102
RTVSPropertyOp28
 70
     1
102
RTVSPropertyOp29
 70
     1
102
RTVSPropertyOp30
 70
     1
102
RTVSPropertyOp31
 70
     1
102
RTVSPropertyOp32
 70
     1
  0
XRECORD
  5
2F6
102
{ACAD_REACTORS
330
2F5
102
}
330
2F5
100
AcDbXrecord
280
     1
102
RTVSPropertyOp0
 70
     1
102
RTVSPropertyOp1
 70
     1
102
RTVSPropertyOp2
 70
     1
102
RTVSPropertyOp3
 70
     1
102
RTVSPropertyOp4
 70
     1
102
RTVSPropertyOp5
 70
     1
102
RTVSPropertyOp6
 70
     1
102
RTVSPropertyOp7
 70
     1
102
RTVSPropertyOp8
 70
     1
102
RTVSPropertyOp9
 70
     1
102
RTVSPropertyOp10
 70
     1
102
RTVSPropertyOp11
 70
     1
102
RTVSPropertyOp12
 70
     1
102
RTVSPropertyOp13
 70
     1
102
RTVSPropertyOp14
 70
     1
102
RTVSPropertyOp15
 70
     1
102
RTVSPropertyOp16
 70
     1
102
RTVSPropertyOp17
 70
     1
102
RTVSPropertyOp18
 70
     1
102
RTVSPropertyOp19
 70
     1
102
RTVSPropertyOp20
 70
     1
102
RTVSPropertyOp21
 70
     1
102
RTVSPropertyOp22
 70
     1
102
RTVSPropertyOp23
 70
     1
102
RTVSPropertyOp24
 70
     1
102
RTVSPropertyOp25
 70
     1
102
RTVSPropertyOp26
 70
     1
102
RTVSPropertyOp27
 70
     1
102
RTVSPropertyOp28
 70
     1
102
RTVSPropertyOp29
 70
     1
102
RTVSPropertyOp30
 70
     1
102
RTVSPropertyOp31
 70
     1
102
RTVSPropertyOp32
 70
     1
  0
XRECORD
  5
2FE
102
{ACAD_REACTORS
330
2FD
102
}
330
2FD
100
AcDbXrecord
280
     1
102
RTVSPropertyOp0
 70
     1
102
RTVSPropertyOp1
 70
     1
102
RTVSPropertyOp2
 70
     1
102
RTVSPropertyOp3
 70
     1
102
RTVSPropertyOp4
 70
     1
102
RTVSPropertyOp5
 70
     1
102
RTVSPropertyOp6
 70
     1
102
RTVSPropertyOp7
 70
     1
102
RTVSPropertyOp8
 70
     1
102
RTVSPropertyOp9
 70
     1
102
RTVSPropertyOp10
 70
     1
102
RTVSPropertyOp11
 70
     1
102
RTVSPropertyOp12
 70
     1
102
RTVSPropertyOp13
 70
     1
102
RTVSPropertyOp14
 70
     1
102
RTVSPropertyOp15
 70
     1
102
RTVSPropertyOp16
 70
     1
102
RTVSPropertyOp17
 70
     1
102
RTVSPropertyOp18
 70
     1
102
RTVSPropertyOp19
 70
     1
102
RTVSPropertyOp20
 70
     1
102
RTVSPropertyOp21
 70
     1
102
RTVSPropertyOp22
 70
     1
102
RTVSPropertyOp23
 70
     1
102
RTVSPropertyOp24
 70
     1
102
RTVSPropertyOp25
 70
     1
102
RTVSPropertyOp26
 70
     1
102
RTVSPropertyOp27
 70
     1
102
RTVSPropertyOp28
 70
     1
102
RTVSPropertyOp29
 70
     1
102
RTVSPropertyOp30
 70
     1
102
RTVSPropertyOp31
 70
     1
102
RTVSPropertyOp32
 70
     1
  0
XRECORD
  5
2E2
102
{ACAD_REACTORS
330
2E1
102
}
330
2E1
100
AcDbXrecord
280
     1
102
RTVSPropertyOp0
 70
     1
102
RTVSPropertyOp1
 70
     1
102
RTVSPropertyOp2
 70
     1
102
RTVSPropertyOp3
 70
     1
102
RTVSPropertyOp4
 70
     1
102
RTVSPropertyOp5
 70
     1
102
RTVSPropertyOp6
 70
     1
102
RTVSPropertyOp7
 70
     1
102
RTVSPropertyOp8
 70
     1
102
RTVSPropertyOp9
 70
     1
102
RTVSPropertyOp10
 70
     1
102
RTVSPropertyOp11
 70
     1
102
RTVSPropertyOp12
 70
     1
102
RTVSPropertyOp13
 70
     1
102
RTVSPropertyOp14
 70
     1
102
RTVSPropertyOp15
 70
     1
102
RTVSPropertyOp16
 70
     1
102
RTVSPropertyOp17
 70
     1
102
RTVSPropertyOp18
 70
     1
102
RTVSPropertyOp19
 70
     1
102
RTVSPropertyOp20
 70
     1
102
RTVSPropertyOp21
 70
     1
102
RTVSPropertyOp22
 70
     1
102
RTVSPropertyOp23
 70
     1
102
RTVSPropertyOp24
 70
     1
102
RTVSPropertyOp25
 70
     1
102
RTVSPropertyOp26
 70
     1
102
RTVSPropertyOp27
 70
     1
102
RTVSPropertyOp28
 70
     1
102
RTVSPropertyOp29
 70
     1
102
RTVSPropertyOp30
 70
     1
102
RTVSPropertyOp31
 70
     1
102
RTVSPropertyOp32
 70
     1
  0
XRECORD
  5
2E4
102
{ACAD_REACTORS
330
2E3
102
}
330
2E3
100
AcDbXrecord
280
     1
102
RTVSPropertyOp0
 70
     1
102
RTVSPropertyOp1
 70
     1
102
RTVSPropertyOp2
 70
     1
102
RTVSPropertyOp3
 70
     1
102
RTVSPropertyOp4
 70
     1
102
RTVSPropertyOp5
 70
     1
102
RTVSPropertyOp6
 70
     1
102
RTVSPropertyOp7
 70
     1
102
RTVSPropertyOp8
 70
     1
102
RTVSPropertyOp9
 70
     1
102
RTVSPropertyOp10
 70
     1
102
RTVSPropertyOp11
 70
     1
102
RTVSPropertyOp12
 70
     1
102
RTVSPropertyOp13
 70
     1
102
RTVSPropertyOp14
 70
     1
102
RTVSPropertyOp15
 70
     1
102
RTVSPropertyOp16
 70
     1
102
RTVSPropertyOp17
 70
     1
102
RTVSPropertyOp18
 70
     1
102
RTVSPropertyOp19
 70
     1
102
RTVSPropertyOp20
 70
     1
102
RTVSPropertyOp21
 70
     1
102
RTVSPropertyOp22
 70
     1
102
RTVSPropertyOp23
 70
     1
102
RTVSPropertyOp24
 70
     1
102
RTVSPropertyOp25
 70
     1
102
RTVSPropertyOp26
 70
     1
102
RTVSPropertyOp27
 70
     1
102
RTVSPropertyOp28
 70
     1
102
RTVSPropertyOp29
 70
     1
102
RTVSPropertyOp30
 70
     1
102
RTVSPropertyOp31
 70
     1
102
RTVSPropertyOp32
 70
     1
  0
XRECORD
  5
2E6
102
{ACAD_REACTORS
330
2E5
102
}
330
2E5
100
AcDbXrecord
280
     1
102
RTVSPropertyOp0
 70
     1
102
RTVSPropertyOp1
 70
     1
102
RTVSPropertyOp2
 70
     1
102
RTVSPropertyOp3
 70
     1
102
RTVSPropertyOp4
 70
     1
102
RTVSPropertyOp5
 70
     1
102
RTVSPropertyOp6
 70
     1
102
RTVSPropertyOp7
 70
     1
102
RTVSPropertyOp8
 70
     1
102
RTVSPropertyOp9
 70
     1
102
RTVSPropertyOp10
 70
     1
102
RTVSPropertyOp11
 70
     1
102
RTVSPropertyOp12
 70
     1
102
RTVSPropertyOp13
 70
     1
102
RTVSPropertyOp14
 70
     1
102
RTVSPropertyOp15
 70
     1
102
RTVSPropertyOp16
 70
     1
102
RTVSPropertyOp17
 70
     1
102
RTVSPropertyOp18
 70
     1
102
RTVSPropertyOp19
 70
     1
102
RTVSPropertyOp20
 70
     1
102
RTVSPropertyOp21
 70
     1
102
RTVSPropertyOp22
 70
     1
102
RTVSPropertyOp23
 70
     1
102
RTVSPropertyOp24
 70
     1
102
RTVSPropertyOp25
 70
     1
102
RTVSPropertyOp26
 70
     1
102
RTVSPropertyOp27
 70
     1
102
RTVSPropertyOp28
 70
     1
102
RTVSPropertyOp29
 70
     1
102
RTVSPropertyOp30
 70
     1
102
RTVSPropertyOp31
 70
     1
102
RTVSPropertyOp32
 70
     1
  0
XRECORD
  5
2E8
102
{ACAD_REACTORS
330
2E7
102
}
330
2E7
100
AcDbXrecord
280
     1
102
RTVSPropertyOp0
 70
     1
102
RTVSPropertyOp1
 70
     1
102
RTVSPropertyOp2
 70
     1
102
RTVSPropertyOp3
 70
     1
102
RTVSPropertyOp4
 70
     1
102
RTVSPropertyOp5
 70
     1
102
RTVSPropertyOp6
 70
     1
102
RTVSPropertyOp7
 70
     1
102
RTVSPropertyOp8
 70
     1
102
RTVSPropertyOp9
 70
     1
102
RTVSPropertyOp10
 70
     1
102
RTVSPropertyOp11
 70
     1
102
RTVSPropertyOp12
 70
     1
102
RTVSPropertyOp13
 70
     1
102
RTVSPropertyOp14
 70
     1
102
RTVSPropertyOp15
 70
     1
102
RTVSPropertyOp16
 70
     1
102
RTVSPropertyOp17
 70
     1
102
RTVSPropertyOp18
 70
     1
102
RTVSPropertyOp19
 70
     1
102
RTVSPropertyOp20
 70
     1
102
RTVSPropertyOp21
 70
     1
102
RTVSPropertyOp22
 70
     1
102
RTVSPropertyOp23
 70
     1
102
RTVSPropertyOp24
 70
     1
102
RTVSPropertyOp25
 70
     1
102
RTVSPropertyOp26
 70
     1
102
RTVSPropertyOp27
 70
     1
102
RTVSPropertyOp28
 70
     1
102
RTVSPropertyOp29
 70
     1
102
RTVSPropertyOp30
 70
     1
102
RTVSPropertyOp31
 70
     1
102
RTVSPropertyOp32
 70
     1
  0
XRECORD
  5
2FC
102
{ACAD_REACTORS
330
2FB
102
}
330
2FB
100
AcDbXrecord
280
     1
102
RTVSPropertyOp0
 70
     1
102
RTVSPropertyOp1
 70
     1
102
RTVSPropertyOp2
 70
     1
102
RTVSPropertyOp3
 70
     1
102
RTVSPropertyOp4
 70
     1
102
RTVSPropertyOp5
 70
     1
102
RTVSPropertyOp6
 70
     1
102
RTVSPropertyOp7
 70
     1
102
RTVSPropertyOp8
 70
     1
102
RTVSPropertyOp9
 70
     1
102
RTVSPropertyOp10
 70
     1
102
RTVSPropertyOp11
 70
     1
102
RTVSPropertyOp12
 70
     1
102
RTVSPropertyOp13
 70
     1
102
RTVSPropertyOp14
 70
     1
102
RTVSPropertyOp15
 70
     1
102
RTVSPropertyOp16
 70
     1
102
RTVSPropertyOp17
 70
     1
102
RTVSPropertyOp18
 70
     1
102
RTVSPropertyOp19
 70
     1
102
RTVSPropertyOp20
 70
     1
102
RTVSPropertyOp21
 70
     1
102
RTVSPropertyOp22
 70
     1
102
RTVSPropertyOp23
 70
     1
102
RTVSPropertyOp24
 70
     1
102
RTVSPropertyOp25
 70
     1
102
RTVSPropertyOp26
 70
     1
102
RTVSPropertyOp27
 70
     1
102
RTVSPropertyOp28
 70
     1
102
RTVSPropertyOp29
 70
     1
102
RTVSPropertyOp30
 70
     1
102
RTVSPropertyOp31
 70
     1
102
RTVSPropertyOp32
 70
     1
  0
XRECORD
  5
2F2
102
{ACAD_REACTORS
330
2F1
102
}
330
2F1
100
AcDbXrecord
280
     1
102
RTVSPropertyOp0
 70
     1
102
RTVSPropertyOp1
 70
     1
102
RTVSPropertyOp2
 70
     1
102
RTVSPropertyOp3
 70
     1
102
RTVSPropertyOp4
 70
     1
102
RTVSPropertyOp5
 70
     1
102
RTVSPropertyOp6
 70
     1
102
RTVSPropertyOp7
 70
     1
102
RTVSPropertyOp8
 70
     1
102
RTVSPropertyOp9
 70
     1
102
RTVSPropertyOp10
 70
     1
102
RTVSPropertyOp11
 70
     1
102
RTVSPropertyOp12
 70
     1
102
RTVSPropertyOp13
 70
     1
102
RTVSPropertyOp14
 70
     1
102
RTVSPropertyOp15
 70
     1
102
RTVSPropertyOp16
 70
     1
102
RTVSPropertyOp17
 70
     1
102
RTVSPropertyOp18
 70
     1
102
RTVSPropertyOp19
 70
     1
102
RTVSPropertyOp20
 70
     1
102
RTVSPropertyOp21
 70
     1
102
RTVSPropertyOp22
 70
     1
102
RTVSPropertyOp23
 70
     1
102
RTVSPropertyOp24
 70
     1
102
RTVSPropertyOp25
 70
     1
102
RTVSPropertyOp26
 70
     1
102
RTVSPropertyOp27
 70
     1
102
RTVSPropertyOp28
 70
     1
102
RTVSPropertyOp29
 70
     1
102
RTVSPropertyOp30
 70
     1
102
RTVSPropertyOp31
 70
     1
102
RTVSPropertyOp32
 70
     1
  0
XRECORD
  5
2FA
102
{ACAD_REACTORS
330
2F9
102
}
330
2F9
100
AcDbXrecord
280
     1
102
RTVSPropertyOp0
 70
     1
102
RTVSPropertyOp1
 70
     1
102
RTVSPropertyOp2
 70
     1
102
RTVSPropertyOp3
 70
     1
102
RTVSPropertyOp4
 70
     1
102
RTVSPropertyOp5
 70
     1
102
RTVSPropertyOp6
 70
     1
102
RTVSPropertyOp7
 70
     1
102
RTVSPropertyOp8
 70
     1
102
RTVSPropertyOp9
 70
     1
102
RTVSPropertyOp10
 70
     1
102
RTVSPropertyOp11
 70
     1
102
RTVSPropertyOp12
 70
     1
102
RTVSPropertyOp13
 70
     1
102
RTVSPropertyOp14
 70
     1
102
RTVSPropertyOp15
 70
     1
102
RTVSPropertyOp16
 70
     1
102
RTVSPropertyOp17
 70
     1
102
RTVSPropertyOp18
 70
     1
102
RTVSPropertyOp19
 70
     1
102
RTVSPropertyOp20
 70
     1
102
RTVSPropertyOp21
 70
     1
102
RTVSPropertyOp22
 70
     1
102
RTVSPropertyOp23
 70
     1
102
RTVSPropertyOp24
 70
     1
102
RTVSPropertyOp25
 70
     1
102
RTVSPropertyOp26
 70
     1
102
RTVSPropertyOp27
 70
     1
102
RTVSPropertyOp28
 70
     1
102
RTVSPropertyOp29
 70
     1
102
RTVSPropertyOp30
 70
     1
102
RTVSPropertyOp31
 70
     1
102
RTVSPropertyOp32
 70
     1
  0
ENDSEC
  0
EOF
