  0
SECTION
  2
HEADER
  9
$ACADVER
  1
AC1018
  9
$ACADMAINTVER
 70
     0
  9
$DWGCODEPAGE
  3
ANSI_1252
  9
$INSBASE
 10
0.0
 20
0.0
 30
0.0
  9
$EXTMIN
 10
-74.47823412598427
 20
323.0003735557128
 30
0.0
  9
$EXTMAX
 10
222.5217658740138
 20
533.0003735557129
 30
0.0
  9
$LIMMIN
 10
0.0
 20
0.0
  9
$LIMMAX
 10
12.0
 20
9.0
  9
$ORTHOMODE
 70
     0
  9
$REGENMODE
 70
     1
  9
$FILLMODE
 70
     1
  9
$QTEXTMODE
 70
     0
  9
$MIRRTEXT
 70
     1
  9
$LTSCALE
 40
1.0
  9
$ATTMODE
 70
     1
  9
$TEXTSIZE
 40
0.2
  9
$TRACEWID
 40
0.05
  9
$TEXTSTYLE
  7
Standard
  9
$CLAYER
  8
0
  9
$CELTYPE
  6
ByLayer
  9
$CECOLOR
 62
   256
  9
$CELTSCALE
 40
1.0
  9
$DISPSILH
 70
     0
  9
$DIMSCALE
 40
1.0
  9
$DIMASZ
 40
0.18
  9
$DIMEXO
 40
0.0625
  9
$DIMDLI
 40
0.38
  9
$DIMRND
 40
0.0
  9
$DIMDLE
 40
0.0
  9
$DIMEXE
 40
0.18
  9
$DIMTP
 40
0.0
  9
$DIMTM
 40
0.0
  9
$DIMTXT
 40
0.18
  9
$DIMCEN
 40
0.09
  9
$DIMTSZ
 40
0.0
  9
$DIMTOL
 70
     0
  9
$DIMLIM
 70
     0
  9
$DIMTIH
 70
     1
  9
$DIMTOH
 70
     1
  9
$DIMSE1
 70
     0
  9
$DIMSE2
 70
     0
  9
$DIMTAD
 70
     0
  9
$DIMZIN
 70
     0
  9
$DIMBLK
  1

  9
$DIMASO
 70
     1
  9
$DIMSHO
 70
     1
  9
$DIMPOST
  1

  9
$DIMAPOST
  1

  9
$DIMALT
 70
     0
  9
$DIMALTD
 70
     2
  9
$DIMALTF
 40
25.4
  9
$DIMLFAC
 40
1.0
  9
$DIMTOFL
 70
     0
  9
$DIMTVP
 40
0.0
  9
$DIMTIX
 70
     0
  9
$DIMSOXD
 70
     0
  9
$DIMSAH
 70
     0
  9
$DIMBLK1
  1

  9
$DIMBLK2
  1

  9
$DIMSTYLE
  2
Standard
  9
$DIMCLRD
 70
     0
  9
$DIMCLRE
 70
     0
  9
$DIMCLRT
 70
     0
  9
$DIMTFAC
 40
1.0
  9
$DIMGAP
 40
0.09
  9
$DIMJUST
 70
     0
  9
$DIMSD1
 70
     0
  9
$DIMSD2
 70
     0
  9
$DIMTOLJ
 70
     1
  9
$DIMTZIN
 70
     0
  9
$DIMALTZ
 70
     0
  9
$DIMALTTZ
 70
     0
  9
$DIMUPT
 70
     0
  9
$DIMDEC
 70
     4
  9
$DIMTDEC
 70
     4
  9
$DIMALTU
 70
     2
  9
$DIMALTTD
 70
     2
  9
$DIMTXSTY
  7
Standard
  9
$DIMAUNIT
 70
     0
  9
$DIMADEC
 70
     0
  9
$DIMALTRND
 40
0.0
  9
$DIMAZIN
 70
     0
  9
$DIMDSEP
 70
    46
  9
$DIMATFIT
 70
     3
  9
$DIMFRAC
 70
     0
  9
$DIMLDRBLK
  1

  9
$DIMLUNIT
 70
     2
  9
$DIMLWD
 70
    -2
  9
$DIMLWE
 70
    -2
  9
$DIMTMOVE
 70
     0
  9
$LUNITS
 70
     2
  9
$LUPREC
 70
     4
  9
$SKETCHINC
 40
0.1
  9
$FILLETRAD
 40
0.5
  9
$AUNITS
 70
     0
  9
$AUPREC
 70
     0
  9
$MENU
  1
.
  9
$ELEVATION
 40
0.0
  9
$PELEVATION
 40
0.0
  9
$THICKNESS
 40
0.0
  9
$LIMCHECK
 70
     0
  9
$CHAMFERA
 40
0.5
  9
$CHAMFERB
 40
0.5
  9
$CHAMFERC
 40
1.0
  9
$CHAMFERD
 40
0.0
  9
$SKPOLY
 70
     0
  9
$TDCREATE
 40
2458054.578137708
  9
$TDUCREATE
 40
2458054.494804375
  9
$TDUPDATE
 40
2458054.578138252
  9
$TDUUPDATE
 40
2458054.494804919
  9
$TDINDWG
 40
0.0000000116
  9
$TDUSRTIMER
 40
0.0000000116
  9
$USRTIMER
 70
     1
  9
$ANGBASE
 50
0.0
  9
$ANGDIR
 70
     0
  9
$PDMODE
 70
     0
  9
$PDSIZE
 40
0.0
  9
$PLINEWID
 40
0.0
  9
$SPLFRAME
 70
     0
  9
$SPLINETYPE
 70
     6
  9
$SPLINESEGS
 70
     8
  9
$HANDSEED
  5
301
  9
$SURFTAB1
 70
     6
  9
$SURFTAB2
 70
     6
  9
$SURFTYPE
 70
     6
  9
$SURFU
 70
     6
  9
$SURFV
 70
     6
  9
$UCSBASE
  2

  9
$UCSNAME
  2

  9
$UCSORG
 10
0.0
 20
0.0
 30
0.0
  9
$UCSXDIR
 10
1.0
 20
0.0
 30
0.0
  9
$UCSYDIR
 10
0.0
 20
1.0
 30
0.0
  9
$UCSORTHOREF
  2

  9
$UCSORTHOVIEW
 70
     0
  9
$UCSORGTOP
 10
0.0
 20
0.0
 30
0.0
  9
$UCSORGBOTTOM
 10
0.0
 20
0.0
 30
0.0
  9
$UCSORGLEFT
 10
0.0
 20
0.0
 30
0.0
  9
$UCSORGRIGHT
 10
0.0
 20
0.0
 30
0.0
  9
$UCSORGFRONT
 10
0.0
 20
0.0
 30
0.0
  9
$UCSORGBACK
 10
0.0
 20
0.0
 30
0.0
  9
$PUCSBASE
  2

  9
$PUCSNAME
  2

  9
$PUCSORG
 10
0.0
 20
0.0
 30
0.0
  9
$PUCSXDIR
 10
1.0
 20
0.0
 30
0.0
  9
$PUCSYDIR
 10
0.0
 20
1.0
 30
0.0
  9
$PUCSORTHOREF
  2

  9
$PUCSORTHOVIEW
 70
     0
  9
$PUCSORGTOP
 10
0.0
 20
0.0
 30
0.0
  9
$PUCSORGBOTTOM
 10
0.0
 20
0.0
 30
0.0
  9
$PUCSORGLEFT
 10
0.0
 20
0.0
 30
0.0
  9
$PUCSORGRIGHT
 10
0.0
 20
0.0
 30
0.0
  9
$PUCSORGFRONT
 10
0.0
 20
0.0
 30
0.0
  9
$PUCSORGBACK
 10
0.0
 20
0.0
 30
0.0
  9
$USERI1
 70
     0
  9
$USERI2
 70
     0
  9
$USERI3
 70
     0
  9
$USERI4
 70
     0
  9
$USERI5
 70
     0
  9
$USERR1
 40
18.1
  9
$USERR2
 40
0.0
  9
$USERR3
 40
0.0
  9
$USERR4
 40
0.0
  9
$USERR5
 40
0.0
  9
$WORLDVIEW
 70
     1
  9
$SHADEDGE
 70
     3
  9
$SHADEDIF
 70
    70
  9
$TILEMODE
 70
     1
  9
$MAXACTVP
 70
    64
  9
$PINSBASE
 10
0.0
 20
0.0
 30
0.0
  9
$PLIMCHECK
 70
     0
  9
$PEXTMIN
 10
1.00000000000000E+20
 20
1.00000000000000E+20
 30
1.00000000000000E+20
  9
$PEXTMAX
 10
-1.00000000000000E+20
 20
-1.00000000000000E+20
 30
-1.00000000000000E+20
  9
$PLIMMIN
 10
0.0
 20
0.0
  9
$PLIMMAX
 10
12.0
 20
9.0
  9
$UNITMODE
 70
     0
  9
$VISRETAIN
 70
     1
  9
$PLINEGEN
 70
     0
  9
$PSLTSCALE
 70
     1
  9
$TREEDEPTH
 70
  3020
  9
$CMLSTYLE
  2
Standard
  9
$CMLJUST
 70
     0
  9
$CMLSCALE
 40
1.0
  9
$PROXYGRAPHICS
 70
     1
  9
$MEASUREMENT
 70
     1
  9
$CELWEIGHT
370
    -1
  9
$ENDCAPS
280
     0
  9
$JOINSTYLE
280
     0
  9
$LWDISPLAY
290
     0
  9
$INSUNITS
 70
     4
  9
$HYPERLINKBASE
  1

  9
$STYLESHEET
  1

  9
$XEDIT
290
     1
  9
$CEPSNTYPE
380
     0
  9
$PSTYLEMODE
290
     1
  9
$FINGERPRINTGUID
  2
{9B23BF01-BD06-4A73-9BB8-B0D9F3ECFAE2}
  9
$VERSIONGUID
  2
{FAEB1C32-E019-11D5-929B-00C0DF256EC4}
  9
$EXTNAMES
290
     1
  9
$PSVPSCALE
 40
0.0
  9
$OLESTARTUP
290
     0
  9
$SORTENTS
280
   127
  9
$INDEXCTL
280
     0
  9
$HIDETEXT
280
     1
  9
$XCLIPFRAME
290
     0
  9
$HALOGAP
280
     0
  9
$OBSCOLOR
 70
   257
  9
$OBSLTYPE
280
     0
  9
$INTERSECTIONDISPLAY
280
     0
  9
$INTERSECTIONCOLOR
 70
   257
  9
$DIMASSOC
280
     2
  9
$PROJECTNAME
  1

  0
ENDSEC
  0
SECTION
  2
CLASSES
  0
CLASS
  1
ACDBDICTIONARYWDFLT
  2
AcDbDictionaryWithDefault
  3
ObjectDBX Classes
 90
        0
 91
        4
280
     0
281
     0
  0
CLASS
  1
VISUALSTYLE
  2
AcDbVisualStyle
  3
ObjectDBX Classes
 90
     4095
 91
        4
280
     0
281
     0
  0
CLASS
  1
MATERIAL
  2
AcDbMaterial
  3
ObjectDBX Classes
 90
     1153
 91
        4
280
     0
281
     0
  0
ENDSEC
  0
SECTION
  2
TABLES
  0
TABLE
  2
VPORT
  5
8
330
0
100
AcDbSymbolTable
 70
     1
  0
VPORT
  5
29
330
8
100
AcDbSymbolTableRecord
100
AcDbViewportTableRecord
  2
*Active
 70
     0
 10
0.0
 20
0.0
 11
1.0
 21
1.0
 12
74.02176587401476
 22
428.0003735557129
 13
0.0
 23
0.0
 14
0.5
 24
0.5
 15
0.5
 25
0.5
 16
0.0
 26
0.0
 36
1.0
 17
0.0
 27
0.0
 37
0.0
 40
231.0000000000001
 41
1.60267857142857
 42
50.0
 43
0.0
 44
0.0
 50
0.0
 51
0.0
 71
     0
 72
   100
 73
     1
 74
     3
 75
     0
 76
     0
 77
     0
 78
     0
281
     0
 65
     1
110
0.0
120
0.0
130
0.0
111
1.0
121
0.0
131
0.0
112
0.0
122
1.0
132
0.0
 79
     0
146
0.0
  0
ENDTAB
  0
TABLE
  2
LTYPE
  5
5
330
0
100
AcDbSymbolTable
 70
     8
  0
LTYPE
  5
14
330
5
100
AcDbSymbolTableRecord
100
AcDbLinetypeTableRecord
  2
ByBlock
 70
     0
  3

 72
    65
 73
     0
 40
0.0
  0
LTYPE
  5
15
330
5
100
AcDbSymbolTableRecord
100
AcDbLinetypeTableRecord
  2
ByLayer
 70
     0
  3

 72
    65
 73
     0
 40
0.0
  0
LTYPE
  5
16
330
5
100
AcDbSymbolTableRecord
100
AcDbLinetypeTableRecord
  2
Continuous
 70
     0
  3
Solid line
 72
    65
 73
     0
 40
0.0
  0
LTYPE
  5
3F
330
5
100
AcDbSymbolTableRecord
100
AcDbLinetypeTableRecord
  2
DASHED
 70
     0
  3
Dashed
 72
    65
 73
     2
 40
15.0
 49
7.0
 74
     0
 49
-8.0
 74
     0
  0
LTYPE
  5
40
330
5
100
AcDbSymbolTableRecord
100
AcDbLinetypeTableRecord
  2
DOTTED
 70
     0
  3
Dotted
 72
    65
 73
     2
 40
1.0
 49
0.0
 74
     0
 49
-1.0
 74
     0
  0
LTYPE
  5
41
330
5
100
AcDbSymbolTableRecord
100
AcDbLinetypeTableRecord
  2
DOT_CENTER
 70
     0
  3
Dot_Center
 72
    65
 73
     4
 40
14.0
 49
12.0
 74
     0
 49
-1.0
 74
     0
 49
0.0
 74
     0
 49
-1.0
 74
     0
  0
LTYPE
  5
42
330
5
100
AcDbSymbolTableRecord
100
AcDbLinetypeTableRecord
  2
LONG_DASHED
 70
     0
  3
Long_Dashed
 72
    65
 73
     2
 40
15.0
 49
10.0
 74
     0
 49
-5.0
 74
     0
  0
LTYPE
  5
43
330
5
100
AcDbSymbolTableRecord
100
AcDbLinetypeTableRecord
  2
DASH_CENTER
 70
     0
  3
Dash_Center
 72
    65
 73
     4
 40
14.0
 49
11.0
 74
     0
 49
-1.0
 74
     0
 49
1.0
 74
     0
 49
-1.0
 74
     0
  0
LTYPE
  5
44
330
5
100
AcDbSymbolTableRecord
100
AcDbLinetypeTableRecord
  2
PHANTOM
 70
     0
  3
Phantom
 72
    65
 73
     6
 40
13.0
 49
10.0
 74
     0
 49
-1.0
 74
     0
 49
0.0
 74
     0
 49
-1.0
 74
     0
 49
0.0
 74
     0
 49
-1.0
 74
     0
  0
LTYPE
  5
45
330
5
100
AcDbSymbolTableRecord
100
AcDbLinetypeTableRecord
  2
CENTER_DASH_DASH
 70
     0
  3
Center_Dash_Dash
 72
    65
 73
     6
 40
14.0
 49
9.0
 74
     0
 49
-1.0
 74
     0
 49
1.0
 74
     0
 49
-1.0
 74
     0
 49
1.0
 74
     0
 49
-1.0
 74
     0
  0
ENDTAB
  0
TABLE
  2
LAYER
  5
2
330
0
100
AcDbSymbolTable
 70
     2
  0
LAYER
  5
10
330
2
100
AcDbSymbolTableRecord
100
AcDbLayerTableRecord
  2
0
 70
     0
 62
     7
  6
Continuous
370
    -3
390
F
  0
LAYER
  5
46
330
2
100
AcDbSymbolTableRecord
100
AcDbLayerTableRecord
  2
1
 70
     0
 62
     7
  6
Continuous
370
    -3
390
F
  0
ENDTAB
  0
TABLE
  2
STYLE
  5
3
330
0
100
AcDbSymbolTable
 70
     5
  0
STYLE
  5
11
330
3
100
AcDbSymbolTableRecord
100
AcDbTextStyleTableRecord
  2
Standard
 70
     0
 40
0.0
 41
1.0
 50
0.0
 71
     0
 42
0.2
  3
txt
  4

  0
STYLE
  5
CF
330
3
100
AcDbSymbolTableRecord
100
AcDbTextStyleTableRecord
  2
CONVERTER_11
 70
     0
 40
0.0
 41
0.9
 50
0.0
 71
     0
 42
0.2
  3
txt.shx
  4

  0
STYLE
  5
297
330
3
100
AcDbSymbolTableRecord
100
AcDbTextStyleTableRecord
  2
CONVERTER_12
 70
     0
 40
0.0
 41
0.81
 50
0.0
 71
     0
 42
0.2
  3
txt.shx
  4

  0
STYLE
  5
29D
330
3
100
AcDbSymbolTableRecord
100
AcDbTextStyleTableRecord
  2
CONVERTER_13
 70
     0
 40
0.0
 41
0.855
 50
0.0
 71
     0
 42
0.2
  3
txt.shx
  4

  0
STYLE
  5
2A0
330
3
100
AcDbSymbolTableRecord
100
AcDbTextStyleTableRecord
  2
CONVERTER_14
 70
     0
 40
0.0
 41
0.72
 50
0.0
 71
     0
 42
0.2
  3
txt.shx
  4

  0
ENDTAB
  0
TABLE
  2
VIEW
  5
6
330
0
100
AcDbSymbolTable
 70
     0
  0
ENDTAB
  0
TABLE
  2
UCS
  5
7
330
0
100
AcDbSymbolTable
 70
     0
  0
ENDTAB
  0
TABLE
  2
APPID
  5
9
330
0
100
AcDbSymbolTable
 70
     1
  0
APPID
  5
12
330
9
100
AcDbSymbolTableRecord
100
AcDbRegAppTableRecord
  2
ACAD
 70
     0
  0
ENDTAB
  0
TABLE
  2
DIMSTYLE
  5
A
330
0
100
AcDbSymbolTable
 70
     6
100
AcDbDimStyleTable
  0
DIMSTYLE
105
27
330
A
100
AcDbSymbolTableRecord
100
AcDbDimStyleTableRecord
  2
Standard
 70
     0
178
     0
340
11
  0
DIMSTYLE
105
FD
102
{ACAD_REACTORS
330
FE
102
}
330
A
100
AcDbSymbolTableRecord
100
AcDbDimStyleTableRecord
  2
ME10_DIM_10
 70
     0
 41
1.75
 42
0.0
 44
0.75
 73
     0
 74
     0
 77
     1
 78
     8
140
1.75
147
0.75
172
     1
173
     1
174
     1
175
     1
176
     2
177
     2
178
     3
340
CF
  0
DIMSTYLE
105
173
102
{ACAD_REACTORS
330
174
102
}
330
A
100
AcDbSymbolTableRecord
100
AcDbDimStyleTableRecord
  2
ME10_DIM_11
 70
     0
 41
1.75
 42
0.0
 44
0.75
 73
     0
 74
     0
 77
     1
 78
     8
140
1.75
147
0.75
172
     1
173
     1
174
     1
175
     1
176
     2
177
     2
271
     2
178
     3
271
     2
340
CF
  0
DIMSTYLE
105
17E
102
{ACAD_REACTORS
330
17F
102
}
330
A
100
AcDbSymbolTableRecord
100
AcDbDimStyleTableRecord
  2
ME10_DIM_12
 70
     0
 41
1.75
 42
0.0
 44
0.75
 73
     0
 74
     0
 77
     1
 78
     8
140
1.75
147
0.75
172
     1
173
     1
174
     1
175
     1
176
     2
177
     2
271
     2
178
     3
271
     2
340
CF
  0
DIMSTYLE
105
189
102
{ACAD_REACTORS
330
18A
102
}
330
A
100
AcDbSymbolTableRecord
100
AcDbDimStyleTableRecord
  2
ME10_DIM_13
 70
     0
 41
1.75
 42
0.0
 44
0.75
 73
     0
 74
     0
 77
     1
 78
     8
140
1.75
147
0.75
172
     1
173
     1
174
     1
175
     1
176
     2
177
     2
178
     3
340
CF
  0
DIMSTYLE
105
194
102
{ACAD_REACTORS
330
195
102
}
330
A
100
AcDbSymbolTableRecord
100
AcDbDimStyleTableRecord
  2
ME10_DIM_14
 70
     0
 41
1.75
 42
0.0
 44
0.75
 73
     0
 74
     0
 77
     1
 78
     8
140
1.75
147
0.75
172
     1
173
     1
174
     1
175
     1
176
     2
177
     2
178
     3
340
CF
  0
ENDTAB
  0
TABLE
  2
BLOCK_RECORD
  5
1
330
0
100
AcDbSymbolTable
 70
    23
  0
BLOCK_RECORD
  5
1F
330
1
100
AcDbSymbolTableRecord
100
AcDbBlockTableRecord
  2
*Model_Space
340
22
  0
BLOCK_RECORD
  5
1B
330
1
100
AcDbSymbolTableRecord
100
AcDbBlockTableRecord
  2
*Paper_Space
340
1E
  0
BLOCK_RECORD
  5
23
330
1
100
AcDbSymbolTableRecord
100
AcDbBlockTableRecord
  2
*Paper_Space0
340
26
  0
BLOCK_RECORD
  5
47
330
1
100
AcDbSymbolTableRecord
100
AcDbBlockTableRecord
  2
MBK-select__1
340
0
102
{BLKREFS
331
4B
102
}
  0
BLOCK_RECORD
  5
4A
330
1
100
AcDbSymbolTableRecord
100
AcDbBlockTableRecord
  2
Allg1
340
0
102
{BLKREFS
331
7D
102
}
  0
BLOCK_RECORD
  5
4E
330
1
100
AcDbSymbolTableRecord
100
AcDbBlockTableRecord
  2
MBK-select__2
340
0
102
{BLKREFS
331
52
102
}
  0
BLOCK_RECORD
  5
51
330
1
100
AcDbSymbolTableRecord
100
AcDbBlockTableRecord
  2
Drfsicht1
340
0
102
{BLKREFS
331
7E
102
}
  0
BLOCK_RECORD
  5
55
330
1
100
AcDbSymbolTableRecord
100
AcDbBlockTableRecord
  2
MBK-select__3
340
0
102
{BLKREFS
331
59
102
}
  0
BLOCK_RECORD
  5
58
330
1
100
AcDbSymbolTableRecord
100
AcDbBlockTableRecord
  2
Rckans1
340
0
102
{BLKREFS
331
7F
102
}
  0
BLOCK_RECORD
  5
5C
330
1
100
AcDbSymbolTableRecord
100
AcDbBlockTableRecord
  2
MBK-select__4
340
0
102
{BLKREFS
331
60
102
}
  0
BLOCK_RECORD
  5
5F
330
1
100
AcDbSymbolTableRecord
100
AcDbBlockTableRecord
  2
SA_Links1
340
0
102
{BLKREFS
331
80
102
}
  0
BLOCK_RECORD
  5
63
330
1
100
AcDbSymbolTableRecord
100
AcDbBlockTableRecord
  2
MBK-select__5
340
0
102
{BLKREFS
331
67
102
}
  0
BLOCK_RECORD
  5
66
330
1
100
AcDbSymbolTableRecord
100
AcDbBlockTableRecord
  2
SA_Rechts1
340
0
102
{BLKREFS
331
81
102
}
  0
BLOCK_RECORD
  5
6A
330
1
100
AcDbSymbolTableRecord
100
AcDbBlockTableRecord
  2
MBK-select__6
340
0
102
{BLKREFS
331
6E
102
}
  0
BLOCK_RECORD
  5
6D
330
1
100
AcDbSymbolTableRecord
100
AcDbBlockTableRecord
  2
Vordans1
340
0
102
{BLKREFS
331
82
102
}
  0
BLOCK_RECORD
  5
71
330
1
100
AcDbSymbolTableRecord
100
AcDbBlockTableRecord
  2
_rahmen
340
0
102
{BLKREFS
331
78
102
}
  0
BLOCK_RECORD
  5
74
330
1
100
AcDbSymbolTableRecord
100
AcDbBlockTableRecord
  2
_punkt
340
0
102
{BLKREFS
331
79
102
}
  0
BLOCK_RECORD
  5
77
330
1
100
AcDbSymbolTableRecord
100
AcDbBlockTableRecord
  2
A4I_CS
340
0
102
{BLKREFS
331
83
102
}
  0
BLOCK_RECORD
  5
7C
330
1
100
AcDbSymbolTableRecord
100
AcDbBlockTableRecord
  2
1
340
0
102
{BLKREFS
331
86
102
}
  0
BLOCK_RECORD
  5
F4
330
1
100
AcDbSymbolTableRecord
100
AcDbBlockTableRecord
  2
*D17
340
0
  0
BLOCK_RECORD
  5
16A
330
1
100
AcDbSymbolTableRecord
100
AcDbBlockTableRecord
  2
*D18
340
0
  0
BLOCK_RECORD
  5
175
330
1
100
AcDbSymbolTableRecord
100
AcDbBlockTableRecord
  2
*D19
340
0
  0
BLOCK_RECORD
  5
180
330
1
100
AcDbSymbolTableRecord
100
AcDbBlockTableRecord
  2
*D20
340
0
  0
BLOCK_RECORD
  5
18B
330
1
100
AcDbSymbolTableRecord
100
AcDbBlockTableRecord
  2
*D21
340
0
  0
BLOCK_RECORD
  5
196
330
1
100
AcDbSymbolTableRecord
100
AcDbBlockTableRecord
  2
*D22
340
0
102
{BLKREFS
331
19F
102
}
  0
ENDTAB
  0
ENDSEC
  0
SECTION
  2
BLOCKS
  0
BLOCK
  5
20
330
1F
100
AcDbEntity
  8
0
100
AcDbBlockBegin
  2
*Model_Space
 70
     0
 10
0.0
 20
0.0
 30
0.0
  3
*Model_Space
  1

  0
ENDBLK
  5
21
330
1F
100
AcDbEntity
  8
0
100
AcDbBlockEnd
  0
BLOCK
  5
1C
330
1B
100
AcDbEntity
 67
     1
  8
0
100
AcDbBlockBegin
  2
*Paper_Space
 70
     0
 10
0.0
 20
0.0
 30
0.0
  3
*Paper_Space
  1

  0
ENDBLK
  5
1D
330
1B
100
AcDbEntity
 67
     1
  8
0
100
AcDbBlockEnd
  0
BLOCK
  5
24
330
23
100
AcDbEntity
  8
0
100
AcDbBlockBegin
  2
*Paper_Space0
 70
     0
 10
0.0
 20
0.0
 30
0.0
  3
*Paper_Space0
  1

  0
ENDBLK
  5
25
330
23
100
AcDbEntity
  8
0
100
AcDbBlockEnd
  0
BLOCK
  5
48
330
47
100
AcDbEntity
  8
0
100
AcDbBlockBegin
  2
MBK-select__1
 70
     0
 10
66.50926898895877
 20
184.7643333624034
 30
0.0
  3
MBK-select__1
  1

  0
LINE
  5
87
330
47
100
AcDbEntity
  8
0
  6
Continuous
 62
     7
100
AcDbLine
 10
86.23988903939293
 20
188.5262657947964
 30
0.0
 11
86.54352838726444
 21
204.2329336606201
 31
0.0
  0
LINE
  5
88
330
47
100
AcDbEntity
  8
0
  6
Continuous
 62
     7
100
AcDbLine
 10
85.05071287818876
 20
187.3305566910248
 30
0.0
 11
85.06087335053294
 21
187.8561379952556
 31
0.0
  0
LINE
  5
89
330
47
100
AcDbEntity
  8
0
  6
Continuous
 62
     7
100
AcDbLine
 10
81.73259003348187
 20
186.1622124468103
 30
0.0
 11
81.24808977201741
 21
186.3946266841912
 31
0.0
  0
LINE
  5
8A
330
47
100
AcDbEntity
  8
0
  6
Continuous
 62
     7
100
AcDbLine
 10
81.24808977201741
 20
186.3946266841912
 30
0.0
 11
81.26789233818295
 21
187.4189745884841
 31
0.0
  0
LINE
  5
8B
330
47
100
AcDbEntity
  8
0
  6
Continuous
 62
     7
100
AcDbLine
 10
81.26789233818295
 20
187.4189745884841
 30
0.0
 11
82.90773937698546
 21
186.6323417850413
 31
0.0
  0
LINE
  5
8C
330
47
100
AcDbEntity
  8
0
  6
Continuous
 62
     2
100
AcDbLine
 10
81.71856321578127
 20
185.4366326812696
 30
0.0
 11
85.05071287818876
 21
187.3305566910248
 31
0.0
  0
LINE
  5
8D
330
47
100
AcDbEntity
  8
0
  6
Continuous
 62
     7
100
AcDbLine
 10
86.23988903939293
 20
188.5262657947964
 30
0.0
 11
82.90773937698546
 21
186.6323417850413
 31
0.0
  0
LINE
  5
8E
330
47
100
AcDbEntity
  8
0
  6
Continuous
 62
     7
100
AcDbLine
 10
80.46117052955864
 20
188.4951895930673
 30
0.0
 11
80.43971774954599
 21
187.3854793634168
 31
0.0
  0
LINE
  5
8F
330
47
100
AcDbEntity
  8
0
  6
Continuous
 62
     7
100
AcDbLine
 10
82.2345118205016
 20
186.9552882962589
 30
0.0
 11
81.24808977201741
 21
186.3946266841912
 31
0.0
  0
LINE
  5
90
330
47
100
AcDbEntity
  8
0
  6
Continuous
 62
     7
100
AcDbLine
 10
81.42963031369672
 20
184.8480367621325
 30
0.0
 11
84.76177997610421
 21
186.7419607718877
 31
0.0
  0
LINE
  5
91
330
47
100
AcDbEntity
  8
0
  6
Continuous
 62
     7
100
AcDbLine
 10
71.16016093983305
 20
210.2153769407627
 30
0.0
 11
70.41477592219546
 21
210.572937305964
 31
0.0
  0
LINE
  5
92
330
47
100
AcDbEntity
  8
0
  6
Continuous
 62
     7
100
AcDbLine
 10
70.41477592219546
 20
210.572937305964
 30
0.0
 11
70.40139724432332
 21
209.8808845423985
 31
0.0
  0
LINE
  5
93
330
47
100
AcDbEntity
  8
0
  6
Continuous
 62
     7
100
AcDbLine
 10
70.41477592219546
 20
210.572937305964
 30
0.0
 11
69.74834598971398
 21
210.194152504013
 31
0.0
  0
LINE
  5
94
330
47
100
AcDbEntity
  8
0
  6
Continuous
 62
     7
100
AcDbLine
 10
70.49373100735156
 20
209.8365921388116
 30
0.0
 11
71.16016093983305
 21
210.2153769407627
 31
0.0
  0
LINE
  5
95
330
47
100
AcDbEntity
  8
0
  6
Continuous
 62
     7
100
AcDbLine
 10
71.65687547518252
 20
192.261686062863
 30
0.0
 11
69.05623902091281
 21
190.7835388244742
 31
0.0
  0
LINE
  5
96
330
47
100
AcDbEntity
  8
0
  6
Continuous
 62
     7
100
AcDbLine
 10
68.12931346159591
 20
192.6876891117342
 30
0.0
 11
67.64481320013145
 21
192.920103349115
 31
0.0
  0
LINE
  5
97
330
47
100
AcDbEntity
  8
0
  6
Continuous
 62
     7
100
AcDbLine
 10
67.64481320013145
 20
192.920103349115
 30
0.0
 11
68.13923913416963
 21
193.2011246844064
 31
0.0
  0
LINE
  5
98
330
47
100
AcDbEntity
  8
0
  6
Continuous
 62
     7
100
AcDbLine
 10
69.74834598971398
 20
210.194152504013
 30
0.0
 11
70.49373100735156
 21
209.8365921388116
 31
0.0
  0
LINE
  5
99
330
47
100
AcDbEntity
  8
0
  6
Continuous
 62
     7
100
AcDbLine
 10
69.34517192299737
 20
191.3721347436112
 30
0.0
 11
69.37075023762785
 21
192.6952507866563
 31
0.0
  0
LINE
  5
9A
330
47
100
AcDbEntity
  8
0
  6
Continuous
 62
     2
100
AcDbLine
 10
71.66517053656086
 20
192.6907733169015
 30
0.0
 11
69.34517192299737
 21
191.3721347436112
 31
0.0
  0
LINE
  5
9B
330
47
100
AcDbEntity
  8
0
  6
Continuous
 62
     7
100
AcDbLine
 10
76.63874108705917
 20
207.5873081281705
 30
0.0
 11
75.97231115457768
 21
207.2085233262195
 31
0.0
  0
LINE
  5
9C
330
47
100
AcDbEntity
  8
0
  6
Continuous
 62
     7
100
AcDbLine
 10
69.37075023762785
 20
192.6952507866563
 30
0.0
 11
70.43937412348559
 21
193.3026341997295
 31
0.0
  0
LINE
  5
9D
330
47
100
AcDbEntity
  8
0
  6
Continuous
 62
     7
100
AcDbLine
 10
68.96078847792712
 20
192.891908987517
 30
0.0
 11
68.98224125793979
 21
194.0016192171675
 31
0.0
  0
LINE
  5
9E
330
47
100
AcDbEntity
  8
0
  6
Continuous
 62
     7
100
AcDbLine
 10
69.37075023762785
 20
192.6952507866563
 30
0.0
 11
68.96078847792712
 21
192.891908987517
 31
0.0
  0
LINE
  5
9F
330
47
100
AcDbEntity
  8
0
  6
Continuous
 62
     7
100
AcDbLine
 10
68.98224125793979
 20
194.0016192171675
 30
0.0
 11
71.66562732143504
 21
192.7144019024428
 31
0.0
  0
LINE
  5
A0
330
47
100
AcDbEntity
  8
0
  6
Continuous
 62
     7
100
AcDbLine
 10
70.0294123637849
 20
193.4992924005903
 30
0.0
 11
68.96078847792712
 21
192.891908987517
 31
0.0
  0
LINE
  5
A1
330
47
100
AcDbEntity
  8
0
  6
Continuous
 62
     7
100
AcDbLine
 10
76.63874108705917
 20
207.5873081281705
 30
0.0
 11
76.62536240918703
 21
206.895255364605
 31
0.0
  0
LINE
  5
A2
330
47
100
AcDbEntity
  8
0
  6
Continuous
 62
     7
100
AcDbLine
 10
68.14911602776144
 20
193.7120370160271
 30
0.0
 11
68.12931346159591
 21
192.6876891117342
 31
0.0
  0
LINE
  5
A3
330
47
100
AcDbEntity
  8
0
  6
Continuous
 62
     7
100
AcDbLine
 10
66.50926898895877
 20
194.49866981947
 30
0.0
 11
68.14911602776144
 21
193.7120370160271
 31
0.0
  0
LINE
  5
A4
330
47
100
AcDbEntity
  8
0
  6
Continuous
 62
     7
100
AcDbLine
 10
77.38412556951712
 20
207.2297480196942
 30
0.0
 11
76.63874108705917
 21
207.5873081281705
 31
0.0
  0
LINE
  5
A5
330
47
100
AcDbEntity
  8
0
  6
Continuous
 62
     7
100
AcDbLine
 10
76.71769563703563
 20
206.8509632177432
 30
0.0
 11
77.38412556951712
 21
207.2297480196942
 31
0.0
  0
LINE
  5
A6
330
47
100
AcDbEntity
  8
0
  6
Continuous
 62
     7
100
AcDbLine
 10
71.66562732143504
 20
192.7144019024428
 30
0.0
 11
71.60621962293843
 21
189.6413581895644
 31
0.0
  0
LINE
  5
A7
330
47
100
AcDbEntity
  8
0
  6
Continuous
 62
     7
100
AcDbLine
 10
75.97231115457768
 20
207.2085233262195
 30
0.0
 11
76.71769563703563
 21
206.8509632177432
 31
0.0
  0
LINE
  5
A8
330
47
100
AcDbEntity
  8
0
  6
Continuous
 62
     7
100
AcDbLine
 10
77.71837676756664
 20
186.7093631949136
 30
0.0
 11
77.77778446606325
 21
189.7824069077921
 31
0.0
  0
LINE
  5
A9
330
47
100
AcDbEntity
  8
0
  6
Continuous
 62
     7
100
AcDbLine
 10
71.60621962293843
 20
189.6413581895644
 30
0.0
 11
77.71837676756664
 21
186.7093631949136
 31
0.0
  0
LINE
  5
AA
330
47
100
AcDbEntity
  8
0
  6
Continuous
 62
     7
100
AcDbLine
 10
67.64481320013145
 20
192.920103349115
 30
0.0
 11
67.63078638243087
 21
192.1945235835744
 31
0.0
  0
LINE
  5
AB
330
47
100
AcDbEntity
  8
0
  6
Continuous
 62
     7
100
AcDbLine
 10
66.50926898895877
 20
194.49866981947
 30
0.0
 11
66.81290833683026
 21
210.2053376852936
 31
0.0
  0
LINE
  5
AC
330
47
100
AcDbEntity
  8
0
  6
Continuous
 62
     7
100
AcDbLine
 10
77.77778446606325
 20
189.7824069077921
 30
0.0
 11
80.46117052955864
 21
188.4951895930673
 31
0.0
  0
LINE
  5
AD
330
47
100
AcDbEntity
  8
0
  6
Continuous
 62
     7
100
AcDbLine
 10
83.21137872485697
 20
202.3390096508649
 30
0.0
 11
66.81290833683026
 21
210.2053376852936
 31
0.0
  0
LINE
  5
AE
330
47
100
AcDbEntity
  8
0
  6
Continuous
 62
     7
100
AcDbLine
 10
66.81290833683026
 20
210.2053376852936
 30
0.0
 11
70.14505799923774
 21
212.0992616950488
 31
0.0
  0
LINE
  5
AF
330
47
100
AcDbEntity
  8
0
  6
Continuous
 62
     7
100
AcDbLine
 10
80.43971774954599
 20
187.3854793634168
 30
0.0
 11
80.02975598984531
 21
187.5821375642775
 31
0.0
  0
LINE
  5
B0
330
47
100
AcDbEntity
  8
0
  6
Continuous
 62
     7
100
AcDbLine
 10
80.02975598984531
 20
187.5821375642775
 30
0.0
 11
80.44811639556991
 21
187.8199248479857
 31
0.0
  0
LINE
  5
B1
330
47
100
AcDbEntity
  8
0
  6
Continuous
 62
     7
100
AcDbLine
 10
80.02975598984531
 20
187.5821375642775
 30
0.0
 11
80.00417767521479
 21
186.2590215212326
 31
0.0
  0
LINE
  5
B2
330
47
100
AcDbEntity
  8
0
  6
Continuous
 62
     7
100
AcDbLine
 10
80.45673578685494
 20
188.2657890519121
 30
0.0
 11
77.71837676756664
 21
186.7093631949136
 31
0.0
  0
LINE
  5
B3
330
47
100
AcDbEntity
  8
0
  6
Continuous
 62
     7
100
AcDbLine
 10
82.86270571674315
 20
204.6016792071021
 30
0.0
 11
82.84932703887101
 21
203.9096264435366
 31
0.0
  0
LINE
  5
B4
330
47
100
AcDbEntity
  8
0
  6
Continuous
 62
     7
100
AcDbLine
 10
82.86270571674315
 20
204.6016792071021
 30
0.0
 11
82.19627578426167
 21
204.222894405151
 31
0.0
  0
LINE
  5
B5
330
47
100
AcDbEntity
  8
0
  6
Continuous
 62
     7
100
AcDbLine
 10
83.60809073438074
 20
204.2441188419008
 30
0.0
 11
82.86270571674315
 21
204.6016792071021
 31
0.0
  0
LINE
  5
B6
330
47
100
AcDbEntity
  8
0
  6
Continuous
 62
     7
100
AcDbLine
 10
82.94166080189925
 20
203.8653340399497
 30
0.0
 11
83.60809073438074
 21
204.2441188419008
 31
0.0
  0
LINE
  5
B7
330
47
100
AcDbEntity
  8
0
  6
Continuous
 62
     7
100
AcDbLine
 10
81.73259003348187
 20
186.1622124468103
 30
0.0
 11
82.71901208196607
 21
186.722874058878
 31
0.0
  0
LINE
  5
B8
330
47
100
AcDbEntity
  8
0
  6
Continuous
 62
     7
100
AcDbLine
 10
81.71856321578127
 20
185.4366326812696
 30
0.0
 11
81.73259003348187
 21
186.1622124468103
 31
0.0
  0
LINE
  5
B9
330
47
100
AcDbEntity
  8
0
  6
Continuous
 62
     7
100
AcDbLine
 10
82.90773937698546
 20
186.6323417850413
 30
0.0
 11
83.21137872485697
 21
202.3390096508649
 31
0.0
  0
LINE
  5
BA
330
47
100
AcDbEntity
  8
0
  6
Continuous
 62
     7
100
AcDbLine
 10
82.19627578426167
 20
204.222894405151
 30
0.0
 11
82.94166080189925
 21
203.8653340399497
 31
0.0
  0
LINE
  5
BB
330
47
100
AcDbEntity
  8
0
  6
Continuous
 62
     7
100
AcDbLine
 10
85.76120215036295
 20
191.0401946900408
 30
0.0
 11
83.5408278846912
 21
192.10530575953
 31
0.0
  0
LINE
  5
BC
330
47
100
AcDbEntity
  8
0
  6
Continuous
 62
     7
100
AcDbLine
 10
83.49534037992586
 20
189.7523263634073
 30
0.0
 11
85.76120215036295
 21
191.0401946900408
 31
0.0
  0
LINE
  5
BD
330
47
100
AcDbEntity
  8
0
  6
Continuous
 62
     7
100
AcDbLine
 10
85.93088284885346
 20
199.8174443881236
 30
0.0
 11
85.76120215036295
 21
191.0401946900408
 31
0.0
  0
LINE
  5
BE
330
47
100
AcDbEntity
  8
0
  6
Continuous
 62
     7
100
AcDbLine
 10
85.93088284885346
 20
199.8174443881236
 30
0.0
 11
83.66502107841637
 21
198.52957606149
 31
0.0
  0
LINE
  5
BF
330
47
100
AcDbEntity
  8
0
  6
Continuous
 62
     7
100
AcDbLine
 10
83.66502107841637
 20
198.52957606149
 30
0.0
 11
83.49534037992586
 21
189.7523263634073
 31
0.0
  0
LINE
  5
C0
330
47
100
AcDbEntity
  8
0
  6
Continuous
 62
     7
100
AcDbLine
 10
86.54352838726444
 20
204.2329336606201
 30
0.0
 11
83.21137872485697
 21
202.3390096508649
 31
0.0
  0
LINE
  5
C1
330
47
100
AcDbEntity
  8
0
  6
Continuous
 62
     7
100
AcDbLine
 10
70.14505799923774
 20
212.0992616950488
 30
0.0
 11
86.54352838726444
 21
204.2329336606201
 31
0.0
  0
SPLINE
  5
C2
330
47
100
AcDbEntity
  8
0
  6
Continuous
 62
     7
100
AcDbSpline
210
0.0
220
0.0
230
1.0
 70
     8
 71
     3
 72
    11
 73
     7
 74
     5
 42
0.000000001
 43
0.0000000001
 44
0.00000001
 40
0.0
 40
0.0
 40
0.0
 40
0.0
 40
0.1933920552526928
 40
0.3695969500747046
 40
0.5311890747161341
 40
0.6842200630588269
 40
0.6842200630588269
 40
0.6842200630588269
 40
0.6842200630588269
 10
85.05071287818876
 20
187.3305566910248
 30
0.0
 10
85.04631277930064
 20
187.2659660466479
 30
0.0
 10
85.03790361333418
 20
187.1425250668464
 30
0.0
 10
84.97955850495958
 20
186.9737060770134
 30
0.0
 10
84.89042600296625
 20
186.8323788674645
 30
0.0
 10
84.80387696619881
 20
186.7715483853689
 30
0.0
 10
84.76177997610421
 20
186.7419607718877
 30
0.0
 11
85.05071287818876
 21
187.3305566910248
 31
0.0
 11
85.02870007248754
 21
187.1384215217218
 31
0.0
 11
84.97135796985356
 21
186.9718080496721
 31
0.0
 11
84.88111202968724
 21
186.8377644519352
 31
0.0
 11
84.76177997610421
 21
186.7419607718877
 31
0.0
  0
SPLINE
  5
C3
330
47
100
AcDbEntity
  8
0
  6
Continuous
 62
     7
100
AcDbSpline
210
0.0
220
0.0
230
1.0
 70
     8
 71
     3
 72
    11
 73
     7
 74
     5
 42
0.000000001
 43
0.0000000001
 44
0.00000001
 40
0.0
 40
0.0
 40
0.0
 40
0.0
 40
0.1933920552526928
 40
0.3695969500747046
 40
0.5311890747161341
 40
0.6842200630588269
 40
0.6842200630588269
 40
0.6842200630588269
 40
0.6842200630588269
 10
81.71856321578127
 20
185.4366326812696
 30
0.0
 10
81.71416311689313
 20
185.3720420368928
 30
0.0
 10
81.70575395092669
 20
185.2486010570912
 30
0.0
 10
81.64740884255212
 20
185.0797820672583
 30
0.0
 10
81.55827634055876
 20
184.9384548577092
 30
0.0
 10
81.47172730379133
 20
184.8776243756137
 30
0.0
 10
81.42963031369672
 20
184.8480367621325
 30
0.0
 11
81.71856321578127
 21
185.4366326812696
 31
0.0
 11
81.69655041008005
 21
185.2444975119666
 31
0.0
 11
81.63920830744607
 21
185.0778840399169
 31
0.0
 11
81.54896236727976
 21
184.9438404421799
 31
0.0
 11
81.42963031369672
 21
184.8480367621325
 31
0.0
  0
SPLINE
  5
C4
330
47
100
AcDbEntity
  8
0
  6
Continuous
 62
     7
100
AcDbSpline
210
0.0
220
0.0
230
1.0
 70
     8
 71
     3
 72
    15
 73
    11
 74
     9
 42
0.000000001
 43
0.0000000001
 44
0.00000001
 40
0.0
 40
0.0
 40
0.0
 40
0.0
 40
0.2163240682283399
 40
0.4549096230877464
 40
0.7267040353041037
 40
1.030202148831541
 40
1.355298685156332
 40
1.687218226499725
 40
2.009858380106989
 40
2.308937993713471
 40
2.308937993713471
 40
2.308937993713471
 40
2.308937993713471
 10
81.42963031369672
 20
184.8480367621325
 30
0.0
 10
81.36154872296784
 20
184.8210637431243
 30
0.0
 10
81.21837939502711
 20
184.76434197859
 30
0.0
 10
80.96968612158014
 20
184.8032663265884
 30
0.0
 10
80.72279309793673
 20
184.9191770654581
 30
0.0
 10
80.48801280196749
 20
185.1108333369747
 30
0.0
 10
80.2835769286628
 20
185.3597713730415
 30
0.0
 10
80.12670772155153
 20
185.6475676746222
 30
0.0
 10
80.02187372343695
 20
185.9513732639367
 30
0.0
 10
80.00992542359242
 20
186.1590960387641
 30
0.0
 10
80.00417767521479
 20
186.2590215212326
 30
0.0
 11
81.42963031369672
 21
184.8480367621325
 31
0.0
 11
81.22255658810086
 21
184.7854541974728
 31
0.0
 11
80.98538574482333
 21
184.8113976268515
 31
0.0
 11
80.73788065377038
 21
184.9237071662866
 31
0.0
 11
80.50066578804923
 21
185.1130222802827
 31
0.0
 11
80.2935085952451
 21
185.3635689933459
 31
0.0
 11
80.1336705072406
 21
185.6544682325522
 31
0.0
 11
80.03447196539716
 21
185.9614801487393
 31
0.0
 11
80.00417767521479
 21
186.2590215212326
 31
0.0
  0
SPLINE
  5
C5
330
47
100
AcDbEntity
  8
0
  6
Continuous
 62
     7
100
AcDbSpline
210
0.0
220
0.0
230
1.0
 70
     8
 71
     3
 72
    17
 73
    13
 74
    11
 42
0.000000001
 43
0.0000000001
 44
0.00000001
 40
0.0
 40
0.0
 40
0.0
 40
0.0
 40
0.3529094175901986
 40
0.746343499536626
 40
1.166311984694202
 40
1.595645762755177
 40
2.016147967982816
 40
2.410590116198136
 40
2.764852219310499
 40
3.070623877171797
 40
3.329337749489742
 40
3.557207164560392
 40
3.557207164560392
 40
3.557207164560392
 40
3.557207164560392
 10
78.26074626433945
 20
206.4599987956445
 30
0.0
 10
78.36686211576246
 20
206.5114640273965
 30
0.0
 10
78.5912791287756
 20
206.6203042446726
 30
0.0
 10
78.97231601960591
 20
206.7099636556159
 30
0.0
 10
79.38459506013426
 20
206.7559871253136
 30
0.0
 10
79.80906312491256
 20
206.7481839894048
 30
0.0
 10
80.22078721395795
 20
206.6891753465015
 30
0.0
 10
80.59657836341665
 20
206.5817213628657
 30
0.0
 10
80.91744059738569
 20
206.4317154880309
 30
0.0
 10
81.16188263627427
 20
206.2461862570753
 30
0.0
 10
81.33109712347478
 20
206.0302802942788
 30
0.0
 10
81.35199848174105
 20
205.8668439501079
 30
0.0
 10
81.36178668818053
 20
205.7903058812821
 30
0.0
 11
78.26074626433945
 21
206.4599987956445
 31
0.0
 11
78.58343481855911
 21
206.6028873831452
 31
0.0
 11
78.96460791302043
 21
206.7003422339583
 31
0.0
 11
79.38201294155671
 21
206.7466733337479
 31
0.0
 11
79.81128126013007
 21
206.739176426351
 31
0.0
 11
80.22735189811581
 21
206.6782885899543
 31
0.0
 11
80.60593466328253
 21
206.5675650699257
 31
0.0
 11
80.92492710819457
 21
206.4134694590345
 31
0.0
 11
81.16570701294569
 21
206.2249983913896
 31
0.0
 11
81.31421654245153
 21
206.0131546092345
 31
0.0
 11
81.36178668818053
 21
205.7903058812821
 31
0.0
  0
SPLINE
  5
C6
330
47
100
AcDbEntity
  8
0
  6
Continuous
 62
     7
100
AcDbSpline
210
0.0
220
0.0
230
1.0
 70
     8
 71
     3
 72
    15
 73
    11
 74
     9
 42
0.000000001
 43
0.0000000001
 44
0.00000001
 40
0.0
 40
0.0
 40
0.0
 40
0.0
 40
0.2990796136065373
 40
0.6217197672138552
 40
0.9536393085572172
 40
1.27873584488203
 40
1.582233958409467
 40
1.854028370625837
 40
2.092613925485258
 40
2.308937993713611
 40
2.308937993713611
 40
2.308937993713611
 40
2.308937993713611
 10
67.63078638243087
 20
192.1945235835744
 30
0.0
 10
67.63653413080847
 20
192.0945981011058
 30
0.0
 10
67.64848243065303
 20
191.8868753262785
 30
0.0
 10
67.75331642876755
 20
191.5830697369639
 30
0.0
 10
67.91018563587888
 20
191.2952734353832
 30
0.0
 10
68.11462150918352
 20
191.0463353993164
 30
0.0
 10
68.34940180515275
 20
190.8546791277997
 30
0.0
 10
68.59629482879623
 20
190.7387683889302
 30
0.0
 10
68.84498810224318
 20
190.6998440409316
 30
0.0
 10
68.98815743018392
 20
190.756565805466
 30
0.0
 10
69.05623902091281
 20
190.7835388244742
 30
0.0
 11
67.63078638243087
 21
192.1945235835744
 31
0.0
 11
67.66108067261322
 21
191.8969822110811
 31
0.0
 11
67.76027921445666
 21
191.5899702948939
 31
0.0
 11
67.92011730246115
 21
191.2990710556876
 31
0.0
 11
68.12727449526528
 21
191.0485243426244
 31
0.0
 11
68.36448936098643
 21
190.8592092286283
 31
0.0
 11
68.6119944520394
 21
190.7468996891932
 31
0.0
 11
68.84916529531694
 21
190.7209562598145
 31
0.0
 11
69.05623902091281
 21
190.7835388244742
 31
0.0
  0
SPLINE
  5
C7
330
47
100
AcDbEntity
  8
0
  6
Continuous
 62
     7
100
AcDbSpline
210
0.0
220
0.0
230
1.0
 70
     8
 71
     3
 72
    11
 73
     7
 74
     5
 42
0.000000001
 43
0.0000000001
 44
0.00000001
 40
0.0
 40
0.0
 40
0.0
 40
0.0
 40
0.1530309883426529
 40
0.3146231129840588
 40
0.4908280078061021
 40
0.6842200630587401
 40
0.6842200630587401
 40
0.6842200630587401
 40
0.6842200630587401
 10
69.05623902091281
 20
190.7835388244742
 30
0.0
 10
69.09833601100742
 20
190.8131264379554
 30
0.0
 10
69.1848850477748
 20
190.8739569200509
 30
0.0
 10
69.27401754976816
 20
191.0152841295999
 30
0.0
 10
69.33236265814277
 20
191.1841031194328
 30
0.0
 10
69.34077182410924
 20
191.3075440992345
 30
0.0
 10
69.34517192299737
 20
191.3721347436112
 30
0.0
 11
69.05623902091281
 21
190.7835388244742
 31
0.0
 11
69.17557107449582
 21
190.8793425045216
 31
0.0
 11
69.26581701466213
 21
191.0133861022586
 31
0.0
 11
69.32315911729613
 21
191.1799995743082
 31
0.0
 11
69.34517192299737
 21
191.3721347436112
 31
0.0
  0
SPLINE
  5
C8
330
47
100
AcDbEntity
  8
0
  6
Continuous
 62
     7
100
AcDbSpline
210
0.0
220
0.0
230
1.0
 70
     8
 71
     3
 72
    11
 73
     7
 74
     5
 42
0.000000001
 43
0.0000000001
 44
0.00000001
 40
0.0
 40
0.0
 40
0.0
 40
0.0
 40
0.255160638494273
 40
0.5143386473262258
 40
0.773516656158179
 40
1.028677294652462
 40
1.028677294652462
 40
1.028677294652462
 40
1.028677294652462
 10
73.24174379801777
 20
207.737891697251
 30
0.0
 10
73.3263053559212
 20
207.7474716544378
 30
0.0
 10
73.49675985044209
 20
207.7667823852161
 30
0.0
 10
73.754909033383
 20
207.7700526670271
 30
0.0
 10
74.01273894252799
 20
207.7568075416417
 30
0.0
 10
74.18231973329547
 20
207.730923291059
 30
0.0
 10
74.26644785117584
 20
207.7180822460599
 30
0.0
 11
73.24174379801777
 21
207.737891697251
 31
0.0
 11
73.49572332419079
 21
207.7624141747402
 31
0.0
 11
73.75485554491121
 21
207.7672858133009
 31
0.0
 11
74.01360586601712
 21
207.7524025339125
 31
0.0
 11
74.26644785117584
 21
207.7180822460599
 31
0.0
  0
SPLINE
  5
C9
330
47
100
AcDbEntity
  8
0
  6
Continuous
 62
     7
100
AcDbSpline
210
0.0
220
0.0
230
1.0
 70
     8
 71
     3
 72
    17
 73
    13
 74
    11
 42
0.000000001
 43
0.0000000001
 44
0.00000001
 40
0.0
 40
0.0
 40
0.0
 40
0.0
 40
0.3529094175901856
 40
0.7463434995366339
 40
1.166311984694182
 40
1.595645762755157
 40
2.01614796798281
 40
2.410590116198124
 40
2.764852219310475
 40
3.070623877171737
 40
3.329337749489744
 40
3.557207164560394
 40
3.557207164560394
 40
3.557207164560394
 40
3.557207164560394
 10
72.44674312676628
 20
209.2489696442147
 30
0.0
 10
72.5528589781893
 20
209.3004348759667
 30
0.0
 10
72.77727599120243
 20
209.4092750932429
 30
0.0
 10
73.15831288203273
 20
209.4989345041861
 30
0.0
 10
73.57059192256108
 20
209.5449579738838
 30
0.0
 10
73.99505998733937
 20
209.537154837975
 30
0.0
 10
74.40678407638472
 20
209.4781461950718
 30
0.0
 10
74.78257522584349
 20
209.3706922114358
 30
0.0
 10
75.10343745981247
 20
209.2206863366011
 30
0.0
 10
75.34787949870113
 20
209.0351571056455
 30
0.0
 10
75.51709398590154
 20
208.819251142849
 30
0.0
 10
75.53799534416787
 20
208.6558147986781
 30
0.0
 10
75.54778355060732
 20
208.5792767298523
 30
0.0
 11
72.44674312676628
 21
209.2489696442147
 31
0.0
 11
72.76943168098593
 21
209.3918582317154
 31
0.0
 11
73.15060477544726
 21
209.4893130825285
 31
0.0
 11
73.56800980398351
 21
209.5356441823182
 31
0.0
 11
73.99727812255688
 21
209.5281472749213
 31
0.0
 11
74.41334876054263
 21
209.4672594385246
 31
0.0
 11
74.79193152570933
 21
209.3565359184959
 31
0.0
 11
75.11092397062137
 21
209.2024403076047
 31
0.0
 11
75.3517038753725
 21
209.0139692399599
 31
0.0
 11
75.50021340487832
 21
208.8021254578047
 31
0.0
 11
75.54778355060732
 21
208.5792767298523
 31
0.0
  0
SPLINE
  5
CA
330
47
100
AcDbEntity
  8
0
  6
Continuous
 62
     7
100
AcDbSpline
210
0.0
220
0.0
230
1.0
 70
     8
 71
     3
 72
    11
 73
     7
 74
     5
 42
0.000000001
 43
0.0000000001
 44
0.00000001
 40
0.0
 40
0.0
 40
0.0
 40
0.0
 40
0.1679643233777219
 40
0.3493165225131566
 40
0.5533831050699979
 40
0.7843698177040273
 40
0.7843698177040273
 40
0.7843698177040273
 40
0.7843698177040273
 10
71.99465003591419
 20
208.6479654646316
 30
0.0
 10
72.00164195928387
 20
208.7040663989566
 30
0.0
 10
72.01618312333822
 20
208.8207398829016
 30
0.0
 10
72.11379190898552
 20
208.9823606214178
 30
0.0
 10
72.25773957205706
 20
209.1308924031638
 30
0.0
 10
72.38119554527626
 20
209.2080197451309
 30
0.0
 10
72.44674312676628
 20
209.2489696442147
 30
0.0
 11
71.99465003591419
 21
208.6479654646316
 31
0.0
 11
72.02650934098732
 21
208.812880592813
 31
0.0
 11
72.11466146334388
 21
208.9713666326325
 31
0.0
 11
72.25626236598379
 21
209.1183100078798
 31
0.0
 11
72.44674312676628
 21
209.2489696442147
 31
0.0
  0
SPLINE
  5
CB
330
47
100
AcDbEntity
  8
0
  6
Continuous
 62
     7
100
AcDbSpline
210
0.0
220
0.0
230
1.0
 70
     8
 71
     3
 72
    19
 73
    15
 74
    13
 42
0.000000001
 43
0.0000000001
 44
0.00000001
 40
0.0
 40
0.0
 40
0.0
 40
0.0
 40
0.2469716601901536
 40
0.5320897057516571
 40
0.8733356419902968
 40
1.269622643290508
 40
1.708028702737374
 40
2.169002859234127
 40
2.629977015730861
 40
3.068383075177723
 40
3.464670076477919
 40
3.80591601271654
 40
4.091034058278029
 40
4.338005718468188
 40
4.338005718468188
 40
4.338005718468188
 40
4.338005718468188
 10
75.54778355060732
 20
208.5792767298523
 30
0.0
 10
75.53280950768675
 20
208.4968260600069
 30
0.0
 10
75.50054856517377
 20
208.3191896835187
 30
0.0
 10
75.29338905906835
 20
208.0972025396479
 30
0.0
 10
75.00452268960083
 20
207.9156027704811
 30
0.0
 10
74.63307194846696
 20
207.7807616140025
 30
0.0
 10
74.20754082095118
 20
207.6999701578431
 30
0.0
 10
73.75313738772819
 20
207.6784089124506
 30
0.0
 10
73.29990679539719
 20
207.7175164258346
 30
0.0
 10
72.87781614303444
 20
207.8146940007227
 30
0.0
 10
72.511854453616
 20
207.963790722509
 30
0.0
 10
72.23022261980248
 20
208.1564192919206
 30
0.0
 10
72.03179754499949
 20
208.3862471464187
 30
0.0
 10
72.00642622952816
 20
208.5649976625437
 30
0.0
 10
71.99465003591419
 20
208.6479654646316
 30
0.0
 11
75.54778355060732
 21
208.5792767298523
 31
0.0
 11
75.48262018719113
 21
208.3410567910972
 31
0.0
 11
75.30082839215264
 21
208.1214115189897
 31
0.0
 11
75.01479530663691
 21
207.9353097697342
 31
0.0
 11
74.6440150410416
 21
207.7954334671265
 31
0.0
 11
74.21375456769886
 21
207.7113157207939
 31
0.0
 11
73.75333610428237
 21
207.6886881300101
 31
0.0
 11
73.29413618947986
 21
207.7290936687992
 31
0.0
 11
72.86744828369503
 21
207.8297778345162
 31
0.0
 11
72.50235117376849
 21
207.9838800269387
 31
0.0
 11
72.22372450539049
 21
208.1808977082624
 31
0.0
 11
72.0505576761037
 21
208.4074049963068
 31
0.0
 11
71.99465003591419
 21
208.6479654646316
 31
0.0
  0
SPLINE
  5
CC
330
47
100
AcDbEntity
  8
0
  6
Continuous
 62
     7
100
AcDbSpline
210
0.0
220
0.0
230
1.0
 70
     8
 71
     3
 72
    11
 73
     7
 74
     5
 42
0.000000001
 43
0.0000000001
 44
0.00000001
 40
0.0
 40
0.0
 40
0.0
 40
0.0
 40
0.2551606384942817
 40
0.5143386473262345
 40
0.7735166561581925
 40
1.02867729465246
 40
1.02867729465246
 40
1.02867729465246
 40
1.02867729465246
 10
79.05574693559096
 20
204.9489208486808
 30
0.0
 10
79.1403084934944
 20
204.9585008058676
 30
0.0
 10
79.31076298801528
 20
204.9778115366458
 30
0.0
 10
79.56891217095621
 20
204.9810818184569
 30
0.0
 10
79.82674208010118
 20
204.9678366930713
 30
0.0
 10
79.99632287086871
 20
204.9419524424887
 30
0.0
 10
80.08045098874905
 20
204.9291113974897
 30
0.0
 11
79.05574693559096
 21
204.9489208486808
 31
0.0
 11
79.309726461764
 21
204.97344332617
 31
0.0
 11
79.56885868248442
 21
204.9783149647307
 31
0.0
 11
79.82760900359033
 21
204.9634316853421
 31
0.0
 11
80.08045098874905
 21
204.9291113974897
 31
0.0
  0
SPLINE
  5
CD
330
47
100
AcDbEntity
  8
0
  6
Continuous
 62
     7
100
AcDbSpline
210
0.0
220
0.0
230
1.0
 70
     8
 71
     3
 72
    11
 73
     7
 74
     5
 42
0.000000001
 43
0.0000000001
 44
0.00000001
 40
0.0
 40
0.0
 40
0.0
 40
0.0
 40
0.1679643233776409
 40
0.3493165225130122
 40
0.5533831050698943
 40
0.7843698177039602
 40
0.7843698177039602
 40
0.7843698177039602
 40
0.7843698177039602
 10
77.80865317348739
 20
205.8589946160614
 30
0.0
 10
77.81564509685705
 20
205.9150955503863
 30
0.0
 10
77.83018626091146
 20
206.0317690343314
 30
0.0
 10
77.92779504655873
 20
206.1933897728475
 30
0.0
 10
78.07174270963026
 20
206.3419215545935
 30
0.0
 10
78.19519868284945
 20
206.4190488965608
 30
0.0
 10
78.26074626433945
 20
206.4599987956445
 30
0.0
 11
77.80865317348739
 21
205.8589946160614
 31
0.0
 11
77.84051247856053
 21
206.0239097442427
 31
0.0
 11
77.92866460091706
 21
206.1823957840622
 31
0.0
 11
78.07026550355697
 21
206.3293391593096
 31
0.0
 11
78.26074626433945
 21
206.4599987956445
 31
0.0
  0
SPLINE
  5
CE
330
47
100
AcDbEntity
  8
0
  6
Continuous
 62
     7
100
AcDbSpline
210
0.0
220
0.0
230
1.0
 70
     8
 71
     3
 72
    19
 73
    15
 74
    13
 42
0.000000001
 43
0.0000000001
 44
0.00000001
 40
0.0
 40
0.0
 40
0.0
 40
0.0
 40
0.2469716601902358
 40
0.5320897057517175
 40
0.8733356419903262
 40
1.269622643290561
 40
1.708028702737427
 40
2.169002859234157
 40
2.629977015730905
 40
3.068383075177773
 40
3.46467007647798
 40
3.805916012716551
 40
4.091034058278041
 40
4.338005718468317
 40
4.338005718468317
 40
4.338005718468317
 40
4.338005718468317
 10
81.36178668818053
 20
205.7903058812821
 30
0.0
 10
81.34681264526002
 20
205.7078552114367
 30
0.0
 10
81.31455170274697
 20
205.5302188349485
 30
0.0
 10
81.10739219664154
 20
205.3082316910776
 30
0.0
 10
80.81852582717403
 20
205.1266319219109
 30
0.0
 10
80.44707508604014
 20
204.9917907654322
 30
0.0
 10
80.0215439585244
 20
204.910999309273
 30
0.0
 10
79.56714052530138
 20
204.8894380638802
 30
0.0
 10
79.11390993297042
 20
204.9285455772643
 30
0.0
 10
78.69181928060765
 20
205.0257231521525
 30
0.0
 10
78.32585759118925
 20
205.1748198739386
 30
0.0
 10
78.04422575737568
 20
205.3674484433504
 30
0.0
 10
77.84580068257267
 20
205.5972762978484
 30
0.0
 10
77.82042936710134
 20
205.7760268139735
 30
0.0
 10
77.80865317348739
 20
205.8589946160614
 30
0.0
 11
81.36178668818053
 21
205.7903058812821
 31
0.0
 11
81.29662332476434
 21
205.5520859425269
 31
0.0
 11
81.11483152972585
 21
205.3324406704195
 31
0.0
 11
80.82879844421012
 21
205.146338921164
 31
0.0
 11
80.4580181786148
 21
205.0064626185563
 31
0.0
 11
80.02775770527205
 21
204.9223448722237
 31
0.0
 11
79.56733924185559
 21
204.8997172814398
 31
0.0
 11
79.10813932705307
 21
204.9401228202289
 31
0.0
 11
78.68145142126825
 21
205.040806985946
 31
0.0
 11
78.31635431134171
 21
205.1949091783685
 31
0.0
 11
78.03772764296372
 21
205.3919268596921
 31
0.0
 11
77.86456081367692
 21
205.6184341477365
 31
0.0
 11
77.80865317348739
 21
205.8589946160614
 31
0.0
  0
ENDBLK
  5
49
330
47
100
AcDbEntity
  8
0
100
AcDbBlockEnd
  0
BLOCK
  5
4C
330
4A
100
AcDbEntity
  8
0
100
AcDbBlockBegin
  2
Allg1
 70
     0
 10
76.49999928073612
 20
198.0000009184601
 30
0.0
  3
Allg1
  1

  0
INSERT
  5
4B
330
4A
100
AcDbEntity
  8
0
100
AcDbBlockReference
  2
MBK-select__1
 10
66.50926898895877
 20
184.7643333624034
 30
0.0
  0
MTEXT
  5
D0
330
4A
100
AcDbEntity
  8
1
 62
     6
100
AcDbMText
 10
76.52639868811156
 20
182.2738681096893
 30
0.0
 40
2.5
 41
0.0
 71
     2
 72
     1
  1
 
  7
CONVERTER_11
 73
     1
 44
1.32052821128451
  0
ENDBLK
  5
4D
330
4A
100
AcDbEntity
  8
0
100
AcDbBlockEnd
  0
BLOCK
  5
4F
330
4E
100
AcDbEntity
  8
0
100
AcDbBlockBegin
  2
MBK-select__2
 70
     0
 10
9.0000060100506
 20
192.0000001013428
 30
0.0
  3
MBK-select__2
  1

  0
LINE
  5
D1
330
4E
100
AcDbEntity
  8
0
  6
Continuous
 62
     7
100
AcDbLine
 10
12.15000601005047
 20
195.0000001013428
 30
0.0
 11
11.15000601005047
 21
195.0000001013428
 31
0.0
  0
LINE
  5
D2
330
4E
100
AcDbEntity
  8
0
  6
Continuous
 62
     7
100
AcDbLine
 10
9.0000060100506
 20
192.0000001013428
 30
0.0
 11
31.00000601005032
 21
192.0000001013428
 31
0.0
  0
LINE
  5
D3
330
4E
100
AcDbEntity
  8
0
  6
Continuous
 62
     7
100
AcDbLine
 10
11.15000601005047
 20
194.0000001013428
 30
0.0
 11
12.15000601005047
 21
194.0000001013428
 31
0.0
  0
LINE
  5
D4
330
4E
100
AcDbEntity
  8
0
  6
Continuous
 62
     7
100
AcDbLine
 10
12.15000601005047
 20
194.0000001013428
 30
0.0
 11
12.15000601005047
 21
195.0000001013428
 31
0.0
  0
LINE
  5
D5
330
4E
100
AcDbEntity
  8
0
  6
Continuous
 62
     7
100
AcDbLine
 10
17.08436054590746
 20
195.9793293840307
 30
0.0
 11
14.6206767273625
 21
193.5156455654858
 31
0.0
  0
LINE
  5
D6
330
4E
100
AcDbEntity
  8
0
  6
Continuous
 62
     7
100
AcDbLine
 10
15.11565147419301
 20
193.0206708186551
 30
0.0
 11
17.5793352927381
 21
195.4843546372002
 31
0.0
  0
LINE
  5
D7
330
4E
100
AcDbEntity
  8
0
  6
Continuous
 62
     7
100
AcDbLine
 10
9.0000060100506
 20
197.0000001013428
 30
0.0
 11
31.00000601005032
 21
197.0000001013428
 31
0.0
  0
LINE
  5
D8
330
4E
100
AcDbEntity
  8
0
  6
Continuous
 62
     7
100
AcDbLine
 10
28.85000601005046
 20
195.0000001013428
 30
0.0
 11
27.85000601005046
 21
195.0000001013428
 31
0.0
  0
LINE
  5
D9
330
4E
100
AcDbEntity
  8
0
  6
Continuous
 62
     7
100
AcDbLine
 10
28.85000601005046
 20
194.0000001013428
 30
0.0
 11
28.85000601005046
 21
195.0000001013428
 31
0.0
  0
LINE
  5
DA
330
4E
100
AcDbEntity
  8
0
  6
Continuous
 62
     7
100
AcDbLine
 10
31.00000601005032
 20
197.0000001013428
 30
0.0
 11
31.00000601005032
 21
192.0000001013428
 31
0.0
  0
LINE
  5
DB
330
4E
100
AcDbEntity
  8
0
  6
Continuous
 62
     7
100
AcDbLine
 10
9.0000060100506
 20
192.0000001013428
 30
0.0
 11
9.0000060100506
 21
197.0000001013428
 31
0.0
  0
LINE
  5
DC
330
4E
100
AcDbEntity
  8
0
  6
Continuous
 62
     7
100
AcDbLine
 10
24.88436054590744
 20
195.9793293840307
 30
0.0
 11
22.42067672736249
 21
193.5156455654858
 31
0.0
  0
LINE
  5
DD
330
4E
100
AcDbEntity
  8
0
  6
Continuous
 62
     7
100
AcDbLine
 10
22.91565147419302
 20
193.0206708186551
 30
0.0
 11
25.37933529273812
 21
195.4843546372002
 31
0.0
  0
LINE
  5
DE
330
4E
100
AcDbEntity
  8
0
  6
Continuous
 62
     7
100
AcDbLine
 10
19.50000636904585
 20
194.0000001013428
 30
0.0
 11
20.50000565105497
 21
194.0000001013428
 31
0.0
  0
LINE
  5
DF
330
4E
100
AcDbEntity
  8
0
  6
Continuous
 62
     7
100
AcDbLine
 10
20.50000565105497
 20
195.0000001013428
 30
0.0
 11
19.50000636904585
 21
195.0000001013428
 31
0.0
  0
LINE
  5
E0
330
4E
100
AcDbEntity
  8
0
  6
Continuous
 62
     7
100
AcDbLine
 10
19.50000636904585
 20
195.0000001013428
 30
0.0
 11
19.50000636904585
 21
194.0000001013428
 31
0.0
  0
LINE
  5
E1
330
4E
100
AcDbEntity
  8
0
  6
Continuous
 62
     7
100
AcDbLine
 10
20.50000565105497
 20
194.0000001013428
 30
0.0
 11
20.50000565105497
 21
195.0000001013428
 31
0.0
  0
LINE
  5
E2
330
4E
100
AcDbEntity
  8
0
  6
Continuous
 62
     7
100
AcDbLine
 10
27.85000601005046
 20
195.0000001013428
 30
0.0
 11
27.85000601005046
 21
194.0000001013428
 31
0.0
  0
LINE
  5
E3
330
4E
100
AcDbEntity
  8
0
  6
Continuous
 62
     7
100
AcDbLine
 10
11.15000601005047
 20
195.0000001013428
 30
0.0
 11
11.15000601005047
 21
194.0000001013428
 31
0.0
  0
LINE
  5
E4
330
4E
100
AcDbEntity
  8
0
  6
Continuous
 62
     7
100
AcDbLine
 10
27.85000601005046
 20
194.0000001013428
 30
0.0
 11
28.85000601005046
 21
194.0000001013428
 31
0.0
  0
LINE
  5
E5
330
4E
100
AcDbEntity
  8
1
  6
DOT_CENTER
 62
     2
100
AcDbLine
 10
18.0545945765895
 20
194.5000001013428
 30
0.0
 11
14.14541744351142
 21
194.5000001013428
 31
0.0
  0
LINE
  5
E6
330
4E
100
AcDbEntity
  8
1
  6
DOT_CENTER
 62
     2
100
AcDbLine
 10
16.10000601005046
 20
196.4545886678818
 30
0.0
 11
16.10000601005046
 21
192.5454115348037
 31
0.0
  0
LINE
  5
E7
330
4E
100
AcDbEntity
  8
1
  6
DOT_CENTER
 62
     2
100
AcDbLine
 10
25.85459457658954
 20
194.5000001013428
 30
0.0
 11
21.94541744351141
 21
194.5000001013428
 31
0.0
  0
LINE
  5
E8
330
4E
100
AcDbEntity
  8
1
  6
DOT_CENTER
 62
     2
100
AcDbLine
 10
23.90000601005047
 20
196.4545886678818
 30
0.0
 11
23.90000601005047
 21
192.5454115348037
 31
0.0
  0
ARC
  5
E9
330
4E
100
AcDbEntity
  8
0
  6
Continuous
 62
     7
100
AcDbCircle
 10
16.10000601005046
 20
194.5000001013428
 30
0.0
 40
1.776898696853719
100
AcDbArc
 50
236.3599687706
 51
0.0
  0
ARC
  5
EA
330
4E
100
AcDbEntity
  8
0
  6
Continuous
 62
     7
100
AcDbCircle
 10
16.10000601005046
 20
194.5000001013428
 30
0.0
 40
1.776898696853682
100
AcDbArc
 50
213.6400312293831
 51
236.3599687706
  0
ARC
  5
EB
330
4E
100
AcDbEntity
  8
0
  6
Continuous
 62
     7
100
AcDbCircle
 10
23.90000601005047
 20
194.5000001013428
 30
0.0
 40
1.776898696853718
100
AcDbArc
 50
236.3599687706001
 51
0.0
  0
ARC
  5
EC
330
4E
100
AcDbEntity
  8
0
  6
Continuous
 62
     7
100
AcDbCircle
 10
23.90000601005047
 20
194.5000001013428
 30
0.0
 40
1.776898696853697
100
AcDbArc
 50
213.6400312293828
 51
236.3599687706001
  0
ARC
  5
ED
330
4E
100
AcDbEntity
  8
0
  6
Continuous
 62
     7
100
AcDbCircle
 10
23.90000601005047
 20
194.5000001013428
 30
0.0
 40
1.776898696853645
100
AcDbArc
 50
33.64003122939929
 51
56.35996877061641
  0
ARC
  5
EE
330
4E
100
AcDbEntity
  8
0
  6
Continuous
 62
     7
100
AcDbCircle
 10
23.90000601005047
 20
194.5000001013428
 30
0.0
 40
1.776898696853671
100
AcDbArc
 50
0.0
 51
33.64003122939929
  0
ARC
  5
EF
330
4E
100
AcDbEntity
  8
0
  6
Continuous
 62
     7
100
AcDbCircle
 10
23.90000601005047
 20
194.5000001013428
 30
0.0
 40
1.77689869685362
100
AcDbArc
 50
56.35996877061641
 51
213.6400312293828
  0
ARC
  5
F0
330
4E
100
AcDbEntity
  8
0
  6
Continuous
 62
     7
100
AcDbCircle
 10
16.10000601005046
 20
194.5000001013428
 30
0.0
 40
1.776898696853636
100
AcDbArc
 50
33.64003122939948
 51
56.35996877061564
  0
ARC
  5
F1
330
4E
100
AcDbEntity
  8
0
  6
Continuous
 62
     7
100
AcDbCircle
 10
16.10000601005046
 20
194.5000001013428
 30
0.0
 40
1.776898696853689
100
AcDbArc
 50
0.0
 51
33.64003122939948
  0
ARC
  5
F2
330
4E
100
AcDbEntity
  8
0
  6
Continuous
 62
     7
100
AcDbCircle
 10
16.10000601005046
 20
194.5000001013428
 30
0.0
 40
1.776898696853636
100
AcDbArc
 50
56.35996877061564
 51
213.6400312293831
  0
ENDBLK
  5
50
330
4E
100
AcDbEntity
  8
0
100
AcDbBlockEnd
  0
BLOCK
  5
53
330
51
100
AcDbEntity
  8
0
100
AcDbBlockBegin
  2
Drfsicht1
 70
     0
 10
20.00000067001997
 20
194.5000000000098
 30
0.0
  3
Drfsicht1
  1

  0
INSERT
  5
52
330
51
100
AcDbEntity
  8
0
100
AcDbBlockReference
  2
MBK-select__2
 10
9.0000060100506
 20
192.0000001013428
 30
0.0
  0
MTEXT
  5
F3
330
51
100
AcDbEntity
  8
1
 62
     6
100
AcDbMText
 10
13.37500601005047
 20
189.5000001013428
 30
0.0
 40
2.5
 41
0.0
 71
     2
 72
     1
  1
 
  7
CONVERTER_11
 73
     1
 44
1.32052821128451
  0
DIMENSION
  5
FE
330
51
100
AcDbEntity
  8
1
100
AcDbDimension
  2
*D17
 10
3.6625060100506
 20
192.0000001013428
 30
0.0
 11
2.0375060100506
 21
194.588676951487
 31
0.0
 70
    32
  1
<>
 71
     5
 42
-1.0
 53
90.0
  3
ME10_DIM_10
100
AcDbAlignedDimension
 13
9.0000060100506
 23
197.0000001013428
 33
0.0
 14
9.0000060100506
 24
192.0000001013428
 34
0.0
 50
90.0
100
AcDbRotatedDimension
  0
ENDBLK
  5
54
330
51
100
AcDbEntity
  8
0
100
AcDbBlockEnd
  0
BLOCK
  5
56
330
55
100
AcDbEntity
  8
0
100
AcDbBlockBegin
  2
MBK-select__3
 70
     0
 10
65.49999397111034
 20
222.8500025064142
 30
0.0
  3
MBK-select__3
  1

  0
LINE
  5
FF
330
55
100
AcDbEntity
  8
0
  6
Continuous
 62
     7
100
AcDbLine
 10
72.3999939711102
 20
226.8500025064142
 30
0.0
 11
72.3999939711102
 21
223.2500025064143
 31
0.0
  0
LINE
  5
100
330
55
100
AcDbEntity
  8
0
  6
Continuous
 62
     7
100
AcDbLine
 10
68.7999939711103
 20
225.5500025064143
 30
0.0
 11
68.7999939711103
 21
226.8500025064142
 31
0.0
  0
LINE
  5
101
330
55
100
AcDbEntity
  8
0
  6
Continuous
 62
     7
100
AcDbLine
 10
69.34999397111037
 20
225.5500025064143
 30
0.0
 11
68.7999939711103
 21
225.5500025064143
 31
0.0
  0
LINE
  5
102
330
55
100
AcDbEntity
  8
0
  6
Continuous
 62
     7
100
AcDbLine
 10
69.34999397111037
 20
224.0000025064142
 30
0.0
 11
69.34999397111037
 21
225.5500025064143
 31
0.0
  0
LINE
  5
103
330
55
100
AcDbEntity
  8
0
  6
Continuous
 62
     7
100
AcDbLine
 10
67.0499939711103
 20
224.8500025064142
 30
0.0
 11
67.0499939711103
 21
224.0000025064143
 31
0.0
  0
LINE
  5
104
330
55
100
AcDbEntity
  8
0
  6
Continuous
 62
     7
100
AcDbLine
 10
67.69999397111033
 20
224.8500025064142
 30
0.0
 11
67.0499939711103
 21
224.8500025064142
 31
0.0
  0
LINE
  5
105
330
55
100
AcDbEntity
  8
0
  6
Continuous
 62
     7
100
AcDbLine
 10
67.69999397111033
 20
226.0500025064143
 30
0.0
 11
67.69999397111033
 21
224.8500025064142
 31
0.0
  0
LINE
  5
106
330
55
100
AcDbEntity
  8
0
  6
Continuous
 62
     7
100
AcDbLine
 10
65.49999397111034
 20
226.0500025064143
 30
0.0
 11
67.69999397111033
 21
226.0500025064143
 31
0.0
  0
LINE
  5
107
330
55
100
AcDbEntity
  8
0
  6
Continuous
 62
     7
100
AcDbLine
 10
72.3999939711102
 20
223.2500025064143
 30
0.0
 11
80.5999939711102
 21
223.2500025064143
 31
0.0
  0
LINE
  5
108
330
55
100
AcDbEntity
  8
0
  6
Continuous
 62
     7
100
AcDbLine
 10
80.5999939711102
 20
223.2500025064143
 30
0.0
 11
80.5999939711102
 21
226.8500025064142
 31
0.0
  0
LINE
  5
109
330
55
100
AcDbEntity
  8
0
  6
Continuous
 62
     7
100
AcDbLine
 10
65.49999397111034
 20
226.0500025064143
 30
0.0
 11
65.49999397111034
 21
244.4500025064143
 31
0.0
  0
LINE
  5
10A
330
55
100
AcDbEntity
  8
0
  6
Continuous
 62
     7
100
AcDbLine
 10
85.94999397111033
 20
224.8500025064143
 30
0.0
 11
85.2999939711103
 21
224.8500025064143
 31
0.0
  0
LINE
  5
10B
330
55
100
AcDbEntity
  8
0
  6
Continuous
 62
     7
100
AcDbLine
 10
85.2999939711103
 20
226.0500025064143
 30
0.0
 11
87.49999397111006
 21
226.0500025064143
 31
0.0
  0
LINE
  5
10C
330
55
100
AcDbEntity
  8
0
  6
Continuous
 62
     7
100
AcDbLine
 10
85.2999939711103
 20
224.8500025064143
 30
0.0
 11
85.2999939711103
 21
226.0500025064143
 31
0.0
  0
LINE
  5
10D
330
55
100
AcDbEntity
  8
0
  6
Continuous
 62
     7
100
AcDbLine
 10
83.64999397111032
 20
225.5500025064143
 30
0.0
 11
83.64999397111026
 21
224.0000025064143
 31
0.0
  0
LINE
  5
10E
330
55
100
AcDbEntity
  8
0
  6
Continuous
 62
     7
100
AcDbLine
 10
84.19999397111033
 20
225.5500025064143
 30
0.0
 11
83.64999397111032
 21
225.5500025064143
 31
0.0
  0
LINE
  5
10F
330
55
100
AcDbEntity
  8
0
  6
Continuous
 62
     7
100
AcDbLine
 10
84.19999397111033
 20
226.8500025064142
 30
0.0
 11
84.19999397111033
 21
225.5500025064143
 31
0.0
  0
LINE
  5
110
330
55
100
AcDbEntity
  8
0
  6
Continuous
 62
     7
100
AcDbLine
 10
85.94999397111033
 20
224.0000025064143
 30
0.0
 11
85.94999397111033
 21
224.8500025064143
 31
0.0
  0
LINE
  5
111
330
55
100
AcDbEntity
  8
0
  6
Continuous
 62
     7
100
AcDbLine
 10
87.49999397111006
 20
226.0500025064143
 30
0.0
 11
87.49999397111006
 21
244.4500025064143
 31
0.0
  0
LINE
  5
112
330
55
100
AcDbEntity
  8
0
  6
Continuous
 62
     7
100
AcDbLine
 10
68.7999939711103
 20
226.8500025064142
 30
0.0
 11
72.3999939711102
 21
226.8500025064142
 31
0.0
  0
LINE
  5
113
330
55
100
AcDbEntity
  8
0
  6
Continuous
 62
     7
100
AcDbLine
 10
80.5999939711102
 20
226.8500025064142
 30
0.0
 11
84.19999397111033
 21
226.8500025064142
 31
0.0
  0
LINE
  5
114
330
55
100
AcDbEntity
  8
0
  6
Continuous
 62
     7
100
AcDbLine
 10
87.49999397111006
 20
244.4500025064143
 30
0.0
 11
65.49999397111034
 21
244.4500025064143
 31
0.0
  0
ARC
  5
115
330
55
100
AcDbEntity
  8
0
  6
Continuous
 62
     7
100
AcDbCircle
 10
84.7999939711103
 20
224.0000025064143
 30
0.0
 40
1.150000000000034
100
AcDbArc
 50
180.0
 51
0.0
  0
ARC
  5
116
330
55
100
AcDbEntity
  8
0
  6
Continuous
 62
     7
100
AcDbCircle
 10
68.19999397111033
 20
224.0000025064142
 30
0.0
 40
1.150000000000034
100
AcDbArc
 50
179.9999999999957
 51
0.0
  0
ENDBLK
  5
57
330
55
100
AcDbEntity
  8
0
100
AcDbBlockEnd
  0
BLOCK
  5
5A
330
58
100
AcDbEntity
  8
0
100
AcDbBlockBegin
  2
Rckans1
 70
     0
 10
76.4999993111407
 20
233.6500004623495
 30
0.0
  3
Rckans1
  1

  0
INSERT
  5
59
330
58
100
AcDbEntity
  8
0
100
AcDbBlockReference
  2
MBK-select__3
 10
65.49999397111034
 20
222.8500025064142
 30
0.0
  0
MTEXT
  5
117
330
58
100
AcDbEntity
  8
1
 62
     6
100
AcDbMText
 10
76.4999939711102
 20
220.3500025064142
 30
0.0
 40
2.5
 41
0.0
 71
     2
 72
     1
  1
 
  7
CONVERTER_11
 73
     1
 44
1.32052821128451
  0
ENDBLK
  5
5B
330
58
100
AcDbEntity
  8
0
100
AcDbBlockEnd
  0
BLOCK
  5
5D
330
5C
100
AcDbEntity
  8
0
100
AcDbBlockBegin
  2
MBK-select__4
 70
     0
 10
45.25000013923994
 20
222.8500025064145
 30
0.0
  3
MBK-select__4
  1

  0
LINE
  5
118
330
5C
100
AcDbEntity
  8
0
  6
Continuous
 62
     7
100
AcDbLine
 10
45.25000013923994
 20
222.8500025064145
 30
0.0
 11
45.25000013923994
 21
224.0000025064146
 31
0.0
  0
LINE
  5
119
330
5C
100
AcDbEntity
  8
0
  6
Continuous
 62
     7
100
AcDbLine
 10
50.25000013923994
 20
222.8500025064145
 30
0.0
 11
50.25000013923994
 21
224.0000025064146
 31
0.0
  0
LINE
  5
11A
330
5C
100
AcDbEntity
  8
0
  6
Continuous
 62
     2
100
AcDbLine
 10
45.25000013923994
 20
224.0000025064146
 30
0.0
 11
50.25000013923994
 21
224.0000025064146
 31
0.0
  0
LINE
  5
11B
330
5C
100
AcDbEntity
  8
0
  6
Continuous
 62
     7
100
AcDbLine
 10
50.25000013923994
 20
222.8500025064145
 30
0.0
 11
45.25000013923994
 21
222.8500025064145
 31
0.0
  0
LINE
  5
11C
330
5C
100
AcDbEntity
  8
0
  6
Continuous
 62
     7
100
AcDbLine
 10
49.10000013923996
 20
231.9750025064146
 30
0.0
 11
46.40000013923995
 21
231.9750025064146
 31
0.0
  0
LINE
  5
11D
330
5C
100
AcDbEntity
  8
0
  6
Continuous
 62
     7
100
AcDbLine
 10
45.25000013923994
 20
224.8500025064146
 30
0.0
 11
45.25000013923994
 21
226.0500025064147
 31
0.0
  0
LINE
  5
11E
330
5C
100
AcDbEntity
  8
0
  6
Continuous
 62
     7
100
AcDbLine
 10
46.05000013923993
 20
229.3500025064145
 30
0.0
 11
49.45000013923994
 21
229.3500025064145
 31
0.0
  0
LINE
  5
11F
330
5C
100
AcDbEntity
  8
0
  6
Continuous
 62
     7
100
AcDbLine
 10
49.10000013923994
 20
229.9750025064146
 30
0.0
 11
46.40000013923995
 21
229.9750025064146
 31
0.0
  0
LINE
  5
120
330
5C
100
AcDbEntity
  8
0
  6
Continuous
 62
     7
100
AcDbLine
 10
49.10000013923996
 20
233.930027759584
 30
0.0
 11
46.40000013923995
 21
233.930027759584
 31
0.0
  0
LINE
  5
121
330
5C
100
AcDbEntity
  8
0
  6
Continuous
 62
     7
100
AcDbLine
 10
45.25000013923994
 20
224.0000025064146
 30
0.0
 11
45.25000013923994
 21
224.8500025064146
 31
0.0
  0
LINE
  5
122
330
5C
100
AcDbEntity
  8
0
  6
Continuous
 62
     7
100
AcDbLine
 10
45.25000013923994
 20
226.0500025064147
 30
0.0
 11
45.25000013923994
 21
244.4500025064146
 31
0.0
  0
LINE
  5
123
330
5C
100
AcDbEntity
  8
0
  6
Continuous
 62
     7
100
AcDbLine
 10
49.10000013923996
 20
233.930027759584
 30
0.0
 11
49.10000013923996
 21
231.9750025064146
 31
0.0
  0
LINE
  5
124
330
5C
100
AcDbEntity
  8
0
  6
Continuous
 62
     7
100
AcDbLine
 10
50.25000013923994
 20
226.0500025064147
 30
0.0
 11
50.25000013923994
 21
244.4500025064146
 31
0.0
  0
LINE
  5
125
330
5C
100
AcDbEntity
  8
0
  6
Continuous
 62
     7
100
AcDbLine
 10
49.10000013923996
 20
231.9750025064146
 30
0.0
 11
49.10000013923994
 21
229.9750025064146
 31
0.0
  0
LINE
  5
126
330
5C
100
AcDbEntity
  8
0
  6
Continuous
 62
     7
100
AcDbLine
 10
49.45000013923994
 20
239.6323485663408
 30
0.0
 11
46.05000013923993
 21
239.6323485663408
 31
0.0
  0
LINE
  5
127
330
5C
100
AcDbEntity
  8
0
  6
Continuous
 62
     7
100
AcDbLine
 10
50.25000013923994
 20
244.4500025064146
 30
0.0
 11
45.25000013923994
 21
244.4500025064146
 31
0.0
  0
LINE
  5
128
330
5C
100
AcDbEntity
  8
0
  6
Continuous
 62
     7
100
AcDbLine
 10
49.45000013923994
 20
238.0469025286139
 30
0.0
 11
46.05000013923993
 21
238.0469025286139
 31
0.0
  0
LINE
  5
129
330
5C
100
AcDbEntity
  8
0
  6
Continuous
 62
     7
100
AcDbLine
 10
49.45000013923994
 20
239.6323485663408
 30
0.0
 11
49.45000013923994
 21
238.0469025286139
 31
0.0
  0
LINE
  5
12A
330
5C
100
AcDbEntity
  8
0
  6
Continuous
 62
     7
100
AcDbLine
 10
50.25000013923994
 20
224.8500025064146
 30
0.0
 11
50.25000013923994
 21
226.0500025064147
 31
0.0
  0
LINE
  5
12B
330
5C
100
AcDbEntity
  8
0
  6
Continuous
 62
     7
100
AcDbLine
 10
49.45000013923994
 20
238.0469025286139
 30
0.0
 11
49.45000013923994
 21
229.3500025064145
 31
0.0
  0
LINE
  5
12C
330
5C
100
AcDbEntity
  8
0
  6
Continuous
 62
     7
100
AcDbLine
 10
50.25000013923994
 20
226.0500025064147
 30
0.0
 11
45.25000013923994
 21
226.0500025064147
 31
0.0
  0
LINE
  5
12D
330
5C
100
AcDbEntity
  8
0
  6
Continuous
 62
     7
100
AcDbLine
 10
46.40000013923995
 20
231.9750025064146
 30
0.0
 11
46.40000013923995
 21
233.930027759584
 31
0.0
  0
LINE
  5
12E
330
5C
100
AcDbEntity
  8
0
  6
Continuous
 62
     7
100
AcDbLine
 10
46.40000013923995
 20
229.9750025064146
 30
0.0
 11
46.40000013923995
 21
231.9750025064146
 31
0.0
  0
LINE
  5
12F
330
5C
100
AcDbEntity
  8
0
  6
Continuous
 62
     7
100
AcDbLine
 10
46.05000013923993
 20
239.6323485663408
 30
0.0
 11
46.05000013923993
 21
238.0469025286139
 31
0.0
  0
LINE
  5
130
330
5C
100
AcDbEntity
  8
0
  6
Continuous
 62
     7
100
AcDbLine
 10
46.05000013923993
 20
238.0469025286139
 30
0.0
 11
46.05000013923993
 21
229.3500025064145
 31
0.0
  0
LINE
  5
131
330
5C
100
AcDbEntity
  8
0
  6
Continuous
 62
     7
100
AcDbLine
 10
45.25000013923994
 20
224.8500025064146
 30
0.0
 11
50.25000013923994
 21
224.8500025064146
 31
0.0
  0
LINE
  5
132
330
5C
100
AcDbEntity
  8
0
  6
Continuous
 62
     7
100
AcDbLine
 10
50.25000013923994
 20
224.0000025064146
 30
0.0
 11
50.25000013923994
 21
224.8500025064146
 31
0.0
  0
ENDBLK
  5
5E
330
5C
100
AcDbEntity
  8
0
100
AcDbBlockEnd
  0
BLOCK
  5
61
330
5F
100
AcDbEntity
  8
0
100
AcDbBlockBegin
  2
SA_Links1
 70
     0
 10
47.75000024057284
 20
233.6500004623498
 30
0.0
  3
SA_Links1
  1

  0
INSERT
  5
60
330
5F
100
AcDbEntity
  8
0
100
AcDbBlockReference
  2
MBK-select__4
 10
45.25000013923994
 20
222.8500025064145
 30
0.0
  0
MTEXT
  5
133
330
5F
100
AcDbEntity
  8
1
 62
     6
100
AcDbMText
 10
47.75000013924
 20
220.3500025064145
 30
0.0
 40
2.5
 41
0.0
 71
     2
 72
     1
  1
 
  7
CONVERTER_11
 73
     1
 44
1.32052821128451
  0
ENDBLK
  5
62
330
5F
100
AcDbEntity
  8
0
100
AcDbBlockEnd
  0
BLOCK
  5
64
330
63
100
AcDbEntity
  8
0
100
AcDbBlockBegin
  2
MBK-select__5
 70
     0
 10
-23.74999813923485
 20
222.8500025064143
 30
0.0
  3
MBK-select__5
  1

  0
LINE
  5
134
330
63
100
AcDbEntity
  8
0
  6
Continuous
 62
     7
100
AcDbLine
 10
-23.74999813923485
 20
222.8500025064143
 30
0.0
 11
-23.74999813923485
 21
224.0000025064143
 31
0.0
  0
LINE
  5
135
330
63
100
AcDbEntity
  8
0
  6
Continuous
 62
     7
100
AcDbLine
 10
-23.74999813923485
 20
244.4500025064143
 30
0.0
 11
-23.74999813923485
 21
226.0500025064143
 31
0.0
  0
LINE
  5
136
330
63
100
AcDbEntity
  8
0
  6
Continuous
 62
     7
100
AcDbLine
 10
-18.74999813923485
 20
224.8500025064142
 30
0.0
 11
-23.74999813923485
 21
224.8500025064142
 31
0.0
  0
LINE
  5
137
330
63
100
AcDbEntity
  8
0
  6
Continuous
 62
     7
100
AcDbLine
 10
-18.74999813923485
 20
222.8500025064143
 30
0.0
 11
-18.74999813923485
 21
224.0000025064143
 31
0.0
  0
LINE
  5
138
330
63
100
AcDbEntity
  8
0
  6
Continuous
 62
     7
100
AcDbLine
 10
-18.74999813923485
 20
222.8500025064143
 30
0.0
 11
-23.74999813923485
 21
222.8500025064143
 31
0.0
  0
LINE
  5
139
330
63
100
AcDbEntity
  8
0
  6
Continuous
 62
     7
100
AcDbLine
 10
-22.59999813923485
 20
229.9750025064143
 30
0.0
 11
-22.59999813923486
 21
231.9750025064142
 31
0.0
  0
LINE
  5
13A
330
63
100
AcDbEntity
  8
0
  6
Continuous
 62
     7
100
AcDbLine
 10
-22.59999813923486
 20
231.9750025064142
 30
0.0
 11
-22.59999813923486
 21
233.9300277595837
 31
0.0
  0
LINE
  5
13B
330
63
100
AcDbEntity
  8
0
  6
Continuous
 62
     7
100
AcDbLine
 10
-19.89999813923485
 20
233.9300277595837
 30
0.0
 11
-19.89999813923485
 21
231.9750025064142
 31
0.0
  0
LINE
  5
13C
330
63
100
AcDbEntity
  8
0
  6
Continuous
 62
     7
100
AcDbLine
 10
-19.89999813923485
 20
231.9750025064142
 30
0.0
 11
-19.89999813923485
 21
229.9750025064143
 31
0.0
  0
LINE
  5
13D
330
63
100
AcDbEntity
  8
0
  6
Continuous
 62
     7
100
AcDbLine
 10
-22.59999813923486
 20
233.9300277595837
 30
0.0
 11
-19.89999813923485
 21
233.9300277595837
 31
0.0
  0
LINE
  5
13E
330
63
100
AcDbEntity
  8
0
  6
Continuous
 62
     7
100
AcDbLine
 10
-19.54999813923485
 20
239.6323485663405
 30
0.0
 11
-22.94999813923485
 21
239.6323485663405
 31
0.0
  0
LINE
  5
13F
330
63
100
AcDbEntity
  8
0
  6
Continuous
 62
     7
100
AcDbLine
 10
-22.59999813923485
 20
229.9750025064143
 30
0.0
 11
-19.89999813923485
 21
229.9750025064143
 31
0.0
  0
LINE
  5
140
330
63
100
AcDbEntity
  8
0
  6
Continuous
 62
     7
100
AcDbLine
 10
-22.94999813923485
 20
238.0469025286137
 30
0.0
 11
-19.54999813923485
 21
238.0469025286137
 31
0.0
  0
LINE
  5
141
330
63
100
AcDbEntity
  8
0
  6
Continuous
 62
     7
100
AcDbLine
 10
-22.94999813923485
 20
229.3500025064142
 30
0.0
 11
-19.54999813923485
 21
229.3500025064142
 31
0.0
  0
LINE
  5
142
330
63
100
AcDbEntity
  8
0
  6
Continuous
 62
     7
100
AcDbLine
 10
-22.59999813923486
 20
231.9750025064142
 30
0.0
 11
-19.89999813923485
 21
231.9750025064142
 31
0.0
  0
LINE
  5
143
330
63
100
AcDbEntity
  8
0
  6
Continuous
 62
     7
100
AcDbLine
 10
-18.74999813923485
 20
244.4500025064143
 30
0.0
 11
-23.74999813923485
 21
244.4500025064143
 31
0.0
  0
LINE
  5
144
330
63
100
AcDbEntity
  8
0
  6
Continuous
 62
     7
100
AcDbLine
 10
-19.54999813923485
 20
238.0469025286137
 30
0.0
 11
-19.54999813923485
 21
239.6323485663405
 31
0.0
  0
LINE
  5
145
330
63
100
AcDbEntity
  8
0
  6
Continuous
 62
     7
100
AcDbLine
 10
-18.74999813923485
 20
226.0500025064143
 30
0.0
 11
-18.74999813923485
 21
224.8500025064142
 31
0.0
  0
LINE
  5
146
330
63
100
AcDbEntity
  8
0
  6
Continuous
 62
     7
100
AcDbLine
 10
-18.74999813923485
 20
244.4500025064143
 30
0.0
 11
-18.74999813923485
 21
226.0500025064143
 31
0.0
  0
LINE
  5
147
330
63
100
AcDbEntity
  8
0
  6
Continuous
 62
     7
100
AcDbLine
 10
-18.74999813923485
 20
224.8500025064142
 30
0.0
 11
-18.74999813923485
 21
224.0000025064143
 31
0.0
  0
LINE
  5
148
330
63
100
AcDbEntity
  8
0
  6
Continuous
 62
     7
100
AcDbLine
 10
-19.54999813923485
 20
229.3500025064142
 30
0.0
 11
-19.54999813923485
 21
238.0469025286137
 31
0.0
  0
LINE
  5
149
330
63
100
AcDbEntity
  8
0
  6
Continuous
 62
     2
100
AcDbLine
 10
-18.74999813923485
 20
224.0000025064143
 30
0.0
 11
-23.74999813923485
 21
224.0000025064143
 31
0.0
  0
LINE
  5
14A
330
63
100
AcDbEntity
  8
0
  6
Continuous
 62
     7
100
AcDbLine
 10
-18.74999813923485
 20
226.0500025064143
 30
0.0
 11
-23.74999813923485
 21
226.0500025064143
 31
0.0
  0
LINE
  5
14B
330
63
100
AcDbEntity
  8
0
  6
Continuous
 62
     7
100
AcDbLine
 10
-22.94999813923485
 20
238.0469025286137
 30
0.0
 11
-22.94999813923485
 21
239.6323485663405
 31
0.0
  0
LINE
  5
14C
330
63
100
AcDbEntity
  8
0
  6
Continuous
 62
     7
100
AcDbLine
 10
-23.74999813923485
 20
226.0500025064143
 30
0.0
 11
-23.74999813923485
 21
224.8500025064142
 31
0.0
  0
LINE
  5
14D
330
63
100
AcDbEntity
  8
0
  6
Continuous
 62
     7
100
AcDbLine
 10
-23.74999813923485
 20
224.8500025064142
 30
0.0
 11
-23.74999813923485
 21
224.0000025064143
 31
0.0
  0
LINE
  5
14E
330
63
100
AcDbEntity
  8
0
  6
Continuous
 62
     7
100
AcDbLine
 10
-22.94999813923485
 20
229.3500025064142
 30
0.0
 11
-22.94999813923485
 21
238.0469025286137
 31
0.0
  0
ENDBLK
  5
65
330
63
100
AcDbEntity
  8
0
100
AcDbBlockEnd
  0
BLOCK
  5
68
330
66
100
AcDbEntity
  8
0
100
AcDbBlockBegin
  2
SA_Rechts1
 70
     0
 10
-21.24999824056773
 20
233.6500004623495
 30
0.0
  3
SA_Rechts1
  1

  0
INSERT
  5
67
330
66
100
AcDbEntity
  8
0
100
AcDbBlockReference
  2
MBK-select__5
 10
-23.74999813923485
 20
222.8500025064143
 30
0.0
  0
MTEXT
  5
14F
330
66
100
AcDbEntity
  8
1
 62
     6
100
AcDbMText
 10
-21.24999813923485
 20
220.3500025064143
 30
0.0
 40
2.5
 41
0.0
 71
     2
 72
     1
  1
 
  7
CONVERTER_11
 73
     1
 44
1.32052821128451
  0
ENDBLK
  5
69
330
66
100
AcDbEntity
  8
0
100
AcDbBlockEnd
  0
BLOCK
  5
6B
330
6A
100
AcDbEntity
  8
0
100
AcDbBlockBegin
  2
MBK-select__6
 70
     0
 10
9.0000060100506
 20
222.8500025064144
 30
0.0
  3
MBK-select__6
  1

  0
LINE
  5
150
330
6A
100
AcDbEntity
  8
0
  6
Continuous
 62
     7
100
AcDbLine
 10
28.80000601005032
 20
224.8500025064144
 30
0.0
 11
29.45000601005036
 21
224.8500025064144
 31
0.0
  0
LINE
  5
151
330
6A
100
AcDbEntity
  8
0
  6
Continuous
 62
     7
100
AcDbLine
 10
29.45000601005036
 20
224.8500025064144
 30
0.0
 11
29.45000601005036
 21
224.0000025064145
 31
0.0
  0
LINE
  5
152
330
6A
100
AcDbEntity
  8
0
  6
Continuous
 62
     7
100
AcDbLine
 10
28.80000601005032
 20
226.0500025064145
 30
0.0
 11
28.80000601005032
 21
224.8500025064144
 31
0.0
  0
LINE
  5
153
330
6A
100
AcDbEntity
  8
0
  6
Continuous
 62
     7
100
AcDbLine
 10
31.00000601005031
 20
226.0500025064145
 30
0.0
 11
28.80000601005032
 21
226.0500025064145
 31
0.0
  0
LINE
  5
154
330
6A
100
AcDbEntity
  8
0
  6
Continuous
 62
     7
100
AcDbLine
 10
24.10000601005045
 20
223.2500025064145
 30
0.0
 11
15.90000601005046
 21
223.2500025064145
 31
0.0
  0
LINE
  5
155
330
6A
100
AcDbEntity
  8
0
  6
Continuous
 62
     7
100
AcDbLine
 10
15.90000601005046
 20
223.2500025064145
 30
0.0
 11
15.90000601005046
 21
226.8500025064144
 31
0.0
  0
LINE
  5
156
330
6A
100
AcDbEntity
  8
0
  6
Continuous
 62
     7
100
AcDbLine
 10
12.30000601005033
 20
226.8500025064144
 30
0.0
 11
12.30000601005033
 21
225.5500025064146
 31
0.0
  0
LINE
  5
157
330
6A
100
AcDbEntity
  8
0
  6
Continuous
 62
     7
100
AcDbLine
 10
12.30000601005033
 20
225.5500025064146
 30
0.0
 11
12.85000601005034
 21
225.5500025064146
 31
0.0
  0
LINE
  5
158
330
6A
100
AcDbEntity
  8
0
  6
Continuous
 62
     7
100
AcDbLine
 10
12.85000601005034
 20
225.5500025064146
 30
0.0
 11
12.85000601005039
 21
224.0000025064145
 31
0.0
  0
LINE
  5
159
330
6A
100
AcDbEntity
  8
0
  6
Continuous
 62
     7
100
AcDbLine
 10
10.55000601005033
 20
224.0000025064145
 30
0.0
 11
10.55000601005033
 21
224.8500025064145
 31
0.0
  0
LINE
  5
15A
330
6A
100
AcDbEntity
  8
0
  6
Continuous
 62
     7
100
AcDbLine
 10
10.55000601005033
 20
224.8500025064145
 30
0.0
 11
11.20000601005036
 21
224.8500025064145
 31
0.0
  0
LINE
  5
15B
330
6A
100
AcDbEntity
  8
0
  6
Continuous
 62
     7
100
AcDbLine
 10
11.20000601005036
 20
224.8500025064145
 30
0.0
 11
11.20000601005036
 21
226.0500025064146
 31
0.0
  0
LINE
  5
15C
330
6A
100
AcDbEntity
  8
0
  6
Continuous
 62
     7
100
AcDbLine
 10
11.20000601005036
 20
226.0500025064146
 30
0.0
 11
9.0000060100506
 21
226.0500025064146
 31
0.0
  0
LINE
  5
15D
330
6A
100
AcDbEntity
  8
0
  6
Continuous
 62
     7
100
AcDbLine
 10
24.10000601005045
 20
226.8500025064144
 30
0.0
 11
24.10000601005045
 21
223.2500025064145
 31
0.0
  0
LINE
  5
15E
330
6A
100
AcDbEntity
  8
0
  6
Continuous
 62
     7
100
AcDbLine
 10
9.0000060100506
 20
226.0500025064146
 30
0.0
 11
9.0000060100506
 21
244.4500025064145
 31
0.0
  0
LINE
  5
15F
330
6A
100
AcDbEntity
  8
0
  6
Continuous
 62
     7
100
AcDbLine
 10
31.00000601005031
 20
244.4500025064145
 30
0.0
 11
31.00000601005031
 21
226.0500025064145
 31
0.0
  0
LINE
  5
160
330
6A
100
AcDbEntity
  8
0
  6
Continuous
 62
     7
100
AcDbLine
 10
27.15000601005029
 20
224.0000025064144
 30
0.0
 11
27.15000601005035
 21
225.5500025064145
 31
0.0
  0
LINE
  5
161
330
6A
100
AcDbEntity
  8
0
  6
Continuous
 62
     7
100
AcDbLine
 10
27.15000601005035
 20
225.5500025064145
 30
0.0
 11
27.70000601005036
 21
225.5500025064145
 31
0.0
  0
LINE
  5
162
330
6A
100
AcDbEntity
  8
0
  6
Continuous
 62
     7
100
AcDbLine
 10
27.70000601005036
 20
225.5500025064145
 30
0.0
 11
27.70000601005036
 21
226.8500025064144
 31
0.0
  0
LINE
  5
163
330
6A
100
AcDbEntity
  8
0
  6
Continuous
 62
     7
100
AcDbLine
 10
15.90000601005046
 20
226.8500025064144
 30
0.0
 11
12.30000601005033
 21
226.8500025064144
 31
0.0
  0
LINE
  5
164
330
6A
100
AcDbEntity
  8
0
  6
Continuous
 62
     7
100
AcDbLine
 10
27.70000601005036
 20
226.8500025064144
 30
0.0
 11
24.10000601005045
 21
226.8500025064144
 31
0.0
  0
LINE
  5
165
330
6A
100
AcDbEntity
  8
0
  6
Continuous
 62
     7
100
AcDbLine
 10
31.00000601005031
 20
244.4500025064145
 30
0.0
 11
9.0000060100506
 21
244.4500025064145
 31
0.0
  0
ARC
  5
166
330
6A
100
AcDbEntity
  8
0
  6
Continuous
 62
     7
100
AcDbCircle
 10
11.70000601005036
 20
224.0000025064145
 30
0.0
 40
1.150000000000031
100
AcDbArc
 50
180.0
 51
0.0
  0
ARC
  5
167
330
6A
100
AcDbEntity
  8
0
  6
Continuous
 62
     7
100
AcDbCircle
 10
28.30000601005032
 20
224.0000025064144
 30
0.0
 40
1.150000000000031
100
AcDbArc
 50
180.0
 51
0.00000000000425
  0
ENDBLK
  5
6C
330
6A
100
AcDbEntity
  8
0
100
AcDbBlockEnd
  0
BLOCK
  5
6F
330
6D
100
AcDbEntity
  8
0
100
AcDbBlockBegin
  2
Vordans1
 70
     0
 10
20.00000067001996
 20
233.6500004623497
 30
0.0
  3
Vordans1
  1

  0
INSERT
  5
6E
330
6D
100
AcDbEntity
  8
0
100
AcDbBlockReference
  2
MBK-select__6
 10
9.0000060100506
 20
222.8500025064144
 30
0.0
  0
LINE
  5
168
330
6D
100
AcDbEntity
  8
1
  6
Continuous
 62
     2
100
AcDbLine
 10
20.20000601005038
 20
225.069589718544
 30
0.0
 11
20.20000601005038
 21
221.157933747696
 31
0.0
  0
MTEXT
  5
169
330
6D
100
AcDbEntity
  8
1
 62
     6
100
AcDbMText
 10
5.28750601005046
 20
204.5695897185441
 30
0.0
 40
2.5
 41
0.0
 71
     2
 72
     1
  1
 
  7
CONVERTER_11
 73
     1
 44
1.32052821128451
  0
DIMENSION
  5
174
330
6D
100
AcDbEntity
  8
1
100
AcDbDimension
  2
*D18
 10
31.00000601005031
 20
212.8195897185441
 30
0.0
 11
24.2876903285176
 21
214.5320897185441
 31
0.0
 70
    32
  1
<>
 71
     5
 42
-1.0
 53
0.00013888888889
  3
ME10_DIM_11
100
AcDbAlignedDimension
 13
20.20000601005038
 23
225.069589718544
 33
0.0
 14
31.00000601005031
 24
226.0500025064145
 34
0.0
100
AcDbRotatedDimension
  0
DIMENSION
  5
17F
330
6D
100
AcDbEntity
  8
1
100
AcDbDimension
  2
*D19
 10
27.70000601005037
 20
217.3195897185441
 30
0.0
 11
23.84091346258779
 21
219.0320897185441
 31
0.0
 70
    32
  1
<>
 71
     5
 42
-1.0
 53
0.00013888888889
  3
ME10_DIM_12
100
AcDbAlignedDimension
 13
20.20000601005038
 23
225.069589718544
 33
0.0
 14
27.70000601005036
 24
225.5500025064145
 34
0.0
100
AcDbRotatedDimension
  0
DIMENSION
  5
18A
330
6D
100
AcDbEntity
  8
1
100
AcDbDimension
  2
*D20
 10
2.7500060100506
 20
226.0500025064146
 30
0.0
 11
1.0375060100506
 21
235.2500025064145
 31
0.0
 70
    32
  1
<>
 71
     5
 42
-1.0
 53
90.0
  3
ME10_DIM_13
100
AcDbAlignedDimension
 13
9.0000060100506
 23
244.4500025064145
 33
0.0
 14
9.0000060100506
 24
226.0500025064146
 34
0.0
 50
90.0
100
AcDbRotatedDimension
  0
DIMENSION
  5
195
330
6D
100
AcDbEntity
  8
1
100
AcDbDimension
  2
*D21
 10
9.0000060100506
 20
208.422211104529
 30
0.0
 11
19.7580593053827
 21
210.047211104529
 31
0.0
 70
    33
  1
<>
 71
     5
 42
-1.0
 53
0.00013888888889
  3
ME10_DIM_14
100
AcDbAlignedDimension
 13
31.00000601005031
 23
244.4500025064145
 33
0.0
 14
9.0000060100506
 24
244.4500025064145
 34
0.0
  0
INSERT
  5
19F
330
6D
100
AcDbEntity
  8
1
100
AcDbBlockReference
  2
*D22
 10
0.0
 20
0.0
 30
0.0
  0
ENDBLK
  5
70
330
6D
100
AcDbEntity
  8
0
100
AcDbBlockEnd
  0
BLOCK
  5
72
330
71
100
AcDbEntity
  8
0
100
AcDbBlockBegin
  2
_rahmen
 70
     0
 10
217.5217658740148
 20
323.0003735557128
 30
0.0
  3
_rahmen
  1

  0
LINE
  5
1A0
330
71
100
AcDbEntity
  8
1
  6
DOT_CENTER
 62
     2
100
AcDbLine
 10
91.9636162338274
 20
349.1253735557128
 30
0.0
 11
97.4636162338274
 21
349.1253735557128
 31
0.0
  0
LINE
  5
1A1
330
71
100
AcDbEntity
  8
1
  6
PHANTOM
 62
     2
100
AcDbLine
 10
100.7136162338274
 20
351.8753735557128
 30
0.0
 11
100.7136162338274
 21
346.3753735557128
 31
0.0
  0
LINE
  5
1A2
330
71
100
AcDbEntity
  8
1
  6
PHANTOM
 62
     2
100
AcDbLine
 10
103.4636162338274
 20
349.1253735557128
 30
0.0
 11
97.9636162338274
 21
349.1253735557128
 31
0.0
  0
LINE
  5
1A3
330
71
100
AcDbEntity
  8
1
  6
Continuous
 62
     7
100
AcDbLine
 10
152.2769613472648
 20
336.5003735557128
 30
0.0
 11
152.2769613472648
 21
345.0003735557129
 31
0.0
  0
LINE
  5
1A4
330
71
100
AcDbEntity
  8
1
  6
Continuous
 62
     6
100
AcDbLine
 10
124.3769613472647
 20
345.0003735557129
 30
0.0
 11
217.5217658740165
 21
345.0003735557129
 31
0.0
  0
LINE
  5
1A5
330
71
100
AcDbEntity
  8
1
  6
Continuous
 62
     7
100
AcDbLine
 10
87.97696134726479
 20
345.0003735557129
 30
0.0
 11
87.97696134726479
 21
353.5003735557129
 31
0.0
  0
LINE
  5
1A6
330
71
100
AcDbEntity
  8
1
  6
Continuous
 62
     7
100
AcDbLine
 10
124.3769613472647
 20
345.0003735557129
 30
0.0
 11
124.3769613472647
 21
353.5003735557129
 31
0.0
  0
LINE
  5
1A7
330
71
100
AcDbEntity
  8
1
  6
Continuous
 62
     7
100
AcDbLine
 10
182.1033575923377
 20
353.5003735557129
 30
0.0
 11
182.1033575923377
 21
345.0003735557129
 31
0.0
  0
LINE
  5
1A8
330
71
100
AcDbEntity
  8
1
  6
Continuous
 62
     7
100
AcDbLine
 10
208.6033575923373
 20
353.5003735557129
 30
0.0
 11
208.6033575923373
 21
345.0003735557129
 31
0.0
  0
LINE
  5
1A9
330
71
100
AcDbEntity
  8
1
  6
Continuous
 62
     6
100
AcDbLine
 10
18.97696134726482
 20
328.0003735557129
 30
0.0
 11
-25.97823412598518
 21
328.0003735557129
 31
0.0
  0
LINE
  5
1AA
330
71
100
AcDbEntity
  8
1
  6
Continuous
 62
     7
100
AcDbLine
 10
217.5217658740161
 20
336.5003735557129
 30
0.0
 11
124.3769613472647
 21
336.5003735557129
 31
0.0
  0
LINE
  5
1AB
102
{ACAD_REACTORS
330
2BD
330
2BE
102
}
330
71
100
AcDbEntity
  8
0
  6
Continuous
 62
     2
100
AcDbLine
 10
101.6843902890322
 20
337.3006626713762
 30
0.0
 11
101.6843902890322
 21
338.1731796781795
 31
0.0
  0
LINE
  5
1AC
102
{ACAD_REACTORS
330
2BD
330
2BE
102
}
330
71
100
AcDbEntity
  8
0
  6
Continuous
 62
     2
100
AcDbLine
 10
101.6843902890322
 20
336.3408939638933
 30
0.0
 11
101.6843902890322
 21
335.4683769570901
 31
0.0
  0
LINE
  5
1AD
102
{ACAD_REACTORS
330
2BF
330
2C0
102
}
330
71
100
AcDbEntity
  8
0
  6
Continuous
 62
     2
100
AcDbLine
 10
117.0174344253227
 20
337.5624177734168
 30
0.0
 11
118.1210737248908
 21
337.5624177734168
 31
0.0
  0
LINE
  5
1AE
102
{ACAD_REACTORS
330
2BF
330
2C0
102
}
330
71
100
AcDbEntity
  8
0
  6
Continuous
 62
     2
100
AcDbLine
 10
117.7870917682841
 20
336.3408939638929
 30
0.0
 11
117.7870917682841
 21
335.4683769570895
 31
0.0
  0
LINE
  5
1AF
102
{ACAD_REACTORS
330
2C9
330
2CA
102
}
330
71
100
AcDbEntity
  8
0
  6
Continuous
 62
     2
100
AcDbLine
 10
115.9263351529042
 20
338.6530640319036
 30
0.0
 11
117.3242881998445
 21
340.2339230256786
 31
0.0
  0
LINE
  5
1B0
102
{ACAD_REACTORS
330
2C9
330
2CA
102
}
330
71
100
AcDbEntity
  8
0
  6
Continuous
 62
     2
100
AcDbLine
 10
116.021758569077
 20
341.7068735557148
 30
0.0
 11
117.3242881998445
 21
340.2339230256786
 31
0.0
  0
LINE
  5
1B1
102
{ACAD_REACTORS
330
2C9
330
2CA
102
}
330
71
100
AcDbEntity
  8
0
  6
Continuous
 62
     2
100
AcDbLine
 10
118.6268178306109
 20
341.7068735557148
 30
0.0
 11
120.0295420483581
 21
341.7068735557148
 31
0.0
  0
LINE
  5
1B2
102
{ACAD_REACTORS
330
2C9
330
2CA
102
}
330
71
100
AcDbEntity
  8
0
  6
Continuous
 62
     2
100
AcDbLine
 10
117.3290593706524
 20
338.6530640319036
 30
0.0
 11
118.0256503087181
 21
339.4407958171972
 31
0.0
  0
LINE
  5
1B3
102
{ACAD_REACTORS
330
2C9
330
2CA
102
}
330
71
100
AcDbEntity
  8
0
  6
Continuous
 62
     2
100
AcDbLine
 10
117.3290593706524
 20
338.6530640319036
 30
0.0
 11
115.9263351529042
 21
338.6530640319036
 31
0.0
  0
LINE
  5
1B4
102
{ACAD_REACTORS
330
2CB
330
2CC
102
}
330
71
100
AcDbEntity
  8
0
  6
Continuous
 62
     2
100
AcDbLine
 10
115.8070558826873
 20
338.6530640319036
 30
0.0
 11
114.5665514724344
 21
338.6530640319036
 31
0.0
  0
LINE
  5
1B5
102
{ACAD_REACTORS
330
2CD
330
2CE
102
}
330
71
100
AcDbEntity
  8
0
  6
Continuous
 62
     2
100
AcDbLine
 10
113.6985718642793
 20
336.5153973652538
 30
0.0
 11
113.3984066270892
 21
337.2832123312404
 31
0.0
  0
LINE
  5
1B6
102
{ACAD_REACTORS
330
2CD
330
2CE
102
}
330
71
100
AcDbEntity
  8
0
  6
Continuous
 62
     2
100
AcDbLine
 10
113.0982413898968
 20
336.5153973652538
 30
0.0
 11
113.6985718642793
 21
336.5153973652538
 31
0.0
  0
LINE
  5
1B7
102
{ACAD_REACTORS
330
2CD
330
2CE
102
}
330
71
100
AcDbEntity
  8
0
  6
Continuous
 62
     2
100
AcDbLine
 10
111.380201375023
 20
335.2938735557293
 30
0.0
 11
112.620705785276
 21
335.2938735557293
 31
0.0
  0
LINE
  5
1B8
102
{ACAD_REACTORS
330
2CD
330
2CE
102
}
330
71
100
AcDbEntity
  8
0
  6
Continuous
 62
     2
100
AcDbLine
 10
112.7781544219623
 20
338.3476830795403
 30
0.0
 11
114.018658832215
 21
338.3476830795403
 31
0.0
  0
LINE
  5
1B9
102
{ACAD_REACTORS
330
2CD
330
2CE
102
}
330
71
100
AcDbEntity
  8
0
  6
Continuous
 62
     2
100
AcDbLine
 10
114.018658832215
 20
338.3476830795403
 30
0.0
 11
115.4166118791553
 21
335.2938735557293
 31
0.0
  0
LINE
  5
1BA
102
{ACAD_REACTORS
330
2CD
330
2CE
102
}
330
71
100
AcDbEntity
  8
0
  6
Continuous
 62
     2
100
AcDbLine
 10
114.1761074689014
 20
335.2938735557293
 30
0.0
 11
113.9646274154256
 21
335.8348340999471
 31
0.0
  0
LINE
  5
1BB
102
{ACAD_REACTORS
330
2CF
330
2D0
102
}
330
71
100
AcDbEntity
  8
0
  6
Continuous
 62
     2
100
AcDbLine
 10
110.0337882733154
 20
335.2938735557293
 30
0.0
 11
111.2265809754819
 21
335.2938735557293
 31
0.0
  0
LINE
  5
1BC
102
{ACAD_REACTORS
330
2CF
330
2D0
102
}
330
71
100
AcDbEntity
  8
0
  6
Continuous
 62
     2
100
AcDbLine
 10
110.0337882733154
 20
337.5624177734168
 30
0.0
 11
110.0337882733154
 21
335.2938735557293
 31
0.0
  0
LINE
  5
1BD
102
{ACAD_REACTORS
330
2CF
330
2D0
102
}
330
71
100
AcDbEntity
  8
0
  6
Continuous
 62
     2
100
AcDbLine
 10
109.2226892358408
 20
338.3476830795403
 30
0.0
 11
109.2226892358408
 21
337.5624177734168
 31
0.0
  0
LINE
  5
1BE
102
{ACAD_REACTORS
330
2D1
330
2D2
102
}
330
71
100
AcDbEntity
  8
0
  6
Continuous
 62
     2
100
AcDbLine
 10
110.7019031174134
 20
338.6530640319036
 30
0.0
 11
111.8946958195799
 21
338.6530640319036
 31
0.0
  0
LINE
  5
1BF
102
{ACAD_REACTORS
330
2D1
330
2D2
102
}
330
71
100
AcDbEntity
  8
0
  6
Continuous
 62
     2
100
AcDbLine
 10
113.1352002298339
 20
340.3980980455095
 30
0.0
 11
111.8946958195799
 21
341.7068735557148
 31
0.0
  0
LINE
  5
1C0
102
{ACAD_REACTORS
330
2D1
330
2D2
102
}
330
71
100
AcDbEntity
  8
0
  6
Continuous
 62
     2
100
AcDbLine
 10
114.3279929320005
 20
341.7068735557148
 30
0.0
 11
113.1352002298339
 21
341.7068735557148
 31
0.0
  0
LINE
  5
1C1
102
{ACAD_REACTORS
330
2D1
330
2D2
102
}
330
71
100
AcDbEntity
  8
0
  6
Continuous
 62
     2
100
AcDbLine
 10
114.3279929320005
 20
338.6530640319036
 30
0.0
 11
114.3279929320005
 21
341.7068735557148
 31
0.0
  0
LINE
  5
1C2
102
{ACAD_REACTORS
330
2D1
330
2D2
102
}
330
71
100
AcDbEntity
  8
0
  6
Continuous
 62
     2
100
AcDbLine
 10
113.1352002298339
 20
338.6530640319036
 30
0.0
 11
114.3279929320005
 21
338.6530640319036
 31
0.0
  0
LINE
  5
1C3
102
{ACAD_REACTORS
330
2D1
330
2D2
102
}
330
71
100
AcDbEntity
  8
0
  6
Continuous
 62
     2
100
AcDbLine
 10
111.8946958195799
 20
339.9618395421082
 30
0.0
 11
113.1352002298339
 21
338.6530640319036
 31
0.0
  0
LINE
  5
1C4
102
{ACAD_REACTORS
330
2D3
330
2D4
102
}
330
71
100
AcDbEntity
  8
0
  6
Continuous
 62
     2
100
AcDbLine
 10
107.8867614094142
 20
337.0389075693353
 30
0.0
 11
106.6462569991613
 21
338.3476830795403
 31
0.0
  0
LINE
  5
1C5
102
{ACAD_REACTORS
330
2D3
330
2D4
102
}
330
71
100
AcDbEntity
  8
0
  6
Continuous
 62
     2
100
AcDbLine
 10
107.8867614094142
 20
338.3476830795403
 30
0.0
 11
107.8867614094142
 21
337.0389075693353
 31
0.0
  0
LINE
  5
1C6
102
{ACAD_REACTORS
330
2D3
330
2D4
102
}
330
71
100
AcDbEntity
  8
0
  6
Continuous
 62
     2
100
AcDbLine
 10
109.0795541115806
 20
338.3476830795403
 30
0.0
 11
107.8867614094142
 21
338.3476830795403
 31
0.0
  0
LINE
  5
1C7
102
{ACAD_REACTORS
330
2D3
330
2D4
102
}
330
71
100
AcDbEntity
  8
0
  6
Continuous
 62
     2
100
AcDbLine
 10
109.0795541115806
 20
335.2938735557293
 30
0.0
 11
109.0795541115806
 21
338.3476830795403
 31
0.0
  0
LINE
  5
1C8
102
{ACAD_REACTORS
330
2D3
330
2D4
102
}
330
71
100
AcDbEntity
  8
0
  6
Continuous
 62
     2
100
AcDbLine
 10
106.6462569991613
 20
336.6026490659339
 30
0.0
 11
107.8867614094142
 21
335.2938735557293
 31
0.0
  0
LINE
  5
1C9
102
{ACAD_REACTORS
330
2D3
330
2D4
102
}
330
71
100
AcDbEntity
  8
0
  6
Continuous
 62
     2
100
AcDbLine
 10
106.6462569991613
 20
335.2938735557293
 30
0.0
 11
106.6462569991613
 21
336.6026490659339
 31
0.0
  0
LINE
  5
1CA
102
{ACAD_REACTORS
330
2C3
330
2C4
102
}
330
71
100
AcDbEntity
  8
0
  6
Continuous
 62
     2
100
AcDbLine
 10
109.1274167505528
 20
341.0088599502718
 30
0.0
 11
110.4633445769805
 21
341.0088599502718
 31
0.0
  0
LINE
  5
1CB
102
{ACAD_REACTORS
330
2C3
330
2C4
102
}
330
71
100
AcDbEntity
  8
0
  6
Continuous
 62
     2
100
AcDbLine
 10
109.1274167505528
 20
339.3510776373461
 30
0.0
 11
109.1274167505528
 21
339.8309619910878
 31
0.0
  0
LINE
  5
1CC
102
{ACAD_REACTORS
330
2C3
330
2C4
102
}
330
71
100
AcDbEntity
  8
0
  6
Continuous
 62
     2
100
AcDbLine
 10
110.4633445769805
 20
339.3510776373461
 30
0.0
 11
109.1274167505528
 21
339.3510776373461
 31
0.0
  0
LINE
  5
1CD
102
{ACAD_REACTORS
330
2C3
330
2C4
102
}
330
71
100
AcDbEntity
  8
0
  6
Continuous
 62
     2
100
AcDbLine
 10
110.4633445769805
 20
338.6530640319036
 30
0.0
 11
110.4633445769805
 21
339.3510776373461
 31
0.0
  0
LINE
  5
1CE
102
{ACAD_REACTORS
330
2C3
330
2C4
102
}
330
71
100
AcDbEntity
  8
0
  6
Continuous
 62
     2
100
AcDbLine
 10
107.3130248531995
 20
338.6530640319036
 30
0.0
 11
110.4633445769805
 21
338.6530640319036
 31
0.0
  0
LINE
  5
1CF
102
{ACAD_REACTORS
330
2C3
330
2C4
102
}
330
71
100
AcDbEntity
  8
0
  6
Continuous
 62
     2
100
AcDbLine
 10
107.3130248531995
 20
341.7068735557148
 30
0.0
 11
110.4633445769805
 21
341.7068735557148
 31
0.0
  0
LINE
  5
1D0
102
{ACAD_REACTORS
330
2C3
330
2C4
102
}
330
71
100
AcDbEntity
  8
0
  6
Continuous
 62
     2
100
AcDbLine
 10
110.4633445769805
 20
341.0088599502718
 30
0.0
 11
110.4633445769805
 21
341.7068735557148
 31
0.0
  0
LINE
  5
1D1
102
{ACAD_REACTORS
330
2D5
330
2D6
102
}
330
71
100
AcDbEntity
  8
0
  6
Continuous
 62
     2
100
AcDbLine
 10
104.4516693580595
 20
340.6380402223801
 30
0.0
 11
104.4516693580595
 21
341.7068735557148
 31
0.0
  0
LINE
  5
1D2
102
{ACAD_REACTORS
330
2D5
330
2D6
102
}
330
71
100
AcDbEntity
  8
0
  6
Continuous
 62
     2
100
AcDbLine
 10
104.4516693580595
 20
341.7068735557148
 30
0.0
 11
105.6444620602259
 21
341.7068735557148
 31
0.0
  0
LINE
  5
1D3
102
{ACAD_REACTORS
330
2D5
330
2D6
102
}
330
71
100
AcDbEntity
  8
0
  6
Continuous
 62
     2
100
AcDbLine
 10
104.4516693580595
 20
339.7873361407474
 30
0.0
 11
103.402011780152
 21
339.7873361407474
 31
0.0
  0
LINE
  5
1D4
102
{ACAD_REACTORS
330
2D5
330
2D6
102
}
330
71
100
AcDbEntity
  8
0
  6
Continuous
 62
     2
100
AcDbLine
 10
103.402011780152
 20
339.7873361407474
 30
0.0
 11
103.402011780152
 21
338.6530640319036
 31
0.0
  0
LINE
  5
1D5
102
{ACAD_REACTORS
330
2D5
330
2D6
102
}
330
71
100
AcDbEntity
  8
0
  6
Continuous
 62
     2
100
AcDbLine
 10
102.2092190779854
 20
341.7068735557148
 30
0.0
 11
102.2092190779854
 21
338.6530640319036
 31
0.0
  0
LINE
  5
1D6
102
{ACAD_REACTORS
330
2C7
330
2C8
102
}
330
71
100
AcDbEntity
  8
0
  6
Continuous
 62
     2
100
AcDbLine
 10
100.2530390464318
 20
340.3380400609324
 30
0.0
 11
100.2530390464318
 21
341.0437677102747
 31
0.0
  0
LINE
  5
1D7
102
{ACAD_REACTORS
330
2C7
330
2C8
102
}
330
71
100
AcDbEntity
  8
0
  6
Continuous
 62
     2
100
AcDbLine
 10
99.01253463617769
 20
338.6530640319036
 30
0.0
 11
100.2530390464318
 21
338.6530640319036
 31
0.0
  0
LINE
  5
1D8
102
{ACAD_REACTORS
330
2C7
330
2C8
102
}
330
71
100
AcDbEntity
  8
0
  6
Continuous
 62
     2
100
AcDbLine
 10
100.2530390464318
 20
338.6530640319036
 30
0.0
 11
100.2530390464318
 21
339.5961422730474
 31
0.0
  0
LINE
  5
1D9
102
{ACAD_REACTORS
330
2C1
330
2C2
102
}
330
71
100
AcDbEntity
  8
0
  6
Continuous
 62
     2
100
AcDbLine
 10
94.70758878696631
 20
336.0064291112861
 30
0.0
 11
93.23175552595669
 21
336.0064291112861
 31
0.0
  0
LINE
  5
1DA
102
{ACAD_REACTORS
330
2C1
330
2C2
102
}
330
71
100
AcDbEntity
  8
0
  6
Continuous
 62
     2
100
AcDbLine
 10
92.2136162338274
 20
341.2826289403128
 30
0.0
 11
92.2136162338274
 21
335.7181181711126
 31
0.0
  0
LINE
  5
1DB
102
{ACAD_REACTORS
330
2C1
330
2C2
102
}
330
71
100
AcDbEntity
  8
0
  6
Continuous
 62
     2
100
AcDbLine
 10
92.6378608492102
 20
341.7068735556966
 30
0.0
 11
98.111172939927
 21
341.7068735556966
 31
0.0
  0
LINE
  5
1DC
102
{ACAD_REACTORS
330
2C1
330
2C2
102
}
330
71
100
AcDbEntity
  8
0
  6
Continuous
 62
     2
100
AcDbLine
 10
98.53541755531089
 20
341.2826289403128
 30
0.0
 11
98.53541755531089
 21
335.7181181711126
 31
0.0
  0
LINE
  5
1DD
102
{ACAD_REACTORS
330
2C1
330
2C2
102
}
330
71
100
AcDbEntity
  8
0
  6
Continuous
 62
     2
100
AcDbLine
 10
98.111172939927
 20
335.2938735557293
 30
0.0
 11
92.6378608492102
 21
335.2938735557293
 31
0.0
  0
LINE
  5
1DE
102
{ACAD_REACTORS
330
2C1
330
2C2
102
}
330
71
100
AcDbEntity
  8
0
  6
Continuous
 62
     2
100
AcDbLine
 10
95.0233057100429
 20
336.3221460343629
 30
0.0
 11
95.0233057100429
 21
337.8529169658945
 31
0.0
  0
LINE
  5
1DF
102
{ACAD_REACTORS
330
2C1
330
2C2
102
}
330
71
100
AcDbEntity
  8
0
  6
Continuous
 62
     2
100
AcDbLine
 10
95.0233057100429
 20
340.0745764580195
 30
0.0
 11
95.0233057100429
 21
340.67860107708
 31
0.0
  0
LINE
  5
1E0
102
{ACAD_REACTORS
330
2C1
330
2C2
102
}
330
71
100
AcDbEntity
  8
0
  6
Continuous
 62
     2
100
AcDbLine
 10
93.23175552595669
 20
340.9943180001561
 30
0.0
 11
94.70758878696631
 21
340.9943180001561
 31
0.0
  0
LINE
  5
1E1
102
{ACAD_REACTORS
330
2C1
330
2C2
102
}
330
71
100
AcDbEntity
  8
0
  6
Continuous
 62
     2
100
AcDbLine
 10
92.916038602881
 20
340.67860107708
 30
0.0
 11
92.916038602881
 21
336.3221460343629
 31
0.0
  0
LINE
  5
1E2
102
{ACAD_REACTORS
330
2C7
330
2C8
102
}
330
71
100
AcDbEntity
  8
0
  6
Continuous
 62
     2
100
AcDbLine
 10
100.2530390464318
 20
339.5961422730474
 30
0.0
 11
101.0118066342121
 21
339.5961422730474
 31
0.0
  0
LINE
  5
1E3
102
{ACAD_REACTORS
330
2C7
330
2C8
102
}
330
71
100
AcDbEntity
  8
0
  6
Continuous
 62
     2
100
AcDbLine
 10
99.01253463617769
 20
341.7068735557148
 30
0.0
 11
101.0118066342121
 21
341.7068735557148
 31
0.0
  0
LINE
  5
1E4
102
{ACAD_REACTORS
330
2C7
330
2C8
102
}
330
71
100
AcDbEntity
  8
0
  6
Continuous
 62
     2
100
AcDbLine
 10
99.01253463617769
 20
341.7068735557148
 30
0.0
 11
99.01253463617769
 21
338.6530640319036
 31
0.0
  0
LINE
  5
1E5
102
{ACAD_REACTORS
330
2C7
330
2C8
102
}
330
71
100
AcDbEntity
  8
0
  6
Continuous
 62
     2
100
AcDbLine
 10
100.2530390464318
 20
340.3380400609324
 30
0.0
 11
100.5703341079737
 21
340.3380400609324
 31
0.0
  0
LINE
  5
1E6
102
{ACAD_REACTORS
330
2C7
330
2C8
102
}
330
71
100
AcDbEntity
  8
0
  6
Continuous
 62
     2
100
AcDbLine
 10
100.2530390464318
 20
341.0437677102747
 30
0.0
 11
100.5703341079737
 21
341.0437677102747
 31
0.0
  0
LINE
  5
1E7
102
{ACAD_REACTORS
330
2D5
330
2D6
102
}
330
71
100
AcDbEntity
  8
0
  6
Continuous
 62
     2
100
AcDbLine
 10
103.402011780152
 20
340.6380402223801
 30
0.0
 11
104.4516693580595
 21
340.6380402223801
 31
0.0
  0
LINE
  5
1E8
102
{ACAD_REACTORS
330
2D5
330
2D6
102
}
330
71
100
AcDbEntity
  8
0
  6
Continuous
 62
     2
100
AcDbLine
 10
103.402011780152
 20
341.7068735557148
 30
0.0
 11
103.402011780152
 21
340.6380402223801
 31
0.0
  0
LINE
  5
1E9
102
{ACAD_REACTORS
330
2D5
330
2D6
102
}
330
71
100
AcDbEntity
  8
0
  6
Continuous
 62
     2
100
AcDbLine
 10
102.2092190779854
 20
341.7068735557148
 30
0.0
 11
103.402011780152
 21
341.7068735557148
 31
0.0
  0
LINE
  5
1EA
102
{ACAD_REACTORS
330
2D5
330
2D6
102
}
330
71
100
AcDbEntity
  8
0
  6
Continuous
 62
     2
100
AcDbLine
 10
103.402011780152
 20
338.6530640319036
 30
0.0
 11
102.2092190779854
 21
338.6530640319036
 31
0.0
  0
LINE
  5
1EB
102
{ACAD_REACTORS
330
2D5
330
2D6
102
}
330
71
100
AcDbEntity
  8
0
  6
Continuous
 62
     2
100
AcDbLine
 10
104.4516693580595
 20
338.6530640319036
 30
0.0
 11
104.4516693580595
 21
339.7873361407474
 31
0.0
  0
LINE
  5
1EC
102
{ACAD_REACTORS
330
2D5
330
2D6
102
}
330
71
100
AcDbEntity
  8
0
  6
Continuous
 62
     2
100
AcDbLine
 10
105.6444620602259
 20
338.6530640319036
 30
0.0
 11
104.4516693580595
 21
338.6530640319036
 31
0.0
  0
LINE
  5
1ED
102
{ACAD_REACTORS
330
2D5
330
2D6
102
}
330
71
100
AcDbEntity
  8
0
  6
Continuous
 62
     2
100
AcDbLine
 10
105.6444620602259
 20
341.7068735557148
 30
0.0
 11
105.6444620602259
 21
338.6530640319036
 31
0.0
  0
LINE
  5
1EE
102
{ACAD_REACTORS
330
2C3
330
2C4
102
}
330
71
100
AcDbEntity
  8
0
  6
Continuous
 62
     2
100
AcDbLine
 10
109.1274167505528
 20
339.8309619910878
 30
0.0
 11
110.4633445769805
 21
339.8309619910878
 31
0.0
  0
LINE
  5
1EF
102
{ACAD_REACTORS
330
2C3
330
2C4
102
}
330
71
100
AcDbEntity
  8
0
  6
Continuous
 62
     2
100
AcDbLine
 10
110.4633445769805
 20
339.8309619910878
 30
0.0
 11
110.4633445769805
 21
340.52897559653
 31
0.0
  0
LINE
  5
1F0
102
{ACAD_REACTORS
330
2C3
330
2C4
102
}
330
71
100
AcDbEntity
  8
0
  6
Continuous
 62
     2
100
AcDbLine
 10
110.4633445769805
 20
340.52897559653
 30
0.0
 11
109.1274167505528
 21
340.52897559653
 31
0.0
  0
LINE
  5
1F1
102
{ACAD_REACTORS
330
2C3
330
2C4
102
}
330
71
100
AcDbEntity
  8
0
  6
Continuous
 62
     2
100
AcDbLine
 10
109.1274167505528
 20
340.52897559653
 30
0.0
 11
109.1274167505528
 21
341.0088599502718
 31
0.0
  0
LINE
  5
1F2
102
{ACAD_REACTORS
330
2D3
330
2D4
102
}
330
71
100
AcDbEntity
  8
0
  6
Continuous
 62
     2
100
AcDbLine
 10
105.4534642969937
 20
335.2938735557293
 30
0.0
 11
106.6462569991613
 21
335.2938735557293
 31
0.0
  0
LINE
  5
1F3
102
{ACAD_REACTORS
330
2D3
330
2D4
102
}
330
71
100
AcDbEntity
  8
0
  6
Continuous
 62
     2
100
AcDbLine
 10
107.8867614094142
 20
335.2938735557293
 30
0.0
 11
109.0795541115806
 21
335.2938735557293
 31
0.0
  0
LINE
  5
1F4
102
{ACAD_REACTORS
330
2D3
330
2D4
102
}
330
71
100
AcDbEntity
  8
0
  6
Continuous
 62
     2
100
AcDbLine
 10
106.6462569991613
 20
338.3476830795403
 30
0.0
 11
105.4534642969937
 21
338.3476830795403
 31
0.0
  0
LINE
  5
1F5
102
{ACAD_REACTORS
330
2D3
330
2D4
102
}
330
71
100
AcDbEntity
  8
0
  6
Continuous
 62
     2
100
AcDbLine
 10
105.4534642969937
 20
338.3476830795403
 30
0.0
 11
105.4534642969937
 21
335.2938735557293
 31
0.0
  0
LINE
  5
1F6
102
{ACAD_REACTORS
330
2D1
330
2D2
102
}
330
71
100
AcDbEntity
  8
0
  6
Continuous
 62
     2
100
AcDbLine
 10
113.1352002298339
 20
341.7068735557148
 30
0.0
 11
113.1352002298339
 21
340.3980980455095
 31
0.0
  0
LINE
  5
1F7
102
{ACAD_REACTORS
330
2D1
330
2D2
102
}
330
71
100
AcDbEntity
  8
0
  6
Continuous
 62
     2
100
AcDbLine
 10
111.8946958195799
 20
341.7068735557148
 30
0.0
 11
110.7019031174134
 21
341.7068735557148
 31
0.0
  0
LINE
  5
1F8
102
{ACAD_REACTORS
330
2D1
330
2D2
102
}
330
71
100
AcDbEntity
  8
0
  6
Continuous
 62
     2
100
AcDbLine
 10
110.7019031174134
 20
341.7068735557148
 30
0.0
 11
110.7019031174134
 21
338.6530640319036
 31
0.0
  0
LINE
  5
1F9
102
{ACAD_REACTORS
330
2D1
330
2D2
102
}
330
71
100
AcDbEntity
  8
0
  6
Continuous
 62
     2
100
AcDbLine
 10
111.8946958195799
 20
338.6530640319036
 30
0.0
 11
111.8946958195799
 21
339.9618395421082
 31
0.0
  0
LINE
  5
1FA
102
{ACAD_REACTORS
330
2CF
330
2D0
102
}
330
71
100
AcDbEntity
  8
0
  6
Continuous
 62
     2
100
AcDbLine
 10
111.2265809754819
 20
335.2938735557293
 30
0.0
 11
111.2265809754819
 21
337.5624177734168
 31
0.0
  0
LINE
  5
1FB
102
{ACAD_REACTORS
330
2CF
330
2D0
102
}
330
71
100
AcDbEntity
  8
0
  6
Continuous
 62
     2
100
AcDbLine
 10
111.2265809754819
 20
337.5624177734168
 30
0.0
 11
112.0376800129544
 21
337.5624177734168
 31
0.0
  0
LINE
  5
1FC
102
{ACAD_REACTORS
330
2CF
330
2D0
102
}
330
71
100
AcDbEntity
  8
0
  6
Continuous
 62
     2
100
AcDbLine
 10
112.0376800129544
 20
337.5624177734168
 30
0.0
 11
112.0376800129544
 21
338.3476830795403
 31
0.0
  0
LINE
  5
1FD
102
{ACAD_REACTORS
330
2CF
330
2D0
102
}
330
71
100
AcDbEntity
  8
0
  6
Continuous
 62
     2
100
AcDbLine
 10
112.0376800129544
 20
338.3476830795403
 30
0.0
 11
109.2226892358408
 21
338.3476830795403
 31
0.0
  0
LINE
  5
1FE
102
{ACAD_REACTORS
330
2CF
330
2D0
102
}
330
71
100
AcDbEntity
  8
0
  6
Continuous
 62
     2
100
AcDbLine
 10
109.2226892358408
 20
337.5624177734168
 30
0.0
 11
110.0337882733154
 21
337.5624177734168
 31
0.0
  0
LINE
  5
1FF
102
{ACAD_REACTORS
330
2CD
330
2CE
102
}
330
71
100
AcDbEntity
  8
0
  6
Continuous
 62
     2
100
AcDbLine
 10
112.8321858387518
 20
335.8348340999471
 30
0.0
 11
113.9646274154256
 21
335.8348340999471
 31
0.0
  0
LINE
  5
200
102
{ACAD_REACTORS
330
2CD
330
2CE
102
}
330
71
100
AcDbEntity
  8
0
  6
Continuous
 62
     2
100
AcDbLine
 10
115.4166118791553
 20
335.2938735557293
 30
0.0
 11
114.1761074689014
 21
335.2938735557293
 31
0.0
  0
LINE
  5
201
102
{ACAD_REACTORS
330
2CD
330
2CE
102
}
330
71
100
AcDbEntity
  8
0
  6
Continuous
 62
     2
100
AcDbLine
 10
112.7781544219623
 20
338.3476830795403
 30
0.0
 11
111.380201375023
 21
335.2938735557293
 31
0.0
  0
LINE
  5
202
102
{ACAD_REACTORS
330
2CD
330
2CE
102
}
330
71
100
AcDbEntity
  8
0
  6
Continuous
 62
     2
100
AcDbLine
 10
112.620705785276
 20
335.2938735557293
 30
0.0
 11
112.8321858387518
 21
335.8348340999471
 31
0.0
  0
LINE
  5
203
102
{ACAD_REACTORS
330
2CD
330
2CE
102
}
330
71
100
AcDbEntity
  8
0
  6
Continuous
 62
     2
100
AcDbLine
 10
113.0982413898968
 20
336.5153973652538
 30
0.0
 11
113.3984066270892
 21
337.2832123312404
 31
0.0
  0
LINE
  5
204
102
{ACAD_REACTORS
330
2CB
330
2CC
102
}
330
71
100
AcDbEntity
  8
0
  6
Continuous
 62
     2
100
AcDbLine
 10
114.5665514724344
 20
338.6530640319036
 30
0.0
 11
114.5665514724344
 21
341.7068735557148
 31
0.0
  0
LINE
  5
205
102
{ACAD_REACTORS
330
2CB
330
2CC
102
}
330
71
100
AcDbEntity
  8
0
  6
Continuous
 62
     2
100
AcDbLine
 10
115.8070558826873
 20
341.7068735557148
 30
0.0
 11
115.8070558826873
 21
338.6530640319036
 31
0.0
  0
LINE
  5
206
102
{ACAD_REACTORS
330
2CB
330
2CC
102
}
330
71
100
AcDbEntity
  8
0
  6
Continuous
 62
     2
100
AcDbLine
 10
114.5665514724344
 20
341.7068735557148
 30
0.0
 11
115.8070558826873
 21
341.7068735557148
 31
0.0
  0
LINE
  5
207
102
{ACAD_REACTORS
330
2C9
330
2CA
102
}
330
71
100
AcDbEntity
  8
0
  6
Continuous
 62
     2
100
AcDbLine
 10
118.0256503087181
 20
339.4407958171972
 30
0.0
 11
118.7222412467836
 21
338.6530640319036
 31
0.0
  0
LINE
  5
208
102
{ACAD_REACTORS
330
2C9
330
2CA
102
}
330
71
100
AcDbEntity
  8
0
  6
Continuous
 62
     2
100
AcDbLine
 10
118.7222412467836
 20
338.6530640319036
 30
0.0
 11
120.1249654645319
 21
338.6530640319036
 31
0.0
  0
LINE
  5
209
102
{ACAD_REACTORS
330
2C9
330
2CA
102
}
330
71
100
AcDbEntity
  8
0
  6
Continuous
 62
     2
100
AcDbLine
 10
118.7270124175916
 20
340.2339230256786
 30
0.0
 11
120.1249654645319
 21
338.6530640319036
 31
0.0
  0
LINE
  5
20A
102
{ACAD_REACTORS
330
2C9
330
2CA
102
}
330
71
100
AcDbEntity
  8
0
  6
Continuous
 62
     2
100
AcDbLine
 10
118.7270124175916
 20
340.2339230256786
 30
0.0
 11
120.0295420483581
 21
341.7068735557148
 31
0.0
  0
LINE
  5
20B
102
{ACAD_REACTORS
330
2C9
330
2CA
102
}
330
71
100
AcDbEntity
  8
0
  6
Continuous
 62
     2
100
AcDbLine
 10
118.0256503087181
 20
341.0270502341592
 30
0.0
 11
118.6268178306109
 21
341.7068735557148
 31
0.0
  0
LINE
  5
20C
102
{ACAD_REACTORS
330
2C9
330
2CA
102
}
330
71
100
AcDbEntity
  8
0
  6
Continuous
 62
     2
100
AcDbLine
 10
117.4244827868263
 20
341.7068735557148
 30
0.0
 11
118.0256503087181
 21
341.0270502341592
 31
0.0
  0
LINE
  5
20D
102
{ACAD_REACTORS
330
2C9
330
2CA
102
}
330
71
100
AcDbEntity
  8
0
  6
Continuous
 62
     2
100
AcDbLine
 10
117.4244827868263
 20
341.7068735557148
 30
0.0
 11
116.021758569077
 21
341.7068735557148
 31
0.0
  0
LINE
  5
20E
102
{ACAD_REACTORS
330
2BF
330
2C0
102
}
330
71
100
AcDbEntity
  8
0
  6
Continuous
 62
     2
100
AcDbLine
 10
118.1210737248908
 20
335.2938735557293
 30
0.0
 11
119.3138664270585
 21
335.2938735557293
 31
0.0
  0
LINE
  5
20F
102
{ACAD_REACTORS
330
2BF
330
2C0
102
}
330
71
100
AcDbEntity
  8
0
  6
Continuous
 62
     2
100
AcDbLine
 10
119.3138664270585
 20
335.2938735557293
 30
0.0
 11
119.3138664270585
 21
337.5624177734168
 31
0.0
  0
LINE
  5
210
102
{ACAD_REACTORS
330
2BF
330
2C0
102
}
330
71
100
AcDbEntity
  8
0
  6
Continuous
 62
     2
100
AcDbLine
 10
119.3138664270585
 20
337.5624177734168
 30
0.0
 11
120.1249654645319
 21
337.5624177734168
 31
0.0
  0
LINE
  5
211
102
{ACAD_REACTORS
330
2BF
330
2C0
102
}
330
71
100
AcDbEntity
  8
0
  6
Continuous
 62
     2
100
AcDbLine
 10
120.1249654645319
 20
337.5624177734168
 30
0.0
 11
120.1249654645319
 21
338.3476830795403
 31
0.0
  0
LINE
  5
212
102
{ACAD_REACTORS
330
2BF
330
2C0
102
}
330
71
100
AcDbEntity
  8
0
  6
Continuous
 62
     2
100
AcDbLine
 10
116.7400199459032
 20
338.3476830795398
 30
0.0
 11
120.1249654645319
 21
338.3476830795403
 31
0.0
  0
LINE
  5
213
102
{ACAD_REACTORS
330
2BF
330
2C0
102
}
330
71
100
AcDbEntity
  8
0
  6
Continuous
 62
     2
100
AcDbLine
 10
118.1210737248908
 20
337.5624177734168
 30
0.0
 11
118.1210737248908
 21
335.2938735557293
 31
0.0
  0
LINE
  5
214
102
{ACAD_REACTORS
330
2C1
330
2C2
102
}
330
71
100
AcDbEntity
  8
0
  6
Continuous
 62
     2
100
AcDbLine
 10
95.4915872894116
 20
337.2727537052938
 30
0.0
 11
95.4915872894116
 21
337.8546051119888
 31
0.0
  0
LINE
  5
215
102
{ACAD_REACTORS
330
2C1
330
2C2
102
}
330
71
100
AcDbEntity
  8
0
  6
Continuous
 62
     2
100
AcDbLine
 10
95.4915872894116
 20
340.0728883119251
 30
0.0
 11
95.4915872894116
 21
340.6784236004319
 31
0.0
  0
LINE
  5
216
330
71
100
AcDbEntity
  8
1
  6
Continuous
 62
     6
100
AcDbLine
 10
74.02176587401482
 20
328.0003735557129
 30
0.0
 11
87.97696134726479
 21
328.0003735557128
 31
0.0
  0
LINE
  5
217
330
71
100
AcDbEntity
  8
1
  6
Continuous
 62
     6
100
AcDbLine
 10
24.02176587401459
 20
328.0003735557129
 30
0.0
 11
18.97696134726482
 21
328.0003735557129
 31
0.0
  0
LINE
  5
218
330
71
100
AcDbEntity
  8
1
  6
Continuous
 62
     6
100
AcDbLine
 10
174.0217658740148
 20
328.0003735557129
 30
0.0
 11
217.5217658740148
 21
328.0003735557129
 31
0.0
  0
LINE
  5
219
330
71
100
AcDbEntity
  8
1
  6
Continuous
 62
     6
100
AcDbLine
 10
124.0217658740148
 20
328.0003735557129
 30
0.0
 11
106.1769613472648
 21
328.0003735557129
 31
0.0
  0
LINE
  5
21A
330
71
100
AcDbEntity
  8
1
  6
Continuous
 62
     2
100
AcDbLine
 10
217.5217658740148
 20
328.0003735557129
 30
0.0
 11
222.5217658740138
 21
328.0003735557129
 31
0.0
  0
LINE
  5
21B
330
71
100
AcDbEntity
  8
1
  6
Continuous
 62
     2
100
AcDbLine
 10
217.5217658740148
 20
328.0003735557129
 30
0.0
 11
217.5217658740148
 21
323.0003735557128
 31
0.0
  0
LINE
  5
21C
330
71
100
AcDbEntity
  8
1
  6
Continuous
 62
     6
100
AcDbLine
 10
87.97696134726479
 20
345.0003735557129
 30
0.0
 11
124.3769613472647
 21
345.0003735557129
 31
0.0
  0
LINE
  5
21D
330
71
100
AcDbEntity
  8
1
  6
Continuous
 62
     2
100
AcDbLine
 10
222.5217658740138
 20
323.0003735557128
 30
0.0
 11
222.5217658740138
 21
328.0003735557129
 31
0.0
  0
LINE
  5
21E
330
71
100
AcDbEntity
  8
1
  6
Continuous
 62
     2
100
AcDbLine
 10
222.5217658740138
 20
323.0003735557128
 30
0.0
 11
217.5217658740148
 21
323.0003735557128
 31
0.0
  0
LINE
  5
21F
330
71
100
AcDbEntity
  8
1
  6
Continuous
 62
     2
100
AcDbLine
 10
217.5217658740148
 20
323.0003735557128
 30
0.0
 11
174.0217658740148
 21
323.0003735557128
 31
0.0
  0
LINE
  5
220
330
71
100
AcDbEntity
  8
1
  6
Continuous
 62
     6
100
AcDbLine
 10
217.5217658740165
 20
345.0003735557129
 30
0.0
 11
217.5217658740157
 21
378.0003735557131
 31
0.0
  0
LINE
  5
221
330
71
100
AcDbEntity
  8
1
  6
Continuous
 62
     2
100
AcDbLine
 10
222.5217658740138
 20
533.0003735557129
 30
0.0
 11
74.02176587401482
 21
533.0003735557129
 31
0.0
  0
LINE
  5
222
330
71
100
AcDbEntity
  8
1
  6
Continuous
 62
     6
100
AcDbLine
 10
217.5217658740138
 20
513.0003735557129
 30
0.0
 11
-69.47823412598427
 21
513.0003735557129
 31
0.0
  0
LINE
  5
223
330
71
100
AcDbEntity
  8
1
  6
Continuous
 62
     2
100
AcDbLine
 10
217.5217658740157
 20
378.0003735557131
 30
0.0
 11
222.5217658740138
 21
378.0003735557131
 31
0.0
  0
LINE
  5
224
330
71
100
AcDbEntity
  8
1
  6
Continuous
 62
     6
100
AcDbLine
 10
217.5217658740157
 20
378.0003735557131
 30
0.0
 11
217.5217658740152
 21
428.0003735557128
 31
0.0
  0
LINE
  5
225
330
71
100
AcDbEntity
  8
1
  6
Continuous
 62
     2
100
AcDbLine
 10
222.5217658740138
 20
378.0003735557131
 30
0.0
 11
222.5217658740138
 21
428.0003735557128
 31
0.0
  0
LINE
  5
226
330
71
100
AcDbEntity
  8
1
  6
Continuous
 62
     2
100
AcDbLine
 10
217.5217658740152
 20
428.0003735557128
 30
0.0
 11
222.5217658740138
 21
428.0003735557128
 31
0.0
  0
LINE
  5
227
330
71
100
AcDbEntity
  8
1
  6
Continuous
 62
     6
100
AcDbLine
 10
217.5217658740152
 20
428.0003735557128
 30
0.0
 11
217.521765874014
 21
478.0003735557129
 31
0.0
  0
LINE
  5
228
330
71
100
AcDbEntity
  8
1
  6
Continuous
 62
     2
100
AcDbLine
 10
222.5217658740138
 20
428.0003735557128
 30
0.0
 11
222.5217658740138
 21
478.0003735557129
 31
0.0
  0
LINE
  5
229
330
71
100
AcDbEntity
  8
1
  6
Continuous
 62
     2
100
AcDbLine
 10
217.521765874014
 20
478.0003735557129
 30
0.0
 11
222.5217658740138
 21
478.0003735557129
 31
0.0
  0
LINE
  5
22A
330
71
100
AcDbEntity
  8
1
  6
Continuous
 62
     6
100
AcDbLine
 10
217.521765874014
 20
478.0003735557129
 30
0.0
 11
217.5217658740138
 21
513.0003735557129
 31
0.0
  0
LINE
  5
22B
330
71
100
AcDbEntity
  8
1
  6
Continuous
 62
     2
100
AcDbLine
 10
222.5217658740138
 20
478.0003735557129
 30
0.0
 11
222.5217658740138
 21
533.0003735557129
 31
0.0
  0
LINE
  5
22C
330
71
100
AcDbEntity
  8
1
  6
Continuous
 62
     2
100
AcDbLine
 10
222.5217658740138
 20
328.0003735557129
 30
0.0
 11
222.5217658740138
 21
378.0003735557131
 31
0.0
  0
LINE
  5
22D
330
71
100
AcDbEntity
  8
1
  6
Continuous
 62
     2
100
AcDbLine
 10
74.02176587401482
 20
533.0003735557129
 30
0.0
 11
-74.47823412598427
 21
533.0003735557129
 31
0.0
  0
LINE
  5
22E
330
71
100
AcDbEntity
  8
1
  6
Continuous
 62
     2
100
AcDbLine
 10
74.02176587401482
 20
533.0003735557129
 30
0.0
 11
74.02176587401482
 21
523.7916817110116
 31
0.0
  0
LINE
  5
22F
330
71
100
AcDbEntity
  8
1
  6
Continuous
 62
     2
100
AcDbLine
 10
-74.47823412598427
 20
323.0003735557128
 30
0.0
 11
-69.4782341259833
 21
323.0003735557128
 31
0.0
  0
LINE
  5
230
330
71
100
AcDbEntity
  8
1
  6
Continuous
 62
     2
100
AcDbLine
 10
-74.47823412598427
 20
533.0003735557129
 30
0.0
 11
-74.47823412598427
 21
478.0003735557129
 31
0.0
  0
LINE
  5
231
330
71
100
AcDbEntity
  8
1
  6
Continuous
 62
     6
100
AcDbLine
 10
-69.47823412598427
 20
513.0003735557129
 30
0.0
 11
-69.47823412598422
 21
478.0003735557129
 31
0.0
  0
LINE
  5
232
330
71
100
AcDbEntity
  8
1
  6
Continuous
 62
     2
100
AcDbLine
 10
-74.47823412598427
 20
478.0003735557129
 30
0.0
 11
-69.47823412598422
 21
478.0003735557129
 31
0.0
  0
LINE
  5
233
330
71
100
AcDbEntity
  8
1
  6
Continuous
 62
     2
100
AcDbLine
 10
-74.47823412598427
 20
478.0003735557129
 30
0.0
 11
-74.47823412598427
 21
428.0003735557128
 31
0.0
  0
LINE
  5
234
330
71
100
AcDbEntity
  8
1
  6
Continuous
 62
     6
100
AcDbLine
 10
-69.47823412598422
 20
478.0003735557129
 30
0.0
 11
-69.4782341259837
 21
428.0003735557128
 31
0.0
  0
LINE
  5
235
330
71
100
AcDbEntity
  8
1
  6
Continuous
 62
     2
100
AcDbLine
 10
-74.47823412598427
 20
428.0003735557128
 30
0.0
 11
-69.4782341259837
 21
428.0003735557128
 31
0.0
  0
LINE
  5
236
330
71
100
AcDbEntity
  8
1
  6
Continuous
 62
     2
100
AcDbLine
 10
-74.47823412598427
 20
428.0003735557128
 30
0.0
 11
-74.47823412598427
 21
378.0003735557131
 31
0.0
  0
LINE
  5
237
330
71
100
AcDbEntity
  8
1
  6
Continuous
 62
     6
100
AcDbLine
 10
-69.4782341259837
 20
428.0003735557128
 30
0.0
 11
-69.47823412598348
 21
378.0003735557131
 31
0.0
  0
LINE
  5
238
330
71
100
AcDbEntity
  8
1
  6
Continuous
 62
     2
100
AcDbLine
 10
-74.47823412598427
 20
378.0003735557131
 30
0.0
 11
-69.47823412598348
 21
378.0003735557131
 31
0.0
  0
LINE
  5
239
330
71
100
AcDbEntity
  8
1
  6
Continuous
 62
     2
100
AcDbLine
 10
-74.47823412598427
 20
378.0003735557131
 30
0.0
 11
-74.47823412598427
 21
328.0003735557129
 31
0.0
  0
LINE
  5
23A
330
71
100
AcDbEntity
  8
1
  6
Continuous
 62
     6
100
AcDbLine
 10
-69.47823412598348
 20
378.0003735557131
 30
0.0
 11
-69.4782341259833
 21
328.0003735557129
 31
0.0
  0
LINE
  5
23B
330
71
100
AcDbEntity
  8
1
  6
Continuous
 62
     2
100
AcDbLine
 10
-25.97823412598518
 20
323.0003735557128
 30
0.0
 11
-25.97823412598518
 21
328.0003735557129
 31
0.0
  0
LINE
  5
23C
330
71
100
AcDbEntity
  8
1
  6
Continuous
 62
     2
100
AcDbLine
 10
-25.97823412598518
 20
323.0003735557128
 30
0.0
 11
24.02176587401459
 21
323.0003735557128
 31
0.0
  0
LINE
  5
23D
330
71
100
AcDbEntity
  8
1
  6
Continuous
 62
     2
100
AcDbLine
 10
24.02176587401459
 20
323.0003735557128
 30
0.0
 11
24.02176587401459
 21
328.0003735557129
 31
0.0
  0
LINE
  5
23E
330
71
100
AcDbEntity
  8
1
  6
Continuous
 62
     2
100
AcDbLine
 10
24.02176587401459
 20
323.0003735557128
 30
0.0
 11
74.02176587401482
 21
323.0003735557128
 31
0.0
  0
LINE
  5
23F
330
71
100
AcDbEntity
  8
1
  6
Continuous
 62
     2
100
AcDbLine
 10
74.02176587401482
 20
323.0003735557128
 30
0.0
 11
74.02176587401482
 21
328.0003735557129
 31
0.0
  0
LINE
  5
240
330
71
100
AcDbEntity
  8
1
  6
Continuous
 62
     2
100
AcDbLine
 10
74.02176587401482
 20
323.0003735557128
 30
0.0
 11
124.0217658740148
 21
323.0003735557128
 31
0.0
  0
LINE
  5
241
330
71
100
AcDbEntity
  8
1
  6
Continuous
 62
     2
100
AcDbLine
 10
124.0217658740148
 20
323.0003735557128
 30
0.0
 11
124.0217658740148
 21
328.0003735557129
 31
0.0
  0
LINE
  5
242
330
71
100
AcDbEntity
  8
1
  6
Continuous
 62
     2
100
AcDbLine
 10
174.0217658740148
 20
323.0003735557128
 30
0.0
 11
174.0217658740148
 21
328.0003735557129
 31
0.0
  0
LINE
  5
243
330
71
100
AcDbEntity
  8
1
  6
Continuous
 62
     2
100
AcDbLine
 10
174.0217658740148
 20
323.0003735557128
 30
0.0
 11
124.0217658740148
 21
323.0003735557128
 31
0.0
  0
LINE
  5
244
330
71
100
AcDbEntity
  8
1
  6
Continuous
 62
     2
100
AcDbLine
 10
-69.4782341259833
 20
328.0003735557129
 30
0.0
 11
-69.4782341259833
 21
323.0003735557128
 31
0.0
  0
LINE
  5
245
330
71
100
AcDbEntity
  8
1
  6
Continuous
 62
     2
100
AcDbLine
 10
-69.4782341259833
 20
323.0003735557128
 30
0.0
 11
-25.97823412598518
 21
323.0003735557128
 31
0.0
  0
LINE
  5
246
330
71
100
AcDbEntity
  8
1
  6
Continuous
 62
     2
100
AcDbLine
 10
-69.4782341259833
 20
328.0003735557129
 30
0.0
 11
-74.47823412598427
 21
328.0003735557129
 31
0.0
  0
LINE
  5
247
330
71
100
AcDbEntity
  8
1
  6
Continuous
 62
     2
100
AcDbLine
 10
-74.47823412598427
 20
328.0003735557129
 30
0.0
 11
-74.47823412598427
 21
323.0003735557128
 31
0.0
  0
LINE
  5
248
330
71
100
AcDbEntity
  8
1
  6
Continuous
 62
     6
100
AcDbLine
 10
217.5217658740148
 20
328.0003735557129
 30
0.0
 11
217.5217658740161
 21
336.5003735557129
 31
0.0
  0
LINE
  5
249
330
71
100
AcDbEntity
  8
1
  6
Continuous
 62
     6
100
AcDbLine
 10
124.3769613472647
 20
328.0003735557128
 30
0.0
 11
174.0217658740148
 21
328.0003735557129
 31
0.0
  0
LINE
  5
24A
330
71
100
AcDbEntity
  8
1
  6
Continuous
 62
     6
100
AcDbLine
 10
-28.27823412598542
 20
328.0003735557128
 30
0.0
 11
-25.97823412598518
 21
328.0003735557129
 31
0.0
  0
LINE
  5
24B
330
71
100
AcDbEntity
  8
1
  6
Continuous
 62
     6
100
AcDbLine
 10
74.02176587401482
 20
328.0003735557129
 30
0.0
 11
24.02176587401459
 21
328.0003735557129
 31
0.0
  0
LINE
  5
24C
330
71
100
AcDbEntity
  8
1
  6
Continuous
 62
     7
100
AcDbLine
 10
87.97696134726479
 20
345.0003735557129
 30
0.0
 11
87.97696134726479
 21
332.2503735557128
 31
0.0
  0
LINE
  5
24D
330
71
100
AcDbEntity
  8
1
  6
Continuous
 62
     7
100
AcDbLine
 10
124.3769613472647
 20
345.0003735557129
 30
0.0
 11
124.3769613472647
 21
332.2503735557129
 31
0.0
  0
LINE
  5
24E
330
71
100
AcDbEntity
  8
1
  6
Continuous
 62
     6
100
AcDbLine
 10
-28.27823412598542
 20
328.0003735557128
 30
0.0
 11
-34.47823412598342
 21
328.0003735557129
 31
0.0
  0
LINE
  5
24F
330
71
100
AcDbEntity
  8
1
  6
Continuous
 62
     6
100
AcDbLine
 10
124.3769613472647
 20
328.0003735557128
 30
0.0
 11
124.0217658740148
 21
328.0003735557129
 31
0.0
  0
LINE
  5
250
330
71
100
AcDbEntity
  8
1
  6
Continuous
 62
     6
100
AcDbLine
 10
217.5217658740165
 20
345.0003735557129
 30
0.0
 11
217.5217658740161
 21
336.5003735557129
 31
0.0
  0
LINE
  5
251
330
71
100
AcDbEntity
  8
1
  6
Continuous
 62
     6
100
AcDbLine
 10
-34.47823412598342
 20
328.0003735557129
 30
0.0
 11
-69.4782341259833
 21
328.0003735557129
 31
0.0
  0
LINE
  5
252
330
71
100
AcDbEntity
  8
1
  6
Continuous
 62
     2
100
AcDbLine
 10
92.2136162338274
 20
350.3753735557128
 30
0.0
 11
97.2136162338274
 21
351.6253735557128
 31
0.0
  0
LINE
  5
253
330
71
100
AcDbEntity
  8
1
  6
Continuous
 62
     2
100
AcDbLine
 10
92.2136162338274
 20
347.8753735557128
 30
0.0
 11
92.2136162338274
 21
350.3753735557128
 31
0.0
  0
LINE
  5
254
330
71
100
AcDbEntity
  8
1
  6
Continuous
 62
     2
100
AcDbLine
 10
97.2136162338274
 20
346.6253735557128
 30
0.0
 11
92.2136162338274
 21
347.8753735557128
 31
0.0
  0
LINE
  5
255
330
71
100
AcDbEntity
  8
1
  6
Continuous
 62
     2
100
AcDbLine
 10
97.2136162338274
 20
351.6253735557128
 30
0.0
 11
97.2136162338274
 21
346.6253735557128
 31
0.0
  0
LINE
  5
256
330
71
100
AcDbEntity
  8
1
  6
Continuous
 62
     7
100
AcDbLine
 10
87.97696134726479
 20
332.2503735557128
 30
0.0
 11
106.1769613472648
 21
332.2503735557129
 31
0.0
  0
LINE
  5
257
330
71
100
AcDbEntity
  8
1
  6
Continuous
 62
     7
100
AcDbLine
 10
87.97696134726479
 20
332.2503735557128
 30
0.0
 11
87.97696134726479
 21
328.0003735557128
 31
0.0
  0
LINE
  5
258
330
71
100
AcDbEntity
  8
1
  6
Continuous
 62
     7
100
AcDbLine
 10
124.3769613472647
 20
332.2503735557129
 30
0.0
 11
124.3769613472647
 21
328.0003735557128
 31
0.0
  0
LINE
  5
259
330
71
100
AcDbEntity
  8
1
  6
Continuous
 62
     7
100
AcDbLine
 10
106.1769613472648
 20
332.2503735557129
 30
0.0
 11
106.1769613472648
 21
328.0003735557129
 31
0.0
  0
LINE
  5
25A
330
71
100
AcDbEntity
  8
1
  6
Continuous
 62
     6
100
AcDbLine
 10
106.1769613472648
 20
328.0003735557129
 30
0.0
 11
87.97696134726479
 21
328.0003735557128
 31
0.0
  0
LINE
  5
25B
330
71
100
AcDbEntity
  8
1
  6
Continuous
 62
     7
100
AcDbLine
 10
106.1769613472648
 20
332.2503735557129
 30
0.0
 11
124.3769613472647
 21
332.2503735557129
 31
0.0
  0
LINE
  5
25C
330
71
100
AcDbEntity
  8
1
  6
Continuous
 62
     6
100
AcDbLine
 10
87.97696134726479
 20
353.5003735557129
 30
0.0
 11
217.5217658740165
 21
353.5003735557129
 31
0.0
  0
ARC
  5
25D
102
{ACAD_REACTORS
330
2C5
330
2C6
102
}
330
71
100
AcDbEntity
  8
0
  6
Continuous
 62
     2
100
AcDbCircle
 10
103.3686093462248
 20
336.8207783176346
 30
0.0
 40
0.7717997786797538
100
AcDbArc
 50
321.8795802028345
 51
38.12041979714564
  0
ARC
  5
25E
102
{ACAD_REACTORS
330
2C5
330
2C6
102
}
330
71
100
AcDbEntity
  8
0
  6
Continuous
 62
     2
100
AcDbCircle
 10
103.5683493825712
 20
336.6640471395145
 30
0.0
 40
0.517908573013729
100
AcDbArc
 50
218.1204197971897
 51
321.8795802028035
  0
ARC
  5
25F
102
{ACAD_REACTORS
330
2C5
330
2C6
102
}
330
71
100
AcDbEntity
  8
0
  6
Continuous
 62
     2
100
AcDbCircle
 10
103.7680894189173
 20
336.8207783176346
 30
0.0
 40
0.7717997786793866
100
AcDbArc
 50
141.8795802028453
 51
218.1204197971747
  0
ARC
  5
260
102
{ACAD_REACTORS
330
2C5
330
2C6
102
}
330
71
100
AcDbEntity
  8
0
  6
Continuous
 62
     2
100
AcDbCircle
 10
103.5683493825712
 20
336.977509495755
 30
0.0
 40
0.5179085730132998
100
AcDbArc
 50
38.12041979714704
 51
141.8795802028598
  0
ARC
  5
261
102
{ACAD_REACTORS
330
2BD
330
2BE
102
}
330
71
100
AcDbEntity
  8
0
  6
Continuous
 62
     2
100
AcDbCircle
 10
100.5063352470073
 20
335.4103119522264
 30
0.0
 40
2.227384008973412
100
AcDbArc
 50
58.06909105003925
 51
71.55192388186583
  0
ARC
  5
262
102
{ACAD_REACTORS
330
2BD
330
2BE
102
}
330
71
100
AcDbEntity
  8
0
  6
Continuous
 62
     2
100
AcDbCircle
 10
100.7680629479661
 20
337.0258497469736
 30
0.0
 40
0.5115800601947587
100
AcDbArc
 50
113.3722778882084
 51
151.4785267423044
  0
ARC
  5
263
102
{ACAD_REACTORS
330
2BD
330
2BE
102
}
330
71
100
AcDbEntity
  8
0
  6
Continuous
 62
     2
100
AcDbCircle
 10
101.1454202060464
 20
336.8207783176346
 30
0.0
 40
0.941059735333242
100
AcDbArc
 50
151.4785267422665
 51
208.5214732577122
  0
ARC
  5
264
102
{ACAD_REACTORS
330
2BD
330
2BE
102
}
330
71
100
AcDbEntity
  8
0
  6
Continuous
 62
     2
100
AcDbCircle
 10
100.3484623719144
 20
340.1334592628909
 30
0.0
 40
4.852596863498111
100
AcDbArc
 50
275.1581447696252
 51
285.9799912583529
  0
ARC
  5
265
102
{ACAD_REACTORS
330
2BD
330
2BE
102
}
330
71
100
AcDbEntity
  8
0
  6
Continuous
 62
     2
100
AcDbCircle
 10
100.6373184666503
 20
336.9335686796694
 30
0.0
 40
1.63969512393938
100
AcDbArc
 50
195.0618917770886
 51
275.1581447696398
  0
ARC
  5
266
102
{ACAD_REACTORS
330
2BD
330
2BE
102
}
330
71
100
AcDbEntity
  8
0
  6
Continuous
 62
     2
100
AcDbCircle
 10
100.2181906231875
 20
336.8207783176346
 30
0.0
 40
1.205656168390914
100
AcDbArc
 50
164.9381082228817
 51
195.0618917770948
  0
ARC
  5
267
102
{ACAD_REACTORS
330
2BD
330
2BE
102
}
330
71
100
AcDbEntity
  8
0
  6
Continuous
 62
     2
100
AcDbCircle
 10
100.6373184666503
 20
336.7079879555996
 30
0.0
 40
1.639695123940621
100
AcDbArc
 50
84.84185523036221
 51
164.9381082228864
  0
ARC
  5
268
102
{ACAD_REACTORS
330
2C1
330
2C2
102
}
330
71
100
AcDbEntity
  8
0
  6
Continuous
 62
     2
100
AcDbCircle
 10
95.80730421248839
 20
337.8546051119888
 30
0.0
 40
0.3157169230765842
100
AcDbArc
 50
115.3740086783474
 51
180.0
  0
ARC
  5
269
102
{ACAD_REACTORS
330
2C1
330
2C2
102
}
330
71
100
AcDbEntity
  8
0
  6
Continuous
 62
     2
100
AcDbCircle
 10
95.80730421248839
 20
340.0728883119251
 30
0.0
 40
0.315716923076792
100
AcDbArc
 50
180.0
 51
244.625991321657
  0
ARC
  5
26A
102
{ACAD_REACTORS
330
2C1
330
2C2
102
}
330
71
100
AcDbEntity
  8
0
  6
Continuous
 62
     2
100
AcDbCircle
 10
95.81292034779841
 20
338.9755886528627
 30
0.0
 40
2.018561131933266
100
AcDbArc
 50
269.8110329575858
 51
90.18896704241416
  0
ARC
  5
26B
102
{ACAD_REACTORS
330
2C1
330
2C2
102
}
330
71
100
AcDbEntity
  8
0
  6
Continuous
 62
     2
100
AcDbCircle
 10
95.80730421248839
 20
337.2727537052938
 30
0.0
 40
0.315716923076792
100
AcDbArc
 50
180.0
 51
269.8110329574542
  0
ARC
  5
26C
102
{ACAD_REACTORS
330
2BF
330
2C0
102
}
330
71
100
AcDbEntity
  8
0
  6
Continuous
 62
     2
100
AcDbCircle
 10
116.870764427219
 20
337.0258497469736
 30
0.0
 40
0.5115800601944143
100
AcDbArc
 50
109.3371432194853
 51
151.4785267424365
  0
ARC
  5
26D
102
{ACAD_REACTORS
330
2BF
330
2C0
102
}
330
71
100
AcDbEntity
  8
0
  6
Continuous
 62
     2
100
AcDbCircle
 10
116.870764427219
 20
336.615706888296
 30
0.0
 40
0.5115800601959674
100
AcDbArc
 50
208.5214732576754
 51
246.6277221118399
  0
ARC
  5
26E
102
{ACAD_REACTORS
330
2BF
330
2C0
102
}
330
71
100
AcDbEntity
  8
0
  6
Continuous
 62
     2
100
AcDbCircle
 10
116.3208921024416
 20
336.8207783176346
 30
0.0
 40
1.205656168392959
100
AcDbArc
 50
164.9381082229078
 51
195.0618917771026
  0
ARC
  5
26F
102
{ACAD_REACTORS
330
2BF
330
2C0
102
}
330
71
100
AcDbEntity
  8
0
  6
Continuous
 62
     2
100
AcDbCircle
 10
116.7400199459032
 20
336.7079879555996
 30
0.0
 40
1.639695123940214
100
AcDbArc
 50
90.0
 51
164.9381082228947
  0
ARC
  5
270
102
{ACAD_REACTORS
330
2C3
330
2C4
102
}
330
71
100
AcDbEntity
  8
0
  6
Continuous
 62
     2
100
AcDbCircle
 10
107.3130248531995
 20
340.1799687938088
 30
0.0
 40
1.526904761905996
100
AcDbArc
 50
90.0
 51
270.0
  0
ARC
  5
271
102
{ACAD_REACTORS
330
2C7
330
2C8
102
}
330
71
100
AcDbEntity
  8
0
  6
Continuous
 62
     2
100
AcDbCircle
 10
100.5703341079737
 20
340.6909038856036
 30
0.0
 40
0.3528638246711466
100
AcDbArc
 50
270.0
 51
90.0
  0
ARC
  5
272
102
{ACAD_REACTORS
330
2C1
330
2C2
102
}
330
71
100
AcDbEntity
  8
0
  6
Continuous
 62
     2
100
AcDbCircle
 10
93.23175552595669
 20
340.67860107708
 30
0.0
 40
0.3157169230761383
100
AcDbArc
 50
90.0
 51
180.0
  0
ARC
  5
273
102
{ACAD_REACTORS
330
2C1
330
2C2
102
}
330
71
100
AcDbEntity
  8
0
  6
Continuous
 62
     2
100
AcDbCircle
 10
95.2301732345413
 20
338.9637467119572
 30
0.0
 40
0.9118975235576403
100
AcDbArc
 50
115.1944106485275
 51
244.8055893514878
  0
ARC
  5
274
102
{ACAD_REACTORS
330
2C1
330
2C2
102
}
330
71
100
AcDbEntity
  8
0
  6
Continuous
 62
     2
100
AcDbCircle
 10
94.70758878696631
 20
337.8529169658945
 30
0.0
 40
0.315716923076593
100
AcDbArc
 50
0.0
 51
64.8055893514515
  0
ARC
  5
275
102
{ACAD_REACTORS
330
2C1
330
2C2
102
}
330
71
100
AcDbEntity
  8
0
  6
Continuous
 62
     2
100
AcDbCircle
 10
92.6378608492102
 20
335.7181181711126
 30
0.0
 40
0.4242446153828041
100
AcDbArc
 50
180.0
 51
270.0
  0
ARC
  5
276
102
{ACAD_REACTORS
330
2C3
330
2C4
102
}
330
71
100
AcDbEntity
  8
0
  6
Continuous
 62
     2
100
AcDbCircle
 10
107.5292968633647
 20
340.3366999719293
 30
0.0
 40
0.5179085730135855
100
AcDbArc
 50
38.12041979715421
 51
141.87958020284
  0
ARC
  5
277
102
{ACAD_REACTORS
330
2C3
330
2C4
102
}
330
71
100
AcDbEntity
  8
0
  6
Continuous
 62
     2
100
AcDbCircle
 10
107.729036899711
 20
340.1799687938088
 30
0.0
 40
0.7717997786797538
100
AcDbArc
 50
141.8795802028345
 51
218.1204197971556
  0
ARC
  5
278
102
{ACAD_REACTORS
330
2C5
330
2C6
102
}
330
71
100
AcDbEntity
  8
0
  6
Continuous
 62
     2
100
AcDbCircle
 10
103.5683493825712
 20
337.3593533279378
 30
0.0
 40
2.065479772208541
100
AcDbArc
 50
242.4518518243402
 51
297.5481481756867
  0
ARC
  5
279
102
{ACAD_REACTORS
330
2C5
330
2C6
102
}
330
71
100
AcDbEntity
  8
0
  6
Continuous
 62
     2
100
AcDbCircle
 10
103.5683493825712
 20
336.2822033073318
 30
0.0
 40
2.065479772208441
100
AcDbArc
 50
62.45185182430455
 51
117.5481481756686
  0
ARC
  5
27A
102
{ACAD_REACTORS
330
2C5
330
2C6
102
}
330
71
100
AcDbEntity
  8
0
  6
Continuous
 62
     2
100
AcDbCircle
 10
103.2874094907379
 20
336.8207783176346
 30
0.0
 40
1.458034083651371
100
AcDbArc
 50
117.5481481756655
 51
242.4518518243397
  0
ARC
  5
27B
102
{ACAD_REACTORS
330
2C5
330
2C6
102
}
330
71
100
AcDbEntity
  8
0
  6
Continuous
 62
     2
100
AcDbCircle
 10
103.8492892744045
 20
336.8207783176346
 30
0.0
 40
1.458034083652129
100
AcDbArc
 50
297.5481481756985
 51
62.45185182429637
  0
ARC
  5
27C
102
{ACAD_REACTORS
330
2C3
330
2C4
102
}
330
71
100
AcDbEntity
  8
0
  6
Continuous
 62
     2
100
AcDbCircle
 10
107.5292968633647
 20
340.0232376156885
 30
0.0
 40
0.5179085730135184
100
AcDbArc
 50
218.12041979716
 51
321.8795802028458
  0
ARC
  5
27D
102
{ACAD_REACTORS
330
2C3
330
2C4
102
}
330
71
100
AcDbEntity
  8
0
  6
Continuous
 62
     2
100
AcDbCircle
 10
107.3295568270185
 20
340.1799687938088
 30
0.0
 40
0.7717997786796486
100
AcDbArc
 50
321.8795802028444
 51
38.12041979716556
  0
ARC
  5
27E
102
{ACAD_REACTORS
330
2C1
330
2C2
102
}
330
71
100
AcDbEntity
  8
0
  6
Continuous
 62
     2
100
AcDbCircle
 10
98.111172939927
 20
335.7181181711126
 30
0.0
 40
0.4242446153833157
100
AcDbArc
 50
270.0
 51
0.0
  0
ARC
  5
27F
102
{ACAD_REACTORS
330
2C1
330
2C2
102
}
330
71
100
AcDbEntity
  8
0
  6
Continuous
 62
     2
100
AcDbCircle
 10
98.111172939927
 20
341.2826289403128
 30
0.0
 40
0.4242446153838841
100
AcDbArc
 50
0.0
 51
90.0
  0
ARC
  5
280
102
{ACAD_REACTORS
330
2C1
330
2C2
102
}
330
71
100
AcDbEntity
  8
0
  6
Continuous
 62
     2
100
AcDbCircle
 10
92.6378608492102
 20
341.2826289403128
 30
0.0
 40
0.4242446153837705
100
AcDbArc
 50
90.0
 51
180.0
  0
ARC
  5
281
102
{ACAD_REACTORS
330
2C1
330
2C2
102
}
330
71
100
AcDbEntity
  8
0
  6
Continuous
 62
     2
100
AcDbCircle
 10
94.70758878696631
 20
336.3221460343629
 30
0.0
 40
0.3157169230768204
100
AcDbArc
 50
270.0
 51
0.0
  0
ARC
  5
282
102
{ACAD_REACTORS
330
2C1
330
2C2
102
}
330
71
100
AcDbEntity
  8
0
  6
Continuous
 62
     2
100
AcDbCircle
 10
94.70758878696631
 20
340.0745764580195
 30
0.0
 40
0.3157169230762231
100
AcDbArc
 50
295.1944106485309
 51
0.0
  0
ARC
  5
283
102
{ACAD_REACTORS
330
2C1
330
2C2
102
}
330
71
100
AcDbEntity
  8
0
  6
Continuous
 62
     2
100
AcDbCircle
 10
94.70758878696631
 20
340.67860107708
 30
0.0
 40
0.315716923076593
100
AcDbArc
 50
0.0
 51
90.0
  0
ARC
  5
284
102
{ACAD_REACTORS
330
2C1
330
2C2
102
}
330
71
100
AcDbEntity
  8
0
  6
Continuous
 62
     2
100
AcDbCircle
 10
93.23175552595669
 20
336.3221460343629
 30
0.0
 40
0.3157169230756836
100
AcDbArc
 50
180.0
 51
270.0
  0
ARC
  5
285
102
{ACAD_REACTORS
330
2C7
330
2C8
102
}
330
71
100
AcDbEntity
  8
0
  6
Continuous
 62
     2
100
AcDbCircle
 10
101.0118066342121
 20
340.6515079143811
 30
0.0
 40
1.055365641333708
100
AcDbArc
 50
270.0
 51
90.0
  0
ARC
  5
286
102
{ACAD_REACTORS
330
2BF
330
2C0
102
}
330
71
100
AcDbEntity
  8
0
  6
Continuous
 62
     2
100
AcDbCircle
 10
116.7400199459032
 20
336.9335686796694
 30
0.0
 40
1.63969512394045
100
AcDbArc
 50
195.0618917771053
 51
275.1581447696762
  0
ARC
  5
287
102
{ACAD_REACTORS
330
2BF
330
2C0
102
}
330
71
100
AcDbEntity
  8
0
  6
Continuous
 62
     2
100
AcDbCircle
 10
116.4511638511674
 20
340.1334592628909
 30
0.0
 40
4.85259686349871
100
AcDbArc
 50
275.1581447696363
 51
285.9799912583386
  0
ARC
  5
288
102
{ACAD_REACTORS
330
2BF
330
2C0
102
}
330
71
100
AcDbEntity
  8
0
  6
Continuous
 62
     2
100
AcDbCircle
 10
116.6090367262602
 20
338.2312446830426
 30
0.0
 40
2.227384008972665
100
AcDbArc
 50
288.4480761181342
 51
301.9309089499406
  0
ARC
  5
289
102
{ACAD_REACTORS
330
2BF
330
2C0
102
}
330
71
100
AcDbEntity
  8
0
  6
Continuous
 62
     2
100
AcDbCircle
 10
117.0272044599221
 20
336.977698907006
 30
0.0
 40
0.9059297849851757
100
AcDbArc
 50
246.6277221118154
 51
288.4480761180828
  0
ARC
  5
28A
102
{ACAD_REACTORS
330
2BF
330
2C0
102
}
330
71
100
AcDbEntity
  8
0
  6
Continuous
 62
     2
100
AcDbCircle
 10
117.2481216853004
 20
336.8207783176346
 30
0.0
 40
0.941059735334837
100
AcDbArc
 50
151.4785267423704
 51
208.5214732576691
  0
ARC
  5
28B
102
{ACAD_REACTORS
330
2BF
330
2C0
102
}
330
71
100
AcDbEntity
  8
0
  6
Continuous
 62
     2
100
AcDbCircle
 10
117.0174344253227
 20
336.6078947665907
 30
0.0
 40
0.9545230068261503
100
AcDbArc
 50
90.0
 51
109.3371432194309
  0
ARC
  5
28C
102
{ACAD_REACTORS
330
2C1
330
2C2
102
}
330
71
100
AcDbEntity
  8
0
  6
Continuous
 62
     2
100
AcDbCircle
 10
95.80730421248839
 20
340.6784236004319
 30
0.0
 40
0.3157169230759573
100
AcDbArc
 50
90.188967042546
 51
180.0
  0
ARC
  5
28D
102
{ACAD_REACTORS
330
2C1
330
2C2
102
}
330
71
100
AcDbEntity
  8
0
  6
Continuous
 62
     2
100
AcDbCircle
 10
95.28126151440051
 20
338.9637467119572
 30
0.0
 40
0.9118481501443819
100
AcDbArc
 50
295.3740086781787
 51
64.62599132180748
  0
ARC
  5
28E
102
{ACAD_REACTORS
330
2BD
330
2BE
102
}
330
71
100
AcDbEntity
  8
0
  6
Continuous
 62
     2
100
AcDbCircle
 10
100.5063352470073
 20
338.2312446830432
 30
0.0
 40
2.227384008972665
100
AcDbArc
 50
288.4480761181342
 51
301.9309089499592
  0
ARC
  5
28F
102
{ACAD_REACTORS
330
2BD
330
2BE
102
}
330
71
100
AcDbEntity
  8
0
  6
Continuous
 62
     2
100
AcDbCircle
 10
100.9245029806681
 20
336.977698907006
 30
0.0
 40
0.9059297849848149
100
AcDbArc
 50
246.6277221118682
 51
288.4480761181619
  0
ARC
  5
290
102
{ACAD_REACTORS
330
2BD
330
2BE
102
}
330
71
100
AcDbEntity
  8
0
  6
Continuous
 62
     2
100
AcDbCircle
 10
100.7680629479661
 20
336.615706888296
 30
0.0
 40
0.5115800601948034
100
AcDbArc
 50
208.5214732576956
 51
246.6277221118194
  0
ARC
  5
291
102
{ACAD_REACTORS
330
2BD
330
2BE
102
}
330
71
100
AcDbEntity
  8
0
  6
Continuous
 62
     2
100
AcDbCircle
 10
100.9245029806681
 20
336.6638577282629
 30
0.0
 40
0.9059297849853318
100
AcDbArc
 50
71.55192388185178
 51
113.372277888129
  0
ARC
  5
292
102
{ACAD_REACTORS
330
2BD
330
2BE
102
}
330
71
100
AcDbEntity
  8
0
  6
Continuous
 62
     2
100
AcDbCircle
 10
100.3484623719144
 20
333.5080973723786
 30
0.0
 40
4.852596863498095
100
AcDbArc
 50
74.02000874164747
 51
84.84185523037505
  0
CIRCLE
  5
293
102
{ACAD_REACTORS
330
2C1
330
2C2
102
}
330
71
100
AcDbEntity
  8
0
  6
Continuous
 62
     2
100
AcDbCircle
 10
95.2574464997277
 20
338.9637467119572
 30
0.0
 40
0.4709789327785074
  0
CIRCLE
  5
294
330
71
100
AcDbEntity
  8
1
  6
Continuous
 62
     2
100
AcDbCircle
 10
100.7136162338274
 20
349.1253735557128
 30
0.0
 40
1.249999999999901
  0
CIRCLE
  5
295
330
71
100
AcDbEntity
  8
1
  6
Continuous
 62
     2
100
AcDbCircle
 10
100.7136162338274
 20
349.1253735557128
 30
0.0
 40
2.5
  0
TEXT
  5
296
330
71
100
AcDbEntity
  8
1
 62
     7
100
AcDbText
 10
143.3505090692786
 20
346.3003735557128
 30
0.0
 40
2.5
  1
/
 41
0.9
  7
CONVERTER_11
100
AcDbText
  0
TEXT
  5
298
330
71
100
AcDbEntity
  8
1
 62
     7
100
AcDbText
 10
145.5068735663206
 20
346.3003735557128
 30
0.0
 40
2.5
  1
01
 41
0.81
  7
CONVERTER_12
100
AcDbText
  0
TEXT
  5
299
330
71
100
AcDbEntity
  8
1
 62
     3
100
AcDbText
 10
183.1033575923377
 20
346.3003735557128
 30
0.0
 40
2.5
  1
27.10.2017
 41
0.81
  7
CONVERTER_12
100
AcDbText
  0
MTEXT
  5
29A
330
71
100
AcDbEntity
  8
1
 62
     2
100
AcDbMText
 10
183.1033575923377
 20
352.5003735557128
 30
0.0
 40
1.8
 41
0.0
 71
     1
 72
     1
  1
date
  7
CONVERTER_11
 73
     1
 44
1.32052821128451
  0
MTEXT
  5
29B
330
71
100
AcDbEntity
  8
1
 62
     2
100
AcDbMText
 10
153.2769613472648
 20
344.0003735557128
 30
0.0
 40
1.8
 41
0.0
 71
     1
 72
     1
  1
document-type
  7
CONVERTER_11
 73
     1
 44
1.20048019207683
  0
TEXT
  5
29C
330
71
100
AcDbEntity
  8
1
 62
     3
100
AcDbText
 10
153.2769613472648
 20
337.8003735557128
 30
0.0
 40
2.5
  1
TECDOC 2D_Productdrawing
 41
0.81
  7
CONVERTER_12
100
AcDbText
  0
MTEXT
  5
29E
330
71
100
AcDbEntity
  8
1
 62
     2
100
AcDbMText
 10
125.4769613472648
 20
352.5003735557129
 30
0.0
 40
1.8
 41
0.0
 71
     1
 72
     1
  1
document-No. / RI
  7
CONVERTER_13
 73
     1
 44
1.32052821128451
  0
TEXT
  5
29F
330
71
100
AcDbEntity
  8
1
 62
     7
100
AcDbText
 10
125.4769613472648
 20
346.3003735557128
 30
0.0
 40
2.5
  1
00321503
 41
0.81
  7
CONVERTER_12
100
AcDbText
  0
MTEXT
  5
2A1
330
71
100
AcDbEntity
  8
1
 62
     3
100
AcDbMText
 10
213.0625617331771
 20
346.300373555713
 30
0.0
 40
2.5
 41
0.0
 71
     8
 72
     1
  1
2:1
  7
CONVERTER_14
 73
     1
 44
1.32052821128451
  0
MTEXT
  5
2A2
330
71
100
AcDbEntity
  8
1
 62
     2
100
AcDbMText
 10
209.7033575923375
 20
352.5003735557129
 30
0.0
 40
1.8
 41
0.0
 71
     1
 72
     1
  1
scale
  7
CONVERTER_11
 73
     1
 44
1.20048019207683
  0
MTEXT
  5
2A3
330
71
100
AcDbEntity
  8
1
 62
     2
100
AcDbMText
 10
125.4769613472648
 20
344.0003735557129
 30
0.0
 40
1.8
 41
0.0
 71
     1
 72
     1
  1
ident.-No.
  7
CONVERTER_11
 73
     1
 44
1.20048019207683
  0
TEXT
  5
2A4
330
71
100
AcDbEntity
  8
1
 62
     7
100
AcDbText
 10
125.8769613472645
 20
337.8003735557128
 30
0.0
 40
2.5
  1
1401019
 41
0.81
  7
CONVERTER_12
100
AcDbText
  0
MTEXT
  5
2A5
330
71
100
AcDbEntity
  8
1
 62
     2
100
AcDbMText
 10
53.53894662221728
 20
340.7503735557128
 30
0.0
 40
2.0
 41
0.0
 71
     5
 72
     1
  1
General Information\P- Simplified representation\P- Document excluded from change process\P- Linear dimensions [mm]
  7
CONVERTER_11
 73
     1
 44
1.20048019207683
  0
MTEXT
  5
2A6
330
71
100
AcDbEntity
  8
1
 62
     7
100
AcDbMText
 10
220.0217658740138
 20
403.0003735557149
 30
0.0
 40
3.5
 41
0.0
 71
     5
 72
     1
  1
C
  7
CONVERTER_11
 73
     1
 44
1.20048019207683
  0
MTEXT
  5
2A7
330
71
100
AcDbEntity
  8
1
 62
     7
100
AcDbMText
 10
220.0217658740138
 20
505.5003735557129
 30
0.0
 40
3.5
 41
0.0
 71
     5
 72
     1
  1
A
  7
CONVERTER_11
 73
     1
 44
1.20048019207683
  0
MTEXT
  5
2A8
330
71
100
AcDbEntity
  8
1
 62
     7
100
AcDbMText
 10
220.0217658740138
 20
453.0003735557149
 30
0.0
 40
3.5
 41
0.0
 71
     5
 72
     1
  1
B
  7
CONVERTER_11
 73
     1
 44
1.20048019207683
  0
MTEXT
  5
2A9
330
71
100
AcDbEntity
  8
1
 62
     7
100
AcDbMText
 10
220.0217658740138
 20
350.5003735557129
 30
0.0
 40
3.5
 41
0.0
 71
     5
 72
     1
  1
D
  7
CONVERTER_11
 73
     1
 44
1.20048019207683
  0
MTEXT
  5
2AA
330
71
100
AcDbEntity
  8
1
 62
     7
100
AcDbMText
 10
-50.22823412598478
 20
325.5003735557128
 30
0.0
 40
3.5
 41
0.0
 71
     5
 72
     1
  1
1
  7
CONVERTER_11
 73
     1
 44
1.20048019207683
  0
MTEXT
  5
2AB
330
71
100
AcDbEntity
  8
1
 62
     7
100
AcDbMText
 10
-0.97823412598518
 20
325.5003735557128
 30
0.0
 40
3.5
 41
0.0
 71
     5
 72
     1
  1
2
  7
CONVERTER_11
 73
     1
 44
1.20048019207683
  0
MTEXT
  5
2AC
330
71
100
AcDbEntity
  8
1
 62
     7
100
AcDbMText
 10
49.02176587401482
 20
325.5003735557128
 30
0.0
 40
3.5
 41
0.0
 71
     5
 72
     1
  1
3
  7
CONVERTER_11
 73
     1
 44
1.20048019207683
  0
MTEXT
  5
2AD
330
71
100
AcDbEntity
  8
1
 62
     7
100
AcDbMText
 10
99.0217658740147
 20
325.5003735557128
 30
0.0
 40
3.5
 41
0.0
 71
     5
 72
     1
  1
4
  7
CONVERTER_11
 73
     1
 44
1.20048019207683
  0
MTEXT
  5
2AE
330
71
100
AcDbEntity
  8
1
 62
     7
100
AcDbMText
 10
149.0217658740148
 20
325.5003735557128
 30
0.0
 40
3.5
 41
0.0
 71
     5
 72
     1
  1
5
  7
CONVERTER_11
 73
     1
 44
1.20048019207683
  0
MTEXT
  5
2AF
330
71
100
AcDbEntity
  8
1
 62
     7
100
AcDbMText
 10
198.271765874014
 20
325.5003735557128
 30
0.0
 40
3.5
 41
0.0
 71
     5
 72
     1
  1
6
  7
CONVERTER_11
 73
     1
 44
1.20048019207683
  0
MTEXT
  5
2B0
330
71
100
AcDbEntity
  8
1
 62
     7
100
AcDbMText
 10
-71.97823412598427
 20
505.5003735557129
 30
0.0
 40
3.5
 41
0.0
 71
     5
 72
     1
  1
A
  7
CONVERTER_11
 73
     1
 44
1.20048019207683
  0
MTEXT
  5
2B1
330
71
100
AcDbEntity
  8
1
 62
     7
100
AcDbMText
 10
-71.97823412598427
 20
453.0003735557129
 30
0.0
 40
3.5
 41
0.0
 71
     5
 72
     1
  1
B
  7
CONVERTER_11
 73
     1
 44
1.20048019207683
  0
MTEXT
  5
2B2
330
71
100
AcDbEntity
  8
1
 62
     7
100
AcDbMText
 10
-71.97823412598427
 20
403.0003735557129
 30
0.0
 40
3.5
 41
0.0
 71
     5
 72
     1
  1
C
  7
CONVERTER_11
 73
     1
 44
1.20048019207683
  0
MTEXT
  5
2B3
330
71
100
AcDbEntity
  8
1
 62
     7
100
AcDbMText
 10
-71.97823412598427
 20
350.5003735557129
 30
0.0
 40
3.5
 41
0.0
 71
     5
 72
     1
  1
D
  7
CONVERTER_11
 73
     1
 44
1.20048019207683
  0
MTEXT
  5
2B4
330
71
100
AcDbEntity
  8
1
 62
     3
100
AcDbMText
 10
114.1769613472647
 20
349.1253735557129
 30
0.0
 40
2.5
 41
0.0
 71
     5
 72
     1
  1
DIN A4
  7
CONVERTER_11
 73
     1
 44
1.20048019207683
  0
MTEXT
  5
2B5
330
71
100
AcDbEntity
  8
1
 62
     2
100
AcDbMText
 10
125.3769613472647
 20
335.5003735557129
 30
0.0
 40
1.8
 41
0.0
 71
     1
 72
     1
  1
description
  7
CONVERTER_11
 73
     1
 44
1.20048019207683
  0
MTEXT
  5
2B6
330
71
100
AcDbEntity
  8
1
 62
     7
100
AcDbMText
 10
170.9493636106403
 20
331.2503735557132
 30
0.0
 40
3.0
 41
0.0
 71
     5
 72
     1
  1
MBK
  7
CONVERTER_12
 73
     1
 44
1.20048019207683
  0
TEXT
  5
2B7
330
71
100
AcDbEntity
  8
1
 62
     2
100
AcDbText
 10
112.4122701570783
 20
329.2503735557128
 30
0.0
 40
1.8
  1
1
 41
0.9
  7
CONVERTER_11
100
AcDbText
  0
TEXT
  5
2B8
330
71
100
AcDbEntity
  8
1
 62
     2
100
AcDbText
 10
97.6232263176068
 20
329.2011249019109
 30
0.0
 40
1.8
  1
1
 41
0.9
  7
CONVERTER_11
100
AcDbText
  0
TEXT
  5
2B9
330
71
100
AcDbEntity
  8
1
 62
     2
100
AcDbText
 10
88.97696134726479
 20
329.2413563407213
 30
0.0
 40
1.8
  1
page
 41
0.9
  7
CONVERTER_11
100
AcDbText
  0
TEXT
  5
2BA
330
71
100
AcDbEntity
  8
1
 62
     2
100
AcDbText
 10
107.1769613472646
 20
329.2413563407213
 30
0.0
 40
1.8
  1
of
 41
0.9
  7
CONVERTER_11
100
AcDbText
  0
MTEXT
  5
2BB
330
71
100
AcDbEntity
  8
1
 62
     3
100
AcDbMText
 10
113.3799434988747
 20
514.7916817110117
 30
0.0
 40
1.8
 41
0.0
 71
     7
 72
     1
  3
Transfer or duplication of this document as well as the utilisation or\Pcommunication of its content are not permitted unless express consent\Pis granted. Violations give rise to claims for damages. All rights reserved\Pin case of patent, utility mo
  1
del or design patent registrations.
  7
CONVERTER_11
 73
     1
 44
0.99639855942377
  0
MTEXT
  5
2BC
330
71
100
AcDbEntity
  8
1
 62
     3
100
AcDbMText
 10
-69.4731663399134
 20
514.7916817110117
 30
0.0
 40
1.8
 41
0.0
 71
     7
 72
     1
  3
Weitergabe sowie Vervielf\U+00e4ltigung dieses Dokuments, Verwertung und \PMitteilung seines Inhalts sind verboten, soweit nicht ausdr\U+00fccklich gestattet. \PZuwiderhandlungen verpflichten zu Schadenersatz. Alle Rechte f\U+00fcr den Fall\Pder Pat
  1
ent-, Gebrauchsmuster- oder Designeintragung vorbehalten.
  7
CONVERTER_11
 73
     1
 44
0.99639855942377
  0
HATCH
  5
2BD
330
71
100
AcDbEntity
  8
1
  6
Continuous
 62
     2
100
AcDbHatch
 10
0.0
 20
0.0
 30
0.0
210
0.0
220
0.0
230
1.0
  2
_USER
 70
     0
 71
     1
 91
        1
 92
        1
 93
       14
 72
     2
 10
100.2181906231875
 20
336.8207783176346
 40
1.205656168390914
 50
164.9381082228817
 51
195.0618917770948
 73
     1
 72
     2
 10
100.6373184666503
 20
336.9335686796694
 40
1.63969512393938
 50
195.0618917770886
 51
275.1581447696398
 73
     1
 72
     2
 10
100.3484623719144
 20
340.1334592628909
 40
4.852596863498111
 50
275.1581447696252
 51
285.9799912583529
 73
     1
 72
     1
 10
101.6843902890322
 20
335.4683769570901
 11
101.6843902890322
 21
336.3408939638933
 72
     2
 10
100.5063352470073
 20
338.2312446830432
 40
2.227384008972665
 50
58.0690910500408
 51
71.5519238818658
 73
     0
 72
     2
 10
100.9245029806681
 20
336.977698907006
 40
0.9059297849848149
 50
71.55192388183812
 51
113.3722778881318
 73
     0
 72
     2
 10
100.7680629479661
 20
336.615706888296
 40
0.5115800601948034
 50
113.3722778881806
 51
151.4785267423044
 73
     0
 72
     2
 10
101.1454202060464
 20
336.8207783176346
 40
0.941059735333242
 50
151.4785267422878
 51
208.5214732577335
 73
     0
 72
     2
 10
100.7680629479661
 20
337.0258497469736
 40
0.5115800601947587
 50
208.5214732576956
 51
246.6277221117916
 73
     0
 72
     2
 10
100.9245029806681
 20
336.6638577282629
 40
0.9059297849853318
 50
246.627722111871
 51
288.4480761181483
 73
     0
 72
     2
 10
100.5063352470073
 20
335.4103119522264
 40
2.227384008973412
 50
288.4480761181342
 51
301.9309089499608
 73
     0
 72
     1
 10
101.6843902890322
 20
337.3006626713762
 11
101.6843902890322
 21
338.1731796781795
 72
     2
 10
100.3484623719144
 20
333.5080973723786
 40
4.852596863498095
 50
74.02000874164747
 51
84.84185523037505
 73
     1
 72
     2
 10
100.6373184666503
 20
336.7079879555996
 40
1.639695123940621
 50
84.84185523036221
 51
164.9381082228864
 73
     1
 97
       14
330
292
330
1AB
330
261
330
291
330
262
330
263
330
290
330
28F
330
28E
330
1AC
330
264
330
265
330
266
330
267
 75
     1
 76
     0
 52
45.0
 41
0.1
 77
     0
 78
     1
 53
45.0
 43
0.0
 44
0.0
 45
-0.0707106781186548
 46
0.0707106781186548
 79
     0
 98
        1
 10
0.0
 20
0.0
  0
HATCH
  5
2BE
330
71
100
AcDbEntity
  8
1
  6
Continuous
 62
     2
100
AcDbHatch
 10
0.0
 20
0.0
 30
0.0
210
0.0
220
0.0
230
1.0
  2
_USER
 70
     0
 71
     1
 91
        1
 92
        1
 93
       14
 72
     2
 10
100.2181906231875
 20
336.8207783176346
 40
1.205656168390914
 50
164.9381082228817
 51
195.0618917770948
 73
     1
 72
     2
 10
100.6373184666503
 20
336.9335686796694
 40
1.63969512393938
 50
195.0618917770886
 51
275.1581447696398
 73
     1
 72
     2
 10
100.3484623719144
 20
340.1334592628909
 40
4.852596863498111
 50
275.1581447696252
 51
285.9799912583529
 73
     1
 72
     1
 10
101.6843902890322
 20
335.4683769570901
 11
101.6843902890322
 21
336.3408939638933
 72
     2
 10
100.5063352470073
 20
338.2312446830432
 40
2.227384008972665
 50
58.0690910500408
 51
71.5519238818658
 73
     0
 72
     2
 10
100.9245029806681
 20
336.977698907006
 40
0.9059297849848149
 50
71.55192388183812
 51
113.3722778881318
 73
     0
 72
     2
 10
100.7680629479661
 20
336.615706888296
 40
0.5115800601948034
 50
113.3722778881806
 51
151.4785267423044
 73
     0
 72
     2
 10
101.1454202060464
 20
336.8207783176346
 40
0.941059735333242
 50
151.4785267422878
 51
208.5214732577335
 73
     0
 72
     2
 10
100.7680629479661
 20
337.0258497469736
 40
0.5115800601947587
 50
208.5214732576956
 51
246.6277221117916
 73
     0
 72
     2
 10
100.9245029806681
 20
336.6638577282629
 40
0.9059297849853318
 50
246.627722111871
 51
288.4480761181483
 73
     0
 72
     2
 10
100.5063352470073
 20
335.4103119522264
 40
2.227384008973412
 50
288.4480761181342
 51
301.9309089499608
 73
     0
 72
     1
 10
101.6843902890322
 20
337.3006626713762
 11
101.6843902890322
 21
338.1731796781795
 72
     2
 10
100.3484623719144
 20
333.5080973723786
 40
4.852596863498095
 50
74.02000874164747
 51
84.84185523037505
 73
     1
 72
     2
 10
100.6373184666503
 20
336.7079879555996
 40
1.639695123940621
 50
84.84185523036221
 51
164.9381082228864
 73
     1
 97
       14
330
292
330
1AB
330
261
330
291
330
262
330
263
330
290
330
28F
330
28E
330
1AC
330
264
330
265
330
266
330
267
 75
     1
 76
     0
 52
45.0
 41
0.1
 77
     0
 78
     1
 53
45.0
 43
0.0
 44
0.0
 45
-0.0707106781186548
 46
0.0707106781186548
 79
     0
 98
        1
 10
0.0
 20
0.0
  0
HATCH
  5
2BF
330
71
100
AcDbEntity
  8
1
  6
Continuous
 62
     2
100
AcDbHatch
 10
0.0
 20
0.0
 30
0.0
210
0.0
220
0.0
230
1.0
  2
_USER
 70
     0
 71
     1
 91
        1
 92
        1
 93
       18
 72
     2
 10
116.7400199459032
 20
336.7079879555996
 40
1.639695123940214
 50
90.0
 51
164.9381082228947
 73
     1
 72
     2
 10
116.3208921024416
 20
336.8207783176346
 40
1.205656168392959
 50
164.9381082229078
 51
195.0618917771026
 73
     1
 72
     2
 10
116.7400199459032
 20
336.9335686796694
 40
1.63969512394045
 50
195.0618917771053
 51
275.1581447696762
 73
     1
 72
     2
 10
116.4511638511674
 20
340.1334592628909
 40
4.85259686349871
 50
275.1581447696363
 51
285.9799912583386
 73
     1
 72
     1
 10
117.7870917682841
 20
335.4683769570895
 11
117.7870917682841
 21
336.3408939638929
 72
     2
 10
116.6090367262602
 20
338.2312446830426
 40
2.227384008972665
 50
58.06909105005943
 51
71.5519238818658
 73
     0
 72
     2
 10
117.0272044599221
 20
336.977698907006
 40
0.9059297849851757
 50
71.55192388191715
 51
113.3722778881846
 73
     0
 72
     2
 10
116.870764427219
 20
336.615706888296
 40
0.5115800601959674
 50
113.3722778881601
 51
151.4785267423246
 73
     0
 72
     2
 10
117.2481216853004
 20
336.8207783176346
 40
0.941059735334837
 50
151.4785267423309
 51
208.5214732576296
 73
     0
 72
     2
 10
116.870764427219
 20
337.0258497469736
 40
0.5115800601944143
 50
208.5214732575636
 51
250.6628567805147
 73
     0
 72
     2
 10
117.0174344253227
 20
336.6078947665907
 40
0.9545230068261503
 50
250.6628567805691
 51
270.0
 73
     0
 72
     1
 10
117.0174344253227
 20
337.5624177734168
 11
118.1210737248908
 21
337.5624177734168
 72
     1
 10
118.1210737248908
 20
337.5624177734168
 11
118.1210737248908
 21
335.2938735557293
 72
     1
 10
118.1210737248908
 20
335.2938735557293
 11
119.3138664270585
 21
335.2938735557293
 72
     1
 10
119.3138664270585
 20
335.2938735557293
 11
119.3138664270585
 21
337.5624177734168
 72
     1
 10
119.3138664270585
 20
337.5624177734168
 11
120.1249654645319
 21
337.5624177734168
 72
     1
 10
120.1249654645319
 20
337.5624177734168
 11
120.1249654645319
 21
338.3476830795403
 72
     1
 10
120.1249654645319
 20
338.3476830795403
 11
116.7400199459032
 21
338.3476830795398
 97
       18
330
211
330
210
330
20F
330
20E
330
213
330
1AD
330
28B
330
26C
330
28A
330
26D
330
289
330
288
330
1AE
330
287
330
286
330
26E
330
26F
330
212
 75
     1
 76
     0
 52
45.0
 41
0.1
 77
     0
 78
     1
 53
45.0
 43
0.0
 44
0.0
 45
-0.0707106781186548
 46
0.0707106781186548
 79
     0
 98
        1
 10
0.0
 20
0.0
  0
HATCH
  5
2C0
330
71
100
AcDbEntity
  8
1
  6
Continuous
 62
     2
100
AcDbHatch
 10
0.0
 20
0.0
 30
0.0
210
0.0
220
0.0
230
1.0
  2
_USER
 70
     0
 71
     1
 91
        1
 92
        1
 93
       18
 72
     2
 10
116.7400199459032
 20
336.7079879555996
 40
1.639695123940214
 50
90.0
 51
164.9381082228947
 73
     1
 72
     2
 10
116.3208921024416
 20
336.8207783176346
 40
1.205656168392959
 50
164.9381082229078
 51
195.0618917771026
 73
     1
 72
     2
 10
116.7400199459032
 20
336.9335686796694
 40
1.63969512394045
 50
195.0618917771053
 51
275.1581447696762
 73
     1
 72
     2
 10
116.4511638511674
 20
340.1334592628909
 40
4.85259686349871
 50
275.1581447696363
 51
285.9799912583386
 73
     1
 72
     1
 10
117.7870917682841
 20
335.4683769570895
 11
117.7870917682841
 21
336.3408939638929
 72
     2
 10
116.6090367262602
 20
338.2312446830426
 40
2.227384008972665
 50
58.06909105005943
 51
71.5519238818658
 73
     0
 72
     2
 10
117.0272044599221
 20
336.977698907006
 40
0.9059297849851757
 50
71.55192388191715
 51
113.3722778881846
 73
     0
 72
     2
 10
116.870764427219
 20
336.615706888296
 40
0.5115800601959674
 50
113.3722778881601
 51
151.4785267423246
 73
     0
 72
     2
 10
117.2481216853004
 20
336.8207783176346
 40
0.941059735334837
 50
151.4785267423309
 51
208.5214732576296
 73
     0
 72
     2
 10
116.870764427219
 20
337.0258497469736
 40
0.5115800601944143
 50
208.5214732575636
 51
250.6628567805147
 73
     0
 72
     2
 10
117.0174344253227
 20
336.6078947665907
 40
0.9545230068261503
 50
250.6628567805691
 51
270.0
 73
     0
 72
     1
 10
117.0174344253227
 20
337.5624177734168
 11
118.1210737248908
 21
337.5624177734168
 72
     1
 10
118.1210737248908
 20
337.5624177734168
 11
118.1210737248908
 21
335.2938735557293
 72
     1
 10
118.1210737248908
 20
335.2938735557293
 11
119.3138664270585
 21
335.2938735557293
 72
     1
 10
119.3138664270585
 20
335.2938735557293
 11
119.3138664270585
 21
337.5624177734168
 72
     1
 10
119.3138664270585
 20
337.5624177734168
 11
120.1249654645319
 21
337.5624177734168
 72
     1
 10
120.1249654645319
 20
337.5624177734168
 11
120.1249654645319
 21
338.3476830795403
 72
     1
 10
120.1249654645319
 20
338.3476830795403
 11
116.7400199459032
 21
338.3476830795398
 97
       18
330
211
330
210
330
20F
330
20E
330
213
330
1AD
330
28B
330
26C
330
28A
330
26D
330
289
330
288
330
1AE
330
287
330
286
330
26E
330
26F
330
212
 75
     1
 76
     0
 52
45.0
 41
0.1
 77
     0
 78
     1
 53
45.0
 43
0.0
 44
0.0
 45
-0.0707106781186548
 46
0.0707106781186548
 79
     0
 98
        1
 10
0.0
 20
0.0
  0
HATCH
  5
2C1
330
71
100
AcDbEntity
  8
1
  6
Continuous
 62
     2
100
AcDbHatch
 10
0.0
 20
0.0
 30
0.0
210
0.0
220
0.0
230
1.0
  2
_USER
 70
     0
 71
     1
 91
        4
 92
        1
 93
        8
 72
     2
 10
92.6378608492102
 20
341.2826289403128
 40
0.4242446153837705
 50
90.0
 51
180.0
 73
     1
 72
     1
 10
92.2136162338274
 20
341.2826289403128
 11
92.2136162338274
 21
335.7181181711126
 72
     2
 10
92.6378608492102
 20
335.7181181711126
 40
0.4242446153828041
 50
180.0
 51
270.0
 73
     1
 72
     1
 10
92.6378608492102
 20
335.2938735557293
 11
98.111172939927
 21
335.2938735557293
 72
     2
 10
98.111172939927
 20
335.7181181711126
 40
0.4242446153833157
 50
270.0
 51
360.0
 73
     1
 72
     1
 10
98.53541755531089
 20
335.7181181711126
 11
98.53541755531089
 21
341.2826289403128
 72
     2
 10
98.111172939927
 20
341.2826289403128
 40
0.4242446153838841
 50
0.0
 51
90.0
 73
     1
 72
     1
 10
98.111172939927
 20
341.7068735556966
 11
92.6378608492102
 21
341.7068735556966
 97
        8
330
27F
330
1DC
330
27E
330
1DD
330
275
330
1DA
330
280
330
1DB
 92
       16
 93
        1
 72
     2
 10
95.2574464997277
 20
338.9637467119572
 40
0.4709789327785074
 50
0.0
 51
360.0
 73
     1
 97
        1
330
293
 92
       16
 93
        8
 72
     2
 10
95.28126151440051
 20
338.9637467119572
 40
0.9118481501443819
 50
295.3740086781787
 51
424.6259913218075
 73
     1
 72
     2
 10
95.80730421248839
 20
340.0728883119251
 40
0.315716923076792
 50
115.374008678343
 51
180.0
 73
     0
 72
     1
 10
95.4915872894116
 20
340.0728883119251
 11
95.4915872894116
 21
340.6784236004319
 72
     2
 10
95.80730421248839
 20
340.6784236004319
 40
0.3157169230759573
 50
180.0
 51
269.811032957454
 73
     0
 72
     2
 10
95.81292034779841
 20
338.9755886528627
 40
2.018561131933266
 50
269.8110329575858
 51
450.1889670424142
 73
     0
 72
     2
 10
95.80730421248839
 20
337.2727537052938
 40
0.315716923076792
 50
90.1889670425458
 51
180.0
 73
     0
 72
     1
 10
95.4915872894116
 20
337.2727537052938
 11
95.4915872894116
 21
337.8546051119888
 72
     2
 10
95.80730421248839
 20
337.8546051119888
 40
0.3157169230765842
 50
180.0
 51
244.6259913216525
 73
     0
 97
        8
330
28D
330
269
330
215
330
28C
330
26A
330
26B
330
214
330
268
 92
       16
 93
       12
 72
     1
 10
93.23175552595669
 20
336.0064291112861
 11
94.70758878696631
 21
336.0064291112861
 72
     2
 10
94.70758878696631
 20
336.3221460343629
 40
0.3157169230768204
 50
270.0
 51
360.0
 73
     1
 72
     1
 10
95.0233057100429
 20
336.3221460343629
 11
95.0233057100429
 21
337.8529169658945
 72
     2
 10
94.70758878696631
 20
337.8529169658945
 40
0.315716923076593
 50
0.0
 51
64.8055893514515
 73
     1
 72
     2
 10
95.2301732345413
 20
338.9637467119572
 40
0.9118975235576403
 50
115.1944106485122
 51
244.8055893514725
 73
     0
 72
     2
 10
94.70758878696631
 20
340.0745764580195
 40
0.3157169230762231
 50
295.1944106485309
 51
360.0
 73
     1
 72
     1
 10
95.0233057100429
 20
340.0745764580195
 11
95.0233057100429
 21
340.67860107708
 72
     2
 10
94.70758878696631
 20
340.67860107708
 40
0.315716923076593
 50
0.0
 51
90.0
 73
     1
 72
     1
 10
94.70758878696631
 20
340.9943180001561
 11
93.23175552595669
 21
340.9943180001561
 72
     2
 10
93.23175552595669
 20
340.67860107708
 40
0.3157169230761383
 50
90.0
 51
180.0
 73
     1
 72
     1
 10
92.916038602881
 20
340.67860107708
 11
92.916038602881
 21
336.3221460343629
 72
     2
 10
93.23175552595669
 20
336.3221460343629
 40
0.3157169230756836
 50
180.0
 51
270.0
 73
     1
 97
       12
330
1E1
330
272
330
1E0
330
283
330
1DF
330
282
330
273
330
274
330
1DE
330
281
330
1D9
330
284
 75
     1
 76
     0
 52
45.0
 41
0.1
 77
     0
 78
     1
 53
45.0
 43
0.0
 44
0.0
 45
-0.0707106781186548
 46
0.0707106781186548
 79
     0
 98
        1
 10
0.0
 20
0.0
  0
HATCH
  5
2C2
330
71
100
AcDbEntity
  8
1
  6
Continuous
 62
     2
100
AcDbHatch
 10
0.0
 20
0.0
 30
0.0
210
0.0
220
0.0
230
1.0
  2
_USER
 70
     0
 71
     1
 91
        4
 92
        1
 93
        8
 72
     2
 10
92.6378608492102
 20
341.2826289403128
 40
0.4242446153837705
 50
90.0
 51
180.0
 73
     1
 72
     1
 10
92.2136162338274
 20
341.2826289403128
 11
92.2136162338274
 21
335.7181181711126
 72
     2
 10
92.6378608492102
 20
335.7181181711126
 40
0.4242446153828041
 50
180.0
 51
270.0
 73
     1
 72
     1
 10
92.6378608492102
 20
335.2938735557293
 11
98.111172939927
 21
335.2938735557293
 72
     2
 10
98.111172939927
 20
335.7181181711126
 40
0.4242446153833157
 50
270.0
 51
360.0
 73
     1
 72
     1
 10
98.53541755531089
 20
335.7181181711126
 11
98.53541755531089
 21
341.2826289403128
 72
     2
 10
98.111172939927
 20
341.2826289403128
 40
0.4242446153838841
 50
0.0
 51
90.0
 73
     1
 72
     1
 10
98.111172939927
 20
341.7068735556966
 11
92.6378608492102
 21
341.7068735556966
 97
        8
330
27F
330
1DC
330
27E
330
1DD
330
275
330
1DA
330
280
330
1DB
 92
       16
 93
        1
 72
     2
 10
95.2574464997277
 20
338.9637467119572
 40
0.4709789327785074
 50
0.0
 51
360.0
 73
     1
 97
        1
330
293
 92
       16
 93
        8
 72
     2
 10
95.28126151440051
 20
338.9637467119572
 40
0.9118481501443819
 50
295.3740086781787
 51
424.6259913218075
 73
     1
 72
     2
 10
95.80730421248839
 20
340.0728883119251
 40
0.315716923076792
 50
115.374008678343
 51
180.0
 73
     0
 72
     1
 10
95.4915872894116
 20
340.0728883119251
 11
95.4915872894116
 21
340.6784236004319
 72
     2
 10
95.80730421248839
 20
340.6784236004319
 40
0.3157169230759573
 50
180.0
 51
269.811032957454
 73
     0
 72
     2
 10
95.81292034779841
 20
338.9755886528627
 40
2.018561131933266
 50
269.8110329575858
 51
450.1889670424142
 73
     0
 72
     2
 10
95.80730421248839
 20
337.2727537052938
 40
0.315716923076792
 50
90.1889670425458
 51
180.0
 73
     0
 72
     1
 10
95.4915872894116
 20
337.2727537052938
 11
95.4915872894116
 21
337.8546051119888
 72
     2
 10
95.80730421248839
 20
337.8546051119888
 40
0.3157169230765842
 50
180.0
 51
244.6259913216525
 73
     0
 97
        8
330
28D
330
269
330
215
330
28C
330
26A
330
26B
330
214
330
268
 92
       16
 93
       12
 72
     1
 10
93.23175552595669
 20
336.0064291112861
 11
94.70758878696631
 21
336.0064291112861
 72
     2
 10
94.70758878696631
 20
336.3221460343629
 40
0.3157169230768204
 50
270.0
 51
360.0
 73
     1
 72
     1
 10
95.0233057100429
 20
336.3221460343629
 11
95.0233057100429
 21
337.8529169658945
 72
     2
 10
94.70758878696631
 20
337.8529169658945
 40
0.315716923076593
 50
0.0
 51
64.8055893514515
 73
     1
 72
     2
 10
95.2301732345413
 20
338.9637467119572
 40
0.9118975235576403
 50
115.1944106485122
 51
244.8055893514725
 73
     0
 72
     2
 10
94.70758878696631
 20
340.0745764580195
 40
0.3157169230762231
 50
295.1944106485309
 51
360.0
 73
     1
 72
     1
 10
95.0233057100429
 20
340.0745764580195
 11
95.0233057100429
 21
340.67860107708
 72
     2
 10
94.70758878696631
 20
340.67860107708
 40
0.315716923076593
 50
0.0
 51
90.0
 73
     1
 72
     1
 10
94.70758878696631
 20
340.9943180001561
 11
93.23175552595669
 21
340.9943180001561
 72
     2
 10
93.23175552595669
 20
340.67860107708
 40
0.3157169230761383
 50
90.0
 51
180.0
 73
     1
 72
     1
 10
92.916038602881
 20
340.67860107708
 11
92.916038602881
 21
336.3221460343629
 72
     2
 10
93.23175552595669
 20
336.3221460343629
 40
0.3157169230756836
 50
180.0
 51
270.0
 73
     1
 97
       12
330
1E1
330
272
330
1E0
330
283
330
1DF
330
282
330
273
330
274
330
1DE
330
281
330
1D9
330
284
 75
     1
 76
     0
 52
45.0
 41
0.1
 77
     0
 78
     1
 53
45.0
 43
0.0
 44
0.0
 45
-0.0707106781186548
 46
0.0707106781186548
 79
     0
 98
        1
 10
0.0
 20
0.0
  0
HATCH
  5
2C3
330
71
100
AcDbEntity
  8
1
  6
Continuous
 62
     2
100
AcDbHatch
 10
0.0
 20
0.0
 30
0.0
210
0.0
220
0.0
230
1.0
  2
_USER
 70
     0
 71
     1
 91
        2
 92
        1
 93
       12
 72
     2
 10
107.3130248531995
 20
340.1799687938088
 40
1.526904761905996
 50
90.0
 51
270.0
 73
     1
 72
     1
 10
107.3130248531995
 20
338.6530640319036
 11
110.4633445769805
 21
338.6530640319036
 72
     1
 10
110.4633445769805
 20
338.6530640319036
 11
110.4633445769805
 21
339.3510776373461
 72
     1
 10
110.4633445769805
 20
339.3510776373461
 11
109.1274167505528
 21
339.3510776373461
 72
     1
 10
109.1274167505528
 20
339.3510776373461
 11
109.1274167505528
 21
339.8309619910878
 72
     1
 10
109.1274167505528
 20
339.8309619910878
 11
110.4633445769805
 21
339.8309619910878
 72
     1
 10
110.4633445769805
 20
339.8309619910878
 11
110.4633445769805
 21
340.52897559653
 72
     1
 10
110.4633445769805
 20
340.52897559653
 11
109.1274167505528
 21
340.52897559653
 72
     1
 10
109.1274167505528
 20
340.52897559653
 11
109.1274167505528
 21
341.0088599502718
 72
     1
 10
109.1274167505528
 20
341.0088599502718
 11
110.4633445769805
 21
341.0088599502718
 72
     1
 10
110.4633445769805
 20
341.0088599502718
 11
110.4633445769805
 21
341.7068735557148
 72
     1
 10
110.4633445769805
 20
341.7068735557148
 11
107.3130248531995
 21
341.7068735557148
 97
       12
330
1D0
330
1CA
330
1F1
330
1F0
330
1EF
330
1EE
330
1CB
330
1CC
330
1CD
330
1CE
330
270
330
1CF
 92
       16
 93
        4
 72
     2
 10
107.729036899711
 20
340.1799687938088
 40
0.7717997786797538
 50
141.8795802028345
 51
218.1204197971556
 73
     1
 72
     2
 10
107.5292968633647
 20
340.0232376156885
 40
0.5179085730135184
 50
218.12041979716
 51
321.8795802028458
 73
     1
 72
     2
 10
107.3295568270185
 20
340.1799687938088
 40
0.7717997786796486
 50
321.8795802028444
 51
398.1204197971655
 73
     1
 72
     2
 10
107.5292968633647
 20
340.3366999719293
 40
0.5179085730135855
 50
38.12041979715421
 51
141.87958020284
 73
     1
 97
        4
330
27D
330
27C
330
277
330
276
 75
     1
 76
     0
 52
45.0
 41
0.1
 77
     0
 78
     1
 53
45.0
 43
0.0
 44
0.0
 45
-0.0707106781186548
 46
0.0707106781186548
 79
     0
 98
        1
 10
0.0
 20
0.0
  0
HATCH
  5
2C4
330
71
100
AcDbEntity
  8
1
  6
Continuous
 62
     2
100
AcDbHatch
 10
0.0
 20
0.0
 30
0.0
210
0.0
220
0.0
230
1.0
  2
_USER
 70
     0
 71
     1
 91
        2
 92
        1
 93
       12
 72
     2
 10
107.3130248531995
 20
340.1799687938088
 40
1.526904761905996
 50
90.0
 51
270.0
 73
     1
 72
     1
 10
107.3130248531995
 20
338.6530640319036
 11
110.4633445769805
 21
338.6530640319036
 72
     1
 10
110.4633445769805
 20
338.6530640319036
 11
110.4633445769805
 21
339.3510776373461
 72
     1
 10
110.4633445769805
 20
339.3510776373461
 11
109.1274167505528
 21
339.3510776373461
 72
     1
 10
109.1274167505528
 20
339.3510776373461
 11
109.1274167505528
 21
339.8309619910878
 72
     1
 10
109.1274167505528
 20
339.8309619910878
 11
110.4633445769805
 21
339.8309619910878
 72
     1
 10
110.4633445769805
 20
339.8309619910878
 11
110.4633445769805
 21
340.52897559653
 72
     1
 10
110.4633445769805
 20
340.52897559653
 11
109.1274167505528
 21
340.52897559653
 72
     1
 10
109.1274167505528
 20
340.52897559653
 11
109.1274167505528
 21
341.0088599502718
 72
     1
 10
109.1274167505528
 20
341.0088599502718
 11
110.4633445769805
 21
341.0088599502718
 72
     1
 10
110.4633445769805
 20
341.0088599502718
 11
110.4633445769805
 21
341.7068735557148
 72
     1
 10
110.4633445769805
 20
341.7068735557148
 11
107.3130248531995
 21
341.7068735557148
 97
       12
330
1D0
330
1CA
330
1F1
330
1F0
330
1EF
330
1EE
330
1CB
330
1CC
330
1CD
330
1CE
330
270
330
1CF
 92
       16
 93
        4
 72
     2
 10
107.729036899711
 20
340.1799687938088
 40
0.7717997786797538
 50
141.8795802028345
 51
218.1204197971556
 73
     1
 72
     2
 10
107.5292968633647
 20
340.0232376156885
 40
0.5179085730135184
 50
218.12041979716
 51
321.8795802028458
 73
     1
 72
     2
 10
107.3295568270185
 20
340.1799687938088
 40
0.7717997786796486
 50
321.8795802028444
 51
398.1204197971655
 73
     1
 72
     2
 10
107.5292968633647
 20
340.3366999719293
 40
0.5179085730135855
 50
38.12041979715421
 51
141.87958020284
 73
     1
 97
        4
330
27D
330
27C
330
277
330
276
 75
     1
 76
     0
 52
45.0
 41
0.1
 77
     0
 78
     1
 53
45.0
 43
0.0
 44
0.0
 45
-0.0707106781186548
 46
0.0707106781186548
 79
     0
 98
        1
 10
0.0
 20
0.0
  0
HATCH
  5
2C5
330
71
100
AcDbEntity
  8
1
  6
Continuous
 62
     2
100
AcDbHatch
 10
0.0
 20
0.0
 30
0.0
210
0.0
220
0.0
230
1.0
  2
_USER
 70
     0
 71
     1
 91
        2
 92
        1
 93
        4
 72
     2
 10
103.2874094907379
 20
336.8207783176346
 40
1.458034083651371
 50
117.5481481756655
 51
242.4518518243397
 73
     1
 72
     2
 10
103.5683493825712
 20
337.3593533279378
 40
2.065479772208541
 50
242.4518518243402
 51
297.5481481756867
 73
     1
 72
     2
 10
103.8492892744045
 20
336.8207783176346
 40
1.458034083652129
 50
297.5481481756985
 51
422.4518518242964
 73
     1
 72
     2
 10
103.5683493825712
 20
336.2822033073318
 40
2.065479772208441
 50
62.45185182430455
 51
117.5481481756686
 73
     1
 97
        4
330
27B
330
278
330
27A
330
279
 92
       16
 93
        4
 72
     2
 10
103.5683493825712
 20
336.977509495755
 40
0.5179085730132998
 50
38.12041979714704
 51
141.8795802028598
 73
     1
 72
     2
 10
103.7680894189173
 20
336.8207783176346
 40
0.7717997786793866
 50
141.8795802028453
 51
218.1204197971747
 73
     1
 72
     2
 10
103.5683493825712
 20
336.6640471395145
 40
0.517908573013729
 50
218.1204197971897
 51
321.8795802028035
 73
     1
 72
     2
 10
103.3686093462248
 20
336.8207783176346
 40
0.7717997786797538
 50
321.8795802028345
 51
398.1204197971456
 73
     1
 97
        4
330
25E
330
25F
330
260
330
25D
 75
     1
 76
     0
 52
45.0
 41
0.1
 77
     0
 78
     1
 53
45.0
 43
0.0
 44
0.0
 45
-0.0707106781186548
 46
0.0707106781186548
 79
     0
 98
        1
 10
0.0
 20
0.0
  0
HATCH
  5
2C6
330
71
100
AcDbEntity
  8
1
  6
Continuous
 62
     2
100
AcDbHatch
 10
0.0
 20
0.0
 30
0.0
210
0.0
220
0.0
230
1.0
  2
_USER
 70
     0
 71
     1
 91
        2
 92
        1
 93
        4
 72
     2
 10
103.2874094907379
 20
336.8207783176346
 40
1.458034083651371
 50
117.5481481756655
 51
242.4518518243397
 73
     1
 72
     2
 10
103.5683493825712
 20
337.3593533279378
 40
2.065479772208541
 50
242.4518518243402
 51
297.5481481756867
 73
     1
 72
     2
 10
103.8492892744045
 20
336.8207783176346
 40
1.458034083652129
 50
297.5481481756985
 51
422.4518518242964
 73
     1
 72
     2
 10
103.5683493825712
 20
336.2822033073318
 40
2.065479772208441
 50
62.45185182430455
 51
117.5481481756686
 73
     1
 97
        4
330
27B
330
278
330
27A
330
279
 92
       16
 93
        4
 72
     2
 10
103.5683493825712
 20
336.977509495755
 40
0.5179085730132998
 50
38.12041979714704
 51
141.8795802028598
 73
     1
 72
     2
 10
103.7680894189173
 20
336.8207783176346
 40
0.7717997786793866
 50
141.8795802028453
 51
218.1204197971747
 73
     1
 72
     2
 10
103.5683493825712
 20
336.6640471395145
 40
0.517908573013729
 50
218.1204197971897
 51
321.8795802028035
 73
     1
 72
     2
 10
103.3686093462248
 20
336.8207783176346
 40
0.7717997786797538
 50
321.8795802028345
 51
398.1204197971456
 73
     1
 97
        4
330
25E
330
25F
330
260
330
25D
 75
     1
 76
     0
 52
45.0
 41
0.1
 77
     0
 78
     1
 53
45.0
 43
0.0
 44
0.0
 45
-0.0707106781186548
 46
0.0707106781186548
 79
     0
 98
        1
 10
0.0
 20
0.0
  0
HATCH
  5
2C7
330
71
100
AcDbEntity
  8
1
  6
Continuous
 62
     2
100
AcDbHatch
 10
0.0
 20
0.0
 30
0.0
210
0.0
220
0.0
230
1.0
  2
_USER
 70
     0
 71
     1
 91
        2
 92
        1
 93
        6
 72
     1
 10
99.01253463617769
 20
341.7068735557148
 11
99.01253463617769
 21
338.6530640319036
 72
     1
 10
99.01253463617769
 20
338.6530640319036
 11
100.2530390464318
 21
338.6530640319036
 72
     1
 10
100.2530390464318
 20
338.6530640319036
 11
100.2530390464318
 21
339.5961422730474
 72
     1
 10
100.2530390464318
 20
339.5961422730474
 11
101.0118066342121
 21
339.5961422730474
 72
     2
 10
101.0118066342121
 20
340.6515079143811
 40
1.055365641333708
 50
270.0
 51
450.0
 73
     1
 72
     1
 10
101.0118066342121
 20
341.7068735557148
 11
99.01253463617769
 21
341.7068735557148
 97
        6
330
285
330
1E2
330
1D8
330
1D7
330
1E4
330
1E3
 92
       16
 93
        4
 72
     1
 10
100.5703341079737
 20
341.0437677102747
 11
100.2530390464318
 21
341.0437677102747
 72
     1
 10
100.2530390464318
 20
341.0437677102747
 11
100.2530390464318
 21
340.3380400609324
 72
     1
 10
100.2530390464318
 20
340.3380400609324
 11
100.5703341079737
 21
340.3380400609324
 72
     2
 10
100.5703341079737
 20
340.6909038856036
 40
0.3528638246711466
 50
270.0
 51
450.0
 73
     1
 97
        4
330
1E5
330
1D6
330
1E6
330
271
 75
     1
 76
     0
 52
45.0
 41
0.1
 77
     0
 78
     1
 53
45.0
 43
0.0
 44
0.0
 45
-0.0707106781186548
 46
0.0707106781186548
 79
     0
 98
        1
 10
0.0
 20
0.0
  0
HATCH
  5
2C8
330
71
100
AcDbEntity
  8
1
  6
Continuous
 62
     2
100
AcDbHatch
 10
0.0
 20
0.0
 30
0.0
210
0.0
220
0.0
230
1.0
  2
_USER
 70
     0
 71
     1
 91
        2
 92
        1
 93
        6
 72
     1
 10
99.01253463617769
 20
341.7068735557148
 11
99.01253463617769
 21
338.6530640319036
 72
     1
 10
99.01253463617769
 20
338.6530640319036
 11
100.2530390464318
 21
338.6530640319036
 72
     1
 10
100.2530390464318
 20
338.6530640319036
 11
100.2530390464318
 21
339.5961422730474
 72
     1
 10
100.2530390464318
 20
339.5961422730474
 11
101.0118066342121
 21
339.5961422730474
 72
     2
 10
101.0118066342121
 20
340.6515079143811
 40
1.055365641333708
 50
270.0
 51
450.0
 73
     1
 72
     1
 10
101.0118066342121
 20
341.7068735557148
 11
99.01253463617769
 21
341.7068735557148
 97
        6
330
285
330
1E2
330
1D8
330
1D7
330
1E4
330
1E3
 92
       16
 93
        4
 72
     1
 10
100.5703341079737
 20
341.0437677102747
 11
100.2530390464318
 21
341.0437677102747
 72
     1
 10
100.2530390464318
 20
341.0437677102747
 11
100.2530390464318
 21
340.3380400609324
 72
     1
 10
100.2530390464318
 20
340.3380400609324
 11
100.5703341079737
 21
340.3380400609324
 72
     2
 10
100.5703341079737
 20
340.6909038856036
 40
0.3528638246711466
 50
270.0
 51
450.0
 73
     1
 97
        4
330
1E5
330
1D6
330
1E6
330
271
 75
     1
 76
     0
 52
45.0
 41
0.1
 77
     0
 78
     1
 53
45.0
 43
0.0
 44
0.0
 45
-0.0707106781186548
 46
0.0707106781186548
 79
     0
 98
        1
 10
0.0
 20
0.0
  0
HATCH
  5
2C9
330
71
100
AcDbEntity
  8
1
  6
Continuous
 62
     2
100
AcDbHatch
 10
0.0
 20
0.0
 30
0.0
210
0.0
220
0.0
230
1.0
  2
_USER
 70
     0
 71
     1
 91
        1
 92
        1
 93
       12
 72
     1
 10
118.6268178306109
 20
341.7068735557148
 11
120.0295420483581
 21
341.7068735557148
 72
     1
 10
120.0295420483581
 20
341.7068735557148
 11
118.7270124175916
 21
340.2339230256786
 72
     1
 10
118.7270124175916
 20
340.2339230256786
 11
120.1249654645319
 21
338.6530640319036
 72
     1
 10
120.1249654645319
 20
338.6530640319036
 11
118.7222412467836
 21
338.6530640319036
 72
     1
 10
118.7222412467836
 20
338.6530640319036
 11
118.0256503087181
 21
339.4407958171972
 72
     1
 10
118.0256503087181
 20
339.4407958171972
 11
117.3290593706524
 21
338.6530640319036
 72
     1
 10
117.3290593706524
 20
338.6530640319036
 11
115.9263351529042
 21
338.6530640319036
 72
     1
 10
115.9263351529042
 20
338.6530640319036
 11
117.3242881998445
 21
340.2339230256786
 72
     1
 10
117.3242881998445
 20
340.2339230256786
 11
116.021758569077
 21
341.7068735557148
 72
     1
 10
116.021758569077
 20
341.7068735557148
 11
117.4244827868263
 21
341.7068735557148
 72
     1
 10
117.4244827868263
 20
341.7068735557148
 11
118.0256503087181
 21
341.0270502341592
 72
     1
 10
118.0256503087181
 20
341.0270502341592
 11
118.6268178306109
 21
341.7068735557148
 97
       12
330
1B1
330
20A
330
209
330
208
330
207
330
1B2
330
1B3
330
1AF
330
1B0
330
20D
330
20C
330
20B
 75
     1
 76
     0
 52
45.0
 41
0.1
 77
     0
 78
     1
 53
45.0
 43
0.0
 44
0.0
 45
-0.0707106781186548
 46
0.0707106781186548
 79
     0
 98
        1
 10
0.0
 20
0.0
  0
HATCH
  5
2CA
330
71
100
AcDbEntity
  8
1
  6
Continuous
 62
     2
100
AcDbHatch
 10
0.0
 20
0.0
 30
0.0
210
0.0
220
0.0
230
1.0
  2
_USER
 70
     0
 71
     1
 91
        1
 92
        1
 93
       12
 72
     1
 10
118.6268178306109
 20
341.7068735557148
 11
120.0295420483581
 21
341.7068735557148
 72
     1
 10
120.0295420483581
 20
341.7068735557148
 11
118.7270124175916
 21
340.2339230256786
 72
     1
 10
118.7270124175916
 20
340.2339230256786
 11
120.1249654645319
 21
338.6530640319036
 72
     1
 10
120.1249654645319
 20
338.6530640319036
 11
118.7222412467836
 21
338.6530640319036
 72
     1
 10
118.7222412467836
 20
338.6530640319036
 11
118.0256503087181
 21
339.4407958171972
 72
     1
 10
118.0256503087181
 20
339.4407958171972
 11
117.3290593706524
 21
338.6530640319036
 72
     1
 10
117.3290593706524
 20
338.6530640319036
 11
115.9263351529042
 21
338.6530640319036
 72
     1
 10
115.9263351529042
 20
338.6530640319036
 11
117.3242881998445
 21
340.2339230256786
 72
     1
 10
117.3242881998445
 20
340.2339230256786
 11
116.021758569077
 21
341.7068735557148
 72
     1
 10
116.021758569077
 20
341.7068735557148
 11
117.4244827868263
 21
341.7068735557148
 72
     1
 10
117.4244827868263
 20
341.7068735557148
 11
118.0256503087181
 21
341.0270502341592
 72
     1
 10
118.0256503087181
 20
341.0270502341592
 11
118.6268178306109
 21
341.7068735557148
 97
       12
330
1B1
330
20A
330
209
330
208
330
207
330
1B2
330
1B3
330
1AF
330
1B0
330
20D
330
20C
330
20B
 75
     1
 76
     0
 52
45.0
 41
0.1
 77
     0
 78
     1
 53
45.0
 43
0.0
 44
0.0
 45
-0.0707106781186548
 46
0.0707106781186548
 79
     0
 98
        1
 10
0.0
 20
0.0
  0
HATCH
  5
2CB
330
71
100
AcDbEntity
  8
1
  6
Continuous
 62
     2
100
AcDbHatch
 10
0.0
 20
0.0
 30
0.0
210
0.0
220
0.0
230
1.0
  2
_USER
 70
     0
 71
     1
 91
        1
 92
        1
 93
        4
 72
     1
 10
115.8070558826873
 20
341.7068735557148
 11
115.8070558826873
 21
338.6530640319036
 72
     1
 10
115.8070558826873
 20
338.6530640319036
 11
114.5665514724344
 21
338.6530640319036
 72
     1
 10
114.5665514724344
 20
338.6530640319036
 11
114.5665514724344
 21
341.7068735557148
 72
     1
 10
114.5665514724344
 20
341.7068735557148
 11
115.8070558826873
 21
341.7068735557148
 97
        4
330
205
330
1B4
330
204
330
206
 75
     1
 76
     0
 52
45.0
 41
0.1
 77
     0
 78
     1
 53
45.0
 43
0.0
 44
0.0
 45
-0.0707106781186548
 46
0.0707106781186548
 79
     0
 98
        1
 10
0.0
 20
0.0
  0
HATCH
  5
2CC
330
71
100
AcDbEntity
  8
1
  6
Continuous
 62
     2
100
AcDbHatch
 10
0.0
 20
0.0
 30
0.0
210
0.0
220
0.0
230
1.0
  2
_USER
 70
     0
 71
     1
 91
        1
 92
        1
 93
        4
 72
     1
 10
115.8070558826873
 20
341.7068735557148
 11
115.8070558826873
 21
338.6530640319036
 72
     1
 10
115.8070558826873
 20
338.6530640319036
 11
114.5665514724344
 21
338.6530640319036
 72
     1
 10
114.5665514724344
 20
338.6530640319036
 11
114.5665514724344
 21
341.7068735557148
 72
     1
 10
114.5665514724344
 20
341.7068735557148
 11
115.8070558826873
 21
341.7068735557148
 97
        4
330
205
330
1B4
330
204
330
206
 75
     1
 76
     0
 52
45.0
 41
0.1
 77
     0
 78
     1
 53
45.0
 43
0.0
 44
0.0
 45
-0.0707106781186548
 46
0.0707106781186548
 79
     0
 98
        1
 10
0.0
 20
0.0
  0
HATCH
  5
2CD
330
71
100
AcDbEntity
  8
1
  6
Continuous
 62
     2
100
AcDbHatch
 10
0.0
 20
0.0
 30
0.0
210
0.0
220
0.0
230
1.0
  2
_USER
 70
     0
 71
     1
 91
        2
 92
        1
 93
        8
 72
     1
 10
115.4166118791553
 20
335.2938735557293
 11
114.1761074689014
 21
335.2938735557293
 72
     1
 10
114.1761074689014
 20
335.2938735557293
 11
113.9646274154256
 21
335.8348340999471
 72
     1
 10
113.9646274154256
 20
335.8348340999471
 11
112.8321858387518
 21
335.8348340999471
 72
     1
 10
112.8321858387518
 20
335.8348340999471
 11
112.620705785276
 21
335.2938735557293
 72
     1
 10
112.620705785276
 20
335.2938735557293
 11
111.380201375023
 21
335.2938735557293
 72
     1
 10
111.380201375023
 20
335.2938735557293
 11
112.7781544219623
 21
338.3476830795403
 72
     1
 10
112.7781544219623
 20
338.3476830795403
 11
114.018658832215
 21
338.3476830795403
 72
     1
 10
114.018658832215
 20
338.3476830795403
 11
115.4166118791553
 21
335.2938735557293
 97
        8
330
200
330
1BA
330
1FF
330
202
330
1B7
330
201
330
1B8
330
1B9
 92
       16
 93
        3
 72
     1
 10
113.0982413898968
 20
336.5153973652538
 11
113.6985718642793
 21
336.5153973652538
 72
     1
 10
113.6985718642793
 20
336.5153973652538
 11
113.3984066270892
 21
337.2832123312404
 72
     1
 10
113.3984066270892
 20
337.2832123312404
 11
113.0982413898968
 21
336.5153973652538
 97
        3
330
1B6
330
1B5
330
203
 75
     1
 76
     0
 52
45.0
 41
0.1
 77
     0
 78
     1
 53
45.0
 43
0.0
 44
0.0
 45
-0.0707106781186548
 46
0.0707106781186548
 79
     0
 98
        1
 10
0.0
 20
0.0
  0
HATCH
  5
2CE
330
71
100
AcDbEntity
  8
1
  6
Continuous
 62
     2
100
AcDbHatch
 10
0.0
 20
0.0
 30
0.0
210
0.0
220
0.0
230
1.0
  2
_USER
 70
     0
 71
     1
 91
        2
 92
        1
 93
        8
 72
     1
 10
115.4166118791553
 20
335.2938735557293
 11
114.1761074689014
 21
335.2938735557293
 72
     1
 10
114.1761074689014
 20
335.2938735557293
 11
113.9646274154256
 21
335.8348340999471
 72
     1
 10
113.9646274154256
 20
335.8348340999471
 11
112.8321858387518
 21
335.8348340999471
 72
     1
 10
112.8321858387518
 20
335.8348340999471
 11
112.620705785276
 21
335.2938735557293
 72
     1
 10
112.620705785276
 20
335.2938735557293
 11
111.380201375023
 21
335.2938735557293
 72
     1
 10
111.380201375023
 20
335.2938735557293
 11
112.7781544219623
 21
338.3476830795403
 72
     1
 10
112.7781544219623
 20
338.3476830795403
 11
114.018658832215
 21
338.3476830795403
 72
     1
 10
114.018658832215
 20
338.3476830795403
 11
115.4166118791553
 21
335.2938735557293
 97
        8
330
200
330
1BA
330
1FF
330
202
330
1B7
330
201
330
1B8
330
1B9
 92
       16
 93
        3
 72
     1
 10
113.0982413898968
 20
336.5153973652538
 11
113.6985718642793
 21
336.5153973652538
 72
     1
 10
113.6985718642793
 20
336.5153973652538
 11
113.3984066270892
 21
337.2832123312404
 72
     1
 10
113.3984066270892
 20
337.2832123312404
 11
113.0982413898968
 21
336.5153973652538
 97
        3
330
1B6
330
1B5
330
203
 75
     1
 76
     0
 52
45.0
 41
0.1
 77
     0
 78
     1
 53
45.0
 43
0.0
 44
0.0
 45
-0.0707106781186548
 46
0.0707106781186548
 79
     0
 98
        1
 10
0.0
 20
0.0
  0
HATCH
  5
2CF
330
71
100
AcDbEntity
  8
1
  6
Continuous
 62
     2
100
AcDbHatch
 10
0.0
 20
0.0
 30
0.0
210
0.0
220
0.0
230
1.0
  2
_USER
 70
     0
 71
     1
 91
        1
 92
        1
 93
        8
 72
     1
 10
109.2226892358408
 20
338.3476830795403
 11
109.2226892358408
 21
337.5624177734168
 72
     1
 10
109.2226892358408
 20
337.5624177734168
 11
110.0337882733154
 21
337.5624177734168
 72
     1
 10
110.0337882733154
 20
337.5624177734168
 11
110.0337882733154
 21
335.2938735557293
 72
     1
 10
110.0337882733154
 20
335.2938735557293
 11
111.2265809754819
 21
335.2938735557293
 72
     1
 10
111.2265809754819
 20
335.2938735557293
 11
111.2265809754819
 21
337.5624177734168
 72
     1
 10
111.2265809754819
 20
337.5624177734168
 11
112.0376800129544
 21
337.5624177734168
 72
     1
 10
112.0376800129544
 20
337.5624177734168
 11
112.0376800129544
 21
338.3476830795403
 72
     1
 10
112.0376800129544
 20
338.3476830795403
 11
109.2226892358408
 21
338.3476830795403
 97
        8
330
1FC
330
1FB
330
1FA
330
1BB
330
1BC
330
1FE
330
1BD
330
1FD
 75
     1
 76
     0
 52
45.0
 41
0.1
 77
     0
 78
     1
 53
45.0
 43
0.0
 44
0.0
 45
-0.0707106781186548
 46
0.0707106781186548
 79
     0
 98
        1
 10
0.0
 20
0.0
  0
HATCH
  5
2D0
330
71
100
AcDbEntity
  8
1
  6
Continuous
 62
     2
100
AcDbHatch
 10
0.0
 20
0.0
 30
0.0
210
0.0
220
0.0
230
1.0
  2
_USER
 70
     0
 71
     1
 91
        1
 92
        1
 93
        8
 72
     1
 10
109.2226892358408
 20
338.3476830795403
 11
109.2226892358408
 21
337.5624177734168
 72
     1
 10
109.2226892358408
 20
337.5624177734168
 11
110.0337882733154
 21
337.5624177734168
 72
     1
 10
110.0337882733154
 20
337.5624177734168
 11
110.0337882733154
 21
335.2938735557293
 72
     1
 10
110.0337882733154
 20
335.2938735557293
 11
111.2265809754819
 21
335.2938735557293
 72
     1
 10
111.2265809754819
 20
335.2938735557293
 11
111.2265809754819
 21
337.5624177734168
 72
     1
 10
111.2265809754819
 20
337.5624177734168
 11
112.0376800129544
 21
337.5624177734168
 72
     1
 10
112.0376800129544
 20
337.5624177734168
 11
112.0376800129544
 21
338.3476830795403
 72
     1
 10
112.0376800129544
 20
338.3476830795403
 11
109.2226892358408
 21
338.3476830795403
 97
        8
330
1FC
330
1FB
330
1FA
330
1BB
330
1BC
330
1FE
330
1BD
330
1FD
 75
     1
 76
     0
 52
45.0
 41
0.1
 77
     0
 78
     1
 53
45.0
 43
0.0
 44
0.0
 45
-0.0707106781186548
 46
0.0707106781186548
 79
     0
 98
        1
 10
0.0
 20
0.0
  0
HATCH
  5
2D1
330
71
100
AcDbEntity
  8
1
  6
Continuous
 62
     2
100
AcDbHatch
 10
0.0
 20
0.0
 30
0.0
210
0.0
220
0.0
230
1.0
  2
_USER
 70
     0
 71
     1
 91
        1
 92
        1
 93
       10
 72
     1
 10
111.8946958195799
 20
341.7068735557148
 11
110.7019031174134
 21
341.7068735557148
 72
     1
 10
110.7019031174134
 20
341.7068735557148
 11
110.7019031174134
 21
338.6530640319036
 72
     1
 10
110.7019031174134
 20
338.6530640319036
 11
111.8946958195799
 21
338.6530640319036
 72
     1
 10
111.8946958195799
 20
338.6530640319036
 11
111.8946958195799
 21
339.9618395421082
 72
     1
 10
111.8946958195799
 20
339.9618395421082
 11
113.1352002298339
 21
338.6530640319036
 72
     1
 10
113.1352002298339
 20
338.6530640319036
 11
114.3279929320005
 21
338.6530640319036
 72
     1
 10
114.3279929320005
 20
338.6530640319036
 11
114.3279929320005
 21
341.7068735557148
 72
     1
 10
114.3279929320005
 20
341.7068735557148
 11
113.1352002298339
 21
341.7068735557148
 72
     1
 10
113.1352002298339
 20
341.7068735557148
 11
113.1352002298339
 21
340.3980980455095
 72
     1
 10
113.1352002298339
 20
340.3980980455095
 11
111.8946958195799
 21
341.7068735557148
 97
       10
330
1F6
330
1C0
330
1C1
330
1C2
330
1C3
330
1F9
330
1BE
330
1F8
330
1F7
330
1BF
 75
     1
 76
     0
 52
45.0
 41
0.1
 77
     0
 78
     1
 53
45.0
 43
0.0
 44
0.0
 45
-0.0707106781186548
 46
0.0707106781186548
 79
     0
 98
        1
 10
0.0
 20
0.0
  0
HATCH
  5
2D2
330
71
100
AcDbEntity
  8
1
  6
Continuous
 62
     2
100
AcDbHatch
 10
0.0
 20
0.0
 30
0.0
210
0.0
220
0.0
230
1.0
  2
_USER
 70
     0
 71
     1
 91
        1
 92
        1
 93
       10
 72
     1
 10
111.8946958195799
 20
341.7068735557148
 11
110.7019031174134
 21
341.7068735557148
 72
     1
 10
110.7019031174134
 20
341.7068735557148
 11
110.7019031174134
 21
338.6530640319036
 72
     1
 10
110.7019031174134
 20
338.6530640319036
 11
111.8946958195799
 21
338.6530640319036
 72
     1
 10
111.8946958195799
 20
338.6530640319036
 11
111.8946958195799
 21
339.9618395421082
 72
     1
 10
111.8946958195799
 20
339.9618395421082
 11
113.1352002298339
 21
338.6530640319036
 72
     1
 10
113.1352002298339
 20
338.6530640319036
 11
114.3279929320005
 21
338.6530640319036
 72
     1
 10
114.3279929320005
 20
338.6530640319036
 11
114.3279929320005
 21
341.7068735557148
 72
     1
 10
114.3279929320005
 20
341.7068735557148
 11
113.1352002298339
 21
341.7068735557148
 72
     1
 10
113.1352002298339
 20
341.7068735557148
 11
113.1352002298339
 21
340.3980980455095
 72
     1
 10
113.1352002298339
 20
340.3980980455095
 11
111.8946958195799
 21
341.7068735557148
 97
       10
330
1F6
330
1C0
330
1C1
330
1C2
330
1C3
330
1F9
330
1BE
330
1F8
330
1F7
330
1BF
 75
     1
 76
     0
 52
45.0
 41
0.1
 77
     0
 78
     1
 53
45.0
 43
0.0
 44
0.0
 45
-0.0707106781186548
 46
0.0707106781186548
 79
     0
 98
        1
 10
0.0
 20
0.0
  0
HATCH
  5
2D3
330
71
100
AcDbEntity
  8
1
  6
Continuous
 62
     2
100
AcDbHatch
 10
0.0
 20
0.0
 30
0.0
210
0.0
220
0.0
230
1.0
  2
_USER
 70
     0
 71
     1
 91
        1
 92
        1
 93
       10
 72
     1
 10
106.6462569991613
 20
338.3476830795403
 11
105.4534642969937
 21
338.3476830795403
 72
     1
 10
105.4534642969937
 20
338.3476830795403
 11
105.4534642969937
 21
335.2938735557293
 72
     1
 10
105.4534642969937
 20
335.2938735557293
 11
106.6462569991613
 21
335.2938735557293
 72
     1
 10
106.6462569991613
 20
335.2938735557293
 11
106.6462569991613
 21
336.6026490659339
 72
     1
 10
106.6462569991613
 20
336.6026490659339
 11
107.8867614094142
 21
335.2938735557293
 72
     1
 10
107.8867614094142
 20
335.2938735557293
 11
109.0795541115806
 21
335.2938735557293
 72
     1
 10
109.0795541115806
 20
335.2938735557293
 11
109.0795541115806
 21
338.3476830795403
 72
     1
 10
109.0795541115806
 20
338.3476830795403
 11
107.8867614094142
 21
338.3476830795403
 72
     1
 10
107.8867614094142
 20
338.3476830795403
 11
107.8867614094142
 21
337.0389075693353
 72
     1
 10
107.8867614094142
 20
337.0389075693353
 11
106.6462569991613
 21
338.3476830795403
 97
       10
330
1C5
330
1C6
330
1C7
330
1F3
330
1C8
330
1C9
330
1F2
330
1F5
330
1F4
330
1C4
 75
     1
 76
     0
 52
45.0
 41
0.1
 77
     0
 78
     1
 53
45.0
 43
0.0
 44
0.0
 45
-0.0707106781186548
 46
0.0707106781186548
 79
     0
 98
        1
 10
0.0
 20
0.0
  0
HATCH
  5
2D4
330
71
100
AcDbEntity
  8
1
  6
Continuous
 62
     2
100
AcDbHatch
 10
0.0
 20
0.0
 30
0.0
210
0.0
220
0.0
230
1.0
  2
_USER
 70
     0
 71
     1
 91
        1
 92
        1
 93
       10
 72
     1
 10
106.6462569991613
 20
338.3476830795403
 11
105.4534642969937
 21
338.3476830795403
 72
     1
 10
105.4534642969937
 20
338.3476830795403
 11
105.4534642969937
 21
335.2938735557293
 72
     1
 10
105.4534642969937
 20
335.2938735557293
 11
106.6462569991613
 21
335.2938735557293
 72
     1
 10
106.6462569991613
 20
335.2938735557293
 11
106.6462569991613
 21
336.6026490659339
 72
     1
 10
106.6462569991613
 20
336.6026490659339
 11
107.8867614094142
 21
335.2938735557293
 72
     1
 10
107.8867614094142
 20
335.2938735557293
 11
109.0795541115806
 21
335.2938735557293
 72
     1
 10
109.0795541115806
 20
335.2938735557293
 11
109.0795541115806
 21
338.3476830795403
 72
     1
 10
109.0795541115806
 20
338.3476830795403
 11
107.8867614094142
 21
338.3476830795403
 72
     1
 10
107.8867614094142
 20
338.3476830795403
 11
107.8867614094142
 21
337.0389075693353
 72
     1
 10
107.8867614094142
 20
337.0389075693353
 11
106.6462569991613
 21
338.3476830795403
 97
       10
330
1C5
330
1C6
330
1C7
330
1F3
330
1C8
330
1C9
330
1F2
330
1F5
330
1F4
330
1C4
 75
     1
 76
     0
 52
45.0
 41
0.1
 77
     0
 78
     1
 53
45.0
 43
0.0
 44
0.0
 45
-0.0707106781186548
 46
0.0707106781186548
 79
     0
 98
        1
 10
0.0
 20
0.0
  0
HATCH
  5
2D5
330
71
100
AcDbEntity
  8
1
  6
Continuous
 62
     2
100
AcDbHatch
 10
0.0
 20
0.0
 30
0.0
210
0.0
220
0.0
230
1.0
  2
_USER
 70
     0
 71
     1
 91
        1
 92
        1
 93
       12
 72
     1
 10
105.6444620602259
 20
341.7068735557148
 11
105.6444620602259
 21
338.6530640319036
 72
     1
 10
105.6444620602259
 20
338.6530640319036
 11
104.4516693580595
 21
338.6530640319036
 72
     1
 10
104.4516693580595
 20
338.6530640319036
 11
104.4516693580595
 21
339.7873361407474
 72
     1
 10
104.4516693580595
 20
339.7873361407474
 11
103.402011780152
 21
339.7873361407474
 72
     1
 10
103.402011780152
 20
339.7873361407474
 11
103.402011780152
 21
338.6530640319036
 72
     1
 10
103.402011780152
 20
338.6530640319036
 11
102.2092190779854
 21
338.6530640319036
 72
     1
 10
102.2092190779854
 20
338.6530640319036
 11
102.2092190779854
 21
341.7068735557148
 72
     1
 10
102.2092190779854
 20
341.7068735557148
 11
103.402011780152
 21
341.7068735557148
 72
     1
 10
103.402011780152
 20
341.7068735557148
 11
103.402011780152
 21
340.6380402223801
 72
     1
 10
103.402011780152
 20
340.6380402223801
 11
104.4516693580595
 21
340.6380402223801
 72
     1
 10
104.4516693580595
 20
340.6380402223801
 11
104.4516693580595
 21
341.7068735557148
 72
     1
 10
104.4516693580595
 20
341.7068735557148
 11
105.6444620602259
 21
341.7068735557148
 97
       12
330
1ED
330
1EC
330
1EB
330
1D3
330
1D4
330
1EA
330
1D5
330
1E9
330
1E8
330
1E7
330
1D1
330
1D2
 75
     1
 76
     0
 52
45.0
 41
0.1
 77
     0
 78
     1
 53
45.0
 43
0.0
 44
0.0
 45
-0.0707106781186548
 46
0.0707106781186548
 79
     0
 98
        1
 10
0.0
 20
0.0
  0
HATCH
  5
2D6
330
71
100
AcDbEntity
  8
1
  6
Continuous
 62
     2
100
AcDbHatch
 10
0.0
 20
0.0
 30
0.0
210
0.0
220
0.0
230
1.0
  2
_USER
 70
     0
 71
     1
 91
        1
 92
        1
 93
       12
 72
     1
 10
105.6444620602259
 20
341.7068735557148
 11
105.6444620602259
 21
338.6530640319036
 72
     1
 10
105.6444620602259
 20
338.6530640319036
 11
104.4516693580595
 21
338.6530640319036
 72
     1
 10
104.4516693580595
 20
338.6530640319036
 11
104.4516693580595
 21
339.7873361407474
 72
     1
 10
104.4516693580595
 20
339.7873361407474
 11
103.402011780152
 21
339.7873361407474
 72
     1
 10
103.402011780152
 20
339.7873361407474
 11
103.402011780152
 21
338.6530640319036
 72
     1
 10
103.402011780152
 20
338.6530640319036
 11
102.2092190779854
 21
338.6530640319036
 72
     1
 10
102.2092190779854
 20
338.6530640319036
 11
102.2092190779854
 21
341.7068735557148
 72
     1
 10
102.2092190779854
 20
341.7068735557148
 11
103.402011780152
 21
341.7068735557148
 72
     1
 10
103.402011780152
 20
341.7068735557148
 11
103.402011780152
 21
340.6380402223801
 72
     1
 10
103.402011780152
 20
340.6380402223801
 11
104.4516693580595
 21
340.6380402223801
 72
     1
 10
104.4516693580595
 20
340.6380402223801
 11
104.4516693580595
 21
341.7068735557148
 72
     1
 10
104.4516693580595
 20
341.7068735557148
 11
105.6444620602259
 21
341.7068735557148
 97
       12
330
1ED
330
1EC
330
1EB
330
1D3
330
1D4
330
1EA
330
1D5
330
1E9
330
1E8
330
1E7
330
1D1
330
1D2
 75
     1
 76
     0
 52
45.0
 41
0.1
 77
     0
 78
     1
 53
45.0
 43
0.0
 44
0.0
 45
-0.0707106781186548
 46
0.0707106781186548
 79
     0
 98
        1
 10
0.0
 20
0.0
  0
ENDBLK
  5
73
330
71
100
AcDbEntity
  8
0
100
AcDbBlockEnd
  0
BLOCK
  5
75
330
74
100
AcDbEntity
  8
0
100
AcDbBlockBegin
  2
_punkt
 70
     0
 10
217.5217658740148
 20
328.0003735557129
 30
0.0
  3
_punkt
  1

  0
LINE
  5
2D7
330
74
100
AcDbEntity
  8
1
  6
Continuous
 62
     2
100
AcDbLine
 10
217.5217658740148
 20
328.0003735557129
 30
0.0
 11
217.5217658740148
 21
323.0003735557128
 31
0.0
  0
LINE
  5
2D8
330
74
100
AcDbEntity
  8
1
  6
Continuous
 62
     2
100
AcDbLine
 10
217.5217658740148
 20
328.0003735557129
 30
0.0
 11
222.5217658740138
 21
328.0003735557129
 31
0.0
  0
ENDBLK
  5
76
330
74
100
AcDbEntity
  8
0
100
AcDbBlockEnd
  0
BLOCK
  5
7A
330
77
100
AcDbEntity
  8
0
100
AcDbBlockBegin
  2
A4I_CS
 70
     0
 10
217.5217658740148
 20
323.0003735557128
 30
0.0
  3
A4I_CS
  1

  0
INSERT
  5
78
330
77
100
AcDbEntity
  8
1
100
AcDbBlockReference
  2
_rahmen
 10
217.5217658740148
 20
323.0003735557128
 30
0.0
  0
INSERT
  5
79
330
77
100
AcDbEntity
  8
1
100
AcDbBlockReference
  2
_punkt
 10
217.5217658740148
 20
328.0003735557129
 30
0.0
  0
ENDBLK
  5
7B
330
77
100
AcDbEntity
  8
0
100
AcDbBlockEnd
  0
BLOCK
  5
84
330
7C
100
AcDbEntity
  8
0
100
AcDbBlockBegin
  2
1
 70
     0
 10
0.0
 20
0.0
 30
0.0
  3
1
  1

  0
INSERT
  5
7D
330
7C
100
AcDbEntity
  8
0
100
AcDbBlockReference
  2
Allg1
 10
152.9999985614722
 20
396.0000018369202
 30
0.0
 41
2.0
 42
2.0
 43
2.0
  0
INSERT
  5
7E
330
7C
100
AcDbEntity
  8
0
100
AcDbBlockReference
  2
Drfsicht1
 10
40.00000134003994
 20
389.0000000000196
 30
0.0
 41
2.0
 42
2.0
 43
2.0
  0
INSERT
  5
7F
330
7C
100
AcDbEntity
  8
0
100
AcDbBlockReference
  2
Rckans1
 10
152.9999986222814
 20
467.300000924699
 30
0.0
 41
2.0
 42
2.0
 43
2.0
  0
INSERT
  5
80
330
7C
100
AcDbEntity
  8
0
100
AcDbBlockReference
  2
SA_Links1
 10
95.50000048114568
 20
467.3000009246996
 30
0.0
 41
2.0
 42
2.0
 43
2.0
  0
INSERT
  5
81
330
7C
100
AcDbEntity
  8
0
100
AcDbBlockReference
  2
SA_Rechts1
 10
-42.49999648113546
 20
467.300000924699
 30
0.0
 41
2.0
 42
2.0
 43
2.0
  0
INSERT
  5
82
330
7C
100
AcDbEntity
  8
0
100
AcDbBlockReference
  2
Vordans1
 10
40.00000134003992
 20
467.3000009246994
 30
0.0
 41
2.0
 42
2.0
 43
2.0
  0
INSERT
  5
83
330
7C
100
AcDbEntity
  8
0
100
AcDbBlockReference
  2
A4I_CS
 10
217.5217658740148
 20
323.0003735557128
 30
0.0
  0
ENDBLK
  5
85
330
7C
100
AcDbEntity
  8
0
100
AcDbBlockEnd
  0
BLOCK
  5
FB
330
F4
100
AcDbEntity
  8
0
100
AcDbBlockBegin
  2
*D17
 70
     1
 10
0.0
 20
0.0
 30
0.0
  3
*D17
  1

  0
LINE
  5
F5
330
F4
100
AcDbEntity
  8
1
  6
Continuous
 62
     2
100
AcDbLine
 10
3.6625060100506
 20
192.0000001013428
 30
0.0
 11
3.6625060100506
 21
197.0000001013428
 31
0.0
  0
LINE
  5
F6
330
F4
100
AcDbEntity
  8
1
  6
Continuous
 62
     2
100
AcDbLine
 10
9.0000060100506
 20
192.0000001013428
 30
0.0
 11
2.9125060100506
 21
192.0000001013428
 31
0.0
  0
LINE
  5
F7
330
F4
100
AcDbEntity
  8
1
  6
Continuous
 62
     2
100
AcDbLine
 10
9.0000060100506
 20
197.0000001013428
 30
0.0
 11
2.9125060100506
 21
197.0000001013428
 31
0.0
  0
SOLID
  5
F8
330
F4
100
AcDbEntity
  8
1
 62
     2
100
AcDbTrace
 10
3.43211413927266
 20
193.7500001013428
 30
0.0
 11
3.89289788082855
 21
193.7500001013428
 31
0.0
 12
3.6625060100506
 22
192.0000001013428
 32
0.0
 13
3.6625060100506
 23
192.0000001013428
 33
0.0
  0
SOLID
  5
F9
330
F4
100
AcDbEntity
  8
1
 62
     2
100
AcDbTrace
 10
3.89289788082855
 20
195.2500001013428
 30
0.0
 11
3.43211413927266
 21
195.2500001013428
 31
0.0
 12
3.6625060100506
 22
197.0000001013428
 32
0.0
 13
3.6625060100506
 23
197.0000001013428
 33
0.0
  0
MTEXT
  5
FA
330
F4
100
AcDbEntity
  8
1
 62
     3
100
AcDbMText
 10
2.9125060100506
 20
194.063676951487
 30
0.0
 40
1.75
 41
0.0
 71
     7
 72
     1
  1
5
  7
CONVERTER_11
 11
0.0
 21
1.0
 31
0.0
 73
     1
 44
0.60024009603842
  0
ENDBLK
  5
FC
330
F4
100
AcDbEntity
  8
0
100
AcDbBlockEnd
  0
BLOCK
  5
171
330
16A
100
AcDbEntity
  8
0
100
AcDbBlockBegin
  2
*D18
 70
     1
 10
0.0
 20
0.0
 30
0.0
  3
*D18
  1

  0
LINE
  5
16B
330
16A
100
AcDbEntity
  8
1
  6
Continuous
 62
     2
100
AcDbLine
 10
31.00000601005031
 20
212.8195897185441
 30
0.0
 11
20.20000601005039
 21
212.8195897185441
 31
0.0
  0
LINE
  5
16C
330
16A
100
AcDbEntity
  8
1
  6
Continuous
 62
     2
100
AcDbLine
 10
31.00000601005031
 20
226.0500025064145
 30
0.0
 11
31.00000601005031
 21
212.0695897185441
 31
0.0
  0
LINE
  5
16D
330
16A
100
AcDbEntity
  8
1
  6
Continuous
 62
     2
100
AcDbLine
 10
20.20000601005039
 20
225.069589718544
 30
0.0
 11
20.20000601005039
 21
212.0695897185441
 31
0.0
  0
SOLID
  5
16E
330
16A
100
AcDbEntity
  8
1
 62
     2
100
AcDbTrace
 10
29.25000601005031
 20
212.5891978477662
 30
0.0
 11
29.25000601005031
 21
213.049981589322
 31
0.0
 12
31.00000601005031
 22
212.8195897185441
 32
0.0
 13
31.00000601005031
 23
212.8195897185441
 33
0.0
  0
SOLID
  5
16F
330
16A
100
AcDbEntity
  8
1
 62
     2
100
AcDbTrace
 10
21.95000601005039
 20
213.049981589322
 30
0.0
 11
21.95000601005039
 21
212.5891978477662
 31
0.0
 12
20.20000601005039
 22
212.8195897185441
 32
0.0
 13
20.20000601005039
 23
212.8195897185441
 33
0.0
  0
MTEXT
  5
170
330
16A
100
AcDbEntity
  8
1
 62
     3
100
AcDbMText
 10
22.1439403285176
 20
213.7445897185441
 30
0.0
 40
1.75
 41
0.0
 71
     7
 72
     1
  1
10,8
  7
CONVERTER_11
 11
0.9999999999970619
 21
2.424068405545306E-6
 31
0.0
 73
     1
 44
0.60024009603842
  0
ENDBLK
  5
172
330
16A
100
AcDbEntity
  8
0
100
AcDbBlockEnd
  0
BLOCK
  5
17C
330
175
100
AcDbEntity
  8
0
100
AcDbBlockBegin
  2
*D19
 70
     1
 10
0.0
 20
0.0
 30
0.0
  3
*D19
  1

  0
LINE
  5
176
330
175
100
AcDbEntity
  8
1
  6
Continuous
 62
     2
100
AcDbLine
 10
27.70000601005037
 20
217.3195897185441
 30
0.0
 11
20.20000601005039
 21
217.3195897185441
 31
0.0
  0
LINE
  5
177
330
175
100
AcDbEntity
  8
1
  6
Continuous
 62
     2
100
AcDbLine
 10
27.70000601005037
 20
225.5500025064145
 30
0.0
 11
27.70000601005037
 21
216.5695897185441
 31
0.0
  0
LINE
  5
178
330
175
100
AcDbEntity
  8
1
  6
Continuous
 62
     2
100
AcDbLine
 10
20.20000601005039
 20
225.069589718544
 30
0.0
 11
20.20000601005039
 21
216.5695897185441
 31
0.0
  0
SOLID
  5
179
330
175
100
AcDbEntity
  8
1
 62
     2
100
AcDbTrace
 10
25.95000601005037
 20
217.0891978477662
 30
0.0
 11
25.95000601005037
 21
217.549981589322
 31
0.0
 12
27.70000601005037
 22
217.3195897185441
 32
0.0
 13
27.70000601005037
 23
217.3195897185441
 33
0.0
  0
SOLID
  5
17A
330
175
100
AcDbEntity
  8
1
 62
     2
100
AcDbTrace
 10
21.95000601005039
 20
217.549981589322
 30
0.0
 11
21.95000601005039
 21
217.0891978477662
 31
0.0
 12
20.20000601005039
 22
217.3195897185441
 32
0.0
 13
20.20000601005039
 23
217.3195897185441
 33
0.0
  0
MTEXT
  5
17B
330
175
100
AcDbEntity
  8
1
 62
     3
100
AcDbMText
 10
22.22216346258779
 20
218.2445897185441
 30
0.0
 40
1.75
 41
0.0
 71
     7
 72
     1
  1
7,5
  7
CONVERTER_11
 11
0.9999999999970619
 21
2.424068405545306E-6
 31
0.0
 73
     1
 44
0.60024009603842
  0
ENDBLK
  5
17D
330
175
100
AcDbEntity
  8
0
100
AcDbBlockEnd
  0
BLOCK
  5
187
330
180
100
AcDbEntity
  8
0
100
AcDbBlockBegin
  2
*D20
 70
     1
 10
0.0
 20
0.0
 30
0.0
  3
*D20
  1

  0
LINE
  5
181
330
180
100
AcDbEntity
  8
1
  6
Continuous
 62
     2
100
AcDbLine
 10
2.7500060100506
 20
226.0500025064146
 30
0.0
 11
2.7500060100506
 21
244.4500025064145
 31
0.0
  0
LINE
  5
182
330
180
100
AcDbEntity
  8
1
  6
Continuous
 62
     2
100
AcDbLine
 10
9.0000060100506
 20
226.0500025064146
 30
0.0
 11
2.0000060100506
 21
226.0500025064146
 31
0.0
  0
LINE
  5
183
330
180
100
AcDbEntity
  8
1
  6
Continuous
 62
     2
100
AcDbLine
 10
9.0000060100506
 20
244.4500025064145
 30
0.0
 11
2.0000060100506
 21
244.4500025064145
 31
0.0
  0
SOLID
  5
184
330
180
100
AcDbEntity
  8
1
 62
     2
100
AcDbTrace
 10
2.51961413927265
 20
227.8000025064146
 30
0.0
 11
2.98039788082854
 21
227.8000025064146
 31
0.0
 12
2.7500060100506
 22
226.0500025064146
 32
0.0
 13
2.7500060100506
 23
226.0500025064146
 33
0.0
  0
SOLID
  5
185
330
180
100
AcDbEntity
  8
1
 62
     2
100
AcDbTrace
 10
2.98039788082854
 20
242.7000025064145
 30
0.0
 11
2.51961413927265
 21
242.7000025064145
 31
0.0
 12
2.7500060100506
 22
244.4500025064145
 32
0.0
 13
2.7500060100506
 23
244.4500025064145
 33
0.0
  0
MTEXT
  5
186
330
180
100
AcDbEntity
  8
1
 62
     3
100
AcDbMText
 10
1.8250060100506
 20
233.1062525064145
 30
0.0
 40
1.75
 41
0.0
 71
     7
 72
     1
  1
18,4
  7
CONVERTER_11
 11
0.0
 21
1.0
 31
0.0
 73
     1
 44
0.60024009603842
  0
ENDBLK
  5
188
330
180
100
AcDbEntity
  8
0
100
AcDbBlockEnd
  0
BLOCK
  5
192
330
18B
100
AcDbEntity
  8
0
100
AcDbBlockBegin
  2
*D21
 70
     1
 10
0.0
 20
0.0
 30
0.0
  3
*D21
  1

  0
LINE
  5
18C
330
18B
100
AcDbEntity
  8
1
  6
Continuous
 62
     2
100
AcDbLine
 10
9.0000060100506
 20
208.422211104529
 30
0.0
 11
31.00000601005031
 21
208.422211104529
 31
0.0
  0
LINE
  5
18D
330
18B
100
AcDbEntity
  8
1
  6
Continuous
 62
     2
100
AcDbLine
 10
9.0000060100506
 20
244.4500025064145
 30
0.0
 11
9.0000060100506
 21
207.672211104529
 31
0.0
  0
LINE
  5
18E
330
18B
100
AcDbEntity
  8
1
  6
Continuous
 62
     2
100
AcDbLine
 10
31.00000601005031
 20
244.4500025064145
 30
0.0
 11
31.00000601005031
 21
207.672211104529
 31
0.0
  0
SOLID
  5
18F
330
18B
100
AcDbEntity
  8
1
 62
     2
100
AcDbTrace
 10
10.7500060100506
 20
208.6526029753069
 30
0.0
 11
10.7500060100506
 21
208.1918192337511
 31
0.0
 12
9.0000060100506
 22
208.422211104529
 32
0.0
 13
9.0000060100506
 23
208.422211104529
 33
0.0
  0
SOLID
  5
190
330
18B
100
AcDbEntity
  8
1
 62
     2
100
AcDbTrace
 10
29.25000601005031
 20
208.1918192337511
 30
0.0
 11
29.25000601005031
 21
208.6526029753069
 31
0.0
 12
31.00000601005031
 22
208.422211104529
 32
0.0
 13
31.00000601005031
 23
208.422211104529
 33
0.0
  0
MTEXT
  5
191
330
18B
100
AcDbEntity
  8
1
 62
     3
100
AcDbMText
 10
18.4455593053827
 20
209.172211104529
 30
0.0
 40
1.75
 41
0.0
 71
     7
 72
     1
  1
22
  7
CONVERTER_11
 11
0.9999999999970619
 21
2.424068405545306E-6
 31
0.0
 73
     1
 44
0.60024009603842
  0
ENDBLK
  5
193
330
18B
100
AcDbEntity
  8
0
100
AcDbBlockEnd
  0
BLOCK
  5
19D
330
196
100
AcDbEntity
  8
0
100
AcDbBlockBegin
  2
*D22
 70
     1
 10
0.0
 20
0.0
 30
0.0
  3
*D22
  1

  0
LINE
  5
197
330
196
100
AcDbEntity
  8
1
  6
Continuous
 62
     2
100
AcDbLine
 10
-1.74999398994939
 20
222.8500025064145
 30
0.0
 11
-1.74999398994939
 21
244.4500025064145
 31
0.0
  0
LINE
  5
198
330
196
100
AcDbEntity
  8
1
  6
Continuous
 62
     2
100
AcDbLine
 10
11.70000601005036
 20
222.8500025064145
 30
0.0
 11
-2.49999398994938
 21
222.8500025064145
 31
0.0
  0
LINE
  5
199
330
196
100
AcDbEntity
  8
1
  6
Continuous
 62
     2
100
AcDbLine
 10
9.0000060100506
 20
244.4500025064145
 30
0.0
 11
-2.49999398994938
 21
244.4500025064145
 31
0.0
  0
SOLID
  5
19A
330
196
100
AcDbEntity
  8
1
 62
     2
100
AcDbTrace
 10
-1.98038586072733
 20
224.6000025064145
 30
0.0
 11
-1.51960211917144
 21
224.6000025064145
 31
0.0
 12
-1.74999398994939
 22
222.8500025064145
 32
0.0
 13
-1.74999398994939
 23
222.8500025064145
 33
0.0
  0
SOLID
  5
19B
330
196
100
AcDbEntity
  8
1
 62
     2
100
AcDbTrace
 10
-1.51960211917144
 20
242.7000025064145
 30
0.0
 11
-1.98038586072733
 21
242.7000025064145
 31
0.0
 12
-1.74999398994939
 22
244.4500025064145
 32
0.0
 13
-1.74999398994939
 23
244.4500025064145
 33
0.0
  0
MTEXT
  5
19C
330
196
100
AcDbEntity
  8
1
 62
     3
100
AcDbMText
 10
-2.67499398994938
 20
232.1062525064144
 30
0.0
 40
1.75
 41
0.0
 71
     7
 72
     1
  1
21,6
  7
CONVERTER_11
 11
0.0
 21
1.0
 31
0.0
 73
     1
 44
0.60024009603842
  0
ENDBLK
  5
19E
330
196
100
AcDbEntity
  8
0
100
AcDbBlockEnd
  0
ENDSEC
  0
SECTION
  2
ENTITIES
  0
INSERT
  5
86
330
1F
100
AcDbEntity
  8
1
100
AcDbBlockReference
  2
1
 10
0.0
 20
0.0
 30
0.0
  0
ENDSEC
  0
SECTION
  2
OBJECTS
  0
DICTIONARY
  5
C
330
0
100
AcDbDictionary
281
     1
  3
ACAD_GROUP
350
D
  3
ACAD_LAYOUT
350
1A
  3
ACAD_MATERIAL
350
3B
  3
ACAD_MLEADERSTYLE
350
300
  3
ACAD_MLINESTYLE
350
17
  3
ACAD_PLOTSETTINGS
350
19
  3
ACAD_PLOTSTYLENAME
350
E
  3
ACAD_TABLESTYLE
350
2FF
  3
ACAD_VISUALSTYLE
350
2A
  0
DICTIONARY
  5
D
102
{ACAD_REACTORS
330
C
102
}
330
C
100
AcDbDictionary
281
     1
  0
DICTIONARY
  5
1A
102
{ACAD_REACTORS
330
C
102
}
330
C
100
AcDbDictionary
281
     1
  3
Layout1
350
1E
  3
Layout2
350
26
  3
Model
350
22
  0
DICTIONARY
  5
3B
102
{ACAD_REACTORS
330
C
102
}
330
C
100
AcDbDictionary
281
     1
  3
ByBlock
350
3D
  3
ByLayer
350
3C
  3
Global
350
3E
  0
DICTIONARY
  5
300
102
{ACAD_REACTORS
330
C
102
}
330
C
100
AcDbDictionary
281
     1
  0
DICTIONARY
  5
17
102
{ACAD_REACTORS
330
C
102
}
330
C
100
AcDbDictionary
281
     1
  3
Standard
350
18
  0
DICTIONARY
  5
19
102
{ACAD_REACTORS
330
C
102
}
330
C
100
AcDbDictionary
281
     1
  0
ACDBDICTIONARYWDFLT
  5
E
102
{ACAD_REACTORS
330
C
102
}
330
C
100
AcDbDictionary
281
     1
  3
Normal
350
F
100
AcDbDictionaryWithDefault
340
F
  0
DICTIONARY
  5
2FF
102
{ACAD_REACTORS
330
C
102
}
330
C
100
AcDbDictionary
281
     1
  0
DICTIONARY
  5
2A
102
{ACAD_REACTORS
330
C
102
}
330
C
100
AcDbDictionary
281
     1
  3
2dWireframe
350
2F
  3
3D Hidden
350
31
  3
3dWireframe
350
30
  3
Basic
350
32
  3
Brighten
350
36
  3
ColorChange
350
3A
  3
Conceptual
350
34
  3
Dim
350
35
  3
Facepattern
350
39
  3
Flat
350
2B
  3
FlatWithEdges
350
2C
  3
Gouraud
350
2D
  3
GouraudWithEdges
350
2E
  3
Linepattern
350
38
  3
Realistic
350
33
  3
Thicken
350
37
  0
LAYOUT
  5
1E
102
{ACAD_REACTORS
330
1A
102
}
330
1A
100
AcDbPlotSettings
  1

  2
none_device
  4

  6

 40
0.0
 41
0.0
 42
0.0
 43
0.0
 44
0.0
 45
0.0
 46
0.0
 47
0.0
 48
0.0
 49
0.0
140
0.0
141
0.0
142
1.0
143
1.0
 70
   688
 72
     0
 73
     0
 74
     5
  7

 75
    16
 76
     0
 77
     2
 78
   300
147
1.0
148
0.0
149
0.0
100
AcDbLayout
  1
Layout1
 70
     1
 71
     1
 10
0.0
 20
0.0
 11
12.0
 21
9.0
 12
0.0
 22
0.0
 32
0.0
 14
1.00000000000000E+20
 24
1.00000000000000E+20
 34
1.00000000000000E+20
 15
-1.00000000000000E+20
 25
-1.00000000000000E+20
 35
-1.00000000000000E+20
146
0.0
 13
0.0
 23
0.0
 33
0.0
 16
1.0
 26
0.0
 36
0.0
 17
0.0
 27
1.0
 37
0.0
 76
     0
330
1B
  0
LAYOUT
  5
26
102
{ACAD_REACTORS
330
1A
102
}
330
1A
100
AcDbPlotSettings
  1

  2
none_device
  4

  6

 40
0.0
 41
0.0
 42
0.0
 43
0.0
 44
0.0
 45
0.0
 46
0.0
 47
0.0
 48
0.0
 49
0.0
140
0.0
141
0.0
142
1.0
143
1.0
 70
   688
 72
     0
 73
     0
 74
     5
  7

 75
    16
 76
     0
 77
     2
 78
   300
147
1.0
148
0.0
149
0.0
100
AcDbLayout
  1
Layout2
 70
     1
 71
     2
 10
0.0
 20
0.0
 11
0.0
 21
0.0
 12
0.0
 22
0.0
 32
0.0
 14
0.0
 24
0.0
 34
0.0
 15
0.0
 25
0.0
 35
0.0
146
0.0
 13
0.0
 23
0.0
 33
0.0
 16
1.0
 26
0.0
 36
0.0
 17
0.0
 27
1.0
 37
0.0
 76
     0
330
23
  0
LAYOUT
  5
22
102
{ACAD_REACTORS
330
1A
102
}
330
1A
100
AcDbPlotSettings
  1

  2
none_device
  4

  6

 40
0.0
 41
0.0
 42
0.0
 43
0.0
 44
0.0
 45
0.0
 46
0.0
 47
0.0
 48
0.0
 49
0.0
140
0.0
141
0.0
142
1.0
143
1.0
 70
  1712
 72
     0
 73
     0
 74
     0
  7

 75
     0
 76
     0
 77
     2
 78
   300
147
1.0
148
0.0
149
0.0
100
AcDbLayout
  1
Model
 70
     1
 71
     0
 10
0.0
 20
0.0
 11
12.0
 21
9.0
 12
0.0
 22
0.0
 32
0.0
 14
-74.47823412598427
 24
323.0003735557128
 34
0.0
 15
222.5217658740138
 25
533.0003735557129
 35
0.0
146
0.0
 13
0.0
 23
0.0
 33
0.0
 16
1.0
 26
0.0
 36
0.0
 17
0.0
 27
1.0
 37
0.0
 76
     0
330
1F
331
29
  0
MATERIAL
  5
3D
102
{ACAD_REACTORS
330
3B
102
}
102
{ACAD_XDICTIONARY
360
2FB
102
}
330
3B
100
AcDbMaterial
  1
ByBlock
  0
MATERIAL
  5
3C
102
{ACAD_REACTORS
330
3B
102
}
102
{ACAD_XDICTIONARY
360
2F9
102
}
330
3B
100
AcDbMaterial
  1
ByLayer
  0
MATERIAL
  5
3E
102
{ACAD_REACTORS
330
3B
102
}
102
{ACAD_XDICTIONARY
360
2FD
102
}
330
3B
100
AcDbMaterial
  1
Global
  0
MLINESTYLE
  5
18
102
{ACAD_REACTORS
330
17
102
}
330
17
100
AcDbMlineStyle
  2
Standard
 70
     0
  3

 62
   256
 51
90.0
 52
90.0
 71
     2
 49
0.5
 62
   256
  6
BYLAYER
 49
-0.5
 62
   256
  6
BYLAYER
  0
ACDBPLACEHOLDER
  5
F
102
{ACAD_REACTORS
330
E
102
}
330
E
  0
VISUALSTYLE
  5
2F
102
{ACAD_REACTORS
330
2A
102
}
102
{ACAD_XDICTIONARY
360
2E1
102
}
330
2A
100
AcDbVisualStyle
  2
2dWireframe
 70
     4
 71
     0
 72
     2
 73
     0
 90
        0
 40
-0.6
 41
-30.0
 62
     5
 63
     7
421
 16777215
 74
     1
 91
        4
 64
     7
 65
   257
 75
     1
175
     1
 42
1.0
 92
        0
 66
   257
 43
1.0
 76
     1
 77
     6
 78
     2
 67
     7
 79
     5
170
     0
171
     0
290
     0
174
     0
 93
        1
 44
0.0
173
     0
291
     0
 45
0.0
1001
ACAD
1000
AcDbSavedByObjectVersion
1070
     0
  0
VISUALSTYLE
  5
31
102
{ACAD_REACTORS
330
2A
102
}
102
{ACAD_XDICTIONARY
360
2E5
102
}
330
2A
100
AcDbVisualStyle
  2
3D Hidden
 70
     6
 71
     1
 72
     2
 73
     2
 90
        0
 40
-0.6
 41
-30.0
 62
     5
 63
     7
421
 16777215
 74
     2
 91
        2
 64
     7
 65
   257
 75
     2
175
     1
 42
40.0
 92
        0
 66
   257
 43
1.0
 76
     1
 77
     6
 78
     2
 67
     7
 79
     3
170
     0
171
     0
290
     0
174
     0
 93
        1
 44
0.0
173
     0
291
     0
 45
0.0
1001
ACAD
1000
AcDbSavedByObjectVersion
1070
     0
  0
VISUALSTYLE
  5
30
102
{ACAD_REACTORS
330
2A
102
}
102
{ACAD_XDICTIONARY
360
2E3
102
}
330
2A
100
AcDbVisualStyle
  2
3dWireframe
 70
     5
 71
     0
 72
     2
 73
     0
 90
        0
 40
-0.6
 41
-30.0
 62
     5
 63
     7
421
 16777215
 74
     1
 91
        4
 64
     7
 65
   257
 75
     1
175
     1
 42
1.0
 92
        0
 66
   257
 43
1.0
 76
     1
 77
     6
 78
     2
 67
     7
 79
     5
170
     0
171
     0
290
     0
174
     0
 93
        1
 44
0.0
173
     0
291
     0
 45
0.0
1001
ACAD
1000
AcDbSavedByObjectVersion
1070
     0
  0
VISUALSTYLE
  5
32
102
{ACAD_REACTORS
330
2A
102
}
102
{ACAD_XDICTIONARY
360
2E7
102
}
330
2A
100
AcDbVisualStyle
  2
Basic
 70
     7
 71
     1
 72
     0
 73
     1
 90
        0
 40
-0.6
 41
-30.0
 62
     5
 63
     7
421
 16777215
 74
     0
 91
        4
 64
     7
 65
   257
 75
     1
175
     1
 42
1.0
 92
        8
 66
     7
 43
1.0
 76
     1
 77
     6
 78
     2
 67
     7
 79
     5
170
     0
171
     0
290
     0
174
     0
 93
        1
 44
0.0
173
     0
291
     1
 45
0.0
1001
ACAD
1000
AcDbSavedByObjectVersion
1070
     0
  0
VISUALSTYLE
  5
36
102
{ACAD_REACTORS
330
2A
102
}
102
{ACAD_XDICTIONARY
360
2EF
102
}
330
2A
100
AcDbVisualStyle
  2
Brighten
 70
    12
 71
     2
 72
     2
 73
     0
 90
        0
 40
-0.6
 41
-30.0
 62
     5
 63
     7
421
 16777215
 74
     1
 91
        4
 64
     7
 65
   257
 75
     1
175
     1
 42
1.0
 92
        8
 66
     7
 43
1.0
 76
     1
 77
     6
 78
     2
 67
     7
 79
     5
170
     0
171
     0
290
     0
174
     0
 93
        1
 44
50.0
173
     0
291
     1
 45
0.0
1001
ACAD
1000
AcDbSavedByObjectVersion
1070
     0
  0
VISUALSTYLE
  5
3A
102
{ACAD_REACTORS
330
2A
102
}
102
{ACAD_XDICTIONARY
360
2F7
102
}
330
2A
100
AcDbVisualStyle
  2
ColorChange
 70
    16
 71
     2
 72
     2
 73
     3
 90
        0
 40
-0.6
 41
-30.0
 62
     5
 63
     8
421
  8421504
 74
     1
 91
        4
 64
     7
 65
   257
 75
     1
175
     1
 42
1.0
 92
        8
 66
     8
424
  8421504
 43
1.0
 76
     1
 77
     6
 78
     2
 67
     7
 79
     5
170
     0
171
     0
290
     0
174
     0
 93
        1
 44
0.0
173
     0
291
     1
 45
0.0
1001
ACAD
1000
AcDbSavedByObjectVersion
1070
     0
  0
VISUALSTYLE
  5
34
102
{ACAD_REACTORS
330
2A
102
}
102
{ACAD_XDICTIONARY
360
2EB
102
}
330
2A
100
AcDbVisualStyle
  2
Conceptual
 70
     9
 71
     3
 72
     2
 73
     0
 90
        0
 40
-0.6
 41
-30.0
 62
     5
 63
     7
421
 16777215
 74
     2
 91
        2
 64
     7
 65
   257
 75
     1
175
     1
 42
40.0
 92
        8
 66
     7
 43
1.0
 76
     1
 77
     6
 78
     2
 67
     7
 79
     3
170
     0
171
     0
290
     0
174
     0
 93
        1
 44
0.0
173
     0
291
     0
 45
0.0
1001
ACAD
1000
AcDbSavedByObjectVersion
1070
     0
  0
VISUALSTYLE
  5
35
102
{ACAD_REACTORS
330
2A
102
}
102
{ACAD_XDICTIONARY
360
2ED
102
}
330
2A
100
AcDbVisualStyle
  2
Dim
 70
    11
 71
     2
 72
     2
 73
     0
 90
        0
 40
-0.6
 41
-30.0
 62
     5
 63
     7
421
 16777215
 74
     1
 91
        4
 64
     7
 65
   257
 75
     1
175
     1
 42
1.0
 92
        8
 66
     7
 43
1.0
 76
     1
 77
     6
 78
     2
 67
     7
 79
     5
170
     0
171
     0
290
     0
174
     0
 93
        1
 44
-50.0
173
     0
291
     1
 45
0.0
1001
ACAD
1000
AcDbSavedByObjectVersion
1070
     0
  0
VISUALSTYLE
  5
39
102
{ACAD_REACTORS
330
2A
102
}
102
{ACAD_XDICTIONARY
360
2F5
102
}
330
2A
100
AcDbVisualStyle
  2
Facepattern
 70
    15
 71
     2
 72
     2
 73
     0
 90
        0
 40
-0.6
 41
-30.0
 62
     5
 63
     7
421
 16777215
 74
     1
 91
        4
 64
     7
 65
   257
 75
     1
175
     1
 42
1.0
 92
        8
 66
     7
 43
1.0
 76
     1
 77
     6
 78
     2
 67
     7
 79
     5
170
     0
171
     0
290
     0
174
     0
 93
        1
 44
0.0
173
     0
291
     1
 45
0.0
1001
ACAD
1000
AcDbSavedByObjectVersion
1070
     0
  0
VISUALSTYLE
  5
2B
102
{ACAD_REACTORS
330
2A
102
}
102
{ACAD_XDICTIONARY
360
2D9
102
}
330
2A
100
AcDbVisualStyle
  2
Flat
 70
     0
 71
     2
 72
     1
 73
     1
 90
        2
 40
-0.6
 41
30.0
 62
     5
 63
     7
421
 16777215
 74
     0
 91
        4
 64
     7
 65
   257
 75
     1
175
     1
 42
1.0
 92
        8
 66
     7
 43
1.0
 76
     1
 77
     6
 78
     2
 67
     7
 79
     5
170
     0
171
     0
290
     0
174
     0
 93
       13
 44
0.0
173
     0
291
     1
 45
0.0
1001
ACAD
1000
AcDbSavedByObjectVersion
1070
     0
  0
VISUALSTYLE
  5
2C
102
{ACAD_REACTORS
330
2A
102
}
102
{ACAD_XDICTIONARY
360
2DB
102
}
330
2A
100
AcDbVisualStyle
  2
FlatWithEdges
 70
     1
 71
     2
 72
     1
 73
     1
 90
        2
 40
-0.6
 41
30.0
 62
     5
 63
     7
421
 16777215
 74
     1
 91
        4
 64
     7
 65
   257
 75
     1
175
     1
 42
1.0
 92
        0
 66
   257
 43
1.0
 76
     1
 77
     6
 78
     2
 67
     7
 79
     5
170
     0
171
     0
290
     0
174
     0
 93
       13
 44
0.0
173
     0
291
     1
 45
0.0
1001
ACAD
1000
AcDbSavedByObjectVersion
1070
     0
  0
VISUALSTYLE
  5
2D
102
{ACAD_REACTORS
330
2A
102
}
102
{ACAD_XDICTIONARY
360
2DD
102
}
330
2A
100
AcDbVisualStyle
  2
Gouraud
 70
     2
 71
     2
 72
     2
 73
     1
 90
        2
 40
-0.6
 41
30.0
 62
     5
 63
     7
421
 16777215
 74
     0
 91
        4
 64
     7
 65
   257
 75
     1
175
     1
 42
1.0
 92
        0
 66
     7
 43
1.0
 76
     1
 77
     6
 78
     2
 67
     7
 79
     5
170
     0
171
     0
290
     0
174
     0
 93
       13
 44
0.0
173
     0
291
     1
 45
0.0
1001
ACAD
1000
AcDbSavedByObjectVersion
1070
     0
  0
VISUALSTYLE
  5
2E
102
{ACAD_REACTORS
330
2A
102
}
102
{ACAD_XDICTIONARY
360
2DF
102
}
330
2A
100
AcDbVisualStyle
  2
GouraudWithEdges
 70
     3
 71
     2
 72
     2
 73
     1
 90
        2
 40
-0.6
 41
30.0
 62
     5
 63
     7
421
 16777215
 74
     1
 91
        4
 64
     7
 65
   257
 75
     1
175
     1
 42
1.0
 92
        0
 66
   257
 43
1.0
 76
     1
 77
     6
 78
     2
 67
     7
 79
     5
170
     0
171
     0
290
     0
174
     0
 93
       13
 44
0.0
173
     0
291
     1
 45
0.0
1001
ACAD
1000
AcDbSavedByObjectVersion
1070
     0
  0
VISUALSTYLE
  5
38
102
{ACAD_REACTORS
330
2A
102
}
102
{ACAD_XDICTIONARY
360
2F3
102
}
330
2A
100
AcDbVisualStyle
  2
Linepattern
 70
    14
 71
     2
 72
     2
 73
     0
 90
        0
 40
-0.6
 41
-30.0
 62
     5
 63
     7
421
 16777215
 74
     1
 91
        4
 64
     7
 65
   257
 75
     7
175
     7
 42
1.0
 92
        8
 66
     7
 43
1.0
 76
     1
 77
     6
 78
     2
 67
     7
 79
     5
170
     0
171
     0
290
     0
174
     0
 93
        1
 44
0.0
173
     0
291
     1
 45
0.0
1001
ACAD
1000
AcDbSavedByObjectVersion
1070
     0
  0
VISUALSTYLE
  5
33
102
{ACAD_REACTORS
330
2A
102
}
102
{ACAD_XDICTIONARY
360
2E9
102
}
330
2A
100
AcDbVisualStyle
  2
Realistic
 70
     8
 71
     2
 72
     2
 73
     0
 90
        0
 40
-0.6
 41
-30.0
 62
     5
 63
     7
421
 16777215
 74
     1
 91
        0
 64
     7
 65
   257
 75
     1
175
     1
 42
1.0
 92
        8
 66
     8
424
  7895160
 43
1.0
 76
     1
 77
     6
 78
     2
 67
     7
 79
     5
170
     0
171
     0
290
     0
174
     0
 93
       13
 44
0.0
173
     0
291
     0
 45
0.0
1001
ACAD
1000
AcDbSavedByObjectVersion
1070
     0
  0
VISUALSTYLE
  5
37
102
{ACAD_REACTORS
330
2A
102
}
102
{ACAD_XDICTIONARY
360
2F1
102
}
330
2A
100
AcDbVisualStyle
  2
Thicken
 70
    13
 71
     2
 72
     2
 73
     0
 90
        0
 40
-0.6
 41
-30.0
 62
     5
 63
     7
421
 16777215
 74
     1
 91
        4
 64
     7
 65
   257
 75
     1
175
     1
 42
1.0
 92
       12
 66
     7
 43
1.0
 76
     1
 77
     6
 78
     2
 67
     7
 79
     5
170
     0
171
     0
290
     0
174
     0
 93
        1
 44
0.0
173
     0
291
     1
 45
0.0
1001
ACAD
1000
AcDbSavedByObjectVersion
1070
     0
  0
DICTIONARY
  5
2FB
330
3D
100
AcDbDictionary
280
     1
281
     1
  3
ACAD_XREC_ROUNDTRIP
360
2FC
  0
DICTIONARY
  5
2F9
330
3C
100
AcDbDictionary
280
     1
281
     1
  3
ACAD_XREC_ROUNDTRIP
360
2FA
  0
DICTIONARY
  5
2FD
330
3E
100
AcDbDictionary
280
     1
281
     1
  3
ACAD_XREC_ROUNDTRIP
360
2FE
  0
DICTIONARY
  5
2E1
330
2F
100
AcDbDictionary
280
     1
281
     1
  3
ACAD_XREC_ROUNDTRIP
360
2E2
  0
DICTIONARY
  5
2E5
330
31
100
AcDbDictionary
280
     1
281
     1
  3
ACAD_XREC_ROUNDTRIP
360
2E6
  0
DICTIONARY
  5
2E3
330
30
100
AcDbDictionary
280
     1
281
     1
  3
ACAD_XREC_ROUNDTRIP
360
2E4
  0
DICTIONARY
  5
2E7
330
32
100
AcDbDictionary
280
     1
281
     1
  3
ACAD_XREC_ROUNDTRIP
360
2E8
  0
DICTIONARY
  5
2EF
330
36
100
AcDbDictionary
280
     1
281
     1
  3
ACAD_XREC_ROUNDTRIP
360
2F0
  0
DICTIONARY
  5
2F7
330
3A
100
AcDbDictionary
280
     1
281
     1
  3
ACAD_XREC_ROUNDTRIP
360
2F8
  0
DICTIONARY
  5
2EB
330
34
100
AcDbDictionary
280
     1
281
     1
  3
ACAD_XREC_ROUNDTRIP
360
2EC
  0
DICTIONARY
  5
2ED
330
35
100
AcDbDictionary
280
     1
281
     1
  3
ACAD_XREC_ROUNDTRIP
360
2EE
  0
DICTIONARY
  5
2F5
330
39
100
AcDbDictionary
280
     1
281
     1
  3
ACAD_XREC_ROUNDTRIP
360
2F6
  0
DICTIONARY
  5
2D9
330
2B
100
AcDbDictionary
280
     1
281
     1
  3
ACAD_XREC_ROUNDTRIP
360
2DA
  0
DICTIONARY
  5
2DB
330
2C
100
AcDbDictionary
280
     1
281
     1
  3
ACAD_XREC_ROUNDTRIP
360
2DC
  0
DICTIONARY
  5
2DD
330
2D
100
AcDbDictionary
280
     1
281
     1
  3
ACAD_XREC_ROUNDTRIP
360
2DE
  0
DICTIONARY
  5
2DF
330
2E
100
AcDbDictionary
280
     1
281
     1
  3
ACAD_XREC_ROUNDTRIP
360
2E0
  0
DICTIONARY
  5
2F3
330
38
100
AcDbDictionary
280
     1
281
     1
  3
ACAD_XREC_ROUNDTRIP
360
2F4
  0
DICTIONARY
  5
2E9
330
33
100
AcDbDictionary
280
     1
281
     1
  3
ACAD_XREC_ROUNDTRIP
360
2EA
  0
DICTIONARY
  5
2F1
330
37
100
AcDbDictionary
280
     1
281
     1
  3
ACAD_XREC_ROUNDTRIP
360
2F2
  0
XRECORD
  5
2FC
102
{ACAD_REACTORS
330
2FB
102
}
330
2FB
100
AcDbXrecord
280
     1
102
MATERIAL
148
0.0
149
0.0
149
0.0
 93
        0
 94
      127
282
     0
 72
     1
 77
     1
171
     1
175
     1
179
     1
273
     0
  0
XRECORD
  5
2FA
102
{ACAD_REACTORS
330
2F9
102
}
330
2F9
100
AcDbXrecord
280
     1
102
MATERIAL
148
0.0
149
0.0
149
0.0
 93
        0
 94
      127
282
     0
 72
     1
 77
     1
171
     1
175
     1
179
     1
273
     0
  0
XRECORD
  5
2FE
102
{ACAD_REACTORS
330
2FD
102
}
330
2FD
100
AcDbXrecord
280
     1
102
MATERIAL
148
0.0
149
0.0
149
0.0
 93
        0
 94
      127
282
     0
 72
     1
 77
     1
171
     1
175
     1
179
     1
273
     0
  0
XRECORD
  5
2E2
102
{ACAD_REACTORS
330
2E1
102
}
330
2E1
100
AcDbXrecord
280
     1
102
RTVSPropertyOp0
 70
     1
102
RTVSPropertyOp1
 70
     1
102
RTVSPropertyOp2
 70
     1
102
RTVSPropertyOp3
 70
     1
102
RTVSPropertyOp4
 70
     1
102
RTVSPropertyOp5
 70
     1
102
RTVSPropertyOp6
 70
     1
102
RTVSPropertyOp7
 70
     1
102
RTVSPropertyOp8
 70
     1
102
RTVSPropertyOp9
 70
     1
102
RTVSPropertyOp10
 70
     1
102
RTVSPropertyOp11
 70
     1
102
RTVSPropertyOp12
 70
     1
102
RTVSPropertyOp13
 70
     1
102
RTVSPropertyOp14
 70
     1
102
RTVSPropertyOp15
 70
     1
102
RTVSPropertyOp16
 70
     1
102
RTVSPropertyOp17
 70
     1
102
RTVSPropertyOp18
 70
     1
102
RTVSPropertyOp19
 70
     1
102
RTVSPropertyOp20
 70
     1
102
RTVSPropertyOp21
 70
     1
102
RTVSPropertyOp22
 70
     1
102
RTVSPropertyOp23
 70
     1
102
RTVSPropertyOp24
 70
     1
102
RTVSPropertyOp25
 70
     1
102
RTVSPropertyOp26
 70
     1
102
RTVSPropertyOp27
 70
     1
102
RTVSPropertyOp28
 70
     1
102
RTVSPropertyOp29
 70
     1
102
RTVSPropertyOp30
 70
     1
102
RTVSPropertyOp31
 70
     1
102
RTVSPropertyOp32
 70
     1
  0
XRECORD
  5
2E6
102
{ACAD_REACTORS
330
2E5
102
}
330
2E5
100
AcDbXrecord
280
     1
102
RTVSPropertyOp0
 70
     1
102
RTVSPropertyOp1
 70
     1
102
RTVSPropertyOp2
 70
     1
102
RTVSPropertyOp3
 70
     1
102
RTVSPropertyOp4
 70
     1
102
RTVSPropertyOp5
 70
     1
102
RTVSPropertyOp6
 70
     1
102
RTVSPropertyOp7
 70
     1
102
RTVSPropertyOp8
 70
     1
102
RTVSPropertyOp9
 70
     1
102
RTVSPropertyOp10
 70
     1
102
RTVSPropertyOp11
 70
     1
102
RTVSPropertyOp12
 70
     1
102
RTVSPropertyOp13
 70
     1
102
RTVSPropertyOp14
 70
     1
102
RTVSPropertyOp15
 70
     1
102
RTVSPropertyOp16
 70
     1
102
RTVSPropertyOp17
 70
     1
102
RTVSPropertyOp18
 70
     1
102
RTVSPropertyOp19
 70
     1
102
RTVSPropertyOp20
 70
     1
102
RTVSPropertyOp21
 70
     1
102
RTVSPropertyOp22
 70
     1
102
RTVSPropertyOp23
 70
     1
102
RTVSPropertyOp24
 70
     1
102
RTVSPropertyOp25
 70
     1
102
RTVSPropertyOp26
 70
     1
102
RTVSPropertyOp27
 70
     1
102
RTVSPropertyOp28
 70
     1
102
RTVSPropertyOp29
 70
     1
102
RTVSPropertyOp30
 70
     1
102
RTVSPropertyOp31
 70
     1
102
RTVSPropertyOp32
 70
     1
  0
XRECORD
  5
2E4
102
{ACAD_REACTORS
330
2E3
102
}
330
2E3
100
AcDbXrecord
280
     1
102
RTVSPropertyOp0
 70
     1
102
RTVSPropertyOp1
 70
     1
102
RTVSPropertyOp2
 70
     1
102
RTVSPropertyOp3
 70
     1
102
RTVSPropertyOp4
 70
     1
102
RTVSPropertyOp5
 70
     1
102
RTVSPropertyOp6
 70
     1
102
RTVSPropertyOp7
 70
     1
102
RTVSPropertyOp8
 70
     1
102
RTVSPropertyOp9
 70
     1
102
RTVSPropertyOp10
 70
     1
102
RTVSPropertyOp11
 70
     1
102
RTVSPropertyOp12
 70
     1
102
RTVSPropertyOp13
 70
     1
102
RTVSPropertyOp14
 70
     1
102
RTVSPropertyOp15
 70
     1
102
RTVSPropertyOp16
 70
     1
102
RTVSPropertyOp17
 70
     1
102
RTVSPropertyOp18
 70
     1
102
RTVSPropertyOp19
 70
     1
102
RTVSPropertyOp20
 70
     1
102
RTVSPropertyOp21
 70
     1
102
RTVSPropertyOp22
 70
     1
102
RTVSPropertyOp23
 70
     1
102
RTVSPropertyOp24
 70
     1
102
RTVSPropertyOp25
 70
     1
102
RTVSPropertyOp26
 70
     1
102
RTVSPropertyOp27
 70
     1
102
RTVSPropertyOp28
 70
     1
102
RTVSPropertyOp29
 70
     1
102
RTVSPropertyOp30
 70
     1
102
RTVSPropertyOp31
 70
     1
102
RTVSPropertyOp32
 70
     1
  0
XRECORD
  5
2E8
102
{ACAD_REACTORS
330
2E7
102
}
330
2E7
100
AcDbXrecord
280
     1
102
RTVSPropertyOp0
 70
     1
102
RTVSPropertyOp1
 70
     1
102
RTVSPropertyOp2
 70
     1
102
RTVSPropertyOp3
 70
     1
102
RTVSPropertyOp4
 70
     1
102
RTVSPropertyOp5
 70
     1
102
RTVSPropertyOp6
 70
     1
102
RTVSPropertyOp7
 70
     1
102
RTVSPropertyOp8
 70
     1
102
RTVSPropertyOp9
 70
     1
102
RTVSPropertyOp10
 70
     1
102
RTVSPropertyOp11
 70
     1
102
RTVSPropertyOp12
 70
     1
102
RTVSPropertyOp13
 70
     1
102
RTVSPropertyOp14
 70
     1
102
RTVSPropertyOp15
 70
     1
102
RTVSPropertyOp16
 70
     1
102
RTVSPropertyOp17
 70
     1
102
RTVSPropertyOp18
 70
     1
102
RTVSPropertyOp19
 70
     1
102
RTVSPropertyOp20
 70
     1
102
RTVSPropertyOp21
 70
     1
102
RTVSPropertyOp22
 70
     1
102
RTVSPropertyOp23
 70
     1
102
RTVSPropertyOp24
 70
     1
102
RTVSPropertyOp25
 70
     1
102
RTVSPropertyOp26
 70
     1
102
RTVSPropertyOp27
 70
     1
102
RTVSPropertyOp28
 70
     1
102
RTVSPropertyOp29
 70
     1
102
RTVSPropertyOp30
 70
     1
102
RTVSPropertyOp31
 70
     1
102
RTVSPropertyOp32
 70
     1
  0
XRECORD
  5
2F0
102
{ACAD_REACTORS
330
2EF
102
}
330
2EF
100
AcDbXrecord
280
     1
102
RTVSPropertyOp0
 70
     1
102
RTVSPropertyOp1
 70
     1
102
RTVSPropertyOp2
 70
     1
102
RTVSPropertyOp3
 70
     1
102
RTVSPropertyOp4
 70
     1
102
RTVSPropertyOp5
 70
     1
102
RTVSPropertyOp6
 70
     1
102
RTVSPropertyOp7
 70
     1
102
RTVSPropertyOp8
 70
     1
102
RTVSPropertyOp9
 70
     1
102
RTVSPropertyOp10
 70
     1
102
RTVSPropertyOp11
 70
     1
102
RTVSPropertyOp12
 70
     1
102
RTVSPropertyOp13
 70
     1
102
RTVSPropertyOp14
 70
     1
102
RTVSPropertyOp15
 70
     1
102
RTVSPropertyOp16
 70
     1
102
RTVSPropertyOp17
 70
     1
102
RTVSPropertyOp18
 70
     1
102
RTVSPropertyOp19
 70
     1
102
RTVSPropertyOp20
 70
     1
102
RTVSPropertyOp21
 70
     1
102
RTVSPropertyOp22
 70
     1
102
RTVSPropertyOp23
 70
     1
102
RTVSPropertyOp24
 70
     1
102
RTVSPropertyOp25
 70
     1
102
RTVSPropertyOp26
 70
     1
102
RTVSPropertyOp27
 70
     1
102
RTVSPropertyOp28
 70
     1
102
RTVSPropertyOp29
 70
     1
102
RTVSPropertyOp30
 70
     1
102
RTVSPropertyOp31
 70
     1
102
RTVSPropertyOp32
 70
     1
  0
XRECORD
  5
2F8
102
{ACAD_REACTORS
330
2F7
102
}
330
2F7
100
AcDbXrecord
280
     1
102
RTVSPropertyOp0
 70
     1
102
RTVSPropertyOp1
 70
     1
102
RTVSPropertyOp2
 70
     1
102
RTVSPropertyOp3
 70
     1
102
RTVSPropertyOp4
 70
     1
102
RTVSPropertyOp5
 70
     1
102
RTVSPropertyOp6
 70
     1
102
RTVSPropertyOp7
 70
     1
102
RTVSPropertyOp8
 70
     1
102
RTVSPropertyOp9
 70
     1
102
RTVSPropertyOp10
 70
     1
102
RTVSPropertyOp11
 70
     1
102
RTVSPropertyOp12
 70
     1
102
RTVSPropertyOp13
 70
     1
102
RTVSPropertyOp14
 70
     1
102
RTVSPropertyOp15
 70
     1
102
RTVSPropertyOp16
 70
     1
102
RTVSPropertyOp17
 70
     1
102
RTVSPropertyOp18
 70
     1
102
RTVSPropertyOp19
 70
     1
102
RTVSPropertyOp20
 70
     1
102
RTVSPropertyOp21
 70
     1
102
RTVSPropertyOp22
 70
     1
102
RTVSPropertyOp23
 70
     1
102
RTVSPropertyOp24
 70
     1
102
RTVSPropertyOp25
 70
     1
102
RTVSPropertyOp26
 70
     1
102
RTVSPropertyOp27
 70
     1
102
RTVSPropertyOp28
 70
     1
102
RTVSPropertyOp29
 70
     1
102
RTVSPropertyOp30
 70
     1
102
RTVSPropertyOp31
 70
     1
102
RTVSPropertyOp32
 70
     1
  0
XRECORD
  5
2EC
102
{ACAD_REACTORS
330
2EB
102
}
330
2EB
100
AcDbXrecord
280
     1
102
RTVSPropertyOp0
 70
     1
102
RTVSPropertyOp1
 70
     1
102
RTVSPropertyOp2
 70
     1
102
RTVSPropertyOp3
 70
     1
102
RTVSPropertyOp4
 70
     1
102
RTVSPropertyOp5
 70
     1
102
RTVSPropertyOp6
 70
     1
102
RTVSPropertyOp7
 70
     1
102
RTVSPropertyOp8
 70
     1
102
RTVSPropertyOp9
 70
     1
102
RTVSPropertyOp10
 70
     1
102
RTVSPropertyOp11
 70
     1
102
RTVSPropertyOp12
 70
     1
102
RTVSPropertyOp13
 70
     1
102
RTVSPropertyOp14
 70
     1
102
RTVSPropertyOp15
 70
     1
102
RTVSPropertyOp16
 70
     1
102
RTVSPropertyOp17
 70
     1
102
RTVSPropertyOp18
 70
     1
102
RTVSPropertyOp19
 70
     1
102
RTVSPropertyOp20
 70
     1
102
RTVSPropertyOp21
 70
     1
102
RTVSPropertyOp22
 70
     1
102
RTVSPropertyOp23
 70
     1
102
RTVSPropertyOp24
 70
     1
102
RTVSPropertyOp25
 70
     1
102
RTVSPropertyOp26
 70
     1
102
RTVSPropertyOp27
 70
     1
102
RTVSPropertyOp28
 70
     1
102
RTVSPropertyOp29
 70
     1
102
RTVSPropertyOp30
 70
     1
102
RTVSPropertyOp31
 70
     1
102
RTVSPropertyOp32
 70
     1
  0
XRECORD
  5
2EE
102
{ACAD_REACTORS
330
2ED
102
}
330
2ED
100
AcDbXrecord
280
     1
102
RTVSPropertyOp0
 70
     1
102
RTVSPropertyOp1
 70
     1
102
RTVSPropertyOp2
 70
     1
102
RTVSPropertyOp3
 70
     1
102
RTVSPropertyOp4
 70
     1
102
RTVSPropertyOp5
 70
     1
102
RTVSPropertyOp6
 70
     1
102
RTVSPropertyOp7
 70
     1
102
RTVSPropertyOp8
 70
     1
102
RTVSPropertyOp9
 70
     1
102
RTVSPropertyOp10
 70
     1
102
RTVSPropertyOp11
 70
     1
102
RTVSPropertyOp12
 70
     1
102
RTVSPropertyOp13
 70
     1
102
RTVSPropertyOp14
 70
     1
102
RTVSPropertyOp15
 70
     1
102
RTVSPropertyOp16
 70
     1
102
RTVSPropertyOp17
 70
     1
102
RTVSPropertyOp18
 70
     1
102
RTVSPropertyOp19
 70
     1
102
RTVSPropertyOp20
 70
     1
102
RTVSPropertyOp21
 70
     1
102
RTVSPropertyOp22
 70
     1
102
RTVSPropertyOp23
 70
     1
102
RTVSPropertyOp24
 70
     1
102
RTVSPropertyOp25
 70
     1
102
RTVSPropertyOp26
 70
     1
102
RTVSPropertyOp27
 70
     1
102
RTVSPropertyOp28
 70
     1
102
RTVSPropertyOp29
 70
     1
102
RTVSPropertyOp30
 70
     1
102
RTVSPropertyOp31
 70
     1
102
RTVSPropertyOp32
 70
     1
  0
XRECORD
  5
2F6
102
{ACAD_REACTORS
330
2F5
102
}
330
2F5
100
AcDbXrecord
280
     1
102
RTVSPropertyOp0
 70
     1
102
RTVSPropertyOp1
 70
     1
102
RTVSPropertyOp2
 70
     1
102
RTVSPropertyOp3
 70
     1
102
RTVSPropertyOp4
 70
     1
102
RTVSPropertyOp5
 70
     1
102
RTVSPropertyOp6
 70
     1
102
RTVSPropertyOp7
 70
     1
102
RTVSPropertyOp8
 70
     1
102
RTVSPropertyOp9
 70
     1
102
RTVSPropertyOp10
 70
     1
102
RTVSPropertyOp11
 70
     1
102
RTVSPropertyOp12
 70
     1
102
RTVSPropertyOp13
 70
     1
102
RTVSPropertyOp14
 70
     1
102
RTVSPropertyOp15
 70
     1
102
RTVSPropertyOp16
 70
     1
102
RTVSPropertyOp17
 70
     1
102
RTVSPropertyOp18
 70
     1
102
RTVSPropertyOp19
 70
     1
102
RTVSPropertyOp20
 70
     1
102
RTVSPropertyOp21
 70
     1
102
RTVSPropertyOp22
 70
     1
102
RTVSPropertyOp23
 70
     1
102
RTVSPropertyOp24
 70
     1
102
RTVSPropertyOp25
 70
     1
102
RTVSPropertyOp26
 70
     1
102
RTVSPropertyOp27
 70
     1
102
RTVSPropertyOp28
 70
     1
102
RTVSPropertyOp29
 70
     1
102
RTVSPropertyOp30
 70
     1
102
RTVSPropertyOp31
 70
     1
102
RTVSPropertyOp32
 70
     1
  0
XRECORD
  5
2DA
102
{ACAD_REACTORS
330
2D9
102
}
330
2D9
100
AcDbXrecord
280
     1
102
RTVSPropertyOp0
 70
     1
102
RTVSPropertyOp1
 70
     1
102
RTVSPropertyOp2
 70
     1
102
RTVSPropertyOp3
 70
     1
102
RTVSPropertyOp4
 70
     1
102
RTVSPropertyOp5
 70
     1
102
RTVSPropertyOp6
 70
     1
102
RTVSPropertyOp7
 70
     1
102
RTVSPropertyOp8
 70
     1
102
RTVSPropertyOp9
 70
     1
102
RTVSPropertyOp10
 70
     1
102
RTVSPropertyOp11
 70
     1
102
RTVSPropertyOp12
 70
     1
102
RTVSPropertyOp13
 70
     1
102
RTVSPropertyOp14
 70
     1
102
RTVSPropertyOp15
 70
     1
102
RTVSPropertyOp16
 70
     1
102
RTVSPropertyOp17
 70
     1
102
RTVSPropertyOp18
 70
     1
102
RTVSPropertyOp19
 70
     1
102
RTVSPropertyOp20
 70
     1
102
RTVSPropertyOp21
 70
     1
102
RTVSPropertyOp22
 70
     1
102
RTVSPropertyOp23
 70
     1
102
RTVSPropertyOp24
 70
     1
102
RTVSPropertyOp25
 70
     1
102
RTVSPropertyOp26
 70
     1
102
RTVSPropertyOp27
 70
     1
102
RTVSPropertyOp28
 70
     1
102
RTVSPropertyOp29
 70
     1
102
RTVSPropertyOp30
 70
     1
102
RTVSPropertyOp31
 70
     1
102
RTVSPropertyOp32
 70
     1
  0
XRECORD
  5
2DC
102
{ACAD_REACTORS
330
2DB
102
}
330
2DB
100
AcDbXrecord
280
     1
102
RTVSPropertyOp0
 70
     1
102
RTVSPropertyOp1
 70
     1
102
RTVSPropertyOp2
 70
     1
102
RTVSPropertyOp3
 70
     1
102
RTVSPropertyOp4
 70
     1
102
RTVSPropertyOp5
 70
     1
102
RTVSPropertyOp6
 70
     1
102
RTVSPropertyOp7
 70
     1
102
RTVSPropertyOp8
 70
     1
102
RTVSPropertyOp9
 70
     1
102
RTVSPropertyOp10
 70
     1
102
RTVSPropertyOp11
 70
     1
102
RTVSPropertyOp12
 70
     1
102
RTVSPropertyOp13
 70
     1
102
RTVSPropertyOp14
 70
     1
102
RTVSPropertyOp15
 70
     1
102
RTVSPropertyOp16
 70
     1
102
RTVSPropertyOp17
 70
     1
102
RTVSPropertyOp18
 70
     1
102
RTVSPropertyOp19
 70
     1
102
RTVSPropertyOp20
 70
     1
102
RTVSPropertyOp21
 70
     1
102
RTVSPropertyOp22
 70
     1
102
RTVSPropertyOp23
 70
     1
102
RTVSPropertyOp24
 70
     1
102
RTVSPropertyOp25
 70
     1
102
RTVSPropertyOp26
 70
     1
102
RTVSPropertyOp27
 70
     1
102
RTVSPropertyOp28
 70
     1
102
RTVSPropertyOp29
 70
     1
102
RTVSPropertyOp30
 70
     1
102
RTVSPropertyOp31
 70
     1
102
RTVSPropertyOp32
 70
     1
  0
XRECORD
  5
2DE
102
{ACAD_REACTORS
330
2DD
102
}
330
2DD
100
AcDbXrecord
280
     1
102
RTVSPropertyOp0
 70
     1
102
RTVSPropertyOp1
 70
     1
102
RTVSPropertyOp2
 70
     1
102
RTVSPropertyOp3
 70
     1
102
RTVSPropertyOp4
 70
     1
102
RTVSPropertyOp5
 70
     1
102
RTVSPropertyOp6
 70
     1
102
RTVSPropertyOp7
 70
     1
102
RTVSPropertyOp8
 70
     1
102
RTVSPropertyOp9
 70
     1
102
RTVSPropertyOp10
 70
     1
102
RTVSPropertyOp11
 70
     1
102
RTVSPropertyOp12
 70
     1
102
RTVSPropertyOp13
 70
     1
102
RTVSPropertyOp14
 70
     1
102
RTVSPropertyOp15
 70
     1
102
RTVSPropertyOp16
 70
     1
102
RTVSPropertyOp17
 70
     1
102
RTVSPropertyOp18
 70
     1
102
RTVSPropertyOp19
 70
     1
102
RTVSPropertyOp20
 70
     1
102
RTVSPropertyOp21
 70
     1
102
RTVSPropertyOp22
 70
     1
102
RTVSPropertyOp23
 70
     1
102
RTVSPropertyOp24
 70
     1
102
RTVSPropertyOp25
 70
     1
102
RTVSPropertyOp26
 70
     1
102
RTVSPropertyOp27
 70
     1
102
RTVSPropertyOp28
 70
     1
102
RTVSPropertyOp29
 70
     1
102
RTVSPropertyOp30
 70
     1
102
RTVSPropertyOp31
 70
     1
102
RTVSPropertyOp32
 70
     1
  0
XRECORD
  5
2E0
102
{ACAD_REACTORS
330
2DF
102
}
330
2DF
100
AcDbXrecord
280
     1
102
RTVSPropertyOp0
 70
     1
102
RTVSPropertyOp1
 70
     1
102
RTVSPropertyOp2
 70
     1
102
RTVSPropertyOp3
 70
     1
102
RTVSPropertyOp4
 70
     1
102
RTVSPropertyOp5
 70
     1
102
RTVSPropertyOp6
 70
     1
102
RTVSPropertyOp7
 70
     1
102
RTVSPropertyOp8
 70
     1
102
RTVSPropertyOp9
 70
     1
102
RTVSPropertyOp10
 70
     1
102
RTVSPropertyOp11
 70
     1
102
RTVSPropertyOp12
 70
     1
102
RTVSPropertyOp13
 70
     1
102
RTVSPropertyOp14
 70
     1
102
RTVSPropertyOp15
 70
     1
102
RTVSPropertyOp16
 70
     1
102
RTVSPropertyOp17
 70
     1
102
RTVSPropertyOp18
 70
     1
102
RTVSPropertyOp19
 70
     1
102
RTVSPropertyOp20
 70
     1
102
RTVSPropertyOp21
 70
     1
102
RTVSPropertyOp22
 70
     1
102
RTVSPropertyOp23
 70
     1
102
RTVSPropertyOp24
 70
     1
102
RTVSPropertyOp25
 70
     1
102
RTVSPropertyOp26
 70
     1
102
RTVSPropertyOp27
 70
     1
102
RTVSPropertyOp28
 70
     1
102
RTVSPropertyOp29
 70
     1
102
RTVSPropertyOp30
 70
     1
102
RTVSPropertyOp31
 70
     1
102
RTVSPropertyOp32
 70
     1
  0
XRECORD
  5
2F4
102
{ACAD_REACTORS
330
2F3
102
}
330
2F3
100
AcDbXrecord
280
     1
102
RTVSPropertyOp0
 70
     1
102
RTVSPropertyOp1
 70
     1
102
RTVSPropertyOp2
 70
     1
102
RTVSPropertyOp3
 70
     1
102
RTVSPropertyOp4
 70
     1
102
RTVSPropertyOp5
 70
     1
102
RTVSPropertyOp6
 70
     1
102
RTVSPropertyOp7
 70
     1
102
RTVSPropertyOp8
 70
     1
102
RTVSPropertyOp9
 70
     1
102
RTVSPropertyOp10
 70
     1
102
RTVSPropertyOp11
 70
     1
102
RTVSPropertyOp12
 70
     1
102
RTVSPropertyOp13
 70
     1
102
RTVSPropertyOp14
 70
     1
102
RTVSPropertyOp15
 70
     1
102
RTVSPropertyOp16
 70
     1
102
RTVSPropertyOp17
 70
     1
102
RTVSPropertyOp18
 70
     1
102
RTVSPropertyOp19
 70
     1
102
RTVSPropertyOp20
 70
     1
102
RTVSPropertyOp21
 70
     1
102
RTVSPropertyOp22
 70
     1
102
RTVSPropertyOp23
 70
     1
102
RTVSPropertyOp24
 70
     1
102
RTVSPropertyOp25
 70
     1
102
RTVSPropertyOp26
 70
     1
102
RTVSPropertyOp27
 70
     1
102
RTVSPropertyOp28
 70
     1
102
RTVSPropertyOp29
 70
     1
102
RTVSPropertyOp30
 70
     1
102
RTVSPropertyOp31
 70
     1
102
RTVSPropertyOp32
 70
     1
  0
XRECORD
  5
2EA
102
{ACAD_REACTORS
330
2E9
102
}
330
2E9
100
AcDbXrecord
280
     1
102
RTVSPropertyOp0
 70
     1
102
RTVSPropertyOp1
 70
     1
102
RTVSPropertyOp2
 70
     1
102
RTVSPropertyOp3
 70
     1
102
RTVSPropertyOp4
 70
     1
102
RTVSPropertyOp5
 70
     1
102
RTVSPropertyOp6
 70
     1
102
RTVSPropertyOp7
 70
     1
102
RTVSPropertyOp8
 70
     1
102
RTVSPropertyOp9
 70
     1
102
RTVSPropertyOp10
 70
     1
102
RTVSPropertyOp11
 70
     1
102
RTVSPropertyOp12
 70
     1
102
RTVSPropertyOp13
 70
     1
102
RTVSPropertyOp14
 70
     1
102
RTVSPropertyOp15
 70
     1
102
RTVSPropertyOp16
 70
     1
102
RTVSPropertyOp17
 70
     1
102
RTVSPropertyOp18
 70
     1
102
RTVSPropertyOp19
 70
     1
102
RTVSPropertyOp20
 70
     1
102
RTVSPropertyOp21
 70
     1
102
RTVSPropertyOp22
 70
     1
102
RTVSPropertyOp23
 70
     1
102
RTVSPropertyOp24
 70
     1
102
RTVSPropertyOp25
 70
     1
102
RTVSPropertyOp26
 70
     1
102
RTVSPropertyOp27
 70
     1
102
RTVSPropertyOp28
 70
     1
102
RTVSPropertyOp29
 70
     1
102
RTVSPropertyOp30
 70
     1
102
RTVSPropertyOp31
 70
     1
102
RTVSPropertyOp32
 70
     1
  0
XRECORD
  5
2F2
102
{ACAD_REACTORS
330
2F1
102
}
330
2F1
100
AcDbXrecord
280
     1
102
RTVSPropertyOp0
 70
     1
102
RTVSPropertyOp1
 70
     1
102
RTVSPropertyOp2
 70
     1
102
RTVSPropertyOp3
 70
     1
102
RTVSPropertyOp4
 70
     1
102
RTVSPropertyOp5
 70
     1
102
RTVSPropertyOp6
 70
     1
102
RTVSPropertyOp7
 70
     1
102
RTVSPropertyOp8
 70
     1
102
RTVSPropertyOp9
 70
     1
102
RTVSPropertyOp10
 70
     1
102
RTVSPropertyOp11
 70
     1
102
RTVSPropertyOp12
 70
     1
102
RTVSPropertyOp13
 70
     1
102
RTVSPropertyOp14
 70
     1
102
RTVSPropertyOp15
 70
     1
102
RTVSPropertyOp16
 70
     1
102
RTVSPropertyOp17
 70
     1
102
RTVSPropertyOp18
 70
     1
102
RTVSPropertyOp19
 70
     1
102
RTVSPropertyOp20
 70
     1
102
RTVSPropertyOp21
 70
     1
102
RTVSPropertyOp22
 70
     1
102
RTVSPropertyOp23
 70
     1
102
RTVSPropertyOp24
 70
     1
102
RTVSPropertyOp25
 70
     1
102
RTVSPropertyOp26
 70
     1
102
RTVSPropertyOp27
 70
     1
102
RTVSPropertyOp28
 70
     1
102
RTVSPropertyOp29
 70
     1
102
RTVSPropertyOp30
 70
     1
102
RTVSPropertyOp31
 70
     1
102
RTVSPropertyOp32
 70
     1
  0
ENDSEC
  0
EOF
