  0
SECTION
  2
HEADER
  9
$ACADVER
  1
AC1018
  9
$ACADMAINTVER
 70
     0
  9
$DWGCODEPAGE
  3
ANSI_1252
  9
$INSBASE
 10
0.0
 20
0.0
 30
0.0
  9
$EXTMIN
 10
-415.499999999989
 20
-267.0000000000051
 30
0.0
  9
$EXTMAX
 10
-118.4999999999909
 20
-57.000000000005
 30
0.0
  9
$LIMMIN
 10
0.0
 20
0.0
  9
$LIMMAX
 10
12.0
 20
9.0
  9
$ORTHOMODE
 70
     0
  9
$REGENMODE
 70
     1
  9
$FILLMODE
 70
     1
  9
$QTEXTMODE
 70
     0
  9
$MIRRTEXT
 70
     1
  9
$LTSCALE
 40
1.0
  9
$ATTMODE
 70
     1
  9
$TEXTSIZE
 40
0.2
  9
$TRACEWID
 40
0.05
  9
$TEXTSTYLE
  7
Standard
  9
$CLAYER
  8
0
  9
$CELTYPE
  6
ByLayer
  9
$CECOLOR
 62
   256
  9
$CELTSCALE
 40
1.0
  9
$DISPSILH
 70
     0
  9
$DIMSCALE
 40
1.0
  9
$DIMASZ
 40
0.18
  9
$DIMEXO
 40
0.0625
  9
$DIMDLI
 40
0.38
  9
$DIMRND
 40
0.0
  9
$DIMDLE
 40
0.0
  9
$DIMEXE
 40
0.18
  9
$DIMTP
 40
0.0
  9
$DIMTM
 40
0.0
  9
$DIMTXT
 40
0.18
  9
$DIMCEN
 40
0.09
  9
$DIMTSZ
 40
0.0
  9
$DIMTOL
 70
     0
  9
$DIMLIM
 70
     0
  9
$DIMTIH
 70
     1
  9
$DIMTOH
 70
     1
  9
$DIMSE1
 70
     0
  9
$DIMSE2
 70
     0
  9
$DIMTAD
 70
     0
  9
$DIMZIN
 70
     0
  9
$DIMBLK
  1

  9
$DIMASO
 70
     1
  9
$DIMSHO
 70
     1
  9
$DIMPOST
  1

  9
$DIMAPOST
  1

  9
$DIMALT
 70
     0
  9
$DIMALTD
 70
     2
  9
$DIMALTF
 40
25.4
  9
$DIMLFAC
 40
1.0
  9
$DIMTOFL
 70
     0
  9
$DIMTVP
 40
0.0
  9
$DIMTIX
 70
     0
  9
$DIMSOXD
 70
     0
  9
$DIMSAH
 70
     0
  9
$DIMBLK1
  1

  9
$DIMBLK2
  1

  9
$DIMSTYLE
  2
Standard
  9
$DIMCLRD
 70
     0
  9
$DIMCLRE
 70
     0
  9
$DIMCLRT
 70
     0
  9
$DIMTFAC
 40
1.0
  9
$DIMGAP
 40
0.09
  9
$DIMJUST
 70
     0
  9
$DIMSD1
 70
     0
  9
$DIMSD2
 70
     0
  9
$DIMTOLJ
 70
     1
  9
$DIMTZIN
 70
     0
  9
$DIMALTZ
 70
     0
  9
$DIMALTTZ
 70
     0
  9
$DIMUPT
 70
     0
  9
$DIMDEC
 70
     4
  9
$DIMTDEC
 70
     4
  9
$DIMALTU
 70
     2
  9
$DIMALTTD
 70
     2
  9
$DIMTXSTY
  7
Standard
  9
$DIMAUNIT
 70
     0
  9
$DIMADEC
 70
     0
  9
$DIMALTRND
 40
0.0
  9
$DIMAZIN
 70
     0
  9
$DIMDSEP
 70
    46
  9
$DIMATFIT
 70
     3
  9
$DIMFRAC
 70
     0
  9
$DIMLDRBLK
  1

  9
$DIMLUNIT
 70
     2
  9
$DIMLWD
 70
    -2
  9
$DIMLWE
 70
    -2
  9
$DIMTMOVE
 70
     0
  9
$LUNITS
 70
     2
  9
$LUPREC
 70
     4
  9
$SKETCHINC
 40
0.1
  9
$FILLETRAD
 40
0.5
  9
$AUNITS
 70
     0
  9
$AUPREC
 70
     0
  9
$MENU
  1
.
  9
$ELEVATION
 40
0.0
  9
$PELEVATION
 40
0.0
  9
$THICKNESS
 40
0.0
  9
$LIMCHECK
 70
     0
  9
$CHAMFERA
 40
0.5
  9
$CHAMFERB
 40
0.5
  9
$CHAMFERC
 40
1.0
  9
$CHAMFERD
 40
0.0
  9
$SKPOLY
 70
     0
  9
$TDCREATE
 40
2458017.650135486
  9
$TDUCREATE
 40
2458017.566802153
  9
$TDUPDATE
 40
2458017.650136574
  9
$TDUUPDATE
 40
2458017.566803241
  9
$TDINDWG
 40
0.0000000116
  9
$TDUSRTIMER
 40
0.0000000116
  9
$USRTIMER
 70
     1
  9
$ANGBASE
 50
0.0
  9
$ANGDIR
 70
     0
  9
$PDMODE
 70
     0
  9
$PDSIZE
 40
0.0
  9
$PLINEWID
 40
0.0
  9
$SPLFRAME
 70
     0
  9
$SPLINETYPE
 70
     6
  9
$SPLINESEGS
 70
     8
  9
$HANDSEED
  5
32C
  9
$SURFTAB1
 70
     6
  9
$SURFTAB2
 70
     6
  9
$SURFTYPE
 70
     6
  9
$SURFU
 70
     6
  9
$SURFV
 70
     6
  9
$UCSBASE
  2

  9
$UCSNAME
  2

  9
$UCSORG
 10
0.0
 20
0.0
 30
0.0
  9
$UCSXDIR
 10
1.0
 20
0.0
 30
0.0
  9
$UCSYDIR
 10
0.0
 20
1.0
 30
0.0
  9
$UCSORTHOREF
  2

  9
$UCSORTHOVIEW
 70
     0
  9
$UCSORGTOP
 10
0.0
 20
0.0
 30
0.0
  9
$UCSORGBOTTOM
 10
0.0
 20
0.0
 30
0.0
  9
$UCSORGLEFT
 10
0.0
 20
0.0
 30
0.0
  9
$UCSORGRIGHT
 10
0.0
 20
0.0
 30
0.0
  9
$UCSORGFRONT
 10
0.0
 20
0.0
 30
0.0
  9
$UCSORGBACK
 10
0.0
 20
0.0
 30
0.0
  9
$PUCSBASE
  2

  9
$PUCSNAME
  2

  9
$PUCSORG
 10
0.0
 20
0.0
 30
0.0
  9
$PUCSXDIR
 10
1.0
 20
0.0
 30
0.0
  9
$PUCSYDIR
 10
0.0
 20
1.0
 30
0.0
  9
$PUCSORTHOREF
  2

  9
$PUCSORTHOVIEW
 70
     0
  9
$PUCSORGTOP
 10
0.0
 20
0.0
 30
0.0
  9
$PUCSORGBOTTOM
 10
0.0
 20
0.0
 30
0.0
  9
$PUCSORGLEFT
 10
0.0
 20
0.0
 30
0.0
  9
$PUCSORGRIGHT
 10
0.0
 20
0.0
 30
0.0
  9
$PUCSORGFRONT
 10
0.0
 20
0.0
 30
0.0
  9
$PUCSORGBACK
 10
0.0
 20
0.0
 30
0.0
  9
$USERI1
 70
     0
  9
$USERI2
 70
     0
  9
$USERI3
 70
     0
  9
$USERI4
 70
     0
  9
$USERI5
 70
     0
  9
$USERR1
 40
18.1
  9
$USERR2
 40
0.0
  9
$USERR3
 40
0.0
  9
$USERR4
 40
0.0
  9
$USERR5
 40
0.0
  9
$WORLDVIEW
 70
     1
  9
$SHADEDGE
 70
     3
  9
$SHADEDIF
 70
    70
  9
$TILEMODE
 70
     1
  9
$MAXACTVP
 70
    64
  9
$PINSBASE
 10
0.0
 20
0.0
 30
0.0
  9
$PLIMCHECK
 70
     0
  9
$PEXTMIN
 10
1.00000000000000E+20
 20
1.00000000000000E+20
 30
1.00000000000000E+20
  9
$PEXTMAX
 10
-1.00000000000000E+20
 20
-1.00000000000000E+20
 30
-1.00000000000000E+20
  9
$PLIMMIN
 10
0.0
 20
0.0
  9
$PLIMMAX
 10
12.0
 20
9.0
  9
$UNITMODE
 70
     0
  9
$VISRETAIN
 70
     1
  9
$PLINEGEN
 70
     0
  9
$PSLTSCALE
 70
     1
  9
$TREEDEPTH
 70
  3020
  9
$CMLSTYLE
  2
Standard
  9
$CMLJUST
 70
     0
  9
$CMLSCALE
 40
1.0
  9
$PROXYGRAPHICS
 70
     1
  9
$MEASUREMENT
 70
     1
  9
$CELWEIGHT
370
    -1
  9
$ENDCAPS
280
     0
  9
$JOINSTYLE
280
     0
  9
$LWDISPLAY
290
     0
  9
$INSUNITS
 70
     4
  9
$HYPERLINKBASE
  1

  9
$STYLESHEET
  1

  9
$XEDIT
290
     1
  9
$CEPSNTYPE
380
     0
  9
$PSTYLEMODE
290
     1
  9
$FINGERPRINTGUID
  2
{4F894E47-BF86-4CE8-B6BB-E48753B1FA0B}
  9
$VERSIONGUID
  2
{FAEB1C32-E019-11D5-929B-00C0DF256EC4}
  9
$EXTNAMES
290
     1
  9
$PSVPSCALE
 40
0.0
  9
$OLESTARTUP
290
     0
  9
$SORTENTS
280
   127
  9
$INDEXCTL
280
     0
  9
$HIDETEXT
280
     1
  9
$XCLIPFRAME
290
     0
  9
$HALOGAP
280
     0
  9
$OBSCOLOR
 70
   257
  9
$OBSLTYPE
280
     0
  9
$INTERSECTIONDISPLAY
280
     0
  9
$INTERSECTIONCOLOR
 70
   257
  9
$DIMASSOC
280
     2
  9
$PROJECTNAME
  1

  0
ENDSEC
  0
SECTION
  2
CLASSES
  0
CLASS
  1
ACDBDICTIONARYWDFLT
  2
AcDbDictionaryWithDefault
  3
ObjectDBX Classes
 90
        0
 91
        4
280
     0
281
     0
  0
CLASS
  1
VISUALSTYLE
  2
AcDbVisualStyle
  3
ObjectDBX Classes
 90
     4095
 91
        4
280
     0
281
     0
  0
CLASS
  1
MATERIAL
  2
AcDbMaterial
  3
ObjectDBX Classes
 90
     1153
 91
        4
280
     0
281
     0
  0
ENDSEC
  0
SECTION
  2
TABLES
  0
TABLE
  2
VPORT
  5
8
330
0
100
AcDbSymbolTable
 70
     1
  0
VPORT
  5
29
330
8
100
AcDbSymbolTableRecord
100
AcDbViewportTableRecord
  2
*Active
 70
     0
 10
0.0
 20
0.0
 11
1.0
 21
1.0
 12
-266.9999999999899
 22
-162.0000000000051
 13
0.0
 23
0.0
 14
0.5
 24
0.5
 15
0.5
 25
0.5
 16
0.0
 26
0.0
 36
1.0
 17
0.0
 27
0.0
 37
0.0
 40
231.0000000000001
 41
1.60267857142857
 42
50.0
 43
0.0
 44
0.0
 50
0.0
 51
0.0
 71
     0
 72
   100
 73
     1
 74
     3
 75
     0
 76
     0
 77
     0
 78
     0
281
     0
 65
     1
110
0.0
120
0.0
130
0.0
111
1.0
121
0.0
131
0.0
112
0.0
122
1.0
132
0.0
 79
     0
146
0.0
  0
ENDTAB
  0
TABLE
  2
LTYPE
  5
5
330
0
100
AcDbSymbolTable
 70
     8
  0
LTYPE
  5
14
330
5
100
AcDbSymbolTableRecord
100
AcDbLinetypeTableRecord
  2
ByBlock
 70
     0
  3

 72
    65
 73
     0
 40
0.0
  0
LTYPE
  5
15
330
5
100
AcDbSymbolTableRecord
100
AcDbLinetypeTableRecord
  2
ByLayer
 70
     0
  3

 72
    65
 73
     0
 40
0.0
  0
LTYPE
  5
16
330
5
100
AcDbSymbolTableRecord
100
AcDbLinetypeTableRecord
  2
Continuous
 70
     0
  3
Solid line
 72
    65
 73
     0
 40
0.0
  0
LTYPE
  5
3F
330
5
100
AcDbSymbolTableRecord
100
AcDbLinetypeTableRecord
  2
DASHED
 70
     0
  3
Dashed
 72
    65
 73
     2
 40
15.0
 49
7.0
 74
     0
 49
-8.0
 74
     0
  0
LTYPE
  5
40
330
5
100
AcDbSymbolTableRecord
100
AcDbLinetypeTableRecord
  2
DOTTED
 70
     0
  3
Dotted
 72
    65
 73
     2
 40
1.0
 49
0.0
 74
     0
 49
-1.0
 74
     0
  0
LTYPE
  5
41
330
5
100
AcDbSymbolTableRecord
100
AcDbLinetypeTableRecord
  2
DOT_CENTER
 70
     0
  3
Dot_Center
 72
    65
 73
     4
 40
14.0
 49
12.0
 74
     0
 49
-1.0
 74
     0
 49
0.0
 74
     0
 49
-1.0
 74
     0
  0
LTYPE
  5
42
330
5
100
AcDbSymbolTableRecord
100
AcDbLinetypeTableRecord
  2
LONG_DASHED
 70
     0
  3
Long_Dashed
 72
    65
 73
     2
 40
15.0
 49
10.0
 74
     0
 49
-5.0
 74
     0
  0
LTYPE
  5
43
330
5
100
AcDbSymbolTableRecord
100
AcDbLinetypeTableRecord
  2
DASH_CENTER
 70
     0
  3
Dash_Center
 72
    65
 73
     4
 40
14.0
 49
11.0
 74
     0
 49
-1.0
 74
     0
 49
1.0
 74
     0
 49
-1.0
 74
     0
  0
LTYPE
  5
44
330
5
100
AcDbSymbolTableRecord
100
AcDbLinetypeTableRecord
  2
PHANTOM
 70
     0
  3
Phantom
 72
    65
 73
     6
 40
13.0
 49
10.0
 74
     0
 49
-1.0
 74
     0
 49
0.0
 74
     0
 49
-1.0
 74
     0
 49
0.0
 74
     0
 49
-1.0
 74
     0
  0
LTYPE
  5
45
330
5
100
AcDbSymbolTableRecord
100
AcDbLinetypeTableRecord
  2
CENTER_DASH_DASH
 70
     0
  3
Center_Dash_Dash
 72
    65
 73
     6
 40
14.0
 49
9.0
 74
     0
 49
-1.0
 74
     0
 49
1.0
 74
     0
 49
-1.0
 74
     0
 49
1.0
 74
     0
 49
-1.0
 74
     0
  0
ENDTAB
  0
TABLE
  2
LAYER
  5
2
330
0
100
AcDbSymbolTable
 70
     2
  0
LAYER
  5
10
330
2
100
AcDbSymbolTableRecord
100
AcDbLayerTableRecord
  2
0
 70
     0
 62
     7
  6
Continuous
370
    -3
390
F
  0
LAYER
  5
46
330
2
100
AcDbSymbolTableRecord
100
AcDbLayerTableRecord
  2
1
 70
     0
 62
     7
  6
Continuous
370
    -3
390
F
  0
ENDTAB
  0
TABLE
  2
STYLE
  5
3
330
0
100
AcDbSymbolTable
 70
     5
  0
STYLE
  5
11
330
3
100
AcDbSymbolTableRecord
100
AcDbTextStyleTableRecord
  2
Standard
 70
     0
 40
0.0
 41
1.0
 50
0.0
 71
     0
 42
0.2
  3
txt
  4

  0
STYLE
  5
E1
330
3
100
AcDbSymbolTableRecord
100
AcDbTextStyleTableRecord
  2
CONVERTER_11
 70
     0
 40
0.0
 41
0.9
 50
0.0
 71
     0
 42
0.2
  3
txt.shx
  4

  0
STYLE
  5
2C7
330
3
100
AcDbSymbolTableRecord
100
AcDbTextStyleTableRecord
  2
CONVERTER_12
 70
     0
 40
0.0
 41
0.81
 50
0.0
 71
     0
 42
0.2
  3
txt.shx
  4

  0
STYLE
  5
2DD
330
3
100
AcDbSymbolTableRecord
100
AcDbTextStyleTableRecord
  2
CONVERTER_13
 70
     0
 40
0.0
 41
0.72
 50
0.0
 71
     0
 42
0.2
  3
txt.shx
  4

  0
STYLE
  5
2E0
330
3
100
AcDbSymbolTableRecord
100
AcDbTextStyleTableRecord
  2
CONVERTER_14
 70
     0
 40
0.0
 41
0.855
 50
0.0
 71
     0
 42
0.2
  3
txt.shx
  4

  0
ENDTAB
  0
TABLE
  2
VIEW
  5
6
330
0
100
AcDbSymbolTable
 70
     0
  0
ENDTAB
  0
TABLE
  2
UCS
  5
7
330
0
100
AcDbSymbolTable
 70
     0
  0
ENDTAB
  0
TABLE
  2
APPID
  5
9
330
0
100
AcDbSymbolTable
 70
     1
  0
APPID
  5
12
330
9
100
AcDbSymbolTableRecord
100
AcDbRegAppTableRecord
  2
ACAD
 70
     0
  0
ENDTAB
  0
TABLE
  2
DIMSTYLE
  5
A
330
0
100
AcDbSymbolTable
 70
     4
100
AcDbDimStyleTable
  0
DIMSTYLE
105
27
330
A
100
AcDbSymbolTableRecord
100
AcDbDimStyleTableRecord
  2
Standard
 70
     0
178
     0
340
11
  0
DIMSTYLE
105
159
102
{ACAD_REACTORS
330
15A
102
}
330
A
100
AcDbSymbolTableRecord
100
AcDbDimStyleTableRecord
  2
ME10_DIM_10
 70
     0
 41
3.5
 42
0.0
 44
1.5
 73
     0
 74
     0
 77
     1
 78
     8
140
3.5
147
1.5
172
     1
173
     1
174
     1
175
     1
176
     2
177
     2
271
     1
178
     3
271
     1
340
E1
  0
DIMSTYLE
105
1BE
102
{ACAD_REACTORS
330
1BF
102
}
330
A
100
AcDbSymbolTableRecord
100
AcDbDimStyleTableRecord
  2
ME10_DIM_11
 70
     0
 41
3.5
 42
0.0
 44
1.5
 73
     0
 74
     0
 77
     1
 78
     8
140
3.5
147
1.5
172
     1
173
     1
174
     1
175
     1
176
     2
177
     2
271
     1
178
     3
271
     1
340
E1
  0
DIMSTYLE
105
1C9
102
{ACAD_REACTORS
330
1CA
102
}
330
A
100
AcDbSymbolTableRecord
100
AcDbDimStyleTableRecord
  2
ME10_DIM_12
 70
     0
 41
3.5
 42
0.0
 44
1.5
 73
     0
 74
     0
 77
     1
 78
     8
140
3.5
147
1.5
172
     1
173
     1
174
     1
175
     1
176
     2
177
     2
271
     1
178
     3
271
     1
340
E1
  0
ENDTAB
  0
TABLE
  2
BLOCK_RECORD
  5
1
330
0
100
AcDbSymbolTable
 70
    20
  0
BLOCK_RECORD
  5
1F
330
1
100
AcDbSymbolTableRecord
100
AcDbBlockTableRecord
  2
*Model_Space
340
22
  0
BLOCK_RECORD
  5
1B
330
1
100
AcDbSymbolTableRecord
100
AcDbBlockTableRecord
  2
*Paper_Space
340
1E
  0
BLOCK_RECORD
  5
23
330
1
100
AcDbSymbolTableRecord
100
AcDbBlockTableRecord
  2
*Paper_Space0
340
26
  0
BLOCK_RECORD
  5
47
330
1
100
AcDbSymbolTableRecord
100
AcDbBlockTableRecord
  2
CF_1000_10_LOC10-select__1
340
0
102
{BLKREFS
331
4B
102
}
  0
BLOCK_RECORD
  5
4A
330
1
100
AcDbSymbolTableRecord
100
AcDbBlockTableRecord
  2
Allg1
340
0
102
{BLKREFS
331
7D
102
}
  0
BLOCK_RECORD
  5
4E
330
1
100
AcDbSymbolTableRecord
100
AcDbBlockTableRecord
  2
CF_1000_10_LOC10-select__2
340
0
102
{BLKREFS
331
52
102
}
  0
BLOCK_RECORD
  5
51
330
1
100
AcDbSymbolTableRecord
100
AcDbBlockTableRecord
  2
Drfsicht1
340
0
102
{BLKREFS
331
7E
102
}
  0
BLOCK_RECORD
  5
55
330
1
100
AcDbSymbolTableRecord
100
AcDbBlockTableRecord
  2
CF_1000_10_LOC10-select__3
340
0
102
{BLKREFS
331
59
102
}
  0
BLOCK_RECORD
  5
58
330
1
100
AcDbSymbolTableRecord
100
AcDbBlockTableRecord
  2
Rckans1
340
0
102
{BLKREFS
331
7F
102
}
  0
BLOCK_RECORD
  5
5C
330
1
100
AcDbSymbolTableRecord
100
AcDbBlockTableRecord
  2
CF_1000_10_LOC10-select__4
340
0
102
{BLKREFS
331
60
102
}
  0
BLOCK_RECORD
  5
5F
330
1
100
AcDbSymbolTableRecord
100
AcDbBlockTableRecord
  2
SA_Links1
340
0
102
{BLKREFS
331
80
102
}
  0
BLOCK_RECORD
  5
63
330
1
100
AcDbSymbolTableRecord
100
AcDbBlockTableRecord
  2
CF_1000_10_LOC10-select__5
340
0
102
{BLKREFS
331
67
102
}
  0
BLOCK_RECORD
  5
66
330
1
100
AcDbSymbolTableRecord
100
AcDbBlockTableRecord
  2
SA_Rechts1
340
0
102
{BLKREFS
331
81
102
}
  0
BLOCK_RECORD
  5
6A
330
1
100
AcDbSymbolTableRecord
100
AcDbBlockTableRecord
  2
CF_1000_10_LOC10-select__6
340
0
102
{BLKREFS
331
6E
102
}
  0
BLOCK_RECORD
  5
6D
330
1
100
AcDbSymbolTableRecord
100
AcDbBlockTableRecord
  2
Vordans1
340
0
102
{BLKREFS
331
82
102
}
  0
BLOCK_RECORD
  5
71
330
1
100
AcDbSymbolTableRecord
100
AcDbBlockTableRecord
  2
_rahmen
340
0
102
{BLKREFS
331
78
102
}
  0
BLOCK_RECORD
  5
74
330
1
100
AcDbSymbolTableRecord
100
AcDbBlockTableRecord
  2
_punkt
340
0
102
{BLKREFS
331
79
102
}
  0
BLOCK_RECORD
  5
77
330
1
100
AcDbSymbolTableRecord
100
AcDbBlockTableRecord
  2
A4I_CS
340
0
102
{BLKREFS
331
83
102
}
  0
BLOCK_RECORD
  5
7C
330
1
100
AcDbSymbolTableRecord
100
AcDbBlockTableRecord
  2
1
340
0
102
{BLKREFS
331
86
102
}
  0
BLOCK_RECORD
  5
150
330
1
100
AcDbSymbolTableRecord
100
AcDbBlockTableRecord
  2
*D17
340
0
  0
BLOCK_RECORD
  5
1B5
330
1
100
AcDbSymbolTableRecord
100
AcDbBlockTableRecord
  2
*D18
340
0
  0
BLOCK_RECORD
  5
1C0
330
1
100
AcDbSymbolTableRecord
100
AcDbBlockTableRecord
  2
*D19
340
0
  0
ENDTAB
  0
ENDSEC
  0
SECTION
  2
BLOCKS
  0
BLOCK
  5
20
330
1F
100
AcDbEntity
  8
0
100
AcDbBlockBegin
  2
*Model_Space
 70
     0
 10
0.0
 20
0.0
 30
0.0
  3
*Model_Space
  1

  0
ENDBLK
  5
21
330
1F
100
AcDbEntity
  8
0
100
AcDbBlockEnd
  0
BLOCK
  5
1C
330
1B
100
AcDbEntity
 67
     1
  8
0
100
AcDbBlockBegin
  2
*Paper_Space
 70
     0
 10
0.0
 20
0.0
 30
0.0
  3
*Paper_Space
  1

  0
ENDBLK
  5
1D
330
1B
100
AcDbEntity
 67
     1
  8
0
100
AcDbBlockEnd
  0
BLOCK
  5
24
330
23
100
AcDbEntity
  8
0
100
AcDbBlockBegin
  2
*Paper_Space0
 70
     0
 10
0.0
 20
0.0
 30
0.0
  3
*Paper_Space0
  1

  0
ENDBLK
  5
25
330
23
100
AcDbEntity
  8
0
100
AcDbBlockEnd
  0
BLOCK
  5
48
330
47
100
AcDbEntity
  8
0
100
AcDbBlockBegin
  2
CF_1000_10_LOC10-select__1
 70
     0
 10
-178.1423048453582
 20
-227.9097040297731
 30
0.0
  3
CF_1000_10_LOC10-select__1
  1

  0
LINE
  5
87
330
47
100
AcDbEntity
  8
0
  6
Continuous
 62
     7
100
AcDbLine
 10
-160.9538475772384
 20
-210.5891959540843
 30
0.0
 11
-160.9538475772384
 21
-227.9097040297731
 31
0.0
  0
LINE
  5
88
330
47
100
AcDbEntity
  8
0
  6
Continuous
 62
     7
100
AcDbLine
 10
-162.6858983848072
 20
-213.5532975692221
 30
0.0
 11
-162.6858983848072
 21
-227.4097040297731
 31
0.0
  0
LINE
  5
89
330
47
100
AcDbEntity
  8
0
  6
Continuous
 62
     7
100
AcDbLine
 10
-166.4198729810228
 20
-222.9831668493371
 30
0.0
 11
-166.4198729810228
 21
-209.9927857925705
 31
0.0
  0
LINE
  5
8A
330
47
100
AcDbEntity
  8
0
  6
Continuous
 62
     7
100
AcDbLine
 10
-158.0538475772383
 20
-217.6040017247383
 30
0.0
 11
-158.0538475772383
 21
-205.4796460717561
 31
0.0
  0
LINE
  5
8B
330
47
100
AcDbEntity
  8
0
  6
Continuous
 62
     7
100
AcDbLine
 10
-175.6423048453582
 20
-166.3386299203786
 30
0.0
 11
-178.1423048453582
 21
-168.5036934298397
 31
0.0
  0
LINE
  5
8C
330
47
100
AcDbEntity
  8
0
  6
Continuous
 62
     7
100
AcDbLine
 10
-178.1423048453582
 20
-169.7312188859494
 30
0.0
 11
-178.1423048453582
 21
-168.5036934298397
 31
0.0
  0
LINE
  5
8D
330
47
100
AcDbEntity
  8
0
  6
Continuous
 62
     7
100
AcDbLine
 10
-175.0801270188672
 20
-207.4927857925705
 30
0.0
 11
-175.0801270188672
 21
-220.4831668493371
 31
0.0
  0
LINE
  5
8E
330
47
100
AcDbEntity
  8
0
  6
Continuous
 62
     7
100
AcDbLine
 10
-178.1423048453582
 20
-177.6684728191432
 30
0.0
 11
-175.699053767818
 21
-175.5525553181696
 31
0.0
  0
LINE
  5
8F
330
47
100
AcDbEntity
  8
0
  6
Continuous
 62
     7
100
AcDbLine
 10
-178.1423048453582
 20
-189.2883031206662
 30
0.0
 11
-178.1423048453582
 21
-177.6684728191432
 31
0.0
  0
LINE
  5
90
330
47
100
AcDbEntity
  8
0
  6
Continuous
 62
     7
100
AcDbLine
 10
-169.6141016150828
 20
-225.4097040297731
 30
0.0
 11
-168.6141016150828
 21
-224.5436786259887
 31
0.0
  0
LINE
  5
91
330
47
100
AcDbEntity
  8
0
  6
Continuous
 62
     7
100
AcDbLine
 10
-168.5849364904839
 20
-222.3581668493371
 30
0.0
 11
-166.4198729810228
 21
-222.9831668493371
 31
0.0
  0
LINE
  5
92
330
47
100
AcDbEntity
  8
0
  6
Continuous
 62
     7
100
AcDbLine
 10
-159.0538475772383
 20
-226.2642557625827
 30
0.0
 11
-159.0538475772383
 21
-218.4700271285227
 31
0.0
  0
LINE
  5
93
330
47
100
AcDbEntity
  8
0
  6
Continuous
 62
     7
100
AcDbLine
 10
-159.0538475772383
 20
-218.4700271285227
 30
0.0
 11
-158.0538475772383
 21
-217.6040017247383
 31
0.0
  0
LINE
  5
94
330
47
100
AcDbEntity
  8
0
  6
Continuous
 62
     7
100
AcDbLine
 10
-164.4198729810228
 20
-221.2511160417682
 30
0.0
 11
-166.4198729810228
 21
-222.9831668493371
 31
0.0
  0
LINE
  5
95
330
47
100
AcDbEntity
  8
0
  6
Continuous
 62
     7
100
AcDbLine
 10
-164.4198729810228
 20
-212.5908620039239
 30
0.0
 11
-164.4198729810228
 21
-221.2511160417682
 31
0.0
  0
LINE
  5
96
330
47
100
AcDbEntity
  8
0
  6
Continuous
 62
     7
100
AcDbLine
 10
-169.6141016150828
 20
-225.4097040297731
 30
0.0
 11
-169.6141016150828
 21
-215.0217544832103
 31
0.0
  0
LINE
  5
97
330
47
100
AcDbEntity
  8
0
  6
Continuous
 62
     7
100
AcDbLine
 10
-171.3461524226516
 20
-224.9097040297731
 30
0.0
 11
-171.3461524226516
 21
-219.7494499919287
 31
0.0
  0
LINE
  5
98
330
47
100
AcDbEntity
  8
0
  6
Continuous
 62
     7
100
AcDbLine
 10
-170.9150635094061
 20
-214.3306015168324
 30
0.0
 11
-170.9150635094061
 21
-219.3761160417682
 31
0.0
  0
LINE
  5
99
330
47
100
AcDbEntity
  8
0
  6
Continuous
 62
     7
100
AcDbLine
 10
-168.6141016150828
 20
-216.7993756045799
 30
0.0
 11
-168.6141016150828
 21
-224.5436786259887
 31
0.0
  0
LINE
  5
9A
330
47
100
AcDbEntity
  8
0
  6
Continuous
 62
     7
100
AcDbLine
 10
-168.5849364904839
 20
-222.3581668493371
 30
0.0
 11
-168.5849364904839
 21
-217.1620144266305
 31
0.0
  0
LINE
  5
9B
330
47
100
AcDbEntity
  8
0
  6
Continuous
 62
     7
100
AcDbLine
 10
-171.3461524226516
 20
-224.9097040297731
 30
0.0
 11
-169.6141016150828
 21
-225.4097040297731
 31
0.0
  0
LINE
  5
9C
330
47
100
AcDbEntity
  8
0
  6
Continuous
 62
     7
100
AcDbLine
 10
-160.9538475772384
 20
-227.9097040297731
 30
0.0
 11
-162.6858983848072
 21
-227.4097040297731
 31
0.0
  0
LINE
  5
9D
330
47
100
AcDbEntity
  8
0
  6
Continuous
 62
     7
100
AcDbLine
 10
-162.6858983848072
 20
-226.2550034913938
 30
0.0
 11
-168.6141016150828
 21
-224.5436786259887
 31
0.0
  0
LINE
  5
9E
330
47
100
AcDbEntity
  8
0
  6
Continuous
 62
     7
100
AcDbLine
 10
-159.0538475772383
 20
-226.2642557625827
 30
0.0
 11
-160.9538475772384
 21
-227.9097040297731
 31
0.0
  0
LINE
  5
9F
330
47
100
AcDbEntity
  8
0
  6
Continuous
 62
     7
100
AcDbLine
 10
-175.0801270188672
 20
-220.4831668493371
 30
0.0
 11
-172.9150635094061
 21
-221.1081668493371
 31
0.0
  0
LINE
  5
A0
330
47
100
AcDbEntity
  8
0
  6
Continuous
 62
     7
100
AcDbLine
 10
-172.9150635094061
 20
-215.9120144266305
 30
0.0
 11
-172.9150635094061
 21
-221.1081668493371
 31
0.0
  0
LINE
  5
A1
330
47
100
AcDbEntity
  8
0
  6
Continuous
 62
     2
100
AcDbLine
 10
-171.0592886753581
 20
-214.304866276641
 30
0.0
 11
-172.9150635094061
 21
-215.9120144266305
 31
0.0
  0
LINE
  5
A2
330
47
100
AcDbEntity
  8
0
  6
Continuous
 62
     7
100
AcDbLine
 10
-172.9150635094061
 20
-221.1081668493371
 30
0.0
 11
-170.9150635094061
 21
-219.3761160417682
 31
0.0
  0
LINE
  5
A3
330
47
100
AcDbEntity
  8
0
  6
Continuous
 62
     7
100
AcDbLine
 10
-172.0801270188672
 20
-204.8947095812172
 30
0.0
 11
-175.0801270188672
 21
-207.4927857925705
 31
0.0
  0
LINE
  5
A4
330
47
100
AcDbEntity
  8
0
  6
Continuous
 62
     7
100
AcDbLine
 10
-172.9461524226516
 20
-190.7883031206662
 30
0.0
 11
-178.1423048453582
 21
-189.2883031206662
 31
0.0
  0
LINE
  5
A5
330
47
100
AcDbEntity
  8
0
  6
Continuous
 62
     7
100
AcDbLine
 10
-157.3576951545317
 20
-174.5036934298397
 30
0.0
 11
-154.8576951545317
 21
-172.3386299203786
 31
0.0
  0
LINE
  5
A6
330
47
100
AcDbEntity
  8
0
  6
Continuous
 62
     7
100
AcDbLine
 10
-155.3576951545317
 20
-184.0299728714685
 30
0.0
 11
-154.8576951545317
 21
-183.5969601695763
 31
0.0
  0
LINE
  5
A7
330
47
100
AcDbEntity
  8
0
  6
Continuous
 62
     7
100
AcDbLine
 10
-154.8576951545317
 20
-183.5969601695763
 30
0.0
 11
-154.8576951545317
 21
-181.5034093096821
 31
0.0
  0
LINE
  5
A8
330
47
100
AcDbEntity
  8
0
  6
Continuous
 62
     7
100
AcDbLine
 10
-157.3576951545317
 20
-183.6684728191432
 30
0.0
 11
-154.8576951545317
 21
-181.5034093096821
 31
0.0
  0
LINE
  5
A9
330
47
100
AcDbEntity
  8
0
  6
Continuous
 62
     7
100
AcDbLine
 10
-157.3576951545317
 20
-174.5036934298397
 30
0.0
 11
-157.3576951545317
 21
-175.7312188859494
 31
0.0
  0
LINE
  5
AA
330
47
100
AcDbEntity
  8
0
  6
Continuous
 62
     7
100
AcDbLine
 10
-157.3576951545317
 20
-175.7312188859494
 30
0.0
 11
-154.8576951545317
 21
-173.5661553764883
 31
0.0
  0
LINE
  5
AB
330
47
100
AcDbEntity
  8
0
  6
Continuous
 62
     7
100
AcDbLine
 10
-155.3576951545317
 20
-190.958176101744
 30
0.0
 11
-155.3576951545317
 21
-184.0299728714685
 31
0.0
  0
LINE
  5
AC
330
47
100
AcDbEntity
  8
0
  6
Continuous
 62
     7
100
AcDbLine
 10
-154.8576951545317
 20
-190.5251633998518
 30
0.0
 11
-154.8576951545317
 21
-193.1232396112051
 31
0.0
  0
LINE
  5
AD
330
47
100
AcDbEntity
  8
0
  6
Continuous
 62
     7
100
AcDbLine
 10
-157.3576951545317
 20
-183.6684728191432
 30
0.0
 11
-157.3576951545317
 21
-195.2883031206662
 31
0.0
  0
LINE
  5
AE
330
47
100
AcDbEntity
  8
0
  6
Continuous
 62
     7
100
AcDbLine
 10
-154.8576951545317
 20
-173.5661553764883
 30
0.0
 11
-154.8576951545317
 21
-172.3386299203786
 31
0.0
  0
LINE
  5
AF
330
47
100
AcDbEntity
  8
0
  6
Continuous
 62
     7
100
AcDbLine
 10
-154.8576951545317
 20
-190.5251633998518
 30
0.0
 11
-155.3576951545317
 21
-190.958176101744
 31
0.0
  0
LINE
  5
B0
330
47
100
AcDbEntity
  8
0
  6
Continuous
 62
     7
100
AcDbLine
 10
-163.4198729810228
 20
-207.3947095812172
 30
0.0
 11
-163.4198729810228
 21
-211.7248366001394
 31
0.0
  0
LINE
  5
B1
330
47
100
AcDbEntity
  8
0
  6
Continuous
 62
     7
100
AcDbLine
 10
-163.4198729810228
 20
-211.7248366001394
 30
0.0
 11
-164.4198729810228
 21
-212.5908620039239
 31
0.0
  0
LINE
  5
B2
330
47
100
AcDbEntity
  8
0
  6
Continuous
 62
     7
100
AcDbLine
 10
-166.4198729810228
 20
-209.9927857925705
 30
0.0
 11
-163.4198729810228
 21
-207.3947095812172
 31
0.0
  0
LINE
  5
B3
330
47
100
AcDbEntity
  8
0
  6
Continuous
 62
     7
100
AcDbLine
 10
-154.8576951545317
 20
-172.3386299203786
 30
0.0
 11
-175.6423048453582
 21
-166.3386299203786
 31
0.0
  0
LINE
  5
B4
330
47
100
AcDbEntity
  8
0
  6
Continuous
 62
     7
100
AcDbLine
 10
-170.4522483410112
 20
-198.0303421384674
 30
0.0
 11
-170.3522483410092
 21
-197.9437395980872
 31
0.0
  0
LINE
  5
B5
330
47
100
AcDbEntity
  8
0
  6
Continuous
 62
     7
100
AcDbLine
 10
-165.2477516588828
 20
-204.0399772593142
 30
0.0
 11
-165.1477516588808
 21
-203.9533747189339
 31
0.0
  0
LINE
  5
B6
330
47
100
AcDbEntity
  8
0
  6
Continuous
 62
     7
100
AcDbLine
 10
-158.0538475772383
 20
-205.4796460717561
 30
0.0
 11
-160.0538475772383
 21
-204.9022958025665
 31
0.0
  0
LINE
  5
B7
330
47
100
AcDbEntity
  8
0
  6
Continuous
 62
     7
100
AcDbLine
 10
-167.8630857969433
 20
-204.8275037195531
 30
0.0
 11
-166.4097758436982
 21
-204.5776118419891
 31
0.0
  0
LINE
  5
B8
330
47
100
AcDbEntity
  8
0
  6
Continuous
 62
     7
100
AcDbLine
 10
-162.5538475772383
 20
-211.9748366001394
 30
0.0
 11
-160.9538475772384
 21
-210.5891959540843
 31
0.0
  0
LINE
  5
B9
330
47
100
AcDbEntity
  8
0
  6
Continuous
 62
     7
100
AcDbLine
 10
-160.0538475772383
 20
-207.211696879325
 30
0.0
 11
-158.0538475772383
 21
-205.4796460717561
 31
0.0
  0
LINE
  5
BA
330
47
100
AcDbEntity
  8
0
  6
Continuous
 62
     7
100
AcDbLine
 10
-171.6053165558419
 20
-200.5063478475134
 30
0.0
 11
-171.1503720320415
 21
-199.1036428710705
 31
0.0
  0
LINE
  5
BB
330
47
100
AcDbEntity
  8
0
  6
Continuous
 62
     7
100
AcDbLine
 10
-172.9461524226516
 20
-205.6447095812172
 30
0.0
 11
-172.9461524226516
 21
-190.7883031206662
 31
0.0
  0
LINE
  5
BC
330
47
100
AcDbEntity
  8
0
  6
Continuous
 62
     7
100
AcDbLine
 10
-163.4198729810228
 20
-211.7248366001394
 30
0.0
 11
-162.5538475772383
 21
-211.9748366001394
 31
0.0
  0
LINE
  5
BD
330
47
100
AcDbEntity
  8
0
  6
Continuous
 62
     7
100
AcDbLine
 10
-157.3576951545317
 20
-195.2883031206662
 30
0.0
 11
-162.5538475772383
 21
-193.7883031206662
 31
0.0
  0
LINE
  5
BE
330
47
100
AcDbEntity
  8
0
  6
Continuous
 62
     7
100
AcDbLine
 10
-162.5538475772383
 20
-193.7883031206662
 30
0.0
 11
-162.5538475772383
 21
-211.9748366001394
 31
0.0
  0
LINE
  5
BF
330
47
100
AcDbEntity
  8
0
  6
Continuous
 62
     7
100
AcDbLine
 10
-160.0538475772383
 20
-207.211696879325
 30
0.0
 11
-160.0538475772383
 21
-194.5099909571532
 31
0.0
  0
LINE
  5
C0
330
47
100
AcDbEntity
  8
0
  6
Continuous
 62
     7
100
AcDbLine
 10
-157.3576951545317
 20
-195.2883031206662
 30
0.0
 11
-154.8576951545317
 21
-193.1232396112051
 31
0.0
  0
LINE
  5
C1
330
47
100
AcDbEntity
  8
0
  6
Continuous
 62
     7
100
AcDbLine
 10
-155.3576951545317
 20
-190.3808258325544
 30
0.0
 11
-154.8576951545317
 21
-190.5251633998518
 31
0.0
  0
LINE
  5
C2
330
47
100
AcDbEntity
  8
0
  6
Continuous
 62
     7
100
AcDbLine
 10
-175.0801270188672
 20
-207.4927857925705
 30
0.0
 11
-166.4198729810228
 21
-209.9927857925705
 31
0.0
  0
LINE
  5
C3
330
47
100
AcDbEntity
  8
0
  6
Continuous
 62
     7
100
AcDbLine
 10
-172.0801270188672
 20
-204.8947095812172
 30
0.0
 11
-163.4198729810228
 21
-207.3947095812172
 31
0.0
  0
LINE
  5
C4
330
47
100
AcDbEntity
  8
0
  6
Continuous
 62
     7
100
AcDbLine
 10
-178.1423048453582
 20
-168.5036934298397
 30
0.0
 11
-157.3576951545317
 21
-174.5036934298397
 31
0.0
  0
SPLINE
  5
C5
330
47
100
AcDbEntity
  8
0
  6
Continuous
 62
     7
100
AcDbSpline
210
0.0
220
0.0
230
1.0
 70
     8
 71
     3
 72
     9
 73
     5
 74
     3
 42
0.000000001
 43
0.0000000001
 44
0.00000001
 40
0.0
 40
0.0
 40
0.0
 40
0.0
 40
0.6197817426079465
 40
1.291212970061989
 40
1.291212970061989
 40
1.291212970061989
 40
1.291212970061989
 10
-163.6442965573166
 20
-213.4259087412801
 30
0.0
 10
-163.5044911305467
 20
-213.2662819943536
 30
0.0
 10
-163.2132296144655
 20
-212.9337260028077
 30
0.0
 10
-163.1769874834185
 20
-212.4919801678512
 30
0.0
 10
-163.1581415712408
 20
-212.2622721654376
 30
0.0
 11
-163.6442965573166
 21
-213.4259087412801
 31
0.0
 11
-163.2836366585576
 21
-212.9218711945036
 31
0.0
 11
-163.1581415712408
 21
-212.2622721654376
 31
0.0
  0
SPLINE
  5
C6
330
47
100
AcDbEntity
  8
0
  6
Continuous
 62
     7
100
AcDbSpline
210
0.0
220
0.0
230
1.0
 70
     8
 71
     3
 72
     9
 73
     5
 74
     3
 42
0.000000001
 43
0.0000000001
 44
0.00000001
 40
0.0
 40
0.0
 40
0.0
 40
0.0
 40
0.8678648945807041
 40
1.70555067081561
 40
1.70555067081561
 40
1.70555067081561
 40
1.70555067081561
 10
-178.1423048453582
 20
-177.6684728191432
 30
0.0
 10
-177.855702109673
 20
-177.6075722319661
 30
0.0
 10
-177.2924629635209
 20
-177.4878887951126
 30
0.0
 10
-176.8288111324181
 20
-177.1469457031485
 30
0.0
 10
-176.6010872993872
 20
-176.9794905826386
 30
0.0
 11
-178.1423048453582
 21
-177.6684728191432
 31
0.0
 11
-177.308282346328
 21
-177.4284812592368
 31
0.0
 11
-176.6010872993872
 21
-176.9794905826386
 31
0.0
  0
SPLINE
  5
C7
330
47
100
AcDbEntity
  8
0
  6
Continuous
 62
     7
100
AcDbSpline
210
0.0
220
0.0
230
1.0
 70
     8
 71
     3
 72
    11
 73
     7
 74
     5
 42
0.000000001
 43
0.0000000001
 44
0.00000001
 40
0.0
 40
0.0
 40
0.0
 40
0.0
 40
1.775984831522685
 40
3.778497670357142
 40
6.020076484062562
 40
8.337641943509258
 40
8.337641943509258
 40
8.337641943509258
 40
8.337641943509258
 10
-176.6010872993872
 20
-176.9794905826386
 30
0.0
 10
-176.228517026846
 20
-176.4976957640031
 30
0.0
 10
-175.4358549162503
 20
-175.4726528806933
 30
0.0
 10
-175.5482056610249
 20
-173.3385495429677
 30
0.0
 10
-176.4171581279072
 20
-171.2830315707188
 30
0.0
 10
-177.5609017289566
 20
-170.2542055460954
 30
0.0
 10
-178.1423048453582
 20
-169.7312188859494
 30
0.0
 11
-176.6010872993872
 21
-176.9794905826386
 31
0.0
 11
-175.6740722489606
 21
-175.4646423286962
 31
0.0
 11
-175.651236716931
 21
-173.4622596895408
 31
0.0
 11
-176.5376282833827
 21
-171.4033799980344
 31
0.0
 11
-178.1423048453582
 21
-169.7312188859494
 31
0.0
  0
SPLINE
  5
C8
330
47
100
AcDbEntity
  8
0
  6
Continuous
 62
     7
100
AcDbSpline
210
0.0
220
0.0
230
1.0
 70
     8
 71
     3
 72
     9
 73
     5
 74
     3
 42
0.000000001
 43
0.0000000001
 44
0.00000001
 40
0.0
 40
0.0
 40
0.0
 40
0.0
 40
0.4307549103964912
 40
0.8510389199128141
 40
0.8510389199128141
 40
0.8510389199128141
 40
0.8510389199128141
 10
-164.4198729810228
 20
-213.7512250924086
 30
0.0
 10
-164.276281175638
 20
-213.7265471579162
 30
0.0
 10
-163.9925880375477
 20
-213.6777911479229
 30
0.0
 10
-163.7594375121547
 20
-213.5091780292425
 30
0.0
 10
-163.6442965573166
 20
-213.4259087412801
 30
0.0
 11
-164.4198729810228
 21
-213.7512250924086
 31
0.0
 11
-164.0020460630349
 21
-213.6464851250981
 31
0.0
 11
-163.6442965573166
 21
-213.4259087412801
 31
0.0
  0
SPLINE
  5
C9
330
47
100
AcDbEntity
  8
0
  6
Continuous
 62
     7
100
AcDbSpline
210
0.0
220
0.0
230
1.0
 70
     8
 71
     3
 72
     9
 73
     5
 74
     3
 42
0.000000001
 43
0.0000000001
 44
0.00000001
 40
0.0
 40
0.0
 40
0.0
 40
0.0
 40
0.673675807369367
 40
1.403492359136645
 40
1.403492359136645
 40
1.403492359136645
 40
1.403492359136645
 10
-172.3866341767149
 20
-214.6471920615844
 30
0.0
 10
-172.5385965971591
 20
-214.8206993952482
 30
0.0
 10
-172.8551852031302
 20
-215.1821732983632
 30
0.0
 10
-172.8945788222513
 20
-215.6623318152475
 30
0.0
 10
-172.9150635094061
 20
-215.9120144266305
 30
0.0
 11
-172.3866341767149
 21
-214.6471920615844
 31
0.0
 11
-172.7786558058009
 21
-215.1950589602544
 31
0.0
 11
-172.9150635094061
 21
-215.9120144266305
 31
0.0
  0
SPLINE
  5
CA
330
47
100
AcDbEntity
  8
0
  6
Continuous
 62
     7
100
AcDbSpline
210
0.0
220
0.0
230
1.0
 70
     8
 71
     3
 72
     9
 73
     5
 74
     3
 42
0.000000001
 43
0.0000000001
 44
0.00000001
 40
0.0
 40
0.0
 40
0.0
 40
0.0
 40
0.8678648945806847
 40
1.705550670815621
 40
1.705550670815621
 40
1.705550670815621
 40
1.705550670815621
 10
-157.3576951545317
 20
-175.7312188859494
 30
0.0
 10
-157.6442978902169
 20
-175.7921194731265
 30
0.0
 10
-158.2075370363689
 20
-175.9118029099799
 30
0.0
 10
-158.6711888674719
 20
-176.2527460019442
 30
0.0
 10
-158.8989127005027
 20
-176.4202011224541
 30
0.0
 11
-157.3576951545317
 21
-175.7312188859494
 31
0.0
 11
-158.1917176535619
 21
-175.9712104458559
 31
0.0
 11
-158.8989127005027
 21
-176.4202011224541
 31
0.0
  0
SPLINE
  5
CB
330
47
100
AcDbEntity
  8
0
  6
Continuous
 62
     7
100
AcDbSpline
210
0.0
220
0.0
230
1.0
 70
     8
 71
     3
 72
     9
 73
     5
 74
     3
 42
0.000000001
 43
0.0000000001
 44
0.00000001
 40
0.0
 40
0.0
 40
0.0
 40
0.0
 40
0.4684431460290815
 40
0.9681573480876935
 40
0.9681573480876935
 40
0.9681573480876935
 40
0.9681573480876935
 10
-163.4829227999745
 20
-213.2586384487088
 30
0.0
 10
-163.6264312921478
 20
-213.3258106452394
 30
0.0
 10
-163.923028232493
 20
-213.4646391186886
 30
0.0
 10
-164.2507298578957
 20
-213.4544257381185
 30
0.0
 10
-164.4198729810228
 20
-213.4491540939693
 30
0.0
 11
-163.4829227999745
 21
-213.2586384487088
 31
0.0
 11
-163.9207302299084
 21
-213.4252626871306
 31
0.0
 11
-164.4198729810228
 21
-213.4491540939693
 31
0.0
  0
SPLINE
  5
CC
330
47
100
AcDbEntity
  8
0
  6
Continuous
 62
     7
100
AcDbSpline
210
0.0
220
0.0
230
1.0
 70
     8
 71
     3
 72
     9
 73
     5
 74
     3
 42
0.000000001
 43
0.0000000001
 44
0.00000001
 40
0.0
 40
0.0
 40
0.0
 40
0.0
 40
0.916035488546352
 40
1.78797411476453
 40
1.78797411476453
 40
1.78797411476453
 40
1.78797411476453
 10
-163.0862381966799
 20
-211.8211486664151
 30
0.0
 10
-162.9707039144906
 20
-212.1061903161461
 30
0.0
 10
-162.7451970525374
 20
-212.6625520539332
 30
0.0
 10
-162.7053369103818
 20
-213.2613047486155
 30
0.0
 10
-162.6858983848072
 20
-213.5532975692221
 30
0.0
 11
-163.0862381966799
 21
-211.8211486664151
 31
0.0
 11
-162.788364575923
 21
-212.6874005491171
 31
0.0
 11
-162.6858983848072
 21
-213.5532975692221
 31
0.0
  0
SPLINE
  5
CD
330
47
100
AcDbEntity
  8
0
  6
Continuous
 62
     7
100
AcDbSpline
210
0.0
220
0.0
230
1.0
 70
     8
 71
     3
 72
    11
 73
     7
 74
     5
 42
0.000000001
 43
0.0000000001
 44
0.00000001
 40
0.0
 40
0.0
 40
0.0
 40
0.0
 40
2.317565459722552
 40
4.559144273308135
 40
5.656796606870783
 40
6.666295385702991
 40
6.666295385702991
 40
6.666295385702991
 40
6.666295385702991
 10
-154.8576951545317
 20
-181.5034093096821
 30
0.0
 10
-155.4387380484492
 20
-180.9824198983069
 30
0.0
 10
-156.5817730144244
 20
-179.9575228868823
 30
0.0
 10
-157.3352056172846
 20
-178.1615680741401
 30
0.0
 10
-157.5132733283959
 20
-176.7057117667176
 30
0.0
 10
-157.3697200650284
 20
-176.0136347283696
 30
0.0
 10
-157.300946232072
 20
-175.6820728774619
 30
0.0
 11
-154.8576951545317
 21
-181.5034093096821
 31
0.0
 11
-156.4623717165073
 21
-179.8312481975971
 31
0.0
 11
-157.348763282959
 21
-177.7723685060907
 31
0.0
 11
-157.4545160554339
 21
-176.6798223950588
 31
0.0
 11
-157.300946232072
 21
-175.6820728774619
 31
0.0
  0
SPLINE
  5
CE
330
47
100
AcDbEntity
  8
0
  6
Continuous
 62
     7
100
AcDbSpline
210
0.0
220
0.0
230
1.0
 70
     8
 71
     3
 72
    11
 73
     7
 74
     5
 42
0.000000001
 43
0.0000000001
 44
0.00000001
 40
0.0
 40
0.0
 40
0.0
 40
0.0
 40
1.77598483152272
 40
3.778497670357178
 40
6.020076484062544
 40
8.3376419435093
 40
8.3376419435093
 40
8.3376419435093
 40
8.3376419435093
 10
-158.8989127005027
 20
-176.4202011224541
 30
0.0
 10
-159.271482973044
 20
-176.9019959410896
 30
0.0
 10
-160.0641450836398
 20
-177.9270388243994
 30
0.0
 10
-159.9517943388651
 20
-180.0611421621248
 30
0.0
 10
-159.0828418719829
 20
-182.1166601343739
 30
0.0
 10
-157.9390982709334
 20
-183.1454861589973
 30
0.0
 10
-157.3576951545317
 20
-183.6684728191432
 30
0.0
 11
-158.8989127005027
 21
-176.4202011224541
 31
0.0
 11
-159.8259277509294
 21
-177.9350493763965
 31
0.0
 11
-159.848763282959
 21
-179.9374320155518
 31
0.0
 11
-158.9623717165073
 21
-181.9963117070582
 31
0.0
 11
-157.3576951545317
 21
-183.6684728191432
 31
0.0
  0
SPLINE
  5
CF
330
47
100
AcDbEntity
  8
0
  6
Continuous
 62
     7
100
AcDbSpline
210
0.0
220
0.0
230
1.0
 70
     8
 71
     3
 72
     9
 73
     5
 74
     3
 42
0.000000001
 43
0.0000000001
 44
0.00000001
 40
0.0
 40
0.0
 40
0.0
 40
0.0
 40
0.6567198650859031
 40
1.292434555125852
 40
1.292434555125852
 40
1.292434555125852
 40
1.292434555125852
 10
-171.1503720320415
 20
-199.1036428710705
 30
0.0
 10
-171.0693940413531
 20
-198.8974931971309
 30
0.0
 10
-170.9100281226475
 20
-198.4917875531316
 30
0.0
 10
-170.6031792622988
 20
-198.182481617254
 30
0.0
 10
-170.4522483410112
 20
-198.0303421384674
 30
0.0
 11
-171.1503720320415
 21
-199.1036428710705
 31
0.0
 11
-170.8693590998971
 21
-198.5100835101329
 31
0.0
 11
-170.4522483410112
 21
-198.0303421384674
 31
0.0
  0
SPLINE
  5
D0
330
47
100
AcDbEntity
  8
0
  6
Continuous
 62
     7
100
AcDbSpline
210
0.0
220
0.0
230
1.0
 70
     8
 71
     3
 72
    13
 73
     9
 74
     7
 42
0.000000001
 43
0.0000000001
 44
0.00000001
 40
0.0
 40
0.0
 40
0.0
 40
0.0
 40
1.004172438899285
 40
2.086472861252881
 40
3.177874206105705
 40
4.205221926077904
 40
5.126284849166039
 40
5.961934016601078
 40
5.961934016601078
 40
5.961934016601078
 40
5.961934016601078
 10
-166.6358669885602
 20
-202.7135553285027
 30
0.0
 10
-166.6771969975987
 20
-202.3780337687897
 30
0.0
 10
-166.7630726436138
 20
-201.6808859496443
 30
0.0
 10
-167.3340349752297
 20
-200.7552553599205
 30
0.0
 10
-168.1248943326179
 20
-200.0185476190361
 30
0.0
 10
-169.0565502375487
 20
-199.5920735096813
 30
0.0
 10
-170.0321243367259
 20
-199.5093107537578
 30
0.0
 10
-170.5437443876729
 20
-199.8198054340851
 30
0.0
 10
-170.7871165754885
 20
-199.9675044413145
 30
0.0
 11
-166.6358669885602
 21
-202.7135553285027
 31
0.0
 11
-166.8267967744697
 21
-201.7277013322756
 31
0.0
 11
-167.3687176791852
 21
-200.790847054633
 31
0.0
 11
-168.1741266218079
 21
-200.0543191642112
 31
0.0
 11
-169.1129212586844
 21
-199.6370566870285
 31
0.0
 11
-170.0334766242068
 21
-199.6064831636483
 31
0.0
 11
-170.7871165754885
 21
-199.9675044413145
 31
0.0
  0
SPLINE
  5
D1
330
47
100
AcDbEntity
  8
0
  6
Continuous
 62
     7
100
AcDbSpline
210
0.0
220
0.0
230
1.0
 70
     8
 71
     3
 72
    15
 73
    11
 74
     9
 42
0.000000001
 43
0.0000000001
 44
0.00000001
 40
0.0
 40
0.0
 40
0.0
 40
0.0
 40
1.180317128421559
 40
2.475661272481767
 40
3.918113647501335
 40
5.456111304515543
 40
6.994108961529822
 40
8.436561336549437
 40
9.73190548060964
 40
10.91222260903116
 40
10.91222260903116
 40
10.91222260903116
 40
10.91222260903116
 10
-170.3522483410092
 20
-197.9437395980872
 30
0.0
 10
-170.0100678877723
 20
-197.7334263579991
 30
0.0
 10
-169.2923600083236
 20
-197.2923039544062
 30
0.0
 10
-167.9199712174961
 20
-197.3795441116463
 30
0.0
 10
-166.5968811515552
 20
-197.9457503028597
 30
0.0
 10
-165.4403027283648
 20
-198.9483006462705
 30
0.0
 10
-164.6132607134301
 20
-200.2362378907027
 30
0.0
 10
-164.2418747852837
 20
-201.6266440421329
 30
0.0
 10
-164.3515849640874
 20
-202.9974195579964
 30
0.0
 10
-164.8907126127973
 20
-203.6447486501676
 30
0.0
 10
-165.1477516588808
 20
-203.9533747189339
 30
0.0
 11
-170.3522483410092
 21
-197.9437395980872
 31
0.0
 11
-169.2917388698619
 21
-197.4256004318009
 31
0.0
 11
-167.99652229334
 21
-197.4437796990833
 31
0.0
 11
-166.6637735473917
 21
-197.9955492538742
 31
0.0
 11
-165.4963868296275
 21
-198.9968709027124
 31
0.0
 11
-164.6721049490187
 21
-200.2953300566885
 31
0.0
 11
-164.3163873967442
 21
-201.6932334454909
 31
0.0
 11
-164.4834255279173
 21
-202.9777624364405
 31
0.0
 11
-165.1477516588808
 21
-203.9533747189339
 31
0.0
  0
SPLINE
  5
D2
330
47
100
AcDbEntity
  8
0
  6
Continuous
 62
     7
100
AcDbSpline
210
0.0
220
0.0
230
1.0
 70
     8
 71
     3
 72
    15
 73
    11
 74
     9
 42
0.000000001
 43
0.0000000001
 44
0.00000001
 40
0.0
 40
0.0
 40
0.0
 40
0.0
 40
0.8105930044135253
 40
1.700181807239162
 40
2.690798462118051
 40
3.747031667286968
 40
4.803264872455866
 40
5.793881527334801
 40
6.683470330160469
 40
7.494063334573915
 40
7.494063334573915
 40
7.494063334573915
 40
7.494063334573915
 10
-170.7871165754885
 20
-199.9675044413145
 30
0.0
 10
-170.9636403652391
 20
-200.1794560654142
 30
0.0
 10
-171.3338909408271
 20
-200.6240149249048
 30
0.0
 10
-171.4092353580553
 20
-201.5654068744759
 30
0.0
 10
-171.1541828567108
 20
-202.5202803351561
 30
0.0
 10
-170.5862045935664
 20
-203.4047823869168
 30
0.0
 10
-169.7919143494164
 20
-204.0932925139459
 30
0.0
 10
-168.8832707932101
 20
-204.4821395174296
 30
0.0
 10
-167.9407709127526
 20
-204.5420524481079
 30
0.0
 10
-167.4478788124729
 20
-204.2391078232064
 30
0.0
 10
-167.2128834244014
 20
-204.0946733851678
 30
0.0
 11
-170.7871165754885
 21
-199.9675044413145
 31
0.0
 11
-171.2433482969107
 21
-200.6375146220626
 31
0.0
 11
-171.3580631795207
 21
-201.5196760265939
 31
0.0
 11
-171.1137710710967
 21
-202.4796982803175
 31
0.0
 11
-170.54768835389
 21
-203.3714263448988
 31
0.0
 11
-169.7459754195538
 21
-204.0590926555467
 31
0.0
 11
-168.8306986808452
 21
-204.438025173895
 31
0.0
 11
-167.9411974844012
 21
-204.4505099430767
 31
0.0
 11
-167.2128834244014
 21
-204.0946733851678
 31
0.0
  0
SPLINE
  5
D3
330
47
100
AcDbEntity
  8
0
  6
Continuous
 62
     7
100
AcDbSpline
210
0.0
220
0.0
230
1.0
 70
     8
 71
     3
 72
     9
 73
     5
 74
     3
 42
0.000000001
 43
0.0000000001
 44
0.00000001
 40
0.0
 40
0.0
 40
0.0
 40
0.0
 40
0.6357146900398787
 40
1.29243455512577
 40
1.29243455512577
 40
1.29243455512577
 40
1.29243455512577
 10
-165.2477516588828
 20
-204.0399772593142
 30
0.0
 10
-165.4198922516927
 20
-204.1676259189751
 30
0.0
 10
-165.7698612866126
 20
-204.4271409660603
 30
0.0
 10
-166.1941722968986
 20
-204.5269143701707
 30
0.0
 10
-166.4097758436982
 20
-204.5776118419891
 30
0.0
 11
-165.2477516588828
 21
-204.0399772593142
 31
0.0
 11
-165.7821597274193
 21
-204.3842753643756
 31
0.0
 11
-166.4097758436982
 21
-204.5776118419891
 31
0.0
  0
SPLINE
  5
D4
330
47
100
AcDbEntity
  8
0
  6
Continuous
 62
     7
100
AcDbSpline
210
0.0
220
0.0
230
1.0
 70
     8
 71
     3
 72
     9
 73
     5
 74
     3
 42
0.000000001
 43
0.0000000001
 44
0.00000001
 40
0.0
 40
0.0
 40
0.0
 40
0.0
 40
0.7356177814836449
 40
1.53253823909424
 40
1.53253823909424
 40
1.53253823909424
 40
1.53253823909424
 10
-167.2128834244014
 20
-204.0946733851678
 30
0.0
 10
-167.0469486270208
 20
-203.9052127002735
 30
0.0
 10
-166.7012508797503
 20
-203.510502622864
 30
0.0
 10
-166.6582351661822
 20
-202.9861953233602
 30
0.0
 10
-166.6358669885602
 20
-202.7135553285027
 30
0.0
 11
-167.2128834244014
 21
-204.0946733851678
 31
0.0
 11
-166.7848168709498
 21
-203.4964321717665
 31
0.0
 11
-166.6358669885602
 21
-202.7135553285027
 31
0.0
  0
SPLINE
  5
D5
330
47
100
AcDbEntity
  8
0
  6
Continuous
 62
     7
100
AcDbSpline
210
0.0
220
0.0
230
1.0
 70
     8
 71
     3
 72
    11
 73
     7
 74
     5
 42
0.000000001
 43
0.0000000001
 44
0.00000001
 40
0.0
 40
0.0
 40
0.0
 40
0.0
 40
1.331487435600935
 40
2.834913013883152
 40
4.385581753803921
 40
5.825280521531239
 40
5.825280521531239
 40
5.825280521531239
 40
5.825280521531239
 10
-167.8630857969433
 20
-204.8275037195531
 30
0.0
 10
-168.3157903169716
 20
-204.8212969643256
 30
0.0
 10
-169.2796581676832
 20
-204.8080819460413
 30
0.0
 10
-170.5326469291597
 20
-203.9400091520201
 30
0.0
 10
-171.4905339170809
 20
-202.7296633479384
 30
0.0
 10
-171.6437220713338
 20
-201.7285859413003
 30
0.0
 10
-171.7174738010663
 20
-201.2466217979446
 30
0.0
 11
-167.8630857969433
 21
-204.8275037195531
 31
0.0
 11
-169.187246542021
 21
-204.6880149434234
 31
0.0
 11
-170.4654571468791
 21
-203.8965188069091
 31
0.0
 11
-171.3839786250569
 21
-202.6471622336427
 31
0.0
 11
-171.7174738010663
 21
-201.2466217979446
 31
0.0
  0
SPLINE
  5
D6
330
47
100
AcDbEntity
  8
0
  6
Continuous
 62
     7
100
AcDbSpline
210
0.0
220
0.0
230
1.0
 70
     8
 71
     3
 72
    15
 73
    11
 74
     9
 42
0.000000001
 43
0.0000000001
 44
0.00000001
 40
0.0
 40
0.0
 40
0.0
 40
0.0
 40
1.17607272914254
 40
2.38310732133708
 40
3.766957071392701
 40
5.295895871184535
 40
6.824834670976418
 40
8.208684421031984
 40
9.41571901322654
 40
10.5917917423691
 40
10.5917917423691
 40
10.5917917423691
 40
10.5917917423691
 10
-171.6053165558419
 20
-200.5063478475134
 30
0.0
 10
-171.4134336682952
 20
-200.1461583274016
 30
0.0
 10
-171.024616282985
 20
-199.4162967690926
 30
0.0
 10
-169.683628140731
 20
-199.0831212151801
 30
0.0
 10
-168.333212041838
 20
-199.4800042893929
 30
0.0
 10
-167.149859026618
 20
-200.4288198297576
 30
0.0
 10
-166.3798256156937
 20
-201.7355806473244
 30
0.0
 10
-166.1799298302781
 20
-203.1288435405785
 30
0.0
 10
-166.7012578432952
 20
-204.408481087009
 30
0.0
 10
-167.4791787849009
 20
-204.6890445593783
 30
0.0
 10
-167.8630857969433
 20
-204.8275037195531
 30
0.0
 11
-171.6053165558419
 21
-200.5063478475134
 31
0.0
 11
-170.9177491816654
 21
-199.5521999613576
 31
0.0
 11
-169.7624309645228
 21
-199.2026683659634
 31
0.0
 11
-168.4211167919442
 21
-199.5431333820751
 31
0.0
 11
-167.2209958009881
 21
-200.4904260835053
 31
0.0
 11
-166.4548650348297
 21
-201.8135653446044
 31
0.0
 11
-166.3095083702808
 21
-203.1897599445166
 31
0.0
 11
-166.8205003910574
 21
-204.2832953457465
 31
0.0
 11
-167.8630857969433
 21
-204.8275037195531
 31
0.0
  0
SPLINE
  5
D7
330
47
100
AcDbEntity
  8
0
  6
Continuous
 62
     7
100
AcDbSpline
210
0.0
220
0.0
230
1.0
 70
     8
 71
     3
 72
    15
 73
    11
 74
     9
 42
0.000000001
 43
0.0000000001
 44
0.00000001
 40
0.0
 40
0.0
 40
0.0
 40
0.0
 40
1.180317128421495
 40
2.475661272481646
 40
3.918113647501335
 40
5.456111304515543
 40
6.994108961529831
 40
8.436561336549493
 40
9.731905480609644
 40
10.91222260903121
 40
10.91222260903121
 40
10.91222260903121
 40
10.91222260903121
 10
-170.4522483410112
 20
-198.0303421384674
 30
0.0
 10
-170.1100678877743
 20
-197.8200288983794
 30
0.0
 10
-169.3923600083255
 20
-197.3789064947862
 30
0.0
 10
-168.0199712174983
 20
-197.4661466520267
 30
0.0
 10
-166.6968811515572
 20
-198.0323528432398
 30
0.0
 10
-165.5403027283667
 20
-199.0349031866507
 30
0.0
 10
-164.7132607134322
 20
-200.3228404310829
 30
0.0
 10
-164.3418747852857
 20
-201.7132465825132
 30
0.0
 10
-164.4515849640895
 20
-203.0840220983766
 30
0.0
 10
-164.9907126127993
 20
-203.7313511905478
 30
0.0
 10
-165.2477516588828
 20
-204.0399772593142
 30
0.0
 11
-170.4522483410112
 21
-198.0303421384674
 31
0.0
 11
-169.391738869864
 21
-197.5122029721811
 31
0.0
 11
-168.0965222933422
 21
-197.5303822394636
 31
0.0
 11
-166.7637735473936
 21
-198.0821517942544
 31
0.0
 11
-165.5963868296295
 21
-199.0834734430926
 31
0.0
 11
-164.7721049490207
 21
-200.3819325970687
 31
0.0
 11
-164.4163873967462
 21
-201.7798359858712
 31
0.0
 11
-164.5834255279194
 21
-203.0643649768207
 31
0.0
 11
-165.2477516588828
 21
-204.0399772593142
 31
0.0
  0
SPLINE
  5
D8
330
47
100
AcDbEntity
  8
0
  6
Continuous
 62
     7
100
AcDbSpline
210
0.0
220
0.0
230
1.0
 70
     8
 71
     3
 72
     9
 73
     5
 74
     3
 42
0.000000001
 43
0.0000000001
 44
0.00000001
 40
0.0
 40
0.0
 40
0.0
 40
0.0
 40
0.3612524702340334
 40
0.9155101301659518
 40
0.9155101301659518
 40
0.9155101301659518
 40
0.9155101301659518
 10
-161.7281932273506
 20
-206.7331161727407
 30
0.0
 10
-161.8241384023487
 20
-206.6525290788085
 30
0.0
 10
-162.0672890555615
 20
-206.4482998724903
 30
0.0
 10
-162.0682598566657
 20
-206.1227436683343
 30
0.0
 10
-162.0688475772383
 20
-205.9256491547051
 30
0.0
 11
-161.7281932273506
 21
-206.7331161727407
 31
0.0
 11
-161.9783207618732
 21
-206.472463979461
 31
0.0
 11
-162.0688475772383
 21
-205.9256491547051
 31
0.0
  0
SPLINE
  5
D9
330
47
100
AcDbEntity
  8
0
  6
Continuous
 62
     7
100
AcDbSpline
210
0.0
220
0.0
230
1.0
 70
     8
 71
     3
 72
     9
 73
     5
 74
     3
 42
0.000000001
 43
0.0000000001
 44
0.00000001
 40
0.0
 40
0.0
 40
0.0
 40
0.0
 40
0.2378621826545717
 40
0.481350236137434
 40
0.481350236137434
 40
0.481350236137434
 40
0.481350236137434
 10
-163.1581415712408
 20
-212.2622721654376
 30
0.0
 10
-163.1605845418935
 20
-212.1828758490153
 30
0.0
 10
-163.1655282837527
 20
-212.022205351371
 30
0.0
 10
-163.1966742787632
 20
-211.8644964888487
 30
0.0
 10
-163.2124292985804
 20
-211.7847204330893
 30
0.0
 11
-163.1581415712408
 21
-212.2622721654376
 31
0.0
 11
-163.1718688291524
 21
-212.0248064193014
 31
0.0
 11
-163.2124292985804
 21
-211.7847204330893
 31
0.0
  0
SPLINE
  5
DA
330
47
100
AcDbEntity
  8
0
  6
Continuous
 62
     7
100
AcDbSpline
210
0.0
220
0.0
230
1.0
 70
     8
 71
     3
 72
     9
 73
     5
 74
     3
 42
0.000000001
 43
0.0000000001
 44
0.00000001
 40
0.0
 40
0.0
 40
0.0
 40
0.0
 40
0.3832757270023135
 40
0.7510270301692913
 40
0.7510270301692913
 40
0.7510270301692913
 40
0.7510270301692913
 10
-171.7174738010663
 20
-201.2466217979446
 30
0.0
 10
-171.7131250921805
 20
-201.1184361826176
 30
0.0
 10
-171.7046037972835
 20
-200.8672570592434
 30
0.0
 10
-171.6379530652591
 20
-200.6249815639352
 30
0.0
 10
-171.6053165558419
 20
-200.5063478475134
 30
0.0
 11
-171.7174738010663
 21
-201.2466217979446
 31
0.0
 11
-171.6892883007094
 21
-200.864383834002
 31
0.0
 11
-171.6053165558419
 21
-200.5063478475134
 31
0.0
  0
SPLINE
  5
DB
330
47
100
AcDbEntity
  8
0
  6
Continuous
 62
     7
100
AcDbSpline
210
0.0
220
0.0
230
1.0
 70
     8
 71
     3
 72
    11
 73
     7
 74
     5
 42
0.000000001
 43
0.0000000001
 44
0.00000001
 40
0.0
 40
0.0
 40
0.0
 40
0.0
 40
0.7826553889039991
 40
1.582246115952382
 40
2.221104328544873
 40
2.625091587009877
 40
2.625091587009877
 40
2.625091587009877
 40
2.625091587009877
 10
-162.0688475772383
 20
-198.1314205206452
 30
0.0
 10
-162.0455377695152
 20
-197.868689221321
 30
0.0
 10
-161.9984137641053
 20
-197.3375415647517
 30
0.0
 10
-161.7095502761572
 20
-196.6672668018041
 30
0.0
 10
-161.371163066384
 20
-196.0885663999563
 30
0.0
 10
-161.0167844440245
 20
-196.023961774091
 30
0.0
 10
-160.8795019271261
 20
-195.9989346348194
 30
0.0
 11
-162.0688475772383
 21
-198.1314205206452
 31
0.0
 11
-161.9600993148051
 21
-197.356357131103
 31
0.0
 11
-161.6648188902703
 21
-196.6132859352543
 31
0.0
 11
-161.2669110067017
 21
-196.1134768270379
 31
0.0
 11
-160.8795019271261
 21
-195.9989346348194
 31
0.0
  0
SPLINE
  5
DC
330
47
100
AcDbEntity
  8
0
  6
Continuous
 62
     7
100
AcDbSpline
210
0.0
220
0.0
230
1.0
 70
     8
 71
     3
 72
    13
 73
     9
 74
     7
 42
0.000000001
 43
0.0000000001
 44
0.00000001
 40
0.0
 40
0.0
 40
0.0
 40
0.0
 40
0.3895542257241306
 40
0.9998020755235913
 40
1.769932732737865
 40
2.54006338995212
 40
3.150311239751625
 40
3.53986546547565
 40
3.53986546547565
 40
3.53986546547565
 40
3.53986546547565
 10
-160.8795019271261
 20
-195.9989346348194
 30
0.0
 10
-160.7791268547183
 20
-196.0884565726926
 30
0.0
 10
-160.5215113733026
 20
-196.3182172014315
 30
0.0
 10
-160.5287408835546
 20
-196.9612966072679
 30
0.0
 10
-160.6359360905525
 20
-197.6617205250667
 30
0.0
 10
-160.9185154730816
 20
-198.3115153923878
 30
0.0
 10
-161.2551201041637
 20
-198.8595123908866
 30
0.0
 10
-161.595550767686
 20
-198.9166319682415
 30
0.0
 10
-161.7281932273506
 20
-198.9388875386808
 30
0.0
 11
-160.8795019271261
 21
-195.9989346348194
 31
0.0
 11
-160.6181059629431
 21
-196.2877678795871
 31
0.0
 11
-160.5404335827081
 21
-196.8930524795768
 31
0.0
 11
-160.6673399957151
 21
-197.6526549985169
 31
0.0
 11
-160.9647792328205
 21
-198.3630289315076
 31
0.0
 11
-161.3530816100104
 21
-198.8337982056799
 31
0.0
 11
-161.7281932273506
 21
-198.9388875386808
 31
0.0
  0
SPLINE
  5
DD
330
47
100
AcDbEntity
  8
0
  6
Continuous
 62
     7
100
AcDbSpline
210
0.0
220
0.0
230
1.0
 70
     8
 71
     3
 72
     9
 73
     5
 74
     3
 42
0.000000001
 43
0.0000000001
 44
0.00000001
 40
0.0
 40
0.0
 40
0.0
 40
0.0
 40
0.3612524702340744
 40
0.9155101301659367
 40
0.9155101301659367
 40
0.9155101301659367
 40
0.9155101301659367
 10
-161.7281932273506
 20
-198.9388875386808
 30
0.0
 10
-161.8241384023486
 20
-198.8583004447485
 30
0.0
 10
-162.0672890555616
 20
-198.6540712384304
 30
0.0
 10
-162.0682598566656
 20
-198.3285150342743
 30
0.0
 10
-162.0688475772383
 20
-198.1314205206452
 30
0.0
 11
-161.7281932273506
 21
-198.9388875386808
 31
0.0
 11
-161.9783207618732
 21
-198.678235345401
 31
0.0
 11
-162.0688475772383
 21
-198.1314205206452
 31
0.0
  0
SPLINE
  5
DE
330
47
100
AcDbEntity
  8
0
  6
Continuous
 62
     7
100
AcDbSpline
210
0.0
220
0.0
230
1.0
 70
     8
 71
     3
 72
    11
 73
     7
 74
     5
 42
0.000000001
 43
0.0000000001
 44
0.00000001
 40
0.0
 40
0.0
 40
0.0
 40
0.0
 40
0.7826553889039709
 40
1.582246115952275
 40
2.221104328544766
 40
2.625091587009794
 40
2.625091587009794
 40
2.625091587009794
 40
2.625091587009794
 10
-162.0688475772383
 20
-205.9256491547051
 30
0.0
 10
-162.0455377695152
 20
-205.6629178553809
 30
0.0
 10
-161.9984137641053
 20
-205.1317701988117
 30
0.0
 10
-161.7095502761571
 20
-204.4614954358641
 30
0.0
 10
-161.371163066384
 20
-203.8827950340164
 30
0.0
 10
-161.0167844440244
 20
-203.818190408151
 30
0.0
 10
-160.8795019271261
 20
-203.7931632688793
 30
0.0
 11
-162.0688475772383
 21
-205.9256491547051
 31
0.0
 11
-161.9600993148051
 21
-205.1505857651629
 31
0.0
 11
-161.6648188902703
 21
-204.4075145693143
 31
0.0
 11
-161.2669110067017
 21
-203.9077054610979
 31
0.0
 11
-160.8795019271261
 21
-203.7931632688793
 31
0.0
  0
SPLINE
  5
DF
330
47
100
AcDbEntity
  8
0
  6
Continuous
 62
     7
100
AcDbSpline
210
0.0
220
0.0
230
1.0
 70
     8
 71
     3
 72
    13
 73
     9
 74
     7
 42
0.000000001
 43
0.0000000001
 44
0.00000001
 40
0.0
 40
0.0
 40
0.0
 40
0.0
 40
0.3895542257241727
 40
0.9998020755236616
 40
1.769932732737851
 40
2.540063389952133
 40
3.150311239751616
 40
3.539865465475633
 40
3.539865465475633
 40
3.539865465475633
 40
3.539865465475633
 10
-160.8795019271261
 20
-203.7931632688793
 30
0.0
 10
-160.7791268547183
 20
-203.8826852067525
 30
0.0
 10
-160.5215113733026
 20
-204.1124458354914
 30
0.0
 10
-160.5287408835547
 20
-204.7555252413279
 30
0.0
 10
-160.6359360905524
 20
-205.4559491591265
 30
0.0
 10
-160.9185154730817
 20
-206.1057440264478
 30
0.0
 10
-161.2551201041636
 20
-206.6537410249464
 30
0.0
 10
-161.5955507676861
 20
-206.7108606023015
 30
0.0
 10
-161.7281932273506
 20
-206.7331161727407
 30
0.0
 11
-160.8795019271261
 21
-203.7931632688793
 31
0.0
 11
-160.6181059629431
 21
-204.0819965136471
 31
0.0
 11
-160.5404335827081
 21
-204.6872811136368
 31
0.0
 11
-160.6673399957151
 21
-205.4468836325768
 31
0.0
 11
-160.9647792328205
 21
-206.1572575655675
 31
0.0
 11
-161.3530816100104
 21
-206.6280268397398
 31
0.0
 11
-161.7281932273506
 21
-206.7331161727407
 31
0.0
  0
SPLINE
  5
E0
330
47
100
AcDbEntity
  8
0
  6
Continuous
 62
     7
100
AcDbSpline
210
0.0
220
0.0
230
1.0
 70
     8
 71
     3
 72
    13
 73
     9
 74
     7
 42
0.000000001
 43
0.0000000001
 44
0.00000001
 40
0.0
 40
0.0
 40
0.0
 40
0.0
 40
0.9196170834711394
 40
1.910783460067711
 40
2.91028442481641
 40
3.851125337157373
 40
4.694631059417453
 40
5.459915207751029
 40
5.459915207751029
 40
5.459915207751029
 40
5.459915207751029
 10
-168.5849364904839
 20
-217.1620144266305
 30
0.0
 10
-168.6227863466437
 20
-216.8547451308081
 30
0.0
 10
-168.7014309193312
 20
-216.2162999603583
 30
0.0
 10
-169.224315927169
 20
-215.3686111866446
 30
0.0
 10
-169.9485817479555
 20
-214.6939371988494
 30
0.0
 10
-170.8017884808602
 20
-214.3033739238411
 30
0.0
 10
-171.69521531899
 20
-214.2275801254995
 30
0.0
 10
-172.1637549054386
 20
-214.511929904495
 30
0.0
 10
-172.3866341767149
 20
-214.6471920615844
 30
0.0
 11
-168.5849364904839
 21
-217.1620144266305
 31
0.0
 11
-168.7597892209991
 21
-216.2591732994144
 31
0.0
 11
-169.2560782073479
 21
-215.401205917529
 31
0.0
 11
-169.9936684797517
 21
-214.7266966358712
 31
0.0
 11
-170.8534128348243
 21
-214.3445693364066
 31
0.0
 11
-171.6964537385017
 21
-214.3165702265819
 31
0.0
 11
-172.3866341767149
 21
-214.6471920615844
 31
0.0
  0
ENDBLK
  5
49
330
47
100
AcDbEntity
  8
0
100
AcDbBlockEnd
  0
BLOCK
  5
4C
330
4A
100
AcDbEntity
  8
0
100
AcDbBlockBegin
  2
Allg1
 70
     0
 10
-166.99999999997
 20
-199.0
 30
0.0
  3
Allg1
  1

  0
INSERT
  5
4B
330
4A
100
AcDbEntity
  8
0
100
AcDbBlockReference
  2
CF_1000_10_LOC10-select__1
 10
-178.1423048453582
 20
-227.9097040297731
 30
0.0
  0
MTEXT
  5
E2
330
4A
100
AcDbEntity
  8
1
 62
     6
100
AcDbMText
 10
-166.9999999999701
 20
-238.3934208871858
 30
0.0
 40
5.0
 41
0.0
 71
     2
 72
     1
  1
 
  7
CONVERTER_11
 73
     1
 44
1.32052821128451
  0
ENDBLK
  5
4D
330
4A
100
AcDbEntity
  8
0
100
AcDbBlockEnd
  0
BLOCK
  5
4F
330
4E
100
AcDbEntity
  8
0
100
AcDbBlockBegin
  2
CF_1000_10_LOC10-select__2
 70
     0
 10
-300.5000000000001
 20
-192.4999999998999
 30
0.0
  3
CF_1000_10_LOC10-select__2
  1

  0
LINE
  5
E3
330
4E
100
AcDbEntity
  8
0
  6
Continuous
 62
     7
100
AcDbLine
 10
-300.5000000000001
 20
-186.4999999998999
 30
0.0
 11
-293.5000000000001
 21
-186.4999999998999
 31
0.0
  0
LINE
  5
E4
330
4E
100
AcDbEntity
  8
0
  6
Continuous
 62
     7
100
AcDbLine
 10
-292.4750000000001
 20
-186.699999999904
 30
0.0
 11
-292.4750000000001
 21
-186.4999999998999
 31
0.0
  0
LINE
  5
E5
330
4E
100
AcDbEntity
  8
0
  6
Continuous
 62
     7
100
AcDbLine
 10
-291.6378684611864
 20
-188.9999999998999
 30
0.0
 11
-292.4750000000001
 21
-186.699999999904
 31
0.0
  0
LINE
  5
E6
330
4E
100
AcDbEntity
  8
0
  6
Continuous
 62
     7
100
AcDbLine
 10
-285.3621315388139
 20
-188.9999999998999
 30
0.0
 11
-284.5250000000001
 21
-186.699999999904
 31
0.0
  0
LINE
  5
E7
330
4E
100
AcDbEntity
  8
0
  6
Continuous
 62
     7
100
AcDbLine
 10
-284.5250000000001
 20
-186.699999999904
 30
0.0
 11
-284.5250000000001
 21
-186.4999999998999
 31
0.0
  0
LINE
  5
E8
330
4E
100
AcDbEntity
  8
0
  6
Continuous
 62
     7
100
AcDbLine
 10
-283.5000000000001
 20
-186.4999999998999
 30
0.0
 11
-276.5000000000001
 21
-186.4999999998999
 31
0.0
  0
LINE
  5
E9
330
4E
100
AcDbEntity
  8
0
  6
Continuous
 62
     7
100
AcDbLine
 10
-292.4750000000001
 20
-186.699999999904
 30
0.0
 11
-284.5250000000001
 21
-186.699999999904
 31
0.0
  0
LINE
  5
EA
330
4E
100
AcDbEntity
  8
0
  6
Continuous
 62
     7
100
AcDbLine
 10
-283.5000000000001
 20
-192.4999999998999
 30
0.0
 11
-283.5000000000001
 21
-186.4999999998999
 31
0.0
  0
LINE
  5
EB
330
4E
100
AcDbEntity
  8
0
  6
Continuous
 62
     7
100
AcDbLine
 10
-282.5000000000001
 20
-181.4999999998999
 30
0.0
 11
-282.5000000000001
 21
-177.4999999998999
 31
0.0
  0
LINE
  5
EC
330
4E
100
AcDbEntity
  8
0
  6
Continuous
 62
     7
100
AcDbLine
 10
-300.5000000000001
 20
-186.4999999998999
 30
0.0
 11
-300.5000000000001
 21
-181.4999999998999
 31
0.0
  0
LINE
  5
ED
330
4E
100
AcDbEntity
  8
0
  6
Continuous
 62
     7
100
AcDbLine
 10
-282.5000000000001
 20
-177.4999999998999
 30
0.0
 11
-294.5000000000001
 21
-177.4999999998999
 31
0.0
  0
LINE
  5
EE
330
4E
100
AcDbEntity
  8
0
  6
Continuous
 62
     7
100
AcDbLine
 10
-293.5000000000001
 20
-186.4999999998999
 30
0.0
 11
-293.5000000000001
 21
-192.4999999998999
 31
0.0
  0
LINE
  5
EF
330
4E
100
AcDbEntity
  8
0
  6
Continuous
 62
     7
100
AcDbLine
 10
-294.5000000000001
 20
-181.4999999998999
 30
0.0
 11
-294.5000000000001
 21
-177.4999999998999
 31
0.0
  0
LINE
  5
F0
330
4E
100
AcDbEntity
  8
0
  6
Continuous
 62
     7
100
AcDbLine
 10
-284.5250000000001
 20
-186.4999999998999
 30
0.0
 11
-283.5000000000001
 21
-186.4999999998999
 31
0.0
  0
LINE
  5
F1
330
4E
100
AcDbEntity
  8
0
  6
Continuous
 62
     7
100
AcDbLine
 10
-293.5000000000001
 20
-186.4999999998999
 30
0.0
 11
-292.4750000000001
 21
-186.4999999998999
 31
0.0
  0
LINE
  5
F2
330
4E
100
AcDbEntity
  8
0
  6
Continuous
 62
     7
100
AcDbLine
 10
-292.4750000000001
 20
-186.4999999998999
 30
0.0
 11
-284.5250000000001
 21
-186.4999999998999
 31
0.0
  0
LINE
  5
F3
330
4E
100
AcDbEntity
  8
0
  6
Continuous
 62
     7
100
AcDbLine
 10
-293.5000000000001
 20
-192.4999999998999
 30
0.0
 11
-283.5000000000001
 21
-192.4999999998999
 31
0.0
  0
LINE
  5
F4
330
4E
100
AcDbEntity
  8
0
  6
Continuous
 62
     7
100
AcDbLine
 10
-291.6378684611864
 20
-188.9999999998999
 30
0.0
 11
-285.3621315388139
 21
-188.9999999998999
 31
0.0
  0
LINE
  5
F5
330
4E
100
AcDbEntity
  8
0
  6
Continuous
 62
     7
100
AcDbLine
 10
-282.5000000000001
 20
-181.4999999998999
 30
0.0
 11
-276.5000000000001
 21
-181.4999999998999
 31
0.0
  0
LINE
  5
F6
330
4E
100
AcDbEntity
  8
0
  6
Continuous
 62
     7
100
AcDbLine
 10
-300.5000000000001
 20
-181.4999999998999
 30
0.0
 11
-294.5000000000001
 21
-181.4999999998999
 31
0.0
  0
LINE
  5
F7
330
4E
100
AcDbEntity
  8
0
  6
Continuous
 62
     7
100
AcDbLine
 10
-294.5000000000001
 20
-181.4999999998999
 30
0.0
 11
-282.5000000000001
 21
-181.4999999998999
 31
0.0
  0
LINE
  5
F8
330
4E
100
AcDbEntity
  8
0
  6
Continuous
 62
     7
100
AcDbLine
 10
-276.5000000000001
 20
-181.4999999998999
 30
0.0
 11
-276.5000000000001
 21
-186.4999999998999
 31
0.0
  0
LINE
  5
F9
330
4E
100
AcDbEntity
  8
1
  6
DOT_CENTER
 62
     2
100
AcDbLine
 10
-288.5000000000001
 20
-188.9999999998999
 30
0.0
 11
-288.5
 21
-186.4999999999
 31
0.0
  0
ENDBLK
  5
50
330
4E
100
AcDbEntity
  8
0
100
AcDbBlockEnd
  0
BLOCK
  5
53
330
51
100
AcDbEntity
  8
0
100
AcDbBlockBegin
  2
Drfsicht1
 70
     0
 10
-288.5000000000001
 20
-184.9999999999499
 30
0.0
  3
Drfsicht1
  1

  0
INSERT
  5
52
330
51
100
AcDbEntity
  8
0
100
AcDbBlockReference
  2
CF_1000_10_LOC10-select__2
 10
-300.5000000000001
 20
-192.4999999998999
 30
0.0
  0
MTEXT
  5
FA
330
51
100
AcDbEntity
  8
1
 62
     6
100
AcDbMText
 10
-288.5
 20
-197.49999999995
 30
0.0
 40
5.0
 41
0.0
 71
     2
 72
     1
  1
 
  7
CONVERTER_11
 73
     1
 44
1.32052821128451
  0
ENDBLK
  5
54
330
51
100
AcDbEntity
  8
0
100
AcDbBlockEnd
  0
BLOCK
  5
56
330
55
100
AcDbEntity
  8
0
100
AcDbBlockBegin
  2
CF_1000_10_LOC10-select__3
 70
     0
 10
-212.5
 20
-159.5000000000399
 30
0.0
  3
CF_1000_10_LOC10-select__3
  1

  0
LINE
  5
FB
330
55
100
AcDbEntity
  8
0
  6
Continuous
 62
     7
100
AcDbLine
 10
-206.5
 20
-136.5000000000398
 30
0.0
 11
-194.5
 21
-136.5000000000398
 31
0.0
  0
LINE
  5
FC
330
55
100
AcDbEntity
  8
0
  6
Continuous
 62
     7
100
AcDbLine
 10
-194.5
 20
-136.5000000000398
 30
0.0
 11
-194.5
 21
-150.5000000000399
 31
0.0
  0
LINE
  5
FD
330
55
100
AcDbEntity
  8
0
  6
Continuous
 62
     7
100
AcDbLine
 10
-206.5
 20
-150.5000000000399
 30
0.0
 11
-206.5
 21
-136.5000000000398
 31
0.0
  0
LINE
  5
FE
330
55
100
AcDbEntity
  8
0
  6
Continuous
 62
     7
100
AcDbLine
 10
-212.5
 20
-115.5000000000398
 30
0.0
 11
-212.5
 21
-107.5000000000398
 31
0.0
  0
LINE
  5
FF
330
55
100
AcDbEntity
  8
0
  6
Continuous
 62
     7
100
AcDbLine
 10
-212.5
 20
-107.5000000000398
 30
0.0
 11
-188.5
 21
-107.5000000000398
 31
0.0
  0
LINE
  5
100
330
55
100
AcDbEntity
  8
0
  6
Continuous
 62
     7
100
AcDbLine
 10
-188.5
 20
-115.5000000000398
 30
0.0
 11
-212.5
 21
-115.5000000000398
 31
0.0
  0
LINE
  5
101
330
55
100
AcDbEntity
  8
0
  6
Continuous
 62
     7
100
AcDbLine
 10
-188.5
 20
-94.50000000003982
 30
0.0
 11
-188.5
 21
-95.91742430508398
 31
0.0
  0
LINE
  5
102
330
55
100
AcDbEntity
  8
0
  6
Continuous
 62
     7
100
AcDbLine
 10
-188.5
 20
-105.0825756949957
 30
0.0
 11
-188.5
 21
-107.5000000000398
 31
0.0
  0
LINE
  5
103
330
55
100
AcDbEntity
  8
0
  6
Continuous
 62
     7
100
AcDbLine
 10
-212.5
 20
-95.91742430508398
 30
0.0
 11
-212.5
 21
-94.50000000003982
 31
0.0
  0
LINE
  5
104
330
55
100
AcDbEntity
  8
0
  6
Continuous
 62
     7
100
AcDbLine
 10
-212.5
 20
-94.50000000003982
 30
0.0
 11
-188.5
 21
-94.50000000003982
 31
0.0
  0
LINE
  5
105
330
55
100
AcDbEntity
  8
0
  6
Continuous
 62
     7
100
AcDbLine
 10
-188.5
 20
-118.5000000000398
 30
0.0
 11
-194.5
 21
-118.5000000000398
 31
0.0
  0
LINE
  5
106
330
55
100
AcDbEntity
  8
0
  6
Continuous
 62
     7
100
AcDbLine
 10
-188.5
 20
-107.5000000000398
 30
0.0
 11
-188.5
 21
-115.5000000000398
 31
0.0
  0
LINE
  5
107
330
55
100
AcDbEntity
  8
0
  6
Continuous
 62
     7
100
AcDbLine
 10
-188.5
 20
-118.5000000000398
 30
0.0
 11
-188.5
 21
-115.5000000000398
 31
0.0
  0
LINE
  5
108
330
55
100
AcDbEntity
  8
0
  6
Continuous
 62
     7
100
AcDbLine
 10
-194.5
 20
-136.5000000000398
 30
0.0
 11
-194.5
 21
-118.5000000000398
 31
0.0
  0
LINE
  5
109
330
55
100
AcDbEntity
  8
0
  6
Continuous
 62
     7
100
AcDbLine
 10
-212.5
 20
-107.5000000000398
 30
0.0
 11
-212.5
 21
-105.0825756949957
 31
0.0
  0
LINE
  5
10A
330
55
100
AcDbEntity
  8
0
  6
Continuous
 62
     7
100
AcDbLine
 10
-212.5
 20
-115.5000000000398
 30
0.0
 11
-212.5
 21
-118.5000000000398
 31
0.0
  0
LINE
  5
10B
330
55
100
AcDbEntity
  8
0
  6
Continuous
 62
     7
100
AcDbLine
 10
-206.5
 20
-118.5000000000398
 30
0.0
 11
-212.5
 21
-118.5000000000398
 31
0.0
  0
LINE
  5
10C
330
55
100
AcDbEntity
  8
0
  6
Continuous
 62
     7
100
AcDbLine
 10
-206.5
 20
-136.5000000000398
 30
0.0
 11
-206.5
 21
-118.5000000000398
 31
0.0
  0
LINE
  5
10D
330
55
100
AcDbEntity
  8
0
  6
Continuous
 62
     7
100
AcDbLine
 10
-194.5
 20
-159.5000000000399
 30
0.0
 11
-206.5
 21
-159.5000000000399
 31
0.0
  0
LINE
  5
10E
330
55
100
AcDbEntity
  8
0
  6
Continuous
 62
     7
100
AcDbLine
 10
-206.5
 20
-159.5000000000399
 30
0.0
 11
-206.5
 21
-150.5000000000399
 31
0.0
  0
LINE
  5
10F
330
55
100
AcDbEntity
  8
0
  6
Continuous
 62
     7
100
AcDbLine
 10
-194.5
 20
-150.5000000000399
 30
0.0
 11
-194.5
 21
-159.5000000000399
 31
0.0
  0
LINE
  5
110
330
55
100
AcDbEntity
  8
0
  6
Continuous
 62
     7
100
AcDbLine
 10
-194.5
 20
-150.5000000000399
 30
0.0
 11
-206.5
 21
-150.5000000000399
 31
0.0
  0
LINE
  5
111
330
55
100
AcDbEntity
  8
1
  6
DOT_CENTER
 62
     2
100
AcDbLine
 10
-197.4971477728491
 20
-128.5000000000398
 30
0.0
 11
-203.5028522271508
 21
-128.5000000000398
 31
0.0
  0
LINE
  5
112
330
55
100
AcDbEntity
  8
1
  6
DOT_CENTER
 62
     2
100
AcDbLine
 10
-200.5
 20
-125.497147772889
 30
0.0
 11
-200.5
 21
-131.5028522271907
 31
0.0
  0
LINE
  5
113
330
55
100
AcDbEntity
  8
1
  6
DOT_CENTER
 62
     2
100
AcDbLine
 10
-194.56
 20
-143.5000000000398
 30
0.0
 11
-206.44
 21
-143.5000000000398
 31
0.0
  0
LINE
  5
114
330
55
100
AcDbEntity
  8
1
  6
DOT_CENTER
 62
     2
100
AcDbLine
 10
-200.5
 20
-137.5600000000398
 30
0.0
 11
-200.5
 21
-149.4400000000398
 31
0.0
  0
ARC
  5
115
330
55
100
AcDbEntity
  8
0
  6
Continuous
 62
     7
100
AcDbCircle
 10
-186.5
 20
-100.5000000000398
 30
0.0
 40
4.999999999999982
100
AcDbArc
 50
113.5781784782019
 51
246.4218215217984
  0
ARC
  5
116
330
55
100
AcDbEntity
  8
0
  6
Continuous
 62
     7
100
AcDbCircle
 10
-214.5
 20
-100.5000000000398
 30
0.0
 40
5.000000000000048
100
AcDbArc
 50
293.5781784782016
 51
66.42182152179808
  0
CIRCLE
  5
117
330
55
100
AcDbEntity
  8
0
  6
Continuous
 62
     7
100
AcDbCircle
 10
-200.5
 20
-143.5000000000398
 30
0.0
 40
2.300000000000011
  0
CIRCLE
  5
118
330
55
100
AcDbEntity
  8
0
  6
Continuous
 62
     7
100
AcDbCircle
 10
-200.5
 20
-128.5000000000398
 30
0.0
 40
2.729865661046205
  0
CIRCLE
  5
119
330
55
100
AcDbEntity
  8
0
  6
Continuous
 62
     7
100
AcDbCircle
 10
-200.5
 20
-143.5000000000398
 30
0.0
 40
5.400000000000006
  0
ENDBLK
  5
57
330
55
100
AcDbEntity
  8
0
100
AcDbBlockEnd
  0
BLOCK
  5
5A
330
58
100
AcDbEntity
  8
0
100
AcDbBlockBegin
  2
Rckans1
 70
     0
 10
-200.5
 20
-127.0000000000199
 30
0.0
  3
Rckans1
  1

  0
INSERT
  5
59
330
58
100
AcDbEntity
  8
0
100
AcDbBlockReference
  2
CF_1000_10_LOC10-select__3
 10
-212.5
 20
-159.5000000000399
 30
0.0
  0
MTEXT
  5
11A
330
58
100
AcDbEntity
  8
1
 62
     6
100
AcDbMText
 10
-200.5
 20
-164.50000000002
 30
0.0
 40
5.0
 41
0.0
 71
     2
 72
     1
  1
 
  7
CONVERTER_11
 73
     1
 44
1.32052821128451
  0
ENDBLK
  5
5B
330
58
100
AcDbEntity
  8
0
100
AcDbBlockEnd
  0
BLOCK
  5
5D
330
5C
100
AcDbEntity
  8
0
100
AcDbBlockBegin
  2
CF_1000_10_LOC10-select__4
 70
     0
 10
-247.5000000001
 20
-159.5000000000399
 30
0.0
  3
CF_1000_10_LOC10-select__4
  1

  0
LINE
  5
11B
330
5C
100
AcDbEntity
  8
0
  6
Continuous
 62
     7
100
AcDbLine
 10
-238.5000000001
 20
-139.5000000000398
 30
0.0
 11
-238.5000000001
 21
-134.5000000000398
 31
0.0
  0
LINE
  5
11C
330
5C
100
AcDbEntity
  8
0
  6
Continuous
 62
     7
100
AcDbLine
 10
-236.5000000001
 20
-139.5000000000398
 30
0.0
 11
-238.5000000001
 21
-139.5000000000398
 31
0.0
  0
LINE
  5
11D
330
5C
100
AcDbEntity
  8
0
  6
Continuous
 62
     7
100
AcDbLine
 10
-236.5000000001
 20
-149.5000000000399
 30
0.0
 11
-236.5000000001
 21
-139.5000000000398
 31
0.0
  0
LINE
  5
11E
330
5C
100
AcDbEntity
  8
0
  6
Continuous
 62
     7
100
AcDbLine
 10
-238.5000000001
 20
-134.5000000000398
 30
0.0
 11
-232.5000000001
 21
-134.5000000000398
 31
0.0
  0
LINE
  5
11F
330
5C
100
AcDbEntity
  8
0
  6
Continuous
 62
     7
100
AcDbLine
 10
-236.0000000001
 20
-131.6378684612261
 30
0.0
 11
-238.3000000000959
 21
-132.4750000000398
 31
0.0
  0
LINE
  5
120
330
5C
100
AcDbEntity
  8
0
  6
Continuous
 62
     7
100
AcDbLine
 10
-238.5000000001
 20
-118.5000000000398
 30
0.0
 11
-243.5000000001
 21
-118.5000000000398
 31
0.0
  0
LINE
  5
121
330
5C
100
AcDbEntity
  8
0
  6
Continuous
 62
     7
100
AcDbLine
 10
-239.6090683882216
 20
-124.6373454723822
 30
0.0
 11
-242.3909316119651
 21
-124.6373454723859
 31
0.0
  0
LINE
  5
122
330
5C
100
AcDbEntity
  8
0
  6
Continuous
 62
     7
100
AcDbLine
 10
-239.6090683882349
 20
-132.3626545276937
 30
0.0
 11
-242.3909316119784
 21
-132.3626545276975
 31
0.0
  0
LINE
  5
123
330
5C
100
AcDbEntity
  8
0
  6
Continuous
 62
     7
100
AcDbLine
 10
-236.0000000001
 20
-125.3621315388536
 30
0.0
 11
-238.3000000000959
 21
-124.5250000000398
 31
0.0
  0
LINE
  5
124
330
5C
100
AcDbEntity
  8
0
  6
Continuous
 62
     7
100
AcDbLine
 10
-232.5000000001
 20
-149.5000000000399
 30
0.0
 11
-232.5000000001
 21
-134.5000000000398
 31
0.0
  0
LINE
  5
125
330
5C
100
AcDbEntity
  8
0
  6
Continuous
 62
     7
100
AcDbLine
 10
-236.0000000001
 20
-131.6378684612261
 30
0.0
 11
-236.0000000001
 21
-128.5000000000398
 31
0.0
  0
LINE
  5
126
330
5C
100
AcDbEntity
  8
0
  6
Continuous
 62
     7
100
AcDbLine
 10
-236.0000000001
 20
-128.5000000000398
 30
0.0
 11
-236.0000000001
 21
-125.3621315388536
 31
0.0
  0
LINE
  5
127
330
5C
100
AcDbEntity
  8
0
  6
Continuous
 62
     7
100
AcDbLine
 10
-238.5000000001
 20
-132.4750000000398
 30
0.0
 11
-238.5000000001
 21
-124.5250000000398
 31
0.0
  0
LINE
  5
128
330
5C
100
AcDbEntity
  8
0
  6
Continuous
 62
     7
100
AcDbLine
 10
-238.5000000001
 20
-95.91742430508398
 30
0.0
 11
-238.5000000001
 21
-94.50000000003982
 31
0.0
  0
LINE
  5
129
330
5C
100
AcDbEntity
  8
0
  6
Continuous
 62
     7
100
AcDbLine
 10
-238.3000000000959
 20
-132.4750000000398
 30
0.0
 11
-238.3000000000959
 21
-128.5000000000398
 31
0.0
  0
LINE
  5
12A
330
5C
100
AcDbEntity
  8
0
  6
Continuous
 62
     7
100
AcDbLine
 10
-238.3000000000959
 20
-128.5000000000398
 30
0.0
 11
-238.3000000000959
 21
-124.5250000000398
 31
0.0
  0
LINE
  5
12B
330
5C
100
AcDbEntity
  8
0
  6
Continuous
 62
     7
100
AcDbLine
 10
-238.3000000000959
 20
-132.4750000000398
 30
0.0
 11
-238.5000000001
 21
-132.4750000000398
 31
0.0
  0
LINE
  5
12C
330
5C
100
AcDbEntity
  8
0
  6
Continuous
 62
     7
100
AcDbLine
 10
-238.3000000000959
 20
-124.5250000000398
 30
0.0
 11
-238.5000000001
 21
-124.5250000000398
 31
0.0
  0
LINE
  5
12D
330
5C
100
AcDbEntity
  8
0
  6
Continuous
 62
     7
100
AcDbLine
 10
-238.5000000001
 20
-118.5000000000398
 30
0.0
 11
-238.5000000001
 21
-105.0825756949957
 31
0.0
  0
LINE
  5
12E
330
5C
100
AcDbEntity
  8
0
  6
Continuous
 62
     7
100
AcDbLine
 10
-238.5000000001
 20
-124.5250000000398
 30
0.0
 11
-238.5000000001
 21
-118.5000000000398
 31
0.0
  0
LINE
  5
12F
330
5C
100
AcDbEntity
  8
0
  6
Continuous
 62
     7
100
AcDbLine
 10
-238.5000000001
 20
-134.5000000000398
 30
0.0
 11
-238.5000000001
 21
-132.4750000000398
 31
0.0
  0
LINE
  5
130
330
5C
100
AcDbEntity
  8
0
  6
Continuous
 62
     7
100
AcDbLine
 10
-242.5000000001
 20
-107.5000000000398
 30
0.0
 11
-242.5000000001
 21
-115.5000000000398
 31
0.0
  0
LINE
  5
131
330
5C
100
AcDbEntity
  8
0
  6
Continuous
 62
     7
100
AcDbLine
 10
-241.7000000001
 20
-139.5000000000398
 30
0.0
 11
-241.7000000001
 21
-159.5000000000399
 31
0.0
  0
LINE
  5
132
330
5C
100
AcDbEntity
  8
0
  6
Continuous
 62
     7
100
AcDbLine
 10
-243.5000000001
 20
-118.5000000000398
 30
0.0
 11
-243.5000000001
 21
-115.5000000000398
 31
0.0
  0
LINE
  5
133
330
5C
100
AcDbEntity
  8
0
  6
Continuous
 62
     7
100
AcDbLine
 10
-242.5000000001
 20
-115.5000000000398
 30
0.0
 11
-243.5000000001
 21
-115.5000000000398
 31
0.0
  0
LINE
  5
134
330
5C
100
AcDbEntity
  8
0
  6
Continuous
 62
     7
100
AcDbLine
 10
-243.5000000001
 20
-136.5000000000398
 30
0.0
 11
-243.5000000001
 21
-118.5000000000398
 31
0.0
  0
LINE
  5
135
330
5C
100
AcDbEntity
  8
0
  6
Continuous
 62
     7
100
AcDbLine
 10
-243.5000000001
 20
-94.50000000003982
 30
0.0
 11
-243.5000000001
 21
-95.91742430508398
 31
0.0
  0
LINE
  5
136
330
5C
100
AcDbEntity
  8
0
  6
Continuous
 62
     7
100
AcDbLine
 10
-243.5000000001
 20
-107.5000000000398
 30
0.0
 11
-242.5000000001
 21
-107.5000000000398
 31
0.0
  0
LINE
  5
137
330
5C
100
AcDbEntity
  8
0
  6
Continuous
 62
     7
100
AcDbLine
 10
-238.5000000001
 20
-95.91742430508398
 30
0.0
 11
-243.5000000001
 21
-95.91742430508398
 31
0.0
  0
LINE
  5
138
330
5C
100
AcDbEntity
  8
0
  6
Continuous
 62
     7
100
AcDbLine
 10
-238.5000000001
 20
-105.0825756949957
 30
0.0
 11
-243.5000000001
 21
-105.0825756949957
 31
0.0
  0
LINE
  5
139
330
5C
100
AcDbEntity
  8
0
  6
Continuous
 62
     7
100
AcDbLine
 10
-243.5000000001
 20
-95.91742430508398
 30
0.0
 11
-243.5000000001
 21
-105.0825756949957
 31
0.0
  0
LINE
  5
13A
330
5C
100
AcDbEntity
  8
0
  6
Continuous
 62
     7
100
AcDbLine
 10
-238.5000000001
 20
-105.0825756949957
 30
0.0
 11
-238.5000000001
 21
-95.91742430508398
 31
0.0
  0
LINE
  5
13B
330
5C
100
AcDbEntity
  8
0
  6
Continuous
 62
     7
100
AcDbLine
 10
-243.5000000001
 20
-105.0825756949957
 30
0.0
 11
-243.5000000001
 21
-107.5000000000398
 31
0.0
  0
LINE
  5
13C
330
5C
100
AcDbEntity
  8
0
  6
Continuous
 62
     7
100
AcDbLine
 10
-243.5000000001
 20
-94.50000000003982
 30
0.0
 11
-238.5000000001
 21
-94.50000000003982
 31
0.0
  0
LINE
  5
13D
330
5C
100
AcDbEntity
  8
0
  6
Continuous
 62
     7
100
AcDbLine
 10
-245.5000000001
 20
-159.5000000000399
 30
0.0
 11
-241.7000000001
 21
-159.5000000000399
 31
0.0
  0
LINE
  5
13E
330
5C
100
AcDbEntity
  8
0
  6
Continuous
 62
     7
100
AcDbLine
 10
-245.5000000001
 20
-150.5000000000399
 30
0.0
 11
-245.5000000001
 21
-159.5000000000399
 31
0.0
  0
LINE
  5
13F
330
5C
100
AcDbEntity
  8
0
  6
Continuous
 62
     7
100
AcDbLine
 10
-247.5000000001
 20
-150.5000000000399
 30
0.0
 11
-245.5000000001
 21
-150.5000000000399
 31
0.0
  0
LINE
  5
140
330
5C
100
AcDbEntity
  8
0
  6
Continuous
 62
     7
100
AcDbLine
 10
-243.5000000001
 20
-136.5000000000398
 30
0.0
 11
-247.5000000001
 21
-136.5000000000398
 31
0.0
  0
LINE
  5
141
330
5C
100
AcDbEntity
  8
0
  6
Continuous
 62
     7
100
AcDbLine
 10
-247.5000000001
 20
-136.5000000000398
 30
0.0
 11
-247.5000000001
 21
-150.5000000000399
 31
0.0
  0
LINE
  5
142
330
5C
100
AcDbEntity
  8
0
  6
Continuous
 62
     7
100
AcDbLine
 10
-241.7000000001
 20
-139.5000000000398
 30
0.0
 11
-238.5000000001
 21
-139.5000000000398
 31
0.0
  0
LINE
  5
143
330
5C
100
AcDbEntity
  8
0
  6
Continuous
 62
     7
100
AcDbLine
 10
-236.5000000001
 20
-149.5000000000399
 30
0.0
 11
-232.5000000001
 21
-149.5000000000399
 31
0.0
  0
LINE
  5
144
330
5C
100
AcDbEntity
  8
1
  6
DOT_CENTER
 62
     2
100
AcDbLine
 10
-239.3170000000994
 20
-133.0000000000385
 30
0.0
 11
-242.683000000113
 21
-133.0000000000385
 31
0.0
  0
LINE
  5
145
330
5C
100
AcDbEntity
  8
1
  6
DOT_CENTER
 62
     2
100
AcDbLine
 10
-241.0000000001062
 20
-131.3170000000317
 30
0.0
 11
-241.0000000001062
 21
-134.6830000000453
 31
0.0
  0
LINE
  5
146
330
5C
100
AcDbEntity
  8
1
  6
DOT_CENTER
 62
     2
100
AcDbLine
 10
-239.3170000000979
 20
-124.0000000000398
 30
0.0
 11
-242.6830000001021
 21
-124.0000000000398
 31
0.0
  0
LINE
  5
147
330
5C
100
AcDbEntity
  8
1
  6
DOT_CENTER
 62
     2
100
AcDbLine
 10
-241.0000000001
 20
-122.3170000000377
 30
0.0
 11
-241.0000000001
 21
-125.6830000000419
 31
0.0
  0
LINE
  5
148
330
5C
100
AcDbEntity
  8
1
  6
DOT_CENTER
 62
     2
100
AcDbLine
 10
-236.0000000001
 20
-128.5000000000398
 30
0.0
 11
-238.5000000001
 21
-128.5000000000399
 31
0.0
  0
ARC
  5
149
330
5C
100
AcDbEntity
  8
0
  6
Continuous
 62
     7
100
AcDbCircle
 10
-241.0000000001058
 20
-133.0000000000398
 30
0.0
 40
1.530000000007145
100
AcDbArc
 50
24.61795282860577
 51
155.3820471715491
  0
ARC
  5
14A
330
5C
100
AcDbEntity
  8
0
  6
Continuous
 62
     7
100
AcDbCircle
 10
-241.0000000000942
 20
-124.0000000000398
 30
0.0
 40
1.530000000007151
100
AcDbArc
 50
204.6179528286063
 51
335.3820471715462
  0
ARC
  5
14B
330
5C
100
AcDbEntity
  8
0
  6
Continuous
 62
     7
100
AcDbCircle
 10
-241.0000000001062
 20
-124.0000000000682
 30
0.0
 40
1.530000000006232
100
AcDbArc
 50
335.3820471727004
 51
0.00000000106328
  0
ARC
  5
14C
330
5C
100
AcDbEntity
  8
0
  6
Continuous
 62
     7
100
AcDbCircle
 10
-241.0000000001
 20
-124.0000000000398
 30
0.0
 40
1.530000000000001
100
AcDbArc
 50
0.0
 51
204.6179528286967
  0
ARC
  5
14D
330
5C
100
AcDbEntity
  8
0
  6
Continuous
 62
     7
100
AcDbCircle
 10
-241.000000000101
 20
-133.0000000000354
 30
0.0
 40
1.530000000001024
100
AcDbArc
 50
359.9999999998361
 51
24.61795282853169
  0
ARC
  5
14E
330
5C
100
AcDbEntity
  8
0
  6
Continuous
 62
     7
100
AcDbCircle
 10
-241.0000000001062
 20
-133.0000000000385
 30
0.0
 40
1.530000000006201
100
AcDbArc
 50
155.3820471715864
 51
359.9999999999521
  0
ENDBLK
  5
5E
330
5C
100
AcDbEntity
  8
0
100
AcDbBlockEnd
  0
BLOCK
  5
61
330
5F
100
AcDbEntity
  8
0
100
AcDbBlockBegin
  2
SA_Links1
 70
     0
 10
-240.00000000005
 20
-127.0000000000199
 30
0.0
  3
SA_Links1
  1

  0
INSERT
  5
60
330
5F
100
AcDbEntity
  8
0
100
AcDbBlockReference
  2
CF_1000_10_LOC10-select__4
 10
-247.5000000001
 20
-159.5000000000399
 30
0.0
  0
MTEXT
  5
14F
330
5F
100
AcDbEntity
  8
1
 62
     6
100
AcDbMText
 10
-240.00000000005
 20
-164.50000000002
 30
0.0
 40
5.0
 41
0.0
 71
     2
 72
     1
  1
 
  7
CONVERTER_11
 73
     1
 44
1.32052821128451
  0
DIMENSION
  5
15A
330
5F
100
AcDbEntity
  8
1
100
AcDbDimension
  2
*D17
 10
-247.5000000001
 20
-169.3313545820849
 30
0.0
 11
-240.00000000005
 21
-166.0813545820849
 31
0.0
 70
    32
  1
<>
 71
     5
 42
-1.0
 53
0.00013888888889
  3
ME10_DIM_10
100
AcDbAlignedDimension
 13
-232.5000000001
 23
-149.5000000000399
 33
0.0
 14
-247.5000000001
 24
-150.5000000000399
 34
0.0
100
AcDbRotatedDimension
  0
ENDBLK
  5
62
330
5F
100
AcDbEntity
  8
0
100
AcDbBlockEnd
  0
BLOCK
  5
64
330
63
100
AcDbEntity
  8
0
100
AcDbBlockBegin
  2
CF_1000_10_LOC10-select__5
 70
     0
 10
-335.4999999999
 20
-159.5000000000399
 30
0.0
  3
CF_1000_10_LOC10-select__5
  1

  0
LINE
  5
15B
330
63
100
AcDbEntity
  8
0
  6
Continuous
 62
     7
100
AcDbLine
 10
-331.9999999999
 20
-125.3621315388536
 30
0.0
 11
-331.9999999999
 21
-131.6378684612261
 31
0.0
  0
LINE
  5
15C
330
63
100
AcDbEntity
  8
0
  6
Continuous
 62
     7
100
AcDbLine
 10
-331.9999999999
 20
-125.3621315388536
 30
0.0
 11
-329.6999999999041
 21
-124.5250000000399
 31
0.0
  0
LINE
  5
15D
330
63
100
AcDbEntity
  8
0
  6
Continuous
 62
     7
100
AcDbLine
 10
-331.9999999999
 20
-131.6378684612261
 30
0.0
 11
-329.6999999999041
 21
-132.4750000000399
 31
0.0
  0
LINE
  5
15E
330
63
100
AcDbEntity
  8
0
  6
Continuous
 62
     7
100
AcDbLine
 10
-326.2999999999
 20
-159.5000000000399
 30
0.0
 11
-322.4999999999
 21
-159.5000000000399
 31
0.0
  0
LINE
  5
15F
330
63
100
AcDbEntity
  8
0
  6
Continuous
 62
     7
100
AcDbLine
 10
-326.2999999999
 20
-159.5000000000399
 30
0.0
 11
-326.2999999999
 21
-139.5000000000399
 31
0.0
  0
LINE
  5
160
330
63
100
AcDbEntity
  8
0
  6
Continuous
 62
     7
100
AcDbLine
 10
-335.4999999999
 20
-134.5000000000399
 30
0.0
 11
-335.4999999999
 21
-149.5000000000399
 31
0.0
  0
LINE
  5
161
330
63
100
AcDbEntity
  8
0
  6
Continuous
 62
     7
100
AcDbLine
 10
-329.4999999999
 20
-139.5000000000399
 30
0.0
 11
-326.2999999999
 21
-139.5000000000399
 31
0.0
  0
LINE
  5
162
330
63
100
AcDbEntity
  8
0
  6
Continuous
 62
     7
100
AcDbLine
 10
-335.4999999999
 20
-134.5000000000399
 30
0.0
 11
-329.4999999999
 21
-134.5000000000399
 31
0.0
  0
LINE
  5
163
330
63
100
AcDbEntity
  8
0
  6
Continuous
 62
     7
100
AcDbLine
 10
-328.3909316117652
 20
-132.3626545276938
 30
0.0
 11
-325.6090683880216
 21
-132.3626545276975
 31
0.0
  0
LINE
  5
164
330
63
100
AcDbEntity
  8
0
  6
Continuous
 62
     7
100
AcDbLine
 10
-324.4999999999
 20
-136.5000000000399
 30
0.0
 11
-320.4999999999
 21
-136.5000000000399
 31
0.0
  0
LINE
  5
165
330
63
100
AcDbEntity
  8
0
  6
Continuous
 62
     7
100
AcDbLine
 10
-335.4999999999
 20
-149.5000000000399
 30
0.0
 11
-331.4999999999
 21
-149.5000000000399
 31
0.0
  0
LINE
  5
166
330
63
100
AcDbEntity
  8
0
  6
Continuous
 62
     7
100
AcDbLine
 10
-322.4999999999
 20
-150.5000000000399
 30
0.0
 11
-320.4999999999
 21
-150.5000000000399
 31
0.0
  0
LINE
  5
167
330
63
100
AcDbEntity
  8
0
  6
Continuous
 62
     7
100
AcDbLine
 10
-322.4999999999
 20
-159.5000000000399
 30
0.0
 11
-322.4999999999
 21
-150.5000000000399
 31
0.0
  0
LINE
  5
168
330
63
100
AcDbEntity
  8
0
  6
Continuous
 62
     7
100
AcDbLine
 10
-320.4999999999
 20
-150.5000000000399
 30
0.0
 11
-320.4999999999
 21
-136.5000000000399
 31
0.0
  0
LINE
  5
169
330
63
100
AcDbEntity
  8
0
  6
Continuous
 62
     7
100
AcDbLine
 10
-329.4999999999
 20
-132.4750000000399
 30
0.0
 11
-329.4999999999
 21
-134.5000000000399
 31
0.0
  0
LINE
  5
16A
330
63
100
AcDbEntity
  8
0
  6
Continuous
 62
     7
100
AcDbLine
 10
-329.6999999999041
 20
-132.4750000000399
 30
0.0
 11
-329.4999999999
 21
-132.4750000000399
 31
0.0
  0
LINE
  5
16B
330
63
100
AcDbEntity
  8
0
  6
Continuous
 62
     7
100
AcDbLine
 10
-329.6999999999041
 20
-124.5250000000399
 30
0.0
 11
-329.6999999999041
 21
-132.4750000000399
 31
0.0
  0
LINE
  5
16C
330
63
100
AcDbEntity
  8
0
  6
Continuous
 62
     7
100
AcDbLine
 10
-329.6999999999041
 20
-124.5250000000399
 30
0.0
 11
-329.4999999999
 21
-124.5250000000399
 31
0.0
  0
LINE
  5
16D
330
63
100
AcDbEntity
  8
0
  6
Continuous
 62
     7
100
AcDbLine
 10
-329.4999999999
 20
-139.5000000000399
 30
0.0
 11
-331.4999999999
 21
-139.5000000000399
 31
0.0
  0
LINE
  5
16E
330
63
100
AcDbEntity
  8
0
  6
Continuous
 62
     7
100
AcDbLine
 10
-331.4999999999
 20
-139.5000000000399
 30
0.0
 11
-331.4999999999
 21
-149.5000000000399
 31
0.0
  0
LINE
  5
16F
330
63
100
AcDbEntity
  8
0
  6
Continuous
 62
     7
100
AcDbLine
 10
-329.4999999999
 20
-134.5000000000399
 30
0.0
 11
-329.4999999999
 21
-139.5000000000399
 31
0.0
  0
LINE
  5
170
330
63
100
AcDbEntity
  8
0
  6
Continuous
 62
     7
100
AcDbLine
 10
-329.4999999999
 20
-124.5250000000399
 30
0.0
 11
-329.4999999999
 21
-132.4750000000399
 31
0.0
  0
LINE
  5
171
330
63
100
AcDbEntity
  8
0
  6
Continuous
 62
     7
100
AcDbLine
 10
-324.4999999999
 20
-115.5000000000399
 30
0.0
 11
-324.4999999999
 21
-118.5000000000399
 31
0.0
  0
LINE
  5
172
330
63
100
AcDbEntity
  8
0
  6
Continuous
 62
     7
100
AcDbLine
 10
-324.4999999999
 20
-107.5000000000399
 30
0.0
 11
-324.4999999999
 21
-105.0825756949957
 31
0.0
  0
LINE
  5
173
330
63
100
AcDbEntity
  8
0
  6
Continuous
 62
     7
100
AcDbLine
 10
-324.4999999999
 20
-95.91742430508404
 30
0.0
 11
-324.4999999999
 21
-94.50000000003988
 31
0.0
  0
LINE
  5
174
330
63
100
AcDbEntity
  8
0
  6
Continuous
 62
     7
100
AcDbLine
 10
-324.4999999999
 20
-136.5000000000399
 30
0.0
 11
-324.4999999999
 21
-118.5000000000399
 31
0.0
  0
LINE
  5
175
330
63
100
AcDbEntity
  8
0
  6
Continuous
 62
     7
100
AcDbLine
 10
-329.4999999999
 20
-105.0825756949957
 30
0.0
 11
-329.4999999999
 21
-118.5000000000399
 31
0.0
  0
LINE
  5
176
330
63
100
AcDbEntity
  8
0
  6
Continuous
 62
     7
100
AcDbLine
 10
-329.4999999999
 20
-118.5000000000399
 30
0.0
 11
-329.4999999999
 21
-124.5250000000399
 31
0.0
  0
LINE
  5
177
330
63
100
AcDbEntity
  8
0
  6
Continuous
 62
     7
100
AcDbLine
 10
-329.4999999999
 20
-118.5000000000399
 30
0.0
 11
-324.4999999999
 21
-118.5000000000399
 31
0.0
  0
LINE
  5
178
330
63
100
AcDbEntity
  8
0
  6
Continuous
 62
     7
100
AcDbLine
 10
-325.4999999999
 20
-115.5000000000399
 30
0.0
 11
-325.4999999999
 21
-107.5000000000399
 31
0.0
  0
LINE
  5
179
330
63
100
AcDbEntity
  8
0
  6
Continuous
 62
     7
100
AcDbLine
 10
-329.4999999999
 20
-105.0825756949957
 30
0.0
 11
-324.4999999999
 21
-105.0825756949957
 31
0.0
  0
LINE
  5
17A
330
63
100
AcDbEntity
  8
0
  6
Continuous
 62
     7
100
AcDbLine
 10
-328.3909316117784
 20
-124.6373454723823
 30
0.0
 11
-325.6090683880349
 21
-124.637345472386
 31
0.0
  0
LINE
  5
17B
330
63
100
AcDbEntity
  8
0
  6
Continuous
 62
     7
100
AcDbLine
 10
-329.4999999999
 20
-95.91742430508404
 30
0.0
 11
-324.4999999999
 21
-95.91742430508404
 31
0.0
  0
LINE
  5
17C
330
63
100
AcDbEntity
  8
0
  6
Continuous
 62
     7
100
AcDbLine
 10
-324.4999999999
 20
-115.5000000000399
 30
0.0
 11
-325.4999999999
 21
-115.5000000000399
 31
0.0
  0
LINE
  5
17D
330
63
100
AcDbEntity
  8
0
  6
Continuous
 62
     7
100
AcDbLine
 10
-329.4999999999
 20
-94.50000000003988
 30
0.0
 11
-324.4999999999
 21
-94.50000000003988
 31
0.0
  0
LINE
  5
17E
330
63
100
AcDbEntity
  8
0
  6
Continuous
 62
     7
100
AcDbLine
 10
-325.4999999999
 20
-107.5000000000399
 30
0.0
 11
-324.4999999999
 21
-107.5000000000399
 31
0.0
  0
LINE
  5
17F
330
63
100
AcDbEntity
  8
0
  6
Continuous
 62
     7
100
AcDbLine
 10
-324.4999999999
 20
-105.0825756949957
 30
0.0
 11
-324.4999999999
 21
-95.91742430508404
 31
0.0
  0
LINE
  5
180
330
63
100
AcDbEntity
  8
0
  6
Continuous
 62
     7
100
AcDbLine
 10
-329.4999999999
 20
-94.50000000003988
 30
0.0
 11
-329.4999999999
 21
-95.91742430508404
 31
0.0
  0
LINE
  5
181
330
63
100
AcDbEntity
  8
0
  6
Continuous
 62
     7
100
AcDbLine
 10
-329.4999999999
 20
-95.91742430508404
 30
0.0
 11
-329.4999999999
 21
-105.0825756949957
 31
0.0
  0
LINE
  5
182
330
63
100
AcDbEntity
  8
1
  6
DOT_CENTER
 62
     2
100
AcDbLine
 10
-325.316999999887
 20
-133.0000000000385
 30
0.0
 11
-328.6829999999006
 21
-133.0000000000385
 31
0.0
  0
LINE
  5
183
330
63
100
AcDbEntity
  8
1
  6
DOT_CENTER
 62
     2
100
AcDbLine
 10
-326.9999999998938
 20
-131.3170000000317
 30
0.0
 11
-326.9999999998938
 21
-134.6830000000453
 31
0.0
  0
LINE
  5
184
330
63
100
AcDbEntity
  8
1
  6
DOT_CENTER
 62
     2
100
AcDbLine
 10
-325.3169999999
 20
-124.0000000000399
 30
0.0
 11
-328.6829999999
 21
-124.0000000000399
 31
0.0
  0
LINE
  5
185
330
63
100
AcDbEntity
  8
1
  6
DOT_CENTER
 62
     2
100
AcDbLine
 10
-326.9999999999
 20
-122.3170000000399
 30
0.0
 11
-326.9999999999
 21
-125.6830000000398
 31
0.0
  0
LINE
  5
186
330
63
100
AcDbEntity
  8
1
  6
DOT_CENTER
 62
     2
100
AcDbLine
 10
-331.9999999999
 20
-128.5000000000399
 30
0.0
 11
-329.4999999999
 21
-128.5000000000399
 31
0.0
  0
ARC
  5
187
330
63
100
AcDbEntity
  8
0
  6
Continuous
 62
     7
100
AcDbCircle
 10
-326.9999999999058
 20
-124.0000000000399
 30
0.0
 40
1.530000000007131
100
AcDbArc
 50
204.6179528284538
 51
335.3820471713933
  0
ARC
  5
188
330
63
100
AcDbEntity
  8
0
  6
Continuous
 62
     7
100
AcDbCircle
 10
-326.9999999998942
 20
-133.0000000000399
 30
0.0
 40
1.530000000007143
100
AcDbArc
 50
24.61795282845479
 51
155.3820471713946
  0
ARC
  5
189
330
63
100
AcDbEntity
  8
0
  6
Continuous
 62
     7
100
AcDbCircle
 10
-326.9999999998991
 20
-133.0000000000355
 30
0.0
 40
1.530000000000955
100
AcDbArc
 50
155.3820471714683
 51
180.000000000165
  0
ARC
  5
18A
330
63
100
AcDbEntity
  8
0
  6
Continuous
 62
     7
100
AcDbCircle
 10
-326.9999999998938
 20
-124.0000000000683
 30
0.0
 40
1.530000000006169
100
AcDbArc
 50
179.9999999989367
 51
204.6179528273001
  0
ARC
  5
18B
330
63
100
AcDbEntity
  8
0
  6
Continuous
 62
     7
100
AcDbCircle
 10
-326.9999999999
 20
-124.0000000000399
 30
0.0
 40
1.530000000001854
100
AcDbArc
 50
335.3820471713029
 51
180.0
  0
ARC
  5
18C
330
63
100
AcDbEntity
  8
0
  6
Continuous
 62
     7
100
AcDbCircle
 10
-326.9999999998938
 20
-133.0000000000385
 30
0.0
 40
1.530000000006169
100
AcDbArc
 50
180.0000000000521
 51
24.61795282841359
  0
ENDBLK
  5
65
330
63
100
AcDbEntity
  8
0
100
AcDbBlockEnd
  0
BLOCK
  5
68
330
66
100
AcDbEntity
  8
0
100
AcDbBlockBegin
  2
SA_Rechts1
 70
     0
 10
-327.99999999995
 20
-127.00000000002
 30
0.0
  3
SA_Rechts1
  1

  0
INSERT
  5
67
330
66
100
AcDbEntity
  8
0
100
AcDbBlockReference
  2
CF_1000_10_LOC10-select__5
 10
-335.4999999999
 20
-159.5000000000399
 30
0.0
  0
MTEXT
  5
18D
330
66
100
AcDbEntity
  8
1
 62
     6
100
AcDbMText
 10
-327.99999999995
 20
-164.50000000002
 30
0.0
 40
5.0
 41
0.0
 71
     2
 72
     1
  1
 
  7
CONVERTER_11
 73
     1
 44
1.32052821128451
  0
ENDBLK
  5
69
330
66
100
AcDbEntity
  8
0
100
AcDbBlockEnd
  0
BLOCK
  5
6B
330
6A
100
AcDbEntity
  8
0
100
AcDbBlockBegin
  2
CF_1000_10_LOC10-select__6
 70
     0
 10
-300.5000000000001
 20
-159.5000000000399
 30
0.0
  3
CF_1000_10_LOC10-select__6
  1

  0
LINE
  5
18E
330
6A
100
AcDbEntity
  8
0
  6
Continuous
 62
     7
100
AcDbLine
 10
-293.5000000000001
 20
-139.5000000000399
 30
0.0
 11
-294.5000000000001
 21
-139.5000000000399
 31
0.0
  0
LINE
  5
18F
330
6A
100
AcDbEntity
  8
0
  6
Continuous
 62
     7
100
AcDbLine
 10
-294.5000000000001
 20
-118.5000000000399
 30
0.0
 11
-300.5000000000001
 21
-118.5000000000399
 31
0.0
  0
LINE
  5
190
330
6A
100
AcDbEntity
  8
0
  6
Continuous
 62
     7
100
AcDbLine
 10
-293.5000000000001
 20
-134.5000000000399
 30
0.0
 11
-293.5000000000001
 21
-139.5000000000399
 31
0.0
  0
LINE
  5
191
330
6A
100
AcDbEntity
  8
0
  6
Continuous
 62
     7
100
AcDbLine
 10
-293.5000000000001
 20
-139.5000000000399
 30
0.0
 11
-293.5000000000001
 21
-149.5000000000399
 31
0.0
  0
LINE
  5
192
330
6A
100
AcDbEntity
  8
0
  6
Continuous
 62
     7
100
AcDbLine
 10
-294.5000000000001
 20
-139.5000000000399
 30
0.0
 11
-294.5000000000001
 21
-118.5000000000399
 31
0.0
  0
LINE
  5
193
330
6A
100
AcDbEntity
  8
0
  6
Continuous
 62
     7
100
AcDbLine
 10
-300.5000000000001
 20
-118.5000000000399
 30
0.0
 11
-300.5000000000001
 21
-105.0825756949957
 31
0.0
  0
LINE
  5
194
330
6A
100
AcDbEntity
  8
0
  6
Continuous
 62
     7
100
AcDbLine
 10
-300.5000000000001
 20
-95.91742430508404
 30
0.0
 11
-300.5000000000001
 21
-94.50000000003988
 31
0.0
  0
LINE
  5
195
330
6A
100
AcDbEntity
  8
0
  6
Continuous
 62
     7
100
AcDbLine
 10
-300.5000000000001
 20
-94.50000000003988
 30
0.0
 11
-276.5000000000001
 21
-94.50000000003988
 31
0.0
  0
LINE
  5
196
330
6A
100
AcDbEntity
  8
0
  6
Continuous
 62
     7
100
AcDbLine
 10
-276.5000000000001
 20
-118.5000000000399
 30
0.0
 11
-282.5000000000001
 21
-118.5000000000399
 31
0.0
  0
LINE
  5
197
330
6A
100
AcDbEntity
  8
0
  6
Continuous
 62
     7
100
AcDbLine
 10
-293.5000000000001
 20
-134.5000000000399
 30
0.0
 11
-283.5000000000001
 21
-134.5000000000399
 31
0.0
  0
LINE
  5
198
330
6A
100
AcDbEntity
  8
0
  6
Continuous
 62
     7
100
AcDbLine
 10
-291.0000000000001
 20
-143.5000000000399
 30
0.0
 11
-291.0000000000001
 21
-149.5000000000399
 31
0.0
  0
LINE
  5
199
330
6A
100
AcDbEntity
  8
0
  6
Continuous
 62
     7
100
AcDbLine
 10
-286.0000000000001
 20
-149.5000000000399
 30
0.0
 11
-286.0000000000001
 21
-143.5000000000399
 31
0.0
  0
LINE
  5
19A
330
6A
100
AcDbEntity
  8
0
  6
Continuous
 62
     7
100
AcDbLine
 10
-284.5000000000001
 20
-149.5000000000399
 30
0.0
 11
-284.5000000000001
 21
-159.5000000000399
 31
0.0
  0
LINE
  5
19B
330
6A
100
AcDbEntity
  8
0
  6
Continuous
 62
     7
100
AcDbLine
 10
-276.5000000000001
 20
-94.50000000003988
 30
0.0
 11
-276.5000000000001
 21
-95.91742430508404
 31
0.0
  0
LINE
  5
19C
330
6A
100
AcDbEntity
  8
0
  6
Continuous
 62
     7
100
AcDbLine
 10
-283.5000000000001
 20
-139.5000000000399
 30
0.0
 11
-282.5000000000001
 21
-139.5000000000399
 31
0.0
  0
LINE
  5
19D
330
6A
100
AcDbEntity
  8
0
  6
Continuous
 62
     7
100
AcDbLine
 10
-283.5000000000001
 20
-139.5000000000399
 30
0.0
 11
-283.5000000000001
 21
-134.5000000000399
 31
0.0
  0
LINE
  5
19E
330
6A
100
AcDbEntity
  8
0
  6
Continuous
 62
     7
100
AcDbLine
 10
-283.5000000000001
 20
-149.5000000000399
 30
0.0
 11
-283.5000000000001
 21
-139.5000000000399
 31
0.0
  0
LINE
  5
19F
330
6A
100
AcDbEntity
  8
0
  6
Continuous
 62
     7
100
AcDbLine
 10
-282.5000000000001
 20
-139.5000000000399
 30
0.0
 11
-282.5000000000001
 21
-159.5000000000399
 31
0.0
  0
LINE
  5
1A0
330
6A
100
AcDbEntity
  8
0
  6
Continuous
 62
     7
100
AcDbLine
 10
-282.5000000000001
 20
-118.5000000000399
 30
0.0
 11
-282.5000000000001
 21
-139.5000000000399
 31
0.0
  0
LINE
  5
1A1
330
6A
100
AcDbEntity
  8
0
  6
Continuous
 62
     7
100
AcDbLine
 10
-276.5000000000001
 20
-105.0825756949957
 30
0.0
 11
-276.5000000000001
 21
-118.5000000000399
 31
0.0
  0
LINE
  5
1A2
330
6A
100
AcDbEntity
  8
0
  6
Continuous
 62
     7
100
AcDbLine
 10
-282.5000000000001
 20
-159.5000000000399
 30
0.0
 11
-284.5000000000001
 21
-159.5000000000399
 31
0.0
  0
LINE
  5
1A3
330
6A
100
AcDbEntity
  8
0
  6
Continuous
 62
     7
100
AcDbLine
 10
-294.5000000000001
 20
-159.5000000000399
 30
0.0
 11
-292.5000000000001
 21
-159.5000000000399
 31
0.0
  0
LINE
  5
1A4
330
6A
100
AcDbEntity
  8
0
  6
Continuous
 62
     7
100
AcDbLine
 10
-284.5000000000001
 20
-159.5000000000399
 30
0.0
 11
-292.5000000000001
 21
-159.5000000000399
 31
0.0
  0
LINE
  5
1A5
330
6A
100
AcDbEntity
  8
0
  6
Continuous
 62
     7
100
AcDbLine
 10
-293.5000000000001
 20
-149.5000000000399
 30
0.0
 11
-291.0000000000001
 21
-149.5000000000399
 31
0.0
  0
LINE
  5
1A6
330
6A
100
AcDbEntity
  8
0
  6
Continuous
 62
     7
100
AcDbLine
 10
-286.0000000000001
 20
-149.5000000000399
 30
0.0
 11
-283.5000000000001
 21
-149.5000000000399
 31
0.0
  0
LINE
  5
1A7
330
6A
100
AcDbEntity
  8
0
  6
Continuous
 62
     7
100
AcDbLine
 10
-294.5000000000001
 20
-159.5000000000399
 30
0.0
 11
-294.5000000000001
 21
-139.5000000000399
 31
0.0
  0
LINE
  5
1A8
330
6A
100
AcDbEntity
  8
0
  6
Continuous
 62
     7
100
AcDbLine
 10
-292.5000000000001
 20
-159.5000000000399
 30
0.0
 11
-292.5000000000001
 21
-149.5000000000399
 31
0.0
  0
LINE
  5
1A9
330
6A
100
AcDbEntity
  8
1
  6
DOT_CENTER
 62
     2
100
AcDbLine
 10
-284.1275000000002
 20
-128.5000000000399
 30
0.0
 11
-292.8725000000001
 21
-128.5000000000399
 31
0.0
  0
LINE
  5
1AA
330
6A
100
AcDbEntity
  8
1
  6
DOT_CENTER
 62
     2
100
AcDbLine
 10
-288.5000000000001
 20
-124.1275000000399
 30
0.0
 11
-288.5000000000001
 21
-132.8725000000399
 31
0.0
  0
LINE
  5
1AB
330
6A
100
AcDbEntity
  8
1
  6
DOT_CENTER
 62
     2
100
AcDbLine
 10
-285.9700000000001
 20
-143.5000000000399
 30
0.0
 11
-291.0300000000001
 21
-143.5000000000399
 31
0.0
  0
LINE
  5
1AC
330
6A
100
AcDbEntity
  8
1
  6
DOT_CENTER
 62
     2
100
AcDbLine
 10
-288.5000000000001
 20
-140.9700000000399
 30
0.0
 11
-288.5000000000001
 21
-146.0300000000399
 31
0.0
  0
ARC
  5
1AD
330
6A
100
AcDbEntity
  8
0
  6
Continuous
 62
     7
100
AcDbCircle
 10
-302.5000000000001
 20
-100.5000000000399
 30
0.0
 40
4.999999999999956
100
AcDbArc
 50
293.5781784782021
 51
66.42182152179828
  0
ARC
  5
1AE
330
6A
100
AcDbEntity
  8
0
  6
Continuous
 62
     7
100
AcDbCircle
 10
-288.5000000000001
 20
-143.5000000000399
 30
0.0
 40
2.5
100
AcDbArc
 50
0.0
 51
180.0
  0
ARC
  5
1AF
330
6A
100
AcDbEntity
  8
0
  6
Continuous
 62
     7
100
AcDbCircle
 10
-274.5000000000001
 20
-100.5000000000399
 30
0.0
 40
5.000000000000021
100
AcDbArc
 50
113.5781784782017
 51
246.4218215217979
  0
CIRCLE
  5
1B0
330
6A
100
AcDbEntity
  8
0
  6
Continuous
 62
     7
100
AcDbCircle
 10
-288.5000000000001
 20
-128.5000000000399
 30
0.0
 40
2.729865661046233
  0
CIRCLE
  5
1B1
330
6A
100
AcDbEntity
  8
0
  6
Continuous
 62
     7
100
AcDbCircle
 10
-288.5000000000001
 20
-128.5000000000399
 30
0.0
 40
3.137868461186258
  0
CIRCLE
  5
1B2
330
6A
100
AcDbEntity
  8
0
  6
Continuous
 62
     7
100
AcDbCircle
 10
-288.5000000000001
 20
-143.5000000000399
 30
0.0
 40
2.300000000000011
  0
CIRCLE
  5
1B3
330
6A
100
AcDbEntity
  8
0
  6
Continuous
 62
     7
100
AcDbCircle
 10
-288.5000000000001
 20
-128.5000000000399
 30
0.0
 40
3.974999999999966
  0
ENDBLK
  5
6C
330
6A
100
AcDbEntity
  8
0
100
AcDbBlockEnd
  0
BLOCK
  5
6F
330
6D
100
AcDbEntity
  8
0
100
AcDbBlockBegin
  2
Vordans1
 70
     0
 10
-288.5000000000001
 20
-127.00000000002
 30
0.0
  3
Vordans1
  1

  0
INSERT
  5
6E
330
6D
100
AcDbEntity
  8
0
100
AcDbBlockReference
  2
CF_1000_10_LOC10-select__6
 10
-300.5000000000001
 20
-159.5000000000399
 30
0.0
  0
MTEXT
  5
1B4
330
6D
100
AcDbEntity
  8
1
 62
     6
100
AcDbMText
 10
-288.5
 20
-164.50000000002
 30
0.0
 40
5.0
 41
0.0
 71
     2
 72
     1
  1
 
  7
CONVERTER_11
 73
     1
 44
1.32052821128451
  0
DIMENSION
  5
1BF
330
6D
100
AcDbEntity
  8
1
100
AcDbDimension
  2
*D18
 10
-300.5000000000001
 20
-85.91742430508404
 30
0.0
 11
-288.5844703814051
 21
-82.66742430508404
 31
0.0
 70
    32
  1
<>
 71
     5
 42
-1.0
 53
0.00013888888889
  3
ME10_DIM_11
100
AcDbAlignedDimension
 13
-276.5000000000001
 23
-95.91742430508404
 33
0.0
 14
-300.5000000000001
 24
-95.91742430508404
 34
0.0
100
AcDbRotatedDimension
  0
DIMENSION
  5
1CA
330
6D
100
AcDbEntity
  8
1
100
AcDbDimension
  2
*D19
 10
-266.5000000000001
 20
-94.50000000003992
 30
0.0
 11
-269.7500000000001
 21
-127.634986301039
 31
0.0
 70
    32
  1
<>
 71
     5
 42
-1.0
 53
90.0
  3
ME10_DIM_12
100
AcDbAlignedDimension
 13
-284.5000000000001
 23
-159.5000000000399
 33
0.0
 14
-276.5000000000001
 24
-94.50000000003988
 34
0.0
 50
90.0
100
AcDbRotatedDimension
  0
ENDBLK
  5
70
330
6D
100
AcDbEntity
  8
0
100
AcDbBlockEnd
  0
BLOCK
  5
72
330
71
100
AcDbEntity
  8
0
100
AcDbBlockBegin
  2
_rahmen
 70
     0
 10
-123.4999999999899
 20
-267.0000000000051
 30
0.0
  3
_rahmen
  1

  0
LINE
  5
1CB
330
71
100
AcDbEntity
  8
1
  6
Continuous
 62
     6
100
AcDbLine
 10
-253.0448045267399
 20
-236.500000000005
 30
0.0
 11
-123.4999999999882
 21
-236.500000000005
 31
0.0
  0
LINE
  5
1CC
330
71
100
AcDbEntity
  8
1
  6
Continuous
 62
     7
100
AcDbLine
 10
-234.8448045267399
 20
-257.750000000005
 30
0.0
 11
-216.64480452674
 21
-257.750000000005
 31
0.0
  0
LINE
  5
1CD
330
71
100
AcDbEntity
  8
1
  6
Continuous
 62
     6
100
AcDbLine
 10
-234.8448045267399
 20
-262.000000000005
 30
0.0
 11
-253.0448045267399
 21
-262.0000000000051
 31
0.0
  0
LINE
  5
1CE
330
71
100
AcDbEntity
  8
1
  6
Continuous
 62
     7
100
AcDbLine
 10
-234.8448045267399
 20
-257.750000000005
 30
0.0
 11
-234.8448045267399
 21
-262.000000000005
 31
0.0
  0
LINE
  5
1CF
330
71
100
AcDbEntity
  8
1
  6
Continuous
 62
     7
100
AcDbLine
 10
-216.64480452674
 20
-257.750000000005
 30
0.0
 11
-216.64480452674
 21
-262.0000000000051
 31
0.0
  0
LINE
  5
1D0
330
71
100
AcDbEntity
  8
1
  6
Continuous
 62
     7
100
AcDbLine
 10
-253.0448045267399
 20
-257.7500000000051
 30
0.0
 11
-253.0448045267399
 21
-262.0000000000051
 31
0.0
  0
LINE
  5
1D1
330
71
100
AcDbEntity
  8
1
  6
Continuous
 62
     7
100
AcDbLine
 10
-253.0448045267399
 20
-257.7500000000051
 30
0.0
 11
-234.8448045267399
 21
-257.750000000005
 31
0.0
  0
LINE
  5
1D2
330
71
100
AcDbEntity
  8
1
  6
Continuous
 62
     2
100
AcDbLine
 10
-243.8081496401773
 20
-238.3750000000051
 30
0.0
 11
-243.8081496401773
 21
-243.3750000000051
 31
0.0
  0
LINE
  5
1D3
330
71
100
AcDbEntity
  8
1
  6
Continuous
 62
     2
100
AcDbLine
 10
-243.8081496401773
 20
-243.3750000000051
 30
0.0
 11
-248.8081496401773
 21
-242.1250000000051
 31
0.0
  0
LINE
  5
1D4
330
71
100
AcDbEntity
  8
1
  6
Continuous
 62
     2
100
AcDbLine
 10
-248.8081496401773
 20
-242.1250000000051
 30
0.0
 11
-248.8081496401773
 21
-239.6250000000051
 31
0.0
  0
LINE
  5
1D5
330
71
100
AcDbEntity
  8
1
  6
Continuous
 62
     2
100
AcDbLine
 10
-248.8081496401773
 20
-239.6250000000051
 30
0.0
 11
-243.8081496401773
 21
-238.3750000000051
 31
0.0
  0
LINE
  5
1D6
330
71
100
AcDbEntity
  8
1
  6
Continuous
 62
     6
100
AcDbLine
 10
-375.4999999999881
 20
-262.000000000005
 30
0.0
 11
-410.499999999988
 21
-262.000000000005
 31
0.0
  0
LINE
  5
1D7
330
71
100
AcDbEntity
  8
1
  6
Continuous
 62
     6
100
AcDbLine
 10
-123.4999999999882
 20
-245.000000000005
 30
0.0
 11
-123.4999999999886
 21
-253.500000000005
 31
0.0
  0
LINE
  5
1D8
330
71
100
AcDbEntity
  8
1
  6
Continuous
 62
     6
100
AcDbLine
 10
-216.64480452674
 20
-262.0000000000051
 30
0.0
 11
-216.9999999999899
 21
-262.000000000005
 31
0.0
  0
LINE
  5
1D9
330
71
100
AcDbEntity
  8
1
  6
Continuous
 62
     6
100
AcDbLine
 10
-369.2999999999901
 20
-262.0000000000051
 30
0.0
 11
-375.4999999999881
 21
-262.000000000005
 31
0.0
  0
LINE
  5
1DA
330
71
100
AcDbEntity
  8
1
  6
Continuous
 62
     7
100
AcDbLine
 10
-216.64480452674
 20
-245.000000000005
 30
0.0
 11
-216.64480452674
 21
-257.750000000005
 31
0.0
  0
LINE
  5
1DB
330
71
100
AcDbEntity
  8
1
  6
Continuous
 62
     7
100
AcDbLine
 10
-253.0448045267399
 20
-245.000000000005
 30
0.0
 11
-253.0448045267399
 21
-257.7500000000051
 31
0.0
  0
LINE
  5
1DC
330
71
100
AcDbEntity
  8
1
  6
Continuous
 62
     6
100
AcDbLine
 10
-266.9999999999899
 20
-262.000000000005
 30
0.0
 11
-316.9999999999901
 21
-262.000000000005
 31
0.0
  0
LINE
  5
1DD
330
71
100
AcDbEntity
  8
1
  6
Continuous
 62
     6
100
AcDbLine
 10
-369.2999999999901
 20
-262.0000000000051
 30
0.0
 11
-366.9999999999899
 21
-262.000000000005
 31
0.0
  0
LINE
  5
1DE
330
71
100
AcDbEntity
  8
1
  6
Continuous
 62
     6
100
AcDbLine
 10
-216.64480452674
 20
-262.0000000000051
 30
0.0
 11
-166.9999999999899
 21
-262.000000000005
 31
0.0
  0
LINE
  5
1DF
330
71
100
AcDbEntity
  8
1
  6
Continuous
 62
     6
100
AcDbLine
 10
-123.4999999999899
 20
-262.000000000005
 30
0.0
 11
-123.4999999999886
 21
-253.500000000005
 31
0.0
  0
LINE
  5
1E0
330
71
100
AcDbEntity
  8
1
  6
Continuous
 62
     2
100
AcDbLine
 10
-415.499999999989
 20
-262.000000000005
 30
0.0
 11
-415.499999999989
 21
-267.0000000000051
 31
0.0
  0
LINE
  5
1E1
330
71
100
AcDbEntity
  8
1
  6
Continuous
 62
     2
100
AcDbLine
 10
-410.499999999988
 20
-262.000000000005
 30
0.0
 11
-415.499999999989
 21
-262.000000000005
 31
0.0
  0
LINE
  5
1E2
330
71
100
AcDbEntity
  8
1
  6
Continuous
 62
     2
100
AcDbLine
 10
-410.499999999988
 20
-267.0000000000051
 30
0.0
 11
-366.9999999999899
 21
-267.0000000000051
 31
0.0
  0
LINE
  5
1E3
330
71
100
AcDbEntity
  8
1
  6
Continuous
 62
     2
100
AcDbLine
 10
-410.499999999988
 20
-262.000000000005
 30
0.0
 11
-410.499999999988
 21
-267.0000000000051
 31
0.0
  0
LINE
  5
1E4
330
71
100
AcDbEntity
  8
1
  6
Continuous
 62
     2
100
AcDbLine
 10
-166.9999999999899
 20
-267.0000000000051
 30
0.0
 11
-216.9999999999899
 21
-267.0000000000051
 31
0.0
  0
LINE
  5
1E5
330
71
100
AcDbEntity
  8
1
  6
Continuous
 62
     2
100
AcDbLine
 10
-166.9999999999899
 20
-267.0000000000051
 30
0.0
 11
-166.9999999999899
 21
-262.000000000005
 31
0.0
  0
LINE
  5
1E6
330
71
100
AcDbEntity
  8
1
  6
Continuous
 62
     2
100
AcDbLine
 10
-216.9999999999899
 20
-267.0000000000051
 30
0.0
 11
-216.9999999999899
 21
-262.000000000005
 31
0.0
  0
LINE
  5
1E7
330
71
100
AcDbEntity
  8
1
  6
Continuous
 62
     2
100
AcDbLine
 10
-266.9999999999899
 20
-267.0000000000051
 30
0.0
 11
-216.9999999999899
 21
-267.0000000000051
 31
0.0
  0
LINE
  5
1E8
330
71
100
AcDbEntity
  8
1
  6
Continuous
 62
     2
100
AcDbLine
 10
-266.9999999999899
 20
-267.0000000000051
 30
0.0
 11
-266.9999999999899
 21
-262.000000000005
 31
0.0
  0
LINE
  5
1E9
330
71
100
AcDbEntity
  8
1
  6
Continuous
 62
     2
100
AcDbLine
 10
-316.9999999999901
 20
-267.0000000000051
 30
0.0
 11
-266.9999999999899
 21
-267.0000000000051
 31
0.0
  0
LINE
  5
1EA
330
71
100
AcDbEntity
  8
1
  6
Continuous
 62
     2
100
AcDbLine
 10
-316.9999999999901
 20
-267.0000000000051
 30
0.0
 11
-316.9999999999901
 21
-262.000000000005
 31
0.0
  0
LINE
  5
1EB
330
71
100
AcDbEntity
  8
1
  6
Continuous
 62
     2
100
AcDbLine
 10
-366.9999999999899
 20
-267.0000000000051
 30
0.0
 11
-316.9999999999901
 21
-267.0000000000051
 31
0.0
  0
LINE
  5
1EC
330
71
100
AcDbEntity
  8
1
  6
Continuous
 62
     2
100
AcDbLine
 10
-366.9999999999899
 20
-267.0000000000051
 30
0.0
 11
-366.9999999999899
 21
-262.000000000005
 31
0.0
  0
LINE
  5
1ED
330
71
100
AcDbEntity
  8
1
  6
Continuous
 62
     6
100
AcDbLine
 10
-410.4999999999882
 20
-212.0000000000049
 30
0.0
 11
-410.499999999988
 21
-262.000000000005
 31
0.0
  0
LINE
  5
1EE
330
71
100
AcDbEntity
  8
1
  6
Continuous
 62
     2
100
AcDbLine
 10
-415.499999999989
 20
-212.0000000000049
 30
0.0
 11
-415.499999999989
 21
-262.000000000005
 31
0.0
  0
LINE
  5
1EF
330
71
100
AcDbEntity
  8
1
  6
Continuous
 62
     2
100
AcDbLine
 10
-415.499999999989
 20
-212.0000000000049
 30
0.0
 11
-410.4999999999882
 21
-212.0000000000049
 31
0.0
  0
LINE
  5
1F0
330
71
100
AcDbEntity
  8
1
  6
Continuous
 62
     6
100
AcDbLine
 10
-410.4999999999884
 20
-162.0000000000051
 30
0.0
 11
-410.4999999999882
 21
-212.0000000000049
 31
0.0
  0
LINE
  5
1F1
330
71
100
AcDbEntity
  8
1
  6
Continuous
 62
     2
100
AcDbLine
 10
-415.499999999989
 20
-162.0000000000051
 30
0.0
 11
-415.499999999989
 21
-212.0000000000049
 31
0.0
  0
LINE
  5
1F2
330
71
100
AcDbEntity
  8
1
  6
Continuous
 62
     2
100
AcDbLine
 10
-415.499999999989
 20
-162.0000000000051
 30
0.0
 11
-410.4999999999884
 21
-162.0000000000051
 31
0.0
  0
LINE
  5
1F3
330
71
100
AcDbEntity
  8
1
  6
Continuous
 62
     6
100
AcDbLine
 10
-410.4999999999889
 20
-112.000000000005
 30
0.0
 11
-410.4999999999884
 21
-162.0000000000051
 31
0.0
  0
LINE
  5
1F4
330
71
100
AcDbEntity
  8
1
  6
Continuous
 62
     2
100
AcDbLine
 10
-415.499999999989
 20
-112.000000000005
 30
0.0
 11
-415.499999999989
 21
-162.0000000000051
 31
0.0
  0
LINE
  5
1F5
330
71
100
AcDbEntity
  8
1
  6
Continuous
 62
     2
100
AcDbLine
 10
-415.499999999989
 20
-112.000000000005
 30
0.0
 11
-410.4999999999889
 21
-112.000000000005
 31
0.0
  0
LINE
  5
1F6
330
71
100
AcDbEntity
  8
1
  6
Continuous
 62
     6
100
AcDbLine
 10
-410.499999999989
 20
-77.000000000005
 30
0.0
 11
-410.4999999999889
 21
-112.000000000005
 31
0.0
  0
LINE
  5
1F7
330
71
100
AcDbEntity
  8
1
  6
Continuous
 62
     2
100
AcDbLine
 10
-415.499999999989
 20
-57.000000000005
 30
0.0
 11
-415.499999999989
 21
-112.000000000005
 31
0.0
  0
LINE
  5
1F8
330
71
100
AcDbEntity
  8
1
  6
Continuous
 62
     2
100
AcDbLine
 10
-415.499999999989
 20
-267.0000000000051
 30
0.0
 11
-410.499999999988
 21
-267.0000000000051
 31
0.0
  0
LINE
  5
1F9
330
71
100
AcDbEntity
  8
1
  6
Continuous
 62
     2
100
AcDbLine
 10
-266.9999999999899
 20
-57.000000000005
 30
0.0
 11
-266.9999999999899
 21
-66.20869184470632
 31
0.0
  0
LINE
  5
1FA
330
71
100
AcDbEntity
  8
1
  6
Continuous
 62
     2
100
AcDbLine
 10
-266.9999999999899
 20
-57.000000000005
 30
0.0
 11
-415.499999999989
 21
-57.000000000005
 31
0.0
  0
LINE
  5
1FB
330
71
100
AcDbEntity
  8
1
  6
Continuous
 62
     2
100
AcDbLine
 10
-118.4999999999909
 20
-262.000000000005
 30
0.0
 11
-118.4999999999909
 21
-212.0000000000049
 31
0.0
  0
LINE
  5
1FC
330
71
100
AcDbEntity
  8
1
  6
Continuous
 62
     2
100
AcDbLine
 10
-118.4999999999909
 20
-112.000000000005
 30
0.0
 11
-118.4999999999909
 21
-57.000000000005
 31
0.0
  0
LINE
  5
1FD
330
71
100
AcDbEntity
  8
1
  6
Continuous
 62
     6
100
AcDbLine
 10
-123.4999999999907
 20
-112.000000000005
 30
0.0
 11
-123.4999999999909
 21
-77.000000000005
 31
0.0
  0
LINE
  5
1FE
330
71
100
AcDbEntity
  8
1
  6
Continuous
 62
     2
100
AcDbLine
 10
-123.4999999999907
 20
-112.000000000005
 30
0.0
 11
-118.4999999999909
 21
-112.000000000005
 31
0.0
  0
LINE
  5
1FF
330
71
100
AcDbEntity
  8
1
  6
Continuous
 62
     2
100
AcDbLine
 10
-118.4999999999909
 20
-162.0000000000051
 30
0.0
 11
-118.4999999999909
 21
-112.000000000005
 31
0.0
  0
LINE
  5
200
330
71
100
AcDbEntity
  8
1
  6
Continuous
 62
     6
100
AcDbLine
 10
-123.4999999999895
 20
-162.0000000000051
 30
0.0
 11
-123.4999999999907
 21
-112.000000000005
 31
0.0
  0
LINE
  5
201
330
71
100
AcDbEntity
  8
1
  6
Continuous
 62
     2
100
AcDbLine
 10
-123.4999999999895
 20
-162.0000000000051
 30
0.0
 11
-118.4999999999909
 21
-162.0000000000051
 31
0.0
  0
LINE
  5
202
330
71
100
AcDbEntity
  8
1
  6
Continuous
 62
     2
100
AcDbLine
 10
-118.4999999999909
 20
-212.0000000000049
 30
0.0
 11
-118.4999999999909
 21
-162.0000000000051
 31
0.0
  0
LINE
  5
203
330
71
100
AcDbEntity
  8
1
  6
Continuous
 62
     6
100
AcDbLine
 10
-123.499999999989
 20
-212.0000000000049
 30
0.0
 11
-123.4999999999895
 21
-162.0000000000051
 31
0.0
  0
LINE
  5
204
330
71
100
AcDbEntity
  8
1
  6
Continuous
 62
     2
100
AcDbLine
 10
-123.499999999989
 20
-212.0000000000049
 30
0.0
 11
-118.4999999999909
 21
-212.0000000000049
 31
0.0
  0
LINE
  5
205
330
71
100
AcDbEntity
  8
1
  6
Continuous
 62
     6
100
AcDbLine
 10
-123.4999999999909
 20
-77.000000000005
 30
0.0
 11
-410.499999999989
 21
-77.000000000005
 31
0.0
  0
LINE
  5
206
330
71
100
AcDbEntity
  8
1
  6
Continuous
 62
     2
100
AcDbLine
 10
-118.4999999999909
 20
-57.000000000005
 30
0.0
 11
-266.9999999999899
 21
-57.000000000005
 31
0.0
  0
LINE
  5
207
330
71
100
AcDbEntity
  8
1
  6
Continuous
 62
     6
100
AcDbLine
 10
-123.4999999999882
 20
-245.000000000005
 30
0.0
 11
-123.499999999989
 21
-212.0000000000049
 31
0.0
  0
LINE
  5
208
330
71
100
AcDbEntity
  8
1
  6
Continuous
 62
     2
100
AcDbLine
 10
-123.4999999999899
 20
-267.0000000000051
 30
0.0
 11
-166.9999999999899
 21
-267.0000000000051
 31
0.0
  0
LINE
  5
209
330
71
100
AcDbEntity
  8
1
  6
Continuous
 62
     2
100
AcDbLine
 10
-118.4999999999909
 20
-267.0000000000051
 30
0.0
 11
-123.4999999999899
 21
-267.0000000000051
 31
0.0
  0
LINE
  5
20A
330
71
100
AcDbEntity
  8
1
  6
Continuous
 62
     2
100
AcDbLine
 10
-118.4999999999909
 20
-267.0000000000051
 30
0.0
 11
-118.4999999999909
 21
-262.000000000005
 31
0.0
  0
LINE
  5
20B
330
71
100
AcDbEntity
  8
1
  6
Continuous
 62
     6
100
AcDbLine
 10
-253.0448045267399
 20
-245.000000000005
 30
0.0
 11
-216.64480452674
 21
-245.000000000005
 31
0.0
  0
LINE
  5
20C
330
71
100
AcDbEntity
  8
1
  6
Continuous
 62
     2
100
AcDbLine
 10
-123.4999999999899
 20
-262.000000000005
 30
0.0
 11
-123.4999999999899
 21
-267.0000000000051
 31
0.0
  0
LINE
  5
20D
330
71
100
AcDbEntity
  8
1
  6
Continuous
 62
     2
100
AcDbLine
 10
-123.4999999999899
 20
-262.000000000005
 30
0.0
 11
-118.4999999999909
 21
-262.000000000005
 31
0.0
  0
LINE
  5
20E
330
71
100
AcDbEntity
  8
1
  6
Continuous
 62
     6
100
AcDbLine
 10
-216.9999999999899
 20
-262.000000000005
 30
0.0
 11
-234.8448045267399
 21
-262.000000000005
 31
0.0
  0
LINE
  5
20F
330
71
100
AcDbEntity
  8
1
  6
Continuous
 62
     6
100
AcDbLine
 10
-166.9999999999899
 20
-262.000000000005
 30
0.0
 11
-123.4999999999899
 21
-262.000000000005
 31
0.0
  0
LINE
  5
210
330
71
100
AcDbEntity
  8
1
  6
Continuous
 62
     6
100
AcDbLine
 10
-316.9999999999901
 20
-262.000000000005
 30
0.0
 11
-322.0448045267399
 21
-262.000000000005
 31
0.0
  0
LINE
  5
211
330
71
100
AcDbEntity
  8
1
  6
Continuous
 62
     6
100
AcDbLine
 10
-266.9999999999899
 20
-262.000000000005
 30
0.0
 11
-253.0448045267399
 21
-262.0000000000051
 31
0.0
  0
LINE
  5
212
102
{ACAD_REACTORS
330
2FC
330
2FD
102
}
330
71
100
AcDbEntity
  8
0
  6
Continuous
 62
     2
100
AcDbLine
 10
-245.5301785845931
 20
-249.9274852437929
 30
0.0
 11
-245.5301785845931
 21
-249.3219499552861
 31
0.0
  0
LINE
  5
213
102
{ACAD_REACTORS
330
2FC
330
2FD
102
}
330
71
100
AcDbEntity
  8
0
  6
Continuous
 62
     2
100
AcDbLine
 10
-245.5301785845931
 20
-252.7276198504242
 30
0.0
 11
-245.5301785845931
 21
-252.1457684437291
 31
0.0
  0
LINE
  5
214
102
{ACAD_REACTORS
330
2FE
330
2FF
102
}
330
71
100
AcDbEntity
  8
0
  6
Continuous
 62
     2
100
AcDbLine
 10
-222.9006921491139
 20
-252.4379557823012
 30
0.0
 11
-222.9006921491139
 21
-254.7064999999887
 31
0.0
  0
LINE
  5
215
102
{ACAD_REACTORS
330
2FE
330
2FF
102
}
330
71
100
AcDbEntity
  8
0
  6
Continuous
 62
     2
100
AcDbLine
 10
-224.2817459281015
 20
-251.6526904761781
 30
0.0
 11
-220.8968004094728
 21
-251.6526904761776
 31
0.0
  0
LINE
  5
216
102
{ACAD_REACTORS
330
2FE
330
2FF
102
}
330
71
100
AcDbEntity
  8
0
  6
Continuous
 62
     2
100
AcDbLine
 10
-220.8968004094728
 20
-252.4379557823012
 30
0.0
 11
-220.8968004094728
 21
-251.6526904761776
 31
0.0
  0
LINE
  5
217
102
{ACAD_REACTORS
330
2FE
330
2FF
102
}
330
71
100
AcDbEntity
  8
0
  6
Continuous
 62
     2
100
AcDbLine
 10
-221.7078994469462
 20
-252.4379557823012
 30
0.0
 11
-220.8968004094728
 21
-252.4379557823012
 31
0.0
  0
LINE
  5
218
102
{ACAD_REACTORS
330
2FE
330
2FF
102
}
330
71
100
AcDbEntity
  8
0
  6
Continuous
 62
     2
100
AcDbLine
 10
-221.7078994469462
 20
-254.7064999999887
 30
0.0
 11
-221.7078994469462
 21
-252.4379557823012
 31
0.0
  0
LINE
  5
219
102
{ACAD_REACTORS
330
2FE
330
2FF
102
}
330
71
100
AcDbEntity
  8
0
  6
Continuous
 62
     2
100
AcDbLine
 10
-222.9006921491139
 20
-254.7064999999887
 30
0.0
 11
-221.7078994469462
 21
-254.7064999999887
 31
0.0
  0
LINE
  5
21A
102
{ACAD_REACTORS
330
2F4
330
2F5
102
}
330
71
100
AcDbEntity
  8
0
  6
Continuous
 62
     2
100
AcDbLine
 10
-223.5972830871784
 20
-248.2935000000032
 30
0.0
 11
-225.0000073049277
 21
-248.2935000000032
 31
0.0
  0
LINE
  5
21B
102
{ACAD_REACTORS
330
2F4
330
2F5
102
}
330
71
100
AcDbEntity
  8
0
  6
Continuous
 62
     2
100
AcDbLine
 10
-223.5972830871784
 20
-248.2935000000032
 30
0.0
 11
-222.9961155652866
 21
-248.9733233215587
 31
0.0
  0
LINE
  5
21C
102
{ACAD_REACTORS
330
2F4
330
2F5
102
}
330
71
100
AcDbEntity
  8
0
  6
Continuous
 62
     2
100
AcDbLine
 10
-222.9961155652866
 20
-248.9733233215587
 30
0.0
 11
-222.3949480433938
 21
-248.2935000000032
 31
0.0
  0
LINE
  5
21D
102
{ACAD_REACTORS
330
2F4
330
2F5
102
}
330
71
100
AcDbEntity
  8
0
  6
Continuous
 62
     2
100
AcDbLine
 10
-222.2947534564131
 20
-249.7664505300394
 30
0.0
 11
-220.9922238256466
 21
-248.2935000000032
 31
0.0
  0
LINE
  5
21E
102
{ACAD_REACTORS
330
2F4
330
2F5
102
}
330
71
100
AcDbEntity
  8
0
  6
Continuous
 62
     2
100
AcDbLine
 10
-222.2947534564131
 20
-249.7664505300394
 30
0.0
 11
-220.8968004094728
 21
-251.3473095238144
 31
0.0
  0
LINE
  5
21F
102
{ACAD_REACTORS
330
2F4
330
2F5
102
}
330
71
100
AcDbEntity
  8
0
  6
Continuous
 62
     2
100
AcDbLine
 10
-222.2995246272211
 20
-251.3473095238144
 30
0.0
 11
-220.8968004094728
 21
-251.3473095238144
 31
0.0
  0
LINE
  5
220
102
{ACAD_REACTORS
330
2F4
330
2F5
102
}
330
71
100
AcDbEntity
  8
0
  6
Continuous
 62
     2
100
AcDbLine
 10
-222.9961155652866
 20
-250.5595777385207
 30
0.0
 11
-222.2995246272211
 21
-251.3473095238144
 31
0.0
  0
LINE
  5
221
102
{ACAD_REACTORS
330
2F2
330
2F3
102
}
330
71
100
AcDbEntity
  8
0
  6
Continuous
 62
     2
100
AcDbLine
 10
-226.4552144015703
 20
-248.2935000000032
 30
0.0
 11
-225.2147099913174
 21
-248.2935000000032
 31
0.0
  0
LINE
  5
222
102
{ACAD_REACTORS
330
2F2
330
2F3
102
}
330
71
100
AcDbEntity
  8
0
  6
Continuous
 62
     2
100
AcDbLine
 10
-225.2147099913174
 20
-248.2935000000032
 30
0.0
 11
-225.2147099913174
 21
-251.3473095238144
 31
0.0
  0
LINE
  5
223
102
{ACAD_REACTORS
330
2F2
330
2F3
102
}
330
71
100
AcDbEntity
  8
0
  6
Continuous
 62
     2
100
AcDbLine
 10
-226.4552144015703
 20
-251.3473095238144
 30
0.0
 11
-226.4552144015703
 21
-248.2935000000032
 31
0.0
  0
LINE
  5
224
102
{ACAD_REACTORS
330
2F0
330
2F1
102
}
330
71
100
AcDbEntity
  8
0
  6
Continuous
 62
     2
100
AcDbLine
 10
-227.9235244841079
 20
-253.4849761904642
 30
0.0
 11
-227.6233592469155
 21
-252.7171612244775
 31
0.0
  0
LINE
  5
225
102
{ACAD_REACTORS
330
2F0
330
2F1
102
}
330
71
100
AcDbEntity
  8
0
  6
Continuous
 62
     2
100
AcDbLine
 10
-228.4010600887287
 20
-254.7064999999887
 30
0.0
 11
-228.1895800352529
 21
-254.1655394557708
 31
0.0
  0
LINE
  5
226
102
{ACAD_REACTORS
330
2F0
330
2F1
102
}
330
71
100
AcDbEntity
  8
0
  6
Continuous
 62
     2
100
AcDbLine
 10
-228.2436114520424
 20
-251.6526904761776
 30
0.0
 11
-229.6415644989817
 21
-254.7064999999887
 31
0.0
  0
LINE
  5
227
102
{ACAD_REACTORS
330
2F0
330
2F1
102
}
330
71
100
AcDbEntity
  8
0
  6
Continuous
 62
     2
100
AcDbLine
 10
-225.6051539948494
 20
-254.7064999999887
 30
0.0
 11
-226.8456584051033
 21
-254.7064999999887
 31
0.0
  0
LINE
  5
228
102
{ACAD_REACTORS
330
2F0
330
2F1
102
}
330
71
100
AcDbEntity
  8
0
  6
Continuous
 62
     2
100
AcDbLine
 10
-228.1895800352529
 20
-254.1655394557708
 30
0.0
 11
-227.0571384585791
 21
-254.1655394557708
 31
0.0
  0
LINE
  5
229
102
{ACAD_REACTORS
330
2EE
330
2EF
102
}
330
71
100
AcDbEntity
  8
0
  6
Continuous
 62
     2
100
AcDbLine
 10
-231.7990766381639
 20
-252.4379557823012
 30
0.0
 11
-230.9879776006893
 21
-252.4379557823012
 31
0.0
  0
LINE
  5
22A
102
{ACAD_REACTORS
330
2EE
330
2EF
102
}
330
71
100
AcDbEntity
  8
0
  6
Continuous
 62
     2
100
AcDbLine
 10
-228.9840858610503
 20
-251.6526904761776
 30
0.0
 11
-231.7990766381639
 21
-251.6526904761776
 31
0.0
  0
LINE
  5
22B
102
{ACAD_REACTORS
330
2EE
330
2EF
102
}
330
71
100
AcDbEntity
  8
0
  6
Continuous
 62
     2
100
AcDbLine
 10
-228.9840858610503
 20
-252.4379557823012
 30
0.0
 11
-228.9840858610503
 21
-251.6526904761776
 31
0.0
  0
LINE
  5
22C
102
{ACAD_REACTORS
330
2EE
330
2EF
102
}
330
71
100
AcDbEntity
  8
0
  6
Continuous
 62
     2
100
AcDbLine
 10
-229.7951848985228
 20
-252.4379557823012
 30
0.0
 11
-228.9840858610503
 21
-252.4379557823012
 31
0.0
  0
LINE
  5
22D
102
{ACAD_REACTORS
330
2EE
330
2EF
102
}
330
71
100
AcDbEntity
  8
0
  6
Continuous
 62
     2
100
AcDbLine
 10
-229.7951848985228
 20
-254.7064999999887
 30
0.0
 11
-229.7951848985228
 21
-252.4379557823012
 31
0.0
  0
LINE
  5
22E
102
{ACAD_REACTORS
330
2EC
330
2ED
102
}
330
71
100
AcDbEntity
  8
0
  6
Continuous
 62
     2
100
AcDbLine
 10
-229.1270700544248
 20
-251.3473095238144
 30
0.0
 11
-229.1270700544248
 21
-250.0385340136097
 31
0.0
  0
LINE
  5
22F
102
{ACAD_REACTORS
330
2EC
330
2ED
102
}
330
71
100
AcDbEntity
  8
0
  6
Continuous
 62
     2
100
AcDbLine
 10
-230.3198627565913
 20
-248.2935000000032
 30
0.0
 11
-230.3198627565913
 21
-251.3473095238144
 31
0.0
  0
LINE
  5
230
102
{ACAD_REACTORS
330
2EC
330
2ED
102
}
330
71
100
AcDbEntity
  8
0
  6
Continuous
 62
     2
100
AcDbLine
 10
-229.1270700544248
 20
-248.2935000000032
 30
0.0
 11
-230.3198627565913
 21
-248.2935000000032
 31
0.0
  0
LINE
  5
231
102
{ACAD_REACTORS
330
2EC
330
2ED
102
}
330
71
100
AcDbEntity
  8
0
  6
Continuous
 62
     2
100
AcDbLine
 10
-227.8865656441708
 20
-248.2935000000032
 30
0.0
 11
-227.8865656441708
 21
-249.6022755102084
 31
0.0
  0
LINE
  5
232
102
{ACAD_REACTORS
330
2EA
330
2EB
102
}
330
71
100
AcDbEntity
  8
0
  6
Continuous
 62
     2
100
AcDbLine
 10
-235.568301577011
 20
-251.6526904761776
 30
0.0
 11
-235.568301577011
 21
-254.7064999999887
 31
0.0
  0
LINE
  5
233
102
{ACAD_REACTORS
330
2EA
330
2EB
102
}
330
71
100
AcDbEntity
  8
0
  6
Continuous
 62
     2
100
AcDbLine
 10
-234.3755088748434
 20
-251.6526904761776
 30
0.0
 11
-235.568301577011
 21
-251.6526904761776
 31
0.0
  0
LINE
  5
234
102
{ACAD_REACTORS
330
2EA
330
2EB
102
}
330
71
100
AcDbEntity
  8
0
  6
Continuous
 62
     2
100
AcDbLine
 10
-233.1350044645905
 20
-254.7064999999887
 30
0.0
 11
-231.9422117624241
 21
-254.7064999999887
 31
0.0
  0
LINE
  5
235
102
{ACAD_REACTORS
330
2EA
330
2EB
102
}
330
71
100
AcDbEntity
  8
0
  6
Continuous
 62
     2
100
AcDbLine
 10
-235.568301577011
 20
-254.7064999999887
 30
0.0
 11
-234.3755088748434
 21
-254.7064999999887
 31
0.0
  0
LINE
  5
236
102
{ACAD_REACTORS
330
2FA
330
2FB
102
}
330
71
100
AcDbEntity
  8
0
  6
Continuous
 62
     2
100
AcDbLine
 10
-231.8943491234519
 20
-249.4713979591879
 30
0.0
 11
-231.8943491234519
 21
-248.9915136054462
 31
0.0
  0
LINE
  5
237
102
{ACAD_REACTORS
330
2FA
330
2FB
102
}
330
71
100
AcDbEntity
  8
0
  6
Continuous
 62
     2
100
AcDbLine
 10
-230.5584212970242
 20
-249.4713979591879
 30
0.0
 11
-231.8943491234519
 21
-249.4713979591879
 31
0.0
  0
LINE
  5
238
102
{ACAD_REACTORS
330
2FA
330
2FB
102
}
330
71
100
AcDbEntity
  8
0
  6
Continuous
 62
     2
100
AcDbLine
 10
-230.5584212970242
 20
-250.1694115646302
 30
0.0
 11
-230.5584212970242
 21
-249.4713979591879
 31
0.0
  0
LINE
  5
239
102
{ACAD_REACTORS
330
2FA
330
2FB
102
}
330
71
100
AcDbEntity
  8
0
  6
Continuous
 62
     2
100
AcDbLine
 10
-231.8943491234519
 20
-250.1694115646302
 30
0.0
 11
-230.5584212970242
 21
-250.1694115646302
 31
0.0
  0
LINE
  5
23A
102
{ACAD_REACTORS
330
2E8
330
2E9
102
}
330
71
100
AcDbEntity
  8
0
  6
Continuous
 62
     2
100
AcDbLine
 10
-235.3773038137788
 20
-248.2935000000032
 30
0.0
 11
-235.3773038137788
 21
-251.3473095238144
 31
0.0
  0
LINE
  5
23B
102
{ACAD_REACTORS
330
2E8
330
2E9
102
}
330
71
100
AcDbEntity
  8
0
  6
Continuous
 62
     2
100
AcDbLine
 10
-235.3773038137788
 20
-251.3473095238144
 30
0.0
 11
-236.5700965159452
 21
-251.3473095238144
 31
0.0
  0
LINE
  5
23C
102
{ACAD_REACTORS
330
2E8
330
2E9
102
}
330
71
100
AcDbEntity
  8
0
  6
Continuous
 62
     2
100
AcDbLine
 10
-236.5700965159452
 20
-251.3473095238144
 30
0.0
 11
-236.5700965159452
 21
-250.2130374149706
 31
0.0
  0
LINE
  5
23D
102
{ACAD_REACTORS
330
2E8
330
2E9
102
}
330
71
100
AcDbEntity
  8
0
  6
Continuous
 62
     2
100
AcDbLine
 10
-237.6197540938527
 20
-251.3473095238144
 30
0.0
 11
-238.8125467960193
 21
-251.3473095238144
 31
0.0
  0
LINE
  5
23E
102
{ACAD_REACTORS
330
2E8
330
2E9
102
}
330
71
100
AcDbEntity
  8
0
  6
Continuous
 62
     2
100
AcDbLine
 10
-238.8125467960193
 20
-248.2935000000032
 30
0.0
 11
-237.6197540938527
 21
-248.2935000000032
 31
0.0
  0
LINE
  5
23F
102
{ACAD_REACTORS
330
2E8
330
2E9
102
}
330
71
100
AcDbEntity
  8
0
  6
Continuous
 62
     2
100
AcDbLine
 10
-237.6197540938527
 20
-248.2935000000032
 30
0.0
 11
-237.6197540938527
 21
-249.3623333333378
 31
0.0
  0
LINE
  5
240
102
{ACAD_REACTORS
330
2E8
330
2E9
102
}
330
71
100
AcDbEntity
  8
0
  6
Continuous
 62
     2
100
AcDbLine
 10
-237.6197540938527
 20
-249.3623333333378
 30
0.0
 11
-236.5700965159452
 21
-249.3623333333378
 31
0.0
  0
LINE
  5
241
102
{ACAD_REACTORS
330
2F6
330
2F7
102
}
330
71
100
AcDbEntity
  8
0
  6
Continuous
 62
     2
100
AcDbLine
 10
-240.7687268275729
 20
-248.9566058454433
 30
0.0
 11
-240.451431766031
 21
-248.9566058454433
 31
0.0
  0
LINE
  5
242
102
{ACAD_REACTORS
330
2F6
330
2F7
102
}
330
71
100
AcDbEntity
  8
0
  6
Continuous
 62
     2
100
AcDbLine
 10
-240.7687268275729
 20
-249.6623334947855
 30
0.0
 11
-240.451431766031
 21
-249.6623334947855
 31
0.0
  0
LINE
  5
243
102
{ACAD_REACTORS
330
2F6
330
2F7
102
}
330
71
100
AcDbEntity
  8
0
  6
Continuous
 62
     2
100
AcDbLine
 10
-242.009231237827
 20
-248.2935000000032
 30
0.0
 11
-242.009231237827
 21
-251.3473095238144
 31
0.0
  0
LINE
  5
244
102
{ACAD_REACTORS
330
2F6
330
2F7
102
}
330
71
100
AcDbEntity
  8
0
  6
Continuous
 62
     2
100
AcDbLine
 10
-242.009231237827
 20
-248.2935000000032
 30
0.0
 11
-240.0099592397926
 21
-248.2935000000032
 31
0.0
  0
LINE
  5
245
102
{ACAD_REACTORS
330
2F6
330
2F7
102
}
330
71
100
AcDbEntity
  8
0
  6
Continuous
 62
     2
100
AcDbLine
 10
-240.7687268275729
 20
-250.4042312826706
 30
0.0
 11
-240.0099592397926
 21
-250.4042312826706
 31
0.0
  0
LINE
  5
246
102
{ACAD_REACTORS
330
2FC
330
2FD
102
}
330
71
100
AcDbEntity
  8
0
  6
Continuous
 62
     2
100
AcDbLine
 10
-248.1057272711237
 20
-249.321772478638
 30
0.0
 11
-248.1057272711237
 21
-253.6782275213551
 31
0.0
  0
LINE
  5
247
102
{ACAD_REACTORS
330
2FC
330
2FD
102
}
330
71
100
AcDbEntity
  8
0
  6
Continuous
 62
     2
100
AcDbLine
 10
-247.790010348048
 20
-249.0060555555618
 30
0.0
 11
-246.3141770870384
 21
-249.0060555555618
 31
0.0
  0
LINE
  5
248
102
{ACAD_REACTORS
330
2FC
330
2FD
102
}
330
71
100
AcDbEntity
  8
0
  6
Continuous
 62
     2
100
AcDbLine
 10
-245.9984601639618
 20
-249.9257970976985
 30
0.0
 11
-245.9984601639618
 21
-249.321772478638
 31
0.0
  0
LINE
  5
249
102
{ACAD_REACTORS
330
2FC
330
2FD
102
}
330
71
100
AcDbEntity
  8
0
  6
Continuous
 62
     2
100
AcDbLine
 10
-245.9984601639618
 20
-253.6782275213551
 30
0.0
 11
-245.9984601639618
 21
-252.1474565898235
 31
0.0
  0
LINE
  5
24A
102
{ACAD_REACTORS
330
2FC
330
2FD
102
}
330
71
100
AcDbEntity
  8
0
  6
Continuous
 62
     2
100
AcDbLine
 10
-242.9105929340777
 20
-254.7064999999887
 30
0.0
 11
-248.3839050247945
 21
-254.7064999999887
 31
0.0
  0
LINE
  5
24B
102
{ACAD_REACTORS
330
2FC
330
2FD
102
}
330
71
100
AcDbEntity
  8
0
  6
Continuous
 62
     2
100
AcDbLine
 10
-242.4863483186938
 20
-248.7177446154052
 30
0.0
 11
-242.4863483186938
 21
-254.2822553846054
 31
0.0
  0
LINE
  5
24C
102
{ACAD_REACTORS
330
2FC
330
2FD
102
}
330
71
100
AcDbEntity
  8
0
  6
Continuous
 62
     2
100
AcDbLine
 10
-248.3839050247945
 20
-248.2935000000214
 30
0.0
 11
-242.9105929340777
 21
-248.2935000000214
 31
0.0
  0
LINE
  5
24D
102
{ACAD_REACTORS
330
2FC
330
2FD
102
}
330
71
100
AcDbEntity
  8
0
  6
Continuous
 62
     2
100
AcDbLine
 10
-248.8081496401773
 20
-248.7177446154052
 30
0.0
 11
-248.8081496401773
 21
-254.2822553846054
 31
0.0
  0
LINE
  5
24E
102
{ACAD_REACTORS
330
2FC
330
2FD
102
}
330
71
100
AcDbEntity
  8
0
  6
Continuous
 62
     2
100
AcDbLine
 10
-246.3141770870384
 20
-253.9939444444318
 30
0.0
 11
-247.790010348048
 21
-253.9939444444318
 31
0.0
  0
LINE
  5
24F
102
{ACAD_REACTORS
330
2F6
330
2F7
102
}
330
71
100
AcDbEntity
  8
0
  6
Continuous
 62
     2
100
AcDbLine
 10
-240.7687268275729
 20
-251.3473095238144
 30
0.0
 11
-240.7687268275729
 21
-250.4042312826706
 31
0.0
  0
LINE
  5
250
102
{ACAD_REACTORS
330
2F6
330
2F7
102
}
330
71
100
AcDbEntity
  8
0
  6
Continuous
 62
     2
100
AcDbLine
 10
-242.009231237827
 20
-251.3473095238144
 30
0.0
 11
-240.7687268275729
 21
-251.3473095238144
 31
0.0
  0
LINE
  5
251
102
{ACAD_REACTORS
330
2F6
330
2F7
102
}
330
71
100
AcDbEntity
  8
0
  6
Continuous
 62
     2
100
AcDbLine
 10
-240.7687268275729
 20
-249.6623334947855
 30
0.0
 11
-240.7687268275729
 21
-248.9566058454433
 31
0.0
  0
LINE
  5
252
102
{ACAD_REACTORS
330
2E8
330
2E9
102
}
330
71
100
AcDbEntity
  8
0
  6
Continuous
 62
     2
100
AcDbLine
 10
-238.8125467960193
 20
-248.2935000000032
 30
0.0
 11
-238.8125467960193
 21
-251.3473095238144
 31
0.0
  0
LINE
  5
253
102
{ACAD_REACTORS
330
2E8
330
2E9
102
}
330
71
100
AcDbEntity
  8
0
  6
Continuous
 62
     2
100
AcDbLine
 10
-237.6197540938527
 20
-250.2130374149706
 30
0.0
 11
-237.6197540938527
 21
-251.3473095238144
 31
0.0
  0
LINE
  5
254
102
{ACAD_REACTORS
330
2E8
330
2E9
102
}
330
71
100
AcDbEntity
  8
0
  6
Continuous
 62
     2
100
AcDbLine
 10
-236.5700965159452
 20
-250.2130374149706
 30
0.0
 11
-237.6197540938527
 21
-250.2130374149706
 31
0.0
  0
LINE
  5
255
102
{ACAD_REACTORS
330
2E8
330
2E9
102
}
330
71
100
AcDbEntity
  8
0
  6
Continuous
 62
     2
100
AcDbLine
 10
-236.5700965159452
 20
-248.2935000000032
 30
0.0
 11
-235.3773038137788
 21
-248.2935000000032
 31
0.0
  0
LINE
  5
256
102
{ACAD_REACTORS
330
2E8
330
2E9
102
}
330
71
100
AcDbEntity
  8
0
  6
Continuous
 62
     2
100
AcDbLine
 10
-236.5700965159452
 20
-249.3623333333378
 30
0.0
 11
-236.5700965159452
 21
-248.2935000000032
 31
0.0
  0
LINE
  5
257
102
{ACAD_REACTORS
330
2FA
330
2FB
102
}
330
71
100
AcDbEntity
  8
0
  6
Continuous
 62
     2
100
AcDbLine
 10
-230.5584212970242
 20
-248.9915136054462
 30
0.0
 11
-230.5584212970242
 21
-248.2935000000032
 31
0.0
  0
LINE
  5
258
102
{ACAD_REACTORS
330
2FA
330
2FB
102
}
330
71
100
AcDbEntity
  8
0
  6
Continuous
 62
     2
100
AcDbLine
 10
-233.7087410208052
 20
-248.2935000000032
 30
0.0
 11
-230.5584212970242
 21
-248.2935000000032
 31
0.0
  0
LINE
  5
259
102
{ACAD_REACTORS
330
2FA
330
2FB
102
}
330
71
100
AcDbEntity
  8
0
  6
Continuous
 62
     2
100
AcDbLine
 10
-233.7087410208052
 20
-251.3473095238144
 30
0.0
 11
-230.5584212970242
 21
-251.3473095238144
 31
0.0
  0
LINE
  5
25A
102
{ACAD_REACTORS
330
2FA
330
2FB
102
}
330
71
100
AcDbEntity
  8
0
  6
Continuous
 62
     2
100
AcDbLine
 10
-230.5584212970242
 20
-251.3473095238144
 30
0.0
 11
-230.5584212970242
 21
-250.6492959183719
 31
0.0
  0
LINE
  5
25B
102
{ACAD_REACTORS
330
2FA
330
2FB
102
}
330
71
100
AcDbEntity
  8
0
  6
Continuous
 62
     2
100
AcDbLine
 10
-230.5584212970242
 20
-250.6492959183719
 30
0.0
 11
-231.8943491234519
 21
-250.6492959183719
 31
0.0
  0
LINE
  5
25C
102
{ACAD_REACTORS
330
2FA
330
2FB
102
}
330
71
100
AcDbEntity
  8
0
  6
Continuous
 62
     2
100
AcDbLine
 10
-231.8943491234519
 20
-250.6492959183719
 30
0.0
 11
-231.8943491234519
 21
-250.1694115646302
 31
0.0
  0
LINE
  5
25D
102
{ACAD_REACTORS
330
2FA
330
2FB
102
}
330
71
100
AcDbEntity
  8
0
  6
Continuous
 62
     2
100
AcDbLine
 10
-231.8943491234519
 20
-248.9915136054462
 30
0.0
 11
-230.5584212970242
 21
-248.9915136054462
 31
0.0
  0
LINE
  5
25E
102
{ACAD_REACTORS
330
2EA
330
2EB
102
}
330
71
100
AcDbEntity
  8
0
  6
Continuous
 62
     2
100
AcDbLine
 10
-234.3755088748434
 20
-254.7064999999887
 30
0.0
 11
-234.3755088748434
 21
-253.3977244897841
 31
0.0
  0
LINE
  5
25F
102
{ACAD_REACTORS
330
2EA
330
2EB
102
}
330
71
100
AcDbEntity
  8
0
  6
Continuous
 62
     2
100
AcDbLine
 10
-234.3755088748434
 20
-253.3977244897841
 30
0.0
 11
-233.1350044645905
 21
-254.7064999999887
 31
0.0
  0
LINE
  5
260
102
{ACAD_REACTORS
330
2EA
330
2EB
102
}
330
71
100
AcDbEntity
  8
0
  6
Continuous
 62
     2
100
AcDbLine
 10
-231.9422117624241
 20
-254.7064999999887
 30
0.0
 11
-231.9422117624241
 21
-251.6526904761776
 31
0.0
  0
LINE
  5
261
102
{ACAD_REACTORS
330
2EA
330
2EB
102
}
330
71
100
AcDbEntity
  8
0
  6
Continuous
 62
     2
100
AcDbLine
 10
-231.9422117624241
 20
-251.6526904761776
 30
0.0
 11
-233.1350044645905
 21
-251.6526904761776
 31
0.0
  0
LINE
  5
262
102
{ACAD_REACTORS
330
2EA
330
2EB
102
}
330
71
100
AcDbEntity
  8
0
  6
Continuous
 62
     2
100
AcDbLine
 10
-233.1350044645905
 20
-251.6526904761776
 30
0.0
 11
-233.1350044645905
 21
-252.9614659863827
 31
0.0
  0
LINE
  5
263
102
{ACAD_REACTORS
330
2EA
330
2EB
102
}
330
71
100
AcDbEntity
  8
0
  6
Continuous
 62
     2
100
AcDbLine
 10
-233.1350044645905
 20
-252.9614659863827
 30
0.0
 11
-234.3755088748434
 21
-251.6526904761776
 31
0.0
  0
LINE
  5
264
102
{ACAD_REACTORS
330
2EC
330
2ED
102
}
330
71
100
AcDbEntity
  8
0
  6
Continuous
 62
     2
100
AcDbLine
 10
-229.1270700544248
 20
-250.0385340136097
 30
0.0
 11
-227.8865656441708
 21
-251.3473095238144
 31
0.0
  0
LINE
  5
265
102
{ACAD_REACTORS
330
2EC
330
2ED
102
}
330
71
100
AcDbEntity
  8
0
  6
Continuous
 62
     2
100
AcDbLine
 10
-227.8865656441708
 20
-251.3473095238144
 30
0.0
 11
-226.6937729420042
 21
-251.3473095238144
 31
0.0
  0
LINE
  5
266
102
{ACAD_REACTORS
330
2EC
330
2ED
102
}
330
71
100
AcDbEntity
  8
0
  6
Continuous
 62
     2
100
AcDbLine
 10
-226.6937729420042
 20
-251.3473095238144
 30
0.0
 11
-226.6937729420042
 21
-248.2935000000032
 31
0.0
  0
LINE
  5
267
102
{ACAD_REACTORS
330
2EC
330
2ED
102
}
330
71
100
AcDbEntity
  8
0
  6
Continuous
 62
     2
100
AcDbLine
 10
-226.6937729420042
 20
-248.2935000000032
 30
0.0
 11
-227.8865656441708
 21
-248.2935000000032
 31
0.0
  0
LINE
  5
268
102
{ACAD_REACTORS
330
2EC
330
2ED
102
}
330
71
100
AcDbEntity
  8
0
  6
Continuous
 62
     2
100
AcDbLine
 10
-227.8865656441708
 20
-249.6022755102084
 30
0.0
 11
-229.1270700544248
 21
-248.2935000000032
 31
0.0
  0
LINE
  5
269
102
{ACAD_REACTORS
330
2EC
330
2ED
102
}
330
71
100
AcDbEntity
  8
0
  6
Continuous
 62
     2
100
AcDbLine
 10
-230.3198627565913
 20
-251.3473095238144
 30
0.0
 11
-229.1270700544248
 21
-251.3473095238144
 31
0.0
  0
LINE
  5
26A
102
{ACAD_REACTORS
330
2EE
330
2EF
102
}
330
71
100
AcDbEntity
  8
0
  6
Continuous
 62
     2
100
AcDbLine
 10
-231.7990766381639
 20
-251.6526904761776
 30
0.0
 11
-231.7990766381639
 21
-252.4379557823012
 31
0.0
  0
LINE
  5
26B
102
{ACAD_REACTORS
330
2EE
330
2EF
102
}
330
71
100
AcDbEntity
  8
0
  6
Continuous
 62
     2
100
AcDbLine
 10
-230.9879776006893
 20
-252.4379557823012
 30
0.0
 11
-230.9879776006893
 21
-254.7064999999887
 31
0.0
  0
LINE
  5
26C
102
{ACAD_REACTORS
330
2EE
330
2EF
102
}
330
71
100
AcDbEntity
  8
0
  6
Continuous
 62
     2
100
AcDbLine
 10
-230.9879776006893
 20
-254.7064999999887
 30
0.0
 11
-229.7951848985228
 21
-254.7064999999887
 31
0.0
  0
LINE
  5
26D
102
{ACAD_REACTORS
330
2F0
330
2F1
102
}
330
71
100
AcDbEntity
  8
0
  6
Continuous
 62
     2
100
AcDbLine
 10
-226.8456584051033
 20
-254.7064999999887
 30
0.0
 11
-227.0571384585791
 21
-254.1655394557708
 31
0.0
  0
LINE
  5
26E
102
{ACAD_REACTORS
330
2F0
330
2F1
102
}
330
71
100
AcDbEntity
  8
0
  6
Continuous
 62
     2
100
AcDbLine
 10
-227.0031070417897
 20
-251.6526904761776
 30
0.0
 11
-225.6051539948494
 21
-254.7064999999887
 31
0.0
  0
LINE
  5
26F
102
{ACAD_REACTORS
330
2F0
330
2F1
102
}
330
71
100
AcDbEntity
  8
0
  6
Continuous
 62
     2
100
AcDbLine
 10
-228.2436114520424
 20
-251.6526904761776
 30
0.0
 11
-227.0031070417897
 21
-251.6526904761776
 31
0.0
  0
LINE
  5
270
102
{ACAD_REACTORS
330
2F0
330
2F1
102
}
330
71
100
AcDbEntity
  8
0
  6
Continuous
 62
     2
100
AcDbLine
 10
-229.6415644989817
 20
-254.7064999999887
 30
0.0
 11
-228.4010600887287
 21
-254.7064999999887
 31
0.0
  0
LINE
  5
271
102
{ACAD_REACTORS
330
2F0
330
2F1
102
}
330
71
100
AcDbEntity
  8
0
  6
Continuous
 62
     2
100
AcDbLine
 10
-227.9235244841079
 20
-253.4849761904642
 30
0.0
 11
-227.3231940097254
 21
-253.4849761904642
 31
0.0
  0
LINE
  5
272
102
{ACAD_REACTORS
330
2F0
330
2F1
102
}
330
71
100
AcDbEntity
  8
0
  6
Continuous
 62
     2
100
AcDbLine
 10
-227.3231940097254
 20
-253.4849761904642
 30
0.0
 11
-227.6233592469155
 21
-252.7171612244775
 31
0.0
  0
LINE
  5
273
102
{ACAD_REACTORS
330
2F2
330
2F3
102
}
330
71
100
AcDbEntity
  8
0
  6
Continuous
 62
     2
100
AcDbLine
 10
-225.2147099913174
 20
-251.3473095238144
 30
0.0
 11
-226.4552144015703
 21
-251.3473095238144
 31
0.0
  0
LINE
  5
274
102
{ACAD_REACTORS
330
2F4
330
2F5
102
}
330
71
100
AcDbEntity
  8
0
  6
Continuous
 62
     2
100
AcDbLine
 10
-223.6927065033523
 20
-251.3473095238144
 30
0.0
 11
-225.0954307211005
 21
-251.3473095238144
 31
0.0
  0
LINE
  5
275
102
{ACAD_REACTORS
330
2F4
330
2F5
102
}
330
71
100
AcDbEntity
  8
0
  6
Continuous
 62
     2
100
AcDbLine
 10
-223.6927065033523
 20
-251.3473095238144
 30
0.0
 11
-222.9961155652866
 21
-250.5595777385207
 31
0.0
  0
LINE
  5
276
102
{ACAD_REACTORS
330
2F4
330
2F5
102
}
330
71
100
AcDbEntity
  8
0
  6
Continuous
 62
     2
100
AcDbLine
 10
-222.3949480433938
 20
-248.2935000000032
 30
0.0
 11
-220.9922238256466
 21
-248.2935000000032
 31
0.0
  0
LINE
  5
277
102
{ACAD_REACTORS
330
2F4
330
2F5
102
}
330
71
100
AcDbEntity
  8
0
  6
Continuous
 62
     2
100
AcDbLine
 10
-225.0000073049277
 20
-248.2935000000032
 30
0.0
 11
-223.6974776741602
 21
-249.7664505300394
 31
0.0
  0
LINE
  5
278
102
{ACAD_REACTORS
330
2F4
330
2F5
102
}
330
71
100
AcDbEntity
  8
0
  6
Continuous
 62
     2
100
AcDbLine
 10
-225.0954307211005
 20
-251.3473095238144
 30
0.0
 11
-223.6974776741602
 21
-249.7664505300394
 31
0.0
  0
LINE
  5
279
102
{ACAD_REACTORS
330
2FE
330
2FF
102
}
330
71
100
AcDbEntity
  8
0
  6
Continuous
 62
     2
100
AcDbLine
 10
-223.2346741057206
 20
-253.6594795918251
 30
0.0
 11
-223.2346741057206
 21
-254.5319965986284
 31
0.0
  0
LINE
  5
27A
102
{ACAD_REACTORS
330
2FE
330
2FF
102
}
330
71
100
AcDbEntity
  8
0
  6
Continuous
 62
     2
100
AcDbLine
 10
-224.004331448682
 20
-252.4379557823012
 30
0.0
 11
-222.9006921491139
 21
-252.4379557823012
 31
0.0
  0
LINE
  5
27B
102
{ACAD_REACTORS
330
300
330
301
102
}
330
71
100
AcDbEntity
  8
0
  6
Continuous
 62
     2
100
AcDbLine
 10
-239.3373755849725
 20
-253.6594795918246
 30
0.0
 11
-239.3373755849725
 21
-254.5319965986278
 31
0.0
  0
LINE
  5
27C
102
{ACAD_REACTORS
330
300
330
301
102
}
330
71
100
AcDbEntity
  8
0
  6
Continuous
 62
     2
100
AcDbLine
 10
-239.3373755849725
 20
-252.6997108843417
 30
0.0
 11
-239.3373755849725
 21
-251.8271938775384
 31
0.0
  0
LINE
  5
27D
330
71
100
AcDbEntity
  8
1
  6
Continuous
 62
     7
100
AcDbLine
 10
-123.4999999999886
 20
-253.500000000005
 30
0.0
 11
-216.64480452674
 21
-253.500000000005
 31
0.0
  0
LINE
  5
27E
330
71
100
AcDbEntity
  8
1
  6
Continuous
 62
     6
100
AcDbLine
 10
-322.0448045267399
 20
-262.000000000005
 30
0.0
 11
-366.9999999999899
 21
-262.000000000005
 31
0.0
  0
LINE
  5
27F
330
71
100
AcDbEntity
  8
1
  6
Continuous
 62
     7
100
AcDbLine
 10
-132.4184082816674
 20
-236.500000000005
 30
0.0
 11
-132.4184082816674
 21
-245.000000000005
 31
0.0
  0
LINE
  5
280
330
71
100
AcDbEntity
  8
1
  6
Continuous
 62
     7
100
AcDbLine
 10
-158.918408281667
 20
-236.500000000005
 30
0.0
 11
-158.918408281667
 21
-245.000000000005
 31
0.0
  0
LINE
  5
281
330
71
100
AcDbEntity
  8
1
  6
Continuous
 62
     7
100
AcDbLine
 10
-216.64480452674
 20
-245.000000000005
 30
0.0
 11
-216.64480452674
 21
-236.500000000005
 31
0.0
  0
LINE
  5
282
330
71
100
AcDbEntity
  8
1
  6
Continuous
 62
     7
100
AcDbLine
 10
-253.0448045267399
 20
-245.000000000005
 30
0.0
 11
-253.0448045267399
 21
-236.500000000005
 31
0.0
  0
LINE
  5
283
330
71
100
AcDbEntity
  8
1
  6
Continuous
 62
     6
100
AcDbLine
 10
-216.64480452674
 20
-245.000000000005
 30
0.0
 11
-123.4999999999882
 21
-245.000000000005
 31
0.0
  0
LINE
  5
284
330
71
100
AcDbEntity
  8
1
  6
Continuous
 62
     7
100
AcDbLine
 10
-188.7448045267399
 20
-253.5000000000051
 30
0.0
 11
-188.7448045267399
 21
-245.000000000005
 31
0.0
  0
LINE
  5
285
330
71
100
AcDbEntity
  8
1
  6
PHANTOM
 62
     2
100
AcDbLine
 10
-237.5581496401773
 20
-240.8750000000051
 30
0.0
 11
-243.0581496401773
 21
-240.8750000000051
 31
0.0
  0
LINE
  5
286
330
71
100
AcDbEntity
  8
1
  6
PHANTOM
 62
     2
100
AcDbLine
 10
-240.3081496401773
 20
-238.1250000000051
 30
0.0
 11
-240.3081496401773
 21
-243.6250000000051
 31
0.0
  0
LINE
  5
287
330
71
100
AcDbEntity
  8
1
  6
DOT_CENTER
 62
     2
100
AcDbLine
 10
-249.0581496401773
 20
-240.8750000000051
 30
0.0
 11
-243.5581496401773
 21
-240.8750000000051
 31
0.0
  0
ARC
  5
288
102
{ACAD_REACTORS
330
300
330
301
102
}
330
71
100
AcDbEntity
  8
0
  6
Continuous
 62
     2
100
AcDbCircle
 10
-240.6733035020903
 20
-256.4922761833393
 30
0.0
 40
4.852596863498068
100
AcDbArc
 50
74.02000874164739
 51
84.84185523037506
  0
ARC
  5
289
102
{ACAD_REACTORS
330
300
330
301
102
}
330
71
100
AcDbEntity
  8
0
  6
Continuous
 62
     2
100
AcDbCircle
 10
-240.0972628933366
 20
-253.336515827455
 30
0.0
 40
0.9059297849853228
100
AcDbArc
 50
71.55192388185348
 51
113.372277888129
  0
ARC
  5
28A
102
{ACAD_REACTORS
330
300
330
301
102
}
330
71
100
AcDbEntity
  8
0
  6
Continuous
 62
     2
100
AcDbCircle
 10
-240.2537029260386
 20
-253.3846666674219
 30
0.0
 40
0.5115800601948034
100
AcDbArc
 50
208.5214732576956
 51
246.6277221118274
  0
ARC
  5
28B
102
{ACAD_REACTORS
330
300
330
301
102
}
330
71
100
AcDbEntity
  8
0
  6
Continuous
 62
     2
100
AcDbCircle
 10
-240.0972628933366
 20
-253.0226746487119
 30
0.0
 40
0.9059297849849192
100
AcDbArc
 50
246.627722111871
 51
288.4480761181584
  0
ARC
  5
28C
102
{ACAD_REACTORS
330
300
330
301
102
}
330
71
100
AcDbEntity
  8
0
  6
Continuous
 62
     2
100
AcDbCircle
 10
-240.5154306269974
 20
-251.7691288726747
 30
0.0
 40
2.227384008972737
100
AcDbArc
 50
288.4480761181328
 51
301.9309089499593
  0
ARC
  5
28D
102
{ACAD_REACTORS
330
2FC
330
2FD
102
}
330
71
100
AcDbEntity
  8
0
  6
Continuous
 62
     2
100
AcDbCircle
 10
-245.7405043596042
 20
-251.0366268437607
 30
0.0
 40
0.911848150144459
100
AcDbArc
 50
295.3740086781764
 51
64.62599132180748
  0
ARC
  5
28E
102
{ACAD_REACTORS
330
2FC
330
2FD
102
}
330
71
100
AcDbEntity
  8
0
  6
Continuous
 62
     2
100
AcDbCircle
 10
-245.2144616615163
 20
-249.3219499552861
 30
0.0
 40
0.3157169230760711
100
AcDbArc
 50
90.18896704254594
 51
180.0
  0
ARC
  5
28F
102
{ACAD_REACTORS
330
2FE
330
2FF
102
}
330
71
100
AcDbEntity
  8
0
  6
Continuous
 62
     2
100
AcDbCircle
 10
-224.004331448682
 20
-253.3924787891273
 30
0.0
 40
0.9545230068260935
100
AcDbArc
 50
90.0
 51
109.337143219432
  0
ARC
  5
290
102
{ACAD_REACTORS
330
2FE
330
2FF
102
}
330
71
100
AcDbEntity
  8
0
  6
Continuous
 62
     2
100
AcDbCircle
 10
-223.7736441887043
 20
-253.1795952380834
 30
0.0
 40
0.9410597353348924
100
AcDbArc
 50
151.4785267423624
 51
208.5214732576695
  0
ARC
  5
291
102
{ACAD_REACTORS
330
2FE
330
2FF
102
}
330
71
100
AcDbEntity
  8
0
  6
Continuous
 62
     2
100
AcDbCircle
 10
-223.9945614140826
 20
-253.0226746487119
 30
0.0
 40
0.9059297849852801
100
AcDbArc
 50
246.6277221118183
 51
288.4480761180817
  0
ARC
  5
292
102
{ACAD_REACTORS
330
2FE
330
2FF
102
}
330
71
100
AcDbEntity
  8
0
  6
Continuous
 62
     2
100
AcDbCircle
 10
-224.4127291477445
 20
-251.7691288726753
 30
0.0
 40
2.227384008972746
100
AcDbArc
 50
288.4480761181335
 51
301.9309089499397
  0
ARC
  5
293
102
{ACAD_REACTORS
330
2FE
330
2FF
102
}
330
71
100
AcDbEntity
  8
0
  6
Continuous
 62
     2
100
AcDbCircle
 10
-224.5706020228373
 20
-249.866914292827
 30
0.0
 40
4.852596863498825
100
AcDbArc
 50
275.1581447696364
 51
285.9799912583387
  0
ARC
  5
294
102
{ACAD_REACTORS
330
2FE
330
2FF
102
}
330
71
100
AcDbEntity
  8
0
  6
Continuous
 62
     2
100
AcDbCircle
 10
-224.2817459281015
 20
-253.0668048760486
 30
0.0
 40
1.639695123940448
100
AcDbArc
 50
195.0618917771012
 51
275.1581447696762
  0
ARC
  5
295
102
{ACAD_REACTORS
330
2F6
330
2F7
102
}
330
71
100
AcDbEntity
  8
0
  6
Continuous
 62
     2
100
AcDbCircle
 10
-240.0099592397926
 20
-249.3488656413369
 30
0.0
 40
1.055365641333708
100
AcDbArc
 50
270.0
 51
90.0
  0
ARC
  5
296
102
{ACAD_REACTORS
330
2FC
330
2FD
102
}
330
71
100
AcDbEntity
  8
0
  6
Continuous
 62
     2
100
AcDbCircle
 10
-247.790010348048
 20
-253.6782275213551
 30
0.0
 40
0.3157169230756836
100
AcDbArc
 50
180.0
 51
270.0
  0
ARC
  5
297
102
{ACAD_REACTORS
330
2FC
330
2FD
102
}
330
71
100
AcDbEntity
  8
0
  6
Continuous
 62
     2
100
AcDbCircle
 10
-246.3141770870384
 20
-249.321772478638
 30
0.0
 40
0.315716923076593
100
AcDbArc
 50
0.0
 51
90.0
  0
ARC
  5
298
102
{ACAD_REACTORS
330
2FC
330
2FD
102
}
330
71
100
AcDbEntity
  8
0
  6
Continuous
 62
     2
100
AcDbCircle
 10
-246.3141770870384
 20
-249.9257970976985
 30
0.0
 40
0.3157169230761203
100
AcDbArc
 50
295.1944106485397
 51
0.0
  0
ARC
  5
299
102
{ACAD_REACTORS
330
2FC
330
2FD
102
}
330
71
100
AcDbEntity
  8
0
  6
Continuous
 62
     2
100
AcDbCircle
 10
-246.3141770870384
 20
-253.6782275213551
 30
0.0
 40
0.3157169230767067
100
AcDbArc
 50
270.0
 51
0.0
  0
ARC
  5
29A
102
{ACAD_REACTORS
330
2FC
330
2FD
102
}
330
71
100
AcDbEntity
  8
0
  6
Continuous
 62
     2
100
AcDbCircle
 10
-248.3839050247945
 20
-248.7177446154052
 30
0.0
 40
0.4242446153837989
100
AcDbArc
 50
90.0
 51
180.0
  0
ARC
  5
29B
102
{ACAD_REACTORS
330
2FC
330
2FD
102
}
330
71
100
AcDbEntity
  8
0
  6
Continuous
 62
     2
100
AcDbCircle
 10
-242.9105929340777
 20
-248.7177446154052
 30
0.0
 40
0.4242446153838841
100
AcDbArc
 50
0.0
 51
90.0
  0
ARC
  5
29C
102
{ACAD_REACTORS
330
2FC
330
2FD
102
}
330
71
100
AcDbEntity
  8
0
  6
Continuous
 62
     2
100
AcDbCircle
 10
-242.9105929340777
 20
-254.2822553846054
 30
0.0
 40
0.4242446153832873
100
AcDbArc
 50
270.0
 51
0.0
  0
ARC
  5
29D
102
{ACAD_REACTORS
330
2FA
330
2FB
102
}
330
71
100
AcDbEntity
  8
0
  6
Continuous
 62
     2
100
AcDbCircle
 10
-233.6922090469862
 20
-249.8204047619091
 30
0.0
 40
0.7717997786796373
100
AcDbArc
 50
321.8795802028437
 51
38.12041979715956
  0
ARC
  5
29E
102
{ACAD_REACTORS
330
2FA
330
2FB
102
}
330
71
100
AcDbEntity
  8
0
  6
Continuous
 62
     2
100
AcDbCircle
 10
-233.49246901064
 20
-249.9771359400295
 30
0.0
 40
0.5179085730134372
100
AcDbArc
 50
218.1204197971511
 51
321.8795802028566
  0
ARC
  5
29F
102
{ACAD_REACTORS
330
2F8
330
2F9
102
}
330
71
100
AcDbEntity
  8
0
  6
Continuous
 62
     2
100
AcDbCircle
 10
-237.1724765996002
 20
-253.1795952380834
 30
0.0
 40
1.458034083652003
100
AcDbArc
 50
297.548148175701
 51
62.45185182429896
  0
ARC
  5
2A0
102
{ACAD_REACTORS
330
2F8
330
2F9
102
}
330
71
100
AcDbEntity
  8
0
  6
Continuous
 62
     2
100
AcDbCircle
 10
-237.7343563832668
 20
-253.1795952380834
 30
0.0
 40
1.45803408365149
100
AcDbArc
 50
117.5481481756624
 51
242.4518518243375
  0
ARC
  5
2A1
102
{ACAD_REACTORS
330
2F8
330
2F9
102
}
330
71
100
AcDbEntity
  8
0
  6
Continuous
 62
     2
100
AcDbCircle
 10
-237.4534164914335
 20
-253.7181702483862
 30
0.0
 40
2.065479772208568
100
AcDbArc
 50
62.45185182430637
 51
117.5481481756664
  0
ARC
  5
2A2
102
{ACAD_REACTORS
330
2F8
330
2F9
102
}
330
71
100
AcDbEntity
  8
0
  6
Continuous
 62
     2
100
AcDbCircle
 10
-237.4534164914335
 20
-252.6410202277801
 30
0.0
 40
2.065479772208509
100
AcDbArc
 50
242.4518518243402
 51
297.5481481756871
  0
ARC
  5
2A3
102
{ACAD_REACTORS
330
2FA
330
2FB
102
}
330
71
100
AcDbEntity
  8
0
  6
Continuous
 62
     2
100
AcDbCircle
 10
-233.2927289742937
 20
-249.8204047619091
 30
0.0
 40
0.7717997786796724
100
AcDbArc
 50
141.8795802028404
 51
218.1204197971562
  0
ARC
  5
2A4
102
{ACAD_REACTORS
330
2FA
330
2FB
102
}
330
71
100
AcDbEntity
  8
0
  6
Continuous
 62
     2
100
AcDbCircle
 10
-233.49246901064
 20
-249.6636735837886
 30
0.0
 40
0.5179085730135266
100
AcDbArc
 50
38.12041979714334
 51
141.8795802028489
  0
ARC
  5
2A5
102
{ACAD_REACTORS
330
2FC
330
2FD
102
}
330
71
100
AcDbEntity
  8
0
  6
Continuous
 62
     2
100
AcDbCircle
 10
-248.3839050247945
 20
-254.2822553846054
 30
0.0
 40
0.4242446153828041
100
AcDbArc
 50
180.0
 51
270.0
  0
ARC
  5
2A6
102
{ACAD_REACTORS
330
2FC
330
2FD
102
}
330
71
100
AcDbEntity
  8
0
  6
Continuous
 62
     2
100
AcDbCircle
 10
-246.3141770870384
 20
-252.1474565898235
 30
0.0
 40
0.315716923076593
100
AcDbArc
 50
0.0
 51
64.80558935146027
  0
ARC
  5
2A7
102
{ACAD_REACTORS
330
2FC
330
2FD
102
}
330
71
100
AcDbEntity
  8
0
  6
Continuous
 62
     2
100
AcDbCircle
 10
-245.7915926394634
 20
-251.0366268437607
 30
0.0
 40
0.9118975235576147
100
AcDbArc
 50
115.1944106485282
 51
244.8055893514878
  0
ARC
  5
2A8
102
{ACAD_REACTORS
330
2FC
330
2FD
102
}
330
71
100
AcDbEntity
  8
0
  6
Continuous
 62
     2
100
AcDbCircle
 10
-247.790010348048
 20
-249.321772478638
 30
0.0
 40
0.3157169230761951
100
AcDbArc
 50
90.0
 51
180.0
  0
ARC
  5
2A9
102
{ACAD_REACTORS
330
2F6
330
2F7
102
}
330
71
100
AcDbEntity
  8
0
  6
Continuous
 62
     2
100
AcDbCircle
 10
-240.451431766031
 20
-249.3094696701144
 30
0.0
 40
0.3528638246711182
100
AcDbArc
 50
270.0
 51
90.0
  0
ARC
  5
2AA
102
{ACAD_REACTORS
330
2FA
330
2FB
102
}
330
71
100
AcDbEntity
  8
0
  6
Continuous
 62
     2
100
AcDbCircle
 10
-233.7087410208052
 20
-249.8204047619091
 30
0.0
 40
1.526904761905882
100
AcDbArc
 50
90.0
 51
270.0
  0
ARC
  5
2AB
102
{ACAD_REACTORS
330
2FE
330
2FF
102
}
330
71
100
AcDbEntity
  8
0
  6
Continuous
 62
     2
100
AcDbCircle
 10
-224.2817459281015
 20
-253.2923856001183
 30
0.0
 40
1.639695123940214
100
AcDbArc
 50
90.0
 51
164.938108222895
  0
ARC
  5
2AC
102
{ACAD_REACTORS
330
2FE
330
2FF
102
}
330
71
100
AcDbEntity
  8
0
  6
Continuous
 62
     2
100
AcDbCircle
 10
-224.7008737715631
 20
-253.1795952380834
 30
0.0
 40
1.205656168393002
100
AcDbArc
 50
164.9381082229028
 51
195.0618917770959
  0
ARC
  5
2AD
102
{ACAD_REACTORS
330
2FE
330
2FF
102
}
330
71
100
AcDbEntity
  8
0
  6
Continuous
 62
     2
100
AcDbCircle
 10
-224.1510014467857
 20
-253.3846666674219
 30
0.0
 40
0.5115800601960215
100
AcDbArc
 50
208.5214732576866
 51
246.6277221118449
  0
ARC
  5
2AE
102
{ACAD_REACTORS
330
2FE
330
2FF
102
}
330
71
100
AcDbEntity
  8
0
  6
Continuous
 62
     2
100
AcDbCircle
 10
-224.1510014467857
 20
-252.9745238087444
 30
0.0
 40
0.5115800601944143
100
AcDbArc
 50
109.3371432194853
 51
151.4785267424225
  0
ARC
  5
2AF
102
{ACAD_REACTORS
330
2FC
330
2FD
102
}
330
71
100
AcDbEntity
  8
0
  6
Continuous
 62
     2
100
AcDbCircle
 10
-245.2144616615163
 20
-252.7276198504242
 30
0.0
 40
0.315716923076792
100
AcDbArc
 50
180.0
 51
269.8110329574542
  0
ARC
  5
2B0
102
{ACAD_REACTORS
330
2FC
330
2FD
102
}
330
71
100
AcDbEntity
  8
0
  6
Continuous
 62
     2
100
AcDbCircle
 10
-245.2088455262063
 20
-251.0247849028552
 30
0.0
 40
2.018561131933266
100
AcDbArc
 50
269.8110329575858
 51
90.18896704241416
  0
ARC
  5
2B1
102
{ACAD_REACTORS
330
2FC
330
2FD
102
}
330
71
100
AcDbEntity
  8
0
  6
Continuous
 62
     2
100
AcDbCircle
 10
-245.2144616615163
 20
-249.9274852437929
 30
0.0
 40
0.315716923076792
100
AcDbArc
 50
180.0
 51
244.6259913216482
  0
ARC
  5
2B2
102
{ACAD_REACTORS
330
2FC
330
2FD
102
}
330
71
100
AcDbEntity
  8
0
  6
Continuous
 62
     2
100
AcDbCircle
 10
-245.2144616615163
 20
-252.1457684437291
 30
0.0
 40
0.3157169230765328
100
AcDbArc
 50
115.3740086783519
 51
180.0
  0
ARC
  5
2B3
102
{ACAD_REACTORS
330
300
330
301
102
}
330
71
100
AcDbEntity
  8
0
  6
Continuous
 62
     2
100
AcDbCircle
 10
-240.3844474073544
 20
-253.2923856001183
 30
0.0
 40
1.639695123940507
100
AcDbArc
 50
84.84185523036236
 51
164.9381082228864
  0
ARC
  5
2B4
102
{ACAD_REACTORS
330
300
330
301
102
}
330
71
100
AcDbEntity
  8
0
  6
Continuous
 62
     2
100
AcDbCircle
 10
-240.8035752508172
 20
-253.1795952380834
 30
0.0
 40
1.205656168390944
100
AcDbArc
 50
164.9381082228765
 51
195.0618917770948
  0
ARC
  5
2B5
102
{ACAD_REACTORS
330
300
330
301
102
}
330
71
100
AcDbEntity
  8
0
  6
Continuous
 62
     2
100
AcDbCircle
 10
-240.3844474073544
 20
-253.0668048760486
 30
0.0
 40
1.639695123939387
100
AcDbArc
 50
195.0618917770896
 51
275.1581447696395
  0
ARC
  5
2B6
102
{ACAD_REACTORS
330
300
330
301
102
}
330
71
100
AcDbEntity
  8
0
  6
Continuous
 62
     2
100
AcDbCircle
 10
-240.6733035020903
 20
-249.866914292827
 30
0.0
 40
4.852596863498138
100
AcDbArc
 50
275.1581447696249
 51
285.9799912583529
  0
ARC
  5
2B7
102
{ACAD_REACTORS
330
300
330
301
102
}
330
71
100
AcDbEntity
  8
0
  6
Continuous
 62
     2
100
AcDbCircle
 10
-239.8763456679583
 20
-253.1795952380834
 30
0.0
 40
0.9410597353332545
100
AcDbArc
 50
151.4785267422669
 51
208.5214732577057
  0
ARC
  5
2B8
102
{ACAD_REACTORS
330
300
330
301
102
}
330
71
100
AcDbEntity
  8
0
  6
Continuous
 62
     2
100
AcDbCircle
 10
-240.2537029260386
 20
-252.9745238087444
 30
0.0
 40
0.5115800601948779
100
AcDbArc
 50
113.3722778881992
 51
151.4785267423044
  0
ARC
  5
2B9
102
{ACAD_REACTORS
330
300
330
301
102
}
330
71
100
AcDbEntity
  8
0
  6
Continuous
 62
     2
100
AcDbCircle
 10
-240.5154306269974
 20
-254.5900616034916
 30
0.0
 40
2.227384008973478
100
AcDbArc
 50
58.06909105004071
 51
71.55192388186722
  0
ARC
  5
2BA
102
{ACAD_REACTORS
330
2F8
330
2F9
102
}
330
71
100
AcDbEntity
  8
0
  6
Continuous
 62
     2
100
AcDbCircle
 10
-237.4534164914335
 20
-253.0228640599629
 30
0.0
 40
0.5179085730132998
100
AcDbArc
 50
38.12041979714704
 51
141.8795802028588
  0
ARC
  5
2BB
102
{ACAD_REACTORS
330
2F8
330
2F9
102
}
330
71
100
AcDbEntity
  8
0
  6
Continuous
 62
     2
100
AcDbCircle
 10
-237.2536764550874
 20
-253.1795952380834
 30
0.0
 40
0.7717997786794633
100
AcDbArc
 50
141.8795802028363
 51
218.1204197971687
  0
ARC
  5
2BC
102
{ACAD_REACTORS
330
2F8
330
2F9
102
}
330
71
100
AcDbEntity
  8
0
  6
Continuous
 62
     2
100
AcDbCircle
 10
-237.4534164914335
 20
-253.3363264162034
 30
0.0
 40
0.5179085730137354
100
AcDbArc
 50
218.1204197971931
 51
321.879580202801
  0
ARC
  5
2BD
102
{ACAD_REACTORS
330
2F8
330
2F9
102
}
330
71
100
AcDbEntity
  8
0
  6
Continuous
 62
     2
100
AcDbCircle
 10
-237.6531565277799
 20
-253.1795952380834
 30
0.0
 40
0.7717997786796947
100
AcDbArc
 50
321.8795802028417
 51
38.12041979715329
  0
CIRCLE
  5
2BE
330
71
100
AcDbEntity
  8
1
  6
Continuous
 62
     2
100
AcDbCircle
 10
-240.3081496401773
 20
-240.8750000000051
 30
0.0
 40
2.5
  0
CIRCLE
  5
2BF
330
71
100
AcDbEntity
  8
1
  6
Continuous
 62
     2
100
AcDbCircle
 10
-240.3081496401773
 20
-240.8750000000051
 30
0.0
 40
1.249999999999915
  0
CIRCLE
  5
2C0
102
{ACAD_REACTORS
330
2FC
330
2FD
102
}
330
71
100
AcDbEntity
  8
0
  6
Continuous
 62
     2
100
AcDbCircle
 10
-245.764319374277
 20
-251.0366268437607
 30
0.0
 40
0.4709789327785074
  0
MTEXT
  5
2C1
330
71
100
AcDbEntity
  8
1
 62
     3
100
AcDbMText
 10
-410.4949322139181
 20
-75.20869184470621
 30
0.0
 40
1.8
 41
0.0
 71
     7
 72
     1
  3
Weitergabe sowie Vervielf\U+00e4ltigung dieses Dokuments, Verwertung und \PMitteilung seines Inhalts sind verboten, soweit nicht ausdr\U+00fccklich gestattet. \PZuwiderhandlungen verpflichten zu Schadenersatz. Alle Rechte f\U+00fcr den Fall\Pder Pat
  1
ent-, Gebrauchsmuster- oder Designeintragung vorbehalten.
  7
CONVERTER_11
 73
     1
 44
0.99639855942377
  0
MTEXT
  5
2C2
330
71
100
AcDbEntity
  8
1
 62
     3
100
AcDbMText
 10
-227.64182237513
 20
-75.20869184470621
 30
0.0
 40
1.8
 41
0.0
 71
     7
 72
     1
  3
Transfer or duplication of this document as well as the utilisation or\Pcommunication of its content are not permitted unless express consent\Pis granted. Violations give rise to claims for damages. All rights reserved\Pin case of patent, utility mo
  1
del or design patent registrations.
  7
CONVERTER_11
 73
     1
 44
0.99639855942377
  0
TEXT
  5
2C3
330
71
100
AcDbEntity
  8
1
 62
     2
100
AcDbText
 10
-233.8448045267401
 20
-260.7590172149966
 30
0.0
 40
1.8
  1
of
 41
0.9
  7
CONVERTER_11
100
AcDbText
  0
TEXT
  5
2C4
330
71
100
AcDbEntity
  8
1
 62
     2
100
AcDbText
 10
-252.0448045267399
 20
-260.7590172149967
 30
0.0
 40
1.8
  1
page
 41
0.9
  7
CONVERTER_11
100
AcDbText
  0
TEXT
  5
2C5
330
71
100
AcDbEntity
  8
1
 62
     2
100
AcDbText
 10
-243.3985395563979
 20
-260.799248653807
 30
0.0
 40
1.8
  1
1
 41
0.9
  7
CONVERTER_11
100
AcDbText
  0
TEXT
  5
2C6
330
71
100
AcDbEntity
  8
1
 62
     2
100
AcDbText
 10
-228.6094957169264
 20
-260.7500000000051
 30
0.0
 40
1.8
  1
1
 41
0.9
  7
CONVERTER_11
100
AcDbText
  0
MTEXT
  5
2C8
330
71
100
AcDbEntity
  8
1
 62
     7
100
AcDbMText
 10
-170.0724022633644
 20
-258.7500000000048
 30
0.0
 40
3.0
 41
0.0
 71
     5
 72
     1
  1
CF 1000-10 LOC10
  7
CONVERTER_12
 73
     1
 44
1.20048019207683
  0
MTEXT
  5
2C9
330
71
100
AcDbEntity
  8
1
 62
     2
100
AcDbMText
 10
-215.64480452674
 20
-254.500000000005
 30
0.0
 40
1.8
 41
0.0
 71
     1
 72
     1
  1
description
  7
CONVERTER_11
 73
     1
 44
1.20048019207683
  0
MTEXT
  5
2CA
330
71
100
AcDbEntity
  8
1
 62
     3
100
AcDbMText
 10
-226.84480452674
 20
-240.875000000005
 30
0.0
 40
2.5
 41
0.0
 71
     5
 72
     1
  1
DIN A4
  7
CONVERTER_11
 73
     1
 44
1.20048019207683
  0
MTEXT
  5
2CB
330
71
100
AcDbEntity
  8
1
 62
     7
100
AcDbMText
 10
-412.999999999989
 20
-239.500000000005
 30
0.0
 40
3.5
 41
0.0
 71
     5
 72
     1
  1
D
  7
CONVERTER_11
 73
     1
 44
1.20048019207683
  0
MTEXT
  5
2CC
330
71
100
AcDbEntity
  8
1
 62
     7
100
AcDbMText
 10
-412.999999999989
 20
-187.000000000005
 30
0.0
 40
3.5
 41
0.0
 71
     5
 72
     1
  1
C
  7
CONVERTER_11
 73
     1
 44
1.20048019207683
  0
MTEXT
  5
2CD
330
71
100
AcDbEntity
  8
1
 62
     7
100
AcDbMText
 10
-412.999999999989
 20
-137.000000000005
 30
0.0
 40
3.5
 41
0.0
 71
     5
 72
     1
  1
B
  7
CONVERTER_11
 73
     1
 44
1.20048019207683
  0
MTEXT
  5
2CE
330
71
100
AcDbEntity
  8
1
 62
     7
100
AcDbMText
 10
-412.999999999989
 20
-84.500000000005
 30
0.0
 40
3.5
 41
0.0
 71
     5
 72
     1
  1
A
  7
CONVERTER_11
 73
     1
 44
1.20048019207683
  0
MTEXT
  5
2CF
330
71
100
AcDbEntity
  8
1
 62
     7
100
AcDbMText
 10
-142.7499999999907
 20
-264.5000000000051
 30
0.0
 40
3.5
 41
0.0
 71
     5
 72
     1
  1
6
  7
CONVERTER_11
 73
     1
 44
1.20048019207683
  0
MTEXT
  5
2D0
330
71
100
AcDbEntity
  8
1
 62
     7
100
AcDbMText
 10
-191.9999999999899
 20
-264.5000000000051
 30
0.0
 40
3.5
 41
0.0
 71
     5
 72
     1
  1
5
  7
CONVERTER_11
 73
     1
 44
1.20048019207683
  0
MTEXT
  5
2D1
330
71
100
AcDbEntity
  8
1
 62
     7
100
AcDbMText
 10
-241.99999999999
 20
-264.5000000000051
 30
0.0
 40
3.5
 41
0.0
 71
     5
 72
     1
  1
4
  7
CONVERTER_11
 73
     1
 44
1.20048019207683
  0
MTEXT
  5
2D2
330
71
100
AcDbEntity
  8
1
 62
     7
100
AcDbMText
 10
-291.9999999999899
 20
-264.5000000000051
 30
0.0
 40
3.5
 41
0.0
 71
     5
 72
     1
  1
3
  7
CONVERTER_11
 73
     1
 44
1.20048019207683
  0
MTEXT
  5
2D3
330
71
100
AcDbEntity
  8
1
 62
     7
100
AcDbMText
 10
-341.9999999999899
 20
-264.5000000000051
 30
0.0
 40
3.5
 41
0.0
 71
     5
 72
     1
  1
2
  7
CONVERTER_11
 73
     1
 44
1.20048019207683
  0
MTEXT
  5
2D4
330
71
100
AcDbEntity
  8
1
 62
     7
100
AcDbMText
 10
-391.2499999999895
 20
-264.5000000000051
 30
0.0
 40
3.5
 41
0.0
 71
     5
 72
     1
  1
1
  7
CONVERTER_11
 73
     1
 44
1.20048019207683
  0
MTEXT
  5
2D5
330
71
100
AcDbEntity
  8
1
 62
     7
100
AcDbMText
 10
-120.9999999999909
 20
-239.500000000005
 30
0.0
 40
3.5
 41
0.0
 71
     5
 72
     1
  1
D
  7
CONVERTER_11
 73
     1
 44
1.20048019207683
  0
MTEXT
  5
2D6
330
71
100
AcDbEntity
  8
1
 62
     7
100
AcDbMText
 10
-120.9999999999909
 20
-137.0000000000031
 30
0.0
 40
3.5
 41
0.0
 71
     5
 72
     1
  1
B
  7
CONVERTER_11
 73
     1
 44
1.20048019207683
  0
MTEXT
  5
2D7
330
71
100
AcDbEntity
  8
1
 62
     7
100
AcDbMText
 10
-120.9999999999909
 20
-84.500000000005
 30
0.0
 40
3.5
 41
0.0
 71
     5
 72
     1
  1
A
  7
CONVERTER_11
 73
     1
 44
1.20048019207683
  0
MTEXT
  5
2D8
330
71
100
AcDbEntity
  8
1
 62
     7
100
AcDbMText
 10
-120.9999999999909
 20
-187.0000000000031
 30
0.0
 40
3.5
 41
0.0
 71
     5
 72
     1
  1
C
  7
CONVERTER_11
 73
     1
 44
1.20048019207683
  0
MTEXT
  5
2D9
330
71
100
AcDbEntity
  8
1
 62
     2
100
AcDbMText
 10
-287.4828192517874
 20
-249.2500000000051
 30
0.0
 40
2.0
 41
0.0
 71
     5
 72
     1
  1
General Information\P- Simplified representation\P- Document excluded from change process\P- Linear dimensions [mm]
  7
CONVERTER_11
 73
     1
 44
1.20048019207683
  0
TEXT
  5
2DA
330
71
100
AcDbEntity
  8
1
 62
     7
100
AcDbText
 10
-215.1448045267402
 20
-252.2000000000051
 30
0.0
 40
2.5
  1
1212660
 41
0.81
  7
CONVERTER_12
100
AcDbText
  0
MTEXT
  5
2DB
330
71
100
AcDbEntity
  8
1
 62
     2
100
AcDbMText
 10
-215.5448045267399
 20
-246.000000000005
 30
0.0
 40
1.8
 41
0.0
 71
     1
 72
     1
  1
ident.-No.
  7
CONVERTER_11
 73
     1
 44
1.20048019207683
  0
MTEXT
  5
2DC
330
71
100
AcDbEntity
  8
1
 62
     2
100
AcDbMText
 10
-131.3184082816672
 20
-237.500000000005
 30
0.0
 40
1.8
 41
0.0
 71
     1
 72
     1
  1
scale
  7
CONVERTER_11
 73
     1
 44
1.20048019207683
  0
MTEXT
  5
2DE
330
71
100
AcDbEntity
  8
1
 62
     3
100
AcDbMText
 10
-127.9592041408276
 20
-243.7000000000049
 30
0.0
 40
2.5
 41
0.0
 71
     8
 72
     1
  1
1:1
  7
CONVERTER_13
 73
     1
 44
1.32052821128451
  0
TEXT
  5
2DF
330
71
100
AcDbEntity
  8
1
 62
     7
100
AcDbText
 10
-215.5448045267399
 20
-243.7000000000051
 30
0.0
 40
2.5
  1
01072452
 41
0.81
  7
CONVERTER_12
100
AcDbText
  0
MTEXT
  5
2E1
330
71
100
AcDbEntity
  8
1
 62
     2
100
AcDbMText
 10
-215.5448045267399
 20
-237.500000000005
 30
0.0
 40
1.8
 41
0.0
 71
     1
 72
     1
  1
document-No. / RI
  7
CONVERTER_14
 73
     1
 44
1.32052821128451
  0
TEXT
  5
2E2
330
71
100
AcDbEntity
  8
1
 62
     3
100
AcDbText
 10
-187.7448045267399
 20
-252.2000000000051
 30
0.0
 40
2.5
  1
TECDOC 2D_Productdrawing
 41
0.81
  7
CONVERTER_12
100
AcDbText
  0
MTEXT
  5
2E3
330
71
100
AcDbEntity
  8
1
 62
     2
100
AcDbMText
 10
-187.7448045267399
 20
-246.0000000000051
 30
0.0
 40
1.8
 41
0.0
 71
     1
 72
     1
  1
document-type
  7
CONVERTER_11
 73
     1
 44
1.20048019207683
  0
MTEXT
  5
2E4
330
71
100
AcDbEntity
  8
1
 62
     2
100
AcDbMText
 10
-157.918408281667
 20
-237.5000000000051
 30
0.0
 40
1.8
 41
0.0
 71
     1
 72
     1
  1
date
  7
CONVERTER_11
 73
     1
 44
1.32052821128451
  0
TEXT
  5
2E5
330
71
100
AcDbEntity
  8
1
 62
     3
100
AcDbText
 10
-157.918408281667
 20
-243.7000000000051
 30
0.0
 40
2.5
  1
01.08.2017
 41
0.81
  7
CONVERTER_12
100
AcDbText
  0
TEXT
  5
2E6
330
71
100
AcDbEntity
  8
1
 62
     7
100
AcDbText
 10
-195.5148923076841
 20
-243.7000000000051
 30
0.0
 40
2.5
  1
00
 41
0.81
  7
CONVERTER_12
100
AcDbText
  0
TEXT
  5
2E7
330
71
100
AcDbEntity
  8
1
 62
     7
100
AcDbText
 10
-197.6712568047261
 20
-243.7000000000051
 30
0.0
 40
2.5
  1
/
 41
0.9
  7
CONVERTER_11
100
AcDbText
  0
HATCH
  5
2E8
330
71
100
AcDbEntity
  8
1
  6
Continuous
 62
     2
100
AcDbHatch
 10
0.0
 20
0.0
 30
0.0
210
0.0
220
0.0
230
1.0
  2
_USER
 70
     0
 71
     1
 91
        1
 92
        1
 93
       12
 72
     1
 10
-235.3773038137788
 20
-251.3473095238144
 11
-236.5700965159452
 21
-251.3473095238144
 72
     1
 10
-236.5700965159452
 20
-251.3473095238144
 11
-236.5700965159452
 21
-250.2130374149706
 72
     1
 10
-236.5700965159452
 20
-250.2130374149706
 11
-237.6197540938527
 21
-250.2130374149706
 72
     1
 10
-237.6197540938527
 20
-250.2130374149706
 11
-237.6197540938527
 21
-251.3473095238144
 72
     1
 10
-237.6197540938527
 20
-251.3473095238144
 11
-238.8125467960193
 21
-251.3473095238144
 72
     1
 10
-238.8125467960193
 20
-251.3473095238144
 11
-238.8125467960193
 21
-248.2935000000032
 72
     1
 10
-238.8125467960193
 20
-248.2935000000032
 11
-237.6197540938527
 21
-248.2935000000032
 72
     1
 10
-237.6197540938527
 20
-248.2935000000032
 11
-237.6197540938527
 21
-249.3623333333378
 72
     1
 10
-237.6197540938527
 20
-249.3623333333378
 11
-236.5700965159452
 21
-249.3623333333378
 72
     1
 10
-236.5700965159452
 20
-249.3623333333378
 11
-236.5700965159452
 21
-248.2935000000032
 72
     1
 10
-236.5700965159452
 20
-248.2935000000032
 11
-235.3773038137788
 21
-248.2935000000032
 72
     1
 10
-235.3773038137788
 20
-248.2935000000032
 11
-235.3773038137788
 21
-251.3473095238144
 97
       12
330
255
330
256
330
240
330
23F
330
23E
330
252
330
23D
330
253
330
254
330
23C
330
23B
330
23A
 75
     1
 76
     0
 52
45.0
 41
0.1
 77
     0
 78
     1
 53
45.0
 43
0.0
 44
0.0
 45
-0.0707106781186548
 46
0.0707106781186548
 79
     0
 98
        1
 10
0.0
 20
0.0
  0
HATCH
  5
2E9
330
71
100
AcDbEntity
  8
1
  6
Continuous
 62
     2
100
AcDbHatch
 10
0.0
 20
0.0
 30
0.0
210
0.0
220
0.0
230
1.0
  2
_USER
 70
     0
 71
     1
 91
        1
 92
        1
 93
       12
 72
     1
 10
-235.3773038137788
 20
-251.3473095238144
 11
-236.5700965159452
 21
-251.3473095238144
 72
     1
 10
-236.5700965159452
 20
-251.3473095238144
 11
-236.5700965159452
 21
-250.2130374149706
 72
     1
 10
-236.5700965159452
 20
-250.2130374149706
 11
-237.6197540938527
 21
-250.2130374149706
 72
     1
 10
-237.6197540938527
 20
-250.2130374149706
 11
-237.6197540938527
 21
-251.3473095238144
 72
     1
 10
-237.6197540938527
 20
-251.3473095238144
 11
-238.8125467960193
 21
-251.3473095238144
 72
     1
 10
-238.8125467960193
 20
-251.3473095238144
 11
-238.8125467960193
 21
-248.2935000000032
 72
     1
 10
-238.8125467960193
 20
-248.2935000000032
 11
-237.6197540938527
 21
-248.2935000000032
 72
     1
 10
-237.6197540938527
 20
-248.2935000000032
 11
-237.6197540938527
 21
-249.3623333333378
 72
     1
 10
-237.6197540938527
 20
-249.3623333333378
 11
-236.5700965159452
 21
-249.3623333333378
 72
     1
 10
-236.5700965159452
 20
-249.3623333333378
 11
-236.5700965159452
 21
-248.2935000000032
 72
     1
 10
-236.5700965159452
 20
-248.2935000000032
 11
-235.3773038137788
 21
-248.2935000000032
 72
     1
 10
-235.3773038137788
 20
-248.2935000000032
 11
-235.3773038137788
 21
-251.3473095238144
 97
       12
330
255
330
256
330
240
330
23F
330
23E
330
252
330
23D
330
253
330
254
330
23C
330
23B
330
23A
 75
     1
 76
     0
 52
45.0
 41
0.1
 77
     0
 78
     1
 53
45.0
 43
0.0
 44
0.0
 45
-0.0707106781186548
 46
0.0707106781186548
 79
     0
 98
        1
 10
0.0
 20
0.0
  0
HATCH
  5
2EA
330
71
100
AcDbEntity
  8
1
  6
Continuous
 62
     2
100
AcDbHatch
 10
0.0
 20
0.0
 30
0.0
210
0.0
220
0.0
230
1.0
  2
_USER
 70
     0
 71
     1
 91
        1
 92
        1
 93
       10
 72
     1
 10
-233.1350044645905
 20
-252.9614659863827
 11
-234.3755088748434
 21
-251.6526904761776
 72
     1
 10
-234.3755088748434
 20
-251.6526904761776
 11
-235.568301577011
 21
-251.6526904761776
 72
     1
 10
-235.568301577011
 20
-251.6526904761776
 11
-235.568301577011
 21
-254.7064999999887
 72
     1
 10
-235.568301577011
 20
-254.7064999999887
 11
-234.3755088748434
 21
-254.7064999999887
 72
     1
 10
-234.3755088748434
 20
-254.7064999999887
 11
-234.3755088748434
 21
-253.3977244897841
 72
     1
 10
-234.3755088748434
 20
-253.3977244897841
 11
-233.1350044645905
 21
-254.7064999999887
 72
     1
 10
-233.1350044645905
 20
-254.7064999999887
 11
-231.9422117624241
 21
-254.7064999999887
 72
     1
 10
-231.9422117624241
 20
-254.7064999999887
 11
-231.9422117624241
 21
-251.6526904761776
 72
     1
 10
-231.9422117624241
 20
-251.6526904761776
 11
-233.1350044645905
 21
-251.6526904761776
 72
     1
 10
-233.1350044645905
 20
-251.6526904761776
 11
-233.1350044645905
 21
-252.9614659863827
 97
       10
330
263
330
233
330
232
330
235
330
25E
330
25F
330
234
330
260
330
261
330
262
 75
     1
 76
     0
 52
45.0
 41
0.1
 77
     0
 78
     1
 53
45.0
 43
0.0
 44
0.0
 45
-0.0707106781186548
 46
0.0707106781186548
 79
     0
 98
        1
 10
0.0
 20
0.0
  0
HATCH
  5
2EB
330
71
100
AcDbEntity
  8
1
  6
Continuous
 62
     2
100
AcDbHatch
 10
0.0
 20
0.0
 30
0.0
210
0.0
220
0.0
230
1.0
  2
_USER
 70
     0
 71
     1
 91
        1
 92
        1
 93
       10
 72
     1
 10
-233.1350044645905
 20
-252.9614659863827
 11
-234.3755088748434
 21
-251.6526904761776
 72
     1
 10
-234.3755088748434
 20
-251.6526904761776
 11
-235.568301577011
 21
-251.6526904761776
 72
     1
 10
-235.568301577011
 20
-251.6526904761776
 11
-235.568301577011
 21
-254.7064999999887
 72
     1
 10
-235.568301577011
 20
-254.7064999999887
 11
-234.3755088748434
 21
-254.7064999999887
 72
     1
 10
-234.3755088748434
 20
-254.7064999999887
 11
-234.3755088748434
 21
-253.3977244897841
 72
     1
 10
-234.3755088748434
 20
-253.3977244897841
 11
-233.1350044645905
 21
-254.7064999999887
 72
     1
 10
-233.1350044645905
 20
-254.7064999999887
 11
-231.9422117624241
 21
-254.7064999999887
 72
     1
 10
-231.9422117624241
 20
-254.7064999999887
 11
-231.9422117624241
 21
-251.6526904761776
 72
     1
 10
-231.9422117624241
 20
-251.6526904761776
 11
-233.1350044645905
 21
-251.6526904761776
 72
     1
 10
-233.1350044645905
 20
-251.6526904761776
 11
-233.1350044645905
 21
-252.9614659863827
 97
       10
330
263
330
233
330
232
330
235
330
25E
330
25F
330
234
330
260
330
261
330
262
 75
     1
 76
     0
 52
45.0
 41
0.1
 77
     0
 78
     1
 53
45.0
 43
0.0
 44
0.0
 45
-0.0707106781186548
 46
0.0707106781186548
 79
     0
 98
        1
 10
0.0
 20
0.0
  0
HATCH
  5
2EC
330
71
100
AcDbEntity
  8
1
  6
Continuous
 62
     2
100
AcDbHatch
 10
0.0
 20
0.0
 30
0.0
210
0.0
220
0.0
230
1.0
  2
_USER
 70
     0
 71
     1
 91
        1
 92
        1
 93
       10
 72
     1
 10
-227.8865656441708
 20
-249.6022755102084
 11
-229.1270700544248
 21
-248.2935000000032
 72
     1
 10
-229.1270700544248
 20
-248.2935000000032
 11
-230.3198627565913
 21
-248.2935000000032
 72
     1
 10
-230.3198627565913
 20
-248.2935000000032
 11
-230.3198627565913
 21
-251.3473095238144
 72
     1
 10
-230.3198627565913
 20
-251.3473095238144
 11
-229.1270700544248
 21
-251.3473095238144
 72
     1
 10
-229.1270700544248
 20
-251.3473095238144
 11
-229.1270700544248
 21
-250.0385340136097
 72
     1
 10
-229.1270700544248
 20
-250.0385340136097
 11
-227.8865656441708
 21
-251.3473095238144
 72
     1
 10
-227.8865656441708
 20
-251.3473095238144
 11
-226.6937729420042
 21
-251.3473095238144
 72
     1
 10
-226.6937729420042
 20
-251.3473095238144
 11
-226.6937729420042
 21
-248.2935000000032
 72
     1
 10
-226.6937729420042
 20
-248.2935000000032
 11
-227.8865656441708
 21
-248.2935000000032
 72
     1
 10
-227.8865656441708
 20
-248.2935000000032
 11
-227.8865656441708
 21
-249.6022755102084
 97
       10
330
268
330
230
330
22F
330
269
330
22E
330
264
330
265
330
266
330
267
330
231
 75
     1
 76
     0
 52
45.0
 41
0.1
 77
     0
 78
     1
 53
45.0
 43
0.0
 44
0.0
 45
-0.0707106781186548
 46
0.0707106781186548
 79
     0
 98
        1
 10
0.0
 20
0.0
  0
HATCH
  5
2ED
330
71
100
AcDbEntity
  8
1
  6
Continuous
 62
     2
100
AcDbHatch
 10
0.0
 20
0.0
 30
0.0
210
0.0
220
0.0
230
1.0
  2
_USER
 70
     0
 71
     1
 91
        1
 92
        1
 93
       10
 72
     1
 10
-227.8865656441708
 20
-249.6022755102084
 11
-229.1270700544248
 21
-248.2935000000032
 72
     1
 10
-229.1270700544248
 20
-248.2935000000032
 11
-230.3198627565913
 21
-248.2935000000032
 72
     1
 10
-230.3198627565913
 20
-248.2935000000032
 11
-230.3198627565913
 21
-251.3473095238144
 72
     1
 10
-230.3198627565913
 20
-251.3473095238144
 11
-229.1270700544248
 21
-251.3473095238144
 72
     1
 10
-229.1270700544248
 20
-251.3473095238144
 11
-229.1270700544248
 21
-250.0385340136097
 72
     1
 10
-229.1270700544248
 20
-250.0385340136097
 11
-227.8865656441708
 21
-251.3473095238144
 72
     1
 10
-227.8865656441708
 20
-251.3473095238144
 11
-226.6937729420042
 21
-251.3473095238144
 72
     1
 10
-226.6937729420042
 20
-251.3473095238144
 11
-226.6937729420042
 21
-248.2935000000032
 72
     1
 10
-226.6937729420042
 20
-248.2935000000032
 11
-227.8865656441708
 21
-248.2935000000032
 72
     1
 10
-227.8865656441708
 20
-248.2935000000032
 11
-227.8865656441708
 21
-249.6022755102084
 97
       10
330
268
330
230
330
22F
330
269
330
22E
330
264
330
265
330
266
330
267
330
231
 75
     1
 76
     0
 52
45.0
 41
0.1
 77
     0
 78
     1
 53
45.0
 43
0.0
 44
0.0
 45
-0.0707106781186548
 46
0.0707106781186548
 79
     0
 98
        1
 10
0.0
 20
0.0
  0
HATCH
  5
2EE
330
71
100
AcDbEntity
  8
1
  6
Continuous
 62
     2
100
AcDbHatch
 10
0.0
 20
0.0
 30
0.0
210
0.0
220
0.0
230
1.0
  2
_USER
 70
     0
 71
     1
 91
        1
 92
        1
 93
        8
 72
     1
 10
-228.9840858610503
 20
-251.6526904761776
 11
-231.7990766381639
 21
-251.6526904761776
 72
     1
 10
-231.7990766381639
 20
-251.6526904761776
 11
-231.7990766381639
 21
-252.4379557823012
 72
     1
 10
-231.7990766381639
 20
-252.4379557823012
 11
-230.9879776006893
 21
-252.4379557823012
 72
     1
 10
-230.9879776006893
 20
-252.4379557823012
 11
-230.9879776006893
 21
-254.7064999999887
 72
     1
 10
-230.9879776006893
 20
-254.7064999999887
 11
-229.7951848985228
 21
-254.7064999999887
 72
     1
 10
-229.7951848985228
 20
-254.7064999999887
 11
-229.7951848985228
 21
-252.4379557823012
 72
     1
 10
-229.7951848985228
 20
-252.4379557823012
 11
-228.9840858610503
 21
-252.4379557823012
 72
     1
 10
-228.9840858610503
 20
-252.4379557823012
 11
-228.9840858610503
 21
-251.6526904761776
 97
        8
330
22A
330
26A
330
229
330
26B
330
26C
330
22D
330
22C
330
22B
 75
     1
 76
     0
 52
45.0
 41
0.1
 77
     0
 78
     1
 53
45.0
 43
0.0
 44
0.0
 45
-0.0707106781186548
 46
0.0707106781186548
 79
     0
 98
        1
 10
0.0
 20
0.0
  0
HATCH
  5
2EF
330
71
100
AcDbEntity
  8
1
  6
Continuous
 62
     2
100
AcDbHatch
 10
0.0
 20
0.0
 30
0.0
210
0.0
220
0.0
230
1.0
  2
_USER
 70
     0
 71
     1
 91
        1
 92
        1
 93
        8
 72
     1
 10
-228.9840858610503
 20
-251.6526904761776
 11
-231.7990766381639
 21
-251.6526904761776
 72
     1
 10
-231.7990766381639
 20
-251.6526904761776
 11
-231.7990766381639
 21
-252.4379557823012
 72
     1
 10
-231.7990766381639
 20
-252.4379557823012
 11
-230.9879776006893
 21
-252.4379557823012
 72
     1
 10
-230.9879776006893
 20
-252.4379557823012
 11
-230.9879776006893
 21
-254.7064999999887
 72
     1
 10
-230.9879776006893
 20
-254.7064999999887
 11
-229.7951848985228
 21
-254.7064999999887
 72
     1
 10
-229.7951848985228
 20
-254.7064999999887
 11
-229.7951848985228
 21
-252.4379557823012
 72
     1
 10
-229.7951848985228
 20
-252.4379557823012
 11
-228.9840858610503
 21
-252.4379557823012
 72
     1
 10
-228.9840858610503
 20
-252.4379557823012
 11
-228.9840858610503
 21
-251.6526904761776
 97
        8
330
22A
330
26A
330
229
330
26B
330
26C
330
22D
330
22C
330
22B
 75
     1
 76
     0
 52
45.0
 41
0.1
 77
     0
 78
     1
 53
45.0
 43
0.0
 44
0.0
 45
-0.0707106781186548
 46
0.0707106781186548
 79
     0
 98
        1
 10
0.0
 20
0.0
  0
HATCH
  5
2F0
330
71
100
AcDbEntity
  8
1
  6
Continuous
 62
     2
100
AcDbHatch
 10
0.0
 20
0.0
 30
0.0
210
0.0
220
0.0
230
1.0
  2
_USER
 70
     0
 71
     1
 91
        2
 92
        1
 93
        8
 72
     1
 10
-226.8456584051033
 20
-254.7064999999887
 11
-227.0571384585791
 21
-254.1655394557708
 72
     1
 10
-227.0571384585791
 20
-254.1655394557708
 11
-228.1895800352529
 21
-254.1655394557708
 72
     1
 10
-228.1895800352529
 20
-254.1655394557708
 11
-228.4010600887287
 21
-254.7064999999887
 72
     1
 10
-228.4010600887287
 20
-254.7064999999887
 11
-229.6415644989817
 21
-254.7064999999887
 72
     1
 10
-229.6415644989817
 20
-254.7064999999887
 11
-228.2436114520424
 21
-251.6526904761776
 72
     1
 10
-228.2436114520424
 20
-251.6526904761776
 11
-227.0031070417897
 21
-251.6526904761776
 72
     1
 10
-227.0031070417897
 20
-251.6526904761776
 11
-225.6051539948494
 21
-254.7064999999887
 72
     1
 10
-225.6051539948494
 20
-254.7064999999887
 11
-226.8456584051033
 21
-254.7064999999887
 97
        8
330
26E
330
26F
330
226
330
270
330
225
330
228
330
26D
330
227
 92
       16
 93
        3
 72
     1
 10
-227.9235244841079
 20
-253.4849761904642
 11
-227.6233592469155
 21
-252.7171612244775
 72
     1
 10
-227.6233592469155
 20
-252.7171612244775
 11
-227.3231940097254
 21
-253.4849761904642
 72
     1
 10
-227.3231940097254
 20
-253.4849761904642
 11
-227.9235244841079
 21
-253.4849761904642
 97
        3
330
224
330
272
330
271
 75
     1
 76
     0
 52
45.0
 41
0.1
 77
     0
 78
     1
 53
45.0
 43
0.0
 44
0.0
 45
-0.0707106781186548
 46
0.0707106781186548
 79
     0
 98
        1
 10
0.0
 20
0.0
  0
HATCH
  5
2F1
330
71
100
AcDbEntity
  8
1
  6
Continuous
 62
     2
100
AcDbHatch
 10
0.0
 20
0.0
 30
0.0
210
0.0
220
0.0
230
1.0
  2
_USER
 70
     0
 71
     1
 91
        2
 92
        1
 93
        8
 72
     1
 10
-226.8456584051033
 20
-254.7064999999887
 11
-227.0571384585791
 21
-254.1655394557708
 72
     1
 10
-227.0571384585791
 20
-254.1655394557708
 11
-228.1895800352529
 21
-254.1655394557708
 72
     1
 10
-228.1895800352529
 20
-254.1655394557708
 11
-228.4010600887287
 21
-254.7064999999887
 72
     1
 10
-228.4010600887287
 20
-254.7064999999887
 11
-229.6415644989817
 21
-254.7064999999887
 72
     1
 10
-229.6415644989817
 20
-254.7064999999887
 11
-228.2436114520424
 21
-251.6526904761776
 72
     1
 10
-228.2436114520424
 20
-251.6526904761776
 11
-227.0031070417897
 21
-251.6526904761776
 72
     1
 10
-227.0031070417897
 20
-251.6526904761776
 11
-225.6051539948494
 21
-254.7064999999887
 72
     1
 10
-225.6051539948494
 20
-254.7064999999887
 11
-226.8456584051033
 21
-254.7064999999887
 97
        8
330
26E
330
26F
330
226
330
270
330
225
330
228
330
26D
330
227
 92
       16
 93
        3
 72
     1
 10
-227.9235244841079
 20
-253.4849761904642
 11
-227.6233592469155
 21
-252.7171612244775
 72
     1
 10
-227.6233592469155
 20
-252.7171612244775
 11
-227.3231940097254
 21
-253.4849761904642
 72
     1
 10
-227.3231940097254
 20
-253.4849761904642
 11
-227.9235244841079
 21
-253.4849761904642
 97
        3
330
224
330
272
330
271
 75
     1
 76
     0
 52
45.0
 41
0.1
 77
     0
 78
     1
 53
45.0
 43
0.0
 44
0.0
 45
-0.0707106781186548
 46
0.0707106781186548
 79
     0
 98
        1
 10
0.0
 20
0.0
  0
HATCH
  5
2F2
330
71
100
AcDbEntity
  8
1
  6
Continuous
 62
     2
100
AcDbHatch
 10
0.0
 20
0.0
 30
0.0
210
0.0
220
0.0
230
1.0
  2
_USER
 70
     0
 71
     1
 91
        1
 92
        1
 93
        4
 72
     1
 10
-225.2147099913174
 20
-251.3473095238144
 11
-226.4552144015703
 21
-251.3473095238144
 72
     1
 10
-226.4552144015703
 20
-251.3473095238144
 11
-226.4552144015703
 21
-248.2935000000032
 72
     1
 10
-226.4552144015703
 20
-248.2935000000032
 11
-225.2147099913174
 21
-248.2935000000032
 72
     1
 10
-225.2147099913174
 20
-248.2935000000032
 11
-225.2147099913174
 21
-251.3473095238144
 97
        4
330
221
330
223
330
273
330
222
 75
     1
 76
     0
 52
45.0
 41
0.1
 77
     0
 78
     1
 53
45.0
 43
0.0
 44
0.0
 45
-0.0707106781186548
 46
0.0707106781186548
 79
     0
 98
        1
 10
0.0
 20
0.0
  0
HATCH
  5
2F3
330
71
100
AcDbEntity
  8
1
  6
Continuous
 62
     2
100
AcDbHatch
 10
0.0
 20
0.0
 30
0.0
210
0.0
220
0.0
230
1.0
  2
_USER
 70
     0
 71
     1
 91
        1
 92
        1
 93
        4
 72
     1
 10
-225.2147099913174
 20
-251.3473095238144
 11
-226.4552144015703
 21
-251.3473095238144
 72
     1
 10
-226.4552144015703
 20
-251.3473095238144
 11
-226.4552144015703
 21
-248.2935000000032
 72
     1
 10
-226.4552144015703
 20
-248.2935000000032
 11
-225.2147099913174
 21
-248.2935000000032
 72
     1
 10
-225.2147099913174
 20
-248.2935000000032
 11
-225.2147099913174
 21
-251.3473095238144
 97
        4
330
221
330
223
330
273
330
222
 75
     1
 76
     0
 52
45.0
 41
0.1
 77
     0
 78
     1
 53
45.0
 43
0.0
 44
0.0
 45
-0.0707106781186548
 46
0.0707106781186548
 79
     0
 98
        1
 10
0.0
 20
0.0
  0
HATCH
  5
2F4
330
71
100
AcDbEntity
  8
1
  6
Continuous
 62
     2
100
AcDbHatch
 10
0.0
 20
0.0
 30
0.0
210
0.0
220
0.0
230
1.0
  2
_USER
 70
     0
 71
     1
 91
        1
 92
        1
 93
       12
 72
     1
 10
-220.9922238256466
 20
-248.2935000000032
 11
-222.2947534564131
 21
-249.7664505300394
 72
     1
 10
-222.2947534564131
 20
-249.7664505300394
 11
-220.8968004094728
 21
-251.3473095238144
 72
     1
 10
-220.8968004094728
 20
-251.3473095238144
 11
-222.2995246272211
 21
-251.3473095238144
 72
     1
 10
-222.2995246272211
 20
-251.3473095238144
 11
-222.9961155652866
 21
-250.5595777385207
 72
     1
 10
-222.9961155652866
 20
-250.5595777385207
 11
-223.6927065033523
 21
-251.3473095238144
 72
     1
 10
-223.6927065033523
 20
-251.3473095238144
 11
-225.0954307211005
 21
-251.3473095238144
 72
     1
 10
-225.0954307211005
 20
-251.3473095238144
 11
-223.6974776741602
 21
-249.7664505300394
 72
     1
 10
-223.6974776741602
 20
-249.7664505300394
 11
-225.0000073049277
 21
-248.2935000000032
 72
     1
 10
-225.0000073049277
 20
-248.2935000000032
 11
-223.5972830871784
 21
-248.2935000000032
 72
     1
 10
-223.5972830871784
 20
-248.2935000000032
 11
-222.9961155652866
 21
-248.9733233215587
 72
     1
 10
-222.9961155652866
 20
-248.9733233215587
 11
-222.3949480433938
 21
-248.2935000000032
 72
     1
 10
-222.3949480433938
 20
-248.2935000000032
 11
-220.9922238256466
 21
-248.2935000000032
 97
       12
330
21C
330
21B
330
21A
330
277
330
278
330
274
330
275
330
220
330
21F
330
21E
330
21D
330
276
 75
     1
 76
     0
 52
45.0
 41
0.1
 77
     0
 78
     1
 53
45.0
 43
0.0
 44
0.0
 45
-0.0707106781186548
 46
0.0707106781186548
 79
     0
 98
        1
 10
0.0
 20
0.0
  0
HATCH
  5
2F5
330
71
100
AcDbEntity
  8
1
  6
Continuous
 62
     2
100
AcDbHatch
 10
0.0
 20
0.0
 30
0.0
210
0.0
220
0.0
230
1.0
  2
_USER
 70
     0
 71
     1
 91
        1
 92
        1
 93
       12
 72
     1
 10
-220.9922238256466
 20
-248.2935000000032
 11
-222.2947534564131
 21
-249.7664505300394
 72
     1
 10
-222.2947534564131
 20
-249.7664505300394
 11
-220.8968004094728
 21
-251.3473095238144
 72
     1
 10
-220.8968004094728
 20
-251.3473095238144
 11
-222.2995246272211
 21
-251.3473095238144
 72
     1
 10
-222.2995246272211
 20
-251.3473095238144
 11
-222.9961155652866
 21
-250.5595777385207
 72
     1
 10
-222.9961155652866
 20
-250.5595777385207
 11
-223.6927065033523
 21
-251.3473095238144
 72
     1
 10
-223.6927065033523
 20
-251.3473095238144
 11
-225.0954307211005
 21
-251.3473095238144
 72
     1
 10
-225.0954307211005
 20
-251.3473095238144
 11
-223.6974776741602
 21
-249.7664505300394
 72
     1
 10
-223.6974776741602
 20
-249.7664505300394
 11
-225.0000073049277
 21
-248.2935000000032
 72
     1
 10
-225.0000073049277
 20
-248.2935000000032
 11
-223.5972830871784
 21
-248.2935000000032
 72
     1
 10
-223.5972830871784
 20
-248.2935000000032
 11
-222.9961155652866
 21
-248.9733233215587
 72
     1
 10
-222.9961155652866
 20
-248.9733233215587
 11
-222.3949480433938
 21
-248.2935000000032
 72
     1
 10
-222.3949480433938
 20
-248.2935000000032
 11
-220.9922238256466
 21
-248.2935000000032
 97
       12
330
21C
330
21B
330
21A
330
277
330
278
330
274
330
275
330
220
330
21F
330
21E
330
21D
330
276
 75
     1
 76
     0
 52
45.0
 41
0.1
 77
     0
 78
     1
 53
45.0
 43
0.0
 44
0.0
 45
-0.0707106781186548
 46
0.0707106781186548
 79
     0
 98
        1
 10
0.0
 20
0.0
  0
HATCH
  5
2F6
330
71
100
AcDbEntity
  8
1
  6
Continuous
 62
     2
100
AcDbHatch
 10
0.0
 20
0.0
 30
0.0
210
0.0
220
0.0
230
1.0
  2
_USER
 70
     0
 71
     1
 91
        2
 92
        1
 93
        6
 72
     1
 10
-240.0099592397926
 20
-250.4042312826706
 11
-240.7687268275729
 21
-250.4042312826706
 72
     1
 10
-240.7687268275729
 20
-250.4042312826706
 11
-240.7687268275729
 21
-251.3473095238144
 72
     1
 10
-240.7687268275729
 20
-251.3473095238144
 11
-242.009231237827
 21
-251.3473095238144
 72
     1
 10
-242.009231237827
 20
-251.3473095238144
 11
-242.009231237827
 21
-248.2935000000032
 72
     1
 10
-242.009231237827
 20
-248.2935000000032
 11
-240.0099592397926
 21
-248.2935000000032
 72
     2
 10
-240.0099592397926
 20
-249.3488656413369
 40
1.055365641333708
 50
270.0
 51
450.0
 73
     0
 97
        6
330
244
330
243
330
250
330
24F
330
245
330
295
 92
       16
 93
        4
 72
     2
 10
-240.451431766031
 20
-249.3094696701144
 40
0.3528638246711182
 50
270.0
 51
450.0
 73
     1
 72
     1
 10
-240.451431766031
 20
-248.9566058454433
 11
-240.7687268275729
 21
-248.9566058454433
 72
     1
 10
-240.7687268275729
 20
-248.9566058454433
 11
-240.7687268275729
 21
-249.6623334947855
 72
     1
 10
-240.7687268275729
 20
-249.6623334947855
 11
-240.451431766031
 21
-249.6623334947855
 97
        4
330
2A9
330
241
330
251
330
242
 75
     1
 76
     0
 52
45.0
 41
0.1
 77
     0
 78
     1
 53
45.0
 43
0.0
 44
0.0
 45
-0.0707106781186548
 46
0.0707106781186548
 79
     0
 98
        1
 10
0.0
 20
0.0
  0
HATCH
  5
2F7
330
71
100
AcDbEntity
  8
1
  6
Continuous
 62
     2
100
AcDbHatch
 10
0.0
 20
0.0
 30
0.0
210
0.0
220
0.0
230
1.0
  2
_USER
 70
     0
 71
     1
 91
        2
 92
        1
 93
        6
 72
     1
 10
-240.0099592397926
 20
-250.4042312826706
 11
-240.7687268275729
 21
-250.4042312826706
 72
     1
 10
-240.7687268275729
 20
-250.4042312826706
 11
-240.7687268275729
 21
-251.3473095238144
 72
     1
 10
-240.7687268275729
 20
-251.3473095238144
 11
-242.009231237827
 21
-251.3473095238144
 72
     1
 10
-242.009231237827
 20
-251.3473095238144
 11
-242.009231237827
 21
-248.2935000000032
 72
     1
 10
-242.009231237827
 20
-248.2935000000032
 11
-240.0099592397926
 21
-248.2935000000032
 72
     2
 10
-240.0099592397926
 20
-249.3488656413369
 40
1.055365641333708
 50
270.0
 51
450.0
 73
     0
 97
        6
330
244
330
243
330
250
330
24F
330
245
330
295
 92
       16
 93
        4
 72
     2
 10
-240.451431766031
 20
-249.3094696701144
 40
0.3528638246711182
 50
270.0
 51
450.0
 73
     1
 72
     1
 10
-240.451431766031
 20
-248.9566058454433
 11
-240.7687268275729
 21
-248.9566058454433
 72
     1
 10
-240.7687268275729
 20
-248.9566058454433
 11
-240.7687268275729
 21
-249.6623334947855
 72
     1
 10
-240.7687268275729
 20
-249.6623334947855
 11
-240.451431766031
 21
-249.6623334947855
 97
        4
330
2A9
330
241
330
251
330
242
 75
     1
 76
     0
 52
45.0
 41
0.1
 77
     0
 78
     1
 53
45.0
 43
0.0
 44
0.0
 45
-0.0707106781186548
 46
0.0707106781186548
 79
     0
 98
        1
 10
0.0
 20
0.0
  0
HATCH
  5
2F8
330
71
100
AcDbEntity
  8
1
  6
Continuous
 62
     2
100
AcDbHatch
 10
0.0
 20
0.0
 30
0.0
210
0.0
220
0.0
230
1.0
  2
_USER
 70
     0
 71
     1
 91
        2
 92
        1
 93
        4
 72
     2
 10
-237.4534164914335
 20
-253.7181702483862
 40
2.065479772208568
 50
62.45185182430637
 51
117.5481481756664
 73
     1
 72
     2
 10
-237.7343563832668
 20
-253.1795952380834
 40
1.45803408365149
 50
117.5481481756624
 51
242.4518518243375
 73
     1
 72
     2
 10
-237.4534164914335
 20
-252.6410202277801
 40
2.065479772208509
 50
242.4518518243402
 51
297.5481481756871
 73
     1
 72
     2
 10
-237.1724765996002
 20
-253.1795952380834
 40
1.458034083652003
 50
297.548148175701
 51
422.451851824299
 73
     1
 97
        4
330
2A1
330
2A0
330
2A2
330
29F
 92
       16
 93
        4
 72
     2
 10
-237.6531565277799
 20
-253.1795952380834
 40
0.7717997786796947
 50
321.8795802028417
 51
398.1204197971533
 73
     1
 72
     2
 10
-237.4534164914335
 20
-253.0228640599629
 40
0.5179085730132998
 50
38.12041979714704
 51
141.8795802028588
 73
     1
 72
     2
 10
-237.2536764550874
 20
-253.1795952380834
 40
0.7717997786794633
 50
141.8795802028363
 51
218.1204197971687
 73
     1
 72
     2
 10
-237.4534164914335
 20
-253.3363264162034
 40
0.5179085730137354
 50
218.1204197971931
 51
321.879580202801
 73
     1
 97
        4
330
2BD
330
2BA
330
2BB
330
2BC
 75
     1
 76
     0
 52
45.0
 41
0.1
 77
     0
 78
     1
 53
45.0
 43
0.0
 44
0.0
 45
-0.0707106781186548
 46
0.0707106781186548
 79
     0
 98
        1
 10
0.0
 20
0.0
  0
HATCH
  5
2F9
330
71
100
AcDbEntity
  8
1
  6
Continuous
 62
     2
100
AcDbHatch
 10
0.0
 20
0.0
 30
0.0
210
0.0
220
0.0
230
1.0
  2
_USER
 70
     0
 71
     1
 91
        2
 92
        1
 93
        4
 72
     2
 10
-237.4534164914335
 20
-253.7181702483862
 40
2.065479772208568
 50
62.45185182430637
 51
117.5481481756664
 73
     1
 72
     2
 10
-237.7343563832668
 20
-253.1795952380834
 40
1.45803408365149
 50
117.5481481756624
 51
242.4518518243375
 73
     1
 72
     2
 10
-237.4534164914335
 20
-252.6410202277801
 40
2.065479772208509
 50
242.4518518243402
 51
297.5481481756871
 73
     1
 72
     2
 10
-237.1724765996002
 20
-253.1795952380834
 40
1.458034083652003
 50
297.548148175701
 51
422.451851824299
 73
     1
 97
        4
330
2A1
330
2A0
330
2A2
330
29F
 92
       16
 93
        4
 72
     2
 10
-237.6531565277799
 20
-253.1795952380834
 40
0.7717997786796947
 50
321.8795802028417
 51
398.1204197971533
 73
     1
 72
     2
 10
-237.4534164914335
 20
-253.0228640599629
 40
0.5179085730132998
 50
38.12041979714704
 51
141.8795802028588
 73
     1
 72
     2
 10
-237.2536764550874
 20
-253.1795952380834
 40
0.7717997786794633
 50
141.8795802028363
 51
218.1204197971687
 73
     1
 72
     2
 10
-237.4534164914335
 20
-253.3363264162034
 40
0.5179085730137354
 50
218.1204197971931
 51
321.879580202801
 73
     1
 97
        4
330
2BD
330
2BA
330
2BB
330
2BC
 75
     1
 76
     0
 52
45.0
 41
0.1
 77
     0
 78
     1
 53
45.0
 43
0.0
 44
0.0
 45
-0.0707106781186548
 46
0.0707106781186548
 79
     0
 98
        1
 10
0.0
 20
0.0
  0
HATCH
  5
2FA
330
71
100
AcDbEntity
  8
1
  6
Continuous
 62
     2
100
AcDbHatch
 10
0.0
 20
0.0
 30
0.0
210
0.0
220
0.0
230
1.0
  2
_USER
 70
     0
 71
     1
 91
        2
 92
        1
 93
       12
 72
     1
 10
-230.5584212970242
 20
-248.9915136054462
 11
-231.8943491234519
 21
-248.9915136054462
 72
     1
 10
-231.8943491234519
 20
-248.9915136054462
 11
-231.8943491234519
 21
-249.4713979591879
 72
     1
 10
-231.8943491234519
 20
-249.4713979591879
 11
-230.5584212970242
 21
-249.4713979591879
 72
     1
 10
-230.5584212970242
 20
-249.4713979591879
 11
-230.5584212970242
 21
-250.1694115646302
 72
     1
 10
-230.5584212970242
 20
-250.1694115646302
 11
-231.8943491234519
 21
-250.1694115646302
 72
     1
 10
-231.8943491234519
 20
-250.1694115646302
 11
-231.8943491234519
 21
-250.6492959183719
 72
     1
 10
-231.8943491234519
 20
-250.6492959183719
 11
-230.5584212970242
 21
-250.6492959183719
 72
     1
 10
-230.5584212970242
 20
-250.6492959183719
 11
-230.5584212970242
 21
-251.3473095238144
 72
     1
 10
-230.5584212970242
 20
-251.3473095238144
 11
-233.7087410208052
 21
-251.3473095238144
 72
     2
 10
-233.7087410208052
 20
-249.8204047619091
 40
1.526904761905882
 50
90.0
 51
270.0
 73
     0
 72
     1
 10
-233.7087410208052
 20
-248.2935000000032
 11
-230.5584212970242
 21
-248.2935000000032
 72
     1
 10
-230.5584212970242
 20
-248.2935000000032
 11
-230.5584212970242
 21
-248.9915136054462
 97
       12
330
258
330
2AA
330
259
330
25A
330
25B
330
25C
330
239
330
238
330
237
330
236
330
25D
330
257
 92
       16
 93
        4
 72
     2
 10
-233.49246901064
 20
-249.6636735837886
 40
0.5179085730135266
 50
38.12041979714334
 51
141.8795802028489
 73
     1
 72
     2
 10
-233.2927289742937
 20
-249.8204047619091
 40
0.7717997786796724
 50
141.8795802028404
 51
218.1204197971562
 73
     1
 72
     2
 10
-233.49246901064
 20
-249.9771359400295
 40
0.5179085730134372
 50
218.1204197971511
 51
321.8795802028566
 73
     1
 72
     2
 10
-233.6922090469862
 20
-249.8204047619091
 40
0.7717997786796373
 50
321.8795802028437
 51
398.1204197971596
 73
     1
 97
        4
330
2A4
330
2A3
330
29E
330
29D
 75
     1
 76
     0
 52
45.0
 41
0.1
 77
     0
 78
     1
 53
45.0
 43
0.0
 44
0.0
 45
-0.0707106781186548
 46
0.0707106781186548
 79
     0
 98
        1
 10
0.0
 20
0.0
  0
HATCH
  5
2FB
330
71
100
AcDbEntity
  8
1
  6
Continuous
 62
     2
100
AcDbHatch
 10
0.0
 20
0.0
 30
0.0
210
0.0
220
0.0
230
1.0
  2
_USER
 70
     0
 71
     1
 91
        2
 92
        1
 93
       12
 72
     1
 10
-230.5584212970242
 20
-248.9915136054462
 11
-231.8943491234519
 21
-248.9915136054462
 72
     1
 10
-231.8943491234519
 20
-248.9915136054462
 11
-231.8943491234519
 21
-249.4713979591879
 72
     1
 10
-231.8943491234519
 20
-249.4713979591879
 11
-230.5584212970242
 21
-249.4713979591879
 72
     1
 10
-230.5584212970242
 20
-249.4713979591879
 11
-230.5584212970242
 21
-250.1694115646302
 72
     1
 10
-230.5584212970242
 20
-250.1694115646302
 11
-231.8943491234519
 21
-250.1694115646302
 72
     1
 10
-231.8943491234519
 20
-250.1694115646302
 11
-231.8943491234519
 21
-250.6492959183719
 72
     1
 10
-231.8943491234519
 20
-250.6492959183719
 11
-230.5584212970242
 21
-250.6492959183719
 72
     1
 10
-230.5584212970242
 20
-250.6492959183719
 11
-230.5584212970242
 21
-251.3473095238144
 72
     1
 10
-230.5584212970242
 20
-251.3473095238144
 11
-233.7087410208052
 21
-251.3473095238144
 72
     2
 10
-233.7087410208052
 20
-249.8204047619091
 40
1.526904761905882
 50
90.0
 51
270.0
 73
     0
 72
     1
 10
-233.7087410208052
 20
-248.2935000000032
 11
-230.5584212970242
 21
-248.2935000000032
 72
     1
 10
-230.5584212970242
 20
-248.2935000000032
 11
-230.5584212970242
 21
-248.9915136054462
 97
       12
330
258
330
2AA
330
259
330
25A
330
25B
330
25C
330
239
330
238
330
237
330
236
330
25D
330
257
 92
       16
 93
        4
 72
     2
 10
-233.49246901064
 20
-249.6636735837886
 40
0.5179085730135266
 50
38.12041979714334
 51
141.8795802028489
 73
     1
 72
     2
 10
-233.2927289742937
 20
-249.8204047619091
 40
0.7717997786796724
 50
141.8795802028404
 51
218.1204197971562
 73
     1
 72
     2
 10
-233.49246901064
 20
-249.9771359400295
 40
0.5179085730134372
 50
218.1204197971511
 51
321.8795802028566
 73
     1
 72
     2
 10
-233.6922090469862
 20
-249.8204047619091
 40
0.7717997786796373
 50
321.8795802028437
 51
398.1204197971596
 73
     1
 97
        4
330
2A4
330
2A3
330
29E
330
29D
 75
     1
 76
     0
 52
45.0
 41
0.1
 77
     0
 78
     1
 53
45.0
 43
0.0
 44
0.0
 45
-0.0707106781186548
 46
0.0707106781186548
 79
     0
 98
        1
 10
0.0
 20
0.0
  0
HATCH
  5
2FC
330
71
100
AcDbEntity
  8
1
  6
Continuous
 62
     2
100
AcDbHatch
 10
0.0
 20
0.0
 30
0.0
210
0.0
220
0.0
230
1.0
  2
_USER
 70
     0
 71
     1
 91
        4
 92
        1
 93
        8
 72
     1
 10
-242.4863483186938
 20
-248.7177446154052
 11
-242.4863483186938
 21
-254.2822553846054
 72
     2
 10
-242.9105929340777
 20
-254.2822553846054
 40
0.4242446153832873
 50
0.0
 51
90.0
 73
     0
 72
     1
 10
-242.9105929340777
 20
-254.7064999999887
 11
-248.3839050247945
 21
-254.7064999999887
 72
     2
 10
-248.3839050247945
 20
-254.2822553846054
 40
0.4242446153828041
 50
90.0
 51
180.0
 73
     0
 72
     1
 10
-248.8081496401773
 20
-254.2822553846054
 11
-248.8081496401773
 21
-248.7177446154052
 72
     2
 10
-248.3839050247945
 20
-248.7177446154052
 40
0.4242446153837989
 50
180.0
 51
270.0
 73
     0
 72
     1
 10
-248.3839050247945
 20
-248.2935000000214
 11
-242.9105929340777
 21
-248.2935000000214
 72
     2
 10
-242.9105929340777
 20
-248.7177446154052
 40
0.4242446153838841
 50
270.0
 51
360.0
 73
     0
 97
        8
330
24C
330
29A
330
24D
330
2A5
330
24A
330
29C
330
24B
330
29B
 92
       16
 93
        1
 72
     2
 10
-245.764319374277
 20
-251.0366268437607
 40
0.4709789327785074
 50
0.0
 51
360.0
 73
     1
 97
        1
330
2C0
 92
       16
 93
        8
 72
     2
 10
-245.2144616615163
 20
-252.1457684437291
 40
0.3157169230765328
 50
115.3740086783519
 51
180.0
 73
     1
 72
     1
 10
-245.5301785845931
 20
-252.1457684437291
 11
-245.5301785845931
 21
-252.7276198504242
 72
     2
 10
-245.2144616615163
 20
-252.7276198504242
 40
0.315716923076792
 50
180.0
 51
269.8110329574542
 73
     1
 72
     2
 10
-245.2088455262063
 20
-251.0247849028552
 40
2.018561131933266
 50
269.8110329575858
 51
450.1889670424142
 73
     1
 72
     2
 10
-245.2144616615163
 20
-249.3219499552861
 40
0.3157169230760711
 50
90.18896704254594
 51
180.0
 73
     1
 72
     1
 10
-245.5301785845931
 20
-249.3219499552861
 11
-245.5301785845931
 21
-249.9274852437929
 72
     2
 10
-245.2144616615163
 20
-249.9274852437929
 40
0.315716923076792
 50
180.0
 51
244.6259913216482
 73
     1
 72
     2
 10
-245.7405043596042
 20
-251.0366268437607
 40
0.911848150144459
 50
295.3740086781925
 51
424.6259913218236
 73
     0
 97
        8
330
2B2
330
213
330
2AF
330
2B0
330
28E
330
212
330
2B1
330
28D
 92
       16
 93
       12
 72
     2
 10
-247.790010348048
 20
-253.6782275213551
 40
0.3157169230756836
 50
180.0
 51
270.0
 73
     1
 72
     1
 10
-247.790010348048
 20
-253.9939444444318
 11
-246.3141770870384
 21
-253.9939444444318
 72
     2
 10
-246.3141770870384
 20
-253.6782275213551
 40
0.3157169230767067
 50
270.0
 51
360.0
 73
     1
 72
     1
 10
-245.9984601639618
 20
-253.6782275213551
 11
-245.9984601639618
 21
-252.1474565898235
 72
     2
 10
-246.3141770870384
 20
-252.1474565898235
 40
0.315716923076593
 50
0.0
 51
64.80558935146027
 73
     1
 72
     2
 10
-245.7915926394634
 20
-251.0366268437607
 40
0.9118975235576147
 50
115.1944106485122
 51
244.8055893514718
 73
     0
 72
     2
 10
-246.3141770870384
 20
-249.9257970976985
 40
0.3157169230761203
 50
295.1944106485397
 51
360.0
 73
     1
 72
     1
 10
-245.9984601639618
 20
-249.9257970976985
 11
-245.9984601639618
 21
-249.321772478638
 72
     2
 10
-246.3141770870384
 20
-249.321772478638
 40
0.315716923076593
 50
0.0
 51
90.0
 73
     1
 72
     1
 10
-246.3141770870384
 20
-249.0060555555618
 11
-247.790010348048
 21
-249.0060555555618
 72
     2
 10
-247.790010348048
 20
-249.321772478638
 40
0.3157169230761951
 50
90.0
 51
180.0
 73
     1
 72
     1
 10
-248.1057272711237
 20
-249.321772478638
 11
-248.1057272711237
 21
-253.6782275213551
 97
       12
330
296
330
24E
330
299
330
249
330
2A6
330
2A7
330
298
330
248
330
297
330
247
330
2A8
330
246
 75
     1
 76
     0
 52
45.0
 41
0.1
 77
     0
 78
     1
 53
45.0
 43
0.0
 44
0.0
 45
-0.0707106781186548
 46
0.0707106781186548
 79
     0
 98
        1
 10
0.0
 20
0.0
  0
HATCH
  5
2FD
330
71
100
AcDbEntity
  8
1
  6
Continuous
 62
     2
100
AcDbHatch
 10
0.0
 20
0.0
 30
0.0
210
0.0
220
0.0
230
1.0
  2
_USER
 70
     0
 71
     1
 91
        4
 92
        1
 93
        8
 72
     1
 10
-242.4863483186938
 20
-248.7177446154052
 11
-242.4863483186938
 21
-254.2822553846054
 72
     2
 10
-242.9105929340777
 20
-254.2822553846054
 40
0.4242446153832873
 50
0.0
 51
90.0
 73
     0
 72
     1
 10
-242.9105929340777
 20
-254.7064999999887
 11
-248.3839050247945
 21
-254.7064999999887
 72
     2
 10
-248.3839050247945
 20
-254.2822553846054
 40
0.4242446153828041
 50
90.0
 51
180.0
 73
     0
 72
     1
 10
-248.8081496401773
 20
-254.2822553846054
 11
-248.8081496401773
 21
-248.7177446154052
 72
     2
 10
-248.3839050247945
 20
-248.7177446154052
 40
0.4242446153837989
 50
180.0
 51
270.0
 73
     0
 72
     1
 10
-248.3839050247945
 20
-248.2935000000214
 11
-242.9105929340777
 21
-248.2935000000214
 72
     2
 10
-242.9105929340777
 20
-248.7177446154052
 40
0.4242446153838841
 50
270.0
 51
360.0
 73
     0
 97
        8
330
24C
330
29A
330
24D
330
2A5
330
24A
330
29C
330
24B
330
29B
 92
       16
 93
        1
 72
     2
 10
-245.764319374277
 20
-251.0366268437607
 40
0.4709789327785074
 50
0.0
 51
360.0
 73
     1
 97
        1
330
2C0
 92
       16
 93
        8
 72
     2
 10
-245.2144616615163
 20
-252.1457684437291
 40
0.3157169230765328
 50
115.3740086783519
 51
180.0
 73
     1
 72
     1
 10
-245.5301785845931
 20
-252.1457684437291
 11
-245.5301785845931
 21
-252.7276198504242
 72
     2
 10
-245.2144616615163
 20
-252.7276198504242
 40
0.315716923076792
 50
180.0
 51
269.8110329574542
 73
     1
 72
     2
 10
-245.2088455262063
 20
-251.0247849028552
 40
2.018561131933266
 50
269.8110329575858
 51
450.1889670424142
 73
     1
 72
     2
 10
-245.2144616615163
 20
-249.3219499552861
 40
0.3157169230760711
 50
90.18896704254594
 51
180.0
 73
     1
 72
     1
 10
-245.5301785845931
 20
-249.3219499552861
 11
-245.5301785845931
 21
-249.9274852437929
 72
     2
 10
-245.2144616615163
 20
-249.9274852437929
 40
0.315716923076792
 50
180.0
 51
244.6259913216482
 73
     1
 72
     2
 10
-245.7405043596042
 20
-251.0366268437607
 40
0.911848150144459
 50
295.3740086781925
 51
424.6259913218236
 73
     0
 97
        8
330
2B2
330
213
330
2AF
330
2B0
330
28E
330
212
330
2B1
330
28D
 92
       16
 93
       12
 72
     2
 10
-247.790010348048
 20
-253.6782275213551
 40
0.3157169230756836
 50
180.0
 51
270.0
 73
     1
 72
     1
 10
-247.790010348048
 20
-253.9939444444318
 11
-246.3141770870384
 21
-253.9939444444318
 72
     2
 10
-246.3141770870384
 20
-253.6782275213551
 40
0.3157169230767067
 50
270.0
 51
360.0
 73
     1
 72
     1
 10
-245.9984601639618
 20
-253.6782275213551
 11
-245.9984601639618
 21
-252.1474565898235
 72
     2
 10
-246.3141770870384
 20
-252.1474565898235
 40
0.315716923076593
 50
0.0
 51
64.80558935146027
 73
     1
 72
     2
 10
-245.7915926394634
 20
-251.0366268437607
 40
0.9118975235576147
 50
115.1944106485122
 51
244.8055893514718
 73
     0
 72
     2
 10
-246.3141770870384
 20
-249.9257970976985
 40
0.3157169230761203
 50
295.1944106485397
 51
360.0
 73
     1
 72
     1
 10
-245.9984601639618
 20
-249.9257970976985
 11
-245.9984601639618
 21
-249.321772478638
 72
     2
 10
-246.3141770870384
 20
-249.321772478638
 40
0.315716923076593
 50
0.0
 51
90.0
 73
     1
 72
     1
 10
-246.3141770870384
 20
-249.0060555555618
 11
-247.790010348048
 21
-249.0060555555618
 72
     2
 10
-247.790010348048
 20
-249.321772478638
 40
0.3157169230761951
 50
90.0
 51
180.0
 73
     1
 72
     1
 10
-248.1057272711237
 20
-249.321772478638
 11
-248.1057272711237
 21
-253.6782275213551
 97
       12
330
296
330
24E
330
299
330
249
330
2A6
330
2A7
330
298
330
248
330
297
330
247
330
2A8
330
246
 75
     1
 76
     0
 52
45.0
 41
0.1
 77
     0
 78
     1
 53
45.0
 43
0.0
 44
0.0
 45
-0.0707106781186548
 46
0.0707106781186548
 79
     0
 98
        1
 10
0.0
 20
0.0
  0
HATCH
  5
2FE
330
71
100
AcDbEntity
  8
1
  6
Continuous
 62
     2
100
AcDbHatch
 10
0.0
 20
0.0
 30
0.0
210
0.0
220
0.0
230
1.0
  2
_USER
 70
     0
 71
     1
 91
        1
 92
        1
 93
       18
 72
     1
 10
-220.8968004094728
 20
-252.4379557823012
 11
-221.7078994469462
 21
-252.4379557823012
 72
     1
 10
-221.7078994469462
 20
-252.4379557823012
 11
-221.7078994469462
 21
-254.7064999999887
 72
     1
 10
-221.7078994469462
 20
-254.7064999999887
 11
-222.9006921491139
 21
-254.7064999999887
 72
     1
 10
-222.9006921491139
 20
-254.7064999999887
 11
-222.9006921491139
 21
-252.4379557823012
 72
     1
 10
-222.9006921491139
 20
-252.4379557823012
 11
-224.004331448682
 21
-252.4379557823012
 72
     2
 10
-224.004331448682
 20
-253.3924787891273
 40
0.9545230068260935
 50
90.0
 51
109.337143219432
 73
     1
 72
     2
 10
-224.1510014467857
 20
-252.9745238087444
 40
0.5115800601944143
 50
109.3371432194853
 51
151.4785267424225
 73
     1
 72
     2
 10
-223.7736441887043
 20
-253.1795952380834
 40
0.9410597353348924
 50
151.4785267423624
 51
208.5214732576695
 73
     1
 72
     2
 10
-224.1510014467857
 20
-253.3846666674219
 40
0.5115800601960215
 50
208.5214732576866
 51
246.6277221118449
 73
     1
 72
     2
 10
-223.9945614140826
 20
-253.0226746487119
 40
0.9059297849852801
 50
246.6277221118183
 51
288.4480761180817
 73
     1
 72
     2
 10
-224.4127291477445
 20
-251.7691288726753
 40
2.227384008972746
 50
288.4480761181335
 51
301.9309089499397
 73
     1
 72
     1
 10
-223.2346741057206
 20
-253.6594795918251
 11
-223.2346741057206
 21
-254.5319965986284
 72
     2
 10
-224.5706020228373
 20
-249.866914292827
 40
4.852596863498825
 50
74.02000874166129
 51
84.84185523036365
 73
     0
 72
     2
 10
-224.2817459281015
 20
-253.0668048760486
 40
1.639695123940448
 50
84.8418552303238
 51
164.9381082228988
 73
     0
 72
     2
 10
-224.7008737715631
 20
-253.1795952380834
 40
1.205656168393002
 50
164.9381082229041
 51
195.0618917770972
 73
     0
 72
     2
 10
-224.2817459281015
 20
-253.2923856001183
 40
1.639695123940214
 50
195.061891777105
 51
270.0
 73
     0
 72
     1
 10
-224.2817459281015
 20
-251.6526904761781
 11
-220.8968004094728
 21
-251.6526904761776
 72
     1
 10
-220.8968004094728
 20
-251.6526904761776
 11
-220.8968004094728
 21
-252.4379557823012
 97
       18
330
215
330
2AB
330
2AC
330
294
330
293
330
279
330
292
330
291
330
2AD
330
290
330
2AE
330
28F
330
27A
330
214
330
219
330
218
330
217
330
216
 75
     1
 76
     0
 52
45.0
 41
0.1
 77
     0
 78
     1
 53
45.0
 43
0.0
 44
0.0
 45
-0.0707106781186548
 46
0.0707106781186548
 79
     0
 98
        1
 10
0.0
 20
0.0
  0
HATCH
  5
2FF
330
71
100
AcDbEntity
  8
1
  6
Continuous
 62
     2
100
AcDbHatch
 10
0.0
 20
0.0
 30
0.0
210
0.0
220
0.0
230
1.0
  2
_USER
 70
     0
 71
     1
 91
        1
 92
        1
 93
       18
 72
     1
 10
-220.8968004094728
 20
-252.4379557823012
 11
-221.7078994469462
 21
-252.4379557823012
 72
     1
 10
-221.7078994469462
 20
-252.4379557823012
 11
-221.7078994469462
 21
-254.7064999999887
 72
     1
 10
-221.7078994469462
 20
-254.7064999999887
 11
-222.9006921491139
 21
-254.7064999999887
 72
     1
 10
-222.9006921491139
 20
-254.7064999999887
 11
-222.9006921491139
 21
-252.4379557823012
 72
     1
 10
-222.9006921491139
 20
-252.4379557823012
 11
-224.004331448682
 21
-252.4379557823012
 72
     2
 10
-224.004331448682
 20
-253.3924787891273
 40
0.9545230068260935
 50
90.0
 51
109.337143219432
 73
     1
 72
     2
 10
-224.1510014467857
 20
-252.9745238087444
 40
0.5115800601944143
 50
109.3371432194853
 51
151.4785267424225
 73
     1
 72
     2
 10
-223.7736441887043
 20
-253.1795952380834
 40
0.9410597353348924
 50
151.4785267423624
 51
208.5214732576695
 73
     1
 72
     2
 10
-224.1510014467857
 20
-253.3846666674219
 40
0.5115800601960215
 50
208.5214732576866
 51
246.6277221118449
 73
     1
 72
     2
 10
-223.9945614140826
 20
-253.0226746487119
 40
0.9059297849852801
 50
246.6277221118183
 51
288.4480761180817
 73
     1
 72
     2
 10
-224.4127291477445
 20
-251.7691288726753
 40
2.227384008972746
 50
288.4480761181335
 51
301.9309089499397
 73
     1
 72
     1
 10
-223.2346741057206
 20
-253.6594795918251
 11
-223.2346741057206
 21
-254.5319965986284
 72
     2
 10
-224.5706020228373
 20
-249.866914292827
 40
4.852596863498825
 50
74.02000874166129
 51
84.84185523036365
 73
     0
 72
     2
 10
-224.2817459281015
 20
-253.0668048760486
 40
1.639695123940448
 50
84.8418552303238
 51
164.9381082228988
 73
     0
 72
     2
 10
-224.7008737715631
 20
-253.1795952380834
 40
1.205656168393002
 50
164.9381082229041
 51
195.0618917770972
 73
     0
 72
     2
 10
-224.2817459281015
 20
-253.2923856001183
 40
1.639695123940214
 50
195.061891777105
 51
270.0
 73
     0
 72
     1
 10
-224.2817459281015
 20
-251.6526904761781
 11
-220.8968004094728
 21
-251.6526904761776
 72
     1
 10
-220.8968004094728
 20
-251.6526904761776
 11
-220.8968004094728
 21
-252.4379557823012
 97
       18
330
215
330
2AB
330
2AC
330
294
330
293
330
279
330
292
330
291
330
2AD
330
290
330
2AE
330
28F
330
27A
330
214
330
219
330
218
330
217
330
216
 75
     1
 76
     0
 52
45.0
 41
0.1
 77
     0
 78
     1
 53
45.0
 43
0.0
 44
0.0
 45
-0.0707106781186548
 46
0.0707106781186548
 79
     0
 98
        1
 10
0.0
 20
0.0
  0
HATCH
  5
300
330
71
100
AcDbEntity
  8
1
  6
Continuous
 62
     2
100
AcDbHatch
 10
0.0
 20
0.0
 30
0.0
210
0.0
220
0.0
230
1.0
  2
_USER
 70
     0
 71
     1
 91
        1
 92
        1
 93
       14
 72
     2
 10
-240.3844474073544
 20
-253.2923856001183
 40
1.639695123940507
 50
84.84185523036236
 51
164.9381082228864
 73
     1
 72
     2
 10
-240.8035752508172
 20
-253.1795952380834
 40
1.205656168390944
 50
164.9381082228765
 51
195.0618917770948
 73
     1
 72
     2
 10
-240.3844474073544
 20
-253.0668048760486
 40
1.639695123939387
 50
195.0618917770896
 51
275.1581447696395
 73
     1
 72
     2
 10
-240.6733035020903
 20
-249.866914292827
 40
4.852596863498138
 50
275.1581447696249
 51
285.9799912583529
 73
     1
 72
     1
 10
-239.3373755849725
 20
-254.5319965986278
 11
-239.3373755849725
 21
-253.6594795918246
 72
     2
 10
-240.5154306269974
 20
-251.7691288726747
 40
2.227384008972737
 50
58.0690910500407
 51
71.55192388186722
 73
     0
 72
     2
 10
-240.0972628933366
 20
-253.0226746487119
 40
0.9059297849849192
 50
71.55192388184153
 51
113.372277888129
 73
     0
 72
     2
 10
-240.2537029260386
 20
-253.3846666674219
 40
0.5115800601948034
 50
113.3722778881726
 51
151.4785267423044
 73
     0
 72
     2
 10
-239.8763456679583
 20
-253.1795952380834
 40
0.9410597353332545
 50
151.4785267422943
 51
208.5214732577331
 73
     0
 72
     2
 10
-240.2537029260386
 20
-252.9745238087444
 40
0.5115800601948779
 50
208.5214732576956
 51
246.6277221118009
 73
     0
 72
     2
 10
-240.0972628933366
 20
-253.336515827455
 40
0.9059297849853228
 50
246.627722111871
 51
288.4480761181465
 73
     0
 72
     2
 10
-240.5154306269974
 20
-254.5900616034916
 40
2.227384008973478
 50
288.4480761181328
 51
301.9309089499592
 73
     0
 72
     1
 10
-239.3373755849725
 20
-252.6997108843417
 11
-239.3373755849725
 21
-251.8271938775384
 72
     2
 10
-240.6733035020903
 20
-256.4922761833393
 40
4.852596863498068
 50
74.02000874164739
 51
84.84185523037506
 73
     1
 97
       14
330
2B3
330
2B4
330
2B5
330
2B6
330
27B
330
28C
330
28B
330
28A
330
2B7
330
2B8
330
289
330
2B9
330
27C
330
288
 75
     1
 76
     0
 52
45.0
 41
0.1
 77
     0
 78
     1
 53
45.0
 43
0.0
 44
0.0
 45
-0.0707106781186548
 46
0.0707106781186548
 79
     0
 98
        1
 10
0.0
 20
0.0
  0
HATCH
  5
301
330
71
100
AcDbEntity
  8
1
  6
Continuous
 62
     2
100
AcDbHatch
 10
0.0
 20
0.0
 30
0.0
210
0.0
220
0.0
230
1.0
  2
_USER
 70
     0
 71
     1
 91
        1
 92
        1
 93
       14
 72
     2
 10
-240.3844474073544
 20
-253.2923856001183
 40
1.639695123940507
 50
84.84185523036236
 51
164.9381082228864
 73
     1
 72
     2
 10
-240.8035752508172
 20
-253.1795952380834
 40
1.205656168390944
 50
164.9381082228765
 51
195.0618917770948
 73
     1
 72
     2
 10
-240.3844474073544
 20
-253.0668048760486
 40
1.639695123939387
 50
195.0618917770896
 51
275.1581447696395
 73
     1
 72
     2
 10
-240.6733035020903
 20
-249.866914292827
 40
4.852596863498138
 50
275.1581447696249
 51
285.9799912583529
 73
     1
 72
     1
 10
-239.3373755849725
 20
-254.5319965986278
 11
-239.3373755849725
 21
-253.6594795918246
 72
     2
 10
-240.5154306269974
 20
-251.7691288726747
 40
2.227384008972737
 50
58.0690910500407
 51
71.55192388186722
 73
     0
 72
     2
 10
-240.0972628933366
 20
-253.0226746487119
 40
0.9059297849849192
 50
71.55192388184153
 51
113.372277888129
 73
     0
 72
     2
 10
-240.2537029260386
 20
-253.3846666674219
 40
0.5115800601948034
 50
113.3722778881726
 51
151.4785267423044
 73
     0
 72
     2
 10
-239.8763456679583
 20
-253.1795952380834
 40
0.9410597353332545
 50
151.4785267422943
 51
208.5214732577331
 73
     0
 72
     2
 10
-240.2537029260386
 20
-252.9745238087444
 40
0.5115800601948779
 50
208.5214732576956
 51
246.6277221118009
 73
     0
 72
     2
 10
-240.0972628933366
 20
-253.336515827455
 40
0.9059297849853228
 50
246.627722111871
 51
288.4480761181465
 73
     0
 72
     2
 10
-240.5154306269974
 20
-254.5900616034916
 40
2.227384008973478
 50
288.4480761181328
 51
301.9309089499592
 73
     0
 72
     1
 10
-239.3373755849725
 20
-252.6997108843417
 11
-239.3373755849725
 21
-251.8271938775384
 72
     2
 10
-240.6733035020903
 20
-256.4922761833393
 40
4.852596863498068
 50
74.02000874164739
 51
84.84185523037506
 73
     1
 97
       14
330
2B3
330
2B4
330
2B5
330
2B6
330
27B
330
28C
330
28B
330
28A
330
2B7
330
2B8
330
289
330
2B9
330
27C
330
288
 75
     1
 76
     0
 52
45.0
 41
0.1
 77
     0
 78
     1
 53
45.0
 43
0.0
 44
0.0
 45
-0.0707106781186548
 46
0.0707106781186548
 79
     0
 98
        1
 10
0.0
 20
0.0
  0
ENDBLK
  5
73
330
71
100
AcDbEntity
  8
0
100
AcDbBlockEnd
  0
BLOCK
  5
75
330
74
100
AcDbEntity
  8
0
100
AcDbBlockBegin
  2
_punkt
 70
     0
 10
-123.4999999999899
 20
-262.000000000005
 30
0.0
  3
_punkt
  1

  0
LINE
  5
302
330
74
100
AcDbEntity
  8
1
  6
Continuous
 62
     2
100
AcDbLine
 10
-123.4999999999899
 20
-262.000000000005
 30
0.0
 11
-118.4999999999909
 21
-262.000000000005
 31
0.0
  0
LINE
  5
303
330
74
100
AcDbEntity
  8
1
  6
Continuous
 62
     2
100
AcDbLine
 10
-123.4999999999899
 20
-262.000000000005
 30
0.0
 11
-123.4999999999899
 21
-267.0000000000051
 31
0.0
  0
ENDBLK
  5
76
330
74
100
AcDbEntity
  8
0
100
AcDbBlockEnd
  0
BLOCK
  5
7A
330
77
100
AcDbEntity
  8
0
100
AcDbBlockBegin
  2
A4I_CS
 70
     0
 10
-123.4999999999899
 20
-267.0000000000051
 30
0.0
  3
A4I_CS
  1

  0
INSERT
  5
78
330
77
100
AcDbEntity
  8
1
100
AcDbBlockReference
  2
_rahmen
 10
-123.4999999999899
 20
-267.0000000000051
 30
0.0
  0
INSERT
  5
79
330
77
100
AcDbEntity
  8
1
100
AcDbBlockReference
  2
_punkt
 10
-123.4999999999899
 20
-262.000000000005
 30
0.0
  0
ENDBLK
  5
7B
330
77
100
AcDbEntity
  8
0
100
AcDbBlockEnd
  0
BLOCK
  5
84
330
7C
100
AcDbEntity
  8
0
100
AcDbBlockBegin
  2
1
 70
     0
 10
0.0
 20
0.0
 30
0.0
  3
1
  1

  0
INSERT
  5
7D
330
7C
100
AcDbEntity
  8
0
100
AcDbBlockReference
  2
Allg1
 10
-166.99999999997
 20
-199.0
 30
0.0
  0
INSERT
  5
7E
330
7C
100
AcDbEntity
  8
0
100
AcDbBlockReference
  2
Drfsicht1
 10
-288.5000000000001
 20
-184.9999999999499
 30
0.0
  0
INSERT
  5
7F
330
7C
100
AcDbEntity
  8
0
100
AcDbBlockReference
  2
Rckans1
 10
-200.5
 20
-127.0000000000199
 30
0.0
  0
INSERT
  5
80
330
7C
100
AcDbEntity
  8
0
100
AcDbBlockReference
  2
SA_Links1
 10
-240.00000000005
 20
-127.0000000000199
 30
0.0
  0
INSERT
  5
81
330
7C
100
AcDbEntity
  8
0
100
AcDbBlockReference
  2
SA_Rechts1
 10
-327.99999999995
 20
-127.00000000002
 30
0.0
  0
INSERT
  5
82
330
7C
100
AcDbEntity
  8
0
100
AcDbBlockReference
  2
Vordans1
 10
-288.5000000000001
 20
-127.00000000002
 30
0.0
  0
INSERT
  5
83
330
7C
100
AcDbEntity
  8
0
100
AcDbBlockReference
  2
A4I_CS
 10
-123.4999999999899
 20
-267.0000000000051
 30
0.0
  0
ENDBLK
  5
85
330
7C
100
AcDbEntity
  8
0
100
AcDbBlockEnd
  0
BLOCK
  5
157
330
150
100
AcDbEntity
  8
0
100
AcDbBlockBegin
  2
*D17
 70
     1
 10
0.0
 20
0.0
 30
0.0
  3
*D17
  1

  0
LINE
  5
151
330
150
100
AcDbEntity
  8
1
  6
Continuous
 62
     2
100
AcDbLine
 10
-247.5000000001
 20
-169.3313545820849
 30
0.0
 11
-232.5000000001
 21
-169.3313545820849
 31
0.0
  0
LINE
  5
152
330
150
100
AcDbEntity
  8
1
  6
Continuous
 62
     2
100
AcDbLine
 10
-247.5000000001
 20
-150.5000000000398
 30
0.0
 11
-247.5000000001
 21
-170.8313545820849
 31
0.0
  0
LINE
  5
153
330
150
100
AcDbEntity
  8
1
  6
Continuous
 62
     2
100
AcDbLine
 10
-232.5000000001
 20
-149.5000000000398
 30
0.0
 11
-232.5000000001
 21
-170.8313545820849
 31
0.0
  0
SOLID
  5
154
330
150
100
AcDbEntity
  8
1
 62
     2
100
AcDbTrace
 10
-244.0000000001
 20
-168.870570840529
 30
0.0
 11
-244.0000000001
 21
-169.7921383236408
 31
0.0
 12
-247.5000000001
 22
-169.3313545820849
 32
0.0
 13
-247.5000000001
 23
-169.3313545820849
 33
0.0
  0
SOLID
  5
155
330
150
100
AcDbEntity
  8
1
 62
     2
100
AcDbTrace
 10
-236.0000000001
 20
-169.7921383236408
 30
0.0
 11
-236.0000000001
 21
-168.870570840529
 31
0.0
 12
-232.5000000001
 22
-169.3313545820849
 32
0.0
 13
-232.5000000001
 23
-169.3313545820849
 33
0.0
  0
MTEXT
  5
156
330
150
100
AcDbEntity
  8
1
 62
     3
100
AcDbMText
 10
-242.10000000005
 20
-167.8313545820849
 30
0.0
 40
3.5
 41
0.0
 71
     7
 72
     1
  1
15
  7
CONVERTER_11
 11
0.9999999999970619
 21
2.424068405545306E-6
 31
0.0
 73
     1
 44
0.60024009603842
  0
ENDBLK
  5
158
330
150
100
AcDbEntity
  8
0
100
AcDbBlockEnd
  0
BLOCK
  5
1BC
330
1B5
100
AcDbEntity
  8
0
100
AcDbBlockBegin
  2
*D18
 70
     1
 10
0.0
 20
0.0
 30
0.0
  3
*D18
  1

  0
LINE
  5
1B6
330
1B5
100
AcDbEntity
  8
1
  6
Continuous
 62
     2
100
AcDbLine
 10
-300.5000000000001
 20
-85.91742430508404
 30
0.0
 11
-276.5000000000001
 21
-85.91742430508404
 31
0.0
  0
LINE
  5
1B7
330
1B5
100
AcDbEntity
  8
1
  6
Continuous
 62
     2
100
AcDbLine
 10
-300.5000000000001
 20
-95.91742430508404
 30
0.0
 11
-300.5000000000001
 21
-84.41742430508404
 31
0.0
  0
LINE
  5
1B8
330
1B5
100
AcDbEntity
  8
1
  6
Continuous
 62
     2
100
AcDbLine
 10
-276.5000000000001
 20
-95.91742430508404
 30
0.0
 11
-276.5000000000001
 21
-84.41742430508404
 31
0.0
  0
SOLID
  5
1B9
330
1B5
100
AcDbEntity
  8
1
 62
     2
100
AcDbTrace
 10
-297.0000000000001
 20
-85.45664056352815
 30
0.0
 11
-297.0000000000001
 21
-86.37820804663993
 31
0.0
 12
-300.5000000000001
 22
-85.91742430508404
 32
0.0
 13
-300.5000000000001
 23
-85.91742430508404
 33
0.0
  0
SOLID
  5
1BA
330
1B5
100
AcDbEntity
  8
1
 62
     2
100
AcDbTrace
 10
-280.0000000000001
 20
-86.37820804663993
 30
0.0
 11
-280.0000000000001
 21
-85.45664056352815
 31
0.0
 12
-276.5000000000001
 22
-85.91742430508404
 32
0.0
 13
-276.5000000000001
 23
-85.91742430508404
 33
0.0
  0
MTEXT
  5
1BB
330
1B5
100
AcDbEntity
  8
1
 62
     3
100
AcDbMText
 10
-291.2094703814051
 20
-84.41742430508404
 30
0.0
 40
3.5
 41
0.0
 71
     7
 72
     1
  1
24
  7
CONVERTER_11
 11
0.9999999999970619
 21
2.424068405545306E-6
 31
0.0
 73
     1
 44
0.60024009603842
  0
ENDBLK
  5
1BD
330
1B5
100
AcDbEntity
  8
0
100
AcDbBlockEnd
  0
BLOCK
  5
1C7
330
1C0
100
AcDbEntity
  8
0
100
AcDbBlockBegin
  2
*D19
 70
     1
 10
0.0
 20
0.0
 30
0.0
  3
*D19
  1

  0
LINE
  5
1C1
330
1C0
100
AcDbEntity
  8
1
  6
Continuous
 62
     2
100
AcDbLine
 10
-266.5000000000001
 20
-94.50000000003992
 30
0.0
 11
-266.5000000000001
 21
-159.5000000000399
 31
0.0
  0
LINE
  5
1C2
330
1C0
100
AcDbEntity
  8
1
  6
Continuous
 62
     2
100
AcDbLine
 10
-276.5000000000001
 20
-94.50000000003992
 30
0.0
 11
-265.0000000000001
 21
-94.50000000003992
 31
0.0
  0
LINE
  5
1C3
330
1C0
100
AcDbEntity
  8
1
  6
Continuous
 62
     2
100
AcDbLine
 10
-284.5000000000001
 20
-159.5000000000399
 30
0.0
 11
-265.0000000000001
 21
-159.5000000000399
 31
0.0
  0
SOLID
  5
1C4
330
1C0
100
AcDbEntity
  8
1
 62
     2
100
AcDbTrace
 10
-266.0392162584442
 20
-98.00000000003992
 30
0.0
 11
-266.960783741556
 21
-98.00000000003992
 31
0.0
 12
-266.5000000000001
 22
-94.50000000003992
 32
0.0
 13
-266.5000000000001
 23
-94.50000000003992
 33
0.0
  0
SOLID
  5
1C5
330
1C0
100
AcDbEntity
  8
1
 62
     2
100
AcDbTrace
 10
-266.960783741556
 20
-156.0000000000399
 30
0.0
 11
-266.0392162584442
 21
-156.0000000000399
 31
0.0
 12
-266.5000000000001
 22
-159.5000000000399
 32
0.0
 13
-266.5000000000001
 23
-159.5000000000399
 33
0.0
  0
MTEXT
  5
1C6
330
1C0
100
AcDbEntity
  8
1
 62
     3
100
AcDbMText
 10
-268.0000000000001
 20
-130.259986301039
 30
0.0
 40
3.5
 41
0.0
 71
     7
 72
     1
  1
65
  7
CONVERTER_11
 11
0.0
 21
1.0
 31
0.0
 73
     1
 44
0.60024009603842
  0
ENDBLK
  5
1C8
330
1C0
100
AcDbEntity
  8
0
100
AcDbBlockEnd
  0
ENDSEC
  0
SECTION
  2
ENTITIES
  0
INSERT
  5
86
330
1F
100
AcDbEntity
  8
1
100
AcDbBlockReference
  2
1
 10
0.0
 20
0.0
 30
0.0
  0
ENDSEC
  0
SECTION
  2
OBJECTS
  0
DICTIONARY
  5
C
330
0
100
AcDbDictionary
281
     1
  3
ACAD_GROUP
350
D
  3
ACAD_LAYOUT
350
1A
  3
ACAD_MATERIAL
350
3B
  3
ACAD_MLEADERSTYLE
350
32B
  3
ACAD_MLINESTYLE
350
17
  3
ACAD_PLOTSETTINGS
350
19
  3
ACAD_PLOTSTYLENAME
350
E
  3
ACAD_TABLESTYLE
350
32A
  3
ACAD_VISUALSTYLE
350
2A
  0
DICTIONARY
  5
D
102
{ACAD_REACTORS
330
C
102
}
330
C
100
AcDbDictionary
281
     1
  0
DICTIONARY
  5
1A
102
{ACAD_REACTORS
330
C
102
}
330
C
100
AcDbDictionary
281
     1
  3
Layout1
350
1E
  3
Layout2
350
26
  3
Model
350
22
  0
DICTIONARY
  5
3B
102
{ACAD_REACTORS
330
C
102
}
330
C
100
AcDbDictionary
281
     1
  3
ByBlock
350
3D
  3
ByLayer
350
3C
  3
Global
350
3E
  0
DICTIONARY
  5
32B
102
{ACAD_REACTORS
330
C
102
}
330
C
100
AcDbDictionary
281
     1
  0
DICTIONARY
  5
17
102
{ACAD_REACTORS
330
C
102
}
330
C
100
AcDbDictionary
281
     1
  3
Standard
350
18
  0
DICTIONARY
  5
19
102
{ACAD_REACTORS
330
C
102
}
330
C
100
AcDbDictionary
281
     1
  0
ACDBDICTIONARYWDFLT
  5
E
102
{ACAD_REACTORS
330
C
102
}
330
C
100
AcDbDictionary
281
     1
  3
Normal
350
F
100
AcDbDictionaryWithDefault
340
F
  0
DICTIONARY
  5
32A
102
{ACAD_REACTORS
330
C
102
}
330
C
100
AcDbDictionary
281
     1
  0
DICTIONARY
  5
2A
102
{ACAD_REACTORS
330
C
102
}
330
C
100
AcDbDictionary
281
     1
  3
2dWireframe
350
2F
  3
3D Hidden
350
31
  3
3dWireframe
350
30
  3
Basic
350
32
  3
Brighten
350
36
  3
ColorChange
350
3A
  3
Conceptual
350
34
  3
Dim
350
35
  3
Facepattern
350
39
  3
Flat
350
2B
  3
FlatWithEdges
350
2C
  3
Gouraud
350
2D
  3
GouraudWithEdges
350
2E
  3
Linepattern
350
38
  3
Realistic
350
33
  3
Thicken
350
37
  0
LAYOUT
  5
1E
102
{ACAD_REACTORS
330
1A
102
}
330
1A
100
AcDbPlotSettings
  1

  2
none_device
  4

  6

 40
0.0
 41
0.0
 42
0.0
 43
0.0
 44
0.0
 45
0.0
 46
0.0
 47
0.0
 48
0.0
 49
0.0
140
0.0
141
0.0
142
1.0
143
1.0
 70
   688
 72
     0
 73
     0
 74
     5
  7

 75
    16
 76
     0
 77
     2
 78
   300
147
1.0
148
0.0
149
0.0
100
AcDbLayout
  1
Layout1
 70
     1
 71
     1
 10
0.0
 20
0.0
 11
12.0
 21
9.0
 12
0.0
 22
0.0
 32
0.0
 14
1.00000000000000E+20
 24
1.00000000000000E+20
 34
1.00000000000000E+20
 15
-1.00000000000000E+20
 25
-1.00000000000000E+20
 35
-1.00000000000000E+20
146
0.0
 13
0.0
 23
0.0
 33
0.0
 16
1.0
 26
0.0
 36
0.0
 17
0.0
 27
1.0
 37
0.0
 76
     0
330
1B
  0
LAYOUT
  5
26
102
{ACAD_REACTORS
330
1A
102
}
330
1A
100
AcDbPlotSettings
  1

  2
none_device
  4

  6

 40
0.0
 41
0.0
 42
0.0
 43
0.0
 44
0.0
 45
0.0
 46
0.0
 47
0.0
 48
0.0
 49
0.0
140
0.0
141
0.0
142
1.0
143
1.0
 70
   688
 72
     0
 73
     0
 74
     5
  7

 75
    16
 76
     0
 77
     2
 78
   300
147
1.0
148
0.0
149
0.0
100
AcDbLayout
  1
Layout2
 70
     1
 71
     2
 10
0.0
 20
0.0
 11
0.0
 21
0.0
 12
0.0
 22
0.0
 32
0.0
 14
0.0
 24
0.0
 34
0.0
 15
0.0
 25
0.0
 35
0.0
146
0.0
 13
0.0
 23
0.0
 33
0.0
 16
1.0
 26
0.0
 36
0.0
 17
0.0
 27
1.0
 37
0.0
 76
     0
330
23
  0
LAYOUT
  5
22
102
{ACAD_REACTORS
330
1A
102
}
330
1A
100
AcDbPlotSettings
  1

  2
none_device
  4

  6

 40
0.0
 41
0.0
 42
0.0
 43
0.0
 44
0.0
 45
0.0
 46
0.0
 47
0.0
 48
0.0
 49
0.0
140
0.0
141
0.0
142
1.0
143
1.0
 70
  1712
 72
     0
 73
     0
 74
     0
  7

 75
     0
 76
     0
 77
     2
 78
   300
147
1.0
148
0.0
149
0.0
100
AcDbLayout
  1
Model
 70
     1
 71
     0
 10
0.0
 20
0.0
 11
12.0
 21
9.0
 12
0.0
 22
0.0
 32
0.0
 14
-415.499999999989
 24
-267.0000000000051
 34
0.0
 15
-118.4999999999909
 25
-57.000000000005
 35
0.0
146
0.0
 13
0.0
 23
0.0
 33
0.0
 16
1.0
 26
0.0
 36
0.0
 17
0.0
 27
1.0
 37
0.0
 76
     0
330
1F
331
29
  0
MATERIAL
  5
3D
102
{ACAD_REACTORS
330
3B
102
}
102
{ACAD_XDICTIONARY
360
326
102
}
330
3B
100
AcDbMaterial
  1
ByBlock
  0
MATERIAL
  5
3C
102
{ACAD_REACTORS
330
3B
102
}
102
{ACAD_XDICTIONARY
360
324
102
}
330
3B
100
AcDbMaterial
  1
ByLayer
  0
MATERIAL
  5
3E
102
{ACAD_REACTORS
330
3B
102
}
102
{ACAD_XDICTIONARY
360
328
102
}
330
3B
100
AcDbMaterial
  1
Global
  0
MLINESTYLE
  5
18
102
{ACAD_REACTORS
330
17
102
}
330
17
100
AcDbMlineStyle
  2
Standard
 70
     0
  3

 62
   256
 51
90.0
 52
90.0
 71
     2
 49
0.5
 62
   256
  6
BYLAYER
 49
-0.5
 62
   256
  6
BYLAYER
  0
ACDBPLACEHOLDER
  5
F
102
{ACAD_REACTORS
330
E
102
}
330
E
  0
VISUALSTYLE
  5
2F
102
{ACAD_REACTORS
330
2A
102
}
102
{ACAD_XDICTIONARY
360
30C
102
}
330
2A
100
AcDbVisualStyle
  2
2dWireframe
 70
     4
 71
     0
 72
     2
 73
     0
 90
        0
 40
-0.6
 41
-30.0
 62
     5
 63
     7
421
 16777215
 74
     1
 91
        4
 64
     7
 65
   257
 75
     1
175
     1
 42
1.0
 92
        0
 66
   257
 43
1.0
 76
     1
 77
     6
 78
     2
 67
     7
 79
     5
170
     0
171
     0
290
     0
174
     0
 93
        1
 44
0.0
173
     0
291
     0
 45
0.0
1001
ACAD
1000
AcDbSavedByObjectVersion
1070
     0
  0
VISUALSTYLE
  5
31
102
{ACAD_REACTORS
330
2A
102
}
102
{ACAD_XDICTIONARY
360
310
102
}
330
2A
100
AcDbVisualStyle
  2
3D Hidden
 70
     6
 71
     1
 72
     2
 73
     2
 90
        0
 40
-0.6
 41
-30.0
 62
     5
 63
     7
421
 16777215
 74
     2
 91
        2
 64
     7
 65
   257
 75
     2
175
     1
 42
40.0
 92
        0
 66
   257
 43
1.0
 76
     1
 77
     6
 78
     2
 67
     7
 79
     3
170
     0
171
     0
290
     0
174
     0
 93
        1
 44
0.0
173
     0
291
     0
 45
0.0
1001
ACAD
1000
AcDbSavedByObjectVersion
1070
     0
  0
VISUALSTYLE
  5
30
102
{ACAD_REACTORS
330
2A
102
}
102
{ACAD_XDICTIONARY
360
30E
102
}
330
2A
100
AcDbVisualStyle
  2
3dWireframe
 70
     5
 71
     0
 72
     2
 73
     0
 90
        0
 40
-0.6
 41
-30.0
 62
     5
 63
     7
421
 16777215
 74
     1
 91
        4
 64
     7
 65
   257
 75
     1
175
     1
 42
1.0
 92
        0
 66
   257
 43
1.0
 76
     1
 77
     6
 78
     2
 67
     7
 79
     5
170
     0
171
     0
290
     0
174
     0
 93
        1
 44
0.0
173
     0
291
     0
 45
0.0
1001
ACAD
1000
AcDbSavedByObjectVersion
1070
     0
  0
VISUALSTYLE
  5
32
102
{ACAD_REACTORS
330
2A
102
}
102
{ACAD_XDICTIONARY
360
312
102
}
330
2A
100
AcDbVisualStyle
  2
Basic
 70
     7
 71
     1
 72
     0
 73
     1
 90
        0
 40
-0.6
 41
-30.0
 62
     5
 63
     7
421
 16777215
 74
     0
 91
        4
 64
     7
 65
   257
 75
     1
175
     1
 42
1.0
 92
        8
 66
     7
 43
1.0
 76
     1
 77
     6
 78
     2
 67
     7
 79
     5
170
     0
171
     0
290
     0
174
     0
 93
        1
 44
0.0
173
     0
291
     1
 45
0.0
1001
ACAD
1000
AcDbSavedByObjectVersion
1070
     0
  0
VISUALSTYLE
  5
36
102
{ACAD_REACTORS
330
2A
102
}
102
{ACAD_XDICTIONARY
360
31A
102
}
330
2A
100
AcDbVisualStyle
  2
Brighten
 70
    12
 71
     2
 72
     2
 73
     0
 90
        0
 40
-0.6
 41
-30.0
 62
     5
 63
     7
421
 16777215
 74
     1
 91
        4
 64
     7
 65
   257
 75
     1
175
     1
 42
1.0
 92
        8
 66
     7
 43
1.0
 76
     1
 77
     6
 78
     2
 67
     7
 79
     5
170
     0
171
     0
290
     0
174
     0
 93
        1
 44
50.0
173
     0
291
     1
 45
0.0
1001
ACAD
1000
AcDbSavedByObjectVersion
1070
     0
  0
VISUALSTYLE
  5
3A
102
{ACAD_REACTORS
330
2A
102
}
102
{ACAD_XDICTIONARY
360
322
102
}
330
2A
100
AcDbVisualStyle
  2
ColorChange
 70
    16
 71
     2
 72
     2
 73
     3
 90
        0
 40
-0.6
 41
-30.0
 62
     5
 63
     8
421
  8421504
 74
     1
 91
        4
 64
     7
 65
   257
 75
     1
175
     1
 42
1.0
 92
        8
 66
     8
424
  8421504
 43
1.0
 76
     1
 77
     6
 78
     2
 67
     7
 79
     5
170
     0
171
     0
290
     0
174
     0
 93
        1
 44
0.0
173
     0
291
     1
 45
0.0
1001
ACAD
1000
AcDbSavedByObjectVersion
1070
     0
  0
VISUALSTYLE
  5
34
102
{ACAD_REACTORS
330
2A
102
}
102
{ACAD_XDICTIONARY
360
316
102
}
330
2A
100
AcDbVisualStyle
  2
Conceptual
 70
     9
 71
     3
 72
     2
 73
     0
 90
        0
 40
-0.6
 41
-30.0
 62
     5
 63
     7
421
 16777215
 74
     2
 91
        2
 64
     7
 65
   257
 75
     1
175
     1
 42
40.0
 92
        8
 66
     7
 43
1.0
 76
     1
 77
     6
 78
     2
 67
     7
 79
     3
170
     0
171
     0
290
     0
174
     0
 93
        1
 44
0.0
173
     0
291
     0
 45
0.0
1001
ACAD
1000
AcDbSavedByObjectVersion
1070
     0
  0
VISUALSTYLE
  5
35
102
{ACAD_REACTORS
330
2A
102
}
102
{ACAD_XDICTIONARY
360
318
102
}
330
2A
100
AcDbVisualStyle
  2
Dim
 70
    11
 71
     2
 72
     2
 73
     0
 90
        0
 40
-0.6
 41
-30.0
 62
     5
 63
     7
421
 16777215
 74
     1
 91
        4
 64
     7
 65
   257
 75
     1
175
     1
 42
1.0
 92
        8
 66
     7
 43
1.0
 76
     1
 77
     6
 78
     2
 67
     7
 79
     5
170
     0
171
     0
290
     0
174
     0
 93
        1
 44
-50.0
173
     0
291
     1
 45
0.0
1001
ACAD
1000
AcDbSavedByObjectVersion
1070
     0
  0
VISUALSTYLE
  5
39
102
{ACAD_REACTORS
330
2A
102
}
102
{ACAD_XDICTIONARY
360
320
102
}
330
2A
100
AcDbVisualStyle
  2
Facepattern
 70
    15
 71
     2
 72
     2
 73
     0
 90
        0
 40
-0.6
 41
-30.0
 62
     5
 63
     7
421
 16777215
 74
     1
 91
        4
 64
     7
 65
   257
 75
     1
175
     1
 42
1.0
 92
        8
 66
     7
 43
1.0
 76
     1
 77
     6
 78
     2
 67
     7
 79
     5
170
     0
171
     0
290
     0
174
     0
 93
        1
 44
0.0
173
     0
291
     1
 45
0.0
1001
ACAD
1000
AcDbSavedByObjectVersion
1070
     0
  0
VISUALSTYLE
  5
2B
102
{ACAD_REACTORS
330
2A
102
}
102
{ACAD_XDICTIONARY
360
304
102
}
330
2A
100
AcDbVisualStyle
  2
Flat
 70
     0
 71
     2
 72
     1
 73
     1
 90
        2
 40
-0.6
 41
30.0
 62
     5
 63
     7
421
 16777215
 74
     0
 91
        4
 64
     7
 65
   257
 75
     1
175
     1
 42
1.0
 92
        8
 66
     7
 43
1.0
 76
     1
 77
     6
 78
     2
 67
     7
 79
     5
170
     0
171
     0
290
     0
174
     0
 93
       13
 44
0.0
173
     0
291
     1
 45
0.0
1001
ACAD
1000
AcDbSavedByObjectVersion
1070
     0
  0
VISUALSTYLE
  5
2C
102
{ACAD_REACTORS
330
2A
102
}
102
{ACAD_XDICTIONARY
360
306
102
}
330
2A
100
AcDbVisualStyle
  2
FlatWithEdges
 70
     1
 71
     2
 72
     1
 73
     1
 90
        2
 40
-0.6
 41
30.0
 62
     5
 63
     7
421
 16777215
 74
     1
 91
        4
 64
     7
 65
   257
 75
     1
175
     1
 42
1.0
 92
        0
 66
   257
 43
1.0
 76
     1
 77
     6
 78
     2
 67
     7
 79
     5
170
     0
171
     0
290
     0
174
     0
 93
       13
 44
0.0
173
     0
291
     1
 45
0.0
1001
ACAD
1000
AcDbSavedByObjectVersion
1070
     0
  0
VISUALSTYLE
  5
2D
102
{ACAD_REACTORS
330
2A
102
}
102
{ACAD_XDICTIONARY
360
308
102
}
330
2A
100
AcDbVisualStyle
  2
Gouraud
 70
     2
 71
     2
 72
     2
 73
     1
 90
        2
 40
-0.6
 41
30.0
 62
     5
 63
     7
421
 16777215
 74
     0
 91
        4
 64
     7
 65
   257
 75
     1
175
     1
 42
1.0
 92
        0
 66
     7
 43
1.0
 76
     1
 77
     6
 78
     2
 67
     7
 79
     5
170
     0
171
     0
290
     0
174
     0
 93
       13
 44
0.0
173
     0
291
     1
 45
0.0
1001
ACAD
1000
AcDbSavedByObjectVersion
1070
     0
  0
VISUALSTYLE
  5
2E
102
{ACAD_REACTORS
330
2A
102
}
102
{ACAD_XDICTIONARY
360
30A
102
}
330
2A
100
AcDbVisualStyle
  2
GouraudWithEdges
 70
     3
 71
     2
 72
     2
 73
     1
 90
        2
 40
-0.6
 41
30.0
 62
     5
 63
     7
421
 16777215
 74
     1
 91
        4
 64
     7
 65
   257
 75
     1
175
     1
 42
1.0
 92
        0
 66
   257
 43
1.0
 76
     1
 77
     6
 78
     2
 67
     7
 79
     5
170
     0
171
     0
290
     0
174
     0
 93
       13
 44
0.0
173
     0
291
     1
 45
0.0
1001
ACAD
1000
AcDbSavedByObjectVersion
1070
     0
  0
VISUALSTYLE
  5
38
102
{ACAD_REACTORS
330
2A
102
}
102
{ACAD_XDICTIONARY
360
31E
102
}
330
2A
100
AcDbVisualStyle
  2
Linepattern
 70
    14
 71
     2
 72
     2
 73
     0
 90
        0
 40
-0.6
 41
-30.0
 62
     5
 63
     7
421
 16777215
 74
     1
 91
        4
 64
     7
 65
   257
 75
     7
175
     7
 42
1.0
 92
        8
 66
     7
 43
1.0
 76
     1
 77
     6
 78
     2
 67
     7
 79
     5
170
     0
171
     0
290
     0
174
     0
 93
        1
 44
0.0
173
     0
291
     1
 45
0.0
1001
ACAD
1000
AcDbSavedByObjectVersion
1070
     0
  0
VISUALSTYLE
  5
33
102
{ACAD_REACTORS
330
2A
102
}
102
{ACAD_XDICTIONARY
360
314
102
}
330
2A
100
AcDbVisualStyle
  2
Realistic
 70
     8
 71
     2
 72
     2
 73
     0
 90
        0
 40
-0.6
 41
-30.0
 62
     5
 63
     7
421
 16777215
 74
     1
 91
        0
 64
     7
 65
   257
 75
     1
175
     1
 42
1.0
 92
        8
 66
     8
424
  7895160
 43
1.0
 76
     1
 77
     6
 78
     2
 67
     7
 79
     5
170
     0
171
     0
290
     0
174
     0
 93
       13
 44
0.0
173
     0
291
     0
 45
0.0
1001
ACAD
1000
AcDbSavedByObjectVersion
1070
     0
  0
VISUALSTYLE
  5
37
102
{ACAD_REACTORS
330
2A
102
}
102
{ACAD_XDICTIONARY
360
31C
102
}
330
2A
100
AcDbVisualStyle
  2
Thicken
 70
    13
 71
     2
 72
     2
 73
     0
 90
        0
 40
-0.6
 41
-30.0
 62
     5
 63
     7
421
 16777215
 74
     1
 91
        4
 64
     7
 65
   257
 75
     1
175
     1
 42
1.0
 92
       12
 66
     7
 43
1.0
 76
     1
 77
     6
 78
     2
 67
     7
 79
     5
170
     0
171
     0
290
     0
174
     0
 93
        1
 44
0.0
173
     0
291
     1
 45
0.0
1001
ACAD
1000
AcDbSavedByObjectVersion
1070
     0
  0
DICTIONARY
  5
326
330
3D
100
AcDbDictionary
280
     1
281
     1
  3
ACAD_XREC_ROUNDTRIP
360
327
  0
DICTIONARY
  5
324
330
3C
100
AcDbDictionary
280
     1
281
     1
  3
ACAD_XREC_ROUNDTRIP
360
325
  0
DICTIONARY
  5
328
330
3E
100
AcDbDictionary
280
     1
281
     1
  3
ACAD_XREC_ROUNDTRIP
360
329
  0
DICTIONARY
  5
30C
330
2F
100
AcDbDictionary
280
     1
281
     1
  3
ACAD_XREC_ROUNDTRIP
360
30D
  0
DICTIONARY
  5
310
330
31
100
AcDbDictionary
280
     1
281
     1
  3
ACAD_XREC_ROUNDTRIP
360
311
  0
DICTIONARY
  5
30E
330
30
100
AcDbDictionary
280
     1
281
     1
  3
ACAD_XREC_ROUNDTRIP
360
30F
  0
DICTIONARY
  5
312
330
32
100
AcDbDictionary
280
     1
281
     1
  3
ACAD_XREC_ROUNDTRIP
360
313
  0
DICTIONARY
  5
31A
330
36
100
AcDbDictionary
280
     1
281
     1
  3
ACAD_XREC_ROUNDTRIP
360
31B
  0
DICTIONARY
  5
322
330
3A
100
AcDbDictionary
280
     1
281
     1
  3
ACAD_XREC_ROUNDTRIP
360
323
  0
DICTIONARY
  5
316
330
34
100
AcDbDictionary
280
     1
281
     1
  3
ACAD_XREC_ROUNDTRIP
360
317
  0
DICTIONARY
  5
318
330
35
100
AcDbDictionary
280
     1
281
     1
  3
ACAD_XREC_ROUNDTRIP
360
319
  0
DICTIONARY
  5
320
330
39
100
AcDbDictionary
280
     1
281
     1
  3
ACAD_XREC_ROUNDTRIP
360
321
  0
DICTIONARY
  5
304
330
2B
100
AcDbDictionary
280
     1
281
     1
  3
ACAD_XREC_ROUNDTRIP
360
305
  0
DICTIONARY
  5
306
330
2C
100
AcDbDictionary
280
     1
281
     1
  3
ACAD_XREC_ROUNDTRIP
360
307
  0
DICTIONARY
  5
308
330
2D
100
AcDbDictionary
280
     1
281
     1
  3
ACAD_XREC_ROUNDTRIP
360
309
  0
DICTIONARY
  5
30A
330
2E
100
AcDbDictionary
280
     1
281
     1
  3
ACAD_XREC_ROUNDTRIP
360
30B
  0
DICTIONARY
  5
31E
330
38
100
AcDbDictionary
280
     1
281
     1
  3
ACAD_XREC_ROUNDTRIP
360
31F
  0
DICTIONARY
  5
314
330
33
100
AcDbDictionary
280
     1
281
     1
  3
ACAD_XREC_ROUNDTRIP
360
315
  0
DICTIONARY
  5
31C
330
37
100
AcDbDictionary
280
     1
281
     1
  3
ACAD_XREC_ROUNDTRIP
360
31D
  0
XRECORD
  5
327
102
{ACAD_REACTORS
330
326
102
}
330
326
100
AcDbXrecord
280
     1
102
MATERIAL
148
0.0
149
0.0
149
0.0
 93
        0
 94
      127
282
     0
 72
     1
 77
     1
171
     1
175
     1
179
     1
273
     0
  0
XRECORD
  5
325
102
{ACAD_REACTORS
330
324
102
}
330
324
100
AcDbXrecord
280
     1
102
MATERIAL
148
0.0
149
0.0
149
0.0
 93
        0
 94
      127
282
     0
 72
     1
 77
     1
171
     1
175
     1
179
     1
273
     0
  0
XRECORD
  5
329
102
{ACAD_REACTORS
330
328
102
}
330
328
100
AcDbXrecord
280
     1
102
MATERIAL
148
0.0
149
0.0
149
0.0
 93
        0
 94
      127
282
     0
 72
     1
 77
     1
171
     1
175
     1
179
     1
273
     0
  0
XRECORD
  5
30D
102
{ACAD_REACTORS
330
30C
102
}
330
30C
100
AcDbXrecord
280
     1
102
RTVSPropertyOp0
 70
     1
102
RTVSPropertyOp1
 70
     1
102
RTVSPropertyOp2
 70
     1
102
RTVSPropertyOp3
 70
     1
102
RTVSPropertyOp4
 70
     1
102
RTVSPropertyOp5
 70
     1
102
RTVSPropertyOp6
 70
     1
102
RTVSPropertyOp7
 70
     1
102
RTVSPropertyOp8
 70
     1
102
RTVSPropertyOp9
 70
     1
102
RTVSPropertyOp10
 70
     1
102
RTVSPropertyOp11
 70
     1
102
RTVSPropertyOp12
 70
     1
102
RTVSPropertyOp13
 70
     1
102
RTVSPropertyOp14
 70
     1
102
RTVSPropertyOp15
 70
     1
102
RTVSPropertyOp16
 70
     1
102
RTVSPropertyOp17
 70
     1
102
RTVSPropertyOp18
 70
     1
102
RTVSPropertyOp19
 70
     1
102
RTVSPropertyOp20
 70
     1
102
RTVSPropertyOp21
 70
     1
102
RTVSPropertyOp22
 70
     1
102
RTVSPropertyOp23
 70
     1
102
RTVSPropertyOp24
 70
     1
102
RTVSPropertyOp25
 70
     1
102
RTVSPropertyOp26
 70
     1
102
RTVSPropertyOp27
 70
     1
102
RTVSPropertyOp28
 70
     1
102
RTVSPropertyOp29
 70
     1
102
RTVSPropertyOp30
 70
     1
102
RTVSPropertyOp31
 70
     1
102
RTVSPropertyOp32
 70
     1
  0
XRECORD
  5
311
102
{ACAD_REACTORS
330
310
102
}
330
310
100
AcDbXrecord
280
     1
102
RTVSPropertyOp0
 70
     1
102
RTVSPropertyOp1
 70
     1
102
RTVSPropertyOp2
 70
     1
102
RTVSPropertyOp3
 70
     1
102
RTVSPropertyOp4
 70
     1
102
RTVSPropertyOp5
 70
     1
102
RTVSPropertyOp6
 70
     1
102
RTVSPropertyOp7
 70
     1
102
RTVSPropertyOp8
 70
     1
102
RTVSPropertyOp9
 70
     1
102
RTVSPropertyOp10
 70
     1
102
RTVSPropertyOp11
 70
     1
102
RTVSPropertyOp12
 70
     1
102
RTVSPropertyOp13
 70
     1
102
RTVSPropertyOp14
 70
     1
102
RTVSPropertyOp15
 70
     1
102
RTVSPropertyOp16
 70
     1
102
RTVSPropertyOp17
 70
     1
102
RTVSPropertyOp18
 70
     1
102
RTVSPropertyOp19
 70
     1
102
RTVSPropertyOp20
 70
     1
102
RTVSPropertyOp21
 70
     1
102
RTVSPropertyOp22
 70
     1
102
RTVSPropertyOp23
 70
     1
102
RTVSPropertyOp24
 70
     1
102
RTVSPropertyOp25
 70
     1
102
RTVSPropertyOp26
 70
     1
102
RTVSPropertyOp27
 70
     1
102
RTVSPropertyOp28
 70
     1
102
RTVSPropertyOp29
 70
     1
102
RTVSPropertyOp30
 70
     1
102
RTVSPropertyOp31
 70
     1
102
RTVSPropertyOp32
 70
     1
  0
XRECORD
  5
30F
102
{ACAD_REACTORS
330
30E
102
}
330
30E
100
AcDbXrecord
280
     1
102
RTVSPropertyOp0
 70
     1
102
RTVSPropertyOp1
 70
     1
102
RTVSPropertyOp2
 70
     1
102
RTVSPropertyOp3
 70
     1
102
RTVSPropertyOp4
 70
     1
102
RTVSPropertyOp5
 70
     1
102
RTVSPropertyOp6
 70
     1
102
RTVSPropertyOp7
 70
     1
102
RTVSPropertyOp8
 70
     1
102
RTVSPropertyOp9
 70
     1
102
RTVSPropertyOp10
 70
     1
102
RTVSPropertyOp11
 70
     1
102
RTVSPropertyOp12
 70
     1
102
RTVSPropertyOp13
 70
     1
102
RTVSPropertyOp14
 70
     1
102
RTVSPropertyOp15
 70
     1
102
RTVSPropertyOp16
 70
     1
102
RTVSPropertyOp17
 70
     1
102
RTVSPropertyOp18
 70
     1
102
RTVSPropertyOp19
 70
     1
102
RTVSPropertyOp20
 70
     1
102
RTVSPropertyOp21
 70
     1
102
RTVSPropertyOp22
 70
     1
102
RTVSPropertyOp23
 70
     1
102
RTVSPropertyOp24
 70
     1
102
RTVSPropertyOp25
 70
     1
102
RTVSPropertyOp26
 70
     1
102
RTVSPropertyOp27
 70
     1
102
RTVSPropertyOp28
 70
     1
102
RTVSPropertyOp29
 70
     1
102
RTVSPropertyOp30
 70
     1
102
RTVSPropertyOp31
 70
     1
102
RTVSPropertyOp32
 70
     1
  0
XRECORD
  5
313
102
{ACAD_REACTORS
330
312
102
}
330
312
100
AcDbXrecord
280
     1
102
RTVSPropertyOp0
 70
     1
102
RTVSPropertyOp1
 70
     1
102
RTVSPropertyOp2
 70
     1
102
RTVSPropertyOp3
 70
     1
102
RTVSPropertyOp4
 70
     1
102
RTVSPropertyOp5
 70
     1
102
RTVSPropertyOp6
 70
     1
102
RTVSPropertyOp7
 70
     1
102
RTVSPropertyOp8
 70
     1
102
RTVSPropertyOp9
 70
     1
102
RTVSPropertyOp10
 70
     1
102
RTVSPropertyOp11
 70
     1
102
RTVSPropertyOp12
 70
     1
102
RTVSPropertyOp13
 70
     1
102
RTVSPropertyOp14
 70
     1
102
RTVSPropertyOp15
 70
     1
102
RTVSPropertyOp16
 70
     1
102
RTVSPropertyOp17
 70
     1
102
RTVSPropertyOp18
 70
     1
102
RTVSPropertyOp19
 70
     1
102
RTVSPropertyOp20
 70
     1
102
RTVSPropertyOp21
 70
     1
102
RTVSPropertyOp22
 70
     1
102
RTVSPropertyOp23
 70
     1
102
RTVSPropertyOp24
 70
     1
102
RTVSPropertyOp25
 70
     1
102
RTVSPropertyOp26
 70
     1
102
RTVSPropertyOp27
 70
     1
102
RTVSPropertyOp28
 70
     1
102
RTVSPropertyOp29
 70
     1
102
RTVSPropertyOp30
 70
     1
102
RTVSPropertyOp31
 70
     1
102
RTVSPropertyOp32
 70
     1
  0
XRECORD
  5
31B
102
{ACAD_REACTORS
330
31A
102
}
330
31A
100
AcDbXrecord
280
     1
102
RTVSPropertyOp0
 70
     1
102
RTVSPropertyOp1
 70
     1
102
RTVSPropertyOp2
 70
     1
102
RTVSPropertyOp3
 70
     1
102
RTVSPropertyOp4
 70
     1
102
RTVSPropertyOp5
 70
     1
102
RTVSPropertyOp6
 70
     1
102
RTVSPropertyOp7
 70
     1
102
RTVSPropertyOp8
 70
     1
102
RTVSPropertyOp9
 70
     1
102
RTVSPropertyOp10
 70
     1
102
RTVSPropertyOp11
 70
     1
102
RTVSPropertyOp12
 70
     1
102
RTVSPropertyOp13
 70
     1
102
RTVSPropertyOp14
 70
     1
102
RTVSPropertyOp15
 70
     1
102
RTVSPropertyOp16
 70
     1
102
RTVSPropertyOp17
 70
     1
102
RTVSPropertyOp18
 70
     1
102
RTVSPropertyOp19
 70
     1
102
RTVSPropertyOp20
 70
     1
102
RTVSPropertyOp21
 70
     1
102
RTVSPropertyOp22
 70
     1
102
RTVSPropertyOp23
 70
     1
102
RTVSPropertyOp24
 70
     1
102
RTVSPropertyOp25
 70
     1
102
RTVSPropertyOp26
 70
     1
102
RTVSPropertyOp27
 70
     1
102
RTVSPropertyOp28
 70
     1
102
RTVSPropertyOp29
 70
     1
102
RTVSPropertyOp30
 70
     1
102
RTVSPropertyOp31
 70
     1
102
RTVSPropertyOp32
 70
     1
  0
XRECORD
  5
323
102
{ACAD_REACTORS
330
322
102
}
330
322
100
AcDbXrecord
280
     1
102
RTVSPropertyOp0
 70
     1
102
RTVSPropertyOp1
 70
     1
102
RTVSPropertyOp2
 70
     1
102
RTVSPropertyOp3
 70
     1
102
RTVSPropertyOp4
 70
     1
102
RTVSPropertyOp5
 70
     1
102
RTVSPropertyOp6
 70
     1
102
RTVSPropertyOp7
 70
     1
102
RTVSPropertyOp8
 70
     1
102
RTVSPropertyOp9
 70
     1
102
RTVSPropertyOp10
 70
     1
102
RTVSPropertyOp11
 70
     1
102
RTVSPropertyOp12
 70
     1
102
RTVSPropertyOp13
 70
     1
102
RTVSPropertyOp14
 70
     1
102
RTVSPropertyOp15
 70
     1
102
RTVSPropertyOp16
 70
     1
102
RTVSPropertyOp17
 70
     1
102
RTVSPropertyOp18
 70
     1
102
RTVSPropertyOp19
 70
     1
102
RTVSPropertyOp20
 70
     1
102
RTVSPropertyOp21
 70
     1
102
RTVSPropertyOp22
 70
     1
102
RTVSPropertyOp23
 70
     1
102
RTVSPropertyOp24
 70
     1
102
RTVSPropertyOp25
 70
     1
102
RTVSPropertyOp26
 70
     1
102
RTVSPropertyOp27
 70
     1
102
RTVSPropertyOp28
 70
     1
102
RTVSPropertyOp29
 70
     1
102
RTVSPropertyOp30
 70
     1
102
RTVSPropertyOp31
 70
     1
102
RTVSPropertyOp32
 70
     1
  0
XRECORD
  5
317
102
{ACAD_REACTORS
330
316
102
}
330
316
100
AcDbXrecord
280
     1
102
RTVSPropertyOp0
 70
     1
102
RTVSPropertyOp1
 70
     1
102
RTVSPropertyOp2
 70
     1
102
RTVSPropertyOp3
 70
     1
102
RTVSPropertyOp4
 70
     1
102
RTVSPropertyOp5
 70
     1
102
RTVSPropertyOp6
 70
     1
102
RTVSPropertyOp7
 70
     1
102
RTVSPropertyOp8
 70
     1
102
RTVSPropertyOp9
 70
     1
102
RTVSPropertyOp10
 70
     1
102
RTVSPropertyOp11
 70
     1
102
RTVSPropertyOp12
 70
     1
102
RTVSPropertyOp13
 70
     1
102
RTVSPropertyOp14
 70
     1
102
RTVSPropertyOp15
 70
     1
102
RTVSPropertyOp16
 70
     1
102
RTVSPropertyOp17
 70
     1
102
RTVSPropertyOp18
 70
     1
102
RTVSPropertyOp19
 70
     1
102
RTVSPropertyOp20
 70
     1
102
RTVSPropertyOp21
 70
     1
102
RTVSPropertyOp22
 70
     1
102
RTVSPropertyOp23
 70
     1
102
RTVSPropertyOp24
 70
     1
102
RTVSPropertyOp25
 70
     1
102
RTVSPropertyOp26
 70
     1
102
RTVSPropertyOp27
 70
     1
102
RTVSPropertyOp28
 70
     1
102
RTVSPropertyOp29
 70
     1
102
RTVSPropertyOp30
 70
     1
102
RTVSPropertyOp31
 70
     1
102
RTVSPropertyOp32
 70
     1
  0
XRECORD
  5
319
102
{ACAD_REACTORS
330
318
102
}
330
318
100
AcDbXrecord
280
     1
102
RTVSPropertyOp0
 70
     1
102
RTVSPropertyOp1
 70
     1
102
RTVSPropertyOp2
 70
     1
102
RTVSPropertyOp3
 70
     1
102
RTVSPropertyOp4
 70
     1
102
RTVSPropertyOp5
 70
     1
102
RTVSPropertyOp6
 70
     1
102
RTVSPropertyOp7
 70
     1
102
RTVSPropertyOp8
 70
     1
102
RTVSPropertyOp9
 70
     1
102
RTVSPropertyOp10
 70
     1
102
RTVSPropertyOp11
 70
     1
102
RTVSPropertyOp12
 70
     1
102
RTVSPropertyOp13
 70
     1
102
RTVSPropertyOp14
 70
     1
102
RTVSPropertyOp15
 70
     1
102
RTVSPropertyOp16
 70
     1
102
RTVSPropertyOp17
 70
     1
102
RTVSPropertyOp18
 70
     1
102
RTVSPropertyOp19
 70
     1
102
RTVSPropertyOp20
 70
     1
102
RTVSPropertyOp21
 70
     1
102
RTVSPropertyOp22
 70
     1
102
RTVSPropertyOp23
 70
     1
102
RTVSPropertyOp24
 70
     1
102
RTVSPropertyOp25
 70
     1
102
RTVSPropertyOp26
 70
     1
102
RTVSPropertyOp27
 70
     1
102
RTVSPropertyOp28
 70
     1
102
RTVSPropertyOp29
 70
     1
102
RTVSPropertyOp30
 70
     1
102
RTVSPropertyOp31
 70
     1
102
RTVSPropertyOp32
 70
     1
  0
XRECORD
  5
321
102
{ACAD_REACTORS
330
320
102
}
330
320
100
AcDbXrecord
280
     1
102
RTVSPropertyOp0
 70
     1
102
RTVSPropertyOp1
 70
     1
102
RTVSPropertyOp2
 70
     1
102
RTVSPropertyOp3
 70
     1
102
RTVSPropertyOp4
 70
     1
102
RTVSPropertyOp5
 70
     1
102
RTVSPropertyOp6
 70
     1
102
RTVSPropertyOp7
 70
     1
102
RTVSPropertyOp8
 70
     1
102
RTVSPropertyOp9
 70
     1
102
RTVSPropertyOp10
 70
     1
102
RTVSPropertyOp11
 70
     1
102
RTVSPropertyOp12
 70
     1
102
RTVSPropertyOp13
 70
     1
102
RTVSPropertyOp14
 70
     1
102
RTVSPropertyOp15
 70
     1
102
RTVSPropertyOp16
 70
     1
102
RTVSPropertyOp17
 70
     1
102
RTVSPropertyOp18
 70
     1
102
RTVSPropertyOp19
 70
     1
102
RTVSPropertyOp20
 70
     1
102
RTVSPropertyOp21
 70
     1
102
RTVSPropertyOp22
 70
     1
102
RTVSPropertyOp23
 70
     1
102
RTVSPropertyOp24
 70
     1
102
RTVSPropertyOp25
 70
     1
102
RTVSPropertyOp26
 70
     1
102
RTVSPropertyOp27
 70
     1
102
RTVSPropertyOp28
 70
     1
102
RTVSPropertyOp29
 70
     1
102
RTVSPropertyOp30
 70
     1
102
RTVSPropertyOp31
 70
     1
102
RTVSPropertyOp32
 70
     1
  0
XRECORD
  5
305
102
{ACAD_REACTORS
330
304
102
}
330
304
100
AcDbXrecord
280
     1
102
RTVSPropertyOp0
 70
     1
102
RTVSPropertyOp1
 70
     1
102
RTVSPropertyOp2
 70
     1
102
RTVSPropertyOp3
 70
     1
102
RTVSPropertyOp4
 70
     1
102
RTVSPropertyOp5
 70
     1
102
RTVSPropertyOp6
 70
     1
102
RTVSPropertyOp7
 70
     1
102
RTVSPropertyOp8
 70
     1
102
RTVSPropertyOp9
 70
     1
102
RTVSPropertyOp10
 70
     1
102
RTVSPropertyOp11
 70
     1
102
RTVSPropertyOp12
 70
     1
102
RTVSPropertyOp13
 70
     1
102
RTVSPropertyOp14
 70
     1
102
RTVSPropertyOp15
 70
     1
102
RTVSPropertyOp16
 70
     1
102
RTVSPropertyOp17
 70
     1
102
RTVSPropertyOp18
 70
     1
102
RTVSPropertyOp19
 70
     1
102
RTVSPropertyOp20
 70
     1
102
RTVSPropertyOp21
 70
     1
102
RTVSPropertyOp22
 70
     1
102
RTVSPropertyOp23
 70
     1
102
RTVSPropertyOp24
 70
     1
102
RTVSPropertyOp25
 70
     1
102
RTVSPropertyOp26
 70
     1
102
RTVSPropertyOp27
 70
     1
102
RTVSPropertyOp28
 70
     1
102
RTVSPropertyOp29
 70
     1
102
RTVSPropertyOp30
 70
     1
102
RTVSPropertyOp31
 70
     1
102
RTVSPropertyOp32
 70
     1
  0
XRECORD
  5
307
102
{ACAD_REACTORS
330
306
102
}
330
306
100
AcDbXrecord
280
     1
102
RTVSPropertyOp0
 70
     1
102
RTVSPropertyOp1
 70
     1
102
RTVSPropertyOp2
 70
     1
102
RTVSPropertyOp3
 70
     1
102
RTVSPropertyOp4
 70
     1
102
RTVSPropertyOp5
 70
     1
102
RTVSPropertyOp6
 70
     1
102
RTVSPropertyOp7
 70
     1
102
RTVSPropertyOp8
 70
     1
102
RTVSPropertyOp9
 70
     1
102
RTVSPropertyOp10
 70
     1
102
RTVSPropertyOp11
 70
     1
102
RTVSPropertyOp12
 70
     1
102
RTVSPropertyOp13
 70
     1
102
RTVSPropertyOp14
 70
     1
102
RTVSPropertyOp15
 70
     1
102
RTVSPropertyOp16
 70
     1
102
RTVSPropertyOp17
 70
     1
102
RTVSPropertyOp18
 70
     1
102
RTVSPropertyOp19
 70
     1
102
RTVSPropertyOp20
 70
     1
102
RTVSPropertyOp21
 70
     1
102
RTVSPropertyOp22
 70
     1
102
RTVSPropertyOp23
 70
     1
102
RTVSPropertyOp24
 70
     1
102
RTVSPropertyOp25
 70
     1
102
RTVSPropertyOp26
 70
     1
102
RTVSPropertyOp27
 70
     1
102
RTVSPropertyOp28
 70
     1
102
RTVSPropertyOp29
 70
     1
102
RTVSPropertyOp30
 70
     1
102
RTVSPropertyOp31
 70
     1
102
RTVSPropertyOp32
 70
     1
  0
XRECORD
  5
309
102
{ACAD_REACTORS
330
308
102
}
330
308
100
AcDbXrecord
280
     1
102
RTVSPropertyOp0
 70
     1
102
RTVSPropertyOp1
 70
     1
102
RTVSPropertyOp2
 70
     1
102
RTVSPropertyOp3
 70
     1
102
RTVSPropertyOp4
 70
     1
102
RTVSPropertyOp5
 70
     1
102
RTVSPropertyOp6
 70
     1
102
RTVSPropertyOp7
 70
     1
102
RTVSPropertyOp8
 70
     1
102
RTVSPropertyOp9
 70
     1
102
RTVSPropertyOp10
 70
     1
102
RTVSPropertyOp11
 70
     1
102
RTVSPropertyOp12
 70
     1
102
RTVSPropertyOp13
 70
     1
102
RTVSPropertyOp14
 70
     1
102
RTVSPropertyOp15
 70
     1
102
RTVSPropertyOp16
 70
     1
102
RTVSPropertyOp17
 70
     1
102
RTVSPropertyOp18
 70
     1
102
RTVSPropertyOp19
 70
     1
102
RTVSPropertyOp20
 70
     1
102
RTVSPropertyOp21
 70
     1
102
RTVSPropertyOp22
 70
     1
102
RTVSPropertyOp23
 70
     1
102
RTVSPropertyOp24
 70
     1
102
RTVSPropertyOp25
 70
     1
102
RTVSPropertyOp26
 70
     1
102
RTVSPropertyOp27
 70
     1
102
RTVSPropertyOp28
 70
     1
102
RTVSPropertyOp29
 70
     1
102
RTVSPropertyOp30
 70
     1
102
RTVSPropertyOp31
 70
     1
102
RTVSPropertyOp32
 70
     1
  0
XRECORD
  5
30B
102
{ACAD_REACTORS
330
30A
102
}
330
30A
100
AcDbXrecord
280
     1
102
RTVSPropertyOp0
 70
     1
102
RTVSPropertyOp1
 70
     1
102
RTVSPropertyOp2
 70
     1
102
RTVSPropertyOp3
 70
     1
102
RTVSPropertyOp4
 70
     1
102
RTVSPropertyOp5
 70
     1
102
RTVSPropertyOp6
 70
     1
102
RTVSPropertyOp7
 70
     1
102
RTVSPropertyOp8
 70
     1
102
RTVSPropertyOp9
 70
     1
102
RTVSPropertyOp10
 70
     1
102
RTVSPropertyOp11
 70
     1
102
RTVSPropertyOp12
 70
     1
102
RTVSPropertyOp13
 70
     1
102
RTVSPropertyOp14
 70
     1
102
RTVSPropertyOp15
 70
     1
102
RTVSPropertyOp16
 70
     1
102
RTVSPropertyOp17
 70
     1
102
RTVSPropertyOp18
 70
     1
102
RTVSPropertyOp19
 70
     1
102
RTVSPropertyOp20
 70
     1
102
RTVSPropertyOp21
 70
     1
102
RTVSPropertyOp22
 70
     1
102
RTVSPropertyOp23
 70
     1
102
RTVSPropertyOp24
 70
     1
102
RTVSPropertyOp25
 70
     1
102
RTVSPropertyOp26
 70
     1
102
RTVSPropertyOp27
 70
     1
102
RTVSPropertyOp28
 70
     1
102
RTVSPropertyOp29
 70
     1
102
RTVSPropertyOp30
 70
     1
102
RTVSPropertyOp31
 70
     1
102
RTVSPropertyOp32
 70
     1
  0
XRECORD
  5
31F
102
{ACAD_REACTORS
330
31E
102
}
330
31E
100
AcDbXrecord
280
     1
102
RTVSPropertyOp0
 70
     1
102
RTVSPropertyOp1
 70
     1
102
RTVSPropertyOp2
 70
     1
102
RTVSPropertyOp3
 70
     1
102
RTVSPropertyOp4
 70
     1
102
RTVSPropertyOp5
 70
     1
102
RTVSPropertyOp6
 70
     1
102
RTVSPropertyOp7
 70
     1
102
RTVSPropertyOp8
 70
     1
102
RTVSPropertyOp9
 70
     1
102
RTVSPropertyOp10
 70
     1
102
RTVSPropertyOp11
 70
     1
102
RTVSPropertyOp12
 70
     1
102
RTVSPropertyOp13
 70
     1
102
RTVSPropertyOp14
 70
     1
102
RTVSPropertyOp15
 70
     1
102
RTVSPropertyOp16
 70
     1
102
RTVSPropertyOp17
 70
     1
102
RTVSPropertyOp18
 70
     1
102
RTVSPropertyOp19
 70
     1
102
RTVSPropertyOp20
 70
     1
102
RTVSPropertyOp21
 70
     1
102
RTVSPropertyOp22
 70
     1
102
RTVSPropertyOp23
 70
     1
102
RTVSPropertyOp24
 70
     1
102
RTVSPropertyOp25
 70
     1
102
RTVSPropertyOp26
 70
     1
102
RTVSPropertyOp27
 70
     1
102
RTVSPropertyOp28
 70
     1
102
RTVSPropertyOp29
 70
     1
102
RTVSPropertyOp30
 70
     1
102
RTVSPropertyOp31
 70
     1
102
RTVSPropertyOp32
 70
     1
  0
XRECORD
  5
315
102
{ACAD_REACTORS
330
314
102
}
330
314
100
AcDbXrecord
280
     1
102
RTVSPropertyOp0
 70
     1
102
RTVSPropertyOp1
 70
     1
102
RTVSPropertyOp2
 70
     1
102
RTVSPropertyOp3
 70
     1
102
RTVSPropertyOp4
 70
     1
102
RTVSPropertyOp5
 70
     1
102
RTVSPropertyOp6
 70
     1
102
RTVSPropertyOp7
 70
     1
102
RTVSPropertyOp8
 70
     1
102
RTVSPropertyOp9
 70
     1
102
RTVSPropertyOp10
 70
     1
102
RTVSPropertyOp11
 70
     1
102
RTVSPropertyOp12
 70
     1
102
RTVSPropertyOp13
 70
     1
102
RTVSPropertyOp14
 70
     1
102
RTVSPropertyOp15
 70
     1
102
RTVSPropertyOp16
 70
     1
102
RTVSPropertyOp17
 70
     1
102
RTVSPropertyOp18
 70
     1
102
RTVSPropertyOp19
 70
     1
102
RTVSPropertyOp20
 70
     1
102
RTVSPropertyOp21
 70
     1
102
RTVSPropertyOp22
 70
     1
102
RTVSPropertyOp23
 70
     1
102
RTVSPropertyOp24
 70
     1
102
RTVSPropertyOp25
 70
     1
102
RTVSPropertyOp26
 70
     1
102
RTVSPropertyOp27
 70
     1
102
RTVSPropertyOp28
 70
     1
102
RTVSPropertyOp29
 70
     1
102
RTVSPropertyOp30
 70
     1
102
RTVSPropertyOp31
 70
     1
102
RTVSPropertyOp32
 70
     1
  0
XRECORD
  5
31D
102
{ACAD_REACTORS
330
31C
102
}
330
31C
100
AcDbXrecord
280
     1
102
RTVSPropertyOp0
 70
     1
102
RTVSPropertyOp1
 70
     1
102
RTVSPropertyOp2
 70
     1
102
RTVSPropertyOp3
 70
     1
102
RTVSPropertyOp4
 70
     1
102
RTVSPropertyOp5
 70
     1
102
RTVSPropertyOp6
 70
     1
102
RTVSPropertyOp7
 70
     1
102
RTVSPropertyOp8
 70
     1
102
RTVSPropertyOp9
 70
     1
102
RTVSPropertyOp10
 70
     1
102
RTVSPropertyOp11
 70
     1
102
RTVSPropertyOp12
 70
     1
102
RTVSPropertyOp13
 70
     1
102
RTVSPropertyOp14
 70
     1
102
RTVSPropertyOp15
 70
     1
102
RTVSPropertyOp16
 70
     1
102
RTVSPropertyOp17
 70
     1
102
RTVSPropertyOp18
 70
     1
102
RTVSPropertyOp19
 70
     1
102
RTVSPropertyOp20
 70
     1
102
RTVSPropertyOp21
 70
     1
102
RTVSPropertyOp22
 70
     1
102
RTVSPropertyOp23
 70
     1
102
RTVSPropertyOp24
 70
     1
102
RTVSPropertyOp25
 70
     1
102
RTVSPropertyOp26
 70
     1
102
RTVSPropertyOp27
 70
     1
102
RTVSPropertyOp28
 70
     1
102
RTVSPropertyOp29
 70
     1
102
RTVSPropertyOp30
 70
     1
102
RTVSPropertyOp31
 70
     1
102
RTVSPropertyOp32
 70
     1
  0
ENDSEC
  0
EOF
