  0
SECTION
  2
HEADER
  9
$ACADVER
  1
AC1018
  9
$ACADMAINTVER
 70
     0
  9
$DWGCODEPAGE
  3
ANSI_1252
  9
$INSBASE
 10
0.0
 20
0.0
 30
0.0
  9
$EXTMIN
 10
-387.1225317121134
 20
-259.4971374239267
 30
0.0
  9
$EXTMAX
 10
-90.12253171211529
 20
-49.49713742392655
 30
0.0
  9
$LIMMIN
 10
0.0
 20
0.0
  9
$LIMMAX
 10
12.0
 20
9.0
  9
$ORTHOMODE
 70
     0
  9
$REGENMODE
 70
     1
  9
$FILLMODE
 70
     1
  9
$QTEXTMODE
 70
     0
  9
$MIRRTEXT
 70
     1
  9
$LTSCALE
 40
1.0
  9
$ATTMODE
 70
     1
  9
$TEXTSIZE
 40
0.2
  9
$TRACEWID
 40
0.05
  9
$TEXTSTYLE
  7
Standard
  9
$CLAYER
  8
0
  9
$CELTYPE
  6
ByLayer
  9
$CECOLOR
 62
   256
  9
$CELTSCALE
 40
1.0
  9
$DISPSILH
 70
     0
  9
$DIMSCALE
 40
1.0
  9
$DIMASZ
 40
0.18
  9
$DIMEXO
 40
0.0625
  9
$DIMDLI
 40
0.38
  9
$DIMRND
 40
0.0
  9
$DIMDLE
 40
0.0
  9
$DIMEXE
 40
0.18
  9
$DIMTP
 40
0.0
  9
$DIMTM
 40
0.0
  9
$DIMTXT
 40
0.18
  9
$DIMCEN
 40
0.09
  9
$DIMTSZ
 40
0.0
  9
$DIMTOL
 70
     0
  9
$DIMLIM
 70
     0
  9
$DIMTIH
 70
     1
  9
$DIMTOH
 70
     1
  9
$DIMSE1
 70
     0
  9
$DIMSE2
 70
     0
  9
$DIMTAD
 70
     0
  9
$DIMZIN
 70
     0
  9
$DIMBLK
  1

  9
$DIMASO
 70
     1
  9
$DIMSHO
 70
     1
  9
$DIMPOST
  1

  9
$DIMAPOST
  1

  9
$DIMALT
 70
     0
  9
$DIMALTD
 70
     2
  9
$DIMALTF
 40
25.4
  9
$DIMLFAC
 40
1.0
  9
$DIMTOFL
 70
     0
  9
$DIMTVP
 40
0.0
  9
$DIMTIX
 70
     0
  9
$DIMSOXD
 70
     0
  9
$DIMSAH
 70
     0
  9
$DIMBLK1
  1

  9
$DIMBLK2
  1

  9
$DIMSTYLE
  2
Standard
  9
$DIMCLRD
 70
     0
  9
$DIMCLRE
 70
     0
  9
$DIMCLRT
 70
     0
  9
$DIMTFAC
 40
1.0
  9
$DIMGAP
 40
0.09
  9
$DIMJUST
 70
     0
  9
$DIMSD1
 70
     0
  9
$DIMSD2
 70
     0
  9
$DIMTOLJ
 70
     1
  9
$DIMTZIN
 70
     0
  9
$DIMALTZ
 70
     0
  9
$DIMALTTZ
 70
     0
  9
$DIMUPT
 70
     0
  9
$DIMDEC
 70
     4
  9
$DIMTDEC
 70
     4
  9
$DIMALTU
 70
     2
  9
$DIMALTTD
 70
     2
  9
$DIMTXSTY
  7
Standard
  9
$DIMAUNIT
 70
     0
  9
$DIMADEC
 70
     0
  9
$DIMALTRND
 40
0.0
  9
$DIMAZIN
 70
     0
  9
$DIMDSEP
 70
    46
  9
$DIMATFIT
 70
     3
  9
$DIMFRAC
 70
     0
  9
$DIMLDRBLK
  1

  9
$DIMLUNIT
 70
     2
  9
$DIMLWD
 70
    -2
  9
$DIMLWE
 70
    -2
  9
$DIMTMOVE
 70
     0
  9
$LUNITS
 70
     2
  9
$LUPREC
 70
     4
  9
$SKETCHINC
 40
0.1
  9
$FILLETRAD
 40
0.5
  9
$AUNITS
 70
     0
  9
$AUPREC
 70
     0
  9
$MENU
  1
.
  9
$ELEVATION
 40
0.0
  9
$PELEVATION
 40
0.0
  9
$THICKNESS
 40
0.0
  9
$LIMCHECK
 70
     0
  9
$CHAMFERA
 40
0.5
  9
$CHAMFERB
 40
0.5
  9
$CHAMFERC
 40
1.0
  9
$CHAMFERD
 40
0.0
  9
$SKPOLY
 70
     0
  9
$TDCREATE
 40
2458261.570571447
  9
$TDUCREATE
 40
2458261.487238113
  9
$TDUPDATE
 40
2458261.570571991
  9
$TDUUPDATE
 40
2458261.487238657
  9
$TDINDWG
 40
0.0000000116
  9
$TDUSRTIMER
 40
0.0000000116
  9
$USRTIMER
 70
     1
  9
$ANGBASE
 50
0.0
  9
$ANGDIR
 70
     0
  9
$PDMODE
 70
     0
  9
$PDSIZE
 40
0.0
  9
$PLINEWID
 40
0.0
  9
$SPLFRAME
 70
     0
  9
$SPLINETYPE
 70
     6
  9
$SPLINESEGS
 70
     8
  9
$HANDSEED
  5
2DC
  9
$SURFTAB1
 70
     6
  9
$SURFTAB2
 70
     6
  9
$SURFTYPE
 70
     6
  9
$SURFU
 70
     6
  9
$SURFV
 70
     6
  9
$UCSBASE
  2

  9
$UCSNAME
  2

  9
$UCSORG
 10
0.0
 20
0.0
 30
0.0
  9
$UCSXDIR
 10
1.0
 20
0.0
 30
0.0
  9
$UCSYDIR
 10
0.0
 20
1.0
 30
0.0
  9
$UCSORTHOREF
  2

  9
$UCSORTHOVIEW
 70
     0
  9
$UCSORGTOP
 10
0.0
 20
0.0
 30
0.0
  9
$UCSORGBOTTOM
 10
0.0
 20
0.0
 30
0.0
  9
$UCSORGLEFT
 10
0.0
 20
0.0
 30
0.0
  9
$UCSORGRIGHT
 10
0.0
 20
0.0
 30
0.0
  9
$UCSORGFRONT
 10
0.0
 20
0.0
 30
0.0
  9
$UCSORGBACK
 10
0.0
 20
0.0
 30
0.0
  9
$PUCSBASE
  2

  9
$PUCSNAME
  2

  9
$PUCSORG
 10
0.0
 20
0.0
 30
0.0
  9
$PUCSXDIR
 10
1.0
 20
0.0
 30
0.0
  9
$PUCSYDIR
 10
0.0
 20
1.0
 30
0.0
  9
$PUCSORTHOREF
  2

  9
$PUCSORTHOVIEW
 70
     0
  9
$PUCSORGTOP
 10
0.0
 20
0.0
 30
0.0
  9
$PUCSORGBOTTOM
 10
0.0
 20
0.0
 30
0.0
  9
$PUCSORGLEFT
 10
0.0
 20
0.0
 30
0.0
  9
$PUCSORGRIGHT
 10
0.0
 20
0.0
 30
0.0
  9
$PUCSORGFRONT
 10
0.0
 20
0.0
 30
0.0
  9
$PUCSORGBACK
 10
0.0
 20
0.0
 30
0.0
  9
$USERI1
 70
     0
  9
$USERI2
 70
     0
  9
$USERI3
 70
     0
  9
$USERI4
 70
     0
  9
$USERI5
 70
     0
  9
$USERR1
 40
18.1
  9
$USERR2
 40
0.0
  9
$USERR3
 40
0.0
  9
$USERR4
 40
0.0
  9
$USERR5
 40
0.0
  9
$WORLDVIEW
 70
     1
  9
$SHADEDGE
 70
     3
  9
$SHADEDIF
 70
    70
  9
$TILEMODE
 70
     1
  9
$MAXACTVP
 70
    64
  9
$PINSBASE
 10
0.0
 20
0.0
 30
0.0
  9
$PLIMCHECK
 70
     0
  9
$PEXTMIN
 10
1.00000000000000E+20
 20
1.00000000000000E+20
 30
1.00000000000000E+20
  9
$PEXTMAX
 10
-1.00000000000000E+20
 20
-1.00000000000000E+20
 30
-1.00000000000000E+20
  9
$PLIMMIN
 10
0.0
 20
0.0
  9
$PLIMMAX
 10
12.0
 20
9.0
  9
$UNITMODE
 70
     0
  9
$VISRETAIN
 70
     1
  9
$PLINEGEN
 70
     0
  9
$PSLTSCALE
 70
     1
  9
$TREEDEPTH
 70
  3020
  9
$CMLSTYLE
  2
Standard
  9
$CMLJUST
 70
     0
  9
$CMLSCALE
 40
1.0
  9
$PROXYGRAPHICS
 70
     1
  9
$MEASUREMENT
 70
     1
  9
$CELWEIGHT
370
    -1
  9
$ENDCAPS
280
     0
  9
$JOINSTYLE
280
     0
  9
$LWDISPLAY
290
     0
  9
$INSUNITS
 70
     4
  9
$HYPERLINKBASE
  1

  9
$STYLESHEET
  1

  9
$XEDIT
290
     1
  9
$CEPSNTYPE
380
     0
  9
$PSTYLEMODE
290
     1
  9
$FINGERPRINTGUID
  2
{4DDB04D9-43B6-43D5-87CF-FB099D128851}
  9
$VERSIONGUID
  2
{FAEB1C32-E019-11D5-929B-00C0DF256EC4}
  9
$EXTNAMES
290
     1
  9
$PSVPSCALE
 40
0.0
  9
$OLESTARTUP
290
     0
  9
$SORTENTS
280
   127
  9
$INDEXCTL
280
     0
  9
$HIDETEXT
280
     1
  9
$XCLIPFRAME
290
     0
  9
$HALOGAP
280
     0
  9
$OBSCOLOR
 70
   257
  9
$OBSLTYPE
280
     0
  9
$INTERSECTIONDISPLAY
280
     0
  9
$INTERSECTIONCOLOR
 70
   257
  9
$DIMASSOC
280
     2
  9
$PROJECTNAME
  1

  0
ENDSEC
  0
SECTION
  2
CLASSES
  0
CLASS
  1
ACDBDICTIONARYWDFLT
  2
AcDbDictionaryWithDefault
  3
ObjectDBX Classes
 90
        0
 91
        4
280
     0
281
     0
  0
CLASS
  1
VISUALSTYLE
  2
AcDbVisualStyle
  3
ObjectDBX Classes
 90
     4095
 91
        4
280
     0
281
     0
  0
CLASS
  1
MATERIAL
  2
AcDbMaterial
  3
ObjectDBX Classes
 90
     1153
 91
        4
280
     0
281
     0
  0
ENDSEC
  0
SECTION
  2
TABLES
  0
TABLE
  2
VPORT
  5
8
330
0
100
AcDbSymbolTable
 70
     1
  0
VPORT
  5
29
330
8
100
AcDbSymbolTableRecord
100
AcDbViewportTableRecord
  2
*Active
 70
     0
 10
0.0
 20
0.0
 11
1.0
 21
1.0
 12
-238.6225317121144
 22
-154.4971374239266
 13
0.0
 23
0.0
 14
0.5
 24
0.5
 15
0.5
 25
0.5
 16
0.0
 26
0.0
 36
1.0
 17
0.0
 27
0.0
 37
0.0
 40
231.0000000000002
 41
1.60267857142857
 42
50.0
 43
0.0
 44
0.0
 50
0.0
 51
0.0
 71
     0
 72
   100
 73
     1
 74
     3
 75
     0
 76
     0
 77
     0
 78
     0
281
     0
 65
     1
110
0.0
120
0.0
130
0.0
111
1.0
121
0.0
131
0.0
112
0.0
122
1.0
132
0.0
 79
     0
146
0.0
  0
ENDTAB
  0
TABLE
  2
LTYPE
  5
5
330
0
100
AcDbSymbolTable
 70
     8
  0
LTYPE
  5
14
330
5
100
AcDbSymbolTableRecord
100
AcDbLinetypeTableRecord
  2
ByBlock
 70
     0
  3

 72
    65
 73
     0
 40
0.0
  0
LTYPE
  5
15
330
5
100
AcDbSymbolTableRecord
100
AcDbLinetypeTableRecord
  2
ByLayer
 70
     0
  3

 72
    65
 73
     0
 40
0.0
  0
LTYPE
  5
16
330
5
100
AcDbSymbolTableRecord
100
AcDbLinetypeTableRecord
  2
Continuous
 70
     0
  3
Solid line
 72
    65
 73
     0
 40
0.0
  0
LTYPE
  5
3F
330
5
100
AcDbSymbolTableRecord
100
AcDbLinetypeTableRecord
  2
DASHED
 70
     0
  3
Dashed
 72
    65
 73
     2
 40
15.0
 49
7.0
 74
     0
 49
-8.0
 74
     0
  0
LTYPE
  5
40
330
5
100
AcDbSymbolTableRecord
100
AcDbLinetypeTableRecord
  2
DOTTED
 70
     0
  3
Dotted
 72
    65
 73
     2
 40
1.0
 49
0.0
 74
     0
 49
-1.0
 74
     0
  0
LTYPE
  5
41
330
5
100
AcDbSymbolTableRecord
100
AcDbLinetypeTableRecord
  2
DOT_CENTER
 70
     0
  3
Dot_Center
 72
    65
 73
     4
 40
14.0
 49
12.0
 74
     0
 49
-1.0
 74
     0
 49
0.0
 74
     0
 49
-1.0
 74
     0
  0
LTYPE
  5
42
330
5
100
AcDbSymbolTableRecord
100
AcDbLinetypeTableRecord
  2
LONG_DASHED
 70
     0
  3
Long_Dashed
 72
    65
 73
     2
 40
15.0
 49
10.0
 74
     0
 49
-5.0
 74
     0
  0
LTYPE
  5
43
330
5
100
AcDbSymbolTableRecord
100
AcDbLinetypeTableRecord
  2
DASH_CENTER
 70
     0
  3
Dash_Center
 72
    65
 73
     4
 40
14.0
 49
11.0
 74
     0
 49
-1.0
 74
     0
 49
1.0
 74
     0
 49
-1.0
 74
     0
  0
LTYPE
  5
44
330
5
100
AcDbSymbolTableRecord
100
AcDbLinetypeTableRecord
  2
PHANTOM
 70
     0
  3
Phantom
 72
    65
 73
     6
 40
13.0
 49
10.0
 74
     0
 49
-1.0
 74
     0
 49
0.0
 74
     0
 49
-1.0
 74
     0
 49
0.0
 74
     0
 49
-1.0
 74
     0
  0
LTYPE
  5
45
330
5
100
AcDbSymbolTableRecord
100
AcDbLinetypeTableRecord
  2
CENTER_DASH_DASH
 70
     0
  3
Center_Dash_Dash
 72
    65
 73
     6
 40
14.0
 49
9.0
 74
     0
 49
-1.0
 74
     0
 49
1.0
 74
     0
 49
-1.0
 74
     0
 49
1.0
 74
     0
 49
-1.0
 74
     0
  0
ENDTAB
  0
TABLE
  2
LAYER
  5
2
330
0
100
AcDbSymbolTable
 70
     2
  0
LAYER
  5
10
330
2
100
AcDbSymbolTableRecord
100
AcDbLayerTableRecord
  2
0
 70
     0
 62
     7
  6
Continuous
370
    -3
390
F
  0
LAYER
  5
46
330
2
100
AcDbSymbolTableRecord
100
AcDbLayerTableRecord
  2
1
 70
     0
 62
     7
  6
Continuous
370
    -3
390
F
  0
ENDTAB
  0
TABLE
  2
STYLE
  5
3
330
0
100
AcDbSymbolTable
 70
     5
  0
STYLE
  5
11
330
3
100
AcDbSymbolTableRecord
100
AcDbTextStyleTableRecord
  2
Standard
 70
     0
 40
0.0
 41
1.0
 50
0.0
 71
     0
 42
0.2
  3
txt
  4

  0
STYLE
  5
AE
330
3
100
AcDbSymbolTableRecord
100
AcDbTextStyleTableRecord
  2
CONVERTER_11
 70
     0
 40
0.0
 41
0.9
 50
0.0
 71
     0
 42
0.2
  3
txt.shx
  4

  0
STYLE
  5
277
330
3
100
AcDbSymbolTableRecord
100
AcDbTextStyleTableRecord
  2
CONVERTER_12
 70
     0
 40
0.0
 41
0.81
 50
0.0
 71
     0
 42
0.2
  3
txt.shx
  4

  0
STYLE
  5
28D
330
3
100
AcDbSymbolTableRecord
100
AcDbTextStyleTableRecord
  2
CONVERTER_13
 70
     0
 40
0.0
 41
0.72
 50
0.0
 71
     0
 42
0.2
  3
txt.shx
  4

  0
STYLE
  5
290
330
3
100
AcDbSymbolTableRecord
100
AcDbTextStyleTableRecord
  2
CONVERTER_14
 70
     0
 40
0.0
 41
0.855
 50
0.0
 71
     0
 42
0.2
  3
txt.shx
  4

  0
ENDTAB
  0
TABLE
  2
VIEW
  5
6
330
0
100
AcDbSymbolTable
 70
     0
  0
ENDTAB
  0
TABLE
  2
UCS
  5
7
330
0
100
AcDbSymbolTable
 70
     0
  0
ENDTAB
  0
TABLE
  2
APPID
  5
9
330
0
100
AcDbSymbolTable
 70
     1
  0
APPID
  5
12
330
9
100
AcDbSymbolTableRecord
100
AcDbRegAppTableRecord
  2
ACAD
 70
     0
  0
ENDTAB
  0
TABLE
  2
DIMSTYLE
  5
A
330
0
100
AcDbSymbolTable
 70
     4
100
AcDbDimStyleTable
  0
DIMSTYLE
105
27
330
A
100
AcDbSymbolTableRecord
100
AcDbDimStyleTableRecord
  2
Standard
 70
     0
178
     0
340
11
  0
DIMSTYLE
105
C5
102
{ACAD_REACTORS
330
C6
102
}
330
A
100
AcDbSymbolTableRecord
100
AcDbDimStyleTableRecord
  2
ME10_DIM_10
 70
     0
 41
3.5
 42
0.0
 44
1.5
 73
     0
 74
     0
 77
     1
 78
     8
140
3.5
147
1.5
172
     1
173
     1
174
     1
175
     1
176
     2
177
     2
271
     2
178
     3
271
     2
340
AE
  0
DIMSTYLE
105
16E
102
{ACAD_REACTORS
330
16F
102
}
330
A
100
AcDbSymbolTableRecord
100
AcDbDimStyleTableRecord
  2
ME10_DIM_11
 70
     0
 41
3.5
 42
0.0
 44
1.5
 73
     0
 74
     0
 77
     1
 78
     8
140
3.5
147
1.5
172
     1
173
     1
174
     1
175
     1
176
     2
177
     2
271
     2
178
     3
271
     2
340
AE
  0
DIMSTYLE
105
179
102
{ACAD_REACTORS
330
17A
102
}
330
A
100
AcDbSymbolTableRecord
100
AcDbDimStyleTableRecord
  2
ME10_DIM_12
 70
     0
 41
3.5
 42
0.0
 44
1.5
 73
     0
 74
     0
 77
     1
 78
     8
140
3.5
147
1.5
172
     1
173
     1
174
     1
175
     1
176
     2
177
     2
271
     2
178
     3
271
     2
340
AE
  0
ENDTAB
  0
TABLE
  2
BLOCK_RECORD
  5
1
330
0
100
AcDbSymbolTable
 70
    20
  0
BLOCK_RECORD
  5
1F
330
1
100
AcDbSymbolTableRecord
100
AcDbBlockTableRecord
  2
*Model_Space
340
22
  0
BLOCK_RECORD
  5
1B
330
1
100
AcDbSymbolTableRecord
100
AcDbBlockTableRecord
  2
*Paper_Space
340
1E
  0
BLOCK_RECORD
  5
23
330
1
100
AcDbSymbolTableRecord
100
AcDbBlockTableRecord
  2
*Paper_Space0
340
26
  0
BLOCK_RECORD
  5
47
330
1
100
AcDbSymbolTableRecord
100
AcDbBlockTableRecord
  2
G_CCS_M25_M66N_PNES_BK-select__1
340
0
102
{BLKREFS
331
4B
102
}
  0
BLOCK_RECORD
  5
4A
330
1
100
AcDbSymbolTableRecord
100
AcDbBlockTableRecord
  2
Allg1
340
0
102
{BLKREFS
331
7D
102
}
  0
BLOCK_RECORD
  5
4E
330
1
100
AcDbSymbolTableRecord
100
AcDbBlockTableRecord
  2
G_CCS_M25_M66N_PNES_BK-select__2
340
0
102
{BLKREFS
331
52
102
}
  0
BLOCK_RECORD
  5
51
330
1
100
AcDbSymbolTableRecord
100
AcDbBlockTableRecord
  2
Drfsicht1
340
0
102
{BLKREFS
331
7E
102
}
  0
BLOCK_RECORD
  5
55
330
1
100
AcDbSymbolTableRecord
100
AcDbBlockTableRecord
  2
G_CCS_M25_M66N_PNES_BK-select__3
340
0
102
{BLKREFS
331
59
102
}
  0
BLOCK_RECORD
  5
58
330
1
100
AcDbSymbolTableRecord
100
AcDbBlockTableRecord
  2
Rckans1
340
0
102
{BLKREFS
331
7F
102
}
  0
BLOCK_RECORD
  5
5C
330
1
100
AcDbSymbolTableRecord
100
AcDbBlockTableRecord
  2
G_CCS_M25_M66N_PNES_BK-select__4
340
0
102
{BLKREFS
331
60
102
}
  0
BLOCK_RECORD
  5
5F
330
1
100
AcDbSymbolTableRecord
100
AcDbBlockTableRecord
  2
SA_Links1
340
0
102
{BLKREFS
331
80
102
}
  0
BLOCK_RECORD
  5
63
330
1
100
AcDbSymbolTableRecord
100
AcDbBlockTableRecord
  2
G_CCS_M25_M66N_PNES_BK-select__5
340
0
102
{BLKREFS
331
67
102
}
  0
BLOCK_RECORD
  5
66
330
1
100
AcDbSymbolTableRecord
100
AcDbBlockTableRecord
  2
SA_Rechts1
340
0
102
{BLKREFS
331
81
102
}
  0
BLOCK_RECORD
  5
6A
330
1
100
AcDbSymbolTableRecord
100
AcDbBlockTableRecord
  2
G_CCS_M25_M66N_PNES_BK-select__6
340
0
102
{BLKREFS
331
6E
102
}
  0
BLOCK_RECORD
  5
6D
330
1
100
AcDbSymbolTableRecord
100
AcDbBlockTableRecord
  2
Vordans1
340
0
102
{BLKREFS
331
82
102
}
  0
BLOCK_RECORD
  5
71
330
1
100
AcDbSymbolTableRecord
100
AcDbBlockTableRecord
  2
_rahmen
340
0
102
{BLKREFS
331
78
102
}
  0
BLOCK_RECORD
  5
74
330
1
100
AcDbSymbolTableRecord
100
AcDbBlockTableRecord
  2
_punkt
340
0
102
{BLKREFS
331
79
102
}
  0
BLOCK_RECORD
  5
77
330
1
100
AcDbSymbolTableRecord
100
AcDbBlockTableRecord
  2
A4I_CS
340
0
102
{BLKREFS
331
83
102
}
  0
BLOCK_RECORD
  5
7C
330
1
100
AcDbSymbolTableRecord
100
AcDbBlockTableRecord
  2
1
340
0
102
{BLKREFS
331
86
102
}
  0
BLOCK_RECORD
  5
BC
330
1
100
AcDbSymbolTableRecord
100
AcDbBlockTableRecord
  2
*D17
340
0
  0
BLOCK_RECORD
  5
165
330
1
100
AcDbSymbolTableRecord
100
AcDbBlockTableRecord
  2
*D18
340
0
  0
BLOCK_RECORD
  5
170
330
1
100
AcDbSymbolTableRecord
100
AcDbBlockTableRecord
  2
*D19
340
0
  0
ENDTAB
  0
ENDSEC
  0
SECTION
  2
BLOCKS
  0
BLOCK
  5
20
330
1F
100
AcDbEntity
  8
0
100
AcDbBlockBegin
  2
*Model_Space
 70
     0
 10
0.0
 20
0.0
 30
0.0
  3
*Model_Space
  1

  0
ENDBLK
  5
21
330
1F
100
AcDbEntity
  8
0
100
AcDbBlockEnd
  0
BLOCK
  5
1C
330
1B
100
AcDbEntity
 67
     1
  8
0
100
AcDbBlockBegin
  2
*Paper_Space
 70
     0
 10
0.0
 20
0.0
 30
0.0
  3
*Paper_Space
  1

  0
ENDBLK
  5
1D
330
1B
100
AcDbEntity
 67
     1
  8
0
100
AcDbBlockEnd
  0
BLOCK
  5
24
330
23
100
AcDbEntity
  8
0
100
AcDbBlockBegin
  2
*Paper_Space0
 70
     0
 10
0.0
 20
0.0
 30
0.0
  3
*Paper_Space0
  1

  0
ENDBLK
  5
25
330
23
100
AcDbEntity
  8
0
100
AcDbBlockEnd
  0
BLOCK
  5
48
330
47
100
AcDbEntity
  8
0
100
AcDbBlockBegin
  2
G_CCS_M25_M66N_PNES_BK-select__1
 70
     0
 10
-150.1175229836148
 20
-210.6505599635758
 30
0.0
  3
G_CCS_M25_M66N_PNES_BK-select__1
  1

  0
LINE
  5
87
330
47
100
AcDbEntity
  8
0
  6
Continuous
 62
     7
100
AcDbLine
 10
-116.5573025887559
 20
-186.4766287811864
 30
0.0
 11
-112.2260119388771
 21
-190.2276365151554
 31
0.0
  0
LINE
  5
88
330
47
100
AcDbEntity
  8
0
  6
Continuous
 62
     7
100
AcDbLine
 10
-116.7280581111248
 20
-186.6245074013943
 30
0.0
 11
-116.7280581111248
 21
-190.2276365151554
 31
0.0
  0
LINE
  5
89
330
47
100
AcDbEntity
  8
0
  6
Continuous
 62
     7
100
AcDbLine
 10
-121.6570350250009
 20
-203.9203841675609
 30
0.0
 11
-121.6570350250009
 21
-198.3951420914162
 31
0.0
  0
LINE
  5
8A
330
47
100
AcDbEntity
  8
0
  6
Continuous
 62
     7
100
AcDbLine
 10
-112.0585932386347
 20
-182.5806321997388
 30
0.0
 11
-121.5733256748797
 21
-190.8206321997388
 31
0.0
  0
LINE
  5
8B
330
47
100
AcDbEntity
  8
0
  6
Continuous
 62
     7
100
AcDbLine
 10
-121.6570350250009
 20
-203.9203841675609
 30
0.0
 11
-140.5190811972485
 21
-203.9203841675608
 31
0.0
  0
LINE
  5
8C
330
47
100
AcDbEntity
  8
0
  6
Continuous
 62
     7
100
AcDbLine
 10
-121.6570350250009
 20
-198.3951420914162
 30
0.0
 11
-140.5190811972485
 21
-198.3951420914162
 31
0.0
  0
LINE
  5
8D
330
47
100
AcDbEntity
  8
0
  6
Continuous
 62
     7
100
AcDbLine
 10
-140.5190811972485
 20
-203.9203841675608
 30
0.0
 11
-140.5190811972485
 21
-198.3951420914162
 31
0.0
  0
LINE
  5
8E
330
47
100
AcDbEntity
  8
0
  6
Continuous
 62
     7
100
AcDbLine
 10
-118.7270581111247
 20
-201.3829497276422
 30
0.0
 11
-118.7270581111247
 21
-204.4131326291445
 31
0.0
  0
LINE
  5
8F
330
47
100
AcDbEntity
  8
0
  6
Continuous
 62
     7
100
AcDbLine
 10
-112.2260119388771
 20
-195.7528785913001
 30
0.0
 11
-121.6570350250009
 21
-203.9203841675609
 31
0.0
  0
LINE
  5
90
330
47
100
AcDbEntity
  8
0
  6
Continuous
 62
     7
100
AcDbLine
 10
-112.0585932386347
 20
-171.7171704575352
 30
0.0
 11
-112.0585932386347
 21
-182.5806321997388
 31
0.0
  0
LINE
  5
91
330
47
100
AcDbEntity
  8
0
  6
Continuous
 62
     7
100
AcDbLine
 10
-112.2260119388771
 20
-195.7528785913001
 30
0.0
 11
-112.2260119388771
 21
-190.2276365151554
 31
0.0
  0
LINE
  5
92
330
47
100
AcDbEntity
  8
0
  6
Continuous
 62
     7
100
AcDbLine
 10
-121.5733256748797
 20
-190.8206321997388
 30
0.0
 11
-140.6027905473697
 21
-190.8206321997388
 31
0.0
  0
LINE
  5
93
330
47
100
AcDbEntity
  8
0
  6
Continuous
 62
     7
100
AcDbLine
 10
-112.2260119388771
 20
-190.2276365151554
 30
0.0
 11
-121.6570350250009
 21
-198.3951420914162
 31
0.0
  0
LINE
  5
94
330
47
100
AcDbEntity
  8
0
  6
Continuous
 62
     7
100
AcDbLine
 10
-150.1175229836148
 20
-171.7171704575362
 30
0.0
 11
-150.1175229836148
 21
-182.5806321997388
 31
0.0
  0
LINE
  5
95
330
47
100
AcDbEntity
  8
0
  6
Continuous
 62
     7
100
AcDbLine
 10
-140.6027905473697
 20
-179.9571704575363
 30
0.0
 11
-140.6027905473697
 21
-190.8206321997388
 31
0.0
  0
LINE
  5
96
330
47
100
AcDbEntity
  8
0
  6
Continuous
 62
     7
100
AcDbLine
 10
-149.9501042833724
 20
-195.7528785913001
 30
0.0
 11
-149.9501042833724
 21
-190.2276365151554
 31
0.0
  0
LINE
  5
97
330
47
100
AcDbEntity
  8
0
  6
Continuous
 62
     7
100
AcDbLine
 10
-149.9501042833724
 20
-190.2276365151554
 30
0.0
 11
-145.6188136334936
 21
-186.4766287811864
 31
0.0
  0
LINE
  5
98
330
47
100
AcDbEntity
  8
0
  6
Continuous
 62
     7
100
AcDbLine
 10
-145.4480581111248
 20
-186.6245074013942
 30
0.0
 11
-145.4480581111248
 21
-190.2276365151554
 31
0.0
  0
LINE
  5
99
330
47
100
AcDbEntity
  8
0
  6
Continuous
 62
     7
100
AcDbLine
 10
-143.4490581111248
 20
-201.3829497276421
 30
0.0
 11
-143.4490581111247
 21
-204.4131326291445
 31
0.0
  0
LINE
  5
9A
330
47
100
AcDbEntity
  8
0
  6
Continuous
 62
     7
100
AcDbLine
 10
-140.5190811972485
 20
-198.3951420914162
 30
0.0
 11
-149.9501042833724
 21
-190.2276365151554
 31
0.0
  0
LINE
  5
9B
330
47
100
AcDbEntity
  8
0
  6
Continuous
 62
     7
100
AcDbLine
 10
-140.5190811972485
 20
-203.9203841675608
 30
0.0
 11
-149.9501042833724
 21
-195.7528785913001
 31
0.0
  0
LINE
  5
9C
330
47
100
AcDbEntity
  8
0
  6
Continuous
 62
     7
100
AcDbLine
 10
-140.6027905473697
 20
-190.8206321997388
 30
0.0
 11
-150.1175229836148
 21
-182.5806321997388
 31
0.0
  0
LINE
  5
9D
330
47
100
AcDbEntity
  8
0
  6
Continuous
 62
     7
100
AcDbLine
 10
-121.5733256748797
 20
-179.9571704575395
 30
0.0
 11
-121.5733256748797
 21
-190.8206321997388
 31
0.0
  0
SPLINE
  5
9E
330
47
100
AcDbEntity
  8
0
  6
Continuous
 62
     7
100
AcDbSpline
210
0.0
220
0.0
230
1.0
 70
     8
 71
     3
 72
    13
 73
     9
 74
     7
 42
0.000000001
 43
0.0000000001
 44
0.00000001
 40
0.0
 40
0.0
 40
0.0
 40
0.0
 40
1.088298655212523
 40
2.267400511388651
 40
3.600546643986068
 40
5.116729179386176
 40
6.817350042784176
 40
8.684373831659835
 40
8.684373831659835
 40
8.684373831659835
 40
8.684373831659835
 10
-118.7270581111247
 20
-204.4131326291445
 30
0.0
 10
-118.7658323200695
 20
-204.7773299710861
 30
0.0
 10
-118.846615913872
 20
-205.5361117929959
 30
0.0
 10
-119.4646444318049
 20
-206.5994151998164
 30
0.0
 10
-120.3939279763409
 20
-207.5765396287278
 30
0.0
 10
-121.6463330242491
 20
-208.4475554500257
 30
0.0
 10
-123.1682709763787
 20
-209.2069579940958
 30
0.0
 10
-124.3018351570186
 20
-209.5713131659963
 30
0.0
 10
-124.8950532332527
 20
-209.7619879174902
 30
0.0
 11
-118.7270581111247
 21
-204.4131326291445
 31
0.0
 11
-118.9144319531763
 21
-205.4851797439489
 31
0.0
 11
-119.470871763595
 21
-206.5247257698068
 31
0.0
 11
-120.3795091049198
 21
-207.5002547550344
 31
0.0
 11
-121.6127958939527
 21
-208.3821919294017
 31
0.0
 11
-123.1333436304942
 21
-209.1437993747147
 31
0.0
 11
-124.8950532332527
 21
-209.7619879174902
 31
0.0
  0
SPLINE
  5
9F
330
47
100
AcDbEntity
  8
0
  6
Continuous
 62
     7
100
AcDbSpline
210
0.0
220
0.0
230
1.0
 70
     8
 71
     3
 72
    21
 73
    17
 74
    15
 42
0.000000001
 43
0.0000000001
 44
0.00000001
 40
0.0
 40
0.0
 40
0.0
 40
0.0
 40
0.3092697568206675
 40
0.6093990359819571
 40
1.411505311403767
 40
2.214741312566064
 40
2.643766198814057
 40
3.092798912001871
 40
3.546481571495795
 40
4.054798840932621
 40
4.613793761520279
 40
5.112068698757417
 40
5.417862087436155
 40
5.661994012992571
 40
5.904990131463101
 40
6.178839847069877
 40
6.178839847069877
 40
6.178839847069877
 40
6.178839847069877
 10
-115.2464022603849
 20
-166.5904105056357
 30
0.0
 10
-115.1711434099834
 20
-166.6608658183782
 30
0.0
 10
-115.0228499890347
 20
-166.7996941370329
 30
0.0
 10
-114.6842341808802
 20
-167.1263752887801
 30
0.0
 10
-114.2383201973355
 20
-167.5789774476216
 30
0.0
 10
-113.7887489611919
 20
-168.0872928077346
 30
0.0
 10
-113.439935945105
 20
-168.5261041041215
 30
0.0
 10
-113.1783635166663
 20
-168.884956586964
 30
0.0
 10
-112.9196321567219
 20
-169.2779775758588
 30
0.0
 10
-112.6650285847884
 20
-169.7167934356154
 30
0.0
 10
-112.435618300033
 20
-170.1861681752298
 30
0.0
 10
-112.2709107661045
 20
-170.6102629863477
 30
0.0
 10
-112.1703093992195
 20
-170.945176298401
 30
0.0
 10
-112.1113844104249
 20
-171.2029112177618
 30
0.0
 10
-112.0696898196159
 20
-171.4535913178734
 30
0.0
 10
-112.0624364255408
 20
-171.625882384789
 30
0.0
 10
-112.0585932386347
 20
-171.7171704575352
 30
0.0
 11
-115.2464022603849
 21
-166.5904105056357
 31
0.0
 11
-115.0211667020412
 21
-166.8023461553717
 31
0.0
 11
-114.8051374061541
 21
-167.0106942475325
 31
0.0
 11
-114.2438063886
 21
-167.583653204496
 31
0.0
 11
-113.7131321529015
 21
-168.1866232945386
 31
0.0
 11
-113.4464039081935
 21
-168.5226566211301
 31
0.0
 11
-113.182191880735
 21
-168.8857301428043
 31
0.0
 11
-112.9330671268866
 21
-169.2648934487926
 31
0.0
 11
-112.678561614107
 21
-169.7049086648892
 31
0.0
 11
-112.4343154813114
 21
-170.2077199095153
 31
0.0
 11
-112.2553285166411
 21
-170.6727377361266
 31
0.0
 11
-112.1680747699532
 21
-170.9658185776053
 31
0.0
 11
-112.1136886551598
 21
-171.2038155240548
 31
0.0
 11
-112.0760365763637
 21
-171.4438768438135
 31
0.0
 11
-112.0585932386347
 21
-171.7171704575352
 31
0.0
  0
SPLINE
  5
A0
330
47
100
AcDbEntity
  8
0
  6
Continuous
 62
     7
100
AcDbSpline
210
0.0
220
0.0
230
1.0
 70
     8
 71
     3
 72
    15
 73
    11
 74
     9
 42
0.000000001
 43
0.0000000001
 44
0.00000001
 40
0.0
 40
0.0
 40
0.0
 40
0.0
 40
1.785287018371137
 40
3.51934850011773
 40
5.154755149328989
 40
6.651607659407833
 40
7.982400336251223
 40
9.13881743481992
 40
10.14151451314428
 40
11.05024673557778
 40
11.05024673557778
 40
11.05024673557778
 40
11.05024673557778
 10
-131.0809596036969
 20
-158.5572030082366
 30
0.0
 10
-130.4856167984081
 20
-158.574068805778
 30
0.0
 10
-129.3120134579885
 20
-158.6073164716663
 30
0.0
 10
-127.6097513277093
 20
-158.8715513831006
 30
0.0
 10
-126.0372439769719
 20
-159.2828091446903
 30
0.0
 10
-124.6536358569778
 20
-159.8404234717291
 30
0.0
 10
-123.5035058465801
 20
-160.52191473664
 30
0.0
 10
-122.6412224572284
 20
-161.3086601791654
 30
0.0
 10
-122.0578659149063
 20
-162.1854438373036
 30
0.0
 10
-121.9800522823211
 20
-162.8254362616432
 30
0.0
 10
-121.9430581111247
 20
-163.1297016307403
 30
0.0
 11
-131.0809596036969
 21
-158.5572030082366
 31
0.0
 11
-129.2978657646564
 21
-158.6456680544611
 31
0.0
 11
-127.5835000906751
 21
-158.9062818646827
 31
0.0
 11
-126.0036802975015
 21
-159.3290398680178
 31
0.0
 11
-124.619057382634
 21
-159.8977109680532
 31
0.0
 11
-123.4827902934887
 21
-160.590463629283
 31
0.0
 11
-122.6385008250284
 21
-161.3807014399902
 31
0.0
 11
-122.1186040819442
 21
-162.2380863117031
 31
0.0
 11
-121.9430581111247
 21
-163.1297016307403
 31
0.0
  0
SPLINE
  5
A1
330
47
100
AcDbEntity
  8
0
  6
Continuous
 62
     7
100
AcDbSpline
210
0.0
220
0.0
230
1.0
 70
     8
 71
     3
 72
    21
 73
    17
 74
    15
 42
0.000000001
 43
0.0000000001
 44
0.00000001
 40
0.0
 40
0.0
 40
0.0
 40
0.0
 40
1.357498370870399
 40
2.843573365693088
 40
4.54332416434181
 40
6.490365079866668
 40
8.678812919130042
 40
11.07594695342146
 40
13.63126192724274
 40
16.2829101157289
 40
18.96279426036148
 40
21.6010629992962
 40
24.13046131838928
 40
26.49090154050774
 40
28.63473986958017
 40
30.53361383728405
 40
30.53361383728405
 40
30.53361383728405
 40
30.53361383728405
 10
-116.7280581111248
 20
-190.2276365151554
 30
0.0
 10
-116.7803536591137
 20
-190.6820643454855
 30
0.0
 10
-116.8898979804041
 20
-191.6339615253792
 30
0.0
 10
-117.7185730150256
 20
-192.9513577568529
 30
0.0
 10
-118.9527051830445
 20
-194.1455128241783
 30
0.0
 10
-120.6056892546591
 20
-195.1946325474163
 30
0.0
 10
-122.6049398712408
 20
-196.0718922574558
 30
0.0
 10
-124.892262208285
 20
-196.7505171506332
 30
0.0
 10
-127.3896515240193
 20
-197.2080495044824
 30
0.0
 10
-130.0132370217943
 20
-197.4287828087042
 30
0.0
 10
-132.6736520190576
 20
-197.4053192276696
 30
0.0
 10
-135.2793367988588
 20
-197.1375372343151
 30
0.0
 10
-137.7443110629502
 20
-196.6380385683381
 30
0.0
 10
-139.9761184233247
 20
-195.9124180851872
 30
0.0
 10
-141.931636159111
 20
-195.0219837996174
 30
0.0
 10
-143.0095057798039
 20
-194.2074765610223
 30
0.0
 10
-143.5157843372624
 20
-193.8249000879344
 30
0.0
 11
-116.7280581111248
 21
-190.2276365151554
 31
0.0
 11
-116.9781812721227
 21
-191.561892958929
 31
0.0
 11
-117.7198354835068
 21
-192.8496693037778
 31
0.0
 11
-118.9271863662759
 21
-194.0461042657116
 31
0.0
 11
-120.5581728434986
 21
-195.109519252651
 31
0.0
 11
-122.5559794026271
 21
-196.0028685095175
 31
0.0
 11
-124.8510090812356
 21
-196.6950320380603
 31
0.0
 11
-127.3633131914117
 21
-197.1618967627573
 31
0.0
 11
-130.0053723521596
 21
-197.3871999017618
 31
0.0
 11
-132.6851480566957
 21
-197.3630918115708
 31
0.0
 11
-135.3092876059724
 21
-197.0904133137959
 31
0.0
 11
-137.7863760041975
 21
-196.578662472553
 31
0.0
 11
-140.0301220942389
 21
-195.8456675697575
 31
0.0
 11
-141.9623615952409
 21
-194.9169624042932
 31
0.0
 11
-143.5157843372624
 21
-193.8249000879344
 31
0.0
  0
SPLINE
  5
A2
330
47
100
AcDbEntity
  8
0
  6
Continuous
 62
     7
100
AcDbSpline
210
0.0
220
0.0
230
1.0
 70
     8
 71
     3
 72
    17
 73
    13
 74
    11
 42
0.000000001
 43
0.0000000001
 44
0.00000001
 40
0.0
 40
0.0
 40
0.0
 40
0.0
 40
2.419018373964578
 40
4.961949873960258
 40
7.547538217346816
 40
10.09117310477055
 40
12.51154109669322
 40
14.73763663963663
 40
16.71710165769141
 40
18.42767939776535
 40
19.89417977973011
 40
21.20801479013387
 40
21.20801479013387
 40
21.20801479013387
 40
21.20801479013387
 10
-124.8950532332527
 20
-209.7619879174902
 30
0.0
 10
-125.6784923115428
 20
-209.9565787235644
 30
0.0
 10
-127.2855017830454
 20
-210.3557281561808
 30
0.0
 10
-129.7975279487697
 20
-210.6004031696713
 30
0.0
 10
-132.3580860342724
 20
-210.6066315882531
 30
0.0
 10
-134.8660989646179
 20
-210.3442002624823
 30
0.0
 10
-137.2134513220591
 20
-209.8325644310599
 30
0.0
 10
-139.300029951671
 20
-209.091295856623
 30
0.0
 10
-141.048564458597
 20
-208.1501130937005
 30
0.0
 10
-142.3673461729002
 20
-207.0401267873327
 30
0.0
 10
-143.2694015844056
 20
-205.7842703914326
 30
0.0
 10
-143.3914056450023
 20
-204.8531360056847
 30
0.0
 10
-143.4490581111247
 20
-204.4131326291445
 30
0.0
 11
-124.8950532332527
 21
-209.7619879174902
 31
0.0
 11
-127.2559378458938
 21
-210.2891251804315
 31
0.0
 11
-129.7844902327263
 21
-210.5591685830421
 31
0.0
 11
-132.3700783281539
 21
-210.5603011590745
 31
0.0
 11
-134.8995738530512
 21
-210.2924750402702
 31
0.0
 11
-137.2623020735648
 21
-209.7674068813329
 31
0.0
 11
-139.3548869606631
 21
-209.0080717411579
 31
0.0
 11
-141.0857688255556
 21
-208.0476917512689
 31
0.0
 11
-142.379218202301
 21
-206.9282879322733
 31
0.0
 11
-143.1786393605458
 21
-205.6988371664961
 31
0.0
 11
-143.4490581111247
 21
-204.4131326291445
 31
0.0
  0
SPLINE
  5
A3
330
47
100
AcDbEntity
  8
0
  6
Continuous
 62
     7
100
AcDbSpline
210
0.0
220
0.0
230
1.0
 70
     8
 71
     3
 72
    51
 73
    47
 74
    45
 42
0.000000001
 43
0.0000000001
 44
0.00000001
 40
0.0
 40
0.0
 40
0.0
 40
0.0
 40
0.1391097582658399
 40
0.3052429014055688
 40
0.455138458235071
 40
0.6306259980179107
 40
0.9859007205638013
 40
1.29361380566991
 40
1.869641936510263
 40
2.536324550169914
 40
3.11433262314879
 40
3.642188424728175
 40
4.153220488371002
 40
4.653367681026355
 40
5.124475039476764
 40
5.599589749213227
 40
6.045899039366931
 40
6.509098827938484
 40
6.92911407109125
 40
7.398706667014519
 40
7.594036137779026
 40
7.839586973817229
 40
8.02475694762581
 40
8.278856292815295
 40
8.532513418377572
 40
8.716731361117779
 40
8.960246065034053
 40
9.152998029580477
 40
9.612864846085891
 40
10.01772707605374
 40
10.45466858569654
 40
10.86287833465124
 40
11.2810066913115
 40
11.67342052161258
 40
12.06046557232865
 40
12.42192636063851
 40
12.75743184698422
 40
13.07886216073924
 40
13.41578987573123
 40
13.6644139219088
 40
13.83747564812065
 40
14.02186200577737
 40
14.12556384147671
 40
14.24987096101577
 40
14.3718251451999
 40
14.51902533454857
 40
14.51902533454857
 40
14.51902533454857
 40
14.51902533454857
 10
-140.6027905473697
 20
-179.9571704575363
 30
0.0
 10
-140.6039391168708
 20
-179.9108015918389
 30
0.0
 10
-140.6064593889412
 20
-179.8090562708232
 30
0.0
 10
-140.6220859318605
 20
-179.6579953050542
 30
0.0
 10
-140.6467742336663
 20
-179.495992193607
 30
0.0
 10
-140.6920004839084
 20
-179.2735632196966
 30
0.0
 10
-140.766216371449
 20
-179.0037413098404
 30
0.0
 10
-140.9028014980188
 20
-178.6137687787608
 30
0.0
 10
-141.1115966363657
 20
-178.1401370090363
 30
0.0
 10
-141.4051715242889
 20
-177.6080925535794
 30
0.0
 10
-141.7286033466332
 20
-177.1131540395274
 30
0.0
 10
-142.0492423353621
 20
-176.6796394986679
 30
0.0
 10
-142.3738983084096
 20
-176.282208980201
 30
0.0
 10
-142.7019632987724
 20
-175.9125892409181
 30
0.0
 10
-143.0340098139648
 20
-175.5629380341235
 30
0.0
 10
-143.3628091580955
 20
-175.2352245372595
 30
0.0
 10
-143.6966592034528
 20
-174.9164962012906
 30
0.0
 10
-144.0222398986579
 20
-174.6158050607051
 30
0.0
 10
-144.3570997427311
 20
-174.3137825475718
 30
0.0
 10
-144.6277104678442
 20
-174.0738655551225
 30
0.0
 10
-144.8556623676854
 20
-173.8735040495621
 30
0.0
 10
-145.0127407953554
 20
-173.7361167975823
 30
0.0
 10
-145.184865335017
 20
-173.5861770935598
 30
0.0
 10
-145.3593102497229
 20
-173.4347877710325
 30
0.0
 10
-145.5338249214419
 20
-173.2839637376806
 30
0.0
 10
-145.7059488985957
 20
-173.1357700403566
 30
0.0
 10
-145.862960849227
 20
-173.0011399025767
 30
0.0
 10
-146.0902093293055
 20
-172.8072674990642
 30
0.0
 10
-146.3593732595249
 20
-172.5796596656902
 30
0.0
 10
-146.6931949293363
 20
-172.3024784000471
 30
0.0
 10
-147.0171545214924
 20
-172.0404086869911
 30
0.0
 10
-147.3495176198709
 20
-171.7817964093499
 30
0.0
 10
-147.6766516159635
 20
-171.5407990239436
 30
0.0
 10
-148.0066998374516
 20
-171.3160412302892
 30
0.0
 10
-148.3317739415244
 20
-171.1181864481099
 30
0.0
 10
-148.6535598503509
 20
-170.9529594050952
 30
0.0
 10
-148.9709594717777
 20
-170.8297322614322
 30
0.0
 10
-149.2960023454009
 20
-170.7588809236476
 30
0.0
 10
-149.6066583136196
 20
-170.7779335740652
 30
0.0
 10
-149.8338813609495
 20
-170.9060988141533
 30
0.0
 10
-149.9650127918848
 20
-171.0628680492851
 30
0.0
 10
-150.0326479929764
 20
-171.202354445172
 30
0.0
 10
-150.0738850369343
 20
-171.3336449083679
 30
0.0
 10
-150.097728523063
 20
-171.448023297705
 30
0.0
 10
-150.113915279098
 20
-171.5783539543385
 30
0.0
 10
-150.116247497845
 20
-171.6680925383374
 30
0.0
 10
-150.1175229836148
 20
-171.7171704575362
 30
0.0
 11
-140.6027905473697
 21
-179.9571704575363
 31
0.0
 11
-140.6078894673846
 21
-179.8181541863134
 31
0.0
 11
-140.6240316350729
 21
-179.6528071229255
 31
0.0
 11
-140.6466085489132
 21
-179.5046215596805
 31
0.0
 11
-140.6813349731012
 21
-179.3326042578815
 31
0.0
 11
-140.7745620022668
 21
-178.989779449593
 31
0.0
 11
-140.8758411512099
 21
-178.6992112538059
 31
0.0
 11
-141.1064829099686
 21
-178.1713734135469
 31
0.0
 11
-141.427049137097
 21
-177.5868197373544
 31
0.0
 11
-141.7425393097782
 21
-177.1025065300219
 31
0.0
 11
-142.0559693058286
 21
-176.6777791063007
 31
0.0
 11
-142.3788741789666
 21
-176.2816904638414
 31
0.0
 11
-142.7105149933922
 21
-175.9073088613385
 31
0.0
 11
-143.0346247359057
 21
-175.5654097273667
 31
0.0
 11
-143.3708345637255
 21
-175.2297060799074
 31
0.0
 11
-143.6934129385841
 21
-174.9212661758507
 31
0.0
 11
-144.0334575439627
 21
-174.60674477698
 31
0.0
 11
-144.345203801483
 21
-174.3252717315663
 31
0.0
 11
-144.6964307688718
 21
-174.0135718384089
 31
0.0
 11
-144.8431351207406
 21
-173.8846089163351
 31
0.0
 11
-145.0279520135445
 21
-173.7229366268761
 31
0.0
 11
-145.1675723073784
 21
-173.6013056574209
 31
0.0
 11
-145.3594784371482
 21
-173.4347568221012
 31
0.0
 11
-145.551397459326
 21
-173.2688983696813
 31
0.0
 11
-145.6910050189866
 21
-173.1487069403098
 31
0.0
 11
-145.8758796806185
 21
-172.9902116076421
 31
0.0
 11
-146.0225260868536
 21
-172.8651190365015
 31
0.0
 11
-146.3738440870435
 21
-172.5683815236213
 31
0.0
 11
-146.6854953865331
 21
-172.3099499220488
 31
0.0
 11
-147.0254886832094
 21
-172.0355005807162
 31
0.0
 11
-147.3479812361405
 21
-171.7852332189818
 31
0.0
 11
-147.6851019062965
 21
-171.537885333828
 31
0.0
 11
-148.0100223709521
 21
-171.3178505507674
 31
0.0
 11
-148.3414500113666
 21
-171.1179516004468
 31
0.0
 11
-148.6640425241758
 21
-170.9548934143703
 31
0.0
 11
-148.9779821793178
 21
-170.8365472096712
 31
0.0
 11
-149.293361070388
 21
-170.7744698265704
 31
0.0
 11
-149.6285689253374
 21
-170.8084695138578
 31
0.0
 11
-149.8443236598414
 21
-170.9320163084463
 31
0.0
 11
-149.9567227404538
 21
-171.0636096497716
 31
0.0
 11
-150.0389737120038
 21
-171.2286342123001
 31
0.0
 11
-150.0703218261061
 21
-171.3274844341636
 31
0.0
 11
-150.0961951463774
 21
-171.4490691005893
 31
0.0
 11
-150.1110822188782
 21
-171.5701112340057
 31
0.0
 11
-150.1175229836148
 21
-171.7171704575362
 31
0.0
  0
SPLINE
  5
A4
330
47
100
AcDbEntity
  8
0
  6
Continuous
 62
     7
100
AcDbSpline
210
0.0
220
0.0
230
1.0
 70
     8
 71
     3
 72
    15
 73
    11
 74
     9
 42
0.000000001
 43
0.0000000001
 44
0.00000001
 40
0.0
 40
0.0
 40
0.0
 40
0.0
 40
0.9096529907505485
 40
1.913532704122409
 40
3.07150990927232
 40
4.404217380792085
 40
5.90323465292742
 40
7.540907045712723
 40
9.27716463300664
 40
11.06440293292915
 40
11.06440293292915
 40
11.06440293292915
 40
11.06440293292915
 10
-140.2330581111247
 20
-163.1297016307403
 30
0.0
 10
-140.1959848069043
 20
-162.8251267657361
 30
0.0
 10
-140.1179979335588
 20
-162.1844275459569
 30
0.0
 10
-139.5334559091422
 20
-161.3068670489903
 30
0.0
 10
-138.669556776356
 20
-160.5195939147304
 30
0.0
 10
-137.5173717966952
 20
-159.8378499489155
 30
0.0
 10
-136.1314492940658
 20
-159.2803066882331
 30
0.0
 10
-134.5565376976824
 20
-158.8694924745483
 30
0.0
 10
-132.8519784517691
 20
-158.6060537840161
 30
0.0
 10
-131.6769662205035
 20
-158.5736429141614
 30
0.0
 10
-131.0809596036969
 20
-158.5572030082366
 30
0.0
 11
-140.2330581111247
 21
-163.1297016307403
 31
0.0
 11
-140.0571659252394
 21
-162.2372160479595
 31
0.0
 11
-139.5362571564997
 21
-161.3790618984049
 31
0.0
 11
-138.6903681369375
 21
-160.5882503074545
 31
0.0
 11
-137.5520394364989
 21
-159.895201266495
 31
0.0
 11
-136.1650581816936
 21
-159.3265750444122
 31
0.0
 11
-134.5827788825563
 21
-158.904244503703
 31
0.0
 11
-132.8660667620858
 21
-158.6444563119142
 31
0.0
 11
-131.0809596036969
 21
-158.5572030082366
 31
0.0
  0
SPLINE
  5
A5
330
47
100
AcDbEntity
  8
0
  6
Continuous
 62
     7
100
AcDbSpline
210
0.0
220
0.0
230
1.0
 70
     8
 71
     3
 72
    21
 73
    17
 74
    15
 42
0.000000001
 43
0.0000000001
 44
0.00000001
 40
0.0
 40
0.0
 40
0.0
 40
0.0
 40
0.2466875653992749
 40
0.5166386950376929
 40
0.7604039379828318
 40
1.065656213963754
 40
1.521238952010419
 40
2.123638136177731
 40
2.631396444968646
 40
3.08464258254531
 40
3.534820810008267
 40
3.964880535108338
 40
4.766871334484659
 40
5.567723554369436
 40
5.868695237857216
 40
6.178845091985456
 40
6.178845091985456
 40
6.178845091985456
 40
6.178845091985456
 10
-150.1175229836148
 20
-171.7171704575362
 30
0.0
 10
-150.1143113989648
 20
-171.6349401319095
 30
0.0
 10
-150.1075853470743
 20
-171.4627248534938
 30
0.0
 10
-150.0668048354258
 20
-171.2119978500481
 30
0.0
 10
-150.0059604380768
 20
-170.9458042027986
 30
0.0
 10
-149.9096098816427
 20
-170.6247939223508
 30
0.0
 10
-149.746754631864
 20
-170.2000452308633
 30
0.0
 10
-149.5186138932399
 20
-169.7298323371821
 30
0.0
 10
-149.2569669714864
 20
-169.2787731932789
 30
0.0
 10
-148.9982571106189
 20
-168.8856730220149
 30
0.0
 10
-148.736371349224
 20
-168.5263296536871
 30
0.0
 10
-148.3873522444928
 20
-168.0872826253787
 30
0.0
 10
-147.9381029268773
 20
-167.579337186546
 30
0.0
 10
-147.4926077863505
 20
-167.1270984674237
 30
0.0
 10
-147.1538982536854
 20
-166.8002893868013
 30
0.0
 10
-147.0051868432822
 20
-166.6610673902391
 30
0.0
 10
-146.9297144208733
 20
-166.5904109354285
 30
0.0
 11
-150.1175229836148
 21
-171.7171704575362
 31
0.0
 11
-150.1031046375577
 21
-171.4709046081784
 31
0.0
 11
-150.0624691908484
 21
-171.204029402478
 31
0.0
 11
-150.00818905341
 21
-170.9663843743733
 31
0.0
 11
-149.9211434411095
 21
-170.6738061577044
 31
0.0
 11
-149.7591448101022
 21
-170.2479986021159
 31
0.0
 11
-149.4977472943079
 21
-169.7052683600123
 31
0.0
 11
-149.2435592099228
 21
-169.2657152711392
 31
0.0
 11
-148.9947240732702
 21
-168.8868839946289
 31
0.0
 11
-148.7298687500025
 21
-168.5228618877401
 31
0.0
 11
-148.4624895398969
 21
-168.1860240554765
 31
0.0
 11
-147.9326297542814
 21
-167.5839959413197
 31
0.0
 11
-147.3722109606963
 21
-167.0118988739653
 31
0.0
 11
-147.1555873673613
 21
-166.802953490962
 31
0.0
 11
-146.9297144208733
 21
-166.5904109354285
 31
0.0
  0
SPLINE
  5
A6
330
47
100
AcDbEntity
  8
0
  6
Continuous
 62
     7
100
AcDbSpline
210
0.0
220
0.0
230
1.0
 70
     8
 71
     3
 72
    23
 73
    19
 74
    17
 42
0.000000001
 43
0.0000000001
 44
0.00000001
 40
0.0
 40
0.0
 40
0.0
 40
0.0
 40
1.614570810964415
 40
3.396242974461314
 40
5.451230853295129
 40
7.8161931258563
 40
10.47626886835431
 40
13.38248056632395
 40
16.46382302049282
 40
19.63591523851658
 40
22.80800745654038
 40
25.88934991070935
 40
28.79556160867893
 40
31.45563735117692
 40
33.82059962373813
 40
35.87558750257191
 40
37.65725966606883
 40
39.27183047703323
 40
39.27183047703323
 40
39.27183047703323
 40
39.27183047703323
 10
-114.8480581120352
 20
-169.3045192436693
 30
0.0
 10
-114.9138309476662
 20
-169.8451158036517
 30
0.0
 10
-115.0521838499187
 20
-170.9822584100156
 30
0.0
 10
-116.0891923440059
 20
-172.5399683488886
 30
0.0
 10
-117.6219042581705
 20
-173.9375084782302
 30
0.0
 10
-119.6661683348306
 20
-175.148157820302
 30
0.0
 10
-122.1252762514351
 20
-176.137348225777
 30
0.0
 10
-124.9199136842406
 20
-176.8713853082527
 30
0.0
 10
-127.9448762775569
 20
-177.3232406932275
 30
0.0
 10
-131.0880581111247
 20
-177.4758082743174
 30
0.0
 10
-134.2312399446926
 20
-177.3232406932274
 30
0.0
 10
-137.2562025380088
 20
-176.8713853082527
 30
0.0
 10
-140.0508399708145
 20
-176.1373482257771
 30
0.0
 10
-142.5099478874188
 20
-175.148157820302
 30
0.0
 10
-144.5542119640789
 20
-173.9375084782301
 30
0.0
 10
-146.0869238782436
 20
-172.5399683488886
 30
0.0
 10
-147.1239323723307
 20
-170.9822584100155
 30
0.0
 10
-147.2622852745833
 20
-169.8451158036518
 30
0.0
 10
-147.3280581102143
 20
-169.3045192436693
 30
0.0
 11
-114.8480581120352
 21
-169.3045192436693
 31
0.0
 11
-115.1601251977061
 21
-170.8886445730725
 31
0.0
 11
-116.0842869270301
 21
-172.4118913686573
 31
0.0
 11
-117.5850314743295
 21
-173.815722190617
 31
0.0
 11
-119.604683925273
 21
-175.0461897928299
 31
0.0
 11
-122.0656331786472
 21
-176.0560074589586
 31
0.0
 11
-124.8733052619047
 21
-176.8063699673307
 31
0.0
 11
-127.9198052816093
 21
-177.2684402360465
 31
0.0
 11
-131.0880581111247
 21
-177.4244627594629
 31
0.0
 11
-134.2563109406401
 21
-177.2684402360465
 31
0.0
 11
-137.3028109603448
 21
-176.8063699673307
 31
0.0
 11
-140.1104830436023
 21
-176.0560074589586
 31
0.0
 11
-142.5714322969765
 21
-175.0461897928299
 31
0.0
 11
-144.59108474792
 21
-173.815722190617
 31
0.0
 11
-146.0918292952193
 21
-172.4118913686573
 31
0.0
 11
-147.0159910245434
 21
-170.8886445730724
 31
0.0
 11
-147.3280581102143
 21
-169.3045192436693
 31
0.0
  0
SPLINE
  5
A7
330
47
100
AcDbEntity
  8
0
  6
Continuous
 62
     7
100
AcDbSpline
210
0.0
220
0.0
230
1.0
 70
     8
 71
     3
 72
    57
 73
    53
 74
    51
 42
0.000000001
 43
0.0000000001
 44
0.00000001
 40
0.0
 40
0.0
 40
0.0
 40
0.0
 40
0.1303344343148742
 40
0.2686175594901912
 40
0.3861631590918679
 40
0.4971477506907593
 40
0.5909014073685184
 40
0.6892091162502603
 40
0.7728642209433172
 40
0.8550754472360188
 40
1.011719811001811
 40
1.149507399452623
 40
1.298699462986851
 40
1.443865139311103
 40
1.76510554378005
 40
2.100374919835923
 40
2.462110204256196
 40
2.849476986725671
 40
3.240886748306996
 40
3.657874516098417
 40
4.066146238082984
 40
4.503145001528798
 40
4.908068488881417
 40
5.367852212629413
 40
5.560663616199236
 40
5.804111556866998
 40
6.026364023859164
 40
6.241980579031097
 40
6.496078559231883
 40
6.681244242268251
 40
6.926854675334401
 40
7.122116648400245
 40
7.591770292109546
 40
8.01169117104411
 40
8.474779459704031
 40
8.92095033414693
 40
9.39729366131906
 40
9.869594496014242
 40
10.36933637953161
 40
10.87995189067113
 40
11.40814088935962
 40
11.98649348561277
 40
12.27478040996783
 40
12.58908328175547
 40
12.89029888697533
 40
13.22890740581499
 40
13.53681250224248
 40
13.89229051435556
 40
14.04866871815031
 40
14.21701080009991
 40
14.36465309293263
 40
14.52293690134361
 40
14.52293690134361
 40
14.52293690134361
 40
14.52293690134361
 10
-112.0585932386347
 20
-171.7171704575352
 30
0.0
 10
-112.0596361587864
 20
-171.6737219491528
 30
0.0
 10
-112.0617856069547
 20
-171.5841751435523
 30
0.0
 10
-112.0769289642796
 20
-171.4561210356876
 30
0.0
 10
-112.1015805829035
 20
-171.3362179068852
 30
0.0
 10
-112.1334674689159
 20
-171.2334144915562
 30
0.0
 10
-112.1733506667138
 20
-171.1404202367573
 30
0.0
 10
-112.2191560918022
 20
-171.0604463744635
 30
0.0
 10
-112.2723781559629
 20
-170.9900037681884
 30
0.0
 10
-112.347748844731
 20
-170.9129864777534
 30
0.0
 10
-112.4529411636357
 20
-170.8415076217061
 30
0.0
 10
-112.5927879529798
 20
-170.7901918847261
 30
0.0
 10
-112.7361658525828
 20
-170.7689355740514
 30
0.0
 10
-112.9419809213253
 20
-170.7725585570232
 30
0.0
 10
-113.2053692925444
 20
-170.829711501712
 30
0.0
 10
-113.5223161198293
 20
-170.9528897019219
 30
0.0
 10
-113.8443394768844
 20
-171.1181608550255
 30
0.0
 10
-114.1692572574676
 20
-171.3159516106963
 30
0.0
 10
-114.4988207470089
 20
-171.5403550954049
 30
0.0
 10
-114.8254183748015
 20
-171.780905667637
 30
0.0
 10
-115.1575389720386
 20
-172.0392764235597
 30
0.0
 10
-115.4815623518541
 20
-172.3013627526878
 30
0.0
 10
-115.8154051723559
 20
-172.5785371394276
 30
0.0
 10
-116.0845852184949
 20
-172.806145322358
 30
0.0
 10
-116.3118150053072
 20
-172.9999932069065
 30
0.0
 10
-116.4784521281911
 20
-173.1428714067955
 30
0.0
 10
-116.6505337361174
 20
-173.2910771951826
 30
0.0
 10
-116.8250259352751
 20
-173.4419233509391
 30
0.0
 10
-116.9898946583033
 20
-173.5849981311919
 30
0.0
 10
-117.1620351618816
 20
-173.7349468798451
 30
0.0
 10
-117.3191129702306
 20
-173.8723286673315
 30
0.0
 10
-117.5470824191088
 20
-174.072697040483
 30
0.0
 10
-117.817674667058
 20
-174.3125842037118
 30
0.0
 10
-118.1525108977912
 20
-174.6145607903636
 30
0.0
 10
-118.4780250278198
 20
-174.9151547866251
 30
0.0
 10
-118.8121375931873
 20
-175.2340804884644
 30
0.0
 10
-119.1415027480518
 20
-175.5623048748709
 30
0.0
 10
-119.4740198466275
 20
-175.9124373746737
 30
0.0
 10
-119.8021622063796
 20
-176.2821523833505
 30
0.0
 10
-120.1267270466635
 20
-176.679451987169
 30
0.0
 10
-120.4474207826352
 20
-177.1130136825022
 30
0.0
 10
-120.7019707420573
 20
-177.5025269773736
 30
0.0
 10
-120.8999164844064
 20
-177.8428679209865
 30
0.0
 10
-121.0411618026393
 20
-178.1090828908465
 30
0.0
 10
-121.1779039394046
 20
-178.396336339292
 30
0.0
 10
-121.299368800806
 20
-178.6881552592622
 30
0.0
 10
-121.4098352499454
 20
-179.0035296468283
 30
0.0
 10
-121.4824067122073
 20
-179.2673311949673
 30
0.0
 10
-121.5281411679261
 20
-179.4894743075171
 30
0.0
 10
-121.5523607044739
 20
-179.6451064579413
 30
0.0
 10
-121.5691465085728
 20
-179.8024328194393
 30
0.0
 10
-121.5719006891642
 20
-179.9044088463372
 30
0.0
 10
-121.5733256748797
 20
-179.9571704575395
 30
0.0
 11
-112.0585932386347
 21
-171.7171704575352
 31
0.0
 11
-112.0636958776881
 21
-171.5869359366393
 31
0.0
 11
-112.079834326338
 21
-171.4495977660346
 31
0.0
 11
-112.1039402571183
 21
-171.3345505064221
 31
0.0
 11
-112.1371376643752
 21
-171.2286471939066
 31
0.0
 11
-112.1743313546975
 21
-171.1425868810181
 31
0.0
 11
-112.2234670073357
 21
-171.0574394020688
 31
0.0
 11
-112.2740290589964
 21
-170.9907936564673
 31
0.0
 11
-112.3316438424753
 21
-170.9321487726941
 31
0.0
 11
-112.4612035206531
 21
-170.8441047706054
 31
0.0
 11
-112.5902873644782
 21
-170.7959095354859
 31
0.0
 11
-112.7376947023773
 21
-170.7729019613275
 31
0.0
 11
-112.8828518283626
 21
-170.7744774933371
 31
0.0
 11
-113.1980439673027
 21
-170.8365203240118
 31
0.0
 11
-113.5117719970944
 21
-170.9547585484317
 31
0.0
 11
-113.8346176216247
 21
-171.1179244719528
 31
0.0
 11
-114.166317684658
 21
-171.317994690205
 31
0.0
 11
-114.4904118044106
 21
-171.537459044717
 31
0.0
 11
-114.8266372549914
 21
-171.7840989538234
 31
0.0
 11
-115.1492039174021
 21
-172.0343718991814
 31
0.0
 11
-115.4892602352287
 21
-172.3088343189297
 31
0.0
 11
-115.8009701518749
 21
-172.5672911980903
 31
0.0
 11
-116.1522334601381
 21
-172.8639646899591
 31
0.0
 11
-116.2989278284966
 21
-172.9890926229652
 31
0.0
 11
-116.4837547048111
 21
-173.1475411179883
 31
0.0
 11
-116.6521642507289
 21
-173.2925734726577
 31
0.0
 11
-116.8152811284145
 21
-173.4335819229463
 31
0.0
 11
-117.0071887024385
 21
-173.6001270115518
 31
0.0
 11
-117.146807710253
 21
-173.7217529249587
 31
0.0
 11
-117.3316723693459
 21
-173.8834611270246
 31
0.0
 11
-117.4783287781211
 21
-174.0123763544764
 31
0.0
 11
-117.8296102561747
 21
-174.3241067958794
 31
0.0
 11
-118.1412980777994
 21
-174.605503750926
 31
0.0
 11
-118.4812796632771
 21
-174.9199290751201
 31
0.0
 11
-118.8037839274141
 21
-175.228246198681
 31
0.0
 11
-119.14088881447
 21
-175.5647922732377
 31
0.0
 11
-119.4658250622186
 21
-175.9075524126548
 31
0.0
 11
-119.7971936670559
 21
-176.2816336840934
 31
0.0
 11
-120.1198452154423
 21
-176.6773914108155
 31
0.0
 11
-120.4334865369891
 21
-177.1023769863248
 31
0.0
 11
-120.7491637616545
 21
-177.5869795192011
 31
0.0
 11
-120.8939919928152
 21
-177.8362467132848
 31
0.0
 11
-121.0411267563002
 21
-178.1139833805784
 31
0.0
 11
-121.17039621655
 21
-178.3860500033609
 31
0.0
 11
-121.3001263511076
 21
-178.6988211990807
 31
0.0
 11
-121.4014865237206
 21
-178.9895644939571
 31
0.0
 11
-121.4947764032897
 21
-179.3325828829934
 31
0.0
 11
-121.5261345455781
 21
-179.4857847419459
 31
0.0
 11
-121.5519978376428
 21
-179.6521282028822
 31
0.0
 11
-121.5668894828935
 21
-179.7990175666422
 31
0.0
 11
-121.5733256748797
 21
-179.9571704575395
 31
0.0
  0
SPLINE
  5
A8
330
47
100
AcDbEntity
  8
0
  6
Continuous
 62
     7
100
AcDbSpline
210
0.0
220
0.0
230
1.0
 70
     8
 71
     3
 72
    11
 73
     7
 74
     5
 42
0.000000001
 43
0.0000000001
 44
0.00000001
 40
0.0
 40
0.0
 40
0.0
 40
0.0
 40
1.18664755397045
 40
2.264530521610641
 40
3.258322914616116
 40
4.205651994959831
 40
4.205651994959831
 40
4.205651994959831
 40
4.205651994959831
 10
-143.5157843372624
 20
-193.8249000879344
 30
0.0
 10
-143.8054742246375
 20
-193.5538222732064
 30
0.0
 10
-144.3583018752056
 20
-193.0365128202213
 30
0.0
 10
-144.9718747253922
 20
-192.1320972714938
 30
0.0
 10
-145.372798295426
 20
-191.1931895479924
 30
0.0
 10
-145.4233750512073
 20
-190.5443102651834
 30
0.0
 10
-145.4480581111248
 20
-190.2276365151554
 30
0.0
 11
-143.5157843372624
 21
-193.8249000879344
 31
0.0
 11
-144.3501469286984
 21
-192.9811160617858
 31
0.0
 11
-144.9565790958466
 21
-192.0900090407482
 31
0.0
 11
-145.3246580900571
 21
-191.1668941076084
 31
0.0
 11
-145.4480581111248
 21
-190.2276365151554
 31
0.0
  0
SPLINE
  5
A9
330
47
100
AcDbEntity
  8
0
  6
Continuous
 62
     7
100
AcDbSpline
210
0.0
220
0.0
230
1.0
 70
     8
 71
     3
 72
    11
 73
     7
 74
     5
 42
0.000000001
 43
0.0000000001
 44
0.00000001
 40
0.0
 40
0.0
 40
0.0
 40
0.0
 40
1.901779917874195
 40
3.742124473412739
 40
5.464286412621922
 40
7.021949966127895
 40
7.021949966127895
 40
7.021949966127895
 40
7.021949966127895
 10
-131.0809596036969
 20
-164.6886628670305
 30
0.0
 10
-131.7153751193685
 20
-164.706931838616
 30
0.0
 10
-132.963711902927
 20
-164.7428796332581
 30
0.0
 10
-134.763693271634
 20
-165.0448787414689
 30
0.0
 10
-136.4193714554825
 20
-165.4903305036246
 30
0.0
 10
-137.4049733898069
 20
-165.9683901697318
 30
0.0
 10
-137.8730581111247
 20
-166.1954315601373
 30
0.0
 11
-131.0809596036969
 21
-164.6886628670305
 31
0.0
 11
-132.9801641631811
 21
-164.7876017188419
 31
0.0
 11
-134.796877202868
 21
-165.0815776004155
 31
0.0
 11
-136.4518931603722
 21
-165.5577749662112
 31
0.0
 11
-137.8730581111247
 21
-166.1954315601373
 31
0.0
  0
SPLINE
  5
AA
330
47
100
AcDbEntity
  8
0
  6
Continuous
 62
     7
100
AcDbSpline
210
0.0
220
0.0
230
1.0
 70
     8
 71
     3
 72
    11
 73
     7
 74
     5
 42
0.000000001
 43
0.0000000001
 44
0.00000001
 40
0.0
 40
0.0
 40
0.0
 40
0.0
 40
1.554614993495201
 40
3.273194262730834
 40
5.109714543305692
 40
7.007776555949148
 40
7.007776555949148
 40
7.007776555949148
 40
7.007776555949148
 10
-124.3030581111247
 20
-166.1954315601373
 30
0.0
 10
-124.7702007683389
 20
-165.9687881481358
 30
0.0
 10
-125.7537553342514
 20
-165.4915973985667
 30
0.0
 10
-127.4058562768311
 20
-165.0464147992199
 30
0.0
 10
-129.2020099779471
 20
-164.7441228759465
 30
0.0
 10
-130.4477999869247
 20
-164.7073515152422
 30
0.0
 10
-131.0809596036969
 20
-164.6886628670305
 30
0.0
 11
-124.3030581111247
 21
-166.1954315601373
 31
0.0
 11
-125.7213488287318
 21
-165.5588161177835
 31
0.0
 11
-127.3727516058445
 21
-165.0830182843585
 31
0.0
 11
-129.1855359776536
 21
-164.7887062616904
 31
0.0
 11
-131.0809596036969
 21
-164.6886628670305
 31
0.0
  0
SPLINE
  5
AB
330
47
100
AcDbEntity
  8
0
  6
Continuous
 62
     7
100
AcDbSpline
210
0.0
220
0.0
230
1.0
 70
     8
 71
     3
 72
    23
 73
    19
 74
    17
 42
0.000000001
 43
0.0000000001
 44
0.00000001
 40
0.0
 40
0.0
 40
0.0
 40
0.0
 40
0.9091925989335528
 40
1.912480935931366
 40
3.069677972151402
 40
4.401427914399128
 40
5.89936270867719
 40
7.535902221910341
 40
9.271061887986095
 40
11.05732484849045
 40
12.8435878089948
 40
14.57874747507055
 40
16.2152869883037
 40
17.71322178258173
 40
19.04497172482946
 40
20.20216876104948
 40
21.20545709804729
 40
22.11464969698084
 40
22.11464969698084
 40
22.11464969698084
 40
22.11464969698084
 10
-121.9430581111247
 20
-163.1297016307403
 30
0.0
 10
-121.9800918363813
 20
-163.43412142599
 30
0.0
 10
-122.0579920619651
 20
-164.074466552763
 30
0.0
 10
-122.6419411872798
 20
-164.9516444169631
 30
0.0
 10
-123.5050323109436
 20
-165.7386269503605
 30
0.0
 10
-124.6561896591658
 20
-166.4203679211543
 30
0.0
 10
-126.0409548826823
 20
-166.9774010614153
 30
0.0
 10
-127.6146643816088
 20
-167.3907523473755
 30
0.0
 10
-129.3180752577325
 20
-167.6452014040027
 30
0.0
 10
-131.0880581111248
 20
-167.7311153561392
 30
0.0
 10
-132.858040964517
 20
-167.6452014040027
 30
0.0
 10
-134.5614518406407
 20
-167.3907523473754
 30
0.0
 10
-136.1351613395672
 20
-166.9774010614155
 30
0.0
 10
-137.5199265630836
 20
-166.4203679211543
 30
0.0
 10
-138.6710839113058
 20
-165.7386269503606
 30
0.0
 10
-139.5341750349697
 20
-164.951644416963
 30
0.0
 10
-140.1181241602844
 20
-164.0744665527631
 30
0.0
 10
-140.1960243858681
 20
-163.43412142599
 30
0.0
 10
-140.2330581111247
 20
-163.1297016307403
 30
0.0
 11
-121.9430581111247
 21
-163.1297016307403
 31
0.0
 11
-122.1187771472559
 21
-164.0217520858486
 31
0.0
 11
-122.639179786309
 21
-164.8795216252297
 31
0.0
 11
-123.4842688672706
 21
-165.6700464007322
 31
0.0
 11
-124.6215665971737
 21
-166.3629473877158
 31
0.0
 11
-126.0073685711409
 21
-166.9315962526674
 31
0.0
 11
-127.588418122146
 21
-167.3541407931482
 31
0.0
 11
-129.3039572009083
 21
-167.6143421126746
 31
0.0
 11
-131.0880581111248
 21
-167.7022016307403
 31
0.0
 11
-132.8721590213412
 21
-167.6143421126747
 31
0.0
 11
-134.5876981001035
 21
-167.3541407931482
 31
0.0
 11
-136.1687476511086
 21
-166.9315962526674
 31
0.0
 11
-137.5545496250757
 21
-166.3629473877158
 31
0.0
 11
-138.6918473549789
 21
-165.6700464007322
 31
0.0
 11
-139.5369364359404
 21
-164.8795216252297
 31
0.0
 11
-140.0573390749935
 21
-164.0217520858486
 31
0.0
 11
-140.2330581111247
 21
-163.1297016307403
 31
0.0
  0
SPLINE
  5
AC
330
47
100
AcDbEntity
  8
0
  6
Continuous
 62
     7
100
AcDbSpline
210
0.0
220
0.0
230
1.0
 70
     8
 71
     3
 72
    57
 73
    53
 74
    51
 42
0.000000001
 43
0.0000000001
 44
0.00000001
 40
0.0
 40
0.0
 40
0.0
 40
0.0
 40
0.1436894056806265
 40
0.2897602521372725
 40
0.4430535312486195
 40
0.5841104923749566
 40
0.7306247464612616
 40
0.8849653625744529
 40
1.029067344683086
 40
1.193004298216801
 40
1.47639835564572
 40
1.82421266880884
 40
2.155318478974818
 40
2.471035552719272
 40
3.13609914977572
 40
3.781719465637008
 40
4.437888464104061
 40
5.106928671584024
 40
5.758017044012437
 40
6.431924883793142
 40
7.077725223194058
 40
7.758120861232194
 40
8.381683374022021
 40
9.084213569026316
 40
9.377618563157812
 40
9.747265830088558
 40
10.08408911236237
 40
10.4103197627355
 40
10.7941465037824
 40
11.0733739937268
 40
11.44311679246245
 40
11.73642583829225
 40
12.43906505324879
 40
13.06251006168457
 40
13.7427784993576
 40
14.38842812554898
 40
15.06412676446861
 40
15.7168743340617
 40
16.38536614780078
 40
17.0410169465599
 40
17.68706603517871
 40
18.35252443784493
 40
18.66759307464485
 40
18.99798219143661
 40
19.34623930054232
 40
19.62995224449206
 40
19.95082072566647
 40
20.23868754730309
 40
20.37946869413718
 40
20.53243042999172
 40
20.68753944092638
 40
20.82281564058716
 40
20.82281564058716
 40
20.82281564058716
 40
20.82281564058716
 10
-121.5733256748797
 20
-179.9571704575395
 30
0.0
 10
-121.5757869832756
 20
-179.9092630923071
 30
0.0
 10
-121.5807503796665
 20
-179.8126543666779
 30
0.0
 10
-121.6135804004427
 20
-179.6679773253781
 30
0.0
 10
-121.6632864629865
 20
-179.5295153156214
 30
0.0
 10
-121.7291953769986
 20
-179.3978302954254
 30
0.0
 10
-121.8082582691569
 20
-179.2732754488438
 30
0.0
 10
-121.8993273828729
 20
-179.1559438261952
 30
0.0
 10
-122.0035223825756
 20
-179.0421891977522
 30
0.0
 10
-122.147215322627
 20
-178.9069603403351
 30
0.0
 10
-122.3567404598178
 20
-178.7437652986598
 30
0.0
 10
-122.6294660533891
 20
-178.5738490747103
 30
0.0
 10
-122.9253773303184
 20
-178.4236239392329
 30
0.0
 10
-123.3280078497044
 20
-178.2523684901454
 30
0.0
 10
-123.844013731387
 20
-178.0828792898921
 30
0.0
 10
-124.4817971745001
 20
-177.9291076482308
 30
0.0
 10
-125.1289122859036
 20
-177.8140266769529
 30
0.0
 10
-125.7824014707085
 20
-177.729369477899
 30
0.0
 10
-126.4443266480161
 20
-177.6677776419513
 30
0.0
 10
-127.0999391731486
 20
-177.6251283597957
 30
0.0
 10
-127.7660229258829
 20
-177.5956915520754
 30
0.0
 10
-128.4156951684228
 20
-177.5770606425161
 30
0.0
 10
-129.0844246207733
 20
-177.5650763831624
 30
0.0
 10
-129.6242332031135
 20
-177.5595412476171
 30
0.0
 10
-130.0794178924725
 20
-177.5565970862541
 30
0.0
 10
-130.4127069933782
 20
-177.55516236542
 30
0.0
 10
-130.756939891839
 20
-177.554340474364
 30
0.0
 10
-131.1059001456996
 20
-177.5540715608857
 30
0.0
 10
-131.4356618484046
 20
-177.5543653143448
 30
0.0
 10
-131.7799265071782
 20
-177.5552356599999
 30
0.0
 10
-132.0940170600085
 20
-177.5565829830811
 30
0.0
 10
-132.5492380015129
 20
-177.5595187876038
 30
0.0
 10
-133.0890119019487
 20
-177.5650402121611
 30
0.0
 10
-133.7576965424381
 20
-177.5769991513983
 30
0.0
 10
-134.4072379906239
 20
-177.5955908941801
 30
0.0
 10
-135.0738277546063
 20
-177.6249972745224
 30
0.0
 10
-135.7305414971618
 20
-177.6676647099551
 30
0.0
 10
-136.3934319371243
 20
-177.7293306366913
 30
0.0
 10
-137.0471157197946
 20
-177.8140217437501
 30
0.0
 10
-137.6940235951648
 20
-177.9290485154659
 30
0.0
 10
-138.3319138294584
 20
-178.0828150778613
 30
0.0
 10
-138.847976019112
 20
-178.2523205403848
 30
0.0
 10
-139.2503131559544
 20
-178.4234434835514
 30
0.0
 10
-139.5459667918305
 20
-178.5734725299199
 30
0.0
 10
-139.8187818993702
 20
-178.743336141647
 30
0.0
 10
-140.0698094058283
 20
-178.9387943105799
 30
0.0
 10
-140.2806026305093
 20
-179.1503277514952
 30
0.0
 10
-140.4257475864097
 20
-179.3555317019296
 30
0.0
 10
-140.512687839073
 20
-179.5292290781548
 30
0.0
 10
-140.5634140082031
 20
-179.6703153261912
 30
0.0
 10
-140.5957926712952
 20
-179.8152651559344
 30
0.0
 10
-140.6005666015911
 20
-179.9120726184553
 30
0.0
 10
-140.6027905473697
 20
-179.9571704575363
 30
0.0
 11
-121.5733256748797
 21
-179.9571704575395
 31
0.0
 11
-121.5847689593267
 21
-179.8139374387503
 31
0.0
 11
-121.6158078502853
 21
-179.6712024444836
 31
0.0
 11
-121.6675924601186
 21
-179.5269208331734
 31
0.0
 11
-121.7304145263499
 21
-179.400625725896
 31
0.0
 11
-121.8086959646207
 21
-179.2767772582769
 31
0.0
 11
-121.9030732122728
 21
-179.1546545299611
 31
0.0
 11
-122.0002399353054
 21
-179.0482402025563
 31
0.0
 11
-122.1194268825576
 21
-178.9356800132524
 31
0.0
 11
-122.3422974344199
 21
-178.7606345660654
 31
0.0
 11
-122.6367139265628
 21
-178.5754489154647
 31
0.0
 11
-122.931549292102
 21
-178.4247732225643
 31
0.0
 11
-123.2218428543313
 21
-178.3006486153469
 31
0.0
 11
-123.8525438594039
 21
-178.0896371718867
 31
0.0
 11
-124.4796831917945
 21
-177.9362688273666
 31
0.0
 11
-125.1254387938519
 21
-177.8198323380598
 31
0.0
 11
-125.7887745669218
 21
-177.7326517757718
 31
0.0
 11
-126.436979256183
 21
-177.6714410853588
 31
0.0
 11
-127.1094137075887
 21
-177.6269025168652
 31
0.0
 11
-127.7545590578542
 21
-177.597824097698
 31
0.0
 11
-128.4346596680633
 21
-177.5777895479545
 31
0.0
 11
-129.0581162682006
 21
-177.5662971947955
 31
0.0
 11
-129.7606061178819
 21
-177.5587682641835
 31
0.0
 11
-130.0540048740911
 21
-177.5568550924384
 31
0.0
 11
-130.4236486072277
 21
-177.5552388724317
 31
0.0
 11
-130.7604709040504
 21
-177.5544242770771
 31
0.0
 11
-131.0867014544349
 21
-177.5541693725232
 31
0.0
 11
-131.4705280370005
 21
-177.5545176477868
 31
0.0
 11
-131.7497546181119
 21
-177.5552299326337
 31
0.0
 11
-132.1194939077682
 21
-177.5568406983884
 31
0.0
 11
-132.412796753847
 21
-177.5587476954882
 31
0.0
 11
-133.1153958080471
 21
-177.5662599682479
 31
0.0
 11
-133.7387353532049
 21
-177.5777268364867
 31
0.0
 11
-134.4187099292914
 21
-177.5977198878329
 31
0.0
 11
-135.0637070524273
 21
-177.6267397088296
 31
0.0
 11
-135.7379317677016
 21
-177.6713455711343
 31
0.0
 11
-136.3877893220435
 21
-177.7327014817102
 31
0.0
 11
-137.0505804783921
 21
-177.8198174226023
 31
0.0
 11
-137.695829628491
 21
-177.9361424125918
 31
0.0
 11
-138.323391970103
 21
-178.0895859897683
 31
0.0
 11
-138.9544667209157
 21
-178.3007246728843
 31
0.0
 11
-139.2441670603669
 21
-178.4245873345429
 31
0.0
 11
-139.5383927102019
 21
-178.5748811639346
 31
0.0
 11
-139.8332345708213
 21
-178.7602221762896
 31
0.0
 11
-140.0563918998227
 21
-178.9354187537617
 31
0.0
 11
-140.281201761339
 21
-179.1643665816193
 31
0.0
 11
-140.4456920041678
 21
-179.400608547642
 31
0.0
 11
-140.5084064257389
 21
-179.5266491461715
 31
0.0
 11
-140.560134872895
 21
-179.670598651734
 31
0.0
 11
-140.5925523465585
 21
-179.8222822425011
 31
0.0
 11
-140.6027905473697
 21
-179.9571704575363
 31
0.0
  0
SPLINE
  5
AD
330
47
100
AcDbEntity
  8
0
  6
Continuous
 62
     7
100
AcDbSpline
210
0.0
220
0.0
230
1.0
 70
     8
 71
     3
 72
    49
 73
    45
 74
    43
 42
0.000000001
 43
0.0000000001
 44
0.00000001
 40
0.0
 40
0.0
 40
0.0
 40
0.0
 40
0.9848684520054892
 40
1.974502676510025
 40
2.879969232550426
 40
3.939787478017186
 40
4.916696332030058
 40
5.921464466342154
 40
6.877723080283804
 40
7.959937074635314
 40
9.524885788890158
 40
11.17245791007771
 40
12.06157631505792
 40
12.95598976103359
 40
13.95870092809968
 40
14.89919750130497
 40
15.7771848562404
 40
16.5961939466264
 40
17.53740885470283
 40
18.4006247082964
 40
19.34347755449427
 40
20.28995029149868
 40
21.25748270045757
 40
22.22641434077108
 40
23.25371923636865
 40
24.16287719834749
 40
25.1666501577853
 40
26.05220177868617
 40
27.81078523094997
 40
29.55291272424334
 40
30.58836517061057
 40
31.49612135522359
 40
32.43837805471355
 40
33.27965270144266
 40
34.08492214124947
 40
34.93392288112445
 40
35.68834305090257
 40
36.49368006483348
 40
37.57589405886399
 40
38.53215267242478
 40
39.59335571159472
 40
40.51382131670166
 40
42.50050314050628
 40
44.44838841648274
 40
44.44838841648274
 40
44.44838841648274
 40
44.44838841648274
 10
-147.3280581102143
 20
-169.3045192436693
 30
0.0
 10
-147.3181198968289
 20
-168.97608301349
 30
0.0
 10
-147.2981953664818
 20
-168.3176212529519
 30
0.0
 10
-147.1419229159339
 20
-167.3676868193917
 30
0.0
 10
-146.8929650907091
 20
-166.4136382547138
 30
0.0
 10
-146.5476602289166
 20
-165.4933816655838
 30
0.0
 10
-146.095505218918
 20
-164.5842818371486
 30
0.0
 10
-145.5753000603261
 20
-163.7526911895091
 30
0.0
 10
-144.9592926245268
 20
-162.9451056812641
 30
0.0
 10
-144.1449426068163
 20
-162.059774216201
 30
0.0
 10
-143.0605787937639
 20
-161.1190208332731
 30
0.0
 10
-141.9228455919522
 20
-160.3547544488719
 30
0.0
 10
-140.9219015878644
 20
-159.8003881338732
 30
0.0
 10
-140.0850051698425
 20
-159.3965706225645
 30
0.0
 10
-139.2110364383296
 20
-159.0334845061099
 30
0.0
 10
-138.3243378993929
 20
-158.7191090569715
 30
0.0
 10
-137.4826911106982
 20
-158.4640538573718
 30
0.0
 10
-136.6311333198515
 20
-158.2436696310419
 30
0.0
 10
-135.7760886203154
 20
-158.0590294055523
 30
0.0
 10
-134.8737988162566
 20
-157.9013522894752
 30
0.0
 10
-133.9643570572779
 20
-157.7780972129335
 30
0.0
 10
-133.016215155716
 20
-157.6869039476976
 30
0.0
 10
-132.0565813017535
 20
-157.6317175456654
 30
0.0
 10
-131.0686031507474
 20
-157.6128479270853
 30
0.0
 10
-130.1000602953942
 20
-157.6324592974929
 30
0.0
 10
-129.1214656168865
 20
-157.6898860026366
 30
0.0
 10
-128.1927452448454
 20
-157.7802868929884
 30
0.0
 10
-126.9877788193036
 20
-157.9450919533957
 30
0.0
 10
-125.5510374690125
 20
-158.2242638636531
 30
0.0
 10
-124.0928354908377
 20
-158.6313505688818
 30
0.0
 10
-122.9354534355122
 20
-159.0448451752579
 30
0.0
 10
-122.0478786004645
 20
-159.4164933394421
 30
0.0
 10
-121.2400129680568
 20
-159.8076998008225
 30
0.0
 10
-120.4854282587251
 20
-160.2272291476938
 30
0.0
 10
-119.7816416826872
 20
-160.671491103416
 30
0.0
 10
-119.1289407798936
 20
-161.1400021364099
 30
0.0
 10
-118.506260679719
 20
-161.6476475058515
 30
0.0
 10
-117.859598505517
 20
-162.2463410065498
 30
0.0
 10
-117.2167657727897
 20
-162.9451325789271
 30
0.0
 10
-116.5895191569963
 20
-163.7676261850974
 30
0.0
 10
-116.0708545643444
 20
-164.6008967856763
 30
0.0
 10
-115.4869660244676
 20
-165.7880738742336
 30
0.0
 10
-114.9658918117005
 20
-167.3404773352666
 30
0.0
 10
-114.8870769579747
 20
-168.6541564233071
 30
0.0
 10
-114.8480581120352
 20
-169.3045192436693
 30
0.0
 11
-147.3280581102143
 21
-169.3045192436693
 31
0.0
 11
-147.2765446842167
 21
-168.320998909926
 31
0.0
 11
-147.1218571106261
 21
-167.3435288800749
 31
0.0
 11
-146.8921563865996
 21
-166.4676822818312
 31
0.0
 11
-146.5206689396161
 21
-165.4751039263893
 31
0.0
 11
-146.0859684115435
 21
-164.6002403022858
 31
0.0
 11
-145.5536585166714
 21
-163.7480635716501
 31
0.0
 11
-144.9742127257854
 21
-162.9873579040666
 31
0.0
 11
-144.242316112774
 21
-162.1901662846648
 31
0.0
 11
-143.062458963691
 21
-161.1620604597812
 31
0.0
 11
-141.6971151528508
 21
-160.23992696954
 31
0.0
 11
-140.9196163299294
 21
-159.8086183576339
 31
0.0
 11
-140.1143185045561
 21
-159.4194258281237
 31
0.0
 11
-139.1886122540489
 21
-159.0340719355033
 31
0.0
 11
-138.3023518032824
 21
-158.7193081864185
 31
0.0
 11
-137.4622036104799
 21
-158.4643320903274
 31
0.0
 11
-136.6693796433957
 21
-158.2588909861589
 31
0.0
 11
-135.7494370513408
 21
-158.0599157860433
 31
0.0
 11
-134.8991408034441
 21
-157.9111276805873
 31
0.0
 11
-133.9648557495216
 21
-157.784309200567
 31
0.0
 11
-133.0227439455142
 21
-157.6935568476572
 31
0.0
 11
-132.0568125120849
 21
-157.6379202882921
 31
0.0
 11
-131.0880581111247
 21
-157.6193883636848
 31
0.0
 11
-130.0609645005765
 21
-157.6402224968809
 31
0.0
 11
-129.1533722767352
 21
-157.6935568476572
 31
0.0
 11
-128.1543374903138
 21
-157.7909716683938
 31
0.0
 11
-127.2769754188053
 21
-157.9111276805873
 31
0.0
 11
-125.551030198352
 21
-158.2483647644538
 31
0.0
 11
-123.873764418967
 21
-158.7193081864185
 31
0.0
 11
-122.8989083719623
 21
-159.0683317618895
 31
0.0
 11
-122.0617977176934
 21
-159.4194258281237
 31
0.0
 11
-121.2140301177145
 21
-159.8306894716186
 31
0.0
 11
-120.4790010693986
 21
-160.23992696954
 31
0.0
 11
-119.7983021257185
 21
-160.6701685518562
 31
0.0
 11
-119.1089176969707
 21
-161.1656999496816
 31
0.0
 11
-118.5244373164448
 21
-161.6427035951866
 31
0.0
 11
-117.9338001094755
 21
-162.1901662846648
 31
0.0
 11
-117.2019034964598
 21
-162.9873579040716
 31
0.0
 11
-116.622457705578
 21
-163.7480635716501
 31
0.0
 11
-116.0627188517867
 21
-164.6496423579081
 31
0.0
 11
-115.6554472826334
 21
-165.4751039263894
 31
0.0
 11
-115.0492968533235
 21
-167.3670569758191
 31
0.0
 11
-114.8480581120352
 21
-169.3045192436693
 31
0.0
  0
ENDBLK
  5
49
330
47
100
AcDbEntity
  8
0
100
AcDbBlockEnd
  0
BLOCK
  5
4C
330
4A
100
AcDbEntity
  8
0
100
AcDbBlockBegin
  2
Allg1
 70
     0
 10
-130.9999999999998
 20
-183.796838
 30
0.0
  3
Allg1
  1

  0
INSERT
  5
4B
330
4A
100
AcDbEntity
  8
0
100
AcDbBlockReference
  2
G_CCS_M25_M66N_PNES_BK-select__1
 10
-150.1175229836148
 20
-210.6505599635758
 30
0.0
  0
MTEXT
  5
AF
330
4A
100
AcDbEntity
  8
1
 62
     6
100
AcDbMText
 10
-131.1754560971509
 20
-221.8292757633856
 30
0.0
 40
5.0
 41
0.0
 71
     2
 72
     1
  1
 
  7
CONVERTER_11
 73
     1
 44
1.32052821128451
  0
ENDBLK
  5
4D
330
4A
100
AcDbEntity
  8
0
100
AcDbBlockEnd
  0
BLOCK
  5
4F
330
4E
100
AcDbEntity
  8
0
100
AcDbBlockBegin
  2
G_CCS_M25_M66N_PNES_BK-select__2
 70
     0
 10
-283.9717983615732
 20
-202.8263026821414
 30
0.0
  3
G_CCS_M25_M66N_PNES_BK-select__2
  1

  0
LINE
  5
B0
330
4E
100
AcDbEntity
  8
0
  6
Continuous
 62
     7
100
AcDbLine
 10
-251.0117983615732
 20
-174.2821053734063
 30
0.0
 11
-251.0117983615732
 21
-193.3115702458964
 31
0.0
  0
LINE
  5
B1
330
4E
100
AcDbEntity
  8
0
  6
Continuous
 62
     7
100
AcDbLine
 10
-251.0117983615732
 20
-193.3115702458964
 30
0.0
 11
-267.4917983615732
 21
-202.8263026821414
 31
0.0
  0
LINE
  5
B2
330
4E
100
AcDbEntity
  8
0
  6
Continuous
 62
     7
100
AcDbLine
 10
-283.9717983615732
 20
-174.2821053734062
 30
0.0
 11
-267.4917983615733
 21
-164.7673729371612
 31
0.0
  0
LINE
  5
B3
330
4E
100
AcDbEntity
  8
0
  6
Continuous
 62
     7
100
AcDbLine
 10
-267.4917983615732
 20
-202.8263026821414
 30
0.0
 11
-283.9717983615732
 21
-193.3115702458963
 31
0.0
  0
LINE
  5
B4
330
4E
100
AcDbEntity
  8
0
  6
Continuous
 62
     7
100
AcDbLine
 10
-283.9717983615732
 20
-193.3115702458963
 30
0.0
 11
-283.9717983615732
 21
-174.2821053734062
 31
0.0
  0
LINE
  5
B5
330
4E
100
AcDbEntity
  8
0
  6
Continuous
 62
     7
100
AcDbLine
 10
-267.4917983615733
 20
-164.7673729371612
 30
0.0
 11
-251.0117983615732
 21
-174.2821053734063
 31
0.0
  0
LINE
  5
B6
330
4E
100
AcDbEntity
  8
1
  6
DOT_CENTER
 62
     2
100
AcDbLine
 10
-257.4322983615733
 20
-183.7968378096513
 30
0.0
 11
-277.5512983615732
 21
-183.7968378096513
 31
0.0
  0
LINE
  5
B7
330
4E
100
AcDbEntity
  8
1
  6
DOT_CENTER
 62
     2
100
AcDbLine
 10
-267.4917983615732
 20
-173.7373378096513
 30
0.0
 11
-267.4917983615732
 21
-193.8563378096513
 31
0.0
  0
CIRCLE
  5
B8
330
4E
100
AcDbEntity
  8
0
  6
Continuous
 62
     7
100
AcDbCircle
 10
-267.4917983615732
 20
-183.7968378096513
 30
0.0
 40
3.000000000000044
  0
CIRCLE
  5
B9
330
4E
100
AcDbEntity
  8
0
  6
Continuous
 62
     7
100
AcDbCircle
 10
-267.4917983615732
 20
-183.7968378096513
 30
0.0
 40
9.144999999999994
  0
CIRCLE
  5
BA
330
4E
100
AcDbEntity
  8
0
  6
Continuous
 62
     7
100
AcDbCircle
 10
-267.4917983615732
 20
-183.7968378096513
 30
0.0
 40
16.24000000000007
  0
ENDBLK
  5
50
330
4E
100
AcDbEntity
  8
0
100
AcDbBlockEnd
  0
BLOCK
  5
53
330
51
100
AcDbEntity
  8
0
100
AcDbBlockBegin
  2
Drfsicht1
 70
     0
 10
-267.593479
 20
-183.796838
 30
0.0
  3
Drfsicht1
  1

  0
INSERT
  5
52
330
51
100
AcDbEntity
  8
0
100
AcDbBlockReference
  2
G_CCS_M25_M66N_PNES_BK-select__2
 10
-283.9717983615732
 20
-202.8263026821414
 30
0.0
  0
MTEXT
  5
BB
330
51
100
AcDbEntity
  8
1
 62
     6
100
AcDbMText
 10
-267.4414071083388
 20
-212.5836429155273
 30
0.0
 40
5.0
 41
0.0
 71
     2
 72
     1
  1
 
  7
CONVERTER_11
 73
     1
 44
1.32052821128451
  0
DIMENSION
  5
C6
330
51
100
AcDbEntity
  8
1
100
AcDbDimension
  2
*D17
 10
-293.9717983615732
 20
-164.7673729371612
 30
0.0
 11
-297.3967983615732
 21
-183.7968378096513
 31
0.0
 70
    32
  1
<>
 71
     5
 42
-1.0
 53
90.0
  3
ME10_DIM_10
100
AcDbAlignedDimension
 13
-267.4917983615732
 23
-202.8263026821414
 33
0.0
 14
-267.4917983615733
 24
-164.7673729371612
 34
0.0
 50
90.0
100
AcDbRotatedDimension
  0
ENDBLK
  5
54
330
51
100
AcDbEntity
  8
0
100
AcDbBlockEnd
  0
BLOCK
  5
56
330
55
100
AcDbEntity
  8
0
100
AcDbBlockBegin
  2
G_CCS_M25_M66N_PNES_BK-select__3
 70
     0
 10
-146.5816806384268
 20
-129.8349990844676
 30
0.0
  3
G_CCS_M25_M66N_PNES_BK-select__3
  1

  0
LINE
  5
C7
330
55
100
AcDbEntity
  8
0
  6
Continuous
 62
     7
100
AcDbLine
 10
-113.6216806384268
 20
-89.30620731047757
 30
0.0
 11
-113.6216806384268
 21
-92.08095396208769
 31
0.0
  0
LINE
  5
C8
330
55
100
AcDbEntity
  8
0
  6
Continuous
 62
     7
100
AcDbLine
 10
-146.5816806384268
 20
-92.08095396208387
 30
0.0
 11
-146.5816806384268
 21
-89.30620731047757
 31
0.0
  0
LINE
  5
C9
330
55
100
AcDbEntity
  8
0
  6
Continuous
 62
     7
100
AcDbLine
 10
-113.8616806389443
 20
-89.29499908446569
 30
0.0
 11
-146.3416806379093
 21
-89.29499908446569
 31
0.0
  0
LINE
  5
CA
330
55
100
AcDbEntity
  8
0
  6
Continuous
 62
     7
100
AcDbLine
 10
-144.4616806384268
 20
-113.4549990844676
 30
0.0
 11
-146.4366917909483
 21
-113.4549990844676
 31
0.0
  0
LINE
  5
CB
330
55
100
AcDbEntity
  8
0
  6
Continuous
 62
     7
100
AcDbLine
 10
-113.7666694859053
 20
-113.4549990844676
 30
0.0
 11
-115.7416806384268
 21
-113.4549990844676
 31
0.0
  0
LINE
  5
CC
330
55
100
AcDbEntity
  8
0
  6
Continuous
 62
     7
100
AcDbLine
 10
-115.7416806384268
 20
-113.4549990844676
 30
0.0
 11
-130.1016806384268
 21
-113.4549990844676
 31
0.0
  0
LINE
  5
CD
330
55
100
AcDbEntity
  8
0
  6
Continuous
 62
     7
100
AcDbLine
 10
-130.1016806384268
 20
-113.4549990844676
 30
0.0
 11
-144.4616806384268
 21
-113.4549990844676
 31
0.0
  0
LINE
  5
CE
330
55
100
AcDbEntity
  8
0
  6
Continuous
 62
     7
100
AcDbLine
 10
-130.1016806384267
 20
-104.6249990844676
 30
0.0
 11
-144.4616806384268
 21
-104.6249990844676
 31
0.0
  0
LINE
  5
CF
330
55
100
AcDbEntity
  8
0
  6
Continuous
 62
     7
100
AcDbLine
 10
-115.7416806384268
 20
-104.6249990844676
 30
0.0
 11
-130.1016806384267
 21
-104.6249990844676
 31
0.0
  0
LINE
  5
D0
330
55
100
AcDbEntity
  8
0
  6
Continuous
 62
     7
100
AcDbLine
 10
-130.1016806384268
 20
-119.8349990844676
 30
0.0
 11
-130.1016806384268
 21
-113.4549990844676
 31
0.0
  0
LINE
  5
D1
330
55
100
AcDbEntity
  8
0
  6
Continuous
 62
     7
100
AcDbLine
 10
-117.7406806384268
 20
-119.8349990844676
 30
0.0
 11
-130.1016806384268
 21
-119.8349990844676
 31
0.0
  0
LINE
  5
D2
330
55
100
AcDbEntity
  8
0
  6
Continuous
 62
     7
100
AcDbLine
 10
-130.1016806384268
 20
-119.8349990844676
 30
0.0
 11
-142.4626806384268
 21
-119.8349990844676
 31
0.0
  0
LINE
  5
D3
330
55
100
AcDbEntity
  8
0
  6
Continuous
 62
     7
100
AcDbLine
 10
-113.6216806384268
 20
-104.6249990844676
 30
0.0
 11
-115.7416806384268
 21
-104.6249990844676
 31
0.0
  0
LINE
  5
D4
330
55
100
AcDbEntity
  8
0
  6
Continuous
 62
     7
100
AcDbLine
 10
-113.7666694859053
 20
-119.8349990844676
 30
0.0
 11
-113.7666694859053
 21
-113.4549990844676
 31
0.0
  0
LINE
  5
D5
330
55
100
AcDbEntity
  8
0
  6
Continuous
 62
     7
100
AcDbLine
 10
-113.7666694859053
 20
-119.8349990844676
 30
0.0
 11
-117.7406806384268
 21
-119.8349990844676
 31
0.0
  0
LINE
  5
D6
330
55
100
AcDbEntity
  8
0
  6
Continuous
 62
     7
100
AcDbLine
 10
-113.6216806384268
 20
-92.08095396208769
 30
0.0
 11
-113.6216806384268
 21
-104.6249990844676
 31
0.0
  0
LINE
  5
D7
330
55
100
AcDbEntity
  8
0
  6
Continuous
 62
     7
100
AcDbLine
 10
-117.7406806384268
 20
-129.8349990844676
 30
0.0
 11
-119.389525800083
 21
-129.8349990844676
 31
0.0
  0
LINE
  5
D8
330
55
100
AcDbEntity
  8
0
  6
Continuous
 62
     7
100
AcDbLine
 10
-119.389525800083
 20
-129.8349990844676
 30
0.0
 11
-142.4626806384268
 21
-129.8349990844676
 31
0.0
  0
LINE
  5
D9
330
55
100
AcDbEntity
  8
0
  6
Continuous
 62
     7
100
AcDbLine
 10
-144.4616806384268
 20
-104.6249990844676
 30
0.0
 11
-146.5816806384268
 21
-104.6249990844676
 31
0.0
  0
LINE
  5
DA
330
55
100
AcDbEntity
  8
0
  6
Continuous
 62
     7
100
AcDbLine
 10
-142.4626806384268
 20
-119.8349990844676
 30
0.0
 11
-146.4366917909483
 21
-119.8349990844676
 31
0.0
  0
LINE
  5
DB
330
55
100
AcDbEntity
  8
0
  6
Continuous
 62
     7
100
AcDbLine
 10
-142.4626806384268
 20
-119.8349990844676
 30
0.0
 11
-142.4626806384268
 21
-129.8349990844676
 31
0.0
  0
LINE
  5
DC
330
55
100
AcDbEntity
  8
0
  6
Continuous
 62
     7
100
AcDbLine
 10
-146.4366917909483
 20
-119.8349990844676
 30
0.0
 11
-146.4366917909483
 21
-113.4549990844676
 31
0.0
  0
LINE
  5
DD
330
55
100
AcDbEntity
  8
0
  6
Continuous
 62
     7
100
AcDbLine
 10
-144.4616806384268
 20
-104.6249990844676
 30
0.0
 11
-144.4616806384268
 21
-113.4549990844676
 31
0.0
  0
LINE
  5
DE
330
55
100
AcDbEntity
  8
0
  6
Continuous
 62
     7
100
AcDbLine
 10
-146.5816806384268
 20
-92.08095396208387
 30
0.0
 11
-146.5816806384268
 21
-104.6249990844676
 31
0.0
  0
LINE
  5
DF
330
55
100
AcDbEntity
  8
0
  6
Continuous
 62
     7
100
AcDbLine
 10
-120.9566806384268
 20
-82.16499908446764
 30
0.0
 11
-139.2466806384268
 21
-82.16499908446764
 31
0.0
  0
LINE
  5
E0
330
55
100
AcDbEntity
  8
0
  6
Continuous
 62
     7
100
AcDbLine
 10
-117.7406806384268
 20
-119.8349990844676
 30
0.0
 11
-117.7406806384268
 21
-129.8349990844676
 31
0.0
  0
LINE
  5
E1
330
55
100
AcDbEntity
  8
0
  6
Continuous
 62
     7
100
AcDbLine
 10
-115.7416806384268
 20
-104.6249990844676
 30
0.0
 11
-115.7416806384268
 21
-113.4549990844676
 31
0.0
  0
LINE
  5
E2
330
55
100
AcDbEntity
  8
0
  6
Continuous
 62
     7
100
AcDbLine
 10
-130.1016806384267
 20
-92.08095396208387
 30
0.0
 11
-130.1016806384267
 21
-104.6249990844676
 31
0.0
  0
LINE
  5
E3
330
55
100
AcDbEntity
  8
1
  6
DOT_CENTER
 62
     2
100
AcDbLine
 10
-130.1016806384267
 20
-104.6249990844676
 30
0.0
 11
-130.1016806384268
 21
-113.4549990844676
 31
0.0
  0
LINE
  5
E4
330
55
100
AcDbEntity
  8
1
  6
DOT_CENTER
 62
     2
100
AcDbLine
 10
-130.1016806384268
 20
-119.8349990844676
 30
0.0
 11
-130.1016806384268
 21
-129.8349990844676
 31
0.0
  0
ARC
  5
E5
330
55
100
AcDbEntity
  8
0
  6
Continuous
 62
     7
100
AcDbCircle
 10
-113.8721806384268
 20
-92.09497939689841
 30
0.0
 40
2.800000000000003
100
AcDbArc
 50
84.86721140094566
 51
89.78514033383632
  0
ARC
  5
E6
330
55
100
AcDbEntity
  8
0
  6
Continuous
 62
     7
100
AcDbCircle
 10
-146.3311806384268
 20
-92.09497939689841
 30
0.0
 40
2.799999999999997
100
AcDbArc
 50
90.21485966616397
 51
95.13278859905462
  0
ARC
  5
E7
330
55
100
AcDbEntity
  8
0
  6
Continuous
 62
     7
100
AcDbCircle
 10
-120.9916806384268
 20
-89.29491317932178
 30
0.0
 40
7.130000000000003
100
AcDbArc
 50
359.999309677113
 51
89.71874329077647
  0
ARC
  5
E8
330
55
100
AcDbEntity
  8
0
  6
Continuous
 62
     7
100
AcDbCircle
 10
-139.2116806384268
 20
-89.29491317932178
 30
0.0
 40
7.129999999999985
100
AcDbArc
 50
90.28125670922353
 51
180.000690322887
  0
SPLINE
  5
E9
330
55
100
AcDbEntity
  8
0
  6
Continuous
 62
     7
100
AcDbSpline
210
0.0
220
0.0
230
1.0
 70
     8
 71
     3
 72
    51
 73
    47
 74
    45
 42
0.000000001
 43
0.0000000001
 44
0.00000001
 40
0.0
 40
0.0
 40
0.0
 40
0.0
 40
0.3253131766586591
 40
0.6600741472693175
 40
0.9412896359913989
 40
1.295755267529369
 40
1.813721604413729
 40
2.505015141527313
 40
3.103171628059919
 40
3.674362036306434
 40
4.249544169773825
 40
4.83275676672215
 40
5.398551478738423
 40
5.983162415447793
 40
6.542883010944614
 40
7.132321255613122
 40
7.672413940988562
 40
8.28084973117591
 40
8.53495014508028
 40
8.855076414770773
 40
9.096897368882418
 40
9.429298689867027
 40
9.687242570359942
 40
10.00352121701118
 40
10.32373020789365
 40
10.57774749754181
 40
11.18627757895058
 40
11.72626819845389
 40
12.31559550578552
 40
12.87518390173334
 40
13.46134606483944
 40
14.0285819501409
 40
14.61131711947644
 40
15.18604268391217
 40
15.75760823732501
 40
16.35612025018356
 40
17.04702305003855
 40
17.56479724983847
 40
17.71626228916649
 40
17.87884629189649
 40
18.04246855997687
 40
18.20132623862711
 40
18.36675080999556
 40
18.52882050222938
 40
18.68564926823945
 40
18.86221264114188
 40
18.86221264114188
 40
18.86221264114188
 40
18.86221264114188
 10
-130.1016806384267
 20
-92.08095396208387
 30
0.0
 10
-130.1090036234846
 20
-91.97240519131617
 30
0.0
 10
-130.1238622762087
 20
-91.75215516189982
 30
0.0
 10
-130.2235374786524
 20
-91.45132800348222
 30
0.0
 10
-130.371725407889
 20
-91.16303306017453
 30
0.0
 10
-130.6004734631352
 20
-90.85157331935338
 30
0.0
 10
-130.9818037961104
 20
-90.49154564901727
 30
0.0
 10
-131.4947613792289
 20
-90.16836326427855
 30
0.0
 10
-132.0637110673768
 20
-89.9182892527954
 30
0.0
 10
-132.6179763920481
 20
-89.73982107465152
 30
0.0
 10
-133.1793560546103
 20
-89.60656678215321
 30
0.0
 10
-133.7459740985115
 20
-89.50863283727726
 30
0.0
 10
-134.3196047478578
 20
-89.43743919498114
 30
0.0
 10
-134.887615334782
 20
-89.38816057530629
 30
0.0
 10
-135.4645875552539
 20
-89.35415866577289
 30
0.0
 10
-136.0272907100083
 20
-89.33264137367962
 30
0.0
 10
-136.6064589768673
 20
-89.31880206908573
 30
0.0
 10
-137.0739650146072
 20
-89.31241024910062
 30
0.0
 10
-137.4681712657589
 20
-89.30901064963106
 30
0.0
 10
-137.7401831744566
 20
-89.30744917617696
 30
0.0
 10
-138.0382977690314
 20
-89.30643874939508
 30
0.0
 10
-138.3156866024871
 20
-89.3061044410143
 30
0.0
 10
-138.6178945801785
 20
-89.30638339505937
 30
0.0
 10
-138.9160373000689
 20
-89.30729689966645
 30
0.0
 10
-139.2128679541825
 20
-89.30899426586019
 30
0.0
 10
-139.6071055906885
 20
-89.31238437754737
 30
0.0
 10
-140.0745815217055
 20
-89.31876028037378
 30
0.0
 10
-140.6537108615029
 20
-89.33257036708237
 30
0.0
 10
-141.2163005030275
 20
-89.35404240314793
 30
0.0
 10
-141.7937114059819
 20
-89.38800918253605
 30
0.0
 10
-142.3626775853223
 20
-89.43730890625433
 30
0.0
 10
-142.9371436989415
 20
-89.50858830558616
 30
0.0
 10
-143.5039257693008
 20
-89.60656024044025
 30
0.0
 10
-144.0651296074662
 20
-89.73975360625828
 30
0.0
 10
-144.6194855687039
 20
-89.9182115639382
 30
0.0
 10
-145.1885727156637
 20
-90.16835576458249
 30
0.0
 10
-145.7013390633352
 20
-90.49139933417385
 30
0.0
 10
-146.0333332263935
 20
-90.80474781296542
 30
0.0
 10
-146.2067617520882
 20
-91.02129827441077
 30
0.0
 10
-146.2974251803731
 20
-91.1523785062824
 30
0.0
 10
-146.3787941391702
 20
-91.29230985079478
 30
0.0
 10
-146.4486711909285
 20
-91.43937038092767
 30
0.0
 10
-146.5051930059576
 20
-91.5915913318384
 30
0.0
 10
-146.5466502321993
 20
-91.7478074838453
 30
0.0
 10
-146.5748701919763
 20
-91.91093341491538
 30
0.0
 10
-146.57932263967
 20
-92.02208725564725
 30
0.0
 10
-146.5816806384268
 20
-92.08095396208387
 30
0.0
 11
-130.1016806384267
 21
-92.08095396208387
 31
0.0
 11
-130.1370180409706
 21
-91.7575657475417
 31
0.0
 11
-130.2377235744501
 21
-91.43831146082638
 31
0.0
 11
-130.3662105346428
 21
-91.18816500100738
 31
0.0
 11
-130.5746181573153
 21
-90.90143839611756
 31
0.0
 11
-130.9483989284219
 21
-90.54286196073411
 31
0.0
 11
-131.5293383944095
 21
-90.1681672990695
 31
0.0
 11
-132.075608519726
 21
-89.92448691132132
 31
0.0
 11
-132.6186600805574
 21
-89.7474177617148
 31
0.0
 11
-133.1779073584923
 21
-89.61296714698233
 31
0.0
 11
-133.7523664672926
 21
-89.5123010426154
 31
0.0
 11
-134.3137290749258
 21
-89.44162093243955
 31
0.0
 11
-134.896073512342
 21
-89.39019231642297
 31
0.0
 11
-135.4547860834874
 21
-89.35661543508003
 31
0.0
 11
-136.0437701803756
 21
-89.33348154478047
 31
0.0
 11
-136.5836998136097
 21
-89.32021131116568
 31
0.0
 11
-137.192073489976
 21
-89.31151765816955
 31
0.0
 11
-137.4461643002286
 21
-89.30930851747678
 31
0.0
 11
-137.7662851295378
 21
-89.30744226761361
 31
0.0
 11
-138.0081046690745
 21
-89.30661523989431
 31
0.0
 11
-138.3405057392708
 21
-89.30620731549345
 31
0.0
 11
-138.5984495069623
 21
-89.30644814563418
 31
0.0
 11
-138.9147266230746
 21
-89.30743194482403
 31
0.0
 11
-139.234930211631
 21
-89.30929189669564
 31
0.0
 11
-139.4889379564002
 21
-89.31149390748637
 31
0.0
 11
-140.0974062081507
 21
-89.32016832569714
 31
0.0
 11
-140.6372344673027
 21
-89.33340913181499
 31
0.0
 11
-141.2261094218323
 21
-89.35649510423221
 31
0.0
 11
-141.7846936181225
 21
-89.39000432189926
 31
0.0
 11
-142.3685884542493
 21
-89.44151064056004
 31
0.0
 11
-142.9313825003126
 21
-89.51235843808969
 31
0.0
 11
-143.5053699815198
 21
-89.61294992914299
 31
0.0
 11
-144.0641786348699
 21
-89.74727179050707
 31
0.0
 11
-144.6075964611358
 21
-89.92442778673758
 31
0.0
 11
-145.1541903310548
 21
-90.16825512275045
 31
0.0
 11
-145.7348032874985
 21
-90.54273512483263
 31
0.0
 11
-146.1084855290578
 21
-90.90113671964565
 31
0.0
 11
-146.2030782669661
 21
-91.0194324167652
 31
0.0
 11
-146.2954409946682
 21
-91.15323332979625
 31
0.0
 11
-146.377556887305
 21
-91.29475798001783
 31
0.0
 11
-146.4456293091107
 21
-91.43829162509445
 31
0.0
 11
-146.5030244940402
 21
-91.59344020321325
 31
0.0
 11
-146.5447397407162
 21
-91.75004934363976
 31
0.0
 11
-146.5705295378231
 21
-91.90474306249888
 31
0.0
 11
-146.5816806384268
 21
-92.08095396208387
 31
0.0
  0
SPLINE
  5
EA
330
55
100
AcDbEntity
  8
0
  6
Continuous
 62
     7
100
AcDbSpline
210
0.0
220
0.0
230
1.0
 70
     8
 71
     3
 72
    53
 73
    49
 74
    47
 42
0.000000001
 43
0.0000000001
 44
0.00000001
 40
0.0
 40
0.0
 40
0.0
 40
0.0
 40
0.1556995850846822
 40
0.332680223541166
 40
0.495089240248836
 40
0.66086536832321
 40
0.9420808536407013
 40
1.296546487925225
 40
1.590344602491288
 40
1.908795643203307
 40
2.217793747457924
 40
2.507160509115169
 40
3.105316995596922
 40
3.67650740380379
 40
4.251689537248139
 40
4.834902134162148
 40
5.400696846150452
 40
5.985307782857872
 40
6.545028378360181
 40
7.134466623021243
 40
7.674559308437797
 40
8.28299509860836
 40
8.537095512573801
 40
8.857221782223883
 40
9.099042736216784
 40
9.431444057345056
 40
9.763847859290713
 40
10.00566658399139
 40
10.32587557444511
 40
10.57989286455416
 40
11.18842294614445
 40
11.72841356553264
 40
12.31774087228236
 40
12.87732926888264
 40
13.46349143289686
 40
14.03072731734582
 40
14.61346248669682
 40
15.18818805116622
 40
15.75975360469873
 40
16.35826561747538
 40
17.04916841698775
 40
17.56694261716075
 40
17.89525776150289
 40
18.2030068709928
 40
18.35833970900028
 40
18.5304995418783
 40
18.70787991248094
 40
18.86389204742879
 40
18.86389204742879
 40
18.86389204742879
 40
18.86389204742879
 10
-113.6216806384268
 20
-92.08095396208769
 30
0.0
 10
-113.6235901498766
 20
-92.02905038327407
 30
0.0
 10
-113.6276701716368
 20
-91.91814903389466
 30
0.0
 10
-113.6548428278126
 20
-91.75488738531658
 30
0.0
 10
-113.6980519304147
 20
-91.59193921495095
 30
0.0
 10
-113.7688278460054
 20
-91.40121349436501
 30
0.0
 10
-113.8919288678225
 20
-91.1630058269156
 30
0.0
 10
-114.0760299061267
 20
-90.912059970203
 30
0.0
 10
-114.3002848598911
 20
-90.67977919157971
 30
0.0
 10
-114.537067603544
 20
-90.48330254086747
 30
0.0
 10
-114.7903224462312
 20
-90.31155502252346
 30
0.0
 10
-115.1374086899263
 20
-90.11444572282828
 30
0.0
 10
-115.583794011944
 20
-89.91825592539296
 30
0.0
 10
-116.1379544402746
 20
-89.73982989525462
 30
0.0
 10
-116.6993620507928
 20
-89.60656437304237
 30
0.0
 10
-117.2659725372066
 20
-89.50863346477162
 30
0.0
 10
-117.8396051762578
 20
-89.43743902294646
 30
0.0
 10
-118.4076152235959
 20
-89.38816062005858
 30
0.0
 10
-118.9845875858204
 20
-89.35415865344608
 30
0.0
 10
-119.5472907019408
 20
-89.33264137714151
 30
0.0
 10
-120.1264589788655
 20
-89.31880206737799
 30
0.0
 10
-120.5939650138364
 20
-89.31241025206174
 30
0.0
 10
-120.9881712657482
 20
-89.30901064527734
 30
0.0
 10
-121.2601831728183
 20
-89.3074491957157
 30
0.0
 10
-121.5582977725723
 20
-89.30643868817415
 30
0.0
 10
-121.8605065651344
 20
-89.30607485724929
 30
0.0
 10
-122.1627146204689
 20
-89.30643352905416
 30
0.0
 10
-122.4608568960173
 20
-89.30743857564761
 30
0.0
 10
-122.7328679573922
 20
-89.30899432180745
 30
0.0
 10
-123.1271055879929
 20
-89.31238434164476
 30
0.0
 10
-123.5945815223241
 20
-89.31876029155558
 30
0.0
 10
-124.1737108606923
 20
-89.33257036357848
 30
0.0
 10
-124.736300503731
 20
-89.35404240505633
 30
0.0
 10
-125.3137114022722
 20
-89.3880091780141
 30
0.0
 10
-125.8826775996971
 20
-89.43730892263525
 30
0.0
 10
-126.4571436476181
 20
-89.50858824607431
 30
0.0
 10
-127.0239259664796
 20
-89.60656046803565
 30
0.0
 10
-127.5851288849129
 20
-89.73975277225881
 30
0.0
 10
-128.1394883032873
 20
-89.91821472015137
 30
0.0
 10
-128.7085612664322
 20
-90.16834254999077
 30
0.0
 10
-129.2213837369596
 20
-90.49145089633438
 30
0.0
 10
-129.5963978114025
 20
-90.84537223886485
 30
0.0
 10
-129.8264389197013
 20
-91.1552656656152
 30
0.0
 10
-129.9498246811944
 20
-91.38980911900921
 30
0.0
 10
-130.0241455672898
 20
-91.58835882035393
 30
0.0
 10
-130.067874699698
 20
-91.7511057816237
 30
0.0
 10
-130.0956676701852
 20
-91.91780648123526
 30
0.0
 10
-130.0997638298539
 20
-92.02894590001999
 30
0.0
 10
-130.1016806384267
 20
-92.08095396208387
 30
0.0
 11
-113.6216806384268
 21
-92.08095396208769
 31
0.0
 11
-113.6305149104969
 21
-91.92550519397321
 31
0.0
 11
-113.658471281536
 21
-91.75074654345278
 31
0.0
 11
-113.700223758631
 21
-91.5937961725019
 31
0.0
 11
-113.7577235744538
 21
-91.4383114608297
 31
0.0
 11
-113.886210533117
 21
-91.1881650035235
 31
0.0
 11
-114.0946181573132
 21
-90.90143839612008
 31
0.0
 11
-114.2980973075878
 21
-90.68951018391373
 31
0.0
 11
-114.5426018784703
 21
-90.48547935356369
 31
0.0
 11
-114.7979547223991
 21
-90.3114829364286
 31
0.0
 11
-115.0493383944069
 21
-90.16816729907089
 31
0.0
 11
-115.595608519724
 21
-89.92448691132209
 31
0.0
 11
-116.1386600805549
 21
-89.74741776171552
 31
0.0
 11
-116.6979073584986
 21
-89.61296714698108
 31
0.0
 11
-117.2723664672903
 21
-89.51230104261577
 31
0.0
 11
-117.8337290749138
 21
-89.44162093244084
 31
0.0
 11
-118.4160735123398
 21
-89.39019231642314
 31
0.0
 11
-118.9747860834952
 21
-89.35661543507966
 31
0.0
 11
-119.5637701803736
 21
-89.33348154478054
 31
0.0
 11
-120.1036998136405
 21
-89.3202113111651
 31
0.0
 11
-120.7120734899743
 21
-89.31151765816958
 31
0.0
 11
-120.9661643002795
 21
-89.30930851747641
 31
0.0
 11
-121.2862851295363
 21
-89.30744226761362
 31
0.0
 11
-121.5281046689442
 21
-89.30661523989467
 31
0.0
 11
-121.8605057392692
 21
-89.30620731549345
 31
0.0
 11
-122.1929092974452
 21
-89.30660946909619
 31
0.0
 11
-122.4347266230731
 21
-89.30743194482403
 31
0.0
 11
-122.7549302111836
 21
-89.30929189669237
 31
0.0
 11
-123.0089379563995
 21
-89.31149390748635
 31
0.0
 11
-123.6174062082964
 21
-89.32016832569985
 31
0.0
 11
-124.1572344673015
 21
-89.33340913181496
 31
0.0
 11
-124.7461094212154
 21
-89.35649510420214
 31
0.0
 11
-125.3046936181256
 21
-89.3900043218992
 31
0.0
 11
-125.8885884551243
 21
-89.44151064065251
 31
0.0
 11
-126.4513825003117
 21
-89.51235843808959
 31
0.0
 11
-127.0253699815085
 21
-89.6129499291407
 31
0.0
 11
-127.5841786348693
 21
-89.74727179050691
 31
0.0
 11
-128.1275964612288
 21
-89.92442778677247
 31
0.0
 11
-128.6741903310544
 21
-90.16825512275027
 31
0.0
 11
-129.2548032872159
 21
-90.54273512460581
 31
0.0
 11
-129.6284855290576
 21
-90.9011367196455
 31
0.0
 11
-129.8231739484519
 21
-91.16549869267418
 31
0.0
 11
-129.9656293091223
 21
-91.43829162509435
 31
0.0
 11
-130.0199384364362
 21
-91.5838210346003
 31
0.0
 11
-130.0647397407161
 21
-91.75004934363972
 31
0.0
 11
-130.0928136259897
 21
-91.92519400117426
 31
0.0
 11
-130.1016806384267
 21
-92.08095396208387
 31
0.0
  0
ENDBLK
  5
57
330
55
100
AcDbEntity
  8
0
100
AcDbBlockEnd
  0
BLOCK
  5
5A
330
58
100
AcDbEntity
  8
0
100
AcDbBlockBegin
  2
Rckans1
 70
     0
 10
-130.0
 20
-106.0
 30
0.0
  3
Rckans1
  1

  0
INSERT
  5
59
330
58
100
AcDbEntity
  8
0
100
AcDbBlockReference
  2
G_CCS_M25_M66N_PNES_BK-select__3
 10
-146.5816806384268
 20
-129.8349990844676
 30
0.0
  0
MTEXT
  5
EB
330
58
100
AcDbEntity
  8
1
 62
     6
100
AcDbMText
 10
-130.152071978492
 20
-134.8349990844677
 30
0.0
 40
5.0
 41
0.0
 71
     2
 72
     1
  1
 
  7
CONVERTER_11
 73
     1
 44
1.32052821128451
  0
ENDBLK
  5
5B
330
58
100
AcDbEntity
  8
0
100
AcDbBlockEnd
  0
BLOCK
  5
5D
330
5C
100
AcDbEntity
  8
0
100
AcDbBlockBegin
  2
G_CCS_M25_M66N_PNES_BK-select__4
 70
     0
 10
-217.7386870628388
 20
-129.8349990844676
 30
0.0
  3
G_CCS_M25_M66N_PNES_BK-select__4
  1

  0
LINE
  5
EC
330
5C
100
AcDbEntity
  8
0
  6
Continuous
 62
     7
100
AcDbLine
 10
-217.5712683625963
 20
-119.8349990844676
 30
0.0
 11
-217.5712683625963
 21
-113.4549990844676
 31
0.0
  0
LINE
  5
ED
330
5C
100
AcDbEntity
  8
0
  6
Continuous
 62
     7
100
AcDbLine
 10
-217.7386870628388
 20
-92.0809539620839
 30
0.0
 11
-217.7386870628388
 21
-104.6249990844676
 31
0.0
  0
LINE
  5
EE
330
5C
100
AcDbEntity
  8
0
  6
Continuous
 62
     7
100
AcDbLine
 10
-182.4692221908662
 20
-89.29499908446567
 30
0.0
 11
-214.9492221898312
 21
-89.2949990844657
 31
0.0
  0
LINE
  5
EF
330
5C
100
AcDbEntity
  8
0
  6
Continuous
 62
     7
100
AcDbLine
 10
-211.0702221903487
 20
-119.8349990844676
 30
0.0
 11
-217.5712683625963
 21
-119.8349990844676
 31
0.0
  0
LINE
  5
F0
330
5C
100
AcDbEntity
  8
0
  6
Continuous
 62
     7
100
AcDbLine
 10
-208.1402452764725
 20
-119.8349990844676
 30
0.0
 11
-211.0702221903487
 21
-119.8349990844676
 31
0.0
  0
LINE
  5
F1
330
5C
100
AcDbEntity
  8
0
  6
Continuous
 62
     7
100
AcDbLine
 10
-189.2781991042249
 20
-119.8349990844676
 30
0.0
 11
-208.1402452764725
 21
-119.8349990844676
 31
0.0
  0
LINE
  5
F2
330
5C
100
AcDbEntity
  8
0
  6
Continuous
 62
     7
100
AcDbLine
 10
-179.6797573178587
 20
-104.6249990844676
 30
0.0
 11
-184.3492221903487
 21
-104.6249990844676
 31
0.0
  0
LINE
  5
F3
330
5C
100
AcDbEntity
  8
0
  6
Continuous
 62
     7
100
AcDbLine
 10
-179.6797573178587
 20
-104.6249990844676
 30
0.0
 11
-179.6797573178587
 21
-92.08095396208279
 31
0.0
  0
LINE
  5
F4
330
5C
100
AcDbEntity
  8
0
  6
Continuous
 62
     7
100
AcDbLine
 10
-184.3492221903487
 20
-104.6249990844676
 30
0.0
 11
-189.1944897541037
 21
-104.6249990844676
 31
0.0
  0
LINE
  5
F5
330
5C
100
AcDbEntity
  8
0
  6
Continuous
 62
     7
100
AcDbLine
 10
-189.1944897541037
 20
-92.08095396208273
 30
0.0
 11
-189.1944897541037
 21
-104.6249990844676
 31
0.0
  0
LINE
  5
F6
330
5C
100
AcDbEntity
  8
0
  6
Continuous
 62
     7
100
AcDbLine
 10
-189.5642221903487
 20
-82.16499908446762
 30
0.0
 11
-207.8542221903487
 21
-82.16499908446764
 31
0.0
  0
LINE
  5
F7
330
5C
100
AcDbEntity
  8
0
  6
Continuous
 62
     7
100
AcDbLine
 10
-204.8772088731609
 20
-129.8349990844676
 30
0.0
 11
-211.0702221903487
 21
-129.8349990844676
 31
0.0
  0
LINE
  5
F8
330
5C
100
AcDbEntity
  8
0
  6
Continuous
 62
     7
100
AcDbLine
 10
-186.3482221903487
 20
-129.8349990844676
 30
0.0
 11
-204.8772088731609
 21
-129.8349990844676
 31
0.0
  0
LINE
  5
F9
330
5C
100
AcDbEntity
  8
0
  6
Continuous
 62
     7
100
AcDbLine
 10
-179.847176018101
 20
-113.4549990844676
 30
0.0
 11
-184.3492221903487
 21
-113.4549990844676
 31
0.0
  0
LINE
  5
FA
330
5C
100
AcDbEntity
  8
0
  6
Continuous
 62
     7
100
AcDbLine
 10
-179.847176018101
 20
-119.8349990844676
 30
0.0
 11
-186.3482221903487
 21
-119.8349990844676
 31
0.0
  0
LINE
  5
FB
330
5C
100
AcDbEntity
  8
0
  6
Continuous
 62
     7
100
AcDbLine
 10
-179.847176018101
 20
-119.8349990844676
 30
0.0
 11
-179.847176018101
 21
-113.4549990844676
 31
0.0
  0
LINE
  5
FC
330
5C
100
AcDbEntity
  8
0
  6
Continuous
 62
     7
100
AcDbLine
 10
-186.3482221903487
 20
-119.8349990844676
 30
0.0
 11
-189.2781991042249
 21
-119.8349990844676
 31
0.0
  0
LINE
  5
FD
330
5C
100
AcDbEntity
  8
0
  6
Continuous
 62
     7
100
AcDbLine
 10
-186.3482221903487
 20
-119.8349990844676
 30
0.0
 11
-186.3482221903487
 21
-129.8349990844676
 31
0.0
  0
LINE
  5
FE
330
5C
100
AcDbEntity
  8
0
  6
Continuous
 62
     7
100
AcDbLine
 10
-189.2781991042249
 20
-119.8349990844676
 30
0.0
 11
-189.2781991042249
 21
-113.4549990844676
 31
0.0
  0
LINE
  5
FF
330
5C
100
AcDbEntity
  8
0
  6
Continuous
 62
     7
100
AcDbLine
 10
-184.3492221903487
 20
-113.4549990844676
 30
0.0
 11
-189.2781991042249
 21
-113.4549990844676
 31
0.0
  0
LINE
  5
100
330
5C
100
AcDbEntity
  8
0
  6
Continuous
 62
     7
100
AcDbLine
 10
-184.3492221903487
 20
-104.6249990844676
 30
0.0
 11
-184.3492221903487
 21
-113.4549990844676
 31
0.0
  0
LINE
  5
101
330
5C
100
AcDbEntity
  8
0
  6
Continuous
 62
     7
100
AcDbLine
 10
-213.0692221903487
 20
-113.4549990844676
 30
0.0
 11
-217.5712683625963
 21
-113.4549990844676
 31
0.0
  0
LINE
  5
102
330
5C
100
AcDbEntity
  8
0
  6
Continuous
 62
     7
100
AcDbLine
 10
-208.1402452764725
 20
-113.4549990844676
 30
0.0
 11
-213.0692221903487
 21
-113.4549990844676
 31
0.0
  0
LINE
  5
103
330
5C
100
AcDbEntity
  8
0
  6
Continuous
 62
     7
100
AcDbLine
 10
-189.2781991042249
 20
-113.4549990844676
 30
0.0
 11
-208.1402452764725
 21
-113.4549990844676
 31
0.0
  0
LINE
  5
104
330
5C
100
AcDbEntity
  8
0
  6
Continuous
 62
     7
100
AcDbLine
 10
-189.1944897541037
 20
-104.6249990844676
 30
0.0
 11
-208.2239546265938
 21
-104.6249990844676
 31
0.0
  0
LINE
  5
105
330
5C
100
AcDbEntity
  8
0
  6
Continuous
 62
     7
100
AcDbLine
 10
-208.2239546265938
 20
-104.6249990844676
 30
0.0
 11
-213.0692221903487
 21
-104.6249990844676
 31
0.0
  0
LINE
  5
106
330
5C
100
AcDbEntity
  8
0
  6
Continuous
 62
     7
100
AcDbLine
 10
-213.0692221903487
 20
-104.6249990844676
 30
0.0
 11
-217.7386870628388
 21
-104.6249990844676
 31
0.0
  0
LINE
  5
107
330
5C
100
AcDbEntity
  8
0
  6
Continuous
 62
     7
100
AcDbLine
 10
-211.0702221903487
 20
-119.8349990844676
 30
0.0
 11
-211.0702221903487
 21
-129.8349990844676
 31
0.0
  0
LINE
  5
108
330
5C
100
AcDbEntity
  8
0
  6
Continuous
 62
     7
100
AcDbLine
 10
-213.0692221903487
 20
-104.6249990844676
 30
0.0
 11
-213.0692221903487
 21
-113.4549990844676
 31
0.0
  0
LINE
  5
109
330
5C
100
AcDbEntity
  8
0
  6
Continuous
 62
     7
100
AcDbLine
 10
-208.1402452764725
 20
-119.8349990844676
 30
0.0
 11
-208.1402452764725
 21
-113.4549990844676
 31
0.0
  0
LINE
  5
10A
330
5C
100
AcDbEntity
  8
0
  6
Continuous
 62
     7
100
AcDbLine
 10
-208.2239546265938
 20
-92.08095396208768
 30
0.0
 11
-208.2239546265938
 21
-104.6249990844676
 31
0.0
  0
LINE
  5
10B
330
5C
100
AcDbEntity
  8
1
  6
DOT_CENTER
 62
     2
100
AcDbLine
 10
-198.7092221903487
 20
-104.6249990844676
 30
0.0
 11
-198.7092221903487
 21
-113.4549990844676
 31
0.0
  0
LINE
  5
10C
330
5C
100
AcDbEntity
  8
1
  6
DOT_CENTER
 62
     2
100
AcDbLine
 10
-198.7092221903487
 20
-119.8349990844676
 30
0.0
 11
-198.7092221903487
 21
-129.8349990844676
 31
0.0
  0
ARC
  5
10D
330
5C
100
AcDbEntity
  8
0
  6
Continuous
 62
     7
100
AcDbCircle
 10
-214.9387221903487
 20
-92.09497939689841
 30
0.0
 40
2.799999999999983
100
AcDbArc
 50
90.21485966616397
 51
179.7129994352683
  0
ARC
  5
10E
330
5C
100
AcDbEntity
  8
0
  6
Continuous
 62
     7
100
AcDbCircle
 10
-189.5992221903487
 20
-89.29491317932178
 30
0.0
 40
7.130000000000032
100
AcDbArc
 50
359.9993096771131
 51
89.71874329077625
  0
ARC
  5
10F
330
5C
100
AcDbEntity
  8
0
  6
Continuous
 62
     7
100
AcDbCircle
 10
-182.4797221903487
 20
-92.09497939689841
 30
0.0
 40
2.799999999999942
100
AcDbArc
 50
0.28700056475436
 51
89.78514033383603
  0
ARC
  5
110
330
5C
100
AcDbEntity
  8
0
  6
Continuous
 62
     7
100
AcDbCircle
 10
-207.8192221903487
 20
-89.29491317932178
 30
0.0
 40
7.129999999999985
100
AcDbArc
 50
90.28125670922353
 51
180.0006903228871
  0
SPLINE
  5
111
330
5C
100
AcDbEntity
  8
0
  6
Continuous
 62
     7
100
AcDbSpline
210
0.0
220
0.0
230
1.0
 70
     8
 71
     3
 72
    55
 73
    51
 74
    49
 42
0.000000001
 43
0.0000000001
 44
0.00000001
 40
0.0
 40
0.0
 40
0.0
 40
0.0
 40
0.1654903073269755
 40
0.3310354093163878
 40
0.4996573462046079
 40
0.6488149650885592
 40
0.7903444338725621
 40
0.9457833611587511
 40
1.090262913581981
 40
1.220900019384135
 40
1.639273724698766
 40
2.142291012254019
 40
2.541006304835607
 40
2.900927979336069
 40
3.250700663094464
 40
3.597288887527942
 40
3.929011443421453
 40
4.269136464537516
 40
4.593452945793468
 40
4.934288263416411
 40
5.246300111645353
 40
5.597651390932646
 40
5.744367519602356
 40
5.929198691645706
 40
6.068815751898668
 40
6.260727999484506
 40
6.423874370003499
 40
6.592257435828776
 40
6.777136323093055
 40
6.923804392052385
 40
7.275209779528093
 40
7.58716190481164
 40
7.927931106761755
 40
8.252166867203348
 40
8.593188450666581
 40
8.92575422274367
 40
9.272060280948272
 40
9.621549628606502
 40
9.981697935663961
 40
10.38065118538191
 40
10.88338345677096
 40
11.30157737270759
 40
11.43186209115175
 40
11.57590693481892
 40
11.73194686079177
 40
11.87397818630947
 40
12.03262594647595
 40
12.19107630091007
 40
12.36696539175058
 40
12.52281341142017
 40
12.52281341142017
 40
12.52281341142017
 40
12.52281341142017
 10
-208.2239546265938
 20
-92.08095396208768
 30
0.0
 10
-208.2251724320549
 20
-92.02578782539686
 30
0.0
 10
-208.2276084589238
 20
-91.9154372867126
 30
0.0
 10
-208.243776431923
 20
-91.7495231656009
 30
0.0
 10
-208.2683671727834
 20
-91.59022114978161
 30
0.0
 10
-208.3006382942611
 20
-91.4404730206501
 30
0.0
 10
-208.3397054389857
 20
-91.29691997235375
 30
0.0
 10
-208.3862284958784
 20
-91.15722811569727
 30
0.0
 10
-208.4393261150341
 20
-91.02380641114193
 30
0.0
 10
-208.5361699202421
 20
-90.81383972719468
 30
0.0
 10
-208.7174960070234
 20
-90.51160636585644
 30
0.0
 10
-209.0132844468892
 20
-90.18132520086127
 30
0.0
 10
-209.3479457045044
 20
-89.92383979475608
 30
0.0
 10
-209.6710303503217
 20
-89.74247977322914
 30
0.0
 10
-209.9971186557008
 20
-89.60783334189492
 30
0.0
 10
-210.3257876748934
 20
-89.50916692681872
 30
0.0
 10
-210.6579224954226
 20
-89.43765500674145
 30
0.0
 10
-210.9864548148064
 20
-89.38823705847766
 30
0.0
 10
-211.3198990491869
 20
-89.35418441613719
 30
0.0
 10
-211.644960352721
 20
-89.33264821753633
 30
0.0
 10
-211.9794264458304
 20
-89.3188039536986
 30
0.0
 10
-212.2493888756992
 20
-89.31241048139754
 30
0.0
 10
-212.4769964955281
 20
-89.30901069627443
 30
0.0
 10
-212.6340444037791
 20
-89.30744919228918
 30
0.0
 10
-212.8061618179182
 20
-89.30643873473697
 30
0.0
 10
-212.9710539025521
 20
-89.30609463602451
 30
0.0
 10
-213.1455345508536
 20
-89.30640005077689
 30
0.0
 10
-213.3176684616069
 20
-89.30734376561752
 30
0.0
 10
-213.4843045352724
 20
-89.30899433400856
 30
0.0
 10
-213.7119302273515
 20
-89.31238459397254
 30
0.0
 10
-213.9818751021747
 20
-89.3187621585514
 30
0.0
 10
-214.3163183986984
 20
-89.33257716784375
 30
0.0
 10
-214.6413135486244
 20
-89.35406801988901
 30
0.0
 10
-214.9750122661808
 20
-89.38808549827654
 30
0.0
 10
-215.3041013823008
 20
-89.43752538255396
 30
0.0
 10
-215.6367167128919
 20
-89.50912328571272
 30
0.0
 10
-215.9654710990812
 20
-89.60782508659914
 30
0.0
 10
-216.2914610922767
 20
-89.74240915586883
 30
0.0
 10
-216.6146146595696
 20
-89.92377262153373
 30
0.0
 10
-216.9493246885123
 20
-90.1812973860307
 30
0.0
 10
-217.2450608932279
 20
-90.51151715201897
 30
0.0
 10
-217.4262759879342
 20
-90.81349647242664
 30
0.0
 10
-217.5230267763233
 20
-91.02315061131642
 30
0.0
 10
-217.5761478877652
 20
-91.15649546669647
 30
0.0
 10
-217.6227850558027
 20
-91.29638542386903
 30
0.0
 10
-217.6627946861997
 20
-91.44334211469175
 30
0.0
 10
-217.6947948093323
 20
-91.59310089491882
 30
0.0
 10
-217.7196290665806
 20
-91.75561023354746
 30
0.0
 10
-217.7352397811588
 20
-91.91842165941357
 30
0.0
 10
-217.7375852040568
 20
-92.02900336718362
 30
0.0
 10
-217.7386870628388
 20
-92.0809539620839
 30
0.0
 11
-208.2239546265938
 21
-92.08095396208768
 31
0.0
 11
-208.2296762771493
 21
-91.91556258852998
 31
0.0
 11
-208.2451957142966
 21
-91.75074654345278
 31
0.0
 11
-208.2710916729719
 21
-91.5841249443005
 31
0.0
 11
-208.3024990523245
 21
-91.4383114608297
 31
0.0
 11
-208.3396891947189
 21
-91.30175567021244
 31
0.0
 11
-208.3888283952872
 21
-91.15428838845708
 31
0.0
 11
-208.44227174657
 21
-91.02005668820826
 31
0.0
 11
-208.4970052304328
 21
-90.90143839612008
 31
0.0
 11
-208.7127294509385
 21
-90.54296996150276
 31
0.0
 11
-209.0482132163196
 21
-90.16816729907087
 31
0.0
 11
-209.3637322767682
 21
-89.92440182213261
 31
0.0
 11
-209.6771333850512
 21
-89.74741776171554
 31
0.0
 11
-210.0000304061059
 21
-89.61296165600098
 31
0.0
 11
-210.3316790726148
 21
-89.51230104261577
 31
0.0
 11
-210.6557841746573
 21
-89.44162052062838
 31
0.0
 11
-210.9919986429483
 21
-89.39019231642315
 31
0.0
 11
-211.3145723048769
 21
-89.35661536668266
 31
0.0
 11
-211.6546216231856
 21
-89.33348154478055
 31
0.0
 11
-211.9663511414992
 21
-89.32021127815901
 31
0.0
 11
-212.3175948480948
 21
-89.31151765816959
 31
0.0
 11
-212.4642943434529
 21
-89.30930851623515
 31
0.0
 11
-212.6491160927676
 21
-89.30744226761364
 31
0.0
 11
-212.7887307030193
 21
-89.30661523974948
 31
0.0
 11
-212.9806425163714
 21
-89.30620731549347
 31
0.0
 11
-213.1437886293317
 21
-89.30649687817892
 31
0.0
 11
-213.3121690982098
 21
-89.30743194482405
 31
0.0
 11
-213.4970386286482
 21
-89.30929189545849
 31
0.0
 11
-213.6436901660768
 21
-89.31149390748637
 31
0.0
 11
-213.994988472912
 21
-89.32016829266566
 31
0.0
 11
-214.3066594657564
 21
-89.33340913181497
 31
0.0
 11
-214.6466457726684
 21
-89.35649503612636
 31
0.0
 11
-214.969145315364
 21
-89.3900043218992
 31
0.0
 11
-215.3062548839725
 21
-89.4415102248465
 31
0.0
 11
-215.6311864501757
 21
-89.51235843808959
 31
0.0
 11
-215.9625628798576
 21
-89.61294445882326
 31
0.0
 11
-216.2852066033994
 21
-89.74727179050693
 31
0.0
 11
-216.5988189999458
 21
-89.92434259084331
 31
0.0
 11
-216.9145251496118
 21
-90.16825512275028
 31
0.0
 11
-217.2498207969413
 21
-90.54284365243524
 31
0.0
 11
-217.4654877390653
 21
-90.9011367196455
 31
0.0
 11
-217.5200972957569
 21
-91.01942409951539
 31
0.0
 11
-217.5734265274613
 21
-91.15323332979614
 31
0.0
 11
-217.6228018904792
 21
-91.30125539613948
 31
0.0
 11
-217.6601377912277
 21
-91.43829162509437
 31
0.0
 11
-217.6932748948711
 21
-91.59344008415896
 31
0.0
 11
-217.7173592256014
 21
-91.75004934363973
 31
0.0
 11
-217.7335674504808
 21
-91.92519004905265
 31
0.0
 11
-217.7386870628388
 21
-92.0809539620839
 31
0.0
  0
SPLINE
  5
112
330
5C
100
AcDbEntity
  8
0
  6
Continuous
 62
     7
100
AcDbSpline
210
0.0
220
0.0
230
1.0
 70
     8
 71
     3
 72
    51
 73
    47
 74
    45
 42
0.000000001
 43
0.0000000001
 44
0.00000001
 40
0.0
 40
0.0
 40
0.0
 40
0.0
 40
0.324032931306902
 40
0.64853665709444
 40
0.909547316538059
 40
1.220401156871363
 40
1.664167766200413
 40
2.141824344327412
 40
2.540539636525939
 40
2.900461310614043
 40
3.250233994011977
 40
3.596822218351264
 40
3.928544774511454
 40
4.268669795999123
 40
4.592986277484242
 40
4.933821595159909
 40
5.245833443344655
 40
5.597184722643798
 40
5.743900851434608
 40
5.928732023311977
 40
6.068349083594216
 40
6.26026133110165
 40
6.452175003064401
 40
6.591790758073925
 40
6.776669645059989
 40
6.923337714243635
 40
7.274743101913831
 40
7.586695226851981
 40
7.927464427632751
 40
8.251700188991649
 40
8.592721773810377
 40
8.925287544291669
 40
9.271593602536075
 40
9.621082950266135
 40
9.98123125823679
 40
10.38018450717935
 40
10.58369326240526
 40
10.81125443411817
 40
11.05960190735882
 40
11.30216126082578
 40
11.58942154416178
 40
11.87434921199812
 40
12.02320841046295
 40
12.19144689926086
 40
12.36733599018438
 40
12.52318400969789
 40
12.52318400969789
 40
12.52318400969789
 40
12.52318400969789
 10
-179.6797573178587
 20
-92.08095396208279
 30
0.0
 10
-179.6839056719786
 20
-91.97290349501887
 30
0.0
 10
-179.6922084203966
 20
-91.75664557290987
 30
0.0
 10
-179.7485562781769
 20
-91.45762987448443
 30
0.0
 10
-179.8330550075119
 20
-91.17069747456152
 30
0.0
 10
-179.964256064228
 20
-90.85770569792156
 30
0.0
 10
-180.1785061990124
 20
-90.50462841537642
 30
0.0
 10
-180.4758103579114
 20
-90.17617177013582
 30
0.0
 10
-180.8037492487763
 20
-89.92383486917596
 30
0.0
 10
-181.1268328308803
 20
-89.74248099742292
 30
0.0
 10
-181.4529214028443
 20
-89.60783302157998
 30
0.0
 10
-181.7815903521639
 20
-89.5091670083216
 30
0.0
 10
-182.1137251906808
 20
-89.43765498406097
 30
0.0
 10
-182.4422575055477
 20
-89.38823706342843
 30
0.0
 10
-182.7757017414171
 20
-89.35418441390657
 30
0.0
 10
-183.1007630446786
 20
-89.33264821765393
 30
0.0
 10
-183.4352291379731
 20
-89.31880395268318
 30
0.0
 10
-183.7051915675741
 20
-89.31241048318262
 30
0.0
 10
-183.9327991879373
 20
-89.30901069310158
 30
0.0
 10
-184.08984709438
 20
-89.30744920587576
 30
0.0
 10
-184.2619645145425
 20
-89.30643869188089
 30
0.0
 10
-184.4364456813242
 20
-89.30607485572673
 30
0.0
 10
-184.6109264231696
 20
-89.30643353279005
 30
0.0
 10
-184.783059819911
 20
-89.30743858587743
 30
0.0
 10
-184.9401072313028
 20
-89.30899436951104
 30
0.0
 10
-185.1677329165412
 20
-89.31238457160825
 30
0.0
 10
-185.4376777942829
 20
-89.31876216483037
 30
0.0
 10
-185.7721210918934
 20
-89.33257716950843
 30
0.0
 10
-186.097116231795
 20
-89.35406800708924
 30
0.0
 10
-186.4308149869604
 20
-89.38808554740037
 30
0.0
 10
-186.759903959885
 20
-89.43752519123154
 30
0.0
 10
-187.0925198258763
 20
-89.5091239922368
 30
0.0
 10
-187.4212721384021
 20
-89.60782231556921
 30
0.0
 10
-187.7472700848076
 20
-89.7424197234431
 30
0.0
 10
-188.070391936253
 20
-89.92372999534162
 30
0.0
 10
-188.325840271768
 20
-90.12037038112129
 30
0.0
 10
-188.5229250324904
 20
-90.31493367627527
 30
0.0
 10
-188.6695949494714
 20
-90.4879464189687
 30
0.0
 10
-188.8060955901811
 20
-90.68523537135772
 30
0.0
 10
-188.9319949330107
 20
-90.91247283305094
 30
0.0
 10
-189.0383360983776
 20
-91.16299200115866
 30
0.0
 10
-189.1077051954732
 20
-91.3936199907016
 30
0.0
 10
-189.1500051427881
 20
-91.58987780752379
 30
0.0
 10
-189.1751239568524
 20
-91.75236163196242
 30
0.0
 10
-189.1910416066156
 20
-91.9184211198756
 30
0.0
 10
-189.1933876185689
 20
-92.02900319475671
 30
0.0
 10
-189.1944897541037
 20
-92.08095396208273
 30
0.0
 11
-179.6797573178587
 21
-92.08095396208279
 31
0.0
 11
-179.7001595940025
 21
-91.75756396332862
 31
0.0
 11
-179.7583017435991
 21
-91.43831146082547
 31
0.0
 11
-179.8325157100952
 21
-91.18807386938364
 31
0.0
 11
-179.9528079216992
 21
-90.90143839611687
 31
0.0
 11
-180.1835867551966
 21
-90.52240022562032
 31
0.0
 11
-180.5040159075863
 21
-90.16816729906915
 31
0.0
 11
-180.8195349680343
 21
-89.92440182213176
 31
0.0
 11
-181.1329360763179
 21
-89.74741776171463
 31
0.0
 11
-181.4558330973877
 21
-89.61296165599494
 31
0.0
 11
-181.7874817638814
 21
-89.51230104261533
 31
0.0
 11
-182.1115868659079
 21
-89.44162052063096
 31
0.0
 11
-182.4478013342147
 21
-89.39019231642294
 31
0.0
 11
-182.7703749961682
 21
-89.35661536668042
 31
0.0
 11
-183.1104243144518
 21
-89.33348154478047
 31
0.0
 11
-183.4221538327197
 21
-89.32021127816046
 31
0.0
 11
-183.773397539361
 21
-89.31151765816955
 31
0.0
 11
-183.9200970348593
 21
-89.3093085162333
 31
0.0
 11
-184.1049187840339
 21
-89.30744226761361
 31
0.0
 11
-184.2445333943352
 21
-89.30661523974923
 31
0.0
 11
-184.4364452076373
 21
-89.30620731549345
 31
0.0
 11
-184.628358457578
 21
-89.30660946895298
 31
0.0
 11
-184.7679717894757
 21
-89.30743194482403
 31
0.0
 11
-184.9528413196657
 21
-89.30929189545533
 31
0.0
 11
-185.0994928573437
 21
-89.31149390748635
 31
0.0
 11
-185.4507911644428
 21
-89.3201682926742
 31
0.0
 11
-185.7624621570218
 21
-89.33340913181497
 31
0.0
 11
-186.1024484628852
 21
-89.35649503603783
 31
0.0
 11
-186.4249480066365
 21
-89.39000432189923
 31
0.0
 11
-186.7620575767275
 21
-89.4415102251191
 31
0.0
 11
-187.0869891414408
 21
-89.5123584380896
 31
0.0
 11
-187.4183655711367
 21
-89.61294445882827
 31
0.0
 11
-187.7410092946644
 21
-89.7472717905069
 31
0.0
 11
-188.0546216919095
 21
-89.92434259129793
 31
0.0
 11
-188.3703278408765
 21
-90.16825512275008
 31
0.0
 11
-188.5151416371802
 21
-90.31124035981037
 31
0.0
 11
-188.6622908355224
 21
-90.48482377056774
 31
0.0
 11
-188.8036524188804
 21
-90.68901331591269
 31
0.0
 11
-188.92129043033
 21
-90.90113671964494
 31
0.0
 11
-189.0336918821753
 21
-91.16549326730713
 31
0.0
 11
-189.1159404825127
 21
-91.43829162509346
 31
0.0
 11
-189.1472940749469
 21
-91.58381142912252
 31
0.0
 11
-189.1731619168663
 21
-91.7500493436387
 31
0.0
 11
-189.1893701417524
 21
-91.92519004916021
 31
0.0
 11
-189.1944897541037
 21
-92.08095396208273
 31
0.0
  0
SPLINE
  5
113
330
5C
100
AcDbEntity
  8
0
  6
Continuous
 62
     7
100
AcDbSpline
210
0.0
220
0.0
230
1.0
 70
     8
 71
     3
 72
    57
 73
    53
 74
    51
 42
0.000000001
 43
0.0000000001
 44
0.00000001
 40
0.0
 40
0.0
 40
0.0
 40
0.0
 40
0.1762777173845991
 40
0.3334974965038539
 40
0.507967884614019
 40
0.6667508813205539
 40
0.8222385997584789
 40
0.9994650355910766
 40
1.15611972277055
 40
1.332465603588075
 40
1.893642151537317
 40
2.66195360273464
 40
3.338119564196829
 40
3.989747587153611
 40
4.64935450012379
 40
5.320282092472802
 40
5.972329296994994
 40
6.646727112096782
 40
7.292745786436996
 40
7.9732395854111
 40
8.596837586186277
 40
9.299381040866031
 40
9.592788128948856
 40
9.96243655887795
 40
10.32747907968226
 40
10.62549084890453
 40
10.92333875548421
 40
11.28854543586789
 40
11.65828939487288
 40
11.95160051642243
 40
12.65425293204638
 40
13.27773327620385
 40
13.9580994929298
 40
14.60396661981161
 40
15.28015540237329
 40
15.93386392101285
 40
16.60424187848552
 40
17.26332671691951
 40
17.91538540139626
 40
18.59195297998545
 40
18.9150246404559
 40
19.25662925185745
 40
19.57453122787564
 40
19.92214914206516
 40
20.09194177552874
 40
20.25426589083885
 40
20.43221602878795
 40
20.58826501460505
 40
20.75697593887843
 40
20.92082532500936
 40
21.07836145483673
 40
21.25504005625454
 40
21.25504005625454
 40
21.25504005625454
 40
21.25504005625454
 10
-189.1944897541037
 20
-92.08095396208273
 30
0.0
 10
-189.1972098549927
 20
-92.02217878701937
 30
0.0
 10
-189.202355970637
 20
-91.91098280551606
 30
0.0
 10
-189.2356069199459
 20
-91.74442038813841
 30
0.0
 10
-189.2841286096865
 20
-91.58800213631272
 30
0.0
 10
-189.3489485333086
 20
-91.43823508349297
 30
0.0
 10
-189.4275696678723
 20
-91.29427793113379
 30
0.0
 10
-189.51838231242
 20
-91.15848810633143
 30
0.0
 10
-189.624116211394
 20
-91.02509237452469
 30
0.0
 10
-189.8260349263563
 20
-90.80550681140326
 30
0.0
 10
-190.2180943397016
 20
-90.48669990530448
 30
0.0
 10
-190.8086586188462
 20
-90.16603824676818
 30
0.0
 10
-191.462869052906
 20
-89.91739951330977
 30
0.0
 10
-192.1017070472007
 20
-89.73944319804303
 30
0.0
 10
-192.7492973445726
 20
-89.60639485231138
 30
0.0
 10
-193.4031321715334
 20
-89.50856355628527
 30
0.0
 10
-194.0652491390221
 20
-89.43741158397988
 30
0.0
 10
-194.7209779699461
 20
-89.3881509466307
 30
0.0
 10
-195.3871244918392
 20
-89.35415542674163
 30
0.0
 10
-196.0368316664513
 20
-89.33264052194318
 30
0.0
 10
-196.7055767425389
 20
-89.31880182190147
 30
0.0
 10
-197.2453942780961
 20
-89.31241025569929
 30
0.0
 10
-197.7005813197846
 20
-89.30901058836608
 30
0.0
 10
-198.0432768954909
 20
-89.30730724925336
 30
0.0
 10
-198.3875101464385
 20
-89.30638831146634
 30
0.0
 10
-198.707810912208
 20
-89.30612706071618
 30
0.0
 10
-199.0281664014719
 20
-89.30638347749172
 30
0.0
 10
-199.3724316092075
 20
-89.30729687361554
 30
0.0
 10
-199.7151817881852
 20
-89.30899426479911
 30
0.0
 10
-200.1704050764543
 20
-89.31238434570345
 30
0.0
 10
-200.710187891896
 20
-89.31876004621272
 30
0.0
 10
-201.3788881086837
 20
-89.33256951749564
 30
0.0
 10
-202.0284643279574
 20
-89.35403917950309
 30
0.0
 10
-202.6951172378769
 20
-89.38799958210706
 30
0.0
 10
-203.3519476655183
 20
-89.43728118281723
 30
0.0
 10
-204.0150317466246
 20
-89.50851901324526
 30
0.0
 10
-204.6690510491545
 20
-89.60638814389611
 30
0.0
 10
-205.3164648983685
 20
-89.73937761905685
 30
0.0
 10
-205.9553009514653
 20
-89.91731502743394
 30
0.0
 10
-206.471164904197
 20
-90.11328084567194
 30
0.0
 10
-206.8726706308911
 20
-90.31058941271183
 30
0.0
 10
-207.1555391551299
 20
-90.47648012573228
 30
0.0
 10
-207.4295029678466
 20
-90.67122842134351
 30
0.0
 10
-207.6386940889797
 20
-90.85620388989997
 30
0.0
 10
-207.7924155617658
 20
-91.02289358903919
 30
0.0
 10
-207.8983877408539
 20
-91.15604712834599
 30
0.0
 10
-207.9905589838503
 20
-91.29372346006558
 30
0.0
 10
-208.0709993789163
 20
-91.4409467230449
 30
0.0
 10
-208.1353870870562
 20
-91.59090256858927
 30
0.0
 10
-208.1833799093802
 20
-91.74730248518125
 30
0.0
 10
-208.2160593797969
 20
-91.91061054529456
 30
0.0
 10
-208.221224267055
 20
-92.02204531197651
 30
0.0
 10
-208.2239546265938
 20
-92.08095396208768
 30
0.0
 11
-189.1944897541037
 21
-92.08095396208273
 31
0.0
 11
-189.2073114469815
 21
-91.90514315327803
 31
0.0
 11
-189.2369719295104
 21
-91.75074654344802
 31
0.0
 11
-189.2887585756232
 21
-91.58413904286896
 31
0.0
 11
-189.351578605576
 21
-91.43831146082528
 31
0.0
 11
-189.4259531139398
 21
-91.30176526740732
 31
0.0
 11
-189.5242372914997
 21
-91.15428838845315
 31
0.0
 11
-189.6214053387824
 21
-91.03141015001566
 31
0.0
 11
-189.740590961785
 21
-90.9014383961166
 31
0.0
 11
-190.1722394771712
 21
-90.54283182065838
 31
0.0
 11
-190.8430069335596
 21
-90.16816729906888
 31
0.0
 11
-191.4737423316844
 21
-89.9245010030327
 31
0.0
 11
-192.1008472710231
 21
-89.74741776171442
 31
0.0
 11
-192.7466061382601
 21
-89.61296790477247
 31
0.0
 11
-193.4099386461504
 21
-89.51230104261519
 31
0.0
 11
-194.0581437722341
 21
-89.44162098545549
 31
0.0
 11
-194.7305777868172
 21
-89.39019231642285
 31
0.0
 11
-195.3757232899665
 21
-89.3566154436891
 31
0.0
 11
-196.0558237472918
 21
-89.33348154478043
 31
0.0
 11
-196.6792805353948
 21
-89.32021131529602
 31
0.0
 11
-197.3817701971103
 21
-89.31151765816954
 31
0.0
 11
-197.6751689681037
 21
-89.3093085176319
 31
0.0
 11
-198.0448126864561
 21
-89.30744226761361
 31
0.0
 11
-198.4098538659797
 21
-89.30645286767047
 31
0.0
 11
-198.7078655336633
 21
-89.30620731549345
 31
0.0
 11
-199.0057133425044
 21
-89.30644814563648
 31
0.0
 11
-199.3709186973402
 21
-89.30743194482406
 31
0.0
 11
-199.7406579777209
 21
-89.30929189684956
 31
0.0
 11
-200.0339608330752
 21
-89.3114939074864
 31
0.0
 11
-200.7365597018166
 21
-89.32016832983156
 31
0.0
 11
-201.3598994324331
 21
-89.33340913181507
 31
0.0
 11
-202.0398738622721
 21
-89.35649511279428
 31
0.0
 11
-202.6848711316554
 21
-89.39000432189945
 31
0.0
 11
-203.3590953986697
 21
-89.44151069410968
 31
0.0
 11
-204.0089534012716
 21
-89.5123584380901
 31
0.0
 11
-204.6717413046751
 21
-89.61295068408558
 31
0.0
 11
-205.3169937077189
 21
-89.74727179050787
 31
0.0
 11
-205.9445216210007
 21
-89.92444189252735
 31
0.0
 11
-206.5756308001433
 21
-90.1682551227519
 31
0.0
 11
-206.8653216781952
 21
-90.31127432663527
 31
0.0
 11
-207.1595567894292
 21
-90.48482377057019
 31
0.0
 11
-207.418140752378
 21
-90.66974537589604
 31
0.0
 11
-207.6775559790495
 21
-90.90113671964826
 31
0.0
 11
-207.7925083824456
 21
-91.02609864666262
 31
0.0
 11
-207.893433555843
 21
-91.15323332979924
 31
0.0
 11
-207.9921901065695
 21
-91.30126506663342
 31
0.0
 11
-208.0668560833936
 21
-91.4382916250978
 31
0.0
 11
-208.1331303528401
 21
-91.5934402536985
 31
0.0
 11
-208.18129895212
 21
-91.75004934364343
 31
0.0
 11
-208.2110787305438
 21
-91.90474515936273
 31
0.0
 11
-208.2239546265938
 21
-92.08095396208768
 31
0.0
  0
ENDBLK
  5
5E
330
5C
100
AcDbEntity
  8
0
100
AcDbBlockEnd
  0
BLOCK
  5
61
330
5F
100
AcDbEntity
  8
0
100
AcDbBlockBegin
  2
SA_Links1
 70
     0
 10
-198.709222
 20
-106.0
 30
0.0
  3
SA_Links1
  1

  0
INSERT
  5
60
330
5F
100
AcDbEntity
  8
0
100
AcDbBlockReference
  2
G_CCS_M25_M66N_PNES_BK-select__4
 10
-217.7386870628388
 20
-129.8349990844676
 30
0.0
  0
MTEXT
  5
114
330
5F
100
AcDbEntity
  8
1
 62
     6
100
AcDbMText
 10
-198.7967385434154
 20
-134.8349990844677
 30
0.0
 40
5.0
 41
0.0
 71
     2
 72
     1
  1
 
  7
CONVERTER_11
 73
     1
 44
1.32052821128451
  0
ENDBLK
  5
62
330
5F
100
AcDbEntity
  8
0
100
AcDbBlockEnd
  0
BLOCK
  5
64
330
63
100
AcDbEntity
  8
0
100
AcDbBlockBegin
  2
G_CCS_M25_M66N_PNES_BK-select__5
 70
     0
 10
-365.2030566821413
 20
-129.8349990844676
 30
0.0
  3
G_CCS_M25_M66N_PNES_BK-select__5
  1

  0
LINE
  5
115
330
63
100
AcDbEntity
  8
0
  6
Continuous
 62
     7
100
AcDbLine
 10
-360.5335918096513
 20
-113.4549990844676
 30
0.0
 11
-365.035637981899
 21
-113.4549990844676
 31
0.0
  0
LINE
  5
116
330
63
100
AcDbEntity
  8
0
  6
Continuous
 62
     7
100
AcDbLine
 10
-365.035637981899
 20
-119.8349990844676
 30
0.0
 11
-365.035637981899
 21
-113.4549990844676
 31
0.0
  0
LINE
  5
117
330
63
100
AcDbEntity
  8
0
  6
Continuous
 62
     7
100
AcDbLine
 10
-358.5345918096513
 20
-119.8349990844676
 30
0.0
 11
-358.5345918096513
 21
-129.8349990844676
 31
0.0
  0
LINE
  5
118
330
63
100
AcDbEntity
  8
0
  6
Continuous
 62
     7
100
AcDbLine
 10
-333.8125918096513
 20
-129.8349990844676
 30
0.0
 11
-358.5345918096513
 21
-129.8349990844676
 31
0.0
  0
LINE
  5
119
330
63
100
AcDbEntity
  8
0
  6
Continuous
 62
     7
100
AcDbLine
 10
-331.8135918096513
 20
-104.6249990844676
 30
0.0
 11
-336.6588593734062
 21
-104.6249990844676
 31
0.0
  0
LINE
  5
11A
330
63
100
AcDbEntity
  8
0
  6
Continuous
 62
     7
100
AcDbLine
 10
-336.6588593734063
 20
-92.0809539620839
 30
0.0
 11
-336.6588593734062
 21
-104.6249990844676
 31
0.0
  0
LINE
  5
11B
330
63
100
AcDbEntity
  8
0
  6
Continuous
 62
     7
100
AcDbLine
 10
-336.7425687235275
 20
-119.8349990844676
 30
0.0
 11
-336.7425687235275
 21
-113.4549990844676
 31
0.0
  0
LINE
  5
11C
330
63
100
AcDbEntity
  8
0
  6
Continuous
 62
     7
100
AcDbLine
 10
-331.8135918096513
 20
-104.6249990844676
 30
0.0
 11
-331.8135918096513
 21
-113.4549990844676
 31
0.0
  0
LINE
  5
11D
330
63
100
AcDbEntity
  8
0
  6
Continuous
 62
     7
100
AcDbLine
 10
-333.8125918096513
 20
-119.8349990844676
 30
0.0
 11
-333.8125918096513
 21
-129.8349990844676
 31
0.0
  0
LINE
  5
11E
330
63
100
AcDbEntity
  8
0
  6
Continuous
 62
     7
100
AcDbLine
 10
-360.2441430143824
 20
-89.29499908446569
 30
0.0
 11
-362.4135918091338
 21
-89.29499908446567
 31
0.0
  0
LINE
  5
11F
330
63
100
AcDbEntity
  8
0
  6
Continuous
 62
     7
100
AcDbLine
 10
-360.5335918096513
 20
-104.6249990844676
 30
0.0
 11
-360.5335918096513
 21
-113.4549990844676
 31
0.0
  0
LINE
  5
120
330
63
100
AcDbEntity
  8
0
  6
Continuous
 62
     7
100
AcDbLine
 10
-327.1441269371612
 20
-92.0809539620839
 30
0.0
 11
-327.1441269371612
 21
-104.6249990844676
 31
0.0
  0
LINE
  5
121
330
63
100
AcDbEntity
  8
0
  6
Continuous
 62
     7
100
AcDbLine
 10
-327.1441269371612
 20
-104.6249990844676
 30
0.0
 11
-331.8135918096513
 21
-104.6249990844676
 31
0.0
  0
LINE
  5
122
330
63
100
AcDbEntity
  8
0
  6
Continuous
 62
     7
100
AcDbLine
 10
-329.9335918101688
 20
-89.2949990844657
 30
0.0
 11
-360.2441430143824
 21
-89.29499908446569
 31
0.0
  0
LINE
  5
123
330
63
100
AcDbEntity
  8
0
  6
Continuous
 62
     7
100
AcDbLine
 10
-336.6588593734062
 20
-104.6249990844676
 30
0.0
 11
-355.6883242458963
 21
-104.6249990844676
 31
0.0
  0
LINE
  5
124
330
63
100
AcDbEntity
  8
0
  6
Continuous
 62
     7
100
AcDbLine
 10
-336.7425687235275
 20
-113.4549990844676
 30
0.0
 11
-355.6046148957751
 21
-113.4549990844676
 31
0.0
  0
LINE
  5
125
330
63
100
AcDbEntity
  8
0
  6
Continuous
 62
     7
100
AcDbLine
 10
-331.8135918096513
 20
-113.4549990844676
 30
0.0
 11
-336.7425687235275
 21
-113.4549990844676
 31
0.0
  0
LINE
  5
126
330
63
100
AcDbEntity
  8
0
  6
Continuous
 62
     7
100
AcDbLine
 10
-327.3115456374036
 20
-113.4549990844676
 30
0.0
 11
-331.8135918096513
 21
-113.4549990844676
 31
0.0
  0
LINE
  5
127
330
63
100
AcDbEntity
  8
0
  6
Continuous
 62
     7
100
AcDbLine
 10
-333.8125918096513
 20
-119.8349990844676
 30
0.0
 11
-336.7425687235275
 21
-119.8349990844676
 31
0.0
  0
LINE
  5
128
330
63
100
AcDbEntity
  8
0
  6
Continuous
 62
     7
100
AcDbLine
 10
-327.3115456374036
 20
-119.8349990844676
 30
0.0
 11
-327.3115456374036
 21
-113.4549990844676
 31
0.0
  0
LINE
  5
129
330
63
100
AcDbEntity
  8
0
  6
Continuous
 62
     7
100
AcDbLine
 10
-355.6046148957752
 20
-119.8349990844676
 30
0.0
 11
-358.5345918096513
 21
-119.8349990844676
 31
0.0
  0
LINE
  5
12A
330
63
100
AcDbEntity
  8
0
  6
Continuous
 62
     7
100
AcDbLine
 10
-355.6046148957751
 20
-113.4549990844676
 30
0.0
 11
-360.5335918096513
 21
-113.4549990844676
 31
0.0
  0
LINE
  5
12B
330
63
100
AcDbEntity
  8
0
  6
Continuous
 62
     7
100
AcDbLine
 10
-355.6046148957752
 20
-119.8349990844676
 30
0.0
 11
-355.6046148957751
 21
-113.4549990844676
 31
0.0
  0
LINE
  5
12C
330
63
100
AcDbEntity
  8
0
  6
Continuous
 62
     7
100
AcDbLine
 10
-358.5345918096513
 20
-119.8349990844676
 30
0.0
 11
-365.035637981899
 21
-119.8349990844676
 31
0.0
  0
LINE
  5
12D
330
63
100
AcDbEntity
  8
0
  6
Continuous
 62
     7
100
AcDbLine
 10
-336.7425687235275
 20
-119.8349990844676
 30
0.0
 11
-355.6046148957752
 21
-119.8349990844676
 31
0.0
  0
LINE
  5
12E
330
63
100
AcDbEntity
  8
0
  6
Continuous
 62
     7
100
AcDbLine
 10
-327.3115456374036
 20
-119.8349990844676
 30
0.0
 11
-333.8125918096513
 21
-119.8349990844676
 31
0.0
  0
LINE
  5
12F
330
63
100
AcDbEntity
  8
0
  6
Continuous
 62
     7
100
AcDbLine
 10
-354.0969409950803
 20
-82.16499908446764
 30
0.0
 11
-355.3185918096513
 21
-82.16499908446764
 31
0.0
  0
LINE
  5
130
330
63
100
AcDbEntity
  8
0
  6
Continuous
 62
     7
100
AcDbLine
 10
-337.0285918096513
 20
-82.16499908446764
 30
0.0
 11
-354.0969409950803
 21
-82.16499908446764
 31
0.0
  0
LINE
  5
131
330
63
100
AcDbEntity
  8
0
  6
Continuous
 62
     7
100
AcDbLine
 10
-355.6883242458963
 20
-92.08095396208947
 30
0.0
 11
-355.6883242458963
 21
-104.6249990844676
 31
0.0
  0
LINE
  5
132
330
63
100
AcDbEntity
  8
0
  6
Continuous
 62
     7
100
AcDbLine
 10
-365.2030566821413
 20
-104.6249990844676
 30
0.0
 11
-365.2030566821413
 21
-92.08095396208279
 31
0.0
  0
LINE
  5
133
330
63
100
AcDbEntity
  8
0
  6
Continuous
 62
     7
100
AcDbLine
 10
-360.5335918096513
 20
-104.6249990844676
 30
0.0
 11
-365.2030566821413
 21
-104.6249990844676
 31
0.0
  0
LINE
  5
134
330
63
100
AcDbEntity
  8
0
  6
Continuous
 62
     7
100
AcDbLine
 10
-355.6883242458963
 20
-104.6249990844676
 30
0.0
 11
-360.5335918096513
 21
-104.6249990844676
 31
0.0
  0
LINE
  5
135
330
63
100
AcDbEntity
  8
1
  6
DOT_CENTER
 62
     2
100
AcDbLine
 10
-346.1735918096513
 20
-104.6249990844676
 30
0.0
 11
-346.1735918096513
 21
-113.4549990844676
 31
0.0
  0
LINE
  5
136
330
63
100
AcDbEntity
  8
1
  6
DOT_CENTER
 62
     2
100
AcDbLine
 10
-346.1735918096513
 20
-119.8349990844676
 30
0.0
 11
-346.1735918096513
 21
-129.8349990844676
 31
0.0
  0
ARC
  5
137
330
63
100
AcDbEntity
  8
0
  6
Continuous
 62
     7
100
AcDbCircle
 10
-329.9440918096512
 20
-92.09497939689841
 30
0.0
 40
2.799999999999908
100
AcDbArc
 50
0.28700056473168
 51
89.78514033383894
  0
ARC
  5
138
330
63
100
AcDbEntity
  8
0
  6
Continuous
 62
     7
100
AcDbCircle
 10
-337.0635918096513
 20
-89.29491317932178
 30
0.0
 40
7.130000000000003
100
AcDbArc
 50
359.9993096771129
 51
89.71874329077625
  0
ARC
  5
139
330
63
100
AcDbEntity
  8
0
  6
Continuous
 62
     7
100
AcDbCircle
 10
-362.4030918096513
 20
-92.0949793968984
 30
0.0
 40
2.799999999999996
100
AcDbArc
 50
90.21485966616339
 51
179.712999435246
  0
ARC
  5
13A
330
63
100
AcDbEntity
  8
0
  6
Continuous
 62
     7
100
AcDbCircle
 10
-355.2835918096513
 20
-89.29491317932178
 30
0.0
 40
7.129999999999985
100
AcDbArc
 50
90.28125670922374
 51
180.0006903228869
  0
SPLINE
  5
13B
330
63
100
AcDbEntity
  8
0
  6
Continuous
 62
     7
100
AcDbSpline
210
0.0
220
0.0
230
1.0
 70
     8
 71
     3
 72
    49
 73
    45
 74
    43
 42
0.000000001
 43
0.0000000001
 44
0.00000001
 40
0.0
 40
0.0
 40
0.0
 40
0.0
 40
0.1654903072817156
 40
0.3310354092386145
 40
0.4898263341482149
 40
0.6488153970762439
 40
0.9098260571320779
 40
1.220679897948191
 40
1.6390536032887
 40
2.142070890890738
 40
2.540786183537831
 40
2.900707858126299
 40
3.250480541994731
 40
3.597068766428543
 40
3.928791322209619
 40
4.268916343169152
 40
4.593232824265747
 40
4.934068141769796
 40
5.246079989888662
 40
5.597431269133315
 40
5.744147397807024
 40
5.928978569791462
 40
6.068595630077195
 40
6.260507877579377
 40
6.452421549542607
 40
6.59203730455404
 40
6.776916191768214
 40
6.923584260734419
 40
7.274989648398278
 40
7.586941773466402
 40
7.927710974458074
 40
8.25194673617048
 40
8.592968321518061
 40
8.925534092373942
 40
9.27184015050634
 40
9.621329497762162
 40
9.98147780522392
 40
10.38043105370121
 40
10.8578537410251
 40
11.30138932358228
 40
11.61243818852311
 40
11.87356923561504
 40
12.19808342784443
 40
12.5221262761501
 40
12.5221262761501
 40
12.5221262761501
 40
12.5221262761501
 10
-327.1441269371612
 20
-92.0809539620839
 30
0.0
 10
-327.1453445051285
 20
-92.02578787924217
 30
0.0
 10
-327.1477800569076
 20
-91.91543744827014
 30
0.0
 10
-327.1636334321334
 20
-91.75278697488655
 30
0.0
 10
-327.1879480124556
 20
-91.59345275528474
 30
0.0
 10
-327.2282682056995
 20
-91.4046746540611
 30
0.0
 10
-327.2975215698089
 20
-91.17068963500542
 30
0.0
 10
-327.4253232457709
 20
-90.86552165117938
 30
0.0
 10
-327.6376524027074
 20
-90.51164044021074
 30
0.0
 10
-327.9334603222609
 20
-90.18131756759198
 30
0.0
 10
-328.2681172472629
 20
-89.9238414378994
 30
0.0
 10
-328.5912028512848
 20
-89.74247936488457
 30
0.0
 10
-328.9172909161638
 20
-89.60783344874817
 30
0.0
 10
-329.2459599981302
 20
-89.5091668996049
 30
0.0
 10
-329.578094802474
 20
-89.43765501431695
 30
0.0
 10
-329.9066271260502
 20
-89.38823705694122
 30
0.0
 10
-330.2400713591649
 20
-89.35418441697699
 30
0.0
 10
-330.565132662849
 20
-89.33264821789919
 30
0.0
 10
-330.8995987558704
 20
-89.31880395338516
 30
0.0
 10
-331.1695611854312
 20
-89.31241048355044
 30
0.0
 10
-331.3971688057661
 20
-89.30901069336352
 30
0.0
 10
-331.5542167122069
 20
-89.30744920604982
 30
0.0
 10
-331.7263341324038
 20
-89.30643869196778
 30
0.0
 10
-331.9008152991846
 20
-89.30607485572506
 30
0.0
 10
-332.0752960410305
 20
-89.30643353270281
 30
0.0
 10
-332.2474294378452
 20
-89.30743858569649
 30
0.0
 10
-332.404476849259
 20
-89.30899436927311
 30
0.0
 10
-332.6321025344246
 20
-89.31238457112887
 30
0.0
 10
-332.9020474127867
 20
-89.31876216518245
 30
0.0
 10
-333.2364907079908
 20
-89.33257716576263
 30
0.0
 10
-333.5614858579244
 20
-89.35406801816744
 30
0.0
 10
-333.8951845773915
 20
-89.38808550301367
 30
0.0
 10
-334.2242736893803
 20
-89.43752535997238
 30
0.0
 10
-334.5568890378811
 20
-89.50912336723428
 30
0.0
 10
-334.8856433541944
 20
-89.60782476799392
 30
0.0
 10
-335.2116336122948
 20
-89.74241037476318
 30
0.0
 10
-335.5347861219338
 20
-89.9237677102846
 30
0.0
 10
-335.8627872946715
 20
-90.17615425779032
 30
0.0
 10
-336.1600361463693
 20
-90.50455387881512
 30
0.0
 10
-336.3742700730955
 20
-90.85753224166251
 30
0.0
 10
-336.5055113445398
 20
-91.17053918901706
 30
0.0
 10
-336.590049342693
 20
-91.45757375286199
 30
0.0
 10
-336.6464075258011
 20
-91.75663545463534
 30
0.0
 10
-336.6547107733327
 20
-91.97290018333531
 30
0.0
 10
-336.6588593734063
 20
-92.0809539620839
 30
0.0
 11
-327.1441269371612
 21
-92.0809539620839
 31
0.0
 11
-327.1498485877175
 21
-91.91556258851833
 31
0.0
 11
-327.1653680248644
 21
-91.75074654344917
 31
0.0
 11
-327.1894738568346
 21
-91.59379601926915
 31
0.0
 11
-327.2226713629015
 21
-91.4383114608264
 31
0.0
 11
-327.2968853293988
 21
-91.18807386938052
 31
0.0
 11
-327.4171775410014
 21
-90.90143839611756
 31
0.0
 11
-327.6329017615071
 21
-90.54296996150111
 31
0.0
 11
-327.9683855268885
 21
-90.1681672990695
 31
0.0
 11
-328.2839045873382
 21
-89.92440182213096
 31
0.0
 11
-328.5973056956201
 21
-89.74741776171481
 31
0.0
 11
-328.9202027166922
 21
-89.61296165599423
 31
0.0
 11
-329.2518513831837
 21
-89.5123010426154
 31
0.0
 11
-329.5759564852129
 21
-89.44162052063054
 31
0.0
 11
-329.912170953517
 21
-89.390192316423
 31
0.0
 11
-330.2347446154405
 21
-89.35661536668299
 31
0.0
 11
-330.5747939337542
 21
-89.33348154478048
 31
0.0
 11
-330.8865234520403
 21
-89.32021127815987
 31
0.0
 11
-331.2377671586635
 21
-89.31151765816955
 31
0.0
 11
-331.3844666540508
 21
-89.30930851623476
 31
0.0
 11
-331.5692884033364
 21
-89.30744226761362
 31
0.0
 11
-331.7089030136424
 21
-89.30661523974923
 31
0.0
 11
-331.9008148269398
 21
-89.30620731549345
 31
0.0
 11
-332.0927280768803
 21
-89.306609468953
 31
0.0
 11
-332.2323414087783
 21
-89.30743194482405
 31
0.0
 11
-332.4172109391922
 21
-89.30929189545817
 31
0.0
 11
-332.5638624766463
 21
-89.31149390748638
 31
0.0
 11
-332.9151607837013
 21
-89.32016829267276
 31
0.0
 11
-333.2268317763246
 21
-89.33340913181499
 31
0.0
 11
-333.5668180821946
 21
-89.35649503603841
 31
0.0
 11
-333.8893176259393
 21
-89.39000432189926
 31
0.0
 11
-334.2264271960331
 21
-89.44151022511964
 31
0.0
 11
-334.5513587607437
 21
-89.5123584380897
 31
0.0
 11
-334.8827351904346
 21
-89.6129444588266
 31
0.0
 11
-335.2053789139673
 21
-89.74727179050709
 31
0.0
 11
-335.5189913112177
 21
-89.92434259130164
 31
0.0
 11
-335.8346974601795
 21
-90.16825512275045
 31
0.0
 11
-336.154967830109
 21
-90.52231629520642
 31
0.0
 11
-336.3856600496329
 21
-90.90113671964565
 31
0.0
 11
-336.5060543077028
 21
-91.18794086826091
 31
0.0
 11
-336.5803101018155
 21
-91.43829162509445
 31
0.0
 11
-336.6384558963532
 21
-91.75755410237736
 31
0.0
 11
-336.6588593734063
 21
-92.0809539620839
 31
0.0
  0
SPLINE
  5
13C
330
63
100
AcDbEntity
  8
0
  6
Continuous
 62
     7
100
AcDbSpline
210
0.0
220
0.0
230
1.0
 70
     8
 71
     3
 72
    51
 73
    47
 74
    45
 42
0.000000001
 43
0.0000000001
 44
0.00000001
 40
0.0
 40
0.0
 40
0.0
 40
0.0
 40
0.1555363335847602
 40
0.3310348511901658
 40
0.4898258432856569
 40
0.6488148391165063
 40
0.9098255064533498
 40
1.220679340033484
 40
1.664445949869893
 40
2.142102528439137
 40
2.540817821046701
 40
2.90073949557042
 40
3.250512179354417
 40
3.597100403783997
 40
3.928822959653409
 40
4.268947980745623
 40
4.593264461990968
 40
4.934099779592803
 40
5.246111627802708
 40
5.597462907102106
 40
5.744179035717853
 40
5.929010207814924
 40
6.111533484443215
 40
6.260539516583027
 40
6.409463611346092
 40
6.592068944520269
 40
6.776947831959016
 40
6.923615900745604
 40
7.275021288217254
 40
7.586973413514643
 40
7.927742615481369
 40
8.251978375939219
 40
8.592999959415975
 40
8.925565731521791
 40
9.271871789735986
 40
9.621361137357049
 40
9.981509444385049
 40
10.38046269408543
 40
10.88319496545098
 40
11.30138888136318
 40
11.61243776220666
 40
11.87356879444552
 40
12.02242792793581
 40
12.19066648159617
 40
12.35656285290183
 40
12.52240415592589
 40
12.52240415592589
 40
12.52240415592589
 40
12.52240415592589
 10
-355.6883242458963
 20
-92.08095396208947
 30
0.0
 10
-355.6894222591264
 20
-92.02910721905717
 30
0.0
 10
-355.6917592224507
 20
-91.91875950546995
 30
0.0
 10
-355.7073267528071
 20
-91.75606699261886
 30
0.0
 10
-355.7321462412945
 20
-91.59345297052636
 30
0.0
 10
-355.7724646726202
 20
-91.40467486162565
 30
0.0
 10
-355.8417223306429
 20
-91.1706870340815
 30
0.0
 10
-355.9727803071982
 20
-90.85771013420018
 30
0.0
 10
-356.1870874098357
 20
-90.504626929958
 30
0.0
 10
-356.4843740428676
 20
-90.17617210664957
 30
0.0
 10
-356.8123168908992
 20
-89.92383479396311
 30
0.0
 10
-357.1353995804306
 20
-89.74248101492559
 30
0.0
 10
-357.4614883770932
 20
-89.60783301603026
 30
0.0
 10
-357.790157268252
 20
-89.50916700960217
 30
0.0
 10
-358.1222921217393
 20
-89.4376549843185
 30
0.0
 10
-358.4508244322487
 20
-89.3882370645046
 30
0.0
 10
-358.7842686690282
 20
-89.35418441379781
 30
0.0
 10
-359.109329971482
 20
-89.33264822100651
 30
0.0
 10
-359.4437960663219
 20
-89.31880394283489
 30
0.0
 10
-359.7137584909409
 20
-89.312410516017
 30
0.0
 10
-359.9413661209142
 20
-89.30901064225043
 30
0.0
 10
-360.1127154380565
 20
-89.30730726309716
 30
0.0
 10
-360.2848336204212
 20
-89.3063883138282
 30
0.0
 10
-360.4449848220325
 20
-89.30612706010976
 30
0.0
 10
-360.6051633831065
 20
-89.30638347979891
 30
0.0
 10
-360.7772975398333
 20
-89.30729688728672
 30
0.0
 10
-360.9486741529452
 20
-89.30899431829755
 30
0.0
 10
-361.1762998476627
 20
-89.31238460399828
 30
0.0
 10
-361.4462447211
 20
-89.31876215543011
 30
0.0
 10
-361.7806880179652
 20
-89.33257716855331
 30
0.0
 10
-362.1056831680999
 20
-89.35406802013287
 30
0.0
 10
-362.4393818845731
 20
-89.38808549640268
 30
0.0
 10
-362.7684710050432
 20
-89.43752538988468
 30
0.0
 10
-363.1010863194432
 20
-89.50912325850776
 30
0.0
 10
-363.4298407683564
 20
-89.60782519339514
 30
0.0
 10
-363.7558305208681
 20
-89.74240874879992
 30
0.0
 10
-364.0789850478661
 20
-89.92377426380507
 30
0.0
 10
-364.4136907378585
 20
-90.1812897632065
 30
0.0
 10
-364.7094464287179
 20
-90.51155113865013
 30
0.0
 10
-364.9217640519607
 20
-90.8653325371977
 30
0.0
 10
-365.0496113759524
 20
-91.17053038926224
 30
0.0
 10
-365.1179425586583
 20
-91.40137492214183
 30
0.0
 10
-365.1585731122516
 20
-91.58987812891951
 30
0.0
 10
-365.1831783446058
 20
-91.7490692739287
 30
0.0
 10
-365.1993890600862
 20
-91.91508595271459
 30
0.0
 10
-365.2018342809996
 20
-92.0256707444727
 30
0.0
 10
-365.2030566821413
 20
-92.08095396208279
 30
0.0
 11
-355.6883242458963
 21
-92.08095396208947
 31
0.0
 11
-355.6934249526976
 21
-91.92550128231201
 31
0.0
 11
-355.7095653335989
 21
-91.75074654345445
 31
0.0
 11
-355.7336711776699
 21
-91.59379595321862
 31
0.0
 11
-355.7668686716266
 21
-91.43831146083126
 31
0.0
 11
-355.8410826405334
 21
-91.18807386253135
 31
0.0
 11
-355.9613748497347
 21
-90.9014383961213
 31
0.0
 11
-356.192153683236
 21
-90.52240022561793
 31
0.0
 11
-356.5125828356213
 21
-90.16816729907157
 31
0.0
 11
-356.8281018960712
 21
-89.9244018221323
 31
0.0
 11
-357.141503004353
 21
-89.74741776171591
 31
0.0
 11
-357.4644000254128
 21
-89.61296165599937
 31
0.0
 11
-357.7960486919166
 21
-89.51230104261597
 31
0.0
 11
-358.1201537939553
 21
-89.44162052062921
 31
0.0
 11
-358.4563682622501
 21
-89.39019231642324
 31
0.0
 11
-358.7789419241881
 21
-89.35661536668192
 31
0.0
 11
-359.1189912424874
 21
-89.33348154478057
 31
0.0
 11
-359.4307207607869
 21
-89.32021127815946
 31
0.0
 11
-359.7819644673966
 21
-89.31151765816958
 31
0.0
 11
-359.928663962701
 21
-89.3093085162358
 31
0.0
 11
-360.1134857120694
 21
-89.30744226761362
 31
0.0
 11
-360.2960063064007
 21
-89.30645286765537
 31
0.0
 11
-360.4450121356732
 21
-89.30620731549345
 31
0.0
 11
-360.593936035169
 21
-89.3064481456204
 31
0.0
 11
-360.7765387175116
 21
-89.30743194482403
 31
0.0
 11
-360.9614082481237
 21
-89.30929189546067
 31
0.0
 11
-361.1080597853787
 21
-89.31149390748634
 31
0.0
 11
-361.4593580922063
 21
-89.32016829266539
 31
0.0
 11
-361.7710290850583
 21
-89.33340913181492
 31
0.0
 11
-362.111015391974
 21
-89.3564950361266
 31
0.0
 11
-362.4335149346659
 21
-89.3900043218991
 31
0.0
 11
-362.7706245032622
 21
-89.44151022484414
 31
0.0
 11
-363.0955560694777
 21
-89.51235843808942
 31
0.0
 11
-363.426932499174
 21
-89.61294445882817
 31
0.0
 11
-363.7495762227014
 21
-89.74727179050663
 31
0.0
 11
-364.0631886192436
 21
-89.92434259084015
 31
0.0
 11
-364.3788947689138
 21
-90.1682551227498
 31
0.0
 11
-364.7141904162443
 21
-90.54284365243576
 31
0.0
 11
-364.9298573583675
 21
-90.90113671964471
 31
0.0
 11
-365.0502516215543
 21
-91.1879408828483
 31
0.0
 11
-365.12450741053
 21
-91.43829162509336
 31
0.0
 11
-365.1558609910385
 21
-91.58381136526971
 31
0.0
 11
-365.1817288449038
 21
-91.75004934363866
 31
0.0
 11
-365.1973124885334
 21
-91.91521216305387
 31
0.0
 11
-365.2030566821413
 21
-92.08095396208279
 31
0.0
  0
SPLINE
  5
13D
330
63
100
AcDbEntity
  8
0
  6
Continuous
 62
     7
100
AcDbSpline
210
0.0
220
0.0
230
1.0
 70
     8
 71
     3
 72
    59
 73
    55
 74
    53
 42
0.000000001
 43
0.0000000001
 44
0.00000001
 40
0.0
 40
0.0
 40
0.0
 40
0.0
 40
0.1557811819353582
 40
0.3334982318565871
 40
0.5079686198882082
 40
0.6667516165856574
 40
0.8297831780697343
 40
0.999466102969435
 40
1.171040556429305
 40
1.332465886758074
 40
1.64887668497869
 40
1.997217949181828
 40
2.339571860792225
 40
2.663309238914151
 40
3.339475200370237
 40
3.991103223327481
 40
4.65071013628538
 40
5.321637728645925
 40
5.973684933200897
 40
6.648082748272501
 40
7.294101422602624
 40
7.974595221592523
 40
8.598193222347504
 40
9.300736677055705
 40
9.594143765447539
 40
9.963792195072376
 40
10.24302256397172
 40
10.62684648464018
 40
11.01067327187643
 40
11.28990107115252
 40
11.65964502978277
 40
11.95295615171184
 40
12.65560856738425
 40
13.27908891150128
 40
13.95945512823207
 40
14.60532225511462
 40
15.2815110376586
 40
15.93521955631839
 40
16.60559751378678
 40
17.26468235222465
 40
17.91674103671864
 40
18.59330861528771
 40
18.91638027576729
 40
19.25798488715714
 40
19.57588686316502
 40
19.92350477736085
 40
20.08451862136602
 40
20.25562064555846
 40
20.4162812462659
 40
20.58961853542001
 40
20.75832945970412
 40
20.92217884573665
 40
21.10030016029723
 40
21.25639432388334
 40
21.25639432388334
 40
21.25639432388334
 40
21.25639432388334
 10
-336.6588593734063
 20
-92.0809539620839
 30
0.0
 10
-336.6610692875586
 20
-92.02902184101634
 30
0.0
 10
-336.6658002910826
 20
-91.9178449300228
 30
0.0
 10
-336.6979342452599
 20
-91.75094543046717
 30
0.0
 10
-336.7485021183795
 20
-91.58800450786251
 30
0.0
 10
-336.8143162419984
 20
-91.43592428006832
 30
0.0
 10
-336.8932685523059
 20
-91.29211964044079
 30
0.0
 10
-336.9870878563962
 20
-91.1523855840645
 30
0.0
 10
-337.0917554309917
 20
-91.0213107421902
 30
0.0
 10
-337.2388397615525
 20
-90.86228792196918
 30
0.0
 10
-337.4444927824146
 20
-90.67814121963671
 30
0.0
 10
-337.7177179959699
 20
-90.48211895059578
 30
0.0
 10
-338.0097067892219
 20
-90.3108038351271
 30
0.0
 10
-338.4115191673936
 20
-90.11333456314405
 30
0.0
 10
-338.9273257917634
 20
-89.9173891459213
 30
0.0
 10
-339.566053386304
 20
-89.73944596845556
 30
0.0
 10
-340.2136733592071
 20
-89.60639409127499
 30
0.0
 10
-340.8675001205916
 20
-89.50856375504738
 30
0.0
 10
-341.5296192179495
 20
-89.43741152934886
 30
0.0
 10
-342.185347470358
 20
-89.38815096058384
 30
0.0
 10
-342.8514941443079
 20
-89.35415542354134
 30
0.0
 10
-343.5012012776523
 20
-89.33264052007806
 30
0.0
 10
-344.1699463637282
 20
-89.31880183175879
 30
0.0
 10
-344.7097638990954
 20
-89.31241022313748
 30
0.0
 10
-345.1649509363177
 20
-89.30901063929298
 30
0.0
 10
-345.4790427920212
 20
-89.30744919443912
 30
0.0
 10
-345.8232756618366
 20
-89.30643868770919
 30
0.0
 10
-346.1722361075558
 20
-89.30607485744325
 30
0.0
 10
-346.5211957018116
 20
-89.30643352859448
 30
0.0
 10
-346.8654605295165
 20
-89.30743857438958
 30
0.0
 10
-347.1795514103031
 20
-89.3089943158442
 30
0.0
 10
-347.6347746937848
 20
-89.31238431303174
 30
0.0
 10
-348.1745575118144
 20
-89.3187600563897
 30
0.0
 10
-348.8432577278605
 20
-89.33256951464871
 30
0.0
 10
-349.4928339473216
 20
-89.3540391802541
 30
0.0
 10
-350.1594868572108
 20
-89.38799958194139
 30
0.0
 10
-350.8163172847586
 20
-89.43728118278578
 30
0.0
 10
-351.4794013662619
 20
-89.50851901362714
 30
0.0
 10
-352.1334206672824
 20
-89.60638814249411
 30
0.0
 10
-352.7808345220792
 20
-89.73937762430336
 30
0.0
 10
-353.4196705543923
 20
-89.91731500791667
 30
0.0
 10
-353.9355345732083
 20
-90.1132809049194
 30
0.0
 10
-354.3370401666203
 20
-90.31058931312081
 30
0.0
 10
-354.6199091047715
 20
-90.47648051945606
 30
0.0
 10
-354.89387140476
 20
-90.6712270121748
 30
0.0
 10
-355.1008689649991
 20
-90.85426436610214
 30
0.0
 10
-355.2548604088014
 20
-91.02066775211458
 30
0.0
 10
-355.3575293375535
 20
-91.14911246223163
 30
0.0
 10
-355.4518811959023
 20
-91.28877858499573
 30
0.0
 10
-355.5330954574649
 20
-91.43564420925573
 30
0.0
 10
-355.5997520606037
 20
-91.59090444079733
 30
0.0
 10
-355.649779544058
 20
-91.7538609617558
 30
0.0
 10
-355.6813598478021
 20
-91.91750218228336
 30
0.0
 10
-355.6861070693434
 20
-92.02891772490828
 30
0.0
 10
-355.6883242458963
 20
-92.08095396208947
 30
0.0
 11
-336.6588593734063
 21
-92.0809539620839
 31
0.0
 11
-336.6690600798726
 21
-91.92550710703244
 31
0.0
 11
-336.7013415488127
 21
-91.7507465434491
 31
0.0
 11
-336.753128194923
 21
-91.58413904287627
 31
0.0
 11
-336.8159482248781
 21
-91.43831146082624
 31
0.0
 11
-336.8942297413273
 21
-91.29530343987531
 31
0.0
 11
-336.9886069108017
 21
-91.15428838845398
 31
0.0
 11
-337.0954838599329
 21
-91.02006800743523
 31
0.0
 11
-337.2049605810869
 21
-90.9014383961173
 31
0.0
 11
-337.4399146244663
 21
-90.68951296032259
 31
0.0
 11
-337.7222476250927
 21
-90.48547935356154
 31
0.0
 11
-338.0170925486594
 21
-90.3114889185271
 31
0.0
 11
-338.3073765528615
 21
-90.16816729906921
 31
0.0
 11
-338.9381119509841
 21
-89.92450100303371
 31
0.0
 11
-339.5652168903251
 21
-89.74741776171459
 31
0.0
 11
-340.2109757575508
 21
-89.61296790477458
 31
0.0
 11
-340.8743082654526
 21
-89.51230104261525
 31
0.0
 11
-341.5225133915682
 21
-89.4416209854526
 31
0.0
 11
-342.1949474061196
 21
-89.39019231642288
 31
0.0
 11
-342.8400929092565
 21
-89.35661544368966
 31
0.0
 11
-343.5201933665943
 21
-89.33348154478043
 31
0.0
 11
-344.1436501546735
 21
-89.32021131529639
 31
0.0
 11
-344.846139816413
 21
-89.31151765816954
 31
0.0
 11
-345.1395385877133
 21
-89.30930851762994
 31
0.0
 11
-345.5091823057589
 21
-89.30744226761361
 31
0.0
 11
-345.7884114495525
 21
-89.30661523991286
 31
0.0
 11
-346.1722351529661
 21
-89.30620731549345
 31
0.0
 11
-346.5560617290387
 21
-89.30660946911415
 31
0.0
 11
-346.8352883166431
 21
-89.30743194482406
 31
0.0
 11
-347.2050275966465
 21
-89.30929189684717
 31
0.0
 11
-347.4983304523783
 21
-89.31149390748641
 31
0.0
 11
-348.2009293211636
 21
-89.3201683298323
 31
0.0
 11
-348.8242690517363
 21
-89.33340913181509
 31
0.0
 11
-349.504243481577
 21
-89.35649511279438
 31
0.0
 11
-350.1492407509588
 21
-89.3900043218995
 31
0.0
 11
-350.8234650179539
 21
-89.441510694108
 31
0.0
 11
-351.4733230205752
 21
-89.51235843809023
 31
0.0
 11
-352.1361109239744
 21
-89.61295068408498
 31
0.0
 11
-352.7813633270226
 21
-89.74727179050814
 31
0.0
 11
-353.4088912403219
 21
-89.92444189253344
 31
0.0
 11
-354.0400004194471
 21
-90.16825512275247
 31
0.0
 11
-354.329691297508
 21
-90.31127432664081
 31
0.0
 11
-354.6239264087329
 21
-90.48482377057101
 31
0.0
 11
-354.8825103716749
 21
-90.66974537589154
 31
0.0
 11
-355.1419255983531
 21
-90.90113671964937
 31
0.0
 11
-355.2511543277278
 21
-91.0194352510242
 31
0.0
 11
-355.3578031751464
 21
-91.15323332980054
 31
0.0
 11
-355.4475622224293
 21
-91.28648175159276
 31
0.0
 11
-355.5312257026968
 21
-91.43829162509931
 31
0.0
 11
-355.5974999721528
 21
-91.59344025372664
 31
0.0
 11
-355.6456685714229
 21
-91.75004934364509
 31
0.0
 11
-355.6780857369257
 21
-91.92519593386795
 31
0.0
 11
-355.6883242458963
 21
-92.08095396208947
 31
0.0
  0
ENDBLK
  5
65
330
63
100
AcDbEntity
  8
0
100
AcDbBlockEnd
  0
BLOCK
  5
68
330
66
100
AcDbEntity
  8
0
100
AcDbBlockBegin
  2
SA_Rechts1
 70
     0
 10
-346.1735919999999
 20
-106.0
 30
0.0
  3
SA_Rechts1
  1

  0
INSERT
  5
67
330
66
100
AcDbEntity
  8
0
100
AcDbBlockReference
  2
G_CCS_M25_M66N_PNES_BK-select__5
 10
-365.2030566821413
 20
-129.8349990844676
 30
0.0
  0
MTEXT
  5
13E
330
66
100
AcDbEntity
  8
1
 62
     6
100
AcDbMText
 10
-346.0860757816008
 20
-134.8349990844677
 30
0.0
 40
5.0
 41
0.0
 71
     2
 72
     1
  1
 
  7
CONVERTER_11
 73
     1
 44
1.32052821128451
  0
ENDBLK
  5
69
330
66
100
AcDbEntity
  8
0
100
AcDbBlockEnd
  0
BLOCK
  5
6B
330
6A
100
AcDbEntity
  8
0
100
AcDbBlockBegin
  2
G_CCS_M25_M66N_PNES_BK-select__6
 70
     0
 10
-283.9717983615725
 20
-129.8349990844676
 30
0.0
  3
G_CCS_M25_M66N_PNES_BK-select__6
  1

  0
LINE
  5
13F
330
6A
100
AcDbEntity
  8
0
  6
Continuous
 62
     7
100
AcDbLine
 10
-255.1307983615725
 20
-119.8349990844676
 30
0.0
 11
-267.4917983615726
 21
-119.8349990844676
 31
0.0
  0
LINE
  5
140
330
6A
100
AcDbEntity
  8
0
  6
Continuous
 62
     7
100
AcDbLine
 10
-251.156787209051
 20
-119.8349990844676
 30
0.0
 11
-255.1307983615725
 21
-119.8349990844676
 31
0.0
  0
LINE
  5
141
330
6A
100
AcDbEntity
  8
0
  6
Continuous
 62
     7
100
AcDbLine
 10
-279.8527983615725
 20
-119.8349990844676
 30
0.0
 11
-283.8268095140941
 21
-119.8349990844676
 31
0.0
  0
LINE
  5
142
330
6A
100
AcDbEntity
  8
0
  6
Continuous
 62
     7
100
AcDbLine
 10
-267.4917983615726
 20
-119.8349990844676
 30
0.0
 11
-279.8527983615725
 21
-119.8349990844676
 31
0.0
  0
LINE
  5
143
330
6A
100
AcDbEntity
  8
0
  6
Continuous
 62
     7
100
AcDbLine
 10
-255.1307983615725
 20
-129.8349990844676
 30
0.0
 11
-279.8527983615725
 21
-129.8349990844676
 31
0.0
  0
LINE
  5
144
330
6A
100
AcDbEntity
  8
0
  6
Continuous
 62
     7
100
AcDbLine
 10
-251.0117983615725
 20
-89.30620731047756
 30
0.0
 11
-251.0117983615725
 21
-92.08095396208944
 31
0.0
  0
LINE
  5
145
330
6A
100
AcDbEntity
  8
0
  6
Continuous
 62
     7
100
AcDbLine
 10
-251.25179836209
 20
-89.29499908446566
 30
0.0
 11
-259.3827177245195
 21
-89.29499908446566
 31
0.0
  0
LINE
  5
146
330
6A
100
AcDbEntity
  8
0
  6
Continuous
 62
     7
100
AcDbLine
 10
-259.3827177245195
 20
-89.29499908446566
 30
0.0
 11
-283.731798361055
 21
-89.29499908446566
 31
0.0
  0
LINE
  5
147
330
6A
100
AcDbEntity
  8
0
  6
Continuous
 62
     7
100
AcDbLine
 10
-281.8517983615725
 20
-104.6249990844676
 30
0.0
 11
-283.9717983615725
 21
-104.6249990844676
 31
0.0
  0
LINE
  5
148
330
6A
100
AcDbEntity
  8
0
  6
Continuous
 62
     7
100
AcDbLine
 10
-281.8517983615725
 20
-113.4549990844676
 30
0.0
 11
-283.8268095140941
 21
-113.4549990844676
 31
0.0
  0
LINE
  5
149
330
6A
100
AcDbEntity
  8
0
  6
Continuous
 62
     7
100
AcDbLine
 10
-267.4917983615726
 20
-113.4549990844676
 30
0.0
 11
-281.8517983615725
 21
-113.4549990844676
 31
0.0
  0
LINE
  5
14A
330
6A
100
AcDbEntity
  8
0
  6
Continuous
 62
     7
100
AcDbLine
 10
-267.4917983615725
 20
-104.6249990844676
 30
0.0
 11
-281.8517983615725
 21
-104.6249990844676
 31
0.0
  0
LINE
  5
14B
330
6A
100
AcDbEntity
  8
0
  6
Continuous
 62
     7
100
AcDbLine
 10
-267.4917983615726
 20
-119.8349990844676
 30
0.0
 11
-267.4917983615726
 21
-113.4549990844676
 31
0.0
  0
LINE
  5
14C
330
6A
100
AcDbEntity
  8
0
  6
Continuous
 62
     7
100
AcDbLine
 10
-267.4917983615725
 20
-104.6249990844676
 30
0.0
 11
-267.4917983615725
 21
-92.08095396208276
 31
0.0
  0
LINE
  5
14D
330
6A
100
AcDbEntity
  8
0
  6
Continuous
 62
     7
100
AcDbLine
 10
-251.0117983615725
 20
-92.08095396208944
 30
0.0
 11
-251.0117983615725
 21
-104.6249990844676
 31
0.0
  0
LINE
  5
14E
330
6A
100
AcDbEntity
  8
0
  6
Continuous
 62
     7
100
AcDbLine
 10
-251.156787209051
 20
-119.8349990844676
 30
0.0
 11
-251.156787209051
 21
-113.4549990844676
 31
0.0
  0
LINE
  5
14F
330
6A
100
AcDbEntity
  8
0
  6
Continuous
 62
     7
100
AcDbLine
 10
-253.1317983615725
 20
-104.6249990844676
 30
0.0
 11
-253.1317983615725
 21
-113.4549990844676
 31
0.0
  0
LINE
  5
150
330
6A
100
AcDbEntity
  8
0
  6
Continuous
 62
     7
100
AcDbLine
 10
-255.1307983615725
 20
-119.8349990844676
 30
0.0
 11
-255.1307983615725
 21
-129.8349990844676
 31
0.0
  0
LINE
  5
151
330
6A
100
AcDbEntity
  8
0
  6
Continuous
 62
     7
100
AcDbLine
 10
-251.0117983615725
 20
-104.6249990844676
 30
0.0
 11
-253.1317983615725
 21
-104.6249990844676
 31
0.0
  0
LINE
  5
152
330
6A
100
AcDbEntity
  8
0
  6
Continuous
 62
     7
100
AcDbLine
 10
-251.156787209051
 20
-113.4549990844676
 30
0.0
 11
-253.1317983615725
 21
-113.4549990844676
 31
0.0
  0
LINE
  5
153
330
6A
100
AcDbEntity
  8
0
  6
Continuous
 62
     7
100
AcDbLine
 10
-253.1317983615725
 20
-113.4549990844676
 30
0.0
 11
-267.4917983615726
 21
-113.4549990844676
 31
0.0
  0
LINE
  5
154
330
6A
100
AcDbEntity
  8
0
  6
Continuous
 62
     7
100
AcDbLine
 10
-253.1317983615725
 20
-104.6249990844676
 30
0.0
 11
-267.4917983615725
 21
-104.6249990844676
 31
0.0
  0
LINE
  5
155
330
6A
100
AcDbEntity
  8
0
  6
Continuous
 62
     7
100
AcDbLine
 10
-283.8268095140941
 20
-119.8349990844676
 30
0.0
 11
-283.8268095140941
 21
-113.4549990844676
 31
0.0
  0
LINE
  5
156
330
6A
100
AcDbEntity
  8
0
  6
Continuous
 62
     7
100
AcDbLine
 10
-283.9717983615725
 20
-92.0809539620827
 30
0.0
 11
-283.9717983615725
 21
-89.30620731047755
 31
0.0
  0
LINE
  5
157
330
6A
100
AcDbEntity
  8
0
  6
Continuous
 62
     7
100
AcDbLine
 10
-283.9717983615725
 20
-92.0809539620827
 30
0.0
 11
-283.9717983615725
 21
-104.6249990844676
 31
0.0
  0
LINE
  5
158
330
6A
100
AcDbEntity
  8
0
  6
Continuous
 62
     7
100
AcDbLine
 10
-281.8517983615725
 20
-104.6249990844676
 30
0.0
 11
-281.8517983615725
 21
-113.4549990844676
 31
0.0
  0
LINE
  5
159
330
6A
100
AcDbEntity
  8
0
  6
Continuous
 62
     7
100
AcDbLine
 10
-279.8527983615725
 20
-119.8349990844676
 30
0.0
 11
-279.8527983615725
 21
-129.8349990844676
 31
0.0
  0
LINE
  5
15A
330
6A
100
AcDbEntity
  8
0
  6
Continuous
 62
     7
100
AcDbLine
 10
-262.9254472268303
 20
-82.16499908446761
 30
0.0
 11
-276.6367983615725
 21
-82.16499908446761
 31
0.0
  0
LINE
  5
15B
330
6A
100
AcDbEntity
  8
0
  6
Continuous
 62
     7
100
AcDbLine
 10
-258.3467983615725
 20
-82.16499908446761
 30
0.0
 11
-262.9254472268303
 21
-82.16499908446761
 31
0.0
  0
LINE
  5
15C
330
6A
100
AcDbEntity
  8
1
  6
DOT_CENTER
 62
     2
100
AcDbLine
 10
-267.4917983615725
 20
-104.6249990844676
 30
0.0
 11
-267.4917983615726
 21
-113.4549990844676
 31
0.0
  0
LINE
  5
15D
330
6A
100
AcDbEntity
  8
1
  6
DOT_CENTER
 62
     2
100
AcDbLine
 10
-267.4917983615726
 20
-119.8349990844676
 30
0.0
 11
-267.4917983615725
 21
-129.8349990844676
 31
0.0
  0
ARC
  5
15E
330
6A
100
AcDbEntity
  8
0
  6
Continuous
 62
     7
100
AcDbCircle
 10
-283.7212983615725
 20
-92.09497939689838
 30
0.0
 40
2.799999999999996
100
AcDbArc
 50
90.21485966616339
 51
95.13278859905407
  0
ARC
  5
15F
330
6A
100
AcDbEntity
  8
0
  6
Continuous
 62
     7
100
AcDbCircle
 10
-251.2622983615725
 20
-92.09497939689838
 30
0.0
 40
2.79999999999999
100
AcDbArc
 50
84.86721140094535
 51
89.78514033383603
  0
ARC
  5
160
330
6A
100
AcDbEntity
  8
0
  6
Continuous
 62
     7
100
AcDbCircle
 10
-276.6017983615725
 20
-89.29491317932175
 30
0.0
 40
7.129999999999985
100
AcDbArc
 50
90.28125670922374
 51
180.000690322887
  0
ARC
  5
161
330
6A
100
AcDbEntity
  8
0
  6
Continuous
 62
     7
100
AcDbCircle
 10
-258.3817983615725
 20
-89.29491317932175
 30
0.0
 40
7.130000000000032
100
AcDbArc
 50
359.999309677113
 51
89.71874329077625
  0
SPLINE
  5
162
330
6A
100
AcDbEntity
  8
0
  6
Continuous
 62
     7
100
AcDbSpline
210
0.0
220
0.0
230
1.0
 70
     8
 71
     3
 72
    51
 73
    47
 74
    45
 42
0.000000001
 43
0.0000000001
 44
0.00000001
 40
0.0
 40
0.0
 40
0.0
 40
0.0
 40
0.3253131765917988
 40
0.6600741473770735
 40
0.9676502508959755
 40
1.295764240286873
 40
1.5752560987681
 40
1.908012187704143
 40
2.21701029200244
 40
2.506377053662027
 40
3.104533540165822
 40
3.675723948391893
 40
4.250906081834925
 40
4.834118678753986
 40
5.399913390741423
 40
5.984524327421137
 40
6.54424492291969
 40
7.133683167526597
 40
7.673775852846706
 40
8.282211643033053
 40
8.536312057015524
 40
8.856438326602918
 40
9.148136517412707
 40
9.430660607036918
 40
9.71323812895675
 40
10.00488313901734
 40
10.32509212962821
 40
10.57910941953387
 40
11.1876395009933
 40
11.72763012043259
 40
12.31695742775659
 40
12.87654582372046
 40
13.46270798683476
 40
14.02994387215896
 40
14.61267904153022
 40
15.18740460598222
 40
15.75897015941383
 40
16.35748217232921
 40
16.64625303080742
 40
16.95456628108905
 40
17.24495822207523
 40
17.56750104593912
 40
17.92220755721268
 40
18.2035562948896
 40
18.53832870419634
 40
18.86365188277611
 40
18.86365188277611
 40
18.86365188277611
 40
18.86365188277611
 10
-267.4917983615725
 20
-92.08095396208276
 30
0.0
 10
-267.4991246408656
 20
-91.9724040408609
 30
0.0
 10
-267.5139899769364
 20
-91.75215167691942
 30
0.0
 10
-267.6164067156034
 20
-91.4429173272913
 30
0.0
 10
-267.766719586851
 20
-91.15549204143367
 30
0.0
 10
-267.9494474173434
 20
-90.90958304051578
 30
0.0
 10
-268.166819301134
 20
-90.68302026509193
 30
0.0
 10
-268.4032432090617
 20
-90.48597788857153
 30
0.0
 10
-268.6604379548962
 20
-90.311556063169
 30
0.0
 10
-269.0075277056792
 20
-90.11444511498478
 30
0.0
 10
-269.453911314095
 20
-89.91825612306245
 30
0.0
 10
-270.008072275109
 20
-89.73982984257962
 30
0.0
 10
-270.5694797437251
 20
-89.60656438710922
 30
0.0
 10
-271.1360902685221
 20
-89.50863346084984
 30
0.0
 10
-271.7097228974697
 20
-89.43743902377074
 30
0.0
 10
-272.2777329475285
 20
-89.38816061979648
 30
0.0
 10
-272.8547053090494
 20
-89.35415865295897
 30
0.0
 10
-273.4174084251547
 20
-89.33264137886012
 30
0.0
 10
-273.9965767025656
 20
-89.31880206095728
 30
0.0
 10
-274.4640827356181
 20
-89.31241027257005
 30
0.0
 10
-274.8582889912512
 20
-89.30901061319219
 30
0.0
 10
-275.1469263879425
 20
-89.30735391295747
 30
0.0
 10
-275.4450412823991
 20
-89.306404941963
 30
0.0
 10
-275.7306412723762
 20
-89.30611124763968
 30
0.0
 10
-276.0162235403329
 20
-89.30640010120347
 30
0.0
 10
-276.3143661088835
 20
-89.30734373810839
 30
0.0
 10
-276.6029856782026
 20
-89.30899428976082
 30
0.0
 10
-276.9972233127588
 20
-89.3123843622153
 30
0.0
 10
-277.4646992426136
 20
-89.31876028424264
 30
0.0
 10
-278.0438285913779
 20
-89.33257036828034
 30
0.0
 10
-278.6064181969407
 20
-89.35404239253202
 30
0.0
 10
-279.1838292322665
 20
-89.38800922091689
 30
0.0
 10
-279.7527949062913
 20
-89.43730875584875
 30
0.0
 10
-280.3272628822297
 20
-89.508588851163
 30
0.0
 10
-280.8940379026471
 20
-89.60655815101822
 30
0.0
 10
-281.4552678073112
 20
-89.73976125934766
 30
0.0
 10
-282.0095257947002
 20
-89.91818259853463
 30
0.0
 10
-282.455956238681
 20
-90.11439189351857
 30
0.0
 10
-282.8027740927748
 20
-90.31133685753676
 30
0.0
 10
-283.0479669150095
 20
-90.4775477630944
 30
0.0
 10
-283.2855739020242
 20
-90.67282668205837
 30
0.0
 10
-283.5115066755828
 20
-90.90405530379965
 30
0.0
 10
-283.70167007128
 20
-91.16287257202879
 30
0.0
 10
-283.8499181968206
 20
-91.45126683012649
 30
0.0
 10
-283.9496160940902
 20
-91.75214516282018
 30
0.0
 10
-283.9644751768769
 20
-91.97240201655926
 30
0.0
 10
-283.9717983615725
 20
-92.0809539620827
 30
0.0
 11
-267.4917983615725
 21
-92.08095396208276
 31
0.0
 11
-267.5271357641155
 21
-91.75756574754533
 31
0.0
 11
-267.6278412975962
 21
-91.43831146082545
 31
0.0
 11
-267.770201605581
 21
-91.16566406719986
 31
0.0
 11
-267.9647358804616
 21
-90.90143839611683
 31
0.0
 11
-268.1577574737892
 21
-90.69930387884696
 31
0.0
 11
-268.4127196016191
 21
-90.48547935356129
 31
0.0
 11
-268.6680724455621
 21
-90.3114829364178
 31
0.0
 11
-268.9194561175558
 21
-90.16816729906913
 31
0.0
 11
-269.4657262428687
 21
-89.92448691132239
 31
0.0
 11
-270.0087778037037
 21
-89.7474177617146
 31
0.0
 11
-270.56802508164
 21
-89.61296714698189
 31
0.0
 11
-271.1424841904388
 21
-89.51230104261529
 31
0.0
 11
-271.7038467980713
 21
-89.44162093243953
 31
0.0
 11
-272.286191235488
 21
-89.39019231642291
 31
0.0
 11
-272.8449038066643
 21
-89.35661543507845
 31
0.0
 11
-273.4338879035215
 21
-89.33348154478043
 31
0.0
 11
-273.9738175367275
 21
-89.32021131116613
 31
0.0
 11
-274.5821912131218
 21
-89.3115176581695
 31
0.0
 11
-274.8362820234638
 21
-89.30930851747607
 31
0.0
 11
-275.1564028526835
 21
-89.30744226761357
 31
0.0
 11
-275.4480995265174
 21
-89.30650165390179
 31
0.0
 11
-275.7306234624165
 21
-89.30620731549341
 31
0.0
 11
-276.0132008355742
 21
-89.3064968782129
 31
0.0
 11
-276.3048443462202
 21
-89.307431944824
 31
0.0
 11
-276.6250479345134
 21
-89.30929189669367
 31
0.0
 11
-276.8790556795458
 21
-89.31149390748631
 31
0.0
 11
-277.4875239313565
 21
-89.32016832569823
 31
0.0
 11
-278.0273521904482
 21
-89.33340913181495
 31
0.0
 11
-278.6162271449686
 21
-89.35649510423171
 31
0.0
 11
-279.1748113412678
 21
-89.39000432189917
 31
0.0
 11
-279.7587061773897
 21
-89.44151064055946
 31
0.0
 11
-280.3215002234578
 21
-89.51235843808958
 31
0.0
 11
-280.8954877046768
 21
-89.61294992914527
 31
0.0
 11
-281.454296358015
 21
-89.74727179050686
 31
0.0
 11
-281.997714184267
 21
-89.92442778673207
 31
0.0
 11
-282.5443080541999
 21
-90.16825512275004
 31
0.0
 11
-282.7951781590712
 21
-90.31126840496442
 31
0.0
 11
-283.05000279485
 21
-90.4848237705677
 31
0.0
 11
-283.2739204461246
 21
-90.66972472911714
 31
0.0
 11
-283.498603252203
 21
-90.90113671964491
 31
0.0
 11
-283.7071879005289
 21
-91.18803243733745
 31
0.0
 11
-283.835747032256
 21
-91.43829162509341
 31
0.0
 11
-283.936458884507
 21
-91.75755591270608
 31
0.0
 11
-283.9717983615725
 21
-92.0809539620827
 31
0.0
  0
SPLINE
  5
163
330
6A
100
AcDbEntity
  8
0
  6
Continuous
 62
     7
100
AcDbSpline
210
0.0
220
0.0
230
1.0
 70
     8
 71
     3
 72
    51
 73
    47
 74
    45
 42
0.000000001
 43
0.0000000001
 44
0.00000001
 40
0.0
 40
0.0
 40
0.0
 40
0.0
 40
0.1556995850842758
 40
0.3326802235494324
 40
0.4950892402679961
 40
0.6608653683283153
 40
0.9420808536404559
 40
1.296546487928254
 40
1.814512824701094
 40
2.505806361734276
 40
3.103962848212999
 40
3.675153256421744
 40
4.250335389872908
 40
4.833547986775448
 40
5.399342698754496
 40
5.983953635464964
 40
6.543674230973906
 40
7.133112475621701
 40
7.673205161020215
 40
8.281640951202503
 40
8.535741365078225
 40
8.855867634815333
 40
9.097688588649945
 40
9.430089909934226
 40
9.688033790723994
 40
10.00431243710527
 40
10.32452142786094
 40
10.57853871766687
 40
11.18706879924557
 40
11.7270594186447
 40
12.31638672540657
 40
12.875975121997
 40
13.46213728600059
 40
14.02937317046526
 40
14.61210833984084
 40
15.18683390429314
 40
15.75839945782444
 40
16.35691147061254
 40
17.047814270138
 40
17.56558847031627
 40
17.89390361468534
 40
18.20165272419052
 40
18.35698556223963
 40
18.529145395306
 40
18.68597416123252
 40
18.86253753411762
 40
18.86253753411762
 40
18.86253753411762
 40
18.86253753411762
 10
-251.0117983615725
 20
-92.08095396208944
 30
0.0
 10
-251.0137078780739
 20
-92.02905037819625
 30
0.0
 10
-251.0177879105649
 20
-91.91814901795566
 30
0.0
 10
-251.0449604799141
 20
-91.75488745676572
 30
0.0
 10
-251.0881698967742
 20
-91.59193897037807
 30
0.0
 10
-251.158944363229
 20
-91.40121470698287
 30
0.0
 10
-251.2820556208468
 20
-91.16299674690607
 30
0.0
 10
-251.5104971109494
 20
-90.85158939743677
 30
0.0
 10
-251.89196160452
 20
-90.49153879888019
 30
0.0
 10
-252.4048688413708
 20
-90.16836501821884
 30
0.0
 10
-252.9738312394211
 20
-89.91828883462601
 30
0.0
 10
-253.5280934667344
 20
-89.73982118578631
 30
0.0
 10
-254.0894739544874
 20
-89.60656675223218
 30
0.0
 10
-254.656091775198
 20
-89.50863284546143
 30
0.0
 10
-255.2297224832637
 20
-89.43743919308808
 30
0.0
 10
-255.7977330542441
 20
-89.38816057609537
 30
0.0
 10
-256.3747052788966
 20
-89.35415866580438
 30
0.0
 10
-256.9374084325137
 20
-89.33264137386433
 30
0.0
 10
-257.5165766996657
 20
-89.3188020691783
 30
0.0
 10
-257.9840827373259
 20
-89.31241024917396
 30
0.0
 10
-258.3782889884907
 20
-89.30901064967703
 30
0.0
 10
-258.6503008971
 20
-89.30744917620676
 30
0.0
 10
-258.9484154916983
 20
-89.30643874940674
 30
0.0
 10
-259.2258043252602
 20
-89.30610444100991
 30
0.0
 10
-259.5280123030607
 20
-89.30638339503975
 30
0.0
 10
-259.8261550229172
 20
-89.30729689963188
 30
0.0
 10
-260.1229856769535
 20
-89.3089942658145
 30
0.0
 10
-260.5172233135167
 20
-89.31238437747476
 30
0.0
 10
-260.9846992446931
 20
-89.31876028038384
 30
0.0
 10
-261.5638285839931
 20
-89.33257036669559
 30
0.0
 10
-262.1264182267825
 20
-89.35404240421242
 30
0.0
 10
-262.7038291253781
 20
-89.38800917822121
 30
0.0
 10
-263.2727953228256
 20
-89.43730892252024
 30
0.0
 10
-263.8472613706057
 20
-89.50858824614741
 30
0.0
 10
-264.4140436900652
 20
-89.60656046764957
 30
0.0
 10
-264.9752466063164
 20
-89.73975277349126
 30
0.0
 10
-265.5296060329019
 20
-89.9182147153081
 30
0.0
 10
-266.0986789623623
 20
-90.16834257005318
 30
0.0
 10
-266.611501566217
 20
-90.49145081785488
 30
0.0
 10
-266.9865152913522
 20
-90.84537241860521
 30
0.0
 10
-267.2165571798229
 20
-91.15526526868965
 30
0.0
 10
-267.3399409038548
 20
-91.38981022816363
 30
0.0
 10
-267.4142660338635
 20
-91.58835679258982
 30
0.0
 10
-267.456201047429
 20
-91.74448929055905
 30
0.0
 10
-267.4849857637324
 20
-91.91093234277025
 30
0.0
 10
-267.4894396181791
 20
-92.02208688440658
 30
0.0
 10
-267.4917983615725
 20
-92.08095396208276
 30
0.0
 11
-251.0117983615725
 21
-92.08095396208944
 31
0.0
 11
-251.020632633643
 21
-91.92550519396998
 31
0.0
 11
-251.0485890046814
 21
-91.75074654345443
 31
0.0
 11
-251.0903414817802
 21
-91.59379617249103
 31
0.0
 11
-251.1478412975989
 21
-91.43831146083123
 31
0.0
 11
-251.2763282562596
 21
-91.18816500352857
 31
0.0
 11
-251.4847358804579
 21
-90.90143839612128
 31
0.0
 11
-251.8585166515633
 21
-90.54286196073754
 31
0.0
 11
-252.4394561175513
 21
-90.16816729907153
 31
0.0
 11
-252.9857262428654
 21
-89.92448691132368
 31
0.0
 11
-253.5287778036992
 21
-89.74741776171588
 31
0.0
 11
-254.0880250816516
 21
-89.61296714697956
 31
0.0
 11
-254.6624841904347
 21
-89.51230104261595
 31
0.0
 11
-255.2238467980519
 21
-89.44162093244162
 31
0.0
 11
-255.8061912354842
 21
-89.39019231642321
 31
0.0
 11
-256.3649038066495
 21
-89.3566154350792
 31
0.0
 11
-256.953887903518
 21
-89.33348154478054
 31
0.0
 11
-257.49381753677
 21
-89.32021131116537
 31
0.0
 11
-258.1021912131187
 21
-89.31151765816955
 31
0.0
 11
-258.3562820233355
 21
-89.30930851747702
 31
0.0
 11
-258.6764028526808
 21
-89.3074422676136
 31
0.0
 11
-258.9182223919315
 21
-89.30661523989502
 31
0.0
 11
-259.2506234624137
 21
-89.30620731549341
 31
0.0
 11
-259.5085672303906
 21
-89.30644814563468
 31
0.0
 11
-259.8248443462176
 21
-89.30743194482399
 31
0.0
 11
-260.1450479346308
 21
-89.30929189669453
 31
0.0
 11
-260.3990556795441
 21
-89.31149390748631
 31
0.0
 11
-261.0075239314301
 21
-89.32016832569958
 31
0.0
 11
-261.5473521904461
 21
-89.33340913181489
 31
0.0
 11
-262.1362271443713
 21
-89.3564951042026
 31
0.0
 11
-262.6948113412702
 21
-89.39000432189907
 31
0.0
 11
-263.2787061782561
 21
-89.44151064065102
 31
0.0
 11
-263.8415002234564
 21
-89.51235843808938
 31
0.0
 11
-264.4154877046739
 21
-89.6129499291447
 31
0.0
 11
-264.974296358014
 21
-89.7472717905066
 31
0.0
 11
-265.5177141843681
 21
-89.92442778677
 31
0.0
 11
-266.0643080541992
 21
-90.16825512274977
 31
0.0
 11
-266.6449210103646
 21
-90.54273512460809
 31
0.0
 11
-267.0186032522027
 21
-90.90113671964468
 31
0.0
 11
-267.2132916716047
 21
-91.16549869268545
 31
0.0
 11
-267.3557470322676
 21
-91.43829162509333
 31
0.0
 11
-267.410056159581
 21
-91.58382103459726
 31
0.0
 11
-267.4548574638616
 21
-91.75004934363864
 31
0.0
 11
-267.4806472609743
 21
-91.90474306254487
 31
0.0
 11
-267.4917983615725
 21
-92.08095396208276
 31
0.0
  0
ENDBLK
  5
6C
330
6A
100
AcDbEntity
  8
0
100
AcDbBlockEnd
  0
BLOCK
  5
6F
330
6D
100
AcDbEntity
  8
0
100
AcDbBlockBegin
  2
Vordans1
 70
     0
 10
-267.5934789999993
 20
-106.0
 30
0.0
  3
Vordans1
  1

  0
INSERT
  5
6E
330
6D
100
AcDbEntity
  8
0
100
AcDbBlockReference
  2
G_CCS_M25_M66N_PNES_BK-select__6
 10
-283.9717983615725
 20
-129.8349990844676
 30
0.0
  0
MTEXT
  5
164
330
6D
100
AcDbEntity
  8
1
 62
     6
100
AcDbMText
 10
-267.4414069784943
 20
-134.8349990844627
 30
0.0
 40
5.0
 41
0.0
 71
     2
 72
     1
  1
 
  7
CONVERTER_11
 73
     1
 44
1.32052821128451
  0
DIMENSION
  5
16F
330
6D
100
AcDbEntity
  8
1
100
AcDbDimension
  2
*D18
 10
-293.9717983615726
 20
-129.8349990844676
 30
0.0
 11
-297.3967983615726
 21
-105.9999990844676
 31
0.0
 70
    32
  1
<>
 71
     5
 42
-1.0
 53
90.0
  3
ME10_DIM_11
100
AcDbAlignedDimension
 13
-276.6367983615725
 23
-82.16499908446761
 33
0.0
 14
-279.8527983615725
 24
-129.8349990844676
 34
0.0
 50
90.0
100
AcDbRotatedDimension
  0
DIMENSION
  5
17A
330
6D
100
AcDbEntity
  8
1
100
AcDbDimension
  2
*D19
 10
-283.9717983615725
 20
-139.8349990844676
 30
0.0
 11
-267.4917983615725
 21
-136.4099990844676
 31
0.0
 70
    32
  1
<>
 71
     5
 42
-1.0
 53
0.00013888888889
  3
ME10_DIM_12
100
AcDbAlignedDimension
 13
-251.0117983615725
 23
-104.6249990844676
 33
0.0
 14
-283.9717983615725
 24
-104.6249990844676
 34
0.0
100
AcDbRotatedDimension
  0
ENDBLK
  5
70
330
6D
100
AcDbEntity
  8
0
100
AcDbBlockEnd
  0
BLOCK
  5
72
330
71
100
AcDbEntity
  8
0
100
AcDbBlockBegin
  2
_rahmen
 70
     0
 10
-95.12253171211428
 20
-259.4971374239267
 30
0.0
  3
_rahmen
  1

  0
LINE
  5
17B
330
71
100
AcDbEntity
  8
1
  6
Continuous
 62
     6
100
AcDbLine
 10
-224.6673362388643
 20
-228.9971374239266
 30
0.0
 11
-95.12253171211259
 21
-228.9971374239266
 31
0.0
  0
LINE
  5
17C
330
71
100
AcDbEntity
  8
1
  6
Continuous
 62
     7
100
AcDbLine
 10
-206.4673362388643
 20
-250.2471374239266
 30
0.0
 11
-188.2673362388644
 21
-250.2471374239266
 31
0.0
  0
LINE
  5
17D
330
71
100
AcDbEntity
  8
1
  6
Continuous
 62
     6
100
AcDbLine
 10
-206.4673362388643
 20
-254.4971374239266
 30
0.0
 11
-224.6673362388643
 21
-254.4971374239267
 31
0.0
  0
LINE
  5
17E
330
71
100
AcDbEntity
  8
1
  6
Continuous
 62
     7
100
AcDbLine
 10
-206.4673362388643
 20
-250.2471374239266
 30
0.0
 11
-206.4673362388643
 21
-254.4971374239266
 31
0.0
  0
LINE
  5
17F
330
71
100
AcDbEntity
  8
1
  6
Continuous
 62
     7
100
AcDbLine
 10
-188.2673362388644
 20
-250.2471374239266
 30
0.0
 11
-188.2673362388644
 21
-254.4971374239267
 31
0.0
  0
LINE
  5
180
330
71
100
AcDbEntity
  8
1
  6
Continuous
 62
     7
100
AcDbLine
 10
-224.6673362388643
 20
-250.2471374239267
 30
0.0
 11
-224.6673362388643
 21
-254.4971374239267
 31
0.0
  0
LINE
  5
181
330
71
100
AcDbEntity
  8
1
  6
Continuous
 62
     7
100
AcDbLine
 10
-224.6673362388643
 20
-250.2471374239267
 30
0.0
 11
-206.4673362388643
 21
-250.2471374239266
 31
0.0
  0
LINE
  5
182
330
71
100
AcDbEntity
  8
1
  6
Continuous
 62
     2
100
AcDbLine
 10
-215.4306813523017
 20
-230.8721374239266
 30
0.0
 11
-215.4306813523017
 21
-235.8721374239266
 31
0.0
  0
LINE
  5
183
330
71
100
AcDbEntity
  8
1
  6
Continuous
 62
     2
100
AcDbLine
 10
-215.4306813523017
 20
-235.8721374239266
 30
0.0
 11
-220.4306813523017
 21
-234.6221374239266
 31
0.0
  0
LINE
  5
184
330
71
100
AcDbEntity
  8
1
  6
Continuous
 62
     2
100
AcDbLine
 10
-220.4306813523017
 20
-234.6221374239266
 30
0.0
 11
-220.4306813523017
 21
-232.1221374239266
 31
0.0
  0
LINE
  5
185
330
71
100
AcDbEntity
  8
1
  6
Continuous
 62
     2
100
AcDbLine
 10
-220.4306813523017
 20
-232.1221374239266
 30
0.0
 11
-215.4306813523017
 21
-230.8721374239266
 31
0.0
  0
LINE
  5
186
330
71
100
AcDbEntity
  8
1
  6
Continuous
 62
     6
100
AcDbLine
 10
-347.1225317121125
 20
-254.4971374239266
 30
0.0
 11
-382.1225317121124
 21
-254.4971374239266
 31
0.0
  0
LINE
  5
187
330
71
100
AcDbEntity
  8
1
  6
Continuous
 62
     6
100
AcDbLine
 10
-95.12253171211259
 20
-237.4971374239266
 30
0.0
 11
-95.12253171211299
 21
-245.9971374239266
 31
0.0
  0
LINE
  5
188
330
71
100
AcDbEntity
  8
1
  6
Continuous
 62
     6
100
AcDbLine
 10
-188.2673362388644
 20
-254.4971374239267
 30
0.0
 11
-188.6225317121143
 21
-254.4971374239266
 31
0.0
  0
LINE
  5
189
330
71
100
AcDbEntity
  8
1
  6
Continuous
 62
     6
100
AcDbLine
 10
-340.9225317121145
 20
-254.4971374239267
 30
0.0
 11
-347.1225317121125
 21
-254.4971374239266
 31
0.0
  0
LINE
  5
18A
330
71
100
AcDbEntity
  8
1
  6
Continuous
 62
     7
100
AcDbLine
 10
-188.2673362388644
 20
-237.4971374239266
 30
0.0
 11
-188.2673362388644
 21
-250.2471374239266
 31
0.0
  0
LINE
  5
18B
330
71
100
AcDbEntity
  8
1
  6
Continuous
 62
     7
100
AcDbLine
 10
-224.6673362388643
 20
-237.4971374239266
 30
0.0
 11
-224.6673362388643
 21
-250.2471374239267
 31
0.0
  0
LINE
  5
18C
330
71
100
AcDbEntity
  8
1
  6
Continuous
 62
     6
100
AcDbLine
 10
-238.6225317121143
 20
-254.4971374239266
 30
0.0
 11
-288.6225317121145
 21
-254.4971374239266
 31
0.0
  0
LINE
  5
18D
330
71
100
AcDbEntity
  8
1
  6
Continuous
 62
     6
100
AcDbLine
 10
-340.9225317121145
 20
-254.4971374239267
 30
0.0
 11
-338.6225317121143
 21
-254.4971374239266
 31
0.0
  0
LINE
  5
18E
330
71
100
AcDbEntity
  8
1
  6
Continuous
 62
     6
100
AcDbLine
 10
-188.2673362388644
 20
-254.4971374239267
 30
0.0
 11
-138.6225317121143
 21
-254.4971374239266
 31
0.0
  0
LINE
  5
18F
330
71
100
AcDbEntity
  8
1
  6
Continuous
 62
     6
100
AcDbLine
 10
-95.12253171211428
 20
-254.4971374239266
 30
0.0
 11
-95.12253171211299
 21
-245.9971374239266
 31
0.0
  0
LINE
  5
190
330
71
100
AcDbEntity
  8
1
  6
Continuous
 62
     2
100
AcDbLine
 10
-387.1225317121134
 20
-254.4971374239266
 30
0.0
 11
-387.1225317121134
 21
-259.4971374239267
 31
0.0
  0
LINE
  5
191
330
71
100
AcDbEntity
  8
1
  6
Continuous
 62
     2
100
AcDbLine
 10
-382.1225317121124
 20
-254.4971374239266
 30
0.0
 11
-387.1225317121134
 21
-254.4971374239266
 31
0.0
  0
LINE
  5
192
330
71
100
AcDbEntity
  8
1
  6
Continuous
 62
     2
100
AcDbLine
 10
-382.1225317121124
 20
-259.4971374239267
 30
0.0
 11
-338.6225317121143
 21
-259.4971374239267
 31
0.0
  0
LINE
  5
193
330
71
100
AcDbEntity
  8
1
  6
Continuous
 62
     2
100
AcDbLine
 10
-382.1225317121124
 20
-254.4971374239266
 30
0.0
 11
-382.1225317121124
 21
-259.4971374239267
 31
0.0
  0
LINE
  5
194
330
71
100
AcDbEntity
  8
1
  6
Continuous
 62
     2
100
AcDbLine
 10
-138.6225317121143
 20
-259.4971374239267
 30
0.0
 11
-188.6225317121143
 21
-259.4971374239267
 31
0.0
  0
LINE
  5
195
330
71
100
AcDbEntity
  8
1
  6
Continuous
 62
     2
100
AcDbLine
 10
-138.6225317121143
 20
-259.4971374239267
 30
0.0
 11
-138.6225317121143
 21
-254.4971374239266
 31
0.0
  0
LINE
  5
196
330
71
100
AcDbEntity
  8
1
  6
Continuous
 62
     2
100
AcDbLine
 10
-188.6225317121143
 20
-259.4971374239267
 30
0.0
 11
-188.6225317121143
 21
-254.4971374239266
 31
0.0
  0
LINE
  5
197
330
71
100
AcDbEntity
  8
1
  6
Continuous
 62
     2
100
AcDbLine
 10
-238.6225317121143
 20
-259.4971374239267
 30
0.0
 11
-188.6225317121143
 21
-259.4971374239267
 31
0.0
  0
LINE
  5
198
330
71
100
AcDbEntity
  8
1
  6
Continuous
 62
     2
100
AcDbLine
 10
-238.6225317121143
 20
-259.4971374239267
 30
0.0
 11
-238.6225317121143
 21
-254.4971374239266
 31
0.0
  0
LINE
  5
199
330
71
100
AcDbEntity
  8
1
  6
Continuous
 62
     2
100
AcDbLine
 10
-288.6225317121145
 20
-259.4971374239267
 30
0.0
 11
-238.6225317121143
 21
-259.4971374239267
 31
0.0
  0
LINE
  5
19A
330
71
100
AcDbEntity
  8
1
  6
Continuous
 62
     2
100
AcDbLine
 10
-288.6225317121145
 20
-259.4971374239267
 30
0.0
 11
-288.6225317121145
 21
-254.4971374239266
 31
0.0
  0
LINE
  5
19B
330
71
100
AcDbEntity
  8
1
  6
Continuous
 62
     2
100
AcDbLine
 10
-338.6225317121143
 20
-259.4971374239267
 30
0.0
 11
-288.6225317121145
 21
-259.4971374239267
 31
0.0
  0
LINE
  5
19C
330
71
100
AcDbEntity
  8
1
  6
Continuous
 62
     2
100
AcDbLine
 10
-338.6225317121143
 20
-259.4971374239267
 30
0.0
 11
-338.6225317121143
 21
-254.4971374239266
 31
0.0
  0
LINE
  5
19D
330
71
100
AcDbEntity
  8
1
  6
Continuous
 62
     6
100
AcDbLine
 10
-382.1225317121126
 20
-204.4971374239264
 30
0.0
 11
-382.1225317121124
 21
-254.4971374239266
 31
0.0
  0
LINE
  5
19E
330
71
100
AcDbEntity
  8
1
  6
Continuous
 62
     2
100
AcDbLine
 10
-387.1225317121134
 20
-204.4971374239264
 30
0.0
 11
-387.1225317121134
 21
-254.4971374239266
 31
0.0
  0
LINE
  5
19F
330
71
100
AcDbEntity
  8
1
  6
Continuous
 62
     2
100
AcDbLine
 10
-387.1225317121134
 20
-204.4971374239264
 30
0.0
 11
-382.1225317121126
 21
-204.4971374239264
 31
0.0
  0
LINE
  5
1A0
330
71
100
AcDbEntity
  8
1
  6
Continuous
 62
     6
100
AcDbLine
 10
-382.1225317121128
 20
-154.4971374239266
 30
0.0
 11
-382.1225317121126
 21
-204.4971374239264
 31
0.0
  0
LINE
  5
1A1
330
71
100
AcDbEntity
  8
1
  6
Continuous
 62
     2
100
AcDbLine
 10
-387.1225317121134
 20
-154.4971374239266
 30
0.0
 11
-387.1225317121134
 21
-204.4971374239264
 31
0.0
  0
LINE
  5
1A2
330
71
100
AcDbEntity
  8
1
  6
Continuous
 62
     2
100
AcDbLine
 10
-387.1225317121134
 20
-154.4971374239266
 30
0.0
 11
-382.1225317121128
 21
-154.4971374239266
 31
0.0
  0
LINE
  5
1A3
330
71
100
AcDbEntity
  8
1
  6
Continuous
 62
     6
100
AcDbLine
 10
-382.1225317121133
 20
-104.4971374239266
 30
0.0
 11
-382.1225317121128
 21
-154.4971374239266
 31
0.0
  0
LINE
  5
1A4
330
71
100
AcDbEntity
  8
1
  6
Continuous
 62
     2
100
AcDbLine
 10
-387.1225317121134
 20
-104.4971374239266
 30
0.0
 11
-387.1225317121134
 21
-154.4971374239266
 31
0.0
  0
LINE
  5
1A5
330
71
100
AcDbEntity
  8
1
  6
Continuous
 62
     2
100
AcDbLine
 10
-387.1225317121134
 20
-104.4971374239266
 30
0.0
 11
-382.1225317121133
 21
-104.4971374239266
 31
0.0
  0
LINE
  5
1A6
330
71
100
AcDbEntity
  8
1
  6
Continuous
 62
     6
100
AcDbLine
 10
-382.1225317121134
 20
-69.49713742392655
 30
0.0
 11
-382.1225317121133
 21
-104.4971374239266
 31
0.0
  0
LINE
  5
1A7
330
71
100
AcDbEntity
  8
1
  6
Continuous
 62
     2
100
AcDbLine
 10
-387.1225317121134
 20
-49.49713742392655
 30
0.0
 11
-387.1225317121134
 21
-104.4971374239266
 31
0.0
  0
LINE
  5
1A8
330
71
100
AcDbEntity
  8
1
  6
Continuous
 62
     2
100
AcDbLine
 10
-387.1225317121134
 20
-259.4971374239267
 30
0.0
 11
-382.1225317121124
 21
-259.4971374239267
 31
0.0
  0
LINE
  5
1A9
330
71
100
AcDbEntity
  8
1
  6
Continuous
 62
     2
100
AcDbLine
 10
-238.6225317121143
 20
-49.49713742392655
 30
0.0
 11
-238.6225317121143
 21
-58.70582926862787
 31
0.0
  0
LINE
  5
1AA
330
71
100
AcDbEntity
  8
1
  6
Continuous
 62
     2
100
AcDbLine
 10
-238.6225317121143
 20
-49.49713742392655
 30
0.0
 11
-387.1225317121134
 21
-49.49713742392655
 31
0.0
  0
LINE
  5
1AB
330
71
100
AcDbEntity
  8
1
  6
Continuous
 62
     2
100
AcDbLine
 10
-90.12253171211529
 20
-254.4971374239266
 30
0.0
 11
-90.12253171211529
 21
-204.4971374239264
 31
0.0
  0
LINE
  5
1AC
330
71
100
AcDbEntity
  8
1
  6
Continuous
 62
     2
100
AcDbLine
 10
-90.12253171211529
 20
-104.4971374239266
 30
0.0
 11
-90.12253171211529
 21
-49.49713742392655
 31
0.0
  0
LINE
  5
1AD
330
71
100
AcDbEntity
  8
1
  6
Continuous
 62
     6
100
AcDbLine
 10
-95.12253171211509
 20
-104.4971374239266
 30
0.0
 11
-95.12253171211529
 21
-69.49713742392655
 31
0.0
  0
LINE
  5
1AE
330
71
100
AcDbEntity
  8
1
  6
Continuous
 62
     2
100
AcDbLine
 10
-95.12253171211509
 20
-104.4971374239266
 30
0.0
 11
-90.12253171211529
 21
-104.4971374239266
 31
0.0
  0
LINE
  5
1AF
330
71
100
AcDbEntity
  8
1
  6
Continuous
 62
     2
100
AcDbLine
 10
-90.12253171211529
 20
-154.4971374239266
 30
0.0
 11
-90.12253171211529
 21
-104.4971374239266
 31
0.0
  0
LINE
  5
1B0
330
71
100
AcDbEntity
  8
1
  6
Continuous
 62
     6
100
AcDbLine
 10
-95.12253171211388
 20
-154.4971374239266
 30
0.0
 11
-95.12253171211509
 21
-104.4971374239266
 31
0.0
  0
LINE
  5
1B1
330
71
100
AcDbEntity
  8
1
  6
Continuous
 62
     2
100
AcDbLine
 10
-95.12253171211388
 20
-154.4971374239266
 30
0.0
 11
-90.12253171211529
 21
-154.4971374239266
 31
0.0
  0
LINE
  5
1B2
330
71
100
AcDbEntity
  8
1
  6
Continuous
 62
     2
100
AcDbLine
 10
-90.12253171211529
 20
-204.4971374239264
 30
0.0
 11
-90.12253171211529
 21
-154.4971374239266
 31
0.0
  0
LINE
  5
1B3
330
71
100
AcDbEntity
  8
1
  6
Continuous
 62
     6
100
AcDbLine
 10
-95.12253171211339
 20
-204.4971374239264
 30
0.0
 11
-95.12253171211388
 21
-154.4971374239266
 31
0.0
  0
LINE
  5
1B4
330
71
100
AcDbEntity
  8
1
  6
Continuous
 62
     2
100
AcDbLine
 10
-95.12253171211339
 20
-204.4971374239264
 30
0.0
 11
-90.12253171211529
 21
-204.4971374239264
 31
0.0
  0
LINE
  5
1B5
330
71
100
AcDbEntity
  8
1
  6
Continuous
 62
     6
100
AcDbLine
 10
-95.12253171211529
 20
-69.49713742392655
 30
0.0
 11
-382.1225317121134
 21
-69.49713742392655
 31
0.0
  0
LINE
  5
1B6
330
71
100
AcDbEntity
  8
1
  6
Continuous
 62
     2
100
AcDbLine
 10
-90.12253171211529
 20
-49.49713742392655
 30
0.0
 11
-238.6225317121143
 21
-49.49713742392655
 31
0.0
  0
LINE
  5
1B7
330
71
100
AcDbEntity
  8
1
  6
Continuous
 62
     6
100
AcDbLine
 10
-95.12253171211259
 20
-237.4971374239266
 30
0.0
 11
-95.12253171211339
 21
-204.4971374239264
 31
0.0
  0
LINE
  5
1B8
330
71
100
AcDbEntity
  8
1
  6
Continuous
 62
     2
100
AcDbLine
 10
-95.12253171211428
 20
-259.4971374239267
 30
0.0
 11
-138.6225317121143
 21
-259.4971374239267
 31
0.0
  0
LINE
  5
1B9
330
71
100
AcDbEntity
  8
1
  6
Continuous
 62
     2
100
AcDbLine
 10
-90.12253171211529
 20
-259.4971374239267
 30
0.0
 11
-95.12253171211428
 21
-259.4971374239267
 31
0.0
  0
LINE
  5
1BA
330
71
100
AcDbEntity
  8
1
  6
Continuous
 62
     2
100
AcDbLine
 10
-90.12253171211529
 20
-259.4971374239267
 30
0.0
 11
-90.12253171211529
 21
-254.4971374239266
 31
0.0
  0
LINE
  5
1BB
330
71
100
AcDbEntity
  8
1
  6
Continuous
 62
     6
100
AcDbLine
 10
-224.6673362388643
 20
-237.4971374239266
 30
0.0
 11
-188.2673362388644
 21
-237.4971374239266
 31
0.0
  0
LINE
  5
1BC
330
71
100
AcDbEntity
  8
1
  6
Continuous
 62
     2
100
AcDbLine
 10
-95.12253171211428
 20
-254.4971374239266
 30
0.0
 11
-95.12253171211428
 21
-259.4971374239267
 31
0.0
  0
LINE
  5
1BD
330
71
100
AcDbEntity
  8
1
  6
Continuous
 62
     2
100
AcDbLine
 10
-95.12253171211428
 20
-254.4971374239266
 30
0.0
 11
-90.12253171211529
 21
-254.4971374239266
 31
0.0
  0
LINE
  5
1BE
330
71
100
AcDbEntity
  8
1
  6
Continuous
 62
     6
100
AcDbLine
 10
-188.6225317121143
 20
-254.4971374239266
 30
0.0
 11
-206.4673362388643
 21
-254.4971374239266
 31
0.0
  0
LINE
  5
1BF
330
71
100
AcDbEntity
  8
1
  6
Continuous
 62
     6
100
AcDbLine
 10
-138.6225317121143
 20
-254.4971374239266
 30
0.0
 11
-95.12253171211428
 21
-254.4971374239266
 31
0.0
  0
LINE
  5
1C0
330
71
100
AcDbEntity
  8
1
  6
Continuous
 62
     6
100
AcDbLine
 10
-288.6225317121145
 20
-254.4971374239266
 30
0.0
 11
-293.6673362388643
 21
-254.4971374239266
 31
0.0
  0
LINE
  5
1C1
330
71
100
AcDbEntity
  8
1
  6
Continuous
 62
     6
100
AcDbLine
 10
-238.6225317121143
 20
-254.4971374239266
 30
0.0
 11
-224.6673362388643
 21
-254.4971374239267
 31
0.0
  0
LINE
  5
1C2
102
{ACAD_REACTORS
330
2AC
330
2AD
102
}
330
71
100
AcDbEntity
  8
0
  6
Continuous
 62
     2
100
AcDbLine
 10
-217.1527102967175
 20
-242.4246226677144
 30
0.0
 11
-217.1527102967175
 21
-241.8190873792076
 31
0.0
  0
LINE
  5
1C3
102
{ACAD_REACTORS
330
2AC
330
2AD
102
}
330
71
100
AcDbEntity
  8
0
  6
Continuous
 62
     2
100
AcDbLine
 10
-217.1527102967175
 20
-245.2247572743457
 30
0.0
 11
-217.1527102967175
 21
-244.6429058676507
 31
0.0
  0
LINE
  5
1C4
102
{ACAD_REACTORS
330
2AE
330
2AF
102
}
330
71
100
AcDbEntity
  8
0
  6
Continuous
 62
     2
100
AcDbLine
 10
-194.5232238612383
 20
-244.9350932062228
 30
0.0
 11
-194.5232238612383
 21
-247.2036374239102
 31
0.0
  0
LINE
  5
1C5
102
{ACAD_REACTORS
330
2AE
330
2AF
102
}
330
71
100
AcDbEntity
  8
0
  6
Continuous
 62
     2
100
AcDbLine
 10
-195.9042776402259
 20
-244.1498279000996
 30
0.0
 11
-192.5193321215972
 21
-244.1498279000992
 31
0.0
  0
LINE
  5
1C6
102
{ACAD_REACTORS
330
2AE
330
2AF
102
}
330
71
100
AcDbEntity
  8
0
  6
Continuous
 62
     2
100
AcDbLine
 10
-192.5193321215972
 20
-244.9350932062228
 30
0.0
 11
-192.5193321215972
 21
-244.1498279000992
 31
0.0
  0
LINE
  5
1C7
102
{ACAD_REACTORS
330
2AE
330
2AF
102
}
330
71
100
AcDbEntity
  8
0
  6
Continuous
 62
     2
100
AcDbLine
 10
-193.3304311590706
 20
-244.9350932062228
 30
0.0
 11
-192.5193321215972
 21
-244.9350932062228
 31
0.0
  0
LINE
  5
1C8
102
{ACAD_REACTORS
330
2AE
330
2AF
102
}
330
71
100
AcDbEntity
  8
0
  6
Continuous
 62
     2
100
AcDbLine
 10
-193.3304311590706
 20
-247.2036374239102
 30
0.0
 11
-193.3304311590706
 21
-244.9350932062228
 31
0.0
  0
LINE
  5
1C9
102
{ACAD_REACTORS
330
2AE
330
2AF
102
}
330
71
100
AcDbEntity
  8
0
  6
Continuous
 62
     2
100
AcDbLine
 10
-194.5232238612383
 20
-247.2036374239102
 30
0.0
 11
-193.3304311590706
 21
-247.2036374239102
 31
0.0
  0
LINE
  5
1CA
102
{ACAD_REACTORS
330
2A4
330
2A5
102
}
330
71
100
AcDbEntity
  8
0
  6
Continuous
 62
     2
100
AcDbLine
 10
-195.2198147993028
 20
-240.7906374239248
 30
0.0
 11
-196.6225390170521
 21
-240.7906374239248
 31
0.0
  0
LINE
  5
1CB
102
{ACAD_REACTORS
330
2A4
330
2A5
102
}
330
71
100
AcDbEntity
  8
0
  6
Continuous
 62
     2
100
AcDbLine
 10
-195.2198147993028
 20
-240.7906374239248
 30
0.0
 11
-194.618647277411
 21
-241.4704607454802
 31
0.0
  0
LINE
  5
1CC
102
{ACAD_REACTORS
330
2A4
330
2A5
102
}
330
71
100
AcDbEntity
  8
0
  6
Continuous
 62
     2
100
AcDbLine
 10
-194.618647277411
 20
-241.4704607454802
 30
0.0
 11
-194.0174797555182
 21
-240.7906374239248
 31
0.0
  0
LINE
  5
1CD
102
{ACAD_REACTORS
330
2A4
330
2A5
102
}
330
71
100
AcDbEntity
  8
0
  6
Continuous
 62
     2
100
AcDbLine
 10
-193.9172851685375
 20
-242.263587953961
 30
0.0
 11
-192.614755537771
 21
-240.7906374239248
 31
0.0
  0
LINE
  5
1CE
102
{ACAD_REACTORS
330
2A4
330
2A5
102
}
330
71
100
AcDbEntity
  8
0
  6
Continuous
 62
     2
100
AcDbLine
 10
-193.9172851685375
 20
-242.263587953961
 30
0.0
 11
-192.5193321215972
 21
-243.844446947736
 31
0.0
  0
LINE
  5
1CF
102
{ACAD_REACTORS
330
2A4
330
2A5
102
}
330
71
100
AcDbEntity
  8
0
  6
Continuous
 62
     2
100
AcDbLine
 10
-193.9220563393455
 20
-243.844446947736
 30
0.0
 11
-192.5193321215972
 21
-243.844446947736
 31
0.0
  0
LINE
  5
1D0
102
{ACAD_REACTORS
330
2A4
330
2A5
102
}
330
71
100
AcDbEntity
  8
0
  6
Continuous
 62
     2
100
AcDbLine
 10
-194.618647277411
 20
-243.0567151624422
 30
0.0
 11
-193.9220563393455
 21
-243.844446947736
 31
0.0
  0
LINE
  5
1D1
102
{ACAD_REACTORS
330
2A2
330
2A3
102
}
330
71
100
AcDbEntity
  8
0
  6
Continuous
 62
     2
100
AcDbLine
 10
-198.0777461136947
 20
-240.7906374239248
 30
0.0
 11
-196.8372417034418
 21
-240.7906374239248
 31
0.0
  0
LINE
  5
1D2
102
{ACAD_REACTORS
330
2A2
330
2A3
102
}
330
71
100
AcDbEntity
  8
0
  6
Continuous
 62
     2
100
AcDbLine
 10
-196.8372417034418
 20
-240.7906374239248
 30
0.0
 11
-196.8372417034418
 21
-243.844446947736
 31
0.0
  0
LINE
  5
1D3
102
{ACAD_REACTORS
330
2A2
330
2A3
102
}
330
71
100
AcDbEntity
  8
0
  6
Continuous
 62
     2
100
AcDbLine
 10
-198.0777461136947
 20
-243.844446947736
 30
0.0
 11
-198.0777461136947
 21
-240.7906374239248
 31
0.0
  0
LINE
  5
1D4
102
{ACAD_REACTORS
330
2A0
330
2A1
102
}
330
71
100
AcDbEntity
  8
0
  6
Continuous
 62
     2
100
AcDbLine
 10
-199.5460561962323
 20
-245.9821136143858
 30
0.0
 11
-199.2458909590399
 21
-245.2142986483991
 31
0.0
  0
LINE
  5
1D5
102
{ACAD_REACTORS
330
2A0
330
2A1
102
}
330
71
100
AcDbEntity
  8
0
  6
Continuous
 62
     2
100
AcDbLine
 10
-200.0235918008531
 20
-247.2036374239102
 30
0.0
 11
-199.8121117473773
 21
-246.6626768796924
 31
0.0
  0
LINE
  5
1D6
102
{ACAD_REACTORS
330
2A0
330
2A1
102
}
330
71
100
AcDbEntity
  8
0
  6
Continuous
 62
     2
100
AcDbLine
 10
-199.8661431641668
 20
-244.1498279000992
 30
0.0
 11
-201.2640962111061
 21
-247.2036374239102
 31
0.0
  0
LINE
  5
1D7
102
{ACAD_REACTORS
330
2A0
330
2A1
102
}
330
71
100
AcDbEntity
  8
0
  6
Continuous
 62
     2
100
AcDbLine
 10
-197.2276857069738
 20
-247.2036374239102
 30
0.0
 11
-198.4681901172277
 21
-247.2036374239102
 31
0.0
  0
LINE
  5
1D8
102
{ACAD_REACTORS
330
2A0
330
2A1
102
}
330
71
100
AcDbEntity
  8
0
  6
Continuous
 62
     2
100
AcDbLine
 10
-199.8121117473773
 20
-246.6626768796924
 30
0.0
 11
-198.6796701707035
 21
-246.6626768796924
 31
0.0
  0
LINE
  5
1D9
102
{ACAD_REACTORS
330
29E
330
29F
102
}
330
71
100
AcDbEntity
  8
0
  6
Continuous
 62
     2
100
AcDbLine
 10
-203.4216083502883
 20
-244.9350932062228
 30
0.0
 11
-202.6105093128137
 21
-244.9350932062228
 31
0.0
  0
LINE
  5
1DA
102
{ACAD_REACTORS
330
29E
330
29F
102
}
330
71
100
AcDbEntity
  8
0
  6
Continuous
 62
     2
100
AcDbLine
 10
-200.6066175731747
 20
-244.1498279000992
 30
0.0
 11
-203.4216083502883
 21
-244.1498279000992
 31
0.0
  0
LINE
  5
1DB
102
{ACAD_REACTORS
330
29E
330
29F
102
}
330
71
100
AcDbEntity
  8
0
  6
Continuous
 62
     2
100
AcDbLine
 10
-200.6066175731747
 20
-244.9350932062228
 30
0.0
 11
-200.6066175731747
 21
-244.1498279000992
 31
0.0
  0
LINE
  5
1DC
102
{ACAD_REACTORS
330
29E
330
29F
102
}
330
71
100
AcDbEntity
  8
0
  6
Continuous
 62
     2
100
AcDbLine
 10
-201.4177166106472
 20
-244.9350932062228
 30
0.0
 11
-200.6066175731747
 21
-244.9350932062228
 31
0.0
  0
LINE
  5
1DD
102
{ACAD_REACTORS
330
29E
330
29F
102
}
330
71
100
AcDbEntity
  8
0
  6
Continuous
 62
     2
100
AcDbLine
 10
-201.4177166106472
 20
-247.2036374239102
 30
0.0
 11
-201.4177166106472
 21
-244.9350932062228
 31
0.0
  0
LINE
  5
1DE
102
{ACAD_REACTORS
330
29C
330
29D
102
}
330
71
100
AcDbEntity
  8
0
  6
Continuous
 62
     2
100
AcDbLine
 10
-200.7496017665492
 20
-243.844446947736
 30
0.0
 11
-200.7496017665492
 21
-242.5356714375313
 31
0.0
  0
LINE
  5
1DF
102
{ACAD_REACTORS
330
29C
330
29D
102
}
330
71
100
AcDbEntity
  8
0
  6
Continuous
 62
     2
100
AcDbLine
 10
-201.9423944687157
 20
-240.7906374239248
 30
0.0
 11
-201.9423944687157
 21
-243.844446947736
 31
0.0
  0
LINE
  5
1E0
102
{ACAD_REACTORS
330
29C
330
29D
102
}
330
71
100
AcDbEntity
  8
0
  6
Continuous
 62
     2
100
AcDbLine
 10
-200.7496017665492
 20
-240.7906374239248
 30
0.0
 11
-201.9423944687157
 21
-240.7906374239248
 31
0.0
  0
LINE
  5
1E1
102
{ACAD_REACTORS
330
29C
330
29D
102
}
330
71
100
AcDbEntity
  8
0
  6
Continuous
 62
     2
100
AcDbLine
 10
-199.5090973562952
 20
-240.7906374239248
 30
0.0
 11
-199.5090973562952
 21
-242.0994129341299
 31
0.0
  0
LINE
  5
1E2
102
{ACAD_REACTORS
330
29A
330
29B
102
}
330
71
100
AcDbEntity
  8
0
  6
Continuous
 62
     2
100
AcDbLine
 10
-207.1908332891354
 20
-244.1498279000992
 30
0.0
 11
-207.1908332891354
 21
-247.2036374239102
 31
0.0
  0
LINE
  5
1E3
102
{ACAD_REACTORS
330
29A
330
29B
102
}
330
71
100
AcDbEntity
  8
0
  6
Continuous
 62
     2
100
AcDbLine
 10
-205.9980405869678
 20
-244.1498279000992
 30
0.0
 11
-207.1908332891354
 21
-244.1498279000992
 31
0.0
  0
LINE
  5
1E4
102
{ACAD_REACTORS
330
29A
330
29B
102
}
330
71
100
AcDbEntity
  8
0
  6
Continuous
 62
     2
100
AcDbLine
 10
-204.7575361767149
 20
-247.2036374239102
 30
0.0
 11
-203.5647434745485
 21
-247.2036374239102
 31
0.0
  0
LINE
  5
1E5
102
{ACAD_REACTORS
330
29A
330
29B
102
}
330
71
100
AcDbEntity
  8
0
  6
Continuous
 62
     2
100
AcDbLine
 10
-207.1908332891354
 20
-247.2036374239102
 30
0.0
 11
-205.9980405869678
 21
-247.2036374239102
 31
0.0
  0
LINE
  5
1E6
102
{ACAD_REACTORS
330
2AA
330
2AB
102
}
330
71
100
AcDbEntity
  8
0
  6
Continuous
 62
     2
100
AcDbLine
 10
-203.5168808355763
 20
-241.9685353831094
 30
0.0
 11
-203.5168808355763
 21
-241.4886510293677
 31
0.0
  0
LINE
  5
1E7
102
{ACAD_REACTORS
330
2AA
330
2AB
102
}
330
71
100
AcDbEntity
  8
0
  6
Continuous
 62
     2
100
AcDbLine
 10
-202.1809530091486
 20
-241.9685353831094
 30
0.0
 11
-203.5168808355763
 21
-241.9685353831094
 31
0.0
  0
LINE
  5
1E8
102
{ACAD_REACTORS
330
2AA
330
2AB
102
}
330
71
100
AcDbEntity
  8
0
  6
Continuous
 62
     2
100
AcDbLine
 10
-202.1809530091486
 20
-242.6665489885517
 30
0.0
 11
-202.1809530091486
 21
-241.9685353831094
 31
0.0
  0
LINE
  5
1E9
102
{ACAD_REACTORS
330
2AA
330
2AB
102
}
330
71
100
AcDbEntity
  8
0
  6
Continuous
 62
     2
100
AcDbLine
 10
-203.5168808355763
 20
-242.6665489885517
 30
0.0
 11
-202.1809530091486
 21
-242.6665489885517
 31
0.0
  0
LINE
  5
1EA
102
{ACAD_REACTORS
330
298
330
299
102
}
330
71
100
AcDbEntity
  8
0
  6
Continuous
 62
     2
100
AcDbLine
 10
-206.9998355259032
 20
-240.7906374239248
 30
0.0
 11
-206.9998355259032
 21
-243.844446947736
 31
0.0
  0
LINE
  5
1EB
102
{ACAD_REACTORS
330
298
330
299
102
}
330
71
100
AcDbEntity
  8
0
  6
Continuous
 62
     2
100
AcDbLine
 10
-206.9998355259032
 20
-243.844446947736
 30
0.0
 11
-208.1926282280696
 21
-243.844446947736
 31
0.0
  0
LINE
  5
1EC
102
{ACAD_REACTORS
330
298
330
299
102
}
330
71
100
AcDbEntity
  8
0
  6
Continuous
 62
     2
100
AcDbLine
 10
-208.1926282280696
 20
-243.844446947736
 30
0.0
 11
-208.1926282280696
 21
-242.7101748388921
 31
0.0
  0
LINE
  5
1ED
102
{ACAD_REACTORS
330
298
330
299
102
}
330
71
100
AcDbEntity
  8
0
  6
Continuous
 62
     2
100
AcDbLine
 10
-209.2422858059771
 20
-243.844446947736
 30
0.0
 11
-210.4350785081437
 21
-243.844446947736
 31
0.0
  0
LINE
  5
1EE
102
{ACAD_REACTORS
330
298
330
299
102
}
330
71
100
AcDbEntity
  8
0
  6
Continuous
 62
     2
100
AcDbLine
 10
-210.4350785081437
 20
-240.7906374239248
 30
0.0
 11
-209.2422858059771
 21
-240.7906374239248
 31
0.0
  0
LINE
  5
1EF
102
{ACAD_REACTORS
330
298
330
299
102
}
330
71
100
AcDbEntity
  8
0
  6
Continuous
 62
     2
100
AcDbLine
 10
-209.2422858059771
 20
-240.7906374239248
 30
0.0
 11
-209.2422858059771
 21
-241.8594707572593
 31
0.0
  0
LINE
  5
1F0
102
{ACAD_REACTORS
330
298
330
299
102
}
330
71
100
AcDbEntity
  8
0
  6
Continuous
 62
     2
100
AcDbLine
 10
-209.2422858059771
 20
-241.8594707572593
 30
0.0
 11
-208.1926282280696
 21
-241.8594707572593
 31
0.0
  0
LINE
  5
1F1
102
{ACAD_REACTORS
330
2A6
330
2A7
102
}
330
71
100
AcDbEntity
  8
0
  6
Continuous
 62
     2
100
AcDbLine
 10
-212.3912585396973
 20
-241.4537432693649
 30
0.0
 11
-212.0739634781554
 21
-241.4537432693649
 31
0.0
  0
LINE
  5
1F2
102
{ACAD_REACTORS
330
2A6
330
2A7
102
}
330
71
100
AcDbEntity
  8
0
  6
Continuous
 62
     2
100
AcDbLine
 10
-212.3912585396973
 20
-242.1594709187071
 30
0.0
 11
-212.0739634781554
 21
-242.1594709187071
 31
0.0
  0
LINE
  5
1F3
102
{ACAD_REACTORS
330
2A6
330
2A7
102
}
330
71
100
AcDbEntity
  8
0
  6
Continuous
 62
     2
100
AcDbLine
 10
-213.6317629499514
 20
-240.7906374239248
 30
0.0
 11
-213.6317629499514
 21
-243.844446947736
 31
0.0
  0
LINE
  5
1F4
102
{ACAD_REACTORS
330
2A6
330
2A7
102
}
330
71
100
AcDbEntity
  8
0
  6
Continuous
 62
     2
100
AcDbLine
 10
-213.6317629499514
 20
-240.7906374239248
 30
0.0
 11
-211.632490951917
 21
-240.7906374239248
 31
0.0
  0
LINE
  5
1F5
102
{ACAD_REACTORS
330
2A6
330
2A7
102
}
330
71
100
AcDbEntity
  8
0
  6
Continuous
 62
     2
100
AcDbLine
 10
-212.3912585396973
 20
-242.9013687065921
 30
0.0
 11
-211.632490951917
 21
-242.9013687065921
 31
0.0
  0
LINE
  5
1F6
102
{ACAD_REACTORS
330
2AC
330
2AD
102
}
330
71
100
AcDbEntity
  8
0
  6
Continuous
 62
     2
100
AcDbLine
 10
-219.7282589832481
 20
-241.8189099025595
 30
0.0
 11
-219.7282589832481
 21
-246.1753649452766
 31
0.0
  0
LINE
  5
1F7
102
{ACAD_REACTORS
330
2AC
330
2AD
102
}
330
71
100
AcDbEntity
  8
0
  6
Continuous
 62
     2
100
AcDbLine
 10
-219.4125420601724
 20
-241.5031929794833
 30
0.0
 11
-217.9367087991628
 21
-241.5031929794833
 31
0.0
  0
LINE
  5
1F8
102
{ACAD_REACTORS
330
2AC
330
2AD
102
}
330
71
100
AcDbEntity
  8
0
  6
Continuous
 62
     2
100
AcDbLine
 10
-217.6209918760862
 20
-242.4229345216201
 30
0.0
 11
-217.6209918760862
 21
-241.8189099025595
 31
0.0
  0
LINE
  5
1F9
102
{ACAD_REACTORS
330
2AC
330
2AD
102
}
330
71
100
AcDbEntity
  8
0
  6
Continuous
 62
     2
100
AcDbLine
 10
-217.6209918760862
 20
-246.1753649452766
 30
0.0
 11
-217.6209918760862
 21
-244.644594013745
 31
0.0
  0
LINE
  5
1FA
102
{ACAD_REACTORS
330
2AC
330
2AD
102
}
330
71
100
AcDbEntity
  8
0
  6
Continuous
 62
     2
100
AcDbLine
 10
-214.5331246462021
 20
-247.2036374239102
 30
0.0
 11
-220.0064367369189
 21
-247.2036374239102
 31
0.0
  0
LINE
  5
1FB
102
{ACAD_REACTORS
330
2AC
330
2AD
102
}
330
71
100
AcDbEntity
  8
0
  6
Continuous
 62
     2
100
AcDbLine
 10
-214.1088800308182
 20
-241.2148820393267
 30
0.0
 11
-214.1088800308182
 21
-246.779392808527
 31
0.0
  0
LINE
  5
1FC
102
{ACAD_REACTORS
330
2AC
330
2AD
102
}
330
71
100
AcDbEntity
  8
0
  6
Continuous
 62
     2
100
AcDbLine
 10
-220.0064367369189
 20
-240.7906374239429
 30
0.0
 11
-214.5331246462021
 21
-240.7906374239429
 31
0.0
  0
LINE
  5
1FD
102
{ACAD_REACTORS
330
2AC
330
2AD
102
}
330
71
100
AcDbEntity
  8
0
  6
Continuous
 62
     2
100
AcDbLine
 10
-220.4306813523017
 20
-241.2148820393267
 30
0.0
 11
-220.4306813523017
 21
-246.779392808527
 31
0.0
  0
LINE
  5
1FE
102
{ACAD_REACTORS
330
2AC
330
2AD
102
}
330
71
100
AcDbEntity
  8
0
  6
Continuous
 62
     2
100
AcDbLine
 10
-217.9367087991628
 20
-246.4910818683534
 30
0.0
 11
-219.4125420601724
 21
-246.4910818683534
 31
0.0
  0
LINE
  5
1FF
102
{ACAD_REACTORS
330
2A6
330
2A7
102
}
330
71
100
AcDbEntity
  8
0
  6
Continuous
 62
     2
100
AcDbLine
 10
-212.3912585396973
 20
-243.844446947736
 30
0.0
 11
-212.3912585396973
 21
-242.9013687065921
 31
0.0
  0
LINE
  5
200
102
{ACAD_REACTORS
330
2A6
330
2A7
102
}
330
71
100
AcDbEntity
  8
0
  6
Continuous
 62
     2
100
AcDbLine
 10
-213.6317629499514
 20
-243.844446947736
 30
0.0
 11
-212.3912585396973
 21
-243.844446947736
 31
0.0
  0
LINE
  5
201
102
{ACAD_REACTORS
330
2A6
330
2A7
102
}
330
71
100
AcDbEntity
  8
0
  6
Continuous
 62
     2
100
AcDbLine
 10
-212.3912585396973
 20
-242.1594709187071
 30
0.0
 11
-212.3912585396973
 21
-241.4537432693649
 31
0.0
  0
LINE
  5
202
102
{ACAD_REACTORS
330
298
330
299
102
}
330
71
100
AcDbEntity
  8
0
  6
Continuous
 62
     2
100
AcDbLine
 10
-210.4350785081437
 20
-240.7906374239248
 30
0.0
 11
-210.4350785081437
 21
-243.844446947736
 31
0.0
  0
LINE
  5
203
102
{ACAD_REACTORS
330
298
330
299
102
}
330
71
100
AcDbEntity
  8
0
  6
Continuous
 62
     2
100
AcDbLine
 10
-209.2422858059771
 20
-242.7101748388921
 30
0.0
 11
-209.2422858059771
 21
-243.844446947736
 31
0.0
  0
LINE
  5
204
102
{ACAD_REACTORS
330
298
330
299
102
}
330
71
100
AcDbEntity
  8
0
  6
Continuous
 62
     2
100
AcDbLine
 10
-208.1926282280696
 20
-242.7101748388921
 30
0.0
 11
-209.2422858059771
 21
-242.7101748388921
 31
0.0
  0
LINE
  5
205
102
{ACAD_REACTORS
330
298
330
299
102
}
330
71
100
AcDbEntity
  8
0
  6
Continuous
 62
     2
100
AcDbLine
 10
-208.1926282280696
 20
-240.7906374239248
 30
0.0
 11
-206.9998355259032
 21
-240.7906374239248
 31
0.0
  0
LINE
  5
206
102
{ACAD_REACTORS
330
298
330
299
102
}
330
71
100
AcDbEntity
  8
0
  6
Continuous
 62
     2
100
AcDbLine
 10
-208.1926282280696
 20
-241.8594707572593
 30
0.0
 11
-208.1926282280696
 21
-240.7906374239248
 31
0.0
  0
LINE
  5
207
102
{ACAD_REACTORS
330
2AA
330
2AB
102
}
330
71
100
AcDbEntity
  8
0
  6
Continuous
 62
     2
100
AcDbLine
 10
-202.1809530091486
 20
-241.4886510293677
 30
0.0
 11
-202.1809530091486
 21
-240.7906374239248
 31
0.0
  0
LINE
  5
208
102
{ACAD_REACTORS
330
2AA
330
2AB
102
}
330
71
100
AcDbEntity
  8
0
  6
Continuous
 62
     2
100
AcDbLine
 10
-205.3312727329296
 20
-240.7906374239248
 30
0.0
 11
-202.1809530091486
 21
-240.7906374239248
 31
0.0
  0
LINE
  5
209
102
{ACAD_REACTORS
330
2AA
330
2AB
102
}
330
71
100
AcDbEntity
  8
0
  6
Continuous
 62
     2
100
AcDbLine
 10
-205.3312727329296
 20
-243.844446947736
 30
0.0
 11
-202.1809530091486
 21
-243.844446947736
 31
0.0
  0
LINE
  5
20A
102
{ACAD_REACTORS
330
2AA
330
2AB
102
}
330
71
100
AcDbEntity
  8
0
  6
Continuous
 62
     2
100
AcDbLine
 10
-202.1809530091486
 20
-243.844446947736
 30
0.0
 11
-202.1809530091486
 21
-243.1464333422935
 31
0.0
  0
LINE
  5
20B
102
{ACAD_REACTORS
330
2AA
330
2AB
102
}
330
71
100
AcDbEntity
  8
0
  6
Continuous
 62
     2
100
AcDbLine
 10
-202.1809530091486
 20
-243.1464333422935
 30
0.0
 11
-203.5168808355763
 21
-243.1464333422935
 31
0.0
  0
LINE
  5
20C
102
{ACAD_REACTORS
330
2AA
330
2AB
102
}
330
71
100
AcDbEntity
  8
0
  6
Continuous
 62
     2
100
AcDbLine
 10
-203.5168808355763
 20
-243.1464333422935
 30
0.0
 11
-203.5168808355763
 21
-242.6665489885517
 31
0.0
  0
LINE
  5
20D
102
{ACAD_REACTORS
330
2AA
330
2AB
102
}
330
71
100
AcDbEntity
  8
0
  6
Continuous
 62
     2
100
AcDbLine
 10
-203.5168808355763
 20
-241.4886510293677
 30
0.0
 11
-202.1809530091486
 21
-241.4886510293677
 31
0.0
  0
LINE
  5
20E
102
{ACAD_REACTORS
330
29A
330
29B
102
}
330
71
100
AcDbEntity
  8
0
  6
Continuous
 62
     2
100
AcDbLine
 10
-205.9980405869678
 20
-247.2036374239102
 30
0.0
 11
-205.9980405869678
 21
-245.8948619137057
 31
0.0
  0
LINE
  5
20F
102
{ACAD_REACTORS
330
29A
330
29B
102
}
330
71
100
AcDbEntity
  8
0
  6
Continuous
 62
     2
100
AcDbLine
 10
-205.9980405869678
 20
-245.8948619137057
 30
0.0
 11
-204.7575361767149
 21
-247.2036374239102
 31
0.0
  0
LINE
  5
210
102
{ACAD_REACTORS
330
29A
330
29B
102
}
330
71
100
AcDbEntity
  8
0
  6
Continuous
 62
     2
100
AcDbLine
 10
-203.5647434745485
 20
-247.2036374239102
 30
0.0
 11
-203.5647434745485
 21
-244.1498279000992
 31
0.0
  0
LINE
  5
211
102
{ACAD_REACTORS
330
29A
330
29B
102
}
330
71
100
AcDbEntity
  8
0
  6
Continuous
 62
     2
100
AcDbLine
 10
-203.5647434745485
 20
-244.1498279000992
 30
0.0
 11
-204.7575361767149
 21
-244.1498279000992
 31
0.0
  0
LINE
  5
212
102
{ACAD_REACTORS
330
29A
330
29B
102
}
330
71
100
AcDbEntity
  8
0
  6
Continuous
 62
     2
100
AcDbLine
 10
-204.7575361767149
 20
-244.1498279000992
 30
0.0
 11
-204.7575361767149
 21
-245.4586034103043
 31
0.0
  0
LINE
  5
213
102
{ACAD_REACTORS
330
29A
330
29B
102
}
330
71
100
AcDbEntity
  8
0
  6
Continuous
 62
     2
100
AcDbLine
 10
-204.7575361767149
 20
-245.4586034103043
 30
0.0
 11
-205.9980405869678
 21
-244.1498279000992
 31
0.0
  0
LINE
  5
214
102
{ACAD_REACTORS
330
29C
330
29D
102
}
330
71
100
AcDbEntity
  8
0
  6
Continuous
 62
     2
100
AcDbLine
 10
-200.7496017665492
 20
-242.5356714375313
 30
0.0
 11
-199.5090973562952
 21
-243.844446947736
 31
0.0
  0
LINE
  5
215
102
{ACAD_REACTORS
330
29C
330
29D
102
}
330
71
100
AcDbEntity
  8
0
  6
Continuous
 62
     2
100
AcDbLine
 10
-199.5090973562952
 20
-243.844446947736
 30
0.0
 11
-198.3163046541286
 21
-243.844446947736
 31
0.0
  0
LINE
  5
216
102
{ACAD_REACTORS
330
29C
330
29D
102
}
330
71
100
AcDbEntity
  8
0
  6
Continuous
 62
     2
100
AcDbLine
 10
-198.3163046541286
 20
-243.844446947736
 30
0.0
 11
-198.3163046541286
 21
-240.7906374239248
 31
0.0
  0
LINE
  5
217
102
{ACAD_REACTORS
330
29C
330
29D
102
}
330
71
100
AcDbEntity
  8
0
  6
Continuous
 62
     2
100
AcDbLine
 10
-198.3163046541286
 20
-240.7906374239248
 30
0.0
 11
-199.5090973562952
 21
-240.7906374239248
 31
0.0
  0
LINE
  5
218
102
{ACAD_REACTORS
330
29C
330
29D
102
}
330
71
100
AcDbEntity
  8
0
  6
Continuous
 62
     2
100
AcDbLine
 10
-199.5090973562952
 20
-242.0994129341299
 30
0.0
 11
-200.7496017665492
 21
-240.7906374239248
 31
0.0
  0
LINE
  5
219
102
{ACAD_REACTORS
330
29C
330
29D
102
}
330
71
100
AcDbEntity
  8
0
  6
Continuous
 62
     2
100
AcDbLine
 10
-201.9423944687157
 20
-243.844446947736
 30
0.0
 11
-200.7496017665492
 21
-243.844446947736
 31
0.0
  0
LINE
  5
21A
102
{ACAD_REACTORS
330
29E
330
29F
102
}
330
71
100
AcDbEntity
  8
0
  6
Continuous
 62
     2
100
AcDbLine
 10
-203.4216083502883
 20
-244.1498279000992
 30
0.0
 11
-203.4216083502883
 21
-244.9350932062228
 31
0.0
  0
LINE
  5
21B
102
{ACAD_REACTORS
330
29E
330
29F
102
}
330
71
100
AcDbEntity
  8
0
  6
Continuous
 62
     2
100
AcDbLine
 10
-202.6105093128137
 20
-244.9350932062228
 30
0.0
 11
-202.6105093128137
 21
-247.2036374239102
 31
0.0
  0
LINE
  5
21C
102
{ACAD_REACTORS
330
29E
330
29F
102
}
330
71
100
AcDbEntity
  8
0
  6
Continuous
 62
     2
100
AcDbLine
 10
-202.6105093128137
 20
-247.2036374239102
 30
0.0
 11
-201.4177166106472
 21
-247.2036374239102
 31
0.0
  0
LINE
  5
21D
102
{ACAD_REACTORS
330
2A0
330
2A1
102
}
330
71
100
AcDbEntity
  8
0
  6
Continuous
 62
     2
100
AcDbLine
 10
-198.4681901172277
 20
-247.2036374239102
 30
0.0
 11
-198.6796701707035
 21
-246.6626768796924
 31
0.0
  0
LINE
  5
21E
102
{ACAD_REACTORS
330
2A0
330
2A1
102
}
330
71
100
AcDbEntity
  8
0
  6
Continuous
 62
     2
100
AcDbLine
 10
-198.6256387539141
 20
-244.1498279000992
 30
0.0
 11
-197.2276857069738
 21
-247.2036374239102
 31
0.0
  0
LINE
  5
21F
102
{ACAD_REACTORS
330
2A0
330
2A1
102
}
330
71
100
AcDbEntity
  8
0
  6
Continuous
 62
     2
100
AcDbLine
 10
-199.8661431641668
 20
-244.1498279000992
 30
0.0
 11
-198.6256387539141
 21
-244.1498279000992
 31
0.0
  0
LINE
  5
220
102
{ACAD_REACTORS
330
2A0
330
2A1
102
}
330
71
100
AcDbEntity
  8
0
  6
Continuous
 62
     2
100
AcDbLine
 10
-201.2640962111061
 20
-247.2036374239102
 30
0.0
 11
-200.0235918008531
 21
-247.2036374239102
 31
0.0
  0
LINE
  5
221
102
{ACAD_REACTORS
330
2A0
330
2A1
102
}
330
71
100
AcDbEntity
  8
0
  6
Continuous
 62
     2
100
AcDbLine
 10
-199.5460561962323
 20
-245.9821136143858
 30
0.0
 11
-198.9457257218498
 21
-245.9821136143858
 31
0.0
  0
LINE
  5
222
102
{ACAD_REACTORS
330
2A0
330
2A1
102
}
330
71
100
AcDbEntity
  8
0
  6
Continuous
 62
     2
100
AcDbLine
 10
-198.9457257218498
 20
-245.9821136143858
 30
0.0
 11
-199.2458909590399
 21
-245.2142986483991
 31
0.0
  0
LINE
  5
223
102
{ACAD_REACTORS
330
2A2
330
2A3
102
}
330
71
100
AcDbEntity
  8
0
  6
Continuous
 62
     2
100
AcDbLine
 10
-196.8372417034418
 20
-243.844446947736
 30
0.0
 11
-198.0777461136947
 21
-243.844446947736
 31
0.0
  0
LINE
  5
224
102
{ACAD_REACTORS
330
2A4
330
2A5
102
}
330
71
100
AcDbEntity
  8
0
  6
Continuous
 62
     2
100
AcDbLine
 10
-195.3152382154767
 20
-243.844446947736
 30
0.0
 11
-196.7179624332249
 21
-243.844446947736
 31
0.0
  0
LINE
  5
225
102
{ACAD_REACTORS
330
2A4
330
2A5
102
}
330
71
100
AcDbEntity
  8
0
  6
Continuous
 62
     2
100
AcDbLine
 10
-195.3152382154767
 20
-243.844446947736
 30
0.0
 11
-194.618647277411
 21
-243.0567151624422
 31
0.0
  0
LINE
  5
226
102
{ACAD_REACTORS
330
2A4
330
2A5
102
}
330
71
100
AcDbEntity
  8
0
  6
Continuous
 62
     2
100
AcDbLine
 10
-194.0174797555182
 20
-240.7906374239248
 30
0.0
 11
-192.614755537771
 21
-240.7906374239248
 31
0.0
  0
LINE
  5
227
102
{ACAD_REACTORS
330
2A4
330
2A5
102
}
330
71
100
AcDbEntity
  8
0
  6
Continuous
 62
     2
100
AcDbLine
 10
-196.6225390170521
 20
-240.7906374239248
 30
0.0
 11
-195.3200093862846
 21
-242.263587953961
 31
0.0
  0
LINE
  5
228
102
{ACAD_REACTORS
330
2A4
330
2A5
102
}
330
71
100
AcDbEntity
  8
0
  6
Continuous
 62
     2
100
AcDbLine
 10
-196.7179624332249
 20
-243.844446947736
 30
0.0
 11
-195.3200093862846
 21
-242.263587953961
 31
0.0
  0
LINE
  5
229
102
{ACAD_REACTORS
330
2AE
330
2AF
102
}
330
71
100
AcDbEntity
  8
0
  6
Continuous
 62
     2
100
AcDbLine
 10
-194.857205817845
 20
-246.1566170157466
 30
0.0
 11
-194.857205817845
 21
-247.02913402255
 31
0.0
  0
LINE
  5
22A
102
{ACAD_REACTORS
330
2AE
330
2AF
102
}
330
71
100
AcDbEntity
  8
0
  6
Continuous
 62
     2
100
AcDbLine
 10
-195.6268631608064
 20
-244.9350932062228
 30
0.0
 11
-194.5232238612383
 21
-244.9350932062228
 31
0.0
  0
LINE
  5
22B
102
{ACAD_REACTORS
330
2B0
330
2B1
102
}
330
71
100
AcDbEntity
  8
0
  6
Continuous
 62
     2
100
AcDbLine
 10
-210.9599072970969
 20
-246.1566170157462
 30
0.0
 11
-210.9599072970969
 21
-247.0291340225494
 31
0.0
  0
LINE
  5
22C
102
{ACAD_REACTORS
330
2B0
330
2B1
102
}
330
71
100
AcDbEntity
  8
0
  6
Continuous
 62
     2
100
AcDbLine
 10
-210.9599072970969
 20
-245.1968483082632
 30
0.0
 11
-210.9599072970969
 21
-244.32433130146
 31
0.0
  0
LINE
  5
22D
330
71
100
AcDbEntity
  8
1
  6
Continuous
 62
     7
100
AcDbLine
 10
-95.12253171211299
 20
-245.9971374239266
 30
0.0
 11
-188.2673362388644
 21
-245.9971374239266
 31
0.0
  0
LINE
  5
22E
330
71
100
AcDbEntity
  8
1
  6
Continuous
 62
     6
100
AcDbLine
 10
-293.6673362388643
 20
-254.4971374239266
 30
0.0
 11
-338.6225317121143
 21
-254.4971374239266
 31
0.0
  0
LINE
  5
22F
330
71
100
AcDbEntity
  8
1
  6
Continuous
 62
     7
100
AcDbLine
 10
-104.0409399937918
 20
-228.9971374239266
 30
0.0
 11
-104.0409399937918
 21
-237.4971374239266
 31
0.0
  0
LINE
  5
230
330
71
100
AcDbEntity
  8
1
  6
Continuous
 62
     7
100
AcDbLine
 10
-130.5409399937914
 20
-228.9971374239266
 30
0.0
 11
-130.5409399937914
 21
-237.4971374239266
 31
0.0
  0
LINE
  5
231
330
71
100
AcDbEntity
  8
1
  6
Continuous
 62
     7
100
AcDbLine
 10
-188.2673362388644
 20
-237.4971374239266
 30
0.0
 11
-188.2673362388644
 21
-228.9971374239266
 31
0.0
  0
LINE
  5
232
330
71
100
AcDbEntity
  8
1
  6
Continuous
 62
     7
100
AcDbLine
 10
-224.6673362388643
 20
-237.4971374239266
 30
0.0
 11
-224.6673362388643
 21
-228.9971374239266
 31
0.0
  0
LINE
  5
233
330
71
100
AcDbEntity
  8
1
  6
Continuous
 62
     6
100
AcDbLine
 10
-188.2673362388644
 20
-237.4971374239266
 30
0.0
 11
-95.12253171211259
 21
-237.4971374239266
 31
0.0
  0
LINE
  5
234
330
71
100
AcDbEntity
  8
1
  6
Continuous
 62
     7
100
AcDbLine
 10
-160.3673362388643
 20
-245.9971374239266
 30
0.0
 11
-160.3673362388643
 21
-237.4971374239266
 31
0.0
  0
LINE
  5
235
330
71
100
AcDbEntity
  8
1
  6
PHANTOM
 62
     2
100
AcDbLine
 10
-209.1806813523017
 20
-233.3721374239266
 30
0.0
 11
-214.6806813523017
 21
-233.3721374239266
 31
0.0
  0
LINE
  5
236
330
71
100
AcDbEntity
  8
1
  6
PHANTOM
 62
     2
100
AcDbLine
 10
-211.9306813523017
 20
-230.6221374239266
 30
0.0
 11
-211.9306813523017
 21
-236.1221374239266
 31
0.0
  0
LINE
  5
237
330
71
100
AcDbEntity
  8
1
  6
DOT_CENTER
 62
     2
100
AcDbLine
 10
-220.6806813523017
 20
-233.3721374239266
 30
0.0
 11
-215.1806813523017
 21
-233.3721374239266
 31
0.0
  0
ARC
  5
238
102
{ACAD_REACTORS
330
2B0
330
2B1
102
}
330
71
100
AcDbEntity
  8
0
  6
Continuous
 62
     2
100
AcDbCircle
 10
-212.2958352142147
 20
-248.9894136072608
 30
0.0
 40
4.852596863497959
100
AcDbArc
 50
74.02000874164702
 51
84.84185523037493
  0
ARC
  5
239
102
{ACAD_REACTORS
330
2B0
330
2B1
102
}
330
71
100
AcDbEntity
  8
0
  6
Continuous
 62
     2
100
AcDbCircle
 10
-211.719794605461
 20
-245.8336532513766
 30
0.0
 40
0.9059297849853318
100
AcDbArc
 50
71.55192388185178
 51
113.3722778881261
  0
ARC
  5
23A
102
{ACAD_REACTORS
330
2B0
330
2B1
102
}
330
71
100
AcDbEntity
  8
0
  6
Continuous
 62
     2
100
AcDbCircle
 10
-211.876234638163
 20
-245.8818040913434
 30
0.0
 40
0.5115800601948034
100
AcDbArc
 50
208.5214732576956
 51
246.6277221118283
  0
ARC
  5
23B
102
{ACAD_REACTORS
330
2B0
330
2B1
102
}
330
71
100
AcDbEntity
  8
0
  6
Continuous
 62
     2
100
AcDbCircle
 10
-211.719794605461
 20
-245.5198120726334
 30
0.0
 40
0.9059297849849975
100
AcDbArc
 50
246.6277221118732
 51
288.4480761181601
  0
ARC
  5
23C
102
{ACAD_REACTORS
330
2B0
330
2B1
102
}
330
71
100
AcDbEntity
  8
0
  6
Continuous
 62
     2
100
AcDbCircle
 10
-212.1379623391218
 20
-244.2662662965963
 30
0.0
 40
2.227384008972665
100
AcDbArc
 50
288.4480761181342
 51
301.9309089499599
  0
ARC
  5
23D
102
{ACAD_REACTORS
330
2AC
330
2AD
102
}
330
71
100
AcDbEntity
  8
0
  6
Continuous
 62
     2
100
AcDbCircle
 10
-217.3630360717286
 20
-243.5337642676822
 30
0.0
 40
0.9118481501444847
100
AcDbArc
 50
295.3740086781757
 51
64.6259913218044
  0
ARC
  5
23E
102
{ACAD_REACTORS
330
2AC
330
2AD
102
}
330
71
100
AcDbEntity
  8
0
  6
Continuous
 62
     2
100
AcDbCircle
 10
-216.8369933736407
 20
-241.8190873792076
 30
0.0
 40
0.3157169230760427
100
AcDbArc
 50
90.18896704255111
 51
180.0
  0
ARC
  5
23F
102
{ACAD_REACTORS
330
2AE
330
2AF
102
}
330
71
100
AcDbEntity
  8
0
  6
Continuous
 62
     2
100
AcDbCircle
 10
-195.6268631608064
 20
-245.8896162130488
 30
0.0
 40
0.9545230068260082
100
AcDbArc
 50
90.0
 51
109.3371432194321
  0
ARC
  5
240
102
{ACAD_REACTORS
330
2AE
330
2AF
102
}
330
71
100
AcDbEntity
  8
0
  6
Continuous
 62
     2
100
AcDbCircle
 10
-195.3961759008287
 20
-245.676732662005
 30
0.0
 40
0.9410597353348924
100
AcDbArc
 50
151.4785267423624
 51
208.5214732576695
  0
ARC
  5
241
102
{ACAD_REACTORS
330
2AE
330
2AF
102
}
330
71
100
AcDbEntity
  8
0
  6
Continuous
 62
     2
100
AcDbCircle
 10
-195.617093126207
 20
-245.5198120726334
 30
0.0
 40
0.905929784985347
100
AcDbArc
 50
246.627722111822
 51
288.4480761180817
  0
ARC
  5
242
102
{ACAD_REACTORS
330
2AE
330
2AF
102
}
330
71
100
AcDbEntity
  8
0
  6
Continuous
 62
     2
100
AcDbCircle
 10
-196.0352608598689
 20
-244.2662662965969
 30
0.0
 40
2.227384008972665
100
AcDbArc
 50
288.4480761181342
 51
301.9309089499409
  0
ARC
  5
243
102
{ACAD_REACTORS
330
2AE
330
2AF
102
}
330
71
100
AcDbEntity
  8
0
  6
Continuous
 62
     2
100
AcDbCircle
 10
-196.1931337349617
 20
-242.3640517167486
 30
0.0
 40
4.852596863498738
100
AcDbArc
 50
275.1581447696361
 51
285.9799912583383
  0
ARC
  5
244
102
{ACAD_REACTORS
330
2AE
330
2AF
102
}
330
71
100
AcDbEntity
  8
0
  6
Continuous
 62
     2
100
AcDbCircle
 10
-195.9042776402259
 20
-245.5639422999701
 30
0.0
 40
1.639695123940443
100
AcDbArc
 50
195.0618917771043
 51
275.1581447696762
  0
ARC
  5
245
102
{ACAD_REACTORS
330
2A6
330
2A7
102
}
330
71
100
AcDbEntity
  8
0
  6
Continuous
 62
     2
100
AcDbCircle
 10
-211.632490951917
 20
-241.8460030652584
 30
0.0
 40
1.055365641333708
100
AcDbArc
 50
270.0
 51
90.0
  0
ARC
  5
246
102
{ACAD_REACTORS
330
2AC
330
2AD
102
}
330
71
100
AcDbEntity
  8
0
  6
Continuous
 62
     2
100
AcDbCircle
 10
-219.4125420601724
 20
-246.1753649452766
 30
0.0
 40
0.315716923075712
100
AcDbArc
 50
180.0
 51
270.0
  0
ARC
  5
247
102
{ACAD_REACTORS
330
2AC
330
2AD
102
}
330
71
100
AcDbEntity
  8
0
  6
Continuous
 62
     2
100
AcDbCircle
 10
-217.9367087991628
 20
-241.8189099025595
 30
0.0
 40
0.315716923076593
100
AcDbArc
 50
0.0
 51
90.0
  0
ARC
  5
248
102
{ACAD_REACTORS
330
2AC
330
2AD
102
}
330
71
100
AcDbEntity
  8
0
  6
Continuous
 62
     2
100
AcDbCircle
 10
-217.9367087991628
 20
-242.4229345216201
 30
0.0
 40
0.3157169230760431
100
AcDbArc
 50
295.1944106485464
 51
0.0
  0
ARC
  5
249
102
{ACAD_REACTORS
330
2AC
330
2AD
102
}
330
71
100
AcDbEntity
  8
0
  6
Continuous
 62
     2
100
AcDbCircle
 10
-217.9367087991628
 20
-246.1753649452766
 30
0.0
 40
0.315716923076792
100
AcDbArc
 50
270.0
 51
0.0
  0
ARC
  5
24A
102
{ACAD_REACTORS
330
2AC
330
2AD
102
}
330
71
100
AcDbEntity
  8
0
  6
Continuous
 62
     2
100
AcDbCircle
 10
-220.0064367369189
 20
-241.2148820393267
 30
0.0
 40
0.4242446153837989
100
AcDbArc
 50
90.0
 51
180.0
  0
ARC
  5
24B
102
{ACAD_REACTORS
330
2AC
330
2AD
102
}
330
71
100
AcDbEntity
  8
0
  6
Continuous
 62
     2
100
AcDbCircle
 10
-214.5331246462021
 20
-241.2148820393267
 30
0.0
 40
0.4242446153839126
100
AcDbArc
 50
0.0
 51
90.0
  0
ARC
  5
24C
102
{ACAD_REACTORS
330
2AC
330
2AD
102
}
330
71
100
AcDbEntity
  8
0
  6
Continuous
 62
     2
100
AcDbCircle
 10
-214.5331246462021
 20
-246.779392808527
 30
0.0
 40
0.424244615383202
100
AcDbArc
 50
270.0
 51
0.0
  0
ARC
  5
24D
102
{ACAD_REACTORS
330
2AA
330
2AB
102
}
330
71
100
AcDbEntity
  8
0
  6
Continuous
 62
     2
100
AcDbCircle
 10
-205.3147407591106
 20
-242.3175421858306
 30
0.0
 40
0.7717997786797123
100
AcDbArc
 50
321.8795802028401
 51
38.12041979715329
  0
ARC
  5
24E
102
{ACAD_REACTORS
330
2AA
330
2AB
102
}
330
71
100
AcDbEntity
  8
0
  6
Continuous
 62
     2
100
AcDbCircle
 10
-205.1150007227644
 20
-242.4742733639511
 30
0.0
 40
0.5179085730134595
100
AcDbArc
 50
218.1204197971492
 51
321.8795802028566
  0
ARC
  5
24F
102
{ACAD_REACTORS
330
2A8
330
2A9
102
}
330
71
100
AcDbEntity
  8
0
  6
Continuous
 62
     2
100
AcDbCircle
 10
-208.7950083117246
 20
-245.676732662005
 30
0.0
 40
1.458034083652003
100
AcDbArc
 50
297.548148175701
 51
62.45185182429896
  0
ARC
  5
250
102
{ACAD_REACTORS
330
2A8
330
2A9
102
}
330
71
100
AcDbEntity
  8
0
  6
Continuous
 62
     2
100
AcDbCircle
 10
-209.3568880953912
 20
-245.676732662005
 30
0.0
 40
1.45803408365149
100
AcDbArc
 50
117.5481481756624
 51
242.4518518243375
  0
ARC
  5
251
102
{ACAD_REACTORS
330
2A8
330
2A9
102
}
330
71
100
AcDbEntity
  8
0
  6
Continuous
 62
     2
100
AcDbCircle
 10
-209.0759482035579
 20
-246.2153076723077
 30
0.0
 40
2.06547977220848
100
AcDbArc
 50
62.4518518243042
 51
117.5481481756678
  0
ARC
  5
252
102
{ACAD_REACTORS
330
2A8
330
2A9
102
}
330
71
100
AcDbEntity
  8
0
  6
Continuous
 62
     2
100
AcDbCircle
 10
-209.0759482035579
 20
-245.1381576517017
 30
0.0
 40
2.065479772208509
100
AcDbArc
 50
242.4518518243402
 51
297.5481481756877
  0
ARC
  5
253
102
{ACAD_REACTORS
330
2AA
330
2AB
102
}
330
71
100
AcDbEntity
  8
0
  6
Continuous
 62
     2
100
AcDbCircle
 10
-204.9152606864181
 20
-242.3175421858306
 30
0.0
 40
0.7717997786796421
100
AcDbArc
 50
141.8795802028467
 51
218.1204197971599
  0
ARC
  5
254
102
{ACAD_REACTORS
330
2AA
330
2AB
102
}
330
71
100
AcDbEntity
  8
0
  6
Continuous
 62
     2
100
AcDbCircle
 10
-205.1150007227644
 20
-242.1608110077102
 30
0.0
 40
0.5179085730135266
100
AcDbArc
 50
38.12041979714334
 51
141.8795802028508
  0
ARC
  5
255
102
{ACAD_REACTORS
330
2AC
330
2AD
102
}
330
71
100
AcDbEntity
  8
0
  6
Continuous
 62
     2
100
AcDbCircle
 10
-220.0064367369189
 20
-246.779392808527
 30
0.0
 40
0.4242446153828041
100
AcDbArc
 50
180.0
 51
270.0
  0
ARC
  5
256
102
{ACAD_REACTORS
330
2AC
330
2AD
102
}
330
71
100
AcDbEntity
  8
0
  6
Continuous
 62
     2
100
AcDbCircle
 10
-217.9367087991628
 20
-244.644594013745
 30
0.0
 40
0.315716923076593
100
AcDbArc
 50
0.0
 51
64.80558935145369
  0
ARC
  5
257
102
{ACAD_REACTORS
330
2AC
330
2AD
102
}
330
71
100
AcDbEntity
  8
0
  6
Continuous
 62
     2
100
AcDbCircle
 10
-217.4141243515878
 20
-243.5337642676822
 30
0.0
 40
0.911897523557601
100
AcDbArc
 50
115.1944106485306
 51
244.8055893514892
  0
ARC
  5
258
102
{ACAD_REACTORS
330
2AC
330
2AD
102
}
330
71
100
AcDbEntity
  8
0
  6
Continuous
 62
     2
100
AcDbCircle
 10
-219.4125420601724
 20
-241.8189099025595
 30
0.0
 40
0.3157169230762236
100
AcDbArc
 50
90.0
 51
180.0
  0
ARC
  5
259
102
{ACAD_REACTORS
330
2A6
330
2A7
102
}
330
71
100
AcDbEntity
  8
0
  6
Continuous
 62
     2
100
AcDbCircle
 10
-212.0739634781554
 20
-241.8066070940359
 30
0.0
 40
0.3528638246711751
100
AcDbArc
 50
270.0
 51
90.0
  0
ARC
  5
25A
102
{ACAD_REACTORS
330
2AA
330
2AB
102
}
330
71
100
AcDbEntity
  8
0
  6
Continuous
 62
     2
100
AcDbCircle
 10
-205.3312727329296
 20
-242.3175421858306
 30
0.0
 40
1.526904761905797
100
AcDbArc
 50
90.0
 51
270.0
  0
ARC
  5
25B
102
{ACAD_REACTORS
330
2AE
330
2AF
102
}
330
71
100
AcDbEntity
  8
0
  6
Continuous
 62
     2
100
AcDbCircle
 10
-195.9042776402259
 20
-245.7895230240399
 30
0.0
 40
1.639695123940299
100
AcDbArc
 50
90.0
 51
164.9381082228918
  0
ARC
  5
25C
102
{ACAD_REACTORS
330
2AE
330
2AF
102
}
330
71
100
AcDbEntity
  8
0
  6
Continuous
 62
     2
100
AcDbCircle
 10
-196.3234054836875
 20
-245.676732662005
 30
0.0
 40
1.205656168392997
100
AcDbArc
 50
164.9381082228985
 51
195.0618917770962
  0
ARC
  5
25D
102
{ACAD_REACTORS
330
2AE
330
2AF
102
}
330
71
100
AcDbEntity
  8
0
  6
Continuous
 62
     2
100
AcDbCircle
 10
-195.7735331589101
 20
-245.8818040913434
 30
0.0
 40
0.5115800601960374
100
AcDbArc
 50
208.5214732576966
 51
246.6277221118516
  0
ARC
  5
25E
102
{ACAD_REACTORS
330
2AE
330
2AF
102
}
330
71
100
AcDbEntity
  8
0
  6
Continuous
 62
     2
100
AcDbCircle
 10
-195.7735331589101
 20
-245.471661232666
 30
0.0
 40
0.5115800601944048
100
AcDbArc
 50
109.3371432194823
 51
151.4785267424209
  0
ARC
  5
25F
102
{ACAD_REACTORS
330
2AC
330
2AD
102
}
330
71
100
AcDbEntity
  8
0
  6
Continuous
 62
     2
100
AcDbCircle
 10
-216.8369933736407
 20
-245.2247572743457
 30
0.0
 40
0.315716923076792
100
AcDbArc
 50
180.0
 51
269.811032957449
  0
ARC
  5
260
102
{ACAD_REACTORS
330
2AC
330
2AD
102
}
330
71
100
AcDbEntity
  8
0
  6
Continuous
 62
     2
100
AcDbCircle
 10
-216.8313772383307
 20
-243.5219223267768
 30
0.0
 40
2.018561131933266
100
AcDbArc
 50
269.8110329575858
 51
90.18896704241413
  0
ARC
  5
261
102
{ACAD_REACTORS
330
2AC
330
2AD
102
}
330
71
100
AcDbEntity
  8
0
  6
Continuous
 62
     2
100
AcDbCircle
 10
-216.8369933736407
 20
-242.4246226677144
 30
0.0
 40
0.315716923076792
100
AcDbArc
 50
180.0
 51
244.6259913216501
  0
ARC
  5
262
102
{ACAD_REACTORS
330
2AC
330
2AD
102
}
330
71
100
AcDbEntity
  8
0
  6
Continuous
 62
     2
100
AcDbCircle
 10
-216.8369933736407
 20
-244.6429058676507
 30
0.0
 40
0.315716923076622
100
AcDbArc
 50
115.3740086783499
 51
180.0
  0
ARC
  5
263
102
{ACAD_REACTORS
330
2B0
330
2B1
102
}
330
71
100
AcDbEntity
  8
0
  6
Continuous
 62
     2
100
AcDbCircle
 10
-212.0069791194788
 20
-245.7895230240399
 30
0.0
 40
1.639695123940509
100
AcDbArc
 50
84.84185523036136
 51
164.9381082228836
  0
ARC
  5
264
102
{ACAD_REACTORS
330
2B0
330
2B1
102
}
330
71
100
AcDbEntity
  8
0
  6
Continuous
 62
     2
100
AcDbCircle
 10
-212.4261069629416
 20
-245.676732662005
 30
0.0
 40
1.205656168390994
100
AcDbArc
 50
164.9381082228729
 51
195.0618917770945
  0
ARC
  5
265
102
{ACAD_REACTORS
330
2B0
330
2B1
102
}
330
71
100
AcDbEntity
  8
0
  6
Continuous
 62
     2
100
AcDbCircle
 10
-212.0069791194788
 20
-245.5639422999701
 30
0.0
 40
1.63969512393941
100
AcDbArc
 50
195.0618917770925
 51
275.1581447696406
  0
ARC
  5
266
102
{ACAD_REACTORS
330
2B0
330
2B1
102
}
330
71
100
AcDbEntity
  8
0
  6
Continuous
 62
     2
100
AcDbCircle
 10
-212.2958352142147
 20
-242.3640517167486
 30
0.0
 40
4.852596863498053
100
AcDbArc
 50
275.158144769625
 51
285.9799912583529
  0
ARC
  5
267
102
{ACAD_REACTORS
330
2B0
330
2B1
102
}
330
71
100
AcDbEntity
  8
0
  6
Continuous
 62
     2
100
AcDbCircle
 10
-211.4988773800827
 20
-245.676732662005
 30
0.0
 40
0.9410597353332545
100
AcDbArc
 50
151.4785267422669
 51
208.5214732577012
  0
ARC
  5
268
102
{ACAD_REACTORS
330
2B0
330
2B1
102
}
330
71
100
AcDbEntity
  8
0
  6
Continuous
 62
     2
100
AcDbCircle
 10
-211.876234638163
 20
-245.471661232666
 30
0.0
 40
0.5115800601949935
100
AcDbArc
 50
113.372277888197
 51
151.4785267423044
  0
ARC
  5
269
102
{ACAD_REACTORS
330
2B0
330
2B1
102
}
330
71
100
AcDbEntity
  8
0
  6
Continuous
 62
     2
100
AcDbCircle
 10
-212.1379623391218
 20
-247.0871990274131
 30
0.0
 40
2.227384008973492
100
AcDbArc
 50
58.0690910500401
 51
71.55192388186583
  0
ARC
  5
26A
102
{ACAD_REACTORS
330
2A8
330
2A9
102
}
330
71
100
AcDbEntity
  8
0
  6
Continuous
 62
     2
100
AcDbCircle
 10
-209.0759482035579
 20
-245.5200014838844
 30
0.0
 40
0.5179085730132648
100
AcDbArc
 50
38.12041979714208
 51
141.8795802028637
  0
ARC
  5
26B
102
{ACAD_REACTORS
330
2A8
330
2A9
102
}
330
71
100
AcDbEntity
  8
0
  6
Continuous
 62
     2
100
AcDbCircle
 10
-208.8762081672118
 20
-245.676732662005
 30
0.0
 40
0.7717997786795031
100
AcDbArc
 50
141.879580202836
 51
218.1204197971624
  0
ARC
  5
26C
102
{ACAD_REACTORS
330
2A8
330
2A9
102
}
330
71
100
AcDbEntity
  8
0
  6
Continuous
 62
     2
100
AcDbCircle
 10
-209.0759482035579
 20
-245.833463840125
 30
0.0
 40
0.5179085730136828
100
AcDbArc
 50
218.1204197971857
 51
321.8795802028085
  0
ARC
  5
26D
102
{ACAD_REACTORS
330
2A8
330
2A9
102
}
330
71
100
AcDbEntity
  8
0
  6
Continuous
 62
     2
100
AcDbCircle
 10
-209.2756882399043
 20
-245.676732662005
 30
0.0
 40
0.7717997786796198
100
AcDbArc
 50
321.8795802028454
 51
38.12041979715625
  0
CIRCLE
  5
26E
330
71
100
AcDbEntity
  8
1
  6
Continuous
 62
     2
100
AcDbCircle
 10
-211.9306813523017
 20
-233.3721374239266
 30
0.0
 40
2.5
  0
CIRCLE
  5
26F
330
71
100
AcDbEntity
  8
1
  6
Continuous
 62
     2
100
AcDbCircle
 10
-211.9306813523017
 20
-233.3721374239266
 30
0.0
 40
1.249999999999886
  0
CIRCLE
  5
270
102
{ACAD_REACTORS
330
2AC
330
2AD
102
}
330
71
100
AcDbEntity
  8
0
  6
Continuous
 62
     2
100
AcDbCircle
 10
-217.3868510864014
 20
-243.5337642676822
 30
0.0
 40
0.4709789327785074
  0
MTEXT
  5
271
330
71
100
AcDbEntity
  8
1
 62
     3
100
AcDbMText
 10
-382.1174639260425
 20
-67.70582926862775
 30
0.0
 40
1.8
 41
0.0
 71
     7
 72
     1
  3
Weitergabe sowie Vervielf\U+00e4ltigung dieses Dokuments, Verwertung und \PMitteilung seines Inhalts sind verboten, soweit nicht ausdr\U+00fccklich gestattet. \PZuwiderhandlungen verpflichten zu Schadenersatz. Alle Rechte f\U+00fcr den Fall\Pder Pat
  1
ent-, Gebrauchsmuster- oder Designeintragung vorbehalten.
  7
CONVERTER_11
 73
     1
 44
0.99639855942377
  0
MTEXT
  5
272
330
71
100
AcDbEntity
  8
1
 62
     3
100
AcDbMText
 10
-199.2643540872544
 20
-67.70582926862775
 30
0.0
 40
1.8
 41
0.0
 71
     7
 72
     1
  3
Transfer or duplication of this document as well as the utilisation or\Pcommunication of its content are not permitted unless express consent\Pis granted. Violations give rise to claims for damages. All rights reserved\Pin case of patent, utility mo
  1
del or design patent registrations.
  7
CONVERTER_11
 73
     1
 44
0.99639855942377
  0
TEXT
  5
273
330
71
100
AcDbEntity
  8
1
 62
     2
100
AcDbText
 10
-205.4673362388645
 20
-253.2561546389182
 30
0.0
 40
1.8
  1
of
 41
0.9
  7
CONVERTER_11
100
AcDbText
  0
TEXT
  5
274
330
71
100
AcDbEntity
  8
1
 62
     2
100
AcDbText
 10
-223.6673362388643
 20
-253.2561546389182
 30
0.0
 40
1.8
  1
page
 41
0.9
  7
CONVERTER_11
100
AcDbText
  0
TEXT
  5
275
330
71
100
AcDbEntity
  8
1
 62
     2
100
AcDbText
 10
-215.0210712685223
 20
-253.2963860777286
 30
0.0
 40
1.8
  1
1
 41
0.9
  7
CONVERTER_11
100
AcDbText
  0
TEXT
  5
276
330
71
100
AcDbEntity
  8
1
 62
     2
100
AcDbText
 10
-200.2320274290508
 20
-253.2471374239267
 30
0.0
 40
1.8
  1
1
 41
0.9
  7
CONVERTER_11
100
AcDbText
  0
MTEXT
  5
278
330
71
100
AcDbEntity
  8
1
 62
     7
100
AcDbMText
 10
-141.6949339754888
 20
-251.2471374239263
 30
0.0
 40
3.0
 41
0.0
 71
     5
 72
     1
  1
G-CCS-M25-M66N-PNES-BK
  7
CONVERTER_12
 73
     1
 44
1.20048019207683
  0
MTEXT
  5
279
330
71
100
AcDbEntity
  8
1
 62
     2
100
AcDbMText
 10
-187.2673362388644
 20
-246.9971374239266
 30
0.0
 40
1.8
 41
0.0
 71
     1
 72
     1
  1
description
  7
CONVERTER_11
 73
     1
 44
1.20048019207683
  0
MTEXT
  5
27A
330
71
100
AcDbEntity
  8
1
 62
     3
100
AcDbMText
 10
-198.4673362388644
 20
-233.3721374239266
 30
0.0
 40
2.5
 41
0.0
 71
     5
 72
     1
  1
DIN A4
  7
CONVERTER_11
 73
     1
 44
1.20048019207683
  0
MTEXT
  5
27B
330
71
100
AcDbEntity
  8
1
 62
     7
100
AcDbMText
 10
-384.6225317121134
 20
-231.9971374239266
 30
0.0
 40
3.5
 41
0.0
 71
     5
 72
     1
  1
D
  7
CONVERTER_11
 73
     1
 44
1.20048019207683
  0
MTEXT
  5
27C
330
71
100
AcDbEntity
  8
1
 62
     7
100
AcDbMText
 10
-384.6225317121134
 20
-179.4971374239266
 30
0.0
 40
3.5
 41
0.0
 71
     5
 72
     1
  1
C
  7
CONVERTER_11
 73
     1
 44
1.20048019207683
  0
MTEXT
  5
27D
330
71
100
AcDbEntity
  8
1
 62
     7
100
AcDbMText
 10
-384.6225317121134
 20
-129.4971374239266
 30
0.0
 40
3.5
 41
0.0
 71
     5
 72
     1
  1
B
  7
CONVERTER_11
 73
     1
 44
1.20048019207683
  0
MTEXT
  5
27E
330
71
100
AcDbEntity
  8
1
 62
     7
100
AcDbMText
 10
-384.6225317121134
 20
-76.99713742392655
 30
0.0
 40
3.5
 41
0.0
 71
     5
 72
     1
  1
A
  7
CONVERTER_11
 73
     1
 44
1.20048019207683
  0
MTEXT
  5
27F
330
71
100
AcDbEntity
  8
1
 62
     7
100
AcDbMText
 10
-114.3725317121151
 20
-256.9971374239267
 30
0.0
 40
3.5
 41
0.0
 71
     5
 72
     1
  1
6
  7
CONVERTER_11
 73
     1
 44
1.20048019207683
  0
MTEXT
  5
280
330
71
100
AcDbEntity
  8
1
 62
     7
100
AcDbMText
 10
-163.6225317121143
 20
-256.9971374239267
 30
0.0
 40
3.5
 41
0.0
 71
     5
 72
     1
  1
5
  7
CONVERTER_11
 73
     1
 44
1.20048019207683
  0
MTEXT
  5
281
330
71
100
AcDbEntity
  8
1
 62
     7
100
AcDbMText
 10
-213.6225317121144
 20
-256.9971374239267
 30
0.0
 40
3.5
 41
0.0
 71
     5
 72
     1
  1
4
  7
CONVERTER_11
 73
     1
 44
1.20048019207683
  0
MTEXT
  5
282
330
71
100
AcDbEntity
  8
1
 62
     7
100
AcDbMText
 10
-263.6225317121143
 20
-256.9971374239267
 30
0.0
 40
3.5
 41
0.0
 71
     5
 72
     1
  1
3
  7
CONVERTER_11
 73
     1
 44
1.20048019207683
  0
MTEXT
  5
283
330
71
100
AcDbEntity
  8
1
 62
     7
100
AcDbMText
 10
-313.6225317121143
 20
-256.9971374239267
 30
0.0
 40
3.5
 41
0.0
 71
     5
 72
     1
  1
2
  7
CONVERTER_11
 73
     1
 44
1.20048019207683
  0
MTEXT
  5
284
330
71
100
AcDbEntity
  8
1
 62
     7
100
AcDbMText
 10
-362.8725317121139
 20
-256.9971374239267
 30
0.0
 40
3.5
 41
0.0
 71
     5
 72
     1
  1
1
  7
CONVERTER_11
 73
     1
 44
1.20048019207683
  0
MTEXT
  5
285
330
71
100
AcDbEntity
  8
1
 62
     7
100
AcDbMText
 10
-92.62253171211529
 20
-231.9971374239266
 30
0.0
 40
3.5
 41
0.0
 71
     5
 72
     1
  1
D
  7
CONVERTER_11
 73
     1
 44
1.20048019207683
  0
MTEXT
  5
286
330
71
100
AcDbEntity
  8
1
 62
     7
100
AcDbMText
 10
-92.62253171211529
 20
-129.4971374239246
 30
0.0
 40
3.5
 41
0.0
 71
     5
 72
     1
  1
B
  7
CONVERTER_11
 73
     1
 44
1.20048019207683
  0
MTEXT
  5
287
330
71
100
AcDbEntity
  8
1
 62
     7
100
AcDbMText
 10
-92.62253171211529
 20
-76.99713742392655
 30
0.0
 40
3.5
 41
0.0
 71
     5
 72
     1
  1
A
  7
CONVERTER_11
 73
     1
 44
1.20048019207683
  0
MTEXT
  5
288
330
71
100
AcDbEntity
  8
1
 62
     7
100
AcDbMText
 10
-92.62253171211529
 20
-179.4971374239246
 30
0.0
 40
3.5
 41
0.0
 71
     5
 72
     1
  1
C
  7
CONVERTER_11
 73
     1
 44
1.20048019207683
  0
MTEXT
  5
289
330
71
100
AcDbEntity
  8
1
 62
     2
100
AcDbMText
 10
-259.1053509639118
 20
-241.7471374239266
 30
0.0
 40
2.0
 41
0.0
 71
     5
 72
     1
  1
General Information\P- Simplified representation\P- Document excluded from change process\P- Linear dimensions [mm]
  7
CONVERTER_11
 73
     1
 44
1.20048019207683
  0
TEXT
  5
28A
330
71
100
AcDbEntity
  8
1
 62
     7
100
AcDbText
 10
-186.7673362388646
 20
-244.6971374239267
 30
0.0
 40
2.5
  1
1076600
 41
0.81
  7
CONVERTER_12
100
AcDbText
  0
MTEXT
  5
28B
330
71
100
AcDbEntity
  8
1
 62
     2
100
AcDbMText
 10
-187.1673362388643
 20
-238.4971374239266
 30
0.0
 40
1.8
 41
0.0
 71
     1
 72
     1
  1
ident.-No.
  7
CONVERTER_11
 73
     1
 44
1.20048019207683
  0
MTEXT
  5
28C
330
71
100
AcDbEntity
  8
1
 62
     2
100
AcDbMText
 10
-102.9409399937916
 20
-229.9971374239266
 30
0.0
 40
1.8
 41
0.0
 71
     1
 72
     1
  1
scale
  7
CONVERTER_11
 73
     1
 44
1.20048019207683
  0
MTEXT
  5
28E
330
71
100
AcDbEntity
  8
1
 62
     3
100
AcDbMText
 10
-99.58173585295198
 20
-236.1971374239265
 30
0.0
 40
2.5
 41
0.0
 71
     8
 72
     1
  1
1:1
  7
CONVERTER_13
 73
     1
 44
1.32052821128451
  0
TEXT
  5
28F
330
71
100
AcDbEntity
  8
1
 62
     7
100
AcDbText
 10
-187.1673362388643
 20
-236.1971374239267
 30
0.0
 40
2.5
  1
01143132
 41
0.81
  7
CONVERTER_12
100
AcDbText
  0
MTEXT
  5
291
330
71
100
AcDbEntity
  8
1
 62
     2
100
AcDbMText
 10
-187.1673362388643
 20
-229.9971374239266
 30
0.0
 40
1.8
 41
0.0
 71
     1
 72
     1
  1
document-No. / RI
  7
CONVERTER_14
 73
     1
 44
1.32052821128451
  0
TEXT
  5
292
330
71
100
AcDbEntity
  8
1
 62
     3
100
AcDbText
 10
-159.3673362388643
 20
-244.6971374239267
 30
0.0
 40
2.5
  1
TECDOC 2D_Productdrawing
 41
0.81
  7
CONVERTER_12
100
AcDbText
  0
MTEXT
  5
293
330
71
100
AcDbEntity
  8
1
 62
     2
100
AcDbMText
 10
-159.3673362388643
 20
-238.4971374239266
 30
0.0
 40
1.8
 41
0.0
 71
     1
 72
     1
  1
document-type
  7
CONVERTER_11
 73
     1
 44
1.20048019207683
  0
MTEXT
  5
294
330
71
100
AcDbEntity
  8
1
 62
     2
100
AcDbMText
 10
-129.5409399937914
 20
-229.9971374239266
 30
0.0
 40
1.8
 41
0.0
 71
     1
 72
     1
  1
date
  7
CONVERTER_11
 73
     1
 44
1.32052821128451
  0
TEXT
  5
295
330
71
100
AcDbEntity
  8
1
 62
     3
100
AcDbText
 10
-129.5409399937914
 20
-236.1971374239267
 30
0.0
 40
2.5
  1
22.05.2018
 41
0.81
  7
CONVERTER_12
100
AcDbText
  0
TEXT
  5
296
330
71
100
AcDbEntity
  8
1
 62
     7
100
AcDbText
 10
-167.1374240198085
 20
-236.1971374239267
 30
0.0
 40
2.5
  1
00
 41
0.81
  7
CONVERTER_12
100
AcDbText
  0
TEXT
  5
297
330
71
100
AcDbEntity
  8
1
 62
     7
100
AcDbText
 10
-169.2937885168505
 20
-236.1971374239267
 30
0.0
 40
2.5
  1
/
 41
0.9
  7
CONVERTER_11
100
AcDbText
  0
HATCH
  5
298
330
71
100
AcDbEntity
  8
1
  6
Continuous
 62
     2
100
AcDbHatch
 10
0.0
 20
0.0
 30
0.0
210
0.0
220
0.0
230
1.0
  2
_USER
 70
     0
 71
     1
 91
        1
 92
        1
 93
       12
 72
     1
 10
-206.9998355259032
 20
-243.844446947736
 11
-208.1926282280696
 21
-243.844446947736
 72
     1
 10
-208.1926282280696
 20
-243.844446947736
 11
-208.1926282280696
 21
-242.7101748388921
 72
     1
 10
-208.1926282280696
 20
-242.7101748388921
 11
-209.2422858059771
 21
-242.7101748388921
 72
     1
 10
-209.2422858059771
 20
-242.7101748388921
 11
-209.2422858059771
 21
-243.844446947736
 72
     1
 10
-209.2422858059771
 20
-243.844446947736
 11
-210.4350785081437
 21
-243.844446947736
 72
     1
 10
-210.4350785081437
 20
-243.844446947736
 11
-210.4350785081437
 21
-240.7906374239248
 72
     1
 10
-210.4350785081437
 20
-240.7906374239248
 11
-209.2422858059771
 21
-240.7906374239248
 72
     1
 10
-209.2422858059771
 20
-240.7906374239248
 11
-209.2422858059771
 21
-241.8594707572593
 72
     1
 10
-209.2422858059771
 20
-241.8594707572593
 11
-208.1926282280696
 21
-241.8594707572593
 72
     1
 10
-208.1926282280696
 20
-241.8594707572593
 11
-208.1926282280696
 21
-240.7906374239248
 72
     1
 10
-208.1926282280696
 20
-240.7906374239248
 11
-206.9998355259032
 21
-240.7906374239248
 72
     1
 10
-206.9998355259032
 20
-240.7906374239248
 11
-206.9998355259032
 21
-243.844446947736
 97
       12
330
205
330
206
330
1F0
330
1EF
330
1EE
330
202
330
1ED
330
203
330
204
330
1EC
330
1EB
330
1EA
 75
     1
 76
     0
 52
45.0
 41
0.1
 77
     0
 78
     1
 53
45.0
 43
0.0
 44
0.0
 45
-0.0707106781186548
 46
0.0707106781186548
 79
     0
 98
        1
 10
0.0
 20
0.0
  0
HATCH
  5
299
330
71
100
AcDbEntity
  8
1
  6
Continuous
 62
     2
100
AcDbHatch
 10
0.0
 20
0.0
 30
0.0
210
0.0
220
0.0
230
1.0
  2
_USER
 70
     0
 71
     1
 91
        1
 92
        1
 93
       12
 72
     1
 10
-206.9998355259032
 20
-243.844446947736
 11
-208.1926282280696
 21
-243.844446947736
 72
     1
 10
-208.1926282280696
 20
-243.844446947736
 11
-208.1926282280696
 21
-242.7101748388921
 72
     1
 10
-208.1926282280696
 20
-242.7101748388921
 11
-209.2422858059771
 21
-242.7101748388921
 72
     1
 10
-209.2422858059771
 20
-242.7101748388921
 11
-209.2422858059771
 21
-243.844446947736
 72
     1
 10
-209.2422858059771
 20
-243.844446947736
 11
-210.4350785081437
 21
-243.844446947736
 72
     1
 10
-210.4350785081437
 20
-243.844446947736
 11
-210.4350785081437
 21
-240.7906374239248
 72
     1
 10
-210.4350785081437
 20
-240.7906374239248
 11
-209.2422858059771
 21
-240.7906374239248
 72
     1
 10
-209.2422858059771
 20
-240.7906374239248
 11
-209.2422858059771
 21
-241.8594707572593
 72
     1
 10
-209.2422858059771
 20
-241.8594707572593
 11
-208.1926282280696
 21
-241.8594707572593
 72
     1
 10
-208.1926282280696
 20
-241.8594707572593
 11
-208.1926282280696
 21
-240.7906374239248
 72
     1
 10
-208.1926282280696
 20
-240.7906374239248
 11
-206.9998355259032
 21
-240.7906374239248
 72
     1
 10
-206.9998355259032
 20
-240.7906374239248
 11
-206.9998355259032
 21
-243.844446947736
 97
       12
330
205
330
206
330
1F0
330
1EF
330
1EE
330
202
330
1ED
330
203
330
204
330
1EC
330
1EB
330
1EA
 75
     1
 76
     0
 52
45.0
 41
0.1
 77
     0
 78
     1
 53
45.0
 43
0.0
 44
0.0
 45
-0.0707106781186548
 46
0.0707106781186548
 79
     0
 98
        1
 10
0.0
 20
0.0
  0
HATCH
  5
29A
330
71
100
AcDbEntity
  8
1
  6
Continuous
 62
     2
100
AcDbHatch
 10
0.0
 20
0.0
 30
0.0
210
0.0
220
0.0
230
1.0
  2
_USER
 70
     0
 71
     1
 91
        1
 92
        1
 93
       10
 72
     1
 10
-204.7575361767149
 20
-245.4586034103043
 11
-205.9980405869678
 21
-244.1498279000992
 72
     1
 10
-205.9980405869678
 20
-244.1498279000992
 11
-207.1908332891354
 21
-244.1498279000992
 72
     1
 10
-207.1908332891354
 20
-244.1498279000992
 11
-207.1908332891354
 21
-247.2036374239102
 72
     1
 10
-207.1908332891354
 20
-247.2036374239102
 11
-205.9980405869678
 21
-247.2036374239102
 72
     1
 10
-205.9980405869678
 20
-247.2036374239102
 11
-205.9980405869678
 21
-245.8948619137057
 72
     1
 10
-205.9980405869678
 20
-245.8948619137057
 11
-204.7575361767149
 21
-247.2036374239102
 72
     1
 10
-204.7575361767149
 20
-247.2036374239102
 11
-203.5647434745485
 21
-247.2036374239102
 72
     1
 10
-203.5647434745485
 20
-247.2036374239102
 11
-203.5647434745485
 21
-244.1498279000992
 72
     1
 10
-203.5647434745485
 20
-244.1498279000992
 11
-204.7575361767149
 21
-244.1498279000992
 72
     1
 10
-204.7575361767149
 20
-244.1498279000992
 11
-204.7575361767149
 21
-245.4586034103043
 97
       10
330
213
330
1E3
330
1E2
330
1E5
330
20E
330
20F
330
1E4
330
210
330
211
330
212
 75
     1
 76
     0
 52
45.0
 41
0.1
 77
     0
 78
     1
 53
45.0
 43
0.0
 44
0.0
 45
-0.0707106781186548
 46
0.0707106781186548
 79
     0
 98
        1
 10
0.0
 20
0.0
  0
HATCH
  5
29B
330
71
100
AcDbEntity
  8
1
  6
Continuous
 62
     2
100
AcDbHatch
 10
0.0
 20
0.0
 30
0.0
210
0.0
220
0.0
230
1.0
  2
_USER
 70
     0
 71
     1
 91
        1
 92
        1
 93
       10
 72
     1
 10
-204.7575361767149
 20
-245.4586034103043
 11
-205.9980405869678
 21
-244.1498279000992
 72
     1
 10
-205.9980405869678
 20
-244.1498279000992
 11
-207.1908332891354
 21
-244.1498279000992
 72
     1
 10
-207.1908332891354
 20
-244.1498279000992
 11
-207.1908332891354
 21
-247.2036374239102
 72
     1
 10
-207.1908332891354
 20
-247.2036374239102
 11
-205.9980405869678
 21
-247.2036374239102
 72
     1
 10
-205.9980405869678
 20
-247.2036374239102
 11
-205.9980405869678
 21
-245.8948619137057
 72
     1
 10
-205.9980405869678
 20
-245.8948619137057
 11
-204.7575361767149
 21
-247.2036374239102
 72
     1
 10
-204.7575361767149
 20
-247.2036374239102
 11
-203.5647434745485
 21
-247.2036374239102
 72
     1
 10
-203.5647434745485
 20
-247.2036374239102
 11
-203.5647434745485
 21
-244.1498279000992
 72
     1
 10
-203.5647434745485
 20
-244.1498279000992
 11
-204.7575361767149
 21
-244.1498279000992
 72
     1
 10
-204.7575361767149
 20
-244.1498279000992
 11
-204.7575361767149
 21
-245.4586034103043
 97
       10
330
213
330
1E3
330
1E2
330
1E5
330
20E
330
20F
330
1E4
330
210
330
211
330
212
 75
     1
 76
     0
 52
45.0
 41
0.1
 77
     0
 78
     1
 53
45.0
 43
0.0
 44
0.0
 45
-0.0707106781186548
 46
0.0707106781186548
 79
     0
 98
        1
 10
0.0
 20
0.0
  0
HATCH
  5
29C
330
71
100
AcDbEntity
  8
1
  6
Continuous
 62
     2
100
AcDbHatch
 10
0.0
 20
0.0
 30
0.0
210
0.0
220
0.0
230
1.0
  2
_USER
 70
     0
 71
     1
 91
        1
 92
        1
 93
       10
 72
     1
 10
-199.5090973562952
 20
-242.0994129341299
 11
-200.7496017665492
 21
-240.7906374239248
 72
     1
 10
-200.7496017665492
 20
-240.7906374239248
 11
-201.9423944687157
 21
-240.7906374239248
 72
     1
 10
-201.9423944687157
 20
-240.7906374239248
 11
-201.9423944687157
 21
-243.844446947736
 72
     1
 10
-201.9423944687157
 20
-243.844446947736
 11
-200.7496017665492
 21
-243.844446947736
 72
     1
 10
-200.7496017665492
 20
-243.844446947736
 11
-200.7496017665492
 21
-242.5356714375313
 72
     1
 10
-200.7496017665492
 20
-242.5356714375313
 11
-199.5090973562952
 21
-243.844446947736
 72
     1
 10
-199.5090973562952
 20
-243.844446947736
 11
-198.3163046541286
 21
-243.844446947736
 72
     1
 10
-198.3163046541286
 20
-243.844446947736
 11
-198.3163046541286
 21
-240.7906374239248
 72
     1
 10
-198.3163046541286
 20
-240.7906374239248
 11
-199.5090973562952
 21
-240.7906374239248
 72
     1
 10
-199.5090973562952
 20
-240.7906374239248
 11
-199.5090973562952
 21
-242.0994129341299
 97
       10
330
218
330
1E0
330
1DF
330
219
330
1DE
330
214
330
215
330
216
330
217
330
1E1
 75
     1
 76
     0
 52
45.0
 41
0.1
 77
     0
 78
     1
 53
45.0
 43
0.0
 44
0.0
 45
-0.0707106781186548
 46
0.0707106781186548
 79
     0
 98
        1
 10
0.0
 20
0.0
  0
HATCH
  5
29D
330
71
100
AcDbEntity
  8
1
  6
Continuous
 62
     2
100
AcDbHatch
 10
0.0
 20
0.0
 30
0.0
210
0.0
220
0.0
230
1.0
  2
_USER
 70
     0
 71
     1
 91
        1
 92
        1
 93
       10
 72
     1
 10
-199.5090973562952
 20
-242.0994129341299
 11
-200.7496017665492
 21
-240.7906374239248
 72
     1
 10
-200.7496017665492
 20
-240.7906374239248
 11
-201.9423944687157
 21
-240.7906374239248
 72
     1
 10
-201.9423944687157
 20
-240.7906374239248
 11
-201.9423944687157
 21
-243.844446947736
 72
     1
 10
-201.9423944687157
 20
-243.844446947736
 11
-200.7496017665492
 21
-243.844446947736
 72
     1
 10
-200.7496017665492
 20
-243.844446947736
 11
-200.7496017665492
 21
-242.5356714375313
 72
     1
 10
-200.7496017665492
 20
-242.5356714375313
 11
-199.5090973562952
 21
-243.844446947736
 72
     1
 10
-199.5090973562952
 20
-243.844446947736
 11
-198.3163046541286
 21
-243.844446947736
 72
     1
 10
-198.3163046541286
 20
-243.844446947736
 11
-198.3163046541286
 21
-240.7906374239248
 72
     1
 10
-198.3163046541286
 20
-240.7906374239248
 11
-199.5090973562952
 21
-240.7906374239248
 72
     1
 10
-199.5090973562952
 20
-240.7906374239248
 11
-199.5090973562952
 21
-242.0994129341299
 97
       10
330
218
330
1E0
330
1DF
330
219
330
1DE
330
214
330
215
330
216
330
217
330
1E1
 75
     1
 76
     0
 52
45.0
 41
0.1
 77
     0
 78
     1
 53
45.0
 43
0.0
 44
0.0
 45
-0.0707106781186548
 46
0.0707106781186548
 79
     0
 98
        1
 10
0.0
 20
0.0
  0
HATCH
  5
29E
330
71
100
AcDbEntity
  8
1
  6
Continuous
 62
     2
100
AcDbHatch
 10
0.0
 20
0.0
 30
0.0
210
0.0
220
0.0
230
1.0
  2
_USER
 70
     0
 71
     1
 91
        1
 92
        1
 93
        8
 72
     1
 10
-200.6066175731747
 20
-244.1498279000992
 11
-203.4216083502883
 21
-244.1498279000992
 72
     1
 10
-203.4216083502883
 20
-244.1498279000992
 11
-203.4216083502883
 21
-244.9350932062228
 72
     1
 10
-203.4216083502883
 20
-244.9350932062228
 11
-202.6105093128137
 21
-244.9350932062228
 72
     1
 10
-202.6105093128137
 20
-244.9350932062228
 11
-202.6105093128137
 21
-247.2036374239102
 72
     1
 10
-202.6105093128137
 20
-247.2036374239102
 11
-201.4177166106472
 21
-247.2036374239102
 72
     1
 10
-201.4177166106472
 20
-247.2036374239102
 11
-201.4177166106472
 21
-244.9350932062228
 72
     1
 10
-201.4177166106472
 20
-244.9350932062228
 11
-200.6066175731747
 21
-244.9350932062228
 72
     1
 10
-200.6066175731747
 20
-244.9350932062228
 11
-200.6066175731747
 21
-244.1498279000992
 97
        8
330
1DA
330
21A
330
1D9
330
21B
330
21C
330
1DD
330
1DC
330
1DB
 75
     1
 76
     0
 52
45.0
 41
0.1
 77
     0
 78
     1
 53
45.0
 43
0.0
 44
0.0
 45
-0.0707106781186548
 46
0.0707106781186548
 79
     0
 98
        1
 10
0.0
 20
0.0
  0
HATCH
  5
29F
330
71
100
AcDbEntity
  8
1
  6
Continuous
 62
     2
100
AcDbHatch
 10
0.0
 20
0.0
 30
0.0
210
0.0
220
0.0
230
1.0
  2
_USER
 70
     0
 71
     1
 91
        1
 92
        1
 93
        8
 72
     1
 10
-200.6066175731747
 20
-244.1498279000992
 11
-203.4216083502883
 21
-244.1498279000992
 72
     1
 10
-203.4216083502883
 20
-244.1498279000992
 11
-203.4216083502883
 21
-244.9350932062228
 72
     1
 10
-203.4216083502883
 20
-244.9350932062228
 11
-202.6105093128137
 21
-244.9350932062228
 72
     1
 10
-202.6105093128137
 20
-244.9350932062228
 11
-202.6105093128137
 21
-247.2036374239102
 72
     1
 10
-202.6105093128137
 20
-247.2036374239102
 11
-201.4177166106472
 21
-247.2036374239102
 72
     1
 10
-201.4177166106472
 20
-247.2036374239102
 11
-201.4177166106472
 21
-244.9350932062228
 72
     1
 10
-201.4177166106472
 20
-244.9350932062228
 11
-200.6066175731747
 21
-244.9350932062228
 72
     1
 10
-200.6066175731747
 20
-244.9350932062228
 11
-200.6066175731747
 21
-244.1498279000992
 97
        8
330
1DA
330
21A
330
1D9
330
21B
330
21C
330
1DD
330
1DC
330
1DB
 75
     1
 76
     0
 52
45.0
 41
0.1
 77
     0
 78
     1
 53
45.0
 43
0.0
 44
0.0
 45
-0.0707106781186548
 46
0.0707106781186548
 79
     0
 98
        1
 10
0.0
 20
0.0
  0
HATCH
  5
2A0
330
71
100
AcDbEntity
  8
1
  6
Continuous
 62
     2
100
AcDbHatch
 10
0.0
 20
0.0
 30
0.0
210
0.0
220
0.0
230
1.0
  2
_USER
 70
     0
 71
     1
 91
        2
 92
        1
 93
        8
 72
     1
 10
-198.4681901172277
 20
-247.2036374239102
 11
-198.6796701707035
 21
-246.6626768796924
 72
     1
 10
-198.6796701707035
 20
-246.6626768796924
 11
-199.8121117473773
 21
-246.6626768796924
 72
     1
 10
-199.8121117473773
 20
-246.6626768796924
 11
-200.0235918008531
 21
-247.2036374239102
 72
     1
 10
-200.0235918008531
 20
-247.2036374239102
 11
-201.2640962111061
 21
-247.2036374239102
 72
     1
 10
-201.2640962111061
 20
-247.2036374239102
 11
-199.8661431641668
 21
-244.1498279000992
 72
     1
 10
-199.8661431641668
 20
-244.1498279000992
 11
-198.6256387539141
 21
-244.1498279000992
 72
     1
 10
-198.6256387539141
 20
-244.1498279000992
 11
-197.2276857069738
 21
-247.2036374239102
 72
     1
 10
-197.2276857069738
 20
-247.2036374239102
 11
-198.4681901172277
 21
-247.2036374239102
 97
        8
330
21E
330
21F
330
1D6
330
220
330
1D5
330
1D8
330
21D
330
1D7
 92
       16
 93
        3
 72
     1
 10
-199.5460561962323
 20
-245.9821136143858
 11
-199.2458909590399
 21
-245.2142986483991
 72
     1
 10
-199.2458909590399
 20
-245.2142986483991
 11
-198.9457257218498
 21
-245.9821136143858
 72
     1
 10
-198.9457257218498
 20
-245.9821136143858
 11
-199.5460561962323
 21
-245.9821136143858
 97
        3
330
1D4
330
222
330
221
 75
     1
 76
     0
 52
45.0
 41
0.1
 77
     0
 78
     1
 53
45.0
 43
0.0
 44
0.0
 45
-0.0707106781186548
 46
0.0707106781186548
 79
     0
 98
        1
 10
0.0
 20
0.0
  0
HATCH
  5
2A1
330
71
100
AcDbEntity
  8
1
  6
Continuous
 62
     2
100
AcDbHatch
 10
0.0
 20
0.0
 30
0.0
210
0.0
220
0.0
230
1.0
  2
_USER
 70
     0
 71
     1
 91
        2
 92
        1
 93
        8
 72
     1
 10
-198.4681901172277
 20
-247.2036374239102
 11
-198.6796701707035
 21
-246.6626768796924
 72
     1
 10
-198.6796701707035
 20
-246.6626768796924
 11
-199.8121117473773
 21
-246.6626768796924
 72
     1
 10
-199.8121117473773
 20
-246.6626768796924
 11
-200.0235918008531
 21
-247.2036374239102
 72
     1
 10
-200.0235918008531
 20
-247.2036374239102
 11
-201.2640962111061
 21
-247.2036374239102
 72
     1
 10
-201.2640962111061
 20
-247.2036374239102
 11
-199.8661431641668
 21
-244.1498279000992
 72
     1
 10
-199.8661431641668
 20
-244.1498279000992
 11
-198.6256387539141
 21
-244.1498279000992
 72
     1
 10
-198.6256387539141
 20
-244.1498279000992
 11
-197.2276857069738
 21
-247.2036374239102
 72
     1
 10
-197.2276857069738
 20
-247.2036374239102
 11
-198.4681901172277
 21
-247.2036374239102
 97
        8
330
21E
330
21F
330
1D6
330
220
330
1D5
330
1D8
330
21D
330
1D7
 92
       16
 93
        3
 72
     1
 10
-199.5460561962323
 20
-245.9821136143858
 11
-199.2458909590399
 21
-245.2142986483991
 72
     1
 10
-199.2458909590399
 20
-245.2142986483991
 11
-198.9457257218498
 21
-245.9821136143858
 72
     1
 10
-198.9457257218498
 20
-245.9821136143858
 11
-199.5460561962323
 21
-245.9821136143858
 97
        3
330
1D4
330
222
330
221
 75
     1
 76
     0
 52
45.0
 41
0.1
 77
     0
 78
     1
 53
45.0
 43
0.0
 44
0.0
 45
-0.0707106781186548
 46
0.0707106781186548
 79
     0
 98
        1
 10
0.0
 20
0.0
  0
HATCH
  5
2A2
330
71
100
AcDbEntity
  8
1
  6
Continuous
 62
     2
100
AcDbHatch
 10
0.0
 20
0.0
 30
0.0
210
0.0
220
0.0
230
1.0
  2
_USER
 70
     0
 71
     1
 91
        1
 92
        1
 93
        4
 72
     1
 10
-196.8372417034418
 20
-243.844446947736
 11
-198.0777461136947
 21
-243.844446947736
 72
     1
 10
-198.0777461136947
 20
-243.844446947736
 11
-198.0777461136947
 21
-240.7906374239248
 72
     1
 10
-198.0777461136947
 20
-240.7906374239248
 11
-196.8372417034418
 21
-240.7906374239248
 72
     1
 10
-196.8372417034418
 20
-240.7906374239248
 11
-196.8372417034418
 21
-243.844446947736
 97
        4
330
1D1
330
1D3
330
223
330
1D2
 75
     1
 76
     0
 52
45.0
 41
0.1
 77
     0
 78
     1
 53
45.0
 43
0.0
 44
0.0
 45
-0.0707106781186548
 46
0.0707106781186548
 79
     0
 98
        1
 10
0.0
 20
0.0
  0
HATCH
  5
2A3
330
71
100
AcDbEntity
  8
1
  6
Continuous
 62
     2
100
AcDbHatch
 10
0.0
 20
0.0
 30
0.0
210
0.0
220
0.0
230
1.0
  2
_USER
 70
     0
 71
     1
 91
        1
 92
        1
 93
        4
 72
     1
 10
-196.8372417034418
 20
-243.844446947736
 11
-198.0777461136947
 21
-243.844446947736
 72
     1
 10
-198.0777461136947
 20
-243.844446947736
 11
-198.0777461136947
 21
-240.7906374239248
 72
     1
 10
-198.0777461136947
 20
-240.7906374239248
 11
-196.8372417034418
 21
-240.7906374239248
 72
     1
 10
-196.8372417034418
 20
-240.7906374239248
 11
-196.8372417034418
 21
-243.844446947736
 97
        4
330
1D1
330
1D3
330
223
330
1D2
 75
     1
 76
     0
 52
45.0
 41
0.1
 77
     0
 78
     1
 53
45.0
 43
0.0
 44
0.0
 45
-0.0707106781186548
 46
0.0707106781186548
 79
     0
 98
        1
 10
0.0
 20
0.0
  0
HATCH
  5
2A4
330
71
100
AcDbEntity
  8
1
  6
Continuous
 62
     2
100
AcDbHatch
 10
0.0
 20
0.0
 30
0.0
210
0.0
220
0.0
230
1.0
  2
_USER
 70
     0
 71
     1
 91
        1
 92
        1
 93
       12
 72
     1
 10
-192.614755537771
 20
-240.7906374239248
 11
-193.9172851685375
 21
-242.263587953961
 72
     1
 10
-193.9172851685375
 20
-242.263587953961
 11
-192.5193321215972
 21
-243.844446947736
 72
     1
 10
-192.5193321215972
 20
-243.844446947736
 11
-193.9220563393455
 21
-243.844446947736
 72
     1
 10
-193.9220563393455
 20
-243.844446947736
 11
-194.618647277411
 21
-243.0567151624422
 72
     1
 10
-194.618647277411
 20
-243.0567151624422
 11
-195.3152382154767
 21
-243.844446947736
 72
     1
 10
-195.3152382154767
 20
-243.844446947736
 11
-196.7179624332249
 21
-243.844446947736
 72
     1
 10
-196.7179624332249
 20
-243.844446947736
 11
-195.3200093862846
 21
-242.263587953961
 72
     1
 10
-195.3200093862846
 20
-242.263587953961
 11
-196.6225390170521
 21
-240.7906374239248
 72
     1
 10
-196.6225390170521
 20
-240.7906374239248
 11
-195.2198147993028
 21
-240.7906374239248
 72
     1
 10
-195.2198147993028
 20
-240.7906374239248
 11
-194.618647277411
 21
-241.4704607454802
 72
     1
 10
-194.618647277411
 20
-241.4704607454802
 11
-194.0174797555182
 21
-240.7906374239248
 72
     1
 10
-194.0174797555182
 20
-240.7906374239248
 11
-192.614755537771
 21
-240.7906374239248
 97
       12
330
1CC
330
1CB
330
1CA
330
227
330
228
330
224
330
225
330
1D0
330
1CF
330
1CE
330
1CD
330
226
 75
     1
 76
     0
 52
45.0
 41
0.1
 77
     0
 78
     1
 53
45.0
 43
0.0
 44
0.0
 45
-0.0707106781186548
 46
0.0707106781186548
 79
     0
 98
        1
 10
0.0
 20
0.0
  0
HATCH
  5
2A5
330
71
100
AcDbEntity
  8
1
  6
Continuous
 62
     2
100
AcDbHatch
 10
0.0
 20
0.0
 30
0.0
210
0.0
220
0.0
230
1.0
  2
_USER
 70
     0
 71
     1
 91
        1
 92
        1
 93
       12
 72
     1
 10
-192.614755537771
 20
-240.7906374239248
 11
-193.9172851685375
 21
-242.263587953961
 72
     1
 10
-193.9172851685375
 20
-242.263587953961
 11
-192.5193321215972
 21
-243.844446947736
 72
     1
 10
-192.5193321215972
 20
-243.844446947736
 11
-193.9220563393455
 21
-243.844446947736
 72
     1
 10
-193.9220563393455
 20
-243.844446947736
 11
-194.618647277411
 21
-243.0567151624422
 72
     1
 10
-194.618647277411
 20
-243.0567151624422
 11
-195.3152382154767
 21
-243.844446947736
 72
     1
 10
-195.3152382154767
 20
-243.844446947736
 11
-196.7179624332249
 21
-243.844446947736
 72
     1
 10
-196.7179624332249
 20
-243.844446947736
 11
-195.3200093862846
 21
-242.263587953961
 72
     1
 10
-195.3200093862846
 20
-242.263587953961
 11
-196.6225390170521
 21
-240.7906374239248
 72
     1
 10
-196.6225390170521
 20
-240.7906374239248
 11
-195.2198147993028
 21
-240.7906374239248
 72
     1
 10
-195.2198147993028
 20
-240.7906374239248
 11
-194.618647277411
 21
-241.4704607454802
 72
     1
 10
-194.618647277411
 20
-241.4704607454802
 11
-194.0174797555182
 21
-240.7906374239248
 72
     1
 10
-194.0174797555182
 20
-240.7906374239248
 11
-192.614755537771
 21
-240.7906374239248
 97
       12
330
1CC
330
1CB
330
1CA
330
227
330
228
330
224
330
225
330
1D0
330
1CF
330
1CE
330
1CD
330
226
 75
     1
 76
     0
 52
45.0
 41
0.1
 77
     0
 78
     1
 53
45.0
 43
0.0
 44
0.0
 45
-0.0707106781186548
 46
0.0707106781186548
 79
     0
 98
        1
 10
0.0
 20
0.0
  0
HATCH
  5
2A6
330
71
100
AcDbEntity
  8
1
  6
Continuous
 62
     2
100
AcDbHatch
 10
0.0
 20
0.0
 30
0.0
210
0.0
220
0.0
230
1.0
  2
_USER
 70
     0
 71
     1
 91
        2
 92
        1
 93
        6
 72
     1
 10
-211.632490951917
 20
-242.9013687065921
 11
-212.3912585396973
 21
-242.9013687065921
 72
     1
 10
-212.3912585396973
 20
-242.9013687065921
 11
-212.3912585396973
 21
-243.844446947736
 72
     1
 10
-212.3912585396973
 20
-243.844446947736
 11
-213.6317629499514
 21
-243.844446947736
 72
     1
 10
-213.6317629499514
 20
-243.844446947736
 11
-213.6317629499514
 21
-240.7906374239248
 72
     1
 10
-213.6317629499514
 20
-240.7906374239248
 11
-211.632490951917
 21
-240.7906374239248
 72
     2
 10
-211.632490951917
 20
-241.8460030652584
 40
1.055365641333708
 50
270.0
 51
450.0
 73
     0
 97
        6
330
1F4
330
1F3
330
200
330
1FF
330
1F5
330
245
 92
       16
 93
        4
 72
     2
 10
-212.0739634781554
 20
-241.8066070940359
 40
0.3528638246711751
 50
270.0
 51
450.0
 73
     1
 72
     1
 10
-212.0739634781554
 20
-241.4537432693649
 11
-212.3912585396973
 21
-241.4537432693649
 72
     1
 10
-212.3912585396973
 20
-241.4537432693649
 11
-212.3912585396973
 21
-242.1594709187071
 72
     1
 10
-212.3912585396973
 20
-242.1594709187071
 11
-212.0739634781554
 21
-242.1594709187071
 97
        4
330
259
330
1F1
330
201
330
1F2
 75
     1
 76
     0
 52
45.0
 41
0.1
 77
     0
 78
     1
 53
45.0
 43
0.0
 44
0.0
 45
-0.0707106781186548
 46
0.0707106781186548
 79
     0
 98
        1
 10
0.0
 20
0.0
  0
HATCH
  5
2A7
330
71
100
AcDbEntity
  8
1
  6
Continuous
 62
     2
100
AcDbHatch
 10
0.0
 20
0.0
 30
0.0
210
0.0
220
0.0
230
1.0
  2
_USER
 70
     0
 71
     1
 91
        2
 92
        1
 93
        6
 72
     1
 10
-211.632490951917
 20
-242.9013687065921
 11
-212.3912585396973
 21
-242.9013687065921
 72
     1
 10
-212.3912585396973
 20
-242.9013687065921
 11
-212.3912585396973
 21
-243.844446947736
 72
     1
 10
-212.3912585396973
 20
-243.844446947736
 11
-213.6317629499514
 21
-243.844446947736
 72
     1
 10
-213.6317629499514
 20
-243.844446947736
 11
-213.6317629499514
 21
-240.7906374239248
 72
     1
 10
-213.6317629499514
 20
-240.7906374239248
 11
-211.632490951917
 21
-240.7906374239248
 72
     2
 10
-211.632490951917
 20
-241.8460030652584
 40
1.055365641333708
 50
270.0
 51
450.0
 73
     0
 97
        6
330
1F4
330
1F3
330
200
330
1FF
330
1F5
330
245
 92
       16
 93
        4
 72
     2
 10
-212.0739634781554
 20
-241.8066070940359
 40
0.3528638246711751
 50
270.0
 51
450.0
 73
     1
 72
     1
 10
-212.0739634781554
 20
-241.4537432693649
 11
-212.3912585396973
 21
-241.4537432693649
 72
     1
 10
-212.3912585396973
 20
-241.4537432693649
 11
-212.3912585396973
 21
-242.1594709187071
 72
     1
 10
-212.3912585396973
 20
-242.1594709187071
 11
-212.0739634781554
 21
-242.1594709187071
 97
        4
330
259
330
1F1
330
201
330
1F2
 75
     1
 76
     0
 52
45.0
 41
0.1
 77
     0
 78
     1
 53
45.0
 43
0.0
 44
0.0
 45
-0.0707106781186548
 46
0.0707106781186548
 79
     0
 98
        1
 10
0.0
 20
0.0
  0
HATCH
  5
2A8
330
71
100
AcDbEntity
  8
1
  6
Continuous
 62
     2
100
AcDbHatch
 10
0.0
 20
0.0
 30
0.0
210
0.0
220
0.0
230
1.0
  2
_USER
 70
     0
 71
     1
 91
        2
 92
        1
 93
        4
 72
     2
 10
-209.0759482035579
 20
-246.2153076723077
 40
2.06547977220848
 50
62.4518518243042
 51
117.5481481756678
 73
     1
 72
     2
 10
-209.3568880953912
 20
-245.676732662005
 40
1.45803408365149
 50
117.5481481756624
 51
242.4518518243375
 73
     1
 72
     2
 10
-209.0759482035579
 20
-245.1381576517017
 40
2.065479772208509
 50
242.4518518243402
 51
297.5481481756877
 73
     1
 72
     2
 10
-208.7950083117246
 20
-245.676732662005
 40
1.458034083652003
 50
297.548148175701
 51
422.451851824299
 73
     1
 97
        4
330
251
330
250
330
252
330
24F
 92
       16
 93
        4
 72
     2
 10
-209.2756882399043
 20
-245.676732662005
 40
0.7717997786796198
 50
321.8795802028454
 51
398.1204197971563
 73
     1
 72
     2
 10
-209.0759482035579
 20
-245.5200014838844
 40
0.5179085730132648
 50
38.12041979714208
 51
141.8795802028637
 73
     1
 72
     2
 10
-208.8762081672118
 20
-245.676732662005
 40
0.7717997786795031
 50
141.879580202836
 51
218.1204197971624
 73
     1
 72
     2
 10
-209.0759482035579
 20
-245.833463840125
 40
0.5179085730136828
 50
218.1204197971857
 51
321.8795802028085
 73
     1
 97
        4
330
26D
330
26A
330
26B
330
26C
 75
     1
 76
     0
 52
45.0
 41
0.1
 77
     0
 78
     1
 53
45.0
 43
0.0
 44
0.0
 45
-0.0707106781186548
 46
0.0707106781186548
 79
     0
 98
        1
 10
0.0
 20
0.0
  0
HATCH
  5
2A9
330
71
100
AcDbEntity
  8
1
  6
Continuous
 62
     2
100
AcDbHatch
 10
0.0
 20
0.0
 30
0.0
210
0.0
220
0.0
230
1.0
  2
_USER
 70
     0
 71
     1
 91
        2
 92
        1
 93
        4
 72
     2
 10
-209.0759482035579
 20
-246.2153076723077
 40
2.06547977220848
 50
62.4518518243042
 51
117.5481481756678
 73
     1
 72
     2
 10
-209.3568880953912
 20
-245.676732662005
 40
1.45803408365149
 50
117.5481481756624
 51
242.4518518243375
 73
     1
 72
     2
 10
-209.0759482035579
 20
-245.1381576517017
 40
2.065479772208509
 50
242.4518518243402
 51
297.5481481756877
 73
     1
 72
     2
 10
-208.7950083117246
 20
-245.676732662005
 40
1.458034083652003
 50
297.548148175701
 51
422.451851824299
 73
     1
 97
        4
330
251
330
250
330
252
330
24F
 92
       16
 93
        4
 72
     2
 10
-209.2756882399043
 20
-245.676732662005
 40
0.7717997786796198
 50
321.8795802028454
 51
398.1204197971563
 73
     1
 72
     2
 10
-209.0759482035579
 20
-245.5200014838844
 40
0.5179085730132648
 50
38.12041979714208
 51
141.8795802028637
 73
     1
 72
     2
 10
-208.8762081672118
 20
-245.676732662005
 40
0.7717997786795031
 50
141.879580202836
 51
218.1204197971624
 73
     1
 72
     2
 10
-209.0759482035579
 20
-245.833463840125
 40
0.5179085730136828
 50
218.1204197971857
 51
321.8795802028085
 73
     1
 97
        4
330
26D
330
26A
330
26B
330
26C
 75
     1
 76
     0
 52
45.0
 41
0.1
 77
     0
 78
     1
 53
45.0
 43
0.0
 44
0.0
 45
-0.0707106781186548
 46
0.0707106781186548
 79
     0
 98
        1
 10
0.0
 20
0.0
  0
HATCH
  5
2AA
330
71
100
AcDbEntity
  8
1
  6
Continuous
 62
     2
100
AcDbHatch
 10
0.0
 20
0.0
 30
0.0
210
0.0
220
0.0
230
1.0
  2
_USER
 70
     0
 71
     1
 91
        2
 92
        1
 93
       12
 72
     1
 10
-202.1809530091486
 20
-241.4886510293677
 11
-203.5168808355763
 21
-241.4886510293677
 72
     1
 10
-203.5168808355763
 20
-241.4886510293677
 11
-203.5168808355763
 21
-241.9685353831094
 72
     1
 10
-203.5168808355763
 20
-241.9685353831094
 11
-202.1809530091486
 21
-241.9685353831094
 72
     1
 10
-202.1809530091486
 20
-241.9685353831094
 11
-202.1809530091486
 21
-242.6665489885517
 72
     1
 10
-202.1809530091486
 20
-242.6665489885517
 11
-203.5168808355763
 21
-242.6665489885517
 72
     1
 10
-203.5168808355763
 20
-242.6665489885517
 11
-203.5168808355763
 21
-243.1464333422935
 72
     1
 10
-203.5168808355763
 20
-243.1464333422935
 11
-202.1809530091486
 21
-243.1464333422935
 72
     1
 10
-202.1809530091486
 20
-243.1464333422935
 11
-202.1809530091486
 21
-243.844446947736
 72
     1
 10
-202.1809530091486
 20
-243.844446947736
 11
-205.3312727329296
 21
-243.844446947736
 72
     2
 10
-205.3312727329296
 20
-242.3175421858306
 40
1.526904761905797
 50
90.0
 51
270.0
 73
     0
 72
     1
 10
-205.3312727329296
 20
-240.7906374239248
 11
-202.1809530091486
 21
-240.7906374239248
 72
     1
 10
-202.1809530091486
 20
-240.7906374239248
 11
-202.1809530091486
 21
-241.4886510293677
 97
       12
330
208
330
25A
330
209
330
20A
330
20B
330
20C
330
1E9
330
1E8
330
1E7
330
1E6
330
20D
330
207
 92
       16
 93
        4
 72
     2
 10
-205.1150007227644
 20
-242.1608110077102
 40
0.5179085730135266
 50
38.12041979714334
 51
141.8795802028508
 73
     1
 72
     2
 10
-204.9152606864181
 20
-242.3175421858306
 40
0.7717997786796421
 50
141.8795802028467
 51
218.1204197971599
 73
     1
 72
     2
 10
-205.1150007227644
 20
-242.4742733639511
 40
0.5179085730134595
 50
218.1204197971492
 51
321.8795802028566
 73
     1
 72
     2
 10
-205.3147407591106
 20
-242.3175421858306
 40
0.7717997786797123
 50
321.8795802028401
 51
398.1204197971533
 73
     1
 97
        4
330
254
330
253
330
24E
330
24D
 75
     1
 76
     0
 52
45.0
 41
0.1
 77
     0
 78
     1
 53
45.0
 43
0.0
 44
0.0
 45
-0.0707106781186548
 46
0.0707106781186548
 79
     0
 98
        1
 10
0.0
 20
0.0
  0
HATCH
  5
2AB
330
71
100
AcDbEntity
  8
1
  6
Continuous
 62
     2
100
AcDbHatch
 10
0.0
 20
0.0
 30
0.0
210
0.0
220
0.0
230
1.0
  2
_USER
 70
     0
 71
     1
 91
        2
 92
        1
 93
       12
 72
     1
 10
-202.1809530091486
 20
-241.4886510293677
 11
-203.5168808355763
 21
-241.4886510293677
 72
     1
 10
-203.5168808355763
 20
-241.4886510293677
 11
-203.5168808355763
 21
-241.9685353831094
 72
     1
 10
-203.5168808355763
 20
-241.9685353831094
 11
-202.1809530091486
 21
-241.9685353831094
 72
     1
 10
-202.1809530091486
 20
-241.9685353831094
 11
-202.1809530091486
 21
-242.6665489885517
 72
     1
 10
-202.1809530091486
 20
-242.6665489885517
 11
-203.5168808355763
 21
-242.6665489885517
 72
     1
 10
-203.5168808355763
 20
-242.6665489885517
 11
-203.5168808355763
 21
-243.1464333422935
 72
     1
 10
-203.5168808355763
 20
-243.1464333422935
 11
-202.1809530091486
 21
-243.1464333422935
 72
     1
 10
-202.1809530091486
 20
-243.1464333422935
 11
-202.1809530091486
 21
-243.844446947736
 72
     1
 10
-202.1809530091486
 20
-243.844446947736
 11
-205.3312727329296
 21
-243.844446947736
 72
     2
 10
-205.3312727329296
 20
-242.3175421858306
 40
1.526904761905797
 50
90.0
 51
270.0
 73
     0
 72
     1
 10
-205.3312727329296
 20
-240.7906374239248
 11
-202.1809530091486
 21
-240.7906374239248
 72
     1
 10
-202.1809530091486
 20
-240.7906374239248
 11
-202.1809530091486
 21
-241.4886510293677
 97
       12
330
208
330
25A
330
209
330
20A
330
20B
330
20C
330
1E9
330
1E8
330
1E7
330
1E6
330
20D
330
207
 92
       16
 93
        4
 72
     2
 10
-205.1150007227644
 20
-242.1608110077102
 40
0.5179085730135266
 50
38.12041979714334
 51
141.8795802028508
 73
     1
 72
     2
 10
-204.9152606864181
 20
-242.3175421858306
 40
0.7717997786796421
 50
141.8795802028467
 51
218.1204197971599
 73
     1
 72
     2
 10
-205.1150007227644
 20
-242.4742733639511
 40
0.5179085730134595
 50
218.1204197971492
 51
321.8795802028566
 73
     1
 72
     2
 10
-205.3147407591106
 20
-242.3175421858306
 40
0.7717997786797123
 50
321.8795802028401
 51
398.1204197971533
 73
     1
 97
        4
330
254
330
253
330
24E
330
24D
 75
     1
 76
     0
 52
45.0
 41
0.1
 77
     0
 78
     1
 53
45.0
 43
0.0
 44
0.0
 45
-0.0707106781186548
 46
0.0707106781186548
 79
     0
 98
        1
 10
0.0
 20
0.0
  0
HATCH
  5
2AC
330
71
100
AcDbEntity
  8
1
  6
Continuous
 62
     2
100
AcDbHatch
 10
0.0
 20
0.0
 30
0.0
210
0.0
220
0.0
230
1.0
  2
_USER
 70
     0
 71
     1
 91
        4
 92
        1
 93
        8
 72
     1
 10
-214.1088800308182
 20
-241.2148820393267
 11
-214.1088800308182
 21
-246.779392808527
 72
     2
 10
-214.5331246462021
 20
-246.779392808527
 40
0.424244615383202
 50
0.0
 51
90.0
 73
     0
 72
     1
 10
-214.5331246462021
 20
-247.2036374239102
 11
-220.0064367369189
 21
-247.2036374239102
 72
     2
 10
-220.0064367369189
 20
-246.779392808527
 40
0.4242446153828041
 50
90.0
 51
180.0
 73
     0
 72
     1
 10
-220.4306813523017
 20
-246.779392808527
 11
-220.4306813523017
 21
-241.2148820393267
 72
     2
 10
-220.0064367369189
 20
-241.2148820393267
 40
0.4242446153837989
 50
180.0
 51
270.0
 73
     0
 72
     1
 10
-220.0064367369189
 20
-240.7906374239429
 11
-214.5331246462021
 21
-240.7906374239429
 72
     2
 10
-214.5331246462021
 20
-241.2148820393267
 40
0.4242446153839126
 50
270.0
 51
360.0
 73
     0
 97
        8
330
1FC
330
24A
330
1FD
330
255
330
1FA
330
24C
330
1FB
330
24B
 92
       16
 93
        1
 72
     2
 10
-217.3868510864014
 20
-243.5337642676822
 40
0.4709789327785074
 50
0.0
 51
360.0
 73
     1
 97
        1
330
270
 92
       16
 93
        8
 72
     2
 10
-216.8369933736407
 20
-244.6429058676507
 40
0.315716923076622
 50
115.3740086783499
 51
180.0
 73
     1
 72
     1
 10
-217.1527102967175
 20
-244.6429058676507
 11
-217.1527102967175
 21
-245.2247572743457
 72
     2
 10
-216.8369933736407
 20
-245.2247572743457
 40
0.315716923076792
 50
180.0
 51
269.811032957449
 73
     1
 72
     2
 10
-216.8313772383307
 20
-243.5219223267768
 40
2.018561131933266
 50
269.8110329575858
 51
450.1889670424142
 73
     1
 72
     2
 10
-216.8369933736407
 20
-241.8190873792076
 40
0.3157169230760427
 50
90.18896704255111
 51
180.0
 73
     1
 72
     1
 10
-217.1527102967175
 20
-241.8190873792076
 11
-217.1527102967175
 21
-242.4246226677144
 72
     2
 10
-216.8369933736407
 20
-242.4246226677144
 40
0.315716923076792
 50
180.0
 51
244.6259913216501
 73
     1
 72
     2
 10
-217.3630360717286
 20
-243.5337642676822
 40
0.9118481501444847
 50
295.3740086781956
 51
424.6259913218244
 73
     0
 97
        8
330
262
330
1C3
330
25F
330
260
330
23E
330
1C2
330
261
330
23D
 92
       16
 93
       12
 72
     2
 10
-219.4125420601724
 20
-246.1753649452766
 40
0.315716923075712
 50
180.0
 51
270.0
 73
     1
 72
     1
 10
-219.4125420601724
 20
-246.4910818683534
 11
-217.9367087991628
 21
-246.4910818683534
 72
     2
 10
-217.9367087991628
 20
-246.1753649452766
 40
0.315716923076792
 50
270.0
 51
360.0
 73
     1
 72
     1
 10
-217.6209918760862
 20
-246.1753649452766
 11
-217.6209918760862
 21
-244.644594013745
 72
     2
 10
-217.9367087991628
 20
-244.644594013745
 40
0.315716923076593
 50
0.0
 51
64.80558935145369
 73
     1
 72
     2
 10
-217.4141243515878
 20
-243.5337642676822
 40
0.911897523557601
 50
115.1944106485108
 51
244.8055893514694
 73
     0
 72
     2
 10
-217.9367087991628
 20
-242.4229345216201
 40
0.3157169230760431
 50
295.1944106485464
 51
360.0
 73
     1
 72
     1
 10
-217.6209918760862
 20
-242.4229345216201
 11
-217.6209918760862
 21
-241.8189099025595
 72
     2
 10
-217.9367087991628
 20
-241.8189099025595
 40
0.315716923076593
 50
0.0
 51
90.0
 73
     1
 72
     1
 10
-217.9367087991628
 20
-241.5031929794833
 11
-219.4125420601724
 21
-241.5031929794833
 72
     2
 10
-219.4125420601724
 20
-241.8189099025595
 40
0.3157169230762236
 50
90.0
 51
180.0
 73
     1
 72
     1
 10
-219.7282589832481
 20
-241.8189099025595
 11
-219.7282589832481
 21
-246.1753649452766
 97
       12
330
246
330
1FE
330
249
330
1F9
330
256
330
257
330
248
330
1F8
330
247
330
1F7
330
258
330
1F6
 75
     1
 76
     0
 52
45.0
 41
0.1
 77
     0
 78
     1
 53
45.0
 43
0.0
 44
0.0
 45
-0.0707106781186548
 46
0.0707106781186548
 79
     0
 98
        1
 10
0.0
 20
0.0
  0
HATCH
  5
2AD
330
71
100
AcDbEntity
  8
1
  6
Continuous
 62
     2
100
AcDbHatch
 10
0.0
 20
0.0
 30
0.0
210
0.0
220
0.0
230
1.0
  2
_USER
 70
     0
 71
     1
 91
        4
 92
        1
 93
        8
 72
     1
 10
-214.1088800308182
 20
-241.2148820393267
 11
-214.1088800308182
 21
-246.779392808527
 72
     2
 10
-214.5331246462021
 20
-246.779392808527
 40
0.424244615383202
 50
0.0
 51
90.0
 73
     0
 72
     1
 10
-214.5331246462021
 20
-247.2036374239102
 11
-220.0064367369189
 21
-247.2036374239102
 72
     2
 10
-220.0064367369189
 20
-246.779392808527
 40
0.4242446153828041
 50
90.0
 51
180.0
 73
     0
 72
     1
 10
-220.4306813523017
 20
-246.779392808527
 11
-220.4306813523017
 21
-241.2148820393267
 72
     2
 10
-220.0064367369189
 20
-241.2148820393267
 40
0.4242446153837989
 50
180.0
 51
270.0
 73
     0
 72
     1
 10
-220.0064367369189
 20
-240.7906374239429
 11
-214.5331246462021
 21
-240.7906374239429
 72
     2
 10
-214.5331246462021
 20
-241.2148820393267
 40
0.4242446153839126
 50
270.0
 51
360.0
 73
     0
 97
        8
330
1FC
330
24A
330
1FD
330
255
330
1FA
330
24C
330
1FB
330
24B
 92
       16
 93
        1
 72
     2
 10
-217.3868510864014
 20
-243.5337642676822
 40
0.4709789327785074
 50
0.0
 51
360.0
 73
     1
 97
        1
330
270
 92
       16
 93
        8
 72
     2
 10
-216.8369933736407
 20
-244.6429058676507
 40
0.315716923076622
 50
115.3740086783499
 51
180.0
 73
     1
 72
     1
 10
-217.1527102967175
 20
-244.6429058676507
 11
-217.1527102967175
 21
-245.2247572743457
 72
     2
 10
-216.8369933736407
 20
-245.2247572743457
 40
0.315716923076792
 50
180.0
 51
269.811032957449
 73
     1
 72
     2
 10
-216.8313772383307
 20
-243.5219223267768
 40
2.018561131933266
 50
269.8110329575858
 51
450.1889670424142
 73
     1
 72
     2
 10
-216.8369933736407
 20
-241.8190873792076
 40
0.3157169230760427
 50
90.18896704255111
 51
180.0
 73
     1
 72
     1
 10
-217.1527102967175
 20
-241.8190873792076
 11
-217.1527102967175
 21
-242.4246226677144
 72
     2
 10
-216.8369933736407
 20
-242.4246226677144
 40
0.315716923076792
 50
180.0
 51
244.6259913216501
 73
     1
 72
     2
 10
-217.3630360717286
 20
-243.5337642676822
 40
0.9118481501444847
 50
295.3740086781956
 51
424.6259913218244
 73
     0
 97
        8
330
262
330
1C3
330
25F
330
260
330
23E
330
1C2
330
261
330
23D
 92
       16
 93
       12
 72
     2
 10
-219.4125420601724
 20
-246.1753649452766
 40
0.315716923075712
 50
180.0
 51
270.0
 73
     1
 72
     1
 10
-219.4125420601724
 20
-246.4910818683534
 11
-217.9367087991628
 21
-246.4910818683534
 72
     2
 10
-217.9367087991628
 20
-246.1753649452766
 40
0.315716923076792
 50
270.0
 51
360.0
 73
     1
 72
     1
 10
-217.6209918760862
 20
-246.1753649452766
 11
-217.6209918760862
 21
-244.644594013745
 72
     2
 10
-217.9367087991628
 20
-244.644594013745
 40
0.315716923076593
 50
0.0
 51
64.80558935145369
 73
     1
 72
     2
 10
-217.4141243515878
 20
-243.5337642676822
 40
0.911897523557601
 50
115.1944106485108
 51
244.8055893514694
 73
     0
 72
     2
 10
-217.9367087991628
 20
-242.4229345216201
 40
0.3157169230760431
 50
295.1944106485464
 51
360.0
 73
     1
 72
     1
 10
-217.6209918760862
 20
-242.4229345216201
 11
-217.6209918760862
 21
-241.8189099025595
 72
     2
 10
-217.9367087991628
 20
-241.8189099025595
 40
0.315716923076593
 50
0.0
 51
90.0
 73
     1
 72
     1
 10
-217.9367087991628
 20
-241.5031929794833
 11
-219.4125420601724
 21
-241.5031929794833
 72
     2
 10
-219.4125420601724
 20
-241.8189099025595
 40
0.3157169230762236
 50
90.0
 51
180.0
 73
     1
 72
     1
 10
-219.7282589832481
 20
-241.8189099025595
 11
-219.7282589832481
 21
-246.1753649452766
 97
       12
330
246
330
1FE
330
249
330
1F9
330
256
330
257
330
248
330
1F8
330
247
330
1F7
330
258
330
1F6
 75
     1
 76
     0
 52
45.0
 41
0.1
 77
     0
 78
     1
 53
45.0
 43
0.0
 44
0.0
 45
-0.0707106781186548
 46
0.0707106781186548
 79
     0
 98
        1
 10
0.0
 20
0.0
  0
HATCH
  5
2AE
330
71
100
AcDbEntity
  8
1
  6
Continuous
 62
     2
100
AcDbHatch
 10
0.0
 20
0.0
 30
0.0
210
0.0
220
0.0
230
1.0
  2
_USER
 70
     0
 71
     1
 91
        1
 92
        1
 93
       18
 72
     1
 10
-192.5193321215972
 20
-244.9350932062228
 11
-193.3304311590706
 21
-244.9350932062228
 72
     1
 10
-193.3304311590706
 20
-244.9350932062228
 11
-193.3304311590706
 21
-247.2036374239102
 72
     1
 10
-193.3304311590706
 20
-247.2036374239102
 11
-194.5232238612383
 21
-247.2036374239102
 72
     1
 10
-194.5232238612383
 20
-247.2036374239102
 11
-194.5232238612383
 21
-244.9350932062228
 72
     1
 10
-194.5232238612383
 20
-244.9350932062228
 11
-195.6268631608064
 21
-244.9350932062228
 72
     2
 10
-195.6268631608064
 20
-245.8896162130488
 40
0.9545230068260082
 50
90.0
 51
109.3371432194321
 73
     1
 72
     2
 10
-195.7735331589101
 20
-245.471661232666
 40
0.5115800601944048
 50
109.3371432194823
 51
151.4785267424209
 73
     1
 72
     2
 10
-195.3961759008287
 20
-245.676732662005
 40
0.9410597353348924
 50
151.4785267423624
 51
208.5214732576695
 73
     1
 72
     2
 10
-195.7735331589101
 20
-245.8818040913434
 40
0.5115800601960374
 50
208.5214732576966
 51
246.6277221118516
 73
     1
 72
     2
 10
-195.617093126207
 20
-245.5198120726334
 40
0.905929784985347
 50
246.627722111822
 51
288.4480761180817
 73
     1
 72
     2
 10
-196.0352608598689
 20
-244.2662662965969
 40
2.227384008972665
 50
288.4480761181342
 51
301.9309089499409
 73
     1
 72
     1
 10
-194.857205817845
 20
-246.1566170157466
 11
-194.857205817845
 21
-247.02913402255
 72
     2
 10
-196.1931337349617
 20
-242.3640517167486
 40
4.852596863498738
 50
74.02000874166164
 51
84.84185523036392
 73
     0
 72
     2
 10
-195.9042776402259
 20
-245.5639422999701
 40
1.639695123940443
 50
84.8418552303238
 51
164.9381082228957
 73
     0
 72
     2
 10
-196.3234054836875
 20
-245.676732662005
 40
1.205656168392997
 50
164.9381082229037
 51
195.0618917771015
 73
     0
 72
     2
 10
-195.9042776402259
 20
-245.7895230240399
 40
1.639695123940299
 50
195.0618917771082
 51
270.0
 73
     0
 72
     1
 10
-195.9042776402259
 20
-244.1498279000996
 11
-192.5193321215972
 21
-244.1498279000992
 72
     1
 10
-192.5193321215972
 20
-244.1498279000992
 11
-192.5193321215972
 21
-244.9350932062228
 97
       18
330
1C5
330
25B
330
25C
330
244
330
243
330
229
330
242
330
241
330
25D
330
240
330
25E
330
23F
330
22A
330
1C4
330
1C9
330
1C8
330
1C7
330
1C6
 75
     1
 76
     0
 52
45.0
 41
0.1
 77
     0
 78
     1
 53
45.0
 43
0.0
 44
0.0
 45
-0.0707106781186548
 46
0.0707106781186548
 79
     0
 98
        1
 10
0.0
 20
0.0
  0
HATCH
  5
2AF
330
71
100
AcDbEntity
  8
1
  6
Continuous
 62
     2
100
AcDbHatch
 10
0.0
 20
0.0
 30
0.0
210
0.0
220
0.0
230
1.0
  2
_USER
 70
     0
 71
     1
 91
        1
 92
        1
 93
       18
 72
     1
 10
-192.5193321215972
 20
-244.9350932062228
 11
-193.3304311590706
 21
-244.9350932062228
 72
     1
 10
-193.3304311590706
 20
-244.9350932062228
 11
-193.3304311590706
 21
-247.2036374239102
 72
     1
 10
-193.3304311590706
 20
-247.2036374239102
 11
-194.5232238612383
 21
-247.2036374239102
 72
     1
 10
-194.5232238612383
 20
-247.2036374239102
 11
-194.5232238612383
 21
-244.9350932062228
 72
     1
 10
-194.5232238612383
 20
-244.9350932062228
 11
-195.6268631608064
 21
-244.9350932062228
 72
     2
 10
-195.6268631608064
 20
-245.8896162130488
 40
0.9545230068260082
 50
90.0
 51
109.3371432194321
 73
     1
 72
     2
 10
-195.7735331589101
 20
-245.471661232666
 40
0.5115800601944048
 50
109.3371432194823
 51
151.4785267424209
 73
     1
 72
     2
 10
-195.3961759008287
 20
-245.676732662005
 40
0.9410597353348924
 50
151.4785267423624
 51
208.5214732576695
 73
     1
 72
     2
 10
-195.7735331589101
 20
-245.8818040913434
 40
0.5115800601960374
 50
208.5214732576966
 51
246.6277221118516
 73
     1
 72
     2
 10
-195.617093126207
 20
-245.5198120726334
 40
0.905929784985347
 50
246.627722111822
 51
288.4480761180817
 73
     1
 72
     2
 10
-196.0352608598689
 20
-244.2662662965969
 40
2.227384008972665
 50
288.4480761181342
 51
301.9309089499409
 73
     1
 72
     1
 10
-194.857205817845
 20
-246.1566170157466
 11
-194.857205817845
 21
-247.02913402255
 72
     2
 10
-196.1931337349617
 20
-242.3640517167486
 40
4.852596863498738
 50
74.02000874166164
 51
84.84185523036392
 73
     0
 72
     2
 10
-195.9042776402259
 20
-245.5639422999701
 40
1.639695123940443
 50
84.8418552303238
 51
164.9381082228957
 73
     0
 72
     2
 10
-196.3234054836875
 20
-245.676732662005
 40
1.205656168392997
 50
164.9381082229037
 51
195.0618917771015
 73
     0
 72
     2
 10
-195.9042776402259
 20
-245.7895230240399
 40
1.639695123940299
 50
195.0618917771082
 51
270.0
 73
     0
 72
     1
 10
-195.9042776402259
 20
-244.1498279000996
 11
-192.5193321215972
 21
-244.1498279000992
 72
     1
 10
-192.5193321215972
 20
-244.1498279000992
 11
-192.5193321215972
 21
-244.9350932062228
 97
       18
330
1C5
330
25B
330
25C
330
244
330
243
330
229
330
242
330
241
330
25D
330
240
330
25E
330
23F
330
22A
330
1C4
330
1C9
330
1C8
330
1C7
330
1C6
 75
     1
 76
     0
 52
45.0
 41
0.1
 77
     0
 78
     1
 53
45.0
 43
0.0
 44
0.0
 45
-0.0707106781186548
 46
0.0707106781186548
 79
     0
 98
        1
 10
0.0
 20
0.0
  0
HATCH
  5
2B0
330
71
100
AcDbEntity
  8
1
  6
Continuous
 62
     2
100
AcDbHatch
 10
0.0
 20
0.0
 30
0.0
210
0.0
220
0.0
230
1.0
  2
_USER
 70
     0
 71
     1
 91
        1
 92
        1
 93
       14
 72
     2
 10
-212.0069791194788
 20
-245.7895230240399
 40
1.639695123940509
 50
84.84185523036136
 51
164.9381082228836
 73
     1
 72
     2
 10
-212.4261069629416
 20
-245.676732662005
 40
1.205656168390994
 50
164.9381082228729
 51
195.0618917770945
 73
     1
 72
     2
 10
-212.0069791194788
 20
-245.5639422999701
 40
1.63969512393941
 50
195.0618917770925
 51
275.1581447696406
 73
     1
 72
     2
 10
-212.2958352142147
 20
-242.3640517167486
 40
4.852596863498053
 50
275.158144769625
 51
285.9799912583529
 73
     1
 72
     1
 10
-210.9599072970969
 20
-247.0291340225494
 11
-210.9599072970969
 21
-246.1566170157462
 72
     2
 10
-212.1379623391218
 20
-244.2662662965963
 40
2.227384008972665
 50
58.06909105004009
 51
71.5519238818658
 73
     0
 72
     2
 10
-211.719794605461
 20
-245.5198120726334
 40
0.9059297849849975
 50
71.55192388183985
 51
113.3722778881268
 73
     0
 72
     2
 10
-211.876234638163
 20
-245.8818040913434
 40
0.5115800601948034
 50
113.3722778881718
 51
151.4785267423044
 73
     0
 72
     2
 10
-211.4988773800827
 20
-245.676732662005
 40
0.9410597353332545
 50
151.4785267422988
 51
208.5214732577331
 73
     0
 72
     2
 10
-211.876234638163
 20
-245.471661232666
 40
0.5115800601949935
 50
208.5214732576956
 51
246.627722111803
 73
     0
 72
     2
 10
-211.719794605461
 20
-245.8336532513766
 40
0.9059297849853318
 50
246.6277221118739
 51
288.4480761181483
 73
     0
 72
     2
 10
-212.1379623391218
 20
-247.0871990274131
 40
2.227384008973492
 50
288.4480761181342
 51
301.9309089499599
 73
     0
 72
     1
 10
-210.9599072970969
 20
-245.1968483082632
 11
-210.9599072970969
 21
-244.32433130146
 72
     2
 10
-212.2958352142147
 20
-248.9894136072608
 40
4.852596863497959
 50
74.02000874164702
 51
84.84185523037493
 73
     1
 97
       14
330
263
330
264
330
265
330
266
330
22B
330
23C
330
23B
330
23A
330
267
330
268
330
239
330
269
330
22C
330
238
 75
     1
 76
     0
 52
45.0
 41
0.1
 77
     0
 78
     1
 53
45.0
 43
0.0
 44
0.0
 45
-0.0707106781186548
 46
0.0707106781186548
 79
     0
 98
        1
 10
0.0
 20
0.0
  0
HATCH
  5
2B1
330
71
100
AcDbEntity
  8
1
  6
Continuous
 62
     2
100
AcDbHatch
 10
0.0
 20
0.0
 30
0.0
210
0.0
220
0.0
230
1.0
  2
_USER
 70
     0
 71
     1
 91
        1
 92
        1
 93
       14
 72
     2
 10
-212.0069791194788
 20
-245.7895230240399
 40
1.639695123940509
 50
84.84185523036136
 51
164.9381082228836
 73
     1
 72
     2
 10
-212.4261069629416
 20
-245.676732662005
 40
1.205656168390994
 50
164.9381082228729
 51
195.0618917770945
 73
     1
 72
     2
 10
-212.0069791194788
 20
-245.5639422999701
 40
1.63969512393941
 50
195.0618917770925
 51
275.1581447696406
 73
     1
 72
     2
 10
-212.2958352142147
 20
-242.3640517167486
 40
4.852596863498053
 50
275.158144769625
 51
285.9799912583529
 73
     1
 72
     1
 10
-210.9599072970969
 20
-247.0291340225494
 11
-210.9599072970969
 21
-246.1566170157462
 72
     2
 10
-212.1379623391218
 20
-244.2662662965963
 40
2.227384008972665
 50
58.06909105004009
 51
71.5519238818658
 73
     0
 72
     2
 10
-211.719794605461
 20
-245.5198120726334
 40
0.9059297849849975
 50
71.55192388183985
 51
113.3722778881268
 73
     0
 72
     2
 10
-211.876234638163
 20
-245.8818040913434
 40
0.5115800601948034
 50
113.3722778881718
 51
151.4785267423044
 73
     0
 72
     2
 10
-211.4988773800827
 20
-245.676732662005
 40
0.9410597353332545
 50
151.4785267422988
 51
208.5214732577331
 73
     0
 72
     2
 10
-211.876234638163
 20
-245.471661232666
 40
0.5115800601949935
 50
208.5214732576956
 51
246.627722111803
 73
     0
 72
     2
 10
-211.719794605461
 20
-245.8336532513766
 40
0.9059297849853318
 50
246.6277221118739
 51
288.4480761181483
 73
     0
 72
     2
 10
-212.1379623391218
 20
-247.0871990274131
 40
2.227384008973492
 50
288.4480761181342
 51
301.9309089499599
 73
     0
 72
     1
 10
-210.9599072970969
 20
-245.1968483082632
 11
-210.9599072970969
 21
-244.32433130146
 72
     2
 10
-212.2958352142147
 20
-248.9894136072608
 40
4.852596863497959
 50
74.02000874164702
 51
84.84185523037493
 73
     1
 97
       14
330
263
330
264
330
265
330
266
330
22B
330
23C
330
23B
330
23A
330
267
330
268
330
239
330
269
330
22C
330
238
 75
     1
 76
     0
 52
45.0
 41
0.1
 77
     0
 78
     1
 53
45.0
 43
0.0
 44
0.0
 45
-0.0707106781186548
 46
0.0707106781186548
 79
     0
 98
        1
 10
0.0
 20
0.0
  0
ENDBLK
  5
73
330
71
100
AcDbEntity
  8
0
100
AcDbBlockEnd
  0
BLOCK
  5
75
330
74
100
AcDbEntity
  8
0
100
AcDbBlockBegin
  2
_punkt
 70
     0
 10
-95.12253171211428
 20
-254.4971374239266
 30
0.0
  3
_punkt
  1

  0
LINE
  5
2B2
330
74
100
AcDbEntity
  8
1
  6
Continuous
 62
     2
100
AcDbLine
 10
-95.12253171211428
 20
-254.4971374239266
 30
0.0
 11
-90.12253171211529
 21
-254.4971374239266
 31
0.0
  0
LINE
  5
2B3
330
74
100
AcDbEntity
  8
1
  6
Continuous
 62
     2
100
AcDbLine
 10
-95.12253171211428
 20
-254.4971374239266
 30
0.0
 11
-95.12253171211428
 21
-259.4971374239267
 31
0.0
  0
ENDBLK
  5
76
330
74
100
AcDbEntity
  8
0
100
AcDbBlockEnd
  0
BLOCK
  5
7A
330
77
100
AcDbEntity
  8
0
100
AcDbBlockBegin
  2
A4I_CS
 70
     0
 10
-95.12253171211428
 20
-259.4971374239267
 30
0.0
  3
A4I_CS
  1

  0
INSERT
  5
78
330
77
100
AcDbEntity
  8
1
100
AcDbBlockReference
  2
_rahmen
 10
-95.12253171211428
 20
-259.4971374239267
 30
0.0
  0
INSERT
  5
79
330
77
100
AcDbEntity
  8
1
100
AcDbBlockReference
  2
_punkt
 10
-95.12253171211428
 20
-254.4971374239266
 30
0.0
  0
ENDBLK
  5
7B
330
77
100
AcDbEntity
  8
0
100
AcDbBlockEnd
  0
BLOCK
  5
84
330
7C
100
AcDbEntity
  8
0
100
AcDbBlockBegin
  2
1
 70
     0
 10
0.0
 20
0.0
 30
0.0
  3
1
  1

  0
INSERT
  5
7D
330
7C
100
AcDbEntity
  8
0
100
AcDbBlockReference
  2
Allg1
 10
-130.9999999999998
 20
-183.796838
 30
0.0
  0
INSERT
  5
7E
330
7C
100
AcDbEntity
  8
0
100
AcDbBlockReference
  2
Drfsicht1
 10
-267.593479
 20
-183.796838
 30
0.0
  0
INSERT
  5
7F
330
7C
100
AcDbEntity
  8
0
100
AcDbBlockReference
  2
Rckans1
 10
-130.0
 20
-106.0
 30
0.0
  0
INSERT
  5
80
330
7C
100
AcDbEntity
  8
0
100
AcDbBlockReference
  2
SA_Links1
 10
-198.709222
 20
-106.0
 30
0.0
  0
INSERT
  5
81
330
7C
100
AcDbEntity
  8
0
100
AcDbBlockReference
  2
SA_Rechts1
 10
-346.1735919999999
 20
-106.0
 30
0.0
  0
INSERT
  5
82
330
7C
100
AcDbEntity
  8
0
100
AcDbBlockReference
  2
Vordans1
 10
-267.5934789999993
 20
-106.0
 30
0.0
  0
INSERT
  5
83
330
7C
100
AcDbEntity
  8
0
100
AcDbBlockReference
  2
A4I_CS
 10
-95.12253171211428
 20
-259.4971374239267
 30
0.0
  0
ENDBLK
  5
85
330
7C
100
AcDbEntity
  8
0
100
AcDbBlockEnd
  0
BLOCK
  5
C3
330
BC
100
AcDbEntity
  8
0
100
AcDbBlockBegin
  2
*D17
 70
     1
 10
0.0
 20
0.0
 30
0.0
  3
*D17
  1

  0
LINE
  5
BD
330
BC
100
AcDbEntity
  8
1
  6
Continuous
 62
     2
100
AcDbLine
 10
-293.9717983615732
 20
-164.7673729371612
 30
0.0
 11
-293.9717983615732
 21
-202.8263026821413
 31
0.0
  0
LINE
  5
BE
330
BC
100
AcDbEntity
  8
1
  6
Continuous
 62
     2
100
AcDbLine
 10
-267.4917983615733
 20
-164.7673729371612
 30
0.0
 11
-295.4717983615732
 21
-164.7673729371612
 31
0.0
  0
LINE
  5
BF
330
BC
100
AcDbEntity
  8
1
  6
Continuous
 62
     2
100
AcDbLine
 10
-267.4917983615732
 20
-202.8263026821413
 30
0.0
 11
-295.4717983615732
 21
-202.8263026821413
 31
0.0
  0
SOLID
  5
C0
330
BC
100
AcDbEntity
  8
1
 62
     2
100
AcDbTrace
 10
-293.5110146200173
 20
-168.2673729371612
 30
0.0
 11
-294.4325821031291
 21
-168.2673729371612
 31
0.0
 12
-293.9717983615732
 22
-164.7673729371612
 32
0.0
 13
-293.9717983615732
 23
-164.7673729371612
 33
0.0
  0
SOLID
  5
C1
330
BC
100
AcDbEntity
  8
1
 62
     2
100
AcDbTrace
 10
-294.4325821031291
 20
-199.3263026821413
 30
0.0
 11
-293.5110146200173
 21
-199.3263026821413
 31
0.0
 12
-293.9717983615732
 22
-202.8263026821413
 32
0.0
 13
-293.9717983615732
 23
-202.8263026821413
 33
0.0
  0
MTEXT
  5
C2
330
BC
100
AcDbEntity
  8
1
 62
     3
100
AcDbMText
 10
-295.8217983615732
 20
-190.1843378096513
 30
0.0
 40
3.5
 41
0.0
 71
     7
 72
     1
  1
38,06
  7
CONVERTER_11
 11
0.0
 21
1.0
 31
0.0
 73
     1
 44
0.60024009603842
  0
ENDBLK
  5
C4
330
BC
100
AcDbEntity
  8
0
100
AcDbBlockEnd
  0
BLOCK
  5
16C
330
165
100
AcDbEntity
  8
0
100
AcDbBlockBegin
  2
*D18
 70
     1
 10
0.0
 20
0.0
 30
0.0
  3
*D18
  1

  0
LINE
  5
166
330
165
100
AcDbEntity
  8
1
  6
Continuous
 62
     2
100
AcDbLine
 10
-293.9717983615726
 20
-129.8349990844676
 30
0.0
 11
-293.9717983615726
 21
-82.16499908446761
 31
0.0
  0
LINE
  5
167
330
165
100
AcDbEntity
  8
1
  6
Continuous
 62
     2
100
AcDbLine
 10
-279.8527983615726
 20
-129.8349990844676
 30
0.0
 11
-295.4717983615726
 21
-129.8349990844676
 31
0.0
  0
LINE
  5
168
330
165
100
AcDbEntity
  8
1
  6
Continuous
 62
     2
100
AcDbLine
 10
-276.6367983615726
 20
-82.16499908446761
 30
0.0
 11
-295.4717983615726
 21
-82.16499908446761
 31
0.0
  0
SOLID
  5
169
330
165
100
AcDbEntity
  8
1
 62
     2
100
AcDbTrace
 10
-294.4325821031285
 20
-126.3349990844676
 30
0.0
 11
-293.5110146200167
 21
-126.3349990844676
 31
0.0
 12
-293.9717983615726
 22
-129.8349990844676
 32
0.0
 13
-293.9717983615726
 23
-129.8349990844676
 33
0.0
  0
SOLID
  5
16A
330
165
100
AcDbEntity
  8
1
 62
     2
100
AcDbTrace
 10
-293.5110146200167
 20
-85.66499908446761
 30
0.0
 11
-294.4325821031285
 21
-85.66499908446761
 31
0.0
 12
-293.9717983615726
 22
-82.16499908446761
 32
0.0
 13
-293.9717983615726
 23
-82.16499908446761
 33
0.0
  0
MTEXT
  5
16B
330
165
100
AcDbEntity
  8
1
 62
     3
100
AcDbMText
 10
-295.8217983615726
 20
-112.3874990844676
 30
0.0
 40
3.5
 41
0.0
 71
     7
 72
     1
  1
47,67
  7
CONVERTER_11
 11
0.0
 21
1.0
 31
0.0
 73
     1
 44
0.60024009603842
  0
ENDBLK
  5
16D
330
165
100
AcDbEntity
  8
0
100
AcDbBlockEnd
  0
BLOCK
  5
177
330
170
100
AcDbEntity
  8
0
100
AcDbBlockBegin
  2
*D19
 70
     1
 10
0.0
 20
0.0
 30
0.0
  3
*D19
  1

  0
LINE
  5
171
330
170
100
AcDbEntity
  8
1
  6
Continuous
 62
     2
100
AcDbLine
 10
-283.9717983615725
 20
-139.8349990844676
 30
0.0
 11
-251.0117983615725
 21
-139.8349990844676
 31
0.0
  0
LINE
  5
172
330
170
100
AcDbEntity
  8
1
  6
Continuous
 62
     2
100
AcDbLine
 10
-283.9717983615725
 20
-104.6249990844676
 30
0.0
 11
-283.9717983615725
 21
-141.3349990844676
 31
0.0
  0
LINE
  5
173
330
170
100
AcDbEntity
  8
1
  6
Continuous
 62
     2
100
AcDbLine
 10
-251.0117983615725
 20
-104.6249990844676
 30
0.0
 11
-251.0117983615725
 21
-141.3349990844676
 31
0.0
  0
SOLID
  5
174
330
170
100
AcDbEntity
  8
1
 62
     2
100
AcDbTrace
 10
-280.4717983615725
 20
-139.3742153429117
 30
0.0
 11
-280.4717983615725
 21
-140.2957828260235
 31
0.0
 12
-283.9717983615725
 22
-139.8349990844676
 32
0.0
 13
-283.9717983615725
 23
-139.8349990844676
 33
0.0
  0
SOLID
  5
175
330
170
100
AcDbEntity
  8
1
 62
     2
100
AcDbTrace
 10
-254.5117983615725
 20
-140.2957828260235
 30
0.0
 11
-254.5117983615725
 21
-139.3742153429117
 31
0.0
 12
-251.0117983615725
 22
-139.8349990844676
 32
0.0
 13
-251.0117983615725
 23
-139.8349990844676
 33
0.0
  0
MTEXT
  5
176
330
170
100
AcDbEntity
  8
1
 62
     3
100
AcDbMText
 10
-273.8792983615725
 20
-137.9849990844676
 30
0.0
 40
3.5
 41
0.0
 71
     7
 72
     1
  1
32,96
  7
CONVERTER_11
 11
0.9999999999970619
 21
2.424068405545306E-6
 31
0.0
 73
     1
 44
0.60024009603842
  0
ENDBLK
  5
178
330
170
100
AcDbEntity
  8
0
100
AcDbBlockEnd
  0
ENDSEC
  0
SECTION
  2
ENTITIES
  0
INSERT
  5
86
330
1F
100
AcDbEntity
  8
1
100
AcDbBlockReference
  2
1
 10
0.0
 20
0.0
 30
0.0
  0
ENDSEC
  0
SECTION
  2
OBJECTS
  0
DICTIONARY
  5
C
330
0
100
AcDbDictionary
281
     1
  3
ACAD_GROUP
350
D
  3
ACAD_LAYOUT
350
1A
  3
ACAD_MATERIAL
350
3B
  3
ACAD_MLEADERSTYLE
350
2DB
  3
ACAD_MLINESTYLE
350
17
  3
ACAD_PLOTSETTINGS
350
19
  3
ACAD_PLOTSTYLENAME
350
E
  3
ACAD_TABLESTYLE
350
2DA
  3
ACAD_VISUALSTYLE
350
2A
  0
DICTIONARY
  5
D
102
{ACAD_REACTORS
330
C
102
}
330
C
100
AcDbDictionary
281
     1
  0
DICTIONARY
  5
1A
102
{ACAD_REACTORS
330
C
102
}
330
C
100
AcDbDictionary
281
     1
  3
Layout1
350
1E
  3
Layout2
350
26
  3
Model
350
22
  0
DICTIONARY
  5
3B
102
{ACAD_REACTORS
330
C
102
}
330
C
100
AcDbDictionary
281
     1
  3
ByBlock
350
3D
  3
ByLayer
350
3C
  3
Global
350
3E
  0
DICTIONARY
  5
2DB
102
{ACAD_REACTORS
330
C
102
}
330
C
100
AcDbDictionary
281
     1
  0
DICTIONARY
  5
17
102
{ACAD_REACTORS
330
C
102
}
330
C
100
AcDbDictionary
281
     1
  3
Standard
350
18
  0
DICTIONARY
  5
19
102
{ACAD_REACTORS
330
C
102
}
330
C
100
AcDbDictionary
281
     1
  0
ACDBDICTIONARYWDFLT
  5
E
102
{ACAD_REACTORS
330
C
102
}
330
C
100
AcDbDictionary
281
     1
  3
Normal
350
F
100
AcDbDictionaryWithDefault
340
F
  0
DICTIONARY
  5
2DA
102
{ACAD_REACTORS
330
C
102
}
330
C
100
AcDbDictionary
281
     1
  0
DICTIONARY
  5
2A
102
{ACAD_REACTORS
330
C
102
}
330
C
100
AcDbDictionary
281
     1
  3
2dWireframe
350
2F
  3
3D Hidden
350
31
  3
3dWireframe
350
30
  3
Basic
350
32
  3
Brighten
350
36
  3
ColorChange
350
3A
  3
Conceptual
350
34
  3
Dim
350
35
  3
Facepattern
350
39
  3
Flat
350
2B
  3
FlatWithEdges
350
2C
  3
Gouraud
350
2D
  3
GouraudWithEdges
350
2E
  3
Linepattern
350
38
  3
Realistic
350
33
  3
Thicken
350
37
  0
LAYOUT
  5
1E
102
{ACAD_REACTORS
330
1A
102
}
330
1A
100
AcDbPlotSettings
  1

  2
none_device
  4

  6

 40
0.0
 41
0.0
 42
0.0
 43
0.0
 44
0.0
 45
0.0
 46
0.0
 47
0.0
 48
0.0
 49
0.0
140
0.0
141
0.0
142
1.0
143
1.0
 70
   688
 72
     0
 73
     0
 74
     5
  7

 75
    16
 76
     0
 77
     2
 78
   300
147
1.0
148
0.0
149
0.0
100
AcDbLayout
  1
Layout1
 70
     1
 71
     1
 10
0.0
 20
0.0
 11
12.0
 21
9.0
 12
0.0
 22
0.0
 32
0.0
 14
1.00000000000000E+20
 24
1.00000000000000E+20
 34
1.00000000000000E+20
 15
-1.00000000000000E+20
 25
-1.00000000000000E+20
 35
-1.00000000000000E+20
146
0.0
 13
0.0
 23
0.0
 33
0.0
 16
1.0
 26
0.0
 36
0.0
 17
0.0
 27
1.0
 37
0.0
 76
     0
330
1B
  0
LAYOUT
  5
26
102
{ACAD_REACTORS
330
1A
102
}
330
1A
100
AcDbPlotSettings
  1

  2
none_device
  4

  6

 40
0.0
 41
0.0
 42
0.0
 43
0.0
 44
0.0
 45
0.0
 46
0.0
 47
0.0
 48
0.0
 49
0.0
140
0.0
141
0.0
142
1.0
143
1.0
 70
   688
 72
     0
 73
     0
 74
     5
  7

 75
    16
 76
     0
 77
     2
 78
   300
147
1.0
148
0.0
149
0.0
100
AcDbLayout
  1
Layout2
 70
     1
 71
     2
 10
0.0
 20
0.0
 11
0.0
 21
0.0
 12
0.0
 22
0.0
 32
0.0
 14
0.0
 24
0.0
 34
0.0
 15
0.0
 25
0.0
 35
0.0
146
0.0
 13
0.0
 23
0.0
 33
0.0
 16
1.0
 26
0.0
 36
0.0
 17
0.0
 27
1.0
 37
0.0
 76
     0
330
23
  0
LAYOUT
  5
22
102
{ACAD_REACTORS
330
1A
102
}
330
1A
100
AcDbPlotSettings
  1

  2
none_device
  4

  6

 40
0.0
 41
0.0
 42
0.0
 43
0.0
 44
0.0
 45
0.0
 46
0.0
 47
0.0
 48
0.0
 49
0.0
140
0.0
141
0.0
142
1.0
143
1.0
 70
  1712
 72
     0
 73
     0
 74
     0
  7

 75
     0
 76
     0
 77
     2
 78
   300
147
1.0
148
0.0
149
0.0
100
AcDbLayout
  1
Model
 70
     1
 71
     0
 10
0.0
 20
0.0
 11
12.0
 21
9.0
 12
0.0
 22
0.0
 32
0.0
 14
-387.1225317121134
 24
-259.4971374239267
 34
0.0
 15
-90.12253171211529
 25
-49.49713742392655
 35
0.0
146
0.0
 13
0.0
 23
0.0
 33
0.0
 16
1.0
 26
0.0
 36
0.0
 17
0.0
 27
1.0
 37
0.0
 76
     0
330
1F
331
29
  0
MATERIAL
  5
3D
102
{ACAD_REACTORS
330
3B
102
}
102
{ACAD_XDICTIONARY
360
2D6
102
}
330
3B
100
AcDbMaterial
  1
ByBlock
  0
MATERIAL
  5
3C
102
{ACAD_REACTORS
330
3B
102
}
102
{ACAD_XDICTIONARY
360
2D4
102
}
330
3B
100
AcDbMaterial
  1
ByLayer
  0
MATERIAL
  5
3E
102
{ACAD_REACTORS
330
3B
102
}
102
{ACAD_XDICTIONARY
360
2D8
102
}
330
3B
100
AcDbMaterial
  1
Global
  0
MLINESTYLE
  5
18
102
{ACAD_REACTORS
330
17
102
}
330
17
100
AcDbMlineStyle
  2
Standard
 70
     0
  3

 62
   256
 51
90.0
 52
90.0
 71
     2
 49
0.5
 62
   256
  6
BYLAYER
 49
-0.5
 62
   256
  6
BYLAYER
  0
ACDBPLACEHOLDER
  5
F
102
{ACAD_REACTORS
330
E
102
}
330
E
  0
VISUALSTYLE
  5
2F
102
{ACAD_REACTORS
330
2A
102
}
102
{ACAD_XDICTIONARY
360
2BC
102
}
330
2A
100
AcDbVisualStyle
  2
2dWireframe
 70
     4
 71
     0
 72
     2
 73
     0
 90
        0
 40
-0.6
 41
-30.0
 62
     5
 63
     7
421
 16777215
 74
     1
 91
        4
 64
     7
 65
   257
 75
     1
175
     1
 42
1.0
 92
        0
 66
   257
 43
1.0
 76
     1
 77
     6
 78
     2
 67
     7
 79
     5
170
     0
171
     0
290
     0
174
     0
 93
        1
 44
0.0
173
     0
291
     0
 45
0.0
1001
ACAD
1000
AcDbSavedByObjectVersion
1070
     0
  0
VISUALSTYLE
  5
31
102
{ACAD_REACTORS
330
2A
102
}
102
{ACAD_XDICTIONARY
360
2C0
102
}
330
2A
100
AcDbVisualStyle
  2
3D Hidden
 70
     6
 71
     1
 72
     2
 73
     2
 90
        0
 40
-0.6
 41
-30.0
 62
     5
 63
     7
421
 16777215
 74
     2
 91
        2
 64
     7
 65
   257
 75
     2
175
     1
 42
40.0
 92
        0
 66
   257
 43
1.0
 76
     1
 77
     6
 78
     2
 67
     7
 79
     3
170
     0
171
     0
290
     0
174
     0
 93
        1
 44
0.0
173
     0
291
     0
 45
0.0
1001
ACAD
1000
AcDbSavedByObjectVersion
1070
     0
  0
VISUALSTYLE
  5
30
102
{ACAD_REACTORS
330
2A
102
}
102
{ACAD_XDICTIONARY
360
2BE
102
}
330
2A
100
AcDbVisualStyle
  2
3dWireframe
 70
     5
 71
     0
 72
     2
 73
     0
 90
        0
 40
-0.6
 41
-30.0
 62
     5
 63
     7
421
 16777215
 74
     1
 91
        4
 64
     7
 65
   257
 75
     1
175
     1
 42
1.0
 92
        0
 66
   257
 43
1.0
 76
     1
 77
     6
 78
     2
 67
     7
 79
     5
170
     0
171
     0
290
     0
174
     0
 93
        1
 44
0.0
173
     0
291
     0
 45
0.0
1001
ACAD
1000
AcDbSavedByObjectVersion
1070
     0
  0
VISUALSTYLE
  5
32
102
{ACAD_REACTORS
330
2A
102
}
102
{ACAD_XDICTIONARY
360
2C2
102
}
330
2A
100
AcDbVisualStyle
  2
Basic
 70
     7
 71
     1
 72
     0
 73
     1
 90
        0
 40
-0.6
 41
-30.0
 62
     5
 63
     7
421
 16777215
 74
     0
 91
        4
 64
     7
 65
   257
 75
     1
175
     1
 42
1.0
 92
        8
 66
     7
 43
1.0
 76
     1
 77
     6
 78
     2
 67
     7
 79
     5
170
     0
171
     0
290
     0
174
     0
 93
        1
 44
0.0
173
     0
291
     1
 45
0.0
1001
ACAD
1000
AcDbSavedByObjectVersion
1070
     0
  0
VISUALSTYLE
  5
36
102
{ACAD_REACTORS
330
2A
102
}
102
{ACAD_XDICTIONARY
360
2CA
102
}
330
2A
100
AcDbVisualStyle
  2
Brighten
 70
    12
 71
     2
 72
     2
 73
     0
 90
        0
 40
-0.6
 41
-30.0
 62
     5
 63
     7
421
 16777215
 74
     1
 91
        4
 64
     7
 65
   257
 75
     1
175
     1
 42
1.0
 92
        8
 66
     7
 43
1.0
 76
     1
 77
     6
 78
     2
 67
     7
 79
     5
170
     0
171
     0
290
     0
174
     0
 93
        1
 44
50.0
173
     0
291
     1
 45
0.0
1001
ACAD
1000
AcDbSavedByObjectVersion
1070
     0
  0
VISUALSTYLE
  5
3A
102
{ACAD_REACTORS
330
2A
102
}
102
{ACAD_XDICTIONARY
360
2D2
102
}
330
2A
100
AcDbVisualStyle
  2
ColorChange
 70
    16
 71
     2
 72
     2
 73
     3
 90
        0
 40
-0.6
 41
-30.0
 62
     5
 63
     8
421
  8421504
 74
     1
 91
        4
 64
     7
 65
   257
 75
     1
175
     1
 42
1.0
 92
        8
 66
     8
424
  8421504
 43
1.0
 76
     1
 77
     6
 78
     2
 67
     7
 79
     5
170
     0
171
     0
290
     0
174
     0
 93
        1
 44
0.0
173
     0
291
     1
 45
0.0
1001
ACAD
1000
AcDbSavedByObjectVersion
1070
     0
  0
VISUALSTYLE
  5
34
102
{ACAD_REACTORS
330
2A
102
}
102
{ACAD_XDICTIONARY
360
2C6
102
}
330
2A
100
AcDbVisualStyle
  2
Conceptual
 70
     9
 71
     3
 72
     2
 73
     0
 90
        0
 40
-0.6
 41
-30.0
 62
     5
 63
     7
421
 16777215
 74
     2
 91
        2
 64
     7
 65
   257
 75
     1
175
     1
 42
40.0
 92
        8
 66
     7
 43
1.0
 76
     1
 77
     6
 78
     2
 67
     7
 79
     3
170
     0
171
     0
290
     0
174
     0
 93
        1
 44
0.0
173
     0
291
     0
 45
0.0
1001
ACAD
1000
AcDbSavedByObjectVersion
1070
     0
  0
VISUALSTYLE
  5
35
102
{ACAD_REACTORS
330
2A
102
}
102
{ACAD_XDICTIONARY
360
2C8
102
}
330
2A
100
AcDbVisualStyle
  2
Dim
 70
    11
 71
     2
 72
     2
 73
     0
 90
        0
 40
-0.6
 41
-30.0
 62
     5
 63
     7
421
 16777215
 74
     1
 91
        4
 64
     7
 65
   257
 75
     1
175
     1
 42
1.0
 92
        8
 66
     7
 43
1.0
 76
     1
 77
     6
 78
     2
 67
     7
 79
     5
170
     0
171
     0
290
     0
174
     0
 93
        1
 44
-50.0
173
     0
291
     1
 45
0.0
1001
ACAD
1000
AcDbSavedByObjectVersion
1070
     0
  0
VISUALSTYLE
  5
39
102
{ACAD_REACTORS
330
2A
102
}
102
{ACAD_XDICTIONARY
360
2D0
102
}
330
2A
100
AcDbVisualStyle
  2
Facepattern
 70
    15
 71
     2
 72
     2
 73
     0
 90
        0
 40
-0.6
 41
-30.0
 62
     5
 63
     7
421
 16777215
 74
     1
 91
        4
 64
     7
 65
   257
 75
     1
175
     1
 42
1.0
 92
        8
 66
     7
 43
1.0
 76
     1
 77
     6
 78
     2
 67
     7
 79
     5
170
     0
171
     0
290
     0
174
     0
 93
        1
 44
0.0
173
     0
291
     1
 45
0.0
1001
ACAD
1000
AcDbSavedByObjectVersion
1070
     0
  0
VISUALSTYLE
  5
2B
102
{ACAD_REACTORS
330
2A
102
}
102
{ACAD_XDICTIONARY
360
2B4
102
}
330
2A
100
AcDbVisualStyle
  2
Flat
 70
     0
 71
     2
 72
     1
 73
     1
 90
        2
 40
-0.6
 41
30.0
 62
     5
 63
     7
421
 16777215
 74
     0
 91
        4
 64
     7
 65
   257
 75
     1
175
     1
 42
1.0
 92
        8
 66
     7
 43
1.0
 76
     1
 77
     6
 78
     2
 67
     7
 79
     5
170
     0
171
     0
290
     0
174
     0
 93
       13
 44
0.0
173
     0
291
     1
 45
0.0
1001
ACAD
1000
AcDbSavedByObjectVersion
1070
     0
  0
VISUALSTYLE
  5
2C
102
{ACAD_REACTORS
330
2A
102
}
102
{ACAD_XDICTIONARY
360
2B6
102
}
330
2A
100
AcDbVisualStyle
  2
FlatWithEdges
 70
     1
 71
     2
 72
     1
 73
     1
 90
        2
 40
-0.6
 41
30.0
 62
     5
 63
     7
421
 16777215
 74
     1
 91
        4
 64
     7
 65
   257
 75
     1
175
     1
 42
1.0
 92
        0
 66
   257
 43
1.0
 76
     1
 77
     6
 78
     2
 67
     7
 79
     5
170
     0
171
     0
290
     0
174
     0
 93
       13
 44
0.0
173
     0
291
     1
 45
0.0
1001
ACAD
1000
AcDbSavedByObjectVersion
1070
     0
  0
VISUALSTYLE
  5
2D
102
{ACAD_REACTORS
330
2A
102
}
102
{ACAD_XDICTIONARY
360
2B8
102
}
330
2A
100
AcDbVisualStyle
  2
Gouraud
 70
     2
 71
     2
 72
     2
 73
     1
 90
        2
 40
-0.6
 41
30.0
 62
     5
 63
     7
421
 16777215
 74
     0
 91
        4
 64
     7
 65
   257
 75
     1
175
     1
 42
1.0
 92
        0
 66
     7
 43
1.0
 76
     1
 77
     6
 78
     2
 67
     7
 79
     5
170
     0
171
     0
290
     0
174
     0
 93
       13
 44
0.0
173
     0
291
     1
 45
0.0
1001
ACAD
1000
AcDbSavedByObjectVersion
1070
     0
  0
VISUALSTYLE
  5
2E
102
{ACAD_REACTORS
330
2A
102
}
102
{ACAD_XDICTIONARY
360
2BA
102
}
330
2A
100
AcDbVisualStyle
  2
GouraudWithEdges
 70
     3
 71
     2
 72
     2
 73
     1
 90
        2
 40
-0.6
 41
30.0
 62
     5
 63
     7
421
 16777215
 74
     1
 91
        4
 64
     7
 65
   257
 75
     1
175
     1
 42
1.0
 92
        0
 66
   257
 43
1.0
 76
     1
 77
     6
 78
     2
 67
     7
 79
     5
170
     0
171
     0
290
     0
174
     0
 93
       13
 44
0.0
173
     0
291
     1
 45
0.0
1001
ACAD
1000
AcDbSavedByObjectVersion
1070
     0
  0
VISUALSTYLE
  5
38
102
{ACAD_REACTORS
330
2A
102
}
102
{ACAD_XDICTIONARY
360
2CE
102
}
330
2A
100
AcDbVisualStyle
  2
Linepattern
 70
    14
 71
     2
 72
     2
 73
     0
 90
        0
 40
-0.6
 41
-30.0
 62
     5
 63
     7
421
 16777215
 74
     1
 91
        4
 64
     7
 65
   257
 75
     7
175
     7
 42
1.0
 92
        8
 66
     7
 43
1.0
 76
     1
 77
     6
 78
     2
 67
     7
 79
     5
170
     0
171
     0
290
     0
174
     0
 93
        1
 44
0.0
173
     0
291
     1
 45
0.0
1001
ACAD
1000
AcDbSavedByObjectVersion
1070
     0
  0
VISUALSTYLE
  5
33
102
{ACAD_REACTORS
330
2A
102
}
102
{ACAD_XDICTIONARY
360
2C4
102
}
330
2A
100
AcDbVisualStyle
  2
Realistic
 70
     8
 71
     2
 72
     2
 73
     0
 90
        0
 40
-0.6
 41
-30.0
 62
     5
 63
     7
421
 16777215
 74
     1
 91
        0
 64
     7
 65
   257
 75
     1
175
     1
 42
1.0
 92
        8
 66
     8
424
  7895160
 43
1.0
 76
     1
 77
     6
 78
     2
 67
     7
 79
     5
170
     0
171
     0
290
     0
174
     0
 93
       13
 44
0.0
173
     0
291
     0
 45
0.0
1001
ACAD
1000
AcDbSavedByObjectVersion
1070
     0
  0
VISUALSTYLE
  5
37
102
{ACAD_REACTORS
330
2A
102
}
102
{ACAD_XDICTIONARY
360
2CC
102
}
330
2A
100
AcDbVisualStyle
  2
Thicken
 70
    13
 71
     2
 72
     2
 73
     0
 90
        0
 40
-0.6
 41
-30.0
 62
     5
 63
     7
421
 16777215
 74
     1
 91
        4
 64
     7
 65
   257
 75
     1
175
     1
 42
1.0
 92
       12
 66
     7
 43
1.0
 76
     1
 77
     6
 78
     2
 67
     7
 79
     5
170
     0
171
     0
290
     0
174
     0
 93
        1
 44
0.0
173
     0
291
     1
 45
0.0
1001
ACAD
1000
AcDbSavedByObjectVersion
1070
     0
  0
DICTIONARY
  5
2D6
330
3D
100
AcDbDictionary
280
     1
281
     1
  3
ACAD_XREC_ROUNDTRIP
360
2D7
  0
DICTIONARY
  5
2D4
330
3C
100
AcDbDictionary
280
     1
281
     1
  3
ACAD_XREC_ROUNDTRIP
360
2D5
  0
DICTIONARY
  5
2D8
330
3E
100
AcDbDictionary
280
     1
281
     1
  3
ACAD_XREC_ROUNDTRIP
360
2D9
  0
DICTIONARY
  5
2BC
330
2F
100
AcDbDictionary
280
     1
281
     1
  3
ACAD_XREC_ROUNDTRIP
360
2BD
  0
DICTIONARY
  5
2C0
330
31
100
AcDbDictionary
280
     1
281
     1
  3
ACAD_XREC_ROUNDTRIP
360
2C1
  0
DICTIONARY
  5
2BE
330
30
100
AcDbDictionary
280
     1
281
     1
  3
ACAD_XREC_ROUNDTRIP
360
2BF
  0
DICTIONARY
  5
2C2
330
32
100
AcDbDictionary
280
     1
281
     1
  3
ACAD_XREC_ROUNDTRIP
360
2C3
  0
DICTIONARY
  5
2CA
330
36
100
AcDbDictionary
280
     1
281
     1
  3
ACAD_XREC_ROUNDTRIP
360
2CB
  0
DICTIONARY
  5
2D2
330
3A
100
AcDbDictionary
280
     1
281
     1
  3
ACAD_XREC_ROUNDTRIP
360
2D3
  0
DICTIONARY
  5
2C6
330
34
100
AcDbDictionary
280
     1
281
     1
  3
ACAD_XREC_ROUNDTRIP
360
2C7
  0
DICTIONARY
  5
2C8
330
35
100
AcDbDictionary
280
     1
281
     1
  3
ACAD_XREC_ROUNDTRIP
360
2C9
  0
DICTIONARY
  5
2D0
330
39
100
AcDbDictionary
280
     1
281
     1
  3
ACAD_XREC_ROUNDTRIP
360
2D1
  0
DICTIONARY
  5
2B4
330
2B
100
AcDbDictionary
280
     1
281
     1
  3
ACAD_XREC_ROUNDTRIP
360
2B5
  0
DICTIONARY
  5
2B6
330
2C
100
AcDbDictionary
280
     1
281
     1
  3
ACAD_XREC_ROUNDTRIP
360
2B7
  0
DICTIONARY
  5
2B8
330
2D
100
AcDbDictionary
280
     1
281
     1
  3
ACAD_XREC_ROUNDTRIP
360
2B9
  0
DICTIONARY
  5
2BA
330
2E
100
AcDbDictionary
280
     1
281
     1
  3
ACAD_XREC_ROUNDTRIP
360
2BB
  0
DICTIONARY
  5
2CE
330
38
100
AcDbDictionary
280
     1
281
     1
  3
ACAD_XREC_ROUNDTRIP
360
2CF
  0
DICTIONARY
  5
2C4
330
33
100
AcDbDictionary
280
     1
281
     1
  3
ACAD_XREC_ROUNDTRIP
360
2C5
  0
DICTIONARY
  5
2CC
330
37
100
AcDbDictionary
280
     1
281
     1
  3
ACAD_XREC_ROUNDTRIP
360
2CD
  0
XRECORD
  5
2D7
102
{ACAD_REACTORS
330
2D6
102
}
330
2D6
100
AcDbXrecord
280
     1
102
MATERIAL
148
0.0
149
0.0
149
0.0
 93
        0
 94
      127
282
     0
 72
     1
 77
     1
171
     1
175
     1
179
     1
273
     0
  0
XRECORD
  5
2D5
102
{ACAD_REACTORS
330
2D4
102
}
330
2D4
100
AcDbXrecord
280
     1
102
MATERIAL
148
0.0
149
0.0
149
0.0
 93
        0
 94
      127
282
     0
 72
     1
 77
     1
171
     1
175
     1
179
     1
273
     0
  0
XRECORD
  5
2D9
102
{ACAD_REACTORS
330
2D8
102
}
330
2D8
100
AcDbXrecord
280
     1
102
MATERIAL
148
0.0
149
0.0
149
0.0
 93
        0
 94
      127
282
     0
 72
     1
 77
     1
171
     1
175
     1
179
     1
273
     0
  0
XRECORD
  5
2BD
102
{ACAD_REACTORS
330
2BC
102
}
330
2BC
100
AcDbXrecord
280
     1
102
RTVSPropertyOp0
 70
     1
102
RTVSPropertyOp1
 70
     1
102
RTVSPropertyOp2
 70
     1
102
RTVSPropertyOp3
 70
     1
102
RTVSPropertyOp4
 70
     1
102
RTVSPropertyOp5
 70
     1
102
RTVSPropertyOp6
 70
     1
102
RTVSPropertyOp7
 70
     1
102
RTVSPropertyOp8
 70
     1
102
RTVSPropertyOp9
 70
     1
102
RTVSPropertyOp10
 70
     1
102
RTVSPropertyOp11
 70
     1
102
RTVSPropertyOp12
 70
     1
102
RTVSPropertyOp13
 70
     1
102
RTVSPropertyOp14
 70
     1
102
RTVSPropertyOp15
 70
     1
102
RTVSPropertyOp16
 70
     1
102
RTVSPropertyOp17
 70
     1
102
RTVSPropertyOp18
 70
     1
102
RTVSPropertyOp19
 70
     1
102
RTVSPropertyOp20
 70
     1
102
RTVSPropertyOp21
 70
     1
102
RTVSPropertyOp22
 70
     1
102
RTVSPropertyOp23
 70
     1
102
RTVSPropertyOp24
 70
     1
102
RTVSPropertyOp25
 70
     1
102
RTVSPropertyOp26
 70
     1
102
RTVSPropertyOp27
 70
     1
102
RTVSPropertyOp28
 70
     1
102
RTVSPropertyOp29
 70
     1
102
RTVSPropertyOp30
 70
     1
102
RTVSPropertyOp31
 70
     1
102
RTVSPropertyOp32
 70
     1
  0
XRECORD
  5
2C1
102
{ACAD_REACTORS
330
2C0
102
}
330
2C0
100
AcDbXrecord
280
     1
102
RTVSPropertyOp0
 70
     1
102
RTVSPropertyOp1
 70
     1
102
RTVSPropertyOp2
 70
     1
102
RTVSPropertyOp3
 70
     1
102
RTVSPropertyOp4
 70
     1
102
RTVSPropertyOp5
 70
     1
102
RTVSPropertyOp6
 70
     1
102
RTVSPropertyOp7
 70
     1
102
RTVSPropertyOp8
 70
     1
102
RTVSPropertyOp9
 70
     1
102
RTVSPropertyOp10
 70
     1
102
RTVSPropertyOp11
 70
     1
102
RTVSPropertyOp12
 70
     1
102
RTVSPropertyOp13
 70
     1
102
RTVSPropertyOp14
 70
     1
102
RTVSPropertyOp15
 70
     1
102
RTVSPropertyOp16
 70
     1
102
RTVSPropertyOp17
 70
     1
102
RTVSPropertyOp18
 70
     1
102
RTVSPropertyOp19
 70
     1
102
RTVSPropertyOp20
 70
     1
102
RTVSPropertyOp21
 70
     1
102
RTVSPropertyOp22
 70
     1
102
RTVSPropertyOp23
 70
     1
102
RTVSPropertyOp24
 70
     1
102
RTVSPropertyOp25
 70
     1
102
RTVSPropertyOp26
 70
     1
102
RTVSPropertyOp27
 70
     1
102
RTVSPropertyOp28
 70
     1
102
RTVSPropertyOp29
 70
     1
102
RTVSPropertyOp30
 70
     1
102
RTVSPropertyOp31
 70
     1
102
RTVSPropertyOp32
 70
     1
  0
XRECORD
  5
2BF
102
{ACAD_REACTORS
330
2BE
102
}
330
2BE
100
AcDbXrecord
280
     1
102
RTVSPropertyOp0
 70
     1
102
RTVSPropertyOp1
 70
     1
102
RTVSPropertyOp2
 70
     1
102
RTVSPropertyOp3
 70
     1
102
RTVSPropertyOp4
 70
     1
102
RTVSPropertyOp5
 70
     1
102
RTVSPropertyOp6
 70
     1
102
RTVSPropertyOp7
 70
     1
102
RTVSPropertyOp8
 70
     1
102
RTVSPropertyOp9
 70
     1
102
RTVSPropertyOp10
 70
     1
102
RTVSPropertyOp11
 70
     1
102
RTVSPropertyOp12
 70
     1
102
RTVSPropertyOp13
 70
     1
102
RTVSPropertyOp14
 70
     1
102
RTVSPropertyOp15
 70
     1
102
RTVSPropertyOp16
 70
     1
102
RTVSPropertyOp17
 70
     1
102
RTVSPropertyOp18
 70
     1
102
RTVSPropertyOp19
 70
     1
102
RTVSPropertyOp20
 70
     1
102
RTVSPropertyOp21
 70
     1
102
RTVSPropertyOp22
 70
     1
102
RTVSPropertyOp23
 70
     1
102
RTVSPropertyOp24
 70
     1
102
RTVSPropertyOp25
 70
     1
102
RTVSPropertyOp26
 70
     1
102
RTVSPropertyOp27
 70
     1
102
RTVSPropertyOp28
 70
     1
102
RTVSPropertyOp29
 70
     1
102
RTVSPropertyOp30
 70
     1
102
RTVSPropertyOp31
 70
     1
102
RTVSPropertyOp32
 70
     1
  0
XRECORD
  5
2C3
102
{ACAD_REACTORS
330
2C2
102
}
330
2C2
100
AcDbXrecord
280
     1
102
RTVSPropertyOp0
 70
     1
102
RTVSPropertyOp1
 70
     1
102
RTVSPropertyOp2
 70
     1
102
RTVSPropertyOp3
 70
     1
102
RTVSPropertyOp4
 70
     1
102
RTVSPropertyOp5
 70
     1
102
RTVSPropertyOp6
 70
     1
102
RTVSPropertyOp7
 70
     1
102
RTVSPropertyOp8
 70
     1
102
RTVSPropertyOp9
 70
     1
102
RTVSPropertyOp10
 70
     1
102
RTVSPropertyOp11
 70
     1
102
RTVSPropertyOp12
 70
     1
102
RTVSPropertyOp13
 70
     1
102
RTVSPropertyOp14
 70
     1
102
RTVSPropertyOp15
 70
     1
102
RTVSPropertyOp16
 70
     1
102
RTVSPropertyOp17
 70
     1
102
RTVSPropertyOp18
 70
     1
102
RTVSPropertyOp19
 70
     1
102
RTVSPropertyOp20
 70
     1
102
RTVSPropertyOp21
 70
     1
102
RTVSPropertyOp22
 70
     1
102
RTVSPropertyOp23
 70
     1
102
RTVSPropertyOp24
 70
     1
102
RTVSPropertyOp25
 70
     1
102
RTVSPropertyOp26
 70
     1
102
RTVSPropertyOp27
 70
     1
102
RTVSPropertyOp28
 70
     1
102
RTVSPropertyOp29
 70
     1
102
RTVSPropertyOp30
 70
     1
102
RTVSPropertyOp31
 70
     1
102
RTVSPropertyOp32
 70
     1
  0
XRECORD
  5
2CB
102
{ACAD_REACTORS
330
2CA
102
}
330
2CA
100
AcDbXrecord
280
     1
102
RTVSPropertyOp0
 70
     1
102
RTVSPropertyOp1
 70
     1
102
RTVSPropertyOp2
 70
     1
102
RTVSPropertyOp3
 70
     1
102
RTVSPropertyOp4
 70
     1
102
RTVSPropertyOp5
 70
     1
102
RTVSPropertyOp6
 70
     1
102
RTVSPropertyOp7
 70
     1
102
RTVSPropertyOp8
 70
     1
102
RTVSPropertyOp9
 70
     1
102
RTVSPropertyOp10
 70
     1
102
RTVSPropertyOp11
 70
     1
102
RTVSPropertyOp12
 70
     1
102
RTVSPropertyOp13
 70
     1
102
RTVSPropertyOp14
 70
     1
102
RTVSPropertyOp15
 70
     1
102
RTVSPropertyOp16
 70
     1
102
RTVSPropertyOp17
 70
     1
102
RTVSPropertyOp18
 70
     1
102
RTVSPropertyOp19
 70
     1
102
RTVSPropertyOp20
 70
     1
102
RTVSPropertyOp21
 70
     1
102
RTVSPropertyOp22
 70
     1
102
RTVSPropertyOp23
 70
     1
102
RTVSPropertyOp24
 70
     1
102
RTVSPropertyOp25
 70
     1
102
RTVSPropertyOp26
 70
     1
102
RTVSPropertyOp27
 70
     1
102
RTVSPropertyOp28
 70
     1
102
RTVSPropertyOp29
 70
     1
102
RTVSPropertyOp30
 70
     1
102
RTVSPropertyOp31
 70
     1
102
RTVSPropertyOp32
 70
     1
  0
XRECORD
  5
2D3
102
{ACAD_REACTORS
330
2D2
102
}
330
2D2
100
AcDbXrecord
280
     1
102
RTVSPropertyOp0
 70
     1
102
RTVSPropertyOp1
 70
     1
102
RTVSPropertyOp2
 70
     1
102
RTVSPropertyOp3
 70
     1
102
RTVSPropertyOp4
 70
     1
102
RTVSPropertyOp5
 70
     1
102
RTVSPropertyOp6
 70
     1
102
RTVSPropertyOp7
 70
     1
102
RTVSPropertyOp8
 70
     1
102
RTVSPropertyOp9
 70
     1
102
RTVSPropertyOp10
 70
     1
102
RTVSPropertyOp11
 70
     1
102
RTVSPropertyOp12
 70
     1
102
RTVSPropertyOp13
 70
     1
102
RTVSPropertyOp14
 70
     1
102
RTVSPropertyOp15
 70
     1
102
RTVSPropertyOp16
 70
     1
102
RTVSPropertyOp17
 70
     1
102
RTVSPropertyOp18
 70
     1
102
RTVSPropertyOp19
 70
     1
102
RTVSPropertyOp20
 70
     1
102
RTVSPropertyOp21
 70
     1
102
RTVSPropertyOp22
 70
     1
102
RTVSPropertyOp23
 70
     1
102
RTVSPropertyOp24
 70
     1
102
RTVSPropertyOp25
 70
     1
102
RTVSPropertyOp26
 70
     1
102
RTVSPropertyOp27
 70
     1
102
RTVSPropertyOp28
 70
     1
102
RTVSPropertyOp29
 70
     1
102
RTVSPropertyOp30
 70
     1
102
RTVSPropertyOp31
 70
     1
102
RTVSPropertyOp32
 70
     1
  0
XRECORD
  5
2C7
102
{ACAD_REACTORS
330
2C6
102
}
330
2C6
100
AcDbXrecord
280
     1
102
RTVSPropertyOp0
 70
     1
102
RTVSPropertyOp1
 70
     1
102
RTVSPropertyOp2
 70
     1
102
RTVSPropertyOp3
 70
     1
102
RTVSPropertyOp4
 70
     1
102
RTVSPropertyOp5
 70
     1
102
RTVSPropertyOp6
 70
     1
102
RTVSPropertyOp7
 70
     1
102
RTVSPropertyOp8
 70
     1
102
RTVSPropertyOp9
 70
     1
102
RTVSPropertyOp10
 70
     1
102
RTVSPropertyOp11
 70
     1
102
RTVSPropertyOp12
 70
     1
102
RTVSPropertyOp13
 70
     1
102
RTVSPropertyOp14
 70
     1
102
RTVSPropertyOp15
 70
     1
102
RTVSPropertyOp16
 70
     1
102
RTVSPropertyOp17
 70
     1
102
RTVSPropertyOp18
 70
     1
102
RTVSPropertyOp19
 70
     1
102
RTVSPropertyOp20
 70
     1
102
RTVSPropertyOp21
 70
     1
102
RTVSPropertyOp22
 70
     1
102
RTVSPropertyOp23
 70
     1
102
RTVSPropertyOp24
 70
     1
102
RTVSPropertyOp25
 70
     1
102
RTVSPropertyOp26
 70
     1
102
RTVSPropertyOp27
 70
     1
102
RTVSPropertyOp28
 70
     1
102
RTVSPropertyOp29
 70
     1
102
RTVSPropertyOp30
 70
     1
102
RTVSPropertyOp31
 70
     1
102
RTVSPropertyOp32
 70
     1
  0
XRECORD
  5
2C9
102
{ACAD_REACTORS
330
2C8
102
}
330
2C8
100
AcDbXrecord
280
     1
102
RTVSPropertyOp0
 70
     1
102
RTVSPropertyOp1
 70
     1
102
RTVSPropertyOp2
 70
     1
102
RTVSPropertyOp3
 70
     1
102
RTVSPropertyOp4
 70
     1
102
RTVSPropertyOp5
 70
     1
102
RTVSPropertyOp6
 70
     1
102
RTVSPropertyOp7
 70
     1
102
RTVSPropertyOp8
 70
     1
102
RTVSPropertyOp9
 70
     1
102
RTVSPropertyOp10
 70
     1
102
RTVSPropertyOp11
 70
     1
102
RTVSPropertyOp12
 70
     1
102
RTVSPropertyOp13
 70
     1
102
RTVSPropertyOp14
 70
     1
102
RTVSPropertyOp15
 70
     1
102
RTVSPropertyOp16
 70
     1
102
RTVSPropertyOp17
 70
     1
102
RTVSPropertyOp18
 70
     1
102
RTVSPropertyOp19
 70
     1
102
RTVSPropertyOp20
 70
     1
102
RTVSPropertyOp21
 70
     1
102
RTVSPropertyOp22
 70
     1
102
RTVSPropertyOp23
 70
     1
102
RTVSPropertyOp24
 70
     1
102
RTVSPropertyOp25
 70
     1
102
RTVSPropertyOp26
 70
     1
102
RTVSPropertyOp27
 70
     1
102
RTVSPropertyOp28
 70
     1
102
RTVSPropertyOp29
 70
     1
102
RTVSPropertyOp30
 70
     1
102
RTVSPropertyOp31
 70
     1
102
RTVSPropertyOp32
 70
     1
  0
XRECORD
  5
2D1
102
{ACAD_REACTORS
330
2D0
102
}
330
2D0
100
AcDbXrecord
280
     1
102
RTVSPropertyOp0
 70
     1
102
RTVSPropertyOp1
 70
     1
102
RTVSPropertyOp2
 70
     1
102
RTVSPropertyOp3
 70
     1
102
RTVSPropertyOp4
 70
     1
102
RTVSPropertyOp5
 70
     1
102
RTVSPropertyOp6
 70
     1
102
RTVSPropertyOp7
 70
     1
102
RTVSPropertyOp8
 70
     1
102
RTVSPropertyOp9
 70
     1
102
RTVSPropertyOp10
 70
     1
102
RTVSPropertyOp11
 70
     1
102
RTVSPropertyOp12
 70
     1
102
RTVSPropertyOp13
 70
     1
102
RTVSPropertyOp14
 70
     1
102
RTVSPropertyOp15
 70
     1
102
RTVSPropertyOp16
 70
     1
102
RTVSPropertyOp17
 70
     1
102
RTVSPropertyOp18
 70
     1
102
RTVSPropertyOp19
 70
     1
102
RTVSPropertyOp20
 70
     1
102
RTVSPropertyOp21
 70
     1
102
RTVSPropertyOp22
 70
     1
102
RTVSPropertyOp23
 70
     1
102
RTVSPropertyOp24
 70
     1
102
RTVSPropertyOp25
 70
     1
102
RTVSPropertyOp26
 70
     1
102
RTVSPropertyOp27
 70
     1
102
RTVSPropertyOp28
 70
     1
102
RTVSPropertyOp29
 70
     1
102
RTVSPropertyOp30
 70
     1
102
RTVSPropertyOp31
 70
     1
102
RTVSPropertyOp32
 70
     1
  0
XRECORD
  5
2B5
102
{ACAD_REACTORS
330
2B4
102
}
330
2B4
100
AcDbXrecord
280
     1
102
RTVSPropertyOp0
 70
     1
102
RTVSPropertyOp1
 70
     1
102
RTVSPropertyOp2
 70
     1
102
RTVSPropertyOp3
 70
     1
102
RTVSPropertyOp4
 70
     1
102
RTVSPropertyOp5
 70
     1
102
RTVSPropertyOp6
 70
     1
102
RTVSPropertyOp7
 70
     1
102
RTVSPropertyOp8
 70
     1
102
RTVSPropertyOp9
 70
     1
102
RTVSPropertyOp10
 70
     1
102
RTVSPropertyOp11
 70
     1
102
RTVSPropertyOp12
 70
     1
102
RTVSPropertyOp13
 70
     1
102
RTVSPropertyOp14
 70
     1
102
RTVSPropertyOp15
 70
     1
102
RTVSPropertyOp16
 70
     1
102
RTVSPropertyOp17
 70
     1
102
RTVSPropertyOp18
 70
     1
102
RTVSPropertyOp19
 70
     1
102
RTVSPropertyOp20
 70
     1
102
RTVSPropertyOp21
 70
     1
102
RTVSPropertyOp22
 70
     1
102
RTVSPropertyOp23
 70
     1
102
RTVSPropertyOp24
 70
     1
102
RTVSPropertyOp25
 70
     1
102
RTVSPropertyOp26
 70
     1
102
RTVSPropertyOp27
 70
     1
102
RTVSPropertyOp28
 70
     1
102
RTVSPropertyOp29
 70
     1
102
RTVSPropertyOp30
 70
     1
102
RTVSPropertyOp31
 70
     1
102
RTVSPropertyOp32
 70
     1
  0
XRECORD
  5
2B7
102
{ACAD_REACTORS
330
2B6
102
}
330
2B6
100
AcDbXrecord
280
     1
102
RTVSPropertyOp0
 70
     1
102
RTVSPropertyOp1
 70
     1
102
RTVSPropertyOp2
 70
     1
102
RTVSPropertyOp3
 70
     1
102
RTVSPropertyOp4
 70
     1
102
RTVSPropertyOp5
 70
     1
102
RTVSPropertyOp6
 70
     1
102
RTVSPropertyOp7
 70
     1
102
RTVSPropertyOp8
 70
     1
102
RTVSPropertyOp9
 70
     1
102
RTVSPropertyOp10
 70
     1
102
RTVSPropertyOp11
 70
     1
102
RTVSPropertyOp12
 70
     1
102
RTVSPropertyOp13
 70
     1
102
RTVSPropertyOp14
 70
     1
102
RTVSPropertyOp15
 70
     1
102
RTVSPropertyOp16
 70
     1
102
RTVSPropertyOp17
 70
     1
102
RTVSPropertyOp18
 70
     1
102
RTVSPropertyOp19
 70
     1
102
RTVSPropertyOp20
 70
     1
102
RTVSPropertyOp21
 70
     1
102
RTVSPropertyOp22
 70
     1
102
RTVSPropertyOp23
 70
     1
102
RTVSPropertyOp24
 70
     1
102
RTVSPropertyOp25
 70
     1
102
RTVSPropertyOp26
 70
     1
102
RTVSPropertyOp27
 70
     1
102
RTVSPropertyOp28
 70
     1
102
RTVSPropertyOp29
 70
     1
102
RTVSPropertyOp30
 70
     1
102
RTVSPropertyOp31
 70
     1
102
RTVSPropertyOp32
 70
     1
  0
XRECORD
  5
2B9
102
{ACAD_REACTORS
330
2B8
102
}
330
2B8
100
AcDbXrecord
280
     1
102
RTVSPropertyOp0
 70
     1
102
RTVSPropertyOp1
 70
     1
102
RTVSPropertyOp2
 70
     1
102
RTVSPropertyOp3
 70
     1
102
RTVSPropertyOp4
 70
     1
102
RTVSPropertyOp5
 70
     1
102
RTVSPropertyOp6
 70
     1
102
RTVSPropertyOp7
 70
     1
102
RTVSPropertyOp8
 70
     1
102
RTVSPropertyOp9
 70
     1
102
RTVSPropertyOp10
 70
     1
102
RTVSPropertyOp11
 70
     1
102
RTVSPropertyOp12
 70
     1
102
RTVSPropertyOp13
 70
     1
102
RTVSPropertyOp14
 70
     1
102
RTVSPropertyOp15
 70
     1
102
RTVSPropertyOp16
 70
     1
102
RTVSPropertyOp17
 70
     1
102
RTVSPropertyOp18
 70
     1
102
RTVSPropertyOp19
 70
     1
102
RTVSPropertyOp20
 70
     1
102
RTVSPropertyOp21
 70
     1
102
RTVSPropertyOp22
 70
     1
102
RTVSPropertyOp23
 70
     1
102
RTVSPropertyOp24
 70
     1
102
RTVSPropertyOp25
 70
     1
102
RTVSPropertyOp26
 70
     1
102
RTVSPropertyOp27
 70
     1
102
RTVSPropertyOp28
 70
     1
102
RTVSPropertyOp29
 70
     1
102
RTVSPropertyOp30
 70
     1
102
RTVSPropertyOp31
 70
     1
102
RTVSPropertyOp32
 70
     1
  0
XRECORD
  5
2BB
102
{ACAD_REACTORS
330
2BA
102
}
330
2BA
100
AcDbXrecord
280
     1
102
RTVSPropertyOp0
 70
     1
102
RTVSPropertyOp1
 70
     1
102
RTVSPropertyOp2
 70
     1
102
RTVSPropertyOp3
 70
     1
102
RTVSPropertyOp4
 70
     1
102
RTVSPropertyOp5
 70
     1
102
RTVSPropertyOp6
 70
     1
102
RTVSPropertyOp7
 70
     1
102
RTVSPropertyOp8
 70
     1
102
RTVSPropertyOp9
 70
     1
102
RTVSPropertyOp10
 70
     1
102
RTVSPropertyOp11
 70
     1
102
RTVSPropertyOp12
 70
     1
102
RTVSPropertyOp13
 70
     1
102
RTVSPropertyOp14
 70
     1
102
RTVSPropertyOp15
 70
     1
102
RTVSPropertyOp16
 70
     1
102
RTVSPropertyOp17
 70
     1
102
RTVSPropertyOp18
 70
     1
102
RTVSPropertyOp19
 70
     1
102
RTVSPropertyOp20
 70
     1
102
RTVSPropertyOp21
 70
     1
102
RTVSPropertyOp22
 70
     1
102
RTVSPropertyOp23
 70
     1
102
RTVSPropertyOp24
 70
     1
102
RTVSPropertyOp25
 70
     1
102
RTVSPropertyOp26
 70
     1
102
RTVSPropertyOp27
 70
     1
102
RTVSPropertyOp28
 70
     1
102
RTVSPropertyOp29
 70
     1
102
RTVSPropertyOp30
 70
     1
102
RTVSPropertyOp31
 70
     1
102
RTVSPropertyOp32
 70
     1
  0
XRECORD
  5
2CF
102
{ACAD_REACTORS
330
2CE
102
}
330
2CE
100
AcDbXrecord
280
     1
102
RTVSPropertyOp0
 70
     1
102
RTVSPropertyOp1
 70
     1
102
RTVSPropertyOp2
 70
     1
102
RTVSPropertyOp3
 70
     1
102
RTVSPropertyOp4
 70
     1
102
RTVSPropertyOp5
 70
     1
102
RTVSPropertyOp6
 70
     1
102
RTVSPropertyOp7
 70
     1
102
RTVSPropertyOp8
 70
     1
102
RTVSPropertyOp9
 70
     1
102
RTVSPropertyOp10
 70
     1
102
RTVSPropertyOp11
 70
     1
102
RTVSPropertyOp12
 70
     1
102
RTVSPropertyOp13
 70
     1
102
RTVSPropertyOp14
 70
     1
102
RTVSPropertyOp15
 70
     1
102
RTVSPropertyOp16
 70
     1
102
RTVSPropertyOp17
 70
     1
102
RTVSPropertyOp18
 70
     1
102
RTVSPropertyOp19
 70
     1
102
RTVSPropertyOp20
 70
     1
102
RTVSPropertyOp21
 70
     1
102
RTVSPropertyOp22
 70
     1
102
RTVSPropertyOp23
 70
     1
102
RTVSPropertyOp24
 70
     1
102
RTVSPropertyOp25
 70
     1
102
RTVSPropertyOp26
 70
     1
102
RTVSPropertyOp27
 70
     1
102
RTVSPropertyOp28
 70
     1
102
RTVSPropertyOp29
 70
     1
102
RTVSPropertyOp30
 70
     1
102
RTVSPropertyOp31
 70
     1
102
RTVSPropertyOp32
 70
     1
  0
XRECORD
  5
2C5
102
{ACAD_REACTORS
330
2C4
102
}
330
2C4
100
AcDbXrecord
280
     1
102
RTVSPropertyOp0
 70
     1
102
RTVSPropertyOp1
 70
     1
102
RTVSPropertyOp2
 70
     1
102
RTVSPropertyOp3
 70
     1
102
RTVSPropertyOp4
 70
     1
102
RTVSPropertyOp5
 70
     1
102
RTVSPropertyOp6
 70
     1
102
RTVSPropertyOp7
 70
     1
102
RTVSPropertyOp8
 70
     1
102
RTVSPropertyOp9
 70
     1
102
RTVSPropertyOp10
 70
     1
102
RTVSPropertyOp11
 70
     1
102
RTVSPropertyOp12
 70
     1
102
RTVSPropertyOp13
 70
     1
102
RTVSPropertyOp14
 70
     1
102
RTVSPropertyOp15
 70
     1
102
RTVSPropertyOp16
 70
     1
102
RTVSPropertyOp17
 70
     1
102
RTVSPropertyOp18
 70
     1
102
RTVSPropertyOp19
 70
     1
102
RTVSPropertyOp20
 70
     1
102
RTVSPropertyOp21
 70
     1
102
RTVSPropertyOp22
 70
     1
102
RTVSPropertyOp23
 70
     1
102
RTVSPropertyOp24
 70
     1
102
RTVSPropertyOp25
 70
     1
102
RTVSPropertyOp26
 70
     1
102
RTVSPropertyOp27
 70
     1
102
RTVSPropertyOp28
 70
     1
102
RTVSPropertyOp29
 70
     1
102
RTVSPropertyOp30
 70
     1
102
RTVSPropertyOp31
 70
     1
102
RTVSPropertyOp32
 70
     1
  0
XRECORD
  5
2CD
102
{ACAD_REACTORS
330
2CC
102
}
330
2CC
100
AcDbXrecord
280
     1
102
RTVSPropertyOp0
 70
     1
102
RTVSPropertyOp1
 70
     1
102
RTVSPropertyOp2
 70
     1
102
RTVSPropertyOp3
 70
     1
102
RTVSPropertyOp4
 70
     1
102
RTVSPropertyOp5
 70
     1
102
RTVSPropertyOp6
 70
     1
102
RTVSPropertyOp7
 70
     1
102
RTVSPropertyOp8
 70
     1
102
RTVSPropertyOp9
 70
     1
102
RTVSPropertyOp10
 70
     1
102
RTVSPropertyOp11
 70
     1
102
RTVSPropertyOp12
 70
     1
102
RTVSPropertyOp13
 70
     1
102
RTVSPropertyOp14
 70
     1
102
RTVSPropertyOp15
 70
     1
102
RTVSPropertyOp16
 70
     1
102
RTVSPropertyOp17
 70
     1
102
RTVSPropertyOp18
 70
     1
102
RTVSPropertyOp19
 70
     1
102
RTVSPropertyOp20
 70
     1
102
RTVSPropertyOp21
 70
     1
102
RTVSPropertyOp22
 70
     1
102
RTVSPropertyOp23
 70
     1
102
RTVSPropertyOp24
 70
     1
102
RTVSPropertyOp25
 70
     1
102
RTVSPropertyOp26
 70
     1
102
RTVSPropertyOp27
 70
     1
102
RTVSPropertyOp28
 70
     1
102
RTVSPropertyOp29
 70
     1
102
RTVSPropertyOp30
 70
     1
102
RTVSPropertyOp31
 70
     1
102
RTVSPropertyOp32
 70
     1
  0
ENDSEC
  0
EOF
