  0
SECTION
  2
HEADER
  9
$ACADVER
  1
AC1018
  9
$ACADMAINTVER
 70
     0
  9
$DWGCODEPAGE
  3
ANSI_1252
  9
$INSBASE
 10
0.0
 20
0.0
 30
0.0
  9
$EXTMIN
 10
-293.6177395015116
 20
-77.6471044454516
 30
0.0
  9
$EXTMAX
 10
126.3822604984869
 20
219.3528955545484
 30
0.0
  9
$LIMMIN
 10
0.0
 20
0.0
  9
$LIMMAX
 10
12.0
 20
9.0
  9
$ORTHOMODE
 70
     0
  9
$REGENMODE
 70
     1
  9
$FILLMODE
 70
     1
  9
$QTEXTMODE
 70
     0
  9
$MIRRTEXT
 70
     1
  9
$LTSCALE
 40
1.0
  9
$ATTMODE
 70
     1
  9
$TEXTSIZE
 40
0.2
  9
$TRACEWID
 40
0.05
  9
$TEXTSTYLE
  7
Standard
  9
$CLAYER
  8
0
  9
$CELTYPE
  6
ByLayer
  9
$CECOLOR
 62
   256
  9
$CELTSCALE
 40
1.0
  9
$DISPSILH
 70
     0
  9
$DIMSCALE
 40
1.0
  9
$DIMASZ
 40
0.18
  9
$DIMEXO
 40
0.0625
  9
$DIMDLI
 40
0.38
  9
$DIMRND
 40
0.0
  9
$DIMDLE
 40
0.0
  9
$DIMEXE
 40
0.18
  9
$DIMTP
 40
0.0
  9
$DIMTM
 40
0.0
  9
$DIMTXT
 40
0.18
  9
$DIMCEN
 40
0.09
  9
$DIMTSZ
 40
0.0
  9
$DIMTOL
 70
     0
  9
$DIMLIM
 70
     0
  9
$DIMTIH
 70
     1
  9
$DIMTOH
 70
     1
  9
$DIMSE1
 70
     0
  9
$DIMSE2
 70
     0
  9
$DIMTAD
 70
     0
  9
$DIMZIN
 70
     0
  9
$DIMBLK
  1

  9
$DIMASO
 70
     1
  9
$DIMSHO
 70
     1
  9
$DIMPOST
  1

  9
$DIMAPOST
  1

  9
$DIMALT
 70
     0
  9
$DIMALTD
 70
     2
  9
$DIMALTF
 40
25.4
  9
$DIMLFAC
 40
1.0
  9
$DIMTOFL
 70
     0
  9
$DIMTVP
 40
0.0
  9
$DIMTIX
 70
     0
  9
$DIMSOXD
 70
     0
  9
$DIMSAH
 70
     0
  9
$DIMBLK1
  1

  9
$DIMBLK2
  1

  9
$DIMSTYLE
  2
Standard
  9
$DIMCLRD
 70
     0
  9
$DIMCLRE
 70
     0
  9
$DIMCLRT
 70
     0
  9
$DIMTFAC
 40
1.0
  9
$DIMGAP
 40
0.09
  9
$DIMJUST
 70
     0
  9
$DIMSD1
 70
     0
  9
$DIMSD2
 70
     0
  9
$DIMTOLJ
 70
     1
  9
$DIMTZIN
 70
     0
  9
$DIMALTZ
 70
     0
  9
$DIMALTTZ
 70
     0
  9
$DIMUPT
 70
     0
  9
$DIMDEC
 70
     4
  9
$DIMTDEC
 70
     4
  9
$DIMALTU
 70
     2
  9
$DIMALTTD
 70
     2
  9
$DIMTXSTY
  7
Standard
  9
$DIMAUNIT
 70
     0
  9
$DIMADEC
 70
     0
  9
$DIMALTRND
 40
0.0
  9
$DIMAZIN
 70
     0
  9
$DIMDSEP
 70
    46
  9
$DIMATFIT
 70
     3
  9
$DIMFRAC
 70
     0
  9
$DIMLDRBLK
  1

  9
$DIMLUNIT
 70
     2
  9
$DIMLWD
 70
    -2
  9
$DIMLWE
 70
    -2
  9
$DIMTMOVE
 70
     0
  9
$LUNITS
 70
     2
  9
$LUPREC
 70
     4
  9
$SKETCHINC
 40
0.1
  9
$FILLETRAD
 40
0.5
  9
$AUNITS
 70
     0
  9
$AUPREC
 70
     0
  9
$MENU
  1
.
  9
$ELEVATION
 40
0.0
  9
$PELEVATION
 40
0.0
  9
$THICKNESS
 40
0.0
  9
$LIMCHECK
 70
     0
  9
$CHAMFERA
 40
0.5
  9
$CHAMFERB
 40
0.5
  9
$CHAMFERC
 40
1.0
  9
$CHAMFERD
 40
0.0
  9
$SKPOLY
 70
     0
  9
$TDCREATE
 40
2458487.417518287
  9
$TDUCREATE
 40
2458487.37585162
  9
$TDUPDATE
 40
2458487.417518646
  9
$TDUUPDATE
 40
2458487.375851979
  9
$TDINDWG
 40
0.0000000116
  9
$TDUSRTIMER
 40
0.0000000116
  9
$USRTIMER
 70
     1
  9
$ANGBASE
 50
0.0
  9
$ANGDIR
 70
     0
  9
$PDMODE
 70
     0
  9
$PDSIZE
 40
0.0
  9
$PLINEWID
 40
0.0
  9
$SPLFRAME
 70
     0
  9
$SPLINETYPE
 70
     6
  9
$SPLINESEGS
 70
     8
  9
$HANDSEED
  5
37F
  9
$SURFTAB1
 70
     6
  9
$SURFTAB2
 70
     6
  9
$SURFTYPE
 70
     6
  9
$SURFU
 70
     6
  9
$SURFV
 70
     6
  9
$UCSBASE
  2

  9
$UCSNAME
  2

  9
$UCSORG
 10
0.0
 20
0.0
 30
0.0
  9
$UCSXDIR
 10
1.0
 20
0.0
 30
0.0
  9
$UCSYDIR
 10
0.0
 20
1.0
 30
0.0
  9
$UCSORTHOREF
  2

  9
$UCSORTHOVIEW
 70
     0
  9
$UCSORGTOP
 10
0.0
 20
0.0
 30
0.0
  9
$UCSORGBOTTOM
 10
0.0
 20
0.0
 30
0.0
  9
$UCSORGLEFT
 10
0.0
 20
0.0
 30
0.0
  9
$UCSORGRIGHT
 10
0.0
 20
0.0
 30
0.0
  9
$UCSORGFRONT
 10
0.0
 20
0.0
 30
0.0
  9
$UCSORGBACK
 10
0.0
 20
0.0
 30
0.0
  9
$PUCSBASE
  2

  9
$PUCSNAME
  2

  9
$PUCSORG
 10
0.0
 20
0.0
 30
0.0
  9
$PUCSXDIR
 10
1.0
 20
0.0
 30
0.0
  9
$PUCSYDIR
 10
0.0
 20
1.0
 30
0.0
  9
$PUCSORTHOREF
  2

  9
$PUCSORTHOVIEW
 70
     0
  9
$PUCSORGTOP
 10
0.0
 20
0.0
 30
0.0
  9
$PUCSORGBOTTOM
 10
0.0
 20
0.0
 30
0.0
  9
$PUCSORGLEFT
 10
0.0
 20
0.0
 30
0.0
  9
$PUCSORGRIGHT
 10
0.0
 20
0.0
 30
0.0
  9
$PUCSORGFRONT
 10
0.0
 20
0.0
 30
0.0
  9
$PUCSORGBACK
 10
0.0
 20
0.0
 30
0.0
  9
$USERI1
 70
     0
  9
$USERI2
 70
     0
  9
$USERI3
 70
     0
  9
$USERI4
 70
     0
  9
$USERI5
 70
     0
  9
$USERR1
 40
18.1
  9
$USERR2
 40
0.0
  9
$USERR3
 40
0.0
  9
$USERR4
 40
0.0
  9
$USERR5
 40
0.0
  9
$WORLDVIEW
 70
     1
  9
$SHADEDGE
 70
     3
  9
$SHADEDIF
 70
    70
  9
$TILEMODE
 70
     1
  9
$MAXACTVP
 70
    64
  9
$PINSBASE
 10
0.0
 20
0.0
 30
0.0
  9
$PLIMCHECK
 70
     0
  9
$PEXTMIN
 10
1.00000000000000E+20
 20
1.00000000000000E+20
 30
1.00000000000000E+20
  9
$PEXTMAX
 10
-1.00000000000000E+20
 20
-1.00000000000000E+20
 30
-1.00000000000000E+20
  9
$PLIMMIN
 10
0.0
 20
0.0
  9
$PLIMMAX
 10
12.0
 20
9.0
  9
$UNITMODE
 70
     0
  9
$VISRETAIN
 70
     1
  9
$PLINEGEN
 70
     0
  9
$PSLTSCALE
 70
     1
  9
$TREEDEPTH
 70
  3020
  9
$CMLSTYLE
  2
Standard
  9
$CMLJUST
 70
     0
  9
$CMLSCALE
 40
1.0
  9
$PROXYGRAPHICS
 70
     1
  9
$MEASUREMENT
 70
     1
  9
$CELWEIGHT
370
    -1
  9
$ENDCAPS
280
     0
  9
$JOINSTYLE
280
     0
  9
$LWDISPLAY
290
     0
  9
$INSUNITS
 70
     4
  9
$HYPERLINKBASE
  1

  9
$STYLESHEET
  1

  9
$XEDIT
290
     1
  9
$CEPSNTYPE
380
     0
  9
$PSTYLEMODE
290
     1
  9
$FINGERPRINTGUID
  2
{0E2B9EA7-63A6-460E-A394-B5E54D5EC008}
  9
$VERSIONGUID
  2
{FAEB1C32-E019-11D5-929B-00C0DF256EC4}
  9
$EXTNAMES
290
     1
  9
$PSVPSCALE
 40
0.0
  9
$OLESTARTUP
290
     0
  9
$SORTENTS
280
   127
  9
$INDEXCTL
280
     0
  9
$HIDETEXT
280
     1
  9
$XCLIPFRAME
290
     0
  9
$HALOGAP
280
     0
  9
$OBSCOLOR
 70
   257
  9
$OBSLTYPE
280
     0
  9
$INTERSECTIONDISPLAY
280
     0
  9
$INTERSECTIONCOLOR
 70
   257
  9
$DIMASSOC
280
     2
  9
$PROJECTNAME
  1

  0
ENDSEC
  0
SECTION
  2
CLASSES
  0
CLASS
  1
ACDBDICTIONARYWDFLT
  2
AcDbDictionaryWithDefault
  3
ObjectDBX Classes
 90
        0
 91
        4
280
     0
281
     0
  0
CLASS
  1
VISUALSTYLE
  2
AcDbVisualStyle
  3
ObjectDBX Classes
 90
     4095
 91
        4
280
     0
281
     0
  0
CLASS
  1
MATERIAL
  2
AcDbMaterial
  3
ObjectDBX Classes
 90
     1153
 91
        4
280
     0
281
     0
  0
ENDSEC
  0
SECTION
  2
TABLES
  0
TABLE
  2
VPORT
  5
8
330
0
100
AcDbSymbolTable
 70
     1
  0
VPORT
  5
29
330
8
100
AcDbSymbolTableRecord
100
AcDbViewportTableRecord
  2
*Active
 70
     0
 10
0.0
 20
0.0
 11
1.0
 21
1.0
 12
-83.61773950151235
 22
70.85289555454841
 13
0.0
 23
0.0
 14
0.5
 24
0.5
 15
0.5
 25
0.5
 16
0.0
 26
0.0
 36
1.0
 17
0.0
 27
0.0
 37
0.0
 40
326.7
 41
1.60267857142857
 42
50.0
 43
0.0
 44
0.0
 50
0.0
 51
0.0
 71
     0
 72
   100
 73
     1
 74
     3
 75
     0
 76
     0
 77
     0
 78
     0
281
     0
 65
     1
110
0.0
120
0.0
130
0.0
111
1.0
121
0.0
131
0.0
112
0.0
122
1.0
132
0.0
 79
     0
146
0.0
  0
ENDTAB
  0
TABLE
  2
LTYPE
  5
5
330
0
100
AcDbSymbolTable
 70
     8
  0
LTYPE
  5
14
330
5
100
AcDbSymbolTableRecord
100
AcDbLinetypeTableRecord
  2
ByBlock
 70
     0
  3

 72
    65
 73
     0
 40
0.0
  0
LTYPE
  5
15
330
5
100
AcDbSymbolTableRecord
100
AcDbLinetypeTableRecord
  2
ByLayer
 70
     0
  3

 72
    65
 73
     0
 40
0.0
  0
LTYPE
  5
16
330
5
100
AcDbSymbolTableRecord
100
AcDbLinetypeTableRecord
  2
Continuous
 70
     0
  3
Solid line
 72
    65
 73
     0
 40
0.0
  0
LTYPE
  5
3F
330
5
100
AcDbSymbolTableRecord
100
AcDbLinetypeTableRecord
  2
DASHED
 70
     0
  3
Dashed
 72
    65
 73
     2
 40
15.0
 49
7.0
 74
     0
 49
-8.0
 74
     0
  0
LTYPE
  5
40
330
5
100
AcDbSymbolTableRecord
100
AcDbLinetypeTableRecord
  2
DOTTED
 70
     0
  3
Dotted
 72
    65
 73
     2
 40
1.0
 49
0.0
 74
     0
 49
-1.0
 74
     0
  0
LTYPE
  5
41
330
5
100
AcDbSymbolTableRecord
100
AcDbLinetypeTableRecord
  2
DOT_CENTER
 70
     0
  3
Dot_Center
 72
    65
 73
     4
 40
14.0
 49
12.0
 74
     0
 49
-1.0
 74
     0
 49
0.0
 74
     0
 49
-1.0
 74
     0
  0
LTYPE
  5
42
330
5
100
AcDbSymbolTableRecord
100
AcDbLinetypeTableRecord
  2
LONG_DASHED
 70
     0
  3
Long_Dashed
 72
    65
 73
     2
 40
15.0
 49
10.0
 74
     0
 49
-5.0
 74
     0
  0
LTYPE
  5
43
330
5
100
AcDbSymbolTableRecord
100
AcDbLinetypeTableRecord
  2
DASH_CENTER
 70
     0
  3
Dash_Center
 72
    65
 73
     4
 40
14.0
 49
11.0
 74
     0
 49
-1.0
 74
     0
 49
1.0
 74
     0
 49
-1.0
 74
     0
  0
LTYPE
  5
44
330
5
100
AcDbSymbolTableRecord
100
AcDbLinetypeTableRecord
  2
PHANTOM
 70
     0
  3
Phantom
 72
    65
 73
     6
 40
13.0
 49
10.0
 74
     0
 49
-1.0
 74
     0
 49
0.0
 74
     0
 49
-1.0
 74
     0
 49
0.0
 74
     0
 49
-1.0
 74
     0
  0
LTYPE
  5
45
330
5
100
AcDbSymbolTableRecord
100
AcDbLinetypeTableRecord
  2
CENTER_DASH_DASH
 70
     0
  3
Center_Dash_Dash
 72
    65
 73
     6
 40
14.0
 49
9.0
 74
     0
 49
-1.0
 74
     0
 49
1.0
 74
     0
 49
-1.0
 74
     0
 49
1.0
 74
     0
 49
-1.0
 74
     0
  0
ENDTAB
  0
TABLE
  2
LAYER
  5
2
330
0
100
AcDbSymbolTable
 70
     2
  0
LAYER
  5
10
330
2
100
AcDbSymbolTableRecord
100
AcDbLayerTableRecord
  2
0
 70
     0
 62
     7
  6
Continuous
370
    -3
390
F
  0
LAYER
  5
46
330
2
100
AcDbSymbolTableRecord
100
AcDbLayerTableRecord
  2
1
 70
     0
 62
     7
  6
Continuous
370
    -3
390
F
  0
ENDTAB
  0
TABLE
  2
STYLE
  5
3
330
0
100
AcDbSymbolTable
 70
     5
  0
STYLE
  5
11
330
3
100
AcDbSymbolTableRecord
100
AcDbTextStyleTableRecord
  2
Standard
 70
     0
 40
0.0
 41
1.0
 50
0.0
 71
     0
 42
0.2
  3
txt
  4

  0
STYLE
  5
C3
330
3
100
AcDbSymbolTableRecord
100
AcDbTextStyleTableRecord
  2
CONVERTER_11
 70
     0
 40
0.0
 41
0.9
 50
0.0
 71
     0
 42
0.2
  3
txt.shx
  4

  0
STYLE
  5
323
330
3
100
AcDbSymbolTableRecord
100
AcDbTextStyleTableRecord
  2
CONVERTER_12
 70
     0
 40
0.0
 41
0.81
 50
0.0
 71
     0
 42
0.2
  3
txt.shx
  4

  0
STYLE
  5
329
330
3
100
AcDbSymbolTableRecord
100
AcDbTextStyleTableRecord
  2
CONVERTER_13
 70
     0
 40
0.0
 41
0.855
 50
0.0
 71
     0
 42
0.2
  3
txt.shx
  4

  0
STYLE
  5
32C
330
3
100
AcDbSymbolTableRecord
100
AcDbTextStyleTableRecord
  2
CONVERTER_14
 70
     0
 40
0.0
 41
0.72
 50
0.0
 71
     0
 42
0.2
  3
txt.shx
  4

  0
ENDTAB
  0
TABLE
  2
VIEW
  5
6
330
0
100
AcDbSymbolTable
 70
     0
  0
ENDTAB
  0
TABLE
  2
UCS
  5
7
330
0
100
AcDbSymbolTable
 70
     0
  0
ENDTAB
  0
TABLE
  2
APPID
  5
9
330
0
100
AcDbSymbolTable
 70
     1
  0
APPID
  5
12
330
9
100
AcDbSymbolTableRecord
100
AcDbRegAppTableRecord
  2
ACAD
 70
     0
  0
ENDTAB
  0
TABLE
  2
DIMSTYLE
  5
A
330
0
100
AcDbSymbolTable
 70
     3
100
AcDbDimStyleTable
  0
DIMSTYLE
105
27
330
A
100
AcDbSymbolTableRecord
100
AcDbDimStyleTableRecord
  2
Standard
 70
     0
178
     0
340
11
  0
DIMSTYLE
105
127
102
{ACAD_REACTORS
330
128
102
}
330
A
100
AcDbSymbolTableRecord
100
AcDbDimStyleTableRecord
  2
ME10_DIM_10
 70
     0
 41
1.75
 42
0.0
 44
0.75
 73
     0
 74
     0
 77
     1
 78
     8
140
1.75
147
0.75
172
     1
173
     1
174
     1
175
     1
176
     2
177
     2
178
     3
340
C3
  0
DIMSTYLE
105
1F4
102
{ACAD_REACTORS
330
1F5
102
}
330
A
100
AcDbSymbolTableRecord
100
AcDbDimStyleTableRecord
  2
ME10_DIM_11
 70
     0
 41
1.75
 42
0.0
 44
0.75
 73
     0
 74
     0
 77
     1
 78
     8
140
1.75
147
0.75
172
     1
173
     1
174
     1
175
     1
176
     2
177
     2
178
     3
340
C3
  0
ENDTAB
  0
TABLE
  2
BLOCK_RECORD
  5
1
330
0
100
AcDbSymbolTable
 70
    21
  0
BLOCK_RECORD
  5
1F
330
1
100
AcDbSymbolTableRecord
100
AcDbBlockTableRecord
  2
*Model_Space
340
22
  0
BLOCK_RECORD
  5
1B
330
1
100
AcDbSymbolTableRecord
100
AcDbBlockTableRecord
  2
*Paper_Space
340
1E
  0
BLOCK_RECORD
  5
23
330
1
100
AcDbSymbolTableRecord
100
AcDbBlockTableRecord
  2
*Paper_Space0
340
26
  0
BLOCK_RECORD
  5
47
330
1
100
AcDbSymbolTableRecord
100
AcDbBlockTableRecord
  2
carrier_tm_300-select__1
340
0
102
{BLKREFS
331
4B
102
}
  0
BLOCK_RECORD
  5
4A
330
1
100
AcDbSymbolTableRecord
100
AcDbBlockTableRecord
  2
Allg1
340
0
102
{BLKREFS
331
7D
102
}
  0
BLOCK_RECORD
  5
4E
330
1
100
AcDbSymbolTableRecord
100
AcDbBlockTableRecord
  2
carrier_tm_300-select__2
340
0
102
{BLKREFS
331
52
102
}
  0
BLOCK_RECORD
  5
51
330
1
100
AcDbSymbolTableRecord
100
AcDbBlockTableRecord
  2
Drfsicht1
340
0
102
{BLKREFS
331
7E
102
}
  0
BLOCK_RECORD
  5
55
330
1
100
AcDbSymbolTableRecord
100
AcDbBlockTableRecord
  2
carrier_tm_300-select__3
340
0
102
{BLKREFS
331
59
102
}
  0
BLOCK_RECORD
  5
58
330
1
100
AcDbSymbolTableRecord
100
AcDbBlockTableRecord
  2
Rckans1
340
0
102
{BLKREFS
331
7F
102
}
  0
BLOCK_RECORD
  5
5C
330
1
100
AcDbSymbolTableRecord
100
AcDbBlockTableRecord
  2
carrier_tm_300-select__4
340
0
102
{BLKREFS
331
60
102
}
  0
BLOCK_RECORD
  5
5F
330
1
100
AcDbSymbolTableRecord
100
AcDbBlockTableRecord
  2
SA_Links1
340
0
102
{BLKREFS
331
80
102
}
  0
BLOCK_RECORD
  5
63
330
1
100
AcDbSymbolTableRecord
100
AcDbBlockTableRecord
  2
carrier_tm_300-select__5
340
0
102
{BLKREFS
331
67
102
}
  0
BLOCK_RECORD
  5
66
330
1
100
AcDbSymbolTableRecord
100
AcDbBlockTableRecord
  2
SA_Rechts1
340
0
102
{BLKREFS
331
81
102
}
  0
BLOCK_RECORD
  5
6A
330
1
100
AcDbSymbolTableRecord
100
AcDbBlockTableRecord
  2
carrier_tm_300-select__6
340
0
102
{BLKREFS
331
6E
102
}
  0
BLOCK_RECORD
  5
6D
330
1
100
AcDbSymbolTableRecord
100
AcDbBlockTableRecord
  2
Vordans1
340
0
102
{BLKREFS
331
82
102
}
  0
BLOCK_RECORD
  5
71
330
1
100
AcDbSymbolTableRecord
100
AcDbBlockTableRecord
  2
_rahmen
340
0
102
{BLKREFS
331
78
102
}
  0
BLOCK_RECORD
  5
74
330
1
100
AcDbSymbolTableRecord
100
AcDbBlockTableRecord
  2
_punkt
340
0
102
{BLKREFS
331
79
102
}
  0
BLOCK_RECORD
  5
77
330
1
100
AcDbSymbolTableRecord
100
AcDbBlockTableRecord
  2
A3I_CS
340
0
102
{BLKREFS
331
83
102
}
  0
BLOCK_RECORD
  5
7C
330
1
100
AcDbSymbolTableRecord
100
AcDbBlockTableRecord
  2
1
340
0
102
{BLKREFS
331
86
102
}
  0
BLOCK_RECORD
  5
11E
330
1
100
AcDbSymbolTableRecord
100
AcDbBlockTableRecord
  2
*D17
340
0
  0
BLOCK_RECORD
  5
1E9
330
1
100
AcDbSymbolTableRecord
100
AcDbBlockTableRecord
  2
*D18
340
0
  0
BLOCK_RECORD
  5
1F6
330
1
100
AcDbSymbolTableRecord
100
AcDbBlockTableRecord
  2
*D19
340
0
102
{BLKREFS
331
1FF
102
}
  0
BLOCK_RECORD
  5
200
330
1
100
AcDbSymbolTableRecord
100
AcDbBlockTableRecord
  2
*D20
340
0
102
{BLKREFS
331
209
102
}
  0
ENDTAB
  0
ENDSEC
  0
SECTION
  2
BLOCKS
  0
BLOCK
  5
20
330
1F
100
AcDbEntity
  8
0
100
AcDbBlockBegin
  2
*Model_Space
 70
     0
 10
0.0
 20
0.0
 30
0.0
  3
*Model_Space
  1

  0
ENDBLK
  5
21
330
1F
100
AcDbEntity
  8
0
100
AcDbBlockEnd
  0
BLOCK
  5
1C
330
1B
100
AcDbEntity
 67
     1
  8
0
100
AcDbBlockBegin
  2
*Paper_Space
 70
     0
 10
0.0
 20
0.0
 30
0.0
  3
*Paper_Space
  1

  0
ENDBLK
  5
1D
330
1B
100
AcDbEntity
 67
     1
  8
0
100
AcDbBlockEnd
  0
BLOCK
  5
24
330
23
100
AcDbEntity
  8
0
100
AcDbBlockBegin
  2
*Paper_Space0
 70
     0
 10
0.0
 20
0.0
 30
0.0
  3
*Paper_Space0
  1

  0
ENDBLK
  5
25
330
23
100
AcDbEntity
  8
0
100
AcDbBlockEnd
  0
BLOCK
  5
48
330
47
100
AcDbEntity
  8
0
100
AcDbBlockBegin
  2
carrier_tm_300-select__1
 70
     0
 10
-75.16180129148478
 20
-9.37088020501562
 30
0.0
  3
carrier_tm_300-select__1
  1

  0
LINE
  5
87
330
47
100
AcDbEntity
  8
0
  6
Continuous
 62
     7
100
AcDbLine
 10
-68.96908210882538
 20
-8.20085341128902
 30
0.0
 11
-68.21908210882526
 21
-8.85037246412736
 31
0.0
  0
LINE
  5
88
330
47
100
AcDbEntity
  8
0
  6
Continuous
 62
     7
100
AcDbLine
 10
-69.50651666831334
 20
-9.29748804601707
 30
0.0
 11
-68.60465708700644
 21
-8.51645473795884
 31
0.0
  0
LINE
  5
89
330
47
100
AcDbEntity
  8
0
  6
Continuous
 62
     7
100
AcDbLine
 10
-68.21908210882526
 20
-8.85037246412736
 30
0.0
 11
-67.02116249591108
 21
-9.19618206961914
 31
0.0
  0
LINE
  5
8A
330
47
100
AcDbEntity
  8
0
  6
Continuous
 62
     7
100
AcDbLine
 10
-70.41657743752478
 20
-8.58420650956012
 30
0.0
 11
-70.22847308548938
 21
-7.98250972446363
 31
0.0
  0
LINE
  5
8B
330
47
100
AcDbEntity
  8
0
  6
Continuous
 62
     7
100
AcDbLine
 10
-67.02116249591148
 20
-6.70014125108975
 30
0.0
 11
-67.02116249591108
 21
-9.19618206961914
 31
0.0
  0
LINE
  5
8C
330
47
100
AcDbEntity
  8
0
  6
Continuous
 62
     7
100
AcDbLine
 10
-68.06039298045238
 20
-8.11675920621315
 30
0.0
 11
-68.06039298045243
 21
-7.19011202416374
 31
0.0
  0
LINE
  5
8D
330
47
100
AcDbEntity
  8
0
  6
Continuous
 62
     7
100
AcDbLine
 10
-69.60123272135894
 20
-8.01836724813168
 30
0.0
 11
-68.96908210882538
 21
-8.20085341128902
 31
0.0
  0
LINE
  5
8E
330
47
100
AcDbEntity
  8
0
  6
Continuous
 62
     7
100
AcDbLine
 10
-68.75321330347987
 20
-7.91675920621316
 30
0.0
 11
-68.06039298045238
 21
-8.11675920621315
 31
0.0
  0
LINE
  5
8F
330
47
100
AcDbEntity
  8
0
  6
Continuous
 62
     7
100
AcDbLine
 10
-72.94421420504449
 20
-7.58021531502922
 30
0.0
 11
-70.22847308548938
 21
-7.98250972446363
 31
0.0
  0
LINE
  5
90
330
47
100
AcDbEntity
  8
0
  6
Continuous
 62
     7
100
AcDbLine
 10
82.89223496371045
 20
124.4348870992141
 30
0.0
 11
82.31587347248626
 21
124.6012683302686
 31
0.0
  0
LINE
  5
91
330
47
100
AcDbEntity
  8
0
  6
Continuous
 62
     2
100
AcDbLine
 10
82.89223496371045
 20
124.4348870992141
 30
0.0
 11
-67.10776503628955
 21
-5.46892346844064
 31
0.0
  0
LINE
  5
92
330
47
100
AcDbEntity
  8
0
  6
Continuous
 62
     7
100
AcDbLine
 10
-69.75671115171974
 20
-8.51570221506677
 30
0.0
 11
-69.28713682857358
 21
-8.10903892225718
 31
0.0
  0
LINE
  5
93
330
47
100
AcDbEntity
  8
0
  6
Continuous
 62
     7
100
AcDbLine
 10
76.02077612611964
 20
126.4185064040183
 30
0.0
 11
76.90953653241212
 21
124.1657548183861
 31
0.0
  0
LINE
  5
94
330
47
100
AcDbEntity
  8
0
  6
Continuous
 62
     7
100
AcDbLine
 10
-73.09046346758294
 20
-5.73805574926996
 30
0.0
 11
76.90953653241212
 21
124.1657548183861
 31
0.0
  0
LINE
  5
95
330
47
100
AcDbEntity
  8
0
  6
Continuous
 62
     7
100
AcDbLine
 10
-68.75321330347987
 20
-7.91675920621316
 30
0.0
 11
-68.06039298045238
 21
-7.31675920621325
 31
0.0
  0
LINE
  5
96
330
47
100
AcDbEntity
  8
0
  6
Continuous
 62
     2
100
AcDbLine
 10
-69.29381919523229
 20
-7.55318056867674
 30
0.0
 11
-68.46903915193349
 21
-6.83890009864569
 31
0.0
  0
LINE
  5
97
330
47
100
AcDbEntity
  8
0
  6
Continuous
 62
     7
100
AcDbLine
 10
-72.94421420504449
 20
-7.58021531502922
 30
0.0
 11
-74.53182174587357
 21
-6.66667335776799
 31
0.0
  0
LINE
  5
98
330
47
100
AcDbEntity
  8
0
  6
Continuous
 62
     7
100
AcDbLine
 10
-68.06039298045243
 20
-7.19011202416374
 30
0.0
 11
-68.57288693380156
 21
-7.04216776320169
 31
0.0
  0
LINE
  5
99
330
47
100
AcDbEntity
  8
0
  6
Continuous
 62
     7
100
AcDbLine
 10
-68.57288693380156
 20
-7.04216776320169
 30
0.0
 11
-67.68412652750908
 21
-5.3025422373876
 31
0.0
  0
LINE
  5
9A
330
47
100
AcDbEntity
  8
0
  6
Continuous
 62
     7
100
AcDbLine
 10
-70.15558557355888
 20
-7.20622416689557
 30
0.0
 11
-72.33078992713968
 21
-6.88400179285492
 31
0.0
  0
LINE
  5
9B
330
47
100
AcDbEntity
  8
0
  6
Continuous
 62
     7
100
AcDbLine
 10
-74.25208721290448
 20
-5.92897058275611
 30
0.0
 11
-74.11374616332995
 21
-5.48645362939976
 31
0.0
  0
LINE
  5
9C
330
47
100
AcDbEntity
  8
0
  6
Continuous
 62
     7
100
AcDbLine
 10
-73.60295556467275
 20
-5.5901120241638
 30
0.0
 11
-73.60295556467275
 21
-6.51675920621315
 31
0.0
  0
LINE
  5
9D
330
47
100
AcDbEntity
  8
0
  6
Continuous
 62
     7
100
AcDbLine
 10
-73.60295556467275
 20
-5.5901120241638
 30
0.0
 11
-73.09046346758294
 21
-5.73805574926996
 31
0.0
  0
LINE
  5
9E
330
47
100
AcDbEntity
  8
0
  6
Continuous
 62
     7
100
AcDbLine
 10
-74.73979410504307
 20
-5.90692503005244
 30
0.0
 11
-74.14953311471209
 21
-5.39574401756283
 31
0.0
  0
LINE
  5
9F
330
47
100
AcDbEntity
  8
0
  6
Continuous
 62
     7
100
AcDbLine
 10
-74.11374616332995
 20
-5.48645362939976
 30
0.0
 11
-74.48407806367368
 21
-4.54776895150161
 31
0.0
  0
LINE
  5
A0
330
47
100
AcDbEntity
  8
0
  6
Continuous
 62
     7
100
AcDbLine
 10
-74.55558350883564
 20
-3.31892346844066
 30
0.0
 11
-73.97922387387558
 21
-3.48530416363775
 31
0.0
  0
LINE
  5
A1
330
47
100
AcDbEntity
  8
0
  6
Continuous
 62
     7
100
AcDbLine
 10
-73.97922387387558
 20
-3.48530416363775
 30
0.0
 11
-73.09046346758294
 21
-5.73805574926996
 31
0.0
  0
LINE
  5
A2
330
47
100
AcDbEntity
  8
0
  6
Continuous
 62
     7
100
AcDbLine
 10
-67.10776503628955
 20
-5.46892346844064
 30
0.0
 11
-67.68412652750908
 21
-5.3025422373876
 31
0.0
  0
LINE
  5
A3
330
47
100
AcDbEntity
  8
0
  6
Continuous
 62
     7
100
AcDbLine
 10
-73.60295556467275
 20
-6.51675920621315
 30
0.0
 11
76.39704443532236
 21
123.3870513614428
 31
0.0
  0
LINE
  5
A4
330
47
100
AcDbEntity
  8
0
  6
Continuous
 62
     7
100
AcDbLine
 10
77.66921007285555
 20
123.0198087748011
 30
0.0
 11
-72.33078992713968
 21
-6.88400179285492
 31
0.0
  0
LINE
  5
A5
330
47
100
AcDbEntity
  8
0
  6
Continuous
 62
     7
100
AcDbLine
 10
-73.60295556467275
 20
-6.51675920621315
 30
0.0
 11
-72.33078992713968
 21
-6.88400179285492
 31
0.0
  0
LINE
  5
A6
330
47
100
AcDbEntity
  8
0
  6
Continuous
 62
     2
100
AcDbLine
 10
-70.15558557355888
 20
-7.20622416689557
 30
0.0
 11
79.84441442643634
 21
122.6975864007605
 31
0.0
  0
LINE
  5
A7
330
47
100
AcDbEntity
  8
0
  6
Continuous
 62
     7
100
AcDbLine
 10
-69.29381919523229
 20
-7.55318056867674
 30
0.0
 11
-68.75321330347987
 21
-7.91675920621316
 31
0.0
  0
LINE
  5
A8
330
47
100
AcDbEntity
  8
0
  6
Continuous
 62
     7
100
AcDbLine
 10
77.66921007285555
 20
123.0198087748011
 30
0.0
 11
79.84441442643634
 21
122.6975864007605
 31
0.0
  0
LINE
  5
A9
330
47
100
AcDbEntity
  8
0
  6
Continuous
 62
     7
100
AcDbLine
 10
76.39704443532236
 20
123.3870513614428
 30
0.0
 11
77.66921007285555
 21
123.0198087748011
 31
0.0
  0
LINE
  5
AA
330
47
100
AcDbEntity
  8
0
  6
Continuous
 62
     7
100
AcDbLine
 10
76.39704443532224
 20
123.7219236430676
 30
0.0
 11
76.39704443532236
 21
123.3870513614428
 31
0.0
  0
LINE
  5
AB
330
47
100
AcDbEntity
  8
0
  6
Continuous
 62
     7
100
AcDbLine
 10
-67.68412652750908
 20
-5.3025422373876
 30
0.0
 11
82.31587347248626
 21
124.6012683302686
 31
0.0
  0
LINE
  5
AC
330
47
100
AcDbEntity
  8
0
  6
Continuous
 62
     7
100
AcDbLine
 10
-73.97922387387558
 20
-3.48530416363775
 30
0.0
 11
76.02077612611964
 21
126.4185064040183
 31
0.0
  0
LINE
  5
AD
330
47
100
AcDbEntity
  8
0
  6
Continuous
 62
     7
100
AcDbLine
 10
75.44441649116425
 20
126.584887099214
 30
0.0
 11
76.02077612611964
 21
126.4185064040183
 31
0.0
  0
LINE
  5
AE
330
47
100
AcDbEntity
  8
0
  6
Continuous
 62
     7
100
AcDbLine
 10
-75.01384107833115
 20
-3.39599098887683
 30
0.0
 11
74.98615892166862
 21
126.5078195787779
 31
0.0
  0
LINE
  5
AF
330
47
100
AcDbEntity
  8
0
  6
Continuous
 62
     7
100
AcDbLine
 10
-69.60123272135894
 20
-8.01836724813168
 30
0.0
 11
-69.75671115171974
 21
-8.51570221506677
 31
0.0
  0
LINE
  5
B0
330
47
100
AcDbEntity
  8
0
  6
Continuous
 62
     7
100
AcDbLine
 10
-67.02116249591108
 20
-9.19618206961914
 30
0.0
 11
82.97883750408414
 21
120.7076284980369
 31
0.0
  0
LINE
  5
B1
330
47
100
AcDbEntity
  8
0
  6
Continuous
 62
     7
100
AcDbLine
 10
82.97883750408414
 20
120.7076284980369
 30
0.0
 11
82.97883750408425
 21
122.9776563576884
 31
0.0
  0
LINE
  5
B2
330
47
100
AcDbEntity
  8
0
  6
Continuous
 62
     7
100
AcDbLine
 10
83.35049253320602
 20
123.2995190543521
 30
0.0
 11
-66.64950746679398
 21
-6.60429151330271
 31
0.0
  0
LINE
  5
B3
330
47
100
AcDbEntity
  8
0
  6
Continuous
 62
     7
100
AcDbLine
 10
-69.95319797985206
 20
-9.30130742771451
 30
0.0
 11
-70.11969338952554
 21
-9.20550255244373
 31
0.0
  0
LINE
  5
B4
330
47
100
AcDbEntity
  8
0
  6
Continuous
 62
     2
100
AcDbLine
 10
-74.55558350883564
 20
-3.31892346844066
 30
0.0
 11
75.44441649116425
 21
126.584887099214
 31
0.0
  0
SPLINE
  5
B5
330
47
100
AcDbEntity
  8
0
  6
Continuous
 62
     7
100
AcDbSpline
210
0.0
220
0.0
230
1.0
 70
     8
 71
     3
 72
    15
 73
    11
 74
     9
 42
0.000000001
 43
0.0000000001
 44
0.00000001
 40
0.0
 40
0.0
 40
0.0
 40
0.0
 40
0.1505847246734693
 40
0.3097068238929791
 40
0.4822432635499992
 40
0.6682818344312305
 40
0.8640056312384119
 40
1.063222631769897
 40
1.25895538705173
 40
1.445010081706134
 40
1.445010081706134
 40
1.445010081706134
 40
1.445010081706134
 10
83.35049253320602
 20
123.2995190543521
 30
0.0
 10
83.38483390220888
 20
123.3369293113544
 30
0.0
 10
83.45546360711933
 20
123.4138708015626
 30
0.0
 10
83.50098211499687
 20
123.5733062439284
 30
0.0
 10
83.49955832450186
 20
123.747335992237
 30
0.0
 10
83.44910569611739
 20
123.9272220375238
 30
0.0
 10
83.35552052469421
 20
124.0986067732714
 30
0.0
 10
83.2254166904697
 20
124.2477848229219
 30
0.0
 10
83.07024972585917
 20
124.3679691030813
 30
0.0
 10
82.95056188365277
 20
124.4129612789106
 30
0.0
 10
82.89223496371045
 20
124.4348870992141
 30
0.0
 11
83.35049253320602
 21
123.2995190543521
 31
0.0
 11
83.44373015743638
 21
123.4177667026263
 31
0.0
 11
83.49230003687964
 21
123.5692949547944
 31
0.0
 11
83.49226727337512
 21
123.7418313943386
 31
0.0
 11
83.44363555492575
 21
123.9214011755909
 31
0.0
 11
83.35034280344124
 21
124.0934600823803
 31
0.0
 11
83.21994611287826
 21
124.2440725532189
 31
0.0
 11
83.0630062544403
 21
124.3610391811428
 31
0.0
 11
82.89223496371045
 21
124.4348870992141
 31
0.0
  0
SPLINE
  5
B6
330
47
100
AcDbEntity
  8
0
  6
Continuous
 62
     7
100
AcDbSpline
210
0.0
220
0.0
230
1.0
 70
     8
 71
     3
 72
    13
 73
     9
 74
     7
 42
0.000000001
 43
0.0000000001
 44
0.00000001
 40
0.0
 40
0.0
 40
0.0
 40
0.0
 40
0.1279493064611369
 40
0.2584256750058958
 40
0.3875845551832606
 40
0.5118282307162902
 40
0.6285381769699655
 40
0.7368092663491927
 40
0.7368092663491927
 40
0.7368092663491927
 40
0.7368092663491927
 10
-70.11969338952554
 20
-9.205502552443733
 30
0.0
 10
-70.15538499572054
 20
-9.181888862734892
 30
0.0
 10
-70.22747312637478
 20
-9.134195089415647
 30
0.0
 10
-70.31471899436488
 20
-9.037222957346613
 30
0.0
 10
-70.3824348603083
 20
-8.92773463445762
 30
0.0
 10
-70.42387549533657
 20
-8.810856515979161
 30
0.0
 10
-70.43992027642895
 20
-8.693540088819518
 30
0.0
 10
-70.4241613536646
 20
-8.6197281599986
 30
0.0
 10
-70.41657743752478
 20
-8.584206509560119
 30
0.0
 11
-70.11969338952554
 21
-9.205502552443733
 31
0.0
 11
-70.22335688227714
 21
-9.130503185433538
 31
0.0
 11
-70.31182218386411
 21
-9.034597120579335
 31
0.0
 11
-70.37906025488813
 21
-8.924319931090084
 31
0.0
 11
-70.42048928741013
 21
-8.807186985613185
 31
0.0
 11
-70.43328554987522
 21
-8.69118065751212
 31
0.0
 11
-70.41657743752478
 21
-8.584206509560119
 31
0.0
  0
SPLINE
  5
B7
330
47
100
AcDbEntity
  8
0
  6
Continuous
 62
     7
100
AcDbSpline
210
0.0
220
0.0
230
1.0
 70
     8
 71
     3
 72
    13
 73
     9
 74
     7
 42
0.000000001
 43
0.0000000001
 44
0.00000001
 40
0.0
 40
0.0
 40
0.0
 40
0.0
 40
0.1637697772458095
 40
0.3299363196955905
 40
0.4906243262269262
 40
0.6396857460535006
 40
0.7751742013018398
 40
0.9012559302192672
 40
0.9012559302192672
 40
0.9012559302192672
 40
0.9012559302192672
 10
-74.53182174587357
 20
-6.666673357767991
 30
0.0
 10
-74.5770665780143
 20
-6.635602693223442
 30
0.0
 10
-74.66821839014207
 20
-6.57300663467745
 30
0.0
 10
-74.7687432617546
 20
-6.440823729435511
 30
0.0
 10
-74.83377181904615
 20
-6.294172199792577
 30
0.0
 10
-74.85280252634305
 20
-6.145485331239259
 30
0.0
 10
-74.82645973024522
 20
-6.005492289180121
 30
0.0
 10
-74.76798164371787
 20
-5.938983505746172
 30
0.0
 10
-74.73979410504307
 20
-5.906925030052435
 30
0.0
 11
-74.53182174587357
 21
-6.666673357767991
 31
0.0
 11
-74.6617538201487
 21
-6.566982860449025
 31
0.0
 11
-74.76410004146047
 21
-6.436076134799592
 31
0.0
 11
-74.82753332353924
 21
-6.288438556152459
 31
0.0
 11
-74.84503572362533
 21
-6.140408242090842
 31
0.0
 11
-74.81466855263206
 21
-6.008366740733297
 31
0.0
 11
-74.73979410504307
 21
-5.906925030052435
 31
0.0
  0
SPLINE
  5
B8
330
47
100
AcDbEntity
  8
0
  6
Continuous
 62
     7
100
AcDbSpline
210
0.0
220
0.0
230
1.0
 70
     8
 71
     3
 72
    11
 73
     7
 74
     5
 42
0.000000001
 43
0.0000000001
 44
0.00000001
 40
0.0
 40
0.0
 40
0.0
 40
0.0
 40
0.1127737527647687
 40
0.2293250952027924
 40
0.352451653776332
 40
0.4834504872166331
 40
0.4834504872166331
 40
0.4834504872166331
 40
0.4834504872166331
 10
-75.01384107833115
 20
-3.395990988876832
 30
0.0
 10
-74.98324222756433
 20
-3.373696082782368
 30
0.0
 10
-74.92101954655455
 20
-3.328359469199121
 30
0.0
 10
-74.80588741464805
 20
-3.296209011376408
 30
0.0
 10
-74.68124222806625
 20
-3.289946123942876
 30
0.0
 10
-74.59832593904187
 20
-3.309066907986633
 30
0.0
 10
-74.55558350883564
 20
-3.318923468440659
 30
0.0
 11
-75.01384107833115
 21
-3.395990988876832
 31
0.0
 11
-74.91897596218706
 21
-3.335011242256744
 31
0.0
 11
-74.80749100774625
 21
-3.301021228720998
 31
0.0
 11
-74.68448492643451
 21
-3.295575684847719
 31
0.0
 11
-74.55558350883564
 21
-3.318923468440659
 31
0.0
  0
SPLINE
  5
B9
330
47
100
AcDbEntity
  8
0
  6
Continuous
 62
     7
100
AcDbSpline
210
0.0
220
0.0
230
1.0
 70
     8
 71
     3
 72
     9
 73
     5
 74
     3
 42
0.000000001
 43
0.0000000001
 44
0.00000001
 40
0.0
 40
0.0
 40
0.0
 40
0.0
 40
0.4812640574979102
 40
0.9346882275301232
 40
0.9346882275301232
 40
0.9346882275301232
 40
0.9346882275301232
 10
-69.29381919523229
 20
-7.553180568676737
 30
0.0
 10
-69.43199000696472
 20
-7.469220071808345
 30
0.0
 10
-69.70033881275674
 20
-7.306155994774608
 30
0.0
 10
-70.00688011723477
 20
-7.238866694742182
 30
0.0
 10
-70.15558557355888
 20
-7.206224166895566
 30
0.0
 11
-69.29381919523229
 21
-7.553180568676737
 31
0.0
 11
-69.7184570164732
 21
-7.326690359455831
 31
0.0
 11
-70.15558557355888
 21
-7.206224166895566
 31
0.0
  0
SPLINE
  5
BA
330
47
100
AcDbEntity
  8
0
  6
Continuous
 62
     7
100
AcDbSpline
210
0.0
220
0.0
230
1.0
 70
     8
 71
     3
 72
    15
 73
    11
 74
     9
 42
0.000000001
 43
0.0000000001
 44
0.00000001
 40
0.0
 40
0.0
 40
0.0
 40
0.0
 40
0.1505847246736148
 40
0.3097068238931259
 40
0.4822432635500981
 40
0.6682818344312832
 40
0.864005631238493
 40
1.063222631770034
 40
1.258955387051855
 40
1.445010081706348
 40
1.445010081706348
 40
1.445010081706348
 40
1.445010081706348
 10
-66.64950746679398
 20
-6.604291513302712
 30
0.0
 10
-66.61516609779102
 20
-6.566881256300422
 30
0.0
 10
-66.54453639288045
 20
-6.489939766092313
 30
0.0
 10
-66.49901788500301
 20
-6.330504323726389
 30
0.0
 10
-66.50044167549805
 20
-6.15647457541786
 30
0.0
 10
-66.55089430388253
 20
-5.976588530131004
 30
0.0
 10
-66.64447947530569
 20
-5.805203794383388
 30
0.0
 10
-66.77458330953027
 20
-5.65602574473296
 30
0.0
 10
-66.92975027414077
 20
-5.535841464573547
 30
0.0
 10
-67.04943811634725
 20
-5.490849288744179
 30
0.0
 10
-67.10776503628955
 20
-5.468923468440636
 30
0.0
 11
-66.64950746679398
 21
-6.604291513302712
 31
0.0
 11
-66.55626984256342
 21
-6.486043865028524
 31
0.0
 11
-66.50769996312022
 21
-6.334515612860372
 31
0.0
 11
-66.5077327266248
 21
-6.161979173316194
 31
0.0
 11
-66.55636444507414
 21
-5.982409392063914
 31
0.0
 11
-66.64965719655868
 21
-5.810350485274489
 31
0.0
 11
-66.78005388712168
 21
-5.659738014435888
 31
0.0
 11
-66.93699374555963
 21
-5.542771386511992
 31
0.0
 11
-67.10776503628955
 21
-5.468923468440636
 31
0.0
  0
SPLINE
  5
BB
330
47
100
AcDbEntity
  8
0
  6
Continuous
 62
     7
100
AcDbSpline
210
0.0
220
0.0
230
1.0
 70
     8
 71
     3
 72
    11
 73
     7
 74
     5
 42
0.000000001
 43
0.0000000001
 44
0.00000001
 40
0.0
 40
0.0
 40
0.0
 40
0.0
 40
0.1052575901833622
 40
0.2053526385863991
 40
0.3014155746291963
 40
0.3952560413698112
 40
0.3952560413698112
 40
0.3952560413698112
 40
0.3952560413698112
 10
-67.02116249591148
 20
-6.700141251089747
 30
0.0
 10
-66.98610630027491
 20
-6.703444275652751
 30
0.0
 10
-66.91771330063894
 20
-6.709888307531353
 30
0.0
 10
-66.81761731146261
 20
-6.694422868872196
 30
0.0
 10
-66.72550787346177
 20
-6.661386455467464
 30
0.0
 10
-66.67464250453502
 20
-6.623174096358129
 30
0.0
 10
-66.64950746679398
 20
-6.604291513302712
 30
0.0
 11
-67.02116249591148
 21
-6.700141251089747
 31
0.0
 11
-66.91604598048846
 21
-6.705589056496578
 31
0.0
 11
-66.81701716297829
 21
-6.691018112212475
 31
0.0
 11
-66.7272205580662
 21
-6.656891027925106
 31
0.0
 11
-66.64950746679398
 21
-6.604291513302712
 31
0.0
  0
SPLINE
  5
BC
330
47
100
AcDbEntity
  8
0
  6
Continuous
 62
     7
100
AcDbSpline
210
0.0
220
0.0
230
1.0
 70
     8
 71
     3
 72
    11
 73
     7
 74
     5
 42
0.000000001
 43
0.0000000001
 44
0.00000001
 40
0.0
 40
0.0
 40
0.0
 40
0.0
 40
0.1165194038374944
 40
0.240636427104583
 40
0.376227039085264
 40
0.5225582741909957
 40
0.5225582741909957
 40
0.5225582741909957
 40
0.5225582741909957
 10
-74.73979410504307
 20
-5.906925030052435
 30
0.0
 10
-74.70704711679053
 20
-5.885034585287901
 30
0.0
 10
-74.63941787402234
 20
-5.83982634742534
 30
0.0
 10
-74.5102530548924
 20
-5.828502860890936
 30
0.0
 10
-74.37571016788888
 20
-5.855634350439499
 30
0.0
 10
-74.2943283537786
 20
-5.903912074630424
 30
0.0
 10
-74.25208721290448
 20
-5.928970582756108
 30
0.0
 11
-74.73979410504307
 21
-5.906925030052435
 31
0.0
 11
-74.6380396818044
 21
-5.850155236023117
 31
0.0
 11
-74.5149016366955
 21
-5.834597011676379
 31
0.0
 11
-74.3820528233799
 21
-5.861726472496944
 31
0.0
 11
-74.25208721290448
 21
-5.928970582756108
 31
0.0
  0
SPLINE
  5
BD
330
47
100
AcDbEntity
  8
0
  6
Continuous
 62
     7
100
AcDbSpline
210
0.0
220
0.0
230
1.0
 70
     8
 71
     3
 72
     9
 73
     5
 74
     3
 42
0.000000001
 43
0.0000000001
 44
0.00000001
 40
0.0
 40
0.0
 40
0.0
 40
0.0
 40
0.1132216649734046
 40
0.2244421144502815
 40
0.2244421144502815
 40
0.2244421144502815
 40
0.2244421144502815
 10
80.06385287407483
 20
122.650961282199
 30
0.0
 10
80.02731206373966
 20
122.6604903110624
 30
0.0
 10
79.95487630473403
 20
122.6793799218194
 30
0.0
 10
79.88101552975286
 20
122.6915537632026
 30
0.0
 10
79.84441442643634
 20
122.6975864007605
 30
0.0
 11
80.06385287407483
 21
122.650961282199
 31
0.0
 11
79.95386780534133
 21
122.677839342849
 31
0.0
 11
79.84441442643634
 21
122.6975864007605
 31
0.0
  0
SPLINE
  5
BE
330
47
100
AcDbEntity
  8
0
  6
Continuous
 62
     7
100
AcDbSpline
210
0.0
220
0.0
230
1.0
 70
     8
 71
     3
 72
    11
 73
     7
 74
     5
 42
0.000000001
 43
0.0000000001
 44
0.00000001
 40
0.0
 40
0.0
 40
0.0
 40
0.0
 40
0.1127737527647755
 40
0.2293250952027852
 40
0.352451653776367
 40
0.4834504872167515
 40
0.4834504872167515
 40
0.4834504872167515
 40
0.4834504872167515
 10
74.98615892166862
 20
126.5078195787779
 30
0.0
 10
75.01675777243545
 20
126.5301144848723
 30
0.0
 10
75.07898045344525
 20
126.5754510984555
 30
0.0
 10
75.19411258535172
 20
126.6076015562784
 30
0.0
 10
75.31875777193355
 20
126.6138644437118
 30
0.0
 10
75.40167406095802
 20
126.594743659668
 30
0.0
 10
75.44441649116425
 20
126.584887099214
 30
0.0
 11
74.98615892166862
 21
126.5078195787779
 31
0.0
 11
75.08102403781274
 21
126.568799325398
 31
0.0
 11
75.19250899225352
 21
126.6027893389337
 31
0.0
 11
75.31551507356531
 21
126.608234882807
 31
0.0
 11
75.44441649116425
 21
126.584887099214
 31
0.0
  0
SPLINE
  5
BF
330
47
100
AcDbEntity
  8
0
  6
Continuous
 62
     7
100
AcDbSpline
210
0.0
220
0.0
230
1.0
 70
     8
 71
     3
 72
    13
 73
     9
 74
     7
 42
0.000000001
 43
0.0000000001
 44
0.00000001
 40
0.0
 40
0.0
 40
0.0
 40
0.0
 40
0.1780907971189038
 40
0.3675541643884984
 40
0.5632536246044894
 40
0.7586520108144925
 40
0.9472772048561751
 40
1.124189903304602
 40
1.124189903304602
 40
1.124189903304602
 40
1.124189903304602
 10
-74.48407806367368
 20
-4.54776895150161
 30
0.0
 10
-74.54187457383705
 20
-4.532924280725055
 30
0.0
 10
-74.66115837487266
 20
-4.502286970025942
 30
0.0
 10
-74.82213340267525
 20
-4.400603524970444
 30
0.0
 10
-74.96352999843182
 20
-4.266846033436043
 30
0.0
 10
-75.07255710048217
 20
-4.105959573928329
 30
0.0
 10
-75.14647104022117
 20
-3.931274945090293
 30
0.0
 10
-75.15680154853065
 20
-3.809215481034331
 30
0.0
 10
-75.16180129148478
 20
-3.750141251089787
 30
0.0
 11
-74.48407806367368
 21
-4.54776895150161
 31
0.0
 11
-74.6541247954896
 21
-4.494849754903608
 31
0.0
 11
-74.8164141727442
 21
-4.397082038352863
 31
0.0
 11
-74.95817005878662
 21
-4.262161512148678
 31
0.0
 11
-75.06823357794784
 21
-4.100710120069394
 31
0.0
 11
-75.13793951210994
 21
-3.925437339912806
 31
0.0
 11
-75.16180129148478
 21
-3.750141251089787
 31
0.0
  0
SPLINE
  5
C0
330
47
100
AcDbEntity
  8
0
  6
Continuous
 62
     7
100
AcDbSpline
210
0.0
220
0.0
230
1.0
 70
     8
 71
     3
 72
    11
 73
     7
 74
     5
 42
0.000000001
 43
0.0000000001
 44
0.00000001
 40
0.0
 40
0.0
 40
0.0
 40
0.0
 40
0.1052575901831851
 40
0.2053526385861441
 40
0.3014155746288656
 40
0.3952560413695172
 40
0.3952560413695172
 40
0.3952560413695172
 40
0.3952560413695172
 10
-75.16180129148478
 20
-3.750141251089787
 30
0.0
 10
-75.16006241002911
 20
-3.714972755030787
 30
0.0
 10
-75.15666991900643
 20
-3.646360664618753
 30
0.0
 10
-75.12706367739891
 20
-3.549500676491743
 30
0.0
 10
-75.08120761681775
 20
-3.463055463278722
 30
0.0
 10
-75.03612070842566
 20
-3.418170712678993
 30
0.0
 10
-75.01384107833115
 20
-3.395990988876832
 30
0.0
 11
-75.16180129148478
 21
-3.750141251089787
 31
0.0
 11
-75.15217657542681
 21
-3.645324624359128
 31
0.0
 11
-75.1236081067457
 21
-3.549393077347744
 31
0.0
 11
-75.07700296667261
 21
-3.465392785357496
 31
0.0
 11
-75.01384107833115
 21
-3.395990988876832
 31
0.0
  0
SPLINE
  5
C1
330
47
100
AcDbEntity
  8
0
  6
Continuous
 62
     7
100
AcDbSpline
210
0.0
220
0.0
230
1.0
 70
     8
 71
     3
 72
    11
 73
     7
 74
     5
 42
0.000000001
 43
0.0000000001
 44
0.00000001
 40
0.0
 40
0.0
 40
0.0
 40
0.0
 40
0.1069968159980208
 40
0.2200037183227432
 40
0.3424766473817509
 40
0.4745183312822834
 40
0.4745183312822834
 40
0.4745183312822834
 40
0.4745183312822834
 10
-69.50651666831334
 20
-9.297488046017065
 30
0.0
 10
-69.53630583211849
 20
-9.317876322961764
 30
0.0
 10
-69.59755744508757
 20
-9.359798087958803
 30
0.0
 10
-69.71398494313476
 20
-9.375645775519795
 30
0.0
 10
-69.83694889011869
 20
-9.35873944808495
 30
0.0
 10
-69.91348908109282
 20
-9.320925326859918
 30
0.0
 10
-69.95319797985206
 20
-9.301307427714505
 30
0.0
 11
-69.50651666831334
 21
-9.297488046017065
 31
0.0
 11
-69.59908681688736
 21
-9.351145168659627
 31
0.0
 11
-69.71047505916945
 21
-9.370203508431075
 31
0.0
 11
-69.83175272094971
 21
-9.353134595735803
 31
0.0
 11
-69.95319797985206
 21
-9.301307427714505
 31
0.0
  0
SPLINE
  5
C2
330
47
100
AcDbEntity
  8
0
  6
Continuous
 62
     7
100
AcDbSpline
210
0.0
220
0.0
230
1.0
 70
     8
 71
     3
 72
    13
 73
     9
 74
     7
 42
0.000000001
 43
0.0000000001
 44
0.00000001
 40
0.0
 40
0.0
 40
0.0
 40
0.0
 40
0.1697705744806686
 40
0.3443219742021452
 40
0.5145115316795639
 40
0.6726942430021421
 40
0.8158839500216563
 40
0.9483416859172324
 40
0.9483416859172324
 40
0.9483416859172324
 40
0.9483416859172324
 10
-69.75671115171974
 20
-8.515702215066767
 30
0.0
 10
-69.7074893045843
 20
-8.54432793428467
 30
0.0
 10
-69.60765950619562
 20
-8.602385499481578
 30
0.0
 10
-69.49474623121984
 20
-8.735405138804193
 30
0.0
 10
-69.41890251259474
 20
-8.88710664471186
 30
0.0
 10
-69.3926018372146
 20
-9.043720480179244
 30
0.0
 10
-69.41593379537497
 20
-9.192886888268848
 30
0.0
 10
-69.47711639505482
 20
-9.263537897372183
 30
0.0
 10
-69.50651666831334
 20
-9.297488046017065
 30
0.0
 11
-69.75671115171974
 21
-8.515702215066767
 31
0.0
 11
-69.61494478447077
 21
-8.609106413883064
 31
0.0
 11
-69.49985641557646
 21
-8.740342302582192
 31
0.0
 11
-69.42547423215035
 21
-8.893416718237752
 31
0.0
 11
-69.40086152564777
 21
-9.049672873060914
 31
0.0
 11
-69.42902045412787
 21
-9.190066493865773
 31
0.0
 11
-69.50651666831334
 21
-9.297488046017065
 31
0.0
  0
ENDBLK
  5
49
330
47
100
AcDbEntity
  8
0
100
AcDbBlockEnd
  0
BLOCK
  5
4C
330
4A
100
AcDbEntity
  8
0
100
AcDbBlockBegin
  2
Allg1
 70
     0
 10
4.00000000000136
 20
59.0
 30
0.0
  3
Allg1
  1

  0
INSERT
  5
4B
330
4A
100
AcDbEntity
  8
0
100
AcDbBlockReference
  2
carrier_tm_300-select__1
 10
-75.16180129148478
 20
-9.37088020501562
 30
0.0
  0
MTEXT
  5
C4
330
4A
100
AcDbEntity
  8
1
 62
     6
100
AcDbMText
 10
4.1658626634766
 20
-14.37246686104987
 30
0.0
 40
5.0
 41
0.0
 71
     2
 72
     1
  1
 \P1:1
  7
CONVERTER_11
 73
     1
 44
1.32052821128451
  0
ENDBLK
  5
4D
330
4A
100
AcDbEntity
  8
0
100
AcDbBlockEnd
  0
BLOCK
  5
4F
330
4E
100
AcDbEntity
  8
0
100
AcDbBlockBegin
  2
carrier_tm_300-select__2
 70
     0
 10
-65.19436580809892
 20
12.7777430000007
 30
0.0
  3
carrier_tm_300-select__2
  1

  0
LINE
  5
C5
330
4E
100
AcDbEntity
  8
0
  6
Continuous
 62
     2
100
AcDbLine
 10
-64.4943658080937
 20
36.6562244186274
 30
0.0
 11
-64.4943658080933
 21
54.7777430000005
 31
0.0
  0
LINE
  5
C6
330
4E
100
AcDbEntity
  8
0
  6
Continuous
 62
     7
100
AcDbLine
 10
-64.4943658080933
 20
54.7777430000005
 30
0.0
 11
-63.8288408838811
 21
54.7777430000005
 31
0.0
  0
LINE
  5
C7
330
4E
100
AcDbEntity
  8
0
  6
Continuous
 62
     2
100
AcDbLine
 10
-64.4943658080989
 20
12.7777430000007
 30
0.0
 11
-64.49436580809851
 21
33.6562244186274
 31
0.0
  0
LINE
  5
C8
330
4E
100
AcDbEntity
  8
0
  6
Continuous
 62
     7
100
AcDbLine
 10
-65.19436580809892
 20
12.7777430000007
 30
0.0
 11
-65.19436580809852
 21
33.49552037484932
 31
0.0
  0
LINE
  5
C9
330
4E
100
AcDbEntity
  8
0
  6
Continuous
 62
     7
100
AcDbLine
 10
-65.1943658080938
 20
36.49552037485151
 30
0.0
 11
-65.19436580809341
 21
54.7777430000005
 31
0.0
  0
LINE
  5
CA
330
4E
100
AcDbEntity
  8
0
  6
Continuous
 62
     7
100
AcDbLine
 10
-65.19436580809341
 20
54.7777430000005
 30
0.0
 11
-64.4943658080933
 21
54.7777430000005
 31
0.0
  0
LINE
  5
CB
330
4E
100
AcDbEntity
  8
0
  6
Continuous
 62
     7
100
AcDbLine
 10
-62.59436580809341
 20
54.77774300000041
 30
0.0
 11
-62.80258876424492
 21
54.77774300000041
 31
0.0
  0
LINE
  5
CC
330
4E
100
AcDbEntity
  8
0
  6
Continuous
 62
     7
100
AcDbLine
 10
-63.8288408838811
 20
54.7777430000005
 30
0.0
 11
-63.8288408838811
 21
36.5060834802826
 31
0.0
  0
LINE
  5
CD
330
4E
100
AcDbEntity
  8
0
  6
Continuous
 62
     7
100
AcDbLine
 10
-62.80258876424492
 20
54.77774300000041
 30
0.0
 11
-63.8288408838811
 21
54.7777430000005
 31
0.0
  0
LINE
  5
CE
330
4E
100
AcDbEntity
  8
0
  6
Continuous
 62
     7
100
AcDbLine
 10
-62.5943658080935
 20
32.55544717397311
 30
0.0
 11
-62.5943658080935
 21
12.7777430000007
 31
0.0
  0
LINE
  5
CF
330
4E
100
AcDbEntity
  8
0
  6
Continuous
 62
     7
100
AcDbLine
 10
-62.802588764245
 20
12.77774300000081
 30
0.0
 11
-63.8288408838811
 21
12.7777430000007
 31
0.0
  0
LINE
  5
D0
330
4E
100
AcDbEntity
  8
0
  6
Continuous
 62
     7
100
AcDbLine
 10
-63.8288408838811
 20
33.5060834802826
 30
0.0
 11
-63.8288408838811
 21
12.7777430000007
 31
0.0
  0
LINE
  5
D1
330
4E
100
AcDbEntity
  8
0
  6
Continuous
 62
     7
100
AcDbLine
 10
-62.802588764245
 20
12.77774300000081
 30
0.0
 11
-62.802588764245
 21
32.72181416291042
 31
0.0
  0
LINE
  5
D2
330
4E
100
AcDbEntity
  8
0
  6
Continuous
 62
     7
100
AcDbLine
 10
-62.80258876424492
 20
35.72181416291051
 30
0.0
 11
-62.80258876424492
 21
54.77774300000041
 31
0.0
  0
LINE
  5
D3
330
4E
100
AcDbEntity
  8
0
  6
Continuous
 62
     7
100
AcDbLine
 10
-62.59436580809341
 20
54.77774300000041
 30
0.0
 11
-62.5943658080935
 21
35.55544717397322
 31
0.0
  0
LINE
  5
D4
330
4E
100
AcDbEntity
  8
0
  6
Continuous
 62
     7
100
AcDbLine
 10
-61.97012789383592
 20
54.7777430000003
 30
0.0
 11
-60.9750457928252
 21
54.7777430000003
 31
0.0
  0
LINE
  5
D5
330
4E
100
AcDbEntity
  8
0
  6
Continuous
 62
     7
100
AcDbLine
 10
-60.9750457928252
 20
54.7777430000003
 30
0.0
 11
-58.46333615466051
 21
54.7777430000003
 31
0.0
  0
LINE
  5
D6
330
4E
100
AcDbEntity
  8
0
  6
Continuous
 62
     2
100
AcDbLine
 10
-60.9750457928252
 20
54.7777430000003
 30
0.0
 11
-60.9750457928252
 21
35.2480939732113
 31
0.0
  0
LINE
  5
D7
330
4E
100
AcDbEntity
  8
0
  6
Continuous
 62
     2
100
AcDbLine
 10
-61.97012789383592
 20
54.7777430000003
 30
0.0
 11
-61.97012789383601
 21
35.229908412187
 31
0.0
  0
LINE
  5
D8
330
4E
100
AcDbEntity
  8
0
  6
Continuous
 62
     2
100
AcDbLine
 10
-60.97504579282531
 20
32.24809397321121
 30
0.0
 11
-60.9750457928252
 21
12.7777430000007
 31
0.0
  0
LINE
  5
D9
330
4E
100
AcDbEntity
  8
0
  6
Continuous
 62
     2
100
AcDbLine
 10
-61.97012789383601
 20
32.229908412187
 30
0.0
 11
-61.97012789383601
 21
12.7777430000007
 31
0.0
  0
LINE
  5
DA
330
4E
100
AcDbEntity
  8
0
  6
Continuous
 62
     7
100
AcDbLine
 10
-58.46333615466071
 20
36.65578692081522
 30
0.0
 11
-58.46333615466051
 21
54.7777430000003
 31
0.0
  0
LINE
  5
DB
330
4E
100
AcDbEntity
  8
0
  6
Continuous
 62
     7
100
AcDbLine
 10
-58.46333615466062
 20
12.7777430000007
 30
0.0
 11
-58.46333615466071
 21
33.6557869208151
 31
0.0
  0
LINE
  5
DC
330
4E
100
AcDbEntity
  8
0
  6
Continuous
 62
     7
100
AcDbLine
 10
-56.5598885888819
 20
54.77774300000041
 30
0.0
 11
-57.58614070851812
 21
54.7777430000003
 31
0.0
  0
LINE
  5
DD
330
4E
100
AcDbEntity
  8
0
  6
Continuous
 62
     7
100
AcDbLine
 10
-57.58614070851812
 20
54.7777430000003
 30
0.0
 11
-58.46333615466051
 21
54.7777430000003
 31
0.0
  0
LINE
  5
DE
330
4E
100
AcDbEntity
  8
0
  6
Continuous
 62
     7
100
AcDbLine
 10
-56.5598885888819
 20
12.7777430000007
 30
0.0
 11
-57.58614070851812
 21
12.7777430000007
 31
0.0
  0
LINE
  5
DF
330
4E
100
AcDbEntity
  8
0
  6
Continuous
 62
     7
100
AcDbLine
 10
-57.58614070851812
 20
33.37785539845612
 30
0.0
 11
-57.58614070851812
 21
12.7777430000007
 31
0.0
  0
LINE
  5
E0
330
4E
100
AcDbEntity
  8
0
  6
Continuous
 62
     7
100
AcDbLine
 10
-56.5598885888819
 20
32.5010168129738
 30
0.0
 11
-56.5598885888819
 21
12.7777430000007
 31
0.0
  0
LINE
  5
E1
330
4E
100
AcDbEntity
  8
0
  6
Continuous
 62
     7
100
AcDbLine
 10
-55.89436580809891
 20
12.77774300000081
 30
0.0
 11
-56.5598885888819
 21
12.7777430000007
 31
0.0
  0
LINE
  5
E2
330
4E
100
AcDbEntity
  8
0
  6
Continuous
 62
     7
100
AcDbLine
 10
-57.58614070851812
 20
54.7777430000003
 30
0.0
 11
-57.58614070851812
 21
36.37785539845612
 31
0.0
  0
LINE
  5
E3
330
4E
100
AcDbEntity
  8
0
  6
Continuous
 62
     7
100
AcDbLine
 10
-61.97012789383592
 20
54.7777430000003
 30
0.0
 11
-62.59436580809341
 21
54.77774300000041
 31
0.0
  0
LINE
  5
E4
330
4E
100
AcDbEntity
  8
0
  6
Continuous
 62
     7
100
AcDbLine
 10
-57.58614070851812
 20
12.7777430000007
 30
0.0
 11
-58.46333615466062
 21
12.7777430000007
 31
0.0
  0
LINE
  5
E5
330
4E
100
AcDbEntity
  8
0
  6
Continuous
 62
     7
100
AcDbLine
 10
-58.46333615466062
 20
12.7777430000007
 30
0.0
 11
-60.9750457928252
 21
12.7777430000007
 31
0.0
  0
LINE
  5
E6
330
4E
100
AcDbEntity
  8
0
  6
Continuous
 62
     7
100
AcDbLine
 10
-55.19436580809881
 20
12.7777430000007
 30
0.0
 11
-55.89436580809891
 21
12.77774300000081
 31
0.0
  0
LINE
  5
E7
330
4E
100
AcDbEntity
  8
0
  6
Continuous
 62
     7
100
AcDbLine
 10
-56.5598885888819
 20
54.77774300000041
 30
0.0
 11
-56.55988858888202
 21
35.50101681297392
 31
0.0
  0
LINE
  5
E8
330
4E
100
AcDbEntity
  8
0
  6
Continuous
 62
     7
100
AcDbLine
 10
-55.89436580809343
 20
54.7777430000003
 30
0.0
 11
-56.5598885888819
 21
54.77774300000041
 31
0.0
  0
LINE
  5
E9
330
4E
100
AcDbEntity
  8
0
  6
Continuous
 62
     2
100
AcDbLine
 10
-55.89436580809343
 20
54.7777430000003
 30
0.0
 11
-55.89436580814211
 21
35.0536332476037
 31
0.0
  0
LINE
  5
EA
330
4E
100
AcDbEntity
  8
0
  6
Continuous
 62
     7
100
AcDbLine
 10
-55.19436580809341
 20
54.7777430000003
 30
0.0
 11
-55.89436580809343
 21
54.7777430000003
 31
0.0
  0
LINE
  5
EB
330
4E
100
AcDbEntity
  8
0
  6
Continuous
 62
     7
100
AcDbLine
 10
-55.19436580809852
 20
31.9177038815896
 30
0.0
 11
-55.19436580809881
 21
12.7777430000007
 31
0.0
  0
LINE
  5
EC
330
4E
100
AcDbEntity
  8
0
  6
Continuous
 62
     2
100
AcDbLine
 10
-55.89436580809851
 20
32.05363324758352
 30
0.0
 11
-55.89436580809891
 21
12.77774300000081
 31
0.0
  0
LINE
  5
ED
330
4E
100
AcDbEntity
  8
0
  6
Continuous
 62
     7
100
AcDbLine
 10
-55.19436580809341
 20
54.7777430000003
 30
0.0
 11
-55.19436580809381
 21
34.91770388159051
 31
0.0
  0
LINE
  5
EE
330
4E
100
AcDbEntity
  8
0
  6
Continuous
 62
     7
100
AcDbLine
 10
-65.19436580809892
 20
12.7777430000007
 30
0.0
 11
-64.4943658080989
 21
12.7777430000007
 31
0.0
  0
LINE
  5
EF
330
4E
100
AcDbEntity
  8
0
  6
Continuous
 62
     7
100
AcDbLine
 10
-62.5943658080935
 20
12.7777430000007
 30
0.0
 11
-62.802588764245
 21
12.77774300000081
 31
0.0
  0
LINE
  5
F0
330
4E
100
AcDbEntity
  8
0
  6
Continuous
 62
     7
100
AcDbLine
 10
-61.97012789383601
 20
12.7777430000007
 30
0.0
 11
-60.9750457928252
 21
12.7777430000007
 31
0.0
  0
LINE
  5
F1
330
4E
100
AcDbEntity
  8
0
  6
Continuous
 62
     7
100
AcDbLine
 10
-64.4943658080989
 20
12.7777430000007
 30
0.0
 11
-63.8288408838811
 21
12.7777430000007
 31
0.0
  0
LINE
  5
F2
330
4E
100
AcDbEntity
  8
0
  6
Continuous
 62
     7
100
AcDbLine
 10
-61.97012789383601
 20
12.7777430000007
 30
0.0
 11
-62.5943658080935
 21
12.7777430000007
 31
0.0
  0
SPLINE
  5
F3
330
4E
100
AcDbEntity
  8
0
  6
Continuous
 62
     2
100
AcDbSpline
210
0.0
220
0.0
230
1.0
 70
     8
 71
     3
 72
     9
 73
     5
 74
     3
 42
0.000000001
 43
0.0000000001
 44
0.00000001
 40
0.0
 40
0.0
 40
0.0
 40
0.0
 40
0.0979021516798135
 40
0.1990321192402699
 40
0.1990321192402699
 40
0.1990321192402699
 40
0.1990321192402699
 10
-56.40455562882491
 20
35.37659372820102
 30
0.0
 10
-56.43034707595413
 20
35.39659187716467
 30
0.0
 10
-56.48278029704832
 20
35.43724752605607
 30
0.0
 10
-56.53390943254522
 20
35.4795317961327
 30
0.0
 10
-56.55988858888202
 20
35.50101681297392
 30
0.0
 11
-56.40455562882491
 21
35.37659372820102
 31
0.0
 11
-56.4816144316451
 21
35.43698223896244
 31
0.0
 11
-56.55988858888202
 21
35.50101681297392
 31
0.0
  0
SPLINE
  5
F4
330
4E
100
AcDbEntity
  8
0
  6
Continuous
 62
     2
100
AcDbSpline
210
0.0
220
0.0
230
1.0
 70
     8
 71
     3
 72
    11
 73
     7
 74
     5
 42
0.000000001
 43
0.0000000001
 44
0.00000001
 40
0.0
 40
0.0
 40
0.0
 40
0.0
 40
0.0028099230389976
 40
0.0056198461034861
 40
0.0139055862682851
 40
0.0221743760713754
 40
0.0221743760713754
 40
0.0221743760713754
 40
0.0221743760713754
 10
-60.65430919496032
 20
35.3946326459276
 30
0.0
 10
-60.65512525937142
 20
35.39417293339172
 30
0.0
 10
-60.65675739532782
 20
35.39325352097579
 30
0.0
 10
-60.66079951026269
 20
35.39098496505206
 30
0.0
 10
-60.66643507927444
 20
35.38783768922499
 30
0.0
 10
-60.67126557043585
 20
35.38516997540653
 30
0.0
 10
-60.67367834699112
 20
35.38383749141201
 30
0.0
 11
-60.65430919496032
 21
35.3946326459276
 31
0.0
 11
-60.65675775461146
 21
35.39325416008043
 31
0.0
 11
-60.6592080240394
 21
35.39187871562049
 31
0.0
 11
-60.66644318499278
 21
35.38784065461655
 31
0.0
 11
-60.67367834699112
 21
35.38383749141201
 31
0.0
  0
SPLINE
  5
F5
330
4E
100
AcDbEntity
  8
0
  6
Continuous
 62
     2
100
AcDbSpline
210
0.0
220
0.0
230
1.0
 70
     8
 71
     3
 72
     9
 73
     5
 74
     3
 42
0.000000001
 43
0.0000000001
 44
0.00000001
 40
0.0
 40
0.0
 40
0.0
 40
0.0
 40
0.1861744738945655
 40
0.3564486541171535
 40
0.3564486541171535
 40
0.3564486541171535
 40
0.3564486541171535
 10
-55.89436580809851
 20
32.05363324758352
 30
0.0
 10
-55.83784009319204
 20
32.02770283059107
 30
0.0
 10
-55.72961625388762
 20
31.97805661123812
 30
0.0
 10
-55.61457634218098
 20
31.94744802825431
 30
0.0
 10
-55.55962220648681
 20
31.93282643247221
 30
0.0
 11
-55.89436580809851
 21
32.05363324758352
 31
0.0
 11
-55.72292922632589
 21
31.98103549712754
 31
0.0
 11
-55.55962220648681
 21
31.93282643247221
 31
0.0
  0
SPLINE
  5
F6
330
4E
100
AcDbEntity
  8
0
  6
Continuous
 62
     2
100
AcDbSpline
210
0.0
220
0.0
230
1.0
 70
     8
 71
     3
 72
    11
 73
     7
 74
     5
 42
0.000000001
 43
0.0000000001
 44
0.00000001
 40
0.0
 40
0.0
 40
0.0
 40
0.0
 40
0.0083208298662897
 40
0.0165545301489079
 40
0.0193644531973532
 40
0.0221743762443111
 40
0.0221743762443111
 40
0.0221743762443111
 40
0.0221743762443111
 10
-60.67367834715091
 20
32.38383749132402
 30
0.0
 10
-60.67125039330777
 20
32.38517837532752
 30
0.0
 10
-60.66641991728348
 20
32.38784611688299
 30
0.0
 10
-60.66078438346759
 20
32.3909934553578
 30
0.0
 10
-60.65675739529399
 20
32.3932535208999
 30
0.0
 10
-60.65512525936249
 20
32.3941729333541
 30
0.0
 10
-60.65430919496041
 20
32.3946326459112
 30
0.0
 11
-60.67367834715091
 21
32.38383749132402
 31
0.0
 11
-60.66639769704476
 21
32.38786593316573
 31
0.0
 11
-60.65920802403952
 21
32.39187871562021
 31
0.0
 11
-60.65675775462491
 21
32.39325416007122
 31
0.0
 11
-60.65430919496041
 21
32.3946326459112
 31
0.0
  0
SPLINE
  5
F7
330
4E
100
AcDbEntity
  8
0
  6
Continuous
 62
     2
100
AcDbSpline
210
0.0
220
0.0
230
1.0
 70
     8
 71
     3
 72
     9
 73
     5
 74
     3
 42
0.000000001
 43
0.0000000001
 44
0.00000001
 40
0.0
 40
0.0
 40
0.0
 40
0.0
 40
0.2124410698200255
 40
0.4071678302713918
 40
0.4071678302713918
 40
0.4071678302713918
 40
0.4071678302713918
 10
-56.24481314435442
 20
32.2603550290639
 30
0.0
 10
-56.18587728590511
 20
32.22097674241185
 30
0.0
 10
-56.07291990037069
 20
32.1455037280741
 30
0.0
 10
-55.95213217183437
 20
32.08335545795528
 30
0.0
 10
-55.89436580809851
 20
32.05363324758352
 30
0.0
 11
-56.24481314435442
 21
32.2603550290639
 31
0.0
 11
-56.06587393805799
 21
32.14584752381836
 31
0.0
 11
-55.89436580809851
 21
32.05363324758352
 31
0.0
  0
SPLINE
  5
F8
330
4E
100
AcDbEntity
  8
0
  6
Continuous
 62
     2
100
AcDbSpline
210
0.0
220
0.0
230
1.0
 70
     8
 71
     3
 72
     9
 73
     5
 74
     3
 42
0.000000001
 43
0.0000000001
 44
0.00000001
 40
0.0
 40
0.0
 40
0.0
 40
0.0
 40
0.4449375823275711
 40
0.9282727309362946
 40
0.9282727309362946
 40
0.9282727309362946
 40
0.9282727309362946
 10
-58.46333615466071
 20
33.6557869208151
 30
0.0
 10
-58.31435339668639
 20
33.63979537963876
 30
0.0
 10
-58.00353085639777
 20
33.60643222772264
 30
0.0
 10
-57.72905527332014
 20
33.45612020999143
 30
0.0
 10
-57.58614070851812
 20
33.37785539845612
 30
0.0
 11
-58.46333615466071
 21
33.6557869208151
 31
0.0
 11
-58.02473843158941
 21
33.58094381386336
 31
0.0
 11
-57.58614070851812
 21
33.37785539845612
 31
0.0
  0
SPLINE
  5
F9
330
4E
100
AcDbEntity
  8
0
  6
Continuous
 62
     2
100
AcDbSpline
210
0.0
220
0.0
230
1.0
 70
     8
 71
     3
 72
    13
 73
     9
 74
     7
 42
0.000000001
 43
0.0000000001
 44
0.00000001
 40
0.0
 40
0.0
 40
0.0
 40
0.0
 40
0.1754189075446641
 40
0.3590968443741113
 40
0.5517447527806216
 40
0.7539789964148982
 40
0.7579629718144066
 40
0.7619432034650697
 40
0.7619432034650697
 40
0.7619432034650697
 40
0.7619432034650697
 10
-57.58614070851812
 20
33.37785539845612
 30
0.0
 10
-57.53683913266938
 20
33.34637508195809
 30
0.0
 10
-57.43591478611527
 20
33.28193228665189
 30
0.0
 10
-57.289664724925
 20
33.17009409258897
 30
0.0
 10
-57.14294088542215
 20
33.04483722400985
 30
0.0
 10
-57.04672420509087
 20
32.95296661655834
 30
0.0
 10
-56.99718357262196
 20
32.90341900284437
 30
0.0
 10
-56.9953047651883
 20
32.90154344628357
 30
0.0
 10
-56.99436580810982
 20
32.9006061037679
 30
0.0
 11
-57.58614070851812
 21
33.37785539845612
 31
0.0
 11
-57.43960553138922
 21
33.28142285697833
 31
0.0
 11
-57.29307035426032
 21
33.17067527674308
 31
0.0
 11
-57.1465351771314
 21
33.04561265775037
 31
0.0
 11
-57.00000000000249
 21
32.90623500000019
 31
0.0
 11
-56.99718224209862
 21
32.90341856601142
 31
0.0
 11
-56.99436580810982
 21
32.9006061037679
 31
0.0
  0
SPLINE
  5
FA
330
4E
100
AcDbEntity
  8
0
  6
Continuous
 62
     2
100
AcDbSpline
210
0.0
220
0.0
230
1.0
 70
     8
 71
     3
 72
    11
 73
     7
 74
     5
 42
0.000000001
 43
0.0000000001
 44
0.00000001
 40
0.0
 40
0.0
 40
0.0
 40
0.0
 40
0.0615222264685959
 40
0.1221546694908497
 40
0.1819249250090192
 40
0.2409181395440805
 40
0.2409181395440805
 40
0.2409181395440805
 40
0.2409181395440805
 10
-60.67367834699112
 20
35.38383749141201
 30
0.0
 10
-60.69171912108142
 20
35.3740830441206
 30
0.0
 10
-60.7275397562165
 20
35.35471523933455
 30
0.0
 10
-60.78191146477754
 20
35.32783768849148
 30
0.0
 10
-60.83618128624388
 20
35.30269581036069
 30
0.0
 10
-60.87272849571668
 20
35.28747185792329
 30
0.0
 10
-60.89088254355781
 20
35.27990969191541
 30
0.0
 11
-60.67367834699112
 21
35.38383749141201
 31
0.0
 11
-60.72797508530425
 21
35.35490915630518
 31
0.0
 11
-60.78228044527452
 21
35.3279421197465
 31
0.0
 11
-60.8365732732534
 21
35.30294667392187
 31
0.0
 11
-60.89088254355781
 21
35.27990969191541
 31
0.0
  0
SPLINE
  5
FB
330
4E
100
AcDbEntity
  8
0
  6
Continuous
 62
     2
100
AcDbSpline
210
0.0
220
0.0
230
1.0
 70
     8
 71
     3
 72
     9
 73
     5
 74
     3
 42
0.000000001
 43
0.0000000001
 44
0.00000001
 40
0.0
 40
0.0
 40
0.0
 40
0.0
 40
0.4833351486087594
 40
0.9282727309363352
 40
0.9282727309363352
 40
0.9282727309363352
 40
0.9282727309363352
 10
-57.58614070851812
 20
36.37785539845612
 30
0.0
 10
-57.72905527332014
 20
36.45612020999146
 30
0.0
 10
-58.00353085639777
 20
36.60643222772273
 30
0.0
 10
-58.31435339668639
 20
36.63979537963887
 30
0.0
 10
-58.46333615466071
 20
36.65578692081522
 30
0.0
 11
-57.58614070851812
 21
36.37785539845612
 31
0.0
 11
-58.02473843158941
 21
36.58094381386344
 31
0.0
 11
-58.46333615466071
 21
36.65578692081522
 31
0.0
  0
SPLINE
  5
FC
330
4E
100
AcDbEntity
  8
0
  6
Continuous
 62
     2
100
AcDbSpline
210
0.0
220
0.0
230
1.0
 70
     8
 71
     3
 72
     9
 73
     5
 74
     3
 42
0.000000001
 43
0.0000000001
 44
0.00000001
 40
0.0
 40
0.0
 40
0.0
 40
0.0
 40
0.0637092254226659
 40
0.1280867653786018
 40
0.1280867653786018
 40
0.1280867653786018
 40
0.1280867653786018
 10
-61.84656153414801
 20
35.19626996565
 30
0.0
 10
-61.86720909700011
 20
35.20125685567746
 30
0.0
 10
-61.90872081211798
 20
35.21128296792377
 30
0.0
 10
-61.94958779160632
 20
35.22367836595108
 30
0.0
 10
-61.97012789383601
 20
35.229908412187
 30
0.0
 11
-61.84656153414801
 21
35.19626996565
 31
0.0
 11
-61.90834471400716
 21
35.21181680181929
 31
0.0
 11
-61.97012789383601
 21
35.229908412187
 31
0.0
  0
SPLINE
  5
FD
330
4E
100
AcDbEntity
  8
0
  6
Continuous
 62
     2
100
AcDbSpline
210
0.0
220
0.0
230
1.0
 70
     8
 71
     3
 72
     9
 73
     5
 74
     3
 42
0.000000001
 43
0.0000000001
 44
0.00000001
 40
0.0
 40
0.0
 40
0.0
 40
0.0
 40
0.244837982859423
 40
0.5056854931201265
 40
0.5056854931201265
 40
0.5056854931201265
 40
0.5056854931201265
 10
-63.8288408838811
 20
33.5060834802826
 30
0.0
 10
-63.75535246688437
 20
33.47026335016809
 30
0.0
 10
-63.60357036351141
 20
33.39628085680856
 30
0.0
 10
-63.46555711286029
 20
33.29896021448854
 30
0.0
 10
-63.39436580809351
 20
33.2487593445608
 30
0.0
 11
-63.8288408838811
 21
33.5060834802826
 31
0.0
 11
-63.61160334598731
 21
33.3931521283784
 31
0.0
 11
-63.39436580809351
 21
33.2487593445608
 31
0.0
  0
SPLINE
  5
FE
330
4E
100
AcDbEntity
  8
0
  6
Continuous
 62
     2
100
AcDbSpline
210
0.0
220
0.0
230
1.0
 70
     8
 71
     3
 72
    11
 73
     7
 74
     5
 42
0.000000001
 43
0.0000000001
 44
0.00000001
 40
0.0
 40
0.0
 40
0.0
 40
0.0
 40
0.1328803309794837
 40
0.2701939570939476
 40
0.5400439913788162
 40
0.7929086968953865
 40
0.7929086968953865
 40
0.7929086968953865
 40
0.7929086968953865
 10
-62.80258876424492
 20
35.72181416291051
 30
0.0
 10
-62.8357630225787
 20
35.75117939119406
 30
0.0
 10
-62.90321831967971
 20
35.81088957750793
 30
0.0
 10
-63.03129024107143
 20
35.93739976558871
 30
0.0
 10
-63.18982473348035
 20
36.09035091399363
 30
0.0
 10
-63.32767861025308
 20
36.19711292775845
 30
0.0
 10
-63.39436580809343
 20
36.2487593445608
 30
0.0
 11
-62.80258876424492
 21
35.72181416291051
 31
0.0
 11
-62.9012943821237
 21
35.81077698178846
 31
0.0
 11
-63.00000000000245
 21
35.90623500000029
 31
0.0
 11
-63.19718290404793
 21
36.09045753816318
 31
0.0
 11
-63.39436580809343
 21
36.2487593445608
 31
0.0
  0
SPLINE
  5
FF
330
4E
100
AcDbEntity
  8
0
  6
Continuous
 62
     2
100
AcDbSpline
210
0.0
220
0.0
230
1.0
 70
     8
 71
     3
 72
     9
 73
     5
 74
     3
 42
0.000000001
 43
0.0000000001
 44
0.00000001
 40
0.0
 40
0.0
 40
0.0
 40
0.0
 40
0.044782710076678
 40
0.0899828425678458
 40
0.0899828425678458
 40
0.0899828425678458
 40
0.0899828425678458
 10
-60.97504579282531
 20
32.24809397321121
 30
0.0
 10
-60.96098634963082
 20
32.25311454328384
 30
0.0
 10
-60.9327364212552
 20
32.26320249922344
 30
0.0
 10
-60.90487691297945
 20
32.27432342510578
 30
0.0
 10
-60.89088254355792
 20
32.27990969191541
 30
0.0
 11
-60.97504579282531
 21
32.24809397321121
 31
0.0
 11
-60.93296416819161
 21
32.2634115448527
 31
0.0
 11
-60.89088254355792
 21
32.27990969191541
 31
0.0
  0
SPLINE
  5
100
330
4E
100
AcDbEntity
  8
0
  6
Continuous
 62
     2
100
AcDbSpline
210
0.0
220
0.0
230
1.0
 70
     8
 71
     3
 72
     9
 73
     5
 74
     3
 42
0.000000001
 43
0.0000000001
 44
0.00000001
 40
0.0
 40
0.0
 40
0.0
 40
0.0
 40
0.0643734287812504
 40
0.1280867653627814
 40
0.1280867653627814
 40
0.1280867653627814
 40
0.1280867653627814
 10
-61.97012789383601
 20
32.229908412187
 30
0.0
 10
-61.94958910739293
 20
32.22367875166029
 30
0.0
 10
-61.908722136043
 20
32.21128332947103
 30
0.0
 10
-61.86721042657857
 20
32.20125719068419
 30
0.0
 10
-61.84656153414801
 20
32.19626996565
 30
0.0
 11
-61.97012789383601
 21
32.229908412187
 31
0.0
 11
-61.90834868154077
 21
32.21181788190414
 31
0.0
 11
-61.84656153414801
 21
32.19626996565
 31
0.0
  0
SPLINE
  5
101
330
4E
100
AcDbEntity
  8
0
  6
Continuous
 62
     2
100
AcDbSpline
210
0.0
220
0.0
230
1.0
 70
     8
 71
     3
 72
    11
 73
     7
 74
     5
 42
0.000000001
 43
0.0000000001
 44
0.00000001
 40
0.0
 40
0.0
 40
0.0
 40
0.0
 40
0.1868723028579212
 40
0.3713848058606344
 40
0.3925819013001897
 40
0.4137872034267247
 40
0.4137872034267247
 40
0.4137872034267247
 40
0.4137872034267247
 10
-61.84656153414801
 20
32.19626996565
 30
0.0
 10
-61.78536984913505
 20
32.18424467159511
 30
0.0
 10
-61.663759197711
 20
32.16034595761412
 30
0.0
 10
-61.53242932495846
 20
32.15522216785965
 30
0.0
 10
-61.4568138106233
 20
32.15679277897054
 30
0.0
 10
-61.44268971622247
 20
32.15734176900097
 30
0.0
 10
-61.43562630246842
 20
32.15761632431162
 30
0.0
 11
-61.84656153414801
 21
32.19626996565
 31
0.0
 11
-61.66232105592416
 21
32.16501770839801
 31
0.0
 11
-61.47801008603361
 21
32.15639618543912
 31
0.0
 11
-61.4568179901684
 21
32.15685656199136
 31
0.0
 11
-61.43562630246842
 21
32.15761632431162
 31
0.0
  0
SPLINE
  5
102
330
4E
100
AcDbEntity
  8
0
  6
Continuous
 62
     2
100
AcDbSpline
210
0.0
220
0.0
230
1.0
 70
     8
 71
     3
 72
     9
 73
     5
 74
     3
 42
0.000000001
 43
0.0000000001
 44
0.00000001
 40
0.0
 40
0.0
 40
0.0
 40
0.0
 40
0.1187498622480935
 40
0.2408920262633139
 40
0.2408920262633139
 40
0.2408920262633139
 40
0.2408920262633139
 10
-60.89088254355792
 20
32.27990969191541
 30
0.0
 10
-60.85443402985631
 20
32.2954020283616
 30
0.0
 10
-60.78049579394963
 20
32.32682928565946
 30
0.0
 10
-60.70961687132213
 20
32.36465718274587
 30
0.0
 10
-60.67367834715091
 20
32.38383749132402
 30
0.0
 11
-60.89088254355792
 21
32.27990969191541
 31
0.0
 11
-60.78228044535442
 21
32.32794211970831
 31
0.0
 11
-60.67367834715091
 21
32.38383749132402
 31
0.0
  0
SPLINE
  5
103
330
4E
100
AcDbEntity
  8
0
  6
Continuous
 62
     2
100
AcDbSpline
210
0.0
220
0.0
230
1.0
 70
     8
 71
     3
 72
     9
 73
     5
 74
     3
 42
0.000000001
 43
0.0000000001
 44
0.00000001
 40
0.0
 40
0.0
 40
0.0
 40
0.0
 40
0.2319581346327791
 40
0.4706638293300239
 40
0.4706638293300239
 40
0.4706638293300239
 40
0.4706638293300239
 10
-61.43562630246842
 20
32.15761632431162
 30
0.0
 10
-61.35831624428495
 20
32.16404766658717
 30
0.0
 10
-61.20144721541747
 20
32.1770974557267
 30
0.0
 10
-61.05123077956633
 20
32.22420335332767
 30
0.0
 10
-60.97504579282531
 20
32.24809397321121
 30
0.0
 11
-61.43562630246842
 21
32.15761632431162
 31
0.0
 11
-61.20531193244831
 21
32.18518201905313
 31
0.0
 11
-60.97504579282531
 21
32.24809397321121
 31
0.0
  0
SPLINE
  5
104
330
4E
100
AcDbEntity
  8
0
  6
Continuous
 62
     2
100
AcDbSpline
210
0.0
220
0.0
230
1.0
 70
     8
 71
     3
 72
     9
 73
     5
 74
     3
 42
0.000000001
 43
0.0000000001
 44
0.00000001
 40
0.0
 40
0.0
 40
0.0
 40
0.0
 40
0.0452001324912129
 40
0.0899828425678157
 40
0.0899828425678157
 40
0.0899828425678157
 40
0.0899828425678157
 10
-60.89088254355781
 20
35.27990969191541
 30
0.0
 10
-60.90487691297936
 20
35.27432342510578
 30
0.0
 10
-60.93273642125509
 20
35.26320249922347
 30
0.0
 10
-60.96098634963073
 20
35.25311454328391
 30
0.0
 10
-60.9750457928252
 20
35.2480939732113
 30
0.0
 11
-60.89088254355781
 21
35.27990969191541
 31
0.0
 11
-60.93296416819155
 21
35.26341154485272
 31
0.0
 11
-60.9750457928252
 21
35.2480939732113
 31
0.0
  0
SPLINE
  5
105
330
4E
100
AcDbEntity
  8
0
  6
Continuous
 62
     2
100
AcDbSpline
210
0.0
220
0.0
230
1.0
 70
     8
 71
     3
 72
    11
 73
     7
 74
     5
 42
0.000000001
 43
0.0000000001
 44
0.00000001
 40
0.0
 40
0.0
 40
0.0
 40
0.0
 40
0.0213044683777598
 40
0.0426002610301335
 40
0.2269791988027803
 40
0.4137875679561118
 40
0.4137875679561118
 40
0.4137875679561118
 40
0.4137875679561118
 10
-61.43562630246842
 20
35.1576163243117
 30
0.0
 10
-61.44272275522116
 20
35.1573406188296
 30
0.0
 10
-61.45691277138087
 20
35.15678933447503
 30
0.0
 10
-61.5325498721344
 20
35.15522610751811
 30
0.0
 10
-61.66384533836565
 20
35.16036056732375
 30
0.0
 10
-61.78539096313767
 20
35.18424804469316
 30
0.0
 10
-61.84656153414801
 20
35.19626996565
 30
0.0
 11
-61.43562630246842
 21
35.1576163243117
 31
0.0
 11
-61.45691711792632
 21
35.15685371156516
 31
0.0
 11
-61.4782079333836
 21
35.1563932980433
 31
0.0
 11
-61.66238473383699
 21
35.16502460059108
 31
0.0
 11
-61.84656153414801
 21
35.19626996565
 31
0.0
  0
SPLINE
  5
106
330
4E
100
AcDbEntity
  8
0
  6
Continuous
 62
     2
100
AcDbSpline
210
0.0
220
0.0
230
1.0
 70
     8
 71
     3
 72
     9
 73
     5
 74
     3
 42
0.000000001
 43
0.0000000001
 44
0.00000001
 40
0.0
 40
0.0
 40
0.0
 40
0.0
 40
0.2387302058317816
 40
0.4706638332124024
 40
0.4706638332124024
 40
0.4706638332124024
 40
0.4706638332124024
 10
-60.9750457928252
 20
35.2480939732113
 30
0.0
 10
-61.05123872159043
 20
35.22420116132969
 30
0.0
 10
-61.2014553934574
 20
35.17709577825315
 30
0.0
 10
-61.35832441609305
 20
35.16404665761473
 30
0.0
 10
-61.43562630246842
 20
35.1576163243117
 30
0.0
 11
-60.9750457928252
 21
35.2480939732113
 31
0.0
 11
-61.20533604760648
 21
35.18517728161623
 31
0.0
 11
-61.43562630246842
 21
35.1576163243117
 31
0.0
  0
SPLINE
  5
107
330
4E
100
AcDbEntity
  8
0
  6
Continuous
 62
     2
100
AcDbSpline
210
0.0
220
0.0
230
1.0
 70
     8
 71
     3
 72
    11
 73
     7
 74
     5
 42
0.000000001
 43
0.0000000001
 44
0.00000001
 40
0.0
 40
0.0
 40
0.0
 40
0.0
 40
0.7886806830144875
 40
1.746285949370683
 40
2.184451995687888
 40
2.578767752210377
 40
2.578767752210377
 40
2.578767752210377
 40
2.578767752210377
 10
-58.46333615466071
 20
36.65578692081522
 30
0.0
 10
-58.72893208322587
 20
36.61861248827994
 30
0.0
 10
-59.31701094502463
 20
36.5363013590823
 30
0.0
 10
-59.87813370246693
 20
36.02566450508722
 30
0.0
 10
-60.30645090005058
 20
35.612648507128
 30
0.0
 10
-60.54250100798779
 20
35.46470703018935
 30
0.0
 10
-60.65430919496032
 20
35.3946326459276
 30
0.0
 11
-58.46333615466071
 21
36.65578692081522
 31
0.0
 11
-59.23166807733161
 21
36.47778894153948
 31
0.0
 11
-60.00000000000247
 21
35.90623500000029
 31
0.0
 11
-60.3271545974726
 21
35.61475711275143
 31
0.0
 11
-60.65430919496032
 21
35.3946326459276
 31
0.0
  0
SPLINE
  5
108
330
4E
100
AcDbEntity
  8
0
  6
Continuous
 62
     2
100
AcDbSpline
210
0.0
220
0.0
230
1.0
 70
     8
 71
     3
 72
     9
 73
     5
 74
     3
 42
0.000000001
 43
0.0000000001
 44
0.00000001
 40
0.0
 40
0.0
 40
0.0
 40
0.0
 40
0.2834472432918595
 40
0.5904338268468576
 40
0.5904338268468576
 40
0.5904338268468576
 40
0.5904338268468576
 10
-56.55988858888202
 20
35.50101681297392
 30
0.0
 10
-56.63156120002446
 20
35.56262165123311
 30
0.0
 10
-56.78085857824979
 20
35.69094741728939
 30
0.0
 10
-56.92132997105266
 20
35.828886753925
 30
0.0
 10
-56.99436580809351
 20
35.90060610375161
 30
0.0
 11
-56.55988858888202
 21
35.50101681297392
 31
0.0
 11
-56.77287234940374
 21
35.68804691111078
 31
0.0
 11
-56.99436580809351
 21
35.90060610375161
 31
0.0
  0
SPLINE
  5
109
330
4E
100
AcDbEntity
  8
0
  6
Continuous
 62
     2
100
AcDbSpline
210
0.0
220
0.0
230
1.0
 70
     8
 71
     3
 72
     9
 73
     5
 74
     3
 42
0.000000001
 43
0.0000000001
 44
0.00000001
 40
0.0
 40
0.0
 40
0.0
 40
0.0
 40
0.1011299675603349
 40
0.1990321192401014
 40
0.1990321192401014
 40
0.1990321192401014
 40
0.1990321192401014
 10
-56.5598885888819
 20
32.5010168129738
 30
0.0
 10
-56.53390943254516
 20
32.47953179613259
 30
0.0
 10
-56.48278029704834
 20
32.43724752605594
 30
0.0
 10
-56.43034707595413
 20
32.39659187716464
 30
0.0
 10
-56.40455562882491
 20
32.37659372820102
 30
0.0
 11
-56.5598885888819
 21
32.5010168129738
 31
0.0
 11
-56.48161443164511
 21
32.43698223896236
 31
0.0
 11
-56.40455562882491
 21
32.37659372820102
 31
0.0
  0
SPLINE
  5
10A
330
4E
100
AcDbEntity
  8
0
  6
Continuous
 62
     2
100
AcDbSpline
210
0.0
220
0.0
230
1.0
 70
     8
 71
     3
 72
     9
 73
     5
 74
     3
 42
0.000000001
 43
0.0000000001
 44
0.00000001
 40
0.0
 40
0.0
 40
0.0
 40
0.0
 40
0.100553048024924
 40
0.1975739305400631
 40
0.1975739305400631
 40
0.1975739305400631
 40
0.1975739305400631
 10
-56.40455562882491
 20
32.37659372820102
 30
0.0
 10
-56.37783123999885
 20
32.35635821608428
 30
0.0
 10
-56.32532120834447
 20
32.31659802855575
 30
0.0
 10
-56.27132740802401
 20
32.27887790736021
 30
0.0
 10
-56.24481314435442
 20
32.2603550290639
 30
0.0
 11
-56.40455562882491
 21
32.37659372820102
 31
0.0
 11
-56.32399813224905
 21
32.31641561558348
 31
0.0
 11
-56.24481314435442
 21
32.2603550290639
 31
0.0
  0
SPLINE
  5
10B
330
4E
100
AcDbEntity
  8
0
  6
Continuous
 62
     2
100
AcDbSpline
210
0.0
220
0.0
230
1.0
 70
     8
 71
     3
 72
     9
 73
     5
 74
     3
 42
0.000000001
 43
0.0000000001
 44
0.00000001
 40
0.0
 40
0.0
 40
0.0
 40
0.0
 40
0.306986583567377
 40
0.5904338268700687
 40
0.5904338268700687
 40
0.5904338268700687
 40
0.5904338268700687
 10
-56.99436580810982
 20
32.9006061037679
 30
0.0
 10
-56.92132997106621
 20
32.82888675393821
 30
0.0
 10
-56.78085857825816
 20
32.69094741729684
 30
0.0
 10
-56.63156120002704
 20
32.5626216512354
 30
0.0
 10
-56.5598885888819
 20
32.5010168129738
 30
0.0
 11
-56.99436580810982
 21
32.9006061037679
 31
0.0
 11
-56.77287234941158
 21
32.68804691111801
 31
0.0
 11
-56.5598885888819
 21
32.5010168129738
 31
0.0
  0
SPLINE
  5
10C
330
4E
100
AcDbEntity
  8
0
  6
Continuous
 62
     2
100
AcDbSpline
210
0.0
220
0.0
230
1.0
 70
     8
 71
     3
 72
    13
 73
     9
 74
     7
 42
0.000000001
 43
0.0000000001
 44
0.00000001
 40
0.0
 40
0.0
 40
0.0
 40
0.0
 40
0.0039802316621585
 40
0.0079642070732379
 40
0.210198450707501
 40
0.4028463591140046
 40
0.5865242959434602
 40
0.7619432034881264
 40
0.7619432034881264
 40
0.7619432034881264
 40
0.7619432034881264
 10
-56.99436580809351
 20
35.90060610375161
 30
0.0
 10
-56.99530476517468
 20
35.90154344627001
 30
0.0
 10
-56.99718357261376
 20
35.90341900283632
 30
0.0
 10
-57.04672420508704
 20
35.9529666165556
 30
0.0
 10
-57.14294088542253
 20
36.04483722400998
 30
0.0
 10
-57.28966472492488
 20
36.17009409258898
 30
0.0
 10
-57.43591478611529
 20
36.28193228665189
 30
0.0
 10
-57.53683913266937
 20
36.3463750819581
 30
0.0
 10
-57.58614070851812
 20
36.37785539845612
 30
0.0
 11
-56.99436580809351
 21
35.90060610375161
 31
0.0
 11
-56.99718224209038
 21
35.90341856600333
 31
0.0
 11
-57.0000000000024
 21
35.90623500000031
 31
0.0
 11
-57.14653517713135
 21
36.04561265775043
 31
0.0
 11
-57.29307035426029
 21
36.1706752767431
 31
0.0
 11
-57.43960553138921
 21
36.28142285697834
 31
0.0
 11
-57.58614070851812
 21
36.37785539845612
 31
0.0
  0
SPLINE
  5
10D
330
4E
100
AcDbEntity
  8
0
  6
Continuous
 62
     2
100
AcDbSpline
210
0.0
220
0.0
230
1.0
 70
     8
 71
     3
 72
     9
 73
     5
 74
     3
 42
0.000000001
 43
0.0000000001
 44
0.00000001
 40
0.0
 40
0.0
 40
0.0
 40
0.0
 40
0.3510990527518045
 40
0.6860424137986775
 40
0.6860424137986775
 40
0.6860424137986775
 40
0.6860424137986775
 10
-63.8288408838811
 20
36.5060834802826
 30
0.0
 10
-63.93839266484072
 20
36.54954998273745
 30
0.0
 10
-64.1524552477774
 20
36.6344828736822
 30
0.0
 10
-64.38219904127239
 20
36.64909192004827
 30
0.0
 10
-64.4943658080937
 20
36.6562244186274
 30
0.0
 11
-63.8288408838811
 21
36.5060834802826
 31
0.0
 11
-64.1616033459874
 21
36.61806423485071
 31
0.0
 11
-64.4943658080937
 21
36.6562244186274
 31
0.0
  0
SPLINE
  5
10E
330
4E
100
AcDbEntity
  8
0
  6
Continuous
 62
     2
100
AcDbSpline
210
0.0
220
0.0
230
1.0
 70
     8
 71
     3
 72
     9
 73
     5
 74
     3
 42
0.000000001
 43
0.0000000001
 44
0.00000001
 40
0.0
 40
0.0
 40
0.0
 40
0.0
 40
0.1310368375657472
 40
0.2665832975966587
 40
0.2665832975966587
 40
0.2665832975966587
 40
0.2665832975966587
 10
-62.5943658080935
 20
35.55544717397322
 30
0.0
 10
-62.62935339971961
 20
35.58161523099032
 30
0.0
 10
-62.70053266588203
 20
35.63485193241358
 30
0.0
 10
-62.76818857156473
 20
35.69250167265693
 30
0.0
 10
-62.80258876424492
 20
35.72181416291051
 30
0.0
 11
-62.5943658080935
 21
35.55544717397322
 31
0.0
 11
-62.69847728616921
 21
35.63501760181949
 31
0.0
 11
-62.80258876424492
 21
35.72181416291051
 31
0.0
  0
SPLINE
  5
10F
330
4E
100
AcDbEntity
  8
0
  6
Continuous
 62
     2
100
AcDbSpline
210
0.0
220
0.0
230
1.0
 70
     8
 71
     3
 72
     9
 73
     5
 74
     3
 42
0.000000001
 43
0.0000000001
 44
0.00000001
 40
0.0
 40
0.0
 40
0.0
 40
0.0
 40
0.370386135679915
 40
0.722610106994637
 40
0.722610106994637
 40
0.722610106994637
 40
0.722610106994637
 10
-65.19436580809852
 20
33.49552037484932
 30
0.0
 10
-65.07924089964779
 20
33.5427180195643
 30
0.0
 10
-64.85463631434158
 20
33.63479891773092
 30
0.0
 10
-64.61242673690731
 20
33.64920327156453
 30
0.0
 10
-64.49436580809851
 20
33.6562244186274
 30
0.0
 11
-65.19436580809852
 21
33.49552037484932
 31
0.0
 11
-64.8443658080985
 21
33.61670573007169
 31
0.0
 11
-64.49436580809851
 21
33.6562244186274
 31
0.0
  0
SPLINE
  5
110
330
4E
100
AcDbEntity
  8
0
  6
Continuous
 62
     2
100
AcDbSpline
210
0.0
220
0.0
230
1.0
 70
     8
 71
     3
 72
     9
 73
     5
 74
     3
 42
0.000000001
 43
0.0000000001
 44
0.00000001
 40
0.0
 40
0.0
 40
0.0
 40
0.0
 40
0.3349433610491881
 40
0.686042413803441
 40
0.686042413803441
 40
0.686042413803441
 40
0.686042413803441
 10
-64.49436580809851
 20
33.6562244186274
 30
0.0
 10
-64.38219904127642
 20
33.64909192004853
 30
0.0
 10
-64.15245524777973
 20
33.63448287368294
 30
0.0
 10
-63.93839266484152
 20
33.54954998273769
 30
0.0
 10
-63.8288408838811
 20
33.5060834802826
 30
0.0
 11
-64.49436580809851
 21
33.6562244186274
 31
0.0
 11
-64.16160334598982
 21
33.6180642348512
 31
0.0
 11
-63.8288408838811
 21
33.5060834802826
 31
0.0
  0
SPLINE
  5
111
330
4E
100
AcDbEntity
  8
0
  6
Continuous
 62
     2
100
AcDbSpline
210
0.0
220
0.0
230
1.0
 70
     8
 71
     3
 72
     9
 73
     5
 74
     3
 42
0.000000001
 43
0.0000000001
 44
0.00000001
 40
0.0
 40
0.0
 40
0.0
 40
0.0
 40
0.1355464600309597
 40
0.2665832975967324
 40
0.2665832975967324
 40
0.2665832975967324
 40
0.2665832975967324
 10
-62.802588764245
 20
32.72181416291042
 30
0.0
 10
-62.76818857156479
 20
32.69250167265683
 30
0.0
 10
-62.70053266588204
 20
32.63485193241348
 30
0.0
 10
-62.62935339971961
 20
32.58161523099022
 30
0.0
 10
-62.5943658080935
 20
32.55544717397311
 30
0.0
 11
-62.802588764245
 21
32.72181416291042
 31
0.0
 11
-62.69847728616923
 21
32.63501760181939
 31
0.0
 11
-62.5943658080935
 21
32.55544717397311
 31
0.0
  0
SPLINE
  5
112
330
4E
100
AcDbEntity
  8
0
  6
Continuous
 62
     2
100
AcDbSpline
210
0.0
220
0.0
230
1.0
 70
     8
 71
     3
 72
    11
 73
     7
 74
     5
 42
0.000000001
 43
0.0000000001
 44
0.00000001
 40
0.0
 40
0.0
 40
0.0
 40
0.0
 40
0.1885241987289482
 40
0.3684118803705587
 40
0.5407993256491859
 40
0.7069676769482285
 40
0.7069676769482285
 40
0.7069676769482285
 40
0.7069676769482285
 10
-62.5943658080935
 20
32.55544717397311
 30
0.0
 10
-62.54288709756984
 20
32.51934809700101
 30
0.0
 10
-62.44228796906074
 20
32.44880369690881
 30
0.0
 10
-62.28544037666757
 20
32.3595420356252
 30
0.0
 10
-62.12932975450033
 20
32.28469923684812
 30
0.0
 10
-62.02254129964054
 20
32.24794697580387
 30
0.0
 10
-61.97012789383601
 20
32.229908412187
 30
0.0
 11
-62.5943658080935
 21
32.55544717397311
 31
0.0
 11
-62.43829277618103
 21
32.44969944460975
 31
0.0
 11
-62.28224685096481
 21
32.36020504528031
 31
0.0
 11
-62.1262010614265
 21
32.28694425644305
 31
0.0
 11
-61.97012789383601
 21
32.229908412187
 31
0.0
  0
SPLINE
  5
113
330
4E
100
AcDbEntity
  8
0
  6
Continuous
 62
     2
100
AcDbSpline
210
0.0
220
0.0
230
1.0
 70
     8
 71
     3
 72
    11
 73
     7
 74
     5
 42
0.000000001
 43
0.0000000001
 44
0.00000001
 40
0.0
 40
0.0
 40
0.0
 40
0.0
 40
0.2528647055166734
 40
0.5227147398015617
 40
0.6600283659160153
 40
0.7929086968954473
 40
0.7929086968954473
 40
0.7929086968954473
 40
0.7929086968954473
 10
-63.39436580809351
 20
33.2487593445608
 30
0.0
 10
-63.32767861025314
 20
33.19711292775842
 30
0.0
 10
-63.18982473348032
 20
33.09035091399353
 30
0.0
 10
-63.03129024107148
 20
32.93739976558862
 30
0.0
 10
-62.90321831967973
 20
32.81088957750784
 30
0.0
 10
-62.83576302257876
 20
32.75117939119396
 30
0.0
 10
-62.802588764245
 20
32.72181416291042
 30
0.0
 11
-63.39436580809351
 21
33.2487593445608
 31
0.0
 11
-63.19718290404794
 21
33.09045753816309
 31
0.0
 11
-63.00000000000246
 21
32.90623500000018
 31
0.0
 11
-62.90129438212372
 21
32.81077698178835
 31
0.0
 11
-62.802588764245
 21
32.72181416291042
 31
0.0
  0
SPLINE
  5
114
330
4E
100
AcDbEntity
  8
0
  6
Continuous
 62
     2
100
AcDbSpline
210
0.0
220
0.0
230
1.0
 70
     8
 71
     3
 72
     9
 73
     5
 74
     3
 42
0.000000001
 43
0.0000000001
 44
0.00000001
 40
0.0
 40
0.0
 40
0.0
 40
0.0
 40
0.2608475102607685
 40
0.5056854931201971
 40
0.5056854931201971
 40
0.5056854931201971
 40
0.5056854931201971
 10
-63.39436580809343
 20
36.2487593445608
 30
0.0
 10
-63.46555711286023
 20
36.29896021448857
 30
0.0
 10
-63.60357036351134
 20
36.39628085680861
 30
0.0
 10
-63.75535246688434
 20
36.47026335016809
 30
0.0
 10
-63.8288408838811
 20
36.5060834802826
 30
0.0
 11
-63.39436580809343
 21
36.2487593445608
 31
0.0
 11
-63.61160334598728
 21
36.39315212837845
 31
0.0
 11
-63.8288408838811
 21
36.5060834802826
 31
0.0
  0
SPLINE
  5
115
330
4E
100
AcDbEntity
  8
0
  6
Continuous
 62
     2
100
AcDbSpline
210
0.0
220
0.0
230
1.0
 70
     8
 71
     3
 72
    11
 73
     7
 74
     5
 42
0.000000001
 43
0.0000000001
 44
0.00000001
 40
0.0
 40
0.0
 40
0.0
 40
0.0
 40
0.1661678476437826
 40
0.3385557966144362
 40
0.5184799421797224
 40
0.7069676745997934
 40
0.7069676745997934
 40
0.7069676745997934
 40
0.7069676745997934
 10
-61.97012789383601
 20
35.229908412187
 30
0.0
 10
-62.0225411413244
 20
35.24794691936974
 30
0.0
 10
-62.12932959731339
 20
35.28469917683345
 30
0.0
 10
-62.28545121766022
 20
35.35954718815815
 30
0.0
 10
-62.44229829981411
 20
35.44881023096639
 30
0.0
 10
-62.54289718121183
 20
35.51935492767144
 30
0.0
 10
-62.5943658080935
 20
35.55544717397322
 30
0.0
 11
-61.97012789383601
 21
35.229908412187
 31
0.0
 11
-62.12620059617282
 21
35.28694406221498
 31
0.0
 11
-62.28224685096473
 21
35.3602050452804
 31
0.0
 11
-62.43832371268572
 21
35.44971879659486
 31
0.0
 11
-62.5943658080935
 21
35.55544717397322
 31
0.0
  0
SPLINE
  5
116
330
4E
100
AcDbEntity
  8
0
  6
Continuous
 62
     2
100
AcDbSpline
210
0.0
220
0.0
230
1.0
 70
     8
 71
     3
 72
     9
 73
     5
 74
     3
 42
0.000000001
 43
0.0000000001
 44
0.00000001
 40
0.0
 40
0.0
 40
0.0
 40
0.0
 40
0.3522239713146267
 40
0.7226101069942399
 40
0.7226101069942399
 40
0.7226101069942399
 40
0.7226101069942399
 10
-64.4943658080937
 20
36.6562244186274
 30
0.0
 10
-64.61242673690248
 20
36.64920327156491
 30
0.0
 10
-64.85463631433667
 20
36.63479891773209
 30
0.0
 10
-65.07924089964303
 20
36.54271801956612
 30
0.0
 10
-65.1943658080938
 20
36.49552037485151
 30
0.0
 11
-64.4943658080937
 21
36.6562244186274
 31
0.0
 11
-64.84436580809373
 21
36.61670573007279
 31
0.0
 11
-65.1943658080938
 21
36.49552037485151
 31
0.0
  0
SPLINE
  5
117
330
4E
100
AcDbEntity
  8
0
  6
Continuous
 62
     2
100
AcDbSpline
210
0.0
220
0.0
230
1.0
 70
     8
 71
     3
 72
     9
 73
     5
 74
     3
 42
0.000000001
 43
0.0000000001
 44
0.00000001
 40
0.0
 40
0.0
 40
0.0
 40
0.0
 40
0.09702088247238
 40
0.1975739304830695
 40
0.1975739304830695
 40
0.1975739304830695
 40
0.1975739304830695
 10
-56.24481314440132
 20
35.2603550290963
 30
0.0
 10
-56.27132740805914
 20
35.27887790738462
 30
0.0
 10
-56.32532120836375
 20
35.31659802856959
 30
0.0
 10
-56.37783124000276
 20
35.35635821608697
 30
0.0
 10
-56.40455562882491
 20
35.37659372820102
 30
0.0
 11
-56.24481314440132
 21
35.2603550290963
 31
0.0
 11
-56.32399813226076
 21
35.31641561559158
 31
0.0
 11
-56.40455562882491
 21
35.37659372820102
 31
0.0
  0
SPLINE
  5
118
330
4E
100
AcDbEntity
  8
0
  6
Continuous
 62
     2
100
AcDbSpline
210
0.0
220
0.0
230
1.0
 70
     8
 71
     3
 72
     9
 73
     5
 74
     3
 42
0.000000001
 43
0.0000000001
 44
0.00000001
 40
0.0
 40
0.0
 40
0.0
 40
0.0
 40
0.1904670621662123
 40
0.3673360628871918
 40
0.3673360628871918
 40
0.3673360628871918
 40
0.3673360628871918
 10
-55.55962220648681
 20
31.93282643247221
 30
0.0
 10
-55.49684044933019
 20
31.92099902006246
 30
0.0
 10
-55.37575912667432
 20
31.89818861236816
 30
0.0
 10
-55.25331942151844
 20
31.91136132818498
 30
0.0
 10
-55.19436580809852
 20
31.9177038815896
 30
0.0
 11
-55.55962220648681
 21
31.93282643247221
 31
0.0
 11
-55.37091173036789
 21
31.90701832625306
 31
0.0
 11
-55.19436580809852
 21
31.9177038815896
 31
0.0
  0
SPLINE
  5
119
330
4E
100
AcDbEntity
  8
0
  6
Continuous
 62
     2
100
AcDbSpline
210
0.0
220
0.0
230
1.0
 70
     8
 71
     3
 72
     9
 73
     5
 74
     3
 42
0.000000001
 43
0.0000000001
 44
0.00000001
 40
0.0
 40
0.0
 40
0.0
 40
0.0
 40
0.1768690007219189
 40
0.3673360628919757
 40
0.3673360628919757
 40
0.3673360628919757
 40
0.3673360628919757
 10
-55.19436580809381
 20
34.91770388159051
 30
0.0
 10
-55.25331942151399
 20
34.91136132818541
 30
0.0
 10
-55.37575912667144
 20
34.8981886123675
 30
0.0
 10
-55.4968404493289
 20
34.92099902006217
 30
0.0
 10
-55.55962220648681
 20
34.93282643247221
 30
0.0
 11
-55.19436580809381
 21
34.91770388159051
 31
0.0
 11
-55.37091173036406
 21
34.90701832625274
 31
0.0
 11
-55.55962220648681
 21
34.93282643247221
 31
0.0
  0
SPLINE
  5
11A
330
4E
100
AcDbEntity
  8
0
  6
Continuous
 62
     2
100
AcDbSpline
210
0.0
220
0.0
230
1.0
 70
     8
 71
     3
 72
     9
 73
     5
 74
     3
 42
0.000000001
 43
0.0000000001
 44
0.00000001
 40
0.0
 40
0.0
 40
0.0
 40
0.0
 40
0.1702741802444974
 40
0.3564486541651821
 40
0.3564486541651821
 40
0.3564486541651821
 40
0.3564486541651821
 10
-55.55962220648681
 20
34.93282643247221
 30
0.0
 10
-55.614576342188
 20
34.94744802825647
 30
0.0
 10
-55.72961625391003
 20
34.97805661124495
 30
0.0
 10
-55.83784009322815
 20
35.02770283060656
 30
0.0
 10
-55.89436580814211
 20
35.0536332476037
 30
0.0
 11
-55.55962220648681
 21
34.93282643247221
 31
0.0
 11
-55.72292922634658
 21
34.98103549713483
 31
0.0
 11
-55.89436580814211
 21
35.0536332476037
 31
0.0
  0
SPLINE
  5
11B
330
4E
100
AcDbEntity
  8
0
  6
Continuous
 62
     2
100
AcDbSpline
210
0.0
220
0.0
230
1.0
 70
     8
 71
     3
 72
     9
 73
     5
 74
     3
 42
0.000000001
 43
0.0000000001
 44
0.00000001
 40
0.0
 40
0.0
 40
0.0
 40
0.0
 40
0.1947267604399812
 40
0.4071678302804963
 40
0.4071678302804963
 40
0.4071678302804963
 40
0.4071678302804963
 10
-55.89436580814211
 20
35.0536332476037
 30
0.0
 10
-55.95213217187415
 20
35.08335545797465
 30
0.0
 10
-56.07291990041217
 20
35.14550372809677
 30
0.0
 10
-56.18587728594727
 20
35.22097674243899
 30
0.0
 10
-56.24481314440132
 20
35.2603550290963
 30
0.0
 11
-55.89436580814211
 21
35.0536332476037
 31
0.0
 11
-56.06587393809011
 21
35.14584752383585
 31
0.0
 11
-56.24481314440132
 21
35.2603550290963
 31
0.0
  0
SPLINE
  5
11C
330
4E
100
AcDbEntity
  8
0
  6
Continuous
 62
     2
100
AcDbSpline
210
0.0
220
0.0
230
1.0
 70
     8
 71
     3
 72
    11
 73
     7
 74
     5
 42
0.000000001
 43
0.0000000001
 44
0.00000001
 40
0.0
 40
0.0
 40
0.0
 40
0.0
 40
0.394315756517189
 40
0.8324818028495593
 40
1.790087069205761
 40
2.578767752220187
 40
2.578767752220187
 40
2.578767752220187
 40
2.578767752220187
 10
-60.65430919496041
 20
32.3946326459112
 30
0.0
 10
-60.54250100799104
 20
32.46470703017453
 30
0.0
 10
-60.30645090005451
 20
32.61264850712024
 30
0.0
 10
-59.87813370247206
 20
33.0256645050849
 30
0.0
 10
-59.31701094502426
 20
33.53630135908188
 30
0.0
 10
-58.72893208322574
 20
33.61861248827972
 30
0.0
 10
-58.46333615466071
 20
33.6557869208151
 30
0.0
 11
-60.65430919496041
 21
32.3946326459112
 31
0.0
 11
-60.32715459748142
 21
32.61475711273851
 31
0.0
 11
-60.00000000000244
 21
32.90623500000024
 31
0.0
 11
-59.23166807733155
 21
33.47778894153939
 31
0.0
 11
-58.46333615466071
 21
33.6557869208151
 31
0.0
  0
ENDBLK
  5
50
330
4E
100
AcDbEntity
  8
0
100
AcDbBlockEnd
  0
BLOCK
  5
53
330
51
100
AcDbEntity
  8
0
100
AcDbBlockBegin
  2
Drfsicht1
 70
     0
 10
-60.00000000000242
 20
162.7777430000001
 30
0.0
  3
Drfsicht1
  1

  0
INSERT
  5
52
330
51
100
AcDbEntity
  8
0
100
AcDbBlockReference
  2
carrier_tm_300-select__2
 10
-65.19436580809892
 20
12.7777430000007
 30
0.0
  0
MTEXT
  5
11D
330
51
100
AcDbEntity
  8
1
 62
     6
100
AcDbMText
 10
-60.19524231262476
 20
10.27774300000095
 30
0.0
 40
2.5
 41
0.0
 71
     2
 72
     1
  1
 
  7
CONVERTER_11
 73
     1
 44
1.32052821128451
  0
DIMENSION
  5
128
330
51
100
AcDbEntity
  8
1
100
AcDbDimension
  2
*D17
 10
-70.830443354817
 20
54.7777430000005
 30
0.0
 11
-72.455443354817
 21
35.84104168590365
 31
0.0
 70
    32
  1
<>
 71
     5
 42
-1.0
 53
90.0
  3
ME10_DIM_10
100
AcDbAlignedDimension
 13
-64.4943658080989
 23
12.7777430000007
 33
0.0
 14
-65.19436580809341
 24
54.7777430000005
 34
0.0
 50
90.0
100
AcDbRotatedDimension
  0
ENDBLK
  5
54
330
51
100
AcDbEntity
  8
0
100
AcDbBlockEnd
  0
BLOCK
  5
56
330
55
100
AcDbEntity
  8
0
100
AcDbBlockBegin
  2
carrier_tm_300-select__3
 70
     0
 10
25.46717780809377
 20
74.46162239588988
 30
0.0
  3
carrier_tm_300-select__3
  1

  0
LINE
  5
129
330
55
100
AcDbEntity
  8
0
  6
Continuous
 62
     7
100
AcDbLine
 10
27.2671778080938
 20
77.5497250168244
 30
0.0
 11
27.85895270851845
 21
77.5497250168244
 31
0.0
  0
LINE
  5
12A
330
55
100
AcDbEntity
  8
0
  6
Continuous
 62
     7
100
AcDbLine
 10
27.2671778080938
 20
77.5497250168244
 30
0.0
 11
27.2671778080938
 21
76.4797250168244
 31
0.0
  0
LINE
  5
12B
330
55
100
AcDbEntity
  8
0
  6
Continuous
 62
     7
100
AcDbLine
 10
26.51762514440164
 20
76.94206764070621
 30
0.0
 11
26.67736762882527
 21
77.4991558881802
 31
0.0
  0
LINE
  5
12C
330
55
100
AcDbEntity
  8
0
  6
Continuous
 62
     7
100
AcDbLine
 10
27.2671778080938
 20
76.4797250168244
 30
0.0
 11
28.73614815466089
 21
76.47972501682437
 31
0.0
  0
LINE
  5
12D
330
55
100
AcDbEntity
  8
0
  6
Continuous
 62
     7
100
AcDbLine
 10
31.48155485624
 20
74.48099154792068
 30
0.0
 11
31.2893025170523
 21
74.53611901908404
 31
0.0
  0
LINE
  5
12E
330
55
100
AcDbEntity
  8
0
  6
Continuous
 62
     7
100
AcDbLine
 10
26.16717780809377
 20
79.85472501682439
 30
0.0
 11
26.83270058888227
 21
79.85472501682442
 31
0.0
  0
LINE
  5
12F
330
55
100
AcDbEntity
  8
0
  6
Continuous
 62
     7
100
AcDbLine
 10
26.83270058888227
 20
79.85472501682442
 30
0.0
 11
27.85895270851845
 21
77.5497250168244
 31
0.0
  0
LINE
  5
130
330
55
100
AcDbEntity
  8
0
  6
Continuous
 62
     7
100
AcDbLine
 10
28.0278268107093
 20
75.47133212864121
 30
0.0
 11
26.19461552857892
 21
75.99699700491308
 31
0.0
  0
LINE
  5
131
330
55
100
AcDbEntity
  8
0
  6
Continuous
 62
     7
100
AcDbLine
 10
28.0278268107093
 20
75.47133212864121
 30
0.0
 11
31.16369454355818
 21
75.91204959733204
 31
0.0
  0
LINE
  5
132
330
55
100
AcDbEntity
  8
0
  6
Continuous
 62
     7
100
AcDbLine
 10
31.88796932971281
 20
76.07972501682438
 30
0.0
 11
32.61791398234217
 21
76.07972501682441
 31
0.0
  0
LINE
  5
133
330
55
100
AcDbEntity
  8
0
  6
Continuous
 62
     7
100
AcDbLine
 10
31.24785779282554
 20
76.83272278590208
 30
0.0
 11
28.73614815466089
 21
76.47972501682437
 31
0.0
  0
LINE
  5
134
330
55
100
AcDbEntity
  8
0
  6
Continuous
 62
     7
100
AcDbLine
 10
32.24293989383631
 20
76.71934750141337
 30
0.0
 11
32.8671778080938
 21
76.4797250168244
 31
0.0
  0
LINE
  5
135
330
55
100
AcDbEntity
  8
0
  6
Continuous
 62
     7
100
AcDbLine
 10
32.8671778080938
 20
76.4797250168244
 30
0.0
 11
33.6671778080938
 21
76.4797250168244
 31
0.0
  0
LINE
  5
136
330
55
100
AcDbEntity
  8
0
  6
Continuous
 62
     7
100
AcDbLine
 10
33.6671778080938
 20
76.4797250168244
 30
0.0
 11
33.66717780809364
 21
77.5497250168244
 31
0.0
  0
LINE
  5
137
330
55
100
AcDbEntity
  8
0
  6
Continuous
 62
     7
100
AcDbLine
 10
33.66717780809364
 20
77.5497250168244
 30
0.0
 11
33.07540076424531
 21
77.5497250168244
 31
0.0
  0
LINE
  5
138
330
55
100
AcDbEntity
  8
0
  6
Continuous
 62
     7
100
AcDbLine
 10
30.94649034699151
 20
75.15456854496159
 30
0.0
 11
31.16369454355818
 21
75.91204959733204
 31
0.0
  0
LINE
  5
139
330
55
100
AcDbEntity
  8
0
  6
Continuous
 62
     7
100
AcDbLine
 10
31.88796932971281
 20
76.07972501682438
 30
0.0
 11
31.70843830246879
 21
75.453625919296
 31
0.0
  0
LINE
  5
13A
330
55
100
AcDbEntity
  8
0
  6
Continuous
 62
     7
100
AcDbLine
 10
32.61791398234217
 20
76.07972501682441
 30
0.0
 11
33.48393938612663
 21
75.5797250168244
 31
0.0
  0
LINE
  5
13B
330
55
100
AcDbEntity
  8
0
  6
Continuous
 62
     7
100
AcDbLine
 10
33.48393938612663
 20
75.5797250168244
 30
0.0
 11
34.86717780809381
 21
75.57972501682438
 31
0.0
  0
LINE
  5
13C
330
55
100
AcDbEntity
  8
0
  6
Continuous
 62
     7
100
AcDbLine
 10
34.8671778080938
 20
78.46190469379684
 30
0.0
 11
34.86717780809381
 21
75.57972501682438
 31
0.0
  0
LINE
  5
13D
330
55
100
AcDbEntity
  8
0
  6
Continuous
 62
     7
100
AcDbLine
 10
26.67736762882527
 20
77.4991558881802
 30
0.0
 11
26.24974518411939
 21
78.45961162433636
 31
0.0
  0
LINE
  5
13E
330
55
100
AcDbEntity
  8
0
  6
Continuous
 62
     7
100
AcDbLine
 10
34.76717780809368
 20
79.85472501682439
 30
0.0
 11
34.10165288388149
 21
79.85472501682439
 31
0.0
  0
LINE
  5
13F
330
55
100
AcDbEntity
  8
0
  6
Continuous
 62
     7
100
AcDbLine
 10
33.07540076424531
 20
77.5497250168244
 30
0.0
 11
34.10165288388149
 21
79.85472501682439
 31
0.0
  0
ARC
  5
140
330
55
100
AcDbEntity
  8
0
  6
Continuous
 62
     7
100
AcDbCircle
 10
31.42712119496071
 20
75.01674986705322
 30
0.0
 40
0.500000000000002
100
AcDbArc
 50
164.0000000000154
 51
254.0000000000106
  0
ARC
  5
141
330
55
100
AcDbEntity
  8
0
  6
Continuous
 62
     7
100
AcDbCircle
 10
31.61937353414841
 20
74.96162239588988
 30
0.0
 40
0.5000000000000093
100
AcDbArc
 50
254.000000000011
 51
79.73917047730237
  0
ARC
  5
142
330
55
100
AcDbEntity
  8
0
  6
Continuous
 62
     7
100
AcDbCircle
 10
26.33243420648714
 20
76.47762785288182
 30
0.0
 40
0.5000000000000167
100
AcDbArc
 50
68.26082952273579
 51
254.0000000000178
  0
ARC
  5
143
330
55
100
AcDbEntity
  8
0
  6
Continuous
 62
     7
100
AcDbCircle
 10
31.52620399474577
 20
74.85218664841894
 30
0.0
 40
2.000000000000003
100
AcDbArc
 50
69.00000000000199
 51
98.00000000000288
  0
ARC
  5
144
330
55
100
AcDbEntity
  8
0
  6
Continuous
 62
     7
100
AcDbCircle
 10
34.7671778080938
 20
79.15472501682439
 30
0.0
 40
0.6999999999999965
100
AcDbArc
 50
278.2132107017383
 51
90.00000000000989
  0
ARC
  5
145
330
55
100
AcDbEntity
  8
0
  6
Continuous
 62
     7
100
AcDbCircle
 10
26.16717780809377
 20
79.1547250168244
 30
0.0
 40
0.6999999999999886
100
AcDbArc
 50
90.0
 51
180.0000000000012
  0
ARC
  5
146
330
55
100
AcDbEntity
  8
0
  6
Continuous
 62
     7
100
AcDbCircle
 10
26.16717780809377
 20
79.1547250168244
 30
0.0
 40
0.6999999999999993
100
AcDbArc
 50
180.0000000000012
 51
276.7740018259094
  0
ENDBLK
  5
57
330
55
100
AcDbEntity
  8
0
100
AcDbBlockEnd
  0
BLOCK
  5
5A
330
58
100
AcDbEntity
  8
0
100
AcDbBlockBegin
  2
Rckans1
 70
     0
 10
30.27281199999999
 20
77.99961399999965
 30
0.0
  3
Rckans1
  1

  0
INSERT
  5
59
330
58
100
AcDbEntity
  8
0
100
AcDbBlockReference
  2
carrier_tm_300-select__3
 10
25.46717780809377
 20
74.46162239588988
 30
0.0
  0
MTEXT
  5
147
330
58
100
AcDbEntity
  8
1
 62
     6
100
AcDbMText
 10
30.68694879595603
 20
71.27735722236893
 30
0.0
 40
2.5
 41
0.0
 71
     2
 72
     1
  1
 
  7
CONVERTER_11
 73
     1
 44
1.32052821128451
  0
ENDBLK
  5
5B
330
58
100
AcDbEntity
  8
0
100
AcDbBlockEnd
  0
BLOCK
  5
5D
330
5C
100
AcDbEntity
  8
0
100
AcDbBlockBegin
  2
carrier_tm_300-select__4
 70
     0
 10
-33.61359399999969
 20
74.4616223958896
 30
0.0
  3
carrier_tm_300-select__4
  1

  0
LINE
  5
148
330
5C
100
AcDbEntity
  8
0
  6
Continuous
 62
     7
100
AcDbLine
 10
-33.6135939999995
 20
75.4536259192957
 30
0.0
 11
-33.6135939999995
 21
74.4616223958896
 31
0.0
  0
LINE
  5
149
330
5C
100
AcDbEntity
  8
0
  6
Continuous
 62
     7
100
AcDbLine
 10
-33.6135939999995
 20
75.57972501682411
 30
0.0
 11
-17.2081592471221
 21
75.57972501682411
 31
0.0
  0
LINE
  5
14A
330
5C
100
AcDbEntity
  8
0
  6
Continuous
 62
     7
100
AcDbLine
 10
-33.6135939999995
 20
75.4536259192957
 30
0.0
 11
-17.2907910216525
 21
75.4536259193032
 31
0.0
  0
LINE
  5
14B
330
5C
100
AcDbEntity
  8
0
  6
Continuous
 62
     7
100
AcDbLine
 10
-33.6135939999995
 20
74.4616223958896
 30
0.0
 11
-18.16096587755462
 21
74.4616223958896
 31
0.0
  0
LINE
  5
14C
330
5C
100
AcDbEntity
  8
0
  6
Continuous
 62
     7
100
AcDbLine
 10
-15.16096587755462
 20
74.4616223958896
 30
0.0
 11
6.38640599999997
 21
74.4616223958896
 31
0.0
  0
LINE
  5
14D
330
5C
100
AcDbEntity
  8
0
  6
Continuous
 62
     7
100
AcDbLine
 10
6.38640599999997
 20
75.4536259192957
 30
0.0
 11
6.38640599999997
 21
74.4616223958896
 31
0.0
  0
LINE
  5
14E
330
5C
100
AcDbEntity
  8
0
  6
Continuous
 62
     7
100
AcDbLine
 10
6.38640599999997
 20
78.46190469379621
 30
0.0
 11
6.38640599999997
 21
75.57972501682411
 31
0.0
  0
LINE
  5
14F
330
5C
100
AcDbEntity
  8
0
  6
Continuous
 62
     7
100
AcDbLine
 10
-18.06714713193901
 20
78.46190469379631
 30
0.0
 11
-33.61359399999969
 21
78.46190469379661
 31
0.0
  0
LINE
  5
150
330
5C
100
AcDbEntity
  8
0
  6
Continuous
 62
     7
100
AcDbLine
 10
6.38640599999997
 20
78.46190469379621
 30
0.0
 11
-15.06714713193921
 21
78.46190469379651
 31
0.0
  0
LINE
  5
151
330
5C
100
AcDbEntity
  8
0
  6
Continuous
 62
     7
100
AcDbLine
 10
-18.38405938857602
 20
79.8547250168241
 30
0.0
 11
-33.61359399999969
 21
79.8547250168241
 31
0.0
  0
LINE
  5
152
330
5C
100
AcDbEntity
  8
0
  6
Continuous
 62
     7
100
AcDbLine
 10
6.38640599999997
 20
79.8547250168241
 30
0.0
 11
-15.38405938857611
 21
79.8547250168241
 31
0.0
  0
LINE
  5
153
330
5C
100
AcDbEntity
  8
0
  6
Continuous
 62
     7
100
AcDbLine
 10
6.38640599999997
 20
78.46190469379621
 30
0.0
 11
6.38640599999997
 21
79.8547250168241
 31
0.0
  0
LINE
  5
154
330
5C
100
AcDbEntity
  8
0
  6
Continuous
 62
     7
100
AcDbLine
 10
-33.61359399999969
 20
78.46190469379661
 30
0.0
 11
-33.61359399999969
 21
79.8547250168241
 31
0.0
  0
LINE
  5
155
330
5C
100
AcDbEntity
  8
0
  6
Continuous
 62
     7
100
AcDbLine
 10
6.38640599999997
 20
75.4536259192957
 30
0.0
 11
6.38640599999997
 21
75.57972501682411
 31
0.0
  0
LINE
  5
156
330
5C
100
AcDbEntity
  8
0
  6
Continuous
 62
     7
100
AcDbLine
 10
-33.6135939999995
 20
75.57972501682411
 30
0.0
 11
-33.6135939999995
 21
75.4536259192957
 31
0.0
  0
LINE
  5
157
330
5C
100
AcDbEntity
  8
0
  6
Continuous
 62
     7
100
AcDbLine
 10
-33.61359399999969
 20
78.46190469379661
 30
0.0
 11
-33.6135939999995
 21
75.57972501682411
 31
0.0
  0
LINE
  5
158
330
5C
100
AcDbEntity
  8
0
  6
Continuous
 62
     7
100
AcDbLine
 10
-14.2907910216577
 20
75.4536259192957
 30
0.0
 11
6.38640599999997
 21
75.4536259192957
 31
0.0
  0
LINE
  5
159
330
5C
100
AcDbEntity
  8
0
  6
Continuous
 62
     7
100
AcDbLine
 10
-14.20815924712201
 20
75.57972501682411
 30
0.0
 11
6.38640599999997
 21
75.57972501682411
 31
0.0
  0
SPLINE
  5
15A
330
5C
100
AcDbEntity
  8
0
  6
Continuous
 62
     2
100
AcDbSpline
210
0.0
220
0.0
230
1.0
 70
     8
 71
     3
 72
     9
 73
     5
 74
     3
 42
0.000000001
 43
0.0000000001
 44
0.00000001
 40
0.0
 40
0.0
 40
0.0
 40
0.0
 40
0.0013944071899433
 40
0.0027893133415506
 40
0.0027893133415506
 40
0.0027893133415506
 40
0.0027893133415506
 10
-18.06714713193901
 20
78.46190469379631
 30
0.0
 10
-18.06688264194009
 20
78.46152248138625
 30
0.0
 10
-18.06635355085633
 20
78.46075793118376
 30
0.0
 10
-18.06582390038171
 20
78.45999376839903
 30
0.0
 10
-18.06555901954991
 20
78.45961162435421
 30
0.0
 11
-18.06714713193901
 21
78.46190469379631
 31
0.0
 11
-18.06635351392513
 21
78.46075815907528
 31
0.0
 11
-18.06555901954991
 21
78.45961162435421
 31
0.0
  0
SPLINE
  5
15B
330
5C
100
AcDbEntity
  8
0
  6
Continuous
 62
     2
100
AcDbSpline
210
0.0
220
0.0
230
1.0
 70
     8
 71
     3
 72
     9
 73
     5
 74
     3
 42
0.000000001
 43
0.0000000001
 44
0.00000001
 40
0.0
 40
0.0
 40
0.0
 40
0.0
 40
0.0029742577859497
 40
0.0059507867903366
 40
0.0059507867903366
 40
0.0059507867903366
 40
0.0059507867903366
 10
-18.06555901954991
 20
78.45961162435421
 30
0.0
 10
-18.06499390377846
 20
78.45879703446458
 30
0.0
 10
-18.06386322427233
 20
78.45716724405304
 30
0.0
 10
-18.06272989393707
 20
78.45553929587098
 30
0.0
 10
-18.0621630042788
 20
78.45472501682421
 30
0.0
 11
-18.06555901954991
 21
78.45961162435421
 31
0.0
 11
-18.06386300182548
 21
78.45716832058916
 31
0.0
 11
-18.0621630042788
 21
78.45472501682421
 31
0.0
  0
SPLINE
  5
15C
330
5C
100
AcDbEntity
  8
0
  6
Continuous
 62
     2
100
AcDbSpline
210
0.0
220
0.0
230
1.0
 70
     8
 71
     3
 72
     9
 73
     5
 74
     3
 42
0.000000001
 43
0.0000000001
 44
0.00000001
 40
0.0
 40
0.0
 40
0.0
 40
0.0
 40
0.6964175400169668
 40
1.462878865438644
 40
1.462878865438644
 40
1.462878865438644
 40
1.462878865438644
 10
-18.38405938857602
 20
79.8547250168241
 30
0.0
 10
-18.40846064372838
 20
79.61753872532331
 30
0.0
 10
-18.45971734684902
 20
79.11931059086754
 30
0.0
 10
-18.20211527294912
 20
78.6879250170965
 30
0.0
 10
-18.06714713193901
 20
78.46190469379631
 30
0.0
 11
-18.38405938857602
 21
79.8547250168241
 31
0.0
 11
-18.38726563127751
 21
79.15831485531021
 31
0.0
 11
-18.06714713193901
 21
78.46190469379631
 31
0.0
  0
SPLINE
  5
15D
330
5C
100
AcDbEntity
  8
0
  6
Continuous
 62
     2
100
AcDbSpline
210
0.0
220
0.0
230
1.0
 70
     8
 71
     3
 72
     9
 73
     5
 74
     3
 42
0.000000001
 43
0.0000000001
 44
0.00000001
 40
0.0
 40
0.0
 40
0.0
 40
0.0
 40
0.0466687912479169
 40
0.0929927059397125
 40
0.0929927059397125
 40
0.0929927059397125
 40
0.0929927059397125
 10
-16.9913490747241
 20
76.94206764070591
 30
0.0
 10
-16.98704917249644
 20
76.92711546020345
 30
0.0
 10
-16.97848116307698
 20
76.89732158869492
 30
0.0
 10
-16.97117122738103
 20
76.86719438651662
 30
0.0
 10
-16.9675298241433
 20
76.85218664843181
 30
0.0
 11
-16.9913490747241
 21
76.94206764070591
 31
0.0
 11
-16.97876623336866
 21
76.89712714456904
 31
0.0
 11
-16.9675298241433
 21
76.85218664843181
 31
0.0
  0
SPLINE
  5
15E
330
5C
100
AcDbEntity
  8
0
  6
Continuous
 62
     2
100
AcDbSpline
210
0.0
220
0.0
230
1.0
 70
     8
 71
     3
 72
     9
 73
     5
 74
     3
 42
0.000000001
 43
0.0000000001
 44
0.00000001
 40
0.0
 40
0.0
 40
0.0
 40
0.0
 40
0.0186293776102315
 40
0.0371969362439836
 40
0.0371969362439836
 40
0.0371969362439836
 40
0.0371969362439836
 10
-17.0022597478484
 20
76.97762785288161
 30
0.0
 10
-17.00039007126586
 20
76.97170609217017
 30
0.0
 10
-16.99665694146422
 20
76.95988221536174
 30
0.0
 10
-16.99311639588122
 20
76.94799925127893
 30
0.0
 10
-16.9913490747241
 20
76.94206764070591
 30
0.0
 11
-17.0022597478484
 21
76.97762785288161
 31
0.0
 11
-16.99669903389543
 21
76.95984774679374
 31
0.0
 11
-16.9913490747241
 21
76.94206764070591
 31
0.0
  0
SPLINE
  5
15F
330
5C
100
AcDbEntity
  8
0
  6
Continuous
 62
     2
100
AcDbSpline
210
0.0
220
0.0
230
1.0
 70
     8
 71
     3
 72
    11
 73
     7
 74
     5
 42
0.000000001
 43
0.0000000001
 44
0.00000001
 40
0.0
 40
0.0
 40
0.0
 40
0.0
 40
0.0171761618437824
 40
0.0343523236984572
 40
0.0849478471814192
 40
0.1352713844018353
 40
0.1352713844018353
 40
0.1352713844018353
 40
0.1352713844018353
 10
-16.9675298241433
 20
76.85218664843181
 30
0.0
 10
-16.96623647026913
 20
76.84660916915702
 30
0.0
 10
-16.96364977668006
 20
76.83545420735844
 30
0.0
 10
-16.95763218608865
 20
76.80778495730947
 30
0.0
 10
-16.94995925756041
 20
76.76916355987676
 30
0.0
 10
-16.94477393586724
 20
76.73592299300385
 30
0.0
 10
-16.94218827054721
 20
76.71934750141311
 30
0.0
 11
-16.9675298241433
 21
76.85218664843181
 31
0.0
 11
-16.96368807225897
 21
76.83544563639762
 31
0.0
 11
-16.9600250953778
 21
76.81866460121381
 31
0.0
 11
-16.95028633456875
 21
76.76901519470381
 31
0.0
 11
-16.94218827054721
 21
76.71934750141311
 31
0.0
  0
SPLINE
  5
160
330
5C
100
AcDbEntity
  8
0
  6
Continuous
 62
     2
100
AcDbSpline
210
0.0
220
0.0
230
1.0
 70
     8
 71
     3
 72
     9
 73
     5
 74
     3
 42
0.000000001
 43
0.0000000001
 44
0.00000001
 40
0.0
 40
0.0
 40
0.0
 40
0.0
 40
0.1204894495434644
 40
0.2403433188562373
 40
0.2403433188562373
 40
0.2403433188562373
 40
0.2403433188562373
 10
-16.94218827054721
 20
76.71934750141311
 30
0.0
 10
-16.93713472000865
 20
76.6794635069759
 30
0.0
 10
-16.92705429624118
 20
76.59990590391814
 30
0.0
 10
-16.92650150964995
 20
76.5197146250717
 30
0.0
 10
-16.92622585721671
 20
76.4797250168241
 30
0.0
 11
-16.94218827054721
 21
76.71934750141311
 31
0.0
 11
-16.92942215262189
 21
76.59953625911865
 31
0.0
 11
-16.92622585721671
 21
76.4797250168241
 31
0.0
  0
SPLINE
  5
161
330
5C
100
AcDbEntity
  8
0
  6
Continuous
 62
     2
100
AcDbSpline
210
0.0
220
0.0
230
1.0
 70
     8
 71
     3
 72
     9
 73
     5
 74
     3
 42
0.000000001
 43
0.0000000001
 44
0.00000001
 40
0.0
 40
0.0
 40
0.0
 40
0.0
 40
0.3342844180936977
 40
0.6438805811693151
 40
0.6438805811693151
 40
0.6438805811693151
 40
0.6438805811693151
 10
-17.2936717158847
 20
77.54972501682411
 30
0.0
 10
-17.2321086447629
 20
77.45634924896385
 30
0.0
 10
-17.11352920153591
 20
77.27649388139494
 30
0.0
 10
-17.03838919780231
 20
77.0746703647396
 30
0.0
 10
-17.0022597478484
 20
76.97762785288161
 30
0.0
 11
-17.2936717158847
 21
77.54972501682411
 31
0.0
 11
-17.12069113478398
 21
77.26367643485288
 31
0.0
 11
-17.0022597478484
 21
76.97762785288161
 31
0.0
  0
SPLINE
  5
162
330
5C
100
AcDbEntity
  8
0
  6
Continuous
 62
     2
100
AcDbSpline
210
0.0
220
0.0
230
1.0
 70
     8
 71
     3
 72
    11
 73
     7
 74
     5
 42
0.000000001
 43
0.0000000001
 44
0.00000001
 40
0.0
 40
0.0
 40
0.0
 40
0.0
 40
0.2875378372962952
 40
0.597385377667107
 40
0.9038105756906472
 40
1.188408568176357
 40
1.188408568176357
 40
1.188408568176357
 40
1.188408568176357
 10
-18.0621630042788
 20
78.45472501682421
 30
0.0
 10
-18.00512568945566
 20
78.37755970376232
 30
0.0
 10
-17.88662559542798
 20
78.21724192455808
 30
0.0
 10
-17.67689637553804
 20
78.00042283037513
 30
0.0
 10
-17.4678017637498
 20
77.78437940756116
 30
0.0
 10
-17.35026817358212
 20
77.62599335498888
 30
0.0
 10
-17.2936717158847
 20
77.54972501682411
 30
0.0
 11
-18.0621630042788
 21
78.45472501682421
 31
0.0
 11
-17.88638900527536
 21
78.22716950841195
 31
0.0
 11
-17.67609399999942
 21
77.99961399999972
 31
0.0
 11
-17.46801618317688
 21
77.77466950841196
 31
0.0
 11
-17.2936717158847
 21
77.54972501682411
 31
0.0
  0
SPLINE
  5
163
330
5C
100
AcDbEntity
  8
0
  6
Continuous
 62
     2
100
AcDbSpline
210
0.0
220
0.0
230
1.0
 70
     8
 71
     3
 72
     9
 73
     5
 74
     3
 42
0.000000001
 43
0.0000000001
 44
0.00000001
 40
0.0
 40
0.0
 40
0.0
 40
0.0
 40
0.0013949061517397
 40
0.0027893133419092
 40
0.0027893133419092
 40
0.0027893133419092
 40
0.0027893133419092
 10
-15.06555901954991
 20
78.45961162435411
 30
0.0
 10
-15.06582390038172
 20
78.45999376839896
 30
0.0
 10
-15.06635355085639
 20
78.46075793118385
 30
0.0
 10
-15.06688264194024
 20
78.4615224813864
 30
0.0
 10
-15.06714713193921
 20
78.46190469379651
 30
0.0
 11
-15.06555901954991
 21
78.45961162435411
 31
0.0
 11
-15.06635351392518
 21
78.46075815907531
 31
0.0
 11
-15.06714713193921
 21
78.46190469379651
 31
0.0
  0
SPLINE
  5
164
330
5C
100
AcDbEntity
  8
0
  6
Continuous
 62
     2
100
AcDbSpline
210
0.0
220
0.0
230
1.0
 70
     8
 71
     3
 72
     9
 73
     5
 74
     3
 42
0.000000001
 43
0.0000000001
 44
0.00000001
 40
0.0
 40
0.0
 40
0.0
 40
0.0
 40
0.7664613254215104
 40
1.462878865438377
 40
1.462878865438377
 40
1.462878865438377
 40
1.462878865438377
 10
-15.06714713193921
 20
78.46190469379651
 30
0.0
 10
-15.20211527294924
 20
78.68792501709669
 30
0.0
 10
-15.45971734684898
 20
79.11931059086766
 30
0.0
 10
-15.40846064372843
 20
79.61753872532337
 30
0.0
 10
-15.38405938857611
 20
79.8547250168241
 30
0.0
 11
-15.06714713193921
 21
78.46190469379651
 31
0.0
 11
-15.38726563127753
 21
79.15831485531031
 31
0.0
 11
-15.38405938857611
 21
79.8547250168241
 31
0.0
  0
SPLINE
  5
165
330
5C
100
AcDbEntity
  8
0
  6
Continuous
 62
     2
100
AcDbSpline
210
0.0
220
0.0
230
1.0
 70
     8
 71
     3
 72
     9
 73
     5
 74
     3
 42
0.000000001
 43
0.0000000001
 44
0.00000001
 40
0.0
 40
0.0
 40
0.0
 40
0.0
 40
0.0107780695075735
 40
0.0215264989807003
 40
0.0215264989807003
 40
0.0215264989807003
 40
0.0215264989807003
 10
-14.2907910216577
 20
75.4536259192957
 30
0.0
 10
-14.28873895188328
 20
75.4565749012079
 30
0.0
 10
-14.28464047203102
 20
75.46246476662886
 30
0.0
 10
-14.28057731076551
 20
75.46837905200081
 30
0.0
 10
-14.27854853565449
 20
75.47133212864091
 30
0.0
 11
-14.2907910216577
 21
75.4536259192957
 31
0.0
 11
-14.28464367454974
 21
75.46247899256292
 31
0.0
 11
-14.27854853565449
 21
75.47133212864091
 31
0.0
  0
SPLINE
  5
166
330
5C
100
AcDbEntity
  8
0
  6
Continuous
 62
     2
100
AcDbSpline
210
0.0
220
0.0
230
1.0
 70
     8
 71
     3
 72
     9
 73
     5
 74
     3
 42
0.000000001
 43
0.0000000001
 44
0.00000001
 40
0.0
 40
0.0
 40
0.0
 40
0.0
 40
0.0029765290044229
 40
0.0059507867903386
 40
0.0059507867903386
 40
0.0059507867903386
 40
0.0059507867903386
 10
-15.0621630042788
 20
78.45472501682411
 30
0.0
 10
-15.06272989393706
 20
78.45553929587088
 30
0.0
 10
-15.06386322427231
 20
78.45716724405298
 30
0.0
 10
-15.06499390377846
 20
78.45879703446448
 30
0.0
 10
-15.06555901954991
 20
78.45961162435411
 30
0.0
 11
-15.0621630042788
 21
78.45472501682411
 31
0.0
 11
-15.06386300182548
 21
78.4571683205891
 31
0.0
 11
-15.06555901954991
 21
78.45961162435411
 31
0.0
  0
SPLINE
  5
167
330
5C
100
AcDbEntity
  8
0
  6
Continuous
 62
     2
100
AcDbSpline
210
0.0
220
0.0
230
1.0
 70
     8
 71
     3
 72
     9
 73
     5
 74
     3
 42
0.000000001
 43
0.0000000001
 44
0.00000001
 40
0.0
 40
0.0
 40
0.0
 40
0.0
 40
0.0892084610669917
 40
0.17693336071784
 40
0.17693336071784
 40
0.17693336071784
 40
0.17693336071784
 10
-14.04117130909361
 20
75.9120495973317
 30
0.0
 10
-14.03064913941488
 20
75.93987452450462
 30
0.0
 10
-14.00977980552524
 20
75.99506164919809
 30
0.0
 10
-13.99312198398323
 20
76.05166208784014
 30
0.0
 10
-13.9848629193969
 20
76.07972501682411
 30
0.0
 11
-14.04117130909361
 21
75.9120495973317
 31
0.0
 11
-14.01067541818754
 21
75.99588366086546
 31
0.0
 11
-13.9848629193969
 21
76.07972501682411
 31
0.0
  0
SPLINE
  5
168
330
5C
100
AcDbEntity
  8
0
  6
Continuous
 62
     2
100
AcDbSpline
210
0.0
220
0.0
230
1.0
 70
     8
 71
     3
 72
     9
 73
     5
 74
     3
 42
0.000000001
 43
0.0000000001
 44
0.00000001
 40
0.0
 40
0.0
 40
0.0
 40
0.0
 40
0.2044973869574163
 40
0.4051351857042312
 40
0.4051351857042312
 40
0.4051351857042312
 40
0.4051351857042312
 10
-13.9848629193969
 20
76.07972501682411
 30
0.0
 10
-13.96842810790058
 20
76.14606801900851
 30
0.0
 10
-13.9358686874833
 20
76.27750190003411
 30
0.0
 10
-13.92941964814922
 20
76.41274678818804
 30
0.0
 10
-13.92622585721659
 20
76.4797250168241
 30
0.0
 11
-13.9848629193969
 21
76.07972501682411
 31
0.0
 11
-13.94221105497343
 21
76.2797250168241
 31
0.0
 11
-13.92622585721659
 21
76.4797250168241
 31
0.0
  0
SPLINE
  5
169
330
5C
100
AcDbEntity
  8
0
  6
Continuous
 62
     2
100
AcDbSpline
210
0.0
220
0.0
230
1.0
 70
     8
 71
     3
 72
    11
 73
     7
 74
     5
 42
0.000000001
 43
0.0000000001
 44
0.00000001
 40
0.0
 40
0.0
 40
0.0
 40
0.0
 40
0.0599123425451238
 40
0.1198777281800981
 40
0.1800159058208516
 40
0.2403906611630771
 40
0.2403906611630771
 40
0.2403906611630771
 40
0.2403906611630771
 10
-13.92622585721659
 20
76.4797250168241
 30
0.0
 10
-13.92618914760054
 20
76.49969876022604
 30
0.0
 10
-13.92611571086063
 20
76.53966393054016
 30
0.0
 10
-13.92908468686498
 20
76.59961659101663
 30
0.0
 10
-13.93411280223847
 20
76.65958589925728
 30
0.0
 10
-13.93949292225985
 20
76.69940091449243
 30
0.0
 10
-13.94218827054721
 20
76.71934750141311
 30
0.0
 11
-13.92622585721659
 21
76.4797250168241
 31
0.0
 11
-13.92662792043974
 21
76.53963601045774
 31
0.0
 11
-13.92942215262181
 21
76.59953625911861
 31
0.0
 11
-13.93460987708896
 21
76.65945026393507
 31
0.0
 11
-13.94218827054721
 21
76.71934750141311
 31
0.0
  0
SPLINE
  5
16A
330
5C
100
AcDbEntity
  8
0
  6
Continuous
 62
     2
100
AcDbSpline
210
0.0
220
0.0
230
1.0
 70
     8
 71
     3
 72
    11
 73
     7
 74
     5
 42
0.000000001
 43
0.0000000001
 44
0.00000001
 40
0.0
 40
0.0
 40
0.0
 40
0.0
 40
0.0138832072165639
 40
0.0277733055815649
 40
0.0324851723352866
 40
0.0371970390860046
 40
0.0371970390860046
 40
0.0371970390860046
 40
0.0371970390860046
 10
-13.9913490747241
 20
76.94206764070591
 30
0.0
 10
-13.99266870530216
 20
76.94650326324873
 30
0.0
 10
-13.99530863717424
 20
76.95537670529919
 30
0.0
 10
-13.99850466832435
 20
76.9657228966734
 30
0.0
 10
-14.00083256728847
 20
76.97313731986267
 30
0.0
 10
-14.00178401637906
 20
76.97613101000599
 30
0.0
 10
-14.0022597478484
 20
76.97762785288151
 30
0.0
 11
-13.9913490747241
 21
76.94206764070591
 31
0.0
 11
-13.99533109247674
 21
76.95536752706458
 31
0.0
 11
-13.9994228602356
 21
76.9686412707512
 31
0.0
 11
-14.00083517877003
 21
76.97313649544454
 31
0.0
 11
-14.0022597478484
 21
76.97762785288151
 31
0.0
  0
SPLINE
  5
16B
330
5C
100
AcDbEntity
  8
0
  6
Continuous
 62
     2
100
AcDbSpline
210
0.0
220
0.0
230
1.0
 70
     8
 71
     3
 72
     9
 73
     5
 74
     3
 42
0.000000001
 43
0.0000000001
 44
0.00000001
 40
0.0
 40
0.0
 40
0.0
 40
0.0
 40
0.0107484167449984
 40
0.0215264989715706
 40
0.0215264989715706
 40
0.0215264989715706
 40
0.0215264989715706
 10
-17.27854853565449
 20
75.47133212864091
 30
0.0
 10
-17.28057730835955
 20
75.4683790554954
 30
0.0
 10
-17.28464046961631
 20
75.46246477012113
 30
0.0
 10
-17.28873894945993
 20
75.45657490469789
 30
0.0
 10
-17.2907910216525
 20
75.4536259193032
 30
0.0
 11
-17.27854853565449
 21
75.47133212864091
 31
0.0
 11
-17.28464366731103
 21
75.46247900303226
 31
0.0
 11
-17.2907910216525
 21
75.4536259193032
 31
0.0
  0
SPLINE
  5
16C
330
5C
100
AcDbEntity
  8
0
  6
Continuous
 62
     2
100
AcDbSpline
210
0.0
220
0.0
230
1.0
 70
     8
 71
     3
 72
     9
 73
     5
 74
     3
 42
0.000000001
 43
0.0000000001
 44
0.00000001
 40
0.0
 40
0.0
 40
0.0
 40
0.0
 40
0.087721054562871
 40
0.176933360758723
 40
0.176933360758723
 40
0.176933360758723
 40
0.176933360758723
 10
-16.9848629193969
 20
76.07972501682411
 30
0.0
 10
-16.9931216057
 20
76.05166331368821
 30
0.0
 10
-17.00977939441218
 20
75.99506286659414
 30
0.0
 10
-17.03064870010183
 20
75.93987572988654
 30
0.0
 10
-17.04117130909361
 20
75.91204959733182
 30
0.0
 11
-16.9848629193969
 21
76.07972501682411
 31
0.0
 11
-17.01067419372008
 21
75.99588730707794
 31
0.0
 11
-17.04117130909361
 21
75.91204959733182
 31
0.0
  0
SPLINE
  5
16D
330
5C
100
AcDbEntity
  8
0
  6
Continuous
 62
     2
100
AcDbSpline
210
0.0
220
0.0
230
1.0
 70
     8
 71
     3
 72
     9
 73
     5
 74
     3
 42
0.000000001
 43
0.0000000001
 44
0.00000001
 40
0.0
 40
0.0
 40
0.0
 40
0.0
 40
0.0640897065178842
 40
0.1292531134150121
 40
0.1292531134150121
 40
0.1292531134150121
 40
0.1292531134150121
 10
-17.2081592471221
 20
75.57972501682411
 30
0.0
 10
-17.21945087534397
 20
75.56158726179135
 30
0.0
 10
-17.24222331825239
 20
75.52500789913333
 30
0.0
 10
-17.26637325339473
 20
75.48932285983523
 30
0.0
 10
-17.27854853565449
 20
75.47133212864091
 30
0.0
 11
-17.2081592471221
 21
75.57972501682411
 31
0.0
 11
-17.24237281553998
 21
75.52553163868664
 31
0.0
 11
-17.27854853565449
 21
75.47133212864091
 31
0.0
  0
SPLINE
  5
16E
330
5C
100
AcDbEntity
  8
0
  6
Continuous
 62
     2
100
AcDbSpline
210
0.0
220
0.0
230
1.0
 70
     8
 71
     3
 72
     9
 73
     5
 74
     3
 42
0.000000001
 43
0.0000000001
 44
0.00000001
 40
0.0
 40
0.0
 40
0.0
 40
0.0
 40
0.2006377987468074
 40
0.4051351857042181
 40
0.4051351857042181
 40
0.4051351857042181
 40
0.4051351857042181
 10
-16.92622585721671
 20
76.4797250168241
 30
0.0
 10
-16.9294196481493
 20
76.41274678818804
 30
0.0
 10
-16.93586868748331
 20
76.27750190003414
 30
0.0
 10
-16.96842810790059
 20
76.14606801900852
 30
0.0
 10
-16.9848629193969
 20
76.07972501682411
 30
0.0
 11
-16.92622585721671
 21
76.4797250168241
 31
0.0
 11
-16.94221105497346
 21
76.2797250168241
 31
0.0
 11
-16.9848629193969
 21
76.07972501682411
 31
0.0
  0
SPLINE
  5
16F
330
5C
100
AcDbEntity
  8
0
  6
Continuous
 62
     2
100
AcDbSpline
210
0.0
220
0.0
230
1.0
 70
     8
 71
     3
 72
    11
 73
     7
 74
     5
 42
0.000000001
 43
0.0000000001
 44
0.00000001
 40
0.0
 40
0.0
 40
0.0
 40
0.0
 40
0.1198389293231493
 40
0.2431431999988009
 40
0.3072284269505867
 40
0.3723638827148917
 40
0.3723638827148917
 40
0.3723638827148917
 40
0.3723638827148917
 10
-17.04117130909361
 20
75.91204959733182
 30
0.0
 10
-17.05643141168331
 20
75.87511903481438
 30
0.0
 10
-17.08739290245621
 20
75.80019000762954
 30
0.0
 10
-17.13386566702209
 20
75.70882325318465
 30
0.0
 10
-17.17471092117626
 20
75.63521494025812
 30
0.0
 10
-17.19694955346845
 20
75.59832160449557
 30
0.0
 10
-17.2081592471221
 20
75.57972501682411
 30
0.0
 11
-17.04117130909361
 21
75.91204959733182
 31
0.0
 11
-17.08836482439987
 21
75.80189451969191
 31
0.0
 11
-17.14367393177341
 21
75.6916908629864
 31
0.0
 11
-17.17487000823827
 21
75.63571121338757
 31
0.0
 11
-17.2081592471221
 21
75.57972501682411
 31
0.0
  0
SPLINE
  5
170
330
5C
100
AcDbEntity
  8
0
  6
Continuous
 62
     2
100
AcDbSpline
210
0.0
220
0.0
230
1.0
 70
     8
 71
     3
 72
     9
 73
     5
 74
     3
 42
0.000000001
 43
0.0000000001
 44
0.00000001
 40
0.0
 40
0.0
 40
0.0
 40
0.0
 40
0.0651562603523943
 40
0.1292531133960231
 40
0.1292531133960231
 40
0.1292531133960231
 40
0.1292531133960231
 10
-14.27854853565449
 20
75.47133212864091
 30
0.0
 10
-14.26637457681959
 20
75.4893208783885
 30
0.0
 10
-14.24222461816914
 20
75.52500590105197
 30
0.0
 10
-14.21945214798194
 20
75.56158524737928
 30
0.0
 10
-14.20815924712201
 20
75.57972501682411
 30
0.0
 11
-14.27854853565449
 21
75.47133212864091
 31
0.0
 11
-14.24237670806306
 21
75.52552564456637
 31
0.0
 11
-14.20815924712201
 21
75.57972501682411
 31
0.0
  0
SPLINE
  5
171
330
5C
100
AcDbEntity
  8
0
  6
Continuous
 62
     2
100
AcDbSpline
210
0.0
220
0.0
230
1.0
 70
     8
 71
     3
 72
    11
 73
     7
 74
     5
 42
0.000000001
 43
0.0000000001
 44
0.00000001
 40
0.0
 40
0.0
 40
0.0
 40
0.0
 40
0.0651280755427682
 40
0.1292206826923119
 40
0.2524749484702696
 40
0.3723638814129865
 40
0.3723638814129865
 40
0.3723638814129865
 40
0.3723638814129865
 10
-14.20815924712201
 20
75.57972501682411
 30
0.0
 10
-14.19695080899082
 20
75.5983194879922
 30
0.0
 10
-14.17471214773523
 20
75.63521280509187
 30
0.0
 10
-14.13387487997914
 20
75.70880649055526
 30
0.0
 10
-14.08740003303694
 20
75.80017487483312
 30
0.0
 10
-14.05643803116222
 20
75.87510371654282
 30
0.0
 10
-14.04117130909361
 20
75.9120495973317
 30
0.0
 11
-14.20815924712201
 21
75.57972501682411
 31
0.0
 11
-14.17487369192542
 21
75.63570481740133
 31
0.0
 11
-14.14367393177329
 21
75.6916908629863
 31
0.0
 11
-14.0883859240335
 21
75.80184915988374
 31
0.0
 11
-14.04117130909361
 21
75.9120495973317
 31
0.0
  0
SPLINE
  5
172
330
5C
100
AcDbEntity
  8
0
  6
Continuous
 62
     2
100
AcDbSpline
210
0.0
220
0.0
230
1.0
 70
     8
 71
     3
 72
     9
 73
     5
 74
     3
 42
0.000000001
 43
0.0000000001
 44
0.00000001
 40
0.0
 40
0.0
 40
0.0
 40
0.0
 40
0.309596163075645
 40
0.6438805811694017
 40
0.6438805811694017
 40
0.6438805811694017
 40
0.6438805811694017
 10
-14.0022597478484
 20
76.97762785288151
 30
0.0
 10
-14.03838919780232
 20
77.07467036473955
 30
0.0
 10
-14.11352920153593
 20
77.27649388139487
 30
0.0
 10
-14.23210864476291
 20
77.45634924896383
 30
0.0
 10
-14.2936717158847
 20
77.54972501682411
 30
0.0
 11
-14.0022597478484
 21
76.97762785288151
 31
0.0
 11
-14.12069113478399
 21
77.26367643485281
 31
0.0
 11
-14.2936717158847
 21
77.54972501682411
 31
0.0
  0
SPLINE
  5
173
330
5C
100
AcDbEntity
  8
0
  6
Continuous
 62
     2
100
AcDbSpline
210
0.0
220
0.0
230
1.0
 70
     8
 71
     3
 72
    11
 73
     7
 74
     5
 42
0.000000001
 43
0.0000000001
 44
0.00000001
 40
0.0
 40
0.0
 40
0.0
 40
0.0
 40
0.2845979924856371
 40
0.5910231905092505
 40
0.9008707308800378
 40
1.188408568176277
 40
1.188408568176277
 40
1.188408568176277
 40
1.188408568176277
 10
-14.2936717158847
 20
77.54972501682411
 30
0.0
 10
-14.35026817358211
 20
77.62599335498885
 30
0.0
 10
-14.4678017637498
 20
77.78437940756116
 30
0.0
 10
-14.67689637553801
 20
78.0004228303751
 30
0.0
 10
-14.88662559542797
 20
78.21724192455808
 30
0.0
 10
-15.00512568945567
 20
78.37755970376226
 30
0.0
 10
-15.0621630042788
 20
78.45472501682411
 30
0.0
 11
-14.2936717158847
 21
77.54972501682411
 31
0.0
 11
-14.46801618317684
 21
77.7746695084119
 31
0.0
 11
-14.67609399999943
 21
77.99961399999972
 31
0.0
 11
-14.88638900527536
 21
78.22716950841192
 31
0.0
 11
-15.0621630042788
 21
78.45472501682411
 31
0.0
  0
SPLINE
  5
174
330
5C
100
AcDbEntity
  8
0
  6
Continuous
 62
     2
100
AcDbSpline
210
0.0
220
0.0
230
1.0
 70
     8
 71
     3
 72
    11
 73
     7
 74
     5
 42
0.000000001
 43
0.0000000001
 44
0.00000001
 40
0.0
 40
0.0
 40
0.0
 40
0.0
 40
0.3440115890561323
 40
0.7245449831173251
 40
1.033672459647768
 40
1.320592168209024
 40
1.320592168209024
 40
1.320592168209024
 40
1.320592168209024
 10
-15.16096587755462
 20
74.4616223958896
 30
0.0
 10
-15.08799223107195
 20
74.55016282393925
 30
0.0
 10
-14.93429772067648
 20
74.73664351885354
 30
0.0
 10
-14.69227770681871
 20
74.98202084952743
 30
0.0
 10
-14.46611324522513
 20
75.21683393441856
 30
0.0
 10
-14.34776189667839
 20
75.37668046227381
 30
0.0
 10
-14.2907910216577
 20
75.4536259192957
 30
0.0
 11
-15.16096587755462
 21
74.4616223958896
 31
0.0
 11
-14.93844983623476
 21
74.72397823212563
 31
0.0
 11
-14.6760939999994
 21
74.9996139999997
 31
0.0
 11
-14.46626527558998
 21
75.2266199596477
 31
0.0
 11
-14.2907910216577
 21
75.4536259192957
 31
0.0
  0
SPLINE
  5
175
330
5C
100
AcDbEntity
  8
0
  6
Continuous
 62
     2
100
AcDbSpline
210
0.0
220
0.0
230
1.0
 70
     8
 71
     3
 72
     9
 73
     5
 74
     3
 42
0.000000001
 43
0.0000000001
 44
0.00000001
 40
0.0
 40
0.0
 40
0.0
 40
0.0
 40
0.0463239146977402
 40
0.0929927059524029
 40
0.0929927059524029
 40
0.0929927059524029
 40
0.0929927059524029
 10
-13.9675298241433
 20
76.85218664841871
 30
0.0
 10
-13.97117122738055
 20
76.86719438650569
 30
0.0
 10
-13.97848116307557
 20
76.89732158868853
 30
0.0
 10
-13.98704917249595
 20
76.92711546020126
 30
0.0
 10
-13.9913490747241
 20
76.94206764070591
 30
0.0
 11
-13.9675298241433
 21
76.85218664841871
 31
0.0
 11
-13.97876623336765
 21
76.89712714456232
 31
0.0
 11
-13.9913490747241
 21
76.94206764070591
 31
0.0
  0
SPLINE
  5
176
330
5C
100
AcDbEntity
  8
0
  6
Continuous
 62
     2
100
AcDbSpline
210
0.0
220
0.0
230
1.0
 70
     8
 71
     3
 72
     9
 73
     5
 74
     3
 42
0.000000001
 43
0.0000000001
 44
0.00000001
 40
0.0
 40
0.0
 40
0.0
 40
0.0
 40
0.0673572970786402
 40
0.1352655880897358
 40
0.1352655880897358
 40
0.1352655880897358
 40
0.1352655880897358
 10
-13.94218827054721
 20
76.71934750141311
 30
0.0
 10
-13.9456871238685
 20
76.74153208580661
 30
0.0
 10
-13.95271347139296
 20
76.78608272466369
 30
0.0
 10
-13.96257763969128
 20
76.83009225201897
 30
0.0
 10
-13.9675298241433
 20
76.85218664841871
 30
0.0
 11
-13.94218827054721
 21
76.71934750141311
 31
0.0
 11
-13.95338852742899
 21
76.78576707491591
 31
0.0
 11
-13.9675298241433
 21
76.85218664841871
 31
0.0
  0
SPLINE
  5
177
330
5C
100
AcDbEntity
  8
0
  6
Continuous
 62
     2
100
AcDbSpline
210
0.0
220
0.0
230
1.0
 70
     8
 71
     3
 72
    11
 73
     7
 74
     5
 42
0.000000001
 43
0.0000000001
 44
0.00000001
 40
0.0
 40
0.0
 40
0.0
 40
0.0
 40
0.2869197085654801
 40
0.596047185100797
 40
0.9765805791619594
 40
1.320592168218143
 40
1.320592168218143
 40
1.320592168218143
 40
1.320592168218143
 10
-17.2907910216525
 20
75.4536259193032
 30
0.0
 10
-17.34776189667382
 20
75.37668046227998
 30
0.0
 10
-17.46611324522194
 20
75.21683393442206
 30
0.0
 10
-17.69227770681757
 20
74.98202084952855
 30
0.0
 10
-17.93429772067652
 20
74.73664351885361
 30
0.0
 10
-18.08799223107196
 20
74.55016282393927
 30
0.0
 10
-18.16096587755462
 20
74.4616223958896
 30
0.0
 11
-17.2907910216525
 21
75.4536259193032
 31
0.0
 11
-17.46626527558683
 21
75.22661995965146
 31
0.0
 11
-17.67609399999942
 21
74.99961399999974
 31
0.0
 11
-17.93844983623477
 21
74.7239782321257
 31
0.0
 11
-18.16096587755462
 21
74.4616223958896
 31
0.0
  0
ENDBLK
  5
5E
330
5C
100
AcDbEntity
  8
0
100
AcDbBlockEnd
  0
BLOCK
  5
61
330
5F
100
AcDbEntity
  8
0
100
AcDbBlockBegin
  2
SA_Links1
 70
     0
 10
116.3864060000008
 20
77.99961399999971
 30
0.0
  3
SA_Links1
  1

  0
INSERT
  5
60
330
5F
100
AcDbEntity
  8
0
100
AcDbBlockReference
  2
carrier_tm_300-select__4
 10
-33.61359399999969
 20
74.4616223958896
 30
0.0
  0
MTEXT
  5
178
330
5F
100
AcDbEntity
  8
1
 62
     6
100
AcDbMText
 10
-13.61359400000103
 20
71.95737486517065
 30
0.0
 40
2.5
 41
0.0
 71
     2
 72
     1
  1
 
  7
CONVERTER_11
 73
     1
 44
1.32052821128451
  0
ENDBLK
  5
62
330
5F
100
AcDbEntity
  8
0
100
AcDbBlockEnd
  0
BLOCK
  5
64
330
63
100
AcDbEntity
  8
0
100
AcDbBlockBegin
  2
carrier_tm_300-select__5
 70
     0
 10
-127.2146799999988
 20
74.46030739588987
 30
0.0
  3
carrier_tm_300-select__5
  1

  0
LINE
  5
179
330
63
100
AcDbEntity
  8
0
  6
Continuous
 62
     7
100
AcDbLine
 10
-86.21467999999919
 20
76.97631285288182
 30
0.0
 11
-86.21467999999926
 21
75.99568200491309
 31
0.0
  0
LINE
  5
17A
330
63
100
AcDbEntity
  8
0
  6
Continuous
 62
     7
100
AcDbLine
 10
-86.21467999999919
 20
75.1532535449616
 30
0.0
 11
-86.21467999999926
 21
75.4700171286412
 31
0.0
  0
LINE
  5
17B
330
63
100
AcDbEntity
  8
0
  6
Continuous
 62
     2
100
AcDbLine
 10
-104.8613879479161
 20
75.99568200491261
 30
0.0
 11
-86.21467999999926
 21
75.99568200491309
 31
0.0
  0
LINE
  5
17C
330
63
100
AcDbEntity
  8
0
  6
Continuous
 62
     7
100
AcDbLine
 10
-86.21467999999926
 20
75.4700171286412
 30
0.0
 11
-86.21467999999926
 21
75.99568200491309
 31
0.0
  0
LINE
  5
17D
330
63
100
AcDbEntity
  8
0
  6
Continuous
 62
     2
100
AcDbLine
 10
-127.2146799999987
 20
75.99568200491308
 30
0.0
 11
-107.8613879479162
 21
75.99568200491261
 31
0.0
  0
LINE
  5
17E
330
63
100
AcDbEntity
  8
0
  6
Continuous
 62
     7
100
AcDbLine
 10
-108.1296345356544
 20
75.47001712864116
 30
0.0
 11
-127.2146799999987
 21
75.4700171286412
 31
0.0
  0
LINE
  5
17F
330
63
100
AcDbEntity
  8
0
  6
Continuous
 62
     7
100
AcDbLine
 10
-86.21467999999926
 20
75.4700171286412
 30
0.0
 11
-105.1296345356544
 21
75.47001712864117
 31
0.0
  0
LINE
  5
180
330
63
100
AcDbEntity
  8
0
  6
Continuous
 62
     2
100
AcDbLine
 10
-86.21467999999915
 20
79.1534100168244
 30
0.0
 11
-106.2375305297606
 21
79.1534100168244
 31
0.0
  0
LINE
  5
181
330
63
100
AcDbEntity
  8
0
  6
Continuous
 62
     7
100
AcDbLine
 10
-86.21467999999895
 20
79.8534100168244
 30
0.0
 11
-106.2351453885759
 21
79.8534100168244
 31
0.0
  0
LINE
  5
182
330
63
100
AcDbEntity
  8
0
  6
Continuous
 62
     7
100
AcDbLine
 10
-86.21467999999915
 20
78.4534100168244
 30
0.0
 11
-86.21467999999915
 21
79.1534100168244
 31
0.0
  0
LINE
  5
183
330
63
100
AcDbEntity
  8
0
  6
Continuous
 62
     7
100
AcDbLine
 10
-109.235145388576
 20
79.85341001682438
 30
0.0
 11
-127.2146799999987
 21
79.8534100168244
 31
0.0
  0
LINE
  5
184
330
63
100
AcDbEntity
  8
0
  6
Continuous
 62
     2
100
AcDbLine
 10
-109.2375305297606
 20
79.15341001682437
 30
0.0
 11
-127.2146799999987
 21
79.1534100168244
 31
0.0
  0
LINE
  5
185
330
63
100
AcDbEntity
  8
0
  6
Continuous
 62
     7
100
AcDbLine
 10
-108.9132490042786
 20
78.4534100168244
 30
0.0
 11
-127.2146799999987
 21
78.4534100168244
 31
0.0
  0
LINE
  5
186
330
63
100
AcDbEntity
  8
0
  6
Continuous
 62
     7
100
AcDbLine
 10
-86.21467999999915
 20
79.1534100168244
 30
0.0
 11
-86.21467999999895
 21
79.8534100168244
 31
0.0
  0
LINE
  5
187
330
63
100
AcDbEntity
  8
0
  6
Continuous
 62
     7
100
AcDbLine
 10
-127.2146799999987
 20
74.53480401908402
 30
0.0
 11
-127.2146799999987
 21
75.15325354496157
 31
0.0
  0
LINE
  5
188
330
63
100
AcDbEntity
  8
0
  6
Continuous
 62
     7
100
AcDbLine
 10
-127.2146799999987
 20
74.47967654792068
 30
0.0
 11
-127.2146799999987
 21
74.53480401908402
 31
0.0
  0
LINE
  5
189
330
63
100
AcDbEntity
  8
0
  6
Continuous
 62
     7
100
AcDbLine
 10
-127.2146799999987
 20
75.15325354496157
 30
0.0
 11
-127.2146799999987
 21
75.4700171286412
 31
0.0
  0
LINE
  5
18A
330
63
100
AcDbEntity
  8
0
  6
Continuous
 62
     7
100
AcDbLine
 10
-127.2146799999987
 20
74.46030739588987
 30
0.0
 11
-127.2146799999987
 21
74.47967654792068
 31
0.0
  0
LINE
  5
18B
330
63
100
AcDbEntity
  8
0
  6
Continuous
 62
     2
100
AcDbLine
 10
-105.9518047332353
 20
74.53480401908404
 30
0.0
 11
-86.21467999999922
 21
74.53480401908405
 31
0.0
  0
LINE
  5
18C
330
63
100
AcDbEntity
  8
0
  6
Continuous
 62
     7
100
AcDbLine
 10
-86.21467999999919
 20
74.46030739588988
 30
0.0
 11
-86.21467999999922
 21
74.47967654792069
 31
0.0
  0
LINE
  5
18D
330
63
100
AcDbEntity
  8
0
  6
Continuous
 62
     7
100
AcDbLine
 10
-109.0120518775545
 20
74.46030739588987
 30
0.0
 11
-127.2146799999987
 21
74.46030739588987
 31
0.0
  0
LINE
  5
18E
330
63
100
AcDbEntity
  8
0
  6
Continuous
 62
     2
100
AcDbLine
 10
-127.2146799999987
 20
74.53480401908402
 30
0.0
 11
-108.9518047332354
 21
74.53480401908402
 31
0.0
  0
LINE
  5
18F
330
63
100
AcDbEntity
  8
0
  6
Continuous
 62
     2
100
AcDbLine
 10
-127.2146799999987
 20
74.47967654792068
 30
0.0
 11
-108.9966224945773
 21
74.47967654792066
 31
0.0
  0
LINE
  5
190
330
63
100
AcDbEntity
  8
0
  6
Continuous
 62
     7
100
AcDbLine
 10
-86.21467999999919
 20
74.46030739588988
 30
0.0
 11
-106.0120518775545
 21
74.46030739588987
 31
0.0
  0
LINE
  5
191
330
63
100
AcDbEntity
  8
0
  6
Continuous
 62
     2
100
AcDbLine
 10
-105.9966224945771
 20
74.47967654792066
 30
0.0
 11
-86.21467999999922
 21
74.47967654792069
 31
0.0
  0
LINE
  5
192
330
63
100
AcDbEntity
  8
0
  6
Continuous
 62
     7
100
AcDbLine
 10
-86.21467999999922
 20
74.47967654792069
 30
0.0
 11
-86.21467999999922
 21
74.53480401908405
 31
0.0
  0
LINE
  5
193
330
63
100
AcDbEntity
  8
0
  6
Continuous
 62
     7
100
AcDbLine
 10
-127.2146799999987
 20
76.9763128528818
 30
0.0
 11
-127.2146799999987
 21
75.99568200491308
 31
0.0
  0
LINE
  5
194
330
63
100
AcDbEntity
  8
0
  6
Continuous
 62
     7
100
AcDbLine
 10
-127.2146799999988
 20
77.49784088818019
 30
0.0
 11
-127.2146799999987
 21
78.4534100168244
 31
0.0
  0
LINE
  5
195
330
63
100
AcDbEntity
  8
0
  6
Continuous
 62
     7
100
AcDbLine
 10
-127.2146799999987
 20
75.99568200491308
 30
0.0
 11
-127.2146799999987
 21
75.4700171286412
 31
0.0
  0
LINE
  5
196
330
63
100
AcDbEntity
  8
0
  6
Continuous
 62
     7
100
AcDbLine
 10
-127.2146799999987
 20
76.9763128528818
 30
0.0
 11
-127.2146799999988
 21
77.49784088818019
 31
0.0
  0
LINE
  5
197
330
63
100
AcDbEntity
  8
0
  6
Continuous
 62
     7
100
AcDbLine
 10
-127.2146799999987
 20
79.1534100168244
 30
0.0
 11
-127.2146799999987
 21
79.8534100168244
 31
0.0
  0
LINE
  5
198
330
63
100
AcDbEntity
  8
0
  6
Continuous
 62
     7
100
AcDbLine
 10
-127.2146799999987
 20
78.4534100168244
 30
0.0
 11
-127.2146799999987
 21
79.1534100168244
 31
0.0
  0
LINE
  5
199
330
63
100
AcDbEntity
  8
0
  6
Continuous
 62
     7
100
AcDbLine
 10
-86.21467999999915
 20
78.4534100168244
 30
0.0
 11
-105.9132490042787
 21
78.4534100168244
 31
0.0
  0
LINE
  5
19A
330
63
100
AcDbEntity
  8
0
  6
Continuous
 62
     7
100
AcDbLine
 10
-86.21467999999919
 20
76.97631285288182
 30
0.0
 11
-86.21467999999918
 21
77.4978408881802
 31
0.0
  0
LINE
  5
19B
330
63
100
AcDbEntity
  8
0
  6
Continuous
 62
     7
100
AcDbLine
 10
-86.21467999999918
 20
77.4978408881802
 30
0.0
 11
-86.21467999999915
 21
78.4534100168244
 31
0.0
  0
LINE
  5
19C
330
63
100
AcDbEntity
  8
0
  6
Continuous
 62
     7
100
AcDbLine
 10
-86.21467999999918
 20
77.4978408881802
 30
0.0
 11
-105.1102079954082
 21
77.49784088818018
 31
0.0
  0
LINE
  5
19D
330
63
100
AcDbEntity
  8
0
  6
Continuous
 62
     7
100
AcDbLine
 10
-86.21467999999919
 20
76.97631285288182
 30
0.0
 11
-104.8533457478482
 21
76.97631285288182
 31
0.0
  0
LINE
  5
19E
330
63
100
AcDbEntity
  8
0
  6
Continuous
 62
     7
100
AcDbLine
 10
-107.8533457478483
 20
76.9763128528818
 30
0.0
 11
-127.2146799999987
 21
76.9763128528818
 31
0.0
  0
LINE
  5
19F
330
63
100
AcDbEntity
  8
0
  6
Continuous
 62
     7
100
AcDbLine
 10
-108.1102079954083
 20
77.49784088818019
 30
0.0
 11
-127.2146799999988
 21
77.49784088818019
 31
0.0
  0
LINE
  5
1A0
330
63
100
AcDbEntity
  8
0
  6
Continuous
 62
     7
100
AcDbLine
 10
-86.21467999999922
 20
74.53480401908405
 30
0.0
 11
-86.21467999999919
 21
75.1532535449616
 31
0.0
  0
LINE
  5
1A1
330
63
100
AcDbEntity
  8
0
  6
Continuous
 62
     2
100
AcDbLine
 10
-127.2146799999987
 20
75.15325354496157
 30
0.0
 11
-108.3802290920258
 21
75.15325354495506
 31
0.0
  0
LINE
  5
1A2
330
63
100
AcDbEntity
  8
0
  6
Continuous
 62
     2
100
AcDbLine
 10
-105.3802290920391
 20
75.15325354496157
 30
0.0
 11
-86.21467999999919
 21
75.1532535449616
 31
0.0
  0
SPLINE
  5
1A3
330
63
100
AcDbEntity
  8
0
  6
Continuous
 62
     2
100
AcDbSpline
210
0.0
220
0.0
230
1.0
 70
     8
 71
     3
 72
     9
 73
     5
 74
     3
 42
0.000000001
 43
0.0000000001
 44
0.00000001
 40
0.0
 40
0.0
 40
0.0
 40
0.0
 40
0.0640882477799306
 40
0.1292531134189591
 40
0.1292531134189591
 40
0.1292531134189591
 40
0.1292531134189591
 10
-108.0592452471219
 20
75.57841001682439
 30
0.0
 10
-108.0705366155752
 20
75.56027267297054
 30
0.0
 10
-108.0933090529154
 20
75.52369330697908
 30
0.0
 10
-108.1174589832595
 20
75.48800826428557
 30
0.0
 10
-108.1296345356544
 20
75.47001712864116
 30
0.0
 11
-108.0592452471219
 21
75.57841001682439
 31
0.0
 11
-108.0934580210059
 21
75.52421786219892
 31
0.0
 11
-108.1296345356544
 21
75.47001712864116
 31
0.0
  0
SPLINE
  5
1A4
330
63
100
AcDbEntity
  8
0
  6
Continuous
 62
     2
100
AcDbSpline
210
0.0
220
0.0
230
1.0
 70
     8
 71
     3
 72
    11
 73
     7
 74
     5
 42
0.000000001
 43
0.0000000001
 44
0.00000001
 40
0.0
 40
0.0
 40
0.0
 40
0.0
 40
0.0965205936654519
 40
0.1951987846214717
 40
0.2828030669333091
 40
0.3723739900145864
 40
0.3723739900145864
 40
0.3723739900145864
 40
0.3723739900145864
 10
-107.8922573090935
 20
75.91073459733202
 30
0.0
 10
-107.9044397416884
 20
75.88094883968584
 30
0.0
 10
-107.9290769438951
 20
75.82071150692988
 30
0.0
 10
-107.9702896149108
 20
75.73587065148851
 30
0.0
 10
-108.0135549678485
 20
75.65470362347335
 30
0.0
 10
-108.0439028627335
 20
75.60402871330704
 30
0.0
 10
-108.0592452471219
 20
75.57841001682439
 30
0.0
 11
-107.8922573090935
 21
75.91073459733202
 31
0.0
 11
-107.9297359182439
 21
75.82178754057463
 31
0.0
 11
-107.9724842782731
 21
75.73284956677712
 31
0.0
 11
-108.0138722343587
 21
75.65563850900841
 31
0.0
 11
-108.0592452471219
 21
75.57841001682439
 31
0.0
  0
SPLINE
  5
1A5
330
63
100
AcDbEntity
  8
0
  6
Continuous
 62
     2
100
AcDbSpline
210
0.0
220
0.0
230
1.0
 70
     8
 71
     3
 72
     9
 73
     5
 74
     3
 42
0.000000001
 43
0.0000000001
 44
0.00000001
 40
0.0
 40
0.0
 40
0.0
 40
0.0
 40
0.3522376885774014
 40
0.7047517674221964
 40
0.7047517674221964
 40
0.7047517674221964
 40
0.7047517674221964
 10
-106.2375305297606
 20
79.1534100168244
 30
0.0
 10
-106.2575442590144
 20
79.27009954239631
 30
0.0
 10
-106.2975874019553
 20
79.50357015736932
 30
0.0
 10
-106.2559648408069
 20
79.73676624571836
 30
0.0
 10
-106.2351453885759
 20
79.8534100168244
 30
0.0
 11
-106.2375305297606
 21
79.1534100168244
 31
0.0
 11
-106.2771712925016
 21
79.50341001682439
 31
0.0
 11
-106.2351453885759
 21
79.8534100168244
 31
0.0
  0
SPLINE
  5
1A6
330
63
100
AcDbEntity
  8
0
  6
Continuous
 62
     2
100
AcDbSpline
210
0.0
220
0.0
230
1.0
 70
     8
 71
     3
 72
    11
 73
     7
 74
     5
 42
0.000000001
 43
0.0000000001
 44
0.00000001
 40
0.0
 40
0.0
 40
0.0
 40
0.0
 40
0.0179231715683942
 40
0.0357257823548523
 40
0.05345754543248
 40
0.0710475356755678
 40
0.0710475356755678
 40
0.0710475356755678
 40
0.0710475356755678
 10
-108.9518047332354
 20
74.53480401908402
 30
0.0
 10
-108.9556019115208
 20
74.53019155060834
 30
0.0
 10
-108.9631707146786
 20
74.52099763006532
 30
0.0
 10
-108.9744329569526
 20
74.50718868797588
 30
0.0
 10
-108.9855823926882
 20
74.49343116335493
 30
0.0
 10
-108.9929523248677
 20
74.48424913806204
 30
0.0
 10
-108.9966224945773
 20
74.47967654792066
 30
0.0
 11
-108.9518047332354
 21
74.53480401908402
 31
0.0
 11
-108.9631856367041
 21
74.52095789630991
 31
0.0
 11
-108.9744407363337
 21
74.50716457602657
 31
0.0
 11
-108.9856012695568
 21
74.4933856819727
 31
0.0
 11
-108.9966224945773
 21
74.47967654792066
 31
0.0
  0
SPLINE
  5
1A7
330
63
100
AcDbEntity
  8
0
  6
Continuous
 62
     2
100
AcDbSpline
210
0.0
220
0.0
230
1.0
 70
     8
 71
     3
 72
    11
 73
     7
 74
     5
 42
0.000000001
 43
0.0000000001
 44
0.00000001
 40
0.0
 40
0.0
 40
0.0
 40
0.0
 40
0.0092298911151698
 40
0.0184490510367389
 40
0.0216062780258939
 40
0.0247635050143057
 40
0.0247635050143057
 40
0.0247635050143057
 40
0.0247635050143057
 10
-108.9966224945773
 20
74.47967654792066
 30
0.0
 10
-108.9985444397709
 20
74.47727409353153
 30
0.0
 10
-109.0023860828069
 20
74.47247196776817
 30
0.0
 10
-109.0068710116319
 20
74.46683675148574
 30
0.0
 10
-109.0100907640223
 20
74.4627816871275
 30
0.0
 10
-109.0113981768391
 20
74.46113216264479
 30
0.0
 10
-109.0120518775545
 20
74.46030739588987
 30
0.0
 11
-108.9966224945773
 21
74.47967654792066
 31
0.0
 11
-109.0023853025514
 21
74.4724667674641
 31
0.0
 11
-109.0081272747469
 21
74.46525409352634
 31
0.0
 11
-109.0100904156503
 21
74.46278141074886
 31
0.0
 11
-109.0120518775545
 21
74.46030739588987
 31
0.0
  0
SPLINE
  5
1A8
330
63
100
AcDbEntity
  8
0
  6
Continuous
 62
     2
100
AcDbSpline
210
0.0
220
0.0
230
1.0
 70
     8
 71
     3
 72
    11
 73
     7
 74
     5
 42
0.000000001
 43
0.0000000001
 44
0.00000001
 40
0.0
 40
0.0
 40
0.0
 40
0.0
 40
0.0031592249273544
 40
0.0063184498553801
 40
0.015543841410284
 40
0.0247635050160758
 40
0.0247635050160758
 40
0.0247635050160758
 40
0.0247635050160758
 10
-106.0120518775545
 20
74.46030739588987
 30
0.0
 10
-106.0113977630635
 20
74.46113268448657
 30
0.0
 10
-106.0100895226956
 20
74.46278325265277
 30
0.0
 10
-106.0068676476896
 20
74.46684098477435
 30
0.0
 10
-106.0023831249937
 20
74.47247567313647
 30
0.0
 10
-105.9985423114023
 20
74.47727675670903
 30
0.0
 10
-105.9966224945771
 20
74.47967654792066
 30
0.0
 11
-106.0120518775545
 21
74.46030739588987
 31
0.0
 11
-106.0100891738748
 21
74.4627829759179
 31
0.0
 11
-106.0081247890754
 21
74.46525722218075
 31
0.0
 11
-106.0023789246736
 21
74.47247476275811
 31
0.0
 11
-105.9966224945771
 21
74.47967654792066
 31
0.0
  0
SPLINE
  5
1A9
330
63
100
AcDbEntity
  8
0
  6
Continuous
 62
     2
100
AcDbSpline
210
0.0
220
0.0
230
1.0
 70
     8
 71
     3
 72
    11
 73
     7
 74
     5
 42
0.000000001
 43
0.0000000001
 44
0.00000001
 40
0.0
 40
0.0
 40
0.0
 40
0.0
 40
0.0176276225752086
 40
0.0353217533202225
 40
0.0531478257659075
 40
0.0710475356743948
 40
0.0710475356743948
 40
0.0710475356743948
 40
0.0710475356743948
 10
-105.9966224945771
 20
74.47967654792066
 30
0.0
 10
-105.9929444637647
 20
74.48425891350011
 30
0.0
 10
-105.9855745134115
 20
74.49344092429602
 30
0.0
 10
-105.9744201042849
 20
74.50720448445372
 30
0.0
 10
-105.9631657600925
 20
74.52100368107736
 30
0.0
 10
-105.9555969462993
 20
74.53019759280757
 30
0.0
 10
-105.9518047332353
 20
74.53480401908404
 30
0.0
 11
-105.9966224945771
 21
74.47967654792066
 31
0.0
 11
-105.9855776367057
 21
74.4934149682415
 31
0.0
 11
-105.9744407363335
 21
74.50716457602658
 31
0.0
 11
-105.9631707712446
 21
74.52097604760044
 31
0.0
 11
-105.9518047332353
 21
74.53480401908404
 31
0.0
  0
SPLINE
  5
1AA
330
63
100
AcDbEntity
  8
0
  6
Continuous
 62
     2
100
AcDbSpline
210
0.0
220
0.0
230
1.0
 70
     8
 71
     3
 72
     9
 73
     5
 74
     3
 42
0.000000001
 43
0.0000000001
 44
0.00000001
 40
0.0
 40
0.0
 40
0.0
 40
0.0
 40
0.0029742577920199
 40
0.0059507867903934
 40
0.0059507867903934
 40
0.0059507867903934
 40
0.0059507867903934
 10
-108.9166450195498
 20
78.4582966243544
 30
0.0
 10
-108.9160799037772
 20
78.45748203446313
 30
0.0
 10
-108.914949224271
 20
78.4558522440516
 30
0.0
 10
-108.9138158939357
 20
78.45422429586954
 30
0.0
 10
-108.9132490042786
 20
78.4534100168244
 30
0.0
 11
-108.9166450195498
 21
78.4582966243544
 31
0.0
 11
-108.9149490018219
 21
78.45585332058441
 31
0.0
 11
-108.9132490042786
 21
78.4534100168244
 31
0.0
  0
SPLINE
  5
1AB
330
63
100
AcDbEntity
  8
0
  6
Continuous
 62
     2
100
AcDbSpline
210
0.0
220
0.0
230
1.0
 70
     8
 71
     3
 72
     9
 73
     5
 74
     3
 42
0.000000001
 43
0.0000000001
 44
0.00000001
 40
0.0
 40
0.0
 40
0.0
 40
0.0
 40
0.3525140788447972
 40
0.7047517674221986
 40
0.7047517674221986
 40
0.7047517674221986
 40
0.7047517674221986
 10
-109.235145388576
 20
79.85341001682438
 30
0.0
 10
-109.2559648408069
 20
79.73676624571833
 30
0.0
 10
-109.2975874019552
 20
79.5035701573693
 30
0.0
 10
-109.2575442590144
 20
79.27009954239628
 30
0.0
 10
-109.2375305297606
 20
79.15341001682437
 30
0.0
 11
-109.235145388576
 21
79.85341001682438
 31
0.0
 11
-109.2771712925016
 21
79.50341001682436
 31
0.0
 11
-109.2375305297606
 21
79.15341001682437
 31
0.0
  0
SPLINE
  5
1AC
330
63
100
AcDbEntity
  8
0
  6
Continuous
 62
     2
100
AcDbSpline
210
0.0
220
0.0
230
1.0
 70
     8
 71
     3
 72
    11
 73
     7
 74
     5
 42
0.000000001
 43
0.0000000001
 44
0.00000001
 40
0.0
 40
0.0
 40
0.0
 40
0.0
 40
0.1054103336904061
 40
0.2135741402049992
 40
0.5413866080470018
 40
0.8423484351860413
 40
0.8423484351860413
 40
0.8423484351860413
 40
0.8423484351860413
 10
-108.3802290920258
 20
75.15325354495506
 30
0.0
 10
-108.403880937471
 20
75.12726326654392
 30
0.0
 10
-108.4518024385785
 20
75.07460379554561
 30
0.0
 10
-108.578679010262
 20
74.94625402459846
 30
0.0
 10
-108.7507444149077
 20
74.77076219700005
 30
0.0
 10
-108.8867201618955
 20
74.61118526962919
 30
0.0
 10
-108.9518047332354
 20
74.53480401908402
 30
0.0
 11
-108.3802290920258
 21
75.15325354495506
 31
0.0
 11
-108.4517036367672
 21
75.07577627247754
 31
0.0
 11
-108.5271799999993
 21
74.99829900000002
 31
0.0
 11
-108.7540687094973
 21
74.76169272858206
 31
0.0
 11
-108.9518047332354
 21
74.53480401908402
 31
0.0
  0
SPLINE
  5
1AD
330
63
100
AcDbEntity
  8
0
  6
Continuous
 62
     2
100
AcDbSpline
210
0.0
220
0.0
230
1.0
 70
     8
 71
     3
 72
     9
 73
     5
 74
     3
 42
0.000000001
 43
0.0000000001
 44
0.00000001
 40
0.0
 40
0.0
 40
0.0
 40
0.0
 40
0.3677475990098204
 40
0.7690945152953046
 40
0.7690945152953046
 40
0.7690945152953046
 40
0.7690945152953046
 10
-109.2375305297606
 20
79.15341001682437
 30
0.0
 10
-109.202550002752
 20
79.03523902898442
 30
0.0
 10
-109.1293929288847
 20
78.78810034970732
 30
0.0
 10
-108.9895967471275
 20
78.57138703704233
 30
0.0
 10
-108.9166450195498
 20
78.4582966243544
 30
0.0
 11
-109.2375305297606
 21
79.15341001682437
 31
0.0
 11
-109.1173529936867
 21
78.80585332058439
 31
0.0
 11
-108.9166450195498
 21
78.4582966243544
 31
0.0
  0
SPLINE
  5
1AE
330
63
100
AcDbEntity
  8
0
  6
Continuous
 62
     2
100
AcDbSpline
210
0.0
220
0.0
230
1.0
 70
     8
 71
     3
 72
     9
 73
     5
 74
     3
 42
0.000000001
 43
0.0000000001
 44
0.00000001
 40
0.0
 40
0.0
 40
0.0
 40
0.0
 40
0.2044973869574269
 40
0.4051351857042482
 40
0.4051351857042482
 40
0.4051351857042482
 40
0.4051351857042482
 10
-104.8359489193967
 20
76.07841001682438
 30
0.0
 10
-104.8195141079004
 20
76.14475301900879
 30
0.0
 10
-104.7869546874831
 20
76.27618690003442
 30
0.0
 10
-104.7805056481491
 20
76.41143178818831
 30
0.0
 10
-104.7773118572165
 20
76.4784100168244
 30
0.0
 11
-104.8359489193967
 21
76.07841001682438
 31
0.0
 11
-104.7932970549732
 21
76.27841001682438
 31
0.0
 11
-104.7773118572165
 21
76.4784100168244
 31
0.0
  0
SPLINE
  5
1AF
330
63
100
AcDbEntity
  8
0
  6
Continuous
 62
     2
100
AcDbSpline
210
0.0
220
0.0
230
1.0
 70
     8
 71
     3
 72
     9
 73
     5
 74
     3
 42
0.000000001
 43
0.0000000001
 44
0.00000001
 40
0.0
 40
0.0
 40
0.0
 40
0.0
 40
0.0651636561876179
 40
0.1292531134157514
 40
0.1292531134157514
 40
0.1292531134157514
 40
0.1292531134157514
 10
-105.1296345356544
 20
75.47001712864117
 30
0.0
 10
-105.1174592072301
 20
75.48800792895364
 30
0.0
 10
-105.0933092729076
 20
75.52369296883194
 30
0.0
 10
-105.0705368309508
 20
75.56027233205967
 30
0.0
 10
-105.0592452471219
 20
75.57841001682439
 30
0.0
 11
-105.1296345356544
 21
75.47001712864117
 31
0.0
 11
-105.0934586797585
 21
75.5242168477779
 31
0.0
 11
-105.0592452471219
 21
75.57841001682439
 31
0.0
  0
SPLINE
  5
1B0
330
63
100
AcDbEntity
  8
0
  6
Continuous
 62
     2
100
AcDbSpline
210
0.0
220
0.0
230
1.0
 70
     8
 71
     3
 72
     9
 73
     5
 74
     3
 42
0.000000001
 43
0.0000000001
 44
0.00000001
 40
0.0
 40
0.0
 40
0.0
 40
0.0
 40
0.0454016702002575
 40
0.0903894750530249
 40
0.0903894750530249
 40
0.0903894750530249
 40
0.0903894750530249
 10
-104.8922573090934
 20
75.91073459733204
 30
0.0
 10
-104.8868224427517
 20
75.924860526555
 30
0.0
 10
-104.8760022711143
 20
75.95298362503993
 30
0.0
 10
-104.8662444901148
 20
75.9814927208285
 30
0.0
 10
-104.8613879479161
 20
75.99568200491261
 30
0.0
 11
-104.8922573090934
 21
75.91073459733204
 31
0.0
 11
-104.8762207549143
 21
75.95320977359289
 31
0.0
 11
-104.8613879479161
 21
75.99568200491261
 31
0.0
  0
SPLINE
  5
1B1
330
63
100
AcDbEntity
  8
0
  6
Continuous
 62
     2
100
AcDbSpline
210
0.0
220
0.0
230
1.0
 70
     8
 71
     3
 72
     9
 73
     5
 74
     3
 42
0.000000001
 43
0.0000000001
 44
0.00000001
 40
0.0
 40
0.0
 40
0.0
 40
0.0
 40
0.0434440259252672
 40
0.0865578234037917
 40
0.0865578234037917
 40
0.0865578234037917
 40
0.0865578234037917
 10
-104.8613879479161
 20
75.99568200491261
 30
0.0
 10
-104.8568707367509
 20
76.00944230469067
 30
0.0
 10
-104.847870669902
 20
76.03685831490836
 30
0.0
 10
-104.8399127096824
 20
76.06459472017549
 30
0.0
 10
-104.8359489193967
 20
76.07841001682438
 30
0.0
 11
-104.8613879479161
 21
75.99568200491261
 31
0.0
 11
-104.8480988423423
 21
76.0370436184279
 31
0.0
 11
-104.8359489193967
 21
76.07841001682438
 31
0.0
  0
SPLINE
  5
1B2
330
63
100
AcDbEntity
  8
0
  6
Continuous
 62
     2
100
AcDbSpline
210
0.0
220
0.0
230
1.0
 70
     8
 71
     3
 72
     9
 73
     5
 74
     3
 42
0.000000001
 43
0.0000000001
 44
0.00000001
 40
0.0
 40
0.0
 40
0.0
 40
0.0
 40
0.1766820791472979
 40
0.3555170991221035
 40
0.3555170991221035
 40
0.3555170991221035
 40
0.3555170991221035
 10
-104.7773118572165
 20
76.4784100168244
 30
0.0
 10
-104.7783016407039
 20
76.53741897392025
 30
0.0
 10
-104.7802932884679
 20
76.6561559340515
 30
0.0
 10
-104.8028303657844
 20
76.77275513564507
 30
0.0
 10
-104.8141671544143
 20
76.83140778590209
 30
0.0
 11
-104.7773118572165
 21
76.4784100168244
 31
0.0
 11
-104.7853555537343
 21
76.65490890136324
 31
0.0
 11
-104.8141671544143
 21
76.83140778590209
 31
0.0
  0
SPLINE
  5
1B3
330
63
100
AcDbEntity
  8
0
  6
Continuous
 62
     2
100
AcDbSpline
210
0.0
220
0.0
230
1.0
 70
     8
 71
     3
 72
     9
 73
     5
 74
     3
 42
0.000000001
 43
0.0000000001
 44
0.00000001
 40
0.0
 40
0.0
 40
0.0
 40
0.0
 40
0.2072598178095176
 40
0.4041149893985502
 40
0.4041149893985502
 40
0.4041149893985502
 40
0.4041149893985502
 10
-105.3802290920391
 20
75.15325354496157
 30
0.0
 10
-105.3347695160201
 20
75.20533879992487
 30
0.0
 10
-105.2461324948025
 20
75.30689459157779
 30
0.0
 10
-105.1677948705535
 20
75.41658433031826
 30
0.0
 10
-105.1296345356544
 20
75.47001712864117
 30
0.0
 11
-105.3802290920391
 21
75.15325354496157
 31
0.0
 11
-105.2465595161105
 21
75.31164886270844
 31
0.0
 11
-105.1296345356544
 21
75.47001712864117
 31
0.0
  0
SPLINE
  5
1B4
330
63
100
AcDbEntity
  8
0
  6
Continuous
 62
     2
100
AcDbSpline
210
0.0
220
0.0
230
1.0
 70
     8
 71
     3
 72
     9
 73
     5
 74
     3
 42
0.000000001
 43
0.0000000001
 44
0.00000001
 40
0.0
 40
0.0
 40
0.0
 40
0.0
 40
0.1968534991511534
 40
0.4041149894853572
 40
0.4041149894853572
 40
0.4041149894853572
 40
0.4041149894853572
 10
-108.1296345356544
 20
75.47001712864116
 30
0.0
 10
-108.1677945378079
 20
75.41658477864908
 30
0.0
 10
-108.2461321445343
 20
75.3068950283429
 30
0.0
 10
-108.3347691547924
 20
75.20533922580323
 30
0.0
 10
-108.3802290920258
 20
75.15325354495506
 30
0.0
 11
-108.1296345356544
 21
75.47001712864116
 31
0.0
 11
-108.2465584779033
 21
75.3116501750653
 31
0.0
 11
-108.3802290920258
 21
75.15325354495506
 31
0.0
  0
SPLINE
  5
1B5
330
63
100
AcDbEntity
  8
0
  6
Continuous
 62
     2
100
AcDbSpline
210
0.0
220
0.0
230
1.0
 70
     8
 71
     3
 72
     9
 73
     5
 74
     3
 42
0.000000001
 43
0.0000000001
 44
0.00000001
 40
0.0
 40
0.0
 40
0.0
 40
0.0
 40
0.0099899746159432
 40
0.019965880715553
 40
0.019965880715553
 40
0.019965880715553
 40
0.019965880715553
 10
-107.8186158241432
 20
76.85087164841893
 30
0.0
 10
-107.8178588482789
 20
76.84762881585466
 30
0.0
 10
-107.8163459820617
 20
76.84114771300253
 30
0.0
 10
-107.8148930825489
 20
76.83465290426878
 30
0.0
 10
-107.8141671544143
 20
76.83140778590207
 30
0.0
 11
-107.8186158241432
 21
76.85087164841893
 31
0.0
 11
-107.816359919116
 21
76.84113971716395
 31
0.0
 11
-107.8141671544143
 21
76.83140778590207
 31
0.0
  0
SPLINE
  5
1B6
330
63
100
AcDbEntity
  8
0
  6
Continuous
 62
     2
100
AcDbSpline
210
0.0
220
0.0
230
1.0
 70
     8
 71
     3
 72
     9
 73
     5
 74
     3
 42
0.000000001
 43
0.0000000001
 44
0.00000001
 40
0.0
 40
0.0
 40
0.0
 40
0.0
 40
0.0186293776101783
 40
0.0371969362439158
 40
0.0371969362439158
 40
0.0371969362439158
 40
0.0371969362439158
 10
-107.8533457478483
 20
76.9763128528818
 30
0.0
 10
-107.8514760712657
 20
76.97039109217037
 30
0.0
 10
-107.8477429414641
 20
76.95856721536202
 30
0.0
 10
-107.8442023958811
 20
76.94668425127917
 30
0.0
 10
-107.842435074724
 20
76.94075264070618
 30
0.0
 11
-107.8533457478483
 21
76.9763128528818
 31
0.0
 11
-107.8477850338953
 21
76.95853274679399
 31
0.0
 11
-107.842435074724
 21
76.94075264070618
 31
0.0
  0
SPLINE
  5
1B7
330
63
100
AcDbEntity
  8
0
  6
Continuous
 62
     2
100
AcDbSpline
210
0.0
220
0.0
230
1.0
 70
     8
 71
     3
 72
     9
 73
     5
 74
     3
 42
0.000000001
 43
0.0000000001
 44
0.00000001
 40
0.0
 40
0.0
 40
0.0
 40
0.0
 40
0.0466687912510907
 40
0.0929927059524413
 40
0.0929927059524413
 40
0.0929927059524413
 40
0.0929927059524413
 10
-107.842435074724
 20
76.94075264070618
 30
0.0
 10
-107.8381351724962
 20
76.92580046020262
 30
0.0
 10
-107.8295671630759
 20
76.89600658868994
 30
0.0
 10
-107.8222572273808
 20
76.86587938650705
 30
0.0
 10
-107.8186158241432
 20
76.85087164841893
 30
0.0
 11
-107.842435074724
 21
76.94075264070618
 31
0.0
 11
-107.8298522333686
 21
76.89581214456601
 31
0.0
 11
-107.8186158241432
 21
76.85087164841893
 31
0.0
  0
SPLINE
  5
1B8
330
63
100
AcDbEntity
  8
0
  6
Continuous
 62
     2
100
AcDbSpline
210
0.0
220
0.0
230
1.0
 70
     8
 71
     3
 72
     9
 73
     5
 74
     3
 42
0.000000001
 43
0.0000000001
 44
0.00000001
 40
0.0
 40
0.0
 40
0.0
 40
0.0
 40
0.0431091198462578
 40
0.0865578234095752
 40
0.0865578234095752
 40
0.0865578234095752
 40
0.0865578234095752
 10
-107.8359489193967
 20
76.07841001682438
 30
0.0
 10
-107.8399122699547
 20
76.0645962164797
 30
0.0
 10
-107.8478702107465
 20
76.03685980601699
 30
0.0
 10
-107.8568702594762
 20
76.00944378945304
 30
0.0
 10
-107.8613879479162
 20
75.99568200491261
 30
0.0
 11
-107.8359489193967
 21
76.07841001682438
 31
0.0
 11
-107.8480974673839
 21
76.03704808980712
 31
0.0
 11
-107.8613879479162
 21
75.99568200491261
 31
0.0
  0
SPLINE
  5
1B9
330
63
100
AcDbEntity
  8
0
  6
Continuous
 62
     2
100
AcDbSpline
210
0.0
220
0.0
230
1.0
 70
     8
 71
     3
 72
     9
 73
     5
 74
     3
 42
0.000000001
 43
0.0000000001
 44
0.00000001
 40
0.0
 40
0.0
 40
0.0
 40
0.0
 40
0.1788350199747802
 40
0.355517099122091
 40
0.355517099122091
 40
0.355517099122091
 40
0.355517099122091
 10
-107.8141671544143
 20
76.83140778590207
 30
0.0
 10
-107.8028303657845
 20
76.7727551356451
 30
0.0
 10
-107.780293288468
 20
76.65615593405151
 30
0.0
 10
-107.778301640704
 20
76.53741897392023
 30
0.0
 10
-107.7773118572166
 20
76.47841001682438
 30
0.0
 11
-107.8141671544143
 21
76.83140778590207
 31
0.0
 11
-107.7853555537343
 21
76.65490890136324
 31
0.0
 11
-107.7773118572166
 21
76.47841001682438
 31
0.0
  0
SPLINE
  5
1BA
330
63
100
AcDbEntity
  8
0
  6
Continuous
 62
     2
100
AcDbSpline
210
0.0
220
0.0
230
1.0
 70
     8
 71
     3
 72
     9
 73
     5
 74
     3
 42
0.000000001
 43
0.0000000001
 44
0.00000001
 40
0.0
 40
0.0
 40
0.0
 40
0.0
 40
0.0307430975976241
 40
0.0612457654696644
 40
0.0612457654696644
 40
0.0612457654696644
 40
0.0612457654696644
 10
-108.1447577158847
 20
77.54841001682439
 30
0.0
 10
-108.138903989274
 20
77.53999850220745
 30
0.0
 10
-108.1272423322374
 20
77.52324124480597
 30
0.0
 10
-108.1158712225075
 20
77.50628548997273
 30
0.0
 10
-108.1102079954083
 20
77.49784088818019
 30
0.0
 11
-108.1447577158847
 21
77.54841001682439
 31
0.0
 11
-108.1272697525822
 21
77.52312545250228
 31
0.0
 11
-108.1102079954083
 21
77.49784088818019
 31
0.0
  0
SPLINE
  5
1BB
330
63
100
AcDbEntity
  8
0
  6
Continuous
 62
     2
100
AcDbSpline
210
0.0
220
0.0
230
1.0
 70
     8
 71
     3
 72
     9
 73
     5
 74
     3
 42
0.000000001
 43
0.0000000001
 44
0.00000001
 40
0.0
 40
0.0
 40
0.0
 40
0.0
 40
0.044990472791669
 40
0.0903894750492517
 40
0.0903894750492517
 40
0.0903894750492517
 40
0.0903894750492517
 10
-107.8613879479162
 20
75.99568200491261
 30
0.0
 10
-107.8662447835414
 20
75.98149188109869
 30
0.0
 10
-107.8760025754219
 20
75.95298278881889
 30
0.0
 10
-107.8868227570855
 20
75.92485969441994
 30
0.0
 10
-107.8922573090935
 20
75.91073459733202
 30
0.0
 11
-107.8613879479162
 21
75.99568200491261
 31
0.0
 11
-107.8762216661984
 21
75.95320726588815
 31
0.0
 11
-107.8922573090935
 21
75.91073459733202
 31
0.0
  0
SPLINE
  5
1BC
330
63
100
AcDbEntity
  8
0
  6
Continuous
 62
     2
100
AcDbSpline
210
0.0
220
0.0
230
1.0
 70
     8
 71
     3
 72
     9
 73
     5
 74
     3
 42
0.000000001
 43
0.0000000001
 44
0.00000001
 40
0.0
 40
0.0
 40
0.0
 40
0.0
 40
0.2006377987468071
 40
0.4051351857042133
 40
0.4051351857042133
 40
0.4051351857042133
 40
0.4051351857042133
 10
-107.7773118572166
 20
76.47841001682438
 30
0.0
 10
-107.7805056481492
 20
76.4114317881883
 30
0.0
 10
-107.7869546874832
 20
76.27618690003442
 30
0.0
 10
-107.8195141079004
 20
76.14475301900882
 30
0.0
 10
-107.8359489193967
 20
76.07841001682438
 30
0.0
 11
-107.7773118572166
 21
76.47841001682438
 31
0.0
 11
-107.7932970549733
 21
76.27841001682438
 31
0.0
 11
-107.8359489193967
 21
76.07841001682438
 31
0.0
  0
SPLINE
  5
1BD
330
63
100
AcDbEntity
  8
0
  6
Continuous
 62
     2
100
AcDbSpline
210
0.0
220
0.0
230
1.0
 70
     8
 71
     3
 72
     9
 73
     5
 74
     3
 42
0.000000001
 43
0.0000000001
 44
0.00000001
 40
0.0
 40
0.0
 40
0.0
 40
0.0
 40
0.3013771731421155
 40
0.5827739444053015
 40
0.5827739444053015
 40
0.5827739444053015
 40
0.5827739444053015
 10
-108.1102079954083
 20
77.49784088818019
 30
0.0
 10
-108.0565823969647
 20
77.41251539799308
 30
0.0
 10
-107.9528864338867
 20
77.24752123213713
 30
0.0
 10
-107.8857588139524
 20
77.06462545495847
 30
0.0
 10
-107.8533457478483
 20
76.9763128528818
 30
0.0
 11
-108.1102079954083
 21
77.49784088818019
 31
0.0
 11
-107.9591109139947
 21
77.237076870531
 31
0.0
 11
-107.8533457478483
 21
76.9763128528818
 31
0.0
  0
SPLINE
  5
1BE
330
63
100
AcDbEntity
  8
0
  6
Continuous
 62
     2
100
AcDbSpline
210
0.0
220
0.0
230
1.0
 70
     8
 71
     3
 72
    11
 73
     7
 74
     5
 42
0.000000001
 43
0.0000000001
 44
0.00000001
 40
0.0
 40
0.0
 40
0.0
 40
0.0
 40
0.2875378372962177
 40
0.597385377666987
 40
0.9038105756905529
 40
1.188408568176166
 40
1.188408568176166
 40
1.188408568176166
 40
1.188408568176166
 10
-108.9132490042786
 20
78.4534100168244
 30
0.0
 10
-108.8562116894555
 20
78.37624470376254
 30
0.0
 10
-108.7377115954279
 20
78.21592692455837
 30
0.0
 10
-108.5279823755378
 20
77.99910783037534
 30
0.0
 10
-108.3188877637497
 20
77.78306440756145
 30
0.0
 10
-108.2013541735821
 20
77.62467835498913
 30
0.0
 10
-108.1447577158847
 20
77.54841001682439
 30
0.0
 11
-108.9132490042786
 21
78.4534100168244
 31
0.0
 11
-108.7374750052752
 21
78.2258545084122
 31
0.0
 11
-108.5271799999993
 21
77.998299
 31
0.0
 11
-108.3191021831768
 21
77.77335450841221
 31
0.0
 11
-108.1447577158847
 21
77.54841001682439
 31
0.0
  0
SPLINE
  5
1BF
330
63
100
AcDbEntity
  8
0
  6
Continuous
 62
     2
100
AcDbSpline
210
0.0
220
0.0
230
1.0
 70
     8
 71
     3
 72
     9
 73
     5
 74
     3
 42
0.000000001
 43
0.0000000001
 44
0.00000001
 40
0.0
 40
0.0
 40
0.0
 40
0.0
 40
0.4013469163023601
 40
0.7690945153170475
 40
0.7690945153170475
 40
0.7690945153170475
 40
0.7690945153170475
 10
-105.9166450195372
 20
78.45829662433636
 30
0.0
 10
-105.9895967471183
 20
78.57138703702873
 30
0.0
 10
-106.1293929288803
 20
78.78810034969948
 30
0.0
 10
-106.2025500027508
 20
79.03523902898307
 30
0.0
 10
-106.2375305297606
 20
79.1534100168244
 30
0.0
 11
-105.9166450195372
 21
78.45829662433636
 31
0.0
 11
-106.1173529936836
 21
78.80585332058034
 31
0.0
 11
-106.2375305297606
 21
79.1534100168244
 31
0.0
  0
SPLINE
  5
1C0
330
63
100
AcDbEntity
  8
0
  6
Continuous
 62
     2
100
AcDbSpline
210
0.0
220
0.0
230
1.0
 70
     8
 71
     3
 72
    11
 73
     7
 74
     5
 42
0.000000001
 43
0.0000000001
 44
0.00000001
 40
0.0
 40
0.0
 40
0.0
 40
0.0
 40
0.0895685570443495
 40
0.1771752053734458
 40
0.2758654537922652
 40
0.3723739901572881
 40
0.3723739901572881
 40
0.3723739901572881
 40
0.3723739901572881
 10
-105.0592452471219
 20
75.57841001682439
 30
0.0
 10
-105.0439032623275
 20
75.60402803291736
 30
0.0
 10
-105.013555356213
 20
75.65470293582692
 30
0.0
 10
-104.9702880631883
 20
75.73587348593608
 30
0.0
 10
-104.9290752748055
 20
75.82071517375341
 30
0.0
 10
-104.9044381711366
 20
75.8809525426586
 30
0.0
 10
-104.8922573090934
 20
75.91073459733204
 30
0.0
 11
-105.0592452471219
 21
75.57841001682439
 31
0.0
 11
-105.0138733934147
 21
75.65563644580283
 31
0.0
 11
-104.9724842782731
 21
75.73284956677712
 31
0.0
 11
-104.9297309596407
 21
75.82179853516324
 31
0.0
 11
-104.8922573090934
 21
75.91073459733204
 31
0.0
  0
SPLINE
  5
1C1
330
63
100
AcDbEntity
  8
0
  6
Continuous
 62
     2
100
AcDbSpline
210
0.0
220
0.0
230
1.0
 70
     8
 71
     3
 72
     9
 73
     5
 74
     3
 42
0.000000001
 43
0.0000000001
 44
0.00000001
 40
0.0
 40
0.0
 40
0.0
 40
0.0
 40
0.0099759060960366
 40
0.019965880715531
 40
0.019965880715531
 40
0.019965880715531
 40
0.019965880715531
 10
-104.8141671544143
 20
76.83140778590209
 30
0.0
 10
-104.8148930825486
 20
76.83465290426761
 30
0.0
 10
-104.8163459820614
 20
76.8411477130014
 30
0.0
 10
-104.8178588482785
 20
76.84762881585351
 30
0.0
 10
-104.8186158241431
 20
76.85087164841894
 30
0.0
 11
-104.8141671544143
 21
76.83140778590209
 31
0.0
 11
-104.8163599191152
 21
76.8411397171605
 31
0.0
 11
-104.8186158241431
 21
76.85087164841894
 31
0.0
  0
SPLINE
  5
1C2
330
63
100
AcDbEntity
  8
0
  6
Continuous
 62
     2
100
AcDbSpline
210
0.0
220
0.0
230
1.0
 70
     8
 71
     3
 72
     9
 73
     5
 74
     3
 42
0.000000001
 43
0.0000000001
 44
0.00000001
 40
0.0
 40
0.0
 40
0.0
 40
0.0
 40
0.0463239146977488
 40
0.0929927059524714
 40
0.0929927059524714
 40
0.0929927059524714
 40
0.0929927059524714
 10
-104.8186158241431
 20
76.85087164841894
 30
0.0
 10
-104.8222572273803
 20
76.86587938650591
 30
0.0
 10
-104.8295671630753
 20
76.89600658868883
 30
0.0
 10
-104.8381351724958
 20
76.92580046020154
 30
0.0
 10
-104.842435074724
 20
76.9407526407062
 30
0.0
 11
-104.8186158241431
 21
76.85087164841894
 31
0.0
 11
-104.8298522333674
 21
76.89581214456257
 31
0.0
 11
-104.842435074724
 21
76.9407526407062
 31
0.0
  0
SPLINE
  5
1C3
330
63
100
AcDbEntity
  8
0
  6
Continuous
 62
     2
100
AcDbSpline
210
0.0
220
0.0
230
1.0
 70
     8
 71
     3
 72
     9
 73
     5
 74
     3
 42
0.000000001
 43
0.0000000001
 44
0.00000001
 40
0.0
 40
0.0
 40
0.0
 40
0.0
 40
0.0029765289933769
 40
0.0059507867683228
 40
0.0059507867683228
 40
0.0059507867683228
 40
0.0059507867683228
 10
-105.9132490042787
 20
78.4534100168244
 30
0.0
 10
-105.9138158939349
 20
78.4542242958682
 30
0.0
 10
-105.9149492242659
 20
78.45585224404425
 30
0.0
 10
-105.9160799037678
 20
78.45748203444974
 30
0.0
 10
-105.9166450195372
 20
78.45829662433636
 30
0.0
 11
-105.9132490042787
 21
78.4534100168244
 31
0.0
 11
-105.914949001819
 21
78.45585332058036
 31
0.0
 11
-105.9166450195372
 21
78.45829662433636
 31
0.0
  0
SPLINE
  5
1C4
330
63
100
AcDbEntity
  8
0
  6
Continuous
 62
     2
100
AcDbSpline
210
0.0
220
0.0
230
1.0
 70
     8
 71
     3
 72
     9
 73
     5
 74
     3
 42
0.000000001
 43
0.0000000001
 44
0.00000001
 40
0.0
 40
0.0
 40
0.0
 40
0.0
 40
0.0185675586337034
 40
0.0371969362438868
 40
0.0371969362438868
 40
0.0371969362438868
 40
0.0371969362438868
 10
-104.842435074724
 20
76.9407526407062
 30
0.0
 10
-104.8442023958811
 20
76.94668425127917
 30
0.0
 10
-104.847742941464
 20
76.95856721536201
 30
0.0
 10
-104.8514760712657
 20
76.97039109217042
 30
0.0
 10
-104.8533457478482
 20
76.97631285288182
 30
0.0
 11
-104.842435074724
 21
76.9407526407062
 31
0.0
 11
-104.8477850338952
 21
76.95853274679399
 31
0.0
 11
-104.8533457478482
 21
76.97631285288182
 31
0.0
  0
SPLINE
  5
1C5
330
63
100
AcDbEntity
  8
0
  6
Continuous
 62
     2
100
AcDbSpline
210
0.0
220
0.0
230
1.0
 70
     8
 71
     3
 72
     9
 73
     5
 74
     3
 42
0.000000001
 43
0.0000000001
 44
0.00000001
 40
0.0
 40
0.0
 40
0.0
 40
0.0
 40
0.0305026678720759
 40
0.0612457654696758
 40
0.0612457654696758
 40
0.0612457654696758
 40
0.0612457654696758
 10
-105.1102079954082
 20
77.49784088818018
 30
0.0
 10
-105.1158712225074
 20
77.5062854899727
 30
0.0
 10
-105.1272423322373
 20
77.52324124480594
 30
0.0
 10
-105.1389039892739
 20
77.53999850220745
 30
0.0
 10
-105.1447577158846
 20
77.54841001682439
 30
0.0
 11
-105.1102079954082
 21
77.49784088818018
 31
0.0
 11
-105.1272697525821
 21
77.52312545250228
 31
0.0
 11
-105.1447577158846
 21
77.54841001682439
 31
0.0
  0
SPLINE
  5
1C6
330
63
100
AcDbEntity
  8
0
  6
Continuous
 62
     2
100
AcDbSpline
210
0.0
220
0.0
230
1.0
 70
     8
 71
     3
 72
     9
 73
     5
 74
     3
 42
0.000000001
 43
0.0000000001
 44
0.00000001
 40
0.0
 40
0.0
 40
0.0
 40
0.0
 40
0.281396771263186
 40
0.5827739444052769
 40
0.5827739444052769
 40
0.5827739444052769
 40
0.5827739444052769
 10
-104.8533457478482
 20
76.97631285288182
 30
0.0
 10
-104.8857588139523
 20
77.0646254549585
 30
0.0
 10
-104.9528864338866
 20
77.24752123213713
 30
0.0
 10
-105.0565823969646
 20
77.41251539799306
 30
0.0
 10
-105.1102079954082
 20
77.49784088818018
 30
0.0
 11
-104.8533457478482
 21
76.97631285288182
 31
0.0
 11
-104.9591109139946
 21
77.23707687053101
 31
0.0
 11
-105.1102079954082
 21
77.49784088818018
 31
0.0
  0
SPLINE
  5
1C7
330
63
100
AcDbEntity
  8
0
  6
Continuous
 62
     2
100
AcDbSpline
210
0.0
220
0.0
230
1.0
 70
     8
 71
     3
 72
    11
 73
     7
 74
     5
 42
0.000000001
 43
0.0000000001
 44
0.00000001
 40
0.0
 40
0.0
 40
0.0
 40
0.0
 40
0.3009618271390289
 40
0.6287742949810212
 40
0.7369381014967857
 40
0.8423484351816334
 40
0.8423484351816334
 40
0.8423484351816334
 40
0.8423484351816334
 10
-105.9518047332353
 20
74.53480401908404
 30
0.0
 10
-105.8867201618955
 20
74.6111852696293
 30
0.0
 10
-105.750744414908
 20
74.77076219700041
 30
0.0
 10
-105.5786790102607
 20
74.94625402459766
 30
0.0
 10
-105.4518024385802
 20
75.07460379554601
 30
0.0
 10
-105.40388093748
 20
75.12726326654895
 30
0.0
 10
-105.3802290920391
 20
75.15325354496157
 30
0.0
 11
-105.9518047332353
 21
74.53480401908404
 31
0.0
 11
-105.7540687094972
 21
74.76169272858206
 31
0.0
 11
-105.5271799999992
 21
74.998299
 31
0.0
 11
-105.4517036367688
 21
75.07577627248081
 31
0.0
 11
-105.3802290920391
 21
75.15325354496157
 31
0.0
  0
SPLINE
  5
1C8
330
63
100
AcDbEntity
  8
0
  6
Continuous
 62
     2
100
AcDbSpline
210
0.0
220
0.0
230
1.0
 70
     8
 71
     3
 72
    11
 73
     7
 74
     5
 42
0.000000001
 43
0.0000000001
 44
0.00000001
 40
0.0
 40
0.0
 40
0.0
 40
0.0
 40
0.2845979924856338
 40
0.5910231905092302
 40
0.9008707308800485
 40
1.18840856817629
 40
1.18840856817629
 40
1.18840856817629
 40
1.18840856817629
 10
-105.1447577158846
 20
77.54841001682439
 30
0.0
 10
-105.201354173582
 20
77.62467835498914
 30
0.0
 10
-105.3188877637497
 20
77.7830644075614
 30
0.0
 10
-105.5279823755379
 20
77.9991078303754
 30
0.0
 10
-105.7377115954278
 20
78.21592692455832
 30
0.0
 10
-105.8562116894556
 20
78.37624470376254
 30
0.0
 10
-105.9132490042787
 20
78.4534100168244
 30
0.0
 11
-105.1447577158846
 21
77.54841001682439
 31
0.0
 11
-105.3191021831767
 21
77.77335450841218
 31
0.0
 11
-105.5271799999993
 21
77.998299
 31
0.0
 11
-105.7374750052753
 21
78.22585450841221
 31
0.0
 11
-105.9132490042787
 21
78.4534100168244
 31
0.0
  0
ENDBLK
  5
65
330
63
100
AcDbEntity
  8
0
100
AcDbBlockEnd
  0
BLOCK
  5
68
330
66
100
AcDbEntity
  8
0
100
AcDbBlockBegin
  2
SA_Rechts1
 70
     0
 10
22.78532000000058
 20
77.998299
 30
0.0
  3
SA_Rechts1
  1

  0
INSERT
  5
67
330
66
100
AcDbEntity
  8
0
100
AcDbBlockReference
  2
carrier_tm_300-select__5
 10
-127.2146799999988
 20
74.46030739588987
 30
0.0
  0
MTEXT
  5
1C9
330
66
100
AcDbEntity
  8
1
 62
     6
100
AcDbMText
 10
-106.7146799999998
 20
71.96045257849293
 30
0.0
 40
2.5
 41
0.0
 71
     2
 72
     1
  1
 
  7
CONVERTER_11
 73
     1
 44
1.32052821128451
  0
ENDBLK
  5
69
330
66
100
AcDbEntity
  8
0
100
AcDbBlockEnd
  0
BLOCK
  5
6B
330
6A
100
AcDbEntity
  8
0
100
AcDbBlockBegin
  2
carrier_tm_300-select__6
 70
     0
 10
-65.19436580809364
 20
74.46200839588924
 30
0.0
  3
carrier_tm_300-select__6
  1

  0
LINE
  5
1CA
330
6A
100
AcDbEntity
  8
0
  6
Continuous
 62
     7
100
AcDbLine
 10
-56.99436580808821
 20
77.55011101682375
 30
0.0
 11
-57.58614070851285
 21
77.55011101682375
 31
0.0
  0
LINE
  5
1CB
330
6A
100
AcDbEntity
  8
0
  6
Continuous
 62
     7
100
AcDbLine
 10
-56.24481314439603
 20
76.94245364070554
 30
0.0
 11
-56.40455562881966
 21
77.49954188817955
 31
0.0
  0
LINE
  5
1CC
330
6A
100
AcDbEntity
  8
0
  6
Continuous
 62
     7
100
AcDbLine
 10
-56.40455562881966
 20
77.49954188817955
 30
0.0
 11
-55.97693318411406
 21
78.45999762433505
 31
0.0
  0
LINE
  5
1CD
330
6A
100
AcDbEntity
  8
0
  6
Continuous
 62
     7
100
AcDbLine
 10
-56.55988858887666
 20
79.85511101682374
 30
0.0
 11
-57.58614070851285
 21
77.55011101682375
 31
0.0
  0
LINE
  5
1CE
330
6A
100
AcDbEntity
  8
0
  6
Continuous
 62
     7
100
AcDbLine
 10
-58.46333615465531
 20
76.48011101682374
 30
0.0
 11
-60.97504579281993
 21
76.83310878590144
 31
0.0
  0
LINE
  5
1CF
330
6A
100
AcDbEntity
  8
0
  6
Continuous
 62
     7
100
AcDbLine
 10
-57.75501481070371
 20
75.47171812864055
 30
0.0
 11
-60.89088254355259
 21
75.91243559733134
 31
0.0
  0
LINE
  5
1D0
330
6A
100
AcDbEntity
  8
0
  6
Continuous
 62
     7
100
AcDbLine
 10
-63.3943658080882
 20
77.55011101682375
 30
0.0
 11
-62.8025887642397
 21
77.55011101682375
 31
0.0
  0
LINE
  5
1D1
330
6A
100
AcDbEntity
  8
0
  6
Continuous
 62
     7
100
AcDbLine
 10
-64.49436580809359
 20
79.85511101682374
 30
0.0
 11
-63.82884088387588
 21
79.85511101682374
 31
0.0
  0
LINE
  5
1D2
330
6A
100
AcDbEntity
  8
0
  6
Continuous
 62
     7
100
AcDbLine
 10
-63.39436580808821
 20
76.48011101682374
 30
0.0
 11
-63.3943658080882
 21
77.55011101682375
 31
0.0
  0
LINE
  5
1D3
330
6A
100
AcDbEntity
  8
0
  6
Continuous
 62
     7
100
AcDbLine
 10
-64.59436580808821
 20
75.58011101682375
 30
0.0
 11
-64.59436580809093
 21
78.46229069379574
 31
0.0
  0
LINE
  5
1D4
330
6A
100
AcDbEntity
  8
0
  6
Continuous
 62
     7
100
AcDbLine
 10
-62.5943658080882
 20
76.48011101682374
 30
0.0
 11
-63.39436580808821
 21
76.48011101682374
 31
0.0
  0
LINE
  5
1D5
330
6A
100
AcDbEntity
  8
0
  6
Continuous
 62
     7
100
AcDbLine
 10
-64.59436580808821
 20
75.58011101682375
 30
0.0
 11
-63.21112738612102
 21
75.58011101682375
 31
0.0
  0
LINE
  5
1D6
330
6A
100
AcDbEntity
  8
0
  6
Continuous
 62
     7
100
AcDbLine
 10
-61.97012789383074
 20
76.71973350141265
 30
0.0
 11
-62.5943658080882
 21
76.48011101682374
 31
0.0
  0
LINE
  5
1D7
330
6A
100
AcDbEntity
  8
0
  6
Continuous
 62
     7
100
AcDbLine
 10
-62.34510198233658
 20
76.08011101682375
 30
0.0
 11
-63.21112738612102
 21
75.58011101682375
 31
0.0
  0
LINE
  5
1D8
330
6A
100
AcDbEntity
  8
0
  6
Continuous
 62
     7
100
AcDbLine
 10
-61.6151573297072
 20
76.08011101682375
 30
0.0
 11
-62.34510198233658
 21
76.08011101682375
 31
0.0
  0
LINE
  5
1D9
330
6A
100
AcDbEntity
  8
0
  6
Continuous
 62
     7
100
AcDbLine
 10
-61.43562630246318
 20
75.45401191929534
 30
0.0
 11
-61.6151573297072
 21
76.08011101682375
 31
0.0
  0
LINE
  5
1DA
330
6A
100
AcDbEntity
  8
0
  6
Continuous
 62
     7
100
AcDbLine
 10
-61.20874285623444
 20
74.48137754792005
 30
0.0
 11
-61.01649051704674
 21
74.53650501908335
 31
0.0
  0
LINE
  5
1DB
330
6A
100
AcDbEntity
  8
0
  6
Continuous
 62
     7
100
AcDbLine
 10
-60.6736783469859
 20
75.15495454496094
 30
0.0
 11
-60.89088254355259
 21
75.91243559733134
 31
0.0
  0
LINE
  5
1DC
330
6A
100
AcDbEntity
  8
0
  6
Continuous
 62
     7
100
AcDbLine
 10
-56.9943658080882
 20
76.48011101682374
 30
0.0
 11
-58.46333615465531
 21
76.48011101682374
 31
0.0
  0
LINE
  5
1DD
330
6A
100
AcDbEntity
  8
0
  6
Continuous
 62
     7
100
AcDbLine
 10
-55.92180352857331
 20
75.99738300491245
 30
0.0
 11
-57.75501481070371
 21
75.47171812864055
 31
0.0
  0
LINE
  5
1DE
330
6A
100
AcDbEntity
  8
0
  6
Continuous
 62
     7
100
AcDbLine
 10
-55.8943658080936
 20
79.85511101682374
 30
0.0
 11
-56.55988858887666
 21
79.85511101682374
 31
0.0
  0
LINE
  5
1DF
330
6A
100
AcDbEntity
  8
0
  6
Continuous
 62
     7
100
AcDbLine
 10
-56.99436580808821
 20
77.55011101682375
 30
0.0
 11
-56.9943658080882
 21
76.48011101682374
 31
0.0
  0
LINE
  5
1E0
330
6A
100
AcDbEntity
  8
0
  6
Continuous
 62
     7
100
AcDbLine
 10
-62.8025887642397
 20
77.55011101682375
 30
0.0
 11
-63.82884088387588
 21
79.85511101682374
 31
0.0
  0
ARC
  5
1E1
330
6A
100
AcDbEntity
  8
0
  6
Continuous
 62
     7
100
AcDbCircle
 10
-55.8943658080936
 20
79.15511101682374
 30
0.0
 40
0.700000000000031
100
AcDbArc
 50
263.2259981745169
 51
0.0
  0
ARC
  5
1E2
330
6A
100
AcDbEntity
  8
0
  6
Continuous
 62
     7
100
AcDbCircle
 10
-64.49436580809363
 20
79.15511101682374
 30
0.0
 40
0.7000000000000028
100
AcDbArc
 50
89.99999999999652
 51
261.7867892984863
  0
ARC
  5
1E3
330
6A
100
AcDbEntity
  8
0
  6
Continuous
 62
     7
100
AcDbCircle
 10
-61.1543091949551
 20
75.01713586705254
 30
0.0
 40
0.4999999999999947
100
AcDbArc
 50
285.9999999999831
 51
15.99999999998779
  0
ARC
  5
1E4
330
6A
100
AcDbEntity
  8
0
  6
Continuous
 62
     7
100
AcDbCircle
 10
-61.25339199474016
 20
74.85257264841825
 30
0.0
 40
2.000000000000072
100
AcDbArc
 50
81.99999999999726
 51
110.9999999999995
  0
ARC
  5
1E5
330
6A
100
AcDbEntity
  8
0
  6
Continuous
 62
     7
100
AcDbCircle
 10
-61.3465615341428
 20
74.96200839588924
 30
0.0
 40
0.4999999999999767
100
AcDbArc
 50
100.2608295226978
 51
285.9999999999839
  0
ARC
  5
1E6
330
6A
100
AcDbEntity
  8
0
  6
Continuous
 62
     7
100
AcDbCircle
 10
-56.05962220648154
 20
76.47801385288115
 30
0.0
 40
0.4999999999994832
100
AcDbArc
 50
285.9999999999854
 51
111.7391704772631
  0
ARC
  5
1E7
330
6A
100
AcDbEntity
  8
0
  6
Continuous
 62
     7
100
AcDbCircle
 10
-55.8943658080936
 20
79.15511101682374
 30
0.0
 40
0.6999999999999957
100
AcDbArc
 50
0.0
 51
90.0
  0
ENDBLK
  5
6C
330
6A
100
AcDbEntity
  8
0
100
AcDbBlockEnd
  0
BLOCK
  5
6F
330
6D
100
AcDbEntity
  8
0
100
AcDbBlockBegin
  2
Vordans1
 70
     0
 10
-60.0
 20
77.99999999999964
 30
0.0
  3
Vordans1
  1

  0
INSERT
  5
6E
330
6D
100
AcDbEntity
  8
0
100
AcDbBlockReference
  2
carrier_tm_300-select__6
 10
-65.19436580809364
 20
74.46200839588924
 30
0.0
  0
MTEXT
  5
1E8
330
6D
100
AcDbEntity
  8
1
 62
     6
100
AcDbMText
 10
-60.41413721267702
 20
71.27774322236928
 30
0.0
 40
2.5
 41
0.0
 71
     2
 72
     1
  1
 
  7
CONVERTER_11
 73
     1
 44
1.32052821128451
  0
DIMENSION
  5
1F5
330
6D
100
AcDbEntity
  8
1
100
AcDbDimension
  2
*D18
 10
-70.09436580808816
 20
79.85511101682374
 30
0.0
 11
-71.80686580808816
 21
76.58480001384042
 31
0.0
 70
    32
  1
<>
 71
     5
 42
-1.0
 53
90.0
  3
ME10_DIM_11
100
AcDbAlignedDimension
 13
-64.59436580808821
 23
75.58011101682375
 33
0.0
 14
-63.82884088387588
 24
79.85511101682374
 34
0.0
 50
90.0
100
AcDbRotatedDimension
  0
INSERT
  5
1FF
330
6D
100
AcDbEntity
  8
1
100
AcDbBlockReference
  2
*D19
 10
0.0
 20
0.0
 30
0.0
  0
INSERT
  5
209
330
6D
100
AcDbEntity
  8
1
100
AcDbBlockReference
  2
*D20
 10
0.0
 20
0.0
 30
0.0
  0
ENDBLK
  5
70
330
6D
100
AcDbEntity
  8
0
100
AcDbBlockEnd
  0
BLOCK
  5
72
330
71
100
AcDbEntity
  8
0
100
AcDbBlockBegin
  2
_rahmen
 70
     0
 10
121.3822604984893
 20
-77.6471044454516
 30
0.0
  3
_rahmen
  1

  0
LINE
  5
20A
330
71
100
AcDbEntity
  8
1
  6
Continuous
 62
     6
100
AcDbLine
 10
53.04892716515589
 20
-72.6471044454516
 30
0.0
 11
121.3822604984893
 21
-72.64710444545211
 31
0.0
  0
LINE
  5
20B
330
71
100
AcDbEntity
  8
1
  6
Continuous
 62
     6
100
AcDbLine
 10
121.3822604984889
 20
-64.14710444545217
 30
0.0
 11
121.3822604984893
 21
-55.64710444545217
 31
0.0
  0
LINE
  5
20C
330
71
100
AcDbEntity
  8
1
  6
Continuous
 62
     6
100
AcDbLine
 10
121.3822604984893
 20
-55.64710444545217
 30
0.0
 11
121.3822604984883
 21
-51.39710444545217
 31
0.0
  0
LINE
  5
20D
330
71
100
AcDbEntity
  8
1
  6
Continuous
 62
     6
100
AcDbLine
 10
121.3822604984883
 20
-51.39710444545217
 30
0.0
 11
121.3822604984893
 21
-15.24710444545148
 31
0.0
  0
LINE
  5
20E
330
71
100
AcDbEntity
  8
1
  6
Continuous
 62
     2
100
AcDbLine
 10
-83.6177395015107
 20
-77.6471044454516
 30
0.0
 11
-151.9510728348438
 21
-77.6471044454516
 31
0.0
  0
LINE
  5
20F
330
71
100
AcDbEntity
  8
1
  6
Continuous
 62
     2
100
AcDbLine
 10
53.04892716515589
 20
-77.6471044454516
 30
0.0
 11
121.3822604984893
 21
-77.6471044454516
 31
0.0
  0
LINE
  5
210
330
71
100
AcDbEntity
  8
1
  6
Continuous
 62
     2
100
AcDbLine
 10
53.04892716515589
 20
-77.6471044454516
 30
0.0
 11
53.04892716515589
 21
-72.6471044454516
 31
0.0
  0
LINE
  5
211
330
71
100
AcDbEntity
  8
1
  6
Continuous
 62
     2
100
AcDbLine
 10
-15.2844061681773
 20
-77.6471044454516
 30
0.0
 11
-15.2844061681773
 21
-72.6471044454545
 31
0.0
  0
LINE
  5
212
330
71
100
AcDbEntity
  8
1
  6
Continuous
 62
     2
100
AcDbLine
 10
-83.6177395015107
 20
-77.6471044454516
 30
0.0
 11
-83.6177395015107
 21
-72.6471044454516
 31
0.0
  0
LINE
  5
213
330
71
100
AcDbEntity
  8
1
  6
Continuous
 62
     2
100
AcDbLine
 10
126.3822604984868
 20
-15.24710444545148
 30
0.0
 11
126.3822604984868
 21
42.15289555454861
 31
0.0
  0
LINE
  5
214
330
71
100
AcDbEntity
  8
1
  6
Continuous
 62
     2
100
AcDbLine
 10
126.3822604984868
 20
-15.24710444545148
 30
0.0
 11
121.3822604984893
 21
-15.24710444545148
 31
0.0
  0
LINE
  5
215
330
71
100
AcDbEntity
  8
1
  6
Continuous
 62
     2
100
AcDbLine
 10
-273.6177395015114
 20
-77.6471044454516
 30
0.0
 11
-293.6177395015116
 21
-77.6471044454516
 31
0.0
  0
LINE
  5
216
330
71
100
AcDbEntity
  8
1
  6
Continuous
 62
     2
100
AcDbLine
 10
-220.2844061681773
 20
-77.6471044454516
 30
0.0
 11
-220.2844061681773
 21
-72.6471044454516
 31
0.0
  0
LINE
  5
217
330
71
100
AcDbEntity
  8
1
  6
Continuous
 62
     2
100
AcDbLine
 10
-220.2844061681773
 20
-77.6471044454516
 30
0.0
 11
-151.9510728348438
 21
-77.6471044454516
 31
0.0
  0
LINE
  5
218
330
71
100
AcDbEntity
  8
1
  6
Continuous
 62
     6
100
AcDbLine
 10
-220.2844061681773
 20
-72.6471044454516
 30
0.0
 11
-151.9510728348438
 21
-72.6471044454516
 31
0.0
  0
LINE
  5
219
330
71
100
AcDbEntity
  8
1
  6
Continuous
 62
     6
100
AcDbLine
 10
-220.2844061681773
 20
-72.6471044454516
 30
0.0
 11
-273.6177395015104
 21
-72.6471044454516
 31
0.0
  0
LINE
  5
21A
330
71
100
AcDbEntity
  8
1
  6
Continuous
 62
     2
100
AcDbLine
 10
-151.9510728348438
 20
-77.6471044454516
 30
0.0
 11
-151.9510728348438
 21
-72.6471044454516
 31
0.0
  0
LINE
  5
21B
330
71
100
AcDbEntity
  8
1
  6
Continuous
 62
     2
100
AcDbLine
 10
-273.6177395015114
 20
-77.6471044454516
 30
0.0
 11
-273.6177395015114
 21
-73.6471044454516
 31
0.0
  0
LINE
  5
21C
330
71
100
AcDbEntity
  8
1
  6
Continuous
 62
     2
100
AcDbLine
 10
-273.6177395015114
 20
-77.6471044454516
 30
0.0
 11
-220.2844061681773
 21
-77.6471044454516
 31
0.0
  0
LINE
  5
21D
330
71
100
AcDbEntity
  8
1
  6
Continuous
 62
     2
100
AcDbLine
 10
-63.61773950151351
 20
-77.6471044454516
 30
0.0
 11
-83.6177395015107
 21
-77.6471044454516
 31
0.0
  0
LINE
  5
21E
330
71
100
AcDbEntity
  8
1
  6
Continuous
 62
     2
100
AcDbLine
 10
-63.61773950151351
 20
-77.6471044454516
 30
0.0
 11
-63.61773950151351
 21
-73.6471044454516
 31
0.0
  0
LINE
  5
21F
330
71
100
AcDbEntity
  8
1
  6
Continuous
 62
     2
100
AcDbLine
 10
-63.61773950151351
 20
-77.6471044454516
 30
0.0
 11
-15.2844061681773
 21
-77.6471044454516
 31
0.0
  0
LINE
  5
220
330
71
100
AcDbEntity
  8
1
  6
Continuous
 62
     2
100
AcDbLine
 10
-15.2844061681773
 20
-77.6471044454516
 30
0.0
 11
53.04892716515589
 21
-77.6471044454516
 31
0.0
  0
LINE
  5
221
330
71
100
AcDbEntity
  8
1
  6
Continuous
 62
     2
100
AcDbLine
 10
126.3822604984868
 20
-77.6471044454516
 30
0.0
 11
121.3822604984893
 21
-77.6471044454516
 31
0.0
  0
LINE
  5
222
330
71
100
AcDbEntity
  8
1
  6
Continuous
 62
     2
100
AcDbLine
 10
126.3822604984868
 20
-72.6471044454516
 30
0.0
 11
126.3822604984868
 21
-77.6471044454516
 31
0.0
  0
LINE
  5
223
330
71
100
AcDbEntity
  8
1
  6
Continuous
 62
     2
100
AcDbLine
 10
126.3822604984868
 20
-72.6471044454516
 30
0.0
 11
126.3822604984868
 21
-15.24710444545148
 31
0.0
  0
LINE
  5
224
330
71
100
AcDbEntity
  8
1
  6
Continuous
 62
     2
100
AcDbLine
 10
126.3822604984868
 20
219.3528955545484
 30
0.0
 11
121.3822604984868
 21
219.3528955545484
 31
0.0
  0
LINE
  5
225
330
71
100
AcDbEntity
  8
1
  6
Continuous
 62
     6
100
AcDbLine
 10
121.3822604984868
 20
214.3528955545484
 30
0.0
 11
121.3822604984873
 21
156.9528955545483
 31
0.0
  0
LINE
  5
226
330
71
100
AcDbEntity
  8
1
  6
Continuous
 62
     2
100
AcDbLine
 10
126.3822604984868
 20
219.3528955545484
 30
0.0
 11
126.3822604984868
 21
214.3528955545484
 31
0.0
  0
LINE
  5
227
330
71
100
AcDbEntity
  8
1
  6
Continuous
 62
     2
100
AcDbLine
 10
121.3822604984868
 20
214.3528955545484
 30
0.0
 11
121.3822604984868
 21
219.3528955545484
 31
0.0
  0
LINE
  5
228
330
71
100
AcDbEntity
  8
1
  6
Continuous
 62
     2
100
AcDbLine
 10
121.3822604984868
 20
214.3528955545484
 30
0.0
 11
126.3822604984868
 21
214.3528955545484
 31
0.0
  0
LINE
  5
229
330
71
100
AcDbEntity
  8
1
  6
Continuous
 62
     2
100
AcDbLine
 10
126.3822604984868
 20
214.3528955545484
 30
0.0
 11
126.3822604984868
 21
156.9528955545483
 31
0.0
  0
LINE
  5
22A
330
71
100
AcDbEntity
  8
1
  6
Continuous
 62
     2
100
AcDbLine
 10
121.3822604984873
 20
156.9528955545483
 30
0.0
 11
126.3822604984868
 21
156.9528955545483
 31
0.0
  0
LINE
  5
22B
330
71
100
AcDbEntity
  8
1
  6
Continuous
 62
     6
100
AcDbLine
 10
121.3822604984873
 20
156.9528955545483
 30
0.0
 11
121.3822604984893
 21
99.55289555454841
 31
0.0
  0
LINE
  5
22C
330
71
100
AcDbEntity
  8
1
  6
Continuous
 62
     2
100
AcDbLine
 10
126.3822604984868
 20
156.9528955545483
 30
0.0
 11
126.3822604984868
 21
99.55289555454841
 31
0.0
  0
LINE
  5
22D
330
71
100
AcDbEntity
  8
1
  6
Continuous
 62
     2
100
AcDbLine
 10
121.3822604984893
 20
99.55289555454841
 30
0.0
 11
126.3822604984868
 21
99.55289555454841
 31
0.0
  0
LINE
  5
22E
330
71
100
AcDbEntity
  8
1
  6
Continuous
 62
     6
100
AcDbLine
 10
121.3822604984893
 20
99.55289555454841
 30
0.0
 11
121.3822604984893
 21
42.15289555454861
 31
0.0
  0
LINE
  5
22F
330
71
100
AcDbEntity
  8
1
  6
Continuous
 62
     2
100
AcDbLine
 10
126.3822604984868
 20
99.55289555454841
 30
0.0
 11
126.3822604984868
 21
42.15289555454861
 31
0.0
  0
LINE
  5
230
330
71
100
AcDbEntity
  8
1
  6
Continuous
 62
     2
100
AcDbLine
 10
121.3822604984893
 20
42.15289555454861
 30
0.0
 11
126.3822604984868
 21
42.15289555454861
 31
0.0
  0
LINE
  5
231
330
71
100
AcDbEntity
  8
1
  6
Continuous
 62
     6
100
AcDbLine
 10
121.3822604984893
 20
42.15289555454861
 30
0.0
 11
121.3822604984893
 21
-15.24710444545148
 31
0.0
  0
LINE
  5
232
330
71
100
AcDbEntity
  8
1
  6
Continuous
 62
     6
100
AcDbLine
 10
-273.6177395015114
 20
214.3528955545486
 30
0.0
 11
-220.2844061681773
 21
214.3528955545486
 31
0.0
  0
LINE
  5
233
330
71
100
AcDbEntity
  8
1
  6
Continuous
 62
     2
100
AcDbLine
 10
121.3822604984868
 20
219.3528955545484
 30
0.0
 11
53.04892716515589
 21
219.3528955545484
 31
0.0
  0
LINE
  5
234
330
71
100
AcDbEntity
  8
1
  6
Continuous
 62
     2
100
AcDbLine
 10
53.04892716515589
 20
214.3528955545484
 30
0.0
 11
53.04892716515589
 21
219.3528955545484
 31
0.0
  0
LINE
  5
235
330
71
100
AcDbEntity
  8
1
  6
Continuous
 62
     6
100
AcDbLine
 10
53.04892716515589
 20
214.3528955545484
 30
0.0
 11
121.3822604984868
 21
214.3528955545484
 31
0.0
  0
LINE
  5
236
330
71
100
AcDbEntity
  8
1
  6
Continuous
 62
     2
100
AcDbLine
 10
53.04892716515589
 20
219.3528955545484
 30
0.0
 11
-15.2844061681773
 21
219.3528955545484
 31
0.0
  0
LINE
  5
237
330
71
100
AcDbEntity
  8
1
  6
Continuous
 62
     2
100
AcDbLine
 10
-15.2844061681773
 20
214.3528955545484
 30
0.0
 11
-15.2844061681773
 21
219.3528955545484
 31
0.0
  0
LINE
  5
238
330
71
100
AcDbEntity
  8
1
  6
Continuous
 62
     6
100
AcDbLine
 10
-15.2844061681773
 20
214.3528955545484
 30
0.0
 11
53.04892716515589
 21
214.3528955545484
 31
0.0
  0
LINE
  5
239
330
71
100
AcDbEntity
  8
1
  6
Continuous
 62
     2
100
AcDbLine
 10
-15.2844061681773
 20
219.3528955545484
 30
0.0
 11
-63.61773950151351
 21
219.3528955545484
 31
0.0
  0
LINE
  5
23A
330
71
100
AcDbEntity
  8
1
  6
Continuous
 62
     2
100
AcDbLine
 10
-83.6177395015107
 20
214.3528955545484
 30
0.0
 11
-83.6177395015107
 21
219.3528955545484
 31
0.0
  0
LINE
  5
23B
330
71
100
AcDbEntity
  8
1
  6
Continuous
 62
     6
100
AcDbLine
 10
-83.6177395015107
 20
214.3528955545484
 30
0.0
 11
-15.2844061681773
 21
214.3528955545484
 31
0.0
  0
LINE
  5
23C
330
71
100
AcDbEntity
  8
1
  6
Continuous
 62
     2
100
AcDbLine
 10
-83.6177395015107
 20
219.3528955545484
 30
0.0
 11
-151.9510728348438
 21
219.3528955545484
 31
0.0
  0
LINE
  5
23D
330
71
100
AcDbEntity
  8
1
  6
Continuous
 62
     2
100
AcDbLine
 10
-151.9510728348438
 20
214.3528955545484
 30
0.0
 11
-151.9510728348438
 21
219.3528955545484
 31
0.0
  0
LINE
  5
23E
330
71
100
AcDbEntity
  8
1
  6
Continuous
 62
     6
100
AcDbLine
 10
-151.9510728348438
 20
214.3528955545484
 30
0.0
 11
-83.6177395015107
 21
214.3528955545484
 31
0.0
  0
LINE
  5
23F
330
71
100
AcDbEntity
  8
1
  6
Continuous
 62
     2
100
AcDbLine
 10
-151.9510728348438
 20
219.3528955545484
 30
0.0
 11
-220.2844061681773
 21
219.3528955545484
 31
0.0
  0
LINE
  5
240
330
71
100
AcDbEntity
  8
1
  6
Continuous
 62
     2
100
AcDbLine
 10
-220.2844061681773
 20
214.3528955545486
 30
0.0
 11
-220.2844061681773
 21
219.3528955545484
 31
0.0
  0
LINE
  5
241
330
71
100
AcDbEntity
  8
1
  6
Continuous
 62
     6
100
AcDbLine
 10
-220.2844061681773
 20
214.3528955545486
 30
0.0
 11
-151.9510728348438
 21
214.3528955545484
 31
0.0
  0
LINE
  5
242
330
71
100
AcDbEntity
  8
1
  6
Continuous
 62
     2
100
AcDbLine
 10
-220.2844061681773
 20
219.3528955545484
 30
0.0
 11
-273.6177395015114
 21
219.3528955545484
 31
0.0
  0
LINE
  5
243
330
71
100
AcDbEntity
  8
1
  6
Continuous
 62
     2
100
AcDbLine
 10
-273.6177395015114
 20
219.3528955545484
 30
0.0
 11
-273.6177395015114
 21
215.3528955545486
 31
0.0
  0
LINE
  5
244
330
71
100
AcDbEntity
  8
1
  6
Continuous
 62
     2
100
AcDbLine
 10
-273.6177395015114
 20
219.3528955545484
 30
0.0
 11
-293.6177395015116
 21
219.3528955545484
 31
0.0
  0
LINE
  5
245
330
71
100
AcDbEntity
  8
1
  6
Continuous
 62
     2
100
AcDbLine
 10
-63.61773950151351
 20
219.3528955545484
 30
0.0
 11
-63.61773950151351
 21
215.3528955545486
 31
0.0
  0
LINE
  5
246
330
71
100
AcDbEntity
  8
1
  6
Continuous
 62
     2
100
AcDbLine
 10
-63.61773950151351
 20
219.3528955545484
 30
0.0
 11
-83.6177395015107
 21
219.3528955545484
 31
0.0
  0
LINE
  5
247
330
71
100
AcDbEntity
  8
1
  6
Continuous
 62
     2
100
AcDbLine
 10
-293.6177395015116
 20
219.3528955545484
 30
0.0
 11
-293.6177395015116
 21
70.85289555454843
 31
0.0
  0
LINE
  5
248
330
71
100
AcDbEntity
  8
1
  6
Continuous
 62
     2
100
AcDbLine
 10
-293.6177395015116
 20
70.85289555454843
 30
0.0
 11
-283.6177395015114
 21
70.85289555454843
 31
0.0
  0
LINE
  5
249
330
71
100
AcDbEntity
  8
1
  6
Continuous
 62
     2
100
AcDbLine
 10
-293.6177395015116
 20
70.85289555454843
 30
0.0
 11
-293.6177395015116
 21
-77.6471044454516
 31
0.0
  0
LINE
  5
24A
330
71
100
AcDbEntity
  8
1
  6
Continuous
 62
     6
100
AcDbLine
 10
-273.6177395015104
 20
-72.6471044454516
 30
0.0
 11
-273.6177395015114
 21
214.3528955545486
 31
0.0
  0
LINE
  5
24B
330
71
100
AcDbEntity
  8
1
  6
Continuous
 62
     6
100
AcDbLine
 10
121.3822604984893
 20
-72.64710444545211
 30
0.0
 11
121.3822604984889
 21
-64.14710444545217
 31
0.0
  0
LINE
  5
24C
330
71
100
AcDbEntity
  8
1
  6
Continuous
 62
     6
100
AcDbLine
 10
-151.9510728348438
 20
-72.6471044454516
 30
0.0
 11
-8.16254402826061
 21
-72.64710444545467
 31
0.0
  0
LINE
  5
24D
330
71
100
AcDbEntity
  8
1
  6
Continuous
 62
     2
100
AcDbLine
 10
-15.2844061681773
 20
-72.6471044454545
 30
0.0
 11
-15.2844061681773
 21
-72.6471044454516
 31
0.0
  0
LINE
  5
24E
330
71
100
AcDbEntity
  8
1
  6
Continuous
 62
     6
100
AcDbLine
 10
121.3822604984911
 20
-55.64710444545217
 30
0.0
 11
121.3822604984911
 21
-47.14710444545217
 31
0.0
  0
LINE
  5
24F
330
71
100
AcDbEntity
  8
1
  6
Continuous
 62
     7
100
AcDbLine
 10
56.1374559717393
 20
-64.14710444545217
 30
0.0
 11
56.1374559717393
 21
-55.64710444545217
 31
0.0
  0
LINE
  5
250
330
71
100
AcDbEntity
  8
1
  6
Continuous
 62
     6
100
AcDbLine
 10
28.23745597173931
 20
-55.64710444545217
 30
0.0
 11
121.3822604984911
 21
-55.64710444545217
 31
0.0
  0
LINE
  5
251
330
71
100
AcDbEntity
  8
1
  6
Continuous
 62
     7
100
AcDbLine
 10
-8.16254402826061
 20
-55.64710444545217
 30
0.0
 11
-8.16254402826061
 21
-47.14710444545217
 31
0.0
  0
LINE
  5
252
330
71
100
AcDbEntity
  8
1
  6
Continuous
 62
     7
100
AcDbLine
 10
28.23745597173931
 20
-55.64710444545217
 30
0.0
 11
28.23745597173931
 21
-47.14710444545217
 31
0.0
  0
LINE
  5
253
330
71
100
AcDbEntity
  8
1
  6
Continuous
 62
     7
100
AcDbLine
 10
85.96385221681227
 20
-47.14710444545217
 30
0.0
 11
85.96385221681227
 21
-55.64710444545217
 31
0.0
  0
LINE
  5
254
330
71
100
AcDbEntity
  8
1
  6
Continuous
 62
     7
100
AcDbLine
 10
112.4638522168119
 20
-47.14710444545217
 30
0.0
 11
112.4638522168119
 21
-55.64710444545217
 31
0.0
  0
LINE
  5
255
330
71
100
AcDbEntity
  8
1
  6
Continuous
 62
     7
100
AcDbLine
 10
121.3822604984906
 20
-64.14710444545217
 30
0.0
 11
28.23745597173931
 21
-64.14710444545217
 31
0.0
  0
LINE
  5
256
102
{ACAD_REACTORS
330
33B
330
33C
102
}
330
71
100
AcDbEntity
  8
0
  6
Continuous
 62
     2
100
AcDbLine
 10
5.54488491350679
 20
-63.34681532978887
 30
0.0
 11
5.54488491350679
 21
-62.4742983229856
 31
0.0
  0
LINE
  5
257
102
{ACAD_REACTORS
330
33B
330
33C
102
}
330
71
100
AcDbEntity
  8
0
  6
Continuous
 62
     2
100
AcDbLine
 10
5.54488491350679
 20
-64.30658403727166
 30
0.0
 11
5.54488491350679
 21
-65.17910104407498
 31
0.0
  0
LINE
  5
258
102
{ACAD_REACTORS
330
33D
330
33E
102
}
330
71
100
AcDbEntity
  8
0
  6
Continuous
 62
     2
100
AcDbLine
 10
20.87792904979719
 20
-63.0850602277484
 30
0.0
 11
21.98156834936529
 21
-63.0850602277484
 31
0.0
  0
LINE
  5
259
102
{ACAD_REACTORS
330
33D
330
33E
102
}
330
71
100
AcDbEntity
  8
0
  6
Continuous
 62
     2
100
AcDbLine
 10
21.6475863927586
 20
-64.30658403727217
 30
0.0
 11
21.6475863927586
 21
-65.1791010440755
 31
0.0
  0
LINE
  5
25A
102
{ACAD_REACTORS
330
347
330
348
102
}
330
71
100
AcDbEntity
  8
0
  6
Continuous
 62
     2
100
AcDbLine
 10
19.78682977737878
 20
-61.99441396926149
 30
0.0
 11
21.18478282431909
 21
-60.41355497548661
 31
0.0
  0
LINE
  5
25B
102
{ACAD_REACTORS
330
347
330
348
102
}
330
71
100
AcDbEntity
  8
0
  6
Continuous
 62
     2
100
AcDbLine
 10
19.88225319355161
 20
-58.9406044454504
 30
0.0
 11
21.18478282431909
 21
-60.41355497548661
 31
0.0
  0
LINE
  5
25C
102
{ACAD_REACTORS
330
347
330
348
102
}
330
71
100
AcDbEntity
  8
0
  6
Continuous
 62
     2
100
AcDbLine
 10
22.48731245508549
 20
-58.9406044454504
 30
0.0
 11
23.89003667283271
 21
-58.9406044454504
 31
0.0
  0
LINE
  5
25D
102
{ACAD_REACTORS
330
347
330
348
102
}
330
71
100
AcDbEntity
  8
0
  6
Continuous
 62
     2
100
AcDbLine
 10
21.18955399512689
 20
-61.99441396926149
 30
0.0
 11
21.8861449331927
 21
-61.20668218396777
 31
0.0
  0
LINE
  5
25E
102
{ACAD_REACTORS
330
347
330
348
102
}
330
71
100
AcDbEntity
  8
0
  6
Continuous
 62
     2
100
AcDbLine
 10
21.18955399512689
 20
-61.99441396926149
 30
0.0
 11
19.78682977737878
 21
-61.99441396926149
 31
0.0
  0
LINE
  5
25F
102
{ACAD_REACTORS
330
349
330
34A
102
}
330
71
100
AcDbEntity
  8
0
  6
Continuous
 62
     2
100
AcDbLine
 10
19.66755050716191
 20
-61.99441396926149
 30
0.0
 11
18.42704609690898
 21
-61.99441396926149
 31
0.0
  0
LINE
  5
260
102
{ACAD_REACTORS
330
34B
330
34C
102
}
330
71
100
AcDbEntity
  8
0
  6
Continuous
 62
     2
100
AcDbLine
 10
17.5590664887539
 20
-64.13208063591141
 30
0.0
 11
17.25890125156369
 21
-63.36426566992471
 31
0.0
  0
LINE
  5
261
102
{ACAD_REACTORS
330
34B
330
34C
102
}
330
71
100
AcDbEntity
  8
0
  6
Continuous
 62
     2
100
AcDbLine
 10
16.9587360143714
 20
-64.13208063591141
 30
0.0
 11
17.5590664887539
 21
-64.13208063591141
 31
0.0
  0
LINE
  5
262
102
{ACAD_REACTORS
330
34B
330
34C
102
}
330
71
100
AcDbEntity
  8
0
  6
Continuous
 62
     2
100
AcDbLine
 10
15.2406959994976
 20
-65.3536044454358
 30
0.0
 11
16.4812004097505
 21
-65.3536044454358
 31
0.0
  0
LINE
  5
263
102
{ACAD_REACTORS
330
34B
330
34C
102
}
330
71
100
AcDbEntity
  8
0
  6
Continuous
 62
     2
100
AcDbLine
 10
16.6386490464368
 20
-62.29979492162467
 30
0.0
 11
17.87915345668961
 21
-62.29979492162467
 31
0.0
  0
LINE
  5
264
102
{ACAD_REACTORS
330
34B
330
34C
102
}
330
71
100
AcDbEntity
  8
0
  6
Continuous
 62
     2
100
AcDbLine
 10
17.87915345668961
 20
-62.29979492162467
 30
0.0
 11
19.27710650362988
 21
-65.3536044454358
 31
0.0
  0
LINE
  5
265
102
{ACAD_REACTORS
330
34B
330
34C
102
}
330
71
100
AcDbEntity
  8
0
  6
Continuous
 62
     2
100
AcDbLine
 10
18.03660209337599
 20
-65.3536044454358
 30
0.0
 11
17.82512203990021
 21
-64.81264390121801
 31
0.0
  0
LINE
  5
266
102
{ACAD_REACTORS
330
34D
330
34E
102
}
330
71
100
AcDbEntity
  8
0
  6
Continuous
 62
     2
100
AcDbLine
 10
13.89428289778999
 20
-65.3536044454358
 30
0.0
 11
15.08707559995639
 21
-65.3536044454358
 31
0.0
  0
LINE
  5
267
102
{ACAD_REACTORS
330
34D
330
34E
102
}
330
71
100
AcDbEntity
  8
0
  6
Continuous
 62
     2
100
AcDbLine
 10
13.89428289778999
 20
-63.0850602277484
 30
0.0
 11
13.89428289778999
 21
-65.3536044454358
 31
0.0
  0
LINE
  5
268
102
{ACAD_REACTORS
330
34D
330
34E
102
}
330
71
100
AcDbEntity
  8
0
  6
Continuous
 62
     2
100
AcDbLine
 10
13.0831838603153
 20
-62.29979492162467
 30
0.0
 11
13.0831838603153
 21
-63.0850602277484
 31
0.0
  0
LINE
  5
269
102
{ACAD_REACTORS
330
34F
330
350
102
}
330
71
100
AcDbEntity
  8
0
  6
Continuous
 62
     2
100
AcDbLine
 10
14.56239774188799
 20
-61.99441396926149
 30
0.0
 11
15.75519044405439
 21
-61.99441396926149
 31
0.0
  0
LINE
  5
26A
102
{ACAD_REACTORS
330
34F
330
350
102
}
330
71
100
AcDbEntity
  8
0
  6
Continuous
 62
     2
100
AcDbLine
 10
16.99569485430848
 20
-60.24937995565547
 30
0.0
 11
15.75519044405439
 21
-58.9406044454504
 31
0.0
  0
LINE
  5
26B
102
{ACAD_REACTORS
330
34F
330
350
102
}
330
71
100
AcDbEntity
  8
0
  6
Continuous
 62
     2
100
AcDbLine
 10
18.18848755647508
 20
-58.9406044454504
 30
0.0
 11
16.99569485430848
 21
-58.9406044454504
 31
0.0
  0
LINE
  5
26C
102
{ACAD_REACTORS
330
34F
330
350
102
}
330
71
100
AcDbEntity
  8
0
  6
Continuous
 62
     2
100
AcDbLine
 10
18.18848755647508
 20
-61.99441396926149
 30
0.0
 11
18.18848755647508
 21
-58.9406044454504
 31
0.0
  0
LINE
  5
26D
102
{ACAD_REACTORS
330
34F
330
350
102
}
330
71
100
AcDbEntity
  8
0
  6
Continuous
 62
     2
100
AcDbLine
 10
16.99569485430848
 20
-61.99441396926149
 30
0.0
 11
18.18848755647508
 21
-61.99441396926149
 31
0.0
  0
LINE
  5
26E
102
{ACAD_REACTORS
330
34F
330
350
102
}
330
71
100
AcDbEntity
  8
0
  6
Continuous
 62
     2
100
AcDbLine
 10
15.75519044405439
 20
-60.68563845905676
 30
0.0
 11
16.99569485430848
 21
-61.99441396926149
 31
0.0
  0
LINE
  5
26F
102
{ACAD_REACTORS
330
351
330
352
102
}
330
71
100
AcDbEntity
  8
0
  6
Continuous
 62
     2
100
AcDbLine
 10
11.74725603388879
 20
-63.6085704318299
 30
0.0
 11
10.50675162363581
 21
-62.29979492162467
 31
0.0
  0
LINE
  5
270
102
{ACAD_REACTORS
330
351
330
352
102
}
330
71
100
AcDbEntity
  8
0
  6
Continuous
 62
     2
100
AcDbLine
 10
11.74725603388879
 20
-62.29979492162467
 30
0.0
 11
11.74725603388879
 21
-63.6085704318299
 31
0.0
  0
LINE
  5
271
102
{ACAD_REACTORS
330
351
330
352
102
}
330
71
100
AcDbEntity
  8
0
  6
Continuous
 62
     2
100
AcDbLine
 10
12.94004873605519
 20
-62.29979492162467
 30
0.0
 11
11.74725603388879
 21
-62.29979492162467
 31
0.0
  0
LINE
  5
272
102
{ACAD_REACTORS
330
351
330
352
102
}
330
71
100
AcDbEntity
  8
0
  6
Continuous
 62
     2
100
AcDbLine
 10
12.94004873605519
 20
-65.3536044454358
 30
0.0
 11
12.94004873605519
 21
-62.29979492162467
 31
0.0
  0
LINE
  5
273
102
{ACAD_REACTORS
330
351
330
352
102
}
330
71
100
AcDbEntity
  8
0
  6
Continuous
 62
     2
100
AcDbLine
 10
10.50675162363581
 20
-64.04482893523131
 30
0.0
 11
11.74725603388879
 21
-65.3536044454358
 31
0.0
  0
LINE
  5
274
102
{ACAD_REACTORS
330
351
330
352
102
}
330
71
100
AcDbEntity
  8
0
  6
Continuous
 62
     2
100
AcDbLine
 10
10.50675162363581
 20
-65.3536044454358
 30
0.0
 11
10.50675162363581
 21
-64.04482893523131
 31
0.0
  0
LINE
  5
275
102
{ACAD_REACTORS
330
341
330
342
102
}
330
71
100
AcDbEntity
  8
0
  6
Continuous
 62
     2
100
AcDbLine
 10
12.98791137502738
 20
-59.6386180508933
 30
0.0
 11
14.323839201455
 21
-59.6386180508933
 31
0.0
  0
LINE
  5
276
102
{ACAD_REACTORS
330
341
330
342
102
}
330
71
100
AcDbEntity
  8
0
  6
Continuous
 62
     2
100
AcDbLine
 10
12.98791137502738
 20
-61.2964003638191
 30
0.0
 11
12.98791137502738
 21
-60.81651601007737
 31
0.0
  0
LINE
  5
277
102
{ACAD_REACTORS
330
341
330
342
102
}
330
71
100
AcDbEntity
  8
0
  6
Continuous
 62
     2
100
AcDbLine
 10
14.323839201455
 20
-61.2964003638191
 30
0.0
 11
12.98791137502738
 21
-61.2964003638191
 31
0.0
  0
LINE
  5
278
102
{ACAD_REACTORS
330
341
330
342
102
}
330
71
100
AcDbEntity
  8
0
  6
Continuous
 62
     2
100
AcDbLine
 10
14.323839201455
 20
-61.99441396926149
 30
0.0
 11
14.323839201455
 21
-61.2964003638191
 31
0.0
  0
LINE
  5
279
102
{ACAD_REACTORS
330
341
330
342
102
}
330
71
100
AcDbEntity
  8
0
  6
Continuous
 62
     2
100
AcDbLine
 10
11.17351947767409
 20
-61.99441396926149
 30
0.0
 11
14.323839201455
 21
-61.99441396926149
 31
0.0
  0
LINE
  5
27A
102
{ACAD_REACTORS
330
341
330
342
102
}
330
71
100
AcDbEntity
  8
0
  6
Continuous
 62
     2
100
AcDbLine
 10
11.17351947767409
 20
-58.9406044454504
 30
0.0
 11
14.323839201455
 21
-58.9406044454504
 31
0.0
  0
LINE
  5
27B
102
{ACAD_REACTORS
330
341
330
342
102
}
330
71
100
AcDbEntity
  8
0
  6
Continuous
 62
     2
100
AcDbLine
 10
14.323839201455
 20
-59.6386180508933
 30
0.0
 11
14.323839201455
 21
-58.9406044454504
 31
0.0
  0
LINE
  5
27C
102
{ACAD_REACTORS
330
353
330
354
102
}
330
71
100
AcDbEntity
  8
0
  6
Continuous
 62
     2
100
AcDbLine
 10
8.312163982534
 20
-60.00943777878497
 30
0.0
 11
8.312163982534
 21
-58.9406044454504
 31
0.0
  0
LINE
  5
27D
102
{ACAD_REACTORS
330
353
330
354
102
}
330
71
100
AcDbEntity
  8
0
  6
Continuous
 62
     2
100
AcDbLine
 10
8.312163982534
 20
-58.9406044454504
 30
0.0
 11
9.50495668470049
 21
-58.9406044454504
 31
0.0
  0
LINE
  5
27E
102
{ACAD_REACTORS
330
353
330
354
102
}
330
71
100
AcDbEntity
  8
0
  6
Continuous
 62
     2
100
AcDbLine
 10
8.312163982534
 20
-60.86014186041781
 30
0.0
 11
7.26250640462661
 21
-60.86014186041781
 31
0.0
  0
LINE
  5
27F
102
{ACAD_REACTORS
330
353
330
354
102
}
330
71
100
AcDbEntity
  8
0
  6
Continuous
 62
     2
100
AcDbLine
 10
7.26250640462661
 20
-60.86014186041781
 30
0.0
 11
7.26250640462661
 21
-61.99441396926149
 31
0.0
  0
LINE
  5
280
102
{ACAD_REACTORS
330
353
330
354
102
}
330
71
100
AcDbEntity
  8
0
  6
Continuous
 62
     2
100
AcDbLine
 10
6.06971370246001
 20
-58.9406044454504
 30
0.0
 11
6.06971370246001
 21
-61.99441396926149
 31
0.0
  0
LINE
  5
281
102
{ACAD_REACTORS
330
345
330
346
102
}
330
71
100
AcDbEntity
  8
0
  6
Continuous
 62
     2
100
AcDbLine
 10
4.11353367090629
 20
-60.30943794023268
 30
0.0
 11
4.11353367090629
 21
-59.60371029089039
 31
0.0
  0
LINE
  5
282
102
{ACAD_REACTORS
330
345
330
346
102
}
330
71
100
AcDbEntity
  8
0
  6
Continuous
 62
     2
100
AcDbLine
 10
2.87302926065229
 20
-61.99441396926149
 30
0.0
 11
4.11353367090629
 21
-61.99441396926149
 31
0.0
  0
LINE
  5
283
102
{ACAD_REACTORS
330
345
330
346
102
}
330
71
100
AcDbEntity
  8
0
  6
Continuous
 62
     2
100
AcDbLine
 10
4.11353367090629
 20
-61.99441396926149
 30
0.0
 11
4.11353367090629
 21
-61.05133572811776
 31
0.0
  0
LINE
  5
284
102
{ACAD_REACTORS
330
33F
330
340
102
}
330
71
100
AcDbEntity
  8
0
  6
Continuous
 62
     2
100
AcDbLine
 10
-1.4319165885592
 20
-64.64104888987892
 30
0.0
 11
-2.9077498495688
 21
-64.64104888987892
 31
0.0
  0
LINE
  5
285
102
{ACAD_REACTORS
330
33F
330
340
102
}
330
71
100
AcDbEntity
  8
0
  6
Continuous
 62
     2
100
AcDbLine
 10
-3.92588914169809
 20
-59.36484906085236
 30
0.0
 11
-3.92588914169809
 21
-64.9293598300526
 31
0.0
  0
LINE
  5
286
102
{ACAD_REACTORS
330
33F
330
340
102
}
330
71
100
AcDbEntity
  8
0
  6
Continuous
 62
     2
100
AcDbLine
 10
-3.50164452631532
 20
-58.94060444546848
 30
0.0
 11
1.9716675644016
 21
-58.94060444546848
 31
0.0
  0
LINE
  5
287
102
{ACAD_REACTORS
330
33F
330
340
102
}
330
71
100
AcDbEntity
  8
0
  6
Continuous
 62
     2
100
AcDbLine
 10
2.39591217978548
 20
-59.36484906085236
 30
0.0
 11
2.39591217978548
 21
-64.9293598300526
 31
0.0
  0
LINE
  5
288
102
{ACAD_REACTORS
330
33F
330
340
102
}
330
71
100
AcDbEntity
  8
0
  6
Continuous
 62
     2
100
AcDbLine
 10
1.9716675644016
 20
-65.3536044454358
 30
0.0
 11
-3.50164452631532
 21
-65.3536044454358
 31
0.0
  0
LINE
  5
289
102
{ACAD_REACTORS
330
33F
330
340
102
}
330
71
100
AcDbEntity
  8
0
  6
Continuous
 62
     2
100
AcDbLine
 10
-1.11619966548261
 20
-64.32533196680221
 30
0.0
 11
-1.11619966548261
 21
-62.7945610352706
 31
0.0
  0
LINE
  5
28A
102
{ACAD_REACTORS
330
33F
330
340
102
}
330
71
100
AcDbEntity
  8
0
  6
Continuous
 62
     2
100
AcDbLine
 10
-1.11619966548261
 20
-60.5729015431457
 30
0.0
 11
-1.11619966548261
 21
-59.96887692408508
 31
0.0
  0
LINE
  5
28B
102
{ACAD_REACTORS
330
33F
330
340
102
}
330
71
100
AcDbEntity
  8
0
  6
Continuous
 62
     2
100
AcDbLine
 10
-2.9077498495688
 20
-59.653160001009
 30
0.0
 11
-1.4319165885592
 21
-59.653160001009
 31
0.0
  0
LINE
  5
28C
102
{ACAD_REACTORS
330
33F
330
340
102
}
330
71
100
AcDbEntity
  8
0
  6
Continuous
 62
     2
100
AcDbLine
 10
-3.2234667726444
 20
-59.96887692408508
 30
0.0
 11
-3.2234667726444
 21
-64.32533196680221
 31
0.0
  0
LINE
  5
28D
102
{ACAD_REACTORS
330
345
330
346
102
}
330
71
100
AcDbEntity
  8
0
  6
Continuous
 62
     2
100
AcDbLine
 10
4.11353367090629
 20
-61.05133572811776
 30
0.0
 11
4.87230125868669
 21
-61.05133572811776
 31
0.0
  0
LINE
  5
28E
102
{ACAD_REACTORS
330
345
330
346
102
}
330
71
100
AcDbEntity
  8
0
  6
Continuous
 62
     2
100
AcDbLine
 10
2.87302926065229
 20
-58.9406044454504
 30
0.0
 11
4.87230125868669
 21
-58.9406044454504
 31
0.0
  0
LINE
  5
28F
102
{ACAD_REACTORS
330
345
330
346
102
}
330
71
100
AcDbEntity
  8
0
  6
Continuous
 62
     2
100
AcDbLine
 10
2.87302926065229
 20
-58.9406044454504
 30
0.0
 11
2.87302926065229
 21
-61.99441396926149
 31
0.0
  0
LINE
  5
290
102
{ACAD_REACTORS
330
345
330
346
102
}
330
71
100
AcDbEntity
  8
0
  6
Continuous
 62
     2
100
AcDbLine
 10
4.11353367090629
 20
-60.30943794023268
 30
0.0
 11
4.4308287324483
 21
-60.30943794023268
 31
0.0
  0
LINE
  5
291
102
{ACAD_REACTORS
330
345
330
346
102
}
330
71
100
AcDbEntity
  8
0
  6
Continuous
 62
     2
100
AcDbLine
 10
4.11353367090629
 20
-59.60371029089039
 30
0.0
 11
4.4308287324483
 21
-59.60371029089039
 31
0.0
  0
LINE
  5
292
102
{ACAD_REACTORS
330
353
330
354
102
}
330
71
100
AcDbEntity
  8
0
  6
Continuous
 62
     2
100
AcDbLine
 10
7.26250640462661
 20
-60.00943777878497
 30
0.0
 11
8.312163982534
 21
-60.00943777878497
 31
0.0
  0
LINE
  5
293
102
{ACAD_REACTORS
330
353
330
354
102
}
330
71
100
AcDbEntity
  8
0
  6
Continuous
 62
     2
100
AcDbLine
 10
7.26250640462661
 20
-58.9406044454504
 30
0.0
 11
7.26250640462661
 21
-60.00943777878497
 31
0.0
  0
LINE
  5
294
102
{ACAD_REACTORS
330
353
330
354
102
}
330
71
100
AcDbEntity
  8
0
  6
Continuous
 62
     2
100
AcDbLine
 10
6.06971370246001
 20
-58.9406044454504
 30
0.0
 11
7.26250640462661
 21
-58.9406044454504
 31
0.0
  0
LINE
  5
295
102
{ACAD_REACTORS
330
353
330
354
102
}
330
71
100
AcDbEntity
  8
0
  6
Continuous
 62
     2
100
AcDbLine
 10
7.26250640462661
 20
-61.99441396926149
 30
0.0
 11
6.06971370246001
 21
-61.99441396926149
 31
0.0
  0
LINE
  5
296
102
{ACAD_REACTORS
330
353
330
354
102
}
330
71
100
AcDbEntity
  8
0
  6
Continuous
 62
     2
100
AcDbLine
 10
8.312163982534
 20
-61.99441396926149
 30
0.0
 11
8.312163982534
 21
-60.86014186041781
 31
0.0
  0
LINE
  5
297
102
{ACAD_REACTORS
330
353
330
354
102
}
330
71
100
AcDbEntity
  8
0
  6
Continuous
 62
     2
100
AcDbLine
 10
9.50495668470049
 20
-61.99441396926149
 30
0.0
 11
8.312163982534
 21
-61.99441396926149
 31
0.0
  0
LINE
  5
298
102
{ACAD_REACTORS
330
353
330
354
102
}
330
71
100
AcDbEntity
  8
0
  6
Continuous
 62
     2
100
AcDbLine
 10
9.50495668470049
 20
-58.9406044454504
 30
0.0
 11
9.50495668470049
 21
-61.99441396926149
 31
0.0
  0
LINE
  5
299
102
{ACAD_REACTORS
330
341
330
342
102
}
330
71
100
AcDbEntity
  8
0
  6
Continuous
 62
     2
100
AcDbLine
 10
12.98791137502738
 20
-60.81651601007737
 30
0.0
 11
14.323839201455
 21
-60.81651601007737
 31
0.0
  0
LINE
  5
29A
102
{ACAD_REACTORS
330
341
330
342
102
}
330
71
100
AcDbEntity
  8
0
  6
Continuous
 62
     2
100
AcDbLine
 10
14.323839201455
 20
-60.81651601007737
 30
0.0
 11
14.323839201455
 21
-60.11850240463498
 31
0.0
  0
LINE
  5
29B
102
{ACAD_REACTORS
330
341
330
342
102
}
330
71
100
AcDbEntity
  8
0
  6
Continuous
 62
     2
100
AcDbLine
 10
14.323839201455
 20
-60.11850240463498
 30
0.0
 11
12.98791137502738
 21
-60.11850240463498
 31
0.0
  0
LINE
  5
29C
102
{ACAD_REACTORS
330
341
330
342
102
}
330
71
100
AcDbEntity
  8
0
  6
Continuous
 62
     2
100
AcDbLine
 10
12.98791137502738
 20
-60.11850240463498
 30
0.0
 11
12.98791137502738
 21
-59.6386180508933
 31
0.0
  0
LINE
  5
29D
102
{ACAD_REACTORS
330
351
330
352
102
}
330
71
100
AcDbEntity
  8
0
  6
Continuous
 62
     2
100
AcDbLine
 10
9.3139589214683
 20
-65.3536044454358
 30
0.0
 11
10.50675162363581
 21
-65.3536044454358
 31
0.0
  0
LINE
  5
29E
102
{ACAD_REACTORS
330
351
330
352
102
}
330
71
100
AcDbEntity
  8
0
  6
Continuous
 62
     2
100
AcDbLine
 10
11.74725603388879
 20
-65.3536044454358
 30
0.0
 11
12.94004873605519
 21
-65.3536044454358
 31
0.0
  0
LINE
  5
29F
102
{ACAD_REACTORS
330
351
330
352
102
}
330
71
100
AcDbEntity
  8
0
  6
Continuous
 62
     2
100
AcDbLine
 10
10.50675162363581
 20
-62.29979492162467
 30
0.0
 11
9.3139589214683
 21
-62.29979492162467
 31
0.0
  0
LINE
  5
2A0
102
{ACAD_REACTORS
330
351
330
352
102
}
330
71
100
AcDbEntity
  8
0
  6
Continuous
 62
     2
100
AcDbLine
 10
9.3139589214683
 20
-62.29979492162467
 30
0.0
 11
9.3139589214683
 21
-65.3536044454358
 31
0.0
  0
LINE
  5
2A1
102
{ACAD_REACTORS
330
34F
330
350
102
}
330
71
100
AcDbEntity
  8
0
  6
Continuous
 62
     2
100
AcDbLine
 10
16.99569485430848
 20
-58.9406044454504
 30
0.0
 11
16.99569485430848
 21
-60.24937995565547
 31
0.0
  0
LINE
  5
2A2
102
{ACAD_REACTORS
330
34F
330
350
102
}
330
71
100
AcDbEntity
  8
0
  6
Continuous
 62
     2
100
AcDbLine
 10
15.75519044405439
 20
-58.9406044454504
 30
0.0
 11
14.56239774188799
 21
-58.9406044454504
 31
0.0
  0
LINE
  5
2A3
102
{ACAD_REACTORS
330
34F
330
350
102
}
330
71
100
AcDbEntity
  8
0
  6
Continuous
 62
     2
100
AcDbLine
 10
14.56239774188799
 20
-58.9406044454504
 30
0.0
 11
14.56239774188799
 21
-61.99441396926149
 31
0.0
  0
LINE
  5
2A4
102
{ACAD_REACTORS
330
34F
330
350
102
}
330
71
100
AcDbEntity
  8
0
  6
Continuous
 62
     2
100
AcDbLine
 10
15.75519044405439
 20
-61.99441396926149
 30
0.0
 11
15.75519044405439
 21
-60.68563845905676
 31
0.0
  0
LINE
  5
2A5
102
{ACAD_REACTORS
330
34D
330
34E
102
}
330
71
100
AcDbEntity
  8
0
  6
Continuous
 62
     2
100
AcDbLine
 10
15.08707559995639
 20
-65.3536044454358
 30
0.0
 11
15.08707559995639
 21
-63.0850602277484
 31
0.0
  0
LINE
  5
2A6
102
{ACAD_REACTORS
330
34D
330
34E
102
}
330
71
100
AcDbEntity
  8
0
  6
Continuous
 62
     2
100
AcDbLine
 10
15.08707559995639
 20
-63.0850602277484
 30
0.0
 11
15.89817463742901
 21
-63.0850602277484
 31
0.0
  0
LINE
  5
2A7
102
{ACAD_REACTORS
330
34D
330
34E
102
}
330
71
100
AcDbEntity
  8
0
  6
Continuous
 62
     2
100
AcDbLine
 10
15.89817463742901
 20
-63.0850602277484
 30
0.0
 11
15.89817463742901
 21
-62.29979492162467
 31
0.0
  0
LINE
  5
2A8
102
{ACAD_REACTORS
330
34D
330
34E
102
}
330
71
100
AcDbEntity
  8
0
  6
Continuous
 62
     2
100
AcDbLine
 10
15.89817463742901
 20
-62.29979492162467
 30
0.0
 11
13.0831838603153
 21
-62.29979492162467
 31
0.0
  0
LINE
  5
2A9
102
{ACAD_REACTORS
330
34D
330
34E
102
}
330
71
100
AcDbEntity
  8
0
  6
Continuous
 62
     2
100
AcDbLine
 10
13.0831838603153
 20
-63.0850602277484
 30
0.0
 11
13.89428289778999
 21
-63.0850602277484
 31
0.0
  0
LINE
  5
2AA
102
{ACAD_REACTORS
330
34B
330
34C
102
}
330
71
100
AcDbEntity
  8
0
  6
Continuous
 62
     2
100
AcDbLine
 10
16.69268046322628
 20
-64.81264390121801
 30
0.0
 11
17.82512203990021
 21
-64.81264390121801
 31
0.0
  0
LINE
  5
2AB
102
{ACAD_REACTORS
330
34B
330
34C
102
}
330
71
100
AcDbEntity
  8
0
  6
Continuous
 62
     2
100
AcDbLine
 10
19.27710650362988
 20
-65.3536044454358
 30
0.0
 11
18.03660209337599
 21
-65.3536044454358
 31
0.0
  0
LINE
  5
2AC
102
{ACAD_REACTORS
330
34B
330
34C
102
}
330
71
100
AcDbEntity
  8
0
  6
Continuous
 62
     2
100
AcDbLine
 10
16.6386490464368
 20
-62.29979492162467
 30
0.0
 11
15.2406959994976
 21
-65.3536044454358
 31
0.0
  0
LINE
  5
2AD
102
{ACAD_REACTORS
330
34B
330
34C
102
}
330
71
100
AcDbEntity
  8
0
  6
Continuous
 62
     2
100
AcDbLine
 10
16.4812004097505
 20
-65.3536044454358
 30
0.0
 11
16.69268046322628
 21
-64.81264390121801
 31
0.0
  0
LINE
  5
2AE
102
{ACAD_REACTORS
330
34B
330
34C
102
}
330
71
100
AcDbEntity
  8
0
  6
Continuous
 62
     2
100
AcDbLine
 10
16.9587360143714
 20
-64.13208063591141
 30
0.0
 11
17.25890125156369
 21
-63.36426566992471
 31
0.0
  0
LINE
  5
2AF
102
{ACAD_REACTORS
330
349
330
34A
102
}
330
71
100
AcDbEntity
  8
0
  6
Continuous
 62
     2
100
AcDbLine
 10
18.42704609690898
 20
-61.99441396926149
 30
0.0
 11
18.42704609690898
 21
-58.9406044454504
 31
0.0
  0
LINE
  5
2B0
102
{ACAD_REACTORS
330
349
330
34A
102
}
330
71
100
AcDbEntity
  8
0
  6
Continuous
 62
     2
100
AcDbLine
 10
19.66755050716191
 20
-58.9406044454504
 30
0.0
 11
19.66755050716191
 21
-61.99441396926149
 31
0.0
  0
LINE
  5
2B1
102
{ACAD_REACTORS
330
349
330
34A
102
}
330
71
100
AcDbEntity
  8
0
  6
Continuous
 62
     2
100
AcDbLine
 10
18.42704609690898
 20
-58.9406044454504
 30
0.0
 11
19.66755050716191
 21
-58.9406044454504
 31
0.0
  0
LINE
  5
2B2
102
{ACAD_REACTORS
330
347
330
348
102
}
330
71
100
AcDbEntity
  8
0
  6
Continuous
 62
     2
100
AcDbLine
 10
21.8861449331927
 20
-61.20668218396777
 30
0.0
 11
22.58273587125808
 21
-61.99441396926149
 31
0.0
  0
LINE
  5
2B3
102
{ACAD_REACTORS
330
347
330
348
102
}
330
71
100
AcDbEntity
  8
0
  6
Continuous
 62
     2
100
AcDbLine
 10
22.58273587125808
 20
-61.99441396926149
 30
0.0
 11
23.98546008900638
 21
-61.99441396926149
 31
0.0
  0
LINE
  5
2B4
102
{ACAD_REACTORS
330
347
330
348
102
}
330
71
100
AcDbEntity
  8
0
  6
Continuous
 62
     2
100
AcDbLine
 10
22.58750704206611
 20
-60.41355497548661
 30
0.0
 11
23.98546008900638
 21
-61.99441396926149
 31
0.0
  0
LINE
  5
2B5
102
{ACAD_REACTORS
330
347
330
348
102
}
330
71
100
AcDbEntity
  8
0
  6
Continuous
 62
     2
100
AcDbLine
 10
22.58750704206611
 20
-60.41355497548661
 30
0.0
 11
23.89003667283271
 21
-58.9406044454504
 31
0.0
  0
LINE
  5
2B6
102
{ACAD_REACTORS
330
347
330
348
102
}
330
71
100
AcDbEntity
  8
0
  6
Continuous
 62
     2
100
AcDbLine
 10
21.8861449331927
 20
-59.62042776700589
 30
0.0
 11
22.48731245508549
 21
-58.9406044454504
 31
0.0
  0
LINE
  5
2B7
102
{ACAD_REACTORS
330
347
330
348
102
}
330
71
100
AcDbEntity
  8
0
  6
Continuous
 62
     2
100
AcDbLine
 10
21.28497741130079
 20
-58.9406044454504
 30
0.0
 11
21.8861449331927
 21
-59.62042776700589
 31
0.0
  0
LINE
  5
2B8
102
{ACAD_REACTORS
330
347
330
348
102
}
330
71
100
AcDbEntity
  8
0
  6
Continuous
 62
     2
100
AcDbLine
 10
21.28497741130079
 20
-58.9406044454504
 30
0.0
 11
19.88225319355161
 21
-58.9406044454504
 31
0.0
  0
LINE
  5
2B9
102
{ACAD_REACTORS
330
33D
330
33E
102
}
330
71
100
AcDbEntity
  8
0
  6
Continuous
 62
     2
100
AcDbLine
 10
21.98156834936529
 20
-65.3536044454358
 30
0.0
 11
23.174361051533
 21
-65.3536044454358
 31
0.0
  0
LINE
  5
2BA
102
{ACAD_REACTORS
330
33D
330
33E
102
}
330
71
100
AcDbEntity
  8
0
  6
Continuous
 62
     2
100
AcDbLine
 10
23.174361051533
 20
-65.3536044454358
 30
0.0
 11
23.174361051533
 21
-63.0850602277484
 31
0.0
  0
LINE
  5
2BB
102
{ACAD_REACTORS
330
33D
330
33E
102
}
330
71
100
AcDbEntity
  8
0
  6
Continuous
 62
     2
100
AcDbLine
 10
23.174361051533
 20
-63.0850602277484
 30
0.0
 11
23.98546008900638
 21
-63.0850602277484
 31
0.0
  0
LINE
  5
2BC
102
{ACAD_REACTORS
330
33D
330
33E
102
}
330
71
100
AcDbEntity
  8
0
  6
Continuous
 62
     2
100
AcDbLine
 10
23.98546008900638
 20
-63.0850602277484
 30
0.0
 11
23.98546008900638
 21
-62.29979492162467
 31
0.0
  0
LINE
  5
2BD
102
{ACAD_REACTORS
330
33D
330
33E
102
}
330
71
100
AcDbEntity
  8
0
  6
Continuous
 62
     2
100
AcDbLine
 10
20.60051457037778
 20
-62.29979492162529
 30
0.0
 11
23.98546008900638
 21
-62.29979492162467
 31
0.0
  0
LINE
  5
2BE
102
{ACAD_REACTORS
330
33D
330
33E
102
}
330
71
100
AcDbEntity
  8
0
  6
Continuous
 62
     2
100
AcDbLine
 10
21.98156834936529
 20
-63.0850602277484
 30
0.0
 11
21.98156834936529
 21
-65.3536044454358
 31
0.0
  0
LINE
  5
2BF
102
{ACAD_REACTORS
330
33F
330
340
102
}
330
71
100
AcDbEntity
  8
0
  6
Continuous
 62
     2
100
AcDbLine
 10
-0.6479180861138
 20
-63.37472429587128
 30
0.0
 11
-0.6479180861138
 21
-62.7928728891762
 31
0.0
  0
LINE
  5
2C0
102
{ACAD_REACTORS
330
33F
330
340
102
}
330
71
100
AcDbEntity
  8
0
  6
Continuous
 62
     2
100
AcDbLine
 10
-0.6479180861138
 20
-60.57458968924011
 30
0.0
 11
-0.6479180861138
 21
-59.9690544007333
 31
0.0
  0
LINE
  5
2C1
330
71
100
AcDbEntity
  8
1
  6
Continuous
 62
     6
100
AcDbLine
 10
77.8822604984893
 20
-72.64710444545211
 30
0.0
 11
121.3822604984893
 21
-72.64710444545211
 31
0.0
  0
LINE
  5
2C2
330
71
100
AcDbEntity
  8
1
  6
Continuous
 62
     6
100
AcDbLine
 10
27.8822604984893
 20
-72.64710444545211
 30
0.0
 11
10.03745597173929
 21
-72.64710444545211
 31
0.0
  0
LINE
  5
2C3
330
71
100
AcDbEntity
  8
1
  6
Continuous
 62
     6
100
AcDbLine
 10
-8.16254402826061
 20
-55.64710444545217
 30
0.0
 11
28.23745597173931
 21
-55.64710444545217
 31
0.0
  0
LINE
  5
2C4
330
71
100
AcDbEntity
  8
1
  6
Continuous
 62
     6
100
AcDbLine
 10
121.3822604984893
 20
-72.64710444545211
 30
0.0
 11
121.3822604984906
 21
-64.14710444545217
 31
0.0
  0
LINE
  5
2C5
330
71
100
AcDbEntity
  8
1
  6
Continuous
 62
     6
100
AcDbLine
 10
28.23745597173931
 20
-72.64710444545217
 30
0.0
 11
77.8822604984893
 21
-72.64710444545211
 31
0.0
  0
LINE
  5
2C6
330
71
100
AcDbEntity
  8
1
  6
Continuous
 62
     7
100
AcDbLine
 10
-8.16254402826061
 20
-55.64710444545217
 30
0.0
 11
-8.16254402826061
 21
-68.39710444545217
 31
0.0
  0
LINE
  5
2C7
330
71
100
AcDbEntity
  8
1
  6
Continuous
 62
     7
100
AcDbLine
 10
28.23745597173931
 20
-55.64710444545217
 30
0.0
 11
28.23745597173931
 21
-68.39710444545211
 31
0.0
  0
LINE
  5
2C8
330
71
100
AcDbEntity
  8
1
  6
Continuous
 62
     6
100
AcDbLine
 10
28.23745597173931
 20
-72.64710444545217
 30
0.0
 11
27.8822604984893
 21
-72.64710444545211
 31
0.0
  0
LINE
  5
2C9
330
71
100
AcDbEntity
  8
1
  6
Continuous
 62
     6
100
AcDbLine
 10
121.3822604984911
 20
-55.64710444545217
 30
0.0
 11
121.3822604984906
 21
-64.14710444545217
 31
0.0
  0
LINE
  5
2CA
330
71
100
AcDbEntity
  8
1
  6
Continuous
 62
     2
100
AcDbLine
 10
-3.92588914169809
 20
-50.27210444545229
 30
0.0
 11
1.07411085830191
 21
-49.02210444545229
 31
0.0
  0
LINE
  5
2CB
330
71
100
AcDbEntity
  8
1
  6
Continuous
 62
     2
100
AcDbLine
 10
-3.92588914169809
 20
-52.77210444545229
 30
0.0
 11
-3.92588914169809
 21
-50.27210444545229
 31
0.0
  0
LINE
  5
2CC
330
71
100
AcDbEntity
  8
1
  6
Continuous
 62
     2
100
AcDbLine
 10
1.07411085830191
 20
-54.02210444545229
 30
0.0
 11
-3.92588914169809
 21
-52.77210444545229
 31
0.0
  0
LINE
  5
2CD
330
71
100
AcDbEntity
  8
1
  6
Continuous
 62
     2
100
AcDbLine
 10
1.07411085830191
 20
-49.02210444545229
 30
0.0
 11
1.07411085830191
 21
-54.02210444545229
 31
0.0
  0
LINE
  5
2CE
330
71
100
AcDbEntity
  8
1
  6
Continuous
 62
     7
100
AcDbLine
 10
-8.16254402826061
 20
-68.39710444545217
 30
0.0
 11
10.03745597173929
 21
-68.39710444545211
 31
0.0
  0
LINE
  5
2CF
330
71
100
AcDbEntity
  8
1
  6
Continuous
 62
     7
100
AcDbLine
 10
-8.16254402826061
 20
-68.39710444545217
 30
0.0
 11
-8.16254402826061
 21
-72.64710444545217
 31
0.0
  0
LINE
  5
2D0
330
71
100
AcDbEntity
  8
1
  6
Continuous
 62
     7
100
AcDbLine
 10
28.23745597173931
 20
-68.39710444545211
 30
0.0
 11
28.23745597173931
 21
-72.64710444545217
 31
0.0
  0
LINE
  5
2D1
330
71
100
AcDbEntity
  8
1
  6
Continuous
 62
     7
100
AcDbLine
 10
10.03745597173929
 20
-68.39710444545211
 30
0.0
 11
10.03745597173929
 21
-72.64710444545211
 31
0.0
  0
LINE
  5
2D2
330
71
100
AcDbEntity
  8
1
  6
Continuous
 62
     6
100
AcDbLine
 10
10.03745597173929
 20
-72.64710444545211
 30
0.0
 11
-8.16254402826061
 21
-72.64710444545217
 31
0.0
  0
LINE
  5
2D3
330
71
100
AcDbEntity
  8
1
  6
Continuous
 62
     7
100
AcDbLine
 10
10.03745597173929
 20
-68.39710444545211
 30
0.0
 11
28.23745597173931
 21
-68.39710444545211
 31
0.0
  0
LINE
  5
2D4
330
71
100
AcDbEntity
  8
1
  6
Continuous
 62
     6
100
AcDbLine
 10
-8.16254402826061
 20
-47.14710444545217
 30
0.0
 11
121.3822604984911
 21
-47.14710444545217
 31
0.0
  0
LINE
  5
2D5
330
71
100
AcDbEntity
  8
1
  6
PHANTOM
 62
     2
100
AcDbLine
 10
7.32411085830191
 20
-51.52210444545229
 30
0.0
 11
1.82411085830191
 21
-51.52210444545229
 31
0.0
  0
LINE
  5
2D6
330
71
100
AcDbEntity
  8
1
  6
PHANTOM
 62
     2
100
AcDbLine
 10
4.57411085830191
 20
-48.77210444545217
 30
0.0
 11
4.57411085830191
 21
-54.27210444545217
 31
0.0
  0
LINE
  5
2D7
330
71
100
AcDbEntity
  8
1
  6
DOT_CENTER
 62
     2
100
AcDbLine
 10
-4.17588914169809
 20
-51.52210444545229
 30
0.0
 11
1.32411085830191
 21
-51.52210444545229
 31
0.0
  0
ARC
  5
2D8
102
{ACAD_REACTORS
330
343
330
344
102
}
330
71
100
AcDbEntity
  8
0
  6
Continuous
 62
     2
100
AcDbCircle
 10
7.22910397069938
 20
-63.82669968353061
 30
0.0
 40
0.7717997786795308
100
AcDbArc
 50
321.8795802028436
 51
38.12041979716722
  0
ARC
  5
2D9
102
{ACAD_REACTORS
330
343
330
344
102
}
330
71
100
AcDbEntity
  8
0
  6
Continuous
 62
     2
100
AcDbCircle
 10
7.4288440070458
 20
-63.98343086165046
 30
0.0
 40
0.5179085730138424
100
AcDbArc
 50
218.1204197971879
 51
321.8795802027908
  0
ARC
  5
2DA
102
{ACAD_REACTORS
330
343
330
344
102
}
330
71
100
AcDbEntity
  8
0
  6
Continuous
 62
     2
100
AcDbCircle
 10
7.62858404339178
 20
-63.82669968353061
 30
0.0
 40
0.7717997786795553
100
AcDbArc
 50
141.8795802028276
 51
218.1204197971616
  0
ARC
  5
2DB
102
{ACAD_REACTORS
330
343
330
344
102
}
330
71
100
AcDbEntity
  8
0
  6
Continuous
 62
     2
100
AcDbCircle
 10
7.4288440070458
 20
-63.66996850541007
 30
0.0
 40
0.5179085730132806
100
AcDbArc
 50
38.12041979716469
 51
141.8795802028567
  0
ARC
  5
2DC
102
{ACAD_REACTORS
330
33B
330
33C
102
}
330
71
100
AcDbEntity
  8
0
  6
Continuous
 62
     2
100
AcDbCircle
 10
4.3668298714818
 20
-65.23716604893868
 30
0.0
 40
2.227384008973465
100
AcDbArc
 50
58.06909105003707
 51
71.55192388186673
  0
ARC
  5
2DD
102
{ACAD_REACTORS
330
33B
330
33C
102
}
330
71
100
AcDbEntity
  8
0
  6
Continuous
 62
     2
100
AcDbCircle
 10
4.6285575724406
 20
-63.62162825419149
 30
0.0
 40
0.5115800601948293
100
AcDbArc
 50
113.3722778881945
 51
151.4785267423163
  0
ARC
  5
2DE
102
{ACAD_REACTORS
330
33B
330
33C
102
}
330
71
100
AcDbEntity
  8
0
  6
Continuous
 62
     2
100
AcDbCircle
 10
5.00591483052099
 20
-63.82669968353061
 30
0.0
 40
0.9410597353333294
100
AcDbArc
 50
151.4785267422693
 51
208.5214732576968
  0
ARC
  5
2DF
102
{ACAD_REACTORS
330
33B
330
33C
102
}
330
71
100
AcDbEntity
  8
0
  6
Continuous
 62
     2
100
AcDbCircle
 10
4.20895699638899
 20
-60.51401873827406
 30
0.0
 40
4.852596863498272
100
AcDbArc
 50
275.1581447696238
 51
285.9799912583525
  0
ARC
  5
2E0
102
{ACAD_REACTORS
330
33B
330
33C
102
}
330
71
100
AcDbEntity
  8
0
  6
Continuous
 62
     2
100
AcDbCircle
 10
4.4978130911249
 20
-63.71390932149571
 30
0.0
 40
1.639695123939435
100
AcDbArc
 50
195.0618917770919
 51
275.1581447696364
  0
ARC
  5
2E1
102
{ACAD_REACTORS
330
33B
330
33C
102
}
330
71
100
AcDbEntity
  8
0
  6
Continuous
 62
     2
100
AcDbCircle
 10
4.07868524766209
 20
-63.82669968353061
 30
0.0
 40
1.205656168390975
100
AcDbArc
 50
164.9381082228762
 51
195.0618917770942
  0
ARC
  5
2E2
102
{ACAD_REACTORS
330
33B
330
33C
102
}
330
71
100
AcDbEntity
  8
0
  6
Continuous
 62
     2
100
AcDbCircle
 10
4.4978130911249
 20
-63.93949004556539
 30
0.0
 40
1.639695123940499
100
AcDbArc
 50
84.8418552303653
 51
164.9381082228903
  0
ARC
  5
2E3
102
{ACAD_REACTORS
330
33F
330
340
102
}
330
71
100
AcDbEntity
  8
0
  6
Continuous
 62
     2
100
AcDbCircle
 10
-0.33220116303701
 20
-62.7928728891762
 30
0.0
 40
0.3157169230765328
100
AcDbArc
 50
115.3740086783519
 51
180.0
  0
ARC
  5
2E4
102
{ACAD_REACTORS
330
33F
330
340
102
}
330
71
100
AcDbEntity
  8
0
  6
Continuous
 62
     2
100
AcDbCircle
 10
-0.33220116303701
 20
-60.57458968924011
 30
0.0
 40
0.3157169230767919
100
AcDbArc
 50
180.0
 51
244.6259913216349
  0
ARC
  5
2E5
102
{ACAD_REACTORS
330
33F
330
340
102
}
330
71
100
AcDbEntity
  8
0
  6
Continuous
 62
     2
100
AcDbCircle
 10
-0.32658502772699
 20
-61.67188934830229
 30
0.0
 40
2.018561131933273
100
AcDbArc
 50
269.8110329575827
 51
90.18896704241737
  0
ARC
  5
2E6
102
{ACAD_REACTORS
330
33F
330
340
102
}
330
71
100
AcDbEntity
  8
0
  6
Continuous
 62
     2
100
AcDbCircle
 10
-0.33220116303701
 20
-63.37472429587128
 30
0.0
 40
0.3157169230767919
100
AcDbArc
 50
180.0
 51
269.8110329574336
  0
ARC
  5
2E7
102
{ACAD_REACTORS
330
33D
330
33E
102
}
330
71
100
AcDbEntity
  8
0
  6
Continuous
 62
     2
100
AcDbCircle
 10
20.73125905169349
 20
-63.62162825419149
 30
0.0
 40
0.5115800601944048
100
AcDbArc
 50
109.3371432194823
 51
151.4785267424182
  0
ARC
  5
2E8
102
{ACAD_REACTORS
330
33D
330
33E
102
}
330
71
100
AcDbEntity
  8
0
  6
Continuous
 62
     2
100
AcDbCircle
 10
20.73125905169349
 20
-64.0317711128691
 30
0.0
 40
0.5115800601959967
100
AcDbArc
 50
208.5214732576881
 51
246.6277221118395
  0
ARC
  5
2E9
102
{ACAD_REACTORS
330
33D
330
33E
102
}
330
71
100
AcDbEntity
  8
0
  6
Continuous
 62
     2
100
AcDbCircle
 10
20.18138672691609
 20
-63.82669968353061
 30
0.0
 40
1.205656168392986
100
AcDbArc
 50
164.9381082229019
 51
195.0618917770919
  0
ARC
  5
2EA
102
{ACAD_REACTORS
330
33D
330
33E
102
}
330
71
100
AcDbEntity
  8
0
  6
Continuous
 62
     2
100
AcDbCircle
 10
20.60051457037778
 20
-63.93949004556539
 30
0.0
 40
1.639695123940101
100
AcDbArc
 50
90.0
 51
164.9381082228991
  0
ARC
  5
2EB
102
{ACAD_REACTORS
330
341
330
342
102
}
330
71
100
AcDbEntity
  8
0
  6
Continuous
 62
     2
100
AcDbCircle
 10
11.17351947767409
 20
-60.46750920735617
 30
0.0
 40
1.526904761905776
100
AcDbArc
 50
90.0
 51
270.0
  0
ARC
  5
2EC
102
{ACAD_REACTORS
330
345
330
346
102
}
330
71
100
AcDbEntity
  8
0
  6
Continuous
 62
     2
100
AcDbCircle
 10
4.4308287324483
 20
-59.95657411556159
 30
0.0
 40
0.3528638246710898
100
AcDbArc
 50
270.0
 51
90.0
  0
ARC
  5
2ED
102
{ACAD_REACTORS
330
33F
330
340
102
}
330
71
100
AcDbEntity
  8
0
  6
Continuous
 62
     2
100
AcDbCircle
 10
-2.9077498495688
 20
-59.96887692408508
 30
0.0
 40
0.3157169230760815
100
AcDbArc
 50
90.0
 51
180.0
  0
ARC
  5
2EE
102
{ACAD_REACTORS
330
33F
330
340
102
}
330
71
100
AcDbEntity
  8
0
  6
Continuous
 62
     2
100
AcDbCircle
 10
-0.90933214098422
 20
-61.68373128920787
 30
0.0
 40
0.9118975235576432
100
AcDbArc
 50
115.1944106485195
 51
244.8055893514912
  0
ARC
  5
2EF
102
{ACAD_REACTORS
330
33F
330
340
102
}
330
71
100
AcDbEntity
  8
0
  6
Continuous
 62
     2
100
AcDbCircle
 10
-1.4319165885592
 20
-62.7945610352706
 30
0.0
 40
0.315716923076593
100
AcDbArc
 50
0.0
 51
64.80558935144542
  0
ARC
  5
2F0
102
{ACAD_REACTORS
330
33F
330
340
102
}
330
71
100
AcDbEntity
  8
0
  6
Continuous
 62
     2
100
AcDbCircle
 10
-3.50164452631532
 20
-64.9293598300526
 30
0.0
 40
0.4242446153827761
100
AcDbArc
 50
180.0
 51
270.0
  0
ARC
  5
2F1
102
{ACAD_REACTORS
330
341
330
342
102
}
330
71
100
AcDbEntity
  8
0
  6
Continuous
 62
     2
100
AcDbCircle
 10
11.38979148783929
 20
-60.31077802923569
 30
0.0
 40
0.5179085730133656
100
AcDbArc
 50
38.12041979714133
 51
141.8795802028668
  0
ARC
  5
2F2
102
{ACAD_REACTORS
330
341
330
342
102
}
330
71
100
AcDbEntity
  8
0
  6
Continuous
 62
     2
100
AcDbCircle
 10
11.5895315241855
 20
-60.46750920735617
 30
0.0
 40
0.7717997786796245
100
AcDbArc
 50
141.8795802028484
 51
218.1204197971553
  0
ARC
  5
2F3
102
{ACAD_REACTORS
330
343
330
344
102
}
330
71
100
AcDbEntity
  8
0
  6
Continuous
 62
     2
100
AcDbCircle
 10
7.4288440070458
 20
-63.28812467322719
 30
0.0
 40
2.065479772208637
100
AcDbArc
 50
242.4518518243384
 51
297.548148175686
  0
ARC
  5
2F4
102
{ACAD_REACTORS
330
343
330
344
102
}
330
71
100
AcDbEntity
  8
0
  6
Continuous
 62
     2
100
AcDbCircle
 10
7.4288440070458
 20
-64.3652746938334
 30
0.0
 40
2.065479772208688
100
AcDbArc
 50
62.45185182430809
 51
117.5481481756674
  0
ARC
  5
2F5
102
{ACAD_REACTORS
330
343
330
344
102
}
330
71
100
AcDbEntity
  8
0
  6
Continuous
 62
     2
100
AcDbCircle
 10
7.14790411521238
 20
-63.82669968353061
 30
0.0
 40
1.458034083651616
100
AcDbArc
 50
117.5481481756598
 51
242.4518518243369
  0
ARC
  5
2F6
102
{ACAD_REACTORS
330
343
330
344
102
}
330
71
100
AcDbEntity
  8
0
  6
Continuous
 62
     2
100
AcDbCircle
 10
7.70978389887898
 20
-63.82669968353061
 30
0.0
 40
1.458034083652024
100
AcDbArc
 50
297.5481481757057
 51
62.45185182429758
  0
ARC
  5
2F7
102
{ACAD_REACTORS
330
341
330
342
102
}
330
71
100
AcDbEntity
  8
0
  6
Continuous
 62
     2
100
AcDbCircle
 10
11.38979148783929
 20
-60.62424038547671
 30
0.0
 40
0.5179085730134636
100
AcDbArc
 50
218.1204197971338
 51
321.8795802028581
  0
ARC
  5
2F8
102
{ACAD_REACTORS
330
341
330
342
102
}
330
71
100
AcDbEntity
  8
0
  6
Continuous
 62
     2
100
AcDbCircle
 10
11.19005145149311
 20
-60.46750920735617
 30
0.0
 40
0.7717997786795467
100
AcDbArc
 50
321.8795802028378
 51
38.12041979715847
  0
ARC
  5
2F9
102
{ACAD_REACTORS
330
33F
330
340
102
}
330
71
100
AcDbEntity
  8
0
  6
Continuous
 62
     2
100
AcDbCircle
 10
1.9716675644016
 20
-64.9293598300526
 30
0.0
 40
0.424244615383202
100
AcDbArc
 50
270.0
 51
0.0
  0
ARC
  5
2FA
102
{ACAD_REACTORS
330
33F
330
340
102
}
330
71
100
AcDbEntity
  8
0
  6
Continuous
 62
     2
100
AcDbCircle
 10
1.9716675644016
 20
-59.36484906085236
 30
0.0
 40
0.4242446153838839
100
AcDbArc
 50
0.0
 51
90.0
  0
ARC
  5
2FB
102
{ACAD_REACTORS
330
33F
330
340
102
}
330
71
100
AcDbEntity
  8
0
  6
Continuous
 62
     2
100
AcDbCircle
 10
-3.50164452631532
 20
-59.36484906085236
 30
0.0
 40
0.424244615383877
100
AcDbArc
 50
90.0
 51
180.0
  0
ARC
  5
2FC
102
{ACAD_REACTORS
330
33F
330
340
102
}
330
71
100
AcDbEntity
  8
0
  6
Continuous
 62
     2
100
AcDbCircle
 10
-1.4319165885592
 20
-64.32533196680221
 30
0.0
 40
0.3157169230767067
100
AcDbArc
 50
270.0
 51
0.0
  0
ARC
  5
2FD
102
{ACAD_REACTORS
330
33F
330
340
102
}
330
71
100
AcDbEntity
  8
0
  6
Continuous
 62
     2
100
AcDbCircle
 10
-1.4319165885592
 20
-60.5729015431457
 30
0.0
 40
0.3157169230760723
100
AcDbArc
 50
295.1944106485666
 51
0.0
  0
ARC
  5
2FE
102
{ACAD_REACTORS
330
33F
330
340
102
}
330
71
100
AcDbEntity
  8
0
  6
Continuous
 62
     2
100
AcDbCircle
 10
-1.4319165885592
 20
-59.96887692408508
 30
0.0
 40
0.315716923076593
100
AcDbArc
 50
0.0
 51
90.0
  0
ARC
  5
2FF
102
{ACAD_REACTORS
330
33F
330
340
102
}
330
71
100
AcDbEntity
  8
0
  6
Continuous
 62
     2
100
AcDbCircle
 10
-2.9077498495688
 20
-64.32533196680221
 30
0.0
 40
0.3157169230755983
100
AcDbArc
 50
180.0
 51
270.0
  0
ARC
  5
300
102
{ACAD_REACTORS
330
345
330
346
102
}
330
71
100
AcDbEntity
  8
0
  6
Continuous
 62
     2
100
AcDbCircle
 10
4.87230125868669
 20
-59.99597008678411
 30
0.0
 40
1.055365641333651
100
AcDbArc
 50
270.0
 51
90.0
  0
ARC
  5
301
102
{ACAD_REACTORS
330
33D
330
33E
102
}
330
71
100
AcDbEntity
  8
0
  6
Continuous
 62
     2
100
AcDbCircle
 10
20.60051457037778
 20
-63.71390932149571
 30
0.0
 40
1.639695123940501
100
AcDbArc
 50
195.0618917771004
 51
275.1581447696774
  0
ARC
  5
302
102
{ACAD_REACTORS
330
33D
330
33E
102
}
330
71
100
AcDbEntity
  8
0
  6
Continuous
 62
     2
100
AcDbCircle
 10
20.31165847564191
 20
-60.51401873827406
 30
0.0
 40
4.852596863498889
100
AcDbArc
 50
275.1581447696373
 51
285.9799912583383
  0
ARC
  5
303
102
{ACAD_REACTORS
330
33D
330
33E
102
}
330
71
100
AcDbEntity
  8
0
  6
Continuous
 62
     2
100
AcDbCircle
 10
20.46953135073468
 20
-62.41623331812237
 30
0.0
 40
2.227384008972768
100
AcDbArc
 50
288.4480761181335
 51
301.9309089499396
  0
ARC
  5
304
102
{ACAD_REACTORS
330
33D
330
33E
102
}
330
71
100
AcDbEntity
  8
0
  6
Continuous
 62
     2
100
AcDbCircle
 10
20.8876990843967
 20
-63.6697790941591
 30
0.0
 40
0.9059297849852208
100
AcDbArc
 50
246.6277221118088
 51
288.4480761180774
  0
ARC
  5
305
102
{ACAD_REACTORS
330
33D
330
33E
102
}
330
71
100
AcDbEntity
  8
0
  6
Continuous
 62
     2
100
AcDbCircle
 10
21.10861630977499
 20
-63.82669968353061
 30
0.0
 40
0.9410597353350386
100
AcDbArc
 50
151.4785267423569
 51
208.5214732576667
  0
ARC
  5
306
102
{ACAD_REACTORS
330
33D
330
33E
102
}
330
71
100
AcDbEntity
  8
0
  6
Continuous
 62
     2
100
AcDbCircle
 10
20.87792904979719
 20
-64.0395832345745
 30
0.0
 40
0.9545230068260935
100
AcDbArc
 50
90.0
 51
109.3371432194279
  0
ARC
  5
307
102
{ACAD_REACTORS
330
33F
330
340
102
}
330
71
100
AcDbEntity
  8
0
  6
Continuous
 62
     2
100
AcDbCircle
 10
-0.33220116303701
 20
-59.9690544007333
 30
0.0
 40
0.3157169230761851
100
AcDbArc
 50
90.18896704256647
 51
180.0
  0
ARC
  5
308
102
{ACAD_REACTORS
330
33F
330
340
102
}
330
71
100
AcDbEntity
  8
0
  6
Continuous
 62
     2
100
AcDbCircle
 10
-0.85824386112492
 20
-61.68373128920787
 30
0.0
 40
0.9118481501444005
100
AcDbArc
 50
295.3740086781802
 51
64.62599132180893
  0
ARC
  5
309
102
{ACAD_REACTORS
330
33B
330
33C
102
}
330
71
100
AcDbEntity
  8
0
  6
Continuous
 62
     2
100
AcDbCircle
 10
4.3668298714818
 20
-62.41623331812191
 30
0.0
 40
2.227384008972719
100
AcDbArc
 50
288.4480761181338
 51
301.9309089499637
  0
ARC
  5
30A
102
{ACAD_REACTORS
330
33B
330
33C
102
}
330
71
100
AcDbEntity
  8
0
  6
Continuous
 62
     2
100
AcDbCircle
 10
4.78499760514271
 20
-63.6697790941591
 30
0.0
 40
0.9059297849848262
100
AcDbArc
 50
246.6277221118665
 51
288.4480761181539
  0
ARC
  5
30B
102
{ACAD_REACTORS
330
33B
330
33C
102
}
330
71
100
AcDbEntity
  8
0
  6
Continuous
 62
     2
100
AcDbCircle
 10
4.6285575724406
 20
-64.0317711128691
 30
0.0
 40
0.5115800601947491
100
AcDbArc
 50
208.5214732576844
 51
246.6277221118282
  0
ARC
  5
30C
102
{ACAD_REACTORS
330
33B
330
33C
102
}
330
71
100
AcDbEntity
  8
0
  6
Continuous
 62
     2
100
AcDbCircle
 10
4.78499760514271
 20
-63.98362027290212
 30
0.0
 40
0.9059297849853568
100
AcDbArc
 50
71.55192388185982
 51
113.3722778881304
  0
ARC
  5
30D
102
{ACAD_REACTORS
330
33B
330
33C
102
}
330
71
100
AcDbEntity
  8
0
  6
Continuous
 62
     2
100
AcDbCircle
 10
4.20895699638899
 20
-67.13938062878641
 30
0.0
 40
4.852596863497992
100
AcDbArc
 50
74.02000874164715
 51
84.84185523037608
  0
CIRCLE
  5
30E
102
{ACAD_REACTORS
330
33F
330
340
102
}
330
71
100
AcDbEntity
  8
0
  6
Continuous
 62
     2
100
AcDbCircle
 10
-0.8820588757977
 20
-61.68373128920787
 30
0.0
 40
0.470978932778479
  0
CIRCLE
  5
30F
330
71
100
AcDbEntity
  8
1
  6
Continuous
 62
     2
100
AcDbCircle
 10
4.57411085830191
 20
-51.52210444545229
 30
0.0
 40
1.25
  0
CIRCLE
  5
310
330
71
100
AcDbEntity
  8
1
  6
Continuous
 62
     2
100
AcDbCircle
 10
4.57411085830191
 20
-51.52210444545229
 30
0.0
 40
2.5
  0
TEXT
  5
311
330
71
100
AcDbEntity
  8
1
 62
     7
100
AcDbText
 10
86.04892716515593
 20
-76.6471044454516
 30
0.0
 40
2.5
  1
6
 41
0.9
  7
CONVERTER_11
100
AcDbText
  0
TEXT
  5
312
330
71
100
AcDbEntity
  8
1
 62
     7
100
AcDbText
 10
17.7155938318225
 20
-76.6471044454516
 30
0.0
 40
2.5
  1
5
 41
0.9
  7
CONVERTER_11
100
AcDbText
  0
TEXT
  5
313
330
71
100
AcDbEntity
  8
1
 62
     7
100
AcDbText
 10
-50.6177395015107
 20
-76.6471044454516
 30
0.0
 40
2.5
  1
4
 41
0.9
  7
CONVERTER_11
100
AcDbText
  0
TEXT
  5
314
330
71
100
AcDbEntity
  8
1
 62
     7
100
AcDbText
 10
-118.9510728348438
 20
-76.6471044454516
 30
0.0
 40
2.5
  1
3
 41
0.9
  7
CONVERTER_11
100
AcDbText
  0
TEXT
  5
315
330
71
100
AcDbEntity
  8
1
 62
     7
100
AcDbText
 10
122.3822604984893
 20
-45.1471044454516
 30
0.0
 40
2.5
  1
E
 41
0.9
  7
CONVERTER_11
100
AcDbText
  0
TEXT
  5
316
330
71
100
AcDbEntity
  8
1
 62
     7
100
AcDbText
 10
-255.6177395015104
 20
-76.6471044454516
 30
0.0
 40
2.5
  1
1
 41
0.9
  7
CONVERTER_11
100
AcDbText
  0
TEXT
  5
317
330
71
100
AcDbEntity
  8
1
 62
     7
100
AcDbText
 10
-187.2844061681773
 20
-76.6471044454516
 30
0.0
 40
2.5
  1
2
 41
0.9
  7
CONVERTER_11
100
AcDbText
  0
TEXT
  5
318
330
71
100
AcDbEntity
  8
1
 62
     7
100
AcDbText
 10
122.3822604984893
 20
12.25289555454852
 30
0.0
 40
2.5
  1
D
 41
0.9
  7
CONVERTER_11
100
AcDbText
  0
TEXT
  5
319
330
71
100
AcDbEntity
  8
1
 62
     7
100
AcDbText
 10
122.3822604984893
 20
69.6528955545486
 30
0.0
 40
2.5
  1
C
 41
0.9
  7
CONVERTER_11
100
AcDbText
  0
TEXT
  5
31A
330
71
100
AcDbEntity
  8
1
 62
     7
100
AcDbText
 10
122.3822604984893
 20
127.0528955545484
 30
0.0
 40
2.5
  1
B
 41
0.9
  7
CONVERTER_11
100
AcDbText
  0
TEXT
  5
31B
330
71
100
AcDbEntity
  8
1
 62
     7
100
AcDbText
 10
122.3822604984893
 20
184.4528955545483
 30
0.0
 40
2.5
  1
A
 41
0.9
  7
CONVERTER_11
100
AcDbText
  0
TEXT
  5
31C
330
71
100
AcDbEntity
  8
1
 62
     7
100
AcDbText
 10
86.04892716515593
 20
215.3528955545486
 30
0.0
 40
2.5
  1
6
 41
0.9
  7
CONVERTER_11
100
AcDbText
  0
TEXT
  5
31D
330
71
100
AcDbEntity
  8
1
 62
     7
100
AcDbText
 10
17.7155938318227
 20
215.3528955545486
 30
0.0
 40
2.5
  1
5
 41
0.9
  7
CONVERTER_11
100
AcDbText
  0
TEXT
  5
31E
330
71
100
AcDbEntity
  8
1
 62
     7
100
AcDbText
 10
-50.6177395015107
 20
215.3528955545486
 30
0.0
 40
2.5
  1
4
 41
0.9
  7
CONVERTER_11
100
AcDbText
  0
TEXT
  5
31F
330
71
100
AcDbEntity
  8
1
 62
     7
100
AcDbText
 10
-118.9510728348438
 20
215.3528955545486
 30
0.0
 40
2.5
  1
3
 41
0.9
  7
CONVERTER_11
100
AcDbText
  0
TEXT
  5
320
330
71
100
AcDbEntity
  8
1
 62
     7
100
AcDbText
 10
-187.2844061681773
 20
215.3528955545486
 30
0.0
 40
2.5
  1
2
 41
0.9
  7
CONVERTER_11
100
AcDbText
  0
TEXT
  5
321
330
71
100
AcDbEntity
  8
1
 62
     7
100
AcDbText
 10
-255.6177395015104
 20
215.3528955545486
 30
0.0
 40
2.5
  1
1
 41
0.9
  7
CONVERTER_11
100
AcDbText
  0
TEXT
  5
322
330
71
100
AcDbEntity
  8
1
 62
     7
100
AcDbText
 10
47.2110036937531
 20
-54.34710444545216
 30
0.0
 40
2.5
  1
/
 41
0.9
  7
CONVERTER_11
100
AcDbText
  0
TEXT
  5
324
330
71
100
AcDbEntity
  8
1
 62
     7
100
AcDbText
 10
49.36736819079509
 20
-54.34710444545216
 30
0.0
 40
2.5
  1
00
 41
0.81
  7
CONVERTER_12
100
AcDbText
  0
TEXT
  5
325
330
71
100
AcDbEntity
  8
1
 62
     3
100
AcDbText
 10
86.96385221681227
 20
-54.34710444545216
 30
0.0
 40
2.5
  1
03.01.2019
 41
0.81
  7
CONVERTER_12
100
AcDbText
  0
MTEXT
  5
326
330
71
100
AcDbEntity
  8
1
 62
     2
100
AcDbMText
 10
86.96385221681227
 20
-48.14710444545217
 30
0.0
 40
1.8
 41
0.0
 71
     1
 72
     1
  1
date
  7
CONVERTER_11
 73
     1
 44
1.32052821128451
  0
MTEXT
  5
327
330
71
100
AcDbEntity
  8
1
 62
     2
100
AcDbMText
 10
57.1374559717393
 20
-56.64710444545217
 30
0.0
 40
1.8
 41
0.0
 71
     1
 72
     1
  1
document-type
  7
CONVERTER_11
 73
     1
 44
1.20048019207683
  0
TEXT
  5
328
330
71
100
AcDbEntity
  8
1
 62
     3
100
AcDbText
 10
57.1374559717393
 20
-62.84710444545216
 30
0.0
 40
2.5
  1
TECDOC 2D_Productdrawing
 41
0.81
  7
CONVERTER_12
100
AcDbText
  0
MTEXT
  5
32A
330
71
100
AcDbEntity
  8
1
 62
     2
100
AcDbMText
 10
29.3374559717393
 20
-48.14710444545217
 30
0.0
 40
1.8
 41
0.0
 71
     1
 72
     1
  1
document-No. / RI
  7
CONVERTER_13
 73
     1
 44
1.32052821128451
  0
TEXT
  5
32B
330
71
100
AcDbEntity
  8
1
 62
     7
100
AcDbText
 10
29.3374559717393
 20
-54.34710444545216
 30
0.0
 40
2.5
  1
01150745
 41
0.81
  7
CONVERTER_12
100
AcDbText
  0
MTEXT
  5
32D
330
71
100
AcDbEntity
  8
1
 62
     3
100
AcDbMText
 10
116.9230563576516
 20
-54.3471044454521
 30
0.0
 40
2.5
 41
0.0
 71
     8
 72
     1
  1
2:1
  7
CONVERTER_14
 73
     1
 44
1.32052821128451
  0
MTEXT
  5
32E
330
71
100
AcDbEntity
  8
1
 62
     2
100
AcDbMText
 10
113.5638522168121
 20
-48.14710444545217
 30
0.0
 40
1.8
 41
0.0
 71
     1
 72
     1
  1
scale
  7
CONVERTER_11
 73
     1
 44
1.20048019207683
  0
MTEXT
  5
32F
330
71
100
AcDbEntity
  8
1
 62
     2
100
AcDbMText
 10
29.3374559717393
 20
-56.64710444545217
 30
0.0
 40
1.8
 41
0.0
 71
     1
 72
     1
  1
ident.-No.
  7
CONVERTER_11
 73
     1
 44
1.20048019207683
  0
TEXT
  5
330
330
71
100
AcDbEntity
  8
1
 62
     7
100
AcDbText
 10
29.73745597173908
 20
-62.84710444545216
 30
0.0
 40
2.5
  1
0828282
 41
0.81
  7
CONVERTER_12
100
AcDbText
  0
MTEXT
  5
331
330
71
100
AcDbEntity
  8
1
 62
     2
100
AcDbMText
 10
-42.57356729747022
 20
-59.89710444545337
 30
0.0
 40
2.0
 41
0.0
 71
     5
 72
     1
  1
General Information\P- Simplified representation\P- Document excluded from change process\P- Linear dimensions [mm]
  7
CONVERTER_11
 73
     1
 44
1.20048019207683
  0
MTEXT
  5
332
330
71
100
AcDbEntity
  8
1
 62
     3
100
AcDbMText
 10
18.03745597173929
 20
-51.52210444545217
 30
0.0
 40
2.5
 41
0.0
 71
     5
 72
     1
  1
DIN A3
  7
CONVERTER_11
 73
     1
 44
1.20048019207683
  0
MTEXT
  5
333
330
71
100
AcDbEntity
  8
1
 62
     2
100
AcDbMText
 10
29.23745597173931
 20
-65.14710444545217
 30
0.0
 40
1.8
 41
0.0
 71
     1
 72
     1
  1
description
  7
CONVERTER_11
 73
     1
 44
1.20048019207683
  0
MTEXT
  5
334
330
71
100
AcDbEntity
  8
1
 62
     7
100
AcDbMText
 10
74.8098582351148
 20
-69.397104445452
 30
0.0
 40
3.0
 41
0.0
 71
     5
 72
     1
  1
CARRIER-TM 300
  7
CONVERTER_12
 73
     1
 44
1.20048019207683
  0
TEXT
  5
335
330
71
100
AcDbEntity
  8
1
 62
     2
100
AcDbText
 10
16.27276478155289
 20
-71.39710444545217
 30
0.0
 40
1.8
  1
1
 41
0.9
  7
CONVERTER_11
100
AcDbText
  0
TEXT
  5
336
330
71
100
AcDbEntity
  8
1
 62
     2
100
AcDbText
 10
1.48372094208139
 20
-71.44635309925407
 30
0.0
 40
1.8
  1
1
 41
0.9
  7
CONVERTER_11
100
AcDbText
  0
TEXT
  5
337
330
71
100
AcDbEntity
  8
1
 62
     2
100
AcDbText
 10
-7.16254402826061
 20
-71.4061216604439
 30
0.0
 40
1.8
  1
page
 41
0.9
  7
CONVERTER_11
100
AcDbText
  0
TEXT
  5
338
330
71
100
AcDbEntity
  8
1
 62
     2
100
AcDbText
 10
11.03745597173921
 20
-71.40612166044367
 30
0.0
 40
1.8
  1
of
 41
0.9
  7
CONVERTER_11
100
AcDbText
  0
MTEXT
  5
339
330
71
100
AcDbEntity
  8
1
 62
     3
100
AcDbMText
 10
-275.3492725012515
 20
100.3391796682021
 30
0.0
 40
1.8
 41
0.0
 71
     7
 72
     1
  3
Transfer or duplication of this document as well as the utilisation or\Pcommunication of its content are not permitted unless express consent\Pis granted. Violations give rise to claims for damages. All rights reserved\Pin case of patent, utility mo
  1
del or design patent registrations.
  7
CONVERTER_11
 11
0.0
 21
1.0
 31
0.0
 73
     1
 44
0.99639855942377
  0
MTEXT
  5
33A
330
71
100
AcDbEntity
  8
1
 62
     3
100
AcDbMText
 10
-275.1950661901575
 20
-72.62019034595097
 30
0.0
 40
1.8
 41
0.0
 71
     7
 72
     1
  3
Weitergabe sowie Vervielf\U+00e4ltigung dieses Dokuments, Verwertung und \PMitteilung seines Inhalts sind verboten, soweit nicht ausdr\U+00fccklich gestattet. \PZuwiderhandlungen verpflichten zu Schadenersatz. Alle Rechte f\U+00fcr den Fall\Pder Pat
  1
ent-, Gebrauchsmuster- oder Designeintragung vorbehalten.
  7
CONVERTER_11
 11
0.0
 21
1.0
 31
0.0
 73
     1
 44
0.99639855942377
  0
HATCH
  5
33B
330
71
100
AcDbEntity
  8
1
  6
Continuous
 62
     2
100
AcDbHatch
 10
0.0
 20
0.0
 30
0.0
210
0.0
220
0.0
230
1.0
  2
CUSTOM0
 70
     0
 71
     1
 91
        1
 92
        1
 93
       14
 72
     2
 10
4.078685247662094
 20
-63.82669968353061
 40
1.205656168390975
 50
164.9381082228762
 51
195.0618917770942
 73
     1
 72
     2
 10
4.497813091124897
 20
-63.71390932149571
 40
1.639695123939435
 50
195.0618917770919
 51
275.1581447696364
 73
     1
 72
     2
 10
4.208956996388992
 20
-60.51401873827406
 40
4.852596863498272
 50
275.1581447696238
 51
285.9799912583525
 73
     1
 72
     1
 10
5.544884913506792
 20
-65.17910104407498
 11
5.544884913506792
 21
-64.30658403727166
 72
     2
 10
4.366829871481798
 20
-62.41623331812191
 40
2.227384008972719
 50
58.06909105003628
 51
71.55192388186626
 73
     0
 72
     2
 10
4.784997605142706
 20
-63.6697790941591
 40
0.9059297849848262
 50
71.55192388184601
 51
113.3722778881334
 73
     0
 72
     2
 10
4.628557572440599
 20
-64.0317711128691
 40
0.5115800601947491
 50
113.3722778881718
 51
151.4785267423156
 73
     0
 72
     2
 10
5.005914830520993
 20
-63.82669968353061
 40
0.9410597353333294
 50
151.4785267423032
 51
208.5214732577306
 73
     0
 72
     2
 10
4.628557572440599
 20
-63.62162825419149
 40
0.5115800601948293
 50
208.5214732576837
 51
246.6277221118054
 73
     0
 72
     2
 10
4.784997605142706
 20
-63.98362027290212
 40
0.9059297849853568
 50
246.6277221118695
 51
288.4480761181401
 73
     0
 72
     2
 10
4.366829871481798
 20
-65.23716604893868
 40
2.227384008973465
 50
288.4480761181333
 51
301.9309089499629
 73
     0
 72
     1
 10
5.544884913506792
 20
-63.34681532978887
 11
5.544884913506792
 21
-62.4742983229856
 72
     2
 10
4.208956996388992
 20
-67.13938062878641
 40
4.852596863497992
 50
74.02000874164715
 51
84.84185523037608
 73
     1
 72
     2
 10
4.497813091124897
 20
-63.93949004556539
 40
1.639695123940499
 50
84.8418552303653
 51
164.9381082228903
 73
     1
 97
       14
330
30D
330
256
330
2DC
330
30C
330
2DD
330
2DE
330
30B
330
30A
330
309
330
257
330
2DF
330
2E0
330
2E1
330
2E2
 75
     1
 76
     2
 52
45.0
 41
0.1
 77
     0
 78
     1
 53
45.0
 43
62.7811309658083
 44
-72.3161373035813
 45
-0.1414213562373095
 46
0.0
 79
     0
 98
        1
 10
0.0
 20
0.0
  0
HATCH
  5
33C
330
71
100
AcDbEntity
  8
1
  6
Continuous
 62
     2
100
AcDbHatch
 10
0.0
 20
0.0
 30
0.0
210
0.0
220
0.0
230
1.0
  2
CUSTOM1
 70
     0
 71
     1
 91
        1
 92
        1
 93
       14
 72
     2
 10
4.078685247662094
 20
-63.82669968353061
 40
1.205656168390975
 50
164.9381082228762
 51
195.0618917770942
 73
     1
 72
     2
 10
4.497813091124897
 20
-63.71390932149571
 40
1.639695123939435
 50
195.0618917770919
 51
275.1581447696364
 73
     1
 72
     2
 10
4.208956996388992
 20
-60.51401873827406
 40
4.852596863498272
 50
275.1581447696238
 51
285.9799912583525
 73
     1
 72
     1
 10
5.544884913506792
 20
-65.17910104407498
 11
5.544884913506792
 21
-64.30658403727166
 72
     2
 10
4.366829871481798
 20
-62.41623331812191
 40
2.227384008972719
 50
58.06909105003628
 51
71.55192388186626
 73
     0
 72
     2
 10
4.784997605142706
 20
-63.6697790941591
 40
0.9059297849848262
 50
71.55192388184601
 51
113.3722778881334
 73
     0
 72
     2
 10
4.628557572440599
 20
-64.0317711128691
 40
0.5115800601947491
 50
113.3722778881718
 51
151.4785267423156
 73
     0
 72
     2
 10
5.005914830520993
 20
-63.82669968353061
 40
0.9410597353333294
 50
151.4785267423032
 51
208.5214732577306
 73
     0
 72
     2
 10
4.628557572440599
 20
-63.62162825419149
 40
0.5115800601948293
 50
208.5214732576837
 51
246.6277221118054
 73
     0
 72
     2
 10
4.784997605142706
 20
-63.98362027290212
 40
0.9059297849853568
 50
246.6277221118695
 51
288.4480761181401
 73
     0
 72
     2
 10
4.366829871481798
 20
-65.23716604893868
 40
2.227384008973465
 50
288.4480761181333
 51
301.9309089499629
 73
     0
 72
     1
 10
5.544884913506792
 20
-63.34681532978887
 11
5.544884913506792
 21
-62.4742983229856
 72
     2
 10
4.208956996388992
 20
-67.13938062878641
 40
4.852596863497992
 50
74.02000874164715
 51
84.84185523037608
 73
     1
 72
     2
 10
4.497813091124897
 20
-63.93949004556539
 40
1.639695123940499
 50
84.8418552303653
 51
164.9381082228903
 73
     1
 97
       14
330
30D
330
256
330
2DC
330
30C
330
2DD
330
2DE
330
30B
330
30A
330
309
330
257
330
2DF
330
2E0
330
2E1
330
2E2
 75
     1
 76
     2
 52
45.0
 41
0.1
 77
     0
 78
     1
 53
45.0
 43
62.7811309658083
 44
-72.3161373035813
 45
-0.1414213562373095
 46
0.0
 79
     0
 98
        1
 10
0.0
 20
0.0
  0
HATCH
  5
33D
330
71
100
AcDbEntity
  8
1
  6
Continuous
 62
     2
100
AcDbHatch
 10
0.0
 20
0.0
 30
0.0
210
0.0
220
0.0
230
1.0
  2
CUSTOM2
 70
     0
 71
     1
 91
        1
 92
        1
 93
       18
 72
     2
 10
20.60051457037778
 20
-63.93949004556539
 40
1.639695123940101
 50
90.0
 51
164.9381082228991
 73
     1
 72
     2
 10
20.18138672691609
 20
-63.82669968353061
 40
1.205656168392986
 50
164.9381082229019
 51
195.0618917770919
 73
     1
 72
     2
 10
20.60051457037778
 20
-63.71390932149571
 40
1.639695123940501
 50
195.0618917771004
 51
275.1581447696774
 73
     1
 72
     2
 10
20.31165847564191
 20
-60.51401873827406
 40
4.852596863498889
 50
275.1581447696373
 51
285.9799912583383
 73
     1
 72
     1
 10
21.6475863927586
 20
-65.1791010440755
 11
21.6475863927586
 21
-64.30658403727217
 72
     2
 10
20.46953135073468
 20
-62.41623331812237
 40
2.227384008972768
 50
58.0690910500604
 51
71.55192388186651
 73
     0
 72
     2
 10
20.8876990843967
 20
-63.6697790941591
 40
0.9059297849852208
 50
71.55192388192259
 51
113.3722778881912
 73
     0
 72
     2
 10
20.73125905169349
 20
-64.0317711128691
 40
0.5115800601959967
 50
113.3722778881605
 51
151.4785267423119
 73
     0
 72
     2
 10
21.10861630977499
 20
-63.82669968353061
 40
0.9410597353350386
 50
151.4785267423334
 51
208.5214732576431
 73
     0
 72
     2
 10
20.73125905169349
 20
-63.62162825419149
 40
0.5115800601944048
 50
208.5214732575818
 51
250.6628567805177
 73
     0
 72
     2
 10
20.87792904979719
 20
-64.0395832345745
 40
0.9545230068260935
 50
250.6628567805721
 51
270.0
 73
     0
 72
     1
 10
20.87792904979719
 20
-63.0850602277484
 11
21.98156834936529
 21
-63.0850602277484
 72
     1
 10
21.98156834936529
 20
-63.0850602277484
 11
21.98156834936529
 21
-65.3536044454358
 72
     1
 10
21.98156834936529
 20
-65.3536044454358
 11
23.174361051533
 21
-65.3536044454358
 72
     1
 10
23.174361051533
 20
-65.3536044454358
 11
23.174361051533
 21
-63.0850602277484
 72
     1
 10
23.174361051533
 20
-63.0850602277484
 11
23.98546008900638
 21
-63.0850602277484
 72
     1
 10
23.98546008900638
 20
-63.0850602277484
 11
23.98546008900638
 21
-62.29979492162467
 72
     1
 10
23.98546008900638
 20
-62.29979492162467
 11
20.60051457037778
 21
-62.29979492162529
 97
       18
330
2BC
330
2BB
330
2BA
330
2B9
330
2BE
330
258
330
306
330
2E7
330
305
330
2E8
330
304
330
303
330
259
330
302
330
301
330
2E9
330
2EA
330
2BD
 75
     1
 76
     2
 52
45.0
 41
0.1
 77
     0
 78
     1
 53
45.0
 43
62.7811309658083
 44
-72.3161373035813
 45
-0.1414213562373095
 46
0.0
 79
     0
 98
        1
 10
0.0
 20
0.0
  0
HATCH
  5
33E
330
71
100
AcDbEntity
  8
1
  6
Continuous
 62
     2
100
AcDbHatch
 10
0.0
 20
0.0
 30
0.0
210
0.0
220
0.0
230
1.0
  2
CUSTOM3
 70
     0
 71
     1
 91
        1
 92
        1
 93
       18
 72
     2
 10
20.60051457037778
 20
-63.93949004556539
 40
1.639695123940101
 50
90.0
 51
164.9381082228991
 73
     1
 72
     2
 10
20.18138672691609
 20
-63.82669968353061
 40
1.205656168392986
 50
164.9381082229019
 51
195.0618917770919
 73
     1
 72
     2
 10
20.60051457037778
 20
-63.71390932149571
 40
1.639695123940501
 50
195.0618917771004
 51
275.1581447696774
 73
     1
 72
     2
 10
20.31165847564191
 20
-60.51401873827406
 40
4.852596863498889
 50
275.1581447696373
 51
285.9799912583383
 73
     1
 72
     1
 10
21.6475863927586
 20
-65.1791010440755
 11
21.6475863927586
 21
-64.30658403727217
 72
     2
 10
20.46953135073468
 20
-62.41623331812237
 40
2.227384008972768
 50
58.0690910500604
 51
71.55192388186651
 73
     0
 72
     2
 10
20.8876990843967
 20
-63.6697790941591
 40
0.9059297849852208
 50
71.55192388192259
 51
113.3722778881912
 73
     0
 72
     2
 10
20.73125905169349
 20
-64.0317711128691
 40
0.5115800601959967
 50
113.3722778881605
 51
151.4785267423119
 73
     0
 72
     2
 10
21.10861630977499
 20
-63.82669968353061
 40
0.9410597353350386
 50
151.4785267423334
 51
208.5214732576431
 73
     0
 72
     2
 10
20.73125905169349
 20
-63.62162825419149
 40
0.5115800601944048
 50
208.5214732575818
 51
250.6628567805177
 73
     0
 72
     2
 10
20.87792904979719
 20
-64.0395832345745
 40
0.9545230068260935
 50
250.6628567805721
 51
270.0
 73
     0
 72
     1
 10
20.87792904979719
 20
-63.0850602277484
 11
21.98156834936529
 21
-63.0850602277484
 72
     1
 10
21.98156834936529
 20
-63.0850602277484
 11
21.98156834936529
 21
-65.3536044454358
 72
     1
 10
21.98156834936529
 20
-65.3536044454358
 11
23.174361051533
 21
-65.3536044454358
 72
     1
 10
23.174361051533
 20
-65.3536044454358
 11
23.174361051533
 21
-63.0850602277484
 72
     1
 10
23.174361051533
 20
-63.0850602277484
 11
23.98546008900638
 21
-63.0850602277484
 72
     1
 10
23.98546008900638
 20
-63.0850602277484
 11
23.98546008900638
 21
-62.29979492162467
 72
     1
 10
23.98546008900638
 20
-62.29979492162467
 11
20.60051457037778
 21
-62.29979492162529
 97
       18
330
2BC
330
2BB
330
2BA
330
2B9
330
2BE
330
258
330
306
330
2E7
330
305
330
2E8
330
304
330
303
330
259
330
302
330
301
330
2E9
330
2EA
330
2BD
 75
     1
 76
     2
 52
45.0
 41
0.1
 77
     0
 78
     1
 53
45.0
 43
62.7811309658083
 44
-72.3161373035813
 45
-0.1414213562373095
 46
0.0
 79
     0
 98
        1
 10
0.0
 20
0.0
  0
HATCH
  5
33F
330
71
100
AcDbEntity
  8
1
  6
Continuous
 62
     2
100
AcDbHatch
 10
0.0
 20
0.0
 30
0.0
210
0.0
220
0.0
230
1.0
  2
CUSTOM4
 70
     0
 71
     1
 91
        4
 92
        1
 93
        8
 72
     2
 10
-3.501644526315317
 20
-59.36484906085236
 40
0.424244615383877
 50
90.0
 51
180.0
 73
     1
 72
     1
 10
-3.925889141698093
 20
-59.36484906085236
 11
-3.925889141698093
 21
-64.9293598300526
 72
     2
 10
-3.501644526315317
 20
-64.9293598300526
 40
0.4242446153827761
 50
180.0
 51
270.0
 73
     1
 72
     1
 10
-3.501644526315317
 20
-65.3536044454358
 11
1.971667564401599
 21
-65.3536044454358
 72
     2
 10
1.971667564401599
 20
-64.9293598300526
 40
0.424244615383202
 50
270.0
 51
360.0
 73
     1
 72
     1
 10
2.395912179785483
 20
-64.9293598300526
 11
2.395912179785483
 21
-59.36484906085236
 72
     2
 10
1.971667564401599
 20
-59.36484906085236
 40
0.4242446153838839
 50
0.0
 51
90.0
 73
     1
 72
     1
 10
1.971667564401599
 20
-58.94060444546848
 11
-3.501644526315316
 21
-58.94060444546848
 97
        8
330
2FA
330
287
330
2F9
330
288
330
2F0
330
285
330
2FB
330
286
 92
       16
 93
       12
 72
     1
 10
-2.907749849568802
 20
-64.64104888987892
 11
-1.431916588559204
 21
-64.64104888987892
 72
     2
 10
-1.431916588559204
 20
-64.32533196680221
 40
0.3157169230767067
 50
270.0
 51
360.0
 73
     1
 72
     1
 10
-1.116199665482611
 20
-64.32533196680221
 11
-1.116199665482611
 21
-62.7945610352706
 72
     2
 10
-1.431916588559204
 20
-62.7945610352706
 40
0.315716923076593
 50
0.0
 51
64.80558935144542
 73
     1
 72
     2
 10
-0.909332140984219
 20
-61.68373128920787
 40
0.9118975235576432
 50
115.1944106485088
 51
244.8055893514805
 73
     0
 72
     2
 10
-1.431916588559204
 20
-60.5729015431457
 40
0.3157169230760723
 50
295.1944106485666
 51
360.0
 73
     1
 72
     1
 10
-1.116199665482611
 20
-60.5729015431457
 11
-1.116199665482611
 21
-59.96887692408508
 72
     2
 10
-1.431916588559204
 20
-59.96887692408508
 40
0.315716923076593
 50
0.0
 51
90.0
 73
     1
 72
     1
 10
-1.431916588559204
 20
-59.653160001009
 11
-2.907749849568802
 21
-59.653160001009
 72
     2
 10
-2.907749849568802
 20
-59.96887692408508
 40
0.3157169230760815
 50
90.0
 51
180.0
 73
     1
 72
     1
 10
-3.2234667726444
 20
-59.96887692408508
 11
-3.2234667726444
 21
-64.32533196680221
 72
     2
 10
-2.907749849568802
 20
-64.32533196680221
 40
0.3157169230755983
 50
180.0
 51
270.0
 73
     1
 97
       12
330
28C
330
2ED
330
28B
330
2FE
330
28A
330
2FD
330
2EE
330
2EF
330
289
330
2FC
330
284
330
2FF
 92
       16
 93
        8
 72
     2
 10
-0.8582438611249188
 20
-61.68373128920787
 40
0.9118481501444005
 50
295.3740086781802
 51
424.6259913218089
 73
     1
 72
     2
 10
-0.3322011630370128
 20
-60.57458968924011
 40
0.3157169230767919
 50
115.3740086783651
 51
180.0
 73
     0
 72
     1
 10
-0.6479180861138047
 20
-60.57458968924011
 11
-0.6479180861138047
 21
-59.9690544007333
 72
     2
 10
-0.3322011630370128
 20
-59.9690544007333
 40
0.3157169230761851
 50
180.0
 51
269.8110329574336
 73
     0
 72
     2
 10
-0.3265850277269919
 20
-61.67188934830229
 40
2.018561131933273
 50
269.8110329575827
 51
450.1889670424174
 73
     0
 72
     2
 10
-0.3322011630370128
 20
-63.37472429587128
 40
0.3157169230767919
 50
90.18896704256646
 51
180.0
 73
     0
 72
     1
 10
-0.6479180861138047
 20
-63.37472429587128
 11
-0.6479180861138047
 21
-62.7928728891762
 72
     2
 10
-0.3322011630370128
 20
-62.7928728891762
 40
0.3157169230765328
 50
180.0
 51
244.6259913216482
 73
     0
 97
        8
330
308
330
2E4
330
2C0
330
307
330
2E5
330
2E6
330
2BF
330
2E3
 92
       16
 93
        1
 72
     2
 10
-0.8820588757976964
 20
-61.68373128920787
 40
0.470978932778479
 50
0.0
 51
360.0
 73
     1
 97
        1
330
30E
 75
     1
 76
     2
 52
45.0
 41
0.1
 77
     0
 78
     1
 53
45.0
 43
62.7811309658083
 44
-72.3161373035813
 45
-0.1414213562373095
 46
0.0
 79
     0
 98
        1
 10
0.0
 20
0.0
  0
HATCH
  5
340
330
71
100
AcDbEntity
  8
1
  6
Continuous
 62
     2
100
AcDbHatch
 10
0.0
 20
0.0
 30
0.0
210
0.0
220
0.0
230
1.0
  2
CUSTOM5
 70
     0
 71
     1
 91
        4
 92
        1
 93
        8
 72
     2
 10
-3.501644526315317
 20
-59.36484906085236
 40
0.424244615383877
 50
90.0
 51
180.0
 73
     1
 72
     1
 10
-3.925889141698093
 20
-59.36484906085236
 11
-3.925889141698093
 21
-64.9293598300526
 72
     2
 10
-3.501644526315317
 20
-64.9293598300526
 40
0.4242446153827761
 50
180.0
 51
270.0
 73
     1
 72
     1
 10
-3.501644526315317
 20
-65.3536044454358
 11
1.971667564401599
 21
-65.3536044454358
 72
     2
 10
1.971667564401599
 20
-64.9293598300526
 40
0.424244615383202
 50
270.0
 51
360.0
 73
     1
 72
     1
 10
2.395912179785483
 20
-64.9293598300526
 11
2.395912179785483
 21
-59.36484906085236
 72
     2
 10
1.971667564401599
 20
-59.36484906085236
 40
0.4242446153838839
 50
0.0
 51
90.0
 73
     1
 72
     1
 10
1.971667564401599
 20
-58.94060444546848
 11
-3.501644526315316
 21
-58.94060444546848
 97
        8
330
2FA
330
287
330
2F9
330
288
330
2F0
330
285
330
2FB
330
286
 92
       16
 93
       12
 72
     1
 10
-2.907749849568802
 20
-64.64104888987892
 11
-1.431916588559204
 21
-64.64104888987892
 72
     2
 10
-1.431916588559204
 20
-64.32533196680221
 40
0.3157169230767067
 50
270.0
 51
360.0
 73
     1
 72
     1
 10
-1.116199665482611
 20
-64.32533196680221
 11
-1.116199665482611
 21
-62.7945610352706
 72
     2
 10
-1.431916588559204
 20
-62.7945610352706
 40
0.315716923076593
 50
0.0
 51
64.80558935144542
 73
     1
 72
     2
 10
-0.909332140984219
 20
-61.68373128920787
 40
0.9118975235576432
 50
115.1944106485088
 51
244.8055893514805
 73
     0
 72
     2
 10
-1.431916588559204
 20
-60.5729015431457
 40
0.3157169230760723
 50
295.1944106485666
 51
360.0
 73
     1
 72
     1
 10
-1.116199665482611
 20
-60.5729015431457
 11
-1.116199665482611
 21
-59.96887692408508
 72
     2
 10
-1.431916588559204
 20
-59.96887692408508
 40
0.315716923076593
 50
0.0
 51
90.0
 73
     1
 72
     1
 10
-1.431916588559204
 20
-59.653160001009
 11
-2.907749849568802
 21
-59.653160001009
 72
     2
 10
-2.907749849568802
 20
-59.96887692408508
 40
0.3157169230760815
 50
90.0
 51
180.0
 73
     1
 72
     1
 10
-3.2234667726444
 20
-59.96887692408508
 11
-3.2234667726444
 21
-64.32533196680221
 72
     2
 10
-2.907749849568802
 20
-64.32533196680221
 40
0.3157169230755983
 50
180.0
 51
270.0
 73
     1
 97
       12
330
28C
330
2ED
330
28B
330
2FE
330
28A
330
2FD
330
2EE
330
2EF
330
289
330
2FC
330
284
330
2FF
 92
       16
 93
        8
 72
     2
 10
-0.8582438611249188
 20
-61.68373128920787
 40
0.9118481501444005
 50
295.3740086781802
 51
424.6259913218089
 73
     1
 72
     2
 10
-0.3322011630370128
 20
-60.57458968924011
 40
0.3157169230767919
 50
115.3740086783651
 51
180.0
 73
     0
 72
     1
 10
-0.6479180861138047
 20
-60.57458968924011
 11
-0.6479180861138047
 21
-59.9690544007333
 72
     2
 10
-0.3322011630370128
 20
-59.9690544007333
 40
0.3157169230761851
 50
180.0
 51
269.8110329574336
 73
     0
 72
     2
 10
-0.3265850277269919
 20
-61.67188934830229
 40
2.018561131933273
 50
269.8110329575827
 51
450.1889670424174
 73
     0
 72
     2
 10
-0.3322011630370128
 20
-63.37472429587128
 40
0.3157169230767919
 50
90.18896704256646
 51
180.0
 73
     0
 72
     1
 10
-0.6479180861138047
 20
-63.37472429587128
 11
-0.6479180861138047
 21
-62.7928728891762
 72
     2
 10
-0.3322011630370128
 20
-62.7928728891762
 40
0.3157169230765328
 50
180.0
 51
244.6259913216482
 73
     0
 97
        8
330
308
330
2E4
330
2C0
330
307
330
2E5
330
2E6
330
2BF
330
2E3
 92
       16
 93
        1
 72
     2
 10
-0.8820588757976964
 20
-61.68373128920787
 40
0.470978932778479
 50
0.0
 51
360.0
 73
     1
 97
        1
330
30E
 75
     1
 76
     2
 52
45.0
 41
0.1
 77
     0
 78
     1
 53
45.0
 43
62.7811309658083
 44
-72.3161373035813
 45
-0.1414213562373095
 46
0.0
 79
     0
 98
        1
 10
0.0
 20
0.0
  0
HATCH
  5
341
330
71
100
AcDbEntity
  8
1
  6
Continuous
 62
     2
100
AcDbHatch
 10
0.0
 20
0.0
 30
0.0
210
0.0
220
0.0
230
1.0
  2
CUSTOM6
 70
     0
 71
     1
 91
        2
 92
        1
 93
       12
 72
     2
 10
11.17351947767409
 20
-60.46750920735617
 40
1.526904761905776
 50
90.0
 51
270.0
 73
     1
 72
     1
 10
11.17351947767409
 20
-61.99441396926149
 11
14.323839201455
 21
-61.99441396926149
 72
     1
 10
14.323839201455
 20
-61.99441396926149
 11
14.323839201455
 21
-61.2964003638191
 72
     1
 10
14.323839201455
 20
-61.2964003638191
 11
12.98791137502738
 21
-61.2964003638191
 72
     1
 10
12.98791137502738
 20
-61.2964003638191
 11
12.98791137502738
 21
-60.81651601007737
 72
     1
 10
12.98791137502738
 20
-60.81651601007737
 11
14.323839201455
 21
-60.81651601007737
 72
     1
 10
14.323839201455
 20
-60.81651601007737
 11
14.323839201455
 21
-60.11850240463498
 72
     1
 10
14.323839201455
 20
-60.11850240463498
 11
12.98791137502738
 21
-60.11850240463498
 72
     1
 10
12.98791137502738
 20
-60.11850240463498
 11
12.98791137502738
 21
-59.6386180508933
 72
     1
 10
12.98791137502738
 20
-59.6386180508933
 11
14.323839201455
 21
-59.6386180508933
 72
     1
 10
14.323839201455
 20
-59.6386180508933
 11
14.323839201455
 21
-58.9406044454504
 72
     1
 10
14.323839201455
 20
-58.9406044454504
 11
11.17351947767409
 21
-58.9406044454504
 97
       12
330
27B
330
275
330
29C
330
29B
330
29A
330
299
330
276
330
277
330
278
330
279
330
2EB
330
27A
 92
       16
 93
        4
 72
     2
 10
11.5895315241855
 20
-60.46750920735617
 40
0.7717997786796245
 50
141.8795802028484
 51
218.1204197971553
 73
     1
 72
     2
 10
11.38979148783929
 20
-60.62424038547671
 40
0.5179085730134636
 50
218.1204197971338
 51
321.8795802028581
 73
     1
 72
     2
 10
11.19005145149311
 20
-60.46750920735617
 40
0.7717997786795467
 50
321.8795802028378
 51
398.1204197971585
 73
     1
 72
     2
 10
11.38979148783929
 20
-60.31077802923569
 40
0.5179085730133656
 50
38.12041979714133
 51
141.8795802028668
 73
     1
 97
        4
330
2F8
330
2F7
330
2F2
330
2F1
 75
     1
 76
     2
 52
45.0
 41
0.1
 77
     0
 78
     1
 53
45.0
 43
62.7811309658083
 44
-72.3161373035813
 45
-0.1414213562373095
 46
0.0
 79
     0
 98
        1
 10
0.0
 20
0.0
  0
HATCH
  5
342
330
71
100
AcDbEntity
  8
1
  6
Continuous
 62
     2
100
AcDbHatch
 10
0.0
 20
0.0
 30
0.0
210
0.0
220
0.0
230
1.0
  2
CUSTOM7
 70
     0
 71
     1
 91
        2
 92
        1
 93
       12
 72
     2
 10
11.17351947767409
 20
-60.46750920735617
 40
1.526904761905776
 50
90.0
 51
270.0
 73
     1
 72
     1
 10
11.17351947767409
 20
-61.99441396926149
 11
14.323839201455
 21
-61.99441396926149
 72
     1
 10
14.323839201455
 20
-61.99441396926149
 11
14.323839201455
 21
-61.2964003638191
 72
     1
 10
14.323839201455
 20
-61.2964003638191
 11
12.98791137502738
 21
-61.2964003638191
 72
     1
 10
12.98791137502738
 20
-61.2964003638191
 11
12.98791137502738
 21
-60.81651601007737
 72
     1
 10
12.98791137502738
 20
-60.81651601007737
 11
14.323839201455
 21
-60.81651601007737
 72
     1
 10
14.323839201455
 20
-60.81651601007737
 11
14.323839201455
 21
-60.11850240463498
 72
     1
 10
14.323839201455
 20
-60.11850240463498
 11
12.98791137502738
 21
-60.11850240463498
 72
     1
 10
12.98791137502738
 20
-60.11850240463498
 11
12.98791137502738
 21
-59.6386180508933
 72
     1
 10
12.98791137502738
 20
-59.6386180508933
 11
14.323839201455
 21
-59.6386180508933
 72
     1
 10
14.323839201455
 20
-59.6386180508933
 11
14.323839201455
 21
-58.9406044454504
 72
     1
 10
14.323839201455
 20
-58.9406044454504
 11
11.17351947767409
 21
-58.9406044454504
 97
       12
330
27B
330
275
330
29C
330
29B
330
29A
330
299
330
276
330
277
330
278
330
279
330
2EB
330
27A
 92
       16
 93
        4
 72
     2
 10
11.5895315241855
 20
-60.46750920735617
 40
0.7717997786796245
 50
141.8795802028484
 51
218.1204197971553
 73
     1
 72
     2
 10
11.38979148783929
 20
-60.62424038547671
 40
0.5179085730134636
 50
218.1204197971338
 51
321.8795802028581
 73
     1
 72
     2
 10
11.19005145149311
 20
-60.46750920735617
 40
0.7717997786795467
 50
321.8795802028378
 51
398.1204197971585
 73
     1
 72
     2
 10
11.38979148783929
 20
-60.31077802923569
 40
0.5179085730133656
 50
38.12041979714133
 51
141.8795802028668
 73
     1
 97
        4
330
2F8
330
2F7
330
2F2
330
2F1
 75
     1
 76
     2
 52
45.0
 41
0.1
 77
     0
 78
     1
 53
45.0
 43
62.7811309658083
 44
-72.3161373035813
 45
-0.1414213562373095
 46
0.0
 79
     0
 98
        1
 10
0.0
 20
0.0
  0
HATCH
  5
343
330
71
100
AcDbEntity
  8
1
  6
Continuous
 62
     2
100
AcDbHatch
 10
0.0
 20
0.0
 30
0.0
210
0.0
220
0.0
230
1.0
  2
CUSTOM8
 70
     0
 71
     1
 91
        2
 92
        1
 93
        4
 72
     2
 10
7.147904115212384
 20
-63.82669968353061
 40
1.458034083651616
 50
117.5481481756598
 51
242.4518518243369
 73
     1
 72
     2
 10
7.428844007045797
 20
-63.28812467322719
 40
2.065479772208637
 50
242.4518518243384
 51
297.548148175686
 73
     1
 72
     2
 10
7.709783898878982
 20
-63.82669968353061
 40
1.458034083652024
 50
297.5481481757057
 51
422.4518518242976
 73
     1
 72
     2
 10
7.428844007045797
 20
-64.3652746938334
 40
2.065479772208688
 50
62.45185182430809
 51
117.5481481756674
 73
     1
 97
        4
330
2F6
330
2F3
330
2F5
330
2F4
 92
       16
 93
        4
 72
     2
 10
7.428844007045797
 20
-63.66996850541007
 40
0.5179085730132806
 50
38.12041979716469
 51
141.8795802028567
 73
     1
 72
     2
 10
7.628584043391783
 20
-63.82669968353061
 40
0.7717997786795553
 50
141.8795802028276
 51
218.1204197971616
 73
     1
 72
     2
 10
7.428844007045797
 20
-63.98343086165046
 40
0.5179085730138424
 50
218.1204197971879
 51
321.8795802027908
 73
     1
 72
     2
 10
7.229103970699384
 20
-63.82669968353061
 40
0.7717997786795308
 50
321.8795802028436
 51
398.1204197971672
 73
     1
 97
        4
330
2D9
330
2DA
330
2DB
330
2D8
 75
     1
 76
     2
 52
45.0
 41
0.1
 77
     0
 78
     1
 53
45.0
 43
62.7811309658083
 44
-72.3161373035813
 45
-0.1414213562373095
 46
0.0
 79
     0
 98
        1
 10
0.0
 20
0.0
  0
HATCH
  5
344
330
71
100
AcDbEntity
  8
1
  6
Continuous
 62
     2
100
AcDbHatch
 10
0.0
 20
0.0
 30
0.0
210
0.0
220
0.0
230
1.0
  2
CUSTOM9
 70
     0
 71
     1
 91
        2
 92
        1
 93
        4
 72
     2
 10
7.147904115212384
 20
-63.82669968353061
 40
1.458034083651616
 50
117.5481481756598
 51
242.4518518243369
 73
     1
 72
     2
 10
7.428844007045797
 20
-63.28812467322719
 40
2.065479772208637
 50
242.4518518243384
 51
297.548148175686
 73
     1
 72
     2
 10
7.709783898878982
 20
-63.82669968353061
 40
1.458034083652024
 50
297.5481481757057
 51
422.4518518242976
 73
     1
 72
     2
 10
7.428844007045797
 20
-64.3652746938334
 40
2.065479772208688
 50
62.45185182430809
 51
117.5481481756674
 73
     1
 97
        4
330
2F6
330
2F3
330
2F5
330
2F4
 92
       16
 93
        4
 72
     2
 10
7.428844007045797
 20
-63.66996850541007
 40
0.5179085730132806
 50
38.12041979716469
 51
141.8795802028567
 73
     1
 72
     2
 10
7.628584043391783
 20
-63.82669968353061
 40
0.7717997786795553
 50
141.8795802028276
 51
218.1204197971616
 73
     1
 72
     2
 10
7.428844007045797
 20
-63.98343086165046
 40
0.5179085730138424
 50
218.1204197971879
 51
321.8795802027908
 73
     1
 72
     2
 10
7.229103970699384
 20
-63.82669968353061
 40
0.7717997786795308
 50
321.8795802028436
 51
398.1204197971672
 73
     1
 97
        4
330
2D9
330
2DA
330
2DB
330
2D8
 75
     1
 76
     2
 52
45.0
 41
0.1
 77
     0
 78
     1
 53
45.0
 43
62.7811309658083
 44
-72.3161373035813
 45
-0.1414213562373095
 46
0.0
 79
     0
 98
        1
 10
0.0
 20
0.0
  0
HATCH
  5
345
330
71
100
AcDbEntity
  8
1
  6
Continuous
 62
     2
100
AcDbHatch
 10
0.0
 20
0.0
 30
0.0
210
0.0
220
0.0
230
1.0
  2
CUSTOM10
 70
     0
 71
     1
 91
        2
 92
        1
 93
        6
 72
     1
 10
2.873029260652288
 20
-58.9406044454504
 11
2.873029260652288
 21
-61.99441396926149
 72
     1
 10
2.873029260652288
 20
-61.99441396926149
 11
4.113533670906293
 21
-61.99441396926149
 72
     1
 10
4.113533670906293
 20
-61.99441396926149
 11
4.113533670906293
 21
-61.05133572811776
 72
     1
 10
4.113533670906293
 20
-61.05133572811776
 11
4.87230125868669
 21
-61.05133572811776
 72
     2
 10
4.87230125868669
 20
-59.99597008678411
 40
1.055365641333651
 50
270.0
 51
450.0
 73
     1
 72
     1
 10
4.87230125868669
 20
-58.9406044454504
 11
2.873029260652288
 21
-58.9406044454504
 97
        6
330
300
330
28D
330
283
330
282
330
28F
330
28E
 92
       16
 93
        4
 72
     1
 10
4.430828732448305
 20
-59.60371029089039
 11
4.113533670906293
 21
-59.60371029089039
 72
     1
 10
4.113533670906293
 20
-59.60371029089039
 11
4.113533670906293
 21
-60.30943794023268
 72
     1
 10
4.113533670906293
 20
-60.30943794023268
 11
4.430828732448305
 21
-60.30943794023268
 72
     2
 10
4.430828732448305
 20
-59.95657411556159
 40
0.3528638246710898
 50
270.0
 51
450.0
 73
     1
 97
        4
330
290
330
281
330
291
330
2EC
 75
     1
 76
     2
 52
45.0
 41
0.1
 77
     0
 78
     1
 53
45.0
 43
62.7811309658083
 44
-72.3161373035813
 45
-0.1414213562373095
 46
0.0
 79
     0
 98
        1
 10
0.0
 20
0.0
  0
HATCH
  5
346
330
71
100
AcDbEntity
  8
1
  6
Continuous
 62
     2
100
AcDbHatch
 10
0.0
 20
0.0
 30
0.0
210
0.0
220
0.0
230
1.0
  2
CUSTOM11
 70
     0
 71
     1
 91
        2
 92
        1
 93
        6
 72
     1
 10
2.873029260652288
 20
-58.9406044454504
 11
2.873029260652288
 21
-61.99441396926149
 72
     1
 10
2.873029260652288
 20
-61.99441396926149
 11
4.113533670906293
 21
-61.99441396926149
 72
     1
 10
4.113533670906293
 20
-61.99441396926149
 11
4.113533670906293
 21
-61.05133572811776
 72
     1
 10
4.113533670906293
 20
-61.05133572811776
 11
4.87230125868669
 21
-61.05133572811776
 72
     2
 10
4.87230125868669
 20
-59.99597008678411
 40
1.055365641333651
 50
270.0
 51
450.0
 73
     1
 72
     1
 10
4.87230125868669
 20
-58.9406044454504
 11
2.873029260652288
 21
-58.9406044454504
 97
        6
330
300
330
28D
330
283
330
282
330
28F
330
28E
 92
       16
 93
        4
 72
     1
 10
4.430828732448305
 20
-59.60371029089039
 11
4.113533670906293
 21
-59.60371029089039
 72
     1
 10
4.113533670906293
 20
-59.60371029089039
 11
4.113533670906293
 21
-60.30943794023268
 72
     1
 10
4.113533670906293
 20
-60.30943794023268
 11
4.430828732448305
 21
-60.30943794023268
 72
     2
 10
4.430828732448305
 20
-59.95657411556159
 40
0.3528638246710898
 50
270.0
 51
450.0
 73
     1
 97
        4
330
290
330
281
330
291
330
2EC
 75
     1
 76
     2
 52
45.0
 41
0.1
 77
     0
 78
     1
 53
45.0
 43
62.7811309658083
 44
-72.3161373035813
 45
-0.1414213562373095
 46
0.0
 79
     0
 98
        1
 10
0.0
 20
0.0
  0
HATCH
  5
347
330
71
100
AcDbEntity
  8
1
  6
Continuous
 62
     2
100
AcDbHatch
 10
0.0
 20
0.0
 30
0.0
210
0.0
220
0.0
230
1.0
  2
CUSTOM12
 70
     0
 71
     1
 91
        1
 92
        1
 93
       12
 72
     1
 10
22.48731245508549
 20
-58.9406044454504
 11
23.89003667283271
 21
-58.9406044454504
 72
     1
 10
23.89003667283271
 20
-58.9406044454504
 11
22.58750704206611
 21
-60.41355497548661
 72
     1
 10
22.58750704206611
 20
-60.41355497548661
 11
23.98546008900638
 21
-61.99441396926149
 72
     1
 10
23.98546008900638
 20
-61.99441396926149
 11
22.58273587125808
 21
-61.99441396926149
 72
     1
 10
22.58273587125808
 20
-61.99441396926149
 11
21.8861449331927
 21
-61.20668218396777
 72
     1
 10
21.8861449331927
 20
-61.20668218396777
 11
21.18955399512689
 21
-61.99441396926149
 72
     1
 10
21.18955399512689
 20
-61.99441396926149
 11
19.78682977737878
 21
-61.99441396926149
 72
     1
 10
19.78682977737878
 20
-61.99441396926149
 11
21.18478282431909
 21
-60.41355497548661
 72
     1
 10
21.18478282431909
 20
-60.41355497548661
 11
19.88225319355161
 21
-58.9406044454504
 72
     1
 10
19.88225319355161
 20
-58.9406044454504
 11
21.28497741130079
 21
-58.9406044454504
 72
     1
 10
21.28497741130079
 20
-58.9406044454504
 11
21.8861449331927
 21
-59.62042776700589
 72
     1
 10
21.8861449331927
 20
-59.62042776700589
 11
22.48731245508549
 21
-58.9406044454504
 97
       12
330
25C
330
2B5
330
2B4
330
2B3
330
2B2
330
25D
330
25E
330
25A
330
25B
330
2B8
330
2B7
330
2B6
 75
     1
 76
     2
 52
45.0
 41
0.1
 77
     0
 78
     1
 53
45.0
 43
62.7811309658083
 44
-72.3161373035813
 45
-0.1414213562373095
 46
0.0
 79
     0
 98
        1
 10
0.0
 20
0.0
  0
HATCH
  5
348
330
71
100
AcDbEntity
  8
1
  6
Continuous
 62
     2
100
AcDbHatch
 10
0.0
 20
0.0
 30
0.0
210
0.0
220
0.0
230
1.0
  2
CUSTOM13
 70
     0
 71
     1
 91
        1
 92
        1
 93
       12
 72
     1
 10
22.48731245508549
 20
-58.9406044454504
 11
23.89003667283271
 21
-58.9406044454504
 72
     1
 10
23.89003667283271
 20
-58.9406044454504
 11
22.58750704206611
 21
-60.41355497548661
 72
     1
 10
22.58750704206611
 20
-60.41355497548661
 11
23.98546008900638
 21
-61.99441396926149
 72
     1
 10
23.98546008900638
 20
-61.99441396926149
 11
22.58273587125808
 21
-61.99441396926149
 72
     1
 10
22.58273587125808
 20
-61.99441396926149
 11
21.8861449331927
 21
-61.20668218396777
 72
     1
 10
21.8861449331927
 20
-61.20668218396777
 11
21.18955399512689
 21
-61.99441396926149
 72
     1
 10
21.18955399512689
 20
-61.99441396926149
 11
19.78682977737878
 21
-61.99441396926149
 72
     1
 10
19.78682977737878
 20
-61.99441396926149
 11
21.18478282431909
 21
-60.41355497548661
 72
     1
 10
21.18478282431909
 20
-60.41355497548661
 11
19.88225319355161
 21
-58.9406044454504
 72
     1
 10
19.88225319355161
 20
-58.9406044454504
 11
21.28497741130079
 21
-58.9406044454504
 72
     1
 10
21.28497741130079
 20
-58.9406044454504
 11
21.8861449331927
 21
-59.62042776700589
 72
     1
 10
21.8861449331927
 20
-59.62042776700589
 11
22.48731245508549
 21
-58.9406044454504
 97
       12
330
25C
330
2B5
330
2B4
330
2B3
330
2B2
330
25D
330
25E
330
25A
330
25B
330
2B8
330
2B7
330
2B6
 75
     1
 76
     2
 52
45.0
 41
0.1
 77
     0
 78
     1
 53
45.0
 43
62.7811309658083
 44
-72.3161373035813
 45
-0.1414213562373095
 46
0.0
 79
     0
 98
        1
 10
0.0
 20
0.0
  0
HATCH
  5
349
330
71
100
AcDbEntity
  8
1
  6
Continuous
 62
     2
100
AcDbHatch
 10
0.0
 20
0.0
 30
0.0
210
0.0
220
0.0
230
1.0
  2
CUSTOM14
 70
     0
 71
     1
 91
        1
 92
        1
 93
        4
 72
     1
 10
19.66755050716191
 20
-58.9406044454504
 11
19.66755050716191
 21
-61.99441396926149
 72
     1
 10
19.66755050716191
 20
-61.99441396926149
 11
18.42704609690898
 21
-61.99441396926149
 72
     1
 10
18.42704609690898
 20
-61.99441396926149
 11
18.42704609690898
 21
-58.9406044454504
 72
     1
 10
18.42704609690898
 20
-58.9406044454504
 11
19.66755050716191
 21
-58.9406044454504
 97
        4
330
2B0
330
25F
330
2AF
330
2B1
 75
     1
 76
     2
 52
45.0
 41
0.1
 77
     0
 78
     1
 53
45.0
 43
62.7811309658083
 44
-72.3161373035813
 45
-0.1414213562373095
 46
0.0
 79
     0
 98
        1
 10
0.0
 20
0.0
  0
HATCH
  5
34A
330
71
100
AcDbEntity
  8
1
  6
Continuous
 62
     2
100
AcDbHatch
 10
0.0
 20
0.0
 30
0.0
210
0.0
220
0.0
230
1.0
  2
CUSTOM15
 70
     0
 71
     1
 91
        1
 92
        1
 93
        4
 72
     1
 10
19.66755050716191
 20
-58.9406044454504
 11
19.66755050716191
 21
-61.99441396926149
 72
     1
 10
19.66755050716191
 20
-61.99441396926149
 11
18.42704609690898
 21
-61.99441396926149
 72
     1
 10
18.42704609690898
 20
-61.99441396926149
 11
18.42704609690898
 21
-58.9406044454504
 72
     1
 10
18.42704609690898
 20
-58.9406044454504
 11
19.66755050716191
 21
-58.9406044454504
 97
        4
330
2B0
330
25F
330
2AF
330
2B1
 75
     1
 76
     2
 52
45.0
 41
0.1
 77
     0
 78
     1
 53
45.0
 43
62.7811309658083
 44
-72.3161373035813
 45
-0.1414213562373095
 46
0.0
 79
     0
 98
        1
 10
0.0
 20
0.0
  0
HATCH
  5
34B
330
71
100
AcDbEntity
  8
1
  6
Continuous
 62
     2
100
AcDbHatch
 10
0.0
 20
0.0
 30
0.0
210
0.0
220
0.0
230
1.0
  2
CUSTOM16
 70
     0
 71
     1
 91
        2
 92
        1
 93
        8
 72
     1
 10
19.27710650362988
 20
-65.3536044454358
 11
18.03660209337599
 21
-65.3536044454358
 72
     1
 10
18.03660209337599
 20
-65.3536044454358
 11
17.82512203990021
 21
-64.81264390121801
 72
     1
 10
17.82512203990021
 20
-64.81264390121801
 11
16.69268046322628
 21
-64.81264390121801
 72
     1
 10
16.69268046322628
 20
-64.81264390121801
 11
16.4812004097505
 21
-65.3536044454358
 72
     1
 10
16.4812004097505
 20
-65.3536044454358
 11
15.2406959994976
 21
-65.3536044454358
 72
     1
 10
15.2406959994976
 20
-65.3536044454358
 11
16.6386490464368
 21
-62.29979492162467
 72
     1
 10
16.6386490464368
 20
-62.29979492162467
 11
17.87915345668961
 21
-62.29979492162467
 72
     1
 10
17.87915345668961
 20
-62.29979492162467
 11
19.27710650362988
 21
-65.3536044454358
 97
        8
330
2AB
330
265
330
2AA
330
2AD
330
262
330
2AC
330
263
330
264
 92
       16
 93
        3
 72
     1
 10
16.9587360143714
 20
-64.13208063591141
 11
17.5590664887539
 21
-64.13208063591141
 72
     1
 10
17.5590664887539
 20
-64.13208063591141
 11
17.25890125156369
 21
-63.36426566992471
 72
     1
 10
17.25890125156369
 20
-63.36426566992471
 11
16.9587360143714
 21
-64.13208063591141
 97
        3
330
261
330
260
330
2AE
 75
     1
 76
     2
 52
45.0
 41
0.1
 77
     0
 78
     1
 53
45.0
 43
62.7811309658083
 44
-72.3161373035813
 45
-0.1414213562373095
 46
0.0
 79
     0
 98
        1
 10
0.0
 20
0.0
  0
HATCH
  5
34C
330
71
100
AcDbEntity
  8
1
  6
Continuous
 62
     2
100
AcDbHatch
 10
0.0
 20
0.0
 30
0.0
210
0.0
220
0.0
230
1.0
  2
CUSTOM17
 70
     0
 71
     1
 91
        2
 92
        1
 93
        8
 72
     1
 10
19.27710650362988
 20
-65.3536044454358
 11
18.03660209337599
 21
-65.3536044454358
 72
     1
 10
18.03660209337599
 20
-65.3536044454358
 11
17.82512203990021
 21
-64.81264390121801
 72
     1
 10
17.82512203990021
 20
-64.81264390121801
 11
16.69268046322628
 21
-64.81264390121801
 72
     1
 10
16.69268046322628
 20
-64.81264390121801
 11
16.4812004097505
 21
-65.3536044454358
 72
     1
 10
16.4812004097505
 20
-65.3536044454358
 11
15.2406959994976
 21
-65.3536044454358
 72
     1
 10
15.2406959994976
 20
-65.3536044454358
 11
16.6386490464368
 21
-62.29979492162467
 72
     1
 10
16.6386490464368
 20
-62.29979492162467
 11
17.87915345668961
 21
-62.29979492162467
 72
     1
 10
17.87915345668961
 20
-62.29979492162467
 11
19.27710650362988
 21
-65.3536044454358
 97
        8
330
2AB
330
265
330
2AA
330
2AD
330
262
330
2AC
330
263
330
264
 92
       16
 93
        3
 72
     1
 10
16.9587360143714
 20
-64.13208063591141
 11
17.5590664887539
 21
-64.13208063591141
 72
     1
 10
17.5590664887539
 20
-64.13208063591141
 11
17.25890125156369
 21
-63.36426566992471
 72
     1
 10
17.25890125156369
 20
-63.36426566992471
 11
16.9587360143714
 21
-64.13208063591141
 97
        3
330
261
330
260
330
2AE
 75
     1
 76
     2
 52
45.0
 41
0.1
 77
     0
 78
     1
 53
45.0
 43
62.7811309658083
 44
-72.3161373035813
 45
-0.1414213562373095
 46
0.0
 79
     0
 98
        1
 10
0.0
 20
0.0
  0
HATCH
  5
34D
330
71
100
AcDbEntity
  8
1
  6
Continuous
 62
     2
100
AcDbHatch
 10
0.0
 20
0.0
 30
0.0
210
0.0
220
0.0
230
1.0
  2
CUSTOM18
 70
     0
 71
     1
 91
        1
 92
        1
 93
        8
 72
     1
 10
13.0831838603153
 20
-62.29979492162467
 11
13.0831838603153
 21
-63.0850602277484
 72
     1
 10
13.0831838603153
 20
-63.0850602277484
 11
13.89428289778999
 21
-63.0850602277484
 72
     1
 10
13.89428289778999
 20
-63.0850602277484
 11
13.89428289778999
 21
-65.3536044454358
 72
     1
 10
13.89428289778999
 20
-65.3536044454358
 11
15.08707559995639
 21
-65.3536044454358
 72
     1
 10
15.08707559995639
 20
-65.3536044454358
 11
15.08707559995639
 21
-63.0850602277484
 72
     1
 10
15.08707559995639
 20
-63.0850602277484
 11
15.89817463742901
 21
-63.0850602277484
 72
     1
 10
15.89817463742901
 20
-63.0850602277484
 11
15.89817463742901
 21
-62.29979492162467
 72
     1
 10
15.89817463742901
 20
-62.29979492162467
 11
13.0831838603153
 21
-62.29979492162467
 97
        8
330
2A7
330
2A6
330
2A5
330
266
330
267
330
2A9
330
268
330
2A8
 75
     1
 76
     2
 52
45.0
 41
0.1
 77
     0
 78
     1
 53
45.0
 43
62.7811309658083
 44
-72.3161373035813
 45
-0.1414213562373095
 46
0.0
 79
     0
 98
        1
 10
0.0
 20
0.0
  0
HATCH
  5
34E
330
71
100
AcDbEntity
  8
1
  6
Continuous
 62
     2
100
AcDbHatch
 10
0.0
 20
0.0
 30
0.0
210
0.0
220
0.0
230
1.0
  2
CUSTOM19
 70
     0
 71
     1
 91
        1
 92
        1
 93
        8
 72
     1
 10
13.0831838603153
 20
-62.29979492162467
 11
13.0831838603153
 21
-63.0850602277484
 72
     1
 10
13.0831838603153
 20
-63.0850602277484
 11
13.89428289778999
 21
-63.0850602277484
 72
     1
 10
13.89428289778999
 20
-63.0850602277484
 11
13.89428289778999
 21
-65.3536044454358
 72
     1
 10
13.89428289778999
 20
-65.3536044454358
 11
15.08707559995639
 21
-65.3536044454358
 72
     1
 10
15.08707559995639
 20
-65.3536044454358
 11
15.08707559995639
 21
-63.0850602277484
 72
     1
 10
15.08707559995639
 20
-63.0850602277484
 11
15.89817463742901
 21
-63.0850602277484
 72
     1
 10
15.89817463742901
 20
-63.0850602277484
 11
15.89817463742901
 21
-62.29979492162467
 72
     1
 10
15.89817463742901
 20
-62.29979492162467
 11
13.0831838603153
 21
-62.29979492162467
 97
        8
330
2A7
330
2A6
330
2A5
330
266
330
267
330
2A9
330
268
330
2A8
 75
     1
 76
     2
 52
45.0
 41
0.1
 77
     0
 78
     1
 53
45.0
 43
62.7811309658083
 44
-72.3161373035813
 45
-0.1414213562373095
 46
0.0
 79
     0
 98
        1
 10
0.0
 20
0.0
  0
HATCH
  5
34F
330
71
100
AcDbEntity
  8
1
  6
Continuous
 62
     2
100
AcDbHatch
 10
0.0
 20
0.0
 30
0.0
210
0.0
220
0.0
230
1.0
  2
CUSTOM20
 70
     0
 71
     1
 91
        1
 92
        1
 93
       10
 72
     1
 10
15.75519044405439
 20
-58.9406044454504
 11
14.56239774188799
 21
-58.9406044454504
 72
     1
 10
14.56239774188799
 20
-58.9406044454504
 11
14.56239774188799
 21
-61.99441396926149
 72
     1
 10
14.56239774188799
 20
-61.99441396926149
 11
15.75519044405439
 21
-61.99441396926149
 72
     1
 10
15.75519044405439
 20
-61.99441396926149
 11
15.75519044405439
 21
-60.68563845905676
 72
     1
 10
15.75519044405439
 20
-60.68563845905676
 11
16.99569485430848
 21
-61.99441396926149
 72
     1
 10
16.99569485430848
 20
-61.99441396926149
 11
18.18848755647508
 21
-61.99441396926149
 72
     1
 10
18.18848755647508
 20
-61.99441396926149
 11
18.18848755647508
 21
-58.9406044454504
 72
     1
 10
18.18848755647508
 20
-58.9406044454504
 11
16.99569485430848
 21
-58.9406044454504
 72
     1
 10
16.99569485430848
 20
-58.9406044454504
 11
16.99569485430848
 21
-60.24937995565547
 72
     1
 10
16.99569485430848
 20
-60.24937995565547
 11
15.75519044405439
 21
-58.9406044454504
 97
       10
330
2A1
330
26B
330
26C
330
26D
330
26E
330
2A4
330
269
330
2A3
330
2A2
330
26A
 75
     1
 76
     2
 52
45.0
 41
0.1
 77
     0
 78
     1
 53
45.0
 43
62.7811309658083
 44
-72.3161373035813
 45
-0.1414213562373095
 46
0.0
 79
     0
 98
        1
 10
0.0
 20
0.0
  0
HATCH
  5
350
330
71
100
AcDbEntity
  8
1
  6
Continuous
 62
     2
100
AcDbHatch
 10
0.0
 20
0.0
 30
0.0
210
0.0
220
0.0
230
1.0
  2
CUSTOM21
 70
     0
 71
     1
 91
        1
 92
        1
 93
       10
 72
     1
 10
15.75519044405439
 20
-58.9406044454504
 11
14.56239774188799
 21
-58.9406044454504
 72
     1
 10
14.56239774188799
 20
-58.9406044454504
 11
14.56239774188799
 21
-61.99441396926149
 72
     1
 10
14.56239774188799
 20
-61.99441396926149
 11
15.75519044405439
 21
-61.99441396926149
 72
     1
 10
15.75519044405439
 20
-61.99441396926149
 11
15.75519044405439
 21
-60.68563845905676
 72
     1
 10
15.75519044405439
 20
-60.68563845905676
 11
16.99569485430848
 21
-61.99441396926149
 72
     1
 10
16.99569485430848
 20
-61.99441396926149
 11
18.18848755647508
 21
-61.99441396926149
 72
     1
 10
18.18848755647508
 20
-61.99441396926149
 11
18.18848755647508
 21
-58.9406044454504
 72
     1
 10
18.18848755647508
 20
-58.9406044454504
 11
16.99569485430848
 21
-58.9406044454504
 72
     1
 10
16.99569485430848
 20
-58.9406044454504
 11
16.99569485430848
 21
-60.24937995565547
 72
     1
 10
16.99569485430848
 20
-60.24937995565547
 11
15.75519044405439
 21
-58.9406044454504
 97
       10
330
2A1
330
26B
330
26C
330
26D
330
26E
330
2A4
330
269
330
2A3
330
2A2
330
26A
 75
     1
 76
     2
 52
45.0
 41
0.1
 77
     0
 78
     1
 53
45.0
 43
62.7811309658083
 44
-72.3161373035813
 45
-0.1414213562373095
 46
0.0
 79
     0
 98
        1
 10
0.0
 20
0.0
  0
HATCH
  5
351
330
71
100
AcDbEntity
  8
1
  6
Continuous
 62
     2
100
AcDbHatch
 10
0.0
 20
0.0
 30
0.0
210
0.0
220
0.0
230
1.0
  2
CUSTOM22
 70
     0
 71
     1
 91
        1
 92
        1
 93
       10
 72
     1
 10
10.50675162363581
 20
-62.29979492162467
 11
9.313958921468299
 21
-62.29979492162467
 72
     1
 10
9.313958921468299
 20
-62.29979492162467
 11
9.313958921468299
 21
-65.3536044454358
 72
     1
 10
9.313958921468299
 20
-65.3536044454358
 11
10.50675162363581
 21
-65.3536044454358
 72
     1
 10
10.50675162363581
 20
-65.3536044454358
 11
10.50675162363581
 21
-64.04482893523131
 72
     1
 10
10.50675162363581
 20
-64.04482893523131
 11
11.74725603388879
 21
-65.3536044454358
 72
     1
 10
11.74725603388879
 20
-65.3536044454358
 11
12.94004873605519
 21
-65.3536044454358
 72
     1
 10
12.94004873605519
 20
-65.3536044454358
 11
12.94004873605519
 21
-62.29979492162467
 72
     1
 10
12.94004873605519
 20
-62.29979492162467
 11
11.74725603388879
 21
-62.29979492162467
 72
     1
 10
11.74725603388879
 20
-62.29979492162467
 11
11.74725603388879
 21
-63.6085704318299
 72
     1
 10
11.74725603388879
 20
-63.6085704318299
 11
10.50675162363581
 21
-62.29979492162467
 97
       10
330
270
330
271
330
272
330
29E
330
273
330
274
330
29D
330
2A0
330
29F
330
26F
 75
     1
 76
     2
 52
45.0
 41
0.1
 77
     0
 78
     1
 53
45.0
 43
62.7811309658083
 44
-72.3161373035813
 45
-0.1414213562373095
 46
0.0
 79
     0
 98
        1
 10
0.0
 20
0.0
  0
HATCH
  5
352
330
71
100
AcDbEntity
  8
1
  6
Continuous
 62
     2
100
AcDbHatch
 10
0.0
 20
0.0
 30
0.0
210
0.0
220
0.0
230
1.0
  2
CUSTOM23
 70
     0
 71
     1
 91
        1
 92
        1
 93
       10
 72
     1
 10
10.50675162363581
 20
-62.29979492162467
 11
9.313958921468299
 21
-62.29979492162467
 72
     1
 10
9.313958921468299
 20
-62.29979492162467
 11
9.313958921468299
 21
-65.3536044454358
 72
     1
 10
9.313958921468299
 20
-65.3536044454358
 11
10.50675162363581
 21
-65.3536044454358
 72
     1
 10
10.50675162363581
 20
-65.3536044454358
 11
10.50675162363581
 21
-64.04482893523131
 72
     1
 10
10.50675162363581
 20
-64.04482893523131
 11
11.74725603388879
 21
-65.3536044454358
 72
     1
 10
11.74725603388879
 20
-65.3536044454358
 11
12.94004873605519
 21
-65.3536044454358
 72
     1
 10
12.94004873605519
 20
-65.3536044454358
 11
12.94004873605519
 21
-62.29979492162467
 72
     1
 10
12.94004873605519
 20
-62.29979492162467
 11
11.74725603388879
 21
-62.29979492162467
 72
     1
 10
11.74725603388879
 20
-62.29979492162467
 11
11.74725603388879
 21
-63.6085704318299
 72
     1
 10
11.74725603388879
 20
-63.6085704318299
 11
10.50675162363581
 21
-62.29979492162467
 97
       10
330
270
330
271
330
272
330
29E
330
273
330
274
330
29D
330
2A0
330
29F
330
26F
 75
     1
 76
     2
 52
45.0
 41
0.1
 77
     0
 78
     1
 53
45.0
 43
62.7811309658083
 44
-72.3161373035813
 45
-0.1414213562373095
 46
0.0
 79
     0
 98
        1
 10
0.0
 20
0.0
  0
HATCH
  5
353
330
71
100
AcDbEntity
  8
1
  6
Continuous
 62
     2
100
AcDbHatch
 10
0.0
 20
0.0
 30
0.0
210
0.0
220
0.0
230
1.0
  2
CUSTOM24
 70
     0
 71
     1
 91
        1
 92
        1
 93
       12
 72
     1
 10
9.504956684700488
 20
-58.9406044454504
 11
9.504956684700488
 21
-61.99441396926149
 72
     1
 10
9.504956684700488
 20
-61.99441396926149
 11
8.312163982534003
 21
-61.99441396926149
 72
     1
 10
8.312163982534003
 20
-61.99441396926149
 11
8.312163982534003
 21
-60.86014186041781
 72
     1
 10
8.312163982534003
 20
-60.86014186041781
 11
7.262506404626606
 21
-60.86014186041781
 72
     1
 10
7.262506404626606
 20
-60.86014186041781
 11
7.262506404626606
 21
-61.99441396926149
 72
     1
 10
7.262506404626606
 20
-61.99441396926149
 11
6.069713702460007
 21
-61.99441396926149
 72
     1
 10
6.069713702460007
 20
-61.99441396926149
 11
6.069713702460007
 21
-58.9406044454504
 72
     1
 10
6.069713702460007
 20
-58.9406044454504
 11
7.262506404626606
 21
-58.9406044454504
 72
     1
 10
7.262506404626606
 20
-58.9406044454504
 11
7.262506404626606
 21
-60.00943777878497
 72
     1
 10
7.262506404626606
 20
-60.00943777878497
 11
8.312163982534003
 21
-60.00943777878497
 72
     1
 10
8.312163982534003
 20
-60.00943777878497
 11
8.312163982534003
 21
-58.9406044454504
 72
     1
 10
8.312163982534003
 20
-58.9406044454504
 11
9.504956684700488
 21
-58.9406044454504
 97
       12
330
298
330
297
330
296
330
27E
330
27F
330
295
330
280
330
294
330
293
330
292
330
27C
330
27D
 75
     1
 76
     2
 52
45.0
 41
0.1
 77
     0
 78
     1
 53
45.0
 43
62.7811309658083
 44
-72.3161373035813
 45
-0.1414213562373095
 46
0.0
 79
     0
 98
        1
 10
0.0
 20
0.0
  0
HATCH
  5
354
330
71
100
AcDbEntity
  8
1
  6
Continuous
 62
     2
100
AcDbHatch
 10
0.0
 20
0.0
 30
0.0
210
0.0
220
0.0
230
1.0
  2
CUSTOM25
 70
     0
 71
     1
 91
        1
 92
        1
 93
       12
 72
     1
 10
9.504956684700488
 20
-58.9406044454504
 11
9.504956684700488
 21
-61.99441396926149
 72
     1
 10
9.504956684700488
 20
-61.99441396926149
 11
8.312163982534003
 21
-61.99441396926149
 72
     1
 10
8.312163982534003
 20
-61.99441396926149
 11
8.312163982534003
 21
-60.86014186041781
 72
     1
 10
8.312163982534003
 20
-60.86014186041781
 11
7.262506404626606
 21
-60.86014186041781
 72
     1
 10
7.262506404626606
 20
-60.86014186041781
 11
7.262506404626606
 21
-61.99441396926149
 72
     1
 10
7.262506404626606
 20
-61.99441396926149
 11
6.069713702460007
 21
-61.99441396926149
 72
     1
 10
6.069713702460007
 20
-61.99441396926149
 11
6.069713702460007
 21
-58.9406044454504
 72
     1
 10
6.069713702460007
 20
-58.9406044454504
 11
7.262506404626606
 21
-58.9406044454504
 72
     1
 10
7.262506404626606
 20
-58.9406044454504
 11
7.262506404626606
 21
-60.00943777878497
 72
     1
 10
7.262506404626606
 20
-60.00943777878497
 11
8.312163982534003
 21
-60.00943777878497
 72
     1
 10
8.312163982534003
 20
-60.00943777878497
 11
8.312163982534003
 21
-58.9406044454504
 72
     1
 10
8.312163982534003
 20
-58.9406044454504
 11
9.504956684700488
 21
-58.9406044454504
 97
       12
330
298
330
297
330
296
330
27E
330
27F
330
295
330
280
330
294
330
293
330
292
330
27C
330
27D
 75
     1
 76
     2
 52
45.0
 41
0.1
 77
     0
 78
     1
 53
45.0
 43
62.7811309658083
 44
-72.3161373035813
 45
-0.1414213562373095
 46
0.0
 79
     0
 98
        1
 10
0.0
 20
0.0
  0
ENDBLK
  5
73
330
71
100
AcDbEntity
  8
0
100
AcDbBlockEnd
  0
BLOCK
  5
75
330
74
100
AcDbEntity
  8
0
100
AcDbBlockBegin
  2
_punkt
 70
     0
 10
121.3822604984893
 20
-72.64710444545211
 30
0.0
  3
_punkt
  1

  0
LINE
  5
355
330
74
100
AcDbEntity
  8
1
  6
Continuous
 62
     2
100
AcDbLine
 10
121.3822604984893
 20
-72.64710444545211
 30
0.0
 11
121.3822604984893
 21
-77.6471044454516
 31
0.0
  0
LINE
  5
356
330
74
100
AcDbEntity
  8
1
  6
Continuous
 62
     2
100
AcDbLine
 10
121.3822604984893
 20
-72.64710444545211
 30
0.0
 11
126.3822604984869
 21
-72.64710444545211
 31
0.0
  0
ENDBLK
  5
76
330
74
100
AcDbEntity
  8
0
100
AcDbBlockEnd
  0
BLOCK
  5
7A
330
77
100
AcDbEntity
  8
0
100
AcDbBlockBegin
  2
A3I_CS
 70
     0
 10
121.3822604984893
 20
-77.6471044454516
 30
0.0
  3
A3I_CS
  1

  0
INSERT
  5
78
330
77
100
AcDbEntity
  8
1
100
AcDbBlockReference
  2
_rahmen
 10
121.3822604984893
 20
-77.6471044454516
 30
0.0
  0
INSERT
  5
79
330
77
100
AcDbEntity
  8
1
100
AcDbBlockReference
  2
_punkt
 10
121.3822604984893
 20
-72.64710444545211
 30
0.0
  0
ENDBLK
  5
7B
330
77
100
AcDbEntity
  8
0
100
AcDbBlockEnd
  0
BLOCK
  5
84
330
7C
100
AcDbEntity
  8
0
100
AcDbBlockBegin
  2
1
 70
     0
 10
0.0
 20
0.0
 30
0.0
  3
1
  1

  0
INSERT
  5
7D
330
7C
100
AcDbEntity
  8
0
100
AcDbBlockReference
  2
Allg1
 10
4.00000000000136
 20
59.0
 30
0.0
  0
INSERT
  5
7E
330
7C
100
AcDbEntity
  8
0
100
AcDbBlockReference
  2
Drfsicht1
 10
-120.0000000000048
 20
325.5554860000002
 30
0.0
 41
2.0
 42
2.0
 43
2.0
  0
INSERT
  5
7F
330
7C
100
AcDbEntity
  8
0
100
AcDbBlockReference
  2
Rckans1
 10
60.54562399999998
 20
155.9992279999993
 30
0.0
 41
2.0
 42
2.0
 43
2.0
  0
INSERT
  5
80
330
7C
100
AcDbEntity
  8
0
100
AcDbBlockReference
  2
SA_Links1
 10
232.7728120000016
 20
155.9992279999994
 30
0.0
 41
2.0
 42
2.0
 43
2.0
  0
INSERT
  5
81
330
7C
100
AcDbEntity
  8
0
100
AcDbBlockReference
  2
SA_Rechts1
 10
45.57064000000116
 20
155.996598
 30
0.0
 41
2.0
 42
2.0
 43
2.0
  0
INSERT
  5
82
330
7C
100
AcDbEntity
  8
0
100
AcDbBlockReference
  2
Vordans1
 10
-120.0
 20
155.9999999999993
 30
0.0
 41
2.0
 42
2.0
 43
2.0
  0
INSERT
  5
83
330
7C
100
AcDbEntity
  8
0
100
AcDbBlockReference
  2
A3I_CS
 10
121.3822604984893
 20
-77.6471044454516
 30
0.0
  0
ENDBLK
  5
85
330
7C
100
AcDbEntity
  8
0
100
AcDbBlockEnd
  0
BLOCK
  5
125
330
11E
100
AcDbEntity
  8
0
100
AcDbBlockBegin
  2
*D17
 70
     1
 10
0.0
 20
0.0
 30
0.0
  3
*D17
  1

  0
LINE
  5
11F
330
11E
100
AcDbEntity
  8
1
  6
Continuous
 62
     2
100
AcDbLine
 10
-70.830443354817
 20
54.7777430000005
 30
0.0
 11
-70.830443354817
 21
12.7777430000007
 31
0.0
  0
LINE
  5
120
330
11E
100
AcDbEntity
  8
1
  6
Continuous
 62
     2
100
AcDbLine
 10
-65.19436580809341
 20
54.7777430000005
 30
0.0
 11
-71.580443354817
 21
54.7777430000005
 31
0.0
  0
LINE
  5
121
330
11E
100
AcDbEntity
  8
1
  6
Continuous
 62
     2
100
AcDbLine
 10
-64.4943658080989
 20
12.7777430000007
 30
0.0
 11
-71.580443354817
 21
12.7777430000007
 31
0.0
  0
SOLID
  5
122
330
11E
100
AcDbEntity
  8
1
 62
     2
100
AcDbTrace
 10
-70.60005148403907
 20
53.0277430000005
 30
0.0
 11
-71.06083522559494
 21
53.0277430000005
 31
0.0
 12
-70.830443354817
 22
54.7777430000005
 32
0.0
 13
-70.830443354817
 23
54.7777430000005
 33
0.0
  0
SOLID
  5
123
330
11E
100
AcDbEntity
  8
1
 62
     2
100
AcDbTrace
 10
-71.06083522559494
 20
14.5277430000007
 30
0.0
 11
-70.60005148403907
 21
14.5277430000007
 31
0.0
 12
-70.830443354817
 22
12.7777430000007
 32
0.0
 13
-70.830443354817
 23
12.7777430000007
 33
0.0
  0
MTEXT
  5
124
330
11E
100
AcDbEntity
  8
1
 62
     3
100
AcDbMText
 10
-71.580443354817
 20
33.74104168590365
 30
0.0
 40
1.75
 41
0.0
 71
     7
 72
     1
  1
300
  7
CONVERTER_11
 11
0.0
 21
1.0
 31
0.0
 73
     1
 44
0.60024009603842
  0
ENDBLK
  5
126
330
11E
100
AcDbEntity
  8
0
100
AcDbBlockEnd
  0
BLOCK
  5
1F2
330
1E9
100
AcDbEntity
  8
0
100
AcDbBlockBegin
  2
*D18
 70
     1
 10
0.0
 20
0.0
 30
0.0
  3
*D18
  1

  0
LINE
  5
1EA
330
1E9
100
AcDbEntity
  8
1
  6
Continuous
 62
     2
100
AcDbLine
 10
-70.09436580808816
 20
83.35511101682374
 30
0.0
 11
-70.09436580808816
 21
79.85511101682374
 31
0.0
  0
LINE
  5
1EB
330
1E9
100
AcDbEntity
  8
1
  6
Continuous
 62
     2
100
AcDbLine
 10
-70.09436580808816
 20
79.85511101682374
 30
0.0
 11
-70.09436580808816
 21
75.58011101682375
 31
0.0
  0
LINE
  5
1EC
330
1E9
100
AcDbEntity
  8
1
  6
Continuous
 62
     2
100
AcDbLine
 10
-70.09436580808816
 20
75.58011101682375
 30
0.0
 11
-70.09436580808816
 21
72.08011101682375
 31
0.0
  0
LINE
  5
1ED
330
1E9
100
AcDbEntity
  8
1
  6
Continuous
 62
     2
100
AcDbLine
 10
-63.82884088387588
 20
79.85511101682374
 30
0.0
 11
-70.84436580808816
 21
79.85511101682374
 31
0.0
  0
LINE
  5
1EE
330
1E9
100
AcDbEntity
  8
1
  6
Continuous
 62
     2
100
AcDbLine
 10
-64.59436580808821
 20
75.58011101682375
 30
0.0
 11
-70.84436580808816
 21
75.58011101682375
 31
0.0
  0
SOLID
  5
1EF
330
1E9
100
AcDbEntity
  8
1
 62
     2
100
AcDbTrace
 10
-70.32475767886609
 20
81.60511101682374
 30
0.0
 11
-69.86397393731022
 21
81.60511101682374
 31
0.0
 12
-70.09436580808816
 22
79.85511101682374
 32
0.0
 13
-70.09436580808816
 23
79.85511101682374
 33
0.0
  0
SOLID
  5
1F0
330
1E9
100
AcDbEntity
  8
1
 62
     2
100
AcDbTrace
 10
-69.86397393731022
 20
73.83011101682375
 30
0.0
 11
-70.32475767886609
 21
73.83011101682375
 31
0.0
 12
-70.09436580808816
 22
75.58011101682375
 32
0.0
 13
-70.09436580808816
 23
75.58011101682375
 33
0.0
  0
MTEXT
  5
1F1
330
1E9
100
AcDbEntity
  8
1
 62
     3
100
AcDbMText
 10
-71.01936580808817
 20
73.39105001384043
 30
0.0
 40
1.75
 41
0.0
 71
     7
 72
     1
  1
4,275
  7
CONVERTER_11
 11
0.0
 21
1.0
 31
0.0
 73
     1
 44
0.60024009603842
  0
ENDBLK
  5
1F3
330
1E9
100
AcDbEntity
  8
0
100
AcDbBlockEnd
  0
BLOCK
  5
1FD
330
1F6
100
AcDbEntity
  8
0
100
AcDbBlockBegin
  2
*D19
 70
     1
 10
0.0
 20
0.0
 30
0.0
  3
*D19
  1

  0
LINE
  5
1F7
330
1F6
100
AcDbEntity
  8
1
  6
Continuous
 62
     2
100
AcDbLine
 10
-50.37276682006935
 20
74.46200839588924
 30
0.0
 11
-50.37276682006935
 21
79.85511101682374
 31
0.0
  0
LINE
  5
1F8
330
1F6
100
AcDbEntity
  8
1
  6
Continuous
 62
     2
100
AcDbLine
 10
-61.3465615341428
 20
74.46200839588924
 30
0.0
 11
-49.62276682006935
 21
74.46200839588924
 31
0.0
  0
LINE
  5
1F9
330
1F6
100
AcDbEntity
  8
1
  6
Continuous
 62
     2
100
AcDbLine
 10
-56.55988858887666
 20
79.85511101682374
 30
0.0
 11
-49.62276682006935
 21
79.85511101682374
 31
0.0
  0
SOLID
  5
1FA
330
1F6
100
AcDbEntity
  8
1
 62
     2
100
AcDbTrace
 10
-50.60315869084729
 20
76.21200839588924
 30
0.0
 11
-50.14237494929141
 21
76.21200839588924
 31
0.0
 12
-50.37276682006935
 22
74.46200839588924
 32
0.0
 13
-50.37276682006935
 23
74.46200839588924
 33
0.0
  0
SOLID
  5
1FB
330
1F6
100
AcDbEntity
  8
1
 62
     2
100
AcDbTrace
 10
-50.14237494929141
 20
78.10511101682374
 30
0.0
 11
-50.60315869084729
 21
78.10511101682374
 31
0.0
 12
-50.37276682006935
 22
79.85511101682374
 32
0.0
 13
-50.37276682006935
 23
79.85511101682374
 33
0.0
  0
MTEXT
  5
1FC
330
1F6
100
AcDbEntity
  8
1
 62
     3
100
AcDbMText
 10
-51.29776682006935
 20
75.80347719212446
 30
0.0
 40
1.75
 41
0.0
 71
     7
 72
     1
  1
5,4
  7
CONVERTER_11
 11
0.0
 21
1.0
 31
0.0
 73
     1
 44
0.60024009603842
  0
ENDBLK
  5
1FE
330
1F6
100
AcDbEntity
  8
0
100
AcDbBlockEnd
  0
BLOCK
  5
207
330
200
100
AcDbEntity
  8
0
100
AcDbBlockBegin
  2
*D20
 70
     1
 10
0.0
 20
0.0
 30
0.0
  3
*D20
  1

  0
LINE
  5
201
330
200
100
AcDbEntity
  8
1
  6
Continuous
 62
     2
100
AcDbLine
 10
-65.19436580809369
 20
69.65274322236928
 30
0.0
 11
-55.19436580809361
 21
69.65274322236928
 31
0.0
  0
LINE
  5
202
330
200
100
AcDbEntity
  8
1
  6
Continuous
 62
     2
100
AcDbLine
 10
-65.19436580809369
 20
79.15511101682374
 30
0.0
 11
-65.19436580809369
 21
68.90274322236928
 31
0.0
  0
LINE
  5
203
330
200
100
AcDbEntity
  8
1
  6
Continuous
 62
     2
100
AcDbLine
 10
-55.19436580809361
 20
79.15511101682374
 30
0.0
 11
-55.19436580809361
 21
68.90274322236928
 31
0.0
  0
SOLID
  5
204
330
200
100
AcDbEntity
  8
1
 62
     2
100
AcDbTrace
 10
-63.44436580809369
 20
69.88313509314722
 30
0.0
 11
-63.44436580809369
 21
69.42235135159135
 31
0.0
 12
-65.19436580809369
 22
69.65274322236928
 32
0.0
 13
-65.19436580809369
 23
69.65274322236928
 33
0.0
  0
SOLID
  5
205
330
200
100
AcDbEntity
  8
1
 62
     2
100
AcDbTrace
 10
-56.94436580809361
 20
69.42235135159135
 30
0.0
 11
-56.94436580809361
 21
69.88313509314722
 31
0.0
 12
-55.19436580809361
 22
69.65274322236928
 32
0.0
 13
-55.19436580809361
 23
69.65274322236928
 33
0.0
  0
MTEXT
  5
206
330
200
100
AcDbEntity
  8
1
 62
     3
100
AcDbMText
 10
-61.46413721267711
 20
70.40274322236928
 30
0.0
 40
1.75
 41
0.0
 71
     7
 72
     1
  1
10
  7
CONVERTER_11
 11
0.9999999999970619
 21
2.424068405545306E-6
 31
0.0
 73
     1
 44
0.60024009603842
  0
ENDBLK
  5
208
330
200
100
AcDbEntity
  8
0
100
AcDbBlockEnd
  0
ENDSEC
  0
SECTION
  2
ENTITIES
  0
INSERT
  5
86
330
1F
100
AcDbEntity
  8
1
100
AcDbBlockReference
  2
1
 10
0.0
 20
0.0
 30
0.0
  0
ENDSEC
  0
SECTION
  2
OBJECTS
  0
DICTIONARY
  5
C
330
0
100
AcDbDictionary
281
     1
  3
ACAD_GROUP
350
D
  3
ACAD_LAYOUT
350
1A
  3
ACAD_MATERIAL
350
3B
  3
ACAD_MLEADERSTYLE
350
37E
  3
ACAD_MLINESTYLE
350
17
  3
ACAD_PLOTSETTINGS
350
19
  3
ACAD_PLOTSTYLENAME
350
E
  3
ACAD_TABLESTYLE
350
37D
  3
ACAD_VISUALSTYLE
350
2A
  0
DICTIONARY
  5
D
102
{ACAD_REACTORS
330
C
102
}
330
C
100
AcDbDictionary
281
     1
  0
DICTIONARY
  5
1A
102
{ACAD_REACTORS
330
C
102
}
330
C
100
AcDbDictionary
281
     1
  3
Layout1
350
1E
  3
Layout2
350
26
  3
Model
350
22
  0
DICTIONARY
  5
3B
102
{ACAD_REACTORS
330
C
102
}
330
C
100
AcDbDictionary
281
     1
  3
ByBlock
350
3D
  3
ByLayer
350
3C
  3
Global
350
3E
  0
DICTIONARY
  5
37E
102
{ACAD_REACTORS
330
C
102
}
330
C
100
AcDbDictionary
281
     1
  0
DICTIONARY
  5
17
102
{ACAD_REACTORS
330
C
102
}
330
C
100
AcDbDictionary
281
     1
  3
Standard
350
18
  0
DICTIONARY
  5
19
102
{ACAD_REACTORS
330
C
102
}
330
C
100
AcDbDictionary
281
     1
  0
ACDBDICTIONARYWDFLT
  5
E
102
{ACAD_REACTORS
330
C
102
}
330
C
100
AcDbDictionary
281
     1
  3
Normal
350
F
100
AcDbDictionaryWithDefault
340
F
  0
DICTIONARY
  5
37D
102
{ACAD_REACTORS
330
C
102
}
330
C
100
AcDbDictionary
281
     1
  0
DICTIONARY
  5
2A
102
{ACAD_REACTORS
330
C
102
}
330
C
100
AcDbDictionary
281
     1
  3
2dWireframe
350
2F
  3
3D Hidden
350
31
  3
3dWireframe
350
30
  3
Basic
350
32
  3
Brighten
350
36
  3
ColorChange
350
3A
  3
Conceptual
350
34
  3
Dim
350
35
  3
Facepattern
350
39
  3
Flat
350
2B
  3
FlatWithEdges
350
2C
  3
Gouraud
350
2D
  3
GouraudWithEdges
350
2E
  3
Linepattern
350
38
  3
Realistic
350
33
  3
Thicken
350
37
  0
LAYOUT
  5
1E
102
{ACAD_REACTORS
330
1A
102
}
330
1A
100
AcDbPlotSettings
  1

  2
none_device
  4

  6

 40
0.0
 41
0.0
 42
0.0
 43
0.0
 44
0.0
 45
0.0
 46
0.0
 47
0.0
 48
0.0
 49
0.0
140
0.0
141
0.0
142
1.0
143
1.0
 70
   688
 72
     0
 73
     0
 74
     5
  7

 75
    16
 76
     0
 77
     2
 78
   300
147
1.0
148
0.0
149
0.0
100
AcDbLayout
  1
Layout1
 70
     1
 71
     1
 10
0.0
 20
0.0
 11
12.0
 21
9.0
 12
0.0
 22
0.0
 32
0.0
 14
1.00000000000000E+20
 24
1.00000000000000E+20
 34
1.00000000000000E+20
 15
-1.00000000000000E+20
 25
-1.00000000000000E+20
 35
-1.00000000000000E+20
146
0.0
 13
0.0
 23
0.0
 33
0.0
 16
1.0
 26
0.0
 36
0.0
 17
0.0
 27
1.0
 37
0.0
 76
     0
330
1B
  0
LAYOUT
  5
26
102
{ACAD_REACTORS
330
1A
102
}
330
1A
100
AcDbPlotSettings
  1

  2
none_device
  4

  6

 40
0.0
 41
0.0
 42
0.0
 43
0.0
 44
0.0
 45
0.0
 46
0.0
 47
0.0
 48
0.0
 49
0.0
140
0.0
141
0.0
142
1.0
143
1.0
 70
   688
 72
     0
 73
     0
 74
     5
  7

 75
    16
 76
     0
 77
     2
 78
   300
147
1.0
148
0.0
149
0.0
100
AcDbLayout
  1
Layout2
 70
     1
 71
     2
 10
0.0
 20
0.0
 11
0.0
 21
0.0
 12
0.0
 22
0.0
 32
0.0
 14
0.0
 24
0.0
 34
0.0
 15
0.0
 25
0.0
 35
0.0
146
0.0
 13
0.0
 23
0.0
 33
0.0
 16
1.0
 26
0.0
 36
0.0
 17
0.0
 27
1.0
 37
0.0
 76
     0
330
23
  0
LAYOUT
  5
22
102
{ACAD_REACTORS
330
1A
102
}
330
1A
100
AcDbPlotSettings
  1

  2
none_device
  4

  6

 40
0.0
 41
0.0
 42
0.0
 43
0.0
 44
0.0
 45
0.0
 46
0.0
 47
0.0
 48
0.0
 49
0.0
140
0.0
141
0.0
142
1.0
143
1.0
 70
  1712
 72
     0
 73
     0
 74
     0
  7

 75
     0
 76
     0
 77
     2
 78
   300
147
1.0
148
0.0
149
0.0
100
AcDbLayout
  1
Model
 70
     1
 71
     0
 10
0.0
 20
0.0
 11
12.0
 21
9.0
 12
0.0
 22
0.0
 32
0.0
 14
-293.6177395015116
 24
-77.6471044454516
 34
0.0
 15
126.3822604984869
 25
219.3528955545484
 35
0.0
146
0.0
 13
0.0
 23
0.0
 33
0.0
 16
1.0
 26
0.0
 36
0.0
 17
0.0
 27
1.0
 37
0.0
 76
     0
330
1F
331
29
  0
MATERIAL
  5
3D
102
{ACAD_REACTORS
330
3B
102
}
102
{ACAD_XDICTIONARY
360
379
102
}
330
3B
100
AcDbMaterial
  1
ByBlock
  0
MATERIAL
  5
3C
102
{ACAD_REACTORS
330
3B
102
}
102
{ACAD_XDICTIONARY
360
377
102
}
330
3B
100
AcDbMaterial
  1
ByLayer
  0
MATERIAL
  5
3E
102
{ACAD_REACTORS
330
3B
102
}
102
{ACAD_XDICTIONARY
360
37B
102
}
330
3B
100
AcDbMaterial
  1
Global
  0
MLINESTYLE
  5
18
102
{ACAD_REACTORS
330
17
102
}
330
17
100
AcDbMlineStyle
  2
Standard
 70
     0
  3

 62
   256
 51
90.0
 52
90.0
 71
     2
 49
0.5
 62
   256
  6
BYLAYER
 49
-0.5
 62
   256
  6
BYLAYER
  0
ACDBPLACEHOLDER
  5
F
102
{ACAD_REACTORS
330
E
102
}
330
E
  0
VISUALSTYLE
  5
2F
102
{ACAD_REACTORS
330
2A
102
}
102
{ACAD_XDICTIONARY
360
35F
102
}
330
2A
100
AcDbVisualStyle
  2
2dWireframe
 70
     4
 71
     0
 72
     2
 73
     0
 90
        0
 40
-0.6
 41
-30.0
 62
     5
 63
     7
421
 16777215
 74
     1
 91
        4
 64
     7
 65
   257
 75
     1
175
     1
 42
1.0
 92
        0
 66
   257
 43
1.0
 76
     1
 77
     6
 78
     2
 67
     7
 79
     5
170
     0
171
     0
290
     0
174
     0
 93
        1
 44
0.0
173
     0
291
     0
 45
0.0
1001
ACAD
1000
AcDbSavedByObjectVersion
1070
     0
  0
VISUALSTYLE
  5
31
102
{ACAD_REACTORS
330
2A
102
}
102
{ACAD_XDICTIONARY
360
363
102
}
330
2A
100
AcDbVisualStyle
  2
3D Hidden
 70
     6
 71
     1
 72
     2
 73
     2
 90
        0
 40
-0.6
 41
-30.0
 62
     5
 63
     7
421
 16777215
 74
     2
 91
        2
 64
     7
 65
   257
 75
     2
175
     1
 42
40.0
 92
        0
 66
   257
 43
1.0
 76
     1
 77
     6
 78
     2
 67
     7
 79
     3
170
     0
171
     0
290
     0
174
     0
 93
        1
 44
0.0
173
     0
291
     0
 45
0.0
1001
ACAD
1000
AcDbSavedByObjectVersion
1070
     0
  0
VISUALSTYLE
  5
30
102
{ACAD_REACTORS
330
2A
102
}
102
{ACAD_XDICTIONARY
360
361
102
}
330
2A
100
AcDbVisualStyle
  2
3dWireframe
 70
     5
 71
     0
 72
     2
 73
     0
 90
        0
 40
-0.6
 41
-30.0
 62
     5
 63
     7
421
 16777215
 74
     1
 91
        4
 64
     7
 65
   257
 75
     1
175
     1
 42
1.0
 92
        0
 66
   257
 43
1.0
 76
     1
 77
     6
 78
     2
 67
     7
 79
     5
170
     0
171
     0
290
     0
174
     0
 93
        1
 44
0.0
173
     0
291
     0
 45
0.0
1001
ACAD
1000
AcDbSavedByObjectVersion
1070
     0
  0
VISUALSTYLE
  5
32
102
{ACAD_REACTORS
330
2A
102
}
102
{ACAD_XDICTIONARY
360
365
102
}
330
2A
100
AcDbVisualStyle
  2
Basic
 70
     7
 71
     1
 72
     0
 73
     1
 90
        0
 40
-0.6
 41
-30.0
 62
     5
 63
     7
421
 16777215
 74
     0
 91
        4
 64
     7
 65
   257
 75
     1
175
     1
 42
1.0
 92
        8
 66
     7
 43
1.0
 76
     1
 77
     6
 78
     2
 67
     7
 79
     5
170
     0
171
     0
290
     0
174
     0
 93
        1
 44
0.0
173
     0
291
     1
 45
0.0
1001
ACAD
1000
AcDbSavedByObjectVersion
1070
     0
  0
VISUALSTYLE
  5
36
102
{ACAD_REACTORS
330
2A
102
}
102
{ACAD_XDICTIONARY
360
36D
102
}
330
2A
100
AcDbVisualStyle
  2
Brighten
 70
    12
 71
     2
 72
     2
 73
     0
 90
        0
 40
-0.6
 41
-30.0
 62
     5
 63
     7
421
 16777215
 74
     1
 91
        4
 64
     7
 65
   257
 75
     1
175
     1
 42
1.0
 92
        8
 66
     7
 43
1.0
 76
     1
 77
     6
 78
     2
 67
     7
 79
     5
170
     0
171
     0
290
     0
174
     0
 93
        1
 44
50.0
173
     0
291
     1
 45
0.0
1001
ACAD
1000
AcDbSavedByObjectVersion
1070
     0
  0
VISUALSTYLE
  5
3A
102
{ACAD_REACTORS
330
2A
102
}
102
{ACAD_XDICTIONARY
360
375
102
}
330
2A
100
AcDbVisualStyle
  2
ColorChange
 70
    16
 71
     2
 72
     2
 73
     3
 90
        0
 40
-0.6
 41
-30.0
 62
     5
 63
     8
421
  8421504
 74
     1
 91
        4
 64
     7
 65
   257
 75
     1
175
     1
 42
1.0
 92
        8
 66
     8
424
  8421504
 43
1.0
 76
     1
 77
     6
 78
     2
 67
     7
 79
     5
170
     0
171
     0
290
     0
174
     0
 93
        1
 44
0.0
173
     0
291
     1
 45
0.0
1001
ACAD
1000
AcDbSavedByObjectVersion
1070
     0
  0
VISUALSTYLE
  5
34
102
{ACAD_REACTORS
330
2A
102
}
102
{ACAD_XDICTIONARY
360
369
102
}
330
2A
100
AcDbVisualStyle
  2
Conceptual
 70
     9
 71
     3
 72
     2
 73
     0
 90
        0
 40
-0.6
 41
-30.0
 62
     5
 63
     7
421
 16777215
 74
     2
 91
        2
 64
     7
 65
   257
 75
     1
175
     1
 42
40.0
 92
        8
 66
     7
 43
1.0
 76
     1
 77
     6
 78
     2
 67
     7
 79
     3
170
     0
171
     0
290
     0
174
     0
 93
        1
 44
0.0
173
     0
291
     0
 45
0.0
1001
ACAD
1000
AcDbSavedByObjectVersion
1070
     0
  0
VISUALSTYLE
  5
35
102
{ACAD_REACTORS
330
2A
102
}
102
{ACAD_XDICTIONARY
360
36B
102
}
330
2A
100
AcDbVisualStyle
  2
Dim
 70
    11
 71
     2
 72
     2
 73
     0
 90
        0
 40
-0.6
 41
-30.0
 62
     5
 63
     7
421
 16777215
 74
     1
 91
        4
 64
     7
 65
   257
 75
     1
175
     1
 42
1.0
 92
        8
 66
     7
 43
1.0
 76
     1
 77
     6
 78
     2
 67
     7
 79
     5
170
     0
171
     0
290
     0
174
     0
 93
        1
 44
-50.0
173
     0
291
     1
 45
0.0
1001
ACAD
1000
AcDbSavedByObjectVersion
1070
     0
  0
VISUALSTYLE
  5
39
102
{ACAD_REACTORS
330
2A
102
}
102
{ACAD_XDICTIONARY
360
373
102
}
330
2A
100
AcDbVisualStyle
  2
Facepattern
 70
    15
 71
     2
 72
     2
 73
     0
 90
        0
 40
-0.6
 41
-30.0
 62
     5
 63
     7
421
 16777215
 74
     1
 91
        4
 64
     7
 65
   257
 75
     1
175
     1
 42
1.0
 92
        8
 66
     7
 43
1.0
 76
     1
 77
     6
 78
     2
 67
     7
 79
     5
170
     0
171
     0
290
     0
174
     0
 93
        1
 44
0.0
173
     0
291
     1
 45
0.0
1001
ACAD
1000
AcDbSavedByObjectVersion
1070
     0
  0
VISUALSTYLE
  5
2B
102
{ACAD_REACTORS
330
2A
102
}
102
{ACAD_XDICTIONARY
360
357
102
}
330
2A
100
AcDbVisualStyle
  2
Flat
 70
     0
 71
     2
 72
     1
 73
     1
 90
        2
 40
-0.6
 41
30.0
 62
     5
 63
     7
421
 16777215
 74
     0
 91
        4
 64
     7
 65
   257
 75
     1
175
     1
 42
1.0
 92
        8
 66
     7
 43
1.0
 76
     1
 77
     6
 78
     2
 67
     7
 79
     5
170
     0
171
     0
290
     0
174
     0
 93
       13
 44
0.0
173
     0
291
     1
 45
0.0
1001
ACAD
1000
AcDbSavedByObjectVersion
1070
     0
  0
VISUALSTYLE
  5
2C
102
{ACAD_REACTORS
330
2A
102
}
102
{ACAD_XDICTIONARY
360
359
102
}
330
2A
100
AcDbVisualStyle
  2
FlatWithEdges
 70
     1
 71
     2
 72
     1
 73
     1
 90
        2
 40
-0.6
 41
30.0
 62
     5
 63
     7
421
 16777215
 74
     1
 91
        4
 64
     7
 65
   257
 75
     1
175
     1
 42
1.0
 92
        0
 66
   257
 43
1.0
 76
     1
 77
     6
 78
     2
 67
     7
 79
     5
170
     0
171
     0
290
     0
174
     0
 93
       13
 44
0.0
173
     0
291
     1
 45
0.0
1001
ACAD
1000
AcDbSavedByObjectVersion
1070
     0
  0
VISUALSTYLE
  5
2D
102
{ACAD_REACTORS
330
2A
102
}
102
{ACAD_XDICTIONARY
360
35B
102
}
330
2A
100
AcDbVisualStyle
  2
Gouraud
 70
     2
 71
     2
 72
     2
 73
     1
 90
        2
 40
-0.6
 41
30.0
 62
     5
 63
     7
421
 16777215
 74
     0
 91
        4
 64
     7
 65
   257
 75
     1
175
     1
 42
1.0
 92
        0
 66
     7
 43
1.0
 76
     1
 77
     6
 78
     2
 67
     7
 79
     5
170
     0
171
     0
290
     0
174
     0
 93
       13
 44
0.0
173
     0
291
     1
 45
0.0
1001
ACAD
1000
AcDbSavedByObjectVersion
1070
     0
  0
VISUALSTYLE
  5
2E
102
{ACAD_REACTORS
330
2A
102
}
102
{ACAD_XDICTIONARY
360
35D
102
}
330
2A
100
AcDbVisualStyle
  2
GouraudWithEdges
 70
     3
 71
     2
 72
     2
 73
     1
 90
        2
 40
-0.6
 41
30.0
 62
     5
 63
     7
421
 16777215
 74
     1
 91
        4
 64
     7
 65
   257
 75
     1
175
     1
 42
1.0
 92
        0
 66
   257
 43
1.0
 76
     1
 77
     6
 78
     2
 67
     7
 79
     5
170
     0
171
     0
290
     0
174
     0
 93
       13
 44
0.0
173
     0
291
     1
 45
0.0
1001
ACAD
1000
AcDbSavedByObjectVersion
1070
     0
  0
VISUALSTYLE
  5
38
102
{ACAD_REACTORS
330
2A
102
}
102
{ACAD_XDICTIONARY
360
371
102
}
330
2A
100
AcDbVisualStyle
  2
Linepattern
 70
    14
 71
     2
 72
     2
 73
     0
 90
        0
 40
-0.6
 41
-30.0
 62
     5
 63
     7
421
 16777215
 74
     1
 91
        4
 64
     7
 65
   257
 75
     7
175
     7
 42
1.0
 92
        8
 66
     7
 43
1.0
 76
     1
 77
     6
 78
     2
 67
     7
 79
     5
170
     0
171
     0
290
     0
174
     0
 93
        1
 44
0.0
173
     0
291
     1
 45
0.0
1001
ACAD
1000
AcDbSavedByObjectVersion
1070
     0
  0
VISUALSTYLE
  5
33
102
{ACAD_REACTORS
330
2A
102
}
102
{ACAD_XDICTIONARY
360
367
102
}
330
2A
100
AcDbVisualStyle
  2
Realistic
 70
     8
 71
     2
 72
     2
 73
     0
 90
        0
 40
-0.6
 41
-30.0
 62
     5
 63
     7
421
 16777215
 74
     1
 91
        0
 64
     7
 65
   257
 75
     1
175
     1
 42
1.0
 92
        8
 66
     8
424
  7895160
 43
1.0
 76
     1
 77
     6
 78
     2
 67
     7
 79
     5
170
     0
171
     0
290
     0
174
     0
 93
       13
 44
0.0
173
     0
291
     0
 45
0.0
1001
ACAD
1000
AcDbSavedByObjectVersion
1070
     0
  0
VISUALSTYLE
  5
37
102
{ACAD_REACTORS
330
2A
102
}
102
{ACAD_XDICTIONARY
360
36F
102
}
330
2A
100
AcDbVisualStyle
  2
Thicken
 70
    13
 71
     2
 72
     2
 73
     0
 90
        0
 40
-0.6
 41
-30.0
 62
     5
 63
     7
421
 16777215
 74
     1
 91
        4
 64
     7
 65
   257
 75
     1
175
     1
 42
1.0
 92
       12
 66
     7
 43
1.0
 76
     1
 77
     6
 78
     2
 67
     7
 79
     5
170
     0
171
     0
290
     0
174
     0
 93
        1
 44
0.0
173
     0
291
     1
 45
0.0
1001
ACAD
1000
AcDbSavedByObjectVersion
1070
     0
  0
DICTIONARY
  5
379
330
3D
100
AcDbDictionary
280
     1
281
     1
  3
ACAD_XREC_ROUNDTRIP
360
37A
  0
DICTIONARY
  5
377
330
3C
100
AcDbDictionary
280
     1
281
     1
  3
ACAD_XREC_ROUNDTRIP
360
378
  0
DICTIONARY
  5
37B
330
3E
100
AcDbDictionary
280
     1
281
     1
  3
ACAD_XREC_ROUNDTRIP
360
37C
  0
DICTIONARY
  5
35F
330
2F
100
AcDbDictionary
280
     1
281
     1
  3
ACAD_XREC_ROUNDTRIP
360
360
  0
DICTIONARY
  5
363
330
31
100
AcDbDictionary
280
     1
281
     1
  3
ACAD_XREC_ROUNDTRIP
360
364
  0
DICTIONARY
  5
361
330
30
100
AcDbDictionary
280
     1
281
     1
  3
ACAD_XREC_ROUNDTRIP
360
362
  0
DICTIONARY
  5
365
330
32
100
AcDbDictionary
280
     1
281
     1
  3
ACAD_XREC_ROUNDTRIP
360
366
  0
DICTIONARY
  5
36D
330
36
100
AcDbDictionary
280
     1
281
     1
  3
ACAD_XREC_ROUNDTRIP
360
36E
  0
DICTIONARY
  5
375
330
3A
100
AcDbDictionary
280
     1
281
     1
  3
ACAD_XREC_ROUNDTRIP
360
376
  0
DICTIONARY
  5
369
330
34
100
AcDbDictionary
280
     1
281
     1
  3
ACAD_XREC_ROUNDTRIP
360
36A
  0
DICTIONARY
  5
36B
330
35
100
AcDbDictionary
280
     1
281
     1
  3
ACAD_XREC_ROUNDTRIP
360
36C
  0
DICTIONARY
  5
373
330
39
100
AcDbDictionary
280
     1
281
     1
  3
ACAD_XREC_ROUNDTRIP
360
374
  0
DICTIONARY
  5
357
330
2B
100
AcDbDictionary
280
     1
281
     1
  3
ACAD_XREC_ROUNDTRIP
360
358
  0
DICTIONARY
  5
359
330
2C
100
AcDbDictionary
280
     1
281
     1
  3
ACAD_XREC_ROUNDTRIP
360
35A
  0
DICTIONARY
  5
35B
330
2D
100
AcDbDictionary
280
     1
281
     1
  3
ACAD_XREC_ROUNDTRIP
360
35C
  0
DICTIONARY
  5
35D
330
2E
100
AcDbDictionary
280
     1
281
     1
  3
ACAD_XREC_ROUNDTRIP
360
35E
  0
DICTIONARY
  5
371
330
38
100
AcDbDictionary
280
     1
281
     1
  3
ACAD_XREC_ROUNDTRIP
360
372
  0
DICTIONARY
  5
367
330
33
100
AcDbDictionary
280
     1
281
     1
  3
ACAD_XREC_ROUNDTRIP
360
368
  0
DICTIONARY
  5
36F
330
37
100
AcDbDictionary
280
     1
281
     1
  3
ACAD_XREC_ROUNDTRIP
360
370
  0
XRECORD
  5
37A
102
{ACAD_REACTORS
330
379
102
}
330
379
100
AcDbXrecord
280
     1
102
MATERIAL
148
0.0
149
0.0
149
0.0
 93
        0
 94
      127
282
     0
 72
     1
 77
     1
171
     1
175
     1
179
     1
273
     0
  0
XRECORD
  5
378
102
{ACAD_REACTORS
330
377
102
}
330
377
100
AcDbXrecord
280
     1
102
MATERIAL
148
0.0
149
0.0
149
0.0
 93
        0
 94
      127
282
     0
 72
     1
 77
     1
171
     1
175
     1
179
     1
273
     0
  0
XRECORD
  5
37C
102
{ACAD_REACTORS
330
37B
102
}
330
37B
100
AcDbXrecord
280
     1
102
MATERIAL
148
0.0
149
0.0
149
0.0
 93
        0
 94
      127
282
     0
 72
     1
 77
     1
171
     1
175
     1
179
     1
273
     0
  0
XRECORD
  5
360
102
{ACAD_REACTORS
330
35F
102
}
330
35F
100
AcDbXrecord
280
     1
102
RTVSPropertyOp0
 70
     1
102
RTVSPropertyOp1
 70
     1
102
RTVSPropertyOp2
 70
     1
102
RTVSPropertyOp3
 70
     1
102
RTVSPropertyOp4
 70
     1
102
RTVSPropertyOp5
 70
     1
102
RTVSPropertyOp6
 70
     1
102
RTVSPropertyOp7
 70
     1
102
RTVSPropertyOp8
 70
     1
102
RTVSPropertyOp9
 70
     1
102
RTVSPropertyOp10
 70
     1
102
RTVSPropertyOp11
 70
     1
102
RTVSPropertyOp12
 70
     1
102
RTVSPropertyOp13
 70
     1
102
RTVSPropertyOp14
 70
     1
102
RTVSPropertyOp15
 70
     1
102
RTVSPropertyOp16
 70
     1
102
RTVSPropertyOp17
 70
     1
102
RTVSPropertyOp18
 70
     1
102
RTVSPropertyOp19
 70
     1
102
RTVSPropertyOp20
 70
     1
102
RTVSPropertyOp21
 70
     1
102
RTVSPropertyOp22
 70
     1
102
RTVSPropertyOp23
 70
     1
102
RTVSPropertyOp24
 70
     1
102
RTVSPropertyOp25
 70
     1
102
RTVSPropertyOp26
 70
     1
102
RTVSPropertyOp27
 70
     1
102
RTVSPropertyOp28
 70
     1
102
RTVSPropertyOp29
 70
     1
102
RTVSPropertyOp30
 70
     1
102
RTVSPropertyOp31
 70
     1
102
RTVSPropertyOp32
 70
     1
  0
XRECORD
  5
364
102
{ACAD_REACTORS
330
363
102
}
330
363
100
AcDbXrecord
280
     1
102
RTVSPropertyOp0
 70
     1
102
RTVSPropertyOp1
 70
     1
102
RTVSPropertyOp2
 70
     1
102
RTVSPropertyOp3
 70
     1
102
RTVSPropertyOp4
 70
     1
102
RTVSPropertyOp5
 70
     1
102
RTVSPropertyOp6
 70
     1
102
RTVSPropertyOp7
 70
     1
102
RTVSPropertyOp8
 70
     1
102
RTVSPropertyOp9
 70
     1
102
RTVSPropertyOp10
 70
     1
102
RTVSPropertyOp11
 70
     1
102
RTVSPropertyOp12
 70
     1
102
RTVSPropertyOp13
 70
     1
102
RTVSPropertyOp14
 70
     1
102
RTVSPropertyOp15
 70
     1
102
RTVSPropertyOp16
 70
     1
102
RTVSPropertyOp17
 70
     1
102
RTVSPropertyOp18
 70
     1
102
RTVSPropertyOp19
 70
     1
102
RTVSPropertyOp20
 70
     1
102
RTVSPropertyOp21
 70
     1
102
RTVSPropertyOp22
 70
     1
102
RTVSPropertyOp23
 70
     1
102
RTVSPropertyOp24
 70
     1
102
RTVSPropertyOp25
 70
     1
102
RTVSPropertyOp26
 70
     1
102
RTVSPropertyOp27
 70
     1
102
RTVSPropertyOp28
 70
     1
102
RTVSPropertyOp29
 70
     1
102
RTVSPropertyOp30
 70
     1
102
RTVSPropertyOp31
 70
     1
102
RTVSPropertyOp32
 70
     1
  0
XRECORD
  5
362
102
{ACAD_REACTORS
330
361
102
}
330
361
100
AcDbXrecord
280
     1
102
RTVSPropertyOp0
 70
     1
102
RTVSPropertyOp1
 70
     1
102
RTVSPropertyOp2
 70
     1
102
RTVSPropertyOp3
 70
     1
102
RTVSPropertyOp4
 70
     1
102
RTVSPropertyOp5
 70
     1
102
RTVSPropertyOp6
 70
     1
102
RTVSPropertyOp7
 70
     1
102
RTVSPropertyOp8
 70
     1
102
RTVSPropertyOp9
 70
     1
102
RTVSPropertyOp10
 70
     1
102
RTVSPropertyOp11
 70
     1
102
RTVSPropertyOp12
 70
     1
102
RTVSPropertyOp13
 70
     1
102
RTVSPropertyOp14
 70
     1
102
RTVSPropertyOp15
 70
     1
102
RTVSPropertyOp16
 70
     1
102
RTVSPropertyOp17
 70
     1
102
RTVSPropertyOp18
 70
     1
102
RTVSPropertyOp19
 70
     1
102
RTVSPropertyOp20
 70
     1
102
RTVSPropertyOp21
 70
     1
102
RTVSPropertyOp22
 70
     1
102
RTVSPropertyOp23
 70
     1
102
RTVSPropertyOp24
 70
     1
102
RTVSPropertyOp25
 70
     1
102
RTVSPropertyOp26
 70
     1
102
RTVSPropertyOp27
 70
     1
102
RTVSPropertyOp28
 70
     1
102
RTVSPropertyOp29
 70
     1
102
RTVSPropertyOp30
 70
     1
102
RTVSPropertyOp31
 70
     1
102
RTVSPropertyOp32
 70
     1
  0
XRECORD
  5
366
102
{ACAD_REACTORS
330
365
102
}
330
365
100
AcDbXrecord
280
     1
102
RTVSPropertyOp0
 70
     1
102
RTVSPropertyOp1
 70
     1
102
RTVSPropertyOp2
 70
     1
102
RTVSPropertyOp3
 70
     1
102
RTVSPropertyOp4
 70
     1
102
RTVSPropertyOp5
 70
     1
102
RTVSPropertyOp6
 70
     1
102
RTVSPropertyOp7
 70
     1
102
RTVSPropertyOp8
 70
     1
102
RTVSPropertyOp9
 70
     1
102
RTVSPropertyOp10
 70
     1
102
RTVSPropertyOp11
 70
     1
102
RTVSPropertyOp12
 70
     1
102
RTVSPropertyOp13
 70
     1
102
RTVSPropertyOp14
 70
     1
102
RTVSPropertyOp15
 70
     1
102
RTVSPropertyOp16
 70
     1
102
RTVSPropertyOp17
 70
     1
102
RTVSPropertyOp18
 70
     1
102
RTVSPropertyOp19
 70
     1
102
RTVSPropertyOp20
 70
     1
102
RTVSPropertyOp21
 70
     1
102
RTVSPropertyOp22
 70
     1
102
RTVSPropertyOp23
 70
     1
102
RTVSPropertyOp24
 70
     1
102
RTVSPropertyOp25
 70
     1
102
RTVSPropertyOp26
 70
     1
102
RTVSPropertyOp27
 70
     1
102
RTVSPropertyOp28
 70
     1
102
RTVSPropertyOp29
 70
     1
102
RTVSPropertyOp30
 70
     1
102
RTVSPropertyOp31
 70
     1
102
RTVSPropertyOp32
 70
     1
  0
XRECORD
  5
36E
102
{ACAD_REACTORS
330
36D
102
}
330
36D
100
AcDbXrecord
280
     1
102
RTVSPropertyOp0
 70
     1
102
RTVSPropertyOp1
 70
     1
102
RTVSPropertyOp2
 70
     1
102
RTVSPropertyOp3
 70
     1
102
RTVSPropertyOp4
 70
     1
102
RTVSPropertyOp5
 70
     1
102
RTVSPropertyOp6
 70
     1
102
RTVSPropertyOp7
 70
     1
102
RTVSPropertyOp8
 70
     1
102
RTVSPropertyOp9
 70
     1
102
RTVSPropertyOp10
 70
     1
102
RTVSPropertyOp11
 70
     1
102
RTVSPropertyOp12
 70
     1
102
RTVSPropertyOp13
 70
     1
102
RTVSPropertyOp14
 70
     1
102
RTVSPropertyOp15
 70
     1
102
RTVSPropertyOp16
 70
     1
102
RTVSPropertyOp17
 70
     1
102
RTVSPropertyOp18
 70
     1
102
RTVSPropertyOp19
 70
     1
102
RTVSPropertyOp20
 70
     1
102
RTVSPropertyOp21
 70
     1
102
RTVSPropertyOp22
 70
     1
102
RTVSPropertyOp23
 70
     1
102
RTVSPropertyOp24
 70
     1
102
RTVSPropertyOp25
 70
     1
102
RTVSPropertyOp26
 70
     1
102
RTVSPropertyOp27
 70
     1
102
RTVSPropertyOp28
 70
     1
102
RTVSPropertyOp29
 70
     1
102
RTVSPropertyOp30
 70
     1
102
RTVSPropertyOp31
 70
     1
102
RTVSPropertyOp32
 70
     1
  0
XRECORD
  5
376
102
{ACAD_REACTORS
330
375
102
}
330
375
100
AcDbXrecord
280
     1
102
RTVSPropertyOp0
 70
     1
102
RTVSPropertyOp1
 70
     1
102
RTVSPropertyOp2
 70
     1
102
RTVSPropertyOp3
 70
     1
102
RTVSPropertyOp4
 70
     1
102
RTVSPropertyOp5
 70
     1
102
RTVSPropertyOp6
 70
     1
102
RTVSPropertyOp7
 70
     1
102
RTVSPropertyOp8
 70
     1
102
RTVSPropertyOp9
 70
     1
102
RTVSPropertyOp10
 70
     1
102
RTVSPropertyOp11
 70
     1
102
RTVSPropertyOp12
 70
     1
102
RTVSPropertyOp13
 70
     1
102
RTVSPropertyOp14
 70
     1
102
RTVSPropertyOp15
 70
     1
102
RTVSPropertyOp16
 70
     1
102
RTVSPropertyOp17
 70
     1
102
RTVSPropertyOp18
 70
     1
102
RTVSPropertyOp19
 70
     1
102
RTVSPropertyOp20
 70
     1
102
RTVSPropertyOp21
 70
     1
102
RTVSPropertyOp22
 70
     1
102
RTVSPropertyOp23
 70
     1
102
RTVSPropertyOp24
 70
     1
102
RTVSPropertyOp25
 70
     1
102
RTVSPropertyOp26
 70
     1
102
RTVSPropertyOp27
 70
     1
102
RTVSPropertyOp28
 70
     1
102
RTVSPropertyOp29
 70
     1
102
RTVSPropertyOp30
 70
     1
102
RTVSPropertyOp31
 70
     1
102
RTVSPropertyOp32
 70
     1
  0
XRECORD
  5
36A
102
{ACAD_REACTORS
330
369
102
}
330
369
100
AcDbXrecord
280
     1
102
RTVSPropertyOp0
 70
     1
102
RTVSPropertyOp1
 70
     1
102
RTVSPropertyOp2
 70
     1
102
RTVSPropertyOp3
 70
     1
102
RTVSPropertyOp4
 70
     1
102
RTVSPropertyOp5
 70
     1
102
RTVSPropertyOp6
 70
     1
102
RTVSPropertyOp7
 70
     1
102
RTVSPropertyOp8
 70
     1
102
RTVSPropertyOp9
 70
     1
102
RTVSPropertyOp10
 70
     1
102
RTVSPropertyOp11
 70
     1
102
RTVSPropertyOp12
 70
     1
102
RTVSPropertyOp13
 70
     1
102
RTVSPropertyOp14
 70
     1
102
RTVSPropertyOp15
 70
     1
102
RTVSPropertyOp16
 70
     1
102
RTVSPropertyOp17
 70
     1
102
RTVSPropertyOp18
 70
     1
102
RTVSPropertyOp19
 70
     1
102
RTVSPropertyOp20
 70
     1
102
RTVSPropertyOp21
 70
     1
102
RTVSPropertyOp22
 70
     1
102
RTVSPropertyOp23
 70
     1
102
RTVSPropertyOp24
 70
     1
102
RTVSPropertyOp25
 70
     1
102
RTVSPropertyOp26
 70
     1
102
RTVSPropertyOp27
 70
     1
102
RTVSPropertyOp28
 70
     1
102
RTVSPropertyOp29
 70
     1
102
RTVSPropertyOp30
 70
     1
102
RTVSPropertyOp31
 70
     1
102
RTVSPropertyOp32
 70
     1
  0
XRECORD
  5
36C
102
{ACAD_REACTORS
330
36B
102
}
330
36B
100
AcDbXrecord
280
     1
102
RTVSPropertyOp0
 70
     1
102
RTVSPropertyOp1
 70
     1
102
RTVSPropertyOp2
 70
     1
102
RTVSPropertyOp3
 70
     1
102
RTVSPropertyOp4
 70
     1
102
RTVSPropertyOp5
 70
     1
102
RTVSPropertyOp6
 70
     1
102
RTVSPropertyOp7
 70
     1
102
RTVSPropertyOp8
 70
     1
102
RTVSPropertyOp9
 70
     1
102
RTVSPropertyOp10
 70
     1
102
RTVSPropertyOp11
 70
     1
102
RTVSPropertyOp12
 70
     1
102
RTVSPropertyOp13
 70
     1
102
RTVSPropertyOp14
 70
     1
102
RTVSPropertyOp15
 70
     1
102
RTVSPropertyOp16
 70
     1
102
RTVSPropertyOp17
 70
     1
102
RTVSPropertyOp18
 70
     1
102
RTVSPropertyOp19
 70
     1
102
RTVSPropertyOp20
 70
     1
102
RTVSPropertyOp21
 70
     1
102
RTVSPropertyOp22
 70
     1
102
RTVSPropertyOp23
 70
     1
102
RTVSPropertyOp24
 70
     1
102
RTVSPropertyOp25
 70
     1
102
RTVSPropertyOp26
 70
     1
102
RTVSPropertyOp27
 70
     1
102
RTVSPropertyOp28
 70
     1
102
RTVSPropertyOp29
 70
     1
102
RTVSPropertyOp30
 70
     1
102
RTVSPropertyOp31
 70
     1
102
RTVSPropertyOp32
 70
     1
  0
XRECORD
  5
374
102
{ACAD_REACTORS
330
373
102
}
330
373
100
AcDbXrecord
280
     1
102
RTVSPropertyOp0
 70
     1
102
RTVSPropertyOp1
 70
     1
102
RTVSPropertyOp2
 70
     1
102
RTVSPropertyOp3
 70
     1
102
RTVSPropertyOp4
 70
     1
102
RTVSPropertyOp5
 70
     1
102
RTVSPropertyOp6
 70
     1
102
RTVSPropertyOp7
 70
     1
102
RTVSPropertyOp8
 70
     1
102
RTVSPropertyOp9
 70
     1
102
RTVSPropertyOp10
 70
     1
102
RTVSPropertyOp11
 70
     1
102
RTVSPropertyOp12
 70
     1
102
RTVSPropertyOp13
 70
     1
102
RTVSPropertyOp14
 70
     1
102
RTVSPropertyOp15
 70
     1
102
RTVSPropertyOp16
 70
     1
102
RTVSPropertyOp17
 70
     1
102
RTVSPropertyOp18
 70
     1
102
RTVSPropertyOp19
 70
     1
102
RTVSPropertyOp20
 70
     1
102
RTVSPropertyOp21
 70
     1
102
RTVSPropertyOp22
 70
     1
102
RTVSPropertyOp23
 70
     1
102
RTVSPropertyOp24
 70
     1
102
RTVSPropertyOp25
 70
     1
102
RTVSPropertyOp26
 70
     1
102
RTVSPropertyOp27
 70
     1
102
RTVSPropertyOp28
 70
     1
102
RTVSPropertyOp29
 70
     1
102
RTVSPropertyOp30
 70
     1
102
RTVSPropertyOp31
 70
     1
102
RTVSPropertyOp32
 70
     1
  0
XRECORD
  5
358
102
{ACAD_REACTORS
330
357
102
}
330
357
100
AcDbXrecord
280
     1
102
RTVSPropertyOp0
 70
     1
102
RTVSPropertyOp1
 70
     1
102
RTVSPropertyOp2
 70
     1
102
RTVSPropertyOp3
 70
     1
102
RTVSPropertyOp4
 70
     1
102
RTVSPropertyOp5
 70
     1
102
RTVSPropertyOp6
 70
     1
102
RTVSPropertyOp7
 70
     1
102
RTVSPropertyOp8
 70
     1
102
RTVSPropertyOp9
 70
     1
102
RTVSPropertyOp10
 70
     1
102
RTVSPropertyOp11
 70
     1
102
RTVSPropertyOp12
 70
     1
102
RTVSPropertyOp13
 70
     1
102
RTVSPropertyOp14
 70
     1
102
RTVSPropertyOp15
 70
     1
102
RTVSPropertyOp16
 70
     1
102
RTVSPropertyOp17
 70
     1
102
RTVSPropertyOp18
 70
     1
102
RTVSPropertyOp19
 70
     1
102
RTVSPropertyOp20
 70
     1
102
RTVSPropertyOp21
 70
     1
102
RTVSPropertyOp22
 70
     1
102
RTVSPropertyOp23
 70
     1
102
RTVSPropertyOp24
 70
     1
102
RTVSPropertyOp25
 70
     1
102
RTVSPropertyOp26
 70
     1
102
RTVSPropertyOp27
 70
     1
102
RTVSPropertyOp28
 70
     1
102
RTVSPropertyOp29
 70
     1
102
RTVSPropertyOp30
 70
     1
102
RTVSPropertyOp31
 70
     1
102
RTVSPropertyOp32
 70
     1
  0
XRECORD
  5
35A
102
{ACAD_REACTORS
330
359
102
}
330
359
100
AcDbXrecord
280
     1
102
RTVSPropertyOp0
 70
     1
102
RTVSPropertyOp1
 70
     1
102
RTVSPropertyOp2
 70
     1
102
RTVSPropertyOp3
 70
     1
102
RTVSPropertyOp4
 70
     1
102
RTVSPropertyOp5
 70
     1
102
RTVSPropertyOp6
 70
     1
102
RTVSPropertyOp7
 70
     1
102
RTVSPropertyOp8
 70
     1
102
RTVSPropertyOp9
 70
     1
102
RTVSPropertyOp10
 70
     1
102
RTVSPropertyOp11
 70
     1
102
RTVSPropertyOp12
 70
     1
102
RTVSPropertyOp13
 70
     1
102
RTVSPropertyOp14
 70
     1
102
RTVSPropertyOp15
 70
     1
102
RTVSPropertyOp16
 70
     1
102
RTVSPropertyOp17
 70
     1
102
RTVSPropertyOp18
 70
     1
102
RTVSPropertyOp19
 70
     1
102
RTVSPropertyOp20
 70
     1
102
RTVSPropertyOp21
 70
     1
102
RTVSPropertyOp22
 70
     1
102
RTVSPropertyOp23
 70
     1
102
RTVSPropertyOp24
 70
     1
102
RTVSPropertyOp25
 70
     1
102
RTVSPropertyOp26
 70
     1
102
RTVSPropertyOp27
 70
     1
102
RTVSPropertyOp28
 70
     1
102
RTVSPropertyOp29
 70
     1
102
RTVSPropertyOp30
 70
     1
102
RTVSPropertyOp31
 70
     1
102
RTVSPropertyOp32
 70
     1
  0
XRECORD
  5
35C
102
{ACAD_REACTORS
330
35B
102
}
330
35B
100
AcDbXrecord
280
     1
102
RTVSPropertyOp0
 70
     1
102
RTVSPropertyOp1
 70
     1
102
RTVSPropertyOp2
 70
     1
102
RTVSPropertyOp3
 70
     1
102
RTVSPropertyOp4
 70
     1
102
RTVSPropertyOp5
 70
     1
102
RTVSPropertyOp6
 70
     1
102
RTVSPropertyOp7
 70
     1
102
RTVSPropertyOp8
 70
     1
102
RTVSPropertyOp9
 70
     1
102
RTVSPropertyOp10
 70
     1
102
RTVSPropertyOp11
 70
     1
102
RTVSPropertyOp12
 70
     1
102
RTVSPropertyOp13
 70
     1
102
RTVSPropertyOp14
 70
     1
102
RTVSPropertyOp15
 70
     1
102
RTVSPropertyOp16
 70
     1
102
RTVSPropertyOp17
 70
     1
102
RTVSPropertyOp18
 70
     1
102
RTVSPropertyOp19
 70
     1
102
RTVSPropertyOp20
 70
     1
102
RTVSPropertyOp21
 70
     1
102
RTVSPropertyOp22
 70
     1
102
RTVSPropertyOp23
 70
     1
102
RTVSPropertyOp24
 70
     1
102
RTVSPropertyOp25
 70
     1
102
RTVSPropertyOp26
 70
     1
102
RTVSPropertyOp27
 70
     1
102
RTVSPropertyOp28
 70
     1
102
RTVSPropertyOp29
 70
     1
102
RTVSPropertyOp30
 70
     1
102
RTVSPropertyOp31
 70
     1
102
RTVSPropertyOp32
 70
     1
  0
XRECORD
  5
35E
102
{ACAD_REACTORS
330
35D
102
}
330
35D
100
AcDbXrecord
280
     1
102
RTVSPropertyOp0
 70
     1
102
RTVSPropertyOp1
 70
     1
102
RTVSPropertyOp2
 70
     1
102
RTVSPropertyOp3
 70
     1
102
RTVSPropertyOp4
 70
     1
102
RTVSPropertyOp5
 70
     1
102
RTVSPropertyOp6
 70
     1
102
RTVSPropertyOp7
 70
     1
102
RTVSPropertyOp8
 70
     1
102
RTVSPropertyOp9
 70
     1
102
RTVSPropertyOp10
 70
     1
102
RTVSPropertyOp11
 70
     1
102
RTVSPropertyOp12
 70
     1
102
RTVSPropertyOp13
 70
     1
102
RTVSPropertyOp14
 70
     1
102
RTVSPropertyOp15
 70
     1
102
RTVSPropertyOp16
 70
     1
102
RTVSPropertyOp17
 70
     1
102
RTVSPropertyOp18
 70
     1
102
RTVSPropertyOp19
 70
     1
102
RTVSPropertyOp20
 70
     1
102
RTVSPropertyOp21
 70
     1
102
RTVSPropertyOp22
 70
     1
102
RTVSPropertyOp23
 70
     1
102
RTVSPropertyOp24
 70
     1
102
RTVSPropertyOp25
 70
     1
102
RTVSPropertyOp26
 70
     1
102
RTVSPropertyOp27
 70
     1
102
RTVSPropertyOp28
 70
     1
102
RTVSPropertyOp29
 70
     1
102
RTVSPropertyOp30
 70
     1
102
RTVSPropertyOp31
 70
     1
102
RTVSPropertyOp32
 70
     1
  0
XRECORD
  5
372
102
{ACAD_REACTORS
330
371
102
}
330
371
100
AcDbXrecord
280
     1
102
RTVSPropertyOp0
 70
     1
102
RTVSPropertyOp1
 70
     1
102
RTVSPropertyOp2
 70
     1
102
RTVSPropertyOp3
 70
     1
102
RTVSPropertyOp4
 70
     1
102
RTVSPropertyOp5
 70
     1
102
RTVSPropertyOp6
 70
     1
102
RTVSPropertyOp7
 70
     1
102
RTVSPropertyOp8
 70
     1
102
RTVSPropertyOp9
 70
     1
102
RTVSPropertyOp10
 70
     1
102
RTVSPropertyOp11
 70
     1
102
RTVSPropertyOp12
 70
     1
102
RTVSPropertyOp13
 70
     1
102
RTVSPropertyOp14
 70
     1
102
RTVSPropertyOp15
 70
     1
102
RTVSPropertyOp16
 70
     1
102
RTVSPropertyOp17
 70
     1
102
RTVSPropertyOp18
 70
     1
102
RTVSPropertyOp19
 70
     1
102
RTVSPropertyOp20
 70
     1
102
RTVSPropertyOp21
 70
     1
102
RTVSPropertyOp22
 70
     1
102
RTVSPropertyOp23
 70
     1
102
RTVSPropertyOp24
 70
     1
102
RTVSPropertyOp25
 70
     1
102
RTVSPropertyOp26
 70
     1
102
RTVSPropertyOp27
 70
     1
102
RTVSPropertyOp28
 70
     1
102
RTVSPropertyOp29
 70
     1
102
RTVSPropertyOp30
 70
     1
102
RTVSPropertyOp31
 70
     1
102
RTVSPropertyOp32
 70
     1
  0
XRECORD
  5
368
102
{ACAD_REACTORS
330
367
102
}
330
367
100
AcDbXrecord
280
     1
102
RTVSPropertyOp0
 70
     1
102
RTVSPropertyOp1
 70
     1
102
RTVSPropertyOp2
 70
     1
102
RTVSPropertyOp3
 70
     1
102
RTVSPropertyOp4
 70
     1
102
RTVSPropertyOp5
 70
     1
102
RTVSPropertyOp6
 70
     1
102
RTVSPropertyOp7
 70
     1
102
RTVSPropertyOp8
 70
     1
102
RTVSPropertyOp9
 70
     1
102
RTVSPropertyOp10
 70
     1
102
RTVSPropertyOp11
 70
     1
102
RTVSPropertyOp12
 70
     1
102
RTVSPropertyOp13
 70
     1
102
RTVSPropertyOp14
 70
     1
102
RTVSPropertyOp15
 70
     1
102
RTVSPropertyOp16
 70
     1
102
RTVSPropertyOp17
 70
     1
102
RTVSPropertyOp18
 70
     1
102
RTVSPropertyOp19
 70
     1
102
RTVSPropertyOp20
 70
     1
102
RTVSPropertyOp21
 70
     1
102
RTVSPropertyOp22
 70
     1
102
RTVSPropertyOp23
 70
     1
102
RTVSPropertyOp24
 70
     1
102
RTVSPropertyOp25
 70
     1
102
RTVSPropertyOp26
 70
     1
102
RTVSPropertyOp27
 70
     1
102
RTVSPropertyOp28
 70
     1
102
RTVSPropertyOp29
 70
     1
102
RTVSPropertyOp30
 70
     1
102
RTVSPropertyOp31
 70
     1
102
RTVSPropertyOp32
 70
     1
  0
XRECORD
  5
370
102
{ACAD_REACTORS
330
36F
102
}
330
36F
100
AcDbXrecord
280
     1
102
RTVSPropertyOp0
 70
     1
102
RTVSPropertyOp1
 70
     1
102
RTVSPropertyOp2
 70
     1
102
RTVSPropertyOp3
 70
     1
102
RTVSPropertyOp4
 70
     1
102
RTVSPropertyOp5
 70
     1
102
RTVSPropertyOp6
 70
     1
102
RTVSPropertyOp7
 70
     1
102
RTVSPropertyOp8
 70
     1
102
RTVSPropertyOp9
 70
     1
102
RTVSPropertyOp10
 70
     1
102
RTVSPropertyOp11
 70
     1
102
RTVSPropertyOp12
 70
     1
102
RTVSPropertyOp13
 70
     1
102
RTVSPropertyOp14
 70
     1
102
RTVSPropertyOp15
 70
     1
102
RTVSPropertyOp16
 70
     1
102
RTVSPropertyOp17
 70
     1
102
RTVSPropertyOp18
 70
     1
102
RTVSPropertyOp19
 70
     1
102
RTVSPropertyOp20
 70
     1
102
RTVSPropertyOp21
 70
     1
102
RTVSPropertyOp22
 70
     1
102
RTVSPropertyOp23
 70
     1
102
RTVSPropertyOp24
 70
     1
102
RTVSPropertyOp25
 70
     1
102
RTVSPropertyOp26
 70
     1
102
RTVSPropertyOp27
 70
     1
102
RTVSPropertyOp28
 70
     1
102
RTVSPropertyOp29
 70
     1
102
RTVSPropertyOp30
 70
     1
102
RTVSPropertyOp31
 70
     1
102
RTVSPropertyOp32
 70
     1
  0
ENDSEC
  0
EOF
