  0
SECTION
  2
HEADER
  9
$ACADVER
  1
AC1018
  9
$ACADMAINTVER
 70
     0
  9
$DWGCODEPAGE
  3
ANSI_1252
  9
$INSBASE
 10
0.0
 20
0.0
 30
0.0
  9
$EXTMIN
 10
-408.218328118732
 20
-257.359278140911
 30
0.0
  9
$EXTMAX
 10
-111.218328118734
 20
-47.35927814091093
 30
0.0
  9
$LIMMIN
 10
0.0
 20
0.0
  9
$LIMMAX
 10
12.0
 20
9.0
  9
$ORTHOMODE
 70
     0
  9
$REGENMODE
 70
     1
  9
$FILLMODE
 70
     1
  9
$QTEXTMODE
 70
     0
  9
$MIRRTEXT
 70
     1
  9
$LTSCALE
 40
1.0
  9
$ATTMODE
 70
     1
  9
$TEXTSIZE
 40
0.2
  9
$TRACEWID
 40
0.05
  9
$TEXTSTYLE
  7
Standard
  9
$CLAYER
  8
0
  9
$CELTYPE
  6
ByLayer
  9
$CECOLOR
 62
   256
  9
$CELTSCALE
 40
1.0
  9
$DISPSILH
 70
     0
  9
$DIMSCALE
 40
1.0
  9
$DIMASZ
 40
0.18
  9
$DIMEXO
 40
0.0625
  9
$DIMDLI
 40
0.38
  9
$DIMRND
 40
0.0
  9
$DIMDLE
 40
0.0
  9
$DIMEXE
 40
0.18
  9
$DIMTP
 40
0.0
  9
$DIMTM
 40
0.0
  9
$DIMTXT
 40
0.18
  9
$DIMCEN
 40
0.09
  9
$DIMTSZ
 40
0.0
  9
$DIMTOL
 70
     0
  9
$DIMLIM
 70
     0
  9
$DIMTIH
 70
     1
  9
$DIMTOH
 70
     1
  9
$DIMSE1
 70
     0
  9
$DIMSE2
 70
     0
  9
$DIMTAD
 70
     0
  9
$DIMZIN
 70
     0
  9
$DIMBLK
  1

  9
$DIMASO
 70
     1
  9
$DIMSHO
 70
     1
  9
$DIMPOST
  1

  9
$DIMAPOST
  1

  9
$DIMALT
 70
     0
  9
$DIMALTD
 70
     2
  9
$DIMALTF
 40
25.4
  9
$DIMLFAC
 40
1.0
  9
$DIMTOFL
 70
     0
  9
$DIMTVP
 40
0.0
  9
$DIMTIX
 70
     0
  9
$DIMSOXD
 70
     0
  9
$DIMSAH
 70
     0
  9
$DIMBLK1
  1

  9
$DIMBLK2
  1

  9
$DIMSTYLE
  2
Standard
  9
$DIMCLRD
 70
     0
  9
$DIMCLRE
 70
     0
  9
$DIMCLRT
 70
     0
  9
$DIMTFAC
 40
1.0
  9
$DIMGAP
 40
0.09
  9
$DIMJUST
 70
     0
  9
$DIMSD1
 70
     0
  9
$DIMSD2
 70
     0
  9
$DIMTOLJ
 70
     1
  9
$DIMTZIN
 70
     0
  9
$DIMALTZ
 70
     0
  9
$DIMALTTZ
 70
     0
  9
$DIMUPT
 70
     0
  9
$DIMDEC
 70
     4
  9
$DIMTDEC
 70
     4
  9
$DIMALTU
 70
     2
  9
$DIMALTTD
 70
     2
  9
$DIMTXSTY
  7
Standard
  9
$DIMAUNIT
 70
     0
  9
$DIMADEC
 70
     0
  9
$DIMALTRND
 40
0.0
  9
$DIMAZIN
 70
     0
  9
$DIMDSEP
 70
    46
  9
$DIMATFIT
 70
     3
  9
$DIMFRAC
 70
     0
  9
$DIMLDRBLK
  1

  9
$DIMLUNIT
 70
     2
  9
$DIMLWD
 70
    -2
  9
$DIMLWE
 70
    -2
  9
$DIMTMOVE
 70
     0
  9
$LUNITS
 70
     2
  9
$LUPREC
 70
     4
  9
$SKETCHINC
 40
0.1
  9
$FILLETRAD
 40
0.5
  9
$AUNITS
 70
     0
  9
$AUPREC
 70
     0
  9
$MENU
  1
.
  9
$ELEVATION
 40
0.0
  9
$PELEVATION
 40
0.0
  9
$THICKNESS
 40
0.0
  9
$LIMCHECK
 70
     0
  9
$CHAMFERA
 40
0.5
  9
$CHAMFERB
 40
0.5
  9
$CHAMFERC
 40
1.0
  9
$CHAMFERD
 40
0.0
  9
$SKPOLY
 70
     0
  9
$TDCREATE
 40
2458212.358402731
  9
$TDUCREATE
 40
2458212.275069398
  9
$TDUPDATE
 40
2458212.358403275
  9
$TDUUPDATE
 40
2458212.275069942
  9
$TDINDWG
 40
0.0000000116
  9
$TDUSRTIMER
 40
0.0000000116
  9
$USRTIMER
 70
     1
  9
$ANGBASE
 50
0.0
  9
$ANGDIR
 70
     0
  9
$PDMODE
 70
     0
  9
$PDSIZE
 40
0.0
  9
$PLINEWID
 40
0.0
  9
$SPLFRAME
 70
     0
  9
$SPLINETYPE
 70
     6
  9
$SPLINESEGS
 70
     8
  9
$HANDSEED
  5
268
  9
$SURFTAB1
 70
     6
  9
$SURFTAB2
 70
     6
  9
$SURFTYPE
 70
     6
  9
$SURFU
 70
     6
  9
$SURFV
 70
     6
  9
$UCSBASE
  2

  9
$UCSNAME
  2

  9
$UCSORG
 10
0.0
 20
0.0
 30
0.0
  9
$UCSXDIR
 10
1.0
 20
0.0
 30
0.0
  9
$UCSYDIR
 10
0.0
 20
1.0
 30
0.0
  9
$UCSORTHOREF
  2

  9
$UCSORTHOVIEW
 70
     0
  9
$UCSORGTOP
 10
0.0
 20
0.0
 30
0.0
  9
$UCSORGBOTTOM
 10
0.0
 20
0.0
 30
0.0
  9
$UCSORGLEFT
 10
0.0
 20
0.0
 30
0.0
  9
$UCSORGRIGHT
 10
0.0
 20
0.0
 30
0.0
  9
$UCSORGFRONT
 10
0.0
 20
0.0
 30
0.0
  9
$UCSORGBACK
 10
0.0
 20
0.0
 30
0.0
  9
$PUCSBASE
  2

  9
$PUCSNAME
  2

  9
$PUCSORG
 10
0.0
 20
0.0
 30
0.0
  9
$PUCSXDIR
 10
1.0
 20
0.0
 30
0.0
  9
$PUCSYDIR
 10
0.0
 20
1.0
 30
0.0
  9
$PUCSORTHOREF
  2

  9
$PUCSORTHOVIEW
 70
     0
  9
$PUCSORGTOP
 10
0.0
 20
0.0
 30
0.0
  9
$PUCSORGBOTTOM
 10
0.0
 20
0.0
 30
0.0
  9
$PUCSORGLEFT
 10
0.0
 20
0.0
 30
0.0
  9
$PUCSORGRIGHT
 10
0.0
 20
0.0
 30
0.0
  9
$PUCSORGFRONT
 10
0.0
 20
0.0
 30
0.0
  9
$PUCSORGBACK
 10
0.0
 20
0.0
 30
0.0
  9
$USERI1
 70
     0
  9
$USERI2
 70
     0
  9
$USERI3
 70
     0
  9
$USERI4
 70
     0
  9
$USERI5
 70
     0
  9
$USERR1
 40
18.1
  9
$USERR2
 40
0.0
  9
$USERR3
 40
0.0
  9
$USERR4
 40
0.0
  9
$USERR5
 40
0.0
  9
$WORLDVIEW
 70
     1
  9
$SHADEDGE
 70
     3
  9
$SHADEDIF
 70
    70
  9
$TILEMODE
 70
     1
  9
$MAXACTVP
 70
    64
  9
$PINSBASE
 10
0.0
 20
0.0
 30
0.0
  9
$PLIMCHECK
 70
     0
  9
$PEXTMIN
 10
1.00000000000000E+20
 20
1.00000000000000E+20
 30
1.00000000000000E+20
  9
$PEXTMAX
 10
-1.00000000000000E+20
 20
-1.00000000000000E+20
 30
-1.00000000000000E+20
  9
$PLIMMIN
 10
0.0
 20
0.0
  9
$PLIMMAX
 10
12.0
 20
9.0
  9
$UNITMODE
 70
     0
  9
$VISRETAIN
 70
     1
  9
$PLINEGEN
 70
     0
  9
$PSLTSCALE
 70
     1
  9
$TREEDEPTH
 70
  3020
  9
$CMLSTYLE
  2
Standard
  9
$CMLJUST
 70
     0
  9
$CMLSCALE
 40
1.0
  9
$PROXYGRAPHICS
 70
     1
  9
$MEASUREMENT
 70
     1
  9
$CELWEIGHT
370
    -1
  9
$ENDCAPS
280
     0
  9
$JOINSTYLE
280
     0
  9
$LWDISPLAY
290
     0
  9
$INSUNITS
 70
     4
  9
$HYPERLINKBASE
  1

  9
$STYLESHEET
  1

  9
$XEDIT
290
     1
  9
$CEPSNTYPE
380
     0
  9
$PSTYLEMODE
290
     1
  9
$FINGERPRINTGUID
  2
{0C0F1C56-9A1E-47EF-AC75-9B20DA0E7C6F}
  9
$VERSIONGUID
  2
{FAEB1C32-E019-11D5-929B-00C0DF256EC4}
  9
$EXTNAMES
290
     1
  9
$PSVPSCALE
 40
0.0
  9
$OLESTARTUP
290
     0
  9
$SORTENTS
280
   127
  9
$INDEXCTL
280
     0
  9
$HIDETEXT
280
     1
  9
$XCLIPFRAME
290
     0
  9
$HALOGAP
280
     0
  9
$OBSCOLOR
 70
   257
  9
$OBSLTYPE
280
     0
  9
$INTERSECTIONDISPLAY
280
     0
  9
$INTERSECTIONCOLOR
 70
   257
  9
$DIMASSOC
280
     2
  9
$PROJECTNAME
  1

  0
ENDSEC
  0
SECTION
  2
CLASSES
  0
CLASS
  1
ACDBDICTIONARYWDFLT
  2
AcDbDictionaryWithDefault
  3
ObjectDBX Classes
 90
        0
 91
        4
280
     0
281
     0
  0
CLASS
  1
VISUALSTYLE
  2
AcDbVisualStyle
  3
ObjectDBX Classes
 90
     4095
 91
        4
280
     0
281
     0
  0
CLASS
  1
MATERIAL
  2
AcDbMaterial
  3
ObjectDBX Classes
 90
     1153
 91
        4
280
     0
281
     0
  0
ENDSEC
  0
SECTION
  2
TABLES
  0
TABLE
  2
VPORT
  5
8
330
0
100
AcDbSymbolTable
 70
     1
  0
VPORT
  5
29
330
8
100
AcDbSymbolTableRecord
100
AcDbViewportTableRecord
  2
*Active
 70
     0
 10
0.0
 20
0.0
 11
1.0
 21
1.0
 12
-259.718328118733
 22
-152.359278140911
 13
0.0
 23
0.0
 14
0.5
 24
0.5
 15
0.5
 25
0.5
 16
0.0
 26
0.0
 36
1.0
 17
0.0
 27
0.0
 37
0.0
 40
231.0000000000001
 41
1.60267857142857
 42
50.0
 43
0.0
 44
0.0
 50
0.0
 51
0.0
 71
     0
 72
   100
 73
     1
 74
     3
 75
     0
 76
     0
 77
     0
 78
     0
281
     0
 65
     1
110
0.0
120
0.0
130
0.0
111
1.0
121
0.0
131
0.0
112
0.0
122
1.0
132
0.0
 79
     0
146
0.0
  0
ENDTAB
  0
TABLE
  2
LTYPE
  5
5
330
0
100
AcDbSymbolTable
 70
     8
  0
LTYPE
  5
14
330
5
100
AcDbSymbolTableRecord
100
AcDbLinetypeTableRecord
  2
ByBlock
 70
     0
  3

 72
    65
 73
     0
 40
0.0
  0
LTYPE
  5
15
330
5
100
AcDbSymbolTableRecord
100
AcDbLinetypeTableRecord
  2
ByLayer
 70
     0
  3

 72
    65
 73
     0
 40
0.0
  0
LTYPE
  5
16
330
5
100
AcDbSymbolTableRecord
100
AcDbLinetypeTableRecord
  2
Continuous
 70
     0
  3
Solid line
 72
    65
 73
     0
 40
0.0
  0
LTYPE
  5
3F
330
5
100
AcDbSymbolTableRecord
100
AcDbLinetypeTableRecord
  2
DASHED
 70
     0
  3
Dashed
 72
    65
 73
     2
 40
15.0
 49
7.0
 74
     0
 49
-8.0
 74
     0
  0
LTYPE
  5
40
330
5
100
AcDbSymbolTableRecord
100
AcDbLinetypeTableRecord
  2
DOTTED
 70
     0
  3
Dotted
 72
    65
 73
     2
 40
1.0
 49
0.0
 74
     0
 49
-1.0
 74
     0
  0
LTYPE
  5
41
330
5
100
AcDbSymbolTableRecord
100
AcDbLinetypeTableRecord
  2
DOT_CENTER
 70
     0
  3
Dot_Center
 72
    65
 73
     4
 40
14.0
 49
12.0
 74
     0
 49
-1.0
 74
     0
 49
0.0
 74
     0
 49
-1.0
 74
     0
  0
LTYPE
  5
42
330
5
100
AcDbSymbolTableRecord
100
AcDbLinetypeTableRecord
  2
LONG_DASHED
 70
     0
  3
Long_Dashed
 72
    65
 73
     2
 40
15.0
 49
10.0
 74
     0
 49
-5.0
 74
     0
  0
LTYPE
  5
43
330
5
100
AcDbSymbolTableRecord
100
AcDbLinetypeTableRecord
  2
DASH_CENTER
 70
     0
  3
Dash_Center
 72
    65
 73
     4
 40
14.0
 49
11.0
 74
     0
 49
-1.0
 74
     0
 49
1.0
 74
     0
 49
-1.0
 74
     0
  0
LTYPE
  5
44
330
5
100
AcDbSymbolTableRecord
100
AcDbLinetypeTableRecord
  2
PHANTOM
 70
     0
  3
Phantom
 72
    65
 73
     6
 40
13.0
 49
10.0
 74
     0
 49
-1.0
 74
     0
 49
0.0
 74
     0
 49
-1.0
 74
     0
 49
0.0
 74
     0
 49
-1.0
 74
     0
  0
LTYPE
  5
45
330
5
100
AcDbSymbolTableRecord
100
AcDbLinetypeTableRecord
  2
CENTER_DASH_DASH
 70
     0
  3
Center_Dash_Dash
 72
    65
 73
     6
 40
14.0
 49
9.0
 74
     0
 49
-1.0
 74
     0
 49
1.0
 74
     0
 49
-1.0
 74
     0
 49
1.0
 74
     0
 49
-1.0
 74
     0
  0
ENDTAB
  0
TABLE
  2
LAYER
  5
2
330
0
100
AcDbSymbolTable
 70
     2
  0
LAYER
  5
10
330
2
100
AcDbSymbolTableRecord
100
AcDbLayerTableRecord
  2
0
 70
     0
 62
     7
  6
Continuous
370
    -3
390
F
  0
LAYER
  5
46
330
2
100
AcDbSymbolTableRecord
100
AcDbLayerTableRecord
  2
1
 70
     0
 62
     7
  6
Continuous
370
    -3
390
F
  0
ENDTAB
  0
TABLE
  2
STYLE
  5
3
330
0
100
AcDbSymbolTable
 70
     5
  0
STYLE
  5
11
330
3
100
AcDbSymbolTableRecord
100
AcDbTextStyleTableRecord
  2
Standard
 70
     0
 40
0.0
 41
1.0
 50
0.0
 71
     0
 42
0.2
  3
txt
  4

  0
STYLE
  5
A5
330
3
100
AcDbSymbolTableRecord
100
AcDbTextStyleTableRecord
  2
CONVERTER_11
 70
     0
 40
0.0
 41
0.9
 50
0.0
 71
     0
 42
0.2
  3
txt.shx
  4

  0
STYLE
  5
203
330
3
100
AcDbSymbolTableRecord
100
AcDbTextStyleTableRecord
  2
CONVERTER_12
 70
     0
 40
0.0
 41
0.81
 50
0.0
 71
     0
 42
0.2
  3
txt.shx
  4

  0
STYLE
  5
219
330
3
100
AcDbSymbolTableRecord
100
AcDbTextStyleTableRecord
  2
CONVERTER_13
 70
     0
 40
0.0
 41
0.72
 50
0.0
 71
     0
 42
0.2
  3
txt.shx
  4

  0
STYLE
  5
21C
330
3
100
AcDbSymbolTableRecord
100
AcDbTextStyleTableRecord
  2
CONVERTER_14
 70
     0
 40
0.0
 41
0.855
 50
0.0
 71
     0
 42
0.2
  3
txt.shx
  4

  0
ENDTAB
  0
TABLE
  2
VIEW
  5
6
330
0
100
AcDbSymbolTable
 70
     0
  0
ENDTAB
  0
TABLE
  2
UCS
  5
7
330
0
100
AcDbSymbolTable
 70
     0
  0
ENDTAB
  0
TABLE
  2
APPID
  5
9
330
0
100
AcDbSymbolTable
 70
     1
  0
APPID
  5
12
330
9
100
AcDbSymbolTableRecord
100
AcDbRegAppTableRecord
  2
ACAD
 70
     0
  0
ENDTAB
  0
TABLE
  2
DIMSTYLE
  5
A
330
0
100
AcDbSymbolTable
 70
     4
100
AcDbDimStyleTable
  0
DIMSTYLE
105
27
330
A
100
AcDbSymbolTableRecord
100
AcDbDimStyleTableRecord
  2
Standard
 70
     0
178
     0
340
11
  0
DIMSTYLE
105
B5
102
{ACAD_REACTORS
330
B6
102
}
330
A
100
AcDbSymbolTableRecord
100
AcDbDimStyleTableRecord
  2
ME10_DIM_10
 70
     0
 41
1.75
 42
0.0
 44
0.75
 73
     0
 74
     0
 77
     1
 78
     8
140
1.75
147
0.75
172
     1
173
     1
174
     1
175
     1
176
     2
177
     2
178
     3
340
A5
  0
DIMSTYLE
105
FA
102
{ACAD_REACTORS
330
FB
102
}
330
A
100
AcDbSymbolTableRecord
100
AcDbDimStyleTableRecord
  2
ME10_DIM_11
 70
     0
 41
1.75
 42
0.0
 44
0.75
 73
     0
 74
     0
 77
     1
 78
     8
140
1.75
147
0.75
172
     1
173
     1
174
     1
175
     1
176
     2
177
     2
178
     3
340
A5
  0
DIMSTYLE
105
105
102
{ACAD_REACTORS
330
106
102
}
330
A
100
AcDbSymbolTableRecord
100
AcDbDimStyleTableRecord
  2
ME10_DIM_12
 70
     0
 41
1.75
 42
0.0
 44
0.75
 73
     0
 74
     0
 77
     1
 78
     8
140
1.75
147
0.75
172
     1
173
     1
174
     1
175
     1
176
     2
177
     2
178
     3
340
A5
  0
ENDTAB
  0
TABLE
  2
BLOCK_RECORD
  5
1
330
0
100
AcDbSymbolTable
 70
    20
  0
BLOCK_RECORD
  5
1F
330
1
100
AcDbSymbolTableRecord
100
AcDbBlockTableRecord
  2
*Model_Space
340
22
  0
BLOCK_RECORD
  5
1B
330
1
100
AcDbSymbolTableRecord
100
AcDbBlockTableRecord
  2
*Paper_Space
340
1E
  0
BLOCK_RECORD
  5
23
330
1
100
AcDbSymbolTableRecord
100
AcDbBlockTableRecord
  2
*Paper_Space0
340
26
  0
BLOCK_RECORD
  5
47
330
1
100
AcDbSymbolTableRecord
100
AcDbBlockTableRecord
  2
ZB_16-PROFIL-SELECT__1
340
0
102
{BLKREFS
331
4B
102
}
  0
BLOCK_RECORD
  5
4A
330
1
100
AcDbSymbolTableRecord
100
AcDbBlockTableRecord
  2
Allg1
340
0
102
{BLKREFS
331
7D
102
}
  0
BLOCK_RECORD
  5
4E
330
1
100
AcDbSymbolTableRecord
100
AcDbBlockTableRecord
  2
ZB_16-PROFIL-SELECT__2
340
0
102
{BLKREFS
331
52
102
}
  0
BLOCK_RECORD
  5
51
330
1
100
AcDbSymbolTableRecord
100
AcDbBlockTableRecord
  2
Drfsicht1
340
0
102
{BLKREFS
331
7E
102
}
  0
BLOCK_RECORD
  5
55
330
1
100
AcDbSymbolTableRecord
100
AcDbBlockTableRecord
  2
ZB_16-PROFIL-SELECT__3
340
0
102
{BLKREFS
331
59
102
}
  0
BLOCK_RECORD
  5
58
330
1
100
AcDbSymbolTableRecord
100
AcDbBlockTableRecord
  2
Rckans1
340
0
102
{BLKREFS
331
7F
102
}
  0
BLOCK_RECORD
  5
5C
330
1
100
AcDbSymbolTableRecord
100
AcDbBlockTableRecord
  2
ZB_16-PROFIL-SELECT__4
340
0
102
{BLKREFS
331
60
102
}
  0
BLOCK_RECORD
  5
5F
330
1
100
AcDbSymbolTableRecord
100
AcDbBlockTableRecord
  2
SA_Links1
340
0
102
{BLKREFS
331
80
102
}
  0
BLOCK_RECORD
  5
63
330
1
100
AcDbSymbolTableRecord
100
AcDbBlockTableRecord
  2
ZB_16-PROFIL-SELECT__5
340
0
102
{BLKREFS
331
67
102
}
  0
BLOCK_RECORD
  5
66
330
1
100
AcDbSymbolTableRecord
100
AcDbBlockTableRecord
  2
SA_Rechts1
340
0
102
{BLKREFS
331
81
102
}
  0
BLOCK_RECORD
  5
6A
330
1
100
AcDbSymbolTableRecord
100
AcDbBlockTableRecord
  2
ZB_16-PROFIL-SELECT__6
340
0
102
{BLKREFS
331
6E
102
}
  0
BLOCK_RECORD
  5
6D
330
1
100
AcDbSymbolTableRecord
100
AcDbBlockTableRecord
  2
Vordans1
340
0
102
{BLKREFS
331
82
102
}
  0
BLOCK_RECORD
  5
71
330
1
100
AcDbSymbolTableRecord
100
AcDbBlockTableRecord
  2
_rahmen
340
0
102
{BLKREFS
331
78
102
}
  0
BLOCK_RECORD
  5
74
330
1
100
AcDbSymbolTableRecord
100
AcDbBlockTableRecord
  2
_punkt
340
0
102
{BLKREFS
331
79
102
}
  0
BLOCK_RECORD
  5
77
330
1
100
AcDbSymbolTableRecord
100
AcDbBlockTableRecord
  2
A4I_CS
340
0
102
{BLKREFS
331
83
102
}
  0
BLOCK_RECORD
  5
7C
330
1
100
AcDbSymbolTableRecord
100
AcDbBlockTableRecord
  2
1
340
0
102
{BLKREFS
331
86
102
}
  0
BLOCK_RECORD
  5
AC
330
1
100
AcDbSymbolTableRecord
100
AcDbBlockTableRecord
  2
*D17
340
0
  0
BLOCK_RECORD
  5
EF
330
1
100
AcDbSymbolTableRecord
100
AcDbBlockTableRecord
  2
*D18
340
0
  0
BLOCK_RECORD
  5
FC
330
1
100
AcDbSymbolTableRecord
100
AcDbBlockTableRecord
  2
*D19
340
0
  0
ENDTAB
  0
ENDSEC
  0
SECTION
  2
BLOCKS
  0
BLOCK
  5
20
330
1F
100
AcDbEntity
  8
0
100
AcDbBlockBegin
  2
*Model_Space
 70
     0
 10
0.0
 20
0.0
 30
0.0
  3
*Model_Space
  1

  0
ENDBLK
  5
21
330
1F
100
AcDbEntity
  8
0
100
AcDbBlockEnd
  0
BLOCK
  5
1C
330
1B
100
AcDbEntity
 67
     1
  8
0
100
AcDbBlockBegin
  2
*Paper_Space
 70
     0
 10
0.0
 20
0.0
 30
0.0
  3
*Paper_Space
  1

  0
ENDBLK
  5
1D
330
1B
100
AcDbEntity
 67
     1
  8
0
100
AcDbBlockEnd
  0
BLOCK
  5
24
330
23
100
AcDbEntity
  8
0
100
AcDbBlockBegin
  2
*Paper_Space0
 70
     0
 10
0.0
 20
0.0
 30
0.0
  3
*Paper_Space0
  1

  0
ENDBLK
  5
25
330
23
100
AcDbEntity
  8
0
100
AcDbBlockEnd
  0
BLOCK
  5
48
330
47
100
AcDbEntity
  8
0
100
AcDbBlockBegin
  2
ZB_16-PROFIL-SELECT__1
 70
     0
 10
-115.0466399307214
 20
-90.16128663148454
 30
0.0
  3
ZB_16-PROFIL-SELECT__1
  1

  0
LINE
  5
87
330
47
100
AcDbEntity
  8
0
  6
Continuous
 62
     7
100
AcDbLine
 10
-112.1795371932301
 20
-86.26323384951101
 30
0.0
 11
-112.6668438891299
 21
-87.94121387143066
 31
0.0
  0
LINE
  5
88
330
47
100
AcDbEntity
  8
0
  6
Continuous
 62
     7
100
AcDbLine
 10
-112.6668438891299
 20
-87.94121387143066
 30
0.0
 11
-112.946528326544
 21
-87.86047592881609
 31
0.0
  0
LINE
  5
89
330
47
100
AcDbEntity
  8
0
  6
Continuous
 62
     7
100
AcDbLine
 10
-111.5519343627122
 20
-86.44440718108282
 30
0.0
 11
-112.2712918661802
 21
-88.92142530867939
 31
0.0
  0
LINE
  5
8A
330
47
100
AcDbEntity
  8
0
  6
Continuous
 62
     7
100
AcDbLine
 10
-107.0466399307214
 20
-77.55474140643015
 30
0.0
 11
-115.0466399307214
 21
-84.48294463670565
 31
0.0
  0
LINE
  5
8B
330
47
100
AcDbEntity
  8
0
  6
Continuous
 62
     7
100
AcDbLine
 10
-97.95337319098482
 20
-81.13236935059302
 30
0.0
 11
-105.9533731909848
 21
-88.06057258086854
 31
0.0
  0
LINE
  5
8C
330
47
100
AcDbEntity
  8
0
  6
Continuous
 62
     7
100
AcDbLine
 10
-105.9533731909848
 20
-87.10794463670565
 30
0.0
 11
-97.95337319098482
 21
-80.17974140643015
 31
0.0
  0
LINE
  5
8D
330
47
100
AcDbEntity
  8
0
  6
Continuous
 62
     7
100
AcDbLine
 10
-108.3331692325755
 20
-89.19223798620169
 30
0.0
 11
-106.7581692325754
 21
-87.82824797524103
 31
0.0
  0
LINE
  5
8E
330
47
100
AcDbEntity
  8
0
  6
Continuous
 62
     2
100
AcDbLine
 10
-108.0534847951621
 20
-89.27297592881602
 30
0.0
 11
-106.4784847951619
 21
-87.90898591785543
 31
0.0
  0
LINE
  5
8F
330
47
100
AcDbEntity
  8
0
  6
Continuous
 62
     2
100
AcDbLine
 10
-112.946528326544
 20
-87.86047592881609
 30
0.0
 11
-112.5415400938624
 21
-87.5097458310801
 31
0.0
  0
LINE
  5
90
330
47
100
AcDbEntity
  8
0
  6
Continuous
 62
     7
100
AcDbLine
 10
-113.273855161898
 20
-87.91552415769908
 30
0.0
 11
-112.4529122000879
 21
-87.2045666977135
 31
0.0
  0
LINE
  5
91
330
47
100
AcDbEntity
  8
0
  6
Continuous
 62
     7
100
AcDbLine
 10
-112.1795371932301
 20
-86.26323384951101
 30
0.0
 11
-115.0466399307214
 21
-85.43557258086854
 31
0.0
  0
LINE
  5
92
330
47
100
AcDbEntity
  8
0
  6
Continuous
 62
     7
100
AcDbLine
 10
-115.0466399307214
 20
-85.43557258086854
 30
0.0
 11
-115.0466399307214
 21
-84.48294463670565
 31
0.0
  0
LINE
  5
93
330
47
100
AcDbEntity
  8
0
  6
Continuous
 62
     7
100
AcDbLine
 10
-105.9533731909848
 20
-87.10794463670565
 30
0.0
 11
-105.9533731909848
 21
-88.06057258086854
 31
0.0
  0
LINE
  5
94
330
47
100
AcDbEntity
  8
0
  6
Continuous
 62
     7
100
AcDbLine
 10
-105.9533731909848
 20
-88.06057258086854
 30
0.0
 11
-108.8204759284749
 21
-87.23291131222645
 31
0.0
  0
LINE
  5
95
330
47
100
AcDbEntity
  8
0
  6
Continuous
 62
     7
100
AcDbLine
 10
-115.0466399307214
 20
-84.48294463670565
 30
0.0
 11
-105.9533731909848
 21
-87.10794463670565
 31
0.0
  0
LINE
  5
96
330
47
100
AcDbEntity
  8
0
  6
Continuous
 62
     7
100
AcDbLine
 10
-108.8204759284749
 20
-87.23291131222645
 30
0.0
 11
-108.3331692325755
 21
-89.19223798620169
 31
0.0
  0
LINE
  5
97
330
47
100
AcDbEntity
  8
0
  6
Continuous
 62
     7
100
AcDbLine
 10
-109.4480787589924
 20
-87.0517379806547
 30
0.0
 11
-111.5519343627122
 21
-86.44440718108282
 31
0.0
  0
LINE
  5
98
330
47
100
AcDbEntity
  8
0
  6
Continuous
 62
     7
100
AcDbLine
 10
-109.94629186618
 20
-86.90791624488044
 30
0.0
 11
-112.2712918661802
 21
-88.92142530867939
 31
0.0
  0
LINE
  5
99
330
47
100
AcDbEntity
  8
0
  6
Continuous
 62
     7
100
AcDbLine
 10
-108.7287212555259
 20
-89.94407735652163
 30
0.0
 11
-109.4480787589924
 21
-87.0517379806547
 31
0.0
  0
LINE
  5
9A
330
47
100
AcDbEntity
  8
0
  6
Continuous
 62
     7
100
AcDbLine
 10
-97.95337319098482
 20
-80.17974140643015
 30
0.0
 11
-97.95337319098482
 21
-81.13236935059302
 31
0.0
  0
LINE
  5
9B
330
47
100
AcDbEntity
  8
0
  6
Continuous
 62
     7
100
AcDbLine
 10
-107.0466399307214
 20
-77.55474140643015
 30
0.0
 11
-97.95337319098482
 21
-80.17974140643015
 31
0.0
  0
LINE
  5
9C
330
47
100
AcDbEntity
  8
0
  6
Continuous
 62
     7
100
AcDbLine
 10
-108.0534847951621
 20
-89.27297592881602
 30
0.0
 11
-108.3331692325755
 21
-89.19223798620169
 31
0.0
  0
LINE
  5
9D
330
47
100
AcDbEntity
  8
0
  6
Continuous
 62
     7
100
AcDbLine
 10
-112.2712918661802
 20
-88.92142530867939
 30
0.0
 11
-112.946528326544
 21
-88.72650133260053
 31
0.0
  0
LINE
  5
9E
330
47
100
AcDbEntity
  8
0
  6
Continuous
 62
     7
100
AcDbLine
 10
-108.0534847951621
 20
-90.13900133260049
 30
0.0
 11
-108.7287212555259
 21
-89.94407735652163
 31
0.0
  0
LINE
  5
9F
330
47
100
AcDbEntity
  8
0
  6
Continuous
 62
     7
100
AcDbLine
 10
-107.7261579598081
 20
-90.08395310371749
 30
0.0
 11
-99.72615795980808
 21
-83.15574987344198
 31
0.0
  0
SPLINE
  5
A0
330
47
100
AcDbEntity
  8
0
  6
Continuous
 62
     7
100
AcDbSpline
210
0.0
220
0.0
230
1.0
 70
     8
 71
     3
 72
    11
 73
     7
 74
     5
 42
0.000000001
 43
0.0000000001
 44
0.00000001
 40
0.0
 40
0.0
 40
0.0
 40
0.0
 40
0.0805526799810464
 40
0.1638036380530946
 40
0.2517511792397935
 40
0.3453217744507758
 40
0.3453217744507758
 40
0.3453217744507758
 40
0.3453217744507758
 10
-113.273855161898
 20
-87.91552415769908
 30
0.0
 10
-113.2519988400751
 20
-87.89959922488615
 30
0.0
 10
-113.2075540660712
 20
-87.86721593331714
 30
0.0
 10
-113.1253168305544
 20
-87.84425131885376
 30
0.0
 10
-113.0362845549479
 20
-87.83977782977928
 30
0.0
 10
-112.9770586338003
 20
-87.85343552849949
 30
0.0
 10
-112.946528326544
 20
-87.86047592881609
 30
0.0
 11
-113.273855161898
 21
-87.91552415769908
 31
0.0
 11
-113.2060943646523
 21
-87.87196719582742
 31
0.0
 11
-113.1264622543374
 21
-87.84768861473043
 31
0.0
 11
-113.0386007676861
 21
-87.84379894053525
 31
0.0
 11
-112.946528326544
 21
-87.86047592881609
 31
0.0
  0
SPLINE
  5
A1
330
47
100
AcDbEntity
  8
0
  6
Continuous
 62
     7
100
AcDbSpline
210
0.0
220
0.0
230
1.0
 70
     8
 71
     3
 72
    15
 73
    11
 74
     9
 42
0.000000001
 43
0.0000000001
 44
0.00000001
 40
0.0
 40
0.0
 40
0.0
 40
0.0
 40
0.1328962109756723
 40
0.2727053220925998
 40
0.4150031796287365
 40
0.5548058914525655
 40
0.6876905845377093
 40
0.8109308977218983
 40
0.9245895382850386
 40
1.032150054401057
 40
1.032150054401057
 40
1.032150054401057
 40
1.032150054401057
 10
-112.946528326544
 20
-88.72650133260053
 30
0.0
 10
-112.9881904123764
 20
-88.7108400323239
 30
0.0
 10
-113.0736817267839
 20
-88.67870275992965
 30
0.0
 10
-113.1845152739203
 20
-88.59285684712805
 30
0.0
 10
-113.2774465839234
 20
-88.48630109694221
 30
0.0
 10
-113.3442931347756
 20
-88.36388342869824
 30
0.0
 10
-113.3803307257416
 20
-88.23539339672595
 30
0.0
 10
-113.3813477184052
 20
-88.11108643424413
 30
0.0
 10
-113.3488344961851
 20
-87.99720397831044
 30
0.0
 10
-113.2983847108419
 20
-87.94224576946891
 30
0.0
 10
-113.273855161898
 20
-87.91552415769908
 30
0.0
 11
-112.946528326544
 21
-88.72650133260053
 31
0.0
 11
-113.0685078199225
 21
-88.67375281969257
 31
0.0
 11
-113.1806077188068
 21
-88.59020522831835
 31
0.0
 11
-113.2737482120661
 21
-88.48262489200502
 31
0.0
 11
-113.340385891698
 21
-88.35972567286967
 31
0.0
 11
-113.3751228334475
 21
-88.23146154340371
 31
0.0
 11
-113.3751462359508
 21
-88.10822122944353
 31
0.0
 11
-113.3404534649198
 21
-87.99998676360913
 31
0.0
 11
-113.273855161898
 21
-87.91552415769908
 31
0.0
  0
SPLINE
  5
A2
330
47
100
AcDbEntity
  8
0
  6
Continuous
 62
     7
100
AcDbSpline
210
0.0
220
0.0
230
1.0
 70
     8
 71
     3
 72
    11
 73
     7
 74
     5
 42
0.000000001
 43
0.0000000001
 44
0.00000001
 40
0.0
 40
0.0
 40
0.0
 40
0.0
 40
0.1562289347117962
 40
0.3010697518520851
 40
0.4329966995945118
 40
0.5561029043245792
 40
0.5561029043245792
 40
0.5561029043245792
 40
0.5561029043245792
 10
-99.69414004132426
 20
-82.63991766505278
 30
0.0
 10
-99.67163726057765
 20
-82.68730637233331
 30
0.0
 10
-99.62827202521729
 20
-82.77862944989475
 30
0.0
 10
-99.61404850818529
 20
-82.92438495802405
 30
0.0
 10
-99.6412731311641
 20
-83.05992355923323
 30
0.0
 10
-99.69852304071694
 20
-83.12455287531996
 30
0.0
 10
-99.72615795980808
 20
-83.15574987344198
 30
0.0
 11
-99.69414004132426
 21
-82.63991766505278
 31
0.0
 11
-99.63564563695789
 21
-82.78478272140015
 31
0.0
 11
-99.62127488909535
 21
-82.92890886330937
 31
0.0
 11
-99.6525469841224
 21
-83.05707585116828
 31
0.0
 11
-99.72615795980808
 21
-83.15574987344198
 31
0.0
  0
SPLINE
  5
A3
330
47
100
AcDbEntity
  8
0
  6
Continuous
 62
     7
100
AcDbSpline
210
0.0
220
0.0
230
1.0
 70
     8
 71
     3
 72
    15
 73
    11
 74
     9
 42
0.000000001
 43
0.0000000001
 44
0.00000001
 40
0.0
 40
0.0
 40
0.0
 40
0.0
 40
0.1328962109756839
 40
0.2727053220925574
 40
0.4150031796286524
 40
0.5548058914524112
 40
0.6876905845375139
 40
0.8109308977216461
 40
0.9245895382847815
 40
1.03215005440081
 40
1.03215005440081
 40
1.03215005440081
 40
1.03215005440081
 10
-108.0534847951621
 20
-89.27297592881602
 30
0.0
 10
-108.0118227093297
 20
-89.28863722909271
 30
0.0
 10
-107.9263313949223
 20
-89.32077450148702
 30
0.0
 10
-107.815497847786
 20
-89.40662041428868
 30
0.0
 10
-107.7225665377828
 20
-89.51317616447437
 30
0.0
 10
-107.6557199869306
 20
-89.63559383271834
 30
0.0
 10
-107.6196823959647
 20
-89.76408386469056
 30
0.0
 10
-107.618665403301
 20
-89.88839082717237
 30
0.0
 10
-107.6511786255212
 20
-90.002273283106
 30
0.0
 10
-107.7016284108642
 20
-90.05723149194759
 30
0.0
 10
-107.7261579598081
 20
-90.08395310371749
 30
0.0
 11
-108.0534847951621
 21
-89.27297592881602
 31
0.0
 11
-107.9315053017837
 21
-89.32572444172412
 31
0.0
 11
-107.8194054028994
 21
-89.40927203309832
 31
0.0
 11
-107.7262649096401
 21
-89.51685236941161
 31
0.0
 11
-107.6596272300083
 21
-89.6397515885469
 31
0.0
 11
-107.6248902882587
 21
-89.76801571801282
 31
0.0
 11
-107.6248668857555
 21
-89.89125603197294
 31
0.0
 11
-107.6595596567864
 21
-89.99949049780733
 31
0.0
 11
-107.7261579598081
 21
-90.08395310371749
 31
0.0
  0
SPLINE
  5
A4
330
47
100
AcDbEntity
  8
0
  6
Continuous
 62
     7
100
AcDbSpline
210
0.0
220
0.0
230
1.0
 70
     8
 71
     3
 72
    11
 73
     7
 74
     5
 42
0.000000001
 43
0.0000000001
 44
0.00000001
 40
0.0
 40
0.0
 40
0.0
 40
0.0
 40
0.0805526799809901
 40
0.1638036380529892
 40
0.2517511792396751
 40
0.3453217744506411
 40
0.3453217744506411
 40
0.3453217744506411
 40
0.3453217744506411
 10
-107.7261579598081
 20
-90.08395310371749
 30
0.0
 10
-107.7480142816311
 20
-90.09987803653037
 30
0.0
 10
-107.792459055635
 20
-90.13226132809925
 30
0.0
 10
-107.8746962911517
 20
-90.15522594256258
 30
0.0
 10
-107.9637285667582
 20
-90.15969943163711
 30
0.0
 10
-108.0229544879057
 20
-90.14604173291701
 30
0.0
 10
-108.0534847951621
 20
-90.13900133260049
 30
0.0
 11
-107.7261579598081
 21
-90.08395310371749
 31
0.0
 11
-107.7939187570539
 21
-90.12751006558898
 31
0.0
 11
-107.8735508673687
 21
-90.15178864668594
 31
0.0
 11
-107.96141235402
 21
-90.15567832088115
 31
0.0
 11
-108.0534847951621
 21
-90.13900133260049
 31
0.0
  0
ENDBLK
  5
49
330
47
100
AcDbEntity
  8
0
100
AcDbBlockEnd
  0
BLOCK
  5
4C
330
4A
100
AcDbEntity
  8
0
100
AcDbBlockBegin
  2
Allg1
 70
     0
 10
-106.5000015778109
 20
-84.14999954452196
 30
0.0
  3
Allg1
  1

  0
INSERT
  5
4B
330
4A
100
AcDbEntity
  8
0
100
AcDbBlockReference
  2
ZB_16-PROFIL-SELECT__1
 10
-115.0466399307214
 20
-90.16128663148454
 30
0.0
  0
MTEXT
  5
A6
330
4A
100
AcDbEntity
  8
1
 62
     6
100
AcDbMText
 10
-106.500001577811
 20
-93.05039709742078
 30
0.0
 40
2.5
 41
0.0
 71
     2
 72
     1
  1
 
  7
CONVERTER_11
 73
     1
 44
1.32052821128451
  0
ENDBLK
  5
4D
330
4A
100
AcDbEntity
  8
0
100
AcDbBlockEnd
  0
BLOCK
  5
4F
330
4E
100
AcDbEntity
  8
0
100
AcDbBlockBegin
  2
ZB_16-PROFIL-SELECT__2
 70
     0
 10
-149.7500074657057
 20
-92.15000019344593
 30
0.0
  3
ZB_16-PROFIL-SELECT__2
  1

  0
LINE
  5
A7
330
4E
100
AcDbEntity
  8
0
  6
Continuous
 62
     7
100
AcDbLine
 10
-149.7500074657057
 20
-76.15000019344593
 30
0.0
 11
-149.7500074657057
 21
-92.15000019344593
 31
0.0
  0
LINE
  5
A8
330
4E
100
AcDbEntity
  8
0
  6
Continuous
 62
     7
100
AcDbLine
 10
-149.7500074657057
 20
-76.15000019344593
 30
0.0
 11
-139.2500074657057
 21
-76.15000019344593
 31
0.0
  0
LINE
  5
A9
330
4E
100
AcDbEntity
  8
0
  6
Continuous
 62
     7
100
AcDbLine
 10
-149.7500074657057
 20
-92.15000019344593
 30
0.0
 11
-139.2500074657057
 21
-92.15000019344593
 31
0.0
  0
LINE
  5
AA
330
4E
100
AcDbEntity
  8
0
  6
Continuous
 62
     7
100
AcDbLine
 10
-139.2500074657057
 20
-92.15000019344593
 30
0.0
 11
-139.2500074657057
 21
-76.15000019344593
 31
0.0
  0
ENDBLK
  5
50
330
4E
100
AcDbEntity
  8
0
100
AcDbBlockEnd
  0
BLOCK
  5
53
330
51
100
AcDbEntity
  8
0
100
AcDbBlockBegin
  2
Drfsicht1
 70
     0
 10
-144.5000018219021
 20
-84.15000000271607
 30
0.0
  3
Drfsicht1
  1

  0
INSERT
  5
52
330
51
100
AcDbEntity
  8
0
100
AcDbBlockReference
  2
ZB_16-PROFIL-SELECT__2
 10
-149.7500074657057
 20
-92.15000019344593
 30
0.0
  0
MTEXT
  5
AB
330
51
100
AcDbEntity
  8
1
 62
     6
100
AcDbMText
 10
-144.5000018219021
 20
-94.20000019345093
 30
0.0
 40
2.5
 41
0.0
 71
     2
 72
     1
  1
 
  7
CONVERTER_11
 73
     1
 44
1.32052821128451
  0
DIMENSION
  5
B6
330
51
100
AcDbEntity
  8
1
100
AcDbDimension
  2
*D17
 10
-154.7500074657057
 20
-76.15000019344595
 30
0.0
 11
-156.3750074657057
 21
-84.27347727578939
 31
0.0
 70
    32
  1
<>
 71
     5
 42
-1.0
 53
90.0
  3
ME10_DIM_10
100
AcDbAlignedDimension
 13
-149.7500074657057
 23
-92.15000019344593
 33
0.0
 14
-149.7500074657057
 24
-76.15000019344593
 34
0.0
 50
90.0
100
AcDbRotatedDimension
  0
ENDBLK
  5
54
330
51
100
AcDbEntity
  8
0
100
AcDbBlockEnd
  0
BLOCK
  5
56
330
55
100
AcDbEntity
  8
0
100
AcDbBlockBegin
  2
ZB_16-PROFIL-SELECT__3
 70
     0
 10
-104.1500012845977
 20
-56.09999786767908
 30
0.0
  3
ZB_16-PROFIL-SELECT__3
  1

  0
LINE
  5
B7
330
55
100
AcDbEntity
  8
0
  6
Continuous
 62
     7
100
AcDbLine
 10
-100.9453053802822
 20
-56.09999786767908
 30
0.0
 11
-100.1146628837423
 21
-52.99999786767884
 31
0.0
  0
LINE
  5
B8
330
55
100
AcDbEntity
  8
0
  6
Continuous
 62
     7
100
AcDbLine
 10
-101.7250012845977
 20
-56.09999786767905
 30
0.0
 11
-100.9453053802822
 21
-56.09999786767908
 31
0.0
  0
LINE
  5
B9
330
55
100
AcDbEntity
  8
0
  6
Continuous
 62
     7
100
AcDbLine
 10
-96.39795305505618
 20
-55.09999786767905
 30
0.0
 11
-96.07500128459787
 21
-55.09999786767905
 31
0.0
  0
LINE
  5
BA
330
55
100
AcDbEntity
  8
0
  6
Continuous
 62
     7
100
AcDbLine
 10
-96.85469718891329
 20
-56.09999786767905
 30
0.0
 11
-96.07500128459787
 21
-56.09999786767905
 31
0.0
  0
LINE
  5
BB
330
55
100
AcDbEntity
  8
0
  6
Continuous
 62
     7
100
AcDbLine
 10
-93.65000128459766
 20
-51.89999786767885
 30
0.0
 11
-104.1500012845977
 21
-51.89999786767885
 31
0.0
  0
LINE
  5
BC
330
55
100
AcDbEntity
  8
0
  6
Continuous
 62
     7
100
AcDbLine
 10
-93.65000128459766
 20
-52.99999786767884
 30
0.0
 11
-93.65000128459766
 21
-51.89999786767885
 31
0.0
  0
LINE
  5
BD
330
55
100
AcDbEntity
  8
0
  6
Continuous
 62
     7
100
AcDbLine
 10
-96.96064635916758
 20
-52.99999786767884
 30
0.0
 11
-93.65000128459766
 21
-52.99999786767884
 31
0.0
  0
LINE
  5
BE
330
55
100
AcDbEntity
  8
0
  6
Continuous
 62
     7
100
AcDbLine
 10
-96.96064635916758
 20
-52.99999786767884
 30
0.0
 11
-96.39795305505618
 21
-55.09999786767905
 31
0.0
  0
LINE
  5
BF
330
55
100
AcDbEntity
  8
0
  6
Continuous
 62
     7
100
AcDbLine
 10
-104.1500012845977
 20
-51.89999786767885
 30
0.0
 11
-104.1500012845977
 21
-52.99999786767884
 31
0.0
  0
LINE
  5
C0
330
55
100
AcDbEntity
  8
0
  6
Continuous
 62
     7
100
AcDbLine
 10
-101.7250012845977
 20
-55.09999786767905
 30
0.0
 11
-101.4020495141401
 21
-55.09999786767907
 31
0.0
  0
LINE
  5
C1
330
55
100
AcDbEntity
  8
0
  6
Continuous
 62
     7
100
AcDbLine
 10
-104.1500012845977
 20
-52.99999786767884
 30
0.0
 11
-100.8393562100293
 21
-52.99999786767884
 31
0.0
  0
LINE
  5
C2
330
55
100
AcDbEntity
  8
0
  6
Continuous
 62
     7
100
AcDbLine
 10
-100.8393562100293
 20
-52.99999786767884
 30
0.0
 11
-101.4020495141401
 21
-55.09999786767907
 31
0.0
  0
LINE
  5
C3
330
55
100
AcDbEntity
  8
0
  6
Continuous
 62
     7
100
AcDbLine
 10
-100.1146628837423
 20
-52.99999786767884
 30
0.0
 11
-97.68533968545484
 21
-52.99999786767884
 31
0.0
  0
LINE
  5
C4
330
55
100
AcDbEntity
  8
0
  6
Continuous
 62
     7
100
AcDbLine
 10
-97.68533968545484
 20
-52.99999786767884
 30
0.0
 11
-96.85469718891329
 21
-56.09999786767905
 31
0.0
  0
ARC
  5
C5
330
55
100
AcDbEntity
  8
0
  6
Continuous
 62
     7
100
AcDbCircle
 10
-101.7250012845977
 20
-55.59999786767905
 30
0.0
 40
0.5
100
AcDbArc
 50
90.0
 51
270.0
  0
ARC
  5
C6
330
55
100
AcDbEntity
  8
0
  6
Continuous
 62
     7
100
AcDbCircle
 10
-96.07500128459787
 20
-55.59999786767905
 30
0.0
 40
0.5
100
AcDbArc
 50
270.0
 51
90.0
  0
ENDBLK
  5
57
330
55
100
AcDbEntity
  8
0
100
AcDbBlockEnd
  0
BLOCK
  5
5A
330
58
100
AcDbEntity
  8
0
100
AcDbBlockBegin
  2
Rckans1
 70
     0
 10
-98.90000692840124
 20
-54.0
 30
0.0
  3
Rckans1
  1

  0
INSERT
  5
59
330
58
100
AcDbEntity
  8
0
100
AcDbBlockReference
  2
ZB_16-PROFIL-SELECT__3
 10
-104.1500012845977
 20
-56.09999786767908
 30
0.0
  0
MTEXT
  5
C7
330
58
100
AcDbEntity
  8
1
 62
     6
100
AcDbMText
 10
-98.90000692840124
 20
-58.59999847412109
 30
0.0
 40
2.5
 41
0.0
 71
     2
 72
     1
  1
 
  7
CONVERTER_11
 73
     1
 44
1.32052821128451
  0
ENDBLK
  5
5B
330
58
100
AcDbEntity
  8
0
100
AcDbBlockEnd
  0
BLOCK
  5
5D
330
5C
100
AcDbEntity
  8
0
100
AcDbBlockBegin
  2
ZB_16-PROFIL-SELECT__4
 70
     0
 10
-129.7000041844217
 20
-56.09999786767908
 30
0.0
  3
ZB_16-PROFIL-SELECT__4
  1

  0
LINE
  5
C8
330
5C
100
AcDbEntity
  8
0
  6
Continuous
 62
     7
100
AcDbLine
 10
-113.7000041844217
 20
-55.09999786767905
 30
0.0
 11
-129.7000041844217
 21
-55.09999786767905
 31
0.0
  0
LINE
  5
C9
330
5C
100
AcDbEntity
  8
0
  6
Continuous
 62
     7
100
AcDbLine
 10
-113.7000041844217
 20
-56.09999786767907
 30
0.0
 11
-129.7000041844217
 21
-56.09999786767908
 31
0.0
  0
LINE
  5
CA
330
5C
100
AcDbEntity
  8
0
  6
Continuous
 62
     7
100
AcDbLine
 10
-129.7000041844217
 20
-56.09999786767908
 30
0.0
 11
-129.7000041844217
 21
-55.09999786767905
 31
0.0
  0
LINE
  5
CB
330
5C
100
AcDbEntity
  8
0
  6
Continuous
 62
     7
100
AcDbLine
 10
-113.7000041844217
 20
-56.09999786767907
 30
0.0
 11
-113.7000041844217
 21
-55.09999786767905
 31
0.0
  0
LINE
  5
CC
330
5C
100
AcDbEntity
  8
0
  6
Continuous
 62
     7
100
AcDbLine
 10
-113.7000041844217
 20
-52.99999786767884
 30
0.0
 11
-129.7000041844217
 21
-52.99999786767884
 31
0.0
  0
LINE
  5
CD
330
5C
100
AcDbEntity
  8
0
  6
Continuous
 62
     7
100
AcDbLine
 10
-129.7000041844217
 20
-52.99999786767884
 30
0.0
 11
-129.7000041844217
 21
-51.89999786767885
 31
0.0
  0
LINE
  5
CE
330
5C
100
AcDbEntity
  8
0
  6
Continuous
 62
     7
100
AcDbLine
 10
-129.7000041844217
 20
-52.99999786767884
 30
0.0
 11
-129.7000041844217
 21
-55.09999786767905
 31
0.0
  0
LINE
  5
CF
330
5C
100
AcDbEntity
  8
0
  6
Continuous
 62
     7
100
AcDbLine
 10
-113.7000041844217
 20
-52.99999786767884
 30
0.0
 11
-113.7000041844217
 21
-51.89999786767885
 31
0.0
  0
LINE
  5
D0
330
5C
100
AcDbEntity
  8
0
  6
Continuous
 62
     7
100
AcDbLine
 10
-113.7000041844217
 20
-52.99999786767884
 30
0.0
 11
-113.7000041844217
 21
-55.09999786767905
 31
0.0
  0
LINE
  5
D1
330
5C
100
AcDbEntity
  8
0
  6
Continuous
 62
     7
100
AcDbLine
 10
-129.7000041844217
 20
-51.89999786767885
 30
0.0
 11
-113.7000041844217
 21
-51.89999786767885
 31
0.0
  0
ENDBLK
  5
5E
330
5C
100
AcDbEntity
  8
0
100
AcDbBlockEnd
  0
BLOCK
  5
61
330
5F
100
AcDbEntity
  8
0
100
AcDbBlockBegin
  2
SA_Links1
 70
     0
 10
-121.7000043751516
 20
-54.0
 30
0.0
  3
SA_Links1
  1

  0
INSERT
  5
60
330
5F
100
AcDbEntity
  8
0
100
AcDbBlockReference
  2
ZB_16-PROFIL-SELECT__4
 10
-129.7000041844217
 20
-56.09999786767908
 30
0.0
  0
MTEXT
  5
D2
330
5F
100
AcDbEntity
  8
1
 62
     6
100
AcDbMText
 10
-121.7000043751516
 20
-58.59999847412109
 30
0.0
 40
2.5
 41
0.0
 71
     2
 72
     1
  1
 
  7
CONVERTER_11
 73
     1
 44
1.32052821128451
  0
ENDBLK
  5
62
330
5F
100
AcDbEntity
  8
0
100
AcDbBlockEnd
  0
BLOCK
  5
64
330
63
100
AcDbEntity
  8
0
100
AcDbBlockBegin
  2
ZB_16-PROFIL-SELECT__5
 70
     0
 10
-179.2999994593822
 20
-56.09999786767909
 30
0.0
  3
ZB_16-PROFIL-SELECT__5
  1

  0
LINE
  5
D3
330
63
100
AcDbEntity
  8
0
  6
Continuous
 62
     7
100
AcDbLine
 10
-179.2999994593822
 20
-55.09999786767915
 30
0.0
 11
-163.2999994593822
 21
-55.09999786767911
 31
0.0
  0
LINE
  5
D4
330
63
100
AcDbEntity
  8
0
  6
Continuous
 62
     7
100
AcDbLine
 10
-179.2999994593822
 20
-51.89999786767889
 30
0.0
 11
-163.2999994593822
 21
-51.89999786767889
 31
0.0
  0
LINE
  5
D5
330
63
100
AcDbEntity
  8
0
  6
Continuous
 62
     7
100
AcDbLine
 10
-163.2999994593822
 20
-51.89999786767889
 30
0.0
 11
-163.2999994593822
 21
-52.99999786767889
 31
0.0
  0
LINE
  5
D6
330
63
100
AcDbEntity
  8
0
  6
Continuous
 62
     7
100
AcDbLine
 10
-163.2999994593822
 20
-52.99999786767889
 30
0.0
 11
-179.2999994593822
 21
-52.99999786767889
 31
0.0
  0
LINE
  5
D7
330
63
100
AcDbEntity
  8
0
  6
Continuous
 62
     7
100
AcDbLine
 10
-179.2999994593822
 20
-51.89999786767889
 30
0.0
 11
-179.2999994593822
 21
-52.99999786767889
 31
0.0
  0
LINE
  5
D8
330
63
100
AcDbEntity
  8
0
  6
Continuous
 62
     7
100
AcDbLine
 10
-163.2999994593822
 20
-55.09999786767911
 30
0.0
 11
-163.2999994593822
 21
-56.09999786767909
 31
0.0
  0
LINE
  5
D9
330
63
100
AcDbEntity
  8
0
  6
Continuous
 62
     7
100
AcDbLine
 10
-163.2999994593822
 20
-52.99999786767889
 30
0.0
 11
-163.2999994593822
 21
-55.09999786767911
 31
0.0
  0
LINE
  5
DA
330
63
100
AcDbEntity
  8
0
  6
Continuous
 62
     7
100
AcDbLine
 10
-179.2999994593822
 20
-55.09999786767915
 30
0.0
 11
-179.2999994593822
 21
-56.09999786767909
 31
0.0
  0
LINE
  5
DB
330
63
100
AcDbEntity
  8
0
  6
Continuous
 62
     7
100
AcDbLine
 10
-179.2999994593822
 20
-52.99999786767889
 30
0.0
 11
-179.2999994593822
 21
-55.09999786767915
 31
0.0
  0
LINE
  5
DC
330
63
100
AcDbEntity
  8
0
  6
Continuous
 62
     7
100
AcDbLine
 10
-163.2999994593822
 20
-56.09999786767909
 30
0.0
 11
-179.2999994593822
 21
-56.09999786767909
 31
0.0
  0
ENDBLK
  5
65
330
63
100
AcDbEntity
  8
0
100
AcDbBlockEnd
  0
BLOCK
  5
68
330
66
100
AcDbEntity
  8
0
100
AcDbBlockBegin
  2
SA_Rechts1
 70
     0
 10
-171.2999992686523
 20
-54.00000000000004
 30
0.0
  3
SA_Rechts1
  1

  0
INSERT
  5
67
330
66
100
AcDbEntity
  8
0
100
AcDbBlockReference
  2
ZB_16-PROFIL-SELECT__5
 10
-179.2999994593822
 20
-56.09999786767909
 30
0.0
  0
MTEXT
  5
DD
330
66
100
AcDbEntity
  8
1
 62
     6
100
AcDbMText
 10
-171.2999992686523
 20
-58.59999847412109
 30
0.0
 40
2.5
 41
0.0
 71
     2
 72
     1
  1
 
  7
CONVERTER_11
 73
     1
 44
1.32052821128451
  0
ENDBLK
  5
69
330
66
100
AcDbEntity
  8
0
100
AcDbBlockEnd
  0
BLOCK
  5
6B
330
6A
100
AcDbEntity
  8
0
100
AcDbBlockBegin
  2
ZB_16-PROFIL-SELECT__6
 70
     0
 10
-149.7500074657056
 20
-56.09999786767911
 30
0.0
  3
ZB_16-PROFIL-SELECT__6
  1

  0
LINE
  5
DE
330
6A
100
AcDbEntity
  8
0
  6
Continuous
 62
     7
100
AcDbLine
 10
-139.2500074657056
 20
-52.99999786767889
 30
0.0
 11
-142.5606525402739
 21
-52.99999786767889
 31
0.0
  0
LINE
  5
DF
330
6A
100
AcDbEntity
  8
0
  6
Continuous
 62
     7
100
AcDbLine
 10
-143.285345866561
 20
-52.9999978676789
 30
0.0
 11
-145.7146690648484
 21
-52.99999786767889
 31
0.0
  0
LINE
  5
E0
330
6A
100
AcDbEntity
  8
0
  6
Continuous
 62
     7
100
AcDbLine
 10
-146.4393623911357
 20
-52.99999786767889
 30
0.0
 11
-149.7500074657056
 21
-52.99999786767889
 31
0.0
  0
LINE
  5
E1
330
6A
100
AcDbEntity
  8
0
  6
Continuous
 62
     7
100
AcDbLine
 10
-149.7500074657056
 20
-52.99999786767889
 30
0.0
 11
-149.7500074657056
 21
-51.89999786767889
 31
0.0
  0
LINE
  5
E2
330
6A
100
AcDbEntity
  8
0
  6
Continuous
 62
     7
100
AcDbLine
 10
-149.7500074657056
 20
-51.89999786767889
 30
0.0
 11
-139.2500074657056
 21
-51.89999786767889
 31
0.0
  0
LINE
  5
E3
330
6A
100
AcDbEntity
  8
0
  6
Continuous
 62
     7
100
AcDbLine
 10
-139.2500074657056
 20
-51.89999786767889
 30
0.0
 11
-139.2500074657056
 21
-52.99999786767889
 31
0.0
  0
LINE
  5
E4
330
6A
100
AcDbEntity
  8
0
  6
Continuous
 62
     7
100
AcDbLine
 10
-142.5606525402739
 20
-52.99999786767889
 30
0.0
 11
-141.9979592361632
 21
-55.09999786767915
 31
0.0
  0
LINE
  5
E5
330
6A
100
AcDbEntity
  8
0
  6
Continuous
 62
     7
100
AcDbLine
 10
-142.454703370021
 20
-56.09999786767911
 30
0.0
 11
-143.285345866561
 21
-52.9999978676789
 31
0.0
  0
LINE
  5
E6
330
6A
100
AcDbEntity
  8
0
  6
Continuous
 62
     7
100
AcDbLine
 10
-146.54531156139
 20
-56.09999786767909
 30
0.0
 11
-147.3250074657054
 21
-56.09999786767909
 31
0.0
  0
LINE
  5
E7
330
6A
100
AcDbEntity
  8
0
  6
Continuous
 62
     7
100
AcDbLine
 10
-146.4393623911357
 20
-52.99999786767889
 30
0.0
 11
-147.0020556952471
 21
-55.09999786767909
 31
0.0
  0
LINE
  5
E8
330
6A
100
AcDbEntity
  8
0
  6
Continuous
 62
     7
100
AcDbLine
 10
-141.6750074657056
 20
-55.09999786767909
 30
0.0
 11
-141.9979592361632
 21
-55.09999786767915
 31
0.0
  0
LINE
  5
E9
330
6A
100
AcDbEntity
  8
0
  6
Continuous
 62
     7
100
AcDbLine
 10
-147.0020556952471
 20
-55.09999786767909
 30
0.0
 11
-147.3250074657054
 21
-55.09999786767909
 31
0.0
  0
LINE
  5
EA
330
6A
100
AcDbEntity
  8
0
  6
Continuous
 62
     7
100
AcDbLine
 10
-141.6750074657056
 20
-56.09999786767909
 30
0.0
 11
-142.454703370021
 21
-56.09999786767911
 31
0.0
  0
LINE
  5
EB
330
6A
100
AcDbEntity
  8
0
  6
Continuous
 62
     7
100
AcDbLine
 10
-145.7146690648484
 20
-52.99999786767889
 30
0.0
 11
-146.54531156139
 21
-56.09999786767909
 31
0.0
  0
ARC
  5
EC
330
6A
100
AcDbEntity
  8
0
  6
Continuous
 62
     7
100
AcDbCircle
 10
-147.3250074657054
 20
-55.59999786767909
 30
0.0
 40
0.5
100
AcDbArc
 50
90.0
 51
270.0
  0
ARC
  5
ED
330
6A
100
AcDbEntity
  8
0
  6
Continuous
 62
     7
100
AcDbCircle
 10
-141.6750074657056
 20
-55.59999786767909
 30
0.0
 40
0.5
100
AcDbArc
 50
270.0
 51
90.0
  0
ENDBLK
  5
6C
330
6A
100
AcDbEntity
  8
0
100
AcDbBlockEnd
  0
BLOCK
  5
6F
330
6D
100
AcDbEntity
  8
0
100
AcDbBlockBegin
  2
Vordans1
 70
     0
 10
-144.500001821902
 20
-54.00000000000004
 30
0.0
  3
Vordans1
  1

  0
INSERT
  5
6E
330
6D
100
AcDbEntity
  8
0
100
AcDbBlockReference
  2
ZB_16-PROFIL-SELECT__6
 10
-149.7500074657056
 20
-56.09999786767911
 30
0.0
  0
MTEXT
  5
EE
330
6D
100
AcDbEntity
  8
1
 62
     6
100
AcDbMText
 10
-144.500001821902
 20
-58.59999847412109
 30
0.0
 40
2.5
 41
0.0
 71
     2
 72
     1
  1
 
  7
CONVERTER_11
 73
     1
 44
1.32052821128451
  0
DIMENSION
  5
FB
330
6D
100
AcDbEntity
  8
1
100
AcDbDimension
  2
*D18
 10
-155.0350430392082
 20
-51.89999786767888
 30
0.0
 11
-156.7475430392082
 21
-53.36631818218589
 31
0.0
 70
    32
  1
<>
 71
     5
 42
-1.0
 53
90.0
  3
ME10_DIM_11
100
AcDbAlignedDimension
 13
-146.54531156139
 23
-56.09999786767909
 33
0.0
 14
-149.7500074657056
 24
-51.89999786767889
 34
0.0
 50
90.0
100
AcDbRotatedDimension
  0
DIMENSION
  5
106
330
6D
100
AcDbEntity
  8
1
100
AcDbDimension
  2
*D19
 10
-149.7500074657056
 20
-62.10433092754253
 30
0.0
 11
-144.791666850792
 21
-60.39183092754253
 31
0.0
 70
    33
  1
<>
 71
     5
 42
-1.0
 53
0.00013888888889
  3
ME10_DIM_12
100
AcDbAlignedDimension
 13
-139.2500074657056
 23
-52.99999786767889
 33
0.0
 14
-149.7500074657056
 24
-52.99999786767889
 34
0.0
  0
ENDBLK
  5
70
330
6D
100
AcDbEntity
  8
0
100
AcDbBlockEnd
  0
BLOCK
  5
72
330
71
100
AcDbEntity
  8
0
100
AcDbBlockBegin
  2
_rahmen
 70
     0
 10
-116.2183281187329
 20
-257.359278140911
 30
0.0
  3
_rahmen
  1

  0
LINE
  5
107
330
71
100
AcDbEntity
  8
1
  6
Continuous
 62
     6
100
AcDbLine
 10
-245.763132645483
 20
-226.8592781409109
 30
0.0
 11
-116.2183281187313
 21
-226.8592781409109
 31
0.0
  0
LINE
  5
108
330
71
100
AcDbEntity
  8
1
  6
Continuous
 62
     7
100
AcDbLine
 10
-227.5631326454829
 20
-248.1092781409109
 30
0.0
 11
-209.363132645483
 21
-248.1092781409109
 31
0.0
  0
LINE
  5
109
330
71
100
AcDbEntity
  8
1
  6
Continuous
 62
     6
100
AcDbLine
 10
-227.5631326454829
 20
-252.3592781409109
 30
0.0
 11
-245.763132645483
 21
-252.359278140911
 31
0.0
  0
LINE
  5
10A
330
71
100
AcDbEntity
  8
1
  6
Continuous
 62
     7
100
AcDbLine
 10
-227.5631326454829
 20
-248.1092781409109
 30
0.0
 11
-227.5631326454829
 21
-252.3592781409109
 31
0.0
  0
LINE
  5
10B
330
71
100
AcDbEntity
  8
1
  6
Continuous
 62
     7
100
AcDbLine
 10
-209.363132645483
 20
-248.1092781409109
 30
0.0
 11
-209.363132645483
 21
-252.359278140911
 31
0.0
  0
LINE
  5
10C
330
71
100
AcDbEntity
  8
1
  6
Continuous
 62
     7
100
AcDbLine
 10
-245.763132645483
 20
-248.109278140911
 30
0.0
 11
-245.763132645483
 21
-252.359278140911
 31
0.0
  0
LINE
  5
10D
330
71
100
AcDbEntity
  8
1
  6
Continuous
 62
     7
100
AcDbLine
 10
-245.763132645483
 20
-248.109278140911
 30
0.0
 11
-227.5631326454829
 21
-248.1092781409109
 31
0.0
  0
LINE
  5
10E
330
71
100
AcDbEntity
  8
1
  6
Continuous
 62
     2
100
AcDbLine
 10
-236.5264777589204
 20
-228.734278140911
 30
0.0
 11
-236.5264777589204
 21
-233.734278140911
 31
0.0
  0
LINE
  5
10F
330
71
100
AcDbEntity
  8
1
  6
Continuous
 62
     2
100
AcDbLine
 10
-236.5264777589204
 20
-233.734278140911
 30
0.0
 11
-241.5264777589204
 21
-232.484278140911
 31
0.0
  0
LINE
  5
110
330
71
100
AcDbEntity
  8
1
  6
Continuous
 62
     2
100
AcDbLine
 10
-241.5264777589204
 20
-232.484278140911
 30
0.0
 11
-241.5264777589204
 21
-229.984278140911
 31
0.0
  0
LINE
  5
111
330
71
100
AcDbEntity
  8
1
  6
Continuous
 62
     2
100
AcDbLine
 10
-241.5264777589204
 20
-229.984278140911
 30
0.0
 11
-236.5264777589204
 21
-228.734278140911
 31
0.0
  0
LINE
  5
112
330
71
100
AcDbEntity
  8
1
  6
Continuous
 62
     6
100
AcDbLine
 10
-368.2183281187312
 20
-252.3592781409109
 30
0.0
 11
-403.2183281187311
 21
-252.3592781409109
 31
0.0
  0
LINE
  5
113
330
71
100
AcDbEntity
  8
1
  6
Continuous
 62
     6
100
AcDbLine
 10
-116.2183281187313
 20
-235.3592781409109
 30
0.0
 11
-116.2183281187317
 21
-243.8592781409109
 31
0.0
  0
LINE
  5
114
330
71
100
AcDbEntity
  8
1
  6
Continuous
 62
     6
100
AcDbLine
 10
-209.363132645483
 20
-252.359278140911
 30
0.0
 11
-209.718328118733
 21
-252.3592781409109
 31
0.0
  0
LINE
  5
115
330
71
100
AcDbEntity
  8
1
  6
Continuous
 62
     6
100
AcDbLine
 10
-362.0183281187332
 20
-252.359278140911
 30
0.0
 11
-368.2183281187312
 21
-252.3592781409109
 31
0.0
  0
LINE
  5
116
330
71
100
AcDbEntity
  8
1
  6
Continuous
 62
     7
100
AcDbLine
 10
-209.363132645483
 20
-235.3592781409109
 30
0.0
 11
-209.363132645483
 21
-248.1092781409109
 31
0.0
  0
LINE
  5
117
330
71
100
AcDbEntity
  8
1
  6
Continuous
 62
     7
100
AcDbLine
 10
-245.763132645483
 20
-235.3592781409109
 30
0.0
 11
-245.763132645483
 21
-248.109278140911
 31
0.0
  0
LINE
  5
118
330
71
100
AcDbEntity
  8
1
  6
Continuous
 62
     6
100
AcDbLine
 10
-259.7183281187329
 20
-252.3592781409109
 30
0.0
 11
-309.7183281187332
 21
-252.3592781409109
 31
0.0
  0
LINE
  5
119
330
71
100
AcDbEntity
  8
1
  6
Continuous
 62
     6
100
AcDbLine
 10
-362.0183281187332
 20
-252.359278140911
 30
0.0
 11
-359.7183281187329
 21
-252.3592781409109
 31
0.0
  0
LINE
  5
11A
330
71
100
AcDbEntity
  8
1
  6
Continuous
 62
     6
100
AcDbLine
 10
-209.363132645483
 20
-252.359278140911
 30
0.0
 11
-159.718328118733
 21
-252.3592781409109
 31
0.0
  0
LINE
  5
11B
330
71
100
AcDbEntity
  8
1
  6
Continuous
 62
     6
100
AcDbLine
 10
-116.2183281187329
 20
-252.3592781409109
 30
0.0
 11
-116.2183281187317
 21
-243.8592781409109
 31
0.0
  0
LINE
  5
11C
330
71
100
AcDbEntity
  8
1
  6
Continuous
 62
     2
100
AcDbLine
 10
-408.218328118732
 20
-252.3592781409109
 30
0.0
 11
-408.218328118732
 21
-257.359278140911
 31
0.0
  0
LINE
  5
11D
330
71
100
AcDbEntity
  8
1
  6
Continuous
 62
     2
100
AcDbLine
 10
-403.2183281187311
 20
-252.3592781409109
 30
0.0
 11
-408.218328118732
 21
-252.3592781409109
 31
0.0
  0
LINE
  5
11E
330
71
100
AcDbEntity
  8
1
  6
Continuous
 62
     2
100
AcDbLine
 10
-403.2183281187311
 20
-257.359278140911
 30
0.0
 11
-359.7183281187329
 21
-257.359278140911
 31
0.0
  0
LINE
  5
11F
330
71
100
AcDbEntity
  8
1
  6
Continuous
 62
     2
100
AcDbLine
 10
-403.2183281187311
 20
-252.3592781409109
 30
0.0
 11
-403.2183281187311
 21
-257.359278140911
 31
0.0
  0
LINE
  5
120
330
71
100
AcDbEntity
  8
1
  6
Continuous
 62
     2
100
AcDbLine
 10
-159.718328118733
 20
-257.359278140911
 30
0.0
 11
-209.718328118733
 21
-257.359278140911
 31
0.0
  0
LINE
  5
121
330
71
100
AcDbEntity
  8
1
  6
Continuous
 62
     2
100
AcDbLine
 10
-159.718328118733
 20
-257.359278140911
 30
0.0
 11
-159.718328118733
 21
-252.3592781409109
 31
0.0
  0
LINE
  5
122
330
71
100
AcDbEntity
  8
1
  6
Continuous
 62
     2
100
AcDbLine
 10
-209.718328118733
 20
-257.359278140911
 30
0.0
 11
-209.718328118733
 21
-252.3592781409109
 31
0.0
  0
LINE
  5
123
330
71
100
AcDbEntity
  8
1
  6
Continuous
 62
     2
100
AcDbLine
 10
-259.7183281187329
 20
-257.359278140911
 30
0.0
 11
-209.718328118733
 21
-257.359278140911
 31
0.0
  0
LINE
  5
124
330
71
100
AcDbEntity
  8
1
  6
Continuous
 62
     2
100
AcDbLine
 10
-259.7183281187329
 20
-257.359278140911
 30
0.0
 11
-259.7183281187329
 21
-252.3592781409109
 31
0.0
  0
LINE
  5
125
330
71
100
AcDbEntity
  8
1
  6
Continuous
 62
     2
100
AcDbLine
 10
-309.7183281187332
 20
-257.359278140911
 30
0.0
 11
-259.7183281187329
 21
-257.359278140911
 31
0.0
  0
LINE
  5
126
330
71
100
AcDbEntity
  8
1
  6
Continuous
 62
     2
100
AcDbLine
 10
-309.7183281187332
 20
-257.359278140911
 30
0.0
 11
-309.7183281187332
 21
-252.3592781409109
 31
0.0
  0
LINE
  5
127
330
71
100
AcDbEntity
  8
1
  6
Continuous
 62
     2
100
AcDbLine
 10
-359.7183281187329
 20
-257.359278140911
 30
0.0
 11
-309.7183281187332
 21
-257.359278140911
 31
0.0
  0
LINE
  5
128
330
71
100
AcDbEntity
  8
1
  6
Continuous
 62
     2
100
AcDbLine
 10
-359.7183281187329
 20
-257.359278140911
 30
0.0
 11
-359.7183281187329
 21
-252.3592781409109
 31
0.0
  0
LINE
  5
129
330
71
100
AcDbEntity
  8
1
  6
Continuous
 62
     6
100
AcDbLine
 10
-403.2183281187312
 20
-202.3592781409108
 30
0.0
 11
-403.2183281187311
 21
-252.3592781409109
 31
0.0
  0
LINE
  5
12A
330
71
100
AcDbEntity
  8
1
  6
Continuous
 62
     2
100
AcDbLine
 10
-408.218328118732
 20
-202.3592781409108
 30
0.0
 11
-408.218328118732
 21
-252.3592781409109
 31
0.0
  0
LINE
  5
12B
330
71
100
AcDbEntity
  8
1
  6
Continuous
 62
     2
100
AcDbLine
 10
-408.218328118732
 20
-202.3592781409108
 30
0.0
 11
-403.2183281187312
 21
-202.3592781409108
 31
0.0
  0
LINE
  5
12C
330
71
100
AcDbEntity
  8
1
  6
Continuous
 62
     6
100
AcDbLine
 10
-403.2183281187315
 20
-152.359278140911
 30
0.0
 11
-403.2183281187312
 21
-202.3592781409108
 31
0.0
  0
LINE
  5
12D
330
71
100
AcDbEntity
  8
1
  6
Continuous
 62
     2
100
AcDbLine
 10
-408.218328118732
 20
-152.359278140911
 30
0.0
 11
-408.218328118732
 21
-202.3592781409108
 31
0.0
  0
LINE
  5
12E
330
71
100
AcDbEntity
  8
1
  6
Continuous
 62
     2
100
AcDbLine
 10
-408.218328118732
 20
-152.359278140911
 30
0.0
 11
-403.2183281187315
 21
-152.359278140911
 31
0.0
  0
LINE
  5
12F
330
71
100
AcDbEntity
  8
1
  6
Continuous
 62
     6
100
AcDbLine
 10
-403.218328118732
 20
-102.3592781409109
 30
0.0
 11
-403.2183281187315
 21
-152.359278140911
 31
0.0
  0
LINE
  5
130
330
71
100
AcDbEntity
  8
1
  6
Continuous
 62
     2
100
AcDbLine
 10
-408.218328118732
 20
-102.3592781409109
 30
0.0
 11
-408.218328118732
 21
-152.359278140911
 31
0.0
  0
LINE
  5
131
330
71
100
AcDbEntity
  8
1
  6
Continuous
 62
     2
100
AcDbLine
 10
-408.218328118732
 20
-102.3592781409109
 30
0.0
 11
-403.218328118732
 21
-102.3592781409109
 31
0.0
  0
LINE
  5
132
330
71
100
AcDbEntity
  8
1
  6
Continuous
 62
     6
100
AcDbLine
 10
-403.218328118732
 20
-67.35927814091093
 30
0.0
 11
-403.218328118732
 21
-102.3592781409109
 31
0.0
  0
LINE
  5
133
330
71
100
AcDbEntity
  8
1
  6
Continuous
 62
     2
100
AcDbLine
 10
-408.218328118732
 20
-47.35927814091093
 30
0.0
 11
-408.218328118732
 21
-102.3592781409109
 31
0.0
  0
LINE
  5
134
330
71
100
AcDbEntity
  8
1
  6
Continuous
 62
     2
100
AcDbLine
 10
-408.218328118732
 20
-257.359278140911
 30
0.0
 11
-403.2183281187311
 21
-257.359278140911
 31
0.0
  0
LINE
  5
135
330
71
100
AcDbEntity
  8
1
  6
Continuous
 62
     2
100
AcDbLine
 10
-259.7183281187329
 20
-47.35927814091093
 30
0.0
 11
-259.7183281187329
 21
-56.56796998561225
 31
0.0
  0
LINE
  5
136
330
71
100
AcDbEntity
  8
1
  6
Continuous
 62
     2
100
AcDbLine
 10
-259.7183281187329
 20
-47.35927814091093
 30
0.0
 11
-408.218328118732
 21
-47.35927814091093
 31
0.0
  0
LINE
  5
137
330
71
100
AcDbEntity
  8
1
  6
Continuous
 62
     2
100
AcDbLine
 10
-111.218328118734
 20
-252.3592781409109
 30
0.0
 11
-111.218328118734
 21
-202.3592781409108
 31
0.0
  0
LINE
  5
138
330
71
100
AcDbEntity
  8
1
  6
Continuous
 62
     2
100
AcDbLine
 10
-111.218328118734
 20
-102.3592781409109
 30
0.0
 11
-111.218328118734
 21
-47.35927814091093
 31
0.0
  0
LINE
  5
139
330
71
100
AcDbEntity
  8
1
  6
Continuous
 62
     6
100
AcDbLine
 10
-116.2183281187338
 20
-102.3592781409109
 30
0.0
 11
-116.218328118734
 21
-67.35927814091093
 31
0.0
  0
LINE
  5
13A
330
71
100
AcDbEntity
  8
1
  6
Continuous
 62
     2
100
AcDbLine
 10
-116.2183281187338
 20
-102.3592781409109
 30
0.0
 11
-111.218328118734
 21
-102.3592781409109
 31
0.0
  0
LINE
  5
13B
330
71
100
AcDbEntity
  8
1
  6
Continuous
 62
     2
100
AcDbLine
 10
-111.218328118734
 20
-152.359278140911
 30
0.0
 11
-111.218328118734
 21
-102.3592781409109
 31
0.0
  0
LINE
  5
13C
330
71
100
AcDbEntity
  8
1
  6
Continuous
 62
     6
100
AcDbLine
 10
-116.2183281187325
 20
-152.359278140911
 30
0.0
 11
-116.2183281187338
 21
-102.3592781409109
 31
0.0
  0
LINE
  5
13D
330
71
100
AcDbEntity
  8
1
  6
Continuous
 62
     2
100
AcDbLine
 10
-116.2183281187325
 20
-152.359278140911
 30
0.0
 11
-111.218328118734
 21
-152.359278140911
 31
0.0
  0
LINE
  5
13E
330
71
100
AcDbEntity
  8
1
  6
Continuous
 62
     2
100
AcDbLine
 10
-111.218328118734
 20
-202.3592781409108
 30
0.0
 11
-111.218328118734
 21
-152.359278140911
 31
0.0
  0
LINE
  5
13F
330
71
100
AcDbEntity
  8
1
  6
Continuous
 62
     6
100
AcDbLine
 10
-116.2183281187321
 20
-202.3592781409108
 30
0.0
 11
-116.2183281187325
 21
-152.359278140911
 31
0.0
  0
LINE
  5
140
330
71
100
AcDbEntity
  8
1
  6
Continuous
 62
     2
100
AcDbLine
 10
-116.2183281187321
 20
-202.3592781409108
 30
0.0
 11
-111.218328118734
 21
-202.3592781409108
 31
0.0
  0
LINE
  5
141
330
71
100
AcDbEntity
  8
1
  6
Continuous
 62
     6
100
AcDbLine
 10
-116.218328118734
 20
-67.35927814091093
 30
0.0
 11
-403.218328118732
 21
-67.35927814091093
 31
0.0
  0
LINE
  5
142
330
71
100
AcDbEntity
  8
1
  6
Continuous
 62
     2
100
AcDbLine
 10
-111.218328118734
 20
-47.35927814091093
 30
0.0
 11
-259.7183281187329
 21
-47.35927814091093
 31
0.0
  0
LINE
  5
143
330
71
100
AcDbEntity
  8
1
  6
Continuous
 62
     6
100
AcDbLine
 10
-116.2183281187313
 20
-235.3592781409109
 30
0.0
 11
-116.2183281187321
 21
-202.3592781409108
 31
0.0
  0
LINE
  5
144
330
71
100
AcDbEntity
  8
1
  6
Continuous
 62
     2
100
AcDbLine
 10
-116.2183281187329
 20
-257.359278140911
 30
0.0
 11
-159.718328118733
 21
-257.359278140911
 31
0.0
  0
LINE
  5
145
330
71
100
AcDbEntity
  8
1
  6
Continuous
 62
     2
100
AcDbLine
 10
-111.218328118734
 20
-257.359278140911
 30
0.0
 11
-116.2183281187329
 21
-257.359278140911
 31
0.0
  0
LINE
  5
146
330
71
100
AcDbEntity
  8
1
  6
Continuous
 62
     2
100
AcDbLine
 10
-111.218328118734
 20
-257.359278140911
 30
0.0
 11
-111.218328118734
 21
-252.3592781409109
 31
0.0
  0
LINE
  5
147
330
71
100
AcDbEntity
  8
1
  6
Continuous
 62
     6
100
AcDbLine
 10
-245.763132645483
 20
-235.3592781409109
 30
0.0
 11
-209.363132645483
 21
-235.3592781409109
 31
0.0
  0
LINE
  5
148
330
71
100
AcDbEntity
  8
1
  6
Continuous
 62
     2
100
AcDbLine
 10
-116.2183281187329
 20
-252.3592781409109
 30
0.0
 11
-116.2183281187329
 21
-257.359278140911
 31
0.0
  0
LINE
  5
149
330
71
100
AcDbEntity
  8
1
  6
Continuous
 62
     2
100
AcDbLine
 10
-116.2183281187329
 20
-252.3592781409109
 30
0.0
 11
-111.218328118734
 21
-252.3592781409109
 31
0.0
  0
LINE
  5
14A
330
71
100
AcDbEntity
  8
1
  6
Continuous
 62
     6
100
AcDbLine
 10
-209.718328118733
 20
-252.3592781409109
 30
0.0
 11
-227.5631326454829
 21
-252.3592781409109
 31
0.0
  0
LINE
  5
14B
330
71
100
AcDbEntity
  8
1
  6
Continuous
 62
     6
100
AcDbLine
 10
-159.718328118733
 20
-252.3592781409109
 30
0.0
 11
-116.2183281187329
 21
-252.3592781409109
 31
0.0
  0
LINE
  5
14C
330
71
100
AcDbEntity
  8
1
  6
Continuous
 62
     6
100
AcDbLine
 10
-309.7183281187332
 20
-252.3592781409109
 30
0.0
 11
-314.7631326454829
 21
-252.3592781409109
 31
0.0
  0
LINE
  5
14D
330
71
100
AcDbEntity
  8
1
  6
Continuous
 62
     6
100
AcDbLine
 10
-259.7183281187329
 20
-252.3592781409109
 30
0.0
 11
-245.763132645483
 21
-252.359278140911
 31
0.0
  0
LINE
  5
14E
102
{ACAD_REACTORS
330
238
330
239
102
}
330
71
100
AcDbEntity
  8
0
  6
Continuous
 62
     2
100
AcDbLine
 10
-238.2485067033362
 20
-240.2867633846988
 30
0.0
 11
-238.2485067033362
 21
-239.681228096192
 31
0.0
  0
LINE
  5
14F
102
{ACAD_REACTORS
330
238
330
239
102
}
330
71
100
AcDbEntity
  8
0
  6
Continuous
 62
     2
100
AcDbLine
 10
-238.2485067033362
 20
-243.0868979913301
 30
0.0
 11
-238.2485067033362
 21
-242.505046584635
 31
0.0
  0
LINE
  5
150
102
{ACAD_REACTORS
330
23A
330
23B
102
}
330
71
100
AcDbEntity
  8
0
  6
Continuous
 62
     2
100
AcDbLine
 10
-215.6190202678569
 20
-242.7972339232071
 30
0.0
 11
-215.6190202678569
 21
-245.0657781408946
 31
0.0
  0
LINE
  5
151
102
{ACAD_REACTORS
330
23A
330
23B
102
}
330
71
100
AcDbEntity
  8
0
  6
Continuous
 62
     2
100
AcDbLine
 10
-217.0000740468445
 20
-242.011968617084
 30
0.0
 11
-213.6151285282159
 21
-242.0119686170835
 31
0.0
  0
LINE
  5
152
102
{ACAD_REACTORS
330
23A
330
23B
102
}
330
71
100
AcDbEntity
  8
0
  6
Continuous
 62
     2
100
AcDbLine
 10
-213.6151285282159
 20
-242.7972339232071
 30
0.0
 11
-213.6151285282159
 21
-242.0119686170835
 31
0.0
  0
LINE
  5
153
102
{ACAD_REACTORS
330
23A
330
23B
102
}
330
71
100
AcDbEntity
  8
0
  6
Continuous
 62
     2
100
AcDbLine
 10
-214.4262275656892
 20
-242.7972339232071
 30
0.0
 11
-213.6151285282159
 21
-242.7972339232071
 31
0.0
  0
LINE
  5
154
102
{ACAD_REACTORS
330
23A
330
23B
102
}
330
71
100
AcDbEntity
  8
0
  6
Continuous
 62
     2
100
AcDbLine
 10
-214.4262275656892
 20
-245.0657781408946
 30
0.0
 11
-214.4262275656892
 21
-242.7972339232071
 31
0.0
  0
LINE
  5
155
102
{ACAD_REACTORS
330
23A
330
23B
102
}
330
71
100
AcDbEntity
  8
0
  6
Continuous
 62
     2
100
AcDbLine
 10
-215.6190202678569
 20
-245.0657781408946
 30
0.0
 11
-214.4262275656892
 21
-245.0657781408946
 31
0.0
  0
LINE
  5
156
102
{ACAD_REACTORS
330
230
330
231
102
}
330
71
100
AcDbEntity
  8
0
  6
Continuous
 62
     2
100
AcDbLine
 10
-216.3156112059214
 20
-238.6527781409091
 30
0.0
 11
-217.7183354236707
 21
-238.6527781409091
 31
0.0
  0
LINE
  5
157
102
{ACAD_REACTORS
330
230
330
231
102
}
330
71
100
AcDbEntity
  8
0
  6
Continuous
 62
     2
100
AcDbLine
 10
-216.3156112059214
 20
-238.6527781409091
 30
0.0
 11
-215.7144436840297
 21
-239.3326014624646
 31
0.0
  0
LINE
  5
158
102
{ACAD_REACTORS
330
230
330
231
102
}
330
71
100
AcDbEntity
  8
0
  6
Continuous
 62
     2
100
AcDbLine
 10
-215.7144436840297
 20
-239.3326014624646
 30
0.0
 11
-215.1132761621369
 21
-238.6527781409091
 31
0.0
  0
LINE
  5
159
102
{ACAD_REACTORS
330
230
330
231
102
}
330
71
100
AcDbEntity
  8
0
  6
Continuous
 62
     2
100
AcDbLine
 10
-215.0130815751562
 20
-240.1257286709453
 30
0.0
 11
-213.7105519443896
 21
-238.6527781409091
 31
0.0
  0
LINE
  5
15A
102
{ACAD_REACTORS
330
230
330
231
102
}
330
71
100
AcDbEntity
  8
0
  6
Continuous
 62
     2
100
AcDbLine
 10
-215.0130815751562
 20
-240.1257286709453
 30
0.0
 11
-213.6151285282159
 21
-241.7065876647203
 31
0.0
  0
LINE
  5
15B
102
{ACAD_REACTORS
330
230
330
231
102
}
330
71
100
AcDbEntity
  8
0
  6
Continuous
 62
     2
100
AcDbLine
 10
-215.0178527459642
 20
-241.7065876647203
 30
0.0
 11
-213.6151285282159
 21
-241.7065876647203
 31
0.0
  0
LINE
  5
15C
102
{ACAD_REACTORS
330
230
330
231
102
}
330
71
100
AcDbEntity
  8
0
  6
Continuous
 62
     2
100
AcDbLine
 10
-215.7144436840297
 20
-240.9188558794266
 30
0.0
 11
-215.0178527459642
 21
-241.7065876647203
 31
0.0
  0
LINE
  5
15D
102
{ACAD_REACTORS
330
22E
330
22F
102
}
330
71
100
AcDbEntity
  8
0
  6
Continuous
 62
     2
100
AcDbLine
 10
-219.1735425203133
 20
-238.6527781409091
 30
0.0
 11
-217.9330381100604
 21
-238.6527781409091
 31
0.0
  0
LINE
  5
15E
102
{ACAD_REACTORS
330
22E
330
22F
102
}
330
71
100
AcDbEntity
  8
0
  6
Continuous
 62
     2
100
AcDbLine
 10
-217.9330381100604
 20
-238.6527781409091
 30
0.0
 11
-217.9330381100604
 21
-241.7065876647203
 31
0.0
  0
LINE
  5
15F
102
{ACAD_REACTORS
330
22E
330
22F
102
}
330
71
100
AcDbEntity
  8
0
  6
Continuous
 62
     2
100
AcDbLine
 10
-219.1735425203133
 20
-241.7065876647203
 30
0.0
 11
-219.1735425203133
 21
-238.6527781409091
 31
0.0
  0
LINE
  5
160
102
{ACAD_REACTORS
330
22C
330
22D
102
}
330
71
100
AcDbEntity
  8
0
  6
Continuous
 62
     2
100
AcDbLine
 10
-220.641852602851
 20
-243.8442543313701
 30
0.0
 11
-220.3416873656585
 21
-243.0764393653834
 31
0.0
  0
LINE
  5
161
102
{ACAD_REACTORS
330
22C
330
22D
102
}
330
71
100
AcDbEntity
  8
0
  6
Continuous
 62
     2
100
AcDbLine
 10
-221.1193882074718
 20
-245.0657781408946
 30
0.0
 11
-220.907908153996
 21
-244.5248175966767
 31
0.0
  0
LINE
  5
162
102
{ACAD_REACTORS
330
22C
330
22D
102
}
330
71
100
AcDbEntity
  8
0
  6
Continuous
 62
     2
100
AcDbLine
 10
-220.9619395707854
 20
-242.0119686170835
 30
0.0
 11
-222.3598926177247
 21
-245.0657781408946
 31
0.0
  0
LINE
  5
163
102
{ACAD_REACTORS
330
22C
330
22D
102
}
330
71
100
AcDbEntity
  8
0
  6
Continuous
 62
     2
100
AcDbLine
 10
-218.3234821135924
 20
-245.0657781408946
 30
0.0
 11
-219.5639865238464
 21
-245.0657781408946
 31
0.0
  0
LINE
  5
164
102
{ACAD_REACTORS
330
22C
330
22D
102
}
330
71
100
AcDbEntity
  8
0
  6
Continuous
 62
     2
100
AcDbLine
 10
-220.907908153996
 20
-244.5248175966767
 30
0.0
 11
-219.7754665773221
 21
-244.5248175966767
 31
0.0
  0
LINE
  5
165
102
{ACAD_REACTORS
330
22A
330
22B
102
}
330
71
100
AcDbEntity
  8
0
  6
Continuous
 62
     2
100
AcDbLine
 10
-224.517404756907
 20
-242.7972339232071
 30
0.0
 11
-223.7063057194324
 21
-242.7972339232071
 31
0.0
  0
LINE
  5
166
102
{ACAD_REACTORS
330
22A
330
22B
102
}
330
71
100
AcDbEntity
  8
0
  6
Continuous
 62
     2
100
AcDbLine
 10
-221.7024139797933
 20
-242.0119686170835
 30
0.0
 11
-224.517404756907
 21
-242.0119686170835
 31
0.0
  0
LINE
  5
167
102
{ACAD_REACTORS
330
22A
330
22B
102
}
330
71
100
AcDbEntity
  8
0
  6
Continuous
 62
     2
100
AcDbLine
 10
-221.7024139797933
 20
-242.7972339232071
 30
0.0
 11
-221.7024139797933
 21
-242.0119686170835
 31
0.0
  0
LINE
  5
168
102
{ACAD_REACTORS
330
22A
330
22B
102
}
330
71
100
AcDbEntity
  8
0
  6
Continuous
 62
     2
100
AcDbLine
 10
-222.5135130172658
 20
-242.7972339232071
 30
0.0
 11
-221.7024139797933
 21
-242.7972339232071
 31
0.0
  0
LINE
  5
169
102
{ACAD_REACTORS
330
22A
330
22B
102
}
330
71
100
AcDbEntity
  8
0
  6
Continuous
 62
     2
100
AcDbLine
 10
-222.5135130172658
 20
-245.0657781408946
 30
0.0
 11
-222.5135130172658
 21
-242.7972339232071
 31
0.0
  0
LINE
  5
16A
102
{ACAD_REACTORS
330
228
330
229
102
}
330
71
100
AcDbEntity
  8
0
  6
Continuous
 62
     2
100
AcDbLine
 10
-221.8453981731678
 20
-241.7065876647203
 30
0.0
 11
-221.8453981731678
 21
-240.3978121545156
 31
0.0
  0
LINE
  5
16B
102
{ACAD_REACTORS
330
228
330
229
102
}
330
71
100
AcDbEntity
  8
0
  6
Continuous
 62
     2
100
AcDbLine
 10
-223.0381908753344
 20
-238.6527781409091
 30
0.0
 11
-223.0381908753344
 21
-241.7065876647203
 31
0.0
  0
LINE
  5
16C
102
{ACAD_REACTORS
330
228
330
229
102
}
330
71
100
AcDbEntity
  8
0
  6
Continuous
 62
     2
100
AcDbLine
 10
-221.8453981731678
 20
-238.6527781409091
 30
0.0
 11
-223.0381908753344
 21
-238.6527781409091
 31
0.0
  0
LINE
  5
16D
102
{ACAD_REACTORS
330
228
330
229
102
}
330
71
100
AcDbEntity
  8
0
  6
Continuous
 62
     2
100
AcDbLine
 10
-220.6048937629138
 20
-238.6527781409091
 30
0.0
 11
-220.6048937629138
 21
-239.9615536511143
 31
0.0
  0
LINE
  5
16E
102
{ACAD_REACTORS
330
226
330
227
102
}
330
71
100
AcDbEntity
  8
0
  6
Continuous
 62
     2
100
AcDbLine
 10
-228.286629695754
 20
-242.0119686170835
 30
0.0
 11
-228.286629695754
 21
-245.0657781408946
 31
0.0
  0
LINE
  5
16F
102
{ACAD_REACTORS
330
226
330
227
102
}
330
71
100
AcDbEntity
  8
0
  6
Continuous
 62
     2
100
AcDbLine
 10
-227.0938369935865
 20
-242.0119686170835
 30
0.0
 11
-228.286629695754
 21
-242.0119686170835
 31
0.0
  0
LINE
  5
170
102
{ACAD_REACTORS
330
226
330
227
102
}
330
71
100
AcDbEntity
  8
0
  6
Continuous
 62
     2
100
AcDbLine
 10
-225.8533325833336
 20
-245.0657781408946
 30
0.0
 11
-224.6605398811672
 21
-245.0657781408946
 31
0.0
  0
LINE
  5
171
102
{ACAD_REACTORS
330
226
330
227
102
}
330
71
100
AcDbEntity
  8
0
  6
Continuous
 62
     2
100
AcDbLine
 10
-228.286629695754
 20
-245.0657781408946
 30
0.0
 11
-227.0938369935865
 21
-245.0657781408946
 31
0.0
  0
LINE
  5
172
102
{ACAD_REACTORS
330
236
330
237
102
}
330
71
100
AcDbEntity
  8
0
  6
Continuous
 62
     2
100
AcDbLine
 10
-224.6126772421949
 20
-239.8306761000938
 30
0.0
 11
-224.6126772421949
 21
-239.3507917463521
 31
0.0
  0
LINE
  5
173
102
{ACAD_REACTORS
330
236
330
237
102
}
330
71
100
AcDbEntity
  8
0
  6
Continuous
 62
     2
100
AcDbLine
 10
-223.2767494157673
 20
-239.8306761000938
 30
0.0
 11
-224.6126772421949
 21
-239.8306761000938
 31
0.0
  0
LINE
  5
174
102
{ACAD_REACTORS
330
236
330
237
102
}
330
71
100
AcDbEntity
  8
0
  6
Continuous
 62
     2
100
AcDbLine
 10
-223.2767494157673
 20
-240.5286897055361
 30
0.0
 11
-223.2767494157673
 21
-239.8306761000938
 31
0.0
  0
LINE
  5
175
102
{ACAD_REACTORS
330
236
330
237
102
}
330
71
100
AcDbEntity
  8
0
  6
Continuous
 62
     2
100
AcDbLine
 10
-224.6126772421949
 20
-240.5286897055361
 30
0.0
 11
-223.2767494157673
 21
-240.5286897055361
 31
0.0
  0
LINE
  5
176
102
{ACAD_REACTORS
330
224
330
225
102
}
330
71
100
AcDbEntity
  8
0
  6
Continuous
 62
     2
100
AcDbLine
 10
-228.0956319325219
 20
-238.6527781409091
 30
0.0
 11
-228.0956319325219
 21
-241.7065876647203
 31
0.0
  0
LINE
  5
177
102
{ACAD_REACTORS
330
224
330
225
102
}
330
71
100
AcDbEntity
  8
0
  6
Continuous
 62
     2
100
AcDbLine
 10
-228.0956319325219
 20
-241.7065876647203
 30
0.0
 11
-229.2884246346883
 21
-241.7065876647203
 31
0.0
  0
LINE
  5
178
102
{ACAD_REACTORS
330
224
330
225
102
}
330
71
100
AcDbEntity
  8
0
  6
Continuous
 62
     2
100
AcDbLine
 10
-229.2884246346883
 20
-241.7065876647203
 30
0.0
 11
-229.2884246346883
 21
-240.5723155558765
 31
0.0
  0
LINE
  5
179
102
{ACAD_REACTORS
330
224
330
225
102
}
330
71
100
AcDbEntity
  8
0
  6
Continuous
 62
     2
100
AcDbLine
 10
-230.3380822125957
 20
-241.7065876647203
 30
0.0
 11
-231.5308749147623
 21
-241.7065876647203
 31
0.0
  0
LINE
  5
17A
102
{ACAD_REACTORS
330
224
330
225
102
}
330
71
100
AcDbEntity
  8
0
  6
Continuous
 62
     2
100
AcDbLine
 10
-231.5308749147623
 20
-238.6527781409091
 30
0.0
 11
-230.3380822125957
 21
-238.6527781409091
 31
0.0
  0
LINE
  5
17B
102
{ACAD_REACTORS
330
224
330
225
102
}
330
71
100
AcDbEntity
  8
0
  6
Continuous
 62
     2
100
AcDbLine
 10
-230.3380822125957
 20
-238.6527781409091
 30
0.0
 11
-230.3380822125957
 21
-239.7216114742437
 31
0.0
  0
LINE
  5
17C
102
{ACAD_REACTORS
330
224
330
225
102
}
330
71
100
AcDbEntity
  8
0
  6
Continuous
 62
     2
100
AcDbLine
 10
-230.3380822125957
 20
-239.7216114742437
 30
0.0
 11
-229.2884246346883
 21
-239.7216114742437
 31
0.0
  0
LINE
  5
17D
102
{ACAD_REACTORS
330
232
330
233
102
}
330
71
100
AcDbEntity
  8
0
  6
Continuous
 62
     2
100
AcDbLine
 10
-233.4870549463159
 20
-239.3158839863492
 30
0.0
 11
-233.169759884774
 21
-239.3158839863492
 31
0.0
  0
LINE
  5
17E
102
{ACAD_REACTORS
330
232
330
233
102
}
330
71
100
AcDbEntity
  8
0
  6
Continuous
 62
     2
100
AcDbLine
 10
-233.4870549463159
 20
-240.0216116356914
 30
0.0
 11
-233.169759884774
 21
-240.0216116356914
 31
0.0
  0
LINE
  5
17F
102
{ACAD_REACTORS
330
232
330
233
102
}
330
71
100
AcDbEntity
  8
0
  6
Continuous
 62
     2
100
AcDbLine
 10
-234.7275593565701
 20
-238.6527781409091
 30
0.0
 11
-234.7275593565701
 21
-241.7065876647203
 31
0.0
  0
LINE
  5
180
102
{ACAD_REACTORS
330
232
330
233
102
}
330
71
100
AcDbEntity
  8
0
  6
Continuous
 62
     2
100
AcDbLine
 10
-234.7275593565701
 20
-238.6527781409091
 30
0.0
 11
-232.7282873585357
 21
-238.6527781409091
 31
0.0
  0
LINE
  5
181
102
{ACAD_REACTORS
330
232
330
233
102
}
330
71
100
AcDbEntity
  8
0
  6
Continuous
 62
     2
100
AcDbLine
 10
-233.4870549463159
 20
-240.7635094235765
 30
0.0
 11
-232.7282873585357
 21
-240.7635094235765
 31
0.0
  0
LINE
  5
182
102
{ACAD_REACTORS
330
238
330
239
102
}
330
71
100
AcDbEntity
  8
0
  6
Continuous
 62
     2
100
AcDbLine
 10
-240.8240553898667
 20
-239.6810506195439
 30
0.0
 11
-240.8240553898667
 21
-244.037505662261
 31
0.0
  0
LINE
  5
183
102
{ACAD_REACTORS
330
238
330
239
102
}
330
71
100
AcDbEntity
  8
0
  6
Continuous
 62
     2
100
AcDbLine
 10
-240.5083384667911
 20
-239.3653336964677
 30
0.0
 11
-239.0325052057814
 21
-239.3653336964677
 31
0.0
  0
LINE
  5
184
102
{ACAD_REACTORS
330
238
330
239
102
}
330
71
100
AcDbEntity
  8
0
  6
Continuous
 62
     2
100
AcDbLine
 10
-238.7167882827048
 20
-240.2850752386044
 30
0.0
 11
-238.7167882827048
 21
-239.6810506195439
 31
0.0
  0
LINE
  5
185
102
{ACAD_REACTORS
330
238
330
239
102
}
330
71
100
AcDbEntity
  8
0
  6
Continuous
 62
     2
100
AcDbLine
 10
-238.7167882827048
 20
-244.037505662261
 30
0.0
 11
-238.7167882827048
 21
-242.5067347307294
 31
0.0
  0
LINE
  5
186
102
{ACAD_REACTORS
330
238
330
239
102
}
330
71
100
AcDbEntity
  8
0
  6
Continuous
 62
     2
100
AcDbLine
 10
-235.6289210528207
 20
-245.0657781408946
 30
0.0
 11
-241.1022331435376
 21
-245.0657781408946
 31
0.0
  0
LINE
  5
187
102
{ACAD_REACTORS
330
238
330
239
102
}
330
71
100
AcDbEntity
  8
0
  6
Continuous
 62
     2
100
AcDbLine
 10
-235.2046764374369
 20
-239.0770227563111
 30
0.0
 11
-235.2046764374369
 21
-244.6415335255113
 31
0.0
  0
LINE
  5
188
102
{ACAD_REACTORS
330
238
330
239
102
}
330
71
100
AcDbEntity
  8
0
  6
Continuous
 62
     2
100
AcDbLine
 10
-241.1022331435376
 20
-238.6527781409273
 30
0.0
 11
-235.6289210528207
 21
-238.6527781409273
 31
0.0
  0
LINE
  5
189
102
{ACAD_REACTORS
330
238
330
239
102
}
330
71
100
AcDbEntity
  8
0
  6
Continuous
 62
     2
100
AcDbLine
 10
-241.5264777589204
 20
-239.0770227563111
 30
0.0
 11
-241.5264777589204
 21
-244.6415335255113
 31
0.0
  0
LINE
  5
18A
102
{ACAD_REACTORS
330
238
330
239
102
}
330
71
100
AcDbEntity
  8
0
  6
Continuous
 62
     2
100
AcDbLine
 10
-239.0325052057814
 20
-244.3532225853377
 30
0.0
 11
-240.5083384667911
 21
-244.3532225853377
 31
0.0
  0
LINE
  5
18B
102
{ACAD_REACTORS
330
232
330
233
102
}
330
71
100
AcDbEntity
  8
0
  6
Continuous
 62
     2
100
AcDbLine
 10
-233.4870549463159
 20
-241.7065876647203
 30
0.0
 11
-233.4870549463159
 21
-240.7635094235765
 31
0.0
  0
LINE
  5
18C
102
{ACAD_REACTORS
330
232
330
233
102
}
330
71
100
AcDbEntity
  8
0
  6
Continuous
 62
     2
100
AcDbLine
 10
-234.7275593565701
 20
-241.7065876647203
 30
0.0
 11
-233.4870549463159
 21
-241.7065876647203
 31
0.0
  0
LINE
  5
18D
102
{ACAD_REACTORS
330
232
330
233
102
}
330
71
100
AcDbEntity
  8
0
  6
Continuous
 62
     2
100
AcDbLine
 10
-233.4870549463159
 20
-240.0216116356914
 30
0.0
 11
-233.4870549463159
 21
-239.3158839863492
 31
0.0
  0
LINE
  5
18E
102
{ACAD_REACTORS
330
224
330
225
102
}
330
71
100
AcDbEntity
  8
0
  6
Continuous
 62
     2
100
AcDbLine
 10
-231.5308749147623
 20
-238.6527781409091
 30
0.0
 11
-231.5308749147623
 21
-241.7065876647203
 31
0.0
  0
LINE
  5
18F
102
{ACAD_REACTORS
330
224
330
225
102
}
330
71
100
AcDbEntity
  8
0
  6
Continuous
 62
     2
100
AcDbLine
 10
-230.3380822125957
 20
-240.5723155558765
 30
0.0
 11
-230.3380822125957
 21
-241.7065876647203
 31
0.0
  0
LINE
  5
190
102
{ACAD_REACTORS
330
224
330
225
102
}
330
71
100
AcDbEntity
  8
0
  6
Continuous
 62
     2
100
AcDbLine
 10
-229.2884246346883
 20
-240.5723155558765
 30
0.0
 11
-230.3380822125957
 21
-240.5723155558765
 31
0.0
  0
LINE
  5
191
102
{ACAD_REACTORS
330
224
330
225
102
}
330
71
100
AcDbEntity
  8
0
  6
Continuous
 62
     2
100
AcDbLine
 10
-229.2884246346883
 20
-238.6527781409091
 30
0.0
 11
-228.0956319325219
 21
-238.6527781409091
 31
0.0
  0
LINE
  5
192
102
{ACAD_REACTORS
330
224
330
225
102
}
330
71
100
AcDbEntity
  8
0
  6
Continuous
 62
     2
100
AcDbLine
 10
-229.2884246346883
 20
-239.7216114742437
 30
0.0
 11
-229.2884246346883
 21
-238.6527781409091
 31
0.0
  0
LINE
  5
193
102
{ACAD_REACTORS
330
236
330
237
102
}
330
71
100
AcDbEntity
  8
0
  6
Continuous
 62
     2
100
AcDbLine
 10
-223.2767494157673
 20
-239.3507917463521
 30
0.0
 11
-223.2767494157673
 21
-238.6527781409091
 31
0.0
  0
LINE
  5
194
102
{ACAD_REACTORS
330
236
330
237
102
}
330
71
100
AcDbEntity
  8
0
  6
Continuous
 62
     2
100
AcDbLine
 10
-226.4270691395483
 20
-238.6527781409091
 30
0.0
 11
-223.2767494157673
 21
-238.6527781409091
 31
0.0
  0
LINE
  5
195
102
{ACAD_REACTORS
330
236
330
237
102
}
330
71
100
AcDbEntity
  8
0
  6
Continuous
 62
     2
100
AcDbLine
 10
-226.4270691395483
 20
-241.7065876647203
 30
0.0
 11
-223.2767494157673
 21
-241.7065876647203
 31
0.0
  0
LINE
  5
196
102
{ACAD_REACTORS
330
236
330
237
102
}
330
71
100
AcDbEntity
  8
0
  6
Continuous
 62
     2
100
AcDbLine
 10
-223.2767494157673
 20
-241.7065876647203
 30
0.0
 11
-223.2767494157673
 21
-241.0085740592778
 31
0.0
  0
LINE
  5
197
102
{ACAD_REACTORS
330
236
330
237
102
}
330
71
100
AcDbEntity
  8
0
  6
Continuous
 62
     2
100
AcDbLine
 10
-223.2767494157673
 20
-241.0085740592778
 30
0.0
 11
-224.6126772421949
 21
-241.0085740592778
 31
0.0
  0
LINE
  5
198
102
{ACAD_REACTORS
330
236
330
237
102
}
330
71
100
AcDbEntity
  8
0
  6
Continuous
 62
     2
100
AcDbLine
 10
-224.6126772421949
 20
-241.0085740592778
 30
0.0
 11
-224.6126772421949
 21
-240.5286897055361
 31
0.0
  0
LINE
  5
199
102
{ACAD_REACTORS
330
236
330
237
102
}
330
71
100
AcDbEntity
  8
0
  6
Continuous
 62
     2
100
AcDbLine
 10
-224.6126772421949
 20
-239.3507917463521
 30
0.0
 11
-223.2767494157673
 21
-239.3507917463521
 31
0.0
  0
LINE
  5
19A
102
{ACAD_REACTORS
330
226
330
227
102
}
330
71
100
AcDbEntity
  8
0
  6
Continuous
 62
     2
100
AcDbLine
 10
-227.0938369935865
 20
-245.0657781408946
 30
0.0
 11
-227.0938369935865
 21
-243.75700263069
 31
0.0
  0
LINE
  5
19B
102
{ACAD_REACTORS
330
226
330
227
102
}
330
71
100
AcDbEntity
  8
0
  6
Continuous
 62
     2
100
AcDbLine
 10
-227.0938369935865
 20
-243.75700263069
 30
0.0
 11
-225.8533325833336
 21
-245.0657781408946
 31
0.0
  0
LINE
  5
19C
102
{ACAD_REACTORS
330
226
330
227
102
}
330
71
100
AcDbEntity
  8
0
  6
Continuous
 62
     2
100
AcDbLine
 10
-224.6605398811672
 20
-245.0657781408946
 30
0.0
 11
-224.6605398811672
 21
-242.0119686170835
 31
0.0
  0
LINE
  5
19D
102
{ACAD_REACTORS
330
226
330
227
102
}
330
71
100
AcDbEntity
  8
0
  6
Continuous
 62
     2
100
AcDbLine
 10
-224.6605398811672
 20
-242.0119686170835
 30
0.0
 11
-225.8533325833336
 21
-242.0119686170835
 31
0.0
  0
LINE
  5
19E
102
{ACAD_REACTORS
330
226
330
227
102
}
330
71
100
AcDbEntity
  8
0
  6
Continuous
 62
     2
100
AcDbLine
 10
-225.8533325833336
 20
-242.0119686170835
 30
0.0
 11
-225.8533325833336
 21
-243.3207441272886
 31
0.0
  0
LINE
  5
19F
102
{ACAD_REACTORS
330
226
330
227
102
}
330
71
100
AcDbEntity
  8
0
  6
Continuous
 62
     2
100
AcDbLine
 10
-225.8533325833336
 20
-243.3207441272886
 30
0.0
 11
-227.0938369935865
 21
-242.0119686170835
 31
0.0
  0
LINE
  5
1A0
102
{ACAD_REACTORS
330
228
330
229
102
}
330
71
100
AcDbEntity
  8
0
  6
Continuous
 62
     2
100
AcDbLine
 10
-221.8453981731678
 20
-240.3978121545156
 30
0.0
 11
-220.6048937629138
 21
-241.7065876647203
 31
0.0
  0
LINE
  5
1A1
102
{ACAD_REACTORS
330
228
330
229
102
}
330
71
100
AcDbEntity
  8
0
  6
Continuous
 62
     2
100
AcDbLine
 10
-220.6048937629138
 20
-241.7065876647203
 30
0.0
 11
-219.4121010607472
 21
-241.7065876647203
 31
0.0
  0
LINE
  5
1A2
102
{ACAD_REACTORS
330
228
330
229
102
}
330
71
100
AcDbEntity
  8
0
  6
Continuous
 62
     2
100
AcDbLine
 10
-219.4121010607472
 20
-241.7065876647203
 30
0.0
 11
-219.4121010607472
 21
-238.6527781409091
 31
0.0
  0
LINE
  5
1A3
102
{ACAD_REACTORS
330
228
330
229
102
}
330
71
100
AcDbEntity
  8
0
  6
Continuous
 62
     2
100
AcDbLine
 10
-219.4121010607472
 20
-238.6527781409091
 30
0.0
 11
-220.6048937629138
 21
-238.6527781409091
 31
0.0
  0
LINE
  5
1A4
102
{ACAD_REACTORS
330
228
330
229
102
}
330
71
100
AcDbEntity
  8
0
  6
Continuous
 62
     2
100
AcDbLine
 10
-220.6048937629138
 20
-239.9615536511143
 30
0.0
 11
-221.8453981731678
 21
-238.6527781409091
 31
0.0
  0
LINE
  5
1A5
102
{ACAD_REACTORS
330
228
330
229
102
}
330
71
100
AcDbEntity
  8
0
  6
Continuous
 62
     2
100
AcDbLine
 10
-223.0381908753344
 20
-241.7065876647203
 30
0.0
 11
-221.8453981731678
 21
-241.7065876647203
 31
0.0
  0
LINE
  5
1A6
102
{ACAD_REACTORS
330
22A
330
22B
102
}
330
71
100
AcDbEntity
  8
0
  6
Continuous
 62
     2
100
AcDbLine
 10
-224.517404756907
 20
-242.0119686170835
 30
0.0
 11
-224.517404756907
 21
-242.7972339232071
 31
0.0
  0
LINE
  5
1A7
102
{ACAD_REACTORS
330
22A
330
22B
102
}
330
71
100
AcDbEntity
  8
0
  6
Continuous
 62
     2
100
AcDbLine
 10
-223.7063057194324
 20
-242.7972339232071
 30
0.0
 11
-223.7063057194324
 21
-245.0657781408946
 31
0.0
  0
LINE
  5
1A8
102
{ACAD_REACTORS
330
22A
330
22B
102
}
330
71
100
AcDbEntity
  8
0
  6
Continuous
 62
     2
100
AcDbLine
 10
-223.7063057194324
 20
-245.0657781408946
 30
0.0
 11
-222.5135130172658
 21
-245.0657781408946
 31
0.0
  0
LINE
  5
1A9
102
{ACAD_REACTORS
330
22C
330
22D
102
}
330
71
100
AcDbEntity
  8
0
  6
Continuous
 62
     2
100
AcDbLine
 10
-219.5639865238464
 20
-245.0657781408946
 30
0.0
 11
-219.7754665773221
 21
-244.5248175966767
 31
0.0
  0
LINE
  5
1AA
102
{ACAD_REACTORS
330
22C
330
22D
102
}
330
71
100
AcDbEntity
  8
0
  6
Continuous
 62
     2
100
AcDbLine
 10
-219.7214351605327
 20
-242.0119686170835
 30
0.0
 11
-218.3234821135924
 21
-245.0657781408946
 31
0.0
  0
LINE
  5
1AB
102
{ACAD_REACTORS
330
22C
330
22D
102
}
330
71
100
AcDbEntity
  8
0
  6
Continuous
 62
     2
100
AcDbLine
 10
-220.9619395707854
 20
-242.0119686170835
 30
0.0
 11
-219.7214351605327
 21
-242.0119686170835
 31
0.0
  0
LINE
  5
1AC
102
{ACAD_REACTORS
330
22C
330
22D
102
}
330
71
100
AcDbEntity
  8
0
  6
Continuous
 62
     2
100
AcDbLine
 10
-222.3598926177247
 20
-245.0657781408946
 30
0.0
 11
-221.1193882074718
 21
-245.0657781408946
 31
0.0
  0
LINE
  5
1AD
102
{ACAD_REACTORS
330
22C
330
22D
102
}
330
71
100
AcDbEntity
  8
0
  6
Continuous
 62
     2
100
AcDbLine
 10
-220.641852602851
 20
-243.8442543313701
 30
0.0
 11
-220.0415221284684
 21
-243.8442543313701
 31
0.0
  0
LINE
  5
1AE
102
{ACAD_REACTORS
330
22C
330
22D
102
}
330
71
100
AcDbEntity
  8
0
  6
Continuous
 62
     2
100
AcDbLine
 10
-220.0415221284684
 20
-243.8442543313701
 30
0.0
 11
-220.3416873656585
 21
-243.0764393653834
 31
0.0
  0
LINE
  5
1AF
102
{ACAD_REACTORS
330
22E
330
22F
102
}
330
71
100
AcDbEntity
  8
0
  6
Continuous
 62
     2
100
AcDbLine
 10
-217.9330381100604
 20
-241.7065876647203
 30
0.0
 11
-219.1735425203133
 21
-241.7065876647203
 31
0.0
  0
LINE
  5
1B0
102
{ACAD_REACTORS
330
230
330
231
102
}
330
71
100
AcDbEntity
  8
0
  6
Continuous
 62
     2
100
AcDbLine
 10
-216.4110346220953
 20
-241.7065876647203
 30
0.0
 11
-217.8137588398436
 21
-241.7065876647203
 31
0.0
  0
LINE
  5
1B1
102
{ACAD_REACTORS
330
230
330
231
102
}
330
71
100
AcDbEntity
  8
0
  6
Continuous
 62
     2
100
AcDbLine
 10
-216.4110346220953
 20
-241.7065876647203
 30
0.0
 11
-215.7144436840297
 21
-240.9188558794266
 31
0.0
  0
LINE
  5
1B2
102
{ACAD_REACTORS
330
230
330
231
102
}
330
71
100
AcDbEntity
  8
0
  6
Continuous
 62
     2
100
AcDbLine
 10
-215.1132761621369
 20
-238.6527781409091
 30
0.0
 11
-213.7105519443896
 21
-238.6527781409091
 31
0.0
  0
LINE
  5
1B3
102
{ACAD_REACTORS
330
230
330
231
102
}
330
71
100
AcDbEntity
  8
0
  6
Continuous
 62
     2
100
AcDbLine
 10
-217.7183354236707
 20
-238.6527781409091
 30
0.0
 11
-216.4158057929033
 21
-240.1257286709453
 31
0.0
  0
LINE
  5
1B4
102
{ACAD_REACTORS
330
230
330
231
102
}
330
71
100
AcDbEntity
  8
0
  6
Continuous
 62
     2
100
AcDbLine
 10
-217.8137588398436
 20
-241.7065876647203
 30
0.0
 11
-216.4158057929033
 21
-240.1257286709453
 31
0.0
  0
LINE
  5
1B5
102
{ACAD_REACTORS
330
23A
330
23B
102
}
330
71
100
AcDbEntity
  8
0
  6
Continuous
 62
     2
100
AcDbLine
 10
-215.9530022244636
 20
-244.018757732731
 30
0.0
 11
-215.9530022244636
 21
-244.8912747395343
 31
0.0
  0
LINE
  5
1B6
102
{ACAD_REACTORS
330
23A
330
23B
102
}
330
71
100
AcDbEntity
  8
0
  6
Continuous
 62
     2
100
AcDbLine
 10
-216.722659567425
 20
-242.7972339232071
 30
0.0
 11
-215.6190202678569
 21
-242.7972339232071
 31
0.0
  0
LINE
  5
1B7
102
{ACAD_REACTORS
330
23C
330
23D
102
}
330
71
100
AcDbEntity
  8
0
  6
Continuous
 62
     2
100
AcDbLine
 10
-232.0557037037156
 20
-244.0187577327305
 30
0.0
 11
-232.0557037037156
 21
-244.8912747395337
 31
0.0
  0
LINE
  5
1B8
102
{ACAD_REACTORS
330
23C
330
23D
102
}
330
71
100
AcDbEntity
  8
0
  6
Continuous
 62
     2
100
AcDbLine
 10
-232.0557037037156
 20
-243.0589890252476
 30
0.0
 11
-232.0557037037156
 21
-242.1864720184443
 31
0.0
  0
LINE
  5
1B9
330
71
100
AcDbEntity
  8
1
  6
Continuous
 62
     7
100
AcDbLine
 10
-116.2183281187317
 20
-243.8592781409109
 30
0.0
 11
-209.363132645483
 21
-243.8592781409109
 31
0.0
  0
LINE
  5
1BA
330
71
100
AcDbEntity
  8
1
  6
Continuous
 62
     6
100
AcDbLine
 10
-314.7631326454829
 20
-252.3592781409109
 30
0.0
 11
-359.7183281187329
 21
-252.3592781409109
 31
0.0
  0
LINE
  5
1BB
330
71
100
AcDbEntity
  8
1
  6
Continuous
 62
     7
100
AcDbLine
 10
-125.1367364004105
 20
-226.8592781409109
 30
0.0
 11
-125.1367364004105
 21
-235.3592781409109
 31
0.0
  0
LINE
  5
1BC
330
71
100
AcDbEntity
  8
1
  6
Continuous
 62
     7
100
AcDbLine
 10
-151.6367364004101
 20
-226.8592781409109
 30
0.0
 11
-151.6367364004101
 21
-235.3592781409109
 31
0.0
  0
LINE
  5
1BD
330
71
100
AcDbEntity
  8
1
  6
Continuous
 62
     7
100
AcDbLine
 10
-209.363132645483
 20
-235.3592781409109
 30
0.0
 11
-209.363132645483
 21
-226.8592781409109
 31
0.0
  0
LINE
  5
1BE
330
71
100
AcDbEntity
  8
1
  6
Continuous
 62
     7
100
AcDbLine
 10
-245.763132645483
 20
-235.3592781409109
 30
0.0
 11
-245.763132645483
 21
-226.8592781409109
 31
0.0
  0
LINE
  5
1BF
330
71
100
AcDbEntity
  8
1
  6
Continuous
 62
     6
100
AcDbLine
 10
-209.363132645483
 20
-235.3592781409109
 30
0.0
 11
-116.2183281187313
 21
-235.3592781409109
 31
0.0
  0
LINE
  5
1C0
330
71
100
AcDbEntity
  8
1
  6
Continuous
 62
     7
100
AcDbLine
 10
-181.4631326454829
 20
-243.859278140911
 30
0.0
 11
-181.4631326454829
 21
-235.3592781409109
 31
0.0
  0
LINE
  5
1C1
330
71
100
AcDbEntity
  8
1
  6
PHANTOM
 62
     2
100
AcDbLine
 10
-230.2764777589204
 20
-231.234278140911
 30
0.0
 11
-235.7764777589204
 21
-231.234278140911
 31
0.0
  0
LINE
  5
1C2
330
71
100
AcDbEntity
  8
1
  6
PHANTOM
 62
     2
100
AcDbLine
 10
-233.0264777589204
 20
-228.484278140911
 30
0.0
 11
-233.0264777589204
 21
-233.984278140911
 31
0.0
  0
LINE
  5
1C3
330
71
100
AcDbEntity
  8
1
  6
DOT_CENTER
 62
     2
100
AcDbLine
 10
-241.7764777589204
 20
-231.234278140911
 30
0.0
 11
-236.2764777589204
 21
-231.234278140911
 31
0.0
  0
ARC
  5
1C4
102
{ACAD_REACTORS
330
23C
330
23D
102
}
330
71
100
AcDbEntity
  8
0
  6
Continuous
 62
     2
100
AcDbCircle
 10
-233.3916316208334
 20
-246.8515543242452
 30
0.0
 40
4.852596863498068
100
AcDbArc
 50
74.02000874164739
 51
84.84185523037472
  0
ARC
  5
1C5
102
{ACAD_REACTORS
330
23C
330
23D
102
}
330
71
100
AcDbEntity
  8
0
  6
Continuous
 62
     2
100
AcDbCircle
 10
-232.8155910120796
 20
-243.6957939683609
 30
0.0
 40
0.9059297849853049
100
AcDbArc
 50
71.5519238818569
 51
113.372277888129
  0
ARC
  5
1C6
102
{ACAD_REACTORS
330
23C
330
23D
102
}
330
71
100
AcDbEntity
  8
0
  6
Continuous
 62
     2
100
AcDbCircle
 10
-232.9720310447817
 20
-243.7439448083278
 30
0.0
 40
0.5115800601948284
100
AcDbArc
 50
208.521473257694
 51
246.6277221118332
  0
ARC
  5
1C7
102
{ACAD_REACTORS
330
23C
330
23D
102
}
330
71
100
AcDbEntity
  8
0
  6
Continuous
 62
     2
100
AcDbCircle
 10
-232.8155910120796
 20
-243.3819527896178
 30
0.0
 40
0.9059297849849192
100
AcDbArc
 50
246.627722111871
 51
288.448076118155
  0
ARC
  5
1C8
102
{ACAD_REACTORS
330
23C
330
23D
102
}
330
71
100
AcDbEntity
  8
0
  6
Continuous
 62
     2
100
AcDbCircle
 10
-233.2337587457404
 20
-242.1284070135806
 30
0.0
 40
2.227384008972719
100
AcDbArc
 50
288.4480761181314
 51
301.9309089499574
  0
ARC
  5
1C9
102
{ACAD_REACTORS
330
238
330
239
102
}
330
71
100
AcDbEntity
  8
0
  6
Continuous
 62
     2
100
AcDbCircle
 10
-238.4588324783472
 20
-241.3959049846666
 30
0.0
 40
0.911848150144459
100
AcDbArc
 50
295.3740086781764
 51
64.62599132180748
  0
ARC
  5
1CA
102
{ACAD_REACTORS
330
238
330
239
102
}
330
71
100
AcDbEntity
  8
0
  6
Continuous
 62
     2
100
AcDbCircle
 10
-237.9327897802594
 20
-239.681228096192
 30
0.0
 40
0.3157169230760707
100
AcDbArc
 50
90.1889670425253
 51
180.0
  0
ARC
  5
1CB
102
{ACAD_REACTORS
330
23A
330
23B
102
}
330
71
100
AcDbEntity
  8
0
  6
Continuous
 62
     2
100
AcDbCircle
 10
-216.722659567425
 20
-243.7517569300332
 30
0.0
 40
0.9545230068260935
100
AcDbArc
 50
90.0
 51
109.3371432194368
  0
ARC
  5
1CC
102
{ACAD_REACTORS
330
23A
330
23B
102
}
330
71
100
AcDbEntity
  8
0
  6
Continuous
 62
     2
100
AcDbCircle
 10
-216.4919723074474
 20
-243.5388733789893
 30
0.0
 40
0.9410597353348924
100
AcDbArc
 50
151.4785267423624
 51
208.5214732576695
  0
ARC
  5
1CD
102
{ACAD_REACTORS
330
23A
330
23B
102
}
330
71
100
AcDbEntity
  8
0
  6
Continuous
 62
     2
100
AcDbCircle
 10
-216.7128895328256
 20
-243.3819527896178
 30
0.0
 40
0.9059297849853138
100
AcDbArc
 50
246.6277221118133
 51
288.4480761180834
  0
ARC
  5
1CE
102
{ACAD_REACTORS
330
23A
330
23B
102
}
330
71
100
AcDbEntity
  8
0
  6
Continuous
 62
     2
100
AcDbCircle
 10
-217.1310572664876
 20
-242.1284070135812
 30
0.0
 40
2.227384008972782
100
AcDbArc
 50
288.4480761181362
 51
301.9309089499416
  0
ARC
  5
1CF
102
{ACAD_REACTORS
330
23A
330
23B
102
}
330
71
100
AcDbEntity
  8
0
  6
Continuous
 62
     2
100
AcDbCircle
 10
-217.2889301415804
 20
-240.2261924337329
 30
0.0
 40
4.852596863498833
100
AcDbArc
 50
275.1581447696374
 51
285.9799912583397
  0
ARC
  5
1D0
102
{ACAD_REACTORS
330
23A
330
23B
102
}
330
71
100
AcDbEntity
  8
0
  6
Continuous
 62
     2
100
AcDbCircle
 10
-217.0000740468445
 20
-243.4260830169545
 30
0.0
 40
1.639695123940531
100
AcDbArc
 50
195.0618917771004
 51
275.1581447696762
  0
ARC
  5
1D1
102
{ACAD_REACTORS
330
232
330
233
102
}
330
71
100
AcDbEntity
  8
0
  6
Continuous
 62
     2
100
AcDbCircle
 10
-232.7282873585357
 20
-239.7081437822428
 30
0.0
 40
1.055365641333708
100
AcDbArc
 50
270.0
 51
90.0
  0
ARC
  5
1D2
102
{ACAD_REACTORS
330
238
330
239
102
}
330
71
100
AcDbEntity
  8
0
  6
Continuous
 62
     2
100
AcDbCircle
 10
-240.5083384667911
 20
-244.037505662261
 30
0.0
 40
0.3157169230755983
100
AcDbArc
 50
180.0
 51
270.0
  0
ARC
  5
1D3
102
{ACAD_REACTORS
330
238
330
239
102
}
330
71
100
AcDbEntity
  8
0
  6
Continuous
 62
     2
100
AcDbCircle
 10
-239.0325052057814
 20
-239.6810506195439
 30
0.0
 40
0.315716923076593
100
AcDbArc
 50
0.0
 51
90.0
  0
ARC
  5
1D4
102
{ACAD_REACTORS
330
238
330
239
102
}
330
71
100
AcDbEntity
  8
0
  6
Continuous
 62
     2
100
AcDbCircle
 10
-239.0325052057814
 20
-240.2850752386044
 30
0.0
 40
0.3157169230761203
100
AcDbArc
 50
295.1944106485397
 51
0.0
  0
ARC
  5
1D5
102
{ACAD_REACTORS
330
238
330
239
102
}
330
71
100
AcDbEntity
  8
0
  6
Continuous
 62
     2
100
AcDbCircle
 10
-239.0325052057814
 20
-244.037505662261
 30
0.0
 40
0.3157169230767067
100
AcDbArc
 50
270.0
 51
0.0
  0
ARC
  5
1D6
102
{ACAD_REACTORS
330
238
330
239
102
}
330
71
100
AcDbEntity
  8
0
  6
Continuous
 62
     2
100
AcDbCircle
 10
-241.1022331435376
 20
-239.0770227563111
 30
0.0
 40
0.4242446153837989
100
AcDbArc
 50
90.0
 51
180.0
  0
ARC
  5
1D7
102
{ACAD_REACTORS
330
238
330
239
102
}
330
71
100
AcDbEntity
  8
0
  6
Continuous
 62
     2
100
AcDbCircle
 10
-235.6289210528207
 20
-239.0770227563111
 30
0.0
 40
0.4242446153837989
100
AcDbArc
 50
0.0
 51
90.0
  0
ARC
  5
1D8
102
{ACAD_REACTORS
330
238
330
239
102
}
330
71
100
AcDbEntity
  8
0
  6
Continuous
 62
     2
100
AcDbCircle
 10
-235.6289210528207
 20
-244.6415335255113
 30
0.0
 40
0.4242446153832873
100
AcDbArc
 50
270.0
 51
0.0
  0
ARC
  5
1D9
102
{ACAD_REACTORS
330
236
330
237
102
}
330
71
100
AcDbEntity
  8
0
  6
Continuous
 62
     2
100
AcDbCircle
 10
-226.4105371657292
 20
-240.179682902815
 30
0.0
 40
0.7717997786795702
100
AcDbArc
 50
321.8795802028399
 51
38.12041979716347
  0
ARC
  5
1DA
102
{ACAD_REACTORS
330
236
330
237
102
}
330
71
100
AcDbEntity
  8
0
  6
Continuous
 62
     2
100
AcDbCircle
 10
-226.2107971293831
 20
-240.3364140809354
 30
0.0
 40
0.5179085730133477
100
AcDbArc
 50
218.1204197971589
 51
321.8795802028566
  0
ARC
  5
1DB
102
{ACAD_REACTORS
330
234
330
235
102
}
330
71
100
AcDbEntity
  8
0
  6
Continuous
 62
     2
100
AcDbCircle
 10
-229.8908047183433
 20
-243.5388733789893
 30
0.0
 40
1.458034083652003
100
AcDbArc
 50
297.548148175701
 51
62.45185182429896
  0
ARC
  5
1DC
102
{ACAD_REACTORS
330
234
330
235
102
}
330
71
100
AcDbEntity
  8
0
  6
Continuous
 62
     2
100
AcDbCircle
 10
-230.4526845020098
 20
-243.5388733789893
 30
0.0
 40
1.458034083651503
100
AcDbArc
 50
117.5481481756634
 51
242.4518518243366
  0
ARC
  5
1DD
102
{ACAD_REACTORS
330
234
330
235
102
}
330
71
100
AcDbEntity
  8
0
  6
Continuous
 62
     2
100
AcDbCircle
 10
-230.1717446101766
 20
-244.0774483892921
 30
0.0
 40
2.065479772208568
100
AcDbArc
 50
62.45185182430637
 51
117.5481481756643
  0
ARC
  5
1DE
102
{ACAD_REACTORS
330
234
330
235
102
}
330
71
100
AcDbEntity
  8
0
  6
Continuous
 62
     2
100
AcDbCircle
 10
-230.1717446101766
 20
-243.000298368686
 30
0.0
 40
2.065479772208469
100
AcDbArc
 50
242.4518518243423
 51
297.5481481756871
  0
ARC
  5
1DF
102
{ACAD_REACTORS
330
236
330
237
102
}
330
71
100
AcDbEntity
  8
0
  6
Continuous
 62
     2
100
AcDbCircle
 10
-226.0110570930368
 20
-240.179682902815
 30
0.0
 40
0.7717997786795829
100
AcDbArc
 50
141.8795802028352
 51
218.1204197971614
  0
ARC
  5
1E0
102
{ACAD_REACTORS
330
236
330
237
102
}
330
71
100
AcDbEntity
  8
0
  6
Continuous
 62
     2
100
AcDbCircle
 10
-226.2107971293831
 20
-240.0229517246945
 30
0.0
 40
0.5179085730135266
100
AcDbArc
 50
38.12041979714334
 51
141.8795802028411
  0
ARC
  5
1E1
102
{ACAD_REACTORS
330
238
330
239
102
}
330
71
100
AcDbEntity
  8
0
  6
Continuous
 62
     2
100
AcDbCircle
 10
-241.1022331435376
 20
-244.6415335255113
 30
0.0
 40
0.4242446153828041
100
AcDbArc
 50
180.0
 51
270.0
  0
ARC
  5
1E2
102
{ACAD_REACTORS
330
238
330
239
102
}
330
71
100
AcDbEntity
  8
0
  6
Continuous
 62
     2
100
AcDbCircle
 10
-239.0325052057814
 20
-242.5067347307294
 30
0.0
 40
0.315716923076593
100
AcDbArc
 50
0.0
 51
64.80558935146027
  0
ARC
  5
1E3
102
{ACAD_REACTORS
330
238
330
239
102
}
330
71
100
AcDbEntity
  8
0
  6
Continuous
 62
     2
100
AcDbCircle
 10
-238.5099207582065
 20
-241.3959049846666
 30
0.0
 40
0.9118975235575784
100
AcDbArc
 50
115.1944106485234
 51
244.8055893514925
  0
ARC
  5
1E4
102
{ACAD_REACTORS
330
238
330
239
102
}
330
71
100
AcDbEntity
  8
0
  6
Continuous
 62
     2
100
AcDbCircle
 10
-240.5083384667911
 20
-239.6810506195439
 30
0.0
 40
0.3157169230761951
100
AcDbArc
 50
90.0
 51
180.0
  0
ARC
  5
1E5
102
{ACAD_REACTORS
330
232
330
233
102
}
330
71
100
AcDbEntity
  8
0
  6
Continuous
 62
     2
100
AcDbCircle
 10
-233.169759884774
 20
-239.6687478110203
 30
0.0
 40
0.3528638246710898
100
AcDbArc
 50
270.0
 51
90.0
  0
ARC
  5
1E6
102
{ACAD_REACTORS
330
236
330
237
102
}
330
71
100
AcDbEntity
  8
0
  6
Continuous
 62
     2
100
AcDbCircle
 10
-226.4270691395483
 20
-240.179682902815
 30
0.0
 40
1.526904761905882
100
AcDbArc
 50
90.0
 51
270.0
  0
ARC
  5
1E7
102
{ACAD_REACTORS
330
23A
330
23B
102
}
330
71
100
AcDbEntity
  8
0
  6
Continuous
 62
     2
100
AcDbCircle
 10
-217.0000740468445
 20
-243.6516637410242
 30
0.0
 40
1.639695123940214
100
AcDbArc
 50
90.0
 51
164.9381082228957
  0
ARC
  5
1E8
102
{ACAD_REACTORS
330
23A
330
23B
102
}
330
71
100
AcDbEntity
  8
0
  6
Continuous
 62
     2
100
AcDbCircle
 10
-217.4192018903061
 20
-243.5388733789893
 30
0.0
 40
1.205656168393085
100
AcDbArc
 50
164.9381082229038
 51
195.0618917770948
  0
ARC
  5
1E9
102
{ACAD_REACTORS
330
23A
330
23B
102
}
330
71
100
AcDbEntity
  8
0
  6
Continuous
 62
     2
100
AcDbCircle
 10
-216.8693295655287
 20
-243.7439448083278
 30
0.0
 40
0.5115800601961216
100
AcDbArc
 50
208.5214732576805
 51
246.6277221118332
  0
ARC
  5
1EA
102
{ACAD_REACTORS
330
23A
330
23B
102
}
330
71
100
AcDbEntity
  8
0
  6
Continuous
 62
     2
100
AcDbCircle
 10
-216.8693295655287
 20
-243.3338019496503
 30
0.0
 40
0.5115800601944519
100
AcDbArc
 50
109.3371432194973
 51
151.4785267424286
  0
ARC
  5
1EB
102
{ACAD_REACTORS
330
238
330
239
102
}
330
71
100
AcDbEntity
  8
0
  6
Continuous
 62
     2
100
AcDbCircle
 10
-237.9327897802594
 20
-243.0868979913301
 30
0.0
 40
0.315716923076792
100
AcDbArc
 50
180.0
 51
269.8110329574748
  0
ARC
  5
1EC
102
{ACAD_REACTORS
330
238
330
239
102
}
330
71
100
AcDbEntity
  8
0
  6
Continuous
 62
     2
100
AcDbCircle
 10
-237.9271736449493
 20
-241.3840630437611
 30
0.0
 40
2.018561131933266
100
AcDbArc
 50
269.8110329575866
 51
90.18896704241334
  0
ARC
  5
1ED
102
{ACAD_REACTORS
330
238
330
239
102
}
330
71
100
AcDbEntity
  8
0
  6
Continuous
 62
     2
100
AcDbCircle
 10
-237.9327897802594
 20
-240.2867633846988
 30
0.0
 40
0.315716923076792
100
AcDbArc
 50
180.0
 51
244.6259913216621
  0
ARC
  5
1EE
102
{ACAD_REACTORS
330
238
330
239
102
}
330
71
100
AcDbEntity
  8
0
  6
Continuous
 62
     2
100
AcDbCircle
 10
-237.9327897802594
 20
-242.505046584635
 30
0.0
 40
0.3157169230764963
100
AcDbArc
 50
115.3740086783378
 51
180.0
  0
ARC
  5
1EF
102
{ACAD_REACTORS
330
23C
330
23D
102
}
330
71
100
AcDbEntity
  8
0
  6
Continuous
 62
     2
100
AcDbCircle
 10
-233.1027755260975
 20
-243.6516637410242
 30
0.0
 40
1.639695123940509
100
AcDbArc
 50
84.84185523036136
 51
164.9381082228857
  0
ARC
  5
1F0
102
{ACAD_REACTORS
330
23C
330
23D
102
}
330
71
100
AcDbEntity
  8
0
  6
Continuous
 62
     2
100
AcDbCircle
 10
-233.5219033695603
 20
-243.5388733789893
 30
0.0
 40
1.205656168390862
100
AcDbArc
 50
164.9381082228754
 51
195.0618917770959
  0
ARC
  5
1F1
102
{ACAD_REACTORS
330
23C
330
23D
102
}
330
71
100
AcDbEntity
  8
0
  6
Continuous
 62
     2
100
AcDbCircle
 10
-233.1027755260975
 20
-243.4260830169545
 30
0.0
 40
1.639695123939305
100
AcDbArc
 50
195.0618917770904
 51
275.1581447696406
  0
ARC
  5
1F2
102
{ACAD_REACTORS
330
23C
330
23D
102
}
330
71
100
AcDbEntity
  8
0
  6
Continuous
 62
     2
100
AcDbCircle
 10
-233.3916316208334
 20
-240.2261924337329
 30
0.0
 40
4.852596863498141
100
AcDbArc
 50
275.1581447696253
 51
285.9799912583529
  0
ARC
  5
1F3
102
{ACAD_REACTORS
330
23C
330
23D
102
}
330
71
100
AcDbEntity
  8
0
  6
Continuous
 62
     2
100
AcDbCircle
 10
-232.5946737867014
 20
-243.5388733789893
 30
0.0
 40
0.9410597353332545
100
AcDbArc
 50
151.4785267422669
 51
208.5214732577057
  0
ARC
  5
1F4
102
{ACAD_REACTORS
330
23C
330
23D
102
}
330
71
100
AcDbEntity
  8
0
  6
Continuous
 62
     2
100
AcDbCircle
 10
-232.9720310447817
 20
-243.3338019496503
 30
0.0
 40
0.5115800601948554
100
AcDbArc
 50
113.3722778881933
 51
151.4785267423059
  0
ARC
  5
1F5
102
{ACAD_REACTORS
330
23C
330
23D
102
}
330
71
100
AcDbEntity
  8
0
  6
Continuous
 62
     2
100
AcDbCircle
 10
-233.2337587457404
 20
-244.9493397443975
 30
0.0
 40
2.227384008973432
100
AcDbArc
 50
58.06909105004259
 51
71.5519238818686
  0
ARC
  5
1F6
102
{ACAD_REACTORS
330
234
330
235
102
}
330
71
100
AcDbEntity
  8
0
  6
Continuous
 62
     2
100
AcDbCircle
 10
-230.1717446101766
 20
-243.3821422008688
 30
0.0
 40
0.5179085730133669
100
AcDbArc
 50
38.12041979714121
 51
141.879580202853
  0
ARC
  5
1F7
102
{ACAD_REACTORS
330
234
330
235
102
}
330
71
100
AcDbEntity
  8
0
  6
Continuous
 62
     2
100
AcDbCircle
 10
-229.9720045738305
 20
-243.5388733789893
 30
0.0
 40
0.7717997786793962
100
AcDbArc
 50
141.8795802028324
 51
218.1204197971726
  0
ARC
  5
1F8
102
{ACAD_REACTORS
330
234
330
235
102
}
330
71
100
AcDbEntity
  8
0
  6
Continuous
 62
     2
100
AcDbCircle
 10
-230.1717446101766
 20
-243.6956045571093
 30
0.0
 40
0.5179085730136683
100
AcDbArc
 50
218.120419797199
 51
321.8795802028068
  0
ARC
  5
1F9
102
{ACAD_REACTORS
330
234
330
235
102
}
330
71
100
AcDbEntity
  8
0
  6
Continuous
 62
     2
100
AcDbCircle
 10
-230.371484646523
 20
-243.5388733789893
 30
0.0
 40
0.7717997786797395
100
AcDbArc
 50
321.8795802028443
 51
38.12041979715068
  0
CIRCLE
  5
1FA
330
71
100
AcDbEntity
  8
1
  6
Continuous
 62
     2
100
AcDbCircle
 10
-233.0264777589204
 20
-231.234278140911
 30
0.0
 40
2.5
  0
CIRCLE
  5
1FB
330
71
100
AcDbEntity
  8
1
  6
Continuous
 62
     2
100
AcDbCircle
 10
-233.0264777589204
 20
-231.234278140911
 30
0.0
 40
1.25
  0
CIRCLE
  5
1FC
102
{ACAD_REACTORS
330
238
330
239
102
}
330
71
100
AcDbEntity
  8
0
  6
Continuous
 62
     2
100
AcDbCircle
 10
-238.48264749302
 20
-241.3959049846666
 30
0.0
 40
0.4709789327785074
  0
MTEXT
  5
1FD
330
71
100
AcDbEntity
  8
1
 62
     3
100
AcDbMText
 10
-403.2132603326612
 20
-65.56796998561214
 30
0.0
 40
1.8
 41
0.0
 71
     7
 72
     1
  3
Weitergabe sowie Vervielf\U+00e4ltigung dieses Dokuments, Verwertung und \PMitteilung seines Inhalts sind verboten, soweit nicht ausdr\U+00fccklich gestattet. \PZuwiderhandlungen verpflichten zu Schadenersatz. Alle Rechte f\U+00fcr den Fall\Pder Pat
  1
ent-, Gebrauchsmuster- oder Designeintragung vorbehalten.
  7
CONVERTER_11
 73
     1
 44
0.99639855942377
  0
MTEXT
  5
1FE
330
71
100
AcDbEntity
  8
1
 62
     3
100
AcDbMText
 10
-220.3601504938731
 20
-65.56796998561214
 30
0.0
 40
1.8
 41
0.0
 71
     7
 72
     1
  3
Transfer or duplication of this document as well as the utilisation or\Pcommunication of its content are not permitted unless express consent\Pis granted. Violations give rise to claims for damages. All rights reserved\Pin case of patent, utility mo
  1
del or design patent registrations.
  7
CONVERTER_11
 73
     1
 44
0.99639855942377
  0
TEXT
  5
1FF
330
71
100
AcDbEntity
  8
1
 62
     2
100
AcDbText
 10
-226.5631326454831
 20
-251.1182953559026
 30
0.0
 40
1.8
  1
of
 41
0.9
  7
CONVERTER_11
100
AcDbText
  0
TEXT
  5
200
330
71
100
AcDbEntity
  8
1
 62
     2
100
AcDbText
 10
-244.763132645483
 20
-251.1182953559026
 30
0.0
 40
1.8
  1
page
 41
0.9
  7
CONVERTER_11
100
AcDbText
  0
TEXT
  5
201
330
71
100
AcDbEntity
  8
1
 62
     2
100
AcDbText
 10
-236.116867675141
 20
-251.1585267947129
 30
0.0
 40
1.8
  1
1
 41
0.9
  7
CONVERTER_11
100
AcDbText
  0
TEXT
  5
202
330
71
100
AcDbEntity
  8
1
 62
     2
100
AcDbText
 10
-221.3278238356695
 20
-251.109278140911
 30
0.0
 40
1.8
  1
1
 41
0.9
  7
CONVERTER_11
100
AcDbText
  0
MTEXT
  5
204
330
71
100
AcDbEntity
  8
1
 62
     7
100
AcDbMText
 10
-162.7907303821075
 20
-249.1092781409107
 30
0.0
 40
3.0
 41
0.0
 71
     5
 72
     1
  1
ZB 16:UNPRINTED
  7
CONVERTER_12
 73
     1
 44
1.20048019207683
  0
MTEXT
  5
205
330
71
100
AcDbEntity
  8
1
 62
     2
100
AcDbMText
 10
-208.363132645483
 20
-244.8592781409109
 30
0.0
 40
1.8
 41
0.0
 71
     1
 72
     1
  1
description
  7
CONVERTER_11
 73
     1
 44
1.20048019207683
  0
MTEXT
  5
206
330
71
100
AcDbEntity
  8
1
 62
     3
100
AcDbMText
 10
-219.5631326454831
 20
-231.2342781409109
 30
0.0
 40
2.5
 41
0.0
 71
     5
 72
     1
  1
DIN A4
  7
CONVERTER_11
 73
     1
 44
1.20048019207683
  0
MTEXT
  5
207
330
71
100
AcDbEntity
  8
1
 62
     7
100
AcDbMText
 10
-405.718328118732
 20
-229.8592781409109
 30
0.0
 40
3.5
 41
0.0
 71
     5
 72
     1
  1
D
  7
CONVERTER_11
 73
     1
 44
1.20048019207683
  0
MTEXT
  5
208
330
71
100
AcDbEntity
  8
1
 62
     7
100
AcDbMText
 10
-405.718328118732
 20
-177.3592781409109
 30
0.0
 40
3.5
 41
0.0
 71
     5
 72
     1
  1
C
  7
CONVERTER_11
 73
     1
 44
1.20048019207683
  0
MTEXT
  5
209
330
71
100
AcDbEntity
  8
1
 62
     7
100
AcDbMText
 10
-405.718328118732
 20
-127.3592781409109
 30
0.0
 40
3.5
 41
0.0
 71
     5
 72
     1
  1
B
  7
CONVERTER_11
 73
     1
 44
1.20048019207683
  0
MTEXT
  5
20A
330
71
100
AcDbEntity
  8
1
 62
     7
100
AcDbMText
 10
-405.718328118732
 20
-74.85927814091093
 30
0.0
 40
3.5
 41
0.0
 71
     5
 72
     1
  1
A
  7
CONVERTER_11
 73
     1
 44
1.20048019207683
  0
MTEXT
  5
20B
330
71
100
AcDbEntity
  8
1
 62
     7
100
AcDbMText
 10
-135.4683281187338
 20
-254.859278140911
 30
0.0
 40
3.5
 41
0.0
 71
     5
 72
     1
  1
6
  7
CONVERTER_11
 73
     1
 44
1.20048019207683
  0
MTEXT
  5
20C
330
71
100
AcDbEntity
  8
1
 62
     7
100
AcDbMText
 10
-184.718328118733
 20
-254.859278140911
 30
0.0
 40
3.5
 41
0.0
 71
     5
 72
     1
  1
5
  7
CONVERTER_11
 73
     1
 44
1.20048019207683
  0
MTEXT
  5
20D
330
71
100
AcDbEntity
  8
1
 62
     7
100
AcDbMText
 10
-234.718328118733
 20
-254.859278140911
 30
0.0
 40
3.5
 41
0.0
 71
     5
 72
     1
  1
4
  7
CONVERTER_11
 73
     1
 44
1.20048019207683
  0
MTEXT
  5
20E
330
71
100
AcDbEntity
  8
1
 62
     7
100
AcDbMText
 10
-284.7183281187329
 20
-254.859278140911
 30
0.0
 40
3.5
 41
0.0
 71
     5
 72
     1
  1
3
  7
CONVERTER_11
 73
     1
 44
1.20048019207683
  0
MTEXT
  5
20F
330
71
100
AcDbEntity
  8
1
 62
     7
100
AcDbMText
 10
-334.7183281187329
 20
-254.859278140911
 30
0.0
 40
3.5
 41
0.0
 71
     5
 72
     1
  1
2
  7
CONVERTER_11
 73
     1
 44
1.20048019207683
  0
MTEXT
  5
210
330
71
100
AcDbEntity
  8
1
 62
     7
100
AcDbMText
 10
-383.9683281187325
 20
-254.859278140911
 30
0.0
 40
3.5
 41
0.0
 71
     5
 72
     1
  1
1
  7
CONVERTER_11
 73
     1
 44
1.20048019207683
  0
MTEXT
  5
211
330
71
100
AcDbEntity
  8
1
 62
     7
100
AcDbMText
 10
-113.718328118734
 20
-229.8592781409109
 30
0.0
 40
3.5
 41
0.0
 71
     5
 72
     1
  1
D
  7
CONVERTER_11
 73
     1
 44
1.20048019207683
  0
MTEXT
  5
212
330
71
100
AcDbEntity
  8
1
 62
     7
100
AcDbMText
 10
-113.718328118734
 20
-127.359278140909
 30
0.0
 40
3.5
 41
0.0
 71
     5
 72
     1
  1
B
  7
CONVERTER_11
 73
     1
 44
1.20048019207683
  0
MTEXT
  5
213
330
71
100
AcDbEntity
  8
1
 62
     7
100
AcDbMText
 10
-113.718328118734
 20
-74.85927814091093
 30
0.0
 40
3.5
 41
0.0
 71
     5
 72
     1
  1
A
  7
CONVERTER_11
 73
     1
 44
1.20048019207683
  0
MTEXT
  5
214
330
71
100
AcDbEntity
  8
1
 62
     7
100
AcDbMText
 10
-113.718328118734
 20
-177.359278140909
 30
0.0
 40
3.5
 41
0.0
 71
     5
 72
     1
  1
C
  7
CONVERTER_11
 73
     1
 44
1.20048019207683
  0
MTEXT
  5
215
330
71
100
AcDbEntity
  8
1
 62
     2
100
AcDbMText
 10
-280.2011473705305
 20
-239.609278140911
 30
0.0
 40
2.0
 41
0.0
 71
     5
 72
     1
  1
General Information\P- Simplified representation\P- Document excluded from change process\P- Linear dimensions [mm]
  7
CONVERTER_11
 73
     1
 44
1.20048019207683
  0
TEXT
  5
216
330
71
100
AcDbEntity
  8
1
 62
     7
100
AcDbText
 10
-207.8631326454832
 20
-242.559278140911
 30
0.0
 40
2.5
  1
0827461
 41
0.81
  7
CONVERTER_12
100
AcDbText
  0
MTEXT
  5
217
330
71
100
AcDbEntity
  8
1
 62
     2
100
AcDbMText
 10
-208.263132645483
 20
-236.3592781409109
 30
0.0
 40
1.8
 41
0.0
 71
     1
 72
     1
  1
ident.-No.
  7
CONVERTER_11
 73
     1
 44
1.20048019207683
  0
MTEXT
  5
218
330
71
100
AcDbEntity
  8
1
 62
     2
100
AcDbMText
 10
-124.0367364004102
 20
-227.8592781409109
 30
0.0
 40
1.8
 41
0.0
 71
     1
 72
     1
  1
scale
  7
CONVERTER_11
 73
     1
 44
1.20048019207683
  0
MTEXT
  5
21A
330
71
100
AcDbEntity
  8
1
 62
     3
100
AcDbMText
 10
-120.6775322595706
 20
-234.0592781409108
 30
0.0
 40
2.5
 41
0.0
 71
     8
 72
     1
  1
2:1
  7
CONVERTER_13
 73
     1
 44
1.32052821128451
  0
TEXT
  5
21B
330
71
100
AcDbEntity
  8
1
 62
     7
100
AcDbText
 10
-208.263132645483
 20
-234.059278140911
 30
0.0
 40
2.5
  1
01097842
 41
0.81
  7
CONVERTER_12
100
AcDbText
  0
MTEXT
  5
21D
330
71
100
AcDbEntity
  8
1
 62
     2
100
AcDbMText
 10
-208.263132645483
 20
-227.8592781409109
 30
0.0
 40
1.8
 41
0.0
 71
     1
 72
     1
  1
document-No. / RI
  7
CONVERTER_14
 73
     1
 44
1.32052821128451
  0
TEXT
  5
21E
330
71
100
AcDbEntity
  8
1
 62
     3
100
AcDbText
 10
-180.4631326454829
 20
-242.559278140911
 30
0.0
 40
2.5
  1
TECDOC 2D_Productdrawing
 41
0.81
  7
CONVERTER_12
100
AcDbText
  0
MTEXT
  5
21F
330
71
100
AcDbEntity
  8
1
 62
     2
100
AcDbMText
 10
-180.4631326454829
 20
-236.359278140911
 30
0.0
 40
1.8
 41
0.0
 71
     1
 72
     1
  1
document-type
  7
CONVERTER_11
 73
     1
 44
1.20048019207683
  0
MTEXT
  5
220
330
71
100
AcDbEntity
  8
1
 62
     2
100
AcDbMText
 10
-150.6367364004101
 20
-227.859278140911
 30
0.0
 40
1.8
 41
0.0
 71
     1
 72
     1
  1
date
  7
CONVERTER_11
 73
     1
 44
1.32052821128451
  0
TEXT
  5
221
330
71
100
AcDbEntity
  8
1
 62
     3
100
AcDbText
 10
-150.6367364004101
 20
-234.059278140911
 30
0.0
 40
2.5
  1
03.04.2018
 41
0.81
  7
CONVERTER_12
100
AcDbText
  0
TEXT
  5
222
330
71
100
AcDbEntity
  8
1
 62
     7
100
AcDbText
 10
-188.2332204264272
 20
-234.059278140911
 30
0.0
 40
2.5
  1
00
 41
0.81
  7
CONVERTER_12
100
AcDbText
  0
TEXT
  5
223
330
71
100
AcDbEntity
  8
1
 62
     7
100
AcDbText
 10
-190.3895849234692
 20
-234.059278140911
 30
0.0
 40
2.5
  1
/
 41
0.9
  7
CONVERTER_11
100
AcDbText
  0
HATCH
  5
224
330
71
100
AcDbEntity
  8
1
  6
Continuous
 62
     2
100
AcDbHatch
 10
0.0
 20
0.0
 30
0.0
210
0.0
220
0.0
230
1.0
  2
_USER
 70
     0
 71
     1
 91
        1
 92
        1
 93
       12
 72
     1
 10
-228.0956319325219
 20
-241.7065876647203
 11
-229.2884246346883
 21
-241.7065876647203
 72
     1
 10
-229.2884246346883
 20
-241.7065876647203
 11
-229.2884246346883
 21
-240.5723155558765
 72
     1
 10
-229.2884246346883
 20
-240.5723155558765
 11
-230.3380822125957
 21
-240.5723155558765
 72
     1
 10
-230.3380822125957
 20
-240.5723155558765
 11
-230.3380822125957
 21
-241.7065876647203
 72
     1
 10
-230.3380822125957
 20
-241.7065876647203
 11
-231.5308749147623
 21
-241.7065876647203
 72
     1
 10
-231.5308749147623
 20
-241.7065876647203
 11
-231.5308749147623
 21
-238.6527781409091
 72
     1
 10
-231.5308749147623
 20
-238.6527781409091
 11
-230.3380822125957
 21
-238.6527781409091
 72
     1
 10
-230.3380822125957
 20
-238.6527781409091
 11
-230.3380822125957
 21
-239.7216114742437
 72
     1
 10
-230.3380822125957
 20
-239.7216114742437
 11
-229.2884246346883
 21
-239.7216114742437
 72
     1
 10
-229.2884246346883
 20
-239.7216114742437
 11
-229.2884246346883
 21
-238.6527781409091
 72
     1
 10
-229.2884246346883
 20
-238.6527781409091
 11
-228.0956319325219
 21
-238.6527781409091
 72
     1
 10
-228.0956319325219
 20
-238.6527781409091
 11
-228.0956319325219
 21
-241.7065876647203
 97
       12
330
191
330
192
330
17C
330
17B
330
17A
330
18E
330
179
330
18F
330
190
330
178
330
177
330
176
 75
     1
 76
     0
 52
45.0
 41
0.1
 77
     0
 78
     1
 53
45.0
 43
0.0
 44
0.0
 45
-0.0707106781186548
 46
0.0707106781186548
 79
     0
 98
        1
 10
0.0
 20
0.0
  0
HATCH
  5
225
330
71
100
AcDbEntity
  8
1
  6
Continuous
 62
     2
100
AcDbHatch
 10
0.0
 20
0.0
 30
0.0
210
0.0
220
0.0
230
1.0
  2
_USER
 70
     0
 71
     1
 91
        1
 92
        1
 93
       12
 72
     1
 10
-228.0956319325219
 20
-241.7065876647203
 11
-229.2884246346883
 21
-241.7065876647203
 72
     1
 10
-229.2884246346883
 20
-241.7065876647203
 11
-229.2884246346883
 21
-240.5723155558765
 72
     1
 10
-229.2884246346883
 20
-240.5723155558765
 11
-230.3380822125957
 21
-240.5723155558765
 72
     1
 10
-230.3380822125957
 20
-240.5723155558765
 11
-230.3380822125957
 21
-241.7065876647203
 72
     1
 10
-230.3380822125957
 20
-241.7065876647203
 11
-231.5308749147623
 21
-241.7065876647203
 72
     1
 10
-231.5308749147623
 20
-241.7065876647203
 11
-231.5308749147623
 21
-238.6527781409091
 72
     1
 10
-231.5308749147623
 20
-238.6527781409091
 11
-230.3380822125957
 21
-238.6527781409091
 72
     1
 10
-230.3380822125957
 20
-238.6527781409091
 11
-230.3380822125957
 21
-239.7216114742437
 72
     1
 10
-230.3380822125957
 20
-239.7216114742437
 11
-229.2884246346883
 21
-239.7216114742437
 72
     1
 10
-229.2884246346883
 20
-239.7216114742437
 11
-229.2884246346883
 21
-238.6527781409091
 72
     1
 10
-229.2884246346883
 20
-238.6527781409091
 11
-228.0956319325219
 21
-238.6527781409091
 72
     1
 10
-228.0956319325219
 20
-238.6527781409091
 11
-228.0956319325219
 21
-241.7065876647203
 97
       12
330
191
330
192
330
17C
330
17B
330
17A
330
18E
330
179
330
18F
330
190
330
178
330
177
330
176
 75
     1
 76
     0
 52
45.0
 41
0.1
 77
     0
 78
     1
 53
45.0
 43
0.0
 44
0.0
 45
-0.0707106781186548
 46
0.0707106781186548
 79
     0
 98
        1
 10
0.0
 20
0.0
  0
HATCH
  5
226
330
71
100
AcDbEntity
  8
1
  6
Continuous
 62
     2
100
AcDbHatch
 10
0.0
 20
0.0
 30
0.0
210
0.0
220
0.0
230
1.0
  2
_USER
 70
     0
 71
     1
 91
        1
 92
        1
 93
       10
 72
     1
 10
-225.8533325833336
 20
-243.3207441272886
 11
-227.0938369935865
 21
-242.0119686170835
 72
     1
 10
-227.0938369935865
 20
-242.0119686170835
 11
-228.286629695754
 21
-242.0119686170835
 72
     1
 10
-228.286629695754
 20
-242.0119686170835
 11
-228.286629695754
 21
-245.0657781408946
 72
     1
 10
-228.286629695754
 20
-245.0657781408946
 11
-227.0938369935865
 21
-245.0657781408946
 72
     1
 10
-227.0938369935865
 20
-245.0657781408946
 11
-227.0938369935865
 21
-243.75700263069
 72
     1
 10
-227.0938369935865
 20
-243.75700263069
 11
-225.8533325833336
 21
-245.0657781408946
 72
     1
 10
-225.8533325833336
 20
-245.0657781408946
 11
-224.6605398811672
 21
-245.0657781408946
 72
     1
 10
-224.6605398811672
 20
-245.0657781408946
 11
-224.6605398811672
 21
-242.0119686170835
 72
     1
 10
-224.6605398811672
 20
-242.0119686170835
 11
-225.8533325833336
 21
-242.0119686170835
 72
     1
 10
-225.8533325833336
 20
-242.0119686170835
 11
-225.8533325833336
 21
-243.3207441272886
 97
       10
330
19F
330
16F
330
16E
330
171
330
19A
330
19B
330
170
330
19C
330
19D
330
19E
 75
     1
 76
     0
 52
45.0
 41
0.1
 77
     0
 78
     1
 53
45.0
 43
0.0
 44
0.0
 45
-0.0707106781186548
 46
0.0707106781186548
 79
     0
 98
        1
 10
0.0
 20
0.0
  0
HATCH
  5
227
330
71
100
AcDbEntity
  8
1
  6
Continuous
 62
     2
100
AcDbHatch
 10
0.0
 20
0.0
 30
0.0
210
0.0
220
0.0
230
1.0
  2
_USER
 70
     0
 71
     1
 91
        1
 92
        1
 93
       10
 72
     1
 10
-225.8533325833336
 20
-243.3207441272886
 11
-227.0938369935865
 21
-242.0119686170835
 72
     1
 10
-227.0938369935865
 20
-242.0119686170835
 11
-228.286629695754
 21
-242.0119686170835
 72
     1
 10
-228.286629695754
 20
-242.0119686170835
 11
-228.286629695754
 21
-245.0657781408946
 72
     1
 10
-228.286629695754
 20
-245.0657781408946
 11
-227.0938369935865
 21
-245.0657781408946
 72
     1
 10
-227.0938369935865
 20
-245.0657781408946
 11
-227.0938369935865
 21
-243.75700263069
 72
     1
 10
-227.0938369935865
 20
-243.75700263069
 11
-225.8533325833336
 21
-245.0657781408946
 72
     1
 10
-225.8533325833336
 20
-245.0657781408946
 11
-224.6605398811672
 21
-245.0657781408946
 72
     1
 10
-224.6605398811672
 20
-245.0657781408946
 11
-224.6605398811672
 21
-242.0119686170835
 72
     1
 10
-224.6605398811672
 20
-242.0119686170835
 11
-225.8533325833336
 21
-242.0119686170835
 72
     1
 10
-225.8533325833336
 20
-242.0119686170835
 11
-225.8533325833336
 21
-243.3207441272886
 97
       10
330
19F
330
16F
330
16E
330
171
330
19A
330
19B
330
170
330
19C
330
19D
330
19E
 75
     1
 76
     0
 52
45.0
 41
0.1
 77
     0
 78
     1
 53
45.0
 43
0.0
 44
0.0
 45
-0.0707106781186548
 46
0.0707106781186548
 79
     0
 98
        1
 10
0.0
 20
0.0
  0
HATCH
  5
228
330
71
100
AcDbEntity
  8
1
  6
Continuous
 62
     2
100
AcDbHatch
 10
0.0
 20
0.0
 30
0.0
210
0.0
220
0.0
230
1.0
  2
_USER
 70
     0
 71
     1
 91
        1
 92
        1
 93
       10
 72
     1
 10
-220.6048937629138
 20
-239.9615536511143
 11
-221.8453981731678
 21
-238.6527781409091
 72
     1
 10
-221.8453981731678
 20
-238.6527781409091
 11
-223.0381908753344
 21
-238.6527781409091
 72
     1
 10
-223.0381908753344
 20
-238.6527781409091
 11
-223.0381908753344
 21
-241.7065876647203
 72
     1
 10
-223.0381908753344
 20
-241.7065876647203
 11
-221.8453981731678
 21
-241.7065876647203
 72
     1
 10
-221.8453981731678
 20
-241.7065876647203
 11
-221.8453981731678
 21
-240.3978121545156
 72
     1
 10
-221.8453981731678
 20
-240.3978121545156
 11
-220.6048937629138
 21
-241.7065876647203
 72
     1
 10
-220.6048937629138
 20
-241.7065876647203
 11
-219.4121010607472
 21
-241.7065876647203
 72
     1
 10
-219.4121010607472
 20
-241.7065876647203
 11
-219.4121010607472
 21
-238.6527781409091
 72
     1
 10
-219.4121010607472
 20
-238.6527781409091
 11
-220.6048937629138
 21
-238.6527781409091
 72
     1
 10
-220.6048937629138
 20
-238.6527781409091
 11
-220.6048937629138
 21
-239.9615536511143
 97
       10
330
1A4
330
16C
330
16B
330
1A5
330
16A
330
1A0
330
1A1
330
1A2
330
1A3
330
16D
 75
     1
 76
     0
 52
45.0
 41
0.1
 77
     0
 78
     1
 53
45.0
 43
0.0
 44
0.0
 45
-0.0707106781186548
 46
0.0707106781186548
 79
     0
 98
        1
 10
0.0
 20
0.0
  0
HATCH
  5
229
330
71
100
AcDbEntity
  8
1
  6
Continuous
 62
     2
100
AcDbHatch
 10
0.0
 20
0.0
 30
0.0
210
0.0
220
0.0
230
1.0
  2
_USER
 70
     0
 71
     1
 91
        1
 92
        1
 93
       10
 72
     1
 10
-220.6048937629138
 20
-239.9615536511143
 11
-221.8453981731678
 21
-238.6527781409091
 72
     1
 10
-221.8453981731678
 20
-238.6527781409091
 11
-223.0381908753344
 21
-238.6527781409091
 72
     1
 10
-223.0381908753344
 20
-238.6527781409091
 11
-223.0381908753344
 21
-241.7065876647203
 72
     1
 10
-223.0381908753344
 20
-241.7065876647203
 11
-221.8453981731678
 21
-241.7065876647203
 72
     1
 10
-221.8453981731678
 20
-241.7065876647203
 11
-221.8453981731678
 21
-240.3978121545156
 72
     1
 10
-221.8453981731678
 20
-240.3978121545156
 11
-220.6048937629138
 21
-241.7065876647203
 72
     1
 10
-220.6048937629138
 20
-241.7065876647203
 11
-219.4121010607472
 21
-241.7065876647203
 72
     1
 10
-219.4121010607472
 20
-241.7065876647203
 11
-219.4121010607472
 21
-238.6527781409091
 72
     1
 10
-219.4121010607472
 20
-238.6527781409091
 11
-220.6048937629138
 21
-238.6527781409091
 72
     1
 10
-220.6048937629138
 20
-238.6527781409091
 11
-220.6048937629138
 21
-239.9615536511143
 97
       10
330
1A4
330
16C
330
16B
330
1A5
330
16A
330
1A0
330
1A1
330
1A2
330
1A3
330
16D
 75
     1
 76
     0
 52
45.0
 41
0.1
 77
     0
 78
     1
 53
45.0
 43
0.0
 44
0.0
 45
-0.0707106781186548
 46
0.0707106781186548
 79
     0
 98
        1
 10
0.0
 20
0.0
  0
HATCH
  5
22A
330
71
100
AcDbEntity
  8
1
  6
Continuous
 62
     2
100
AcDbHatch
 10
0.0
 20
0.0
 30
0.0
210
0.0
220
0.0
230
1.0
  2
_USER
 70
     0
 71
     1
 91
        1
 92
        1
 93
        8
 72
     1
 10
-221.7024139797933
 20
-242.0119686170835
 11
-224.517404756907
 21
-242.0119686170835
 72
     1
 10
-224.517404756907
 20
-242.0119686170835
 11
-224.517404756907
 21
-242.7972339232071
 72
     1
 10
-224.517404756907
 20
-242.7972339232071
 11
-223.7063057194324
 21
-242.7972339232071
 72
     1
 10
-223.7063057194324
 20
-242.7972339232071
 11
-223.7063057194324
 21
-245.0657781408946
 72
     1
 10
-223.7063057194324
 20
-245.0657781408946
 11
-222.5135130172658
 21
-245.0657781408946
 72
     1
 10
-222.5135130172658
 20
-245.0657781408946
 11
-222.5135130172658
 21
-242.7972339232071
 72
     1
 10
-222.5135130172658
 20
-242.7972339232071
 11
-221.7024139797933
 21
-242.7972339232071
 72
     1
 10
-221.7024139797933
 20
-242.7972339232071
 11
-221.7024139797933
 21
-242.0119686170835
 97
        8
330
166
330
1A6
330
165
330
1A7
330
1A8
330
169
330
168
330
167
 75
     1
 76
     0
 52
45.0
 41
0.1
 77
     0
 78
     1
 53
45.0
 43
0.0
 44
0.0
 45
-0.0707106781186548
 46
0.0707106781186548
 79
     0
 98
        1
 10
0.0
 20
0.0
  0
HATCH
  5
22B
330
71
100
AcDbEntity
  8
1
  6
Continuous
 62
     2
100
AcDbHatch
 10
0.0
 20
0.0
 30
0.0
210
0.0
220
0.0
230
1.0
  2
_USER
 70
     0
 71
     1
 91
        1
 92
        1
 93
        8
 72
     1
 10
-221.7024139797933
 20
-242.0119686170835
 11
-224.517404756907
 21
-242.0119686170835
 72
     1
 10
-224.517404756907
 20
-242.0119686170835
 11
-224.517404756907
 21
-242.7972339232071
 72
     1
 10
-224.517404756907
 20
-242.7972339232071
 11
-223.7063057194324
 21
-242.7972339232071
 72
     1
 10
-223.7063057194324
 20
-242.7972339232071
 11
-223.7063057194324
 21
-245.0657781408946
 72
     1
 10
-223.7063057194324
 20
-245.0657781408946
 11
-222.5135130172658
 21
-245.0657781408946
 72
     1
 10
-222.5135130172658
 20
-245.0657781408946
 11
-222.5135130172658
 21
-242.7972339232071
 72
     1
 10
-222.5135130172658
 20
-242.7972339232071
 11
-221.7024139797933
 21
-242.7972339232071
 72
     1
 10
-221.7024139797933
 20
-242.7972339232071
 11
-221.7024139797933
 21
-242.0119686170835
 97
        8
330
166
330
1A6
330
165
330
1A7
330
1A8
330
169
330
168
330
167
 75
     1
 76
     0
 52
45.0
 41
0.1
 77
     0
 78
     1
 53
45.0
 43
0.0
 44
0.0
 45
-0.0707106781186548
 46
0.0707106781186548
 79
     0
 98
        1
 10
0.0
 20
0.0
  0
HATCH
  5
22C
330
71
100
AcDbEntity
  8
1
  6
Continuous
 62
     2
100
AcDbHatch
 10
0.0
 20
0.0
 30
0.0
210
0.0
220
0.0
230
1.0
  2
_USER
 70
     0
 71
     1
 91
        2
 92
        1
 93
        8
 72
     1
 10
-219.5639865238464
 20
-245.0657781408946
 11
-219.7754665773221
 21
-244.5248175966767
 72
     1
 10
-219.7754665773221
 20
-244.5248175966767
 11
-220.907908153996
 21
-244.5248175966767
 72
     1
 10
-220.907908153996
 20
-244.5248175966767
 11
-221.1193882074718
 21
-245.0657781408946
 72
     1
 10
-221.1193882074718
 20
-245.0657781408946
 11
-222.3598926177247
 21
-245.0657781408946
 72
     1
 10
-222.3598926177247
 20
-245.0657781408946
 11
-220.9619395707854
 21
-242.0119686170835
 72
     1
 10
-220.9619395707854
 20
-242.0119686170835
 11
-219.7214351605327
 21
-242.0119686170835
 72
     1
 10
-219.7214351605327
 20
-242.0119686170835
 11
-218.3234821135924
 21
-245.0657781408946
 72
     1
 10
-218.3234821135924
 20
-245.0657781408946
 11
-219.5639865238464
 21
-245.0657781408946
 97
        8
330
1AA
330
1AB
330
162
330
1AC
330
161
330
164
330
1A9
330
163
 92
       16
 93
        3
 72
     1
 10
-220.641852602851
 20
-243.8442543313701
 11
-220.3416873656585
 21
-243.0764393653834
 72
     1
 10
-220.3416873656585
 20
-243.0764393653834
 11
-220.0415221284684
 21
-243.8442543313701
 72
     1
 10
-220.0415221284684
 20
-243.8442543313701
 11
-220.641852602851
 21
-243.8442543313701
 97
        3
330
160
330
1AE
330
1AD
 75
     1
 76
     0
 52
45.0
 41
0.1
 77
     0
 78
     1
 53
45.0
 43
0.0
 44
0.0
 45
-0.0707106781186548
 46
0.0707106781186548
 79
     0
 98
        1
 10
0.0
 20
0.0
  0
HATCH
  5
22D
330
71
100
AcDbEntity
  8
1
  6
Continuous
 62
     2
100
AcDbHatch
 10
0.0
 20
0.0
 30
0.0
210
0.0
220
0.0
230
1.0
  2
_USER
 70
     0
 71
     1
 91
        2
 92
        1
 93
        8
 72
     1
 10
-219.5639865238464
 20
-245.0657781408946
 11
-219.7754665773221
 21
-244.5248175966767
 72
     1
 10
-219.7754665773221
 20
-244.5248175966767
 11
-220.907908153996
 21
-244.5248175966767
 72
     1
 10
-220.907908153996
 20
-244.5248175966767
 11
-221.1193882074718
 21
-245.0657781408946
 72
     1
 10
-221.1193882074718
 20
-245.0657781408946
 11
-222.3598926177247
 21
-245.0657781408946
 72
     1
 10
-222.3598926177247
 20
-245.0657781408946
 11
-220.9619395707854
 21
-242.0119686170835
 72
     1
 10
-220.9619395707854
 20
-242.0119686170835
 11
-219.7214351605327
 21
-242.0119686170835
 72
     1
 10
-219.7214351605327
 20
-242.0119686170835
 11
-218.3234821135924
 21
-245.0657781408946
 72
     1
 10
-218.3234821135924
 20
-245.0657781408946
 11
-219.5639865238464
 21
-245.0657781408946
 97
        8
330
1AA
330
1AB
330
162
330
1AC
330
161
330
164
330
1A9
330
163
 92
       16
 93
        3
 72
     1
 10
-220.641852602851
 20
-243.8442543313701
 11
-220.3416873656585
 21
-243.0764393653834
 72
     1
 10
-220.3416873656585
 20
-243.0764393653834
 11
-220.0415221284684
 21
-243.8442543313701
 72
     1
 10
-220.0415221284684
 20
-243.8442543313701
 11
-220.641852602851
 21
-243.8442543313701
 97
        3
330
160
330
1AE
330
1AD
 75
     1
 76
     0
 52
45.0
 41
0.1
 77
     0
 78
     1
 53
45.0
 43
0.0
 44
0.0
 45
-0.0707106781186548
 46
0.0707106781186548
 79
     0
 98
        1
 10
0.0
 20
0.0
  0
HATCH
  5
22E
330
71
100
AcDbEntity
  8
1
  6
Continuous
 62
     2
100
AcDbHatch
 10
0.0
 20
0.0
 30
0.0
210
0.0
220
0.0
230
1.0
  2
_USER
 70
     0
 71
     1
 91
        1
 92
        1
 93
        4
 72
     1
 10
-217.9330381100604
 20
-241.7065876647203
 11
-219.1735425203133
 21
-241.7065876647203
 72
     1
 10
-219.1735425203133
 20
-241.7065876647203
 11
-219.1735425203133
 21
-238.6527781409091
 72
     1
 10
-219.1735425203133
 20
-238.6527781409091
 11
-217.9330381100604
 21
-238.6527781409091
 72
     1
 10
-217.9330381100604
 20
-238.6527781409091
 11
-217.9330381100604
 21
-241.7065876647203
 97
        4
330
15D
330
15F
330
1AF
330
15E
 75
     1
 76
     0
 52
45.0
 41
0.1
 77
     0
 78
     1
 53
45.0
 43
0.0
 44
0.0
 45
-0.0707106781186548
 46
0.0707106781186548
 79
     0
 98
        1
 10
0.0
 20
0.0
  0
HATCH
  5
22F
330
71
100
AcDbEntity
  8
1
  6
Continuous
 62
     2
100
AcDbHatch
 10
0.0
 20
0.0
 30
0.0
210
0.0
220
0.0
230
1.0
  2
_USER
 70
     0
 71
     1
 91
        1
 92
        1
 93
        4
 72
     1
 10
-217.9330381100604
 20
-241.7065876647203
 11
-219.1735425203133
 21
-241.7065876647203
 72
     1
 10
-219.1735425203133
 20
-241.7065876647203
 11
-219.1735425203133
 21
-238.6527781409091
 72
     1
 10
-219.1735425203133
 20
-238.6527781409091
 11
-217.9330381100604
 21
-238.6527781409091
 72
     1
 10
-217.9330381100604
 20
-238.6527781409091
 11
-217.9330381100604
 21
-241.7065876647203
 97
        4
330
15D
330
15F
330
1AF
330
15E
 75
     1
 76
     0
 52
45.0
 41
0.1
 77
     0
 78
     1
 53
45.0
 43
0.0
 44
0.0
 45
-0.0707106781186548
 46
0.0707106781186548
 79
     0
 98
        1
 10
0.0
 20
0.0
  0
HATCH
  5
230
330
71
100
AcDbEntity
  8
1
  6
Continuous
 62
     2
100
AcDbHatch
 10
0.0
 20
0.0
 30
0.0
210
0.0
220
0.0
230
1.0
  2
_USER
 70
     0
 71
     1
 91
        1
 92
        1
 93
       12
 72
     1
 10
-213.7105519443896
 20
-238.6527781409091
 11
-215.0130815751562
 21
-240.1257286709453
 72
     1
 10
-215.0130815751562
 20
-240.1257286709453
 11
-213.6151285282159
 21
-241.7065876647203
 72
     1
 10
-213.6151285282159
 20
-241.7065876647203
 11
-215.0178527459642
 21
-241.7065876647203
 72
     1
 10
-215.0178527459642
 20
-241.7065876647203
 11
-215.7144436840297
 21
-240.9188558794266
 72
     1
 10
-215.7144436840297
 20
-240.9188558794266
 11
-216.4110346220953
 21
-241.7065876647203
 72
     1
 10
-216.4110346220953
 20
-241.7065876647203
 11
-217.8137588398436
 21
-241.7065876647203
 72
     1
 10
-217.8137588398436
 20
-241.7065876647203
 11
-216.4158057929033
 21
-240.1257286709453
 72
     1
 10
-216.4158057929033
 20
-240.1257286709453
 11
-217.7183354236707
 21
-238.6527781409091
 72
     1
 10
-217.7183354236707
 20
-238.6527781409091
 11
-216.3156112059214
 21
-238.6527781409091
 72
     1
 10
-216.3156112059214
 20
-238.6527781409091
 11
-215.7144436840297
 21
-239.3326014624646
 72
     1
 10
-215.7144436840297
 20
-239.3326014624646
 11
-215.1132761621369
 21
-238.6527781409091
 72
     1
 10
-215.1132761621369
 20
-238.6527781409091
 11
-213.7105519443896
 21
-238.6527781409091
 97
       12
330
158
330
157
330
156
330
1B3
330
1B4
330
1B0
330
1B1
330
15C
330
15B
330
15A
330
159
330
1B2
 75
     1
 76
     0
 52
45.0
 41
0.1
 77
     0
 78
     1
 53
45.0
 43
0.0
 44
0.0
 45
-0.0707106781186548
 46
0.0707106781186548
 79
     0
 98
        1
 10
0.0
 20
0.0
  0
HATCH
  5
231
330
71
100
AcDbEntity
  8
1
  6
Continuous
 62
     2
100
AcDbHatch
 10
0.0
 20
0.0
 30
0.0
210
0.0
220
0.0
230
1.0
  2
_USER
 70
     0
 71
     1
 91
        1
 92
        1
 93
       12
 72
     1
 10
-213.7105519443896
 20
-238.6527781409091
 11
-215.0130815751562
 21
-240.1257286709453
 72
     1
 10
-215.0130815751562
 20
-240.1257286709453
 11
-213.6151285282159
 21
-241.7065876647203
 72
     1
 10
-213.6151285282159
 20
-241.7065876647203
 11
-215.0178527459642
 21
-241.7065876647203
 72
     1
 10
-215.0178527459642
 20
-241.7065876647203
 11
-215.7144436840297
 21
-240.9188558794266
 72
     1
 10
-215.7144436840297
 20
-240.9188558794266
 11
-216.4110346220953
 21
-241.7065876647203
 72
     1
 10
-216.4110346220953
 20
-241.7065876647203
 11
-217.8137588398436
 21
-241.7065876647203
 72
     1
 10
-217.8137588398436
 20
-241.7065876647203
 11
-216.4158057929033
 21
-240.1257286709453
 72
     1
 10
-216.4158057929033
 20
-240.1257286709453
 11
-217.7183354236707
 21
-238.6527781409091
 72
     1
 10
-217.7183354236707
 20
-238.6527781409091
 11
-216.3156112059214
 21
-238.6527781409091
 72
     1
 10
-216.3156112059214
 20
-238.6527781409091
 11
-215.7144436840297
 21
-239.3326014624646
 72
     1
 10
-215.7144436840297
 20
-239.3326014624646
 11
-215.1132761621369
 21
-238.6527781409091
 72
     1
 10
-215.1132761621369
 20
-238.6527781409091
 11
-213.7105519443896
 21
-238.6527781409091
 97
       12
330
158
330
157
330
156
330
1B3
330
1B4
330
1B0
330
1B1
330
15C
330
15B
330
15A
330
159
330
1B2
 75
     1
 76
     0
 52
45.0
 41
0.1
 77
     0
 78
     1
 53
45.0
 43
0.0
 44
0.0
 45
-0.0707106781186548
 46
0.0707106781186548
 79
     0
 98
        1
 10
0.0
 20
0.0
  0
HATCH
  5
232
330
71
100
AcDbEntity
  8
1
  6
Continuous
 62
     2
100
AcDbHatch
 10
0.0
 20
0.0
 30
0.0
210
0.0
220
0.0
230
1.0
  2
_USER
 70
     0
 71
     1
 91
        2
 92
        1
 93
        6
 72
     1
 10
-232.7282873585357
 20
-240.7635094235765
 11
-233.4870549463159
 21
-240.7635094235765
 72
     1
 10
-233.4870549463159
 20
-240.7635094235765
 11
-233.4870549463159
 21
-241.7065876647203
 72
     1
 10
-233.4870549463159
 20
-241.7065876647203
 11
-234.7275593565701
 21
-241.7065876647203
 72
     1
 10
-234.7275593565701
 20
-241.7065876647203
 11
-234.7275593565701
 21
-238.6527781409091
 72
     1
 10
-234.7275593565701
 20
-238.6527781409091
 11
-232.7282873585357
 21
-238.6527781409091
 72
     2
 10
-232.7282873585357
 20
-239.7081437822428
 40
1.055365641333708
 50
270.0
 51
450.0
 73
     0
 97
        6
330
180
330
17F
330
18C
330
18B
330
181
330
1D1
 92
       16
 93
        4
 72
     2
 10
-233.169759884774
 20
-239.6687478110203
 40
0.3528638246710898
 50
270.0
 51
450.0
 73
     1
 72
     1
 10
-233.169759884774
 20
-239.3158839863492
 11
-233.4870549463159
 21
-239.3158839863492
 72
     1
 10
-233.4870549463159
 20
-239.3158839863492
 11
-233.4870549463159
 21
-240.0216116356914
 72
     1
 10
-233.4870549463159
 20
-240.0216116356914
 11
-233.169759884774
 21
-240.0216116356914
 97
        4
330
1E5
330
17D
330
18D
330
17E
 75
     1
 76
     0
 52
45.0
 41
0.1
 77
     0
 78
     1
 53
45.0
 43
0.0
 44
0.0
 45
-0.0707106781186548
 46
0.0707106781186548
 79
     0
 98
        1
 10
0.0
 20
0.0
  0
HATCH
  5
233
330
71
100
AcDbEntity
  8
1
  6
Continuous
 62
     2
100
AcDbHatch
 10
0.0
 20
0.0
 30
0.0
210
0.0
220
0.0
230
1.0
  2
_USER
 70
     0
 71
     1
 91
        2
 92
        1
 93
        6
 72
     1
 10
-232.7282873585357
 20
-240.7635094235765
 11
-233.4870549463159
 21
-240.7635094235765
 72
     1
 10
-233.4870549463159
 20
-240.7635094235765
 11
-233.4870549463159
 21
-241.7065876647203
 72
     1
 10
-233.4870549463159
 20
-241.7065876647203
 11
-234.7275593565701
 21
-241.7065876647203
 72
     1
 10
-234.7275593565701
 20
-241.7065876647203
 11
-234.7275593565701
 21
-238.6527781409091
 72
     1
 10
-234.7275593565701
 20
-238.6527781409091
 11
-232.7282873585357
 21
-238.6527781409091
 72
     2
 10
-232.7282873585357
 20
-239.7081437822428
 40
1.055365641333708
 50
270.0
 51
450.0
 73
     0
 97
        6
330
180
330
17F
330
18C
330
18B
330
181
330
1D1
 92
       16
 93
        4
 72
     2
 10
-233.169759884774
 20
-239.6687478110203
 40
0.3528638246710898
 50
270.0
 51
450.0
 73
     1
 72
     1
 10
-233.169759884774
 20
-239.3158839863492
 11
-233.4870549463159
 21
-239.3158839863492
 72
     1
 10
-233.4870549463159
 20
-239.3158839863492
 11
-233.4870549463159
 21
-240.0216116356914
 72
     1
 10
-233.4870549463159
 20
-240.0216116356914
 11
-233.169759884774
 21
-240.0216116356914
 97
        4
330
1E5
330
17D
330
18D
330
17E
 75
     1
 76
     0
 52
45.0
 41
0.1
 77
     0
 78
     1
 53
45.0
 43
0.0
 44
0.0
 45
-0.0707106781186548
 46
0.0707106781186548
 79
     0
 98
        1
 10
0.0
 20
0.0
  0
HATCH
  5
234
330
71
100
AcDbEntity
  8
1
  6
Continuous
 62
     2
100
AcDbHatch
 10
0.0
 20
0.0
 30
0.0
210
0.0
220
0.0
230
1.0
  2
_USER
 70
     0
 71
     1
 91
        2
 92
        1
 93
        4
 72
     2
 10
-230.1717446101766
 20
-244.0774483892921
 40
2.065479772208568
 50
62.45185182430637
 51
117.5481481756643
 73
     1
 72
     2
 10
-230.4526845020098
 20
-243.5388733789893
 40
1.458034083651503
 50
117.5481481756634
 51
242.4518518243366
 73
     1
 72
     2
 10
-230.1717446101766
 20
-243.000298368686
 40
2.065479772208469
 50
242.4518518243423
 51
297.5481481756871
 73
     1
 72
     2
 10
-229.8908047183433
 20
-243.5388733789893
 40
1.458034083652003
 50
297.548148175701
 51
422.451851824299
 73
     1
 97
        4
330
1DD
330
1DC
330
1DE
330
1DB
 92
       16
 93
        4
 72
     2
 10
-230.371484646523
 20
-243.5388733789893
 40
0.7717997786797395
 50
321.8795802028443
 51
398.1204197971506
 73
     1
 72
     2
 10
-230.1717446101766
 20
-243.3821422008688
 40
0.5179085730133669
 50
38.12041979714121
 51
141.879580202853
 73
     1
 72
     2
 10
-229.9720045738305
 20
-243.5388733789893
 40
0.7717997786793962
 50
141.8795802028324
 51
218.1204197971726
 73
     1
 72
     2
 10
-230.1717446101766
 20
-243.6956045571093
 40
0.5179085730136683
 50
218.120419797199
 51
321.8795802028068
 73
     1
 97
        4
330
1F9
330
1F6
330
1F7
330
1F8
 75
     1
 76
     0
 52
45.0
 41
0.1
 77
     0
 78
     1
 53
45.0
 43
0.0
 44
0.0
 45
-0.0707106781186548
 46
0.0707106781186548
 79
     0
 98
        1
 10
0.0
 20
0.0
  0
HATCH
  5
235
330
71
100
AcDbEntity
  8
1
  6
Continuous
 62
     2
100
AcDbHatch
 10
0.0
 20
0.0
 30
0.0
210
0.0
220
0.0
230
1.0
  2
_USER
 70
     0
 71
     1
 91
        2
 92
        1
 93
        4
 72
     2
 10
-230.1717446101766
 20
-244.0774483892921
 40
2.065479772208568
 50
62.45185182430637
 51
117.5481481756643
 73
     1
 72
     2
 10
-230.4526845020098
 20
-243.5388733789893
 40
1.458034083651503
 50
117.5481481756634
 51
242.4518518243366
 73
     1
 72
     2
 10
-230.1717446101766
 20
-243.000298368686
 40
2.065479772208469
 50
242.4518518243423
 51
297.5481481756871
 73
     1
 72
     2
 10
-229.8908047183433
 20
-243.5388733789893
 40
1.458034083652003
 50
297.548148175701
 51
422.451851824299
 73
     1
 97
        4
330
1DD
330
1DC
330
1DE
330
1DB
 92
       16
 93
        4
 72
     2
 10
-230.371484646523
 20
-243.5388733789893
 40
0.7717997786797395
 50
321.8795802028443
 51
398.1204197971506
 73
     1
 72
     2
 10
-230.1717446101766
 20
-243.3821422008688
 40
0.5179085730133669
 50
38.12041979714121
 51
141.879580202853
 73
     1
 72
     2
 10
-229.9720045738305
 20
-243.5388733789893
 40
0.7717997786793962
 50
141.8795802028324
 51
218.1204197971726
 73
     1
 72
     2
 10
-230.1717446101766
 20
-243.6956045571093
 40
0.5179085730136683
 50
218.120419797199
 51
321.8795802028068
 73
     1
 97
        4
330
1F9
330
1F6
330
1F7
330
1F8
 75
     1
 76
     0
 52
45.0
 41
0.1
 77
     0
 78
     1
 53
45.0
 43
0.0
 44
0.0
 45
-0.0707106781186548
 46
0.0707106781186548
 79
     0
 98
        1
 10
0.0
 20
0.0
  0
HATCH
  5
236
330
71
100
AcDbEntity
  8
1
  6
Continuous
 62
     2
100
AcDbHatch
 10
0.0
 20
0.0
 30
0.0
210
0.0
220
0.0
230
1.0
  2
_USER
 70
     0
 71
     1
 91
        2
 92
        1
 93
       12
 72
     1
 10
-223.2767494157673
 20
-239.3507917463521
 11
-224.6126772421949
 21
-239.3507917463521
 72
     1
 10
-224.6126772421949
 20
-239.3507917463521
 11
-224.6126772421949
 21
-239.8306761000938
 72
     1
 10
-224.6126772421949
 20
-239.8306761000938
 11
-223.2767494157673
 21
-239.8306761000938
 72
     1
 10
-223.2767494157673
 20
-239.8306761000938
 11
-223.2767494157673
 21
-240.5286897055361
 72
     1
 10
-223.2767494157673
 20
-240.5286897055361
 11
-224.6126772421949
 21
-240.5286897055361
 72
     1
 10
-224.6126772421949
 20
-240.5286897055361
 11
-224.6126772421949
 21
-241.0085740592778
 72
     1
 10
-224.6126772421949
 20
-241.0085740592778
 11
-223.2767494157673
 21
-241.0085740592778
 72
     1
 10
-223.2767494157673
 20
-241.0085740592778
 11
-223.2767494157673
 21
-241.7065876647203
 72
     1
 10
-223.2767494157673
 20
-241.7065876647203
 11
-226.4270691395483
 21
-241.7065876647203
 72
     2
 10
-226.4270691395483
 20
-240.179682902815
 40
1.526904761905882
 50
90.0
 51
270.0
 73
     0
 72
     1
 10
-226.4270691395483
 20
-238.6527781409091
 11
-223.2767494157673
 21
-238.6527781409091
 72
     1
 10
-223.2767494157673
 20
-238.6527781409091
 11
-223.2767494157673
 21
-239.3507917463521
 97
       12
330
194
330
1E6
330
195
330
196
330
197
330
198
330
175
330
174
330
173
330
172
330
199
330
193
 92
       16
 93
        4
 72
     2
 10
-226.2107971293831
 20
-240.0229517246945
 40
0.5179085730135266
 50
38.12041979714334
 51
141.8795802028411
 73
     1
 72
     2
 10
-226.0110570930368
 20
-240.179682902815
 40
0.7717997786795829
 50
141.8795802028352
 51
218.1204197971614
 73
     1
 72
     2
 10
-226.2107971293831
 20
-240.3364140809354
 40
0.5179085730133477
 50
218.1204197971589
 51
321.8795802028566
 73
     1
 72
     2
 10
-226.4105371657292
 20
-240.179682902815
 40
0.7717997786795702
 50
321.8795802028399
 51
398.1204197971634
 73
     1
 97
        4
330
1E0
330
1DF
330
1DA
330
1D9
 75
     1
 76
     0
 52
45.0
 41
0.1
 77
     0
 78
     1
 53
45.0
 43
0.0
 44
0.0
 45
-0.0707106781186548
 46
0.0707106781186548
 79
     0
 98
        1
 10
0.0
 20
0.0
  0
HATCH
  5
237
330
71
100
AcDbEntity
  8
1
  6
Continuous
 62
     2
100
AcDbHatch
 10
0.0
 20
0.0
 30
0.0
210
0.0
220
0.0
230
1.0
  2
_USER
 70
     0
 71
     1
 91
        2
 92
        1
 93
       12
 72
     1
 10
-223.2767494157673
 20
-239.3507917463521
 11
-224.6126772421949
 21
-239.3507917463521
 72
     1
 10
-224.6126772421949
 20
-239.3507917463521
 11
-224.6126772421949
 21
-239.8306761000938
 72
     1
 10
-224.6126772421949
 20
-239.8306761000938
 11
-223.2767494157673
 21
-239.8306761000938
 72
     1
 10
-223.2767494157673
 20
-239.8306761000938
 11
-223.2767494157673
 21
-240.5286897055361
 72
     1
 10
-223.2767494157673
 20
-240.5286897055361
 11
-224.6126772421949
 21
-240.5286897055361
 72
     1
 10
-224.6126772421949
 20
-240.5286897055361
 11
-224.6126772421949
 21
-241.0085740592778
 72
     1
 10
-224.6126772421949
 20
-241.0085740592778
 11
-223.2767494157673
 21
-241.0085740592778
 72
     1
 10
-223.2767494157673
 20
-241.0085740592778
 11
-223.2767494157673
 21
-241.7065876647203
 72
     1
 10
-223.2767494157673
 20
-241.7065876647203
 11
-226.4270691395483
 21
-241.7065876647203
 72
     2
 10
-226.4270691395483
 20
-240.179682902815
 40
1.526904761905882
 50
90.0
 51
270.0
 73
     0
 72
     1
 10
-226.4270691395483
 20
-238.6527781409091
 11
-223.2767494157673
 21
-238.6527781409091
 72
     1
 10
-223.2767494157673
 20
-238.6527781409091
 11
-223.2767494157673
 21
-239.3507917463521
 97
       12
330
194
330
1E6
330
195
330
196
330
197
330
198
330
175
330
174
330
173
330
172
330
199
330
193
 92
       16
 93
        4
 72
     2
 10
-226.2107971293831
 20
-240.0229517246945
 40
0.5179085730135266
 50
38.12041979714334
 51
141.8795802028411
 73
     1
 72
     2
 10
-226.0110570930368
 20
-240.179682902815
 40
0.7717997786795829
 50
141.8795802028352
 51
218.1204197971614
 73
     1
 72
     2
 10
-226.2107971293831
 20
-240.3364140809354
 40
0.5179085730133477
 50
218.1204197971589
 51
321.8795802028566
 73
     1
 72
     2
 10
-226.4105371657292
 20
-240.179682902815
 40
0.7717997786795702
 50
321.8795802028399
 51
398.1204197971634
 73
     1
 97
        4
330
1E0
330
1DF
330
1DA
330
1D9
 75
     1
 76
     0
 52
45.0
 41
0.1
 77
     0
 78
     1
 53
45.0
 43
0.0
 44
0.0
 45
-0.0707106781186548
 46
0.0707106781186548
 79
     0
 98
        1
 10
0.0
 20
0.0
  0
HATCH
  5
238
330
71
100
AcDbEntity
  8
1
  6
Continuous
 62
     2
100
AcDbHatch
 10
0.0
 20
0.0
 30
0.0
210
0.0
220
0.0
230
1.0
  2
_USER
 70
     0
 71
     1
 91
        4
 92
        1
 93
        8
 72
     1
 10
-235.2046764374369
 20
-239.0770227563111
 11
-235.2046764374369
 21
-244.6415335255113
 72
     2
 10
-235.6289210528207
 20
-244.6415335255113
 40
0.4242446153832873
 50
0.0
 51
90.0
 73
     0
 72
     1
 10
-235.6289210528207
 20
-245.0657781408946
 11
-241.1022331435376
 21
-245.0657781408946
 72
     2
 10
-241.1022331435376
 20
-244.6415335255113
 40
0.4242446153828041
 50
90.0
 51
180.0
 73
     0
 72
     1
 10
-241.5264777589204
 20
-244.6415335255113
 11
-241.5264777589204
 21
-239.0770227563111
 72
     2
 10
-241.1022331435376
 20
-239.0770227563111
 40
0.4242446153837989
 50
180.0
 51
270.0
 73
     0
 72
     1
 10
-241.1022331435376
 20
-238.6527781409273
 11
-235.6289210528207
 21
-238.6527781409273
 72
     2
 10
-235.6289210528207
 20
-239.0770227563111
 40
0.4242446153837989
 50
270.0
 51
360.0
 73
     0
 97
        8
330
188
330
1D6
330
189
330
1E1
330
186
330
1D8
330
187
330
1D7
 92
       16
 93
        1
 72
     2
 10
-238.48264749302
 20
-241.3959049846666
 40
0.4709789327785074
 50
0.0
 51
360.0
 73
     1
 97
        1
330
1FC
 92
       16
 93
        8
 72
     2
 10
-237.9327897802594
 20
-242.505046584635
 40
0.3157169230764963
 50
115.3740086783378
 51
180.0
 73
     1
 72
     1
 10
-238.2485067033362
 20
-242.505046584635
 11
-238.2485067033362
 21
-243.0868979913301
 72
     2
 10
-237.9327897802594
 20
-243.0868979913301
 40
0.315716923076792
 50
180.0
 51
269.8110329574748
 73
     1
 72
     2
 10
-237.9271736449493
 20
-241.3840630437611
 40
2.018561131933266
 50
269.8110329575866
 51
450.1889670424133
 73
     1
 72
     2
 10
-237.9327897802594
 20
-239.681228096192
 40
0.3157169230760707
 50
90.1889670425253
 51
180.0
 73
     1
 72
     1
 10
-238.2485067033362
 20
-239.681228096192
 11
-238.2485067033362
 21
-240.2867633846988
 72
     2
 10
-237.9327897802594
 20
-240.2867633846988
 40
0.315716923076792
 50
180.0
 51
244.6259913216621
 73
     1
 72
     2
 10
-238.4588324783472
 20
-241.3959049846666
 40
0.911848150144459
 50
295.3740086781925
 51
424.6259913218236
 73
     0
 97
        8
330
1EE
330
14F
330
1EB
330
1EC
330
1CA
330
14E
330
1ED
330
1C9
 92
       16
 93
       12
 72
     2
 10
-240.5083384667911
 20
-244.037505662261
 40
0.3157169230755983
 50
180.0
 51
270.0
 73
     1
 72
     1
 10
-240.5083384667911
 20
-244.3532225853377
 11
-239.0325052057814
 21
-244.3532225853377
 72
     2
 10
-239.0325052057814
 20
-244.037505662261
 40
0.3157169230767067
 50
270.0
 51
360.0
 73
     1
 72
     1
 10
-238.7167882827048
 20
-244.037505662261
 11
-238.7167882827048
 21
-242.5067347307294
 72
     2
 10
-239.0325052057814
 20
-242.5067347307294
 40
0.315716923076593
 50
0.0
 51
64.80558935146027
 73
     1
 72
     2
 10
-238.5099207582065
 20
-241.3959049846666
 40
0.9118975235575784
 50
115.1944106485075
 51
244.8055893514766
 73
     0
 72
     2
 10
-239.0325052057814
 20
-240.2850752386044
 40
0.3157169230761203
 50
295.1944106485397
 51
360.0
 73
     1
 72
     1
 10
-238.7167882827048
 20
-240.2850752386044
 11
-238.7167882827048
 21
-239.6810506195439
 72
     2
 10
-239.0325052057814
 20
-239.6810506195439
 40
0.315716923076593
 50
0.0
 51
90.0
 73
     1
 72
     1
 10
-239.0325052057814
 20
-239.3653336964677
 11
-240.5083384667911
 21
-239.3653336964677
 72
     2
 10
-240.5083384667911
 20
-239.6810506195439
 40
0.3157169230761951
 50
90.0
 51
180.0
 73
     1
 72
     1
 10
-240.8240553898667
 20
-239.6810506195439
 11
-240.8240553898667
 21
-244.037505662261
 97
       12
330
1D2
330
18A
330
1D5
330
185
330
1E2
330
1E3
330
1D4
330
184
330
1D3
330
183
330
1E4
330
182
 75
     1
 76
     0
 52
45.0
 41
0.1
 77
     0
 78
     1
 53
45.0
 43
0.0
 44
0.0
 45
-0.0707106781186548
 46
0.0707106781186548
 79
     0
 98
        1
 10
0.0
 20
0.0
  0
HATCH
  5
239
330
71
100
AcDbEntity
  8
1
  6
Continuous
 62
     2
100
AcDbHatch
 10
0.0
 20
0.0
 30
0.0
210
0.0
220
0.0
230
1.0
  2
_USER
 70
     0
 71
     1
 91
        4
 92
        1
 93
        8
 72
     1
 10
-235.2046764374369
 20
-239.0770227563111
 11
-235.2046764374369
 21
-244.6415335255113
 72
     2
 10
-235.6289210528207
 20
-244.6415335255113
 40
0.4242446153832873
 50
0.0
 51
90.0
 73
     0
 72
     1
 10
-235.6289210528207
 20
-245.0657781408946
 11
-241.1022331435376
 21
-245.0657781408946
 72
     2
 10
-241.1022331435376
 20
-244.6415335255113
 40
0.4242446153828041
 50
90.0
 51
180.0
 73
     0
 72
     1
 10
-241.5264777589204
 20
-244.6415335255113
 11
-241.5264777589204
 21
-239.0770227563111
 72
     2
 10
-241.1022331435376
 20
-239.0770227563111
 40
0.4242446153837989
 50
180.0
 51
270.0
 73
     0
 72
     1
 10
-241.1022331435376
 20
-238.6527781409273
 11
-235.6289210528207
 21
-238.6527781409273
 72
     2
 10
-235.6289210528207
 20
-239.0770227563111
 40
0.4242446153837989
 50
270.0
 51
360.0
 73
     0
 97
        8
330
188
330
1D6
330
189
330
1E1
330
186
330
1D8
330
187
330
1D7
 92
       16
 93
        1
 72
     2
 10
-238.48264749302
 20
-241.3959049846666
 40
0.4709789327785074
 50
0.0
 51
360.0
 73
     1
 97
        1
330
1FC
 92
       16
 93
        8
 72
     2
 10
-237.9327897802594
 20
-242.505046584635
 40
0.3157169230764963
 50
115.3740086783378
 51
180.0
 73
     1
 72
     1
 10
-238.2485067033362
 20
-242.505046584635
 11
-238.2485067033362
 21
-243.0868979913301
 72
     2
 10
-237.9327897802594
 20
-243.0868979913301
 40
0.315716923076792
 50
180.0
 51
269.8110329574748
 73
     1
 72
     2
 10
-237.9271736449493
 20
-241.3840630437611
 40
2.018561131933266
 50
269.8110329575866
 51
450.1889670424133
 73
     1
 72
     2
 10
-237.9327897802594
 20
-239.681228096192
 40
0.3157169230760707
 50
90.1889670425253
 51
180.0
 73
     1
 72
     1
 10
-238.2485067033362
 20
-239.681228096192
 11
-238.2485067033362
 21
-240.2867633846988
 72
     2
 10
-237.9327897802594
 20
-240.2867633846988
 40
0.315716923076792
 50
180.0
 51
244.6259913216621
 73
     1
 72
     2
 10
-238.4588324783472
 20
-241.3959049846666
 40
0.911848150144459
 50
295.3740086781925
 51
424.6259913218236
 73
     0
 97
        8
330
1EE
330
14F
330
1EB
330
1EC
330
1CA
330
14E
330
1ED
330
1C9
 92
       16
 93
       12
 72
     2
 10
-240.5083384667911
 20
-244.037505662261
 40
0.3157169230755983
 50
180.0
 51
270.0
 73
     1
 72
     1
 10
-240.5083384667911
 20
-244.3532225853377
 11
-239.0325052057814
 21
-244.3532225853377
 72
     2
 10
-239.0325052057814
 20
-244.037505662261
 40
0.3157169230767067
 50
270.0
 51
360.0
 73
     1
 72
     1
 10
-238.7167882827048
 20
-244.037505662261
 11
-238.7167882827048
 21
-242.5067347307294
 72
     2
 10
-239.0325052057814
 20
-242.5067347307294
 40
0.315716923076593
 50
0.0
 51
64.80558935146027
 73
     1
 72
     2
 10
-238.5099207582065
 20
-241.3959049846666
 40
0.9118975235575784
 50
115.1944106485075
 51
244.8055893514766
 73
     0
 72
     2
 10
-239.0325052057814
 20
-240.2850752386044
 40
0.3157169230761203
 50
295.1944106485397
 51
360.0
 73
     1
 72
     1
 10
-238.7167882827048
 20
-240.2850752386044
 11
-238.7167882827048
 21
-239.6810506195439
 72
     2
 10
-239.0325052057814
 20
-239.6810506195439
 40
0.315716923076593
 50
0.0
 51
90.0
 73
     1
 72
     1
 10
-239.0325052057814
 20
-239.3653336964677
 11
-240.5083384667911
 21
-239.3653336964677
 72
     2
 10
-240.5083384667911
 20
-239.6810506195439
 40
0.3157169230761951
 50
90.0
 51
180.0
 73
     1
 72
     1
 10
-240.8240553898667
 20
-239.6810506195439
 11
-240.8240553898667
 21
-244.037505662261
 97
       12
330
1D2
330
18A
330
1D5
330
185
330
1E2
330
1E3
330
1D4
330
184
330
1D3
330
183
330
1E4
330
182
 75
     1
 76
     0
 52
45.0
 41
0.1
 77
     0
 78
     1
 53
45.0
 43
0.0
 44
0.0
 45
-0.0707106781186548
 46
0.0707106781186548
 79
     0
 98
        1
 10
0.0
 20
0.0
  0
HATCH
  5
23A
330
71
100
AcDbEntity
  8
1
  6
Continuous
 62
     2
100
AcDbHatch
 10
0.0
 20
0.0
 30
0.0
210
0.0
220
0.0
230
1.0
  2
_USER
 70
     0
 71
     1
 91
        1
 92
        1
 93
       18
 72
     1
 10
-213.6151285282159
 20
-242.7972339232071
 11
-214.4262275656892
 21
-242.7972339232071
 72
     1
 10
-214.4262275656892
 20
-242.7972339232071
 11
-214.4262275656892
 21
-245.0657781408946
 72
     1
 10
-214.4262275656892
 20
-245.0657781408946
 11
-215.6190202678569
 21
-245.0657781408946
 72
     1
 10
-215.6190202678569
 20
-245.0657781408946
 11
-215.6190202678569
 21
-242.7972339232071
 72
     1
 10
-215.6190202678569
 20
-242.7972339232071
 11
-216.722659567425
 21
-242.7972339232071
 72
     2
 10
-216.722659567425
 20
-243.7517569300332
 40
0.9545230068260935
 50
90.0
 51
109.3371432194368
 73
     1
 72
     2
 10
-216.8693295655287
 20
-243.3338019496503
 40
0.5115800601944519
 50
109.3371432194973
 51
151.4785267424286
 73
     1
 72
     2
 10
-216.4919723074474
 20
-243.5388733789893
 40
0.9410597353348924
 50
151.4785267423624
 51
208.5214732576695
 73
     1
 72
     2
 10
-216.8693295655287
 20
-243.7439448083278
 40
0.5115800601961216
 50
208.5214732576805
 51
246.6277221118332
 73
     1
 72
     2
 10
-216.7128895328256
 20
-243.3819527896178
 40
0.9059297849853138
 50
246.6277221118133
 51
288.4480761180834
 73
     1
 72
     2
 10
-217.1310572664876
 20
-242.1284070135812
 40
2.227384008972782
 50
288.4480761181362
 51
301.9309089499416
 73
     1
 72
     1
 10
-215.9530022244636
 20
-244.018757732731
 11
-215.9530022244636
 21
-244.8912747395343
 72
     2
 10
-217.2889301415804
 20
-240.2261924337329
 40
4.852596863498833
 50
74.02000874166032
 51
84.84185523036264
 73
     0
 72
     2
 10
-217.0000740468445
 20
-243.4260830169545
 40
1.639695123940531
 50
84.8418552303238
 51
164.9381082228996
 73
     0
 72
     2
 10
-217.4192018903061
 20
-243.5388733789893
 40
1.205656168393085
 50
164.9381082229052
 51
195.0618917770962
 73
     0
 72
     2
 10
-217.0000740468445
 20
-243.6516637410242
 40
1.639695123940214
 50
195.0618917771043
 51
270.0
 73
     0
 72
     1
 10
-217.0000740468445
 20
-242.011968617084
 11
-213.6151285282159
 21
-242.0119686170835
 72
     1
 10
-213.6151285282159
 20
-242.0119686170835
 11
-213.6151285282159
 21
-242.7972339232071
 97
       18
330
151
330
1E7
330
1E8
330
1D0
330
1CF
330
1B5
330
1CE
330
1CD
330
1E9
330
1CC
330
1EA
330
1CB
330
1B6
330
150
330
155
330
154
330
153
330
152
 75
     1
 76
     0
 52
45.0
 41
0.1
 77
     0
 78
     1
 53
45.0
 43
0.0
 44
0.0
 45
-0.0707106781186548
 46
0.0707106781186548
 79
     0
 98
        1
 10
0.0
 20
0.0
  0
HATCH
  5
23B
330
71
100
AcDbEntity
  8
1
  6
Continuous
 62
     2
100
AcDbHatch
 10
0.0
 20
0.0
 30
0.0
210
0.0
220
0.0
230
1.0
  2
_USER
 70
     0
 71
     1
 91
        1
 92
        1
 93
       18
 72
     1
 10
-213.6151285282159
 20
-242.7972339232071
 11
-214.4262275656892
 21
-242.7972339232071
 72
     1
 10
-214.4262275656892
 20
-242.7972339232071
 11
-214.4262275656892
 21
-245.0657781408946
 72
     1
 10
-214.4262275656892
 20
-245.0657781408946
 11
-215.6190202678569
 21
-245.0657781408946
 72
     1
 10
-215.6190202678569
 20
-245.0657781408946
 11
-215.6190202678569
 21
-242.7972339232071
 72
     1
 10
-215.6190202678569
 20
-242.7972339232071
 11
-216.722659567425
 21
-242.7972339232071
 72
     2
 10
-216.722659567425
 20
-243.7517569300332
 40
0.9545230068260935
 50
90.0
 51
109.3371432194368
 73
     1
 72
     2
 10
-216.8693295655287
 20
-243.3338019496503
 40
0.5115800601944519
 50
109.3371432194973
 51
151.4785267424286
 73
     1
 72
     2
 10
-216.4919723074474
 20
-243.5388733789893
 40
0.9410597353348924
 50
151.4785267423624
 51
208.5214732576695
 73
     1
 72
     2
 10
-216.8693295655287
 20
-243.7439448083278
 40
0.5115800601961216
 50
208.5214732576805
 51
246.6277221118332
 73
     1
 72
     2
 10
-216.7128895328256
 20
-243.3819527896178
 40
0.9059297849853138
 50
246.6277221118133
 51
288.4480761180834
 73
     1
 72
     2
 10
-217.1310572664876
 20
-242.1284070135812
 40
2.227384008972782
 50
288.4480761181362
 51
301.9309089499416
 73
     1
 72
     1
 10
-215.9530022244636
 20
-244.018757732731
 11
-215.9530022244636
 21
-244.8912747395343
 72
     2
 10
-217.2889301415804
 20
-240.2261924337329
 40
4.852596863498833
 50
74.02000874166032
 51
84.84185523036264
 73
     0
 72
     2
 10
-217.0000740468445
 20
-243.4260830169545
 40
1.639695123940531
 50
84.8418552303238
 51
164.9381082228996
 73
     0
 72
     2
 10
-217.4192018903061
 20
-243.5388733789893
 40
1.205656168393085
 50
164.9381082229052
 51
195.0618917770962
 73
     0
 72
     2
 10
-217.0000740468445
 20
-243.6516637410242
 40
1.639695123940214
 50
195.0618917771043
 51
270.0
 73
     0
 72
     1
 10
-217.0000740468445
 20
-242.011968617084
 11
-213.6151285282159
 21
-242.0119686170835
 72
     1
 10
-213.6151285282159
 20
-242.0119686170835
 11
-213.6151285282159
 21
-242.7972339232071
 97
       18
330
151
330
1E7
330
1E8
330
1D0
330
1CF
330
1B5
330
1CE
330
1CD
330
1E9
330
1CC
330
1EA
330
1CB
330
1B6
330
150
330
155
330
154
330
153
330
152
 75
     1
 76
     0
 52
45.0
 41
0.1
 77
     0
 78
     1
 53
45.0
 43
0.0
 44
0.0
 45
-0.0707106781186548
 46
0.0707106781186548
 79
     0
 98
        1
 10
0.0
 20
0.0
  0
HATCH
  5
23C
330
71
100
AcDbEntity
  8
1
  6
Continuous
 62
     2
100
AcDbHatch
 10
0.0
 20
0.0
 30
0.0
210
0.0
220
0.0
230
1.0
  2
_USER
 70
     0
 71
     1
 91
        1
 92
        1
 93
       14
 72
     2
 10
-233.1027755260975
 20
-243.6516637410242
 40
1.639695123940509
 50
84.84185523036136
 51
164.9381082228857
 73
     1
 72
     2
 10
-233.5219033695603
 20
-243.5388733789893
 40
1.205656168390862
 50
164.9381082228754
 51
195.0618917770959
 73
     1
 72
     2
 10
-233.1027755260975
 20
-243.4260830169545
 40
1.639695123939305
 50
195.0618917770904
 51
275.1581447696406
 73
     1
 72
     2
 10
-233.3916316208334
 20
-240.2261924337329
 40
4.852596863498141
 50
275.1581447696253
 51
285.9799912583529
 73
     1
 72
     1
 10
-232.0557037037156
 20
-244.8912747395337
 11
-232.0557037037156
 21
-244.0187577327305
 72
     2
 10
-233.2337587457404
 20
-242.1284070135806
 40
2.227384008972719
 50
58.06909105004259
 51
71.5519238818686
 73
     0
 72
     2
 10
-232.8155910120796
 20
-243.3819527896178
 40
0.9059297849849192
 50
71.55192388184494
 51
113.372277888129
 73
     0
 72
     2
 10
-232.9720310447817
 20
-243.7439448083278
 40
0.5115800601948284
 50
113.3722778881668
 51
151.4785267423059
 73
     0
 72
     2
 10
-232.5946737867014
 20
-243.5388733789893
 40
0.9410597353332545
 50
151.4785267422943
 51
208.5214732577331
 73
     0
 72
     2
 10
-232.9720310447817
 20
-243.3338019496503
 40
0.5115800601948554
 50
208.521473257694
 51
246.6277221118067
 73
     0
 72
     2
 10
-232.8155910120796
 20
-243.6957939683609
 40
0.9059297849853049
 50
246.627722111871
 51
288.4480761181431
 73
     0
 72
     2
 10
-233.2337587457404
 20
-244.9493397443975
 40
2.227384008973432
 50
288.4480761181314
 51
301.9309089499574
 73
     0
 72
     1
 10
-232.0557037037156
 20
-243.0589890252476
 11
-232.0557037037156
 21
-242.1864720184443
 72
     2
 10
-233.3916316208334
 20
-246.8515543242452
 40
4.852596863498068
 50
74.02000874164739
 51
84.84185523037472
 73
     1
 97
       14
330
1EF
330
1F0
330
1F1
330
1F2
330
1B7
330
1C8
330
1C7
330
1C6
330
1F3
330
1F4
330
1C5
330
1F5
330
1B8
330
1C4
 75
     1
 76
     0
 52
45.0
 41
0.1
 77
     0
 78
     1
 53
45.0
 43
0.0
 44
0.0
 45
-0.0707106781186548
 46
0.0707106781186548
 79
     0
 98
        1
 10
0.0
 20
0.0
  0
HATCH
  5
23D
330
71
100
AcDbEntity
  8
1
  6
Continuous
 62
     2
100
AcDbHatch
 10
0.0
 20
0.0
 30
0.0
210
0.0
220
0.0
230
1.0
  2
_USER
 70
     0
 71
     1
 91
        1
 92
        1
 93
       14
 72
     2
 10
-233.1027755260975
 20
-243.6516637410242
 40
1.639695123940509
 50
84.84185523036136
 51
164.9381082228857
 73
     1
 72
     2
 10
-233.5219033695603
 20
-243.5388733789893
 40
1.205656168390862
 50
164.9381082228754
 51
195.0618917770959
 73
     1
 72
     2
 10
-233.1027755260975
 20
-243.4260830169545
 40
1.639695123939305
 50
195.0618917770904
 51
275.1581447696406
 73
     1
 72
     2
 10
-233.3916316208334
 20
-240.2261924337329
 40
4.852596863498141
 50
275.1581447696253
 51
285.9799912583529
 73
     1
 72
     1
 10
-232.0557037037156
 20
-244.8912747395337
 11
-232.0557037037156
 21
-244.0187577327305
 72
     2
 10
-233.2337587457404
 20
-242.1284070135806
 40
2.227384008972719
 50
58.06909105004259
 51
71.5519238818686
 73
     0
 72
     2
 10
-232.8155910120796
 20
-243.3819527896178
 40
0.9059297849849192
 50
71.55192388184494
 51
113.372277888129
 73
     0
 72
     2
 10
-232.9720310447817
 20
-243.7439448083278
 40
0.5115800601948284
 50
113.3722778881668
 51
151.4785267423059
 73
     0
 72
     2
 10
-232.5946737867014
 20
-243.5388733789893
 40
0.9410597353332545
 50
151.4785267422943
 51
208.5214732577331
 73
     0
 72
     2
 10
-232.9720310447817
 20
-243.3338019496503
 40
0.5115800601948554
 50
208.521473257694
 51
246.6277221118067
 73
     0
 72
     2
 10
-232.8155910120796
 20
-243.6957939683609
 40
0.9059297849853049
 50
246.627722111871
 51
288.4480761181431
 73
     0
 72
     2
 10
-233.2337587457404
 20
-244.9493397443975
 40
2.227384008973432
 50
288.4480761181314
 51
301.9309089499574
 73
     0
 72
     1
 10
-232.0557037037156
 20
-243.0589890252476
 11
-232.0557037037156
 21
-242.1864720184443
 72
     2
 10
-233.3916316208334
 20
-246.8515543242452
 40
4.852596863498068
 50
74.02000874164739
 51
84.84185523037472
 73
     1
 97
       14
330
1EF
330
1F0
330
1F1
330
1F2
330
1B7
330
1C8
330
1C7
330
1C6
330
1F3
330
1F4
330
1C5
330
1F5
330
1B8
330
1C4
 75
     1
 76
     0
 52
45.0
 41
0.1
 77
     0
 78
     1
 53
45.0
 43
0.0
 44
0.0
 45
-0.0707106781186548
 46
0.0707106781186548
 79
     0
 98
        1
 10
0.0
 20
0.0
  0
ENDBLK
  5
73
330
71
100
AcDbEntity
  8
0
100
AcDbBlockEnd
  0
BLOCK
  5
75
330
74
100
AcDbEntity
  8
0
100
AcDbBlockBegin
  2
_punkt
 70
     0
 10
-116.2183281187329
 20
-252.3592781409109
 30
0.0
  3
_punkt
  1

  0
LINE
  5
23E
330
74
100
AcDbEntity
  8
1
  6
Continuous
 62
     2
100
AcDbLine
 10
-116.2183281187329
 20
-252.3592781409109
 30
0.0
 11
-111.218328118734
 21
-252.3592781409109
 31
0.0
  0
LINE
  5
23F
330
74
100
AcDbEntity
  8
1
  6
Continuous
 62
     2
100
AcDbLine
 10
-116.2183281187329
 20
-252.3592781409109
 30
0.0
 11
-116.2183281187329
 21
-257.359278140911
 31
0.0
  0
ENDBLK
  5
76
330
74
100
AcDbEntity
  8
0
100
AcDbBlockEnd
  0
BLOCK
  5
7A
330
77
100
AcDbEntity
  8
0
100
AcDbBlockBegin
  2
A4I_CS
 70
     0
 10
-116.2183281187329
 20
-257.359278140911
 30
0.0
  3
A4I_CS
  1

  0
INSERT
  5
78
330
77
100
AcDbEntity
  8
1
100
AcDbBlockReference
  2
_rahmen
 10
-116.2183281187329
 20
-257.359278140911
 30
0.0
  0
INSERT
  5
79
330
77
100
AcDbEntity
  8
1
100
AcDbBlockReference
  2
_punkt
 10
-116.2183281187329
 20
-252.3592781409109
 30
0.0
  0
ENDBLK
  5
7B
330
77
100
AcDbEntity
  8
0
100
AcDbBlockEnd
  0
BLOCK
  5
84
330
7C
100
AcDbEntity
  8
0
100
AcDbBlockBegin
  2
1
 70
     0
 10
0.0
 20
0.0
 30
0.0
  3
1
  1

  0
INSERT
  5
7D
330
7C
100
AcDbEntity
  8
0
100
AcDbBlockReference
  2
Allg1
 10
-213.0000031556218
 20
-168.2999990890439
 30
0.0
 41
2.0
 42
2.0
 43
2.0
  0
INSERT
  5
7E
330
7C
100
AcDbEntity
  8
0
100
AcDbBlockReference
  2
Drfsicht1
 10
-289.0000036438042
 20
-168.3000000054321
 30
0.0
 41
2.0
 42
2.0
 43
2.0
  0
INSERT
  5
7F
330
7C
100
AcDbEntity
  8
0
100
AcDbBlockReference
  2
Rckans1
 10
-197.8000138568025
 20
-108.0
 30
0.0
 41
2.0
 42
2.0
 43
2.0
  0
INSERT
  5
80
330
7C
100
AcDbEntity
  8
0
100
AcDbBlockReference
  2
SA_Links1
 10
-243.4000087503032
 20
-108.0
 30
0.0
 41
2.0
 42
2.0
 43
2.0
  0
INSERT
  5
81
330
7C
100
AcDbEntity
  8
0
100
AcDbBlockReference
  2
SA_Rechts1
 10
-342.5999985373046
 20
-108.0000000000001
 30
0.0
 41
2.0
 42
2.0
 43
2.0
  0
INSERT
  5
82
330
7C
100
AcDbEntity
  8
0
100
AcDbBlockReference
  2
Vordans1
 10
-289.000003643804
 20
-108.0000000000001
 30
0.0
 41
2.0
 42
2.0
 43
2.0
  0
INSERT
  5
83
330
7C
100
AcDbEntity
  8
0
100
AcDbBlockReference
  2
A4I_CS
 10
-116.2183281187329
 20
-257.359278140911
 30
0.0
  0
ENDBLK
  5
85
330
7C
100
AcDbEntity
  8
0
100
AcDbBlockEnd
  0
BLOCK
  5
B3
330
AC
100
AcDbEntity
  8
0
100
AcDbBlockBegin
  2
*D17
 70
     1
 10
0.0
 20
0.0
 30
0.0
  3
*D17
  1

  0
LINE
  5
AD
330
AC
100
AcDbEntity
  8
1
  6
Continuous
 62
     2
100
AcDbLine
 10
-154.7500074657057
 20
-76.15000019344595
 30
0.0
 11
-154.7500074657057
 21
-92.15000019344593
 31
0.0
  0
LINE
  5
AE
330
AC
100
AcDbEntity
  8
1
  6
Continuous
 62
     2
100
AcDbLine
 10
-149.7500074657057
 20
-76.15000019344595
 30
0.0
 11
-155.5000074657057
 21
-76.15000019344595
 31
0.0
  0
LINE
  5
AF
330
AC
100
AcDbEntity
  8
1
  6
Continuous
 62
     2
100
AcDbLine
 10
-149.7500074657057
 20
-92.15000019344593
 30
0.0
 11
-155.5000074657057
 21
-92.15000019344593
 31
0.0
  0
SOLID
  5
B0
330
AC
100
AcDbEntity
  8
1
 62
     2
100
AcDbTrace
 10
-154.5196155949278
 20
-77.90000019344595
 30
0.0
 11
-154.9803993364836
 21
-77.90000019344595
 31
0.0
 12
-154.7500074657057
 22
-76.15000019344595
 32
0.0
 13
-154.7500074657057
 23
-76.15000019344595
 33
0.0
  0
SOLID
  5
B1
330
AC
100
AcDbEntity
  8
1
 62
     2
100
AcDbTrace
 10
-154.9803993364836
 20
-90.40000019344593
 30
0.0
 11
-154.5196155949278
 21
-90.40000019344593
 31
0.0
 12
-154.7500074657057
 22
-92.15000019344593
 32
0.0
 13
-154.7500074657057
 23
-92.15000019344593
 33
0.0
  0
MTEXT
  5
B2
330
AC
100
AcDbEntity
  8
1
 62
     3
100
AcDbMText
 10
-155.5000074657057
 20
-85.32347727578939
 30
0.0
 40
1.75
 41
0.0
 71
     7
 72
     1
  1
16
  7
CONVERTER_11
 11
0.0
 21
1.0
 31
0.0
 73
     1
 44
0.60024009603842
  0
ENDBLK
  5
B4
330
AC
100
AcDbEntity
  8
0
100
AcDbBlockEnd
  0
BLOCK
  5
F8
330
EF
100
AcDbEntity
  8
0
100
AcDbBlockBegin
  2
*D18
 70
     1
 10
0.0
 20
0.0
 30
0.0
  3
*D18
  1

  0
LINE
  5
F0
330
EF
100
AcDbEntity
  8
1
  6
Continuous
 62
     2
100
AcDbLine
 10
-155.0350430392082
 20
-48.39999786767888
 30
0.0
 11
-155.0350430392082
 21
-51.89999786767888
 31
0.0
  0
LINE
  5
F1
330
EF
100
AcDbEntity
  8
1
  6
Continuous
 62
     2
100
AcDbLine
 10
-155.0350430392082
 20
-51.89999786767888
 30
0.0
 11
-155.0350430392082
 21
-56.09999786767909
 31
0.0
  0
LINE
  5
F2
330
EF
100
AcDbEntity
  8
1
  6
Continuous
 62
     2
100
AcDbLine
 10
-155.0350430392082
 20
-56.09999786767909
 30
0.0
 11
-155.0350430392082
 21
-59.59999786767909
 31
0.0
  0
LINE
  5
F3
330
EF
100
AcDbEntity
  8
1
  6
Continuous
 62
     2
100
AcDbLine
 10
-149.7500074657056
 20
-51.89999786767888
 30
0.0
 11
-155.7850430392082
 21
-51.89999786767888
 31
0.0
  0
LINE
  5
F4
330
EF
100
AcDbEntity
  8
1
  6
Continuous
 62
     2
100
AcDbLine
 10
-146.54531156139
 20
-56.09999786767909
 30
0.0
 11
-155.7850430392082
 21
-56.09999786767909
 31
0.0
  0
SOLID
  5
F5
330
EF
100
AcDbEntity
  8
1
 62
     2
100
AcDbTrace
 10
-155.2654349099861
 20
-50.14999786767888
 30
0.0
 11
-154.8046511684303
 21
-50.14999786767888
 31
0.0
 12
-155.0350430392082
 22
-51.89999786767888
 32
0.0
 13
-155.0350430392082
 23
-51.89999786767888
 33
0.0
  0
SOLID
  5
F6
330
EF
100
AcDbEntity
  8
1
 62
     2
100
AcDbTrace
 10
-154.8046511684303
 20
-57.84999786767909
 30
0.0
 11
-155.2654349099861
 21
-57.84999786767909
 31
0.0
 12
-155.0350430392082
 22
-56.09999786767909
 32
0.0
 13
-155.0350430392082
 23
-56.09999786767909
 33
0.0
  0
MTEXT
  5
F7
330
EF
100
AcDbEntity
  8
1
 62
     3
100
AcDbMText
 10
-155.9600430392082
 20
-54.98506818218589
 30
0.0
 40
1.75
 41
0.0
 71
     7
 72
     1
  1
4,2
  7
CONVERTER_11
 11
0.0
 21
1.0
 31
0.0
 73
     1
 44
0.60024009603842
  0
ENDBLK
  5
F9
330
EF
100
AcDbEntity
  8
0
100
AcDbBlockEnd
  0
BLOCK
  5
103
330
FC
100
AcDbEntity
  8
0
100
AcDbBlockBegin
  2
*D19
 70
     1
 10
0.0
 20
0.0
 30
0.0
  3
*D19
  1

  0
LINE
  5
FD
330
FC
100
AcDbEntity
  8
1
  6
Continuous
 62
     2
100
AcDbLine
 10
-149.7500074657056
 20
-62.10433092754253
 30
0.0
 11
-139.2500074657056
 21
-62.10433092754253
 31
0.0
  0
LINE
  5
FE
330
FC
100
AcDbEntity
  8
1
  6
Continuous
 62
     2
100
AcDbLine
 10
-149.7500074657056
 20
-52.99999786767889
 30
0.0
 11
-149.7500074657056
 21
-62.85433092754253
 31
0.0
  0
LINE
  5
FF
330
FC
100
AcDbEntity
  8
1
  6
Continuous
 62
     2
100
AcDbLine
 10
-139.2500074657056
 20
-52.99999786767889
 30
0.0
 11
-139.2500074657056
 21
-62.85433092754253
 31
0.0
  0
SOLID
  5
100
330
FC
100
AcDbEntity
  8
1
 62
     2
100
AcDbTrace
 10
-148.0000074657056
 20
-61.87393905676458
 30
0.0
 11
-148.0000074657056
 21
-62.33472279832047
 31
0.0
 12
-149.7500074657056
 22
-62.10433092754253
 32
0.0
 13
-149.7500074657056
 23
-62.10433092754253
 33
0.0
  0
SOLID
  5
101
330
FC
100
AcDbEntity
  8
1
 62
     2
100
AcDbTrace
 10
-141.0000074657056
 20
-62.33472279832047
 30
0.0
 11
-141.0000074657056
 21
-61.87393905676458
 31
0.0
 12
-139.2500074657056
 22
-62.10433092754253
 32
0.0
 13
-139.2500074657056
 23
-62.10433092754253
 33
0.0
  0
MTEXT
  5
102
330
FC
100
AcDbEntity
  8
1
 62
     3
100
AcDbMText
 10
-146.935416850792
 20
-61.17933092754253
 30
0.0
 40
1.75
 41
0.0
 71
     7
 72
     1
  1
10,5
  7
CONVERTER_11
 11
0.9999999999970619
 21
2.424068405545306E-6
 31
0.0
 73
     1
 44
0.60024009603842
  0
ENDBLK
  5
104
330
FC
100
AcDbEntity
  8
0
100
AcDbBlockEnd
  0
ENDSEC
  0
SECTION
  2
ENTITIES
  0
INSERT
  5
86
330
1F
100
AcDbEntity
  8
1
100
AcDbBlockReference
  2
1
 10
0.0
 20
0.0
 30
0.0
  0
ENDSEC
  0
SECTION
  2
OBJECTS
  0
DICTIONARY
  5
C
330
0
100
AcDbDictionary
281
     1
  3
ACAD_GROUP
350
D
  3
ACAD_LAYOUT
350
1A
  3
ACAD_MATERIAL
350
3B
  3
ACAD_MLEADERSTYLE
350
267
  3
ACAD_MLINESTYLE
350
17
  3
ACAD_PLOTSETTINGS
350
19
  3
ACAD_PLOTSTYLENAME
350
E
  3
ACAD_TABLESTYLE
350
266
  3
ACAD_VISUALSTYLE
350
2A
  0
DICTIONARY
  5
D
102
{ACAD_REACTORS
330
C
102
}
330
C
100
AcDbDictionary
281
     1
  0
DICTIONARY
  5
1A
102
{ACAD_REACTORS
330
C
102
}
330
C
100
AcDbDictionary
281
     1
  3
Layout1
350
1E
  3
Layout2
350
26
  3
Model
350
22
  0
DICTIONARY
  5
3B
102
{ACAD_REACTORS
330
C
102
}
330
C
100
AcDbDictionary
281
     1
  3
ByBlock
350
3D
  3
ByLayer
350
3C
  3
Global
350
3E
  0
DICTIONARY
  5
267
102
{ACAD_REACTORS
330
C
102
}
330
C
100
AcDbDictionary
281
     1
  0
DICTIONARY
  5
17
102
{ACAD_REACTORS
330
C
102
}
330
C
100
AcDbDictionary
281
     1
  3
Standard
350
18
  0
DICTIONARY
  5
19
102
{ACAD_REACTORS
330
C
102
}
330
C
100
AcDbDictionary
281
     1
  0
ACDBDICTIONARYWDFLT
  5
E
102
{ACAD_REACTORS
330
C
102
}
330
C
100
AcDbDictionary
281
     1
  3
Normal
350
F
100
AcDbDictionaryWithDefault
340
F
  0
DICTIONARY
  5
266
102
{ACAD_REACTORS
330
C
102
}
330
C
100
AcDbDictionary
281
     1
  0
DICTIONARY
  5
2A
102
{ACAD_REACTORS
330
C
102
}
330
C
100
AcDbDictionary
281
     1
  3
2dWireframe
350
2F
  3
3D Hidden
350
31
  3
3dWireframe
350
30
  3
Basic
350
32
  3
Brighten
350
36
  3
ColorChange
350
3A
  3
Conceptual
350
34
  3
Dim
350
35
  3
Facepattern
350
39
  3
Flat
350
2B
  3
FlatWithEdges
350
2C
  3
Gouraud
350
2D
  3
GouraudWithEdges
350
2E
  3
Linepattern
350
38
  3
Realistic
350
33
  3
Thicken
350
37
  0
LAYOUT
  5
1E
102
{ACAD_REACTORS
330
1A
102
}
330
1A
100
AcDbPlotSettings
  1

  2
none_device
  4

  6

 40
0.0
 41
0.0
 42
0.0
 43
0.0
 44
0.0
 45
0.0
 46
0.0
 47
0.0
 48
0.0
 49
0.0
140
0.0
141
0.0
142
1.0
143
1.0
 70
   688
 72
     0
 73
     0
 74
     5
  7

 75
    16
 76
     0
 77
     2
 78
   300
147
1.0
148
0.0
149
0.0
100
AcDbLayout
  1
Layout1
 70
     1
 71
     1
 10
0.0
 20
0.0
 11
12.0
 21
9.0
 12
0.0
 22
0.0
 32
0.0
 14
1.00000000000000E+20
 24
1.00000000000000E+20
 34
1.00000000000000E+20
 15
-1.00000000000000E+20
 25
-1.00000000000000E+20
 35
-1.00000000000000E+20
146
0.0
 13
0.0
 23
0.0
 33
0.0
 16
1.0
 26
0.0
 36
0.0
 17
0.0
 27
1.0
 37
0.0
 76
     0
330
1B
  0
LAYOUT
  5
26
102
{ACAD_REACTORS
330
1A
102
}
330
1A
100
AcDbPlotSettings
  1

  2
none_device
  4

  6

 40
0.0
 41
0.0
 42
0.0
 43
0.0
 44
0.0
 45
0.0
 46
0.0
 47
0.0
 48
0.0
 49
0.0
140
0.0
141
0.0
142
1.0
143
1.0
 70
   688
 72
     0
 73
     0
 74
     5
  7

 75
    16
 76
     0
 77
     2
 78
   300
147
1.0
148
0.0
149
0.0
100
AcDbLayout
  1
Layout2
 70
     1
 71
     2
 10
0.0
 20
0.0
 11
0.0
 21
0.0
 12
0.0
 22
0.0
 32
0.0
 14
0.0
 24
0.0
 34
0.0
 15
0.0
 25
0.0
 35
0.0
146
0.0
 13
0.0
 23
0.0
 33
0.0
 16
1.0
 26
0.0
 36
0.0
 17
0.0
 27
1.0
 37
0.0
 76
     0
330
23
  0
LAYOUT
  5
22
102
{ACAD_REACTORS
330
1A
102
}
330
1A
100
AcDbPlotSettings
  1

  2
none_device
  4

  6

 40
0.0
 41
0.0
 42
0.0
 43
0.0
 44
0.0
 45
0.0
 46
0.0
 47
0.0
 48
0.0
 49
0.0
140
0.0
141
0.0
142
1.0
143
1.0
 70
  1712
 72
     0
 73
     0
 74
     0
  7

 75
     0
 76
     0
 77
     2
 78
   300
147
1.0
148
0.0
149
0.0
100
AcDbLayout
  1
Model
 70
     1
 71
     0
 10
0.0
 20
0.0
 11
12.0
 21
9.0
 12
0.0
 22
0.0
 32
0.0
 14
-408.218328118732
 24
-257.359278140911
 34
0.0
 15
-111.218328118734
 25
-47.35927814091093
 35
0.0
146
0.0
 13
0.0
 23
0.0
 33
0.0
 16
1.0
 26
0.0
 36
0.0
 17
0.0
 27
1.0
 37
0.0
 76
     0
330
1F
331
29
  0
MATERIAL
  5
3D
102
{ACAD_REACTORS
330
3B
102
}
102
{ACAD_XDICTIONARY
360
262
102
}
330
3B
100
AcDbMaterial
  1
ByBlock
  0
MATERIAL
  5
3C
102
{ACAD_REACTORS
330
3B
102
}
102
{ACAD_XDICTIONARY
360
260
102
}
330
3B
100
AcDbMaterial
  1
ByLayer
  0
MATERIAL
  5
3E
102
{ACAD_REACTORS
330
3B
102
}
102
{ACAD_XDICTIONARY
360
264
102
}
330
3B
100
AcDbMaterial
  1
Global
  0
MLINESTYLE
  5
18
102
{ACAD_REACTORS
330
17
102
}
330
17
100
AcDbMlineStyle
  2
Standard
 70
     0
  3

 62
   256
 51
90.0
 52
90.0
 71
     2
 49
0.5
 62
   256
  6
BYLAYER
 49
-0.5
 62
   256
  6
BYLAYER
  0
ACDBPLACEHOLDER
  5
F
102
{ACAD_REACTORS
330
E
102
}
330
E
  0
VISUALSTYLE
  5
2F
102
{ACAD_REACTORS
330
2A
102
}
102
{ACAD_XDICTIONARY
360
248
102
}
330
2A
100
AcDbVisualStyle
  2
2dWireframe
 70
     4
 71
     0
 72
     2
 73
     0
 90
        0
 40
-0.6
 41
-30.0
 62
     5
 63
     7
421
 16777215
 74
     1
 91
        4
 64
     7
 65
   257
 75
     1
175
     1
 42
1.0
 92
        0
 66
   257
 43
1.0
 76
     1
 77
     6
 78
     2
 67
     7
 79
     5
170
     0
171
     0
290
     0
174
     0
 93
        1
 44
0.0
173
     0
291
     0
 45
0.0
1001
ACAD
1000
AcDbSavedByObjectVersion
1070
     0
  0
VISUALSTYLE
  5
31
102
{ACAD_REACTORS
330
2A
102
}
102
{ACAD_XDICTIONARY
360
24C
102
}
330
2A
100
AcDbVisualStyle
  2
3D Hidden
 70
     6
 71
     1
 72
     2
 73
     2
 90
        0
 40
-0.6
 41
-30.0
 62
     5
 63
     7
421
 16777215
 74
     2
 91
        2
 64
     7
 65
   257
 75
     2
175
     1
 42
40.0
 92
        0
 66
   257
 43
1.0
 76
     1
 77
     6
 78
     2
 67
     7
 79
     3
170
     0
171
     0
290
     0
174
     0
 93
        1
 44
0.0
173
     0
291
     0
 45
0.0
1001
ACAD
1000
AcDbSavedByObjectVersion
1070
     0
  0
VISUALSTYLE
  5
30
102
{ACAD_REACTORS
330
2A
102
}
102
{ACAD_XDICTIONARY
360
24A
102
}
330
2A
100
AcDbVisualStyle
  2
3dWireframe
 70
     5
 71
     0
 72
     2
 73
     0
 90
        0
 40
-0.6
 41
-30.0
 62
     5
 63
     7
421
 16777215
 74
     1
 91
        4
 64
     7
 65
   257
 75
     1
175
     1
 42
1.0
 92
        0
 66
   257
 43
1.0
 76
     1
 77
     6
 78
     2
 67
     7
 79
     5
170
     0
171
     0
290
     0
174
     0
 93
        1
 44
0.0
173
     0
291
     0
 45
0.0
1001
ACAD
1000
AcDbSavedByObjectVersion
1070
     0
  0
VISUALSTYLE
  5
32
102
{ACAD_REACTORS
330
2A
102
}
102
{ACAD_XDICTIONARY
360
24E
102
}
330
2A
100
AcDbVisualStyle
  2
Basic
 70
     7
 71
     1
 72
     0
 73
     1
 90
        0
 40
-0.6
 41
-30.0
 62
     5
 63
     7
421
 16777215
 74
     0
 91
        4
 64
     7
 65
   257
 75
     1
175
     1
 42
1.0
 92
        8
 66
     7
 43
1.0
 76
     1
 77
     6
 78
     2
 67
     7
 79
     5
170
     0
171
     0
290
     0
174
     0
 93
        1
 44
0.0
173
     0
291
     1
 45
0.0
1001
ACAD
1000
AcDbSavedByObjectVersion
1070
     0
  0
VISUALSTYLE
  5
36
102
{ACAD_REACTORS
330
2A
102
}
102
{ACAD_XDICTIONARY
360
256
102
}
330
2A
100
AcDbVisualStyle
  2
Brighten
 70
    12
 71
     2
 72
     2
 73
     0
 90
        0
 40
-0.6
 41
-30.0
 62
     5
 63
     7
421
 16777215
 74
     1
 91
        4
 64
     7
 65
   257
 75
     1
175
     1
 42
1.0
 92
        8
 66
     7
 43
1.0
 76
     1
 77
     6
 78
     2
 67
     7
 79
     5
170
     0
171
     0
290
     0
174
     0
 93
        1
 44
50.0
173
     0
291
     1
 45
0.0
1001
ACAD
1000
AcDbSavedByObjectVersion
1070
     0
  0
VISUALSTYLE
  5
3A
102
{ACAD_REACTORS
330
2A
102
}
102
{ACAD_XDICTIONARY
360
25E
102
}
330
2A
100
AcDbVisualStyle
  2
ColorChange
 70
    16
 71
     2
 72
     2
 73
     3
 90
        0
 40
-0.6
 41
-30.0
 62
     5
 63
     8
421
  8421504
 74
     1
 91
        4
 64
     7
 65
   257
 75
     1
175
     1
 42
1.0
 92
        8
 66
     8
424
  8421504
 43
1.0
 76
     1
 77
     6
 78
     2
 67
     7
 79
     5
170
     0
171
     0
290
     0
174
     0
 93
        1
 44
0.0
173
     0
291
     1
 45
0.0
1001
ACAD
1000
AcDbSavedByObjectVersion
1070
     0
  0
VISUALSTYLE
  5
34
102
{ACAD_REACTORS
330
2A
102
}
102
{ACAD_XDICTIONARY
360
252
102
}
330
2A
100
AcDbVisualStyle
  2
Conceptual
 70
     9
 71
     3
 72
     2
 73
     0
 90
        0
 40
-0.6
 41
-30.0
 62
     5
 63
     7
421
 16777215
 74
     2
 91
        2
 64
     7
 65
   257
 75
     1
175
     1
 42
40.0
 92
        8
 66
     7
 43
1.0
 76
     1
 77
     6
 78
     2
 67
     7
 79
     3
170
     0
171
     0
290
     0
174
     0
 93
        1
 44
0.0
173
     0
291
     0
 45
0.0
1001
ACAD
1000
AcDbSavedByObjectVersion
1070
     0
  0
VISUALSTYLE
  5
35
102
{ACAD_REACTORS
330
2A
102
}
102
{ACAD_XDICTIONARY
360
254
102
}
330
2A
100
AcDbVisualStyle
  2
Dim
 70
    11
 71
     2
 72
     2
 73
     0
 90
        0
 40
-0.6
 41
-30.0
 62
     5
 63
     7
421
 16777215
 74
     1
 91
        4
 64
     7
 65
   257
 75
     1
175
     1
 42
1.0
 92
        8
 66
     7
 43
1.0
 76
     1
 77
     6
 78
     2
 67
     7
 79
     5
170
     0
171
     0
290
     0
174
     0
 93
        1
 44
-50.0
173
     0
291
     1
 45
0.0
1001
ACAD
1000
AcDbSavedByObjectVersion
1070
     0
  0
VISUALSTYLE
  5
39
102
{ACAD_REACTORS
330
2A
102
}
102
{ACAD_XDICTIONARY
360
25C
102
}
330
2A
100
AcDbVisualStyle
  2
Facepattern
 70
    15
 71
     2
 72
     2
 73
     0
 90
        0
 40
-0.6
 41
-30.0
 62
     5
 63
     7
421
 16777215
 74
     1
 91
        4
 64
     7
 65
   257
 75
     1
175
     1
 42
1.0
 92
        8
 66
     7
 43
1.0
 76
     1
 77
     6
 78
     2
 67
     7
 79
     5
170
     0
171
     0
290
     0
174
     0
 93
        1
 44
0.0
173
     0
291
     1
 45
0.0
1001
ACAD
1000
AcDbSavedByObjectVersion
1070
     0
  0
VISUALSTYLE
  5
2B
102
{ACAD_REACTORS
330
2A
102
}
102
{ACAD_XDICTIONARY
360
240
102
}
330
2A
100
AcDbVisualStyle
  2
Flat
 70
     0
 71
     2
 72
     1
 73
     1
 90
        2
 40
-0.6
 41
30.0
 62
     5
 63
     7
421
 16777215
 74
     0
 91
        4
 64
     7
 65
   257
 75
     1
175
     1
 42
1.0
 92
        8
 66
     7
 43
1.0
 76
     1
 77
     6
 78
     2
 67
     7
 79
     5
170
     0
171
     0
290
     0
174
     0
 93
       13
 44
0.0
173
     0
291
     1
 45
0.0
1001
ACAD
1000
AcDbSavedByObjectVersion
1070
     0
  0
VISUALSTYLE
  5
2C
102
{ACAD_REACTORS
330
2A
102
}
102
{ACAD_XDICTIONARY
360
242
102
}
330
2A
100
AcDbVisualStyle
  2
FlatWithEdges
 70
     1
 71
     2
 72
     1
 73
     1
 90
        2
 40
-0.6
 41
30.0
 62
     5
 63
     7
421
 16777215
 74
     1
 91
        4
 64
     7
 65
   257
 75
     1
175
     1
 42
1.0
 92
        0
 66
   257
 43
1.0
 76
     1
 77
     6
 78
     2
 67
     7
 79
     5
170
     0
171
     0
290
     0
174
     0
 93
       13
 44
0.0
173
     0
291
     1
 45
0.0
1001
ACAD
1000
AcDbSavedByObjectVersion
1070
     0
  0
VISUALSTYLE
  5
2D
102
{ACAD_REACTORS
330
2A
102
}
102
{ACAD_XDICTIONARY
360
244
102
}
330
2A
100
AcDbVisualStyle
  2
Gouraud
 70
     2
 71
     2
 72
     2
 73
     1
 90
        2
 40
-0.6
 41
30.0
 62
     5
 63
     7
421
 16777215
 74
     0
 91
        4
 64
     7
 65
   257
 75
     1
175
     1
 42
1.0
 92
        0
 66
     7
 43
1.0
 76
     1
 77
     6
 78
     2
 67
     7
 79
     5
170
     0
171
     0
290
     0
174
     0
 93
       13
 44
0.0
173
     0
291
     1
 45
0.0
1001
ACAD
1000
AcDbSavedByObjectVersion
1070
     0
  0
VISUALSTYLE
  5
2E
102
{ACAD_REACTORS
330
2A
102
}
102
{ACAD_XDICTIONARY
360
246
102
}
330
2A
100
AcDbVisualStyle
  2
GouraudWithEdges
 70
     3
 71
     2
 72
     2
 73
     1
 90
        2
 40
-0.6
 41
30.0
 62
     5
 63
     7
421
 16777215
 74
     1
 91
        4
 64
     7
 65
   257
 75
     1
175
     1
 42
1.0
 92
        0
 66
   257
 43
1.0
 76
     1
 77
     6
 78
     2
 67
     7
 79
     5
170
     0
171
     0
290
     0
174
     0
 93
       13
 44
0.0
173
     0
291
     1
 45
0.0
1001
ACAD
1000
AcDbSavedByObjectVersion
1070
     0
  0
VISUALSTYLE
  5
38
102
{ACAD_REACTORS
330
2A
102
}
102
{ACAD_XDICTIONARY
360
25A
102
}
330
2A
100
AcDbVisualStyle
  2
Linepattern
 70
    14
 71
     2
 72
     2
 73
     0
 90
        0
 40
-0.6
 41
-30.0
 62
     5
 63
     7
421
 16777215
 74
     1
 91
        4
 64
     7
 65
   257
 75
     7
175
     7
 42
1.0
 92
        8
 66
     7
 43
1.0
 76
     1
 77
     6
 78
     2
 67
     7
 79
     5
170
     0
171
     0
290
     0
174
     0
 93
        1
 44
0.0
173
     0
291
     1
 45
0.0
1001
ACAD
1000
AcDbSavedByObjectVersion
1070
     0
  0
VISUALSTYLE
  5
33
102
{ACAD_REACTORS
330
2A
102
}
102
{ACAD_XDICTIONARY
360
250
102
}
330
2A
100
AcDbVisualStyle
  2
Realistic
 70
     8
 71
     2
 72
     2
 73
     0
 90
        0
 40
-0.6
 41
-30.0
 62
     5
 63
     7
421
 16777215
 74
     1
 91
        0
 64
     7
 65
   257
 75
     1
175
     1
 42
1.0
 92
        8
 66
     8
424
  7895160
 43
1.0
 76
     1
 77
     6
 78
     2
 67
     7
 79
     5
170
     0
171
     0
290
     0
174
     0
 93
       13
 44
0.0
173
     0
291
     0
 45
0.0
1001
ACAD
1000
AcDbSavedByObjectVersion
1070
     0
  0
VISUALSTYLE
  5
37
102
{ACAD_REACTORS
330
2A
102
}
102
{ACAD_XDICTIONARY
360
258
102
}
330
2A
100
AcDbVisualStyle
  2
Thicken
 70
    13
 71
     2
 72
     2
 73
     0
 90
        0
 40
-0.6
 41
-30.0
 62
     5
 63
     7
421
 16777215
 74
     1
 91
        4
 64
     7
 65
   257
 75
     1
175
     1
 42
1.0
 92
       12
 66
     7
 43
1.0
 76
     1
 77
     6
 78
     2
 67
     7
 79
     5
170
     0
171
     0
290
     0
174
     0
 93
        1
 44
0.0
173
     0
291
     1
 45
0.0
1001
ACAD
1000
AcDbSavedByObjectVersion
1070
     0
  0
DICTIONARY
  5
262
330
3D
100
AcDbDictionary
280
     1
281
     1
  3
ACAD_XREC_ROUNDTRIP
360
263
  0
DICTIONARY
  5
260
330
3C
100
AcDbDictionary
280
     1
281
     1
  3
ACAD_XREC_ROUNDTRIP
360
261
  0
DICTIONARY
  5
264
330
3E
100
AcDbDictionary
280
     1
281
     1
  3
ACAD_XREC_ROUNDTRIP
360
265
  0
DICTIONARY
  5
248
330
2F
100
AcDbDictionary
280
     1
281
     1
  3
ACAD_XREC_ROUNDTRIP
360
249
  0
DICTIONARY
  5
24C
330
31
100
AcDbDictionary
280
     1
281
     1
  3
ACAD_XREC_ROUNDTRIP
360
24D
  0
DICTIONARY
  5
24A
330
30
100
AcDbDictionary
280
     1
281
     1
  3
ACAD_XREC_ROUNDTRIP
360
24B
  0
DICTIONARY
  5
24E
330
32
100
AcDbDictionary
280
     1
281
     1
  3
ACAD_XREC_ROUNDTRIP
360
24F
  0
DICTIONARY
  5
256
330
36
100
AcDbDictionary
280
     1
281
     1
  3
ACAD_XREC_ROUNDTRIP
360
257
  0
DICTIONARY
  5
25E
330
3A
100
AcDbDictionary
280
     1
281
     1
  3
ACAD_XREC_ROUNDTRIP
360
25F
  0
DICTIONARY
  5
252
330
34
100
AcDbDictionary
280
     1
281
     1
  3
ACAD_XREC_ROUNDTRIP
360
253
  0
DICTIONARY
  5
254
330
35
100
AcDbDictionary
280
     1
281
     1
  3
ACAD_XREC_ROUNDTRIP
360
255
  0
DICTIONARY
  5
25C
330
39
100
AcDbDictionary
280
     1
281
     1
  3
ACAD_XREC_ROUNDTRIP
360
25D
  0
DICTIONARY
  5
240
330
2B
100
AcDbDictionary
280
     1
281
     1
  3
ACAD_XREC_ROUNDTRIP
360
241
  0
DICTIONARY
  5
242
330
2C
100
AcDbDictionary
280
     1
281
     1
  3
ACAD_XREC_ROUNDTRIP
360
243
  0
DICTIONARY
  5
244
330
2D
100
AcDbDictionary
280
     1
281
     1
  3
ACAD_XREC_ROUNDTRIP
360
245
  0
DICTIONARY
  5
246
330
2E
100
AcDbDictionary
280
     1
281
     1
  3
ACAD_XREC_ROUNDTRIP
360
247
  0
DICTIONARY
  5
25A
330
38
100
AcDbDictionary
280
     1
281
     1
  3
ACAD_XREC_ROUNDTRIP
360
25B
  0
DICTIONARY
  5
250
330
33
100
AcDbDictionary
280
     1
281
     1
  3
ACAD_XREC_ROUNDTRIP
360
251
  0
DICTIONARY
  5
258
330
37
100
AcDbDictionary
280
     1
281
     1
  3
ACAD_XREC_ROUNDTRIP
360
259
  0
XRECORD
  5
263
102
{ACAD_REACTORS
330
262
102
}
330
262
100
AcDbXrecord
280
     1
102
MATERIAL
148
0.0
149
0.0
149
0.0
 93
        0
 94
      127
282
     0
 72
     1
 77
     1
171
     1
175
     1
179
     1
273
     0
  0
XRECORD
  5
261
102
{ACAD_REACTORS
330
260
102
}
330
260
100
AcDbXrecord
280
     1
102
MATERIAL
148
0.0
149
0.0
149
0.0
 93
        0
 94
      127
282
     0
 72
     1
 77
     1
171
     1
175
     1
179
     1
273
     0
  0
XRECORD
  5
265
102
{ACAD_REACTORS
330
264
102
}
330
264
100
AcDbXrecord
280
     1
102
MATERIAL
148
0.0
149
0.0
149
0.0
 93
        0
 94
      127
282
     0
 72
     1
 77
     1
171
     1
175
     1
179
     1
273
     0
  0
XRECORD
  5
249
102
{ACAD_REACTORS
330
248
102
}
330
248
100
AcDbXrecord
280
     1
102
RTVSPropertyOp0
 70
     1
102
RTVSPropertyOp1
 70
     1
102
RTVSPropertyOp2
 70
     1
102
RTVSPropertyOp3
 70
     1
102
RTVSPropertyOp4
 70
     1
102
RTVSPropertyOp5
 70
     1
102
RTVSPropertyOp6
 70
     1
102
RTVSPropertyOp7
 70
     1
102
RTVSPropertyOp8
 70
     1
102
RTVSPropertyOp9
 70
     1
102
RTVSPropertyOp10
 70
     1
102
RTVSPropertyOp11
 70
     1
102
RTVSPropertyOp12
 70
     1
102
RTVSPropertyOp13
 70
     1
102
RTVSPropertyOp14
 70
     1
102
RTVSPropertyOp15
 70
     1
102
RTVSPropertyOp16
 70
     1
102
RTVSPropertyOp17
 70
     1
102
RTVSPropertyOp18
 70
     1
102
RTVSPropertyOp19
 70
     1
102
RTVSPropertyOp20
 70
     1
102
RTVSPropertyOp21
 70
     1
102
RTVSPropertyOp22
 70
     1
102
RTVSPropertyOp23
 70
     1
102
RTVSPropertyOp24
 70
     1
102
RTVSPropertyOp25
 70
     1
102
RTVSPropertyOp26
 70
     1
102
RTVSPropertyOp27
 70
     1
102
RTVSPropertyOp28
 70
     1
102
RTVSPropertyOp29
 70
     1
102
RTVSPropertyOp30
 70
     1
102
RTVSPropertyOp31
 70
     1
102
RTVSPropertyOp32
 70
     1
  0
XRECORD
  5
24D
102
{ACAD_REACTORS
330
24C
102
}
330
24C
100
AcDbXrecord
280
     1
102
RTVSPropertyOp0
 70
     1
102
RTVSPropertyOp1
 70
     1
102
RTVSPropertyOp2
 70
     1
102
RTVSPropertyOp3
 70
     1
102
RTVSPropertyOp4
 70
     1
102
RTVSPropertyOp5
 70
     1
102
RTVSPropertyOp6
 70
     1
102
RTVSPropertyOp7
 70
     1
102
RTVSPropertyOp8
 70
     1
102
RTVSPropertyOp9
 70
     1
102
RTVSPropertyOp10
 70
     1
102
RTVSPropertyOp11
 70
     1
102
RTVSPropertyOp12
 70
     1
102
RTVSPropertyOp13
 70
     1
102
RTVSPropertyOp14
 70
     1
102
RTVSPropertyOp15
 70
     1
102
RTVSPropertyOp16
 70
     1
102
RTVSPropertyOp17
 70
     1
102
RTVSPropertyOp18
 70
     1
102
RTVSPropertyOp19
 70
     1
102
RTVSPropertyOp20
 70
     1
102
RTVSPropertyOp21
 70
     1
102
RTVSPropertyOp22
 70
     1
102
RTVSPropertyOp23
 70
     1
102
RTVSPropertyOp24
 70
     1
102
RTVSPropertyOp25
 70
     1
102
RTVSPropertyOp26
 70
     1
102
RTVSPropertyOp27
 70
     1
102
RTVSPropertyOp28
 70
     1
102
RTVSPropertyOp29
 70
     1
102
RTVSPropertyOp30
 70
     1
102
RTVSPropertyOp31
 70
     1
102
RTVSPropertyOp32
 70
     1
  0
XRECORD
  5
24B
102
{ACAD_REACTORS
330
24A
102
}
330
24A
100
AcDbXrecord
280
     1
102
RTVSPropertyOp0
 70
     1
102
RTVSPropertyOp1
 70
     1
102
RTVSPropertyOp2
 70
     1
102
RTVSPropertyOp3
 70
     1
102
RTVSPropertyOp4
 70
     1
102
RTVSPropertyOp5
 70
     1
102
RTVSPropertyOp6
 70
     1
102
RTVSPropertyOp7
 70
     1
102
RTVSPropertyOp8
 70
     1
102
RTVSPropertyOp9
 70
     1
102
RTVSPropertyOp10
 70
     1
102
RTVSPropertyOp11
 70
     1
102
RTVSPropertyOp12
 70
     1
102
RTVSPropertyOp13
 70
     1
102
RTVSPropertyOp14
 70
     1
102
RTVSPropertyOp15
 70
     1
102
RTVSPropertyOp16
 70
     1
102
RTVSPropertyOp17
 70
     1
102
RTVSPropertyOp18
 70
     1
102
RTVSPropertyOp19
 70
     1
102
RTVSPropertyOp20
 70
     1
102
RTVSPropertyOp21
 70
     1
102
RTVSPropertyOp22
 70
     1
102
RTVSPropertyOp23
 70
     1
102
RTVSPropertyOp24
 70
     1
102
RTVSPropertyOp25
 70
     1
102
RTVSPropertyOp26
 70
     1
102
RTVSPropertyOp27
 70
     1
102
RTVSPropertyOp28
 70
     1
102
RTVSPropertyOp29
 70
     1
102
RTVSPropertyOp30
 70
     1
102
RTVSPropertyOp31
 70
     1
102
RTVSPropertyOp32
 70
     1
  0
XRECORD
  5
24F
102
{ACAD_REACTORS
330
24E
102
}
330
24E
100
AcDbXrecord
280
     1
102
RTVSPropertyOp0
 70
     1
102
RTVSPropertyOp1
 70
     1
102
RTVSPropertyOp2
 70
     1
102
RTVSPropertyOp3
 70
     1
102
RTVSPropertyOp4
 70
     1
102
RTVSPropertyOp5
 70
     1
102
RTVSPropertyOp6
 70
     1
102
RTVSPropertyOp7
 70
     1
102
RTVSPropertyOp8
 70
     1
102
RTVSPropertyOp9
 70
     1
102
RTVSPropertyOp10
 70
     1
102
RTVSPropertyOp11
 70
     1
102
RTVSPropertyOp12
 70
     1
102
RTVSPropertyOp13
 70
     1
102
RTVSPropertyOp14
 70
     1
102
RTVSPropertyOp15
 70
     1
102
RTVSPropertyOp16
 70
     1
102
RTVSPropertyOp17
 70
     1
102
RTVSPropertyOp18
 70
     1
102
RTVSPropertyOp19
 70
     1
102
RTVSPropertyOp20
 70
     1
102
RTVSPropertyOp21
 70
     1
102
RTVSPropertyOp22
 70
     1
102
RTVSPropertyOp23
 70
     1
102
RTVSPropertyOp24
 70
     1
102
RTVSPropertyOp25
 70
     1
102
RTVSPropertyOp26
 70
     1
102
RTVSPropertyOp27
 70
     1
102
RTVSPropertyOp28
 70
     1
102
RTVSPropertyOp29
 70
     1
102
RTVSPropertyOp30
 70
     1
102
RTVSPropertyOp31
 70
     1
102
RTVSPropertyOp32
 70
     1
  0
XRECORD
  5
257
102
{ACAD_REACTORS
330
256
102
}
330
256
100
AcDbXrecord
280
     1
102
RTVSPropertyOp0
 70
     1
102
RTVSPropertyOp1
 70
     1
102
RTVSPropertyOp2
 70
     1
102
RTVSPropertyOp3
 70
     1
102
RTVSPropertyOp4
 70
     1
102
RTVSPropertyOp5
 70
     1
102
RTVSPropertyOp6
 70
     1
102
RTVSPropertyOp7
 70
     1
102
RTVSPropertyOp8
 70
     1
102
RTVSPropertyOp9
 70
     1
102
RTVSPropertyOp10
 70
     1
102
RTVSPropertyOp11
 70
     1
102
RTVSPropertyOp12
 70
     1
102
RTVSPropertyOp13
 70
     1
102
RTVSPropertyOp14
 70
     1
102
RTVSPropertyOp15
 70
     1
102
RTVSPropertyOp16
 70
     1
102
RTVSPropertyOp17
 70
     1
102
RTVSPropertyOp18
 70
     1
102
RTVSPropertyOp19
 70
     1
102
RTVSPropertyOp20
 70
     1
102
RTVSPropertyOp21
 70
     1
102
RTVSPropertyOp22
 70
     1
102
RTVSPropertyOp23
 70
     1
102
RTVSPropertyOp24
 70
     1
102
RTVSPropertyOp25
 70
     1
102
RTVSPropertyOp26
 70
     1
102
RTVSPropertyOp27
 70
     1
102
RTVSPropertyOp28
 70
     1
102
RTVSPropertyOp29
 70
     1
102
RTVSPropertyOp30
 70
     1
102
RTVSPropertyOp31
 70
     1
102
RTVSPropertyOp32
 70
     1
  0
XRECORD
  5
25F
102
{ACAD_REACTORS
330
25E
102
}
330
25E
100
AcDbXrecord
280
     1
102
RTVSPropertyOp0
 70
     1
102
RTVSPropertyOp1
 70
     1
102
RTVSPropertyOp2
 70
     1
102
RTVSPropertyOp3
 70
     1
102
RTVSPropertyOp4
 70
     1
102
RTVSPropertyOp5
 70
     1
102
RTVSPropertyOp6
 70
     1
102
RTVSPropertyOp7
 70
     1
102
RTVSPropertyOp8
 70
     1
102
RTVSPropertyOp9
 70
     1
102
RTVSPropertyOp10
 70
     1
102
RTVSPropertyOp11
 70
     1
102
RTVSPropertyOp12
 70
     1
102
RTVSPropertyOp13
 70
     1
102
RTVSPropertyOp14
 70
     1
102
RTVSPropertyOp15
 70
     1
102
RTVSPropertyOp16
 70
     1
102
RTVSPropertyOp17
 70
     1
102
RTVSPropertyOp18
 70
     1
102
RTVSPropertyOp19
 70
     1
102
RTVSPropertyOp20
 70
     1
102
RTVSPropertyOp21
 70
     1
102
RTVSPropertyOp22
 70
     1
102
RTVSPropertyOp23
 70
     1
102
RTVSPropertyOp24
 70
     1
102
RTVSPropertyOp25
 70
     1
102
RTVSPropertyOp26
 70
     1
102
RTVSPropertyOp27
 70
     1
102
RTVSPropertyOp28
 70
     1
102
RTVSPropertyOp29
 70
     1
102
RTVSPropertyOp30
 70
     1
102
RTVSPropertyOp31
 70
     1
102
RTVSPropertyOp32
 70
     1
  0
XRECORD
  5
253
102
{ACAD_REACTORS
330
252
102
}
330
252
100
AcDbXrecord
280
     1
102
RTVSPropertyOp0
 70
     1
102
RTVSPropertyOp1
 70
     1
102
RTVSPropertyOp2
 70
     1
102
RTVSPropertyOp3
 70
     1
102
RTVSPropertyOp4
 70
     1
102
RTVSPropertyOp5
 70
     1
102
RTVSPropertyOp6
 70
     1
102
RTVSPropertyOp7
 70
     1
102
RTVSPropertyOp8
 70
     1
102
RTVSPropertyOp9
 70
     1
102
RTVSPropertyOp10
 70
     1
102
RTVSPropertyOp11
 70
     1
102
RTVSPropertyOp12
 70
     1
102
RTVSPropertyOp13
 70
     1
102
RTVSPropertyOp14
 70
     1
102
RTVSPropertyOp15
 70
     1
102
RTVSPropertyOp16
 70
     1
102
RTVSPropertyOp17
 70
     1
102
RTVSPropertyOp18
 70
     1
102
RTVSPropertyOp19
 70
     1
102
RTVSPropertyOp20
 70
     1
102
RTVSPropertyOp21
 70
     1
102
RTVSPropertyOp22
 70
     1
102
RTVSPropertyOp23
 70
     1
102
RTVSPropertyOp24
 70
     1
102
RTVSPropertyOp25
 70
     1
102
RTVSPropertyOp26
 70
     1
102
RTVSPropertyOp27
 70
     1
102
RTVSPropertyOp28
 70
     1
102
RTVSPropertyOp29
 70
     1
102
RTVSPropertyOp30
 70
     1
102
RTVSPropertyOp31
 70
     1
102
RTVSPropertyOp32
 70
     1
  0
XRECORD
  5
255
102
{ACAD_REACTORS
330
254
102
}
330
254
100
AcDbXrecord
280
     1
102
RTVSPropertyOp0
 70
     1
102
RTVSPropertyOp1
 70
     1
102
RTVSPropertyOp2
 70
     1
102
RTVSPropertyOp3
 70
     1
102
RTVSPropertyOp4
 70
     1
102
RTVSPropertyOp5
 70
     1
102
RTVSPropertyOp6
 70
     1
102
RTVSPropertyOp7
 70
     1
102
RTVSPropertyOp8
 70
     1
102
RTVSPropertyOp9
 70
     1
102
RTVSPropertyOp10
 70
     1
102
RTVSPropertyOp11
 70
     1
102
RTVSPropertyOp12
 70
     1
102
RTVSPropertyOp13
 70
     1
102
RTVSPropertyOp14
 70
     1
102
RTVSPropertyOp15
 70
     1
102
RTVSPropertyOp16
 70
     1
102
RTVSPropertyOp17
 70
     1
102
RTVSPropertyOp18
 70
     1
102
RTVSPropertyOp19
 70
     1
102
RTVSPropertyOp20
 70
     1
102
RTVSPropertyOp21
 70
     1
102
RTVSPropertyOp22
 70
     1
102
RTVSPropertyOp23
 70
     1
102
RTVSPropertyOp24
 70
     1
102
RTVSPropertyOp25
 70
     1
102
RTVSPropertyOp26
 70
     1
102
RTVSPropertyOp27
 70
     1
102
RTVSPropertyOp28
 70
     1
102
RTVSPropertyOp29
 70
     1
102
RTVSPropertyOp30
 70
     1
102
RTVSPropertyOp31
 70
     1
102
RTVSPropertyOp32
 70
     1
  0
XRECORD
  5
25D
102
{ACAD_REACTORS
330
25C
102
}
330
25C
100
AcDbXrecord
280
     1
102
RTVSPropertyOp0
 70
     1
102
RTVSPropertyOp1
 70
     1
102
RTVSPropertyOp2
 70
     1
102
RTVSPropertyOp3
 70
     1
102
RTVSPropertyOp4
 70
     1
102
RTVSPropertyOp5
 70
     1
102
RTVSPropertyOp6
 70
     1
102
RTVSPropertyOp7
 70
     1
102
RTVSPropertyOp8
 70
     1
102
RTVSPropertyOp9
 70
     1
102
RTVSPropertyOp10
 70
     1
102
RTVSPropertyOp11
 70
     1
102
RTVSPropertyOp12
 70
     1
102
RTVSPropertyOp13
 70
     1
102
RTVSPropertyOp14
 70
     1
102
RTVSPropertyOp15
 70
     1
102
RTVSPropertyOp16
 70
     1
102
RTVSPropertyOp17
 70
     1
102
RTVSPropertyOp18
 70
     1
102
RTVSPropertyOp19
 70
     1
102
RTVSPropertyOp20
 70
     1
102
RTVSPropertyOp21
 70
     1
102
RTVSPropertyOp22
 70
     1
102
RTVSPropertyOp23
 70
     1
102
RTVSPropertyOp24
 70
     1
102
RTVSPropertyOp25
 70
     1
102
RTVSPropertyOp26
 70
     1
102
RTVSPropertyOp27
 70
     1
102
RTVSPropertyOp28
 70
     1
102
RTVSPropertyOp29
 70
     1
102
RTVSPropertyOp30
 70
     1
102
RTVSPropertyOp31
 70
     1
102
RTVSPropertyOp32
 70
     1
  0
XRECORD
  5
241
102
{ACAD_REACTORS
330
240
102
}
330
240
100
AcDbXrecord
280
     1
102
RTVSPropertyOp0
 70
     1
102
RTVSPropertyOp1
 70
     1
102
RTVSPropertyOp2
 70
     1
102
RTVSPropertyOp3
 70
     1
102
RTVSPropertyOp4
 70
     1
102
RTVSPropertyOp5
 70
     1
102
RTVSPropertyOp6
 70
     1
102
RTVSPropertyOp7
 70
     1
102
RTVSPropertyOp8
 70
     1
102
RTVSPropertyOp9
 70
     1
102
RTVSPropertyOp10
 70
     1
102
RTVSPropertyOp11
 70
     1
102
RTVSPropertyOp12
 70
     1
102
RTVSPropertyOp13
 70
     1
102
RTVSPropertyOp14
 70
     1
102
RTVSPropertyOp15
 70
     1
102
RTVSPropertyOp16
 70
     1
102
RTVSPropertyOp17
 70
     1
102
RTVSPropertyOp18
 70
     1
102
RTVSPropertyOp19
 70
     1
102
RTVSPropertyOp20
 70
     1
102
RTVSPropertyOp21
 70
     1
102
RTVSPropertyOp22
 70
     1
102
RTVSPropertyOp23
 70
     1
102
RTVSPropertyOp24
 70
     1
102
RTVSPropertyOp25
 70
     1
102
RTVSPropertyOp26
 70
     1
102
RTVSPropertyOp27
 70
     1
102
RTVSPropertyOp28
 70
     1
102
RTVSPropertyOp29
 70
     1
102
RTVSPropertyOp30
 70
     1
102
RTVSPropertyOp31
 70
     1
102
RTVSPropertyOp32
 70
     1
  0
XRECORD
  5
243
102
{ACAD_REACTORS
330
242
102
}
330
242
100
AcDbXrecord
280
     1
102
RTVSPropertyOp0
 70
     1
102
RTVSPropertyOp1
 70
     1
102
RTVSPropertyOp2
 70
     1
102
RTVSPropertyOp3
 70
     1
102
RTVSPropertyOp4
 70
     1
102
RTVSPropertyOp5
 70
     1
102
RTVSPropertyOp6
 70
     1
102
RTVSPropertyOp7
 70
     1
102
RTVSPropertyOp8
 70
     1
102
RTVSPropertyOp9
 70
     1
102
RTVSPropertyOp10
 70
     1
102
RTVSPropertyOp11
 70
     1
102
RTVSPropertyOp12
 70
     1
102
RTVSPropertyOp13
 70
     1
102
RTVSPropertyOp14
 70
     1
102
RTVSPropertyOp15
 70
     1
102
RTVSPropertyOp16
 70
     1
102
RTVSPropertyOp17
 70
     1
102
RTVSPropertyOp18
 70
     1
102
RTVSPropertyOp19
 70
     1
102
RTVSPropertyOp20
 70
     1
102
RTVSPropertyOp21
 70
     1
102
RTVSPropertyOp22
 70
     1
102
RTVSPropertyOp23
 70
     1
102
RTVSPropertyOp24
 70
     1
102
RTVSPropertyOp25
 70
     1
102
RTVSPropertyOp26
 70
     1
102
RTVSPropertyOp27
 70
     1
102
RTVSPropertyOp28
 70
     1
102
RTVSPropertyOp29
 70
     1
102
RTVSPropertyOp30
 70
     1
102
RTVSPropertyOp31
 70
     1
102
RTVSPropertyOp32
 70
     1
  0
XRECORD
  5
245
102
{ACAD_REACTORS
330
244
102
}
330
244
100
AcDbXrecord
280
     1
102
RTVSPropertyOp0
 70
     1
102
RTVSPropertyOp1
 70
     1
102
RTVSPropertyOp2
 70
     1
102
RTVSPropertyOp3
 70
     1
102
RTVSPropertyOp4
 70
     1
102
RTVSPropertyOp5
 70
     1
102
RTVSPropertyOp6
 70
     1
102
RTVSPropertyOp7
 70
     1
102
RTVSPropertyOp8
 70
     1
102
RTVSPropertyOp9
 70
     1
102
RTVSPropertyOp10
 70
     1
102
RTVSPropertyOp11
 70
     1
102
RTVSPropertyOp12
 70
     1
102
RTVSPropertyOp13
 70
     1
102
RTVSPropertyOp14
 70
     1
102
RTVSPropertyOp15
 70
     1
102
RTVSPropertyOp16
 70
     1
102
RTVSPropertyOp17
 70
     1
102
RTVSPropertyOp18
 70
     1
102
RTVSPropertyOp19
 70
     1
102
RTVSPropertyOp20
 70
     1
102
RTVSPropertyOp21
 70
     1
102
RTVSPropertyOp22
 70
     1
102
RTVSPropertyOp23
 70
     1
102
RTVSPropertyOp24
 70
     1
102
RTVSPropertyOp25
 70
     1
102
RTVSPropertyOp26
 70
     1
102
RTVSPropertyOp27
 70
     1
102
RTVSPropertyOp28
 70
     1
102
RTVSPropertyOp29
 70
     1
102
RTVSPropertyOp30
 70
     1
102
RTVSPropertyOp31
 70
     1
102
RTVSPropertyOp32
 70
     1
  0
XRECORD
  5
247
102
{ACAD_REACTORS
330
246
102
}
330
246
100
AcDbXrecord
280
     1
102
RTVSPropertyOp0
 70
     1
102
RTVSPropertyOp1
 70
     1
102
RTVSPropertyOp2
 70
     1
102
RTVSPropertyOp3
 70
     1
102
RTVSPropertyOp4
 70
     1
102
RTVSPropertyOp5
 70
     1
102
RTVSPropertyOp6
 70
     1
102
RTVSPropertyOp7
 70
     1
102
RTVSPropertyOp8
 70
     1
102
RTVSPropertyOp9
 70
     1
102
RTVSPropertyOp10
 70
     1
102
RTVSPropertyOp11
 70
     1
102
RTVSPropertyOp12
 70
     1
102
RTVSPropertyOp13
 70
     1
102
RTVSPropertyOp14
 70
     1
102
RTVSPropertyOp15
 70
     1
102
RTVSPropertyOp16
 70
     1
102
RTVSPropertyOp17
 70
     1
102
RTVSPropertyOp18
 70
     1
102
RTVSPropertyOp19
 70
     1
102
RTVSPropertyOp20
 70
     1
102
RTVSPropertyOp21
 70
     1
102
RTVSPropertyOp22
 70
     1
102
RTVSPropertyOp23
 70
     1
102
RTVSPropertyOp24
 70
     1
102
RTVSPropertyOp25
 70
     1
102
RTVSPropertyOp26
 70
     1
102
RTVSPropertyOp27
 70
     1
102
RTVSPropertyOp28
 70
     1
102
RTVSPropertyOp29
 70
     1
102
RTVSPropertyOp30
 70
     1
102
RTVSPropertyOp31
 70
     1
102
RTVSPropertyOp32
 70
     1
  0
XRECORD
  5
25B
102
{ACAD_REACTORS
330
25A
102
}
330
25A
100
AcDbXrecord
280
     1
102
RTVSPropertyOp0
 70
     1
102
RTVSPropertyOp1
 70
     1
102
RTVSPropertyOp2
 70
     1
102
RTVSPropertyOp3
 70
     1
102
RTVSPropertyOp4
 70
     1
102
RTVSPropertyOp5
 70
     1
102
RTVSPropertyOp6
 70
     1
102
RTVSPropertyOp7
 70
     1
102
RTVSPropertyOp8
 70
     1
102
RTVSPropertyOp9
 70
     1
102
RTVSPropertyOp10
 70
     1
102
RTVSPropertyOp11
 70
     1
102
RTVSPropertyOp12
 70
     1
102
RTVSPropertyOp13
 70
     1
102
RTVSPropertyOp14
 70
     1
102
RTVSPropertyOp15
 70
     1
102
RTVSPropertyOp16
 70
     1
102
RTVSPropertyOp17
 70
     1
102
RTVSPropertyOp18
 70
     1
102
RTVSPropertyOp19
 70
     1
102
RTVSPropertyOp20
 70
     1
102
RTVSPropertyOp21
 70
     1
102
RTVSPropertyOp22
 70
     1
102
RTVSPropertyOp23
 70
     1
102
RTVSPropertyOp24
 70
     1
102
RTVSPropertyOp25
 70
     1
102
RTVSPropertyOp26
 70
     1
102
RTVSPropertyOp27
 70
     1
102
RTVSPropertyOp28
 70
     1
102
RTVSPropertyOp29
 70
     1
102
RTVSPropertyOp30
 70
     1
102
RTVSPropertyOp31
 70
     1
102
RTVSPropertyOp32
 70
     1
  0
XRECORD
  5
251
102
{ACAD_REACTORS
330
250
102
}
330
250
100
AcDbXrecord
280
     1
102
RTVSPropertyOp0
 70
     1
102
RTVSPropertyOp1
 70
     1
102
RTVSPropertyOp2
 70
     1
102
RTVSPropertyOp3
 70
     1
102
RTVSPropertyOp4
 70
     1
102
RTVSPropertyOp5
 70
     1
102
RTVSPropertyOp6
 70
     1
102
RTVSPropertyOp7
 70
     1
102
RTVSPropertyOp8
 70
     1
102
RTVSPropertyOp9
 70
     1
102
RTVSPropertyOp10
 70
     1
102
RTVSPropertyOp11
 70
     1
102
RTVSPropertyOp12
 70
     1
102
RTVSPropertyOp13
 70
     1
102
RTVSPropertyOp14
 70
     1
102
RTVSPropertyOp15
 70
     1
102
RTVSPropertyOp16
 70
     1
102
RTVSPropertyOp17
 70
     1
102
RTVSPropertyOp18
 70
     1
102
RTVSPropertyOp19
 70
     1
102
RTVSPropertyOp20
 70
     1
102
RTVSPropertyOp21
 70
     1
102
RTVSPropertyOp22
 70
     1
102
RTVSPropertyOp23
 70
     1
102
RTVSPropertyOp24
 70
     1
102
RTVSPropertyOp25
 70
     1
102
RTVSPropertyOp26
 70
     1
102
RTVSPropertyOp27
 70
     1
102
RTVSPropertyOp28
 70
     1
102
RTVSPropertyOp29
 70
     1
102
RTVSPropertyOp30
 70
     1
102
RTVSPropertyOp31
 70
     1
102
RTVSPropertyOp32
 70
     1
  0
XRECORD
  5
259
102
{ACAD_REACTORS
330
258
102
}
330
258
100
AcDbXrecord
280
     1
102
RTVSPropertyOp0
 70
     1
102
RTVSPropertyOp1
 70
     1
102
RTVSPropertyOp2
 70
     1
102
RTVSPropertyOp3
 70
     1
102
RTVSPropertyOp4
 70
     1
102
RTVSPropertyOp5
 70
     1
102
RTVSPropertyOp6
 70
     1
102
RTVSPropertyOp7
 70
     1
102
RTVSPropertyOp8
 70
     1
102
RTVSPropertyOp9
 70
     1
102
RTVSPropertyOp10
 70
     1
102
RTVSPropertyOp11
 70
     1
102
RTVSPropertyOp12
 70
     1
102
RTVSPropertyOp13
 70
     1
102
RTVSPropertyOp14
 70
     1
102
RTVSPropertyOp15
 70
     1
102
RTVSPropertyOp16
 70
     1
102
RTVSPropertyOp17
 70
     1
102
RTVSPropertyOp18
 70
     1
102
RTVSPropertyOp19
 70
     1
102
RTVSPropertyOp20
 70
     1
102
RTVSPropertyOp21
 70
     1
102
RTVSPropertyOp22
 70
     1
102
RTVSPropertyOp23
 70
     1
102
RTVSPropertyOp24
 70
     1
102
RTVSPropertyOp25
 70
     1
102
RTVSPropertyOp26
 70
     1
102
RTVSPropertyOp27
 70
     1
102
RTVSPropertyOp28
 70
     1
102
RTVSPropertyOp29
 70
     1
102
RTVSPropertyOp30
 70
     1
102
RTVSPropertyOp31
 70
     1
102
RTVSPropertyOp32
 70
     1
  0
ENDSEC
  0
EOF
