  0
SECTION
  2
HEADER
  9
$ACADVER
  1
AC1018
  9
$ACADMAINTVER
 70
     0
  9
$DWGCODEPAGE
  3
ANSI_1252
  9
$INSBASE
 10
0.0
 20
0.0
 30
0.0
  9
$EXTMIN
 10
-1175.750002928101
 20
-1122.048554758902
 30
0.0
  9
$EXTMAX
 10
-878.7500029281023
 20
-912.0485547589019
 30
0.0
  9
$LIMMIN
 10
0.0
 20
0.0
  9
$LIMMAX
 10
12.0
 20
9.0
  9
$ORTHOMODE
 70
     0
  9
$REGENMODE
 70
     1
  9
$FILLMODE
 70
     1
  9
$QTEXTMODE
 70
     0
  9
$MIRRTEXT
 70
     1
  9
$LTSCALE
 40
1.0
  9
$ATTMODE
 70
     1
  9
$TEXTSIZE
 40
0.2
  9
$TRACEWID
 40
0.05
  9
$TEXTSTYLE
  7
Standard
  9
$CLAYER
  8
0
  9
$CELTYPE
  6
ByLayer
  9
$CECOLOR
 62
   256
  9
$CELTSCALE
 40
1.0
  9
$DISPSILH
 70
     0
  9
$DIMSCALE
 40
1.0
  9
$DIMASZ
 40
0.18
  9
$DIMEXO
 40
0.0625
  9
$DIMDLI
 40
0.38
  9
$DIMRND
 40
0.0
  9
$DIMDLE
 40
0.0
  9
$DIMEXE
 40
0.18
  9
$DIMTP
 40
0.0
  9
$DIMTM
 40
0.0
  9
$DIMTXT
 40
0.18
  9
$DIMCEN
 40
0.09
  9
$DIMTSZ
 40
0.0
  9
$DIMTOL
 70
     0
  9
$DIMLIM
 70
     0
  9
$DIMTIH
 70
     1
  9
$DIMTOH
 70
     1
  9
$DIMSE1
 70
     0
  9
$DIMSE2
 70
     0
  9
$DIMTAD
 70
     0
  9
$DIMZIN
 70
     0
  9
$DIMBLK
  1

  9
$DIMASO
 70
     1
  9
$DIMSHO
 70
     1
  9
$DIMPOST
  1

  9
$DIMAPOST
  1

  9
$DIMALT
 70
     0
  9
$DIMALTD
 70
     2
  9
$DIMALTF
 40
25.4
  9
$DIMLFAC
 40
1.0
  9
$DIMTOFL
 70
     0
  9
$DIMTVP
 40
0.0
  9
$DIMTIX
 70
     0
  9
$DIMSOXD
 70
     0
  9
$DIMSAH
 70
     0
  9
$DIMBLK1
  1

  9
$DIMBLK2
  1

  9
$DIMSTYLE
  2
Standard
  9
$DIMCLRD
 70
     0
  9
$DIMCLRE
 70
     0
  9
$DIMCLRT
 70
     0
  9
$DIMTFAC
 40
1.0
  9
$DIMGAP
 40
0.09
  9
$DIMJUST
 70
     0
  9
$DIMSD1
 70
     0
  9
$DIMSD2
 70
     0
  9
$DIMTOLJ
 70
     1
  9
$DIMTZIN
 70
     0
  9
$DIMALTZ
 70
     0
  9
$DIMALTTZ
 70
     0
  9
$DIMUPT
 70
     0
  9
$DIMDEC
 70
     4
  9
$DIMTDEC
 70
     4
  9
$DIMALTU
 70
     2
  9
$DIMALTTD
 70
     2
  9
$DIMTXSTY
  7
Standard
  9
$DIMAUNIT
 70
     0
  9
$DIMADEC
 70
     0
  9
$DIMALTRND
 40
0.0
  9
$DIMAZIN
 70
     0
  9
$DIMDSEP
 70
    46
  9
$DIMATFIT
 70
     3
  9
$DIMFRAC
 70
     0
  9
$DIMLDRBLK
  1

  9
$DIMLUNIT
 70
     2
  9
$DIMLWD
 70
    -2
  9
$DIMLWE
 70
    -2
  9
$DIMTMOVE
 70
     0
  9
$LUNITS
 70
     2
  9
$LUPREC
 70
     4
  9
$SKETCHINC
 40
0.1
  9
$FILLETRAD
 40
0.5
  9
$AUNITS
 70
     0
  9
$AUPREC
 70
     0
  9
$MENU
  1
.
  9
$ELEVATION
 40
0.0
  9
$PELEVATION
 40
0.0
  9
$THICKNESS
 40
0.0
  9
$LIMCHECK
 70
     0
  9
$CHAMFERA
 40
0.0
  9
$CHAMFERB
 40
0.0
  9
$CHAMFERC
 40
0.0
  9
$CHAMFERD
 40
0.0
  9
$SKPOLY
 70
     0
  9
$TDCREATE
 40
2458810.035704248
  9
$TDUCREATE
 40
2458809.994037581
  9
$TDUPDATE
 40
2458810.035704421
  9
$TDUUPDATE
 40
2458809.994037755
  9
$TDINDWG
 40
0.0000000116
  9
$TDUSRTIMER
 40
0.0000000116
  9
$USRTIMER
 70
     1
  9
$ANGBASE
 50
0.0
  9
$ANGDIR
 70
     0
  9
$PDMODE
 70
     0
  9
$PDSIZE
 40
0.0
  9
$PLINEWID
 40
0.0
  9
$SPLFRAME
 70
     0
  9
$SPLINETYPE
 70
     6
  9
$SPLINESEGS
 70
     8
  9
$HANDSEED
  5
2C3
  9
$SURFTAB1
 70
     6
  9
$SURFTAB2
 70
     6
  9
$SURFTYPE
 70
     6
  9
$SURFU
 70
     6
  9
$SURFV
 70
     6
  9
$UCSBASE
  2

  9
$UCSNAME
  2

  9
$UCSORG
 10
0.0
 20
0.0
 30
0.0
  9
$UCSXDIR
 10
1.0
 20
0.0
 30
0.0
  9
$UCSYDIR
 10
0.0
 20
1.0
 30
0.0
  9
$UCSORTHOREF
  2

  9
$UCSORTHOVIEW
 70
     0
  9
$UCSORGTOP
 10
0.0
 20
0.0
 30
0.0
  9
$UCSORGBOTTOM
 10
0.0
 20
0.0
 30
0.0
  9
$UCSORGLEFT
 10
0.0
 20
0.0
 30
0.0
  9
$UCSORGRIGHT
 10
0.0
 20
0.0
 30
0.0
  9
$UCSORGFRONT
 10
0.0
 20
0.0
 30
0.0
  9
$UCSORGBACK
 10
0.0
 20
0.0
 30
0.0
  9
$PUCSBASE
  2

  9
$PUCSNAME
  2

  9
$PUCSORG
 10
0.0
 20
0.0
 30
0.0
  9
$PUCSXDIR
 10
1.0
 20
0.0
 30
0.0
  9
$PUCSYDIR
 10
0.0
 20
1.0
 30
0.0
  9
$PUCSORTHOREF
  2

  9
$PUCSORTHOVIEW
 70
     0
  9
$PUCSORGTOP
 10
0.0
 20
0.0
 30
0.0
  9
$PUCSORGBOTTOM
 10
0.0
 20
0.0
 30
0.0
  9
$PUCSORGLEFT
 10
0.0
 20
0.0
 30
0.0
  9
$PUCSORGRIGHT
 10
0.0
 20
0.0
 30
0.0
  9
$PUCSORGFRONT
 10
0.0
 20
0.0
 30
0.0
  9
$PUCSORGBACK
 10
0.0
 20
0.0
 30
0.0
  9
$USERI1
 70
     0
  9
$USERI2
 70
     0
  9
$USERI3
 70
     0
  9
$USERI4
 70
     0
  9
$USERI5
 70
     0
  9
$USERR1
 40
20.1
  9
$USERR2
 40
0.0
  9
$USERR3
 40
0.0
  9
$USERR4
 40
0.0
  9
$USERR5
 40
0.0
  9
$WORLDVIEW
 70
     1
  9
$SHADEDGE
 70
     3
  9
$SHADEDIF
 70
    70
  9
$TILEMODE
 70
     1
  9
$MAXACTVP
 70
    64
  9
$PINSBASE
 10
0.0
 20
0.0
 30
0.0
  9
$PLIMCHECK
 70
     0
  9
$PEXTMIN
 10
1.00000000000000E+20
 20
1.00000000000000E+20
 30
1.00000000000000E+20
  9
$PEXTMAX
 10
-1.00000000000000E+20
 20
-1.00000000000000E+20
 30
-1.00000000000000E+20
  9
$PLIMMIN
 10
0.0
 20
0.0
  9
$PLIMMAX
 10
12.0
 20
9.0
  9
$UNITMODE
 70
     0
  9
$VISRETAIN
 70
     1
  9
$PLINEGEN
 70
     0
  9
$PSLTSCALE
 70
     1
  9
$TREEDEPTH
 70
  3020
  9
$CMLSTYLE
  2
Standard
  9
$CMLJUST
 70
     0
  9
$CMLSCALE
 40
1.0
  9
$PROXYGRAPHICS
 70
     1
  9
$MEASUREMENT
 70
     1
  9
$CELWEIGHT
370
    -1
  9
$ENDCAPS
280
     0
  9
$JOINSTYLE
280
     0
  9
$LWDISPLAY
290
     0
  9
$INSUNITS
 70
     4
  9
$HYPERLINKBASE
  1

  9
$STYLESHEET
  1

  9
$XEDIT
290
     1
  9
$CEPSNTYPE
380
     0
  9
$PSTYLEMODE
290
     1
  9
$FINGERPRINTGUID
  2
{854358cc-c699-48c0-8d5f-03c0df593bf9}
  9
$VERSIONGUID
  2
{FAEB1C32-E019-11D5-929B-00C0DF256EC4}
  9
$EXTNAMES
290
     1
  9
$PSVPSCALE
 40
0.0
  9
$OLESTARTUP
290
     0
  9
$SORTENTS
280
   127
  9
$INDEXCTL
280
     0
  9
$HIDETEXT
280
     1
  9
$XCLIPFRAME
290
     0
  9
$HALOGAP
280
     0
  9
$OBSCOLOR
 70
   257
  9
$OBSLTYPE
280
     0
  9
$INTERSECTIONDISPLAY
280
     0
  9
$INTERSECTIONCOLOR
 70
   257
  9
$DIMASSOC
280
     2
  9
$PROJECTNAME
  1

  0
ENDSEC
  0
SECTION
  2
CLASSES
  0
CLASS
  1
ACDBDICTIONARYWDFLT
  2
AcDbDictionaryWithDefault
  3
ObjectDBX Classes
 90
        0
 91
        3
280
     0
281
     0
  0
CLASS
  1
VISUALSTYLE
  2
AcDbVisualStyle
  3
ObjectDBX Classes
 90
     4095
 91
        3
280
     0
281
     0
  0
CLASS
  1
MATERIAL
  2
AcDbMaterial
  3
ObjectDBX Classes
 90
     1153
 91
        3
280
     0
281
     0
  0
CLASS
  1
SCALE
  2
AcDbScale
  3
ObjectDBX Classes
 90
     1153
 91
        3
280
     0
281
     0
  0
CLASS
  1
TABLESTYLE
  2
AcDbTableStyle
  3
ObjectDBX Classes
 90
     4095
 91
        3
280
     0
281
     0
  0
CLASS
  1
MLEADERSTYLE
  2
AcDbMLeaderStyle
  3
ACDB_MLEADERSTYLE_CLASS
 90
     4095
 91
        3
280
     0
281
     0
  0
CLASS
  1
SUN
  2
AcDbSun
  3
SCENEOE
 90
     1153
 91
        3
280
     0
281
     0
  0
CLASS
  1
DICTIONARYVAR
  2
AcDbDictionaryVar
  3
ObjectDBX Classes
 90
        0
 91
        3
280
     0
281
     0
  0
CLASS
  1
CELLSTYLEMAP
  2
AcDbCellStyleMap
  3
ObjectDBX Classes
 90
     1152
 91
        3
280
     0
281
     0
  0
ENDSEC
  0
SECTION
  2
TABLES
  0
TABLE
  2
VPORT
  5
8
102
{ACAD_XDICTIONARY
360
27C
102
}
330
0
100
AcDbSymbolTable
 70
     1
  0
VPORT
  5
29
330
8
100
AcDbSymbolTableRecord
100
AcDbViewportTableRecord
  2
*Active
 70
     0
 10
0.0
 20
0.0
 11
1.0
 21
1.0
 12
-1027.250002928102
 22
-1017.048554758902
 13
0.0
 23
0.0
 14
0.5
 24
0.5
 15
0.5
 25
0.5
 16
0.0
 26
0.0
 36
1.0
 17
0.0
 27
0.0
 37
0.0
 40
231.0
 41
1.60267857142857
 42
50.0
 43
0.0
 44
0.0
 50
0.0
 51
0.0
 71
     0
 72
   100
 73
     1
 74
     3
 75
     0
 76
     0
 77
     0
 78
     0
281
     0
 65
     1
110
0.0
120
0.0
130
0.0
111
1.0
121
0.0
131
0.0
112
0.0
122
1.0
132
0.0
 79
     0
146
0.0
  0
ENDTAB
  0
TABLE
  2
LTYPE
  5
5
330
0
100
AcDbSymbolTable
 70
     8
  0
LTYPE
  5
14
330
5
100
AcDbSymbolTableRecord
100
AcDbLinetypeTableRecord
  2
ByBlock
 70
     0
  3

 72
    65
 73
     0
 40
0.0
  0
LTYPE
  5
15
330
5
100
AcDbSymbolTableRecord
100
AcDbLinetypeTableRecord
  2
ByLayer
 70
     0
  3

 72
    65
 73
     0
 40
0.0
  0
LTYPE
  5
16
330
5
100
AcDbSymbolTableRecord
100
AcDbLinetypeTableRecord
  2
Continuous
 70
     0
  3
Solid line
 72
    65
 73
     0
 40
0.0
  0
LTYPE
  5
6E
330
5
100
AcDbSymbolTableRecord
100
AcDbLinetypeTableRecord
  2
DASHED
 70
     0
  3
Dashed
 72
    65
 73
     2
 40
15.0
 49
7.0
 74
     0
 49
-8.0
 74
     0
  0
LTYPE
  5
6F
330
5
100
AcDbSymbolTableRecord
100
AcDbLinetypeTableRecord
  2
DOTTED
 70
     0
  3
Dotted
 72
    65
 73
     2
 40
1.0
 49
0.0
 74
     0
 49
-1.0
 74
     0
  0
LTYPE
  5
70
330
5
100
AcDbSymbolTableRecord
100
AcDbLinetypeTableRecord
  2
DOT_CENTER
 70
     0
  3
Dot_Center
 72
    65
 73
     4
 40
14.0
 49
12.0
 74
     0
 49
-1.0
 74
     0
 49
0.0
 74
     0
 49
-1.0
 74
     0
  0
LTYPE
  5
71
330
5
100
AcDbSymbolTableRecord
100
AcDbLinetypeTableRecord
  2
LONG_DASHED
 70
     0
  3
Long_Dashed
 72
    65
 73
     2
 40
15.0
 49
10.0
 74
     0
 49
-5.0
 74
     0
  0
LTYPE
  5
72
330
5
100
AcDbSymbolTableRecord
100
AcDbLinetypeTableRecord
  2
DASH_CENTER
 70
     0
  3
Dash_Center
 72
    65
 73
     4
 40
14.0
 49
11.0
 74
     0
 49
-1.0
 74
     0
 49
1.0
 74
     0
 49
-1.0
 74
     0
  0
LTYPE
  5
73
330
5
100
AcDbSymbolTableRecord
100
AcDbLinetypeTableRecord
  2
PHANTOM
 70
     0
  3
Phantom
 72
    65
 73
     6
 40
13.0
 49
10.0
 74
     0
 49
-1.0
 74
     0
 49
0.0
 74
     0
 49
-1.0
 74
     0
 49
0.0
 74
     0
 49
-1.0
 74
     0
  0
LTYPE
  5
74
330
5
100
AcDbSymbolTableRecord
100
AcDbLinetypeTableRecord
  2
CENTER_DASH_DASH
 70
     0
  3
Center_Dash_Dash
 72
    65
 73
     6
 40
14.0
 49
9.0
 74
     0
 49
-1.0
 74
     0
 49
1.0
 74
     0
 49
-1.0
 74
     0
 49
1.0
 74
     0
 49
-1.0
 74
     0
  0
ENDTAB
  0
TABLE
  2
LAYER
  5
2
330
0
100
AcDbSymbolTable
 70
     2
  0
LAYER
  5
10
330
2
100
AcDbSymbolTableRecord
100
AcDbLayerTableRecord
  2
0
 70
     0
 62
     7
  6
Continuous
370
    -3
390
F
  0
LAYER
  5
75
330
2
100
AcDbSymbolTableRecord
100
AcDbLayerTableRecord
  2
1
 70
     0
 62
     7
  6
Continuous
370
    -3
390
F
  0
ENDTAB
  0
TABLE
  2
STYLE
  5
3
330
0
100
AcDbSymbolTable
 70
     5
  0
STYLE
  5
11
330
3
100
AcDbSymbolTableRecord
100
AcDbTextStyleTableRecord
  2
Standard
 70
     0
 40
0.0
 41
1.0
 50
0.0
 71
     0
 42
0.2
  3
txt
  4

  0
STYLE
  5
D9
330
3
100
AcDbSymbolTableRecord
100
AcDbTextStyleTableRecord
  2
CONVERTER_11
 70
     0
 40
0.0
 41
0.9
 50
0.0
 71
     0
 42
0.2
  3
txt.shx
  4

  0
STYLE
  5
23A
330
3
100
AcDbSymbolTableRecord
100
AcDbTextStyleTableRecord
  2
CONVERTER_12
 70
     0
 40
0.0
 41
0.81
 50
0.0
 71
     0
 42
0.2
  3
txt.shx
  4

  0
STYLE
  5
240
330
3
100
AcDbSymbolTableRecord
100
AcDbTextStyleTableRecord
  2
CONVERTER_13
 70
     0
 40
0.0
 41
0.855
 50
0.0
 71
     0
 42
0.2
  3
txt.shx
  4

  0
STYLE
  5
243
330
3
100
AcDbSymbolTableRecord
100
AcDbTextStyleTableRecord
  2
CONVERTER_14
 70
     0
 40
0.0
 41
0.72
 50
0.0
 71
     0
 42
0.2
  3
txt.shx
  4

  0
ENDTAB
  0
TABLE
  2
VIEW
  5
6
330
0
100
AcDbSymbolTable
 70
     0
  0
ENDTAB
  0
TABLE
  2
UCS
  5
7
330
0
100
AcDbSymbolTable
 70
     0
  0
ENDTAB
  0
TABLE
  2
APPID
  5
9
330
0
100
AcDbSymbolTable
 70
     2
  0
APPID
  5
12
330
9
100
AcDbSymbolTableRecord
100
AcDbRegAppTableRecord
  2
ACAD
 70
     0
  0
APPID
  5
2BB
330
9
100
AcDbSymbolTableRecord
100
AcDbRegAppTableRecord
  2
ACAD_MLEADERVER
 70
     0
  0
ENDTAB
  0
TABLE
  2
DIMSTYLE
  5
A
330
0
100
AcDbSymbolTable
 70
     4
100
AcDbDimStyleTable
  0
DIMSTYLE
105
27
330
A
100
AcDbSymbolTableRecord
100
AcDbDimStyleTableRecord
  2
Standard
 70
     0
178
     0
340
11
  0
DIMSTYLE
105
E9
102
{ACAD_REACTORS
330
EA
102
}
330
A
100
AcDbSymbolTableRecord
100
AcDbDimStyleTableRecord
  2
ME10_DIM_10
 70
     0
 41
0.7
 42
0.0
 44
0.4
 73
     0
 74
     0
 77
     1
 78
     8
140
0.7
147
0.4
172
     1
173
     1
174
     1
175
     1
176
     2
177
     2
178
     3
340
D9
  0
DIMSTYLE
105
136
102
{ACAD_REACTORS
330
137
102
}
330
A
100
AcDbSymbolTableRecord
100
AcDbDimStyleTableRecord
  2
ME10_DIM_11
 70
     0
 41
0.7
 42
0.0
 44
0.3
 73
     0
 74
     0
 77
     1
 78
     8
140
0.7
147
0.3
172
     1
173
     1
174
     1
175
     1
176
     2
177
     2
178
     3
340
D9
  0
DIMSTYLE
105
141
102
{ACAD_REACTORS
330
142
102
}
330
A
100
AcDbSymbolTableRecord
100
AcDbDimStyleTableRecord
  2
ME10_DIM_12
 70
     0
 41
0.7
 42
0.0
 44
0.4
 73
     0
 74
     0
 77
     1
 78
     8
140
0.7
147
0.4
172
     1
173
     1
174
     1
175
     1
176
     2
177
     2
178
     3
340
D9
  0
ENDTAB
  0
TABLE
  2
BLOCK_RECORD
  5
1
330
0
100
AcDbSymbolTable
 70
    20
  0
BLOCK_RECORD
  5
1F
330
1
100
AcDbSymbolTableRecord
100
AcDbBlockTableRecord
  2
*Model_Space
340
22
  0
BLOCK_RECORD
  5
1B
330
1
100
AcDbSymbolTableRecord
100
AcDbBlockTableRecord
  2
*Paper_Space
340
1E
  0
BLOCK_RECORD
  5
23
330
1
100
AcDbSymbolTableRecord
100
AcDbBlockTableRecord
  2
*Paper_Space0
340
26
  0
BLOCK_RECORD
  5
76
330
1
100
AcDbSymbolTableRecord
100
AcDbBlockTableRecord
  2
ZB_10_unbedruckt-select__1
340
0
102
{BLKREFS
331
7A
102
}
  0
BLOCK_RECORD
  5
79
330
1
100
AcDbSymbolTableRecord
100
AcDbBlockTableRecord
  2
AllgSicht1
340
0
102
{BLKREFS
331
AC
102
}
  0
BLOCK_RECORD
  5
7D
330
1
100
AcDbSymbolTableRecord
100
AcDbBlockTableRecord
  2
ZB_10_unbedruckt-select__2
340
0
102
{BLKREFS
331
81
102
}
  0
BLOCK_RECORD
  5
80
330
1
100
AcDbSymbolTableRecord
100
AcDbBlockTableRecord
  2
Drfsicht1
340
0
102
{BLKREFS
331
AD
102
}
  0
BLOCK_RECORD
  5
84
330
1
100
AcDbSymbolTableRecord
100
AcDbBlockTableRecord
  2
ZB_10_unbedruckt-select__3
340
0
102
{BLKREFS
331
88
102
}
  0
BLOCK_RECORD
  5
87
330
1
100
AcDbSymbolTableRecord
100
AcDbBlockTableRecord
  2
Rckans1
340
0
102
{BLKREFS
331
AE
102
}
  0
BLOCK_RECORD
  5
8B
330
1
100
AcDbSymbolTableRecord
100
AcDbBlockTableRecord
  2
ZB_10_unbedruckt-select__4
340
0
102
{BLKREFS
331
8F
102
}
  0
BLOCK_RECORD
  5
8E
330
1
100
AcDbSymbolTableRecord
100
AcDbBlockTableRecord
  2
SA_Links1
340
0
102
{BLKREFS
331
AF
102
}
  0
BLOCK_RECORD
  5
92
330
1
100
AcDbSymbolTableRecord
100
AcDbBlockTableRecord
  2
ZB_10_unbedruckt-select__5
340
0
102
{BLKREFS
331
96
102
}
  0
BLOCK_RECORD
  5
95
330
1
100
AcDbSymbolTableRecord
100
AcDbBlockTableRecord
  2
SA_Rechts1
340
0
102
{BLKREFS
331
B0
102
}
  0
BLOCK_RECORD
  5
99
330
1
100
AcDbSymbolTableRecord
100
AcDbBlockTableRecord
  2
ZB_10_unbedruckt-select__6
340
0
102
{BLKREFS
331
9D
102
}
  0
BLOCK_RECORD
  5
9C
330
1
100
AcDbSymbolTableRecord
100
AcDbBlockTableRecord
  2
Vordans1
340
0
102
{BLKREFS
331
B1
102
}
  0
BLOCK_RECORD
  5
A0
330
1
100
AcDbSymbolTableRecord
100
AcDbBlockTableRecord
  2
_rahmen
340
0
102
{BLKREFS
331
A7
102
}
  0
BLOCK_RECORD
  5
A3
330
1
100
AcDbSymbolTableRecord
100
AcDbBlockTableRecord
  2
_punkt
340
0
102
{BLKREFS
331
A8
102
}
  0
BLOCK_RECORD
  5
A6
330
1
100
AcDbSymbolTableRecord
100
AcDbBlockTableRecord
  2
A4I_CS
340
0
102
{BLKREFS
331
B2
102
}
  0
BLOCK_RECORD
  5
AB
330
1
100
AcDbSymbolTableRecord
100
AcDbBlockTableRecord
  2
1
340
0
102
{BLKREFS
331
B5
102
}
  0
BLOCK_RECORD
  5
E0
330
1
100
AcDbSymbolTableRecord
100
AcDbBlockTableRecord
  2
*D17
340
0
  0
BLOCK_RECORD
  5
12D
330
1
100
AcDbSymbolTableRecord
100
AcDbBlockTableRecord
  2
*D18
340
0
  0
BLOCK_RECORD
  5
138
330
1
100
AcDbSymbolTableRecord
100
AcDbBlockTableRecord
  2
*D19
340
0
  0
ENDTAB
  0
ENDSEC
  0
SECTION
  2
BLOCKS
  0
BLOCK
  5
20
330
1F
100
AcDbEntity
  8
0
100
AcDbBlockBegin
  2
*Model_Space
 70
     0
 10
0.0
 20
0.0
 30
0.0
  3
*Model_Space
  1

  0
ENDBLK
  5
21
330
1F
100
AcDbEntity
  8
0
100
AcDbBlockEnd
  0
BLOCK
  5
1C
330
1B
100
AcDbEntity
 67
     1
  8
0
100
AcDbBlockBegin
  2
*Paper_Space
 70
     0
 10
0.0
 20
0.0
 30
0.0
  3
*Paper_Space
  1

  0
ENDBLK
  5
1D
330
1B
100
AcDbEntity
 67
     1
  8
0
100
AcDbBlockEnd
  0
BLOCK
  5
24
330
23
100
AcDbEntity
  8
0
100
AcDbBlockBegin
  2
*Paper_Space0
 70
     0
 10
0.0
 20
0.0
 30
0.0
  3
*Paper_Space0
  1

  0
ENDBLK
  5
25
330
23
100
AcDbEntity
  8
0
100
AcDbBlockEnd
  0
BLOCK
  5
77
330
76
100
AcDbEntity
  8
0
100
AcDbBlockBegin
  2
ZB_10_unbedruckt-select__1
 70
     0
 10
-195.1216285043807
 20
-211.5225832876484
 30
0.0
  3
ZB_10_unbedruckt-select__1
  1

  0
LINE
  5
B6
330
76
100
AcDbEntity
  8
0
  6
Continuous
 62
     7
100
AcDbLine
 10
-186.0283617646441
 20
-208.4692412928694
 30
0.0
 11
-195.1216285043807
 21
-205.8442412928694
 31
0.0
  0
LINE
  5
B7
330
76
100
AcDbEntity
  8
0
  6
Continuous
 62
     7
100
AcDbLine
 10
-180.953361764644
 20
-204.0741623686634
 30
0.0
 11
-190.0466285043808
 21
-201.4491623686634
 31
0.0
  0
LINE
  5
B8
330
76
100
AcDbEntity
  8
0
  6
Continuous
 62
     7
100
AcDbLine
 10
-195.1216285043807
 20
-205.8442412928694
 30
0.0
 11
-190.0466285043808
 21
-201.4491623686634
 31
0.0
  0
LINE
  5
B9
330
76
100
AcDbEntity
  8
0
  6
Continuous
 62
     7
100
AcDbLine
 10
-182.7261465334675
 20
-207.0501708356752
 30
0.0
 11
-187.8011465334675
 21
-211.4452497598812
 31
0.0
  0
LINE
  5
BA
330
76
100
AcDbEntity
  8
0
  6
Continuous
 62
     7
100
AcDbLine
 10
-188.2088004068572
 20
-210.6110841664632
 30
0.0
 11
-188.1284733688215
 21
-210.6342725849795
 31
0.0
  0
LINE
  5
BB
330
76
100
AcDbEntity
  8
0
  6
Continuous
 62
     7
100
AcDbLine
 10
-186.0283617646441
 20
-209.4218692370323
 30
0.0
 11
-180.953361764644
 21
-205.0267903128263
 31
0.0
  0
LINE
  5
BC
330
76
100
AcDbEntity
  8
0
  6
Continuous
 62
     2
100
AcDbLine
 10
-186.6338004068571
 20
-209.2470941555026
 30
0.0
 11
-188.2088004068572
 21
-210.6110841664632
 31
0.0
  0
LINE
  5
BD
330
76
100
AcDbEntity
  8
0
  6
Continuous
 62
     2
100
AcDbLine
 10
-186.5534733688214
 20
-209.2702825740191
 30
0.0
 11
-188.1284733688215
 21
-210.6342725849795
 31
0.0
  0
LINE
  5
BE
330
76
100
AcDbEntity
  8
0
  6
Continuous
 62
     7
100
AcDbLine
 10
-186.0283617646441
 20
-208.4692412928694
 30
0.0
 11
-186.0283617646441
 21
-209.4218692370323
 31
0.0
  0
LINE
  5
BF
330
76
100
AcDbEntity
  8
0
  6
Continuous
 62
     2
100
AcDbLine
 10
-187.0515210128307
 20
-209.1265086033501
 30
0.0
 11
-188.459755297978
 21
-210.3460752687679
 31
0.0
  0
LINE
  5
C0
330
76
100
AcDbEntity
  8
0
  6
Continuous
 62
     7
100
AcDbLine
 10
-186.0283617646441
 20
-208.4692412928694
 30
0.0
 11
-180.953361764644
 21
-204.0741623686634
 31
0.0
  0
LINE
  5
C1
330
76
100
AcDbEntity
  8
0
  6
Continuous
 62
     7
100
AcDbLine
 10
-180.953361764644
 20
-204.0741623686634
 30
0.0
 11
-180.953361764644
 21
-205.0267903128263
 31
0.0
  0
LINE
  5
C2
330
76
100
AcDbEntity
  8
0
  6
Continuous
 62
     7
100
AcDbLine
 10
-188.8954645021354
 20
-208.5942079683898
 30
0.0
 11
-188.459755297978
 21
-210.3460752687679
 31
0.0
  0
LINE
  5
C3
330
76
100
AcDbEntity
  8
0
  6
Continuous
 62
     7
100
AcDbLine
 10
-191.626922936373
 20
-207.8057038372461
 30
0.0
 11
-189.5230673326533
 21
-208.413034636818
 31
0.0
  0
LINE
  5
C4
330
76
100
AcDbEntity
  8
0
  6
Continuous
 62
     7
100
AcDbLine
 10
-192.3462804398395
 20
-210.2827219648431
 30
0.0
 11
-190.0212804398394
 21
-208.2692129010441
 31
0.0
  0
LINE
  5
C5
330
76
100
AcDbEntity
  8
0
  6
Continuous
 62
     7
100
AcDbLine
 10
-192.3462804398395
 20
-210.2827219648431
 30
0.0
 11
-191.626922936373
 21
-207.8057038372461
 31
0.0
  0
LINE
  5
C6
330
76
100
AcDbEntity
  8
0
  6
Continuous
 62
     2
100
AcDbLine
 10
-192.6525166646438
 20
-208.9949626810486
 30
0.0
 11
-192.941189862168
 21
-209.2449610034963
 31
0.0
  0
LINE
  5
C7
330
76
100
AcDbEntity
  8
0
  6
Continuous
 62
     7
100
AcDbLine
 10
-192.6902349710464
 20
-209.1248409797446
 30
0.0
 11
-192.2545257668907
 21
-207.6245305056744
 31
0.0
  0
LINE
  5
C8
330
76
100
AcDbEntity
  8
0
  6
Continuous
 62
     2
100
AcDbLine
 10
-192.6165286675229
 20
-208.8710424872447
 30
0.0
 11
-193.0215169002034
 21
-209.2217725849798
 31
0.0
  0
LINE
  5
C9
330
76
100
AcDbEntity
  8
0
  6
Continuous
 62
     7
100
AcDbLine
 10
-193.0215169002034
 20
-209.2217725849798
 30
0.0
 11
-192.941189862168
 21
-209.2449610034963
 31
0.0
  0
LINE
  5
CA
330
76
100
AcDbEntity
  8
0
  6
Continuous
 62
     7
100
AcDbLine
 10
-192.5279007737485
 20
-208.5658633538782
 30
0.0
 11
-193.3488437355574
 21
-209.2768208138628
 31
0.0
  0
LINE
  5
CB
330
76
100
AcDbEntity
  8
0
  6
Continuous
 62
     7
100
AcDbLine
 10
-193.0215169002034
 20
-210.0877979887642
 30
0.0
 11
-192.3462804398395
 21
-210.2827219648431
 31
0.0
  0
LINE
  5
CC
330
76
100
AcDbEntity
  8
0
  6
Continuous
 62
     7
100
AcDbLine
 10
-195.1216285043807
 20
-206.7968692370323
 30
0.0
 11
-192.2545257668907
 21
-207.6245305056744
 31
0.0
  0
LINE
  5
CD
330
76
100
AcDbEntity
  8
0
  6
Continuous
 62
     7
100
AcDbLine
 10
-195.1216285043807
 20
-206.7968692370323
 30
0.0
 11
-195.1216285043807
 21
-205.8442412928694
 31
0.0
  0
LINE
  5
CE
330
76
100
AcDbEntity
  8
0
  6
Continuous
 62
     7
100
AcDbLine
 10
-188.8954645021354
 20
-208.5942079683898
 30
0.0
 11
-186.0283617646441
 21
-209.4218692370323
 31
0.0
  0
LINE
  5
CF
330
76
100
AcDbEntity
  8
0
  6
Continuous
 62
     7
100
AcDbLine
 10
-189.5230673326533
 20
-208.413034636818
 30
0.0
 11
-188.8037098291854
 21
-211.3053740126853
 31
0.0
  0
LINE
  5
D0
330
76
100
AcDbEntity
  8
0
  6
Continuous
 62
     7
100
AcDbLine
 10
-188.8037098291854
 20
-211.3053740126853
 30
0.0
 11
-188.1284733688215
 21
-211.5002979887643
 31
0.0
  0
SPLINE
  5
D1
330
76
100
AcDbEntity
  8
0
  6
Continuous
 62
     7
100
AcDbSpline
210
0.0
220
0.0
230
1.0
 70
  1064
 71
     3
 72
    15
 73
    11
 74
     9
 42
0.000000001
 43
0.0000000001
 44
0.00000001
 40
0.0
 40
0.0
 40
0.0
 40
0.0
 40
0.1075605161160363
 40
0.2212191566791815
 40
0.3444594698632996
 40
0.4773441629484833
 40
0.6171468747723307
 40
0.759444732308523
 40
0.8992538434254135
 40
1.03215005440109
 40
1.03215005440109
 40
1.03215005440109
 40
1.03215005440109
 10
-187.8011465334675
 20
-211.4452497598812
 30
0.0
 10
-187.7766169845236
 20
-211.4185281481114
 30
0.0
 10
-187.7261671991805
 20
-211.3635699392698
 30
0.0
 10
-187.6936539769604
 20
-211.2496874833361
 30
0.0
 10
-187.694670969624
 20
-211.1253805208543
 30
0.0
 10
-187.7307085605899
 20
-210.9968904888819
 30
0.0
 10
-187.7975551114422
 20
-210.8744728206379
 30
0.0
 10
-187.8904864214453
 20
-210.7679170704522
 30
0.0
 10
-188.0013199685817
 20
-210.6820711576505
 30
0.0
 10
-188.0868112829891
 20
-210.6499338852562
 30
0.0
 10
-188.1284733688215
 20
-210.6342725849795
 30
0.0
 11
-187.8011465334675
 21
-211.4452497598812
 31
0.0
 11
-187.7345482304457
 21
-211.3607871539711
 31
0.0
 11
-187.6998554594148
 21
-211.2525526881367
 31
0.0
 11
-187.6998788619181
 21
-211.1293123741765
 31
0.0
 11
-187.7346158036676
 21
-211.0010482447105
 31
0.0
 11
-187.8012534832994
 21
-210.8781490255752
 31
0.0
 11
-187.8943939765588
 21
-210.7705686892618
 31
0.0
 11
-188.0064938754431
 21
-210.6870210978876
 31
0.0
 11
-188.1284733688215
 21
-210.6342725849795
 31
0.0
  0
SPLINE
  5
D2
330
76
100
AcDbEntity
  8
0
  6
Continuous
 62
     7
100
AcDbSpline
210
0.0
220
0.0
230
1.0
 70
  1064
 71
     3
 72
    11
 73
     7
 74
     5
 42
0.000000001
 43
0.0000000001
 44
0.00000001
 40
0.0
 40
0.0
 40
0.0
 40
0.0
 40
0.0939205769641498
 40
0.1914253411219
 40
0.2881125829624763
 40
0.379820968393514
 40
0.379820968393514
 40
0.379820968393514
 40
0.379820968393514
 10
-188.459755297978
 20
-210.3460752687679
 30
0.0
 10
-188.4496203250519
 20
-210.3759046900788
 30
0.0
 10
-188.4289635956325
 20
-210.4367018741473
 30
0.0
 10
-188.3695626142795
 20
-210.5137899239121
 30
0.0
 10
-188.2964107468959
 20
-210.5770299154925
 30
0.0
 10
-188.2374847635808
 20
-210.5999345256558
 30
0.0
 10
-188.2088004068572
 20
-210.6110841664632
 30
0.0
 11
-188.459755297978
 21
-210.3460752687679
 31
0.0
 11
-188.4248223290583
 21
-210.4332576215973
 31
0.0
 11
-188.3669612655669
 21
-210.5117386822122
 31
0.0
 11
-188.2923127446971
 21
-210.5731880239446
 31
0.0
 11
-188.2088004068572
 21
-210.6110841664632
 31
0.0
  0
SPLINE
  5
D3
330
76
100
AcDbEntity
  8
0
  6
Continuous
 62
     7
100
AcDbSpline
210
0.0
220
0.0
230
1.0
 70
  1064
 71
     3
 72
    11
 73
     7
 74
     5
 42
0.000000001
 43
0.0000000001
 44
0.00000001
 40
0.0
 40
0.0
 40
0.0
 40
0.0
 40
0.1231062047300472
 40
0.2550331524723944
 40
0.3998739696127512
 40
0.5561029043245446
 40
0.5561029043245446
 40
0.5561029043245446
 40
0.5561029043245446
 10
-182.7261465334675
 20
-207.0501708356752
 30
0.0
 10
-182.6985116143763
 20
-207.0189738375533
 30
0.0
 10
-182.6412617048234
 20
-206.9543445214666
 30
0.0
 10
-182.6140370818446
 20
-206.8188059202574
 30
0.0
 10
-182.6282605988766
 20
-206.6730504121281
 30
0.0
 10
-182.6716258342369
 20
-206.5817273345667
 30
0.0
 10
-182.6941286149835
 20
-206.5343386272861
 30
0.0
 11
-182.7261465334675
 21
-207.0501708356752
 31
0.0
 11
-182.6525355577817
 21
-206.9514968134016
 31
0.0
 11
-182.6212634627547
 21
-206.8233298255428
 31
0.0
 11
-182.6356342106172
 21
-206.6792036836335
 31
0.0
 11
-182.6941286149835
 21
-206.5343386272861
 31
0.0
  0
SPLINE
  5
D4
330
76
100
AcDbEntity
  8
0
  6
Continuous
 62
     7
100
AcDbSpline
210
0.0
220
0.0
230
1.0
 70
  1064
 71
     3
 72
     9
 73
     5
 74
     3
 42
0.000000001
 43
0.0000000001
 44
0.00000001
 40
0.0
 40
0.0
 40
0.0
 40
0.0
 40
0.0509836231908793
 40
0.1038532315110153
 40
0.1038532315110153
 40
0.1038532315110153
 40
0.1038532315110153
 10
-192.7447937609555
 20
-209.2119320661664
 30
0.0
 10
-192.7327385141803
 20
-209.1996511045737
 30
0.0
 10
-192.7081820889801
 20
-209.1746348726163
 30
0.0
 10
-192.6962893290564
 20
-209.1416386852122
 30
0.0
 10
-192.6902349710464
 20
-209.1248409797446
 30
0.0
 11
-192.7447937609555
 21
-209.2119320661664
 31
0.0
 11
-192.7116800013579
 21
-209.1731659868451
 31
0.0
 11
-192.6902349710464
 21
-209.1248409797446
 31
0.0
  0
SPLINE
  5
D5
330
76
100
AcDbEntity
  8
0
  6
Continuous
 62
     7
100
AcDbSpline
210
0.0
220
0.0
230
1.0
 70
  1064
 71
     3
 72
    11
 73
     7
 74
     5
 42
0.000000001
 43
0.0000000001
 44
0.00000001
 40
0.0
 40
0.0
 40
0.0
 40
0.0
 40
0.0561423569814929
 40
0.1089108807813391
 40
0.1588614544874572
 40
0.2071930616846816
 40
0.2071930616846816
 40
0.2071930616846816
 40
0.2071930616846816
 10
-192.941189862168
 20
-209.2449610034963
 30
0.0
 10
-192.9228716778616
 20
-209.2491852436753
 30
0.0
 10
-192.8873361245908
 20
-209.2573798570717
 30
0.0
 10
-192.8339167599597
 20
-209.2546957663563
 30
0.0
 10
-192.7845744208327
 20
-209.2409169952523
 30
0.0
 10
-192.7579075538346
 20
-209.2214870256977
 30
0.0
 10
-192.7447937609555
 20
-209.2119320661664
 30
0.0
 11
-192.941189862168
 21
-209.2449610034963
 31
0.0
 11
-192.8859463974828
 21
-209.2549671964647
 31
0.0
 11
-192.833229505492
 21
-209.2526333919475
 31
0.0
 11
-192.785450239303
 21
-209.2380662432893
 31
0.0
 11
-192.7447937609555
 21
-209.2119320661664
 31
0.0
  0
SPLINE
  5
D6
330
76
100
AcDbEntity
  8
0
  6
Continuous
 62
     7
100
AcDbSpline
210
0.0
220
0.0
230
1.0
 70
  1064
 71
     3
 72
    15
 73
    11
 74
     9
 42
0.000000001
 43
0.0000000001
 44
0.00000001
 40
0.0
 40
0.0
 40
0.0
 40
0.0
 40
0.1075605161159835
 40
0.2212191566791461
 40
0.3444594698632357
 40
0.4773441629483794
 40
0.6171468747721361
 40
0.759444732308131
 40
0.8992538434250501
 40
1.032150054400779
 40
1.032150054400779
 40
1.032150054400779
 40
1.032150054400779
 10
-193.3488437355574
 20
-209.2768208138628
 30
0.0
 10
-193.3733732845013
 20
-209.3035424256327
 30
0.0
 10
-193.4238230698443
 20
-209.3585006344742
 30
0.0
 10
-193.4563362920645
 20
-209.4723830904079
 30
0.0
 10
-193.4553192994009
 20
-209.5966900528898
 30
0.0
 10
-193.4192817084348
 20
-209.7251800848618
 30
0.0
 10
-193.3524351575827
 20
-209.8475977531059
 30
0.0
 10
-193.2595038475796
 20
-209.9541535032916
 30
0.0
 10
-193.1486703004433
 20
-210.0399994160932
 30
0.0
 10
-193.0631789860359
 20
-210.0721366884875
 30
0.0
 10
-193.0215169002034
 20
-210.0877979887642
 30
0.0
 11
-193.3488437355574
 21
-209.2768208138628
 31
0.0
 11
-193.4154420385791
 21
-209.3612834197729
 31
0.0
 11
-193.4501348096101
 21
-209.4695178856073
 31
0.0
 11
-193.4501114071068
 21
-209.5927581995674
 31
0.0
 11
-193.4153744653572
 21
-209.7210223290334
 31
0.0
 11
-193.3487367857254
 21
-209.8439215481687
 31
0.0
 11
-193.2555962924662
 21
-209.9515018844819
 31
0.0
 11
-193.1434963935819
 21
-210.0350494758561
 31
0.0
 11
-193.0215169002034
 21
-210.0877979887642
 31
0.0
  0
SPLINE
  5
D7
330
76
100
AcDbEntity
  8
0
  6
Continuous
 62
     7
100
AcDbSpline
210
0.0
220
0.0
230
1.0
 70
  1064
 71
     3
 72
    11
 73
     7
 74
     5
 42
0.000000001
 43
0.0000000001
 44
0.00000001
 40
0.0
 40
0.0
 40
0.0
 40
0.0
 40
0.0935705952109481
 40
0.1815181363976909
 40
0.2647690944697485
 40
0.3453217744506976
 40
0.3453217744506976
 40
0.3453217744506976
 40
0.3453217744506976
 10
-193.0215169002034
 20
-209.2217725849798
 30
0.0
 10
-193.0520472074598
 20
-209.2147321846633
 30
0.0
 10
-193.1112731286073
 20
-209.2010744859431
 30
0.0
 10
-193.200305404214
 20
-209.2055479750177
 30
0.0
 10
-193.2825426397305
 20
-209.2285125894809
 30
0.0
 10
-193.3269874137345
 20
-209.2608958810499
 30
0.0
 10
-193.3488437355574
 20
-209.2768208138628
 30
0.0
 11
-193.0215169002034
 21
-209.2217725849798
 31
0.0
 11
-193.1135893413455
 21
-209.2050955966991
 31
0.0
 11
-193.2014508279968
 21
-209.2089852708943
 31
0.0
 11
-193.2810829383117
 21
-209.2332638519913
 31
0.0
 11
-193.3488437355574
 21
-209.2768208138628
 31
0.0
  0
SPLINE
  5
D8
330
76
100
AcDbEntity
  8
0
  6
Continuous
 62
     7
100
AcDbSpline
210
0.0
220
0.0
230
1.0
 70
  1064
 71
     3
 72
    11
 73
     7
 74
     5
 42
0.000000001
 43
0.0000000001
 44
0.00000001
 40
0.0
 40
0.0
 40
0.0
 40
0.0
 40
0.0935705952109151
 40
0.1815181363975998
 40
0.2647690944696846
 40
0.3453217744507276
 40
0.3453217744507276
 40
0.3453217744507276
 40
0.3453217744507276
 10
-188.1284733688215
 20
-211.5002979887643
 30
0.0
 10
-188.0979430615652
 20
-211.5073383890808
 30
0.0
 10
-188.0387171404176
 20
-211.5209960878009
 30
0.0
 10
-187.9496848648111
 20
-211.5165225987264
 30
0.0
 10
-187.8674476292944
 20
-211.4935579842632
 30
0.0
 10
-187.8230028552904
 20
-211.4611746926941
 30
0.0
 10
-187.8011465334675
 20
-211.4452497598812
 30
0.0
 11
-188.1284733688215
 21
-211.5002979887643
 31
0.0
 11
-188.0364009276794
 21
-211.516974977045
 31
0.0
 11
-187.9485394410282
 21
-211.5130853028498
 31
0.0
 11
-187.8689073307133
 21
-211.4888067217528
 31
0.0
 11
-187.8011465334675
 21
-211.4452497598812
 31
0.0
  0
ENDBLK
  5
78
330
76
100
AcDbEntity
  8
0
100
AcDbBlockEnd
  0
BLOCK
  5
7B
330
79
100
AcDbEntity
  8
0
100
AcDbBlockBegin
  2
AllgSicht1
 70
     0
 10
-165.2000000221871
 20
-187.0000004554778
 30
0.0
  3
AllgSicht1
  1

  0
INSERT
  5
7A
330
79
100
AcDbEntity
  8
0
100
AcDbBlockReference
  2
ZB_10_unbedruckt-select__1
 10
-195.1216285043807
 20
-211.5225832876484
 30
0.0
  0
MTEXT
  5
DA
330
79
100
AcDbEntity
  8
1
 62
     6
100
AcDbMText
 10
-188.0374951345124
 20
-212.5196562530846
 30
0.0
 40
1.0
 41
0.0
 71
     2
 72
     1
  1
 
  7
CONVERTER_11
 73
     1
 44
1.32052821128451
  0
ENDBLK
  5
7C
330
79
100
AcDbEntity
  8
0
100
AcDbBlockEnd
  0
BLOCK
  5
7E
330
7D
100
AcDbEntity
  8
0
100
AcDbBlockBegin
  2
ZB_10_unbedruckt-select__2
 70
     0
 10
-215.0499939014413
 20
-210.7199991000051
 30
0.0
  3
ZB_10_unbedruckt-select__2
  1

  0
LINE
  5
DB
330
7D
100
AcDbEntity
  8
0
  6
Continuous
 62
     7
100
AcDbLine
 10
-204.5499939014413
 20
-210.7199991000051
 30
0.0
 11
-204.5499939014413
 21
-200.5699991000051
 31
0.0
  0
LINE
  5
DC
330
7D
100
AcDbEntity
  8
0
  6
Continuous
 62
     7
100
AcDbLine
 10
-215.0499939014413
 20
-210.7199991000051
 30
0.0
 11
-215.0499939014413
 21
-200.5699991000051
 31
0.0
  0
LINE
  5
DD
330
7D
100
AcDbEntity
  8
0
  6
Continuous
 62
     7
100
AcDbLine
 10
-215.0499939014413
 20
-210.7199991000051
 30
0.0
 11
-204.5499939014413
 21
-210.7199991000051
 31
0.0
  0
LINE
  5
DE
330
7D
100
AcDbEntity
  8
0
  6
Continuous
 62
     7
100
AcDbLine
 10
-215.0499939014413
 20
-200.5699991000051
 30
0.0
 11
-204.5499939014413
 21
-200.5699991000051
 31
0.0
  0
ENDBLK
  5
7F
330
7D
100
AcDbEntity
  8
0
100
AcDbBlockEnd
  0
BLOCK
  5
82
330
80
100
AcDbEntity
  8
0
100
AcDbBlockBegin
  2
Drfsicht1
 70
     0
 10
-209.7999995452449
 20
-159.9699991
 30
0.0
  3
Drfsicht1
  1

  0
INSERT
  5
81
330
80
100
AcDbEntity
  8
0
100
AcDbBlockReference
  2
ZB_10_unbedruckt-select__2
 10
-215.0499939014413
 20
-210.7199991000051
 30
0.0
  0
MTEXT
  5
DF
330
80
100
AcDbEntity
  8
1
 62
     6
100
AcDbMText
 10
-211.6598331844169
 20
-211.7199991000051
 30
0.0
 40
1.0
 41
0.0
 71
     2
 72
     1
  1
 
  7
CONVERTER_11
 73
     1
 44
1.32052821128451
  0
DIMENSION
  5
EA
330
80
100
AcDbEntity
  8
1
100
AcDbDimension
  2
*D17
 10
-217.5996724673925
 20
-210.7199991000051
 30
0.0
 11
-218.3846724673925
 21
-205.5360550396395
 31
0.0
 70
    32
  1
<>
 71
     5
 42
-1.0
 53
90.0
  3
ME10_DIM_10
100
AcDbAlignedDimension
 13
-204.5499939014413
 23
-200.5699991000051
 33
0.0
 14
-204.5499939014413
 24
-210.7199991000051
 34
0.0
 50
90.0
100
AcDbRotatedDimension
  0
ENDBLK
  5
83
330
80
100
AcDbEntity
  8
0
100
AcDbBlockEnd
  0
BLOCK
  5
85
330
84
100
AcDbEntity
  8
0
100
AcDbBlockBegin
  2
ZB_10_unbedruckt-select__3
 70
     0
 10
-189.4500059766552
 20
-194.899997867679
 30
0.0
  3
ZB_10_unbedruckt-select__3
  1

  0
LINE
  5
EB
330
84
100
AcDbEntity
  8
0
  6
Continuous
 62
     7
100
AcDbLine
 10
-185.4146675757979
 20
-191.7999978676788
 30
0.0
 11
-186.2453100723395
 21
-194.899997867679
 31
0.0
  0
LINE
  5
EC
330
84
100
AcDbEntity
  8
0
  6
Continuous
 62
     7
100
AcDbLine
 10
-189.4500059766552
 20
-190.6999978676788
 30
0.0
 11
-189.4500059766552
 21
-191.7999978676788
 31
0.0
  0
LINE
  5
ED
330
84
100
AcDbEntity
  8
0
  6
Continuous
 62
     7
100
AcDbLine
 10
-182.1547018809706
 20
-194.899997867679
 30
0.0
 11
-182.9853443775106
 21
-191.7999978676788
 31
0.0
  0
LINE
  5
EE
330
84
100
AcDbEntity
  8
0
  6
Continuous
 62
     7
100
AcDbLine
 10
-186.9322523025887
 20
-193.899997867679
 30
0.0
 11
-187.025005976655
 21
-193.899997867679
 31
0.0
  0
LINE
  5
EF
330
84
100
AcDbEntity
  8
0
  6
Continuous
 62
     7
100
AcDbLine
 10
-181.3750059766552
 20
-193.899997867679
 30
0.0
 11
-181.4677596507211
 21
-193.899997867679
 31
0.0
  0
LINE
  5
F0
330
84
100
AcDbEntity
  8
0
  6
Continuous
 62
     7
100
AcDbLine
 10
-186.1393609020853
 20
-191.7999978676788
 30
0.0
 11
-186.6424745547027
 21
-193.6776435812085
 31
0.0
  0
LINE
  5
F1
330
84
100
AcDbEntity
  8
0
  6
Continuous
 62
     7
100
AcDbLine
 10
-181.7575373986081
 20
-193.6776435812091
 30
0.0
 11
-182.2606510512235
 21
-191.7999978676788
 31
0.0
  0
LINE
  5
F2
330
84
100
AcDbEntity
  8
0
  6
Continuous
 62
     7
100
AcDbLine
 10
-186.1393609020853
 20
-191.7999978676788
 30
0.0
 11
-189.4500059766552
 21
-191.7999978676788
 31
0.0
  0
LINE
  5
F3
330
84
100
AcDbEntity
  8
0
  6
Continuous
 62
     7
100
AcDbLine
 10
-182.9853443775106
 20
-191.7999978676788
 30
0.0
 11
-185.4146675757979
 21
-191.7999978676788
 31
0.0
  0
LINE
  5
F4
330
84
100
AcDbEntity
  8
0
  6
Continuous
 62
     7
100
AcDbLine
 10
-178.9500059766552
 20
-191.7999978676788
 30
0.0
 11
-182.2606510512235
 21
-191.7999978676788
 31
0.0
  0
LINE
  5
F5
330
84
100
AcDbEntity
  8
0
  6
Continuous
 62
     7
100
AcDbLine
 10
-178.9500059766552
 20
-191.7999978676788
 30
0.0
 11
-178.9500059766552
 21
-190.6999978676788
 31
0.0
  0
LINE
  5
F6
330
84
100
AcDbEntity
  8
0
  6
Continuous
 62
     7
100
AcDbLine
 10
-189.4500059766552
 20
-190.6999978676788
 30
0.0
 11
-178.9500059766552
 21
-190.6999978676788
 31
0.0
  0
LINE
  5
F7
330
84
100
AcDbEntity
  8
0
  6
Continuous
 62
     7
100
AcDbLine
 10
-181.3750059766552
 20
-194.899997867679
 30
0.0
 11
-182.1547018809706
 21
-194.899997867679
 31
0.0
  0
LINE
  5
F8
330
84
100
AcDbEntity
  8
0
  6
Continuous
 62
     7
100
AcDbLine
 10
-186.2453100723395
 20
-194.899997867679
 30
0.0
 11
-187.025005976655
 21
-194.899997867679
 31
0.0
  0
ARC
  5
F9
330
84
100
AcDbEntity
  8
0
  6
Continuous
 62
     7
100
AcDbCircle
 10
-186.9322523025887
 20
-193.5999978676788
 30
0.0
 40
0.3000000000001819
100
AcDbArc
 50
270.0
 51
345.0000000001586
  0
ARC
  5
FA
330
84
100
AcDbEntity
  8
0
  6
Continuous
 62
     7
100
AcDbCircle
 10
-181.4677596507211
 20
-193.5999978676788
 30
0.0
 40
0.3000000000001535
100
AcDbArc
 50
194.9999999999023
 51
270.0
  0
ARC
  5
FB
330
84
100
AcDbEntity
  8
0
  6
Continuous
 62
     7
100
AcDbCircle
 10
-181.3750059766552
 20
-194.399997867679
 30
0.0
 40
0.5
100
AcDbArc
 50
270.0
 51
90.0
  0
ARC
  5
FC
330
84
100
AcDbEntity
  8
0
  6
Continuous
 62
     7
100
AcDbCircle
 10
-187.025005976655
 20
-194.399997867679
 30
0.0
 40
0.5
100
AcDbArc
 50
90.0
 51
270.0
  0
ENDBLK
  5
86
330
84
100
AcDbEntity
  8
0
100
AcDbBlockEnd
  0
BLOCK
  5
89
330
87
100
AcDbEntity
  8
0
100
AcDbBlockBegin
  2
Rckans1
 70
     0
 10
-184.2000003328516
 20
-192.7999999999999
 30
0.0
  3
Rckans1
  1

  0
INSERT
  5
88
330
87
100
AcDbEntity
  8
0
100
AcDbBlockReference
  2
ZB_10_unbedruckt-select__3
 10
-189.4500059766552
 20
-194.899997867679
 30
0.0
  0
MTEXT
  5
FD
330
87
100
AcDbEntity
  8
1
 62
     6
100
AcDbMText
 10
-184.2000059766552
 20
-195.899997867679
 30
0.0
 40
1.0
 41
0.0
 71
     2
 72
     1
  1
 
  7
CONVERTER_11
 73
     1
 44
1.32052821128451
  0
ENDBLK
  5
8A
330
87
100
AcDbEntity
  8
0
100
AcDbBlockEnd
  0
BLOCK
  5
8C
330
8B
100
AcDbEntity
  8
0
100
AcDbBlockBegin
  2
ZB_10_unbedruckt-select__4
 70
     0
 10
-201.3999999999849
 20
-194.899997867679
 30
0.0
  3
ZB_10_unbedruckt-select__4
  1

  0
LINE
  5
FE
330
8B
100
AcDbEntity
  8
0
  6
Continuous
 62
     7
100
AcDbLine
 10
-191.2499999999849
 20
-190.6999978676788
 30
0.0
 11
-201.3999999999849
 21
-190.6999978676788
 31
0.0
  0
LINE
  5
FF
330
8B
100
AcDbEntity
  8
0
  6
Continuous
 62
     7
100
AcDbLine
 10
-201.3999999999849
 20
-193.6776435812091
 30
0.0
 11
-201.3999999999849
 21
-191.7999978676788
 31
0.0
  0
LINE
  5
100
330
8B
100
AcDbEntity
  8
0
  6
Continuous
 62
     7
100
AcDbLine
 10
-191.2499999999849
 20
-193.677643581209
 30
0.0
 11
-191.2499999999849
 21
-191.7999978676788
 31
0.0
  0
LINE
  5
101
330
8B
100
AcDbEntity
  8
0
  6
Continuous
 62
     7
100
AcDbLine
 10
-201.3999999999849
 20
-191.7999978676788
 30
0.0
 11
-201.3999999999849
 21
-190.6999978676788
 31
0.0
  0
LINE
  5
102
330
8B
100
AcDbEntity
  8
0
  6
Continuous
 62
     7
100
AcDbLine
 10
-191.2499999999849
 20
-191.7999978676788
 30
0.0
 11
-201.3999999999849
 21
-191.7999978676788
 31
0.0
  0
LINE
  5
103
330
8B
100
AcDbEntity
  8
0
  6
Continuous
 62
     7
100
AcDbLine
 10
-191.2499999999849
 20
-191.7999978676788
 30
0.0
 11
-191.2499999999849
 21
-190.6999978676788
 31
0.0
  0
LINE
  5
104
330
8B
100
AcDbEntity
  8
0
  6
Continuous
 62
     2
100
AcDbLine
 10
-201.3999999999849
 20
-193.6776435812091
 30
0.0
 11
-191.2499999999849
 21
-193.677643581209
 31
0.0
  0
LINE
  5
105
330
8B
100
AcDbEntity
  8
0
  6
Continuous
 62
     7
100
AcDbLine
 10
-191.2499999999849
 20
-194.899997867679
 30
0.0
 11
-201.3999999999849
 21
-194.899997867679
 31
0.0
  0
LINE
  5
106
330
8B
100
AcDbEntity
  8
0
  6
Continuous
 62
     7
100
AcDbLine
 10
-191.2499999999849
 20
-193.899997867679
 30
0.0
 11
-191.2499999999849
 21
-194.899997867679
 31
0.0
  0
LINE
  5
107
330
8B
100
AcDbEntity
  8
0
  6
Continuous
 62
     7
100
AcDbLine
 10
-191.2499999999849
 20
-193.677643581209
 30
0.0
 11
-191.2499999999849
 21
-193.899997867679
 31
0.0
  0
LINE
  5
108
330
8B
100
AcDbEntity
  8
0
  6
Continuous
 62
     7
100
AcDbLine
 10
-201.3999999999849
 20
-193.899997867679
 30
0.0
 11
-201.3999999999849
 21
-194.899997867679
 31
0.0
  0
LINE
  5
109
330
8B
100
AcDbEntity
  8
0
  6
Continuous
 62
     7
100
AcDbLine
 10
-201.3999999999849
 20
-193.6776435812091
 30
0.0
 11
-201.3999999999849
 21
-193.899997867679
 31
0.0
  0
LINE
  5
10A
330
8B
100
AcDbEntity
  8
0
  6
Continuous
 62
     7
100
AcDbLine
 10
-201.3999999999849
 20
-193.899997867679
 30
0.0
 11
-191.2499999999849
 21
-193.899997867679
 31
0.0
  0
ENDBLK
  5
8D
330
8B
100
AcDbEntity
  8
0
100
AcDbBlockEnd
  0
BLOCK
  5
90
330
8E
100
AcDbEntity
  8
0
100
AcDbBlockBegin
  2
SA_Links1
 70
     0
 10
-241.99999999999
 20
-192.7999999999999
 30
0.0
  3
SA_Links1
  1

  0
INSERT
  5
8F
330
8E
100
AcDbEntity
  8
0
100
AcDbBlockReference
  2
ZB_10_unbedruckt-select__4
 10
-201.3999999999849
 20
-194.899997867679
 30
0.0
  0
MTEXT
  5
10B
330
8E
100
AcDbEntity
  8
1
 62
     6
100
AcDbMText
 10
-196.3249999999849
 20
-195.899997867679
 30
0.0
 40
1.0
 41
0.0
 71
     2
 72
     1
  1
 
  7
CONVERTER_11
 73
     1
 44
1.32052821128451
  0
ENDBLK
  5
91
330
8E
100
AcDbEntity
  8
0
100
AcDbBlockEnd
  0
BLOCK
  5
93
330
92
100
AcDbEntity
  8
0
100
AcDbBlockBegin
  2
ZB_10_unbedruckt-select__5
 70
     0
 10
-229.949999879547
 20
-194.8999978676791
 30
0.0
  3
ZB_10_unbedruckt-select__5
  1

  0
LINE
  5
10C
330
92
100
AcDbEntity
  8
0
  6
Continuous
 62
     7
100
AcDbLine
 10
-219.799999879547
 20
-194.8999978676791
 30
0.0
 11
-229.949999879547
 21
-194.8999978676791
 31
0.0
  0
LINE
  5
10D
330
92
100
AcDbEntity
  8
0
  6
Continuous
 62
     7
100
AcDbLine
 10
-219.799999879547
 20
-194.8999978676791
 30
0.0
 11
-219.799999879547
 21
-193.8999978676791
 31
0.0
  0
LINE
  5
10E
330
92
100
AcDbEntity
  8
0
  6
Continuous
 62
     7
100
AcDbLine
 10
-229.949999879547
 20
-194.8999978676791
 30
0.0
 11
-229.949999879547
 21
-193.8999978676791
 31
0.0
  0
LINE
  5
10F
330
92
100
AcDbEntity
  8
0
  6
Continuous
 62
     7
100
AcDbLine
 10
-219.799999879547
 20
-193.8999978676791
 30
0.0
 11
-229.949999879547
 21
-193.8999978676791
 31
0.0
  0
LINE
  5
110
330
92
100
AcDbEntity
  8
0
  6
Continuous
 62
     7
100
AcDbLine
 10
-229.949999879547
 20
-191.7999978676788
 30
0.0
 11
-229.949999879547
 21
-193.6776435812086
 31
0.0
  0
LINE
  5
111
330
92
100
AcDbEntity
  8
0
  6
Continuous
 62
     7
100
AcDbLine
 10
-229.949999879547
 20
-193.6776435812086
 30
0.0
 11
-229.949999879547
 21
-193.8999978676791
 31
0.0
  0
LINE
  5
112
330
92
100
AcDbEntity
  8
0
  6
Continuous
 62
     2
100
AcDbLine
 10
-219.799999879547
 20
-193.6776435812086
 30
0.0
 11
-229.949999879547
 21
-193.6776435812086
 31
0.0
  0
LINE
  5
113
330
92
100
AcDbEntity
  8
0
  6
Continuous
 62
     7
100
AcDbLine
 10
-219.799999879547
 20
-191.7999978676788
 30
0.0
 11
-219.799999879547
 21
-193.6776435812086
 31
0.0
  0
LINE
  5
114
330
92
100
AcDbEntity
  8
0
  6
Continuous
 62
     7
100
AcDbLine
 10
-219.799999879547
 20
-193.6776435812086
 30
0.0
 11
-219.799999879547
 21
-193.8999978676791
 31
0.0
  0
LINE
  5
115
330
92
100
AcDbEntity
  8
0
  6
Continuous
 62
     7
100
AcDbLine
 10
-219.799999879547
 20
-190.6999978676788
 30
0.0
 11
-219.799999879547
 21
-191.7999978676788
 31
0.0
  0
LINE
  5
116
330
92
100
AcDbEntity
  8
0
  6
Continuous
 62
     7
100
AcDbLine
 10
-229.949999879547
 20
-190.6999978676788
 30
0.0
 11
-219.799999879547
 21
-190.6999978676788
 31
0.0
  0
LINE
  5
117
330
92
100
AcDbEntity
  8
0
  6
Continuous
 62
     7
100
AcDbLine
 10
-229.949999879547
 20
-190.6999978676788
 30
0.0
 11
-229.949999879547
 21
-191.7999978676788
 31
0.0
  0
LINE
  5
118
330
92
100
AcDbEntity
  8
0
  6
Continuous
 62
     7
100
AcDbLine
 10
-229.949999879547
 20
-191.7999978676788
 30
0.0
 11
-219.799999879547
 21
-191.7999978676788
 31
0.0
  0
ENDBLK
  5
94
330
92
100
AcDbEntity
  8
0
100
AcDbBlockEnd
  0
BLOCK
  5
97
330
95
100
AcDbEntity
  8
0
100
AcDbBlockBegin
  2
SA_Rechts1
 70
     0
 10
-179.199999879542
 20
-192.8
 30
0.0
  3
SA_Rechts1
  1

  0
INSERT
  5
96
330
95
100
AcDbEntity
  8
0
100
AcDbBlockReference
  2
ZB_10_unbedruckt-select__5
 10
-229.949999879547
 20
-194.8999978676791
 30
0.0
  0
MTEXT
  5
119
330
95
100
AcDbEntity
  8
1
 62
     6
100
AcDbMText
 10
-224.874999879547
 20
-195.8999978676791
 30
0.0
 40
1.0
 41
0.0
 71
     2
 72
     1
  1
 
  7
CONVERTER_11
 73
     1
 44
1.32052821128451
  0
ENDBLK
  5
98
330
95
100
AcDbEntity
  8
0
100
AcDbBlockEnd
  0
BLOCK
  5
9A
330
99
100
AcDbEntity
  8
0
100
AcDbBlockBegin
  2
ZB_10_unbedruckt-select__6
 70
     0
 10
-215.1007233176943
 20
-194.8999978676791
 30
0.0
  3
ZB_10_unbedruckt-select__6
  1

  0
LINE
  5
11A
330
99
100
AcDbEntity
  8
0
  6
Continuous
 62
     7
100
AcDbLine
 10
-208.6360617185515
 20
-191.7999978676788
 30
0.0
 11
-207.8054192220099
 21
-194.899997867679
 31
0.0
  0
LINE
  5
11B
330
99
100
AcDbEntity
  8
0
  6
Continuous
 62
     7
100
AcDbLine
 10
-212.6757233176942
 20
-193.899997867679
 30
0.0
 11
-212.5829696436284
 21
-193.899997867679
 31
0.0
  0
LINE
  5
11C
330
99
100
AcDbEntity
  8
0
  6
Continuous
 62
     7
100
AcDbLine
 10
-212.6757233176942
 20
-194.899997867679
 30
0.0
 11
-211.8960274133788
 21
-194.8999978676791
 31
0.0
  0
LINE
  5
11D
330
99
100
AcDbEntity
  8
0
  6
Continuous
 62
     7
100
AcDbLine
 10
-207.8054192220099
 20
-194.899997867679
 30
0.0
 11
-207.0257233176944
 21
-194.899997867679
 31
0.0
  0
LINE
  5
11E
330
99
100
AcDbEntity
  8
0
  6
Continuous
 62
     7
100
AcDbLine
 10
-207.1184769917606
 20
-193.899997867679
 30
0.0
 11
-207.0257233176944
 21
-193.899997867679
 31
0.0
  0
LINE
  5
11F
330
99
100
AcDbEntity
  8
0
  6
Continuous
 62
     7
100
AcDbLine
 10
-207.9113683922641
 20
-191.7999978676788
 30
0.0
 11
-204.6007233176943
 21
-191.7999978676788
 31
0.0
  0
LINE
  5
120
330
99
100
AcDbEntity
  8
0
  6
Continuous
 62
     7
100
AcDbLine
 10
-204.6007233176943
 20
-190.6999978676788
 30
0.0
 11
-204.6007233176943
 21
-191.7999978676788
 31
0.0
  0
LINE
  5
121
330
99
100
AcDbEntity
  8
0
  6
Continuous
 62
     7
100
AcDbLine
 10
-204.6007233176943
 20
-190.6999978676788
 30
0.0
 11
-215.1007233176943
 21
-190.6999978676788
 31
0.0
  0
LINE
  5
122
330
99
100
AcDbEntity
  8
0
  6
Continuous
 62
     7
100
AcDbLine
 10
-215.1007233176943
 20
-191.7999978676788
 30
0.0
 11
-215.1007233176943
 21
-190.6999978676788
 31
0.0
  0
LINE
  5
123
330
99
100
AcDbEntity
  8
0
  6
Continuous
 62
     7
100
AcDbLine
 10
-207.9113683922641
 20
-191.7999978676788
 30
0.0
 11
-207.4082547396467
 21
-193.6776435812086
 31
0.0
  0
LINE
  5
124
330
99
100
AcDbEntity
  8
0
  6
Continuous
 62
     7
100
AcDbLine
 10
-211.0653849168389
 20
-191.7999978676788
 30
0.0
 11
-208.6360617185515
 21
-191.7999978676788
 31
0.0
  0
LINE
  5
125
330
99
100
AcDbEntity
  8
0
  6
Continuous
 62
     7
100
AcDbLine
 10
-215.1007233176943
 20
-191.7999978676788
 30
0.0
 11
-211.7900782431259
 21
-191.7999978676788
 31
0.0
  0
LINE
  5
126
330
99
100
AcDbEntity
  8
0
  6
Continuous
 62
     7
100
AcDbLine
 10
-211.8960274133788
 20
-194.8999978676791
 30
0.0
 11
-211.0653849168389
 21
-191.7999978676788
 31
0.0
  0
LINE
  5
127
330
99
100
AcDbEntity
  8
0
  6
Continuous
 62
     7
100
AcDbLine
 10
-212.2931918957412
 20
-193.677643581209
 30
0.0
 11
-211.7900782431259
 21
-191.7999978676788
 31
0.0
  0
ARC
  5
128
330
99
100
AcDbEntity
  8
0
  6
Continuous
 62
     7
100
AcDbCircle
 10
-212.6757233176942
 20
-194.399997867679
 30
0.0
 40
0.5
100
AcDbArc
 50
90.0
 51
270.0
  0
ARC
  5
129
330
99
100
AcDbEntity
  8
0
  6
Continuous
 62
     7
100
AcDbCircle
 10
-212.5829696436284
 20
-193.5999978676788
 30
0.0
 40
0.3000000000001819
100
AcDbArc
 50
270.0
 51
345.0000000001285
  0
ARC
  5
12A
330
99
100
AcDbEntity
  8
0
  6
Continuous
 62
     7
100
AcDbCircle
 10
-207.0257233176944
 20
-194.399997867679
 30
0.0
 40
0.5
100
AcDbArc
 50
270.0
 51
90.0
  0
ARC
  5
12B
330
99
100
AcDbEntity
  8
0
  6
Continuous
 62
     7
100
AcDbCircle
 10
-207.1184769917606
 20
-193.5999978676788
 30
0.0
 40
0.29999999999917
100
AcDbArc
 50
194.9999999998515
 51
270.0
  0
ENDBLK
  5
9B
330
99
100
AcDbEntity
  8
0
100
AcDbBlockEnd
  0
BLOCK
  5
9E
330
9C
100
AcDbEntity
  8
0
100
AcDbBlockBegin
  2
Vordans1
 70
     0
 10
-209.8507289614978
 20
-192.8
 30
0.0
  3
Vordans1
  1

  0
INSERT
  5
9D
330
9C
100
AcDbEntity
  8
0
100
AcDbBlockReference
  2
ZB_10_unbedruckt-select__6
 10
-215.1007233176943
 20
-194.8999978676791
 30
0.0
  0
MTEXT
  5
12C
330
9C
100
AcDbEntity
  8
1
 62
     6
100
AcDbMText
 10
-211.5404813229318
 20
-195.8999978676791
 30
0.0
 40
1.0
 41
0.0
 71
     2
 72
     1
  1
 
  7
CONVERTER_11
 73
     1
 44
1.32052821128451
  0
DIMENSION
  5
137
330
9C
100
AcDbEntity
  8
1
100
AcDbDimension
  2
*D18
 10
-215.1007233176943
 20
-197.2999978676788
 30
0.0
 11
-210.206456281822
 21
-196.6149978676788
 31
0.0
 70
    32
  1
<>
 71
     5
 42
-1.0
 53
0.00013888888889
  3
ME10_DIM_11
100
AcDbAlignedDimension
 13
-204.6007233176943
 23
-190.6999978676788
 33
0.0
 14
-215.1007233176943
 24
-190.6999978676788
 34
0.0
100
AcDbRotatedDimension
  0
DIMENSION
  5
142
330
9C
100
AcDbEntity
  8
1
100
AcDbDimension
  2
*D19
 10
-217.3102393281694
 20
-190.6999978676788
 30
0.0
 11
-218.0952393281694
 21
-192.988920346656
 31
0.0
 70
    32
  1
<>
 71
     5
 42
-1.0
 53
90.0
  3
ME10_DIM_12
100
AcDbAlignedDimension
 13
-207.0257233176944
 23
-194.899997867679
 33
0.0
 14
-204.6007233176943
 24
-190.6999978676788
 34
0.0
 50
90.0
100
AcDbRotatedDimension
  0
ENDBLK
  5
9F
330
9C
100
AcDbEntity
  8
0
100
AcDbBlockEnd
  0
BLOCK
  5
A1
330
A0
100
AcDbEntity
  8
0
100
AcDbBlockBegin
  2
_rahmen
 70
     0
 10
-883.7500029281013
 20
-1122.048554758902
 30
0.0
  3
_rahmen
  1

  0
LINE
  5
143
330
A0
100
AcDbEntity
  8
1
  6
DOT_CENTER
 62
     2
100
AcDbLine
 10
-1009.308152568289
 20
-1095.923554758902
 30
0.0
 11
-1003.808152568289
 21
-1095.923554758902
 31
0.0
  0
LINE
  5
144
330
A0
100
AcDbEntity
  8
1
  6
PHANTOM
 62
     2
100
AcDbLine
 10
-1000.558152568289
 20
-1093.173554758902
 30
0.0
 11
-1000.558152568289
 21
-1098.673554758902
 31
0.0
  0
LINE
  5
145
330
A0
100
AcDbEntity
  8
1
  6
PHANTOM
 62
     2
100
AcDbLine
 10
-997.8081525682887
 20
-1095.923554758902
 30
0.0
 11
-1003.308152568289
 21
-1095.923554758902
 31
0.0
  0
LINE
  5
146
330
A0
100
AcDbEntity
  8
1
  6
Continuous
 62
     7
100
AcDbLine
 10
-948.9948074548513
 20
-1108.548554758902
 30
0.0
 11
-948.9948074548513
 21
-1100.048554758902
 31
0.0
  0
LINE
  5
147
330
A0
100
AcDbEntity
  8
1
  6
Continuous
 62
     6
100
AcDbLine
 10
-976.8948074548514
 20
-1100.048554758902
 30
0.0
 11
-883.7500029280995
 21
-1100.048554758902
 31
0.0
  0
LINE
  5
148
330
A0
100
AcDbEntity
  8
1
  6
Continuous
 62
     7
100
AcDbLine
 10
-1013.294807454851
 20
-1100.048554758902
 30
0.0
 11
-1013.294807454851
 21
-1091.548554758902
 31
0.0
  0
LINE
  5
149
330
A0
100
AcDbEntity
  8
1
  6
Continuous
 62
     7
100
AcDbLine
 10
-976.8948074548514
 20
-1100.048554758902
 30
0.0
 11
-976.8948074548514
 21
-1091.548554758902
 31
0.0
  0
LINE
  5
14A
330
A0
100
AcDbEntity
  8
1
  6
Continuous
 62
     7
100
AcDbLine
 10
-919.1684112097784
 20
-1091.548554758902
 30
0.0
 11
-919.1684112097784
 21
-1100.048554758902
 31
0.0
  0
LINE
  5
14B
330
A0
100
AcDbEntity
  8
1
  6
Continuous
 62
     7
100
AcDbLine
 10
-892.6684112097788
 20
-1091.548554758902
 30
0.0
 11
-892.6684112097788
 21
-1100.048554758902
 31
0.0
  0
LINE
  5
14C
330
A0
100
AcDbEntity
  8
1
  6
Continuous
 62
     6
100
AcDbLine
 10
-1082.294807454851
 20
-1117.048554758902
 30
0.0
 11
-1127.250002928101
 21
-1117.048554758902
 31
0.0
  0
LINE
  5
14D
330
A0
100
AcDbEntity
  8
1
  6
Continuous
 62
     7
100
AcDbLine
 10
-883.7500029281
 20
-1108.548554758902
 30
0.0
 11
-976.8948074548514
 21
-1108.548554758902
 31
0.0
  0
LINE
  5
14E
102
{ACAD_REACTORS
330
260
330
261
102
}
330
A0
100
AcDbEntity
  8
0
  6
Continuous
 62
     2
100
AcDbLine
 10
-999.5873785130839
 20
-1107.748265643239
 30
0.0
 11
-999.5873785130839
 21
-1106.875748636435
 31
0.0
  0
LINE
  5
14F
102
{ACAD_REACTORS
330
260
330
261
102
}
330
A0
100
AcDbEntity
  8
0
  6
Continuous
 62
     2
100
AcDbLine
 10
-999.5873785130839
 20
-1108.708034350721
 30
0.0
 11
-999.5873785130839
 21
-1109.580551357525
 31
0.0
  0
LINE
  5
150
102
{ACAD_REACTORS
330
262
330
263
102
}
330
A0
100
AcDbEntity
  8
0
  6
Continuous
 62
     2
100
AcDbLine
 10
-984.2543343767934
 20
-1107.486510541198
 30
0.0
 11
-983.1506950772252
 21
-1107.486510541198
 31
0.0
  0
LINE
  5
151
102
{ACAD_REACTORS
330
262
330
263
102
}
330
A0
100
AcDbEntity
  8
0
  6
Continuous
 62
     2
100
AcDbLine
 10
-983.484677033832
 20
-1108.708034350722
 30
0.0
 11
-983.484677033832
 21
-1109.580551357525
 31
0.0
  0
LINE
  5
152
102
{ACAD_REACTORS
330
26C
330
26D
102
}
330
A0
100
AcDbEntity
  8
0
  6
Continuous
 62
     2
100
AcDbLine
 10
-985.3454336492118
 20
-1106.395864282711
 30
0.0
 11
-983.9474806022715
 21
-1104.815005288936
 31
0.0
  0
LINE
  5
153
102
{ACAD_REACTORS
330
26C
330
26D
102
}
330
A0
100
AcDbEntity
  8
0
  6
Continuous
 62
     2
100
AcDbLine
 10
-985.2500102330391
 20
-1103.3420547589
 30
0.0
 11
-983.9474806022715
 21
-1104.815005288936
 31
0.0
  0
LINE
  5
154
102
{ACAD_REACTORS
330
26C
330
26D
102
}
330
A0
100
AcDbEntity
  8
0
  6
Continuous
 62
     2
100
AcDbLine
 10
-982.6449509715052
 20
-1103.3420547589
 30
0.0
 11
-981.2422267537579
 21
-1103.3420547589
 31
0.0
  0
LINE
  5
155
102
{ACAD_REACTORS
330
26C
330
26D
102
}
330
A0
100
AcDbEntity
  8
0
  6
Continuous
 62
     2
100
AcDbLine
 10
-983.9427094314636
 20
-1106.395864282711
 30
0.0
 11
-983.246118493398
 21
-1105.608132497418
 31
0.0
  0
LINE
  5
156
102
{ACAD_REACTORS
330
26C
330
26D
102
}
330
A0
100
AcDbEntity
  8
0
  6
Continuous
 62
     2
100
AcDbLine
 10
-983.9427094314636
 20
-1106.395864282711
 30
0.0
 11
-985.3454336492118
 21
-1106.395864282711
 31
0.0
  0
LINE
  5
157
102
{ACAD_REACTORS
330
26E
330
26F
102
}
330
A0
100
AcDbEntity
  8
0
  6
Continuous
 62
     2
100
AcDbLine
 10
-985.4647129194287
 20
-1106.395864282711
 30
0.0
 11
-986.7052173296817
 21
-1106.395864282711
 31
0.0
  0
LINE
  5
158
102
{ACAD_REACTORS
330
270
330
271
102
}
330
A0
100
AcDbEntity
  8
0
  6
Continuous
 62
     2
100
AcDbLine
 10
-987.5731969378368
 20
-1108.533530949361
 30
0.0
 11
-987.8733621750268
 21
-1107.765715983374
 31
0.0
  0
LINE
  5
159
102
{ACAD_REACTORS
330
270
330
271
102
}
330
A0
100
AcDbEntity
  8
0
  6
Continuous
 62
     2
100
AcDbLine
 10
-988.1735274122193
 20
-1108.533530949361
 30
0.0
 11
-987.5731969378368
 21
-1108.533530949361
 31
0.0
  0
LINE
  5
15A
102
{ACAD_REACTORS
330
270
330
271
102
}
330
A0
100
AcDbEntity
  8
0
  6
Continuous
 62
     2
100
AcDbLine
 10
-989.891567427093
 20
-1109.755054758886
 30
0.0
 11
-988.6510630168401
 21
-1109.755054758886
 31
0.0
  0
LINE
  5
15B
102
{ACAD_REACTORS
330
270
330
271
102
}
330
A0
100
AcDbEntity
  8
0
  6
Continuous
 62
     2
100
AcDbLine
 10
-988.4936143801538
 20
-1106.701245235075
 30
0.0
 11
-987.2531099699011
 21
-1106.701245235075
 31
0.0
  0
LINE
  5
15C
102
{ACAD_REACTORS
330
270
330
271
102
}
330
A0
100
AcDbEntity
  8
0
  6
Continuous
 62
     2
100
AcDbLine
 10
-987.2531099699011
 20
-1106.701245235075
 30
0.0
 11
-985.8551569229608
 21
-1109.755054758886
 31
0.0
  0
LINE
  5
15D
102
{ACAD_REACTORS
330
270
330
271
102
}
330
A0
100
AcDbEntity
  8
0
  6
Continuous
 62
     2
100
AcDbLine
 10
-987.0956613332147
 20
-1109.755054758886
 30
0.0
 11
-987.3071413866904
 21
-1109.214094214668
 31
0.0
  0
LINE
  5
15E
102
{ACAD_REACTORS
330
272
330
273
102
}
330
A0
100
AcDbEntity
  8
0
  6
Continuous
 62
     2
100
AcDbLine
 10
-991.2379805288007
 20
-1109.755054758886
 30
0.0
 11
-990.0451878266342
 21
-1109.755054758886
 31
0.0
  0
LINE
  5
15F
102
{ACAD_REACTORS
330
272
330
273
102
}
330
A0
100
AcDbEntity
  8
0
  6
Continuous
 62
     2
100
AcDbLine
 10
-991.2379805288007
 20
-1107.486510541198
 30
0.0
 11
-991.2379805288007
 21
-1109.755054758886
 31
0.0
  0
LINE
  5
160
102
{ACAD_REACTORS
330
272
330
273
102
}
330
A0
100
AcDbEntity
  8
0
  6
Continuous
 62
     2
100
AcDbLine
 10
-992.0490795662753
 20
-1106.701245235075
 30
0.0
 11
-992.0490795662753
 21
-1107.486510541198
 31
0.0
  0
LINE
  5
161
102
{ACAD_REACTORS
330
274
330
275
102
}
330
A0
100
AcDbEntity
  8
0
  6
Continuous
 62
     2
100
AcDbLine
 10
-990.5698656847027
 20
-1106.395864282711
 30
0.0
 11
-989.3770729825362
 21
-1106.395864282711
 31
0.0
  0
LINE
  5
162
102
{ACAD_REACTORS
330
274
330
275
102
}
330
A0
100
AcDbEntity
  8
0
  6
Continuous
 62
     2
100
AcDbLine
 10
-988.1365685722822
 20
-1104.650830269105
 30
0.0
 11
-989.3770729825362
 21
-1103.3420547589
 31
0.0
  0
LINE
  5
163
102
{ACAD_REACTORS
330
274
330
275
102
}
330
A0
100
AcDbEntity
  8
0
  6
Continuous
 62
     2
100
AcDbLine
 10
-986.9437758701156
 20
-1103.3420547589
 30
0.0
 11
-988.1365685722822
 21
-1103.3420547589
 31
0.0
  0
LINE
  5
164
102
{ACAD_REACTORS
330
274
330
275
102
}
330
A0
100
AcDbEntity
  8
0
  6
Continuous
 62
     2
100
AcDbLine
 10
-986.9437758701156
 20
-1106.395864282711
 30
0.0
 11
-986.9437758701156
 21
-1103.3420547589
 31
0.0
  0
LINE
  5
165
102
{ACAD_REACTORS
330
274
330
275
102
}
330
A0
100
AcDbEntity
  8
0
  6
Continuous
 62
     2
100
AcDbLine
 10
-988.1365685722822
 20
-1106.395864282711
 30
0.0
 11
-986.9437758701156
 21
-1106.395864282711
 31
0.0
  0
LINE
  5
166
102
{ACAD_REACTORS
330
274
330
275
102
}
330
A0
100
AcDbEntity
  8
0
  6
Continuous
 62
     2
100
AcDbLine
 10
-989.3770729825362
 20
-1105.087088772507
 30
0.0
 11
-988.1365685722822
 21
-1106.395864282711
 31
0.0
  0
LINE
  5
167
102
{ACAD_REACTORS
330
276
330
277
102
}
330
A0
100
AcDbEntity
  8
0
  6
Continuous
 62
     2
100
AcDbLine
 10
-993.3850073927019
 20
-1108.01002074528
 30
0.0
 11
-994.6255118029547
 21
-1106.701245235075
 31
0.0
  0
LINE
  5
168
102
{ACAD_REACTORS
330
276
330
277
102
}
330
A0
100
AcDbEntity
  8
0
  6
Continuous
 62
     2
100
AcDbLine
 10
-993.3850073927019
 20
-1106.701245235075
 30
0.0
 11
-993.3850073927019
 21
-1108.01002074528
 31
0.0
  0
LINE
  5
169
102
{ACAD_REACTORS
330
276
330
277
102
}
330
A0
100
AcDbEntity
  8
0
  6
Continuous
 62
     2
100
AcDbLine
 10
-992.1922146905355
 20
-1106.701245235075
 30
0.0
 11
-993.3850073927019
 21
-1106.701245235075
 31
0.0
  0
LINE
  5
16A
102
{ACAD_REACTORS
330
276
330
277
102
}
330
A0
100
AcDbEntity
  8
0
  6
Continuous
 62
     2
100
AcDbLine
 10
-992.1922146905355
 20
-1109.755054758886
 30
0.0
 11
-992.1922146905355
 21
-1106.701245235075
 31
0.0
  0
LINE
  5
16B
102
{ACAD_REACTORS
330
276
330
277
102
}
330
A0
100
AcDbEntity
  8
0
  6
Continuous
 62
     2
100
AcDbLine
 10
-994.6255118029547
 20
-1108.446279248681
 30
0.0
 11
-993.3850073927019
 21
-1109.755054758886
 31
0.0
  0
LINE
  5
16C
102
{ACAD_REACTORS
330
276
330
277
102
}
330
A0
100
AcDbEntity
  8
0
  6
Continuous
 62
     2
100
AcDbLine
 10
-994.6255118029547
 20
-1109.755054758886
 30
0.0
 11
-994.6255118029547
 21
-1108.446279248681
 31
0.0
  0
LINE
  5
16D
102
{ACAD_REACTORS
330
266
330
267
102
}
330
A0
100
AcDbEntity
  8
0
  6
Continuous
 62
     2
100
AcDbLine
 10
-992.1443520515633
 20
-1104.040068364343
 30
0.0
 11
-990.8084242251356
 21
-1104.040068364343
 31
0.0
  0
LINE
  5
16E
102
{ACAD_REACTORS
330
266
330
267
102
}
330
A0
100
AcDbEntity
  8
0
  6
Continuous
 62
     2
100
AcDbLine
 10
-992.1443520515633
 20
-1105.697850677269
 30
0.0
 11
-992.1443520515633
 21
-1105.217966323527
 31
0.0
  0
LINE
  5
16F
102
{ACAD_REACTORS
330
266
330
267
102
}
330
A0
100
AcDbEntity
  8
0
  6
Continuous
 62
     2
100
AcDbLine
 10
-990.8084242251356
 20
-1105.697850677269
 30
0.0
 11
-992.1443520515633
 21
-1105.697850677269
 31
0.0
  0
LINE
  5
170
102
{ACAD_REACTORS
330
266
330
267
102
}
330
A0
100
AcDbEntity
  8
0
  6
Continuous
 62
     2
100
AcDbLine
 10
-990.8084242251356
 20
-1106.395864282711
 30
0.0
 11
-990.8084242251356
 21
-1105.697850677269
 31
0.0
  0
LINE
  5
171
102
{ACAD_REACTORS
330
266
330
267
102
}
330
A0
100
AcDbEntity
  8
0
  6
Continuous
 62
     2
100
AcDbLine
 10
-993.9587439489165
 20
-1106.395864282711
 30
0.0
 11
-990.8084242251356
 21
-1106.395864282711
 31
0.0
  0
LINE
  5
172
102
{ACAD_REACTORS
330
266
330
267
102
}
330
A0
100
AcDbEntity
  8
0
  6
Continuous
 62
     2
100
AcDbLine
 10
-993.9587439489165
 20
-1103.3420547589
 30
0.0
 11
-990.8084242251356
 21
-1103.3420547589
 31
0.0
  0
LINE
  5
173
102
{ACAD_REACTORS
330
266
330
267
102
}
330
A0
100
AcDbEntity
  8
0
  6
Continuous
 62
     2
100
AcDbLine
 10
-990.8084242251356
 20
-1104.040068364343
 30
0.0
 11
-990.8084242251356
 21
-1103.3420547589
 31
0.0
  0
LINE
  5
174
102
{ACAD_REACTORS
330
278
330
279
102
}
330
A0
100
AcDbEntity
  8
0
  6
Continuous
 62
     2
100
AcDbLine
 10
-996.8200994440566
 20
-1104.410888092235
 30
0.0
 11
-996.8200994440566
 21
-1103.3420547589
 31
0.0
  0
LINE
  5
175
102
{ACAD_REACTORS
330
278
330
279
102
}
330
A0
100
AcDbEntity
  8
0
  6
Continuous
 62
     2
100
AcDbLine
 10
-996.8200994440566
 20
-1103.3420547589
 30
0.0
 11
-995.6273067418902
 21
-1103.3420547589
 31
0.0
  0
LINE
  5
176
102
{ACAD_REACTORS
330
278
330
279
102
}
330
A0
100
AcDbEntity
  8
0
  6
Continuous
 62
     2
100
AcDbLine
 10
-996.8200994440566
 20
-1105.261592173868
 30
0.0
 11
-997.869757021964
 21
-1105.261592173868
 31
0.0
  0
LINE
  5
177
102
{ACAD_REACTORS
330
278
330
279
102
}
330
A0
100
AcDbEntity
  8
0
  6
Continuous
 62
     2
100
AcDbLine
 10
-997.869757021964
 20
-1105.261592173868
 30
0.0
 11
-997.869757021964
 21
-1106.395864282711
 31
0.0
  0
LINE
  5
178
102
{ACAD_REACTORS
330
278
330
279
102
}
330
A0
100
AcDbEntity
  8
0
  6
Continuous
 62
     2
100
AcDbLine
 10
-999.0625497241307
 20
-1103.3420547589
 30
0.0
 11
-999.0625497241307
 21
-1106.395864282711
 31
0.0
  0
LINE
  5
179
102
{ACAD_REACTORS
330
26A
330
26B
102
}
330
A0
100
AcDbEntity
  8
0
  6
Continuous
 62
     2
100
AcDbLine
 10
-1001.018729755684
 20
-1104.710888253683
 30
0.0
 11
-1001.018729755684
 21
-1104.00516060434
 31
0.0
  0
LINE
  5
17A
102
{ACAD_REACTORS
330
26A
330
26B
102
}
330
A0
100
AcDbEntity
  8
0
  6
Continuous
 62
     2
100
AcDbLine
 10
-1002.259234165938
 20
-1106.395864282711
 30
0.0
 11
-1001.018729755684
 21
-1106.395864282711
 31
0.0
  0
LINE
  5
17B
102
{ACAD_REACTORS
330
26A
330
26B
102
}
330
A0
100
AcDbEntity
  8
0
  6
Continuous
 62
     2
100
AcDbLine
 10
-1001.018729755684
 20
-1106.395864282711
 30
0.0
 11
-1001.018729755684
 21
-1105.452786041567
 31
0.0
  0
LINE
  5
17C
102
{ACAD_REACTORS
330
264
330
265
102
}
330
A0
100
AcDbEntity
  8
0
  6
Continuous
 62
     2
100
AcDbLine
 10
-1006.56418001515
 20
-1109.042499203329
 30
0.0
 11
-1008.040013276159
 21
-1109.042499203329
 31
0.0
  0
LINE
  5
17D
102
{ACAD_REACTORS
330
264
330
265
102
}
330
A0
100
AcDbEntity
  8
0
  6
Continuous
 62
     2
100
AcDbLine
 10
-1009.058152568289
 20
-1103.766299374302
 30
0.0
 11
-1009.058152568289
 21
-1109.330810143502
 31
0.0
  0
LINE
  5
17E
102
{ACAD_REACTORS
330
264
330
265
102
}
330
A0
100
AcDbEntity
  8
0
  6
Continuous
 62
     2
100
AcDbLine
 10
-1008.633907952906
 20
-1103.342054758918
 30
0.0
 11
-1003.160595862189
 21
-1103.342054758918
 31
0.0
  0
LINE
  5
17F
102
{ACAD_REACTORS
330
264
330
265
102
}
330
A0
100
AcDbEntity
  8
0
  6
Continuous
 62
     2
100
AcDbLine
 10
-1002.736351246805
 20
-1103.766299374302
 30
0.0
 11
-1002.736351246805
 21
-1109.330810143502
 31
0.0
  0
LINE
  5
180
102
{ACAD_REACTORS
330
264
330
265
102
}
330
A0
100
AcDbEntity
  8
0
  6
Continuous
 62
     2
100
AcDbLine
 10
-1003.160595862189
 20
-1109.755054758886
 30
0.0
 11
-1008.633907952906
 21
-1109.755054758886
 31
0.0
  0
LINE
  5
181
102
{ACAD_REACTORS
330
264
330
265
102
}
330
A0
100
AcDbEntity
  8
0
  6
Continuous
 62
     2
100
AcDbLine
 10
-1006.248463092073
 20
-1108.726782280252
 30
0.0
 11
-1006.248463092073
 21
-1107.19601134872
 31
0.0
  0
LINE
  5
182
102
{ACAD_REACTORS
330
264
330
265
102
}
330
A0
100
AcDbEntity
  8
0
  6
Continuous
 62
     2
100
AcDbLine
 10
-1006.248463092073
 20
-1104.974351856595
 30
0.0
 11
-1006.248463092073
 21
-1104.370327237535
 31
0.0
  0
LINE
  5
183
102
{ACAD_REACTORS
330
264
330
265
102
}
330
A0
100
AcDbEntity
  8
0
  6
Continuous
 62
     2
100
AcDbLine
 10
-1008.040013276159
 20
-1104.054610314459
 30
0.0
 11
-1006.56418001515
 21
-1104.054610314459
 31
0.0
  0
LINE
  5
184
102
{ACAD_REACTORS
330
264
330
265
102
}
330
A0
100
AcDbEntity
  8
0
  6
Continuous
 62
     2
100
AcDbLine
 10
-1008.355730199235
 20
-1104.370327237535
 30
0.0
 11
-1008.355730199235
 21
-1108.726782280252
 31
0.0
  0
LINE
  5
185
102
{ACAD_REACTORS
330
26A
330
26B
102
}
330
A0
100
AcDbEntity
  8
0
  6
Continuous
 62
     2
100
AcDbLine
 10
-1001.018729755684
 20
-1105.452786041567
 30
0.0
 11
-1000.259962167904
 21
-1105.452786041567
 31
0.0
  0
LINE
  5
186
102
{ACAD_REACTORS
330
26A
330
26B
102
}
330
A0
100
AcDbEntity
  8
0
  6
Continuous
 62
     2
100
AcDbLine
 10
-1002.259234165938
 20
-1103.3420547589
 30
0.0
 11
-1000.259962167904
 21
-1103.3420547589
 31
0.0
  0
LINE
  5
187
102
{ACAD_REACTORS
330
26A
330
26B
102
}
330
A0
100
AcDbEntity
  8
0
  6
Continuous
 62
     2
100
AcDbLine
 10
-1002.259234165938
 20
-1103.3420547589
 30
0.0
 11
-1002.259234165938
 21
-1106.395864282711
 31
0.0
  0
LINE
  5
188
102
{ACAD_REACTORS
330
26A
330
26B
102
}
330
A0
100
AcDbEntity
  8
0
  6
Continuous
 62
     2
100
AcDbLine
 10
-1001.018729755684
 20
-1104.710888253683
 30
0.0
 11
-1000.701434694142
 21
-1104.710888253683
 31
0.0
  0
LINE
  5
189
102
{ACAD_REACTORS
330
26A
330
26B
102
}
330
A0
100
AcDbEntity
  8
0
  6
Continuous
 62
     2
100
AcDbLine
 10
-1001.018729755684
 20
-1104.00516060434
 30
0.0
 11
-1000.701434694142
 21
-1104.00516060434
 31
0.0
  0
LINE
  5
18A
102
{ACAD_REACTORS
330
278
330
279
102
}
330
A0
100
AcDbEntity
  8
0
  6
Continuous
 62
     2
100
AcDbLine
 10
-997.869757021964
 20
-1104.410888092235
 30
0.0
 11
-996.8200994440566
 21
-1104.410888092235
 31
0.0
  0
LINE
  5
18B
102
{ACAD_REACTORS
330
278
330
279
102
}
330
A0
100
AcDbEntity
  8
0
  6
Continuous
 62
     2
100
AcDbLine
 10
-997.869757021964
 20
-1103.3420547589
 30
0.0
 11
-997.869757021964
 21
-1104.410888092235
 31
0.0
  0
LINE
  5
18C
102
{ACAD_REACTORS
330
278
330
279
102
}
330
A0
100
AcDbEntity
  8
0
  6
Continuous
 62
     2
100
AcDbLine
 10
-999.0625497241307
 20
-1103.3420547589
 30
0.0
 11
-997.869757021964
 21
-1103.3420547589
 31
0.0
  0
LINE
  5
18D
102
{ACAD_REACTORS
330
278
330
279
102
}
330
A0
100
AcDbEntity
  8
0
  6
Continuous
 62
     2
100
AcDbLine
 10
-997.869757021964
 20
-1106.395864282711
 30
0.0
 11
-999.0625497241307
 21
-1106.395864282711
 31
0.0
  0
LINE
  5
18E
102
{ACAD_REACTORS
330
278
330
279
102
}
330
A0
100
AcDbEntity
  8
0
  6
Continuous
 62
     2
100
AcDbLine
 10
-996.8200994440566
 20
-1106.395864282711
 30
0.0
 11
-996.8200994440566
 21
-1105.261592173868
 31
0.0
  0
LINE
  5
18F
102
{ACAD_REACTORS
330
278
330
279
102
}
330
A0
100
AcDbEntity
  8
0
  6
Continuous
 62
     2
100
AcDbLine
 10
-995.6273067418902
 20
-1106.395864282711
 30
0.0
 11
-996.8200994440566
 21
-1106.395864282711
 31
0.0
  0
LINE
  5
190
102
{ACAD_REACTORS
330
278
330
279
102
}
330
A0
100
AcDbEntity
  8
0
  6
Continuous
 62
     2
100
AcDbLine
 10
-995.6273067418902
 20
-1103.3420547589
 30
0.0
 11
-995.6273067418902
 21
-1106.395864282711
 31
0.0
  0
LINE
  5
191
102
{ACAD_REACTORS
330
266
330
267
102
}
330
A0
100
AcDbEntity
  8
0
  6
Continuous
 62
     2
100
AcDbLine
 10
-992.1443520515633
 20
-1105.217966323527
 30
0.0
 11
-990.8084242251356
 21
-1105.217966323527
 31
0.0
  0
LINE
  5
192
102
{ACAD_REACTORS
330
266
330
267
102
}
330
A0
100
AcDbEntity
  8
0
  6
Continuous
 62
     2
100
AcDbLine
 10
-990.8084242251356
 20
-1105.217966323527
 30
0.0
 11
-990.8084242251356
 21
-1104.519952718085
 31
0.0
  0
LINE
  5
193
102
{ACAD_REACTORS
330
266
330
267
102
}
330
A0
100
AcDbEntity
  8
0
  6
Continuous
 62
     2
100
AcDbLine
 10
-990.8084242251356
 20
-1104.519952718085
 30
0.0
 11
-992.1443520515633
 21
-1104.519952718085
 31
0.0
  0
LINE
  5
194
102
{ACAD_REACTORS
330
266
330
267
102
}
330
A0
100
AcDbEntity
  8
0
  6
Continuous
 62
     2
100
AcDbLine
 10
-992.1443520515633
 20
-1104.519952718085
 30
0.0
 11
-992.1443520515633
 21
-1104.040068364343
 31
0.0
  0
LINE
  5
195
102
{ACAD_REACTORS
330
276
330
277
102
}
330
A0
100
AcDbEntity
  8
0
  6
Continuous
 62
     2
100
AcDbLine
 10
-995.8183045051223
 20
-1109.755054758886
 30
0.0
 11
-994.6255118029547
 21
-1109.755054758886
 31
0.0
  0
LINE
  5
196
102
{ACAD_REACTORS
330
276
330
277
102
}
330
A0
100
AcDbEntity
  8
0
  6
Continuous
 62
     2
100
AcDbLine
 10
-993.3850073927019
 20
-1109.755054758886
 30
0.0
 11
-992.1922146905355
 21
-1109.755054758886
 31
0.0
  0
LINE
  5
197
102
{ACAD_REACTORS
330
276
330
277
102
}
330
A0
100
AcDbEntity
  8
0
  6
Continuous
 62
     2
100
AcDbLine
 10
-994.6255118029547
 20
-1106.701245235075
 30
0.0
 11
-995.8183045051223
 21
-1106.701245235075
 31
0.0
  0
LINE
  5
198
102
{ACAD_REACTORS
330
276
330
277
102
}
330
A0
100
AcDbEntity
  8
0
  6
Continuous
 62
     2
100
AcDbLine
 10
-995.8183045051223
 20
-1106.701245235075
 30
0.0
 11
-995.8183045051223
 21
-1109.755054758886
 31
0.0
  0
LINE
  5
199
102
{ACAD_REACTORS
330
274
330
275
102
}
330
A0
100
AcDbEntity
  8
0
  6
Continuous
 62
     2
100
AcDbLine
 10
-988.1365685722822
 20
-1103.3420547589
 30
0.0
 11
-988.1365685722822
 21
-1104.650830269105
 31
0.0
  0
LINE
  5
19A
102
{ACAD_REACTORS
330
274
330
275
102
}
330
A0
100
AcDbEntity
  8
0
  6
Continuous
 62
     2
100
AcDbLine
 10
-989.3770729825362
 20
-1103.3420547589
 30
0.0
 11
-990.5698656847027
 21
-1103.3420547589
 31
0.0
  0
LINE
  5
19B
102
{ACAD_REACTORS
330
274
330
275
102
}
330
A0
100
AcDbEntity
  8
0
  6
Continuous
 62
     2
100
AcDbLine
 10
-990.5698656847027
 20
-1103.3420547589
 30
0.0
 11
-990.5698656847027
 21
-1106.395864282711
 31
0.0
  0
LINE
  5
19C
102
{ACAD_REACTORS
330
274
330
275
102
}
330
A0
100
AcDbEntity
  8
0
  6
Continuous
 62
     2
100
AcDbLine
 10
-989.3770729825362
 20
-1106.395864282711
 30
0.0
 11
-989.3770729825362
 21
-1105.087088772507
 31
0.0
  0
LINE
  5
19D
102
{ACAD_REACTORS
330
272
330
273
102
}
330
A0
100
AcDbEntity
  8
0
  6
Continuous
 62
     2
100
AcDbLine
 10
-990.0451878266342
 20
-1109.755054758886
 30
0.0
 11
-990.0451878266342
 21
-1107.486510541198
 31
0.0
  0
LINE
  5
19E
102
{ACAD_REACTORS
330
272
330
273
102
}
330
A0
100
AcDbEntity
  8
0
  6
Continuous
 62
     2
100
AcDbLine
 10
-990.0451878266342
 20
-1107.486510541198
 30
0.0
 11
-989.2340887891617
 21
-1107.486510541198
 31
0.0
  0
LINE
  5
19F
102
{ACAD_REACTORS
330
272
330
273
102
}
330
A0
100
AcDbEntity
  8
0
  6
Continuous
 62
     2
100
AcDbLine
 10
-989.2340887891617
 20
-1107.486510541198
 30
0.0
 11
-989.2340887891617
 21
-1106.701245235075
 31
0.0
  0
LINE
  5
1A0
102
{ACAD_REACTORS
330
272
330
273
102
}
330
A0
100
AcDbEntity
  8
0
  6
Continuous
 62
     2
100
AcDbLine
 10
-989.2340887891617
 20
-1106.701245235075
 30
0.0
 11
-992.0490795662753
 21
-1106.701245235075
 31
0.0
  0
LINE
  5
1A1
102
{ACAD_REACTORS
330
272
330
273
102
}
330
A0
100
AcDbEntity
  8
0
  6
Continuous
 62
     2
100
AcDbLine
 10
-992.0490795662753
 20
-1107.486510541198
 30
0.0
 11
-991.2379805288007
 21
-1107.486510541198
 31
0.0
  0
LINE
  5
1A2
102
{ACAD_REACTORS
330
270
330
271
102
}
330
A0
100
AcDbEntity
  8
0
  6
Continuous
 62
     2
100
AcDbLine
 10
-988.4395829633643
 20
-1109.214094214668
 30
0.0
 11
-987.3071413866904
 21
-1109.214094214668
 31
0.0
  0
LINE
  5
1A3
102
{ACAD_REACTORS
330
270
330
271
102
}
330
A0
100
AcDbEntity
  8
0
  6
Continuous
 62
     2
100
AcDbLine
 10
-985.8551569229608
 20
-1109.755054758886
 30
0.0
 11
-987.0956613332147
 21
-1109.755054758886
 31
0.0
  0
LINE
  5
1A4
102
{ACAD_REACTORS
330
270
330
271
102
}
330
A0
100
AcDbEntity
  8
0
  6
Continuous
 62
     2
100
AcDbLine
 10
-988.4936143801538
 20
-1106.701245235075
 30
0.0
 11
-989.891567427093
 21
-1109.755054758886
 31
0.0
  0
LINE
  5
1A5
102
{ACAD_REACTORS
330
270
330
271
102
}
330
A0
100
AcDbEntity
  8
0
  6
Continuous
 62
     2
100
AcDbLine
 10
-988.6510630168401
 20
-1109.755054758886
 30
0.0
 11
-988.4395829633643
 21
-1109.214094214668
 31
0.0
  0
LINE
  5
1A6
102
{ACAD_REACTORS
330
270
330
271
102
}
330
A0
100
AcDbEntity
  8
0
  6
Continuous
 62
     2
100
AcDbLine
 10
-988.1735274122193
 20
-1108.533530949361
 30
0.0
 11
-987.8733621750268
 21
-1107.765715983374
 31
0.0
  0
LINE
  5
1A7
102
{ACAD_REACTORS
330
26E
330
26F
102
}
330
A0
100
AcDbEntity
  8
0
  6
Continuous
 62
     2
100
AcDbLine
 10
-986.7052173296817
 20
-1106.395864282711
 30
0.0
 11
-986.7052173296817
 21
-1103.3420547589
 31
0.0
  0
LINE
  5
1A8
102
{ACAD_REACTORS
330
26E
330
26F
102
}
330
A0
100
AcDbEntity
  8
0
  6
Continuous
 62
     2
100
AcDbLine
 10
-985.4647129194287
 20
-1103.3420547589
 30
0.0
 11
-985.4647129194287
 21
-1106.395864282711
 31
0.0
  0
LINE
  5
1A9
102
{ACAD_REACTORS
330
26E
330
26F
102
}
330
A0
100
AcDbEntity
  8
0
  6
Continuous
 62
     2
100
AcDbLine
 10
-986.7052173296817
 20
-1103.3420547589
 30
0.0
 11
-985.4647129194287
 21
-1103.3420547589
 31
0.0
  0
LINE
  5
1AA
102
{ACAD_REACTORS
330
26C
330
26D
102
}
330
A0
100
AcDbEntity
  8
0
  6
Continuous
 62
     2
100
AcDbLine
 10
-983.246118493398
 20
-1105.608132497418
 30
0.0
 11
-982.5495275553325
 21
-1106.395864282711
 31
0.0
  0
LINE
  5
1AB
102
{ACAD_REACTORS
330
26C
330
26D
102
}
330
A0
100
AcDbEntity
  8
0
  6
Continuous
 62
     2
100
AcDbLine
 10
-982.5495275553325
 20
-1106.395864282711
 30
0.0
 11
-981.1468033375842
 21
-1106.395864282711
 31
0.0
  0
LINE
  5
1AC
102
{ACAD_REACTORS
330
26C
330
26D
102
}
330
A0
100
AcDbEntity
  8
0
  6
Continuous
 62
     2
100
AcDbLine
 10
-982.5447563845245
 20
-1104.815005288936
 30
0.0
 11
-981.1468033375842
 21
-1106.395864282711
 31
0.0
  0
LINE
  5
1AD
102
{ACAD_REACTORS
330
26C
330
26D
102
}
330
A0
100
AcDbEntity
  8
0
  6
Continuous
 62
     2
100
AcDbLine
 10
-982.5447563845245
 20
-1104.815005288936
 30
0.0
 11
-981.2422267537579
 21
-1103.3420547589
 31
0.0
  0
LINE
  5
1AE
102
{ACAD_REACTORS
330
26C
330
26D
102
}
330
A0
100
AcDbEntity
  8
0
  6
Continuous
 62
     2
100
AcDbLine
 10
-983.246118493398
 20
-1104.021878080456
 30
0.0
 11
-982.6449509715052
 21
-1103.3420547589
 31
0.0
  0
LINE
  5
1AF
102
{ACAD_REACTORS
330
26C
330
26D
102
}
330
A0
100
AcDbEntity
  8
0
  6
Continuous
 62
     2
100
AcDbLine
 10
-983.8472860152898
 20
-1103.3420547589
 30
0.0
 11
-983.246118493398
 21
-1104.021878080456
 31
0.0
  0
LINE
  5
1B0
102
{ACAD_REACTORS
330
26C
330
26D
102
}
330
A0
100
AcDbEntity
  8
0
  6
Continuous
 62
     2
100
AcDbLine
 10
-983.8472860152898
 20
-1103.3420547589
 30
0.0
 11
-985.2500102330391
 21
-1103.3420547589
 31
0.0
  0
LINE
  5
1B1
102
{ACAD_REACTORS
330
262
330
263
102
}
330
A0
100
AcDbEntity
  8
0
  6
Continuous
 62
     2
100
AcDbLine
 10
-983.1506950772252
 20
-1109.755054758886
 30
0.0
 11
-981.9579023750575
 21
-1109.755054758886
 31
0.0
  0
LINE
  5
1B2
102
{ACAD_REACTORS
330
262
330
263
102
}
330
A0
100
AcDbEntity
  8
0
  6
Continuous
 62
     2
100
AcDbLine
 10
-981.9579023750575
 20
-1109.755054758886
 30
0.0
 11
-981.9579023750575
 21
-1107.486510541198
 31
0.0
  0
LINE
  5
1B3
102
{ACAD_REACTORS
330
262
330
263
102
}
330
A0
100
AcDbEntity
  8
0
  6
Continuous
 62
     2
100
AcDbLine
 10
-981.9579023750575
 20
-1107.486510541198
 30
0.0
 11
-981.1468033375842
 21
-1107.486510541198
 31
0.0
  0
LINE
  5
1B4
102
{ACAD_REACTORS
330
262
330
263
102
}
330
A0
100
AcDbEntity
  8
0
  6
Continuous
 62
     2
100
AcDbLine
 10
-981.1468033375842
 20
-1107.486510541198
 30
0.0
 11
-981.1468033375842
 21
-1106.701245235075
 31
0.0
  0
LINE
  5
1B5
102
{ACAD_REACTORS
330
262
330
263
102
}
330
A0
100
AcDbEntity
  8
0
  6
Continuous
 62
     2
100
AcDbLine
 10
-984.5317488562129
 20
-1106.701245235075
 30
0.0
 11
-981.1468033375842
 21
-1106.701245235075
 31
0.0
  0
LINE
  5
1B6
102
{ACAD_REACTORS
330
262
330
263
102
}
330
A0
100
AcDbEntity
  8
0
  6
Continuous
 62
     2
100
AcDbLine
 10
-983.1506950772252
 20
-1107.486510541198
 30
0.0
 11
-983.1506950772252
 21
-1109.755054758886
 31
0.0
  0
LINE
  5
1B7
102
{ACAD_REACTORS
330
264
330
265
102
}
330
A0
100
AcDbEntity
  8
0
  6
Continuous
 62
     2
100
AcDbLine
 10
-1005.780181512705
 20
-1107.776174609321
 30
0.0
 11
-1005.780181512705
 21
-1107.194323202626
 31
0.0
  0
LINE
  5
1B8
102
{ACAD_REACTORS
330
264
330
265
102
}
330
A0
100
AcDbEntity
  8
0
  6
Continuous
 62
     2
100
AcDbLine
 10
-1005.780181512705
 20
-1104.97604000269
 30
0.0
 11
-1005.780181512705
 21
-1104.370504714183
 31
0.0
  0
LINE
  5
1B9
330
A0
100
AcDbEntity
  8
1
  6
Continuous
 62
     6
100
AcDbLine
 10
-1027.250002928101
 20
-1117.048554758902
 30
0.0
 11
-1013.294807454851
 21
-1117.048554758902
 31
0.0
  0
LINE
  5
1BA
330
A0
100
AcDbEntity
  8
1
  6
Continuous
 62
     6
100
AcDbLine
 10
-1077.250002928101
 20
-1117.048554758902
 30
0.0
 11
-1082.294807454851
 21
-1117.048554758902
 31
0.0
  0
LINE
  5
1BB
330
A0
100
AcDbEntity
  8
1
  6
Continuous
 62
     6
100
AcDbLine
 10
-927.2500029281013
 20
-1117.048554758902
 30
0.0
 11
-883.7500029281013
 21
-1117.048554758902
 31
0.0
  0
LINE
  5
1BC
330
A0
100
AcDbEntity
  8
1
  6
Continuous
 62
     6
100
AcDbLine
 10
-977.2500029281013
 20
-1117.048554758902
 30
0.0
 11
-995.0948074548512
 21
-1117.048554758902
 31
0.0
  0
LINE
  5
1BD
330
A0
100
AcDbEntity
  8
1
  6
Continuous
 62
     2
100
AcDbLine
 10
-883.7500029281013
 20
-1117.048554758902
 30
0.0
 11
-878.7500029281023
 21
-1117.048554758902
 31
0.0
  0
LINE
  5
1BE
330
A0
100
AcDbEntity
  8
1
  6
Continuous
 62
     2
100
AcDbLine
 10
-883.7500029281013
 20
-1117.048554758902
 30
0.0
 11
-883.7500029281013
 21
-1122.048554758902
 31
0.0
  0
LINE
  5
1BF
330
A0
100
AcDbEntity
  8
1
  6
Continuous
 62
     6
100
AcDbLine
 10
-1013.294807454851
 20
-1100.048554758902
 30
0.0
 11
-976.8948074548514
 21
-1100.048554758902
 31
0.0
  0
LINE
  5
1C0
330
A0
100
AcDbEntity
  8
1
  6
Continuous
 62
     2
100
AcDbLine
 10
-878.7500029281023
 20
-1122.048554758902
 30
0.0
 11
-878.7500029281023
 21
-1117.048554758902
 31
0.0
  0
LINE
  5
1C1
330
A0
100
AcDbEntity
  8
1
  6
Continuous
 62
     2
100
AcDbLine
 10
-878.7500029281023
 20
-1122.048554758902
 30
0.0
 11
-883.7500029281013
 21
-1122.048554758902
 31
0.0
  0
LINE
  5
1C2
330
A0
100
AcDbEntity
  8
1
  6
Continuous
 62
     2
100
AcDbLine
 10
-883.7500029281013
 20
-1122.048554758902
 30
0.0
 11
-927.2500029281013
 21
-1122.048554758902
 31
0.0
  0
LINE
  5
1C3
330
A0
100
AcDbEntity
  8
1
  6
Continuous
 62
     6
100
AcDbLine
 10
-883.7500029280995
 20
-1100.048554758902
 30
0.0
 11
-883.7500029281003
 21
-1067.048554758902
 31
0.0
  0
LINE
  5
1C4
330
A0
100
AcDbEntity
  8
1
  6
Continuous
 62
     2
100
AcDbLine
 10
-878.7500029281023
 20
-912.0485547589019
 30
0.0
 11
-1027.250002928101
 21
-912.0485547589019
 31
0.0
  0
LINE
  5
1C5
330
A0
100
AcDbEntity
  8
1
  6
Continuous
 62
     6
100
AcDbLine
 10
-883.7500029281023
 20
-932.0485547589019
 30
0.0
 11
-1170.750002928101
 21
-932.0485547589019
 31
0.0
  0
LINE
  5
1C6
330
A0
100
AcDbEntity
  8
1
  6
Continuous
 62
     2
100
AcDbLine
 10
-883.7500029281003
 20
-1067.048554758902
 30
0.0
 11
-878.7500029281023
 21
-1067.048554758902
 31
0.0
  0
LINE
  5
1C7
330
A0
100
AcDbEntity
  8
1
  6
Continuous
 62
     6
100
AcDbLine
 10
-883.7500029281003
 20
-1067.048554758902
 30
0.0
 11
-883.7500029281009
 21
-1017.048554758902
 31
0.0
  0
LINE
  5
1C8
330
A0
100
AcDbEntity
  8
1
  6
Continuous
 62
     2
100
AcDbLine
 10
-878.7500029281023
 20
-1067.048554758902
 30
0.0
 11
-878.7500029281023
 21
-1017.048554758902
 31
0.0
  0
LINE
  5
1C9
330
A0
100
AcDbEntity
  8
1
  6
Continuous
 62
     2
100
AcDbLine
 10
-883.7500029281009
 20
-1017.048554758902
 30
0.0
 11
-878.7500029281023
 21
-1017.048554758902
 31
0.0
  0
LINE
  5
1CA
330
A0
100
AcDbEntity
  8
1
  6
Continuous
 62
     6
100
AcDbLine
 10
-883.7500029281009
 20
-1017.048554758902
 30
0.0
 11
-883.750002928102
 21
-967.0485547589019
 31
0.0
  0
LINE
  5
1CB
330
A0
100
AcDbEntity
  8
1
  6
Continuous
 62
     2
100
AcDbLine
 10
-878.7500029281023
 20
-1017.048554758902
 30
0.0
 11
-878.7500029281023
 21
-967.0485547589019
 31
0.0
  0
LINE
  5
1CC
330
A0
100
AcDbEntity
  8
1
  6
Continuous
 62
     2
100
AcDbLine
 10
-883.750002928102
 20
-967.0485547589019
 30
0.0
 11
-878.7500029281023
 21
-967.0485547589019
 31
0.0
  0
LINE
  5
1CD
330
A0
100
AcDbEntity
  8
1
  6
Continuous
 62
     6
100
AcDbLine
 10
-883.750002928102
 20
-967.0485547589019
 30
0.0
 11
-883.7500029281023
 21
-932.0485547589019
 31
0.0
  0
LINE
  5
1CE
330
A0
100
AcDbEntity
  8
1
  6
Continuous
 62
     2
100
AcDbLine
 10
-878.7500029281023
 20
-967.0485547589019
 30
0.0
 11
-878.7500029281023
 21
-912.0485547589019
 31
0.0
  0
LINE
  5
1CF
330
A0
100
AcDbEntity
  8
1
  6
Continuous
 62
     2
100
AcDbLine
 10
-878.7500029281023
 20
-1117.048554758902
 30
0.0
 11
-878.7500029281023
 21
-1067.048554758902
 31
0.0
  0
LINE
  5
1D0
330
A0
100
AcDbEntity
  8
1
  6
Continuous
 62
     2
100
AcDbLine
 10
-1027.250002928101
 20
-912.0485547589019
 30
0.0
 11
-1175.750002928101
 21
-912.0485547589019
 31
0.0
  0
LINE
  5
1D1
330
A0
100
AcDbEntity
  8
1
  6
Continuous
 62
     2
100
AcDbLine
 10
-1027.250002928101
 20
-912.0485547589019
 30
0.0
 11
-1027.250002928101
 21
-921.2572466036032
 31
0.0
  0
LINE
  5
1D2
330
A0
100
AcDbEntity
  8
1
  6
Continuous
 62
     2
100
AcDbLine
 10
-1175.750002928101
 20
-1122.048554758902
 30
0.0
 11
-1170.750002928099
 21
-1122.048554758902
 31
0.0
  0
LINE
  5
1D3
330
A0
100
AcDbEntity
  8
1
  6
Continuous
 62
     2
100
AcDbLine
 10
-1175.750002928101
 20
-912.0485547589019
 30
0.0
 11
-1175.750002928101
 21
-967.0485547589019
 31
0.0
  0
LINE
  5
1D4
330
A0
100
AcDbEntity
  8
1
  6
Continuous
 62
     6
100
AcDbLine
 10
-1170.750002928101
 20
-932.0485547589019
 30
0.0
 11
-1170.7500029281
 21
-967.0485547589019
 31
0.0
  0
LINE
  5
1D5
330
A0
100
AcDbEntity
  8
1
  6
Continuous
 62
     2
100
AcDbLine
 10
-1175.750002928101
 20
-967.0485547589019
 30
0.0
 11
-1170.7500029281
 21
-967.0485547589019
 31
0.0
  0
LINE
  5
1D6
330
A0
100
AcDbEntity
  8
1
  6
Continuous
 62
     2
100
AcDbLine
 10
-1175.750002928101
 20
-967.0485547589019
 30
0.0
 11
-1175.750002928101
 21
-1017.048554758902
 31
0.0
  0
LINE
  5
1D7
330
A0
100
AcDbEntity
  8
1
  6
Continuous
 62
     6
100
AcDbLine
 10
-1170.7500029281
 20
-967.0485547589019
 30
0.0
 11
-1170.7500029281
 21
-1017.048554758902
 31
0.0
  0
LINE
  5
1D8
330
A0
100
AcDbEntity
  8
1
  6
Continuous
 62
     2
100
AcDbLine
 10
-1175.750002928101
 20
-1017.048554758902
 30
0.0
 11
-1170.7500029281
 21
-1017.048554758902
 31
0.0
  0
LINE
  5
1D9
330
A0
100
AcDbEntity
  8
1
  6
Continuous
 62
     2
100
AcDbLine
 10
-1175.750002928101
 20
-1017.048554758902
 30
0.0
 11
-1175.750002928101
 21
-1067.048554758902
 31
0.0
  0
LINE
  5
1DA
330
A0
100
AcDbEntity
  8
1
  6
Continuous
 62
     6
100
AcDbLine
 10
-1170.7500029281
 20
-1017.048554758902
 30
0.0
 11
-1170.7500029281
 21
-1067.048554758902
 31
0.0
  0
LINE
  5
1DB
330
A0
100
AcDbEntity
  8
1
  6
Continuous
 62
     2
100
AcDbLine
 10
-1175.750002928101
 20
-1067.048554758902
 30
0.0
 11
-1170.7500029281
 21
-1067.048554758902
 31
0.0
  0
LINE
  5
1DC
330
A0
100
AcDbEntity
  8
1
  6
Continuous
 62
     2
100
AcDbLine
 10
-1175.750002928101
 20
-1067.048554758902
 30
0.0
 11
-1175.750002928101
 21
-1117.048554758902
 31
0.0
  0
LINE
  5
1DD
330
A0
100
AcDbEntity
  8
1
  6
Continuous
 62
     6
100
AcDbLine
 10
-1170.7500029281
 20
-1067.048554758902
 30
0.0
 11
-1170.750002928099
 21
-1117.048554758902
 31
0.0
  0
LINE
  5
1DE
330
A0
100
AcDbEntity
  8
1
  6
Continuous
 62
     2
100
AcDbLine
 10
-1127.250002928101
 20
-1122.048554758902
 30
0.0
 11
-1127.250002928101
 21
-1117.048554758902
 31
0.0
  0
LINE
  5
1DF
330
A0
100
AcDbEntity
  8
1
  6
Continuous
 62
     2
100
AcDbLine
 10
-1127.250002928101
 20
-1122.048554758902
 30
0.0
 11
-1077.250002928101
 21
-1122.048554758902
 31
0.0
  0
LINE
  5
1E0
330
A0
100
AcDbEntity
  8
1
  6
Continuous
 62
     2
100
AcDbLine
 10
-1077.250002928101
 20
-1122.048554758902
 30
0.0
 11
-1077.250002928101
 21
-1117.048554758902
 31
0.0
  0
LINE
  5
1E1
330
A0
100
AcDbEntity
  8
1
  6
Continuous
 62
     2
100
AcDbLine
 10
-1077.250002928101
 20
-1122.048554758902
 30
0.0
 11
-1027.250002928101
 21
-1122.048554758902
 31
0.0
  0
LINE
  5
1E2
330
A0
100
AcDbEntity
  8
1
  6
Continuous
 62
     2
100
AcDbLine
 10
-1027.250002928101
 20
-1122.048554758902
 30
0.0
 11
-1027.250002928101
 21
-1117.048554758902
 31
0.0
  0
LINE
  5
1E3
330
A0
100
AcDbEntity
  8
1
  6
Continuous
 62
     2
100
AcDbLine
 10
-1027.250002928101
 20
-1122.048554758902
 30
0.0
 11
-977.2500029281013
 21
-1122.048554758902
 31
0.0
  0
LINE
  5
1E4
330
A0
100
AcDbEntity
  8
1
  6
Continuous
 62
     2
100
AcDbLine
 10
-977.2500029281013
 20
-1122.048554758902
 30
0.0
 11
-977.2500029281013
 21
-1117.048554758902
 31
0.0
  0
LINE
  5
1E5
330
A0
100
AcDbEntity
  8
1
  6
Continuous
 62
     2
100
AcDbLine
 10
-927.2500029281013
 20
-1122.048554758902
 30
0.0
 11
-927.2500029281013
 21
-1117.048554758902
 31
0.0
  0
LINE
  5
1E6
330
A0
100
AcDbEntity
  8
1
  6
Continuous
 62
     2
100
AcDbLine
 10
-927.2500029281013
 20
-1122.048554758902
 30
0.0
 11
-977.2500029281013
 21
-1122.048554758902
 31
0.0
  0
LINE
  5
1E7
330
A0
100
AcDbEntity
  8
1
  6
Continuous
 62
     2
100
AcDbLine
 10
-1170.750002928099
 20
-1117.048554758902
 30
0.0
 11
-1170.750002928099
 21
-1122.048554758902
 31
0.0
  0
LINE
  5
1E8
330
A0
100
AcDbEntity
  8
1
  6
Continuous
 62
     2
100
AcDbLine
 10
-1170.750002928099
 20
-1122.048554758902
 30
0.0
 11
-1127.250002928101
 21
-1122.048554758902
 31
0.0
  0
LINE
  5
1E9
330
A0
100
AcDbEntity
  8
1
  6
Continuous
 62
     2
100
AcDbLine
 10
-1170.750002928099
 20
-1117.048554758902
 30
0.0
 11
-1175.750002928101
 21
-1117.048554758902
 31
0.0
  0
LINE
  5
1EA
330
A0
100
AcDbEntity
  8
1
  6
Continuous
 62
     2
100
AcDbLine
 10
-1175.750002928101
 20
-1117.048554758902
 30
0.0
 11
-1175.750002928101
 21
-1122.048554758902
 31
0.0
  0
LINE
  5
1EB
330
A0
100
AcDbEntity
  8
1
  6
Continuous
 62
     6
100
AcDbLine
 10
-883.7500029281013
 20
-1117.048554758902
 30
0.0
 11
-883.7500029281
 21
-1108.548554758902
 31
0.0
  0
LINE
  5
1EC
330
A0
100
AcDbEntity
  8
1
  6
Continuous
 62
     6
100
AcDbLine
 10
-976.8948074548514
 20
-1117.048554758902
 30
0.0
 11
-927.2500029281013
 21
-1117.048554758902
 31
0.0
  0
LINE
  5
1ED
330
A0
100
AcDbEntity
  8
1
  6
Continuous
 62
     6
100
AcDbLine
 10
-1129.550002928102
 20
-1117.048554758902
 30
0.0
 11
-1127.250002928101
 21
-1117.048554758902
 31
0.0
  0
LINE
  5
1EE
330
A0
100
AcDbEntity
  8
1
  6
Continuous
 62
     6
100
AcDbLine
 10
-1027.250002928101
 20
-1117.048554758902
 30
0.0
 11
-1077.250002928101
 21
-1117.048554758902
 31
0.0
  0
LINE
  5
1EF
330
A0
100
AcDbEntity
  8
1
  6
Continuous
 62
     7
100
AcDbLine
 10
-1013.294807454851
 20
-1100.048554758902
 30
0.0
 11
-1013.294807454851
 21
-1112.798554758902
 31
0.0
  0
LINE
  5
1F0
330
A0
100
AcDbEntity
  8
1
  6
Continuous
 62
     7
100
AcDbLine
 10
-976.8948074548514
 20
-1100.048554758902
 30
0.0
 11
-976.8948074548514
 21
-1112.798554758902
 31
0.0
  0
LINE
  5
1F1
330
A0
100
AcDbEntity
  8
1
  6
Continuous
 62
     6
100
AcDbLine
 10
-1129.550002928102
 20
-1117.048554758902
 30
0.0
 11
-1135.7500029281
 21
-1117.048554758902
 31
0.0
  0
LINE
  5
1F2
330
A0
100
AcDbEntity
  8
1
  6
Continuous
 62
     6
100
AcDbLine
 10
-976.8948074548514
 20
-1117.048554758902
 30
0.0
 11
-977.2500029281013
 21
-1117.048554758902
 31
0.0
  0
LINE
  5
1F3
330
A0
100
AcDbEntity
  8
1
  6
Continuous
 62
     6
100
AcDbLine
 10
-883.7500029280995
 20
-1100.048554758902
 30
0.0
 11
-883.7500029281
 21
-1108.548554758902
 31
0.0
  0
LINE
  5
1F4
330
A0
100
AcDbEntity
  8
1
  6
Continuous
 62
     6
100
AcDbLine
 10
-1135.7500029281
 20
-1117.048554758902
 30
0.0
 11
-1170.750002928099
 21
-1117.048554758902
 31
0.0
  0
LINE
  5
1F5
330
A0
100
AcDbEntity
  8
1
  6
Continuous
 62
     2
100
AcDbLine
 10
-1009.058152568289
 20
-1094.673554758902
 30
0.0
 11
-1004.058152568289
 21
-1093.423554758902
 31
0.0
  0
LINE
  5
1F6
330
A0
100
AcDbEntity
  8
1
  6
Continuous
 62
     2
100
AcDbLine
 10
-1009.058152568289
 20
-1097.173554758902
 30
0.0
 11
-1009.058152568289
 21
-1094.673554758902
 31
0.0
  0
LINE
  5
1F7
330
A0
100
AcDbEntity
  8
1
  6
Continuous
 62
     2
100
AcDbLine
 10
-1004.058152568289
 20
-1098.423554758902
 30
0.0
 11
-1009.058152568289
 21
-1097.173554758902
 31
0.0
  0
LINE
  5
1F8
330
A0
100
AcDbEntity
  8
1
  6
Continuous
 62
     2
100
AcDbLine
 10
-1004.058152568289
 20
-1093.423554758902
 30
0.0
 11
-1004.058152568289
 21
-1098.423554758902
 31
0.0
  0
LINE
  5
1F9
330
A0
100
AcDbEntity
  8
1
  6
Continuous
 62
     7
100
AcDbLine
 10
-1013.294807454851
 20
-1112.798554758902
 30
0.0
 11
-995.0948074548512
 21
-1112.798554758902
 31
0.0
  0
LINE
  5
1FA
330
A0
100
AcDbEntity
  8
1
  6
Continuous
 62
     7
100
AcDbLine
 10
-1013.294807454851
 20
-1112.798554758902
 30
0.0
 11
-1013.294807454851
 21
-1117.048554758902
 31
0.0
  0
LINE
  5
1FB
330
A0
100
AcDbEntity
  8
1
  6
Continuous
 62
     7
100
AcDbLine
 10
-976.8948074548514
 20
-1112.798554758902
 30
0.0
 11
-976.8948074548514
 21
-1117.048554758902
 31
0.0
  0
LINE
  5
1FC
330
A0
100
AcDbEntity
  8
1
  6
Continuous
 62
     7
100
AcDbLine
 10
-995.0948074548512
 20
-1112.798554758902
 30
0.0
 11
-995.0948074548512
 21
-1117.048554758902
 31
0.0
  0
LINE
  5
1FD
330
A0
100
AcDbEntity
  8
1
  6
Continuous
 62
     6
100
AcDbLine
 10
-995.0948074548512
 20
-1117.048554758902
 30
0.0
 11
-1013.294807454851
 21
-1117.048554758902
 31
0.0
  0
LINE
  5
1FE
330
A0
100
AcDbEntity
  8
1
  6
Continuous
 62
     7
100
AcDbLine
 10
-995.0948074548512
 20
-1112.798554758902
 30
0.0
 11
-976.8948074548514
 21
-1112.798554758902
 31
0.0
  0
LINE
  5
1FF
330
A0
100
AcDbEntity
  8
1
  6
Continuous
 62
     6
100
AcDbLine
 10
-1013.294807454851
 20
-1091.548554758902
 30
0.0
 11
-883.7500029280995
 21
-1091.548554758902
 31
0.0
  0
ARC
  5
200
102
{ACAD_REACTORS
330
268
330
269
102
}
330
A0
100
AcDbEntity
  8
0
  6
Continuous
 62
     2
100
AcDbCircle
 10
-997.9031594558912
 20
-1108.22814999698
 30
0.0
 40
0.7717997786796852
100
AcDbArc
 50
321.8795802028358
 51
38.12041979716419
  0
ARC
  5
201
102
{ACAD_REACTORS
330
268
330
269
102
}
330
A0
100
AcDbEntity
  8
0
  6
Continuous
 62
     2
100
AcDbCircle
 10
-997.7034194195448
 20
-1108.3848811751
 30
0.0
 40
0.5179085730137529
100
AcDbArc
 50
218.1204197971956
 51
321.8795802027966
  0
ARC
  5
202
102
{ACAD_REACTORS
330
268
330
269
102
}
330
A0
100
AcDbEntity
  8
0
  6
Continuous
 62
     2
100
AcDbCircle
 10
-997.5036793831988
 20
-1108.22814999698
 30
0.0
 40
0.7717997786795062
100
AcDbArc
 50
141.8795802028254
 51
218.1204197971746
  0
ARC
  5
203
102
{ACAD_REACTORS
330
268
330
269
102
}
330
A0
100
AcDbEntity
  8
0
  6
Continuous
 62
     2
100
AcDbCircle
 10
-997.7034194195448
 20
-1108.07141881886
 30
0.0
 40
0.5179085730136636
100
AcDbArc
 50
38.1204197972034
 51
141.8795802028044
  0
ARC
  5
204
102
{ACAD_REACTORS
330
260
330
261
102
}
330
A0
100
AcDbEntity
  8
0
  6
Continuous
 62
     2
100
AcDbCircle
 10
-1000.765433555109
 20
-1109.638616362389
 30
0.0
 40
2.227384008973766
100
AcDbArc
 50
58.06909105003847
 51
71.55192388186445
  0
ARC
  5
205
102
{ACAD_REACTORS
330
260
330
261
102
}
330
A0
100
AcDbEntity
  8
0
  6
Continuous
 62
     2
100
AcDbCircle
 10
-1000.50370585415
 20
-1108.023078567641
 30
0.0
 40
0.5115800601943638
100
AcDbArc
 50
113.3722778882344
 51
151.4785267423619
  0
ARC
  5
206
102
{ACAD_REACTORS
330
260
330
261
102
}
330
A0
100
AcDbEntity
  8
0
  6
Continuous
 62
     2
100
AcDbCircle
 10
-1000.12634859607
 20
-1108.22814999698
 30
0.0
 40
0.9410597353326791
100
AcDbArc
 50
151.4785267422951
 51
208.5214732577049
  0
ARC
  5
207
102
{ACAD_REACTORS
330
260
330
261
102
}
330
A0
100
AcDbEntity
  8
0
  6
Continuous
 62
     2
100
AcDbCircle
 10
-1000.923306430202
 20
-1104.915469051724
 30
0.0
 40
4.852596863497932
100
AcDbArc
 50
275.1581447696242
 51
285.9799912583558
  0
ARC
  5
208
102
{ACAD_REACTORS
330
260
330
261
102
}
330
A0
100
AcDbEntity
  8
0
  6
Continuous
 62
     2
100
AcDbCircle
 10
-1000.634450335466
 20
-1108.115359634945
 30
0.0
 40
1.639695123939433
100
AcDbArc
 50
195.0618917771107
 51
275.1581447696306
  0
ARC
  5
209
102
{ACAD_REACTORS
330
260
330
261
102
}
330
A0
100
AcDbEntity
  8
0
  6
Continuous
 62
     2
100
AcDbCircle
 10
-1001.053578178929
 20
-1108.22814999698
 30
0.0
 40
1.205656168390539
100
AcDbArc
 50
164.9381082228909
 51
195.0618917771196
  0
ARC
  5
20A
102
{ACAD_REACTORS
330
260
330
261
102
}
330
A0
100
AcDbEntity
  8
0
  6
Continuous
 62
     2
100
AcDbCircle
 10
-1000.634450335466
 20
-1108.340940359015
 30
0.0
 40
1.639695123940203
100
AcDbArc
 50
84.84185523036938
 51
164.9381082228969
  0
ARC
  5
20B
102
{ACAD_REACTORS
330
264
330
265
102
}
330
A0
100
AcDbEntity
  8
0
  6
Continuous
 62
     2
100
AcDbCircle
 10
-1005.464464589628
 20
-1107.194323202626
 30
0.0
 40
0.3157169230760881
100
AcDbArc
 50
115.3740086783502
 51
180.0
  0
ARC
  5
20C
102
{ACAD_REACTORS
330
264
330
265
102
}
330
A0
100
AcDbEntity
  8
0
  6
Continuous
 62
     2
100
AcDbCircle
 10
-1005.464464589628
 20
-1104.97604000269
 30
0.0
 40
0.3157169230769341
100
AcDbArc
 50
180.0
 51
244.6259913216321
  0
ARC
  5
20D
102
{ACAD_REACTORS
330
264
330
265
102
}
330
A0
100
AcDbEntity
  8
0
  6
Continuous
 62
     2
100
AcDbCircle
 10
-1005.458848454318
 20
-1106.073339661752
 30
0.0
 40
2.018561131933151
100
AcDbArc
 50
269.8110329575939
 51
90.18896704240609
  0
ARC
  5
20E
102
{ACAD_REACTORS
330
264
330
265
102
}
330
A0
100
AcDbEntity
  8
0
  6
Continuous
 62
     2
100
AcDbCircle
 10
-1005.464464589628
 20
-1107.776174609321
 30
0.0
 40
0.3157169230769341
100
AcDbArc
 50
180.0
 51
269.8110329575211
  0
ARC
  5
20F
102
{ACAD_REACTORS
330
262
330
263
102
}
330
A0
100
AcDbEntity
  8
0
  6
Continuous
 62
     2
100
AcDbCircle
 10
-984.4010043748971
 20
-1108.023078567641
 30
0.0
 40
0.5115800601937612
100
AcDbArc
 50
109.3371432195076
 51
151.4785267424227
  0
ARC
  5
210
102
{ACAD_REACTORS
330
262
330
263
102
}
330
A0
100
AcDbEntity
  8
0
  6
Continuous
 62
     2
100
AcDbCircle
 10
-984.4010043748971
 20
-1108.433221426319
 30
0.0
 40
0.5115800601959901
100
AcDbArc
 50
208.5214732576668
 51
246.6277221118294
  0
ARC
  5
211
102
{ACAD_REACTORS
330
262
330
263
102
}
330
A0
100
AcDbEntity
  8
0
  6
Continuous
 62
     2
100
AcDbCircle
 10
-984.9508766996745
 20
-1108.22814999698
 30
0.0
 40
1.205656168392844
100
AcDbArc
 50
164.9381082229203
 51
195.0618917770901
  0
ARC
  5
212
102
{ACAD_REACTORS
330
262
330
263
102
}
330
A0
100
AcDbEntity
  8
0
  6
Continuous
 62
     2
100
AcDbCircle
 10
-984.5317488562129
 20
-1108.340940359015
 30
0.0
 40
1.639695123939873
100
AcDbArc
 50
90.0
 51
164.9381082229062
  0
ARC
  5
213
102
{ACAD_REACTORS
330
266
330
267
102
}
330
A0
100
AcDbEntity
  8
0
  6
Continuous
 62
     2
100
AcDbCircle
 10
-993.9587439489165
 20
-1104.868959520806
 30
0.0
 40
1.526904761905826
100
AcDbArc
 50
90.0
 51
270.0
  0
ARC
  5
214
102
{ACAD_REACTORS
330
26A
330
26B
102
}
330
A0
100
AcDbEntity
  8
0
  6
Continuous
 62
     2
100
AcDbCircle
 10
-1000.701434694142
 20
-1104.358024429011
 30
0.0
 40
0.3528638246718856
100
AcDbArc
 50
270.0
 51
90.0
  0
ARC
  5
215
102
{ACAD_REACTORS
330
264
330
265
102
}
330
A0
100
AcDbEntity
  8
0
  6
Continuous
 62
     2
100
AcDbCircle
 10
-1008.040013276159
 20
-1104.370327237535
 30
0.0
 40
0.3157169230760246
100
AcDbArc
 50
90.0
 51
180.0
  0
ARC
  5
216
102
{ACAD_REACTORS
330
264
330
265
102
}
330
A0
100
AcDbEntity
  8
0
  6
Continuous
 62
     2
100
AcDbCircle
 10
-1006.041595567575
 20
-1106.085181602658
 30
0.0
 40
0.9118975235577705
100
AcDbArc
 50
115.1944106484861
 51
244.8055893515199
  0
ARC
  5
217
102
{ACAD_REACTORS
330
264
330
265
102
}
330
A0
100
AcDbEntity
  8
0
  6
Continuous
 62
     2
100
AcDbCircle
 10
-1006.56418001515
 20
-1107.19601134872
 30
0.0
 40
0.3157169230769341
100
AcDbArc
 50
0.0
 51
64.80558935130985
  0
ARC
  5
218
102
{ACAD_REACTORS
330
264
330
265
102
}
330
A0
100
AcDbEntity
  8
0
  6
Continuous
 62
     2
100
AcDbCircle
 10
-1008.633907952906
 20
-1109.330810143502
 30
0.0
 40
0.4242446153829178
100
AcDbArc
 50
180.0
 51
270.0
  0
ARC
  5
219
102
{ACAD_REACTORS
330
266
330
267
102
}
330
A0
100
AcDbEntity
  8
0
  6
Continuous
 62
     2
100
AcDbCircle
 10
-993.7424719387514
 20
-1104.712228342685
 30
0.0
 40
0.5179085730131405
100
AcDbArc
 50
38.12041979708892
 51
141.8795802029033
  0
ARC
  5
21A
102
{ACAD_REACTORS
330
266
330
267
102
}
330
A0
100
AcDbEntity
  8
0
  6
Continuous
 62
     2
100
AcDbCircle
 10
-993.5427319024051
 20
-1104.868959520806
 30
0.0
 40
0.7717997786795447
100
AcDbArc
 50
141.8795802028491
 51
218.1204197971642
  0
ARC
  5
21B
102
{ACAD_REACTORS
330
268
330
269
102
}
330
A0
100
AcDbEntity
  8
0
  6
Continuous
 62
     2
100
AcDbCircle
 10
-997.7034194195448
 20
-1107.689574986677
 30
0.0
 40
2.065479772208722
100
AcDbArc
 50
242.4518518243441
 51
297.5481481756838
  0
ARC
  5
21C
102
{ACAD_REACTORS
330
268
330
269
102
}
330
A0
100
AcDbEntity
  8
0
  6
Continuous
 62
     2
100
AcDbCircle
 10
-997.7034194195448
 20
-1108.766725007283
 30
0.0
 40
2.06547977220824
100
AcDbArc
 50
62.45185182430162
 51
117.5481481756704
  0
ARC
  5
21D
102
{ACAD_REACTORS
330
268
330
269
102
}
330
A0
100
AcDbEntity
  8
0
  6
Continuous
 62
     2
100
AcDbCircle
 10
-997.9843593113782
 20
-1108.22814999698
 30
0.0
 40
1.458034083650935
100
AcDbArc
 50
117.5481481756713
 51
242.4518518243493
  0
ARC
  5
21E
102
{ACAD_REACTORS
330
268
330
269
102
}
330
A0
100
AcDbEntity
  8
0
  6
Continuous
 62
     2
100
AcDbCircle
 10
-997.4224795277116
 20
-1108.22814999698
 30
0.0
 40
1.458034083652521
100
AcDbArc
 50
297.5481481756942
 51
62.45185182428514
  0
ARC
  5
21F
102
{ACAD_REACTORS
330
266
330
267
102
}
330
A0
100
AcDbEntity
  8
0
  6
Continuous
 62
     2
100
AcDbCircle
 10
-993.7424719387514
 20
-1105.025690698926
 30
0.0
 40
0.5179085730137529
100
AcDbArc
 50
218.1204197971956
 51
321.8795802028121
  0
ARC
  5
220
102
{ACAD_REACTORS
330
266
330
267
102
}
330
A0
100
AcDbEntity
  8
0
  6
Continuous
 62
     2
100
AcDbCircle
 10
-993.9422119750975
 20
-1104.868959520806
 30
0.0
 40
0.7717997786796852
100
AcDbArc
 50
321.8795802028358
 51
38.12041979715091
  0
ARC
  5
221
102
{ACAD_REACTORS
330
264
330
265
102
}
330
A0
100
AcDbEntity
  8
0
  6
Continuous
 62
     2
100
AcDbCircle
 10
-1003.160595862189
 20
-1109.330810143502
 30
0.0
 40
0.424244615383941
100
AcDbArc
 50
270.0
 51
0.0
  0
ARC
  5
222
102
{ACAD_REACTORS
330
264
330
265
102
}
330
A0
100
AcDbEntity
  8
0
  6
Continuous
 62
     2
100
AcDbCircle
 10
-1003.160595862189
 20
-1103.766299374302
 30
0.0
 40
0.424244615383941
100
AcDbArc
 50
0.0
 51
90.0
  0
ARC
  5
223
102
{ACAD_REACTORS
330
264
330
265
102
}
330
A0
100
AcDbEntity
  8
0
  6
Continuous
 62
     2
100
AcDbCircle
 10
-1008.633907952906
 20
-1103.766299374302
 30
0.0
 40
0.424244615383941
100
AcDbArc
 50
90.0
 51
180.0
  0
ARC
  5
224
102
{ACAD_REACTORS
330
264
330
265
102
}
330
A0
100
AcDbEntity
  8
0
  6
Continuous
 62
     2
100
AcDbCircle
 10
-1006.56418001515
 20
-1108.726782280252
 30
0.0
 40
0.3157169230769341
100
AcDbArc
 50
270.0
 51
0.0
  0
ARC
  5
225
102
{ACAD_REACTORS
330
264
330
265
102
}
330
A0
100
AcDbEntity
  8
0
  6
Continuous
 62
     2
100
AcDbCircle
 10
-1006.56418001515
 20
-1104.974351856595
 30
0.0
 40
0.3157169230767223
100
AcDbArc
 50
295.1944106486023
 51
0.0
  0
ARC
  5
226
102
{ACAD_REACTORS
330
264
330
265
102
}
330
A0
100
AcDbEntity
  8
0
  6
Continuous
 62
     2
100
AcDbCircle
 10
-1006.56418001515
 20
-1104.370327237535
 30
0.0
 40
0.3157169230769341
100
AcDbArc
 50
0.0
 51
90.0
  0
ARC
  5
227
102
{ACAD_REACTORS
330
264
330
265
102
}
330
A0
100
AcDbEntity
  8
0
  6
Continuous
 62
     2
100
AcDbCircle
 10
-1008.040013276159
 20
-1108.726782280252
 30
0.0
 40
0.3157169230760246
100
AcDbArc
 50
180.0
 51
270.0
  0
ARC
  5
228
102
{ACAD_REACTORS
330
26A
330
26B
102
}
330
A0
100
AcDbEntity
  8
0
  6
Continuous
 62
     2
100
AcDbCircle
 10
-1000.259962167904
 20
-1104.397420400234
 30
0.0
 40
1.055365641332855
100
AcDbArc
 50
270.0
 51
90.0
  0
ARC
  5
229
102
{ACAD_REACTORS
330
262
330
263
102
}
330
A0
100
AcDbEntity
  8
0
  6
Continuous
 62
     2
100
AcDbCircle
 10
-984.5317488562129
 20
-1108.115359634945
 30
0.0
 40
1.639695123940421
100
AcDbArc
 50
195.0618917771015
 51
275.1581447696745
  0
ARC
  5
22A
102
{ACAD_REACTORS
330
262
330
263
102
}
330
A0
100
AcDbEntity
  8
0
  6
Continuous
 62
     2
100
AcDbCircle
 10
-984.8206049509487
 20
-1104.915469051724
 30
0.0
 40
4.852596863499167
100
AcDbArc
 50
275.1581447696363
 51
285.979991258339
  0
ARC
  5
22B
102
{ACAD_REACTORS
330
262
330
263
102
}
330
A0
100
AcDbEntity
  8
0
  6
Continuous
 62
     2
100
AcDbCircle
 10
-984.6627320758558
 20
-1106.817683631572
 30
0.0
 40
2.227384008973474
100
AcDbArc
 50
288.4480761181272
 51
301.9309089499342
  0
ARC
  5
22C
102
{ACAD_REACTORS
330
262
330
263
102
}
330
A0
100
AcDbEntity
  8
0
  6
Continuous
 62
     2
100
AcDbCircle
 10
-984.2445643421939
 20
-1108.071229407609
 30
0.0
 40
0.9059297849850417
100
AcDbArc
 50
246.6277221118078
 51
288.448076118076
  0
ARC
  5
22D
102
{ACAD_REACTORS
330
262
330
263
102
}
330
A0
100
AcDbEntity
  8
0
  6
Continuous
 62
     2
100
AcDbCircle
 10
-984.0236471168157
 20
-1108.22814999698
 30
0.0
 40
0.9410597353348766
100
AcDbArc
 50
151.4785267423678
 51
208.521473257693
  0
ARC
  5
22E
102
{ACAD_REACTORS
330
262
330
263
102
}
330
A0
100
AcDbEntity
  8
0
  6
Continuous
 62
     2
100
AcDbCircle
 10
-984.2543343767934
 20
-1108.441033548024
 30
0.0
 40
0.9545230068260935
100
AcDbArc
 50
90.0
 51
109.3371432194401
  0
ARC
  5
22F
102
{ACAD_REACTORS
330
264
330
265
102
}
330
A0
100
AcDbEntity
  8
0
  6
Continuous
 62
     2
100
AcDbCircle
 10
-1005.464464589628
 20
-1104.370504714183
 30
0.0
 40
0.315716923076013
100
AcDbArc
 50
90.18896704247891
 51
180.0
  0
ARC
  5
230
102
{ACAD_REACTORS
330
264
330
265
102
}
330
A0
100
AcDbEntity
  8
0
  6
Continuous
 62
     2
100
AcDbCircle
 10
-1005.990507287716
 20
-1106.085181602658
 30
0.0
 40
0.9118481501446578
100
AcDbArc
 50
295.3740086781903
 51
64.62599132180969
  0
ARC
  5
231
102
{ACAD_REACTORS
330
260
330
261
102
}
330
A0
100
AcDbEntity
  8
0
  6
Continuous
 62
     2
100
AcDbCircle
 10
-1000.765433555109
 20
-1106.817683631572
 30
0.0
 40
2.227384008972719
100
AcDbArc
 50
288.4480761181429
 51
301.930908949977
  0
ARC
  5
232
102
{ACAD_REACTORS
330
260
330
261
102
}
330
A0
100
AcDbEntity
  8
0
  6
Continuous
 62
     2
100
AcDbCircle
 10
-1000.347265821448
 20
-1108.071229407609
 30
0.0
 40
0.9059297849846808
100
AcDbArc
 50
246.6277221118606
 51
288.4480761181692
  0
ARC
  5
233
102
{ACAD_REACTORS
330
260
330
261
102
}
330
A0
100
AcDbEntity
  8
0
  6
Continuous
 62
     2
100
AcDbCircle
 10
-1000.50370585415
 20
-1108.433221426319
 30
0.0
 40
0.5115800601944485
100
AcDbArc
 50
208.5214732576157
 51
246.627722111806
  0
ARC
  5
234
102
{ACAD_REACTORS
330
260
330
261
102
}
330
A0
100
AcDbEntity
  8
0
  6
Continuous
 62
     2
100
AcDbCircle
 10
-1000.347265821448
 20
-1108.385070586352
 30
0.0
 40
0.9059297849856465
100
AcDbArc
 50
71.55192388184894
 51
113.3722778881394
  0
ARC
  5
235
102
{ACAD_REACTORS
330
260
330
261
102
}
330
A0
100
AcDbEntity
  8
0
  6
Continuous
 62
     2
100
AcDbCircle
 10
-1000.923306430202
 20
-1111.540830942236
 30
0.0
 40
4.852596863498252
100
AcDbArc
 50
74.02000874164347
 51
84.84185523037584
  0
CIRCLE
  5
236
102
{ACAD_REACTORS
330
264
330
265
102
}
330
A0
100
AcDbEntity
  8
0
  6
Continuous
 62
     2
100
AcDbCircle
 10
-1006.014322302388
 20
-1106.085181602658
 30
0.0
 40
0.470978932777939
  0
CIRCLE
  5
237
330
A0
100
AcDbEntity
  8
1
  6
Continuous
 62
     2
100
AcDbCircle
 10
-1000.558152568289
 20
-1095.923554758902
 30
0.0
 40
1.250000000000227
  0
CIRCLE
  5
238
330
A0
100
AcDbEntity
  8
1
  6
Continuous
 62
     2
100
AcDbCircle
 10
-1000.558152568289
 20
-1095.923554758902
 30
0.0
 40
2.500000000000227
  0
TEXT
  5
239
330
A0
100
AcDbEntity
  8
1
 62
     7
100
AcDbText
 10
-957.9212597328375
 20
-1098.748554758902
 30
0.0
 40
2.5
  1
/
 41
0.9
  7
CONVERTER_11
100
AcDbText
  0
TEXT
  5
23B
330
A0
100
AcDbEntity
  8
1
 62
     7
100
AcDbText
 10
-955.7648952357955
 20
-1098.748554758902
 30
0.0
 40
2.5
  1
01
 41
0.81
  7
CONVERTER_12
100
AcDbText
  0
TEXT
  5
23C
330
A0
100
AcDbEntity
  8
1
 62
     3
100
AcDbText
 10
-918.1684112097784
 20
-1098.748554758902
 30
0.0
 40
2.5
  1
29.03.2018
 41
0.81
  7
CONVERTER_12
100
AcDbText
  0
MTEXT
  5
23D
330
A0
100
AcDbEntity
  8
1
 62
     2
100
AcDbMText
 10
-918.1684112097784
 20
-1092.548554758902
 30
0.0
 40
1.8
 41
0.0
 71
     1
 72
     1
  1
date
  7
CONVERTER_11
 73
     1
 44
1.32052821128451
  0
MTEXT
  5
23E
330
A0
100
AcDbEntity
  8
1
 62
     2
100
AcDbMText
 10
-947.9948074548513
 20
-1101.048554758902
 30
0.0
 40
1.8
 41
0.0
 71
     1
 72
     1
  1
document-type
  7
CONVERTER_11
 73
     1
 44
1.20048019207683
  0
TEXT
  5
23F
330
A0
100
AcDbEntity
  8
1
 62
     3
100
AcDbText
 10
-947.9948074548513
 20
-1107.248554758902
 30
0.0
 40
2.5
  1
TECDOC 2D_Productdrawing
 41
0.81
  7
CONVERTER_12
100
AcDbText
  0
MTEXT
  5
241
330
A0
100
AcDbEntity
  8
1
 62
     2
100
AcDbMText
 10
-975.7948074548513
 20
-1092.548554758902
 30
0.0
 40
1.8
 41
0.0
 71
     1
 72
     1
  1
document-No. / RI
  7
CONVERTER_13
 73
     1
 44
1.32052821128451
  0
TEXT
  5
242
330
A0
100
AcDbEntity
  8
1
 62
     7
100
AcDbText
 10
-975.7948074548513
 20
-1098.748554758902
 30
0.0
 40
2.5
  1
40204110
 41
0.81
  7
CONVERTER_12
100
AcDbText
  0
MTEXT
  5
244
330
A0
100
AcDbEntity
  8
1
 62
     3
100
AcDbMText
 10
-888.209207068939
 20
-1098.748554758902
 30
0.0
 40
2.5
 41
0.0
 71
     8
 72
     1
  1
5:1
  7
CONVERTER_14
 73
     1
 44
1.32052821128451
  0
MTEXT
  5
245
330
A0
100
AcDbEntity
  8
1
 62
     2
100
AcDbMText
 10
-891.5684112097786
 20
-1092.548554758902
 30
0.0
 40
1.8
 41
0.0
 71
     1
 72
     1
  1
scale
  7
CONVERTER_11
 73
     1
 44
1.20048019207683
  0
MTEXT
  5
246
330
A0
100
AcDbEntity
  8
1
 62
     2
100
AcDbMText
 10
-975.7948074548513
 20
-1101.048554758902
 30
0.0
 40
1.8
 41
0.0
 71
     1
 72
     1
  1
ident.-No.
  7
CONVERTER_11
 73
     1
 44
1.20048019207683
  0
TEXT
  5
247
330
A0
100
AcDbEntity
  8
1
 62
     7
100
AcDbText
 10
-975.3948074548516
 20
-1107.248554758902
 30
0.0
 40
2.5
  1
0824941
 41
0.81
  7
CONVERTER_12
100
AcDbText
  0
MTEXT
  5
248
330
A0
100
AcDbEntity
  8
1
 62
     2
100
AcDbMText
 10
-1047.732822179899
 20
-1104.298554758902
 30
0.0
 40
2.0
 41
0.0
 71
     5
 72
     1
  1
General Information\P- Simplified representation\P- Document excluded from change process\P- Linear dimensions [mm]
  7
CONVERTER_11
 73
     1
 44
1.20048019207683
  0
MTEXT
  5
249
330
A0
100
AcDbEntity
  8
1
 62
     7
100
AcDbMText
 10
-881.2500029281023
 20
-1042.0485547589
 30
0.0
 40
3.5
 41
0.0
 71
     5
 72
     1
  1
C
  7
CONVERTER_11
 73
     1
 44
1.20048019207683
  0
MTEXT
  5
24A
330
A0
100
AcDbEntity
  8
1
 62
     7
100
AcDbMText
 10
-881.2500029281023
 20
-939.5485547589019
 30
0.0
 40
3.5
 41
0.0
 71
     5
 72
     1
  1
A
  7
CONVERTER_11
 73
     1
 44
1.20048019207683
  0
MTEXT
  5
24B
330
A0
100
AcDbEntity
  8
1
 62
     7
100
AcDbMText
 10
-881.2500029281023
 20
-992.0485547589
 30
0.0
 40
3.5
 41
0.0
 71
     5
 72
     1
  1
B
  7
CONVERTER_11
 73
     1
 44
1.20048019207683
  0
MTEXT
  5
24C
330
A0
100
AcDbEntity
  8
1
 62
     7
100
AcDbMText
 10
-881.2500029281023
 20
-1094.548554758902
 30
0.0
 40
3.5
 41
0.0
 71
     5
 72
     1
  1
D
  7
CONVERTER_11
 73
     1
 44
1.20048019207683
  0
MTEXT
  5
24D
330
A0
100
AcDbEntity
  8
1
 62
     7
100
AcDbMText
 10
-1151.500002928101
 20
-1119.548554758902
 30
0.0
 40
3.5
 41
0.0
 71
     5
 72
     1
  1
1
  7
CONVERTER_11
 73
     1
 44
1.20048019207683
  0
MTEXT
  5
24E
330
A0
100
AcDbEntity
  8
1
 62
     7
100
AcDbMText
 10
-1102.250002928101
 20
-1119.548554758902
 30
0.0
 40
3.5
 41
0.0
 71
     5
 72
     1
  1
2
  7
CONVERTER_11
 73
     1
 44
1.20048019207683
  0
MTEXT
  5
24F
330
A0
100
AcDbEntity
  8
1
 62
     7
100
AcDbMText
 10
-1052.250002928101
 20
-1119.548554758902
 30
0.0
 40
3.5
 41
0.0
 71
     5
 72
     1
  1
3
  7
CONVERTER_11
 73
     1
 44
1.20048019207683
  0
MTEXT
  5
250
330
A0
100
AcDbEntity
  8
1
 62
     7
100
AcDbMText
 10
-1002.250002928101
 20
-1119.548554758902
 30
0.0
 40
3.5
 41
0.0
 71
     5
 72
     1
  1
4
  7
CONVERTER_11
 73
     1
 44
1.20048019207683
  0
MTEXT
  5
251
330
A0
100
AcDbEntity
  8
1
 62
     7
100
AcDbMText
 10
-952.2500029281013
 20
-1119.548554758902
 30
0.0
 40
3.5
 41
0.0
 71
     5
 72
     1
  1
5
  7
CONVERTER_11
 73
     1
 44
1.20048019207683
  0
MTEXT
  5
252
330
A0
100
AcDbEntity
  8
1
 62
     7
100
AcDbMText
 10
-903.000002928102
 20
-1119.548554758902
 30
0.0
 40
3.5
 41
0.0
 71
     5
 72
     1
  1
6
  7
CONVERTER_11
 73
     1
 44
1.20048019207683
  0
MTEXT
  5
253
330
A0
100
AcDbEntity
  8
1
 62
     7
100
AcDbMText
 10
-1173.250002928101
 20
-939.5485547589019
 30
0.0
 40
3.5
 41
0.0
 71
     5
 72
     1
  1
A
  7
CONVERTER_11
 73
     1
 44
1.20048019207683
  0
MTEXT
  5
254
330
A0
100
AcDbEntity
  8
1
 62
     7
100
AcDbMText
 10
-1173.250002928101
 20
-992.0485547589019
 30
0.0
 40
3.5
 41
0.0
 71
     5
 72
     1
  1
B
  7
CONVERTER_11
 73
     1
 44
1.20048019207683
  0
MTEXT
  5
255
330
A0
100
AcDbEntity
  8
1
 62
     7
100
AcDbMText
 10
-1173.250002928101
 20
-1042.048554758902
 30
0.0
 40
3.5
 41
0.0
 71
     5
 72
     1
  1
C
  7
CONVERTER_11
 73
     1
 44
1.20048019207683
  0
MTEXT
  5
256
330
A0
100
AcDbEntity
  8
1
 62
     7
100
AcDbMText
 10
-1173.250002928101
 20
-1094.548554758902
 30
0.0
 40
3.5
 41
0.0
 71
     5
 72
     1
  1
D
  7
CONVERTER_11
 73
     1
 44
1.20048019207683
  0
MTEXT
  5
257
330
A0
100
AcDbEntity
  8
1
 62
     3
100
AcDbMText
 10
-987.0948074548514
 20
-1095.923554758902
 30
0.0
 40
2.5
 41
0.0
 71
     5
 72
     1
  1
DIN A4
  7
CONVERTER_11
 73
     1
 44
1.20048019207683
  0
MTEXT
  5
258
330
A0
100
AcDbEntity
  8
1
 62
     2
100
AcDbMText
 10
-975.8948074548514
 20
-1109.548554758902
 30
0.0
 40
1.8
 41
0.0
 71
     1
 72
     1
  1
description
  7
CONVERTER_11
 73
     1
 44
1.20048019207683
  0
MTEXT
  5
259
330
A0
100
AcDbEntity
  8
1
 62
     7
100
AcDbMText
 10
-930.3224051914758
 20
-1113.798554758902
 30
0.0
 40
3.0
 41
0.0
 71
     5
 72
     1
  1
ZB 10 CUS
  7
CONVERTER_12
 73
     1
 44
1.20048019207683
  0
TEXT
  5
25A
330
A0
100
AcDbEntity
  8
1
 62
     2
100
AcDbText
 10
-988.8594986450378
 20
-1115.798554758902
 30
0.0
 40
1.8
  1
1
 41
0.9
  7
CONVERTER_11
100
AcDbText
  0
TEXT
  5
25B
330
A0
100
AcDbEntity
  8
1
 62
     2
100
AcDbText
 10
-1003.648542484509
 20
-1115.847803412704
 30
0.0
 40
1.8
  1
1
 41
0.9
  7
CONVERTER_11
100
AcDbText
  0
TEXT
  5
25C
330
A0
100
AcDbEntity
  8
1
 62
     2
100
AcDbText
 10
-1012.294807454851
 20
-1115.807571973894
 30
0.0
 40
1.8
  1
page
 41
0.9
  7
CONVERTER_11
100
AcDbText
  0
TEXT
  5
25D
330
A0
100
AcDbEntity
  8
1
 62
     2
100
AcDbText
 10
-994.0948074548514
 20
-1115.807571973894
 30
0.0
 40
1.8
  1
of
 41
0.9
  7
CONVERTER_11
100
AcDbText
  0
MTEXT
  5
25E
330
A0
100
AcDbEntity
  8
1
 62
     3
100
AcDbMText
 10
-987.8918253032414
 20
-930.2572466036031
 30
0.0
 40
1.8
 41
0.0
 71
     7
 72
     1
  3
Transfer or duplication of this document as well as the utilisation or\Pcommunication of its content are not permitted unless express consent\Pis granted. Violations give rise to claims for damages. All rights reserved\Pin case of patent, utility mo
  1
del or design patent registrations.
  7
CONVERTER_11
 73
     1
 44
0.99639855942377
  0
MTEXT
  5
25F
330
A0
100
AcDbEntity
  8
1
 62
     3
100
AcDbMText
 10
-1170.74493514203
 20
-930.2572466036031
 30
0.0
 40
1.8
 41
0.0
 71
     7
 72
     1
  3
Weitergabe sowie Vervielfältigung dieses Dokuments, Verwertung und \PMitteilung seines Inhalts sind verboten, soweit nicht ausdrücklich gestattet. \PZuwiderhandlungen verpflichten zu Schadenersatz. Alle Rechte für den Fall\Pder Patent-, Gebrauchsmus
  1
ter- oder Designeintragung vorbehalten.
  7
CONVERTER_11
 73
     1
 44
0.99639855942377
  0
HATCH
  5
260
330
A0
100
AcDbEntity
  8
1
  6
Continuous
 62
     2
100
AcDbHatch
 10
0.0
 20
0.0
 30
0.0
210
0.0
220
0.0
230
1.0
  2
_USER
 70
     0
 71
     1
 91
        1
 92
        1
 93
       14
 72
     2
 10
-1001.053578178929
 20
-1108.22814999698
 40
1.205656168390539
 50
164.9381082228909
 51
195.0618917771196
 73
     1
 72
     2
 10
-1000.634450335466
 20
-1108.115359634945
 40
1.639695123939433
 50
195.0618917771107
 51
275.1581447696306
 73
     1
 72
     2
 10
-1000.923306430202
 20
-1104.915469051724
 40
4.852596863497932
 50
275.1581447696242
 51
285.9799912583558
 73
     1
 72
     1
 10
-999.5873785130839
 20
-1109.580551357525
 11
-999.5873785130839
 21
-1108.708034350721
 72
     2
 10
-1000.765433555109
 20
-1106.817683631572
 40
2.227384008972719
 50
58.069091050023
 51
71.55192388185705
 73
     0
 72
     2
 10
-1000.347265821448
 20
-1108.071229407609
 40
0.9059297849846808
 50
71.55192388183075
 51
113.3722778881394
 73
     0
 72
     2
 10
-1000.50370585415
 20
-1108.433221426319
 40
0.5115800601944485
 50
113.372277888194
 51
151.4785267423843
 73
     0
 72
     2
 10
-1000.12634859607
 20
-1108.22814999698
 40
0.9410597353326791
 50
151.4785267422951
 51
208.5214732577049
 73
     0
 72
     2
 10
-1000.50370585415
 20
-1108.023078567641
 40
0.5115800601943638
 50
208.5214732576381
 51
246.6277221117656
 73
     0
 72
     2
 10
-1000.347265821448
 20
-1108.385070586352
 40
0.9059297849856465
 50
246.6277221118606
 51
288.4480761181511
 73
     0
 72
     2
 10
-1000.765433555109
 20
-1109.638616362389
 40
2.227384008973766
 50
288.4480761181355
 51
301.9309089499615
 73
     0
 72
     1
 10
-999.5873785130839
 20
-1107.748265643239
 11
-999.5873785130839
 21
-1106.875748636435
 72
     2
 10
-1000.923306430202
 20
-1111.540830942236
 40
4.852596863498252
 50
74.02000874164347
 51
84.84185523037584
 73
     1
 72
     2
 10
-1000.634450335466
 20
-1108.340940359015
 40
1.639695123940203
 50
84.84185523036938
 51
164.9381082228969
 73
     1
 97
       14
330
235
330
14E
330
204
330
234
330
205
330
206
330
233
330
232
330
231
330
14F
330
207
330
208
330
209
330
20A
 75
     1
 76
     0
 52
45.0
 41
0.1
 77
     0
 78
     1
 53
45.0
 43
0.0
 44
0.0
 45
-0.0707106781186548
 46
0.0707106781186548
 79
     0
 98
        1
 10
0.0
 20
0.0
  0
HATCH
  5
261
330
A0
100
AcDbEntity
  8
1
  6
Continuous
 62
     2
100
AcDbHatch
 10
0.0
 20
0.0
 30
0.0
210
0.0
220
0.0
230
1.0
  2
_USER
 70
     0
 71
     1
 91
        1
 92
        1
 93
       14
 72
     2
 10
-1001.053578178929
 20
-1108.22814999698
 40
1.205656168390539
 50
164.9381082228909
 51
195.0618917771196
 73
     1
 72
     2
 10
-1000.634450335466
 20
-1108.115359634945
 40
1.639695123939433
 50
195.0618917771107
 51
275.1581447696306
 73
     1
 72
     2
 10
-1000.923306430202
 20
-1104.915469051724
 40
4.852596863497932
 50
275.1581447696242
 51
285.9799912583558
 73
     1
 72
     1
 10
-999.5873785130839
 20
-1109.580551357525
 11
-999.5873785130839
 21
-1108.708034350721
 72
     2
 10
-1000.765433555109
 20
-1106.817683631572
 40
2.227384008972719
 50
58.069091050023
 51
71.55192388185705
 73
     0
 72
     2
 10
-1000.347265821448
 20
-1108.071229407609
 40
0.9059297849846808
 50
71.55192388183075
 51
113.3722778881394
 73
     0
 72
     2
 10
-1000.50370585415
 20
-1108.433221426319
 40
0.5115800601944485
 50
113.372277888194
 51
151.4785267423843
 73
     0
 72
     2
 10
-1000.12634859607
 20
-1108.22814999698
 40
0.9410597353326791
 50
151.4785267422951
 51
208.5214732577049
 73
     0
 72
     2
 10
-1000.50370585415
 20
-1108.023078567641
 40
0.5115800601943638
 50
208.5214732576381
 51
246.6277221117656
 73
     0
 72
     2
 10
-1000.347265821448
 20
-1108.385070586352
 40
0.9059297849856465
 50
246.6277221118606
 51
288.4480761181511
 73
     0
 72
     2
 10
-1000.765433555109
 20
-1109.638616362389
 40
2.227384008973766
 50
288.4480761181355
 51
301.9309089499615
 73
     0
 72
     1
 10
-999.5873785130839
 20
-1107.748265643239
 11
-999.5873785130839
 21
-1106.875748636435
 72
     2
 10
-1000.923306430202
 20
-1111.540830942236
 40
4.852596863498252
 50
74.02000874164347
 51
84.84185523037584
 73
     1
 72
     2
 10
-1000.634450335466
 20
-1108.340940359015
 40
1.639695123940203
 50
84.84185523036938
 51
164.9381082228969
 73
     1
 97
       14
330
235
330
14E
330
204
330
234
330
205
330
206
330
233
330
232
330
231
330
14F
330
207
330
208
330
209
330
20A
 75
     1
 76
     0
 52
45.0
 41
0.1
 77
     0
 78
     1
 53
45.0
 43
0.0
 44
0.0
 45
-0.0707106781186548
 46
0.0707106781186548
 79
     0
 98
        1
 10
0.0
 20
0.0
  0
HATCH
  5
262
330
A0
100
AcDbEntity
  8
1
  6
Continuous
 62
     2
100
AcDbHatch
 10
0.0
 20
0.0
 30
0.0
210
0.0
220
0.0
230
1.0
  2
_USER
 70
     0
 71
     1
 91
        1
 92
        1
 93
       18
 72
     2
 10
-984.5317488562129
 20
-1108.340940359015
 40
1.639695123939873
 50
90.0
 51
164.9381082229062
 73
     1
 72
     2
 10
-984.9508766996745
 20
-1108.22814999698
 40
1.205656168392844
 50
164.9381082229203
 51
195.0618917770901
 73
     1
 72
     2
 10
-984.5317488562129
 20
-1108.115359634945
 40
1.639695123940421
 50
195.0618917771015
 51
275.1581447696745
 73
     1
 72
     2
 10
-984.8206049509487
 20
-1104.915469051724
 40
4.852596863499167
 50
275.1581447696363
 51
285.979991258339
 73
     1
 72
     1
 10
-983.484677033832
 20
-1109.580551357525
 11
-983.484677033832
 21
-1108.708034350722
 72
     2
 10
-984.6627320758558
 20
-1106.817683631572
 40
2.227384008973474
 50
58.06909105006579
 51
71.55192388187278
 73
     0
 72
     2
 10
-984.2445643421939
 20
-1108.071229407609
 40
0.9059297849850417
 50
71.55192388192397
 51
113.3722778881922
 73
     0
 72
     2
 10
-984.4010043748971
 20
-1108.433221426319
 40
0.5115800601959901
 50
113.3722778881707
 51
151.4785267423332
 73
     0
 72
     2
 10
-984.0236471168157
 20
-1108.22814999698
 40
0.9410597353348766
 50
151.478526742307
 51
208.5214732576322
 73
     0
 72
     2
 10
-984.4010043748971
 20
-1108.023078567641
 40
0.5115800601937612
 50
208.5214732575773
 51
250.6628567804924
 73
     0
 72
     2
 10
-984.2543343767934
 20
-1108.441033548024
 40
0.9545230068260935
 50
250.6628567805599
 51
270.0
 73
     0
 72
     1
 10
-984.2543343767934
 20
-1107.486510541198
 11
-983.1506950772252
 21
-1107.486510541198
 72
     1
 10
-983.1506950772252
 20
-1107.486510541198
 11
-983.1506950772252
 21
-1109.755054758886
 72
     1
 10
-983.1506950772252
 20
-1109.755054758886
 11
-981.9579023750575
 21
-1109.755054758886
 72
     1
 10
-981.9579023750575
 20
-1109.755054758886
 11
-981.9579023750575
 21
-1107.486510541198
 72
     1
 10
-981.9579023750575
 20
-1107.486510541198
 11
-981.1468033375842
 21
-1107.486510541198
 72
     1
 10
-981.1468033375842
 20
-1107.486510541198
 11
-981.1468033375842
 21
-1106.701245235075
 72
     1
 10
-981.1468033375842
 20
-1106.701245235075
 11
-984.5317488562129
 21
-1106.701245235075
 97
       18
330
1B4
330
1B3
330
1B2
330
1B1
330
1B6
330
150
330
22E
330
20F
330
22D
330
210
330
22C
330
22B
330
151
330
22A
330
229
330
211
330
212
330
1B5
 75
     1
 76
     0
 52
45.0
 41
0.1
 77
     0
 78
     1
 53
45.0
 43
0.0
 44
0.0
 45
-0.0707106781186548
 46
0.0707106781186548
 79
     0
 98
        1
 10
0.0
 20
0.0
  0
HATCH
  5
263
330
A0
100
AcDbEntity
  8
1
  6
Continuous
 62
     2
100
AcDbHatch
 10
0.0
 20
0.0
 30
0.0
210
0.0
220
0.0
230
1.0
  2
_USER
 70
     0
 71
     1
 91
        1
 92
        1
 93
       18
 72
     2
 10
-984.5317488562129
 20
-1108.340940359015
 40
1.639695123939873
 50
90.0
 51
164.9381082229062
 73
     1
 72
     2
 10
-984.9508766996745
 20
-1108.22814999698
 40
1.205656168392844
 50
164.9381082229203
 51
195.0618917770901
 73
     1
 72
     2
 10
-984.5317488562129
 20
-1108.115359634945
 40
1.639695123940421
 50
195.0618917771015
 51
275.1581447696745
 73
     1
 72
     2
 10
-984.8206049509487
 20
-1104.915469051724
 40
4.852596863499167
 50
275.1581447696363
 51
285.979991258339
 73
     1
 72
     1
 10
-983.484677033832
 20
-1109.580551357525
 11
-983.484677033832
 21
-1108.708034350722
 72
     2
 10
-984.6627320758558
 20
-1106.817683631572
 40
2.227384008973474
 50
58.06909105006579
 51
71.55192388187278
 73
     0
 72
     2
 10
-984.2445643421939
 20
-1108.071229407609
 40
0.9059297849850417
 50
71.55192388192397
 51
113.3722778881922
 73
     0
 72
     2
 10
-984.4010043748971
 20
-1108.433221426319
 40
0.5115800601959901
 50
113.3722778881707
 51
151.4785267423332
 73
     0
 72
     2
 10
-984.0236471168157
 20
-1108.22814999698
 40
0.9410597353348766
 50
151.478526742307
 51
208.5214732576322
 73
     0
 72
     2
 10
-984.4010043748971
 20
-1108.023078567641
 40
0.5115800601937612
 50
208.5214732575773
 51
250.6628567804924
 73
     0
 72
     2
 10
-984.2543343767934
 20
-1108.441033548024
 40
0.9545230068260935
 50
250.6628567805599
 51
270.0
 73
     0
 72
     1
 10
-984.2543343767934
 20
-1107.486510541198
 11
-983.1506950772252
 21
-1107.486510541198
 72
     1
 10
-983.1506950772252
 20
-1107.486510541198
 11
-983.1506950772252
 21
-1109.755054758886
 72
     1
 10
-983.1506950772252
 20
-1109.755054758886
 11
-981.9579023750575
 21
-1109.755054758886
 72
     1
 10
-981.9579023750575
 20
-1109.755054758886
 11
-981.9579023750575
 21
-1107.486510541198
 72
     1
 10
-981.9579023750575
 20
-1107.486510541198
 11
-981.1468033375842
 21
-1107.486510541198
 72
     1
 10
-981.1468033375842
 20
-1107.486510541198
 11
-981.1468033375842
 21
-1106.701245235075
 72
     1
 10
-981.1468033375842
 20
-1106.701245235075
 11
-984.5317488562129
 21
-1106.701245235075
 97
       18
330
1B4
330
1B3
330
1B2
330
1B1
330
1B6
330
150
330
22E
330
20F
330
22D
330
210
330
22C
330
22B
330
151
330
22A
330
229
330
211
330
212
330
1B5
 75
     1
 76
     0
 52
45.0
 41
0.1
 77
     0
 78
     1
 53
45.0
 43
0.0
 44
0.0
 45
-0.0707106781186548
 46
0.0707106781186548
 79
     0
 98
        1
 10
0.0
 20
0.0
  0
HATCH
  5
264
330
A0
100
AcDbEntity
  8
1
  6
Continuous
 62
     2
100
AcDbHatch
 10
0.0
 20
0.0
 30
0.0
210
0.0
220
0.0
230
1.0
  2
_USER
 70
     0
 71
     1
 91
        4
 92
        1
 93
        8
 72
     2
 10
-1008.633907952906
 20
-1103.766299374302
 40
0.424244615383941
 50
90.0
 51
180.0
 73
     1
 72
     1
 10
-1009.058152568289
 20
-1103.766299374302
 11
-1009.058152568289
 21
-1109.330810143502
 72
     2
 10
-1008.633907952906
 20
-1109.330810143502
 40
0.4242446153829178
 50
180.0
 51
270.0
 73
     1
 72
     1
 10
-1008.633907952906
 20
-1109.755054758886
 11
-1003.160595862189
 21
-1109.755054758886
 72
     2
 10
-1003.160595862189
 20
-1109.330810143502
 40
0.424244615383941
 50
270.0
 51
360.0
 73
     1
 72
     1
 10
-1002.736351246805
 20
-1109.330810143502
 11
-1002.736351246805
 21
-1103.766299374302
 72
     2
 10
-1003.160595862189
 20
-1103.766299374302
 40
0.424244615383941
 50
0.0
 51
90.0
 73
     1
 72
     1
 10
-1003.160595862189
 20
-1103.342054758918
 11
-1008.633907952906
 21
-1103.342054758918
 97
        8
330
222
330
17F
330
221
330
180
330
218
330
17D
330
223
330
17E
 92
       16
 93
        1
 72
     2
 10
-1006.014322302388
 20
-1106.085181602658
 40
0.470978932777939
 50
0.0
 51
360.0
 73
     1
 97
        1
330
236
 92
       16
 93
        8
 72
     2
 10
-1005.990507287716
 20
-1106.085181602658
 40
0.9118481501446578
 50
295.3740086781903
 51
424.6259913218097
 73
     1
 72
     2
 10
-1005.464464589628
 20
-1104.97604000269
 40
0.3157169230769341
 50
115.3740086783678
 51
180.0
 73
     0
 72
     1
 10
-1005.780181512705
 20
-1104.97604000269
 11
-1005.780181512705
 21
-1104.370504714183
 72
     2
 10
-1005.464464589628
 20
-1104.370504714183
 40
0.315716923076013
 50
180.0
 51
269.8110329575211
 73
     0
 72
     2
 10
-1005.458848454318
 20
-1106.073339661752
 40
2.018561131933151
 50
269.8110329575939
 51
450.1889670424061
 73
     0
 72
     2
 10
-1005.464464589628
 20
-1107.776174609321
 40
0.3157169230769341
 50
90.18896704247892
 51
180.0
 73
     0
 72
     1
 10
-1005.780181512705
 20
-1107.776174609321
 11
-1005.780181512705
 21
-1107.194323202626
 72
     2
 10
-1005.464464589628
 20
-1107.194323202626
 40
0.3157169230760881
 50
180.0
 51
244.6259913216498
 73
     0
 97
        8
330
230
330
20C
330
1B8
330
22F
330
20D
330
20E
330
1B7
330
20B
 92
       16
 93
       12
 72
     1
 10
-1008.040013276159
 20
-1109.042499203329
 11
-1006.56418001515
 21
-1109.042499203329
 72
     2
 10
-1006.56418001515
 20
-1108.726782280252
 40
0.3157169230769341
 50
270.0
 51
360.0
 73
     1
 72
     1
 10
-1006.248463092073
 20
-1108.726782280252
 11
-1006.248463092073
 21
-1107.19601134872
 72
     2
 10
-1006.56418001515
 20
-1107.19601134872
 40
0.3157169230769341
 50
0.0
 51
64.80558935130985
 73
     1
 72
     2
 10
-1006.041595567575
 20
-1106.085181602658
 40
0.9118975235577705
 50
115.1944106484801
 51
244.8055893515139
 73
     0
 72
     2
 10
-1006.56418001515
 20
-1104.974351856595
 40
0.3157169230767223
 50
295.1944106486023
 51
360.0
 73
     1
 72
     1
 10
-1006.248463092073
 20
-1104.974351856595
 11
-1006.248463092073
 21
-1104.370327237535
 72
     2
 10
-1006.56418001515
 20
-1104.370327237535
 40
0.3157169230769341
 50
0.0
 51
90.0
 73
     1
 72
     1
 10
-1006.56418001515
 20
-1104.054610314459
 11
-1008.040013276159
 21
-1104.054610314459
 72
     2
 10
-1008.040013276159
 20
-1104.370327237535
 40
0.3157169230760246
 50
90.0
 51
180.0
 73
     1
 72
     1
 10
-1008.355730199235
 20
-1104.370327237535
 11
-1008.355730199235
 21
-1108.726782280252
 72
     2
 10
-1008.040013276159
 20
-1108.726782280252
 40
0.3157169230760246
 50
180.0
 51
270.0
 73
     1
 97
       12
330
184
330
215
330
183
330
226
330
182
330
225
330
216
330
217
330
181
330
224
330
17C
330
227
 75
     1
 76
     0
 52
45.0
 41
0.1
 77
     0
 78
     1
 53
45.0
 43
0.0
 44
0.0
 45
-0.0707106781186548
 46
0.0707106781186548
 79
     0
 98
        1
 10
0.0
 20
0.0
  0
HATCH
  5
265
330
A0
100
AcDbEntity
  8
1
  6
Continuous
 62
     2
100
AcDbHatch
 10
0.0
 20
0.0
 30
0.0
210
0.0
220
0.0
230
1.0
  2
_USER
 70
     0
 71
     1
 91
        4
 92
        1
 93
        8
 72
     2
 10
-1008.633907952906
 20
-1103.766299374302
 40
0.424244615383941
 50
90.0
 51
180.0
 73
     1
 72
     1
 10
-1009.058152568289
 20
-1103.766299374302
 11
-1009.058152568289
 21
-1109.330810143502
 72
     2
 10
-1008.633907952906
 20
-1109.330810143502
 40
0.4242446153829178
 50
180.0
 51
270.0
 73
     1
 72
     1
 10
-1008.633907952906
 20
-1109.755054758886
 11
-1003.160595862189
 21
-1109.755054758886
 72
     2
 10
-1003.160595862189
 20
-1109.330810143502
 40
0.424244615383941
 50
270.0
 51
360.0
 73
     1
 72
     1
 10
-1002.736351246805
 20
-1109.330810143502
 11
-1002.736351246805
 21
-1103.766299374302
 72
     2
 10
-1003.160595862189
 20
-1103.766299374302
 40
0.424244615383941
 50
0.0
 51
90.0
 73
     1
 72
     1
 10
-1003.160595862189
 20
-1103.342054758918
 11
-1008.633907952906
 21
-1103.342054758918
 97
        8
330
222
330
17F
330
221
330
180
330
218
330
17D
330
223
330
17E
 92
       16
 93
        1
 72
     2
 10
-1006.014322302388
 20
-1106.085181602658
 40
0.470978932777939
 50
0.0
 51
360.0
 73
     1
 97
        1
330
236
 92
       16
 93
        8
 72
     2
 10
-1005.990507287716
 20
-1106.085181602658
 40
0.9118481501446578
 50
295.3740086781903
 51
424.6259913218097
 73
     1
 72
     2
 10
-1005.464464589628
 20
-1104.97604000269
 40
0.3157169230769341
 50
115.3740086783678
 51
180.0
 73
     0
 72
     1
 10
-1005.780181512705
 20
-1104.97604000269
 11
-1005.780181512705
 21
-1104.370504714183
 72
     2
 10
-1005.464464589628
 20
-1104.370504714183
 40
0.315716923076013
 50
180.0
 51
269.8110329575211
 73
     0
 72
     2
 10
-1005.458848454318
 20
-1106.073339661752
 40
2.018561131933151
 50
269.8110329575939
 51
450.1889670424061
 73
     0
 72
     2
 10
-1005.464464589628
 20
-1107.776174609321
 40
0.3157169230769341
 50
90.18896704247892
 51
180.0
 73
     0
 72
     1
 10
-1005.780181512705
 20
-1107.776174609321
 11
-1005.780181512705
 21
-1107.194323202626
 72
     2
 10
-1005.464464589628
 20
-1107.194323202626
 40
0.3157169230760881
 50
180.0
 51
244.6259913216498
 73
     0
 97
        8
330
230
330
20C
330
1B8
330
22F
330
20D
330
20E
330
1B7
330
20B
 92
       16
 93
       12
 72
     1
 10
-1008.040013276159
 20
-1109.042499203329
 11
-1006.56418001515
 21
-1109.042499203329
 72
     2
 10
-1006.56418001515
 20
-1108.726782280252
 40
0.3157169230769341
 50
270.0
 51
360.0
 73
     1
 72
     1
 10
-1006.248463092073
 20
-1108.726782280252
 11
-1006.248463092073
 21
-1107.19601134872
 72
     2
 10
-1006.56418001515
 20
-1107.19601134872
 40
0.3157169230769341
 50
0.0
 51
64.80558935130985
 73
     1
 72
     2
 10
-1006.041595567575
 20
-1106.085181602658
 40
0.9118975235577705
 50
115.1944106484801
 51
244.8055893515139
 73
     0
 72
     2
 10
-1006.56418001515
 20
-1104.974351856595
 40
0.3157169230767223
 50
295.1944106486023
 51
360.0
 73
     1
 72
     1
 10
-1006.248463092073
 20
-1104.974351856595
 11
-1006.248463092073
 21
-1104.370327237535
 72
     2
 10
-1006.56418001515
 20
-1104.370327237535
 40
0.3157169230769341
 50
0.0
 51
90.0
 73
     1
 72
     1
 10
-1006.56418001515
 20
-1104.054610314459
 11
-1008.040013276159
 21
-1104.054610314459
 72
     2
 10
-1008.040013276159
 20
-1104.370327237535
 40
0.3157169230760246
 50
90.0
 51
180.0
 73
     1
 72
     1
 10
-1008.355730199235
 20
-1104.370327237535
 11
-1008.355730199235
 21
-1108.726782280252
 72
     2
 10
-1008.040013276159
 20
-1108.726782280252
 40
0.3157169230760246
 50
180.0
 51
270.0
 73
     1
 97
       12
330
184
330
215
330
183
330
226
330
182
330
225
330
216
330
217
330
181
330
224
330
17C
330
227
 75
     1
 76
     0
 52
45.0
 41
0.1
 77
     0
 78
     1
 53
45.0
 43
0.0
 44
0.0
 45
-0.0707106781186548
 46
0.0707106781186548
 79
     0
 98
        1
 10
0.0
 20
0.0
  0
HATCH
  5
266
330
A0
100
AcDbEntity
  8
1
  6
Continuous
 62
     2
100
AcDbHatch
 10
0.0
 20
0.0
 30
0.0
210
0.0
220
0.0
230
1.0
  2
_USER
 70
     0
 71
     1
 91
        2
 92
        1
 93
       12
 72
     2
 10
-993.9587439489165
 20
-1104.868959520806
 40
1.526904761905826
 50
90.0
 51
270.0
 73
     1
 72
     1
 10
-993.9587439489165
 20
-1106.395864282711
 11
-990.8084242251356
 21
-1106.395864282711
 72
     1
 10
-990.8084242251356
 20
-1106.395864282711
 11
-990.8084242251356
 21
-1105.697850677269
 72
     1
 10
-990.8084242251356
 20
-1105.697850677269
 11
-992.1443520515633
 21
-1105.697850677269
 72
     1
 10
-992.1443520515633
 20
-1105.697850677269
 11
-992.1443520515633
 21
-1105.217966323527
 72
     1
 10
-992.1443520515633
 20
-1105.217966323527
 11
-990.8084242251356
 21
-1105.217966323527
 72
     1
 10
-990.8084242251356
 20
-1105.217966323527
 11
-990.8084242251356
 21
-1104.519952718085
 72
     1
 10
-990.8084242251356
 20
-1104.519952718085
 11
-992.1443520515633
 21
-1104.519952718085
 72
     1
 10
-992.1443520515633
 20
-1104.519952718085
 11
-992.1443520515633
 21
-1104.040068364343
 72
     1
 10
-992.1443520515633
 20
-1104.040068364343
 11
-990.8084242251356
 21
-1104.040068364343
 72
     1
 10
-990.8084242251356
 20
-1104.040068364343
 11
-990.8084242251356
 21
-1103.3420547589
 72
     1
 10
-990.8084242251356
 20
-1103.3420547589
 11
-993.9587439489165
 21
-1103.3420547589
 97
       12
330
173
330
16D
330
194
330
193
330
192
330
191
330
16E
330
16F
330
170
330
171
330
213
330
172
 92
       16
 93
        4
 72
     2
 10
-993.5427319024051
 20
-1104.868959520806
 40
0.7717997786795447
 50
141.8795802028491
 51
218.1204197971642
 73
     1
 72
     2
 10
-993.7424719387514
 20
-1105.025690698926
 40
0.5179085730137529
 50
218.1204197971956
 51
321.8795802028121
 73
     1
 72
     2
 10
-993.9422119750975
 20
-1104.868959520806
 40
0.7717997786796852
 50
321.8795802028358
 51
398.1204197971509
 73
     1
 72
     2
 10
-993.7424719387514
 20
-1104.712228342685
 40
0.5179085730131405
 50
38.12041979708892
 51
141.8795802029033
 73
     1
 97
        4
330
220
330
21F
330
21A
330
219
 75
     1
 76
     0
 52
45.0
 41
0.1
 77
     0
 78
     1
 53
45.0
 43
0.0
 44
0.0
 45
-0.0707106781186548
 46
0.0707106781186548
 79
     0
 98
        1
 10
0.0
 20
0.0
  0
HATCH
  5
267
330
A0
100
AcDbEntity
  8
1
  6
Continuous
 62
     2
100
AcDbHatch
 10
0.0
 20
0.0
 30
0.0
210
0.0
220
0.0
230
1.0
  2
_USER
 70
     0
 71
     1
 91
        2
 92
        1
 93
       12
 72
     2
 10
-993.9587439489165
 20
-1104.868959520806
 40
1.526904761905826
 50
90.0
 51
270.0
 73
     1
 72
     1
 10
-993.9587439489165
 20
-1106.395864282711
 11
-990.8084242251356
 21
-1106.395864282711
 72
     1
 10
-990.8084242251356
 20
-1106.395864282711
 11
-990.8084242251356
 21
-1105.697850677269
 72
     1
 10
-990.8084242251356
 20
-1105.697850677269
 11
-992.1443520515633
 21
-1105.697850677269
 72
     1
 10
-992.1443520515633
 20
-1105.697850677269
 11
-992.1443520515633
 21
-1105.217966323527
 72
     1
 10
-992.1443520515633
 20
-1105.217966323527
 11
-990.8084242251356
 21
-1105.217966323527
 72
     1
 10
-990.8084242251356
 20
-1105.217966323527
 11
-990.8084242251356
 21
-1104.519952718085
 72
     1
 10
-990.8084242251356
 20
-1104.519952718085
 11
-992.1443520515633
 21
-1104.519952718085
 72
     1
 10
-992.1443520515633
 20
-1104.519952718085
 11
-992.1443520515633
 21
-1104.040068364343
 72
     1
 10
-992.1443520515633
 20
-1104.040068364343
 11
-990.8084242251356
 21
-1104.040068364343
 72
     1
 10
-990.8084242251356
 20
-1104.040068364343
 11
-990.8084242251356
 21
-1103.3420547589
 72
     1
 10
-990.8084242251356
 20
-1103.3420547589
 11
-993.9587439489165
 21
-1103.3420547589
 97
       12
330
173
330
16D
330
194
330
193
330
192
330
191
330
16E
330
16F
330
170
330
171
330
213
330
172
 92
       16
 93
        4
 72
     2
 10
-993.5427319024051
 20
-1104.868959520806
 40
0.7717997786795447
 50
141.8795802028491
 51
218.1204197971642
 73
     1
 72
     2
 10
-993.7424719387514
 20
-1105.025690698926
 40
0.5179085730137529
 50
218.1204197971956
 51
321.8795802028121
 73
     1
 72
     2
 10
-993.9422119750975
 20
-1104.868959520806
 40
0.7717997786796852
 50
321.8795802028358
 51
398.1204197971509
 73
     1
 72
     2
 10
-993.7424719387514
 20
-1104.712228342685
 40
0.5179085730131405
 50
38.12041979708892
 51
141.8795802029033
 73
     1
 97
        4
330
220
330
21F
330
21A
330
219
 75
     1
 76
     0
 52
45.0
 41
0.1
 77
     0
 78
     1
 53
45.0
 43
0.0
 44
0.0
 45
-0.0707106781186548
 46
0.0707106781186548
 79
     0
 98
        1
 10
0.0
 20
0.0
  0
HATCH
  5
268
330
A0
100
AcDbEntity
  8
1
  6
Continuous
 62
     2
100
AcDbHatch
 10
0.0
 20
0.0
 30
0.0
210
0.0
220
0.0
230
1.0
  2
_USER
 70
     0
 71
     1
 91
        2
 92
        1
 93
        4
 72
     2
 10
-997.9843593113782
 20
-1108.22814999698
 40
1.458034083650935
 50
117.5481481756713
 51
242.4518518243493
 73
     1
 72
     2
 10
-997.7034194195448
 20
-1107.689574986677
 40
2.065479772208722
 50
242.4518518243441
 51
297.5481481756838
 73
     1
 72
     2
 10
-997.4224795277116
 20
-1108.22814999698
 40
1.458034083652521
 50
297.5481481756942
 51
422.4518518242851
 73
     1
 72
     2
 10
-997.7034194195448
 20
-1108.766725007283
 40
2.06547977220824
 50
62.45185182430162
 51
117.5481481756704
 73
     1
 97
        4
330
21E
330
21B
330
21D
330
21C
 92
       16
 93
        4
 72
     2
 10
-997.7034194195448
 20
-1108.07141881886
 40
0.5179085730136636
 50
38.1204197972034
 51
141.8795802028044
 73
     1
 72
     2
 10
-997.5036793831988
 20
-1108.22814999698
 40
0.7717997786795062
 50
141.8795802028254
 51
218.1204197971746
 73
     1
 72
     2
 10
-997.7034194195448
 20
-1108.3848811751
 40
0.5179085730137529
 50
218.1204197971956
 51
321.8795802027966
 73
     1
 72
     2
 10
-997.9031594558912
 20
-1108.22814999698
 40
0.7717997786796852
 50
321.8795802028358
 51
398.1204197971642
 73
     1
 97
        4
330
201
330
202
330
203
330
200
 75
     1
 76
     0
 52
45.0
 41
0.1
 77
     0
 78
     1
 53
45.0
 43
0.0
 44
0.0
 45
-0.0707106781186548
 46
0.0707106781186548
 79
     0
 98
        1
 10
0.0
 20
0.0
  0
HATCH
  5
269
330
A0
100
AcDbEntity
  8
1
  6
Continuous
 62
     2
100
AcDbHatch
 10
0.0
 20
0.0
 30
0.0
210
0.0
220
0.0
230
1.0
  2
_USER
 70
     0
 71
     1
 91
        2
 92
        1
 93
        4
 72
     2
 10
-997.9843593113782
 20
-1108.22814999698
 40
1.458034083650935
 50
117.5481481756713
 51
242.4518518243493
 73
     1
 72
     2
 10
-997.7034194195448
 20
-1107.689574986677
 40
2.065479772208722
 50
242.4518518243441
 51
297.5481481756838
 73
     1
 72
     2
 10
-997.4224795277116
 20
-1108.22814999698
 40
1.458034083652521
 50
297.5481481756942
 51
422.4518518242851
 73
     1
 72
     2
 10
-997.7034194195448
 20
-1108.766725007283
 40
2.06547977220824
 50
62.45185182430162
 51
117.5481481756704
 73
     1
 97
        4
330
21E
330
21B
330
21D
330
21C
 92
       16
 93
        4
 72
     2
 10
-997.7034194195448
 20
-1108.07141881886
 40
0.5179085730136636
 50
38.1204197972034
 51
141.8795802028044
 73
     1
 72
     2
 10
-997.5036793831988
 20
-1108.22814999698
 40
0.7717997786795062
 50
141.8795802028254
 51
218.1204197971746
 73
     1
 72
     2
 10
-997.7034194195448
 20
-1108.3848811751
 40
0.5179085730137529
 50
218.1204197971956
 51
321.8795802027966
 73
     1
 72
     2
 10
-997.9031594558912
 20
-1108.22814999698
 40
0.7717997786796852
 50
321.8795802028358
 51
398.1204197971642
 73
     1
 97
        4
330
201
330
202
330
203
330
200
 75
     1
 76
     0
 52
45.0
 41
0.1
 77
     0
 78
     1
 53
45.0
 43
0.0
 44
0.0
 45
-0.0707106781186548
 46
0.0707106781186548
 79
     0
 98
        1
 10
0.0
 20
0.0
  0
HATCH
  5
26A
330
A0
100
AcDbEntity
  8
1
  6
Continuous
 62
     2
100
AcDbHatch
 10
0.0
 20
0.0
 30
0.0
210
0.0
220
0.0
230
1.0
  2
_USER
 70
     0
 71
     1
 91
        2
 92
        1
 93
        6
 72
     1
 10
-1002.259234165938
 20
-1103.3420547589
 11
-1002.259234165938
 21
-1106.395864282711
 72
     1
 10
-1002.259234165938
 20
-1106.395864282711
 11
-1001.018729755684
 21
-1106.395864282711
 72
     1
 10
-1001.018729755684
 20
-1106.395864282711
 11
-1001.018729755684
 21
-1105.452786041567
 72
     1
 10
-1001.018729755684
 20
-1105.452786041567
 11
-1000.259962167904
 21
-1105.452786041567
 72
     2
 10
-1000.259962167904
 20
-1104.397420400234
 40
1.055365641332855
 50
270.0
 51
450.0
 73
     1
 72
     1
 10
-1000.259962167904
 20
-1103.3420547589
 11
-1002.259234165938
 21
-1103.3420547589
 97
        6
330
228
330
185
330
17B
330
17A
330
187
330
186
 92
       16
 93
        4
 72
     1
 10
-1000.701434694142
 20
-1104.00516060434
 11
-1001.018729755684
 21
-1104.00516060434
 72
     1
 10
-1001.018729755684
 20
-1104.00516060434
 11
-1001.018729755684
 21
-1104.710888253683
 72
     1
 10
-1001.018729755684
 20
-1104.710888253683
 11
-1000.701434694142
 21
-1104.710888253683
 72
     2
 10
-1000.701434694142
 20
-1104.358024429011
 40
0.3528638246718856
 50
270.0
 51
450.0
 73
     1
 97
        4
330
188
330
179
330
189
330
214
 75
     1
 76
     0
 52
45.0
 41
0.1
 77
     0
 78
     1
 53
45.0
 43
0.0
 44
0.0
 45
-0.0707106781186548
 46
0.0707106781186548
 79
     0
 98
        1
 10
0.0
 20
0.0
  0
HATCH
  5
26B
330
A0
100
AcDbEntity
  8
1
  6
Continuous
 62
     2
100
AcDbHatch
 10
0.0
 20
0.0
 30
0.0
210
0.0
220
0.0
230
1.0
  2
_USER
 70
     0
 71
     1
 91
        2
 92
        1
 93
        6
 72
     1
 10
-1002.259234165938
 20
-1103.3420547589
 11
-1002.259234165938
 21
-1106.395864282711
 72
     1
 10
-1002.259234165938
 20
-1106.395864282711
 11
-1001.018729755684
 21
-1106.395864282711
 72
     1
 10
-1001.018729755684
 20
-1106.395864282711
 11
-1001.018729755684
 21
-1105.452786041567
 72
     1
 10
-1001.018729755684
 20
-1105.452786041567
 11
-1000.259962167904
 21
-1105.452786041567
 72
     2
 10
-1000.259962167904
 20
-1104.397420400234
 40
1.055365641332855
 50
270.0
 51
450.0
 73
     1
 72
     1
 10
-1000.259962167904
 20
-1103.3420547589
 11
-1002.259234165938
 21
-1103.3420547589
 97
        6
330
228
330
185
330
17B
330
17A
330
187
330
186
 92
       16
 93
        4
 72
     1
 10
-1000.701434694142
 20
-1104.00516060434
 11
-1001.018729755684
 21
-1104.00516060434
 72
     1
 10
-1001.018729755684
 20
-1104.00516060434
 11
-1001.018729755684
 21
-1104.710888253683
 72
     1
 10
-1001.018729755684
 20
-1104.710888253683
 11
-1000.701434694142
 21
-1104.710888253683
 72
     2
 10
-1000.701434694142
 20
-1104.358024429011
 40
0.3528638246718856
 50
270.0
 51
450.0
 73
     1
 97
        4
330
188
330
179
330
189
330
214
 75
     1
 76
     0
 52
45.0
 41
0.1
 77
     0
 78
     1
 53
45.0
 43
0.0
 44
0.0
 45
-0.0707106781186548
 46
0.0707106781186548
 79
     0
 98
        1
 10
0.0
 20
0.0
  0
HATCH
  5
26C
330
A0
100
AcDbEntity
  8
1
  6
Continuous
 62
     2
100
AcDbHatch
 10
0.0
 20
0.0
 30
0.0
210
0.0
220
0.0
230
1.0
  2
_USER
 70
     0
 71
     1
 91
        1
 92
        1
 93
       12
 72
     1
 10
-982.6449509715052
 20
-1103.3420547589
 11
-981.2422267537579
 21
-1103.3420547589
 72
     1
 10
-981.2422267537579
 20
-1103.3420547589
 11
-982.5447563845245
 21
-1104.815005288936
 72
     1
 10
-982.5447563845245
 20
-1104.815005288936
 11
-981.1468033375842
 21
-1106.395864282711
 72
     1
 10
-981.1468033375842
 20
-1106.395864282711
 11
-982.5495275553325
 21
-1106.395864282711
 72
     1
 10
-982.5495275553325
 20
-1106.395864282711
 11
-983.246118493398
 21
-1105.608132497418
 72
     1
 10
-983.246118493398
 20
-1105.608132497418
 11
-983.9427094314636
 21
-1106.395864282711
 72
     1
 10
-983.9427094314636
 20
-1106.395864282711
 11
-985.3454336492118
 21
-1106.395864282711
 72
     1
 10
-985.3454336492118
 20
-1106.395864282711
 11
-983.9474806022715
 21
-1104.815005288936
 72
     1
 10
-983.9474806022715
 20
-1104.815005288936
 11
-985.2500102330391
 21
-1103.3420547589
 72
     1
 10
-985.2500102330391
 20
-1103.3420547589
 11
-983.8472860152898
 21
-1103.3420547589
 72
     1
 10
-983.8472860152898
 20
-1103.3420547589
 11
-983.246118493398
 21
-1104.021878080456
 72
     1
 10
-983.246118493398
 20
-1104.021878080456
 11
-982.6449509715052
 21
-1103.3420547589
 97
       12
330
154
330
1AD
330
1AC
330
1AB
330
1AA
330
155
330
156
330
152
330
153
330
1B0
330
1AF
330
1AE
 75
     1
 76
     0
 52
45.0
 41
0.1
 77
     0
 78
     1
 53
45.0
 43
0.0
 44
0.0
 45
-0.0707106781186548
 46
0.0707106781186548
 79
     0
 98
        1
 10
0.0
 20
0.0
  0
HATCH
  5
26D
330
A0
100
AcDbEntity
  8
1
  6
Continuous
 62
     2
100
AcDbHatch
 10
0.0
 20
0.0
 30
0.0
210
0.0
220
0.0
230
1.0
  2
_USER
 70
     0
 71
     1
 91
        1
 92
        1
 93
       12
 72
     1
 10
-982.6449509715052
 20
-1103.3420547589
 11
-981.2422267537579
 21
-1103.3420547589
 72
     1
 10
-981.2422267537579
 20
-1103.3420547589
 11
-982.5447563845245
 21
-1104.815005288936
 72
     1
 10
-982.5447563845245
 20
-1104.815005288936
 11
-981.1468033375842
 21
-1106.395864282711
 72
     1
 10
-981.1468033375842
 20
-1106.395864282711
 11
-982.5495275553325
 21
-1106.395864282711
 72
     1
 10
-982.5495275553325
 20
-1106.395864282711
 11
-983.246118493398
 21
-1105.608132497418
 72
     1
 10
-983.246118493398
 20
-1105.608132497418
 11
-983.9427094314636
 21
-1106.395864282711
 72
     1
 10
-983.9427094314636
 20
-1106.395864282711
 11
-985.3454336492118
 21
-1106.395864282711
 72
     1
 10
-985.3454336492118
 20
-1106.395864282711
 11
-983.9474806022715
 21
-1104.815005288936
 72
     1
 10
-983.9474806022715
 20
-1104.815005288936
 11
-985.2500102330391
 21
-1103.3420547589
 72
     1
 10
-985.2500102330391
 20
-1103.3420547589
 11
-983.8472860152898
 21
-1103.3420547589
 72
     1
 10
-983.8472860152898
 20
-1103.3420547589
 11
-983.246118493398
 21
-1104.021878080456
 72
     1
 10
-983.246118493398
 20
-1104.021878080456
 11
-982.6449509715052
 21
-1103.3420547589
 97
       12
330
154
330
1AD
330
1AC
330
1AB
330
1AA
330
155
330
156
330
152
330
153
330
1B0
330
1AF
330
1AE
 75
     1
 76
     0
 52
45.0
 41
0.1
 77
     0
 78
     1
 53
45.0
 43
0.0
 44
0.0
 45
-0.0707106781186548
 46
0.0707106781186548
 79
     0
 98
        1
 10
0.0
 20
0.0
  0
HATCH
  5
26E
330
A0
100
AcDbEntity
  8
1
  6
Continuous
 62
     2
100
AcDbHatch
 10
0.0
 20
0.0
 30
0.0
210
0.0
220
0.0
230
1.0
  2
_USER
 70
     0
 71
     1
 91
        1
 92
        1
 93
        4
 72
     1
 10
-985.4647129194287
 20
-1103.3420547589
 11
-985.4647129194287
 21
-1106.395864282711
 72
     1
 10
-985.4647129194287
 20
-1106.395864282711
 11
-986.7052173296817
 21
-1106.395864282711
 72
     1
 10
-986.7052173296817
 20
-1106.395864282711
 11
-986.7052173296817
 21
-1103.3420547589
 72
     1
 10
-986.7052173296817
 20
-1103.3420547589
 11
-985.4647129194287
 21
-1103.3420547589
 97
        4
330
1A8
330
157
330
1A7
330
1A9
 75
     1
 76
     0
 52
45.0
 41
0.1
 77
     0
 78
     1
 53
45.0
 43
0.0
 44
0.0
 45
-0.0707106781186548
 46
0.0707106781186548
 79
     0
 98
        1
 10
0.0
 20
0.0
  0
HATCH
  5
26F
330
A0
100
AcDbEntity
  8
1
  6
Continuous
 62
     2
100
AcDbHatch
 10
0.0
 20
0.0
 30
0.0
210
0.0
220
0.0
230
1.0
  2
_USER
 70
     0
 71
     1
 91
        1
 92
        1
 93
        4
 72
     1
 10
-985.4647129194287
 20
-1103.3420547589
 11
-985.4647129194287
 21
-1106.395864282711
 72
     1
 10
-985.4647129194287
 20
-1106.395864282711
 11
-986.7052173296817
 21
-1106.395864282711
 72
     1
 10
-986.7052173296817
 20
-1106.395864282711
 11
-986.7052173296817
 21
-1103.3420547589
 72
     1
 10
-986.7052173296817
 20
-1103.3420547589
 11
-985.4647129194287
 21
-1103.3420547589
 97
        4
330
1A8
330
157
330
1A7
330
1A9
 75
     1
 76
     0
 52
45.0
 41
0.1
 77
     0
 78
     1
 53
45.0
 43
0.0
 44
0.0
 45
-0.0707106781186548
 46
0.0707106781186548
 79
     0
 98
        1
 10
0.0
 20
0.0
  0
HATCH
  5
270
330
A0
100
AcDbEntity
  8
1
  6
Continuous
 62
     2
100
AcDbHatch
 10
0.0
 20
0.0
 30
0.0
210
0.0
220
0.0
230
1.0
  2
_USER
 70
     0
 71
     1
 91
        2
 92
        1
 93
        8
 72
     1
 10
-985.8551569229608
 20
-1109.755054758886
 11
-987.0956613332147
 21
-1109.755054758886
 72
     1
 10
-987.0956613332147
 20
-1109.755054758886
 11
-987.3071413866904
 21
-1109.214094214668
 72
     1
 10
-987.3071413866904
 20
-1109.214094214668
 11
-988.4395829633643
 21
-1109.214094214668
 72
     1
 10
-988.4395829633643
 20
-1109.214094214668
 11
-988.6510630168401
 21
-1109.755054758886
 72
     1
 10
-988.6510630168401
 20
-1109.755054758886
 11
-989.891567427093
 21
-1109.755054758886
 72
     1
 10
-989.891567427093
 20
-1109.755054758886
 11
-988.4936143801538
 21
-1106.701245235075
 72
     1
 10
-988.4936143801538
 20
-1106.701245235075
 11
-987.2531099699011
 21
-1106.701245235075
 72
     1
 10
-987.2531099699011
 20
-1106.701245235075
 11
-985.8551569229608
 21
-1109.755054758886
 97
        8
330
1A3
330
15D
330
1A2
330
1A5
330
15A
330
1A4
330
15B
330
15C
 92
       16
 93
        3
 72
     1
 10
-988.1735274122193
 20
-1108.533530949361
 11
-987.5731969378368
 21
-1108.533530949361
 72
     1
 10
-987.5731969378368
 20
-1108.533530949361
 11
-987.8733621750268
 21
-1107.765715983374
 72
     1
 10
-987.8733621750268
 20
-1107.765715983374
 11
-988.1735274122193
 21
-1108.533530949361
 97
        3
330
159
330
158
330
1A6
 75
     1
 76
     0
 52
45.0
 41
0.1
 77
     0
 78
     1
 53
45.0
 43
0.0
 44
0.0
 45
-0.0707106781186548
 46
0.0707106781186548
 79
     0
 98
        1
 10
0.0
 20
0.0
  0
HATCH
  5
271
330
A0
100
AcDbEntity
  8
1
  6
Continuous
 62
     2
100
AcDbHatch
 10
0.0
 20
0.0
 30
0.0
210
0.0
220
0.0
230
1.0
  2
_USER
 70
     0
 71
     1
 91
        2
 92
        1
 93
        8
 72
     1
 10
-985.8551569229608
 20
-1109.755054758886
 11
-987.0956613332147
 21
-1109.755054758886
 72
     1
 10
-987.0956613332147
 20
-1109.755054758886
 11
-987.3071413866904
 21
-1109.214094214668
 72
     1
 10
-987.3071413866904
 20
-1109.214094214668
 11
-988.4395829633643
 21
-1109.214094214668
 72
     1
 10
-988.4395829633643
 20
-1109.214094214668
 11
-988.6510630168401
 21
-1109.755054758886
 72
     1
 10
-988.6510630168401
 20
-1109.755054758886
 11
-989.891567427093
 21
-1109.755054758886
 72
     1
 10
-989.891567427093
 20
-1109.755054758886
 11
-988.4936143801538
 21
-1106.701245235075
 72
     1
 10
-988.4936143801538
 20
-1106.701245235075
 11
-987.2531099699011
 21
-1106.701245235075
 72
     1
 10
-987.2531099699011
 20
-1106.701245235075
 11
-985.8551569229608
 21
-1109.755054758886
 97
        8
330
1A3
330
15D
330
1A2
330
1A5
330
15A
330
1A4
330
15B
330
15C
 92
       16
 93
        3
 72
     1
 10
-988.1735274122193
 20
-1108.533530949361
 11
-987.5731969378368
 21
-1108.533530949361
 72
     1
 10
-987.5731969378368
 20
-1108.533530949361
 11
-987.8733621750268
 21
-1107.765715983374
 72
     1
 10
-987.8733621750268
 20
-1107.765715983374
 11
-988.1735274122193
 21
-1108.533530949361
 97
        3
330
159
330
158
330
1A6
 75
     1
 76
     0
 52
45.0
 41
0.1
 77
     0
 78
     1
 53
45.0
 43
0.0
 44
0.0
 45
-0.0707106781186548
 46
0.0707106781186548
 79
     0
 98
        1
 10
0.0
 20
0.0
  0
HATCH
  5
272
330
A0
100
AcDbEntity
  8
1
  6
Continuous
 62
     2
100
AcDbHatch
 10
0.0
 20
0.0
 30
0.0
210
0.0
220
0.0
230
1.0
  2
_USER
 70
     0
 71
     1
 91
        1
 92
        1
 93
        8
 72
     1
 10
-992.0490795662753
 20
-1106.701245235075
 11
-992.0490795662753
 21
-1107.486510541198
 72
     1
 10
-992.0490795662753
 20
-1107.486510541198
 11
-991.2379805288007
 21
-1107.486510541198
 72
     1
 10
-991.2379805288007
 20
-1107.486510541198
 11
-991.2379805288007
 21
-1109.755054758886
 72
     1
 10
-991.2379805288007
 20
-1109.755054758886
 11
-990.0451878266342
 21
-1109.755054758886
 72
     1
 10
-990.0451878266342
 20
-1109.755054758886
 11
-990.0451878266342
 21
-1107.486510541198
 72
     1
 10
-990.0451878266342
 20
-1107.486510541198
 11
-989.2340887891617
 21
-1107.486510541198
 72
     1
 10
-989.2340887891617
 20
-1107.486510541198
 11
-989.2340887891617
 21
-1106.701245235075
 72
     1
 10
-989.2340887891617
 20
-1106.701245235075
 11
-992.0490795662753
 21
-1106.701245235075
 97
        8
330
19F
330
19E
330
19D
330
15E
330
15F
330
1A1
330
160
330
1A0
 75
     1
 76
     0
 52
45.0
 41
0.1
 77
     0
 78
     1
 53
45.0
 43
0.0
 44
0.0
 45
-0.0707106781186548
 46
0.0707106781186548
 79
     0
 98
        1
 10
0.0
 20
0.0
  0
HATCH
  5
273
330
A0
100
AcDbEntity
  8
1
  6
Continuous
 62
     2
100
AcDbHatch
 10
0.0
 20
0.0
 30
0.0
210
0.0
220
0.0
230
1.0
  2
_USER
 70
     0
 71
     1
 91
        1
 92
        1
 93
        8
 72
     1
 10
-992.0490795662753
 20
-1106.701245235075
 11
-992.0490795662753
 21
-1107.486510541198
 72
     1
 10
-992.0490795662753
 20
-1107.486510541198
 11
-991.2379805288007
 21
-1107.486510541198
 72
     1
 10
-991.2379805288007
 20
-1107.486510541198
 11
-991.2379805288007
 21
-1109.755054758886
 72
     1
 10
-991.2379805288007
 20
-1109.755054758886
 11
-990.0451878266342
 21
-1109.755054758886
 72
     1
 10
-990.0451878266342
 20
-1109.755054758886
 11
-990.0451878266342
 21
-1107.486510541198
 72
     1
 10
-990.0451878266342
 20
-1107.486510541198
 11
-989.2340887891617
 21
-1107.486510541198
 72
     1
 10
-989.2340887891617
 20
-1107.486510541198
 11
-989.2340887891617
 21
-1106.701245235075
 72
     1
 10
-989.2340887891617
 20
-1106.701245235075
 11
-992.0490795662753
 21
-1106.701245235075
 97
        8
330
19F
330
19E
330
19D
330
15E
330
15F
330
1A1
330
160
330
1A0
 75
     1
 76
     0
 52
45.0
 41
0.1
 77
     0
 78
     1
 53
45.0
 43
0.0
 44
0.0
 45
-0.0707106781186548
 46
0.0707106781186548
 79
     0
 98
        1
 10
0.0
 20
0.0
  0
HATCH
  5
274
330
A0
100
AcDbEntity
  8
1
  6
Continuous
 62
     2
100
AcDbHatch
 10
0.0
 20
0.0
 30
0.0
210
0.0
220
0.0
230
1.0
  2
_USER
 70
     0
 71
     1
 91
        1
 92
        1
 93
       10
 72
     1
 10
-989.3770729825362
 20
-1103.3420547589
 11
-990.5698656847027
 21
-1103.3420547589
 72
     1
 10
-990.5698656847027
 20
-1103.3420547589
 11
-990.5698656847027
 21
-1106.395864282711
 72
     1
 10
-990.5698656847027
 20
-1106.395864282711
 11
-989.3770729825362
 21
-1106.395864282711
 72
     1
 10
-989.3770729825362
 20
-1106.395864282711
 11
-989.3770729825362
 21
-1105.087088772507
 72
     1
 10
-989.3770729825362
 20
-1105.087088772507
 11
-988.1365685722822
 21
-1106.395864282711
 72
     1
 10
-988.1365685722822
 20
-1106.395864282711
 11
-986.9437758701156
 21
-1106.395864282711
 72
     1
 10
-986.9437758701156
 20
-1106.395864282711
 11
-986.9437758701156
 21
-1103.3420547589
 72
     1
 10
-986.9437758701156
 20
-1103.3420547589
 11
-988.1365685722822
 21
-1103.3420547589
 72
     1
 10
-988.1365685722822
 20
-1103.3420547589
 11
-988.1365685722822
 21
-1104.650830269105
 72
     1
 10
-988.1365685722822
 20
-1104.650830269105
 11
-989.3770729825362
 21
-1103.3420547589
 97
       10
330
199
330
163
330
164
330
165
330
166
330
19C
330
161
330
19B
330
19A
330
162
 75
     1
 76
     0
 52
45.0
 41
0.1
 77
     0
 78
     1
 53
45.0
 43
0.0
 44
0.0
 45
-0.0707106781186548
 46
0.0707106781186548
 79
     0
 98
        1
 10
0.0
 20
0.0
  0
HATCH
  5
275
330
A0
100
AcDbEntity
  8
1
  6
Continuous
 62
     2
100
AcDbHatch
 10
0.0
 20
0.0
 30
0.0
210
0.0
220
0.0
230
1.0
  2
_USER
 70
     0
 71
     1
 91
        1
 92
        1
 93
       10
 72
     1
 10
-989.3770729825362
 20
-1103.3420547589
 11
-990.5698656847027
 21
-1103.3420547589
 72
     1
 10
-990.5698656847027
 20
-1103.3420547589
 11
-990.5698656847027
 21
-1106.395864282711
 72
     1
 10
-990.5698656847027
 20
-1106.395864282711
 11
-989.3770729825362
 21
-1106.395864282711
 72
     1
 10
-989.3770729825362
 20
-1106.395864282711
 11
-989.3770729825362
 21
-1105.087088772507
 72
     1
 10
-989.3770729825362
 20
-1105.087088772507
 11
-988.1365685722822
 21
-1106.395864282711
 72
     1
 10
-988.1365685722822
 20
-1106.395864282711
 11
-986.9437758701156
 21
-1106.395864282711
 72
     1
 10
-986.9437758701156
 20
-1106.395864282711
 11
-986.9437758701156
 21
-1103.3420547589
 72
     1
 10
-986.9437758701156
 20
-1103.3420547589
 11
-988.1365685722822
 21
-1103.3420547589
 72
     1
 10
-988.1365685722822
 20
-1103.3420547589
 11
-988.1365685722822
 21
-1104.650830269105
 72
     1
 10
-988.1365685722822
 20
-1104.650830269105
 11
-989.3770729825362
 21
-1103.3420547589
 97
       10
330
199
330
163
330
164
330
165
330
166
330
19C
330
161
330
19B
330
19A
330
162
 75
     1
 76
     0
 52
45.0
 41
0.1
 77
     0
 78
     1
 53
45.0
 43
0.0
 44
0.0
 45
-0.0707106781186548
 46
0.0707106781186548
 79
     0
 98
        1
 10
0.0
 20
0.0
  0
HATCH
  5
276
330
A0
100
AcDbEntity
  8
1
  6
Continuous
 62
     2
100
AcDbHatch
 10
0.0
 20
0.0
 30
0.0
210
0.0
220
0.0
230
1.0
  2
_USER
 70
     0
 71
     1
 91
        1
 92
        1
 93
       10
 72
     1
 10
-994.6255118029547
 20
-1106.701245235075
 11
-995.8183045051223
 21
-1106.701245235075
 72
     1
 10
-995.8183045051223
 20
-1106.701245235075
 11
-995.8183045051223
 21
-1109.755054758886
 72
     1
 10
-995.8183045051223
 20
-1109.755054758886
 11
-994.6255118029547
 21
-1109.755054758886
 72
     1
 10
-994.6255118029547
 20
-1109.755054758886
 11
-994.6255118029547
 21
-1108.446279248681
 72
     1
 10
-994.6255118029547
 20
-1108.446279248681
 11
-993.3850073927019
 21
-1109.755054758886
 72
     1
 10
-993.3850073927019
 20
-1109.755054758886
 11
-992.1922146905355
 21
-1109.755054758886
 72
     1
 10
-992.1922146905355
 20
-1109.755054758886
 11
-992.1922146905355
 21
-1106.701245235075
 72
     1
 10
-992.1922146905355
 20
-1106.701245235075
 11
-993.3850073927019
 21
-1106.701245235075
 72
     1
 10
-993.3850073927019
 20
-1106.701245235075
 11
-993.3850073927019
 21
-1108.01002074528
 72
     1
 10
-993.3850073927019
 20
-1108.01002074528
 11
-994.6255118029547
 21
-1106.701245235075
 97
       10
330
168
330
169
330
16A
330
196
330
16B
330
16C
330
195
330
198
330
197
330
167
 75
     1
 76
     0
 52
45.0
 41
0.1
 77
     0
 78
     1
 53
45.0
 43
0.0
 44
0.0
 45
-0.0707106781186548
 46
0.0707106781186548
 79
     0
 98
        1
 10
0.0
 20
0.0
  0
HATCH
  5
277
330
A0
100
AcDbEntity
  8
1
  6
Continuous
 62
     2
100
AcDbHatch
 10
0.0
 20
0.0
 30
0.0
210
0.0
220
0.0
230
1.0
  2
_USER
 70
     0
 71
     1
 91
        1
 92
        1
 93
       10
 72
     1
 10
-994.6255118029547
 20
-1106.701245235075
 11
-995.8183045051223
 21
-1106.701245235075
 72
     1
 10
-995.8183045051223
 20
-1106.701245235075
 11
-995.8183045051223
 21
-1109.755054758886
 72
     1
 10
-995.8183045051223
 20
-1109.755054758886
 11
-994.6255118029547
 21
-1109.755054758886
 72
     1
 10
-994.6255118029547
 20
-1109.755054758886
 11
-994.6255118029547
 21
-1108.446279248681
 72
     1
 10
-994.6255118029547
 20
-1108.446279248681
 11
-993.3850073927019
 21
-1109.755054758886
 72
     1
 10
-993.3850073927019
 20
-1109.755054758886
 11
-992.1922146905355
 21
-1109.755054758886
 72
     1
 10
-992.1922146905355
 20
-1109.755054758886
 11
-992.1922146905355
 21
-1106.701245235075
 72
     1
 10
-992.1922146905355
 20
-1106.701245235075
 11
-993.3850073927019
 21
-1106.701245235075
 72
     1
 10
-993.3850073927019
 20
-1106.701245235075
 11
-993.3850073927019
 21
-1108.01002074528
 72
     1
 10
-993.3850073927019
 20
-1108.01002074528
 11
-994.6255118029547
 21
-1106.701245235075
 97
       10
330
168
330
169
330
16A
330
196
330
16B
330
16C
330
195
330
198
330
197
330
167
 75
     1
 76
     0
 52
45.0
 41
0.1
 77
     0
 78
     1
 53
45.0
 43
0.0
 44
0.0
 45
-0.0707106781186548
 46
0.0707106781186548
 79
     0
 98
        1
 10
0.0
 20
0.0
  0
HATCH
  5
278
330
A0
100
AcDbEntity
  8
1
  6
Continuous
 62
     2
100
AcDbHatch
 10
0.0
 20
0.0
 30
0.0
210
0.0
220
0.0
230
1.0
  2
_USER
 70
     0
 71
     1
 91
        1
 92
        1
 93
       12
 72
     1
 10
-995.6273067418902
 20
-1103.3420547589
 11
-995.6273067418902
 21
-1106.395864282711
 72
     1
 10
-995.6273067418902
 20
-1106.395864282711
 11
-996.8200994440566
 21
-1106.395864282711
 72
     1
 10
-996.8200994440566
 20
-1106.395864282711
 11
-996.8200994440566
 21
-1105.261592173868
 72
     1
 10
-996.8200994440566
 20
-1105.261592173868
 11
-997.869757021964
 21
-1105.261592173868
 72
     1
 10
-997.869757021964
 20
-1105.261592173868
 11
-997.869757021964
 21
-1106.395864282711
 72
     1
 10
-997.869757021964
 20
-1106.395864282711
 11
-999.0625497241307
 21
-1106.395864282711
 72
     1
 10
-999.0625497241307
 20
-1106.395864282711
 11
-999.0625497241307
 21
-1103.3420547589
 72
     1
 10
-999.0625497241307
 20
-1103.3420547589
 11
-997.869757021964
 21
-1103.3420547589
 72
     1
 10
-997.869757021964
 20
-1103.3420547589
 11
-997.869757021964
 21
-1104.410888092235
 72
     1
 10
-997.869757021964
 20
-1104.410888092235
 11
-996.8200994440566
 21
-1104.410888092235
 72
     1
 10
-996.8200994440566
 20
-1104.410888092235
 11
-996.8200994440566
 21
-1103.3420547589
 72
     1
 10
-996.8200994440566
 20
-1103.3420547589
 11
-995.6273067418902
 21
-1103.3420547589
 97
       12
330
190
330
18F
330
18E
330
176
330
177
330
18D
330
178
330
18C
330
18B
330
18A
330
174
330
175
 75
     1
 76
     0
 52
45.0
 41
0.1
 77
     0
 78
     1
 53
45.0
 43
0.0
 44
0.0
 45
-0.0707106781186548
 46
0.0707106781186548
 79
     0
 98
        1
 10
0.0
 20
0.0
  0
HATCH
  5
279
330
A0
100
AcDbEntity
  8
1
  6
Continuous
 62
     2
100
AcDbHatch
 10
0.0
 20
0.0
 30
0.0
210
0.0
220
0.0
230
1.0
  2
_USER
 70
     0
 71
     1
 91
        1
 92
        1
 93
       12
 72
     1
 10
-995.6273067418902
 20
-1103.3420547589
 11
-995.6273067418902
 21
-1106.395864282711
 72
     1
 10
-995.6273067418902
 20
-1106.395864282711
 11
-996.8200994440566
 21
-1106.395864282711
 72
     1
 10
-996.8200994440566
 20
-1106.395864282711
 11
-996.8200994440566
 21
-1105.261592173868
 72
     1
 10
-996.8200994440566
 20
-1105.261592173868
 11
-997.869757021964
 21
-1105.261592173868
 72
     1
 10
-997.869757021964
 20
-1105.261592173868
 11
-997.869757021964
 21
-1106.395864282711
 72
     1
 10
-997.869757021964
 20
-1106.395864282711
 11
-999.0625497241307
 21
-1106.395864282711
 72
     1
 10
-999.0625497241307
 20
-1106.395864282711
 11
-999.0625497241307
 21
-1103.3420547589
 72
     1
 10
-999.0625497241307
 20
-1103.3420547589
 11
-997.869757021964
 21
-1103.3420547589
 72
     1
 10
-997.869757021964
 20
-1103.3420547589
 11
-997.869757021964
 21
-1104.410888092235
 72
     1
 10
-997.869757021964
 20
-1104.410888092235
 11
-996.8200994440566
 21
-1104.410888092235
 72
     1
 10
-996.8200994440566
 20
-1104.410888092235
 11
-996.8200994440566
 21
-1103.3420547589
 72
     1
 10
-996.8200994440566
 20
-1103.3420547589
 11
-995.6273067418902
 21
-1103.3420547589
 97
       12
330
190
330
18F
330
18E
330
176
330
177
330
18D
330
178
330
18C
330
18B
330
18A
330
174
330
175
 75
     1
 76
     0
 52
45.0
 41
0.1
 77
     0
 78
     1
 53
45.0
 43
0.0
 44
0.0
 45
-0.0707106781186548
 46
0.0707106781186548
 79
     0
 98
        1
 10
0.0
 20
0.0
  0
ENDBLK
  5
A2
330
A0
100
AcDbEntity
  8
0
100
AcDbBlockEnd
  0
BLOCK
  5
A4
330
A3
100
AcDbEntity
  8
0
100
AcDbBlockBegin
  2
_punkt
 70
     0
 10
-883.7500029281013
 20
-1117.048554758902
 30
0.0
  3
_punkt
  1

  0
LINE
  5
27A
330
A3
100
AcDbEntity
  8
1
  6
Continuous
 62
     2
100
AcDbLine
 10
-883.7500029281013
 20
-1117.048554758902
 30
0.0
 11
-883.7500029281013
 21
-1122.048554758902
 31
0.0
  0
LINE
  5
27B
330
A3
100
AcDbEntity
  8
1
  6
Continuous
 62
     2
100
AcDbLine
 10
-883.7500029281013
 20
-1117.048554758902
 30
0.0
 11
-878.7500029281023
 21
-1117.048554758902
 31
0.0
  0
ENDBLK
  5
A5
330
A3
100
AcDbEntity
  8
0
100
AcDbBlockEnd
  0
BLOCK
  5
A9
330
A6
100
AcDbEntity
  8
0
100
AcDbBlockBegin
  2
A4I_CS
 70
     0
 10
-883.7500029281013
 20
-1122.048554758902
 30
0.0
  3
A4I_CS
  1

  0
INSERT
  5
A7
330
A6
100
AcDbEntity
  8
1
100
AcDbBlockReference
  2
_rahmen
 10
-883.7500029281013
 20
-1122.048554758902
 30
0.0
  0
INSERT
  5
A8
330
A6
100
AcDbEntity
  8
1
100
AcDbBlockReference
  2
_punkt
 10
-883.7500029281013
 20
-1117.048554758902
 30
0.0
  0
ENDBLK
  5
AA
330
A6
100
AcDbEntity
  8
0
100
AcDbBlockEnd
  0
BLOCK
  5
B3
330
AB
100
AcDbEntity
  8
0
100
AcDbBlockBegin
  2
1
 70
     0
 10
0.0
 20
0.0
 30
0.0
  3
1
  1

  0
INSERT
  5
AC
330
AB
100
AcDbEntity
  8
0
100
AcDbBlockReference
  2
AllgSicht1
 10
-826.0000001109356
 20
-935.000002277389
 30
0.0
 41
5.0
 42
5.0
 43
5.0
  0
INSERT
  5
AD
330
AB
100
AcDbEntity
  8
0
100
AcDbBlockReference
  2
Drfsicht1
 10
-1048.999997726225
 20
-799.8499955
 30
0.0
 41
5.0
 42
5.0
 43
5.0
  0
INSERT
  5
AE
330
AB
100
AcDbEntity
  8
0
100
AcDbBlockReference
  2
Rckans1
 10
-921.000001664258
 20
-963.9999999999995
 30
0.0
 41
5.0
 42
5.0
 43
5.0
  0
INSERT
  5
AF
330
AB
100
AcDbEntity
  8
0
100
AcDbBlockReference
  2
SA_Links1
 10
-1209.99999999995
 20
-963.9999999999995
 30
0.0
 41
5.0
 42
5.0
 43
5.0
  0
INSERT
  5
B0
330
AB
100
AcDbEntity
  8
0
100
AcDbBlockReference
  2
SA_Rechts1
 10
-895.99999939771
 20
-964.0
 30
0.0
 41
5.0
 42
5.0
 43
5.0
  0
INSERT
  5
B1
330
AB
100
AcDbEntity
  8
0
100
AcDbBlockReference
  2
Vordans1
 10
-1049.253644807489
 20
-964.0
 30
0.0
 41
5.0
 42
5.0
 43
5.0
  0
INSERT
  5
B2
330
AB
100
AcDbEntity
  8
0
100
AcDbBlockReference
  2
A4I_CS
 10
-883.7500029281013
 20
-1122.048554758902
 30
0.0
  0
ENDBLK
  5
B4
330
AB
100
AcDbEntity
  8
0
100
AcDbBlockEnd
  0
BLOCK
  5
E7
330
E0
100
AcDbEntity
  8
0
100
AcDbBlockBegin
  2
*D17
 70
     1
 10
0.0
 20
0.0
 30
0.0
  3
*D17
  1

  0
LINE
  5
E1
330
E0
100
AcDbEntity
  8
1
  6
Continuous
 62
     2
100
AcDbLine
 10
-217.5996724673925
 20
-210.7199991000051
 30
0.0
 11
-217.5996724673925
 21
-200.569999100005
 31
0.0
  0
LINE
  5
E2
330
E0
100
AcDbEntity
  8
1
  6
Continuous
 62
     2
100
AcDbLine
 10
-204.5499939014414
 20
-200.569999100005
 30
0.0
 11
-217.9996724673925
 21
-200.569999100005
 31
0.0
  0
LINE
  5
E3
330
E0
100
AcDbEntity
  8
1
  6
Continuous
 62
     2
100
AcDbLine
 10
-204.5499939014414
 20
-210.7199991000051
 30
0.0
 11
-217.9996724673925
 21
-210.7199991000051
 31
0.0
  0
SOLID
  5
E4
330
E0
100
AcDbEntity
  8
1
 62
     2
100
AcDbTrace
 10
-217.6918292157037
 20
-210.0199991000051
 30
0.0
 11
-217.5075157190813
 21
-210.0199991000051
 31
0.0
 12
-217.5996724673925
 22
-210.7199991000051
 32
0.0
 13
-217.5996724673925
 23
-210.7199991000051
 33
0.0
  0
SOLID
  5
E5
330
E0
100
AcDbEntity
  8
1
 62
     2
100
AcDbTrace
 10
-217.5075157190813
 20
-201.269999100005
 30
0.0
 11
-217.6918292157037
 21
-201.269999100005
 31
0.0
 12
-217.5996724673925
 22
-200.569999100005
 32
0.0
 13
-217.5996724673925
 23
-200.569999100005
 33
0.0
  0
MTEXT
  5
E6
330
E0
100
AcDbEntity
  8
1
 62
     3
100
AcDbMText
 10
-218.0696724673925
 20
-206.6035550396395
 30
0.0
 40
0.7
 41
0.0
 71
     7
 72
     1
  1
10,15
  7
CONVERTER_11
 11
0.0
 21
1.0
 31
0.0
 73
     1
 44
0.60024009603842
  0
ENDBLK
  5
E8
330
E0
100
AcDbEntity
  8
0
100
AcDbBlockEnd
  0
BLOCK
  5
134
330
12D
100
AcDbEntity
  8
0
100
AcDbBlockBegin
  2
*D18
 70
     1
 10
0.0
 20
0.0
 30
0.0
  3
*D18
  1

  0
LINE
  5
12E
330
12D
100
AcDbEntity
  8
1
  6
Continuous
 62
     2
100
AcDbLine
 10
-215.1007233176943
 20
-197.2999978676788
 30
0.0
 11
-204.6007233176943
 21
-197.2999978676788
 31
0.0
  0
LINE
  5
12F
330
12D
100
AcDbEntity
  8
1
  6
Continuous
 62
     2
100
AcDbLine
 10
-215.1007233176943
 20
-190.6999978676788
 30
0.0
 11
-215.1007233176943
 21
-197.5999978676788
 31
0.0
  0
LINE
  5
130
330
12D
100
AcDbEntity
  8
1
  6
Continuous
 62
     2
100
AcDbLine
 10
-204.6007233176943
 20
-190.6999978676788
 30
0.0
 11
-204.6007233176943
 21
-197.5999978676788
 31
0.0
  0
SOLID
  5
131
330
12D
100
AcDbEntity
  8
1
 62
     2
100
AcDbTrace
 10
-214.4007233176943
 20
-197.2078411193676
 30
0.0
 11
-214.4007233176943
 21
-197.39215461599
 31
0.0
 12
-215.1007233176943
 22
-197.2999978676788
 32
0.0
 13
-215.1007233176943
 23
-197.2999978676788
 33
0.0
  0
SOLID
  5
132
330
12D
100
AcDbEntity
  8
1
 62
     2
100
AcDbTrace
 10
-205.3007233176943
 20
-197.39215461599
 30
0.0
 11
-205.3007233176943
 21
-197.2078411193676
 31
0.0
 12
-204.6007233176943
 22
-197.2999978676788
 32
0.0
 13
-204.6007233176943
 23
-197.2999978676788
 33
0.0
  0
MTEXT
  5
133
330
12D
100
AcDbEntity
  8
1
 62
     3
100
AcDbMText
 10
-211.063956281822
 20
-196.9299978676788
 30
0.0
 40
0.7
 41
0.0
 71
     7
 72
     1
  1
10,5
  7
CONVERTER_11
 11
0.9999999999970619
 21
2.424068405545306E-6
 31
0.0
 73
     1
 44
0.60024009603842
  0
ENDBLK
  5
135
330
12D
100
AcDbEntity
  8
0
100
AcDbBlockEnd
  0
BLOCK
  5
13F
330
138
100
AcDbEntity
  8
0
100
AcDbBlockBegin
  2
*D19
 70
     1
 10
0.0
 20
0.0
 30
0.0
  3
*D19
  1

  0
LINE
  5
139
330
138
100
AcDbEntity
  8
1
  6
Continuous
 62
     2
100
AcDbLine
 10
-217.3102393281694
 20
-190.6999978676788
 30
0.0
 11
-217.3102393281694
 21
-194.899997867679
 31
0.0
  0
LINE
  5
13A
330
138
100
AcDbEntity
  8
1
  6
Continuous
 62
     2
100
AcDbLine
 10
-207.0257233176944
 20
-194.899997867679
 30
0.0
 11
-217.7102393281694
 21
-194.899997867679
 31
0.0
  0
LINE
  5
13B
330
138
100
AcDbEntity
  8
1
  6
Continuous
 62
     2
100
AcDbLine
 10
-204.6007233176942
 20
-190.6999978676788
 30
0.0
 11
-217.7102393281694
 21
-190.6999978676788
 31
0.0
  0
SOLID
  5
13C
330
138
100
AcDbEntity
  8
1
 62
     2
100
AcDbTrace
 10
-217.2180825798582
 20
-191.3999978676788
 30
0.0
 11
-217.4023960764806
 21
-191.3999978676788
 31
0.0
 12
-217.3102393281694
 22
-190.6999978676788
 32
0.0
 13
-217.3102393281694
 23
-190.6999978676788
 33
0.0
  0
SOLID
  5
13D
330
138
100
AcDbEntity
  8
1
 62
     2
100
AcDbTrace
 10
-217.4023960764806
 20
-194.1999978676791
 30
0.0
 11
-217.2180825798582
 21
-194.1999978676791
 31
0.0
 12
-217.3102393281694
 22
-194.899997867679
 32
0.0
 13
-217.3102393281694
 23
-194.899997867679
 33
0.0
  0
MTEXT
  5
13E
330
138
100
AcDbEntity
  8
1
 62
     3
100
AcDbMText
 10
-217.7802393281694
 20
-193.636420346656
 30
0.0
 40
0.7
 41
0.0
 71
     7
 72
     1
  1
4,2
  7
CONVERTER_11
 11
0.0
 21
1.0
 31
0.0
 73
     1
 44
0.60024009603842
  0
ENDBLK
  5
140
330
138
100
AcDbEntity
  8
0
100
AcDbBlockEnd
  0
ENDSEC
  0
SECTION
  2
ENTITIES
  0
INSERT
  5
B5
330
1F
100
AcDbEntity
  8
1
100
AcDbBlockReference
  2
1
 10
0.0
 20
0.0
 30
0.0
  0
ENDSEC
  0
SECTION
  2
OBJECTS
  0
DICTIONARY
  5
C
330
0
100
AcDbDictionary
281
     1
  3
ACAD_DETAILVIEWSTYLE
350
2C1
  3
ACAD_GROUP
350
D
  3
ACAD_LAYOUT
350
1A
  3
ACAD_MATERIAL
350
43
  3
ACAD_MLEADERSTYLE
350
6B
  3
ACAD_MLINESTYLE
350
17
  3
ACAD_PLOTSETTINGS
350
19
  3
ACAD_PLOTSTYLENAME
350
E
  3
ACAD_SCALELIST
350
47
  3
ACAD_SECTIONVIEWSTYLE
350
2C2
  3
ACAD_TABLESTYLE
350
69
  3
ACAD_VISUALSTYLE
350
2A
  3
ACDB_RECOMPOSE_DATA
350
2BE
  3
AcDbVariableDictionary
350
27E
  0
DICTIONARY
  5
27C
330
8
100
AcDbDictionary
280
     1
281
     1
  3
ACAD_XREC_ROUNDTRIP
360
27D
  0
DICTIONARY
  5
2C1
102
{ACAD_REACTORS
330
C
102
}
330
C
100
AcDbDictionary
281
     1
  0
DICTIONARY
  5
D
102
{ACAD_REACTORS
330
C
102
}
330
C
100
AcDbDictionary
281
     1
  0
DICTIONARY
  5
1A
102
{ACAD_REACTORS
330
C
102
}
330
C
100
AcDbDictionary
281
     1
  3
Layout1
350
1E
  3
Layout2
350
26
  3
Model
350
22
  0
DICTIONARY
  5
43
102
{ACAD_REACTORS
330
C
102
}
330
C
100
AcDbDictionary
281
     1
  3
ByBlock
350
45
  3
ByLayer
350
44
  3
Global
350
46
  0
DICTIONARY
  5
6B
102
{ACAD_REACTORS
330
C
102
}
330
C
100
AcDbDictionary
281
     1
  3
Standard
350
6C
  0
DICTIONARY
  5
17
102
{ACAD_REACTORS
330
C
102
}
330
C
100
AcDbDictionary
281
     1
  3
Standard
350
18
  0
DICTIONARY
  5
19
102
{ACAD_REACTORS
330
C
102
}
330
C
100
AcDbDictionary
281
     1
  0
ACDBDICTIONARYWDFLT
  5
E
102
{ACAD_REACTORS
330
C
102
}
330
C
100
AcDbDictionary
281
     1
  3
Normal
350
F
100
AcDbDictionaryWithDefault
340
F
  0
DICTIONARY
  5
47
102
{ACAD_REACTORS
330
C
102
}
330
C
100
AcDbDictionary
281
     1
  3
A0
350
48
  3
A1
350
49
  3
A2
350
4A
  3
A3
350
4B
  3
A4
350
4C
  3
A5
350
4D
  3
A6
350
4E
  3
A7
350
4F
  3
A8
350
50
  3
A9
350
51
  3
B0
350
52
  3
B1
350
53
  3
B2
350
54
  3
B3
350
55
  3
B4
350
56
  3
B5
350
57
  3
B6
350
58
  3
B7
350
59
  3
B8
350
5A
  3
B9
350
5B
  3
C0
350
5C
  3
C1
350
5D
  3
C2
350
5E
  3
C3
350
5F
  3
C4
350
60
  3
C5
350
61
  3
C6
350
62
  3
C7
350
63
  3
C8
350
64
  3
C9
350
65
  3
D0
350
66
  3
D1
350
67
  3
D2
350
68
  0
DICTIONARY
  5
2C2
102
{ACAD_REACTORS
330
C
102
}
330
C
100
AcDbDictionary
281
     1
  0
DICTIONARY
  5
69
102
{ACAD_REACTORS
330
C
102
}
330
C
100
AcDbDictionary
281
     1
  3
Standard
350
6A
  0
DICTIONARY
  5
2A
102
{ACAD_REACTORS
330
C
102
}
330
C
100
AcDbDictionary
281
     1
  3
2dWireframe
350
2F
  3
Basic
350
32
  3
Brighten
350
36
  3
ColorChange
350
3A
  3
Conceptual
350
34
  3
Dim
350
35
  3
EdgeColorOff
350
3D
  3
Facepattern
350
39
  3
Flat
350
2B
  3
FlatWithEdges
350
2C
  3
Gouraud
350
2D
  3
GouraudWithEdges
350
2E
  3
Hidden
350
31
  3
JitterOff
350
3B
  3
Linepattern
350
38
  3
OverhangOff
350
3C
  3
Realistic
350
33
  3
Shaded
350
42
  3
Shaded with edges
350
41
  3
Shades of Gray
350
3E
  3
Sketchy
350
3F
  3
Thicken
350
37
  3
Wireframe
350
30
  3
X-Ray
350
40
  0
XRECORD
  5
2BE
102
{ACAD_REACTORS
330
C
102
}
330
C
100
AcDbXrecord
280
     1
 90
        1
330
6A
  0
DICTIONARY
  5
27E
102
{ACAD_REACTORS
330
C
102
}
330
C
100
AcDbDictionary
281
     1
  3
CANNOSCALE
350
27F
  3
CMLEADERSTYLE
350
2C0
  3
CTABLESTYLE
350
2BF
  3
MSLTSCALE
350
280
  3
XCLIPFRAME
350
281
  0
XRECORD
  5
27D
102
{ACAD_REACTORS
330
27C
102
}
330
27C
100
AcDbXrecord
280
     1
102
VTR_0.000_0.000_1.000_1.000_VISUALSTYLE
340
2F
102
VTR_0.000_0.000_1.000_1.000_GRIDDISPLAY
 70
     3
102
VTR_0.000_0.000_1.000_1.000_GRIDMAJOR
 70
     5
102
VTR_0.000_0.000_1.000_1.000_DEFAULTLIGHTING
280
     1
102
VTR_0.000_0.000_1.000_1.000_DEFAULTLIGHTINGTYPE
 70
     1
102
VTR_0.000_0.000_1.000_1.000_BRIGHTNESS
141
0.0
102
VTR_0.000_0.000_1.000_1.000_CONTRAST
142
0.0
  0
LAYOUT
  5
1E
102
{ACAD_REACTORS
330
1A
102
}
330
1A
100
AcDbPlotSettings
  1

  2
none_device
  4

  6

 40
0.0
 41
0.0
 42
0.0
 43
0.0
 44
0.0
 45
0.0
 46
0.0
 47
0.0
 48
0.0
 49
0.0
140
0.0
141
0.0
142
1.0
143
1.0
 70
   688
 72
     0
 73
     0
 74
     5
  7

 75
    16
 76
     0
 77
     2
 78
   300
147
1.0
148
0.0
149
0.0
100
AcDbLayout
  1
Layout1
 70
     1
 71
     1
 10
0.0
 20
0.0
 11
12.0
 21
9.0
 12
0.0
 22
0.0
 32
0.0
 14
1.00000000000000E+20
 24
1.00000000000000E+20
 34
1.00000000000000E+20
 15
-1.00000000000000E+20
 25
-1.00000000000000E+20
 35
-1.00000000000000E+20
146
0.0
 13
0.0
 23
0.0
 33
0.0
 16
1.0
 26
0.0
 36
0.0
 17
0.0
 27
1.0
 37
0.0
 76
     0
330
1B
  0
LAYOUT
  5
26
102
{ACAD_REACTORS
330
1A
102
}
330
1A
100
AcDbPlotSettings
  1

  2
none_device
  4

  6

 40
0.0
 41
0.0
 42
0.0
 43
0.0
 44
0.0
 45
0.0
 46
0.0
 47
0.0
 48
0.0
 49
0.0
140
0.0
141
0.0
142
1.0
143
1.0
 70
   688
 72
     0
 73
     0
 74
     5
  7

 75
    16
 76
     0
 77
     2
 78
   300
147
1.0
148
0.0
149
0.0
100
AcDbLayout
  1
Layout2
 70
     1
 71
     2
 10
0.0
 20
0.0
 11
0.0
 21
0.0
 12
0.0
 22
0.0
 32
0.0
 14
0.0
 24
0.0
 34
0.0
 15
0.0
 25
0.0
 35
0.0
146
0.0
 13
0.0
 23
0.0
 33
0.0
 16
1.0
 26
0.0
 36
0.0
 17
0.0
 27
1.0
 37
0.0
 76
     0
330
23
  0
LAYOUT
  5
22
102
{ACAD_REACTORS
330
1A
102
}
330
1A
100
AcDbPlotSettings
  1

  2
none_device
  4
Letter_(8.50_x_11.00_Inches)
  6

 40
6.35
 41
6.35
 42
6.35000508
 43
6.35000508
 44
215.9
 45
279.4
 46
0.0
 47
0.0
 48
0.0
 49
0.0
140
0.0
141
0.0
142
1.0
143
1.0
 70
  1712
 72
     0
 73
     0
 74
     0
  7

 75
     0
 76
     0
 77
     2
 78
   300
147
1.0
148
0.0
149
0.0
100
AcDbLayout
  1
Model
 70
     1
 71
     0
 10
0.0
 20
0.0
 11
12.0
 21
9.0
 12
0.0
 22
0.0
 32
0.0
 14
-1175.750002928101
 24
-1122.048554758902
 34
0.0
 15
-878.7500029281023
 25
-912.0485547589019
 35
0.0
146
0.0
 13
0.0
 23
0.0
 33
0.0
 16
1.0
 26
0.0
 36
0.0
 17
0.0
 27
1.0
 37
0.0
 76
     0
330
1F
331
29
  0
MATERIAL
  5
45
102
{ACAD_REACTORS
330
43
102
}
102
{ACAD_XDICTIONARY
360
2B4
102
}
330
43
100
AcDbMaterial
  1
ByBlock
  0
MATERIAL
  5
44
102
{ACAD_REACTORS
330
43
102
}
102
{ACAD_XDICTIONARY
360
2B2
102
}
330
43
100
AcDbMaterial
  1
ByLayer
  0
MATERIAL
  5
46
102
{ACAD_REACTORS
330
43
102
}
102
{ACAD_XDICTIONARY
360
2B6
102
}
330
43
100
AcDbMaterial
  1
Global
  0
MLEADERSTYLE
  5
6C
102
{ACAD_REACTORS
330
6B
102
}
102
{ACAD_XDICTIONARY
360
2BC
102
}
330
6B
100
AcDbMLeaderStyle
170
     2
171
     1
172
     0
 90
        2
 40
0.0
 41
0.0
173
     1
 91
-1056964608
340
14
 92
       -2
290
     1
 42
0.09
291
     1
 43
0.36
  3
Standard
341
0
 44
0.18
300

342
11
174
     1
178
     6
175
     1
176
     0
 93
-1056964608
 45
0.18
292
     0
297
     0
 46
0.18
343
0
 94
-1056964608
 47
1.0
 49
1.0
140
1.0
293
     1
141
0.0
294
     1
177
     0
142
1.0
295
     0
296
     0
143
0.125
1001
ACAD_MLEADERVER
1070
     2
  0
MLINESTYLE
  5
18
102
{ACAD_REACTORS
330
17
102
}
330
17
100
AcDbMlineStyle
  2
Standard
 70
     0
  3

 62
   256
 51
90.0
 52
90.0
 71
     2
 49
0.5
 62
   256
  6
BYLAYER
 49
-0.5
 62
   256
  6
BYLAYER
  0
ACDBPLACEHOLDER
  5
F
102
{ACAD_REACTORS
330
E
102
}
330
E
  0
SCALE
  5
48
102
{ACAD_REACTORS
330
47
102
}
330
47
100
AcDbScale
 70
     0
300
1:1
140
1.0
141
1.0
290
     1
  0
SCALE
  5
49
102
{ACAD_REACTORS
330
47
102
}
330
47
100
AcDbScale
 70
     0
300
1:2
140
1.0
141
2.0
290
     0
  0
SCALE
  5
4A
102
{ACAD_REACTORS
330
47
102
}
330
47
100
AcDbScale
 70
     0
300
1:4
140
1.0
141
4.0
290
     0
  0
SCALE
  5
4B
102
{ACAD_REACTORS
330
47
102
}
330
47
100
AcDbScale
 70
     0
300
1:5
140
1.0
141
5.0
290
     0
  0
SCALE
  5
4C
102
{ACAD_REACTORS
330
47
102
}
330
47
100
AcDbScale
 70
     0
300
1:8
140
1.0
141
8.0
290
     0
  0
SCALE
  5
4D
102
{ACAD_REACTORS
330
47
102
}
330
47
100
AcDbScale
 70
     0
300
1:10
140
1.0
141
10.0
290
     0
  0
SCALE
  5
4E
102
{ACAD_REACTORS
330
47
102
}
330
47
100
AcDbScale
 70
     0
300
1:16
140
1.0
141
16.0
290
     0
  0
SCALE
  5
4F
102
{ACAD_REACTORS
330
47
102
}
330
47
100
AcDbScale
 70
     0
300
1:20
140
1.0
141
20.0
290
     0
  0
SCALE
  5
50
102
{ACAD_REACTORS
330
47
102
}
330
47
100
AcDbScale
 70
     0
300
1:30
140
1.0
141
30.0
290
     0
  0
SCALE
  5
51
102
{ACAD_REACTORS
330
47
102
}
330
47
100
AcDbScale
 70
     0
300
1:40
140
1.0
141
40.0
290
     0
  0
SCALE
  5
52
102
{ACAD_REACTORS
330
47
102
}
330
47
100
AcDbScale
 70
     0
300
1:50
140
1.0
141
50.0
290
     0
  0
SCALE
  5
53
102
{ACAD_REACTORS
330
47
102
}
330
47
100
AcDbScale
 70
     0
300
1:100
140
1.0
141
100.0
290
     0
  0
SCALE
  5
54
102
{ACAD_REACTORS
330
47
102
}
330
47
100
AcDbScale
 70
     0
300
2:1
140
2.0
141
1.0
290
     0
  0
SCALE
  5
55
102
{ACAD_REACTORS
330
47
102
}
330
47
100
AcDbScale
 70
     0
300
4:1
140
4.0
141
1.0
290
     0
  0
SCALE
  5
56
102
{ACAD_REACTORS
330
47
102
}
330
47
100
AcDbScale
 70
     0
300
8:1
140
8.0
141
1.0
290
     0
  0
SCALE
  5
57
102
{ACAD_REACTORS
330
47
102
}
330
47
100
AcDbScale
 70
     0
300
10:1
140
10.0
141
1.0
290
     0
  0
SCALE
  5
58
102
{ACAD_REACTORS
330
47
102
}
330
47
100
AcDbScale
 70
     0
300
100:1
140
100.0
141
1.0
290
     0
  0
SCALE
  5
59
102
{ACAD_REACTORS
330
47
102
}
330
47
100
AcDbScale
 70
     0
300
1/128" = 1'-0"
140
0.0078125
141
12.0
290
     0
  0
SCALE
  5
5A
102
{ACAD_REACTORS
330
47
102
}
330
47
100
AcDbScale
 70
     0
300
1/64" = 1'-0"
140
0.015625
141
12.0
290
     0
  0
SCALE
  5
5B
102
{ACAD_REACTORS
330
47
102
}
330
47
100
AcDbScale
 70
     0
300
1/32" = 1'-0"
140
0.03125
141
12.0
290
     0
  0
SCALE
  5
5C
102
{ACAD_REACTORS
330
47
102
}
330
47
100
AcDbScale
 70
     0
300
1/16" = 1'-0"
140
0.0625
141
12.0
290
     0
  0
SCALE
  5
5D
102
{ACAD_REACTORS
330
47
102
}
330
47
100
AcDbScale
 70
     0
300
3/32" = 1'-0"
140
0.09375
141
12.0
290
     0
  0
SCALE
  5
5E
102
{ACAD_REACTORS
330
47
102
}
330
47
100
AcDbScale
 70
     0
300
1/8" = 1'-0"
140
0.125
141
12.0
290
     0
  0
SCALE
  5
5F
102
{ACAD_REACTORS
330
47
102
}
330
47
100
AcDbScale
 70
     0
300
3/16" = 1'-0"
140
0.1875
141
12.0
290
     0
  0
SCALE
  5
60
102
{ACAD_REACTORS
330
47
102
}
330
47
100
AcDbScale
 70
     0
300
1/4" = 1'-0"
140
0.25
141
12.0
290
     0
  0
SCALE
  5
61
102
{ACAD_REACTORS
330
47
102
}
330
47
100
AcDbScale
 70
     0
300
3/8" = 1'-0"
140
0.375
141
12.0
290
     0
  0
SCALE
  5
62
102
{ACAD_REACTORS
330
47
102
}
330
47
100
AcDbScale
 70
     0
300
1/2" = 1'-0"
140
0.5
141
12.0
290
     0
  0
SCALE
  5
63
102
{ACAD_REACTORS
330
47
102
}
330
47
100
AcDbScale
 70
     0
300
3/4" = 1'-0"
140
0.75
141
12.0
290
     0
  0
SCALE
  5
64
102
{ACAD_REACTORS
330
47
102
}
330
47
100
AcDbScale
 70
     0
300
1" = 1'-0"
140
1.0
141
12.0
290
     0
  0
SCALE
  5
65
102
{ACAD_REACTORS
330
47
102
}
330
47
100
AcDbScale
 70
     0
300
1-1/2" = 1'-0"
140
1.5
141
12.0
290
     0
  0
SCALE
  5
66
102
{ACAD_REACTORS
330
47
102
}
330
47
100
AcDbScale
 70
     0
300
3" = 1'-0"
140
3.0
141
12.0
290
     0
  0
SCALE
  5
67
102
{ACAD_REACTORS
330
47
102
}
330
47
100
AcDbScale
 70
     0
300
6" = 1'-0"
140
6.0
141
12.0
290
     0
  0
SCALE
  5
68
102
{ACAD_REACTORS
330
47
102
}
330
47
100
AcDbScale
 70
     0
300
1'-0" = 1'-0"
140
12.0
141
12.0
290
     0
  0
TABLESTYLE
  5
6A
102
{ACAD_REACTORS
330
69
102
}
102
{ACAD_XDICTIONARY
360
2B8
102
}
330
69
100
AcDbTableStyle
  3
Standard
 70
     0
 71
     0
 40
0.06
 41
0.06
280
     0
281
     0
  7
Standard
140
0.18
170
     2
 62
     0
 63
   257
283
     0
274
    -2
284
     1
 64
     0
275
    -2
285
     1
 65
     0
276
    -2
286
     1
 66
     0
277
    -2
287
     1
 67
     0
278
    -2
288
     1
 68
     0
279
    -2
289
     1
 69
     0
  7
Standard
140
0.25
170
     5
 62
     0
 63
   257
283
     0
274
    -2
284
     1
 64
     0
275
    -2
285
     1
 65
     0
276
    -2
286
     1
 66
     0
277
    -2
287
     1
 67
     0
278
    -2
288
     1
 68
     0
279
    -2
289
     1
 69
     0
  7
Standard
140
0.18
170
     5
 62
     0
 63
   257
283
     0
274
    -2
284
     1
 64
     0
275
    -2
285
     1
 65
     0
276
    -2
286
     1
 66
     0
277
    -2
287
     1
 67
     0
278
    -2
288
     1
 68
     0
279
    -2
289
     1
 69
     0
  0
VISUALSTYLE
  5
2F
102
{ACAD_REACTORS
330
2A
102
}
102
{ACAD_XDICTIONARY
360
28A
102
}
330
2A
100
AcDbVisualStyle
  2
2dWireframe
 70
     4
 71
     0
 72
     2
 73
     0
 90
        0
 40
0.6
 41
30.0
 62
     5
 63
     7
421
 16777215
 74
     1
 91
        4
 64
     7
 65
   257
 75
     1
175
     1
 42
1.0
 92
        0
 66
   257
 43
1.0
 76
     1
 77
     6
 78
     2
 67
     7
 79
     5
170
     0
171
     0
290
     0
174
     0
 93
        1
 44
0.0
173
     0
291
     0
 45
0.0
1001
ACAD
1000
AcDbSavedByObjectVersion
1070
     0
  0
VISUALSTYLE
  5
32
102
{ACAD_REACTORS
330
2A
102
}
102
{ACAD_XDICTIONARY
360
290
102
}
330
2A
100
AcDbVisualStyle
  2
Basic
 70
     7
 71
     1
 72
     0
 73
     1
 90
        0
 40
0.6
 41
30.0
 62
     5
 63
     7
421
 16777215
 74
     0
 91
        4
 64
     7
 65
   257
 75
     1
175
     1
 42
1.0
 92
        8
 66
     7
 43
1.0
 76
     1
 77
     6
 78
     2
 67
     7
 79
     5
170
     0
171
     0
290
     0
174
     0
 93
        1
 44
0.0
173
     0
291
     1
 45
0.0
1001
ACAD
1000
AcDbSavedByObjectVersion
1070
     0
  0
VISUALSTYLE
  5
36
102
{ACAD_REACTORS
330
2A
102
}
102
{ACAD_XDICTIONARY
360
298
102
}
330
2A
100
AcDbVisualStyle
  2
Brighten
 70
    12
 71
     2
 72
     2
 73
     0
 90
        0
 40
0.6
 41
30.0
 62
     5
 63
     7
421
 16777215
 74
     1
 91
        4
 64
     7
 65
   257
 75
     1
175
     1
 42
1.0
 92
        8
 66
     7
 43
1.0
 76
     1
 77
     6
 78
     2
 67
     7
 79
     5
170
     0
171
     0
290
     0
174
     0
 93
        1
 44
50.0
173
     0
291
     1
 45
0.0
1001
ACAD
1000
AcDbSavedByObjectVersion
1070
     0
  0
VISUALSTYLE
  5
3A
102
{ACAD_REACTORS
330
2A
102
}
102
{ACAD_XDICTIONARY
360
2A0
102
}
330
2A
100
AcDbVisualStyle
  2
ColorChange
 70
    16
 71
     2
 72
     2
 73
     3
 90
        0
 40
0.6
 41
30.0
 62
     5
 63
     8
421
  8421504
 74
     1
 91
        4
 64
     7
 65
   257
 75
     1
175
     1
 42
1.0
 92
        8
 66
     8
424
  8421504
 43
1.0
 76
     1
 77
     6
 78
     2
 67
     7
 79
     5
170
     0
171
     0
290
     0
174
     0
 93
        1
 44
0.0
173
     0
291
     1
 45
0.0
1001
ACAD
1000
AcDbSavedByObjectVersion
1070
     0
  0
VISUALSTYLE
  5
34
102
{ACAD_REACTORS
330
2A
102
}
102
{ACAD_XDICTIONARY
360
294
102
}
330
2A
100
AcDbVisualStyle
  2
Conceptual
 70
     9
 71
     3
 72
     2
 73
     0
 90
        0
 40
0.6
 41
30.0
 62
     5
 63
     7
421
 16777215
 74
     2
 91
        2
 64
     7
 65
   257
 75
     1
175
     1
 42
179.0
 92
        8
 66
     7
 43
1.0
 76
     1
 77
     6
 78
     2
 67
     7
 79
     3
170
     0
171
     0
290
     0
174
     0
 93
        1
 44
0.0
173
     0
291
     0
 45
0.0
1001
ACAD
1000
AcDbSavedByObjectVersion
1070
     0
  0
VISUALSTYLE
  5
35
102
{ACAD_REACTORS
330
2A
102
}
102
{ACAD_XDICTIONARY
360
296
102
}
330
2A
100
AcDbVisualStyle
  2
Dim
 70
    11
 71
     2
 72
     2
 73
     0
 90
        0
 40
0.6
 41
30.0
 62
     5
 63
     7
421
 16777215
 74
     1
 91
        4
 64
     7
 65
   257
 75
     1
175
     1
 42
1.0
 92
        8
 66
     7
 43
1.0
 76
     1
 77
     6
 78
     2
 67
     7
 79
     5
170
     0
171
     0
290
     0
174
     0
 93
        1
 44
-50.0
173
     0
291
     1
 45
0.0
1001
ACAD
1000
AcDbSavedByObjectVersion
1070
     0
  0
VISUALSTYLE
  5
3D
102
{ACAD_REACTORS
330
2A
102
}
102
{ACAD_XDICTIONARY
360
2A6
102
}
330
2A
100
AcDbVisualStyle
  2
EdgeColorOff
 70
    22
 71
     2
 72
     2
 73
     0
 90
        0
 40
0.6
 41
30.0
 62
     5
 63
     7
421
 16777215
 74
     1
 91
        4
 64
     7
 65
   257
 75
     1
175
     1
 42
1.0
 92
        8
 66
     7
 43
1.0
 76
     1
 77
     6
 78
     2
 67
     7
 79
     5
170
     0
171
     0
290
     0
174
     0
 93
        1
 44
0.0
173
     0
291
     1
 45
0.0
1001
ACAD
1000
AcDbSavedByObjectVersion
1070
     0
  0
VISUALSTYLE
  5
39
102
{ACAD_REACTORS
330
2A
102
}
102
{ACAD_XDICTIONARY
360
29E
102
}
330
2A
100
AcDbVisualStyle
  2
Facepattern
 70
    15
 71
     2
 72
     2
 73
     0
 90
        0
 40
0.6
 41
30.0
 62
     5
 63
     7
421
 16777215
 74
     1
 91
        4
 64
     7
 65
   257
 75
     1
175
     1
 42
1.0
 92
        8
 66
     7
 43
1.0
 76
     1
 77
     6
 78
     2
 67
     7
 79
     5
170
     0
171
     0
290
     0
174
     0
 93
        1
 44
0.0
173
     0
291
     1
 45
0.0
1001
ACAD
1000
AcDbSavedByObjectVersion
1070
     0
  0
VISUALSTYLE
  5
2B
102
{ACAD_REACTORS
330
2A
102
}
102
{ACAD_XDICTIONARY
360
282
102
}
330
2A
100
AcDbVisualStyle
  2
Flat
 70
     0
 71
     2
 72
     1
 73
     1
 90
        2
 40
0.6
 41
30.0
 62
     5
 63
     7
421
 16777215
 74
     0
 91
        0
 64
     7
 65
   257
 75
     1
175
     1
 42
1.0
 92
        8
 66
     7
 43
1.0
 76
     1
 77
     6
 78
     2
 67
     7
 79
     5
170
     0
171
     0
290
     0
174
     0
 93
       13
 44
0.0
173
     0
291
     1
 45
0.0
1001
ACAD
1000
AcDbSavedByObjectVersion
1070
     0
  0
VISUALSTYLE
  5
2C
102
{ACAD_REACTORS
330
2A
102
}
102
{ACAD_XDICTIONARY
360
284
102
}
330
2A
100
AcDbVisualStyle
  2
FlatWithEdges
 70
     1
 71
     2
 72
     1
 73
     1
 90
        2
 40
0.6
 41
30.0
 62
     5
 63
     7
421
 16777215
 74
     1
 91
        0
 64
     7
 65
   257
 75
     1
175
     1
 42
1.0
 92
        0
 66
   257
 43
1.0
 76
     1
 77
     6
 78
     2
 67
     7
 79
     5
170
     0
171
     0
290
     0
174
     0
 93
       13
 44
0.0
173
     0
291
     1
 45
0.0
1001
ACAD
1000
AcDbSavedByObjectVersion
1070
     0
  0
VISUALSTYLE
  5
2D
102
{ACAD_REACTORS
330
2A
102
}
102
{ACAD_XDICTIONARY
360
286
102
}
330
2A
100
AcDbVisualStyle
  2
Gouraud
 70
     2
 71
     2
 72
     2
 73
     1
 90
        2
 40
0.6
 41
30.0
 62
     5
 63
     7
421
 16777215
 74
     0
 91
        0
 64
     7
 65
   257
 75
     1
175
     1
 42
1.0
 92
        0
 66
     7
 43
1.0
 76
     1
 77
     6
 78
     2
 67
     7
 79
     5
170
     0
171
     0
290
     0
174
     0
 93
       13
 44
0.0
173
     0
291
     1
 45
0.0
1001
ACAD
1000
AcDbSavedByObjectVersion
1070
     0
  0
VISUALSTYLE
  5
2E
102
{ACAD_REACTORS
330
2A
102
}
102
{ACAD_XDICTIONARY
360
288
102
}
330
2A
100
AcDbVisualStyle
  2
GouraudWithEdges
 70
     3
 71
     2
 72
     2
 73
     1
 90
        2
 40
0.6
 41
30.0
 62
     5
 63
     7
421
 16777215
 74
     1
 91
        0
 64
     7
 65
   257
 75
     1
175
     1
 42
1.0
 92
        0
 66
   257
 43
1.0
 76
     1
 77
     6
 78
     2
 67
     7
 79
     5
170
     0
171
     0
290
     0
174
     0
 93
       13
 44
0.0
173
     0
291
     1
 45
0.0
1001
ACAD
1000
AcDbSavedByObjectVersion
1070
     0
  0
VISUALSTYLE
  5
31
102
{ACAD_REACTORS
330
2A
102
}
102
{ACAD_XDICTIONARY
360
28E
102
}
330
2A
100
AcDbVisualStyle
  2
Hidden
 70
     6
 71
     1
 72
     2
 73
     2
 90
        0
 40
0.6
 41
30.0
 62
     5
 63
     7
421
 16777215
 74
     2
 91
        2
 64
     7
 65
   257
 75
     2
175
     1
 42
40.0
 92
        0
 66
   257
 43
1.0
 76
     1
 77
     6
 78
     2
 67
     7
 79
     3
170
     0
171
     0
290
     0
174
     0
 93
        1
 44
0.0
173
     0
291
     0
 45
0.0
1001
ACAD
1000
AcDbSavedByObjectVersion
1070
     0
  0
VISUALSTYLE
  5
3B
102
{ACAD_REACTORS
330
2A
102
}
102
{ACAD_XDICTIONARY
360
2A2
102
}
330
2A
100
AcDbVisualStyle
  2
JitterOff
 70
    20
 71
     2
 72
     2
 73
     0
 90
        0
 40
0.6
 41
30.0
 62
     5
 63
     7
421
 16777215
 74
     1
 91
        4
 64
     7
 65
   257
 75
     1
175
     1
 42
1.0
 92
       10
 66
     7
 43
1.0
 76
     1
 77
     6
 78
     2
 67
     7
 79
     5
170
     0
171
     0
290
     0
174
     0
 93
        1
 44
0.0
173
     0
291
     1
 45
0.0
1001
ACAD
1000
AcDbSavedByObjectVersion
1070
     0
  0
VISUALSTYLE
  5
38
102
{ACAD_REACTORS
330
2A
102
}
102
{ACAD_XDICTIONARY
360
29C
102
}
330
2A
100
AcDbVisualStyle
  2
Linepattern
 70
    14
 71
     2
 72
     2
 73
     0
 90
        0
 40
0.6
 41
30.0
 62
     5
 63
     7
421
 16777215
 74
     1
 91
        4
 64
     7
 65
   257
 75
     7
175
     7
 42
1.0
 92
        8
 66
     7
 43
1.0
 76
     1
 77
     6
 78
     2
 67
     7
 79
     5
170
     0
171
     0
290
     0
174
     0
 93
        1
 44
0.0
173
     0
291
     1
 45
0.0
1001
ACAD
1000
AcDbSavedByObjectVersion
1070
     0
  0
VISUALSTYLE
  5
3C
102
{ACAD_REACTORS
330
2A
102
}
102
{ACAD_XDICTIONARY
360
2A4
102
}
330
2A
100
AcDbVisualStyle
  2
OverhangOff
 70
    21
 71
     2
 72
     2
 73
     0
 90
        0
 40
0.6
 41
30.0
 62
     5
 63
     7
421
 16777215
 74
     1
 91
        4
 64
     7
 65
   257
 75
     1
175
     1
 42
1.0
 92
        9
 66
     7
 43
1.0
 76
     1
 77
     6
 78
     2
 67
     7
 79
     5
170
     0
171
     0
290
     0
174
     0
 93
        1
 44
0.0
173
     0
291
     1
 45
0.0
1001
ACAD
1000
AcDbSavedByObjectVersion
1070
     0
  0
VISUALSTYLE
  5
33
102
{ACAD_REACTORS
330
2A
102
}
102
{ACAD_XDICTIONARY
360
292
102
}
330
2A
100
AcDbVisualStyle
  2
Realistic
 70
     8
 71
     2
 72
     3
 73
     0
 90
        2
 40
0.6
 41
30.0
 62
     5
 63
     7
421
 16777215
 74
     0
 91
        0
 64
     7
 65
   257
 75
     1
175
     1
 42
1.0
 92
        8
 66
   257
 43
1.0
 76
     1
 77
     6
 78
     2
 67
     7
 79
     3
170
     0
171
     0
290
     0
174
     0
 93
       13
 44
0.0
173
     0
291
     0
 45
0.0
1001
ACAD
1000
AcDbSavedByObjectVersion
1070
     0
  0
VISUALSTYLE
  5
42
102
{ACAD_REACTORS
330
2A
102
}
102
{ACAD_XDICTIONARY
360
2B0
102
}
330
2A
100
AcDbVisualStyle
  2
Shaded
 70
    27
 71
     2
 72
     2
 73
     1
 90
        2
 40
0.6
 41
30.0
 62
     5
 63
     7
421
 16777215
 74
     0
 91
        4
 64
     7
 65
   257
 75
     1
175
     1
 42
1.0
 92
        8
 66
   257
 43
1.0
 76
     1
 77
     6
 78
     2
 67
     8
425
  7895160
 79
     3
170
     0
171
     0
290
     0
174
     0
 93
        5
 44
0.0
173
     0
291
     0
 45
0.0
1001
ACAD
1000
AcDbSavedByObjectVersion
1070
     0
  0
VISUALSTYLE
  5
41
102
{ACAD_REACTORS
330
2A
102
}
102
{ACAD_XDICTIONARY
360
2AE
102
}
330
2A
100
AcDbVisualStyle
  2
Shaded with edges
 70
    26
 71
     2
 72
     2
 73
     1
 90
        2
 40
0.6
 41
30.0
 62
     5
 63
     7
421
 16777215
 74
     1
 91
       10
 64
     7
 65
   257
 75
     2
175
     1
 42
1.0
 92
        8
 66
   257
 43
1.0
 76
     1
 77
     6
 78
     2
 67
     7
 79
     3
170
     0
171
     0
290
     0
174
     0
 93
        5
 44
0.0
173
     0
291
     0
 45
0.0
1001
ACAD
1000
AcDbSavedByObjectVersion
1070
     0
  0
VISUALSTYLE
  5
3E
102
{ACAD_REACTORS
330
2A
102
}
102
{ACAD_XDICTIONARY
360
2A8
102
}
330
2A
100
AcDbVisualStyle
  2
Shades of Gray
 70
    23
 71
     2
 72
     2
 73
     3
 90
        0
 40
0.6
 41
30.0
 62
     5
 63
     7
421
 16777215
 74
     2
 91
        2
 64
     7
 65
     7
 75
     1
175
     1
 42
40.0
 92
        8
 66
     7
 43
1.0
 76
     1
 77
     6
 78
     2
 67
     7
 79
     3
170
     0
171
     0
290
     0
174
     0
 93
        1
 44
0.0
173
     0
291
     0
 45
0.0
1001
ACAD
1000
AcDbSavedByObjectVersion
1070
     0
  0
VISUALSTYLE
  5
3F
102
{ACAD_REACTORS
330
2A
102
}
102
{ACAD_XDICTIONARY
360
2AA
102
}
330
2A
100
AcDbVisualStyle
  2
Sketchy
 70
    24
 71
     1
 72
     2
 73
     2
 90
        0
 40
0.6
 41
30.0
 62
     5
 63
     7
421
 16777215
 74
     2
 91
        2
 64
     7
 65
     7
 75
     1
175
     1
 42
40.0
 92
       11
 66
     7
 43
1.0
 76
     1
 77
     6
 78
     2
 67
     7
 79
     6
170
     0
171
     0
290
     0
174
     0
 93
        1
 44
0.0
173
     0
291
     0
 45
0.0
1001
ACAD
1000
AcDbSavedByObjectVersion
1070
     0
  0
VISUALSTYLE
  5
37
102
{ACAD_REACTORS
330
2A
102
}
102
{ACAD_XDICTIONARY
360
29A
102
}
330
2A
100
AcDbVisualStyle
  2
Thicken
 70
    13
 71
     2
 72
     2
 73
     0
 90
        0
 40
0.6
 41
30.0
 62
     5
 63
     7
421
 16777215
 74
     1
 91
        4
 64
     7
 65
   257
 75
     1
175
     1
 42
1.0
 92
       12
 66
     7
 43
1.0
 76
     1
 77
     6
 78
     2
 67
     7
 79
     5
170
     0
171
     0
290
     0
174
     0
 93
        1
 44
0.0
173
     0
291
     1
 45
0.0
1001
ACAD
1000
AcDbSavedByObjectVersion
1070
     0
  0
VISUALSTYLE
  5
30
102
{ACAD_REACTORS
330
2A
102
}
102
{ACAD_XDICTIONARY
360
28C
102
}
330
2A
100
AcDbVisualStyle
  2
Wireframe
 70
     5
 71
     0
 72
     2
 73
     0
 90
        0
 40
0.6
 41
30.0
 62
     5
 63
     7
421
 16777215
 74
     1
 91
        4
 64
     7
 65
   257
 75
     1
175
     1
 42
1.0
 92
        0
 66
   257
 43
1.0
 76
     1
 77
     6
 78
     2
 67
     7
 79
     3
170
     0
171
     0
290
     0
174
     0
 93
        1
 44
0.0
173
     0
291
     0
 45
0.0
1001
ACAD
1000
AcDbSavedByObjectVersion
1070
     0
  0
VISUALSTYLE
  5
40
102
{ACAD_REACTORS
330
2A
102
}
102
{ACAD_XDICTIONARY
360
2AC
102
}
330
2A
100
AcDbVisualStyle
  2
X-Ray
 70
    25
 71
     2
 72
     2
 73
     1
 90
        1
 40
0.5
 41
30.0
 62
     5
 63
     7
421
 16777215
 74
     1
 91
        0
 64
     7
 65
   257
 75
     1
175
     1
 42
1.0
 92
        8
 66
     7
 43
1.0
 76
     1
 77
     6
 78
     2
 67
     7
 79
     3
170
     0
171
     0
290
     0
174
     0
 93
       13
 44
0.0
173
     0
291
     0
 45
0.0
1001
ACAD
1000
AcDbSavedByObjectVersion
1070
     0
  0
DICTIONARYVAR
  5
27F
102
{ACAD_REACTORS
330
27E
102
}
330
27E
100
DictionaryVariables
280
     0
  1
1:1
  0
DICTIONARYVAR
  5
2C0
102
{ACAD_REACTORS
330
27E
102
}
330
27E
100
DictionaryVariables
280
     0
  1
Standard
  0
DICTIONARYVAR
  5
2BF
102
{ACAD_REACTORS
330
27E
102
}
330
27E
100
DictionaryVariables
280
     0
  1
Standard
  0
DICTIONARYVAR
  5
280
102
{ACAD_REACTORS
330
27E
102
}
330
27E
100
DictionaryVariables
280
     0
  1
1
  0
DICTIONARYVAR
  5
281
102
{ACAD_REACTORS
330
27E
102
}
330
27E
100
DictionaryVariables
280
     0
  1
2
  0
DICTIONARY
  5
2B4
330
45
100
AcDbDictionary
280
     1
281
     1
  3
ACAD_XREC_ROUNDTRIP
360
2B5
  0
DICTIONARY
  5
2B2
330
44
100
AcDbDictionary
280
     1
281
     1
  3
ACAD_XREC_ROUNDTRIP
360
2B3
  0
DICTIONARY
  5
2B6
330
46
100
AcDbDictionary
280
     1
281
     1
  3
ACAD_XREC_ROUNDTRIP
360
2B7
  0
DICTIONARY
  5
2BC
330
6C
100
AcDbDictionary
280
     1
281
     1
  3
ACAD_XREC_ROUNDTRIP
360
2BD
  0
DICTIONARY
  5
2B8
330
6A
100
AcDbDictionary
280
     1
281
     1
  3
ACAD_ROUNDTRIP_2008_TABLESTYLE_CELLSTYLEMAP
360
2BA
  3
ACAD_XREC_ROUNDTRIP
360
2B9
  0
DICTIONARY
  5
28A
330
2F
100
AcDbDictionary
280
     1
281
     1
  3
ACAD_XREC_ROUNDTRIP
360
28B
  0
DICTIONARY
  5
290
330
32
100
AcDbDictionary
280
     1
281
     1
  3
ACAD_XREC_ROUNDTRIP
360
291
  0
DICTIONARY
  5
298
330
36
100
AcDbDictionary
280
     1
281
     1
  3
ACAD_XREC_ROUNDTRIP
360
299
  0
DICTIONARY
  5
2A0
330
3A
100
AcDbDictionary
280
     1
281
     1
  3
ACAD_XREC_ROUNDTRIP
360
2A1
  0
DICTIONARY
  5
294
330
34
100
AcDbDictionary
280
     1
281
     1
  3
ACAD_XREC_ROUNDTRIP
360
295
  0
DICTIONARY
  5
296
330
35
100
AcDbDictionary
280
     1
281
     1
  3
ACAD_XREC_ROUNDTRIP
360
297
  0
DICTIONARY
  5
2A6
330
3D
100
AcDbDictionary
280
     1
281
     1
  3
ACAD_XREC_ROUNDTRIP
360
2A7
  0
DICTIONARY
  5
29E
330
39
100
AcDbDictionary
280
     1
281
     1
  3
ACAD_XREC_ROUNDTRIP
360
29F
  0
DICTIONARY
  5
282
330
2B
100
AcDbDictionary
280
     1
281
     1
  3
ACAD_XREC_ROUNDTRIP
360
283
  0
DICTIONARY
  5
284
330
2C
100
AcDbDictionary
280
     1
281
     1
  3
ACAD_XREC_ROUNDTRIP
360
285
  0
DICTIONARY
  5
286
330
2D
100
AcDbDictionary
280
     1
281
     1
  3
ACAD_XREC_ROUNDTRIP
360
287
  0
DICTIONARY
  5
288
330
2E
100
AcDbDictionary
280
     1
281
     1
  3
ACAD_XREC_ROUNDTRIP
360
289
  0
DICTIONARY
  5
28E
330
31
100
AcDbDictionary
280
     1
281
     1
  3
ACAD_XREC_ROUNDTRIP
360
28F
  0
DICTIONARY
  5
2A2
330
3B
100
AcDbDictionary
280
     1
281
     1
  3
ACAD_XREC_ROUNDTRIP
360
2A3
  0
DICTIONARY
  5
29C
330
38
100
AcDbDictionary
280
     1
281
     1
  3
ACAD_XREC_ROUNDTRIP
360
29D
  0
DICTIONARY
  5
2A4
330
3C
100
AcDbDictionary
280
     1
281
     1
  3
ACAD_XREC_ROUNDTRIP
360
2A5
  0
DICTIONARY
  5
292
330
33
100
AcDbDictionary
280
     1
281
     1
  3
ACAD_XREC_ROUNDTRIP
360
293
  0
DICTIONARY
  5
2B0
330
42
100
AcDbDictionary
280
     1
281
     1
  3
ACAD_XREC_ROUNDTRIP
360
2B1
  0
DICTIONARY
  5
2AE
330
41
100
AcDbDictionary
280
     1
281
     1
  3
ACAD_XREC_ROUNDTRIP
360
2AF
  0
DICTIONARY
  5
2A8
330
3E
100
AcDbDictionary
280
     1
281
     1
  3
ACAD_XREC_ROUNDTRIP
360
2A9
  0
DICTIONARY
  5
2AA
330
3F
100
AcDbDictionary
280
     1
281
     1
  3
ACAD_XREC_ROUNDTRIP
360
2AB
  0
DICTIONARY
  5
29A
330
37
100
AcDbDictionary
280
     1
281
     1
  3
ACAD_XREC_ROUNDTRIP
360
29B
  0
DICTIONARY
  5
28C
330
30
100
AcDbDictionary
280
     1
281
     1
  3
ACAD_XREC_ROUNDTRIP
360
28D
  0
DICTIONARY
  5
2AC
330
40
100
AcDbDictionary
280
     1
281
     1
  3
ACAD_XREC_ROUNDTRIP
360
2AD
  0
XRECORD
  5
2B5
102
{ACAD_REACTORS
330
2B4
102
}
330
2B4
100
AcDbXrecord
280
     1
102
MATERIAL
148
0.0
149
0.0
149
0.0
 93
        0
 94
      127
282
     0
 72
     1
 77
     1
171
     1
175
     1
179
     1
273
     0
  0
XRECORD
  5
2B3
102
{ACAD_REACTORS
330
2B2
102
}
330
2B2
100
AcDbXrecord
280
     1
102
MATERIAL
148
0.0
149
0.0
149
0.0
 93
        0
 94
      127
282
     0
 72
     1
 77
     1
171
     1
175
     1
179
     1
273
     0
  0
XRECORD
  5
2B7
102
{ACAD_REACTORS
330
2B6
102
}
330
2B6
100
AcDbXrecord
280
     1
102
MATERIAL
148
0.0
149
0.0
149
0.0
 93
        0
 94
      127
282
     0
 72
     1
 77
     1
171
     1
175
     1
179
     1
273
     0
  0
XRECORD
  5
2BD
102
{ACAD_REACTORS
330
2BC
102
}
330
2BC
100
AcDbXrecord
280
     1
102
ACAD_ROUNDTRIP_2010_MLEADER_STYLE
  0
CELLSTYLEMAP
  5
2BA
102
{ACAD_REACTORS
330
2B8
102
}
330
2B8
100
AcDbCellStyleMap
 90
        3
300
CELLSTYLE
  1
TABLEFORMAT_BEGIN
 90
        5
170
     1
 91
        0
 92
    32768
 62
   257
 93
        1
300
CONTENTFORMAT
  1
CONTENTFORMAT_BEGIN
 90
        0
 91
        0
 92
        4
 93
        0
300

 40
0.0
140
1.0
 94
        5
 62
     0
340
11
144
0.25
309
CONTENTFORMAT_END
171
     1
301
MARGIN
  1
CELLMARGIN_BEGIN
 40
0.06
 40
0.06
 40
0.06
 40
0.06
 40
0.06
 40
0.06
309
CELLMARGIN_END
 94
        6
 95
        1
302
GRIDFORMAT
  1
GRIDFORMAT_BEGIN
 90
        0
 91
        1
 62
     0
 92
       -2
340
14
 93
        0
 40
0.045
309
GRIDFORMAT_END
 95
        2
302
GRIDFORMAT
  1
GRIDFORMAT_BEGIN
 90
        0
 91
        1
 62
     0
 92
       -2
340
14
 93
        0
 40
0.045
309
GRIDFORMAT_END
 95
        4
302
GRIDFORMAT
  1
GRIDFORMAT_BEGIN
 90
        0
 91
        1
 62
     0
 92
       -2
340
14
 93
        0
 40
0.045
309
GRIDFORMAT_END
 95
        8
302
GRIDFORMAT
  1
GRIDFORMAT_BEGIN
 90
        0
 91
        1
 62
     0
 92
       -2
340
14
 93
        0
 40
0.045
309
GRIDFORMAT_END
 95
       16
302
GRIDFORMAT
  1
GRIDFORMAT_BEGIN
 90
        0
 91
        1
 62
     0
 92
       -2
340
14
 93
        0
 40
0.045
309
GRIDFORMAT_END
 95
       32
302
GRIDFORMAT
  1
GRIDFORMAT_BEGIN
 90
        0
 91
        1
 62
     0
 92
       -2
340
14
 93
        0
 40
0.045
309
GRIDFORMAT_END
309
TABLEFORMAT_END
  1
CELLSTYLE_BEGIN
 90
        1
 91
        1
300
_TITLE
309
CELLSTYLE_END
300
CELLSTYLE
  1
TABLEFORMAT_BEGIN
 90
        5
170
     1
 91
        0
 92
        0
 62
   257
 93
        1
300
CONTENTFORMAT
  1
CONTENTFORMAT_BEGIN
 90
        0
 91
        0
 92
        4
 93
        0
300

 40
0.0
140
1.0
 94
        5
 62
     0
340
11
144
0.18
309
CONTENTFORMAT_END
171
     1
301
MARGIN
  1
CELLMARGIN_BEGIN
 40
0.06
 40
0.06
 40
0.06
 40
0.06
 40
0.06
 40
0.06
309
CELLMARGIN_END
 94
        6
 95
        1
302
GRIDFORMAT
  1
GRIDFORMAT_BEGIN
 90
        0
 91
        1
 62
     0
 92
       -2
340
14
 93
        0
 40
0.045
309
GRIDFORMAT_END
 95
        2
302
GRIDFORMAT
  1
GRIDFORMAT_BEGIN
 90
        0
 91
        1
 62
     0
 92
       -2
340
14
 93
        0
 40
0.045
309
GRIDFORMAT_END
 95
        4
302
GRIDFORMAT
  1
GRIDFORMAT_BEGIN
 90
        0
 91
        1
 62
     0
 92
       -2
340
14
 93
        0
 40
0.045
309
GRIDFORMAT_END
 95
        8
302
GRIDFORMAT
  1
GRIDFORMAT_BEGIN
 90
        0
 91
        1
 62
     0
 92
       -2
340
14
 93
        0
 40
0.045
309
GRIDFORMAT_END
 95
       16
302
GRIDFORMAT
  1
GRIDFORMAT_BEGIN
 90
        0
 91
        1
 62
     0
 92
       -2
340
14
 93
        0
 40
0.045
309
GRIDFORMAT_END
 95
       32
302
GRIDFORMAT
  1
GRIDFORMAT_BEGIN
 90
        0
 91
        1
 62
     0
 92
       -2
340
14
 93
        0
 40
0.045
309
GRIDFORMAT_END
309
TABLEFORMAT_END
  1
CELLSTYLE_BEGIN
 90
        2
 91
        1
300
_HEADER
309
CELLSTYLE_END
300
CELLSTYLE
  1
TABLEFORMAT_BEGIN
 90
        5
170
     1
 91
        0
 92
        0
 62
   257
 93
        1
300
CONTENTFORMAT
  1
CONTENTFORMAT_BEGIN
 90
        0
 91
        0
 92
        4
 93
        0
300

 40
0.0
140
1.0
 94
        2
 62
     0
340
11
144
0.18
309
CONTENTFORMAT_END
171
     1
301
MARGIN
  1
CELLMARGIN_BEGIN
 40
0.06
 40
0.06
 40
0.06
 40
0.06
 40
0.06
 40
0.06
309
CELLMARGIN_END
 94
        6
 95
        1
302
GRIDFORMAT
  1
GRIDFORMAT_BEGIN
 90
        0
 91
        1
 62
     0
 92
       -2
340
14
 93
        0
 40
0.045
309
GRIDFORMAT_END
 95
        2
302
GRIDFORMAT
  1
GRIDFORMAT_BEGIN
 90
        0
 91
        1
 62
     0
 92
       -2
340
14
 93
        0
 40
0.045
309
GRIDFORMAT_END
 95
        4
302
GRIDFORMAT
  1
GRIDFORMAT_BEGIN
 90
        0
 91
        1
 62
     0
 92
       -2
340
14
 93
        0
 40
0.045
309
GRIDFORMAT_END
 95
        8
302
GRIDFORMAT
  1
GRIDFORMAT_BEGIN
 90
        0
 91
        1
 62
     0
 92
       -2
340
14
 93
        0
 40
0.045
309
GRIDFORMAT_END
 95
       16
302
GRIDFORMAT
  1
GRIDFORMAT_BEGIN
 90
        0
 91
        1
 62
     0
 92
       -2
340
14
 93
        0
 40
0.045
309
GRIDFORMAT_END
 95
       32
302
GRIDFORMAT
  1
GRIDFORMAT_BEGIN
 90
        0
 91
        1
 62
     0
 92
       -2
340
14
 93
        0
 40
0.045
309
GRIDFORMAT_END
309
TABLEFORMAT_END
  1
CELLSTYLE_BEGIN
 90
        3
 91
        2
300
_DATA
309
CELLSTYLE_END
  0
XRECORD
  5
2B9
102
{ACAD_REACTORS
330
2B8
102
}
330
2B8
100
AcDbXrecord
280
     1
102
ACAD_ROUNDTRIP_PRE2007_TABLESTYLE
 90
        4
 91
        0
  1

 92
        4
 93
        0
  2

 94
        4
 95
        0
  3

  0
XRECORD
  5
28B
102
{ACAD_REACTORS
330
28A
102
}
330
28A
100
AcDbXrecord
280
     1
102
RTVSPropertyOp0
 70
     1
102
RTVSPropertyOp1
 70
     1
102
RTVSPropertyOp2
 70
     1
102
RTVSPropertyOp3
 70
     1
102
RTVSPropertyOp4
 70
     1
102
RTVSPropertyOp5
 70
     1
102
RTVSPropertyOp6
 70
     1
102
RTVSPropertyOp7
 70
     1
102
RTVSPropertyOp8
 70
     1
102
RTVSPropertyOp9
 70
     1
102
RTVSPropertyOp10
 70
     1
102
RTVSPropertyOp11
 70
     1
102
RTVSPropertyOp12
 70
     1
102
RTVSPropertyOp13
 70
     1
102
RTVSPropertyOp14
 70
     1
102
RTVSPropertyOp15
 70
     1
102
RTVSPropertyOp16
 70
     1
102
RTVSPropertyOp17
 70
     1
102
RTVSPropertyOp18
 70
     1
102
RTVSPropertyOp19
 70
     1
102
RTVSPropertyOp20
 70
     1
102
RTVSPropertyOp21
 70
     1
102
RTVSPropertyOp22
 70
     1
102
RTVSPropertyOp23
 70
     1
102
RTVSPropertyOp24
 70
     1
102
RTVSPropertyOp25
 70
     1
102
RTVSPropertyOp26
 70
     1
102
RTVSPropertyOp27
 70
     1
102
RTVSPropertyOp28
 70
     1
102
RTVSPropertyOp29
 70
     1
102
RTVSPropertyOp30
 70
     1
102
RTVSPropertyOp31
 70
     1
102
RTVSPropertyOp32
 70
     1
102
RTVSPropertyOp33
 70
     1
102
RTVSPropertyOp34
 70
     1
102
RTVSPropertyOp35
 70
     1
102
RTVSPropertyOp36
 70
     1
102
RTVSPropertyOp37
 70
     1
102
RTVSPropertyOp38
 70
     1
102
RTVSPropertyOp39
 70
     1
102
RTVSPropertyOp40
 70
     1
102
RTVSPropertyOp41
 70
     1
102
RTVSPropertyOp42
 70
     1
102
RTVSPropertyOp43
 70
     1
102
RTVSPropertyOp44
 70
     1
102
RTVSPropertyOp45
 70
     1
102
RTVSPropertyOp46
 70
     1
102
RTVSPropertyOp47
 70
     1
102
RTVSPropertyOp48
 70
     1
102
RTVSPropertyOp49
 70
     1
102
RTVSPropertyOp50
 70
     1
102
RTVSPropertyOp51
 70
     0
102
RTVSPropertyOp52
 70
     0
102
RTVSPropertyOp53
 70
     1
102
RTVSPropertyOp54
 70
     1
102
RTVSPropertyOp55
 70
     1
102
RTVSPropertyOp56
 70
     1
102
RTVSPropertyOp57
 70
     1
102
RTVSPost2010Prop28
280
     1
102
RTVSPost2010PropOp28
 70
     1
102
RTVSPost2010Prop29
280
     1
102
RTVSPost2010PropOp29
 70
     1
102
RTVSPost2010Prop30
280
     0
102
RTVSPost2010PropOp30
 70
     1
102
RTVSPost2010Prop31
280
     0
102
RTVSPost2010PropOp31
 70
     1
102
RTVSPost2010Prop32
280
     0
102
RTVSPost2010PropOp32
 70
     1
102
RTVSPost2010Prop33
280
     0
102
RTVSPost2010PropOp33
 70
     1
102
RTVSPost2010Prop34
280
     0
102
RTVSPost2010PropOp34
 70
     1
102
RTVSPost2010Prop35
280
     0
102
RTVSPost2010PropOp35
 70
     1
102
RTVSPost2010Prop36
280
     0
102
RTVSPost2010PropOp36
 70
     1
102
RTVSPost2010Prop37
 90
       50
102
RTVSPost2010PropOp37
 70
     1
102
RTVSPost2010Prop38
140
0.0
102
RTVSPost2010PropOp38
 70
     1
102
RTVSPost2010Prop39
140
1.0
102
RTVSPost2010PropOp39
 70
     1
102
RTVSPost2010Prop40
 90
        0
102
RTVSPost2010PropOp40
 70
     1
102
RTVSPost2010Prop41ColorIndex
 90
       18
102
RTVSPost2010Prop41ColorRGB
 90
        0
102
RTVSPost2010PropOp41
 70
     1
102
RTVSPost2010Prop42
 90
       50
102
RTVSPost2010PropOp42
 70
     1
102
RTVSPost2010Prop43
 90
        3
102
RTVSPost2010PropOp43
 70
     1
102
RTVSPost2010Prop44ColorIndex
 90
        5
102
RTVSPost2010Prop44ColorRGB
 90
      255
102
RTVSPost2010PropOp44
 70
     1
102
RTVSPost2010Prop45
280
     0
102
RTVSPost2010PropOp45
 70
     1
102
RTVSPost2010Prop46
 90
       50
102
RTVSPost2010PropOp46
 70
     1
102
RTVSPost2010Prop47
 90
       50
102
RTVSPost2010PropOp47
 70
     1
102
RTVSPost2010Prop48
 90
       50
102
RTVSPost2010PropOp48
 70
     1
102
RTVSPost2010Prop49
280
     0
102
RTVSPost2010PropOp49
 70
     1
102
RTVSPost2010Prop50
 90
       50
102
RTVSPost2010PropOp50
 70
     1
102
RTVSPost2010Prop51ColorIndex
 90
      256
102
RTVSPost2010Prop51ColorRGB
 90
-16777216
102
RTVSPost2010PropOp51
 70
     0
102
RTVSPost2010Prop52
140
1.0
102
RTVSPost2010PropOp52
 70
     0
102
RTVSPost2010Prop53
 90
        2
102
RTVSPost2010PropOp53
 70
     1
102
RTVSPost2010Prop54
  1
strokes_ogs.tif
102
RTVSPost2010PropOp54
 70
     1
102
RTVSPost2010Prop55
280
     0
102
RTVSPost2010PropOp55
 70
     1
102
RTVSPost2010Prop56
140
1.0
102
RTVSPost2010PropOp56
 70
     1
102
RTVSPost2010Prop57
140
1.0
102
RTVSPost2010PropOp57
 70
     1
  0
XRECORD
  5
291
102
{ACAD_REACTORS
330
290
102
}
330
290
100
AcDbXrecord
280
     1
102
RTVSPropertyOp0
 70
     1
102
RTVSPropertyOp1
 70
     1
102
RTVSPropertyOp2
 70
     1
102
RTVSPropertyOp3
 70
     1
102
RTVSPropertyOp4
 70
     1
102
RTVSPropertyOp5
 70
     1
102
RTVSPropertyOp6
 70
     1
102
RTVSPropertyOp7
 70
     1
102
RTVSPropertyOp8
 70
     1
102
RTVSPropertyOp9
 70
     1
102
RTVSPropertyOp10
 70
     1
102
RTVSPropertyOp11
 70
     1
102
RTVSPropertyOp12
 70
     1
102
RTVSPropertyOp13
 70
     1
102
RTVSPropertyOp14
 70
     1
102
RTVSPropertyOp15
 70
     1
102
RTVSPropertyOp16
 70
     1
102
RTVSPropertyOp17
 70
     1
102
RTVSPropertyOp18
 70
     1
102
RTVSPropertyOp19
 70
     1
102
RTVSPropertyOp20
 70
     1
102
RTVSPropertyOp21
 70
     1
102
RTVSPropertyOp22
 70
     1
102
RTVSPropertyOp23
 70
     1
102
RTVSPropertyOp24
 70
     1
102
RTVSPropertyOp25
 70
     1
102
RTVSPropertyOp26
 70
     1
102
RTVSPropertyOp27
 70
     1
102
RTVSPropertyOp28
 70
     1
102
RTVSPropertyOp29
 70
     1
102
RTVSPropertyOp30
 70
     1
102
RTVSPropertyOp31
 70
     1
102
RTVSPropertyOp32
 70
     1
102
RTVSPropertyOp33
 70
     1
102
RTVSPropertyOp34
 70
     1
102
RTVSPropertyOp35
 70
     1
102
RTVSPropertyOp36
 70
     1
102
RTVSPropertyOp37
 70
     1
102
RTVSPropertyOp38
 70
     1
102
RTVSPropertyOp39
 70
     1
102
RTVSPropertyOp40
 70
     1
102
RTVSPropertyOp41
 70
     1
102
RTVSPropertyOp42
 70
     1
102
RTVSPropertyOp43
 70
     1
102
RTVSPropertyOp44
 70
     1
102
RTVSPropertyOp45
 70
     1
102
RTVSPropertyOp46
 70
     1
102
RTVSPropertyOp47
 70
     1
102
RTVSPropertyOp48
 70
     1
102
RTVSPropertyOp49
 70
     1
102
RTVSPropertyOp50
 70
     1
102
RTVSPropertyOp51
 70
     0
102
RTVSPropertyOp52
 70
     0
102
RTVSPropertyOp53
 70
     1
102
RTVSPropertyOp54
 70
     1
102
RTVSPropertyOp55
 70
     1
102
RTVSPropertyOp56
 70
     1
102
RTVSPropertyOp57
 70
     1
102
RTVSPost2010Prop28
280
     0
102
RTVSPost2010PropOp28
 70
     1
102
RTVSPost2010Prop29
280
     1
102
RTVSPost2010PropOp29
 70
     1
102
RTVSPost2010Prop30
280
     1
102
RTVSPost2010PropOp30
 70
     1
102
RTVSPost2010Prop31
280
     0
102
RTVSPost2010PropOp31
 70
     1
102
RTVSPost2010Prop32
280
     0
102
RTVSPost2010PropOp32
 70
     1
102
RTVSPost2010Prop33
280
     0
102
RTVSPost2010PropOp33
 70
     1
102
RTVSPost2010Prop34
280
     0
102
RTVSPost2010PropOp34
 70
     1
102
RTVSPost2010Prop35
280
     0
102
RTVSPost2010PropOp35
 70
     1
102
RTVSPost2010Prop36
280
     0
102
RTVSPost2010PropOp36
 70
     1
102
RTVSPost2010Prop37
 90
       50
102
RTVSPost2010PropOp37
 70
     1
102
RTVSPost2010Prop38
140
0.0
102
RTVSPost2010PropOp38
 70
     1
102
RTVSPost2010Prop39
140
1.0
102
RTVSPost2010PropOp39
 70
     1
102
RTVSPost2010Prop40
 90
        0
102
RTVSPost2010PropOp40
 70
     1
102
RTVSPost2010Prop41ColorIndex
 90
       18
102
RTVSPost2010Prop41ColorRGB
 90
        0
102
RTVSPost2010PropOp41
 70
     1
102
RTVSPost2010Prop42
 90
       50
102
RTVSPost2010PropOp42
 70
     1
102
RTVSPost2010Prop43
 90
        3
102
RTVSPost2010PropOp43
 70
     1
102
RTVSPost2010Prop44ColorIndex
 90
        5
102
RTVSPost2010Prop44ColorRGB
 90
      255
102
RTVSPost2010PropOp44
 70
     1
102
RTVSPost2010Prop45
280
     0
102
RTVSPost2010PropOp45
 70
     1
102
RTVSPost2010Prop46
 90
       50
102
RTVSPost2010PropOp46
 70
     1
102
RTVSPost2010Prop47
 90
       50
102
RTVSPost2010PropOp47
 70
     1
102
RTVSPost2010Prop48
 90
       50
102
RTVSPost2010PropOp48
 70
     1
102
RTVSPost2010Prop49
280
     0
102
RTVSPost2010PropOp49
 70
     1
102
RTVSPost2010Prop50
 90
       50
102
RTVSPost2010PropOp50
 70
     1
102
RTVSPost2010Prop51ColorIndex
 90
      256
102
RTVSPost2010Prop51ColorRGB
 90
-16777216
102
RTVSPost2010PropOp51
 70
     0
102
RTVSPost2010Prop52
140
1.0
102
RTVSPost2010PropOp52
 70
     0
102
RTVSPost2010Prop53
 90
        2
102
RTVSPost2010PropOp53
 70
     1
102
RTVSPost2010Prop54
  1
strokes_ogs.tif
102
RTVSPost2010PropOp54
 70
     1
102
RTVSPost2010Prop55
280
     0
102
RTVSPost2010PropOp55
 70
     1
102
RTVSPost2010Prop56
140
1.0
102
RTVSPost2010PropOp56
 70
     1
102
RTVSPost2010Prop57
140
1.0
102
RTVSPost2010PropOp57
 70
     1
  0
XRECORD
  5
299
102
{ACAD_REACTORS
330
298
102
}
330
298
100
AcDbXrecord
280
     1
102
RTVSPropertyOp0
 70
     1
102
RTVSPropertyOp1
 70
     1
102
RTVSPropertyOp2
 70
     1
102
RTVSPropertyOp3
 70
     1
102
RTVSPropertyOp4
 70
     1
102
RTVSPropertyOp5
 70
     1
102
RTVSPropertyOp6
 70
     1
102
RTVSPropertyOp7
 70
     1
102
RTVSPropertyOp8
 70
     1
102
RTVSPropertyOp9
 70
     1
102
RTVSPropertyOp10
 70
     1
102
RTVSPropertyOp11
 70
     1
102
RTVSPropertyOp12
 70
     1
102
RTVSPropertyOp13
 70
     1
102
RTVSPropertyOp14
 70
     1
102
RTVSPropertyOp15
 70
     1
102
RTVSPropertyOp16
 70
     1
102
RTVSPropertyOp17
 70
     1
102
RTVSPropertyOp18
 70
     1
102
RTVSPropertyOp19
 70
     1
102
RTVSPropertyOp20
 70
     1
102
RTVSPropertyOp21
 70
     1
102
RTVSPropertyOp22
 70
     1
102
RTVSPropertyOp23
 70
     1
102
RTVSPropertyOp24
 70
     1
102
RTVSPropertyOp25
 70
     1
102
RTVSPropertyOp26
 70
     1
102
RTVSPropertyOp27
 70
     1
102
RTVSPropertyOp28
 70
     1
102
RTVSPropertyOp29
 70
     1
102
RTVSPropertyOp30
 70
     1
102
RTVSPropertyOp31
 70
     1
102
RTVSPropertyOp32
 70
     1
102
RTVSPropertyOp33
 70
     1
102
RTVSPropertyOp34
 70
     1
102
RTVSPropertyOp35
 70
     1
102
RTVSPropertyOp36
 70
     1
102
RTVSPropertyOp37
 70
     1
102
RTVSPropertyOp38
 70
     1
102
RTVSPropertyOp39
 70
     1
102
RTVSPropertyOp40
 70
     1
102
RTVSPropertyOp41
 70
     1
102
RTVSPropertyOp42
 70
     1
102
RTVSPropertyOp43
 70
     1
102
RTVSPropertyOp44
 70
     1
102
RTVSPropertyOp45
 70
     1
102
RTVSPropertyOp46
 70
     1
102
RTVSPropertyOp47
 70
     1
102
RTVSPropertyOp48
 70
     1
102
RTVSPropertyOp49
 70
     1
102
RTVSPropertyOp50
 70
     1
102
RTVSPropertyOp51
 70
     0
102
RTVSPropertyOp52
 70
     0
102
RTVSPropertyOp53
 70
     1
102
RTVSPropertyOp54
 70
     1
102
RTVSPropertyOp55
 70
     1
102
RTVSPropertyOp56
 70
     1
102
RTVSPropertyOp57
 70
     1
102
RTVSPost2010Prop28
280
     0
102
RTVSPost2010PropOp28
 70
     1
102
RTVSPost2010Prop29
280
     1
102
RTVSPost2010PropOp29
 70
     1
102
RTVSPost2010Prop30
280
     1
102
RTVSPost2010PropOp30
 70
     1
102
RTVSPost2010Prop31
280
     0
102
RTVSPost2010PropOp31
 70
     1
102
RTVSPost2010Prop32
280
     0
102
RTVSPost2010PropOp32
 70
     1
102
RTVSPost2010Prop33
280
     0
102
RTVSPost2010PropOp33
 70
     1
102
RTVSPost2010Prop34
280
     0
102
RTVSPost2010PropOp34
 70
     1
102
RTVSPost2010Prop35
280
     0
102
RTVSPost2010PropOp35
 70
     1
102
RTVSPost2010Prop36
280
     0
102
RTVSPost2010PropOp36
 70
     1
102
RTVSPost2010Prop37
 90
       50
102
RTVSPost2010PropOp37
 70
     1
102
RTVSPost2010Prop38
140
0.0
102
RTVSPost2010PropOp38
 70
     1
102
RTVSPost2010Prop39
140
1.0
102
RTVSPost2010PropOp39
 70
     1
102
RTVSPost2010Prop40
 90
        0
102
RTVSPost2010PropOp40
 70
     1
102
RTVSPost2010Prop41ColorIndex
 90
       18
102
RTVSPost2010Prop41ColorRGB
 90
        0
102
RTVSPost2010PropOp41
 70
     1
102
RTVSPost2010Prop42
 90
       50
102
RTVSPost2010PropOp42
 70
     1
102
RTVSPost2010Prop43
 90
        3
102
RTVSPost2010PropOp43
 70
     1
102
RTVSPost2010Prop44ColorIndex
 90
        5
102
RTVSPost2010Prop44ColorRGB
 90
      255
102
RTVSPost2010PropOp44
 70
     1
102
RTVSPost2010Prop45
280
     0
102
RTVSPost2010PropOp45
 70
     1
102
RTVSPost2010Prop46
 90
       50
102
RTVSPost2010PropOp46
 70
     1
102
RTVSPost2010Prop47
 90
       50
102
RTVSPost2010PropOp47
 70
     1
102
RTVSPost2010Prop48
 90
       50
102
RTVSPost2010PropOp48
 70
     1
102
RTVSPost2010Prop49
280
     0
102
RTVSPost2010PropOp49
 70
     1
102
RTVSPost2010Prop50
 90
       50
102
RTVSPost2010PropOp50
 70
     1
102
RTVSPost2010Prop51ColorIndex
 90
      256
102
RTVSPost2010Prop51ColorRGB
 90
-16777216
102
RTVSPost2010PropOp51
 70
     0
102
RTVSPost2010Prop52
140
1.0
102
RTVSPost2010PropOp52
 70
     0
102
RTVSPost2010Prop53
 90
        2
102
RTVSPost2010PropOp53
 70
     1
102
RTVSPost2010Prop54
  1
strokes_ogs.tif
102
RTVSPost2010PropOp54
 70
     1
102
RTVSPost2010Prop55
280
     0
102
RTVSPost2010PropOp55
 70
     1
102
RTVSPost2010Prop56
140
1.0
102
RTVSPost2010PropOp56
 70
     1
102
RTVSPost2010Prop57
140
1.0
102
RTVSPost2010PropOp57
 70
     1
  0
XRECORD
  5
2A1
102
{ACAD_REACTORS
330
2A0
102
}
330
2A0
100
AcDbXrecord
280
     1
102
RTVSPropertyOp0
 70
     1
102
RTVSPropertyOp1
 70
     1
102
RTVSPropertyOp2
 70
     1
102
RTVSPropertyOp3
 70
     1
102
RTVSPropertyOp4
 70
     1
102
RTVSPropertyOp5
 70
     1
102
RTVSPropertyOp6
 70
     1
102
RTVSPropertyOp7
 70
     1
102
RTVSPropertyOp8
 70
     1
102
RTVSPropertyOp9
 70
     1
102
RTVSPropertyOp10
 70
     1
102
RTVSPropertyOp11
 70
     1
102
RTVSPropertyOp12
 70
     1
102
RTVSPropertyOp13
 70
     1
102
RTVSPropertyOp14
 70
     1
102
RTVSPropertyOp15
 70
     1
102
RTVSPropertyOp16
 70
     1
102
RTVSPropertyOp17
 70
     1
102
RTVSPropertyOp18
 70
     1
102
RTVSPropertyOp19
 70
     1
102
RTVSPropertyOp20
 70
     1
102
RTVSPropertyOp21
 70
     1
102
RTVSPropertyOp22
 70
     1
102
RTVSPropertyOp23
 70
     1
102
RTVSPropertyOp24
 70
     1
102
RTVSPropertyOp25
 70
     1
102
RTVSPropertyOp26
 70
     1
102
RTVSPropertyOp27
 70
     1
102
RTVSPropertyOp28
 70
     1
102
RTVSPropertyOp29
 70
     1
102
RTVSPropertyOp30
 70
     1
102
RTVSPropertyOp31
 70
     1
102
RTVSPropertyOp32
 70
     1
102
RTVSPropertyOp33
 70
     1
102
RTVSPropertyOp34
 70
     1
102
RTVSPropertyOp35
 70
     1
102
RTVSPropertyOp36
 70
     1
102
RTVSPropertyOp37
 70
     1
102
RTVSPropertyOp38
 70
     1
102
RTVSPropertyOp39
 70
     1
102
RTVSPropertyOp40
 70
     1
102
RTVSPropertyOp41
 70
     1
102
RTVSPropertyOp42
 70
     1
102
RTVSPropertyOp43
 70
     1
102
RTVSPropertyOp44
 70
     1
102
RTVSPropertyOp45
 70
     1
102
RTVSPropertyOp46
 70
     1
102
RTVSPropertyOp47
 70
     1
102
RTVSPropertyOp48
 70
     1
102
RTVSPropertyOp49
 70
     1
102
RTVSPropertyOp50
 70
     1
102
RTVSPropertyOp51
 70
     0
102
RTVSPropertyOp52
 70
     0
102
RTVSPropertyOp53
 70
     1
102
RTVSPropertyOp54
 70
     1
102
RTVSPropertyOp55
 70
     1
102
RTVSPropertyOp56
 70
     1
102
RTVSPropertyOp57
 70
     1
102
RTVSPost2010Prop28
280
     0
102
RTVSPost2010PropOp28
 70
     1
102
RTVSPost2010Prop29
280
     1
102
RTVSPost2010PropOp29
 70
     1
102
RTVSPost2010Prop30
280
     1
102
RTVSPost2010PropOp30
 70
     1
102
RTVSPost2010Prop31
280
     0
102
RTVSPost2010PropOp31
 70
     1
102
RTVSPost2010Prop32
280
     0
102
RTVSPost2010PropOp32
 70
     1
102
RTVSPost2010Prop33
280
     0
102
RTVSPost2010PropOp33
 70
     1
102
RTVSPost2010Prop34
280
     0
102
RTVSPost2010PropOp34
 70
     1
102
RTVSPost2010Prop35
280
     0
102
RTVSPost2010PropOp35
 70
     1
102
RTVSPost2010Prop36
280
     0
102
RTVSPost2010PropOp36
 70
     1
102
RTVSPost2010Prop37
 90
       50
102
RTVSPost2010PropOp37
 70
     1
102
RTVSPost2010Prop38
140
0.0
102
RTVSPost2010PropOp38
 70
     1
102
RTVSPost2010Prop39
140
1.0
102
RTVSPost2010PropOp39
 70
     1
102
RTVSPost2010Prop40
 90
        0
102
RTVSPost2010PropOp40
 70
     1
102
RTVSPost2010Prop41ColorIndex
 90
       18
102
RTVSPost2010Prop41ColorRGB
 90
        0
102
RTVSPost2010PropOp41
 70
     1
102
RTVSPost2010Prop42
 90
       50
102
RTVSPost2010PropOp42
 70
     1
102
RTVSPost2010Prop43
 90
        3
102
RTVSPost2010PropOp43
 70
     1
102
RTVSPost2010Prop44ColorIndex
 90
        5
102
RTVSPost2010Prop44ColorRGB
 90
      255
102
RTVSPost2010PropOp44
 70
     1
102
RTVSPost2010Prop45
280
     0
102
RTVSPost2010PropOp45
 70
     1
102
RTVSPost2010Prop46
 90
       50
102
RTVSPost2010PropOp46
 70
     1
102
RTVSPost2010Prop47
 90
       50
102
RTVSPost2010PropOp47
 70
     1
102
RTVSPost2010Prop48
 90
       50
102
RTVSPost2010PropOp48
 70
     1
102
RTVSPost2010Prop49
280
     0
102
RTVSPost2010PropOp49
 70
     1
102
RTVSPost2010Prop50
 90
       50
102
RTVSPost2010PropOp50
 70
     1
102
RTVSPost2010Prop51ColorIndex
 90
      256
102
RTVSPost2010Prop51ColorRGB
 90
-16777216
102
RTVSPost2010PropOp51
 70
     0
102
RTVSPost2010Prop52
140
1.0
102
RTVSPost2010PropOp52
 70
     0
102
RTVSPost2010Prop53
 90
        2
102
RTVSPost2010PropOp53
 70
     1
102
RTVSPost2010Prop54
  1
strokes_ogs.tif
102
RTVSPost2010PropOp54
 70
     1
102
RTVSPost2010Prop55
280
     0
102
RTVSPost2010PropOp55
 70
     1
102
RTVSPost2010Prop56
140
1.0
102
RTVSPost2010PropOp56
 70
     1
102
RTVSPost2010Prop57
140
1.0
102
RTVSPost2010PropOp57
 70
     1
  0
XRECORD
  5
295
102
{ACAD_REACTORS
330
294
102
}
330
294
100
AcDbXrecord
280
     1
102
RTVSPropertyOp0
 70
     1
102
RTVSPropertyOp1
 70
     1
102
RTVSPropertyOp2
 70
     1
102
RTVSPropertyOp3
 70
     1
102
RTVSPropertyOp4
 70
     1
102
RTVSPropertyOp5
 70
     1
102
RTVSPropertyOp6
 70
     1
102
RTVSPropertyOp7
 70
     1
102
RTVSPropertyOp8
 70
     1
102
RTVSPropertyOp9
 70
     1
102
RTVSPropertyOp10
 70
     1
102
RTVSPropertyOp11
 70
     1
102
RTVSPropertyOp12
 70
     1
102
RTVSPropertyOp13
 70
     1
102
RTVSPropertyOp14
 70
     1
102
RTVSPropertyOp15
 70
     1
102
RTVSPropertyOp16
 70
     1
102
RTVSPropertyOp17
 70
     1
102
RTVSPropertyOp18
 70
     1
102
RTVSPropertyOp19
 70
     1
102
RTVSPropertyOp20
 70
     1
102
RTVSPropertyOp21
 70
     1
102
RTVSPropertyOp22
 70
     1
102
RTVSPropertyOp23
 70
     1
102
RTVSPropertyOp24
 70
     1
102
RTVSPropertyOp25
 70
     1
102
RTVSPropertyOp26
 70
     1
102
RTVSPropertyOp27
 70
     1
102
RTVSPropertyOp28
 70
     1
102
RTVSPropertyOp29
 70
     1
102
RTVSPropertyOp30
 70
     1
102
RTVSPropertyOp31
 70
     1
102
RTVSPropertyOp32
 70
     1
102
RTVSPropertyOp33
 70
     1
102
RTVSPropertyOp34
 70
     1
102
RTVSPropertyOp35
 70
     1
102
RTVSPropertyOp36
 70
     1
102
RTVSPropertyOp37
 70
     1
102
RTVSPropertyOp38
 70
     1
102
RTVSPropertyOp39
 70
     1
102
RTVSPropertyOp40
 70
     1
102
RTVSPropertyOp41
 70
     1
102
RTVSPropertyOp42
 70
     1
102
RTVSPropertyOp43
 70
     1
102
RTVSPropertyOp44
 70
     1
102
RTVSPropertyOp45
 70
     1
102
RTVSPropertyOp46
 70
     1
102
RTVSPropertyOp47
 70
     1
102
RTVSPropertyOp48
 70
     1
102
RTVSPropertyOp49
 70
     1
102
RTVSPropertyOp50
 70
     1
102
RTVSPropertyOp51
 70
     0
102
RTVSPropertyOp52
 70
     0
102
RTVSPropertyOp53
 70
     1
102
RTVSPropertyOp54
 70
     1
102
RTVSPropertyOp55
 70
     1
102
RTVSPropertyOp56
 70
     1
102
RTVSPropertyOp57
 70
     1
102
RTVSPost2010Prop28
280
     0
102
RTVSPost2010PropOp28
 70
     1
102
RTVSPost2010Prop29
280
     1
102
RTVSPost2010PropOp29
 70
     1
102
RTVSPost2010Prop30
280
     1
102
RTVSPost2010PropOp30
 70
     1
102
RTVSPost2010Prop31
280
     0
102
RTVSPost2010PropOp31
 70
     1
102
RTVSPost2010Prop32
280
     0
102
RTVSPost2010PropOp32
 70
     1
102
RTVSPost2010Prop33
280
     0
102
RTVSPost2010PropOp33
 70
     1
102
RTVSPost2010Prop34
280
     0
102
RTVSPost2010PropOp34
 70
     1
102
RTVSPost2010Prop35
280
     0
102
RTVSPost2010PropOp35
 70
     1
102
RTVSPost2010Prop36
280
     0
102
RTVSPost2010PropOp36
 70
     1
102
RTVSPost2010Prop37
 90
       50
102
RTVSPost2010PropOp37
 70
     1
102
RTVSPost2010Prop38
140
0.0
102
RTVSPost2010PropOp38
 70
     1
102
RTVSPost2010Prop39
140
1.0
102
RTVSPost2010PropOp39
 70
     1
102
RTVSPost2010Prop40
 90
        0
102
RTVSPost2010PropOp40
 70
     1
102
RTVSPost2010Prop41ColorIndex
 90
       18
102
RTVSPost2010Prop41ColorRGB
 90
        0
102
RTVSPost2010PropOp41
 70
     1
102
RTVSPost2010Prop42
 90
       50
102
RTVSPost2010PropOp42
 70
     1
102
RTVSPost2010Prop43
 90
        3
102
RTVSPost2010PropOp43
 70
     1
102
RTVSPost2010Prop44ColorIndex
 90
        5
102
RTVSPost2010Prop44ColorRGB
 90
      255
102
RTVSPost2010PropOp44
 70
     1
102
RTVSPost2010Prop45
280
     0
102
RTVSPost2010PropOp45
 70
     1
102
RTVSPost2010Prop46
 90
       50
102
RTVSPost2010PropOp46
 70
     1
102
RTVSPost2010Prop47
 90
       50
102
RTVSPost2010PropOp47
 70
     1
102
RTVSPost2010Prop48
 90
       50
102
RTVSPost2010PropOp48
 70
     1
102
RTVSPost2010Prop49
280
     0
102
RTVSPost2010PropOp49
 70
     1
102
RTVSPost2010Prop50
 90
       50
102
RTVSPost2010PropOp50
 70
     1
102
RTVSPost2010Prop51ColorIndex
 90
      256
102
RTVSPost2010Prop51ColorRGB
 90
-16777216
102
RTVSPost2010PropOp51
 70
     0
102
RTVSPost2010Prop52
140
1.0
102
RTVSPost2010PropOp52
 70
     0
102
RTVSPost2010Prop53
 90
        2
102
RTVSPost2010PropOp53
 70
     1
102
RTVSPost2010Prop54
  1
strokes_ogs.tif
102
RTVSPost2010PropOp54
 70
     1
102
RTVSPost2010Prop55
280
     0
102
RTVSPost2010PropOp55
 70
     1
102
RTVSPost2010Prop56
140
1.0
102
RTVSPost2010PropOp56
 70
     1
102
RTVSPost2010Prop57
140
1.0
102
RTVSPost2010PropOp57
 70
     1
  0
XRECORD
  5
297
102
{ACAD_REACTORS
330
296
102
}
330
296
100
AcDbXrecord
280
     1
102
RTVSPropertyOp0
 70
     1
102
RTVSPropertyOp1
 70
     1
102
RTVSPropertyOp2
 70
     1
102
RTVSPropertyOp3
 70
     1
102
RTVSPropertyOp4
 70
     1
102
RTVSPropertyOp5
 70
     1
102
RTVSPropertyOp6
 70
     1
102
RTVSPropertyOp7
 70
     1
102
RTVSPropertyOp8
 70
     1
102
RTVSPropertyOp9
 70
     1
102
RTVSPropertyOp10
 70
     1
102
RTVSPropertyOp11
 70
     1
102
RTVSPropertyOp12
 70
     1
102
RTVSPropertyOp13
 70
     1
102
RTVSPropertyOp14
 70
     1
102
RTVSPropertyOp15
 70
     1
102
RTVSPropertyOp16
 70
     1
102
RTVSPropertyOp17
 70
     1
102
RTVSPropertyOp18
 70
     1
102
RTVSPropertyOp19
 70
     1
102
RTVSPropertyOp20
 70
     1
102
RTVSPropertyOp21
 70
     1
102
RTVSPropertyOp22
 70
     1
102
RTVSPropertyOp23
 70
     1
102
RTVSPropertyOp24
 70
     1
102
RTVSPropertyOp25
 70
     1
102
RTVSPropertyOp26
 70
     1
102
RTVSPropertyOp27
 70
     1
102
RTVSPropertyOp28
 70
     1
102
RTVSPropertyOp29
 70
     1
102
RTVSPropertyOp30
 70
     1
102
RTVSPropertyOp31
 70
     1
102
RTVSPropertyOp32
 70
     1
102
RTVSPropertyOp33
 70
     1
102
RTVSPropertyOp34
 70
     1
102
RTVSPropertyOp35
 70
     1
102
RTVSPropertyOp36
 70
     1
102
RTVSPropertyOp37
 70
     1
102
RTVSPropertyOp38
 70
     1
102
RTVSPropertyOp39
 70
     1
102
RTVSPropertyOp40
 70
     1
102
RTVSPropertyOp41
 70
     1
102
RTVSPropertyOp42
 70
     1
102
RTVSPropertyOp43
 70
     1
102
RTVSPropertyOp44
 70
     1
102
RTVSPropertyOp45
 70
     1
102
RTVSPropertyOp46
 70
     1
102
RTVSPropertyOp47
 70
     1
102
RTVSPropertyOp48
 70
     1
102
RTVSPropertyOp49
 70
     1
102
RTVSPropertyOp50
 70
     1
102
RTVSPropertyOp51
 70
     0
102
RTVSPropertyOp52
 70
     0
102
RTVSPropertyOp53
 70
     1
102
RTVSPropertyOp54
 70
     1
102
RTVSPropertyOp55
 70
     1
102
RTVSPropertyOp56
 70
     1
102
RTVSPropertyOp57
 70
     1
102
RTVSPost2010Prop28
280
     0
102
RTVSPost2010PropOp28
 70
     1
102
RTVSPost2010Prop29
280
     1
102
RTVSPost2010PropOp29
 70
     1
102
RTVSPost2010Prop30
280
     1
102
RTVSPost2010PropOp30
 70
     1
102
RTVSPost2010Prop31
280
     0
102
RTVSPost2010PropOp31
 70
     1
102
RTVSPost2010Prop32
280
     0
102
RTVSPost2010PropOp32
 70
     1
102
RTVSPost2010Prop33
280
     0
102
RTVSPost2010PropOp33
 70
     1
102
RTVSPost2010Prop34
280
     0
102
RTVSPost2010PropOp34
 70
     1
102
RTVSPost2010Prop35
280
     0
102
RTVSPost2010PropOp35
 70
     1
102
RTVSPost2010Prop36
280
     0
102
RTVSPost2010PropOp36
 70
     1
102
RTVSPost2010Prop37
 90
       50
102
RTVSPost2010PropOp37
 70
     1
102
RTVSPost2010Prop38
140
0.0
102
RTVSPost2010PropOp38
 70
     1
102
RTVSPost2010Prop39
140
1.0
102
RTVSPost2010PropOp39
 70
     1
102
RTVSPost2010Prop40
 90
        0
102
RTVSPost2010PropOp40
 70
     1
102
RTVSPost2010Prop41ColorIndex
 90
       18
102
RTVSPost2010Prop41ColorRGB
 90
        0
102
RTVSPost2010PropOp41
 70
     1
102
RTVSPost2010Prop42
 90
       50
102
RTVSPost2010PropOp42
 70
     1
102
RTVSPost2010Prop43
 90
        3
102
RTVSPost2010PropOp43
 70
     1
102
RTVSPost2010Prop44ColorIndex
 90
        5
102
RTVSPost2010Prop44ColorRGB
 90
      255
102
RTVSPost2010PropOp44
 70
     1
102
RTVSPost2010Prop45
280
     0
102
RTVSPost2010PropOp45
 70
     1
102
RTVSPost2010Prop46
 90
       50
102
RTVSPost2010PropOp46
 70
     1
102
RTVSPost2010Prop47
 90
       50
102
RTVSPost2010PropOp47
 70
     1
102
RTVSPost2010Prop48
 90
       50
102
RTVSPost2010PropOp48
 70
     1
102
RTVSPost2010Prop49
280
     0
102
RTVSPost2010PropOp49
 70
     1
102
RTVSPost2010Prop50
 90
       50
102
RTVSPost2010PropOp50
 70
     1
102
RTVSPost2010Prop51ColorIndex
 90
      256
102
RTVSPost2010Prop51ColorRGB
 90
-16777216
102
RTVSPost2010PropOp51
 70
     0
102
RTVSPost2010Prop52
140
1.0
102
RTVSPost2010PropOp52
 70
     0
102
RTVSPost2010Prop53
 90
        2
102
RTVSPost2010PropOp53
 70
     1
102
RTVSPost2010Prop54
  1
strokes_ogs.tif
102
RTVSPost2010PropOp54
 70
     1
102
RTVSPost2010Prop55
280
     0
102
RTVSPost2010PropOp55
 70
     1
102
RTVSPost2010Prop56
140
1.0
102
RTVSPost2010PropOp56
 70
     1
102
RTVSPost2010Prop57
140
1.0
102
RTVSPost2010PropOp57
 70
     1
  0
XRECORD
  5
2A7
102
{ACAD_REACTORS
330
2A6
102
}
330
2A6
100
AcDbXrecord
280
     1
102
RTVSPropertyOp0
 70
     0
102
RTVSPropertyOp1
 70
     0
102
RTVSPropertyOp2
 70
     0
102
RTVSPropertyOp3
 70
     0
102
RTVSPropertyOp4
 70
     0
102
RTVSPropertyOp5
 70
     0
102
RTVSPropertyOp6
 70
     0
102
RTVSPropertyOp7
 70
     0
102
RTVSPropertyOp8
 70
     0
102
RTVSPropertyOp9
 70
     0
102
RTVSPropertyOp10
 70
     0
102
RTVSPropertyOp11
 70
     0
102
RTVSPropertyOp12
 70
     0
102
RTVSPropertyOp13
 70
     0
102
RTVSPropertyOp14
 70
     2
102
RTVSPropertyOp15
 70
     0
102
RTVSPropertyOp16
 70
     0
102
RTVSPropertyOp17
 70
     0
102
RTVSPropertyOp18
 70
     0
102
RTVSPropertyOp19
 70
     0
102
RTVSPropertyOp20
 70
     0
102
RTVSPropertyOp21
 70
     0
102
RTVSPropertyOp22
 70
     0
102
RTVSPropertyOp23
 70
     0
102
RTVSPropertyOp24
 70
     0
102
RTVSPropertyOp25
 70
     0
102
RTVSPropertyOp26
 70
     0
102
RTVSPropertyOp27
 70
     0
102
RTVSPropertyOp28
 70
     0
102
RTVSPropertyOp29
 70
     0
102
RTVSPropertyOp30
 70
     0
102
RTVSPropertyOp31
 70
     0
102
RTVSPropertyOp32
 70
     0
102
RTVSPropertyOp33
 70
     0
102
RTVSPropertyOp34
 70
     0
102
RTVSPropertyOp35
 70
     0
102
RTVSPropertyOp36
 70
     0
102
RTVSPropertyOp37
 70
     0
102
RTVSPropertyOp38
 70
     0
102
RTVSPropertyOp39
 70
     0
102
RTVSPropertyOp40
 70
     0
102
RTVSPropertyOp41
 70
     0
102
RTVSPropertyOp42
 70
     0
102
RTVSPropertyOp43
 70
     0
102
RTVSPropertyOp44
 70
     0
102
RTVSPropertyOp45
 70
     0
102
RTVSPropertyOp46
 70
     0
102
RTVSPropertyOp47
 70
     0
102
RTVSPropertyOp48
 70
     0
102
RTVSPropertyOp49
 70
     0
102
RTVSPropertyOp50
 70
     0
102
RTVSPropertyOp51
 70
     0
102
RTVSPropertyOp52
 70
     0
102
RTVSPropertyOp53
 70
     0
102
RTVSPropertyOp54
 70
     0
102
RTVSPropertyOp55
 70
     0
102
RTVSPropertyOp56
 70
     0
102
RTVSPropertyOp57
 70
     0
102
RTVSPost2010Prop28
280
     0
102
RTVSPost2010PropOp28
 70
     0
102
RTVSPost2010Prop29
280
     1
102
RTVSPost2010PropOp29
 70
     0
102
RTVSPost2010Prop30
280
     1
102
RTVSPost2010PropOp30
 70
     0
102
RTVSPost2010Prop31
280
     0
102
RTVSPost2010PropOp31
 70
     0
102
RTVSPost2010Prop32
280
     0
102
RTVSPost2010PropOp32
 70
     0
102
RTVSPost2010Prop33
280
     0
102
RTVSPost2010PropOp33
 70
     0
102
RTVSPost2010Prop34
280
     0
102
RTVSPost2010PropOp34
 70
     0
102
RTVSPost2010Prop35
280
     0
102
RTVSPost2010PropOp35
 70
     0
102
RTVSPost2010Prop36
280
     0
102
RTVSPost2010PropOp36
 70
     0
102
RTVSPost2010Prop37
 90
       50
102
RTVSPost2010PropOp37
 70
     0
102
RTVSPost2010Prop38
140
0.0
102
RTVSPost2010PropOp38
 70
     0
102
RTVSPost2010Prop39
140
1.0
102
RTVSPost2010PropOp39
 70
     0
102
RTVSPost2010Prop40
 90
        0
102
RTVSPost2010PropOp40
 70
     0
102
RTVSPost2010Prop41ColorIndex
 90
       18
102
RTVSPost2010Prop41ColorRGB
 90
        0
102
RTVSPost2010PropOp41
 70
     0
102
RTVSPost2010Prop42
 90
       50
102
RTVSPost2010PropOp42
 70
     0
102
RTVSPost2010Prop43
 90
        3
102
RTVSPost2010PropOp43
 70
     0
102
RTVSPost2010Prop44ColorIndex
 90
        5
102
RTVSPost2010Prop44ColorRGB
 90
      255
102
RTVSPost2010PropOp44
 70
     0
102
RTVSPost2010Prop45
280
     0
102
RTVSPost2010PropOp45
 70
     0
102
RTVSPost2010Prop46
 90
       50
102
RTVSPost2010PropOp46
 70
     0
102
RTVSPost2010Prop47
 90
       50
102
RTVSPost2010PropOp47
 70
     0
102
RTVSPost2010Prop48
 90
       50
102
RTVSPost2010PropOp48
 70
     0
102
RTVSPost2010Prop49
280
     0
102
RTVSPost2010PropOp49
 70
     0
102
RTVSPost2010Prop50
 90
       50
102
RTVSPost2010PropOp50
 70
     0
102
RTVSPost2010Prop51ColorIndex
 90
      256
102
RTVSPost2010Prop51ColorRGB
 90
-16777216
102
RTVSPost2010PropOp51
 70
     0
102
RTVSPost2010Prop52
140
1.0
102
RTVSPost2010PropOp52
 70
     0
102
RTVSPost2010Prop53
 90
        2
102
RTVSPost2010PropOp53
 70
     0
102
RTVSPost2010Prop54
  1
strokes_ogs.tif
102
RTVSPost2010PropOp54
 70
     0
102
RTVSPost2010Prop55
280
     0
102
RTVSPost2010PropOp55
 70
     0
102
RTVSPost2010Prop56
140
1.0
102
RTVSPost2010PropOp56
 70
     0
102
RTVSPost2010Prop57
140
1.0
102
RTVSPost2010PropOp57
 70
     0
  0
XRECORD
  5
29F
102
{ACAD_REACTORS
330
29E
102
}
330
29E
100
AcDbXrecord
280
     1
102
RTVSPropertyOp0
 70
     1
102
RTVSPropertyOp1
 70
     1
102
RTVSPropertyOp2
 70
     1
102
RTVSPropertyOp3
 70
     1
102
RTVSPropertyOp4
 70
     1
102
RTVSPropertyOp5
 70
     1
102
RTVSPropertyOp6
 70
     1
102
RTVSPropertyOp7
 70
     1
102
RTVSPropertyOp8
 70
     1
102
RTVSPropertyOp9
 70
     1
102
RTVSPropertyOp10
 70
     1
102
RTVSPropertyOp11
 70
     1
102
RTVSPropertyOp12
 70
     1
102
RTVSPropertyOp13
 70
     1
102
RTVSPropertyOp14
 70
     1
102
RTVSPropertyOp15
 70
     1
102
RTVSPropertyOp16
 70
     1
102
RTVSPropertyOp17
 70
     1
102
RTVSPropertyOp18
 70
     1
102
RTVSPropertyOp19
 70
     1
102
RTVSPropertyOp20
 70
     1
102
RTVSPropertyOp21
 70
     1
102
RTVSPropertyOp22
 70
     1
102
RTVSPropertyOp23
 70
     1
102
RTVSPropertyOp24
 70
     1
102
RTVSPropertyOp25
 70
     1
102
RTVSPropertyOp26
 70
     1
102
RTVSPropertyOp27
 70
     1
102
RTVSPropertyOp28
 70
     1
102
RTVSPropertyOp29
 70
     1
102
RTVSPropertyOp30
 70
     1
102
RTVSPropertyOp31
 70
     1
102
RTVSPropertyOp32
 70
     1
102
RTVSPropertyOp33
 70
     1
102
RTVSPropertyOp34
 70
     1
102
RTVSPropertyOp35
 70
     1
102
RTVSPropertyOp36
 70
     1
102
RTVSPropertyOp37
 70
     1
102
RTVSPropertyOp38
 70
     1
102
RTVSPropertyOp39
 70
     1
102
RTVSPropertyOp40
 70
     1
102
RTVSPropertyOp41
 70
     1
102
RTVSPropertyOp42
 70
     1
102
RTVSPropertyOp43
 70
     1
102
RTVSPropertyOp44
 70
     1
102
RTVSPropertyOp45
 70
     1
102
RTVSPropertyOp46
 70
     1
102
RTVSPropertyOp47
 70
     1
102
RTVSPropertyOp48
 70
     1
102
RTVSPropertyOp49
 70
     1
102
RTVSPropertyOp50
 70
     1
102
RTVSPropertyOp51
 70
     0
102
RTVSPropertyOp52
 70
     0
102
RTVSPropertyOp53
 70
     1
102
RTVSPropertyOp54
 70
     1
102
RTVSPropertyOp55
 70
     1
102
RTVSPropertyOp56
 70
     1
102
RTVSPropertyOp57
 70
     1
102
RTVSPost2010Prop28
280
     0
102
RTVSPost2010PropOp28
 70
     1
102
RTVSPost2010Prop29
280
     1
102
RTVSPost2010PropOp29
 70
     1
102
RTVSPost2010Prop30
280
     1
102
RTVSPost2010PropOp30
 70
     1
102
RTVSPost2010Prop31
280
     0
102
RTVSPost2010PropOp31
 70
     1
102
RTVSPost2010Prop32
280
     0
102
RTVSPost2010PropOp32
 70
     1
102
RTVSPost2010Prop33
280
     0
102
RTVSPost2010PropOp33
 70
     1
102
RTVSPost2010Prop34
280
     0
102
RTVSPost2010PropOp34
 70
     1
102
RTVSPost2010Prop35
280
     0
102
RTVSPost2010PropOp35
 70
     1
102
RTVSPost2010Prop36
280
     0
102
RTVSPost2010PropOp36
 70
     1
102
RTVSPost2010Prop37
 90
       50
102
RTVSPost2010PropOp37
 70
     1
102
RTVSPost2010Prop38
140
0.0
102
RTVSPost2010PropOp38
 70
     1
102
RTVSPost2010Prop39
140
1.0
102
RTVSPost2010PropOp39
 70
     1
102
RTVSPost2010Prop40
 90
        0
102
RTVSPost2010PropOp40
 70
     1
102
RTVSPost2010Prop41ColorIndex
 90
       18
102
RTVSPost2010Prop41ColorRGB
 90
        0
102
RTVSPost2010PropOp41
 70
     1
102
RTVSPost2010Prop42
 90
       50
102
RTVSPost2010PropOp42
 70
     1
102
RTVSPost2010Prop43
 90
        3
102
RTVSPost2010PropOp43
 70
     1
102
RTVSPost2010Prop44ColorIndex
 90
        5
102
RTVSPost2010Prop44ColorRGB
 90
      255
102
RTVSPost2010PropOp44
 70
     1
102
RTVSPost2010Prop45
280
     0
102
RTVSPost2010PropOp45
 70
     1
102
RTVSPost2010Prop46
 90
       50
102
RTVSPost2010PropOp46
 70
     1
102
RTVSPost2010Prop47
 90
       50
102
RTVSPost2010PropOp47
 70
     1
102
RTVSPost2010Prop48
 90
       50
102
RTVSPost2010PropOp48
 70
     1
102
RTVSPost2010Prop49
280
     0
102
RTVSPost2010PropOp49
 70
     1
102
RTVSPost2010Prop50
 90
       50
102
RTVSPost2010PropOp50
 70
     1
102
RTVSPost2010Prop51ColorIndex
 90
      256
102
RTVSPost2010Prop51ColorRGB
 90
-16777216
102
RTVSPost2010PropOp51
 70
     0
102
RTVSPost2010Prop52
140
1.0
102
RTVSPost2010PropOp52
 70
     0
102
RTVSPost2010Prop53
 90
        2
102
RTVSPost2010PropOp53
 70
     1
102
RTVSPost2010Prop54
  1
strokes_ogs.tif
102
RTVSPost2010PropOp54
 70
     1
102
RTVSPost2010Prop55
280
     0
102
RTVSPost2010PropOp55
 70
     1
102
RTVSPost2010Prop56
140
1.0
102
RTVSPost2010PropOp56
 70
     1
102
RTVSPost2010Prop57
140
1.0
102
RTVSPost2010PropOp57
 70
     1
  0
XRECORD
  5
283
102
{ACAD_REACTORS
330
282
102
}
330
282
100
AcDbXrecord
280
     1
102
RTVSPropertyOp0
 70
     1
102
RTVSPropertyOp1
 70
     1
102
RTVSPropertyOp2
 70
     1
102
RTVSPropertyOp3
 70
     1
102
RTVSPropertyOp4
 70
     1
102
RTVSPropertyOp5
 70
     1
102
RTVSPropertyOp6
 70
     1
102
RTVSPropertyOp7
 70
     1
102
RTVSPropertyOp8
 70
     1
102
RTVSPropertyOp9
 70
     1
102
RTVSPropertyOp10
 70
     1
102
RTVSPropertyOp11
 70
     1
102
RTVSPropertyOp12
 70
     1
102
RTVSPropertyOp13
 70
     1
102
RTVSPropertyOp14
 70
     1
102
RTVSPropertyOp15
 70
     1
102
RTVSPropertyOp16
 70
     1
102
RTVSPropertyOp17
 70
     1
102
RTVSPropertyOp18
 70
     1
102
RTVSPropertyOp19
 70
     1
102
RTVSPropertyOp20
 70
     1
102
RTVSPropertyOp21
 70
     1
102
RTVSPropertyOp22
 70
     1
102
RTVSPropertyOp23
 70
     1
102
RTVSPropertyOp24
 70
     1
102
RTVSPropertyOp25
 70
     1
102
RTVSPropertyOp26
 70
     1
102
RTVSPropertyOp27
 70
     1
102
RTVSPropertyOp28
 70
     1
102
RTVSPropertyOp29
 70
     1
102
RTVSPropertyOp30
 70
     1
102
RTVSPropertyOp31
 70
     1
102
RTVSPropertyOp32
 70
     1
102
RTVSPropertyOp33
 70
     1
102
RTVSPropertyOp34
 70
     1
102
RTVSPropertyOp35
 70
     1
102
RTVSPropertyOp36
 70
     1
102
RTVSPropertyOp37
 70
     1
102
RTVSPropertyOp38
 70
     1
102
RTVSPropertyOp39
 70
     1
102
RTVSPropertyOp40
 70
     1
102
RTVSPropertyOp41
 70
     1
102
RTVSPropertyOp42
 70
     1
102
RTVSPropertyOp43
 70
     1
102
RTVSPropertyOp44
 70
     1
102
RTVSPropertyOp45
 70
     1
102
RTVSPropertyOp46
 70
     1
102
RTVSPropertyOp47
 70
     1
102
RTVSPropertyOp48
 70
     1
102
RTVSPropertyOp49
 70
     1
102
RTVSPropertyOp50
 70
     1
102
RTVSPropertyOp51
 70
     0
102
RTVSPropertyOp52
 70
     0
102
RTVSPropertyOp53
 70
     1
102
RTVSPropertyOp54
 70
     1
102
RTVSPropertyOp55
 70
     1
102
RTVSPropertyOp56
 70
     1
102
RTVSPropertyOp57
 70
     1
102
RTVSPost2010Prop28
280
     0
102
RTVSPost2010PropOp28
 70
     1
102
RTVSPost2010Prop29
280
     1
102
RTVSPost2010PropOp29
 70
     1
102
RTVSPost2010Prop30
280
     1
102
RTVSPost2010PropOp30
 70
     1
102
RTVSPost2010Prop31
280
     0
102
RTVSPost2010PropOp31
 70
     1
102
RTVSPost2010Prop32
280
     0
102
RTVSPost2010PropOp32
 70
     1
102
RTVSPost2010Prop33
280
     0
102
RTVSPost2010PropOp33
 70
     1
102
RTVSPost2010Prop34
280
     0
102
RTVSPost2010PropOp34
 70
     1
102
RTVSPost2010Prop35
280
     0
102
RTVSPost2010PropOp35
 70
     1
102
RTVSPost2010Prop36
280
     0
102
RTVSPost2010PropOp36
 70
     1
102
RTVSPost2010Prop37
 90
       50
102
RTVSPost2010PropOp37
 70
     1
102
RTVSPost2010Prop38
140
0.0
102
RTVSPost2010PropOp38
 70
     1
102
RTVSPost2010Prop39
140
1.0
102
RTVSPost2010PropOp39
 70
     1
102
RTVSPost2010Prop40
 90
        0
102
RTVSPost2010PropOp40
 70
     1
102
RTVSPost2010Prop41ColorIndex
 90
       18
102
RTVSPost2010Prop41ColorRGB
 90
        0
102
RTVSPost2010PropOp41
 70
     1
102
RTVSPost2010Prop42
 90
       50
102
RTVSPost2010PropOp42
 70
     1
102
RTVSPost2010Prop43
 90
        3
102
RTVSPost2010PropOp43
 70
     1
102
RTVSPost2010Prop44ColorIndex
 90
        5
102
RTVSPost2010Prop44ColorRGB
 90
      255
102
RTVSPost2010PropOp44
 70
     1
102
RTVSPost2010Prop45
280
     0
102
RTVSPost2010PropOp45
 70
     1
102
RTVSPost2010Prop46
 90
       50
102
RTVSPost2010PropOp46
 70
     1
102
RTVSPost2010Prop47
 90
       50
102
RTVSPost2010PropOp47
 70
     1
102
RTVSPost2010Prop48
 90
       50
102
RTVSPost2010PropOp48
 70
     1
102
RTVSPost2010Prop49
280
     0
102
RTVSPost2010PropOp49
 70
     1
102
RTVSPost2010Prop50
 90
       50
102
RTVSPost2010PropOp50
 70
     1
102
RTVSPost2010Prop51ColorIndex
 90
      256
102
RTVSPost2010Prop51ColorRGB
 90
-16777216
102
RTVSPost2010PropOp51
 70
     0
102
RTVSPost2010Prop52
140
1.0
102
RTVSPost2010PropOp52
 70
     0
102
RTVSPost2010Prop53
 90
        2
102
RTVSPost2010PropOp53
 70
     1
102
RTVSPost2010Prop54
  1
strokes_ogs.tif
102
RTVSPost2010PropOp54
 70
     1
102
RTVSPost2010Prop55
280
     0
102
RTVSPost2010PropOp55
 70
     1
102
RTVSPost2010Prop56
140
1.0
102
RTVSPost2010PropOp56
 70
     1
102
RTVSPost2010Prop57
140
1.0
102
RTVSPost2010PropOp57
 70
     1
  0
XRECORD
  5
285
102
{ACAD_REACTORS
330
284
102
}
330
284
100
AcDbXrecord
280
     1
102
RTVSPropertyOp0
 70
     1
102
RTVSPropertyOp1
 70
     1
102
RTVSPropertyOp2
 70
     1
102
RTVSPropertyOp3
 70
     1
102
RTVSPropertyOp4
 70
     1
102
RTVSPropertyOp5
 70
     1
102
RTVSPropertyOp6
 70
     1
102
RTVSPropertyOp7
 70
     1
102
RTVSPropertyOp8
 70
     1
102
RTVSPropertyOp9
 70
     1
102
RTVSPropertyOp10
 70
     1
102
RTVSPropertyOp11
 70
     1
102
RTVSPropertyOp12
 70
     1
102
RTVSPropertyOp13
 70
     1
102
RTVSPropertyOp14
 70
     1
102
RTVSPropertyOp15
 70
     1
102
RTVSPropertyOp16
 70
     1
102
RTVSPropertyOp17
 70
     1
102
RTVSPropertyOp18
 70
     1
102
RTVSPropertyOp19
 70
     1
102
RTVSPropertyOp20
 70
     1
102
RTVSPropertyOp21
 70
     1
102
RTVSPropertyOp22
 70
     1
102
RTVSPropertyOp23
 70
     1
102
RTVSPropertyOp24
 70
     1
102
RTVSPropertyOp25
 70
     1
102
RTVSPropertyOp26
 70
     1
102
RTVSPropertyOp27
 70
     1
102
RTVSPropertyOp28
 70
     1
102
RTVSPropertyOp29
 70
     1
102
RTVSPropertyOp30
 70
     1
102
RTVSPropertyOp31
 70
     1
102
RTVSPropertyOp32
 70
     1
102
RTVSPropertyOp33
 70
     1
102
RTVSPropertyOp34
 70
     1
102
RTVSPropertyOp35
 70
     1
102
RTVSPropertyOp36
 70
     1
102
RTVSPropertyOp37
 70
     1
102
RTVSPropertyOp38
 70
     1
102
RTVSPropertyOp39
 70
     1
102
RTVSPropertyOp40
 70
     1
102
RTVSPropertyOp41
 70
     1
102
RTVSPropertyOp42
 70
     1
102
RTVSPropertyOp43
 70
     1
102
RTVSPropertyOp44
 70
     1
102
RTVSPropertyOp45
 70
     1
102
RTVSPropertyOp46
 70
     1
102
RTVSPropertyOp47
 70
     1
102
RTVSPropertyOp48
 70
     1
102
RTVSPropertyOp49
 70
     1
102
RTVSPropertyOp50
 70
     1
102
RTVSPropertyOp51
 70
     0
102
RTVSPropertyOp52
 70
     0
102
RTVSPropertyOp53
 70
     1
102
RTVSPropertyOp54
 70
     1
102
RTVSPropertyOp55
 70
     1
102
RTVSPropertyOp56
 70
     1
102
RTVSPropertyOp57
 70
     1
102
RTVSPost2010Prop28
280
     0
102
RTVSPost2010PropOp28
 70
     1
102
RTVSPost2010Prop29
280
     1
102
RTVSPost2010PropOp29
 70
     1
102
RTVSPost2010Prop30
280
     1
102
RTVSPost2010PropOp30
 70
     1
102
RTVSPost2010Prop31
280
     0
102
RTVSPost2010PropOp31
 70
     1
102
RTVSPost2010Prop32
280
     0
102
RTVSPost2010PropOp32
 70
     1
102
RTVSPost2010Prop33
280
     0
102
RTVSPost2010PropOp33
 70
     1
102
RTVSPost2010Prop34
280
     0
102
RTVSPost2010PropOp34
 70
     1
102
RTVSPost2010Prop35
280
     0
102
RTVSPost2010PropOp35
 70
     1
102
RTVSPost2010Prop36
280
     0
102
RTVSPost2010PropOp36
 70
     1
102
RTVSPost2010Prop37
 90
       50
102
RTVSPost2010PropOp37
 70
     1
102
RTVSPost2010Prop38
140
0.0
102
RTVSPost2010PropOp38
 70
     1
102
RTVSPost2010Prop39
140
1.0
102
RTVSPost2010PropOp39
 70
     1
102
RTVSPost2010Prop40
 90
        0
102
RTVSPost2010PropOp40
 70
     1
102
RTVSPost2010Prop41ColorIndex
 90
       18
102
RTVSPost2010Prop41ColorRGB
 90
        0
102
RTVSPost2010PropOp41
 70
     1
102
RTVSPost2010Prop42
 90
       50
102
RTVSPost2010PropOp42
 70
     1
102
RTVSPost2010Prop43
 90
        3
102
RTVSPost2010PropOp43
 70
     1
102
RTVSPost2010Prop44ColorIndex
 90
        5
102
RTVSPost2010Prop44ColorRGB
 90
      255
102
RTVSPost2010PropOp44
 70
     1
102
RTVSPost2010Prop45
280
     0
102
RTVSPost2010PropOp45
 70
     1
102
RTVSPost2010Prop46
 90
       50
102
RTVSPost2010PropOp46
 70
     1
102
RTVSPost2010Prop47
 90
       50
102
RTVSPost2010PropOp47
 70
     1
102
RTVSPost2010Prop48
 90
       50
102
RTVSPost2010PropOp48
 70
     1
102
RTVSPost2010Prop49
280
     0
102
RTVSPost2010PropOp49
 70
     1
102
RTVSPost2010Prop50
 90
       50
102
RTVSPost2010PropOp50
 70
     1
102
RTVSPost2010Prop51ColorIndex
 90
      256
102
RTVSPost2010Prop51ColorRGB
 90
-16777216
102
RTVSPost2010PropOp51
 70
     0
102
RTVSPost2010Prop52
140
1.0
102
RTVSPost2010PropOp52
 70
     0
102
RTVSPost2010Prop53
 90
        2
102
RTVSPost2010PropOp53
 70
     1
102
RTVSPost2010Prop54
  1
strokes_ogs.tif
102
RTVSPost2010PropOp54
 70
     1
102
RTVSPost2010Prop55
280
     0
102
RTVSPost2010PropOp55
 70
     1
102
RTVSPost2010Prop56
140
1.0
102
RTVSPost2010PropOp56
 70
     1
102
RTVSPost2010Prop57
140
1.0
102
RTVSPost2010PropOp57
 70
     1
  0
XRECORD
  5
287
102
{ACAD_REACTORS
330
286
102
}
330
286
100
AcDbXrecord
280
     1
102
RTVSPropertyOp0
 70
     1
102
RTVSPropertyOp1
 70
     1
102
RTVSPropertyOp2
 70
     1
102
RTVSPropertyOp3
 70
     1
102
RTVSPropertyOp4
 70
     1
102
RTVSPropertyOp5
 70
     1
102
RTVSPropertyOp6
 70
     1
102
RTVSPropertyOp7
 70
     1
102
RTVSPropertyOp8
 70
     1
102
RTVSPropertyOp9
 70
     1
102
RTVSPropertyOp10
 70
     1
102
RTVSPropertyOp11
 70
     1
102
RTVSPropertyOp12
 70
     1
102
RTVSPropertyOp13
 70
     1
102
RTVSPropertyOp14
 70
     1
102
RTVSPropertyOp15
 70
     1
102
RTVSPropertyOp16
 70
     1
102
RTVSPropertyOp17
 70
     1
102
RTVSPropertyOp18
 70
     1
102
RTVSPropertyOp19
 70
     1
102
RTVSPropertyOp20
 70
     1
102
RTVSPropertyOp21
 70
     1
102
RTVSPropertyOp22
 70
     1
102
RTVSPropertyOp23
 70
     1
102
RTVSPropertyOp24
 70
     1
102
RTVSPropertyOp25
 70
     1
102
RTVSPropertyOp26
 70
     1
102
RTVSPropertyOp27
 70
     1
102
RTVSPropertyOp28
 70
     1
102
RTVSPropertyOp29
 70
     1
102
RTVSPropertyOp30
 70
     1
102
RTVSPropertyOp31
 70
     1
102
RTVSPropertyOp32
 70
     1
102
RTVSPropertyOp33
 70
     1
102
RTVSPropertyOp34
 70
     1
102
RTVSPropertyOp35
 70
     1
102
RTVSPropertyOp36
 70
     1
102
RTVSPropertyOp37
 70
     1
102
RTVSPropertyOp38
 70
     1
102
RTVSPropertyOp39
 70
     1
102
RTVSPropertyOp40
 70
     1
102
RTVSPropertyOp41
 70
     1
102
RTVSPropertyOp42
 70
     1
102
RTVSPropertyOp43
 70
     1
102
RTVSPropertyOp44
 70
     1
102
RTVSPropertyOp45
 70
     1
102
RTVSPropertyOp46
 70
     1
102
RTVSPropertyOp47
 70
     1
102
RTVSPropertyOp48
 70
     1
102
RTVSPropertyOp49
 70
     1
102
RTVSPropertyOp50
 70
     1
102
RTVSPropertyOp51
 70
     0
102
RTVSPropertyOp52
 70
     0
102
RTVSPropertyOp53
 70
     1
102
RTVSPropertyOp54
 70
     1
102
RTVSPropertyOp55
 70
     1
102
RTVSPropertyOp56
 70
     1
102
RTVSPropertyOp57
 70
     1
102
RTVSPost2010Prop28
280
     0
102
RTVSPost2010PropOp28
 70
     1
102
RTVSPost2010Prop29
280
     1
102
RTVSPost2010PropOp29
 70
     1
102
RTVSPost2010Prop30
280
     1
102
RTVSPost2010PropOp30
 70
     1
102
RTVSPost2010Prop31
280
     0
102
RTVSPost2010PropOp31
 70
     1
102
RTVSPost2010Prop32
280
     0
102
RTVSPost2010PropOp32
 70
     1
102
RTVSPost2010Prop33
280
     0
102
RTVSPost2010PropOp33
 70
     1
102
RTVSPost2010Prop34
280
     0
102
RTVSPost2010PropOp34
 70
     1
102
RTVSPost2010Prop35
280
     0
102
RTVSPost2010PropOp35
 70
     1
102
RTVSPost2010Prop36
280
     0
102
RTVSPost2010PropOp36
 70
     1
102
RTVSPost2010Prop37
 90
       50
102
RTVSPost2010PropOp37
 70
     1
102
RTVSPost2010Prop38
140
0.0
102
RTVSPost2010PropOp38
 70
     1
102
RTVSPost2010Prop39
140
1.0
102
RTVSPost2010PropOp39
 70
     1
102
RTVSPost2010Prop40
 90
        0
102
RTVSPost2010PropOp40
 70
     1
102
RTVSPost2010Prop41ColorIndex
 90
       18
102
RTVSPost2010Prop41ColorRGB
 90
        0
102
RTVSPost2010PropOp41
 70
     1
102
RTVSPost2010Prop42
 90
       50
102
RTVSPost2010PropOp42
 70
     1
102
RTVSPost2010Prop43
 90
        3
102
RTVSPost2010PropOp43
 70
     1
102
RTVSPost2010Prop44ColorIndex
 90
        5
102
RTVSPost2010Prop44ColorRGB
 90
      255
102
RTVSPost2010PropOp44
 70
     1
102
RTVSPost2010Prop45
280
     0
102
RTVSPost2010PropOp45
 70
     1
102
RTVSPost2010Prop46
 90
       50
102
RTVSPost2010PropOp46
 70
     1
102
RTVSPost2010Prop47
 90
       50
102
RTVSPost2010PropOp47
 70
     1
102
RTVSPost2010Prop48
 90
       50
102
RTVSPost2010PropOp48
 70
     1
102
RTVSPost2010Prop49
280
     0
102
RTVSPost2010PropOp49
 70
     1
102
RTVSPost2010Prop50
 90
       50
102
RTVSPost2010PropOp50
 70
     1
102
RTVSPost2010Prop51ColorIndex
 90
      256
102
RTVSPost2010Prop51ColorRGB
 90
-16777216
102
RTVSPost2010PropOp51
 70
     0
102
RTVSPost2010Prop52
140
1.0
102
RTVSPost2010PropOp52
 70
     0
102
RTVSPost2010Prop53
 90
        2
102
RTVSPost2010PropOp53
 70
     1
102
RTVSPost2010Prop54
  1
strokes_ogs.tif
102
RTVSPost2010PropOp54
 70
     1
102
RTVSPost2010Prop55
280
     0
102
RTVSPost2010PropOp55
 70
     1
102
RTVSPost2010Prop56
140
1.0
102
RTVSPost2010PropOp56
 70
     1
102
RTVSPost2010Prop57
140
1.0
102
RTVSPost2010PropOp57
 70
     1
  0
XRECORD
  5
289
102
{ACAD_REACTORS
330
288
102
}
330
288
100
AcDbXrecord
280
     1
102
RTVSPropertyOp0
 70
     1
102
RTVSPropertyOp1
 70
     1
102
RTVSPropertyOp2
 70
     1
102
RTVSPropertyOp3
 70
     1
102
RTVSPropertyOp4
 70
     1
102
RTVSPropertyOp5
 70
     1
102
RTVSPropertyOp6
 70
     1
102
RTVSPropertyOp7
 70
     1
102
RTVSPropertyOp8
 70
     1
102
RTVSPropertyOp9
 70
     1
102
RTVSPropertyOp10
 70
     1
102
RTVSPropertyOp11
 70
     1
102
RTVSPropertyOp12
 70
     1
102
RTVSPropertyOp13
 70
     1
102
RTVSPropertyOp14
 70
     1
102
RTVSPropertyOp15
 70
     1
102
RTVSPropertyOp16
 70
     1
102
RTVSPropertyOp17
 70
     1
102
RTVSPropertyOp18
 70
     1
102
RTVSPropertyOp19
 70
     1
102
RTVSPropertyOp20
 70
     1
102
RTVSPropertyOp21
 70
     1
102
RTVSPropertyOp22
 70
     1
102
RTVSPropertyOp23
 70
     1
102
RTVSPropertyOp24
 70
     1
102
RTVSPropertyOp25
 70
     1
102
RTVSPropertyOp26
 70
     1
102
RTVSPropertyOp27
 70
     1
102
RTVSPropertyOp28
 70
     1
102
RTVSPropertyOp29
 70
     1
102
RTVSPropertyOp30
 70
     1
102
RTVSPropertyOp31
 70
     1
102
RTVSPropertyOp32
 70
     1
102
RTVSPropertyOp33
 70
     1
102
RTVSPropertyOp34
 70
     1
102
RTVSPropertyOp35
 70
     1
102
RTVSPropertyOp36
 70
     1
102
RTVSPropertyOp37
 70
     1
102
RTVSPropertyOp38
 70
     1
102
RTVSPropertyOp39
 70
     1
102
RTVSPropertyOp40
 70
     1
102
RTVSPropertyOp41
 70
     1
102
RTVSPropertyOp42
 70
     1
102
RTVSPropertyOp43
 70
     1
102
RTVSPropertyOp44
 70
     1
102
RTVSPropertyOp45
 70
     1
102
RTVSPropertyOp46
 70
     1
102
RTVSPropertyOp47
 70
     1
102
RTVSPropertyOp48
 70
     1
102
RTVSPropertyOp49
 70
     1
102
RTVSPropertyOp50
 70
     1
102
RTVSPropertyOp51
 70
     0
102
RTVSPropertyOp52
 70
     0
102
RTVSPropertyOp53
 70
     1
102
RTVSPropertyOp54
 70
     1
102
RTVSPropertyOp55
 70
     1
102
RTVSPropertyOp56
 70
     1
102
RTVSPropertyOp57
 70
     1
102
RTVSPost2010Prop28
280
     0
102
RTVSPost2010PropOp28
 70
     1
102
RTVSPost2010Prop29
280
     1
102
RTVSPost2010PropOp29
 70
     1
102
RTVSPost2010Prop30
280
     1
102
RTVSPost2010PropOp30
 70
     1
102
RTVSPost2010Prop31
280
     0
102
RTVSPost2010PropOp31
 70
     1
102
RTVSPost2010Prop32
280
     0
102
RTVSPost2010PropOp32
 70
     1
102
RTVSPost2010Prop33
280
     0
102
RTVSPost2010PropOp33
 70
     1
102
RTVSPost2010Prop34
280
     0
102
RTVSPost2010PropOp34
 70
     1
102
RTVSPost2010Prop35
280
     0
102
RTVSPost2010PropOp35
 70
     1
102
RTVSPost2010Prop36
280
     0
102
RTVSPost2010PropOp36
 70
     1
102
RTVSPost2010Prop37
 90
       50
102
RTVSPost2010PropOp37
 70
     1
102
RTVSPost2010Prop38
140
0.0
102
RTVSPost2010PropOp38
 70
     1
102
RTVSPost2010Prop39
140
1.0
102
RTVSPost2010PropOp39
 70
     1
102
RTVSPost2010Prop40
 90
        0
102
RTVSPost2010PropOp40
 70
     1
102
RTVSPost2010Prop41ColorIndex
 90
       18
102
RTVSPost2010Prop41ColorRGB
 90
        0
102
RTVSPost2010PropOp41
 70
     1
102
RTVSPost2010Prop42
 90
       50
102
RTVSPost2010PropOp42
 70
     1
102
RTVSPost2010Prop43
 90
        3
102
RTVSPost2010PropOp43
 70
     1
102
RTVSPost2010Prop44ColorIndex
 90
        5
102
RTVSPost2010Prop44ColorRGB
 90
      255
102
RTVSPost2010PropOp44
 70
     1
102
RTVSPost2010Prop45
280
     0
102
RTVSPost2010PropOp45
 70
     1
102
RTVSPost2010Prop46
 90
       50
102
RTVSPost2010PropOp46
 70
     1
102
RTVSPost2010Prop47
 90
       50
102
RTVSPost2010PropOp47
 70
     1
102
RTVSPost2010Prop48
 90
       50
102
RTVSPost2010PropOp48
 70
     1
102
RTVSPost2010Prop49
280
     0
102
RTVSPost2010PropOp49
 70
     1
102
RTVSPost2010Prop50
 90
       50
102
RTVSPost2010PropOp50
 70
     1
102
RTVSPost2010Prop51ColorIndex
 90
      256
102
RTVSPost2010Prop51ColorRGB
 90
-16777216
102
RTVSPost2010PropOp51
 70
     0
102
RTVSPost2010Prop52
140
1.0
102
RTVSPost2010PropOp52
 70
     0
102
RTVSPost2010Prop53
 90
        2
102
RTVSPost2010PropOp53
 70
     1
102
RTVSPost2010Prop54
  1
strokes_ogs.tif
102
RTVSPost2010PropOp54
 70
     1
102
RTVSPost2010Prop55
280
     0
102
RTVSPost2010PropOp55
 70
     1
102
RTVSPost2010Prop56
140
1.0
102
RTVSPost2010PropOp56
 70
     1
102
RTVSPost2010Prop57
140
1.0
102
RTVSPost2010PropOp57
 70
     1
  0
XRECORD
  5
28F
102
{ACAD_REACTORS
330
28E
102
}
330
28E
100
AcDbXrecord
280
     1
102
RTVSPropertyOp0
 70
     1
102
RTVSPropertyOp1
 70
     1
102
RTVSPropertyOp2
 70
     1
102
RTVSPropertyOp3
 70
     1
102
RTVSPropertyOp4
 70
     1
102
RTVSPropertyOp5
 70
     1
102
RTVSPropertyOp6
 70
     1
102
RTVSPropertyOp7
 70
     1
102
RTVSPropertyOp8
 70
     1
102
RTVSPropertyOp9
 70
     1
102
RTVSPropertyOp10
 70
     1
102
RTVSPropertyOp11
 70
     1
102
RTVSPropertyOp12
 70
     1
102
RTVSPropertyOp13
 70
     1
102
RTVSPropertyOp14
 70
     1
102
RTVSPropertyOp15
 70
     1
102
RTVSPropertyOp16
 70
     1
102
RTVSPropertyOp17
 70
     1
102
RTVSPropertyOp18
 70
     1
102
RTVSPropertyOp19
 70
     1
102
RTVSPropertyOp20
 70
     1
102
RTVSPropertyOp21
 70
     1
102
RTVSPropertyOp22
 70
     1
102
RTVSPropertyOp23
 70
     1
102
RTVSPropertyOp24
 70
     1
102
RTVSPropertyOp25
 70
     1
102
RTVSPropertyOp26
 70
     1
102
RTVSPropertyOp27
 70
     1
102
RTVSPropertyOp28
 70
     1
102
RTVSPropertyOp29
 70
     1
102
RTVSPropertyOp30
 70
     1
102
RTVSPropertyOp31
 70
     1
102
RTVSPropertyOp32
 70
     1
102
RTVSPropertyOp33
 70
     1
102
RTVSPropertyOp34
 70
     1
102
RTVSPropertyOp35
 70
     1
102
RTVSPropertyOp36
 70
     1
102
RTVSPropertyOp37
 70
     1
102
RTVSPropertyOp38
 70
     1
102
RTVSPropertyOp39
 70
     1
102
RTVSPropertyOp40
 70
     1
102
RTVSPropertyOp41
 70
     1
102
RTVSPropertyOp42
 70
     1
102
RTVSPropertyOp43
 70
     1
102
RTVSPropertyOp44
 70
     1
102
RTVSPropertyOp45
 70
     1
102
RTVSPropertyOp46
 70
     1
102
RTVSPropertyOp47
 70
     1
102
RTVSPropertyOp48
 70
     1
102
RTVSPropertyOp49
 70
     1
102
RTVSPropertyOp50
 70
     1
102
RTVSPropertyOp51
 70
     0
102
RTVSPropertyOp52
 70
     0
102
RTVSPropertyOp53
 70
     1
102
RTVSPropertyOp54
 70
     1
102
RTVSPropertyOp55
 70
     1
102
RTVSPropertyOp56
 70
     1
102
RTVSPropertyOp57
 70
     1
102
RTVSPost2010Prop28
280
     0
102
RTVSPost2010PropOp28
 70
     1
102
RTVSPost2010Prop29
280
     1
102
RTVSPost2010PropOp29
 70
     1
102
RTVSPost2010Prop30
280
     1
102
RTVSPost2010PropOp30
 70
     1
102
RTVSPost2010Prop31
280
     0
102
RTVSPost2010PropOp31
 70
     1
102
RTVSPost2010Prop32
280
     0
102
RTVSPost2010PropOp32
 70
     1
102
RTVSPost2010Prop33
280
     0
102
RTVSPost2010PropOp33
 70
     1
102
RTVSPost2010Prop34
280
     0
102
RTVSPost2010PropOp34
 70
     1
102
RTVSPost2010Prop35
280
     0
102
RTVSPost2010PropOp35
 70
     1
102
RTVSPost2010Prop36
280
     0
102
RTVSPost2010PropOp36
 70
     1
102
RTVSPost2010Prop37
 90
       50
102
RTVSPost2010PropOp37
 70
     1
102
RTVSPost2010Prop38
140
0.0
102
RTVSPost2010PropOp38
 70
     1
102
RTVSPost2010Prop39
140
1.0
102
RTVSPost2010PropOp39
 70
     1
102
RTVSPost2010Prop40
 90
        0
102
RTVSPost2010PropOp40
 70
     1
102
RTVSPost2010Prop41ColorIndex
 90
       18
102
RTVSPost2010Prop41ColorRGB
 90
        0
102
RTVSPost2010PropOp41
 70
     1
102
RTVSPost2010Prop42
 90
       50
102
RTVSPost2010PropOp42
 70
     1
102
RTVSPost2010Prop43
 90
        3
102
RTVSPost2010PropOp43
 70
     1
102
RTVSPost2010Prop44ColorIndex
 90
        5
102
RTVSPost2010Prop44ColorRGB
 90
      255
102
RTVSPost2010PropOp44
 70
     1
102
RTVSPost2010Prop45
280
     0
102
RTVSPost2010PropOp45
 70
     1
102
RTVSPost2010Prop46
 90
       50
102
RTVSPost2010PropOp46
 70
     1
102
RTVSPost2010Prop47
 90
       50
102
RTVSPost2010PropOp47
 70
     1
102
RTVSPost2010Prop48
 90
       50
102
RTVSPost2010PropOp48
 70
     1
102
RTVSPost2010Prop49
280
     0
102
RTVSPost2010PropOp49
 70
     1
102
RTVSPost2010Prop50
 90
       50
102
RTVSPost2010PropOp50
 70
     1
102
RTVSPost2010Prop51ColorIndex
 90
      256
102
RTVSPost2010Prop51ColorRGB
 90
-16777216
102
RTVSPost2010PropOp51
 70
     0
102
RTVSPost2010Prop52
140
1.0
102
RTVSPost2010PropOp52
 70
     0
102
RTVSPost2010Prop53
 90
        2
102
RTVSPost2010PropOp53
 70
     1
102
RTVSPost2010Prop54
  1
strokes_ogs.tif
102
RTVSPost2010PropOp54
 70
     1
102
RTVSPost2010Prop55
280
     0
102
RTVSPost2010PropOp55
 70
     1
102
RTVSPost2010Prop56
140
1.0
102
RTVSPost2010PropOp56
 70
     1
102
RTVSPost2010Prop57
140
1.0
102
RTVSPost2010PropOp57
 70
     1
  0
XRECORD
  5
2A3
102
{ACAD_REACTORS
330
2A2
102
}
330
2A2
100
AcDbXrecord
280
     1
102
RTVSPropertyOp0
 70
     0
102
RTVSPropertyOp1
 70
     0
102
RTVSPropertyOp2
 70
     0
102
RTVSPropertyOp3
 70
     0
102
RTVSPropertyOp4
 70
     0
102
RTVSPropertyOp5
 70
     0
102
RTVSPropertyOp6
 70
     0
102
RTVSPropertyOp7
 70
     0
102
RTVSPropertyOp8
 70
     0
102
RTVSPropertyOp9
 70
     0
102
RTVSPropertyOp10
 70
     0
102
RTVSPropertyOp11
 70
     0
102
RTVSPropertyOp12
 70
     0
102
RTVSPropertyOp13
 70
     0
102
RTVSPropertyOp14
 70
     2
102
RTVSPropertyOp15
 70
     0
102
RTVSPropertyOp16
 70
     0
102
RTVSPropertyOp17
 70
     0
102
RTVSPropertyOp18
 70
     0
102
RTVSPropertyOp19
 70
     0
102
RTVSPropertyOp20
 70
     0
102
RTVSPropertyOp21
 70
     0
102
RTVSPropertyOp22
 70
     0
102
RTVSPropertyOp23
 70
     0
102
RTVSPropertyOp24
 70
     0
102
RTVSPropertyOp25
 70
     0
102
RTVSPropertyOp26
 70
     0
102
RTVSPropertyOp27
 70
     0
102
RTVSPropertyOp28
 70
     0
102
RTVSPropertyOp29
 70
     0
102
RTVSPropertyOp30
 70
     0
102
RTVSPropertyOp31
 70
     0
102
RTVSPropertyOp32
 70
     0
102
RTVSPropertyOp33
 70
     0
102
RTVSPropertyOp34
 70
     0
102
RTVSPropertyOp35
 70
     0
102
RTVSPropertyOp36
 70
     0
102
RTVSPropertyOp37
 70
     0
102
RTVSPropertyOp38
 70
     0
102
RTVSPropertyOp39
 70
     0
102
RTVSPropertyOp40
 70
     0
102
RTVSPropertyOp41
 70
     0
102
RTVSPropertyOp42
 70
     0
102
RTVSPropertyOp43
 70
     0
102
RTVSPropertyOp44
 70
     0
102
RTVSPropertyOp45
 70
     0
102
RTVSPropertyOp46
 70
     0
102
RTVSPropertyOp47
 70
     0
102
RTVSPropertyOp48
 70
     0
102
RTVSPropertyOp49
 70
     0
102
RTVSPropertyOp50
 70
     0
102
RTVSPropertyOp51
 70
     0
102
RTVSPropertyOp52
 70
     0
102
RTVSPropertyOp53
 70
     0
102
RTVSPropertyOp54
 70
     0
102
RTVSPropertyOp55
 70
     0
102
RTVSPropertyOp56
 70
     0
102
RTVSPropertyOp57
 70
     0
102
RTVSPost2010Prop28
280
     0
102
RTVSPost2010PropOp28
 70
     0
102
RTVSPost2010Prop29
280
     1
102
RTVSPost2010PropOp29
 70
     0
102
RTVSPost2010Prop30
280
     1
102
RTVSPost2010PropOp30
 70
     0
102
RTVSPost2010Prop31
280
     0
102
RTVSPost2010PropOp31
 70
     0
102
RTVSPost2010Prop32
280
     0
102
RTVSPost2010PropOp32
 70
     0
102
RTVSPost2010Prop33
280
     0
102
RTVSPost2010PropOp33
 70
     0
102
RTVSPost2010Prop34
280
     0
102
RTVSPost2010PropOp34
 70
     0
102
RTVSPost2010Prop35
280
     0
102
RTVSPost2010PropOp35
 70
     0
102
RTVSPost2010Prop36
280
     0
102
RTVSPost2010PropOp36
 70
     0
102
RTVSPost2010Prop37
 90
       50
102
RTVSPost2010PropOp37
 70
     0
102
RTVSPost2010Prop38
140
0.0
102
RTVSPost2010PropOp38
 70
     0
102
RTVSPost2010Prop39
140
1.0
102
RTVSPost2010PropOp39
 70
     0
102
RTVSPost2010Prop40
 90
        0
102
RTVSPost2010PropOp40
 70
     0
102
RTVSPost2010Prop41ColorIndex
 90
       18
102
RTVSPost2010Prop41ColorRGB
 90
        0
102
RTVSPost2010PropOp41
 70
     0
102
RTVSPost2010Prop42
 90
       50
102
RTVSPost2010PropOp42
 70
     0
102
RTVSPost2010Prop43
 90
        3
102
RTVSPost2010PropOp43
 70
     0
102
RTVSPost2010Prop44ColorIndex
 90
        5
102
RTVSPost2010Prop44ColorRGB
 90
      255
102
RTVSPost2010PropOp44
 70
     0
102
RTVSPost2010Prop45
280
     0
102
RTVSPost2010PropOp45
 70
     0
102
RTVSPost2010Prop46
 90
       50
102
RTVSPost2010PropOp46
 70
     0
102
RTVSPost2010Prop47
 90
       50
102
RTVSPost2010PropOp47
 70
     0
102
RTVSPost2010Prop48
 90
       50
102
RTVSPost2010PropOp48
 70
     0
102
RTVSPost2010Prop49
280
     0
102
RTVSPost2010PropOp49
 70
     0
102
RTVSPost2010Prop50
 90
       50
102
RTVSPost2010PropOp50
 70
     0
102
RTVSPost2010Prop51ColorIndex
 90
      256
102
RTVSPost2010Prop51ColorRGB
 90
-16777216
102
RTVSPost2010PropOp51
 70
     0
102
RTVSPost2010Prop52
140
1.0
102
RTVSPost2010PropOp52
 70
     0
102
RTVSPost2010Prop53
 90
        2
102
RTVSPost2010PropOp53
 70
     0
102
RTVSPost2010Prop54
  1
strokes_ogs.tif
102
RTVSPost2010PropOp54
 70
     0
102
RTVSPost2010Prop55
280
     0
102
RTVSPost2010PropOp55
 70
     0
102
RTVSPost2010Prop56
140
1.0
102
RTVSPost2010PropOp56
 70
     0
102
RTVSPost2010Prop57
140
1.0
102
RTVSPost2010PropOp57
 70
     0
  0
XRECORD
  5
29D
102
{ACAD_REACTORS
330
29C
102
}
330
29C
100
AcDbXrecord
280
     1
102
RTVSPropertyOp0
 70
     1
102
RTVSPropertyOp1
 70
     1
102
RTVSPropertyOp2
 70
     1
102
RTVSPropertyOp3
 70
     1
102
RTVSPropertyOp4
 70
     1
102
RTVSPropertyOp5
 70
     1
102
RTVSPropertyOp6
 70
     1
102
RTVSPropertyOp7
 70
     1
102
RTVSPropertyOp8
 70
     1
102
RTVSPropertyOp9
 70
     1
102
RTVSPropertyOp10
 70
     1
102
RTVSPropertyOp11
 70
     1
102
RTVSPropertyOp12
 70
     1
102
RTVSPropertyOp13
 70
     1
102
RTVSPropertyOp14
 70
     1
102
RTVSPropertyOp15
 70
     1
102
RTVSPropertyOp16
 70
     1
102
RTVSPropertyOp17
 70
     1
102
RTVSPropertyOp18
 70
     1
102
RTVSPropertyOp19
 70
     1
102
RTVSPropertyOp20
 70
     1
102
RTVSPropertyOp21
 70
     1
102
RTVSPropertyOp22
 70
     1
102
RTVSPropertyOp23
 70
     1
102
RTVSPropertyOp24
 70
     1
102
RTVSPropertyOp25
 70
     1
102
RTVSPropertyOp26
 70
     1
102
RTVSPropertyOp27
 70
     1
102
RTVSPropertyOp28
 70
     1
102
RTVSPropertyOp29
 70
     1
102
RTVSPropertyOp30
 70
     1
102
RTVSPropertyOp31
 70
     1
102
RTVSPropertyOp32
 70
     1
102
RTVSPropertyOp33
 70
     1
102
RTVSPropertyOp34
 70
     1
102
RTVSPropertyOp35
 70
     1
102
RTVSPropertyOp36
 70
     1
102
RTVSPropertyOp37
 70
     1
102
RTVSPropertyOp38
 70
     1
102
RTVSPropertyOp39
 70
     1
102
RTVSPropertyOp40
 70
     1
102
RTVSPropertyOp41
 70
     1
102
RTVSPropertyOp42
 70
     1
102
RTVSPropertyOp43
 70
     1
102
RTVSPropertyOp44
 70
     1
102
RTVSPropertyOp45
 70
     1
102
RTVSPropertyOp46
 70
     1
102
RTVSPropertyOp47
 70
     1
102
RTVSPropertyOp48
 70
     1
102
RTVSPropertyOp49
 70
     1
102
RTVSPropertyOp50
 70
     1
102
RTVSPropertyOp51
 70
     0
102
RTVSPropertyOp52
 70
     0
102
RTVSPropertyOp53
 70
     1
102
RTVSPropertyOp54
 70
     1
102
RTVSPropertyOp55
 70
     1
102
RTVSPropertyOp56
 70
     1
102
RTVSPropertyOp57
 70
     1
102
RTVSPost2010Prop28
280
     0
102
RTVSPost2010PropOp28
 70
     1
102
RTVSPost2010Prop29
280
     1
102
RTVSPost2010PropOp29
 70
     1
102
RTVSPost2010Prop30
280
     1
102
RTVSPost2010PropOp30
 70
     1
102
RTVSPost2010Prop31
280
     0
102
RTVSPost2010PropOp31
 70
     1
102
RTVSPost2010Prop32
280
     0
102
RTVSPost2010PropOp32
 70
     1
102
RTVSPost2010Prop33
280
     0
102
RTVSPost2010PropOp33
 70
     1
102
RTVSPost2010Prop34
280
     0
102
RTVSPost2010PropOp34
 70
     1
102
RTVSPost2010Prop35
280
     0
102
RTVSPost2010PropOp35
 70
     1
102
RTVSPost2010Prop36
280
     0
102
RTVSPost2010PropOp36
 70
     1
102
RTVSPost2010Prop37
 90
       50
102
RTVSPost2010PropOp37
 70
     1
102
RTVSPost2010Prop38
140
0.0
102
RTVSPost2010PropOp38
 70
     1
102
RTVSPost2010Prop39
140
1.0
102
RTVSPost2010PropOp39
 70
     1
102
RTVSPost2010Prop40
 90
        0
102
RTVSPost2010PropOp40
 70
     1
102
RTVSPost2010Prop41ColorIndex
 90
       18
102
RTVSPost2010Prop41ColorRGB
 90
        0
102
RTVSPost2010PropOp41
 70
     1
102
RTVSPost2010Prop42
 90
       50
102
RTVSPost2010PropOp42
 70
     1
102
RTVSPost2010Prop43
 90
        3
102
RTVSPost2010PropOp43
 70
     1
102
RTVSPost2010Prop44ColorIndex
 90
        5
102
RTVSPost2010Prop44ColorRGB
 90
      255
102
RTVSPost2010PropOp44
 70
     1
102
RTVSPost2010Prop45
280
     0
102
RTVSPost2010PropOp45
 70
     1
102
RTVSPost2010Prop46
 90
       50
102
RTVSPost2010PropOp46
 70
     1
102
RTVSPost2010Prop47
 90
       50
102
RTVSPost2010PropOp47
 70
     1
102
RTVSPost2010Prop48
 90
       50
102
RTVSPost2010PropOp48
 70
     1
102
RTVSPost2010Prop49
280
     0
102
RTVSPost2010PropOp49
 70
     1
102
RTVSPost2010Prop50
 90
       50
102
RTVSPost2010PropOp50
 70
     1
102
RTVSPost2010Prop51ColorIndex
 90
      256
102
RTVSPost2010Prop51ColorRGB
 90
-16777216
102
RTVSPost2010PropOp51
 70
     0
102
RTVSPost2010Prop52
140
1.0
102
RTVSPost2010PropOp52
 70
     0
102
RTVSPost2010Prop53
 90
        2
102
RTVSPost2010PropOp53
 70
     1
102
RTVSPost2010Prop54
  1
strokes_ogs.tif
102
RTVSPost2010PropOp54
 70
     1
102
RTVSPost2010Prop55
280
     0
102
RTVSPost2010PropOp55
 70
     1
102
RTVSPost2010Prop56
140
1.0
102
RTVSPost2010PropOp56
 70
     1
102
RTVSPost2010Prop57
140
1.0
102
RTVSPost2010PropOp57
 70
     1
  0
XRECORD
  5
2A5
102
{ACAD_REACTORS
330
2A4
102
}
330
2A4
100
AcDbXrecord
280
     1
102
RTVSPropertyOp0
 70
     0
102
RTVSPropertyOp1
 70
     0
102
RTVSPropertyOp2
 70
     0
102
RTVSPropertyOp3
 70
     0
102
RTVSPropertyOp4
 70
     0
102
RTVSPropertyOp5
 70
     0
102
RTVSPropertyOp6
 70
     0
102
RTVSPropertyOp7
 70
     0
102
RTVSPropertyOp8
 70
     0
102
RTVSPropertyOp9
 70
     0
102
RTVSPropertyOp10
 70
     0
102
RTVSPropertyOp11
 70
     0
102
RTVSPropertyOp12
 70
     0
102
RTVSPropertyOp13
 70
     0
102
RTVSPropertyOp14
 70
     2
102
RTVSPropertyOp15
 70
     0
102
RTVSPropertyOp16
 70
     0
102
RTVSPropertyOp17
 70
     0
102
RTVSPropertyOp18
 70
     0
102
RTVSPropertyOp19
 70
     0
102
RTVSPropertyOp20
 70
     0
102
RTVSPropertyOp21
 70
     0
102
RTVSPropertyOp22
 70
     0
102
RTVSPropertyOp23
 70
     0
102
RTVSPropertyOp24
 70
     0
102
RTVSPropertyOp25
 70
     0
102
RTVSPropertyOp26
 70
     0
102
RTVSPropertyOp27
 70
     0
102
RTVSPropertyOp28
 70
     0
102
RTVSPropertyOp29
 70
     0
102
RTVSPropertyOp30
 70
     0
102
RTVSPropertyOp31
 70
     0
102
RTVSPropertyOp32
 70
     0
102
RTVSPropertyOp33
 70
     0
102
RTVSPropertyOp34
 70
     0
102
RTVSPropertyOp35
 70
     0
102
RTVSPropertyOp36
 70
     0
102
RTVSPropertyOp37
 70
     0
102
RTVSPropertyOp38
 70
     0
102
RTVSPropertyOp39
 70
     0
102
RTVSPropertyOp40
 70
     0
102
RTVSPropertyOp41
 70
     0
102
RTVSPropertyOp42
 70
     0
102
RTVSPropertyOp43
 70
     0
102
RTVSPropertyOp44
 70
     0
102
RTVSPropertyOp45
 70
     0
102
RTVSPropertyOp46
 70
     0
102
RTVSPropertyOp47
 70
     0
102
RTVSPropertyOp48
 70
     0
102
RTVSPropertyOp49
 70
     0
102
RTVSPropertyOp50
 70
     0
102
RTVSPropertyOp51
 70
     0
102
RTVSPropertyOp52
 70
     0
102
RTVSPropertyOp53
 70
     0
102
RTVSPropertyOp54
 70
     0
102
RTVSPropertyOp55
 70
     0
102
RTVSPropertyOp56
 70
     0
102
RTVSPropertyOp57
 70
     0
102
RTVSPost2010Prop28
280
     0
102
RTVSPost2010PropOp28
 70
     0
102
RTVSPost2010Prop29
280
     1
102
RTVSPost2010PropOp29
 70
     0
102
RTVSPost2010Prop30
280
     1
102
RTVSPost2010PropOp30
 70
     0
102
RTVSPost2010Prop31
280
     0
102
RTVSPost2010PropOp31
 70
     0
102
RTVSPost2010Prop32
280
     0
102
RTVSPost2010PropOp32
 70
     0
102
RTVSPost2010Prop33
280
     0
102
RTVSPost2010PropOp33
 70
     0
102
RTVSPost2010Prop34
280
     0
102
RTVSPost2010PropOp34
 70
     0
102
RTVSPost2010Prop35
280
     0
102
RTVSPost2010PropOp35
 70
     0
102
RTVSPost2010Prop36
280
     0
102
RTVSPost2010PropOp36
 70
     0
102
RTVSPost2010Prop37
 90
       50
102
RTVSPost2010PropOp37
 70
     0
102
RTVSPost2010Prop38
140
0.0
102
RTVSPost2010PropOp38
 70
     0
102
RTVSPost2010Prop39
140
1.0
102
RTVSPost2010PropOp39
 70
     0
102
RTVSPost2010Prop40
 90
        0
102
RTVSPost2010PropOp40
 70
     0
102
RTVSPost2010Prop41ColorIndex
 90
       18
102
RTVSPost2010Prop41ColorRGB
 90
        0
102
RTVSPost2010PropOp41
 70
     0
102
RTVSPost2010Prop42
 90
       50
102
RTVSPost2010PropOp42
 70
     0
102
RTVSPost2010Prop43
 90
        3
102
RTVSPost2010PropOp43
 70
     0
102
RTVSPost2010Prop44ColorIndex
 90
        5
102
RTVSPost2010Prop44ColorRGB
 90
      255
102
RTVSPost2010PropOp44
 70
     0
102
RTVSPost2010Prop45
280
     0
102
RTVSPost2010PropOp45
 70
     0
102
RTVSPost2010Prop46
 90
       50
102
RTVSPost2010PropOp46
 70
     0
102
RTVSPost2010Prop47
 90
       50
102
RTVSPost2010PropOp47
 70
     0
102
RTVSPost2010Prop48
 90
       50
102
RTVSPost2010PropOp48
 70
     0
102
RTVSPost2010Prop49
280
     0
102
RTVSPost2010PropOp49
 70
     0
102
RTVSPost2010Prop50
 90
       50
102
RTVSPost2010PropOp50
 70
     0
102
RTVSPost2010Prop51ColorIndex
 90
      256
102
RTVSPost2010Prop51ColorRGB
 90
-16777216
102
RTVSPost2010PropOp51
 70
     0
102
RTVSPost2010Prop52
140
1.0
102
RTVSPost2010PropOp52
 70
     0
102
RTVSPost2010Prop53
 90
        2
102
RTVSPost2010PropOp53
 70
     0
102
RTVSPost2010Prop54
  1
strokes_ogs.tif
102
RTVSPost2010PropOp54
 70
     0
102
RTVSPost2010Prop55
280
     0
102
RTVSPost2010PropOp55
 70
     0
102
RTVSPost2010Prop56
140
1.0
102
RTVSPost2010PropOp56
 70
     0
102
RTVSPost2010Prop57
140
1.0
102
RTVSPost2010PropOp57
 70
     0
  0
XRECORD
  5
293
102
{ACAD_REACTORS
330
292
102
}
330
292
100
AcDbXrecord
280
     1
102
RTVSPropertyOp0
 70
     1
102
RTVSPropertyOp1
 70
     1
102
RTVSPropertyOp2
 70
     1
102
RTVSPropertyOp3
 70
     1
102
RTVSPropertyOp4
 70
     1
102
RTVSPropertyOp5
 70
     1
102
RTVSPropertyOp6
 70
     1
102
RTVSPropertyOp7
 70
     1
102
RTVSPropertyOp8
 70
     1
102
RTVSPropertyOp9
 70
     1
102
RTVSPropertyOp10
 70
     1
102
RTVSPropertyOp11
 70
     1
102
RTVSPropertyOp12
 70
     1
102
RTVSPropertyOp13
 70
     1
102
RTVSPropertyOp14
 70
     1
102
RTVSPropertyOp15
 70
     1
102
RTVSPropertyOp16
 70
     1
102
RTVSPropertyOp17
 70
     1
102
RTVSPropertyOp18
 70
     1
102
RTVSPropertyOp19
 70
     1
102
RTVSPropertyOp20
 70
     1
102
RTVSPropertyOp21
 70
     1
102
RTVSPropertyOp22
 70
     1
102
RTVSPropertyOp23
 70
     1
102
RTVSPropertyOp24
 70
     1
102
RTVSPropertyOp25
 70
     1
102
RTVSPropertyOp26
 70
     1
102
RTVSPropertyOp27
 70
     1
102
RTVSPropertyOp28
 70
     1
102
RTVSPropertyOp29
 70
     1
102
RTVSPropertyOp30
 70
     1
102
RTVSPropertyOp31
 70
     1
102
RTVSPropertyOp32
 70
     1
102
RTVSPropertyOp33
 70
     1
102
RTVSPropertyOp34
 70
     1
102
RTVSPropertyOp35
 70
     1
102
RTVSPropertyOp36
 70
     1
102
RTVSPropertyOp37
 70
     1
102
RTVSPropertyOp38
 70
     1
102
RTVSPropertyOp39
 70
     1
102
RTVSPropertyOp40
 70
     1
102
RTVSPropertyOp41
 70
     1
102
RTVSPropertyOp42
 70
     1
102
RTVSPropertyOp43
 70
     1
102
RTVSPropertyOp44
 70
     1
102
RTVSPropertyOp45
 70
     1
102
RTVSPropertyOp46
 70
     1
102
RTVSPropertyOp47
 70
     1
102
RTVSPropertyOp48
 70
     1
102
RTVSPropertyOp49
 70
     1
102
RTVSPropertyOp50
 70
     1
102
RTVSPropertyOp51
 70
     0
102
RTVSPropertyOp52
 70
     0
102
RTVSPropertyOp53
 70
     1
102
RTVSPropertyOp54
 70
     1
102
RTVSPropertyOp55
 70
     1
102
RTVSPropertyOp56
 70
     1
102
RTVSPropertyOp57
 70
     1
102
RTVSPost2010Prop28
280
     0
102
RTVSPost2010PropOp28
 70
     1
102
RTVSPost2010Prop29
280
     1
102
RTVSPost2010PropOp29
 70
     1
102
RTVSPost2010Prop30
280
     1
102
RTVSPost2010PropOp30
 70
     1
102
RTVSPost2010Prop31
280
     0
102
RTVSPost2010PropOp31
 70
     1
102
RTVSPost2010Prop32
280
     0
102
RTVSPost2010PropOp32
 70
     1
102
RTVSPost2010Prop33
280
     0
102
RTVSPost2010PropOp33
 70
     1
102
RTVSPost2010Prop34
280
     0
102
RTVSPost2010PropOp34
 70
     1
102
RTVSPost2010Prop35
280
     0
102
RTVSPost2010PropOp35
 70
     1
102
RTVSPost2010Prop36
280
     0
102
RTVSPost2010PropOp36
 70
     1
102
RTVSPost2010Prop37
 90
       50
102
RTVSPost2010PropOp37
 70
     1
102
RTVSPost2010Prop38
140
0.0
102
RTVSPost2010PropOp38
 70
     1
102
RTVSPost2010Prop39
140
1.0
102
RTVSPost2010PropOp39
 70
     1
102
RTVSPost2010Prop40
 90
        0
102
RTVSPost2010PropOp40
 70
     1
102
RTVSPost2010Prop41ColorIndex
 90
       18
102
RTVSPost2010Prop41ColorRGB
 90
        0
102
RTVSPost2010PropOp41
 70
     1
102
RTVSPost2010Prop42
 90
       50
102
RTVSPost2010PropOp42
 70
     1
102
RTVSPost2010Prop43
 90
        3
102
RTVSPost2010PropOp43
 70
     1
102
RTVSPost2010Prop44ColorIndex
 90
        5
102
RTVSPost2010Prop44ColorRGB
 90
      255
102
RTVSPost2010PropOp44
 70
     1
102
RTVSPost2010Prop45
280
     0
102
RTVSPost2010PropOp45
 70
     1
102
RTVSPost2010Prop46
 90
       50
102
RTVSPost2010PropOp46
 70
     1
102
RTVSPost2010Prop47
 90
       50
102
RTVSPost2010PropOp47
 70
     1
102
RTVSPost2010Prop48
 90
       50
102
RTVSPost2010PropOp48
 70
     1
102
RTVSPost2010Prop49
280
     0
102
RTVSPost2010PropOp49
 70
     1
102
RTVSPost2010Prop50
 90
       50
102
RTVSPost2010PropOp50
 70
     1
102
RTVSPost2010Prop51ColorIndex
 90
      256
102
RTVSPost2010Prop51ColorRGB
 90
-16777216
102
RTVSPost2010PropOp51
 70
     0
102
RTVSPost2010Prop52
140
1.0
102
RTVSPost2010PropOp52
 70
     0
102
RTVSPost2010Prop53
 90
        2
102
RTVSPost2010PropOp53
 70
     1
102
RTVSPost2010Prop54
  1
strokes_ogs.tif
102
RTVSPost2010PropOp54
 70
     1
102
RTVSPost2010Prop55
280
     0
102
RTVSPost2010PropOp55
 70
     1
102
RTVSPost2010Prop56
140
1.0
102
RTVSPost2010PropOp56
 70
     1
102
RTVSPost2010Prop57
140
1.0
102
RTVSPost2010PropOp57
 70
     1
  0
XRECORD
  5
2B1
102
{ACAD_REACTORS
330
2B0
102
}
330
2B0
100
AcDbXrecord
280
     1
102
RTVSPropertyOp0
 70
     1
102
RTVSPropertyOp1
 70
     1
102
RTVSPropertyOp2
 70
     1
102
RTVSPropertyOp3
 70
     1
102
RTVSPropertyOp4
 70
     1
102
RTVSPropertyOp5
 70
     1
102
RTVSPropertyOp6
 70
     1
102
RTVSPropertyOp7
 70
     1
102
RTVSPropertyOp8
 70
     1
102
RTVSPropertyOp9
 70
     1
102
RTVSPropertyOp10
 70
     1
102
RTVSPropertyOp11
 70
     1
102
RTVSPropertyOp12
 70
     1
102
RTVSPropertyOp13
 70
     1
102
RTVSPropertyOp14
 70
     1
102
RTVSPropertyOp15
 70
     1
102
RTVSPropertyOp16
 70
     1
102
RTVSPropertyOp17
 70
     1
102
RTVSPropertyOp18
 70
     1
102
RTVSPropertyOp19
 70
     1
102
RTVSPropertyOp20
 70
     1
102
RTVSPropertyOp21
 70
     1
102
RTVSPropertyOp22
 70
     1
102
RTVSPropertyOp23
 70
     1
102
RTVSPropertyOp24
 70
     1
102
RTVSPropertyOp25
 70
     1
102
RTVSPropertyOp26
 70
     1
102
RTVSPropertyOp27
 70
     1
102
RTVSPropertyOp28
 70
     1
102
RTVSPropertyOp29
 70
     1
102
RTVSPropertyOp30
 70
     1
102
RTVSPropertyOp31
 70
     1
102
RTVSPropertyOp32
 70
     1
102
RTVSPropertyOp33
 70
     1
102
RTVSPropertyOp34
 70
     1
102
RTVSPropertyOp35
 70
     1
102
RTVSPropertyOp36
 70
     1
102
RTVSPropertyOp37
 70
     1
102
RTVSPropertyOp38
 70
     1
102
RTVSPropertyOp39
 70
     1
102
RTVSPropertyOp40
 70
     1
102
RTVSPropertyOp41
 70
     1
102
RTVSPropertyOp42
 70
     1
102
RTVSPropertyOp43
 70
     1
102
RTVSPropertyOp44
 70
     1
102
RTVSPropertyOp45
 70
     1
102
RTVSPropertyOp46
 70
     1
102
RTVSPropertyOp47
 70
     1
102
RTVSPropertyOp48
 70
     1
102
RTVSPropertyOp49
 70
     1
102
RTVSPropertyOp50
 70
     1
102
RTVSPropertyOp51
 70
     0
102
RTVSPropertyOp52
 70
     0
102
RTVSPropertyOp53
 70
     1
102
RTVSPropertyOp54
 70
     1
102
RTVSPropertyOp55
 70
     1
102
RTVSPropertyOp56
 70
     1
102
RTVSPropertyOp57
 70
     1
102
RTVSPost2010Prop28
280
     0
102
RTVSPost2010PropOp28
 70
     1
102
RTVSPost2010Prop29
280
     1
102
RTVSPost2010PropOp29
 70
     1
102
RTVSPost2010Prop30
280
     1
102
RTVSPost2010PropOp30
 70
     1
102
RTVSPost2010Prop31
280
     0
102
RTVSPost2010PropOp31
 70
     1
102
RTVSPost2010Prop32
280
     0
102
RTVSPost2010PropOp32
 70
     1
102
RTVSPost2010Prop33
280
     0
102
RTVSPost2010PropOp33
 70
     1
102
RTVSPost2010Prop34
280
     0
102
RTVSPost2010PropOp34
 70
     1
102
RTVSPost2010Prop35
280
     0
102
RTVSPost2010PropOp35
 70
     1
102
RTVSPost2010Prop36
280
     0
102
RTVSPost2010PropOp36
 70
     1
102
RTVSPost2010Prop37
 90
       50
102
RTVSPost2010PropOp37
 70
     1
102
RTVSPost2010Prop38
140
0.0
102
RTVSPost2010PropOp38
 70
     1
102
RTVSPost2010Prop39
140
1.0
102
RTVSPost2010PropOp39
 70
     1
102
RTVSPost2010Prop40
 90
        0
102
RTVSPost2010PropOp40
 70
     1
102
RTVSPost2010Prop41ColorIndex
 90
       18
102
RTVSPost2010Prop41ColorRGB
 90
        0
102
RTVSPost2010PropOp41
 70
     1
102
RTVSPost2010Prop42
 90
       50
102
RTVSPost2010PropOp42
 70
     1
102
RTVSPost2010Prop43
 90
        3
102
RTVSPost2010PropOp43
 70
     1
102
RTVSPost2010Prop44ColorIndex
 90
        5
102
RTVSPost2010Prop44ColorRGB
 90
      255
102
RTVSPost2010PropOp44
 70
     1
102
RTVSPost2010Prop45
280
     0
102
RTVSPost2010PropOp45
 70
     1
102
RTVSPost2010Prop46
 90
       50
102
RTVSPost2010PropOp46
 70
     1
102
RTVSPost2010Prop47
 90
       50
102
RTVSPost2010PropOp47
 70
     1
102
RTVSPost2010Prop48
 90
       50
102
RTVSPost2010PropOp48
 70
     1
102
RTVSPost2010Prop49
280
     0
102
RTVSPost2010PropOp49
 70
     1
102
RTVSPost2010Prop50
 90
       50
102
RTVSPost2010PropOp50
 70
     1
102
RTVSPost2010Prop51ColorIndex
 90
      256
102
RTVSPost2010Prop51ColorRGB
 90
-16777216
102
RTVSPost2010PropOp51
 70
     0
102
RTVSPost2010Prop52
140
1.0
102
RTVSPost2010PropOp52
 70
     0
102
RTVSPost2010Prop53
 90
        2
102
RTVSPost2010PropOp53
 70
     1
102
RTVSPost2010Prop54
  1
strokes_ogs.tif
102
RTVSPost2010PropOp54
 70
     1
102
RTVSPost2010Prop55
280
     0
102
RTVSPost2010PropOp55
 70
     1
102
RTVSPost2010Prop56
140
1.0
102
RTVSPost2010PropOp56
 70
     1
102
RTVSPost2010Prop57
140
1.0
102
RTVSPost2010PropOp57
 70
     1
  0
XRECORD
  5
2AF
102
{ACAD_REACTORS
330
2AE
102
}
330
2AE
100
AcDbXrecord
280
     1
102
RTVSPropertyOp0
 70
     1
102
RTVSPropertyOp1
 70
     1
102
RTVSPropertyOp2
 70
     1
102
RTVSPropertyOp3
 70
     1
102
RTVSPropertyOp4
 70
     1
102
RTVSPropertyOp5
 70
     1
102
RTVSPropertyOp6
 70
     1
102
RTVSPropertyOp7
 70
     1
102
RTVSPropertyOp8
 70
     1
102
RTVSPropertyOp9
 70
     1
102
RTVSPropertyOp10
 70
     1
102
RTVSPropertyOp11
 70
     1
102
RTVSPropertyOp12
 70
     1
102
RTVSPropertyOp13
 70
     1
102
RTVSPropertyOp14
 70
     1
102
RTVSPropertyOp15
 70
     1
102
RTVSPropertyOp16
 70
     1
102
RTVSPropertyOp17
 70
     1
102
RTVSPropertyOp18
 70
     1
102
RTVSPropertyOp19
 70
     1
102
RTVSPropertyOp20
 70
     1
102
RTVSPropertyOp21
 70
     1
102
RTVSPropertyOp22
 70
     1
102
RTVSPropertyOp23
 70
     1
102
RTVSPropertyOp24
 70
     1
102
RTVSPropertyOp25
 70
     1
102
RTVSPropertyOp26
 70
     1
102
RTVSPropertyOp27
 70
     1
102
RTVSPropertyOp28
 70
     1
102
RTVSPropertyOp29
 70
     1
102
RTVSPropertyOp30
 70
     1
102
RTVSPropertyOp31
 70
     1
102
RTVSPropertyOp32
 70
     1
102
RTVSPropertyOp33
 70
     1
102
RTVSPropertyOp34
 70
     1
102
RTVSPropertyOp35
 70
     1
102
RTVSPropertyOp36
 70
     1
102
RTVSPropertyOp37
 70
     1
102
RTVSPropertyOp38
 70
     1
102
RTVSPropertyOp39
 70
     1
102
RTVSPropertyOp40
 70
     1
102
RTVSPropertyOp41
 70
     1
102
RTVSPropertyOp42
 70
     1
102
RTVSPropertyOp43
 70
     1
102
RTVSPropertyOp44
 70
     1
102
RTVSPropertyOp45
 70
     1
102
RTVSPropertyOp46
 70
     1
102
RTVSPropertyOp47
 70
     1
102
RTVSPropertyOp48
 70
     1
102
RTVSPropertyOp49
 70
     1
102
RTVSPropertyOp50
 70
     1
102
RTVSPropertyOp51
 70
     0
102
RTVSPropertyOp52
 70
     0
102
RTVSPropertyOp53
 70
     1
102
RTVSPropertyOp54
 70
     1
102
RTVSPropertyOp55
 70
     1
102
RTVSPropertyOp56
 70
     1
102
RTVSPropertyOp57
 70
     1
102
RTVSPost2010Prop28
280
     0
102
RTVSPost2010PropOp28
 70
     1
102
RTVSPost2010Prop29
280
     1
102
RTVSPost2010PropOp29
 70
     1
102
RTVSPost2010Prop30
280
     1
102
RTVSPost2010PropOp30
 70
     1
102
RTVSPost2010Prop31
280
     0
102
RTVSPost2010PropOp31
 70
     1
102
RTVSPost2010Prop32
280
     0
102
RTVSPost2010PropOp32
 70
     1
102
RTVSPost2010Prop33
280
     0
102
RTVSPost2010PropOp33
 70
     1
102
RTVSPost2010Prop34
280
     0
102
RTVSPost2010PropOp34
 70
     1
102
RTVSPost2010Prop35
280
     0
102
RTVSPost2010PropOp35
 70
     1
102
RTVSPost2010Prop36
280
     0
102
RTVSPost2010PropOp36
 70
     1
102
RTVSPost2010Prop37
 90
       50
102
RTVSPost2010PropOp37
 70
     1
102
RTVSPost2010Prop38
140
0.0
102
RTVSPost2010PropOp38
 70
     1
102
RTVSPost2010Prop39
140
1.0
102
RTVSPost2010PropOp39
 70
     1
102
RTVSPost2010Prop40
 90
        0
102
RTVSPost2010PropOp40
 70
     1
102
RTVSPost2010Prop41ColorIndex
 90
       18
102
RTVSPost2010Prop41ColorRGB
 90
        0
102
RTVSPost2010PropOp41
 70
     1
102
RTVSPost2010Prop42
 90
       50
102
RTVSPost2010PropOp42
 70
     1
102
RTVSPost2010Prop43
 90
        3
102
RTVSPost2010PropOp43
 70
     1
102
RTVSPost2010Prop44ColorIndex
 90
        5
102
RTVSPost2010Prop44ColorRGB
 90
      255
102
RTVSPost2010PropOp44
 70
     1
102
RTVSPost2010Prop45
280
     0
102
RTVSPost2010PropOp45
 70
     1
102
RTVSPost2010Prop46
 90
       50
102
RTVSPost2010PropOp46
 70
     1
102
RTVSPost2010Prop47
 90
       50
102
RTVSPost2010PropOp47
 70
     1
102
RTVSPost2010Prop48
 90
       50
102
RTVSPost2010PropOp48
 70
     1
102
RTVSPost2010Prop49
280
     0
102
RTVSPost2010PropOp49
 70
     1
102
RTVSPost2010Prop50
 90
       50
102
RTVSPost2010PropOp50
 70
     1
102
RTVSPost2010Prop51ColorIndex
 90
      256
102
RTVSPost2010Prop51ColorRGB
 90
-16777216
102
RTVSPost2010PropOp51
 70
     0
102
RTVSPost2010Prop52
140
1.0
102
RTVSPost2010PropOp52
 70
     0
102
RTVSPost2010Prop53
 90
        2
102
RTVSPost2010PropOp53
 70
     1
102
RTVSPost2010Prop54
  1
strokes_ogs.tif
102
RTVSPost2010PropOp54
 70
     1
102
RTVSPost2010Prop55
280
     0
102
RTVSPost2010PropOp55
 70
     1
102
RTVSPost2010Prop56
140
1.0
102
RTVSPost2010PropOp56
 70
     1
102
RTVSPost2010Prop57
140
1.0
102
RTVSPost2010PropOp57
 70
     1
  0
XRECORD
  5
2A9
102
{ACAD_REACTORS
330
2A8
102
}
330
2A8
100
AcDbXrecord
280
     1
102
RTVSPropertyOp0
 70
     1
102
RTVSPropertyOp1
 70
     1
102
RTVSPropertyOp2
 70
     1
102
RTVSPropertyOp3
 70
     1
102
RTVSPropertyOp4
 70
     1
102
RTVSPropertyOp5
 70
     1
102
RTVSPropertyOp6
 70
     1
102
RTVSPropertyOp7
 70
     1
102
RTVSPropertyOp8
 70
     1
102
RTVSPropertyOp9
 70
     1
102
RTVSPropertyOp10
 70
     1
102
RTVSPropertyOp11
 70
     1
102
RTVSPropertyOp12
 70
     1
102
RTVSPropertyOp13
 70
     1
102
RTVSPropertyOp14
 70
     1
102
RTVSPropertyOp15
 70
     1
102
RTVSPropertyOp16
 70
     1
102
RTVSPropertyOp17
 70
     1
102
RTVSPropertyOp18
 70
     1
102
RTVSPropertyOp19
 70
     1
102
RTVSPropertyOp20
 70
     1
102
RTVSPropertyOp21
 70
     1
102
RTVSPropertyOp22
 70
     1
102
RTVSPropertyOp23
 70
     1
102
RTVSPropertyOp24
 70
     1
102
RTVSPropertyOp25
 70
     1
102
RTVSPropertyOp26
 70
     1
102
RTVSPropertyOp27
 70
     1
102
RTVSPropertyOp28
 70
     1
102
RTVSPropertyOp29
 70
     1
102
RTVSPropertyOp30
 70
     1
102
RTVSPropertyOp31
 70
     1
102
RTVSPropertyOp32
 70
     1
102
RTVSPropertyOp33
 70
     1
102
RTVSPropertyOp34
 70
     1
102
RTVSPropertyOp35
 70
     1
102
RTVSPropertyOp36
 70
     1
102
RTVSPropertyOp37
 70
     1
102
RTVSPropertyOp38
 70
     1
102
RTVSPropertyOp39
 70
     1
102
RTVSPropertyOp40
 70
     1
102
RTVSPropertyOp41
 70
     1
102
RTVSPropertyOp42
 70
     1
102
RTVSPropertyOp43
 70
     1
102
RTVSPropertyOp44
 70
     1
102
RTVSPropertyOp45
 70
     1
102
RTVSPropertyOp46
 70
     1
102
RTVSPropertyOp47
 70
     1
102
RTVSPropertyOp48
 70
     1
102
RTVSPropertyOp49
 70
     1
102
RTVSPropertyOp50
 70
     1
102
RTVSPropertyOp51
 70
     0
102
RTVSPropertyOp52
 70
     0
102
RTVSPropertyOp53
 70
     1
102
RTVSPropertyOp54
 70
     1
102
RTVSPropertyOp55
 70
     1
102
RTVSPropertyOp56
 70
     1
102
RTVSPropertyOp57
 70
     1
102
RTVSPost2010Prop28
280
     0
102
RTVSPost2010PropOp28
 70
     1
102
RTVSPost2010Prop29
280
     1
102
RTVSPost2010PropOp29
 70
     1
102
RTVSPost2010Prop30
280
     1
102
RTVSPost2010PropOp30
 70
     1
102
RTVSPost2010Prop31
280
     0
102
RTVSPost2010PropOp31
 70
     1
102
RTVSPost2010Prop32
280
     0
102
RTVSPost2010PropOp32
 70
     1
102
RTVSPost2010Prop33
280
     0
102
RTVSPost2010PropOp33
 70
     1
102
RTVSPost2010Prop34
280
     0
102
RTVSPost2010PropOp34
 70
     1
102
RTVSPost2010Prop35
280
     0
102
RTVSPost2010PropOp35
 70
     1
102
RTVSPost2010Prop36
280
     0
102
RTVSPost2010PropOp36
 70
     1
102
RTVSPost2010Prop37
 90
       50
102
RTVSPost2010PropOp37
 70
     1
102
RTVSPost2010Prop38
140
0.0
102
RTVSPost2010PropOp38
 70
     1
102
RTVSPost2010Prop39
140
1.0
102
RTVSPost2010PropOp39
 70
     1
102
RTVSPost2010Prop40
 90
        0
102
RTVSPost2010PropOp40
 70
     1
102
RTVSPost2010Prop41ColorIndex
 90
       18
102
RTVSPost2010Prop41ColorRGB
 90
        0
102
RTVSPost2010PropOp41
 70
     1
102
RTVSPost2010Prop42
 90
       50
102
RTVSPost2010PropOp42
 70
     1
102
RTVSPost2010Prop43
 90
        3
102
RTVSPost2010PropOp43
 70
     1
102
RTVSPost2010Prop44ColorIndex
 90
        5
102
RTVSPost2010Prop44ColorRGB
 90
      255
102
RTVSPost2010PropOp44
 70
     1
102
RTVSPost2010Prop45
280
     0
102
RTVSPost2010PropOp45
 70
     1
102
RTVSPost2010Prop46
 90
       50
102
RTVSPost2010PropOp46
 70
     1
102
RTVSPost2010Prop47
 90
       50
102
RTVSPost2010PropOp47
 70
     1
102
RTVSPost2010Prop48
 90
       50
102
RTVSPost2010PropOp48
 70
     1
102
RTVSPost2010Prop49
280
     0
102
RTVSPost2010PropOp49
 70
     1
102
RTVSPost2010Prop50
 90
       50
102
RTVSPost2010PropOp50
 70
     1
102
RTVSPost2010Prop51ColorIndex
 90
      256
102
RTVSPost2010Prop51ColorRGB
 90
-16777216
102
RTVSPost2010PropOp51
 70
     0
102
RTVSPost2010Prop52
140
1.0
102
RTVSPost2010PropOp52
 70
     0
102
RTVSPost2010Prop53
 90
        2
102
RTVSPost2010PropOp53
 70
     1
102
RTVSPost2010Prop54
  1
strokes_ogs.tif
102
RTVSPost2010PropOp54
 70
     1
102
RTVSPost2010Prop55
280
     0
102
RTVSPost2010PropOp55
 70
     1
102
RTVSPost2010Prop56
140
1.0
102
RTVSPost2010PropOp56
 70
     1
102
RTVSPost2010Prop57
140
1.0
102
RTVSPost2010PropOp57
 70
     1
  0
XRECORD
  5
2AB
102
{ACAD_REACTORS
330
2AA
102
}
330
2AA
100
AcDbXrecord
280
     1
102
RTVSPropertyOp0
 70
     1
102
RTVSPropertyOp1
 70
     1
102
RTVSPropertyOp2
 70
     1
102
RTVSPropertyOp3
 70
     1
102
RTVSPropertyOp4
 70
     1
102
RTVSPropertyOp5
 70
     1
102
RTVSPropertyOp6
 70
     1
102
RTVSPropertyOp7
 70
     1
102
RTVSPropertyOp8
 70
     1
102
RTVSPropertyOp9
 70
     1
102
RTVSPropertyOp10
 70
     1
102
RTVSPropertyOp11
 70
     1
102
RTVSPropertyOp12
 70
     1
102
RTVSPropertyOp13
 70
     1
102
RTVSPropertyOp14
 70
     1
102
RTVSPropertyOp15
 70
     1
102
RTVSPropertyOp16
 70
     1
102
RTVSPropertyOp17
 70
     1
102
RTVSPropertyOp18
 70
     1
102
RTVSPropertyOp19
 70
     1
102
RTVSPropertyOp20
 70
     1
102
RTVSPropertyOp21
 70
     1
102
RTVSPropertyOp22
 70
     1
102
RTVSPropertyOp23
 70
     1
102
RTVSPropertyOp24
 70
     1
102
RTVSPropertyOp25
 70
     1
102
RTVSPropertyOp26
 70
     1
102
RTVSPropertyOp27
 70
     1
102
RTVSPropertyOp28
 70
     1
102
RTVSPropertyOp29
 70
     1
102
RTVSPropertyOp30
 70
     1
102
RTVSPropertyOp31
 70
     1
102
RTVSPropertyOp32
 70
     1
102
RTVSPropertyOp33
 70
     1
102
RTVSPropertyOp34
 70
     1
102
RTVSPropertyOp35
 70
     1
102
RTVSPropertyOp36
 70
     1
102
RTVSPropertyOp37
 70
     1
102
RTVSPropertyOp38
 70
     1
102
RTVSPropertyOp39
 70
     1
102
RTVSPropertyOp40
 70
     1
102
RTVSPropertyOp41
 70
     1
102
RTVSPropertyOp42
 70
     1
102
RTVSPropertyOp43
 70
     1
102
RTVSPropertyOp44
 70
     1
102
RTVSPropertyOp45
 70
     1
102
RTVSPropertyOp46
 70
     1
102
RTVSPropertyOp47
 70
     1
102
RTVSPropertyOp48
 70
     1
102
RTVSPropertyOp49
 70
     1
102
RTVSPropertyOp50
 70
     1
102
RTVSPropertyOp51
 70
     0
102
RTVSPropertyOp52
 70
     0
102
RTVSPropertyOp53
 70
     1
102
RTVSPropertyOp54
 70
     1
102
RTVSPropertyOp55
 70
     1
102
RTVSPropertyOp56
 70
     1
102
RTVSPropertyOp57
 70
     1
102
RTVSPost2010Prop28
280
     0
102
RTVSPost2010PropOp28
 70
     1
102
RTVSPost2010Prop29
280
     1
102
RTVSPost2010PropOp29
 70
     1
102
RTVSPost2010Prop30
280
     1
102
RTVSPost2010PropOp30
 70
     1
102
RTVSPost2010Prop31
280
     0
102
RTVSPost2010PropOp31
 70
     1
102
RTVSPost2010Prop32
280
     0
102
RTVSPost2010PropOp32
 70
     1
102
RTVSPost2010Prop33
280
     0
102
RTVSPost2010PropOp33
 70
     1
102
RTVSPost2010Prop34
280
     0
102
RTVSPost2010PropOp34
 70
     1
102
RTVSPost2010Prop35
280
     0
102
RTVSPost2010PropOp35
 70
     1
102
RTVSPost2010Prop36
280
     0
102
RTVSPost2010PropOp36
 70
     1
102
RTVSPost2010Prop37
 90
       50
102
RTVSPost2010PropOp37
 70
     1
102
RTVSPost2010Prop38
140
0.0
102
RTVSPost2010PropOp38
 70
     1
102
RTVSPost2010Prop39
140
1.0
102
RTVSPost2010PropOp39
 70
     1
102
RTVSPost2010Prop40
 90
        0
102
RTVSPost2010PropOp40
 70
     1
102
RTVSPost2010Prop41ColorIndex
 90
       18
102
RTVSPost2010Prop41ColorRGB
 90
        0
102
RTVSPost2010PropOp41
 70
     1
102
RTVSPost2010Prop42
 90
       50
102
RTVSPost2010PropOp42
 70
     1
102
RTVSPost2010Prop43
 90
        3
102
RTVSPost2010PropOp43
 70
     1
102
RTVSPost2010Prop44ColorIndex
 90
        5
102
RTVSPost2010Prop44ColorRGB
 90
      255
102
RTVSPost2010PropOp44
 70
     1
102
RTVSPost2010Prop45
280
     0
102
RTVSPost2010PropOp45
 70
     1
102
RTVSPost2010Prop46
 90
       50
102
RTVSPost2010PropOp46
 70
     1
102
RTVSPost2010Prop47
 90
       50
102
RTVSPost2010PropOp47
 70
     1
102
RTVSPost2010Prop48
 90
       50
102
RTVSPost2010PropOp48
 70
     1
102
RTVSPost2010Prop49
280
     0
102
RTVSPost2010PropOp49
 70
     1
102
RTVSPost2010Prop50
 90
       50
102
RTVSPost2010PropOp50
 70
     1
102
RTVSPost2010Prop51ColorIndex
 90
      256
102
RTVSPost2010Prop51ColorRGB
 90
-16777216
102
RTVSPost2010PropOp51
 70
     0
102
RTVSPost2010Prop52
140
1.0
102
RTVSPost2010PropOp52
 70
     0
102
RTVSPost2010Prop53
 90
        2
102
RTVSPost2010PropOp53
 70
     1
102
RTVSPost2010Prop54
  1
strokes_ogs.tif
102
RTVSPost2010PropOp54
 70
     1
102
RTVSPost2010Prop55
280
     0
102
RTVSPost2010PropOp55
 70
     1
102
RTVSPost2010Prop56
140
1.0
102
RTVSPost2010PropOp56
 70
     1
102
RTVSPost2010Prop57
140
1.0
102
RTVSPost2010PropOp57
 70
     1
  0
XRECORD
  5
29B
102
{ACAD_REACTORS
330
29A
102
}
330
29A
100
AcDbXrecord
280
     1
102
RTVSPropertyOp0
 70
     1
102
RTVSPropertyOp1
 70
     1
102
RTVSPropertyOp2
 70
     1
102
RTVSPropertyOp3
 70
     1
102
RTVSPropertyOp4
 70
     1
102
RTVSPropertyOp5
 70
     1
102
RTVSPropertyOp6
 70
     1
102
RTVSPropertyOp7
 70
     1
102
RTVSPropertyOp8
 70
     1
102
RTVSPropertyOp9
 70
     1
102
RTVSPropertyOp10
 70
     1
102
RTVSPropertyOp11
 70
     1
102
RTVSPropertyOp12
 70
     1
102
RTVSPropertyOp13
 70
     1
102
RTVSPropertyOp14
 70
     1
102
RTVSPropertyOp15
 70
     1
102
RTVSPropertyOp16
 70
     1
102
RTVSPropertyOp17
 70
     1
102
RTVSPropertyOp18
 70
     1
102
RTVSPropertyOp19
 70
     1
102
RTVSPropertyOp20
 70
     1
102
RTVSPropertyOp21
 70
     1
102
RTVSPropertyOp22
 70
     1
102
RTVSPropertyOp23
 70
     1
102
RTVSPropertyOp24
 70
     1
102
RTVSPropertyOp25
 70
     1
102
RTVSPropertyOp26
 70
     1
102
RTVSPropertyOp27
 70
     1
102
RTVSPropertyOp28
 70
     1
102
RTVSPropertyOp29
 70
     1
102
RTVSPropertyOp30
 70
     1
102
RTVSPropertyOp31
 70
     1
102
RTVSPropertyOp32
 70
     1
102
RTVSPropertyOp33
 70
     1
102
RTVSPropertyOp34
 70
     1
102
RTVSPropertyOp35
 70
     1
102
RTVSPropertyOp36
 70
     1
102
RTVSPropertyOp37
 70
     1
102
RTVSPropertyOp38
 70
     1
102
RTVSPropertyOp39
 70
     1
102
RTVSPropertyOp40
 70
     1
102
RTVSPropertyOp41
 70
     1
102
RTVSPropertyOp42
 70
     1
102
RTVSPropertyOp43
 70
     1
102
RTVSPropertyOp44
 70
     1
102
RTVSPropertyOp45
 70
     1
102
RTVSPropertyOp46
 70
     1
102
RTVSPropertyOp47
 70
     1
102
RTVSPropertyOp48
 70
     1
102
RTVSPropertyOp49
 70
     1
102
RTVSPropertyOp50
 70
     1
102
RTVSPropertyOp51
 70
     0
102
RTVSPropertyOp52
 70
     0
102
RTVSPropertyOp53
 70
     1
102
RTVSPropertyOp54
 70
     1
102
RTVSPropertyOp55
 70
     1
102
RTVSPropertyOp56
 70
     1
102
RTVSPropertyOp57
 70
     1
102
RTVSPost2010Prop28
280
     0
102
RTVSPost2010PropOp28
 70
     1
102
RTVSPost2010Prop29
280
     1
102
RTVSPost2010PropOp29
 70
     1
102
RTVSPost2010Prop30
280
     1
102
RTVSPost2010PropOp30
 70
     1
102
RTVSPost2010Prop31
280
     0
102
RTVSPost2010PropOp31
 70
     1
102
RTVSPost2010Prop32
280
     0
102
RTVSPost2010PropOp32
 70
     1
102
RTVSPost2010Prop33
280
     0
102
RTVSPost2010PropOp33
 70
     1
102
RTVSPost2010Prop34
280
     0
102
RTVSPost2010PropOp34
 70
     1
102
RTVSPost2010Prop35
280
     0
102
RTVSPost2010PropOp35
 70
     1
102
RTVSPost2010Prop36
280
     0
102
RTVSPost2010PropOp36
 70
     1
102
RTVSPost2010Prop37
 90
       50
102
RTVSPost2010PropOp37
 70
     1
102
RTVSPost2010Prop38
140
0.0
102
RTVSPost2010PropOp38
 70
     1
102
RTVSPost2010Prop39
140
1.0
102
RTVSPost2010PropOp39
 70
     1
102
RTVSPost2010Prop40
 90
        0
102
RTVSPost2010PropOp40
 70
     1
102
RTVSPost2010Prop41ColorIndex
 90
       18
102
RTVSPost2010Prop41ColorRGB
 90
        0
102
RTVSPost2010PropOp41
 70
     1
102
RTVSPost2010Prop42
 90
       50
102
RTVSPost2010PropOp42
 70
     1
102
RTVSPost2010Prop43
 90
        3
102
RTVSPost2010PropOp43
 70
     1
102
RTVSPost2010Prop44ColorIndex
 90
        5
102
RTVSPost2010Prop44ColorRGB
 90
      255
102
RTVSPost2010PropOp44
 70
     1
102
RTVSPost2010Prop45
280
     0
102
RTVSPost2010PropOp45
 70
     1
102
RTVSPost2010Prop46
 90
       50
102
RTVSPost2010PropOp46
 70
     1
102
RTVSPost2010Prop47
 90
       50
102
RTVSPost2010PropOp47
 70
     1
102
RTVSPost2010Prop48
 90
       50
102
RTVSPost2010PropOp48
 70
     1
102
RTVSPost2010Prop49
280
     0
102
RTVSPost2010PropOp49
 70
     1
102
RTVSPost2010Prop50
 90
       50
102
RTVSPost2010PropOp50
 70
     1
102
RTVSPost2010Prop51ColorIndex
 90
      256
102
RTVSPost2010Prop51ColorRGB
 90
-16777216
102
RTVSPost2010PropOp51
 70
     0
102
RTVSPost2010Prop52
140
1.0
102
RTVSPost2010PropOp52
 70
     0
102
RTVSPost2010Prop53
 90
        2
102
RTVSPost2010PropOp53
 70
     1
102
RTVSPost2010Prop54
  1
strokes_ogs.tif
102
RTVSPost2010PropOp54
 70
     1
102
RTVSPost2010Prop55
280
     0
102
RTVSPost2010PropOp55
 70
     1
102
RTVSPost2010Prop56
140
1.0
102
RTVSPost2010PropOp56
 70
     1
102
RTVSPost2010Prop57
140
1.0
102
RTVSPost2010PropOp57
 70
     1
  0
XRECORD
  5
28D
102
{ACAD_REACTORS
330
28C
102
}
330
28C
100
AcDbXrecord
280
     1
102
RTVSPropertyOp0
 70
     1
102
RTVSPropertyOp1
 70
     1
102
RTVSPropertyOp2
 70
     1
102
RTVSPropertyOp3
 70
     1
102
RTVSPropertyOp4
 70
     1
102
RTVSPropertyOp5
 70
     1
102
RTVSPropertyOp6
 70
     1
102
RTVSPropertyOp7
 70
     1
102
RTVSPropertyOp8
 70
     1
102
RTVSPropertyOp9
 70
     1
102
RTVSPropertyOp10
 70
     1
102
RTVSPropertyOp11
 70
     1
102
RTVSPropertyOp12
 70
     1
102
RTVSPropertyOp13
 70
     1
102
RTVSPropertyOp14
 70
     1
102
RTVSPropertyOp15
 70
     1
102
RTVSPropertyOp16
 70
     1
102
RTVSPropertyOp17
 70
     1
102
RTVSPropertyOp18
 70
     1
102
RTVSPropertyOp19
 70
     1
102
RTVSPropertyOp20
 70
     1
102
RTVSPropertyOp21
 70
     1
102
RTVSPropertyOp22
 70
     1
102
RTVSPropertyOp23
 70
     1
102
RTVSPropertyOp24
 70
     1
102
RTVSPropertyOp25
 70
     1
102
RTVSPropertyOp26
 70
     1
102
RTVSPropertyOp27
 70
     1
102
RTVSPropertyOp28
 70
     1
102
RTVSPropertyOp29
 70
     1
102
RTVSPropertyOp30
 70
     1
102
RTVSPropertyOp31
 70
     1
102
RTVSPropertyOp32
 70
     1
102
RTVSPropertyOp33
 70
     1
102
RTVSPropertyOp34
 70
     1
102
RTVSPropertyOp35
 70
     1
102
RTVSPropertyOp36
 70
     1
102
RTVSPropertyOp37
 70
     1
102
RTVSPropertyOp38
 70
     1
102
RTVSPropertyOp39
 70
     1
102
RTVSPropertyOp40
 70
     1
102
RTVSPropertyOp41
 70
     1
102
RTVSPropertyOp42
 70
     1
102
RTVSPropertyOp43
 70
     1
102
RTVSPropertyOp44
 70
     1
102
RTVSPropertyOp45
 70
     1
102
RTVSPropertyOp46
 70
     1
102
RTVSPropertyOp47
 70
     1
102
RTVSPropertyOp48
 70
     1
102
RTVSPropertyOp49
 70
     1
102
RTVSPropertyOp50
 70
     1
102
RTVSPropertyOp51
 70
     0
102
RTVSPropertyOp52
 70
     0
102
RTVSPropertyOp53
 70
     1
102
RTVSPropertyOp54
 70
     1
102
RTVSPropertyOp55
 70
     1
102
RTVSPropertyOp56
 70
     1
102
RTVSPropertyOp57
 70
     1
102
RTVSPost2010Prop28
280
     0
102
RTVSPost2010PropOp28
 70
     1
102
RTVSPost2010Prop29
280
     1
102
RTVSPost2010PropOp29
 70
     1
102
RTVSPost2010Prop30
280
     1
102
RTVSPost2010PropOp30
 70
     1
102
RTVSPost2010Prop31
280
     0
102
RTVSPost2010PropOp31
 70
     1
102
RTVSPost2010Prop32
280
     0
102
RTVSPost2010PropOp32
 70
     1
102
RTVSPost2010Prop33
280
     0
102
RTVSPost2010PropOp33
 70
     1
102
RTVSPost2010Prop34
280
     0
102
RTVSPost2010PropOp34
 70
     1
102
RTVSPost2010Prop35
280
     0
102
RTVSPost2010PropOp35
 70
     1
102
RTVSPost2010Prop36
280
     0
102
RTVSPost2010PropOp36
 70
     1
102
RTVSPost2010Prop37
 90
       50
102
RTVSPost2010PropOp37
 70
     1
102
RTVSPost2010Prop38
140
0.0
102
RTVSPost2010PropOp38
 70
     1
102
RTVSPost2010Prop39
140
1.0
102
RTVSPost2010PropOp39
 70
     1
102
RTVSPost2010Prop40
 90
        0
102
RTVSPost2010PropOp40
 70
     1
102
RTVSPost2010Prop41ColorIndex
 90
       18
102
RTVSPost2010Prop41ColorRGB
 90
        0
102
RTVSPost2010PropOp41
 70
     1
102
RTVSPost2010Prop42
 90
       50
102
RTVSPost2010PropOp42
 70
     1
102
RTVSPost2010Prop43
 90
        3
102
RTVSPost2010PropOp43
 70
     1
102
RTVSPost2010Prop44ColorIndex
 90
        5
102
RTVSPost2010Prop44ColorRGB
 90
      255
102
RTVSPost2010PropOp44
 70
     1
102
RTVSPost2010Prop45
280
     0
102
RTVSPost2010PropOp45
 70
     1
102
RTVSPost2010Prop46
 90
       50
102
RTVSPost2010PropOp46
 70
     1
102
RTVSPost2010Prop47
 90
       50
102
RTVSPost2010PropOp47
 70
     1
102
RTVSPost2010Prop48
 90
       50
102
RTVSPost2010PropOp48
 70
     1
102
RTVSPost2010Prop49
280
     0
102
RTVSPost2010PropOp49
 70
     1
102
RTVSPost2010Prop50
 90
       50
102
RTVSPost2010PropOp50
 70
     1
102
RTVSPost2010Prop51ColorIndex
 90
      256
102
RTVSPost2010Prop51ColorRGB
 90
-16777216
102
RTVSPost2010PropOp51
 70
     0
102
RTVSPost2010Prop52
140
1.0
102
RTVSPost2010PropOp52
 70
     0
102
RTVSPost2010Prop53
 90
        2
102
RTVSPost2010PropOp53
 70
     1
102
RTVSPost2010Prop54
  1
strokes_ogs.tif
102
RTVSPost2010PropOp54
 70
     1
102
RTVSPost2010Prop55
280
     0
102
RTVSPost2010PropOp55
 70
     1
102
RTVSPost2010Prop56
140
1.0
102
RTVSPost2010PropOp56
 70
     1
102
RTVSPost2010Prop57
140
1.0
102
RTVSPost2010PropOp57
 70
     1
  0
XRECORD
  5
2AD
102
{ACAD_REACTORS
330
2AC
102
}
330
2AC
100
AcDbXrecord
280
     1
102
RTVSPropertyOp0
 70
     1
102
RTVSPropertyOp1
 70
     1
102
RTVSPropertyOp2
 70
     1
102
RTVSPropertyOp3
 70
     1
102
RTVSPropertyOp4
 70
     1
102
RTVSPropertyOp5
 70
     1
102
RTVSPropertyOp6
 70
     1
102
RTVSPropertyOp7
 70
     1
102
RTVSPropertyOp8
 70
     1
102
RTVSPropertyOp9
 70
     1
102
RTVSPropertyOp10
 70
     1
102
RTVSPropertyOp11
 70
     1
102
RTVSPropertyOp12
 70
     1
102
RTVSPropertyOp13
 70
     1
102
RTVSPropertyOp14
 70
     1
102
RTVSPropertyOp15
 70
     1
102
RTVSPropertyOp16
 70
     1
102
RTVSPropertyOp17
 70
     1
102
RTVSPropertyOp18
 70
     1
102
RTVSPropertyOp19
 70
     1
102
RTVSPropertyOp20
 70
     1
102
RTVSPropertyOp21
 70
     1
102
RTVSPropertyOp22
 70
     1
102
RTVSPropertyOp23
 70
     1
102
RTVSPropertyOp24
 70
     1
102
RTVSPropertyOp25
 70
     1
102
RTVSPropertyOp26
 70
     1
102
RTVSPropertyOp27
 70
     1
102
RTVSPropertyOp28
 70
     1
102
RTVSPropertyOp29
 70
     1
102
RTVSPropertyOp30
 70
     1
102
RTVSPropertyOp31
 70
     1
102
RTVSPropertyOp32
 70
     1
102
RTVSPropertyOp33
 70
     1
102
RTVSPropertyOp34
 70
     1
102
RTVSPropertyOp35
 70
     1
102
RTVSPropertyOp36
 70
     1
102
RTVSPropertyOp37
 70
     1
102
RTVSPropertyOp38
 70
     1
102
RTVSPropertyOp39
 70
     1
102
RTVSPropertyOp40
 70
     1
102
RTVSPropertyOp41
 70
     1
102
RTVSPropertyOp42
 70
     1
102
RTVSPropertyOp43
 70
     1
102
RTVSPropertyOp44
 70
     1
102
RTVSPropertyOp45
 70
     1
102
RTVSPropertyOp46
 70
     1
102
RTVSPropertyOp47
 70
     1
102
RTVSPropertyOp48
 70
     1
102
RTVSPropertyOp49
 70
     1
102
RTVSPropertyOp50
 70
     1
102
RTVSPropertyOp51
 70
     0
102
RTVSPropertyOp52
 70
     0
102
RTVSPropertyOp53
 70
     1
102
RTVSPropertyOp54
 70
     1
102
RTVSPropertyOp55
 70
     1
102
RTVSPropertyOp56
 70
     1
102
RTVSPropertyOp57
 70
     1
102
RTVSPost2010Prop28
280
     0
102
RTVSPost2010PropOp28
 70
     1
102
RTVSPost2010Prop29
280
     1
102
RTVSPost2010PropOp29
 70
     1
102
RTVSPost2010Prop30
280
     1
102
RTVSPost2010PropOp30
 70
     1
102
RTVSPost2010Prop31
280
     0
102
RTVSPost2010PropOp31
 70
     1
102
RTVSPost2010Prop32
280
     0
102
RTVSPost2010PropOp32
 70
     1
102
RTVSPost2010Prop33
280
     0
102
RTVSPost2010PropOp33
 70
     1
102
RTVSPost2010Prop34
280
     0
102
RTVSPost2010PropOp34
 70
     1
102
RTVSPost2010Prop35
280
     0
102
RTVSPost2010PropOp35
 70
     1
102
RTVSPost2010Prop36
280
     0
102
RTVSPost2010PropOp36
 70
     1
102
RTVSPost2010Prop37
 90
       50
102
RTVSPost2010PropOp37
 70
     1
102
RTVSPost2010Prop38
140
0.0
102
RTVSPost2010PropOp38
 70
     1
102
RTVSPost2010Prop39
140
1.0
102
RTVSPost2010PropOp39
 70
     1
102
RTVSPost2010Prop40
 90
        0
102
RTVSPost2010PropOp40
 70
     1
102
RTVSPost2010Prop41ColorIndex
 90
       18
102
RTVSPost2010Prop41ColorRGB
 90
        0
102
RTVSPost2010PropOp41
 70
     1
102
RTVSPost2010Prop42
 90
       50
102
RTVSPost2010PropOp42
 70
     1
102
RTVSPost2010Prop43
 90
        3
102
RTVSPost2010PropOp43
 70
     1
102
RTVSPost2010Prop44ColorIndex
 90
        5
102
RTVSPost2010Prop44ColorRGB
 90
      255
102
RTVSPost2010PropOp44
 70
     1
102
RTVSPost2010Prop45
280
     0
102
RTVSPost2010PropOp45
 70
     1
102
RTVSPost2010Prop46
 90
       50
102
RTVSPost2010PropOp46
 70
     1
102
RTVSPost2010Prop47
 90
       50
102
RTVSPost2010PropOp47
 70
     1
102
RTVSPost2010Prop48
 90
       50
102
RTVSPost2010PropOp48
 70
     1
102
RTVSPost2010Prop49
280
     0
102
RTVSPost2010PropOp49
 70
     1
102
RTVSPost2010Prop50
 90
       50
102
RTVSPost2010PropOp50
 70
     1
102
RTVSPost2010Prop51ColorIndex
 90
      256
102
RTVSPost2010Prop51ColorRGB
 90
-16777216
102
RTVSPost2010PropOp51
 70
     0
102
RTVSPost2010Prop52
140
1.0
102
RTVSPost2010PropOp52
 70
     0
102
RTVSPost2010Prop53
 90
        2
102
RTVSPost2010PropOp53
 70
     1
102
RTVSPost2010Prop54
  1
strokes_ogs.tif
102
RTVSPost2010PropOp54
 70
     1
102
RTVSPost2010Prop55
280
     0
102
RTVSPost2010PropOp55
 70
     1
102
RTVSPost2010Prop56
140
1.0
102
RTVSPost2010PropOp56
 70
     1
102
RTVSPost2010Prop57
140
1.0
102
RTVSPost2010PropOp57
 70
     1
  0
ENDSEC
  0
EOF
