  0
SECTION
  2
HEADER
  9
$ACADVER
  1
AC1018
  9
$ACADMAINTVER
 70
     0
  9
$DWGCODEPAGE
  3
ANSI_1252
  9
$INSBASE
 10
0.0
 20
0.0
 30
0.0
  9
$EXTMIN
 10
-1174.999999523162
 20
-1141.499999523163
 30
0.0
  9
$EXTMAX
 10
-877.9999995231638
 20
-931.4999995231628
 30
0.0
  9
$LIMMIN
 10
0.0
 20
0.0
  9
$LIMMAX
 10
12.0
 20
9.0
  9
$ORTHOMODE
 70
     0
  9
$REGENMODE
 70
     1
  9
$FILLMODE
 70
     1
  9
$QTEXTMODE
 70
     0
  9
$MIRRTEXT
 70
     1
  9
$LTSCALE
 40
1.0
  9
$ATTMODE
 70
     1
  9
$TEXTSIZE
 40
0.2
  9
$TRACEWID
 40
0.05
  9
$TEXTSTYLE
  7
Standard
  9
$CLAYER
  8
0
  9
$CELTYPE
  6
ByLayer
  9
$CECOLOR
 62
   256
  9
$CELTSCALE
 40
1.0
  9
$DISPSILH
 70
     0
  9
$DIMSCALE
 40
1.0
  9
$DIMASZ
 40
0.18
  9
$DIMEXO
 40
0.0625
  9
$DIMDLI
 40
0.38
  9
$DIMRND
 40
0.0
  9
$DIMDLE
 40
0.0
  9
$DIMEXE
 40
0.18
  9
$DIMTP
 40
0.0
  9
$DIMTM
 40
0.0
  9
$DIMTXT
 40
0.18
  9
$DIMCEN
 40
0.09
  9
$DIMTSZ
 40
0.0
  9
$DIMTOL
 70
     0
  9
$DIMLIM
 70
     0
  9
$DIMTIH
 70
     1
  9
$DIMTOH
 70
     1
  9
$DIMSE1
 70
     0
  9
$DIMSE2
 70
     0
  9
$DIMTAD
 70
     0
  9
$DIMZIN
 70
     0
  9
$DIMBLK
  1

  9
$DIMASO
 70
     1
  9
$DIMSHO
 70
     1
  9
$DIMPOST
  1

  9
$DIMAPOST
  1

  9
$DIMALT
 70
     0
  9
$DIMALTD
 70
     2
  9
$DIMALTF
 40
25.4
  9
$DIMLFAC
 40
1.0
  9
$DIMTOFL
 70
     0
  9
$DIMTVP
 40
0.0
  9
$DIMTIX
 70
     0
  9
$DIMSOXD
 70
     0
  9
$DIMSAH
 70
     0
  9
$DIMBLK1
  1

  9
$DIMBLK2
  1

  9
$DIMSTYLE
  2
Standard
  9
$DIMCLRD
 70
     0
  9
$DIMCLRE
 70
     0
  9
$DIMCLRT
 70
     0
  9
$DIMTFAC
 40
1.0
  9
$DIMGAP
 40
0.09
  9
$DIMJUST
 70
     0
  9
$DIMSD1
 70
     0
  9
$DIMSD2
 70
     0
  9
$DIMTOLJ
 70
     1
  9
$DIMTZIN
 70
     0
  9
$DIMALTZ
 70
     0
  9
$DIMALTTZ
 70
     0
  9
$DIMUPT
 70
     0
  9
$DIMDEC
 70
     4
  9
$DIMTDEC
 70
     4
  9
$DIMALTU
 70
     2
  9
$DIMALTTD
 70
     2
  9
$DIMTXSTY
  7
Standard
  9
$DIMAUNIT
 70
     0
  9
$DIMADEC
 70
     0
  9
$DIMALTRND
 40
0.0
  9
$DIMAZIN
 70
     0
  9
$DIMDSEP
 70
    46
  9
$DIMATFIT
 70
     3
  9
$DIMFRAC
 70
     0
  9
$DIMLDRBLK
  1

  9
$DIMLUNIT
 70
     2
  9
$DIMLWD
 70
    -2
  9
$DIMLWE
 70
    -2
  9
$DIMTMOVE
 70
     0
  9
$LUNITS
 70
     2
  9
$LUPREC
 70
     4
  9
$SKETCHINC
 40
0.1
  9
$FILLETRAD
 40
0.5
  9
$AUNITS
 70
     0
  9
$AUPREC
 70
     0
  9
$MENU
  1
.
  9
$ELEVATION
 40
0.0
  9
$PELEVATION
 40
0.0
  9
$THICKNESS
 40
0.0
  9
$LIMCHECK
 70
     0
  9
$CHAMFERA
 40
0.0
  9
$CHAMFERB
 40
0.0
  9
$CHAMFERC
 40
0.0
  9
$CHAMFERD
 40
0.0
  9
$SKPOLY
 70
     0
  9
$TDCREATE
 40
2459296.593397303
  9
$TDUCREATE
 40
2459296.551730637
  9
$TDUPDATE
 40
2459296.593397488
  9
$TDUUPDATE
 40
2459296.551730822
  9
$TDINDWG
 40
0.0000000116
  9
$TDUSRTIMER
 40
0.0000000116
  9
$USRTIMER
 70
     1
  9
$ANGBASE
 50
0.0
  9
$ANGDIR
 70
     0
  9
$PDMODE
 70
     0
  9
$PDSIZE
 40
0.0
  9
$PLINEWID
 40
0.0
  9
$SPLFRAME
 70
     0
  9
$SPLINETYPE
 70
     6
  9
$SPLINESEGS
 70
     8
  9
$HANDSEED
  5
27D
  9
$SURFTAB1
 70
     6
  9
$SURFTAB2
 70
     6
  9
$SURFTYPE
 70
     6
  9
$SURFU
 70
     6
  9
$SURFV
 70
     6
  9
$UCSBASE
  2

  9
$UCSNAME
  2

  9
$UCSORG
 10
0.0
 20
0.0
 30
0.0
  9
$UCSXDIR
 10
1.0
 20
0.0
 30
0.0
  9
$UCSYDIR
 10
0.0
 20
1.0
 30
0.0
  9
$UCSORTHOREF
  2

  9
$UCSORTHOVIEW
 70
     0
  9
$UCSORGTOP
 10
0.0
 20
0.0
 30
0.0
  9
$UCSORGBOTTOM
 10
0.0
 20
0.0
 30
0.0
  9
$UCSORGLEFT
 10
0.0
 20
0.0
 30
0.0
  9
$UCSORGRIGHT
 10
0.0
 20
0.0
 30
0.0
  9
$UCSORGFRONT
 10
0.0
 20
0.0
 30
0.0
  9
$UCSORGBACK
 10
0.0
 20
0.0
 30
0.0
  9
$PUCSBASE
  2

  9
$PUCSNAME
  2

  9
$PUCSORG
 10
0.0
 20
0.0
 30
0.0
  9
$PUCSXDIR
 10
1.0
 20
0.0
 30
0.0
  9
$PUCSYDIR
 10
0.0
 20
1.0
 30
0.0
  9
$PUCSORTHOREF
  2

  9
$PUCSORTHOVIEW
 70
     0
  9
$PUCSORGTOP
 10
0.0
 20
0.0
 30
0.0
  9
$PUCSORGBOTTOM
 10
0.0
 20
0.0
 30
0.0
  9
$PUCSORGLEFT
 10
0.0
 20
0.0
 30
0.0
  9
$PUCSORGRIGHT
 10
0.0
 20
0.0
 30
0.0
  9
$PUCSORGFRONT
 10
0.0
 20
0.0
 30
0.0
  9
$PUCSORGBACK
 10
0.0
 20
0.0
 30
0.0
  9
$USERI1
 70
     0
  9
$USERI2
 70
     0
  9
$USERI3
 70
     0
  9
$USERI4
 70
     0
  9
$USERI5
 70
     0
  9
$USERR1
 40
20.1
  9
$USERR2
 40
0.0
  9
$USERR3
 40
0.0
  9
$USERR4
 40
0.0
  9
$USERR5
 40
0.0
  9
$WORLDVIEW
 70
     1
  9
$SHADEDGE
 70
     3
  9
$SHADEDIF
 70
    70
  9
$TILEMODE
 70
     1
  9
$MAXACTVP
 70
    64
  9
$PINSBASE
 10
0.0
 20
0.0
 30
0.0
  9
$PLIMCHECK
 70
     0
  9
$PEXTMIN
 10
1.00000000000000E+20
 20
1.00000000000000E+20
 30
1.00000000000000E+20
  9
$PEXTMAX
 10
-1.00000000000000E+20
 20
-1.00000000000000E+20
 30
-1.00000000000000E+20
  9
$PLIMMIN
 10
0.0
 20
0.0
  9
$PLIMMAX
 10
12.0
 20
9.0
  9
$UNITMODE
 70
     0
  9
$VISRETAIN
 70
     1
  9
$PLINEGEN
 70
     0
  9
$PSLTSCALE
 70
     1
  9
$TREEDEPTH
 70
  3020
  9
$CMLSTYLE
  2
Standard
  9
$CMLJUST
 70
     0
  9
$CMLSCALE
 40
1.0
  9
$PROXYGRAPHICS
 70
     1
  9
$MEASUREMENT
 70
     1
  9
$CELWEIGHT
370
    -1
  9
$ENDCAPS
280
     0
  9
$JOINSTYLE
280
     0
  9
$LWDISPLAY
290
     0
  9
$INSUNITS
 70
     4
  9
$HYPERLINKBASE
  1

  9
$STYLESHEET
  1

  9
$XEDIT
290
     1
  9
$CEPSNTYPE
380
     0
  9
$PSTYLEMODE
290
     1
  9
$FINGERPRINTGUID
  2
{94952042-188f-49db-9521-9b6c03676c6b}
  9
$VERSIONGUID
  2
{FAEB1C32-E019-11D5-929B-00C0DF256EC4}
  9
$EXTNAMES
290
     1
  9
$PSVPSCALE
 40
0.0
  9
$OLESTARTUP
290
     0
  9
$SORTENTS
280
   127
  9
$INDEXCTL
280
     0
  9
$HIDETEXT
280
     1
  9
$XCLIPFRAME
290
     0
  9
$HALOGAP
280
     0
  9
$OBSCOLOR
 70
   257
  9
$OBSLTYPE
280
     0
  9
$INTERSECTIONDISPLAY
280
     0
  9
$INTERSECTIONCOLOR
 70
   257
  9
$DIMASSOC
280
     2
  9
$PROJECTNAME
  1

  0
ENDSEC
  0
SECTION
  2
CLASSES
  0
CLASS
  1
ACDBDICTIONARYWDFLT
  2
AcDbDictionaryWithDefault
  3
ObjectDBX Classes
 90
        0
 91
        3
280
     0
281
     0
  0
CLASS
  1
VISUALSTYLE
  2
AcDbVisualStyle
  3
ObjectDBX Classes
 90
     4095
 91
        3
280
     0
281
     0
  0
CLASS
  1
MATERIAL
  2
AcDbMaterial
  3
ObjectDBX Classes
 90
     1153
 91
        3
280
     0
281
     0
  0
CLASS
  1
SCALE
  2
AcDbScale
  3
ObjectDBX Classes
 90
     1153
 91
        3
280
     0
281
     0
  0
CLASS
  1
TABLESTYLE
  2
AcDbTableStyle
  3
ObjectDBX Classes
 90
     4095
 91
        3
280
     0
281
     0
  0
CLASS
  1
MLEADERSTYLE
  2
AcDbMLeaderStyle
  3
ACDB_MLEADERSTYLE_CLASS
 90
     4095
 91
        3
280
     0
281
     0
  0
CLASS
  1
SUN
  2
AcDbSun
  3
SCENEOE
 90
     1153
 91
        3
280
     0
281
     0
  0
CLASS
  1
DICTIONARYVAR
  2
AcDbDictionaryVar
  3
ObjectDBX Classes
 90
        0
 91
        3
280
     0
281
     0
  0
CLASS
  1
CELLSTYLEMAP
  2
AcDbCellStyleMap
  3
ObjectDBX Classes
 90
     1152
 91
        3
280
     0
281
     0
  0
ENDSEC
  0
SECTION
  2
TABLES
  0
TABLE
  2
VPORT
  5
8
102
{ACAD_XDICTIONARY
360
236
102
}
330
0
100
AcDbSymbolTable
 70
     1
  0
VPORT
  5
29
330
8
100
AcDbSymbolTableRecord
100
AcDbViewportTableRecord
  2
*Active
 70
     0
 10
0.0
 20
0.0
 11
1.0
 21
1.0
 12
-1026.499999523163
 22
-1036.499999523163
 13
0.0
 23
0.0
 14
0.5
 24
0.5
 15
0.5
 25
0.5
 16
0.0
 26
0.0
 36
1.0
 17
0.0
 27
0.0
 37
0.0
 40
231.0000000000003
 41
1.60267857142857
 42
50.0
 43
0.0
 44
0.0
 50
0.0
 51
0.0
 71
     0
 72
   100
 73
     1
 74
     3
 75
     0
 76
     0
 77
     0
 78
     0
281
     0
 65
     1
110
0.0
120
0.0
130
0.0
111
1.0
121
0.0
131
0.0
112
0.0
122
1.0
132
0.0
 79
     0
146
0.0
  0
ENDTAB
  0
TABLE
  2
LTYPE
  5
5
330
0
100
AcDbSymbolTable
 70
     8
  0
LTYPE
  5
14
330
5
100
AcDbSymbolTableRecord
100
AcDbLinetypeTableRecord
  2
ByBlock
 70
     0
  3

 72
    65
 73
     0
 40
0.0
  0
LTYPE
  5
15
330
5
100
AcDbSymbolTableRecord
100
AcDbLinetypeTableRecord
  2
ByLayer
 70
     0
  3

 72
    65
 73
     0
 40
0.0
  0
LTYPE
  5
16
330
5
100
AcDbSymbolTableRecord
100
AcDbLinetypeTableRecord
  2
Continuous
 70
     0
  3
Solid line
 72
    65
 73
     0
 40
0.0
  0
LTYPE
  5
6E
330
5
100
AcDbSymbolTableRecord
100
AcDbLinetypeTableRecord
  2
DASHED
 70
     0
  3
Dashed
 72
    65
 73
     2
 40
15.0
 49
7.0
 74
     0
 49
-8.0
 74
     0
  0
LTYPE
  5
6F
330
5
100
AcDbSymbolTableRecord
100
AcDbLinetypeTableRecord
  2
DOTTED
 70
     0
  3
Dotted
 72
    65
 73
     2
 40
1.0
 49
0.0
 74
     0
 49
-1.0
 74
     0
  0
LTYPE
  5
70
330
5
100
AcDbSymbolTableRecord
100
AcDbLinetypeTableRecord
  2
DOT_CENTER
 70
     0
  3
Dot_Center
 72
    65
 73
     4
 40
14.0
 49
12.0
 74
     0
 49
-1.0
 74
     0
 49
0.0
 74
     0
 49
-1.0
 74
     0
  0
LTYPE
  5
71
330
5
100
AcDbSymbolTableRecord
100
AcDbLinetypeTableRecord
  2
LONG_DASHED
 70
     0
  3
Long_Dashed
 72
    65
 73
     2
 40
15.0
 49
10.0
 74
     0
 49
-5.0
 74
     0
  0
LTYPE
  5
72
330
5
100
AcDbSymbolTableRecord
100
AcDbLinetypeTableRecord
  2
DASH_CENTER
 70
     0
  3
Dash_Center
 72
    65
 73
     4
 40
14.0
 49
11.0
 74
     0
 49
-1.0
 74
     0
 49
1.0
 74
     0
 49
-1.0
 74
     0
  0
LTYPE
  5
73
330
5
100
AcDbSymbolTableRecord
100
AcDbLinetypeTableRecord
  2
PHANTOM
 70
     0
  3
Phantom
 72
    65
 73
     6
 40
13.0
 49
10.0
 74
     0
 49
-1.0
 74
     0
 49
0.0
 74
     0
 49
-1.0
 74
     0
 49
0.0
 74
     0
 49
-1.0
 74
     0
  0
LTYPE
  5
74
330
5
100
AcDbSymbolTableRecord
100
AcDbLinetypeTableRecord
  2
CENTER_DASH_DASH
 70
     0
  3
Center_Dash_Dash
 72
    65
 73
     6
 40
14.0
 49
9.0
 74
     0
 49
-1.0
 74
     0
 49
1.0
 74
     0
 49
-1.0
 74
     0
 49
1.0
 74
     0
 49
-1.0
 74
     0
  0
ENDTAB
  0
TABLE
  2
LAYER
  5
2
330
0
100
AcDbSymbolTable
 70
     2
  0
LAYER
  5
10
330
2
100
AcDbSymbolTableRecord
100
AcDbLayerTableRecord
  2
0
 70
     0
 62
     7
  6
Continuous
370
    -3
390
F
  0
LAYER
  5
75
330
2
100
AcDbSymbolTableRecord
100
AcDbLayerTableRecord
  2
1
 70
     0
 62
     7
  6
Continuous
370
    -3
390
F
  0
ENDTAB
  0
TABLE
  2
STYLE
  5
3
330
0
100
AcDbSymbolTable
 70
     5
  0
STYLE
  5
11
330
3
100
AcDbSymbolTableRecord
100
AcDbTextStyleTableRecord
  2
Standard
 70
     0
 40
0.0
 41
1.0
 50
0.0
 71
     0
 42
0.2
  3
txt
  4

  0
STYLE
  5
BF
330
3
100
AcDbSymbolTableRecord
100
AcDbTextStyleTableRecord
  2
CONVERTER_11
 70
     0
 40
0.0
 41
0.9
 50
0.0
 71
     0
 42
0.2
  3
txt.shx
  4

  0
STYLE
  5
1F9
330
3
100
AcDbSymbolTableRecord
100
AcDbTextStyleTableRecord
  2
CONVERTER_12
 70
     0
 40
0.0
 41
0.81
 50
0.0
 71
     0
 42
0.2
  3
txt.shx
  4

  0
STYLE
  5
20F
330
3
100
AcDbSymbolTableRecord
100
AcDbTextStyleTableRecord
  2
CONVERTER_13
 70
     0
 40
0.0
 41
0.72
 50
0.0
 71
     0
 42
0.2
  3
txt.shx
  4

  0
STYLE
  5
212
330
3
100
AcDbSymbolTableRecord
100
AcDbTextStyleTableRecord
  2
CONVERTER_14
 70
     0
 40
0.0
 41
0.855
 50
0.0
 71
     0
 42
0.2
  3
txt.shx
  4

  0
ENDTAB
  0
TABLE
  2
VIEW
  5
6
330
0
100
AcDbSymbolTable
 70
     0
  0
ENDTAB
  0
TABLE
  2
UCS
  5
7
330
0
100
AcDbSymbolTable
 70
     0
  0
ENDTAB
  0
TABLE
  2
APPID
  5
9
330
0
100
AcDbSymbolTable
 70
     2
  0
APPID
  5
12
330
9
100
AcDbSymbolTableRecord
100
AcDbRegAppTableRecord
  2
ACAD
 70
     0
  0
APPID
  5
275
330
9
100
AcDbSymbolTableRecord
100
AcDbRegAppTableRecord
  2
ACAD_MLEADERVER
 70
     0
  0
ENDTAB
  0
TABLE
  2
DIMSTYLE
  5
A
330
0
100
AcDbSymbolTable
 70
     4
100
AcDbDimStyleTable
  0
DIMSTYLE
105
27
330
A
100
AcDbSymbolTableRecord
100
AcDbDimStyleTableRecord
  2
Standard
 70
     0
178
     0
340
11
  0
DIMSTYLE
105
CF
102
{ACAD_REACTORS
330
D0
102
}
330
A
100
AcDbSymbolTableRecord
100
AcDbDimStyleTableRecord
  2
ME10_DIM_10
 70
     0
 41
3.5
 42
0.0
 44
1.5
 73
     0
 74
     0
 77
     1
 78
     8
140
3.5
147
1.5
172
     1
173
     1
174
     1
175
     1
176
     2
177
     2
178
     3
340
BF
  0
DIMSTYLE
105
EE
102
{ACAD_REACTORS
330
EF
102
}
330
A
100
AcDbSymbolTableRecord
100
AcDbDimStyleTableRecord
  2
ME10_DIM_11
 70
     0
 41
3.5
 42
0.0
 44
1.5
 73
     0
 74
     0
 77
     1
 78
     8
140
3.5
147
1.5
172
     1
173
     1
174
     1
175
     1
176
     2
177
     2
178
     3
340
BF
  0
DIMSTYLE
105
FB
102
{ACAD_REACTORS
330
FC
102
}
330
A
100
AcDbSymbolTableRecord
100
AcDbDimStyleTableRecord
  2
ME10_DIM_12
 70
     0
 41
3.5
 42
0.0
 44
1.5
 73
     0
 74
     0
 77
     1
 78
     8
140
3.5
147
1.5
172
     1
173
     1
174
     1
175
     1
176
     2
177
     2
178
     3
340
BF
  0
ENDTAB
  0
TABLE
  2
BLOCK_RECORD
  5
1
330
0
100
AcDbSymbolTable
 70
    20
  0
BLOCK_RECORD
  5
1F
330
1
100
AcDbSymbolTableRecord
100
AcDbBlockTableRecord
  2
*Model_Space
340
22
  0
BLOCK_RECORD
  5
1B
330
1
100
AcDbSymbolTableRecord
100
AcDbBlockTableRecord
  2
*Paper_Space
340
1E
  0
BLOCK_RECORD
  5
23
330
1
100
AcDbSymbolTableRecord
100
AcDbBlockTableRecord
  2
*Paper_Space0
340
26
  0
BLOCK_RECORD
  5
76
330
1
100
AcDbSymbolTableRecord
100
AcDbBlockTableRecord
  2
es-ssmk-gb_60x18-select__1
340
0
102
{BLKREFS
331
7A
102
}
  0
BLOCK_RECORD
  5
79
330
1
100
AcDbSymbolTableRecord
100
AcDbBlockTableRecord
  2
Allg1
340
0
102
{BLKREFS
331
AC
102
}
  0
BLOCK_RECORD
  5
7D
330
1
100
AcDbSymbolTableRecord
100
AcDbBlockTableRecord
  2
es-ssmk-gb_60x18-select__2
340
0
102
{BLKREFS
331
81
102
}
  0
BLOCK_RECORD
  5
80
330
1
100
AcDbSymbolTableRecord
100
AcDbBlockTableRecord
  2
Drfsicht1
340
0
102
{BLKREFS
331
AD
102
}
  0
BLOCK_RECORD
  5
84
330
1
100
AcDbSymbolTableRecord
100
AcDbBlockTableRecord
  2
es-ssmk-gb_60x18-select__3
340
0
102
{BLKREFS
331
88
102
}
  0
BLOCK_RECORD
  5
87
330
1
100
AcDbSymbolTableRecord
100
AcDbBlockTableRecord
  2
Rckans1
340
0
102
{BLKREFS
331
AE
102
}
  0
BLOCK_RECORD
  5
8B
330
1
100
AcDbSymbolTableRecord
100
AcDbBlockTableRecord
  2
es-ssmk-gb_60x18-select__4
340
0
102
{BLKREFS
331
8F
102
}
  0
BLOCK_RECORD
  5
8E
330
1
100
AcDbSymbolTableRecord
100
AcDbBlockTableRecord
  2
SA_Links1
340
0
102
{BLKREFS
331
AF
102
}
  0
BLOCK_RECORD
  5
92
330
1
100
AcDbSymbolTableRecord
100
AcDbBlockTableRecord
  2
es-ssmk-gb_60x18-select__5
340
0
102
{BLKREFS
331
96
102
}
  0
BLOCK_RECORD
  5
95
330
1
100
AcDbSymbolTableRecord
100
AcDbBlockTableRecord
  2
SA_Rechts1
340
0
102
{BLKREFS
331
B0
102
}
  0
BLOCK_RECORD
  5
99
330
1
100
AcDbSymbolTableRecord
100
AcDbBlockTableRecord
  2
es-ssmk-gb_60x18-select__6
340
0
102
{BLKREFS
331
9D
102
}
  0
BLOCK_RECORD
  5
9C
330
1
100
AcDbSymbolTableRecord
100
AcDbBlockTableRecord
  2
Vordans1
340
0
102
{BLKREFS
331
B1
102
}
  0
BLOCK_RECORD
  5
A0
330
1
100
AcDbSymbolTableRecord
100
AcDbBlockTableRecord
  2
_rahmen
340
0
102
{BLKREFS
331
A7
102
}
  0
BLOCK_RECORD
  5
A3
330
1
100
AcDbSymbolTableRecord
100
AcDbBlockTableRecord
  2
_punkt
340
0
102
{BLKREFS
331
A8
102
}
  0
BLOCK_RECORD
  5
A6
330
1
100
AcDbSymbolTableRecord
100
AcDbBlockTableRecord
  2
A4I_CS
340
0
102
{BLKREFS
331
B2
102
}
  0
BLOCK_RECORD
  5
AB
330
1
100
AcDbSymbolTableRecord
100
AcDbBlockTableRecord
  2
1
340
0
102
{BLKREFS
331
B5
102
}
  0
BLOCK_RECORD
  5
C6
330
1
100
AcDbSymbolTableRecord
100
AcDbBlockTableRecord
  2
*D17
340
0
  0
BLOCK_RECORD
  5
E5
330
1
100
AcDbSymbolTableRecord
100
AcDbBlockTableRecord
  2
*D18
340
0
  0
BLOCK_RECORD
  5
F0
330
1
100
AcDbSymbolTableRecord
100
AcDbBlockTableRecord
  2
*D19
340
0
  0
ENDTAB
  0
ENDSEC
  0
SECTION
  2
BLOCKS
  0
BLOCK
  5
20
330
1F
100
AcDbEntity
  8
0
100
AcDbBlockBegin
  2
*Model_Space
 70
     0
 10
0.0
 20
0.0
 30
0.0
  3
*Model_Space
  1

  0
ENDBLK
  5
21
330
1F
100
AcDbEntity
  8
0
100
AcDbBlockEnd
  0
BLOCK
  5
1C
330
1B
100
AcDbEntity
 67
     1
  8
0
100
AcDbBlockBegin
  2
*Paper_Space
 70
     0
 10
0.0
 20
0.0
 30
0.0
  3
*Paper_Space
  1

  0
ENDBLK
  5
1D
330
1B
100
AcDbEntity
 67
     1
  8
0
100
AcDbBlockEnd
  0
BLOCK
  5
24
330
23
100
AcDbEntity
  8
0
100
AcDbBlockBegin
  2
*Paper_Space0
 70
     0
 10
0.0
 20
0.0
 30
0.0
  3
*Paper_Space0
  1

  0
ENDBLK
  5
25
330
23
100
AcDbEntity
  8
0
100
AcDbBlockEnd
  0
BLOCK
  5
77
330
76
100
AcDbEntity
  8
0
100
AcDbBlockBegin
  2
es-ssmk-gb_60x18-select__1
 70
     0
 10
-990.1802766260398
 20
-1055.959893638344
 30
0.0
  3
es-ssmk-gb_60x18-select__1
  1

  0
LINE
  5
B6
330
76
100
AcDbEntity
  8
0
  6
Continuous
 62
     7
100
AcDbLine
 10
-934.6828540141114
 20
-1049.897715811853
 30
0.0
 11
-934.6828540141114
 21
-1049.767812001285
 31
0.0
  0
LINE
  5
B7
330
76
100
AcDbEntity
  8
0
  6
Continuous
 62
     7
100
AcDbLine
 10
-934.6828540141114
 20
-1049.897715811853
 30
0.0
 11
-941.6828540141114
 21
-1055.959893638344
 31
0.0
  0
LINE
  5
B8
330
76
100
AcDbEntity
  8
0
  6
Continuous
 62
     7
100
AcDbLine
 10
-941.6828540141114
 20
-1055.959893638344
 30
0.0
 11
-941.6828540141114
 21
-1055.829989827776
 31
0.0
  0
LINE
  5
B9
330
76
100
AcDbEntity
  8
0
  6
Continuous
 62
     7
100
AcDbLine
 10
-934.6828540141114
 20
-1049.767812001285
 30
0.0
 11
-941.6828540141114
 21
-1055.829989827776
 31
0.0
  0
LINE
  5
BA
330
76
100
AcDbEntity
  8
0
  6
Continuous
 62
     7
100
AcDbLine
 10
-941.6828540141114
 20
-1055.959893638344
 30
0.0
 11
-990.1802766260398
 21
-1041.959893638344
 31
0.0
  0
LINE
  5
BB
330
76
100
AcDbEntity
  8
0
  6
Continuous
 62
     7
100
AcDbLine
 10
-990.1802766260398
 20
-1041.959893638344
 30
0.0
 11
-990.1802766260398
 21
-1041.829989827776
 31
0.0
  0
LINE
  5
BC
330
76
100
AcDbEntity
  8
0
  6
Continuous
 62
     7
100
AcDbLine
 10
-941.6828540141114
 20
-1055.829989827776
 30
0.0
 11
-990.1802766260398
 21
-1041.829989827776
 31
0.0
  0
LINE
  5
BD
330
76
100
AcDbEntity
  8
0
  6
Continuous
 62
     7
100
AcDbLine
 10
-990.1802766260398
 20
-1041.829989827776
 30
0.0
 11
-983.1802766260398
 21
-1035.767812001285
 31
0.0
  0
LINE
  5
BE
330
76
100
AcDbEntity
  8
0
  6
Continuous
 62
     7
100
AcDbLine
 10
-983.1802766260398
 20
-1035.767812001285
 30
0.0
 11
-934.6828540141114
 21
-1049.767812001285
 31
0.0
  0
ENDBLK
  5
78
330
76
100
AcDbEntity
  8
0
100
AcDbBlockEnd
  0
BLOCK
  5
7B
330
79
100
AcDbEntity
  8
0
100
AcDbBlockBegin
  2
Allg1
 70
     0
 10
-977.7612099999958
 20
-1043.618062953745
 30
0.0
  3
Allg1
  1

  0
INSERT
  5
7A
330
79
100
AcDbEntity
  8
0
100
AcDbBlockReference
  2
es-ssmk-gb_60x18-select__1
 10
-990.1802766260398
 20
-1055.959893638344
 30
0.0
  0
MTEXT
  5
C0
330
79
100
AcDbEntity
  8
1
 62
     6
100
AcDbMText
 10
-962.4315655314326
 20
-1059.971736638344
 30
0.0
 40
5.0
 41
0.0
 71
     2
 72
     1
  1
 
  7
CONVERTER_11
 73
     1
 44
1.32052821128451
  0
ENDBLK
  5
7C
330
79
100
AcDbEntity
  8
0
100
AcDbBlockEnd
  0
BLOCK
  5
7E
330
7D
100
AcDbEntity
  8
0
100
AcDbBlockBegin
  2
es-ssmk-gb_60x18-select__2
 70
     0
 10
-1081.499998944455
 20
-1042.962499793321
 30
0.0
  3
es-ssmk-gb_60x18-select__2
  1

  0
LINE
  5
C1
330
7D
100
AcDbEntity
  8
0
  6
Continuous
 62
     7
100
AcDbLine
 10
-1025.499998944455
 20
-1042.962499793321
 30
0.0
 11
-1025.499998944455
 21
-1028.962499793321
 31
0.0
  0
LINE
  5
C2
330
7D
100
AcDbEntity
  8
0
  6
Continuous
 62
     7
100
AcDbLine
 10
-1025.499998944455
 20
-1028.962499793321
 30
0.0
 11
-1081.499998944455
 21
-1028.962499793321
 31
0.0
  0
LINE
  5
C3
330
7D
100
AcDbEntity
  8
0
  6
Continuous
 62
     7
100
AcDbLine
 10
-1081.499998944455
 20
-1028.962499793321
 30
0.0
 11
-1081.499998944455
 21
-1042.962499793321
 31
0.0
  0
LINE
  5
C4
330
7D
100
AcDbEntity
  8
0
  6
Continuous
 62
     7
100
AcDbLine
 10
-1081.499998944455
 20
-1042.962499793321
 30
0.0
 11
-1025.499998944455
 21
-1042.962499793321
 31
0.0
  0
ENDBLK
  5
7F
330
7D
100
AcDbEntity
  8
0
100
AcDbBlockEnd
  0
BLOCK
  5
82
330
80
100
AcDbEntity
  8
0
100
AcDbBlockBegin
  2
Drfsicht1
 70
     0
 10
-1037.999998
 20
-1039.775
 30
0.0
  3
Drfsicht1
  1

  0
INSERT
  5
81
330
80
100
AcDbEntity
  8
0
100
AcDbBlockReference
  2
es-ssmk-gb_60x18-select__2
 10
-1081.499998944455
 20
-1042.962499793321
 30
0.0
  0
MTEXT
  5
C5
330
80
100
AcDbEntity
  8
1
 62
     6
100
AcDbMText
 10
-1058.299998944455
 20
-1047.362499793321
 30
0.0
 40
5.0
 41
0.0
 71
     2
 72
     1
  1
 
  7
CONVERTER_11
 73
     1
 44
1.32052821128451
  0
DIMENSION
  5
D0
330
80
100
AcDbEntity
  8
1
100
AcDbDimension
  2
*D17
 10
-1091.749998944455
 20
-1028.962499793322
 30
0.0
 11
-1094.999998944455
 21
-1037.020746812249
 31
0.0
 70
    32
  1
<>
 71
     5
 42
-1.0
 53
90.0
  3
ME10_DIM_10
100
AcDbAlignedDimension
 13
-1081.499998944455
 23
-1042.962499793321
 33
0.0
 14
-1081.499998944455
 24
-1028.962499793321
 34
0.0
 50
90.0
100
AcDbRotatedDimension
  0
ENDBLK
  5
83
330
80
100
AcDbEntity
  8
0
100
AcDbBlockEnd
  0
BLOCK
  5
85
330
84
100
AcDbEntity
  8
0
100
AcDbBlockBegin
  2
es-ssmk-gb_60x18-select__3
 70
     0
 10
-980.5000010555409
 20
-986.0749999880832
 30
0.0
  3
es-ssmk-gb_60x18-select__3
  1

  0
LINE
  5
D1
330
84
100
AcDbEntity
  8
0
  6
Continuous
 62
     7
100
AcDbLine
 10
-924.5000010555409
 20
-985.9249999880832
 30
0.0
 11
-924.5000010555409
 21
-986.0749999880832
 31
0.0
  0
LINE
  5
D2
330
84
100
AcDbEntity
  8
0
  6
Continuous
 62
     7
100
AcDbLine
 10
-980.5000010555409
 20
-986.0749999880832
 30
0.0
 11
-924.5000010555409
 21
-986.0749999880832
 31
0.0
  0
LINE
  5
D3
330
84
100
AcDbEntity
  8
0
  6
Continuous
 62
     7
100
AcDbLine
 10
-980.5000010555409
 20
-985.9249999880832
 30
0.0
 11
-980.5000010555409
 21
-986.0749999880832
 31
0.0
  0
LINE
  5
D4
330
84
100
AcDbEntity
  8
0
  6
Continuous
 62
     7
100
AcDbLine
 10
-980.5000010555409
 20
-985.9249999880832
 30
0.0
 11
-924.5000010555409
 21
-985.9249999880832
 31
0.0
  0
ENDBLK
  5
86
330
84
100
AcDbEntity
  8
0
100
AcDbBlockEnd
  0
BLOCK
  5
89
330
87
100
AcDbEntity
  8
0
100
AcDbBlockBegin
  2
Rckans1
 70
     0
 10
-968.0000019999959
 20
-986.0249999999991
 30
0.0
  3
Rckans1
  1

  0
INSERT
  5
88
330
87
100
AcDbEntity
  8
0
100
AcDbBlockReference
  2
es-ssmk-gb_60x18-select__3
 10
-980.5000010555409
 20
-986.0749999880832
 30
0.0
  0
MTEXT
  5
D5
330
87
100
AcDbEntity
  8
1
 62
     6
100
AcDbMText
 10
-952.5000010555445
 20
-991.099999988084
 30
0.0
 40
5.0
 41
0.0
 71
     2
 72
     1
  1
 
  7
CONVERTER_11
 73
     1
 44
1.32052821128451
  0
ENDBLK
  5
8A
330
87
100
AcDbEntity
  8
0
100
AcDbBlockEnd
  0
BLOCK
  5
8C
330
8B
100
AcDbEntity
  8
0
100
AcDbBlockBegin
  2
es-ssmk-gb_60x18-select__4
 70
     0
 10
-1011.787500206679
 20
-986.0749999880832
 30
0.0
  3
es-ssmk-gb_60x18-select__4
  1

  0
LINE
  5
D6
330
8B
100
AcDbEntity
  8
0
  6
Continuous
 62
     7
100
AcDbLine
 10
-997.7875002066788
 20
-985.9249999880832
 30
0.0
 11
-997.7875002066788
 21
-986.0749999880832
 31
0.0
  0
LINE
  5
D7
330
8B
100
AcDbEntity
  8
0
  6
Continuous
 62
     7
100
AcDbLine
 10
-1011.787500206679
 20
-986.0749999880832
 30
0.0
 11
-997.7875002066788
 21
-986.0749999880832
 31
0.0
  0
LINE
  5
D8
330
8B
100
AcDbEntity
  8
0
  6
Continuous
 62
     7
100
AcDbLine
 10
-1011.787500206679
 20
-985.9249999880832
 30
0.0
 11
-1011.787500206679
 21
-986.0749999880832
 31
0.0
  0
LINE
  5
D9
330
8B
100
AcDbEntity
  8
0
  6
Continuous
 62
     7
100
AcDbLine
 10
-1011.787500206679
 20
-985.9249999880832
 30
0.0
 11
-997.7875002066788
 21
-985.9249999880832
 31
0.0
  0
ENDBLK
  5
8D
330
8B
100
AcDbEntity
  8
0
100
AcDbBlockEnd
  0
BLOCK
  5
90
330
8E
100
AcDbEntity
  8
0
100
AcDbBlockBegin
  2
SA_Links1
 70
     0
 10
-1000.975
 20
-986.0249999999991
 30
0.0
  3
SA_Links1
  1

  0
INSERT
  5
8F
330
8E
100
AcDbEntity
  8
0
100
AcDbBlockReference
  2
es-ssmk-gb_60x18-select__4
 10
-1011.787500206679
 20
-986.0749999880832
 30
0.0
  0
MTEXT
  5
DA
330
8E
100
AcDbEntity
  8
1
 62
     6
100
AcDbMText
 10
-1004.787500206679
 20
-991.099999988084
 30
0.0
 40
5.0
 41
0.0
 71
     2
 72
     1
  1
 
  7
CONVERTER_11
 73
     1
 44
1.32052821128451
  0
ENDBLK
  5
91
330
8E
100
AcDbEntity
  8
0
100
AcDbBlockEnd
  0
BLOCK
  5
93
330
92
100
AcDbEntity
  8
0
100
AcDbBlockBegin
  2
es-ssmk-gb_60x18-select__5
 70
     0
 10
-1128.212497793321
 20
-986.0749999880841
 30
0.0
  3
es-ssmk-gb_60x18-select__5
  1

  0
LINE
  5
DB
330
92
100
AcDbEntity
  8
0
  6
Continuous
 62
     7
100
AcDbLine
 10
-1114.212497793321
 20
-985.9249999880841
 30
0.0
 11
-1114.212497793321
 21
-986.0749999880841
 31
0.0
  0
LINE
  5
DC
330
92
100
AcDbEntity
  8
0
  6
Continuous
 62
     7
100
AcDbLine
 10
-1128.212497793321
 20
-986.0749999880841
 30
0.0
 11
-1114.212497793321
 21
-986.0749999880841
 31
0.0
  0
LINE
  5
DD
330
92
100
AcDbEntity
  8
0
  6
Continuous
 62
     7
100
AcDbLine
 10
-1128.212497793321
 20
-985.9249999880841
 30
0.0
 11
-1128.212497793321
 21
-986.0749999880841
 31
0.0
  0
LINE
  5
DE
330
92
100
AcDbEntity
  8
0
  6
Continuous
 62
     7
100
AcDbLine
 10
-1128.212497793321
 20
-985.9249999880841
 30
0.0
 11
-1114.212497793321
 21
-985.9249999880841
 31
0.0
  0
ENDBLK
  5
94
330
92
100
AcDbEntity
  8
0
100
AcDbBlockEnd
  0
BLOCK
  5
97
330
95
100
AcDbEntity
  8
0
100
AcDbBlockBegin
  2
SA_Rechts1
 70
     0
 10
-1125.024998
 20
-986.025
 30
0.0
  3
SA_Rechts1
  1

  0
INSERT
  5
96
330
95
100
AcDbEntity
  8
0
100
AcDbBlockReference
  2
es-ssmk-gb_60x18-select__5
 10
-1128.212497793321
 20
-986.0749999880841
 30
0.0
  0
MTEXT
  5
DF
330
95
100
AcDbEntity
  8
1
 62
     6
100
AcDbMText
 10
-1121.212497793321
 20
-991.099999988084
 30
0.0
 40
5.0
 41
0.0
 71
     2
 72
     1
  1
 
  7
CONVERTER_11
 73
     1
 44
1.32052821128451
  0
ENDBLK
  5
98
330
95
100
AcDbEntity
  8
0
100
AcDbBlockEnd
  0
BLOCK
  5
9A
330
99
100
AcDbEntity
  8
0
100
AcDbBlockBegin
  2
es-ssmk-gb_60x18-select__6
 70
     0
 10
-1081.499998944455
 20
-986.0749999880841
 30
0.0
  3
es-ssmk-gb_60x18-select__6
  1

  0
LINE
  5
E0
330
99
100
AcDbEntity
  8
0
  6
Continuous
 62
     7
100
AcDbLine
 10
-1025.499998944455
 20
-985.9249999880841
 30
0.0
 11
-1025.499998944455
 21
-986.0749999880841
 31
0.0
  0
LINE
  5
E1
330
99
100
AcDbEntity
  8
0
  6
Continuous
 62
     7
100
AcDbLine
 10
-1081.499998944455
 20
-986.074999988084
 30
0.0
 11
-1025.499998944455
 21
-986.0749999880841
 31
0.0
  0
LINE
  5
E2
330
99
100
AcDbEntity
  8
0
  6
Continuous
 62
     7
100
AcDbLine
 10
-1081.499998944455
 20
-985.924999988084
 30
0.0
 11
-1081.499998944455
 21
-986.074999988084
 31
0.0
  0
LINE
  5
E3
330
99
100
AcDbEntity
  8
0
  6
Continuous
 62
     7
100
AcDbLine
 10
-1081.499998944455
 20
-985.924999988084
 30
0.0
 11
-1025.499998944455
 21
-985.9249999880841
 31
0.0
  0
ENDBLK
  5
9B
330
99
100
AcDbEntity
  8
0
100
AcDbBlockEnd
  0
BLOCK
  5
9E
330
9C
100
AcDbEntity
  8
0
100
AcDbBlockBegin
  2
Vordans1
 70
     0
 10
-1037.999998
 20
-986.025
 30
0.0
  3
Vordans1
  1

  0
INSERT
  5
9D
330
9C
100
AcDbEntity
  8
0
100
AcDbBlockReference
  2
es-ssmk-gb_60x18-select__6
 10
-1081.499998944455
 20
-986.0749999880841
 30
0.0
  0
MTEXT
  5
E4
330
9C
100
AcDbEntity
  8
1
 62
     6
100
AcDbMText
 10
-1058.424998944455
 20
-998.3499999880839
 30
0.0
 40
5.0
 41
0.0
 71
     2
 72
     1
  1
 
  7
CONVERTER_11
 73
     1
 44
1.32052821128451
  0
DIMENSION
  5
EF
330
9C
100
AcDbEntity
  8
1
100
AcDbDimension
  2
*D18
 10
-1081.499998944455
 20
-996.074999988084
 30
0.0
 11
-1053.499996828876
 21
-992.824999988084
 31
0.0
 70
    32
  1
<>
 71
     5
 42
-1.0
 53
0.00013888888889
  3
ME10_DIM_11
100
AcDbAlignedDimension
 13
-1025.499998944455
 23
-986.0749999880841
 33
0.0
 14
-1081.499998944455
 24
-986.074999988084
 34
0.0
100
AcDbRotatedDimension
  0
DIMENSION
  5
FC
330
9C
100
AcDbEntity
  8
1
100
AcDbDimension
  2
*D19
 10
-1091.499998944455
 20
-985.924999988084
 30
0.0
 11
-1094.924998944455
 21
-982.7845101705428
 31
0.0
 70
    32
  1
<>
 71
     5
 42
-1.0
 53
90.0
  3
ME10_DIM_12
100
AcDbAlignedDimension
 13
-1081.499998944455
 23
-986.074999988084
 33
0.0
 14
-1081.499998944455
 24
-985.924999988084
 34
0.0
 50
90.0
100
AcDbRotatedDimension
  0
ENDBLK
  5
9F
330
9C
100
AcDbEntity
  8
0
100
AcDbBlockEnd
  0
BLOCK
  5
A1
330
A0
100
AcDbEntity
  8
0
100
AcDbBlockBegin
  2
_rahmen
 70
     0
 10
-882.9999995231627
 20
-1141.499999523163
 30
0.0
  3
_rahmen
  1

  0
LINE
  5
FD
330
A0
100
AcDbEntity
  8
1
  6
Continuous
 62
     6
100
AcDbLine
 10
-1012.544804049913
 20
-1110.999999523163
 30
0.0
 11
-882.999999523161
 21
-1110.999999523163
 31
0.0
  0
LINE
  5
FE
330
A0
100
AcDbEntity
  8
1
  6
Continuous
 62
     7
100
AcDbLine
 10
-994.3448040499127
 20
-1132.249999523163
 30
0.0
 11
-976.1448040499129
 21
-1132.249999523163
 31
0.0
  0
LINE
  5
FF
330
A0
100
AcDbEntity
  8
1
  6
Continuous
 62
     6
100
AcDbLine
 10
-994.3448040499127
 20
-1136.499999523163
 30
0.0
 11
-1012.544804049913
 21
-1136.499999523163
 31
0.0
  0
LINE
  5
100
330
A0
100
AcDbEntity
  8
1
  6
Continuous
 62
     7
100
AcDbLine
 10
-994.3448040499127
 20
-1132.249999523163
 30
0.0
 11
-994.3448040499127
 21
-1136.499999523163
 31
0.0
  0
LINE
  5
101
330
A0
100
AcDbEntity
  8
1
  6
Continuous
 62
     7
100
AcDbLine
 10
-976.1448040499129
 20
-1132.249999523163
 30
0.0
 11
-976.1448040499129
 21
-1136.499999523163
 31
0.0
  0
LINE
  5
102
330
A0
100
AcDbEntity
  8
1
  6
Continuous
 62
     7
100
AcDbLine
 10
-1012.544804049913
 20
-1132.249999523163
 30
0.0
 11
-1012.544804049913
 21
-1136.499999523163
 31
0.0
  0
LINE
  5
103
330
A0
100
AcDbEntity
  8
1
  6
Continuous
 62
     7
100
AcDbLine
 10
-1012.544804049913
 20
-1132.249999523163
 30
0.0
 11
-994.3448040499127
 21
-1132.249999523163
 31
0.0
  0
LINE
  5
104
330
A0
100
AcDbEntity
  8
1
  6
Continuous
 62
     2
100
AcDbLine
 10
-1003.30814916335
 20
-1112.874999523163
 30
0.0
 11
-1003.30814916335
 21
-1117.874999523163
 31
0.0
  0
LINE
  5
105
330
A0
100
AcDbEntity
  8
1
  6
Continuous
 62
     2
100
AcDbLine
 10
-1003.30814916335
 20
-1117.874999523163
 30
0.0
 11
-1008.30814916335
 21
-1116.624999523163
 31
0.0
  0
LINE
  5
106
330
A0
100
AcDbEntity
  8
1
  6
Continuous
 62
     2
100
AcDbLine
 10
-1008.30814916335
 20
-1116.624999523163
 30
0.0
 11
-1008.30814916335
 21
-1114.124999523163
 31
0.0
  0
LINE
  5
107
330
A0
100
AcDbEntity
  8
1
  6
Continuous
 62
     2
100
AcDbLine
 10
-1008.30814916335
 20
-1114.124999523163
 30
0.0
 11
-1003.30814916335
 21
-1112.874999523163
 31
0.0
  0
LINE
  5
108
330
A0
100
AcDbEntity
  8
1
  6
Continuous
 62
     6
100
AcDbLine
 10
-1134.999999523161
 20
-1136.499999523163
 30
0.0
 11
-1169.999999523161
 21
-1136.499999523163
 31
0.0
  0
LINE
  5
109
330
A0
100
AcDbEntity
  8
1
  6
Continuous
 62
     6
100
AcDbLine
 10
-882.999999523161
 20
-1119.499999523163
 30
0.0
 11
-882.9999995231615
 21
-1127.999999523163
 31
0.0
  0
LINE
  5
10A
330
A0
100
AcDbEntity
  8
1
  6
Continuous
 62
     6
100
AcDbLine
 10
-976.1448040499129
 20
-1136.499999523163
 30
0.0
 11
-976.4999995231627
 21
-1136.499999523163
 31
0.0
  0
LINE
  5
10B
330
A0
100
AcDbEntity
  8
1
  6
Continuous
 62
     6
100
AcDbLine
 10
-1128.799999523163
 20
-1136.499999523163
 30
0.0
 11
-1134.999999523161
 21
-1136.499999523163
 31
0.0
  0
LINE
  5
10C
330
A0
100
AcDbEntity
  8
1
  6
Continuous
 62
     7
100
AcDbLine
 10
-976.1448040499129
 20
-1119.499999523163
 30
0.0
 11
-976.1448040499129
 21
-1132.249999523163
 31
0.0
  0
LINE
  5
10D
330
A0
100
AcDbEntity
  8
1
  6
Continuous
 62
     7
100
AcDbLine
 10
-1012.544804049913
 20
-1119.499999523163
 30
0.0
 11
-1012.544804049913
 21
-1132.249999523163
 31
0.0
  0
LINE
  5
10E
330
A0
100
AcDbEntity
  8
1
  6
Continuous
 62
     6
100
AcDbLine
 10
-1026.499999523163
 20
-1136.499999523163
 30
0.0
 11
-1076.499999523163
 21
-1136.499999523163
 31
0.0
  0
LINE
  5
10F
330
A0
100
AcDbEntity
  8
1
  6
Continuous
 62
     6
100
AcDbLine
 10
-1128.799999523163
 20
-1136.499999523163
 30
0.0
 11
-1126.499999523163
 21
-1136.499999523163
 31
0.0
  0
LINE
  5
110
330
A0
100
AcDbEntity
  8
1
  6
Continuous
 62
     6
100
AcDbLine
 10
-976.1448040499129
 20
-1136.499999523163
 30
0.0
 11
-926.4999995231627
 21
-1136.499999523163
 31
0.0
  0
LINE
  5
111
330
A0
100
AcDbEntity
  8
1
  6
Continuous
 62
     6
100
AcDbLine
 10
-882.9999995231627
 20
-1136.499999523163
 30
0.0
 11
-882.9999995231615
 21
-1127.999999523163
 31
0.0
  0
LINE
  5
112
330
A0
100
AcDbEntity
  8
1
  6
Continuous
 62
     2
100
AcDbLine
 10
-1174.999999523162
 20
-1136.499999523163
 30
0.0
 11
-1174.999999523162
 21
-1141.499999523163
 31
0.0
  0
LINE
  5
113
330
A0
100
AcDbEntity
  8
1
  6
Continuous
 62
     2
100
AcDbLine
 10
-1169.999999523161
 20
-1136.499999523163
 30
0.0
 11
-1174.999999523162
 21
-1136.499999523163
 31
0.0
  0
LINE
  5
114
330
A0
100
AcDbEntity
  8
1
  6
Continuous
 62
     2
100
AcDbLine
 10
-1169.999999523161
 20
-1141.499999523163
 30
0.0
 11
-1126.499999523163
 21
-1141.499999523163
 31
0.0
  0
LINE
  5
115
330
A0
100
AcDbEntity
  8
1
  6
Continuous
 62
     2
100
AcDbLine
 10
-1169.999999523161
 20
-1136.499999523163
 30
0.0
 11
-1169.999999523161
 21
-1141.499999523163
 31
0.0
  0
LINE
  5
116
330
A0
100
AcDbEntity
  8
1
  6
Continuous
 62
     2
100
AcDbLine
 10
-926.4999995231627
 20
-1141.499999523163
 30
0.0
 11
-976.4999995231627
 21
-1141.499999523163
 31
0.0
  0
LINE
  5
117
330
A0
100
AcDbEntity
  8
1
  6
Continuous
 62
     2
100
AcDbLine
 10
-926.4999995231627
 20
-1141.499999523163
 30
0.0
 11
-926.4999995231627
 21
-1136.499999523163
 31
0.0
  0
LINE
  5
118
330
A0
100
AcDbEntity
  8
1
  6
Continuous
 62
     2
100
AcDbLine
 10
-976.4999995231627
 20
-1141.499999523163
 30
0.0
 11
-976.4999995231627
 21
-1136.499999523163
 31
0.0
  0
LINE
  5
119
330
A0
100
AcDbEntity
  8
1
  6
Continuous
 62
     2
100
AcDbLine
 10
-1026.499999523163
 20
-1141.499999523163
 30
0.0
 11
-976.4999995231627
 21
-1141.499999523163
 31
0.0
  0
LINE
  5
11A
330
A0
100
AcDbEntity
  8
1
  6
Continuous
 62
     2
100
AcDbLine
 10
-1026.499999523163
 20
-1141.499999523163
 30
0.0
 11
-1026.499999523163
 21
-1136.499999523163
 31
0.0
  0
LINE
  5
11B
330
A0
100
AcDbEntity
  8
1
  6
Continuous
 62
     2
100
AcDbLine
 10
-1076.499999523163
 20
-1141.499999523163
 30
0.0
 11
-1026.499999523163
 21
-1141.499999523163
 31
0.0
  0
LINE
  5
11C
330
A0
100
AcDbEntity
  8
1
  6
Continuous
 62
     2
100
AcDbLine
 10
-1076.499999523163
 20
-1141.499999523163
 30
0.0
 11
-1076.499999523163
 21
-1136.499999523163
 31
0.0
  0
LINE
  5
11D
330
A0
100
AcDbEntity
  8
1
  6
Continuous
 62
     2
100
AcDbLine
 10
-1126.499999523163
 20
-1141.499999523163
 30
0.0
 11
-1076.499999523163
 21
-1141.499999523163
 31
0.0
  0
LINE
  5
11E
330
A0
100
AcDbEntity
  8
1
  6
Continuous
 62
     2
100
AcDbLine
 10
-1126.499999523163
 20
-1141.499999523163
 30
0.0
 11
-1126.499999523163
 21
-1136.499999523163
 31
0.0
  0
LINE
  5
11F
330
A0
100
AcDbEntity
  8
1
  6
Continuous
 62
     6
100
AcDbLine
 10
-1169.999999523161
 20
-1086.499999523163
 30
0.0
 11
-1169.999999523161
 21
-1136.499999523163
 31
0.0
  0
LINE
  5
120
330
A0
100
AcDbEntity
  8
1
  6
Continuous
 62
     2
100
AcDbLine
 10
-1174.999999523162
 20
-1086.499999523163
 30
0.0
 11
-1174.999999523162
 21
-1136.499999523163
 31
0.0
  0
LINE
  5
121
330
A0
100
AcDbEntity
  8
1
  6
Continuous
 62
     2
100
AcDbLine
 10
-1174.999999523162
 20
-1086.499999523163
 30
0.0
 11
-1169.999999523161
 21
-1086.499999523163
 31
0.0
  0
LINE
  5
122
330
A0
100
AcDbEntity
  8
1
  6
Continuous
 62
     6
100
AcDbLine
 10
-1169.999999523161
 20
-1036.499999523163
 30
0.0
 11
-1169.999999523161
 21
-1086.499999523163
 31
0.0
  0
LINE
  5
123
330
A0
100
AcDbEntity
  8
1
  6
Continuous
 62
     2
100
AcDbLine
 10
-1174.999999523162
 20
-1036.499999523163
 30
0.0
 11
-1174.999999523162
 21
-1086.499999523163
 31
0.0
  0
LINE
  5
124
330
A0
100
AcDbEntity
  8
1
  6
Continuous
 62
     2
100
AcDbLine
 10
-1174.999999523162
 20
-1036.499999523163
 30
0.0
 11
-1169.999999523161
 21
-1036.499999523163
 31
0.0
  0
LINE
  5
125
330
A0
100
AcDbEntity
  8
1
  6
Continuous
 62
     6
100
AcDbLine
 10
-1169.999999523162
 20
-986.4999995231628
 30
0.0
 11
-1169.999999523161
 21
-1036.499999523163
 31
0.0
  0
LINE
  5
126
330
A0
100
AcDbEntity
  8
1
  6
Continuous
 62
     2
100
AcDbLine
 10
-1174.999999523162
 20
-986.4999995231628
 30
0.0
 11
-1174.999999523162
 21
-1036.499999523163
 31
0.0
  0
LINE
  5
127
330
A0
100
AcDbEntity
  8
1
  6
Continuous
 62
     2
100
AcDbLine
 10
-1174.999999523162
 20
-986.4999995231628
 30
0.0
 11
-1169.999999523162
 21
-986.4999995231628
 31
0.0
  0
LINE
  5
128
330
A0
100
AcDbEntity
  8
1
  6
Continuous
 62
     6
100
AcDbLine
 10
-1169.999999523162
 20
-951.4999995231628
 30
0.0
 11
-1169.999999523162
 21
-986.4999995231628
 31
0.0
  0
LINE
  5
129
330
A0
100
AcDbEntity
  8
1
  6
Continuous
 62
     2
100
AcDbLine
 10
-1174.999999523162
 20
-931.4999995231628
 30
0.0
 11
-1174.999999523162
 21
-986.4999995231628
 31
0.0
  0
LINE
  5
12A
330
A0
100
AcDbEntity
  8
1
  6
Continuous
 62
     2
100
AcDbLine
 10
-1174.999999523162
 20
-1141.499999523163
 30
0.0
 11
-1169.999999523161
 21
-1141.499999523163
 31
0.0
  0
LINE
  5
12B
330
A0
100
AcDbEntity
  8
1
  6
Continuous
 62
     2
100
AcDbLine
 10
-1026.499999523163
 20
-931.4999995231628
 30
0.0
 11
-1026.499999523163
 21
-940.7086913678642
 31
0.0
  0
LINE
  5
12C
330
A0
100
AcDbEntity
  8
1
  6
Continuous
 62
     2
100
AcDbLine
 10
-1026.499999523163
 20
-931.4999995231628
 30
0.0
 11
-1174.999999523162
 21
-931.4999995231628
 31
0.0
  0
LINE
  5
12D
330
A0
100
AcDbEntity
  8
1
  6
Continuous
 62
     2
100
AcDbLine
 10
-877.9999995231638
 20
-1136.499999523163
 30
0.0
 11
-877.9999995231638
 21
-1086.499999523163
 31
0.0
  0
LINE
  5
12E
330
A0
100
AcDbEntity
  8
1
  6
Continuous
 62
     2
100
AcDbLine
 10
-877.9999995231638
 20
-986.4999995231628
 30
0.0
 11
-877.9999995231638
 21
-931.4999995231628
 31
0.0
  0
LINE
  5
12F
330
A0
100
AcDbEntity
  8
1
  6
Continuous
 62
     6
100
AcDbLine
 10
-882.9999995231635
 20
-986.4999995231628
 30
0.0
 11
-882.9999995231638
 21
-951.4999995231628
 31
0.0
  0
LINE
  5
130
330
A0
100
AcDbEntity
  8
1
  6
Continuous
 62
     2
100
AcDbLine
 10
-882.9999995231635
 20
-986.4999995231628
 30
0.0
 11
-877.9999995231638
 21
-986.4999995231628
 31
0.0
  0
LINE
  5
131
330
A0
100
AcDbEntity
  8
1
  6
Continuous
 62
     2
100
AcDbLine
 10
-877.9999995231638
 20
-1036.499999523163
 30
0.0
 11
-877.9999995231638
 21
-986.4999995231628
 31
0.0
  0
LINE
  5
132
330
A0
100
AcDbEntity
  8
1
  6
Continuous
 62
     6
100
AcDbLine
 10
-882.9999995231624
 20
-1036.499999523163
 30
0.0
 11
-882.9999995231635
 21
-986.4999995231628
 31
0.0
  0
LINE
  5
133
330
A0
100
AcDbEntity
  8
1
  6
Continuous
 62
     2
100
AcDbLine
 10
-882.9999995231624
 20
-1036.499999523163
 30
0.0
 11
-877.9999995231638
 21
-1036.499999523163
 31
0.0
  0
LINE
  5
134
330
A0
100
AcDbEntity
  8
1
  6
Continuous
 62
     2
100
AcDbLine
 10
-877.9999995231638
 20
-1086.499999523163
 30
0.0
 11
-877.9999995231638
 21
-1036.499999523163
 31
0.0
  0
LINE
  5
135
330
A0
100
AcDbEntity
  8
1
  6
Continuous
 62
     6
100
AcDbLine
 10
-882.9999995231618
 20
-1086.499999523163
 30
0.0
 11
-882.9999995231624
 21
-1036.499999523163
 31
0.0
  0
LINE
  5
136
330
A0
100
AcDbEntity
  8
1
  6
Continuous
 62
     2
100
AcDbLine
 10
-882.9999995231618
 20
-1086.499999523163
 30
0.0
 11
-877.9999995231638
 21
-1086.499999523163
 31
0.0
  0
LINE
  5
137
330
A0
100
AcDbEntity
  8
1
  6
Continuous
 62
     6
100
AcDbLine
 10
-882.9999995231638
 20
-951.4999995231628
 30
0.0
 11
-1169.999999523162
 21
-951.4999995231628
 31
0.0
  0
LINE
  5
138
330
A0
100
AcDbEntity
  8
1
  6
Continuous
 62
     2
100
AcDbLine
 10
-877.9999995231638
 20
-931.4999995231628
 30
0.0
 11
-1026.499999523163
 21
-931.4999995231628
 31
0.0
  0
LINE
  5
139
330
A0
100
AcDbEntity
  8
1
  6
Continuous
 62
     6
100
AcDbLine
 10
-882.999999523161
 20
-1119.499999523163
 30
0.0
 11
-882.9999995231618
 21
-1086.499999523163
 31
0.0
  0
LINE
  5
13A
330
A0
100
AcDbEntity
  8
1
  6
Continuous
 62
     2
100
AcDbLine
 10
-882.9999995231627
 20
-1141.499999523163
 30
0.0
 11
-926.4999995231627
 21
-1141.499999523163
 31
0.0
  0
LINE
  5
13B
330
A0
100
AcDbEntity
  8
1
  6
Continuous
 62
     2
100
AcDbLine
 10
-877.9999995231638
 20
-1141.499999523163
 30
0.0
 11
-882.9999995231627
 21
-1141.499999523163
 31
0.0
  0
LINE
  5
13C
330
A0
100
AcDbEntity
  8
1
  6
Continuous
 62
     2
100
AcDbLine
 10
-877.9999995231638
 20
-1141.499999523163
 30
0.0
 11
-877.9999995231638
 21
-1136.499999523163
 31
0.0
  0
LINE
  5
13D
330
A0
100
AcDbEntity
  8
1
  6
Continuous
 62
     6
100
AcDbLine
 10
-1012.544804049913
 20
-1119.499999523163
 30
0.0
 11
-976.1448040499129
 21
-1119.499999523163
 31
0.0
  0
LINE
  5
13E
330
A0
100
AcDbEntity
  8
1
  6
Continuous
 62
     2
100
AcDbLine
 10
-882.9999995231627
 20
-1136.499999523163
 30
0.0
 11
-882.9999995231627
 21
-1141.499999523163
 31
0.0
  0
LINE
  5
13F
330
A0
100
AcDbEntity
  8
1
  6
Continuous
 62
     2
100
AcDbLine
 10
-882.9999995231627
 20
-1136.499999523163
 30
0.0
 11
-877.9999995231638
 21
-1136.499999523163
 31
0.0
  0
LINE
  5
140
330
A0
100
AcDbEntity
  8
1
  6
Continuous
 62
     6
100
AcDbLine
 10
-976.4999995231627
 20
-1136.499999523163
 30
0.0
 11
-994.3448040499127
 21
-1136.499999523163
 31
0.0
  0
LINE
  5
141
330
A0
100
AcDbEntity
  8
1
  6
Continuous
 62
     6
100
AcDbLine
 10
-926.4999995231627
 20
-1136.499999523163
 30
0.0
 11
-882.9999995231627
 21
-1136.499999523163
 31
0.0
  0
LINE
  5
142
330
A0
100
AcDbEntity
  8
1
  6
Continuous
 62
     6
100
AcDbLine
 10
-1076.499999523163
 20
-1136.499999523163
 30
0.0
 11
-1081.544804049913
 21
-1136.499999523163
 31
0.0
  0
LINE
  5
143
330
A0
100
AcDbEntity
  8
1
  6
Continuous
 62
     6
100
AcDbLine
 10
-1026.499999523163
 20
-1136.499999523163
 30
0.0
 11
-1012.544804049913
 21
-1136.499999523163
 31
0.0
  0
LINE
  5
144
102
{ACAD_REACTORS
330
22E
330
22F
102
}
330
A0
100
AcDbEntity
  8
0
  6
Continuous
 62
     2
100
AcDbLine
 10
-1005.030178107766
 20
-1124.427484766951
 30
0.0
 11
-1005.030178107766
 21
-1123.821949478444
 31
0.0
  0
LINE
  5
145
102
{ACAD_REACTORS
330
22E
330
22F
102
}
330
A0
100
AcDbEntity
  8
0
  6
Continuous
 62
     2
100
AcDbLine
 10
-1005.030178107766
 20
-1127.227619373582
 30
0.0
 11
-1005.030178107766
 21
-1126.645767966887
 31
0.0
  0
LINE
  5
146
102
{ACAD_REACTORS
330
230
330
231
102
}
330
A0
100
AcDbEntity
  8
0
  6
Continuous
 62
     2
100
AcDbLine
 10
-982.4006916722867
 20
-1126.937955305459
 30
0.0
 11
-982.4006916722867
 21
-1129.206499523147
 31
0.0
  0
LINE
  5
147
102
{ACAD_REACTORS
330
230
330
231
102
}
330
A0
100
AcDbEntity
  8
0
  6
Continuous
 62
     2
100
AcDbLine
 10
-983.7817454512743
 20
-1126.152689999336
 30
0.0
 11
-980.3967999326456
 21
-1126.152689999336
 31
0.0
  0
LINE
  5
148
102
{ACAD_REACTORS
330
230
330
231
102
}
330
A0
100
AcDbEntity
  8
0
  6
Continuous
 62
     2
100
AcDbLine
 10
-980.3967999326456
 20
-1126.937955305459
 30
0.0
 11
-980.3967999326456
 21
-1126.152689999336
 31
0.0
  0
LINE
  5
149
102
{ACAD_REACTORS
330
230
330
231
102
}
330
A0
100
AcDbEntity
  8
0
  6
Continuous
 62
     2
100
AcDbLine
 10
-981.207898970119
 20
-1126.937955305459
 30
0.0
 11
-980.3967999326456
 21
-1126.937955305459
 31
0.0
  0
LINE
  5
14A
102
{ACAD_REACTORS
330
230
330
231
102
}
330
A0
100
AcDbEntity
  8
0
  6
Continuous
 62
     2
100
AcDbLine
 10
-981.207898970119
 20
-1129.206499523147
 30
0.0
 11
-981.207898970119
 21
-1126.937955305459
 31
0.0
  0
LINE
  5
14B
102
{ACAD_REACTORS
330
230
330
231
102
}
330
A0
100
AcDbEntity
  8
0
  6
Continuous
 62
     2
100
AcDbLine
 10
-982.4006916722867
 20
-1129.206499523147
 30
0.0
 11
-981.207898970119
 21
-1129.206499523147
 31
0.0
  0
LINE
  5
14C
102
{ACAD_REACTORS
330
226
330
227
102
}
330
A0
100
AcDbEntity
  8
0
  6
Continuous
 62
     2
100
AcDbLine
 10
-983.0972826103513
 20
-1122.793499523161
 30
0.0
 11
-984.5000068281006
 21
-1122.793499523161
 31
0.0
  0
LINE
  5
14D
102
{ACAD_REACTORS
330
226
330
227
102
}
330
A0
100
AcDbEntity
  8
0
  6
Continuous
 62
     2
100
AcDbLine
 10
-983.0972826103513
 20
-1122.793499523161
 30
0.0
 11
-982.4961150884594
 21
-1123.473322844716
 31
0.0
  0
LINE
  5
14E
102
{ACAD_REACTORS
330
226
330
227
102
}
330
A0
100
AcDbEntity
  8
0
  6
Continuous
 62
     2
100
AcDbLine
 10
-982.4961150884594
 20
-1123.473322844716
 30
0.0
 11
-981.8949475665667
 21
-1122.793499523161
 31
0.0
  0
LINE
  5
14F
102
{ACAD_REACTORS
330
226
330
227
102
}
330
A0
100
AcDbEntity
  8
0
  6
Continuous
 62
     2
100
AcDbLine
 10
-981.794752979586
 20
-1124.266450053197
 30
0.0
 11
-980.4922233488194
 21
-1122.793499523161
 31
0.0
  0
LINE
  5
150
102
{ACAD_REACTORS
330
226
330
227
102
}
330
A0
100
AcDbEntity
  8
0
  6
Continuous
 62
     2
100
AcDbLine
 10
-981.794752979586
 20
-1124.266450053197
 30
0.0
 11
-980.3967999326456
 21
-1125.847309046972
 31
0.0
  0
LINE
  5
151
102
{ACAD_REACTORS
330
226
330
227
102
}
330
A0
100
AcDbEntity
  8
0
  6
Continuous
 62
     2
100
AcDbLine
 10
-981.799524150394
 20
-1125.847309046972
 30
0.0
 11
-980.3967999326456
 21
-1125.847309046972
 31
0.0
  0
LINE
  5
152
102
{ACAD_REACTORS
330
226
330
227
102
}
330
A0
100
AcDbEntity
  8
0
  6
Continuous
 62
     2
100
AcDbLine
 10
-982.4961150884594
 20
-1125.059577261678
 30
0.0
 11
-981.799524150394
 21
-1125.847309046972
 31
0.0
  0
LINE
  5
153
102
{ACAD_REACTORS
330
224
330
225
102
}
330
A0
100
AcDbEntity
  8
0
  6
Continuous
 62
     2
100
AcDbLine
 10
-985.9552139247431
 20
-1122.793499523161
 30
0.0
 11
-984.7147095144902
 21
-1122.793499523161
 31
0.0
  0
LINE
  5
154
102
{ACAD_REACTORS
330
224
330
225
102
}
330
A0
100
AcDbEntity
  8
0
  6
Continuous
 62
     2
100
AcDbLine
 10
-984.7147095144902
 20
-1122.793499523161
 30
0.0
 11
-984.7147095144902
 21
-1125.847309046972
 31
0.0
  0
LINE
  5
155
102
{ACAD_REACTORS
330
224
330
225
102
}
330
A0
100
AcDbEntity
  8
0
  6
Continuous
 62
     2
100
AcDbLine
 10
-985.9552139247431
 20
-1125.847309046972
 30
0.0
 11
-985.9552139247431
 21
-1122.793499523161
 31
0.0
  0
LINE
  5
156
102
{ACAD_REACTORS
330
222
330
223
102
}
330
A0
100
AcDbEntity
  8
0
  6
Continuous
 62
     2
100
AcDbLine
 10
-987.4235240072808
 20
-1127.984975713622
 30
0.0
 11
-987.1233587700883
 21
-1127.217160747635
 31
0.0
  0
LINE
  5
157
102
{ACAD_REACTORS
330
222
330
223
102
}
330
A0
100
AcDbEntity
  8
0
  6
Continuous
 62
     2
100
AcDbLine
 10
-987.9010596119016
 20
-1129.206499523147
 30
0.0
 11
-987.6895795584257
 21
-1128.665538978929
 31
0.0
  0
LINE
  5
158
102
{ACAD_REACTORS
330
222
330
223
102
}
330
A0
100
AcDbEntity
  8
0
  6
Continuous
 62
     2
100
AcDbLine
 10
-987.7436109752152
 20
-1126.152689999336
 30
0.0
 11
-989.1415640221545
 21
-1129.206499523147
 31
0.0
  0
LINE
  5
159
102
{ACAD_REACTORS
330
222
330
223
102
}
330
A0
100
AcDbEntity
  8
0
  6
Continuous
 62
     2
100
AcDbLine
 10
-985.1051535180222
 20
-1129.206499523147
 30
0.0
 11
-986.3456579282762
 21
-1129.206499523147
 31
0.0
  0
LINE
  5
15A
102
{ACAD_REACTORS
330
222
330
223
102
}
330
A0
100
AcDbEntity
  8
0
  6
Continuous
 62
     2
100
AcDbLine
 10
-987.6895795584257
 20
-1128.665538978929
 30
0.0
 11
-986.5571379817519
 21
-1128.665538978929
 31
0.0
  0
LINE
  5
15B
102
{ACAD_REACTORS
330
220
330
221
102
}
330
A0
100
AcDbEntity
  8
0
  6
Continuous
 62
     2
100
AcDbLine
 10
-991.2990761613368
 20
-1126.937955305459
 30
0.0
 11
-990.4879771238622
 21
-1126.937955305459
 31
0.0
  0
LINE
  5
15C
102
{ACAD_REACTORS
330
220
330
221
102
}
330
A0
100
AcDbEntity
  8
0
  6
Continuous
 62
     2
100
AcDbLine
 10
-988.4840853842231
 20
-1126.152689999336
 30
0.0
 11
-991.2990761613368
 21
-1126.152689999336
 31
0.0
  0
LINE
  5
15D
102
{ACAD_REACTORS
330
220
330
221
102
}
330
A0
100
AcDbEntity
  8
0
  6
Continuous
 62
     2
100
AcDbLine
 10
-988.4840853842231
 20
-1126.937955305459
 30
0.0
 11
-988.4840853842231
 21
-1126.152689999336
 31
0.0
  0
LINE
  5
15E
102
{ACAD_REACTORS
330
220
330
221
102
}
330
A0
100
AcDbEntity
  8
0
  6
Continuous
 62
     2
100
AcDbLine
 10
-989.2951844216957
 20
-1126.937955305459
 30
0.0
 11
-988.4840853842231
 21
-1126.937955305459
 31
0.0
  0
LINE
  5
15F
102
{ACAD_REACTORS
330
220
330
221
102
}
330
A0
100
AcDbEntity
  8
0
  6
Continuous
 62
     2
100
AcDbLine
 10
-989.2951844216957
 20
-1129.206499523147
 30
0.0
 11
-989.2951844216957
 21
-1126.937955305459
 31
0.0
  0
LINE
  5
160
102
{ACAD_REACTORS
330
21E
330
21F
102
}
330
A0
100
AcDbEntity
  8
0
  6
Continuous
 62
     2
100
AcDbLine
 10
-988.6270695775977
 20
-1125.847309046972
 30
0.0
 11
-988.6270695775977
 21
-1124.538533536768
 31
0.0
  0
LINE
  5
161
102
{ACAD_REACTORS
330
21E
330
21F
102
}
330
A0
100
AcDbEntity
  8
0
  6
Continuous
 62
     2
100
AcDbLine
 10
-989.8198622797642
 20
-1122.793499523161
 30
0.0
 11
-989.8198622797642
 21
-1125.847309046972
 31
0.0
  0
LINE
  5
162
102
{ACAD_REACTORS
330
21E
330
21F
102
}
330
A0
100
AcDbEntity
  8
0
  6
Continuous
 62
     2
100
AcDbLine
 10
-988.6270695775977
 20
-1122.793499523161
 30
0.0
 11
-989.8198622797642
 21
-1122.793499523161
 31
0.0
  0
LINE
  5
163
102
{ACAD_REACTORS
330
21E
330
21F
102
}
330
A0
100
AcDbEntity
  8
0
  6
Continuous
 62
     2
100
AcDbLine
 10
-987.3865651673436
 20
-1122.793499523161
 30
0.0
 11
-987.3865651673436
 21
-1124.102275033366
 31
0.0
  0
LINE
  5
164
102
{ACAD_REACTORS
330
21C
330
21D
102
}
330
A0
100
AcDbEntity
  8
0
  6
Continuous
 62
     2
100
AcDbLine
 10
-995.0683011001838
 20
-1126.152689999336
 30
0.0
 11
-995.0683011001838
 21
-1129.206499523147
 31
0.0
  0
LINE
  5
165
102
{ACAD_REACTORS
330
21C
330
21D
102
}
330
A0
100
AcDbEntity
  8
0
  6
Continuous
 62
     2
100
AcDbLine
 10
-993.8755083980162
 20
-1126.152689999336
 30
0.0
 11
-995.0683011001838
 21
-1126.152689999336
 31
0.0
  0
LINE
  5
166
102
{ACAD_REACTORS
330
21C
330
21D
102
}
330
A0
100
AcDbEntity
  8
0
  6
Continuous
 62
     2
100
AcDbLine
 10
-992.6350039877634
 20
-1129.206499523147
 30
0.0
 11
-991.442211285597
 21
-1129.206499523147
 31
0.0
  0
LINE
  5
167
102
{ACAD_REACTORS
330
21C
330
21D
102
}
330
A0
100
AcDbEntity
  8
0
  6
Continuous
 62
     2
100
AcDbLine
 10
-995.0683011001838
 20
-1129.206499523147
 30
0.0
 11
-993.8755083980162
 21
-1129.206499523147
 31
0.0
  0
LINE
  5
168
102
{ACAD_REACTORS
330
22C
330
22D
102
}
330
A0
100
AcDbEntity
  8
0
  6
Continuous
 62
     2
100
AcDbLine
 10
-991.3943486466247
 20
-1123.971397482346
 30
0.0
 11
-991.3943486466247
 21
-1123.491513128604
 31
0.0
  0
LINE
  5
169
102
{ACAD_REACTORS
330
22C
330
22D
102
}
330
A0
100
AcDbEntity
  8
0
  6
Continuous
 62
     2
100
AcDbLine
 10
-990.0584208201971
 20
-1123.971397482346
 30
0.0
 11
-991.3943486466247
 21
-1123.971397482346
 31
0.0
  0
LINE
  5
16A
102
{ACAD_REACTORS
330
22C
330
22D
102
}
330
A0
100
AcDbEntity
  8
0
  6
Continuous
 62
     2
100
AcDbLine
 10
-990.0584208201971
 20
-1124.669411087788
 30
0.0
 11
-990.0584208201971
 21
-1123.971397482346
 31
0.0
  0
LINE
  5
16B
102
{ACAD_REACTORS
330
22C
330
22D
102
}
330
A0
100
AcDbEntity
  8
0
  6
Continuous
 62
     2
100
AcDbLine
 10
-991.3943486466247
 20
-1124.669411087788
 30
0.0
 11
-990.0584208201971
 21
-1124.669411087788
 31
0.0
  0
LINE
  5
16C
102
{ACAD_REACTORS
330
21A
330
21B
102
}
330
A0
100
AcDbEntity
  8
0
  6
Continuous
 62
     2
100
AcDbLine
 10
-994.8773033369516
 20
-1122.793499523161
 30
0.0
 11
-994.8773033369516
 21
-1125.847309046972
 31
0.0
  0
LINE
  5
16D
102
{ACAD_REACTORS
330
21A
330
21B
102
}
330
A0
100
AcDbEntity
  8
0
  6
Continuous
 62
     2
100
AcDbLine
 10
-994.8773033369516
 20
-1125.847309046972
 30
0.0
 11
-996.0700960391181
 21
-1125.847309046972
 31
0.0
  0
LINE
  5
16E
102
{ACAD_REACTORS
330
21A
330
21B
102
}
330
A0
100
AcDbEntity
  8
0
  6
Continuous
 62
     2
100
AcDbLine
 10
-996.0700960391181
 20
-1125.847309046972
 30
0.0
 11
-996.0700960391181
 21
-1124.713036938128
 31
0.0
  0
LINE
  5
16F
102
{ACAD_REACTORS
330
21A
330
21B
102
}
330
A0
100
AcDbEntity
  8
0
  6
Continuous
 62
     2
100
AcDbLine
 10
-997.1197536170255
 20
-1125.847309046972
 30
0.0
 11
-998.3125463191922
 21
-1125.847309046972
 31
0.0
  0
LINE
  5
170
102
{ACAD_REACTORS
330
21A
330
21B
102
}
330
A0
100
AcDbEntity
  8
0
  6
Continuous
 62
     2
100
AcDbLine
 10
-998.3125463191922
 20
-1122.793499523161
 30
0.0
 11
-997.1197536170255
 21
-1122.793499523161
 31
0.0
  0
LINE
  5
171
102
{ACAD_REACTORS
330
21A
330
21B
102
}
330
A0
100
AcDbEntity
  8
0
  6
Continuous
 62
     2
100
AcDbLine
 10
-997.1197536170255
 20
-1122.793499523161
 30
0.0
 11
-997.1197536170255
 21
-1123.862332856496
 31
0.0
  0
LINE
  5
172
102
{ACAD_REACTORS
330
21A
330
21B
102
}
330
A0
100
AcDbEntity
  8
0
  6
Continuous
 62
     2
100
AcDbLine
 10
-997.1197536170255
 20
-1123.862332856496
 30
0.0
 11
-996.0700960391181
 21
-1123.862332856496
 31
0.0
  0
LINE
  5
173
102
{ACAD_REACTORS
330
228
330
229
102
}
330
A0
100
AcDbEntity
  8
0
  6
Continuous
 62
     2
100
AcDbLine
 10
-1000.268726350746
 20
-1123.456605368601
 30
0.0
 11
-999.9514312892038
 21
-1123.456605368601
 31
0.0
  0
LINE
  5
174
102
{ACAD_REACTORS
330
228
330
229
102
}
330
A0
100
AcDbEntity
  8
0
  6
Continuous
 62
     2
100
AcDbLine
 10
-1000.268726350746
 20
-1124.162333017943
 30
0.0
 11
-999.9514312892038
 21
-1124.162333017943
 31
0.0
  0
LINE
  5
175
102
{ACAD_REACTORS
330
228
330
229
102
}
330
A0
100
AcDbEntity
  8
0
  6
Continuous
 62
     2
100
AcDbLine
 10
-1001.509230761
 20
-1122.793499523161
 30
0.0
 11
-1001.509230761
 21
-1125.847309046972
 31
0.0
  0
LINE
  5
176
102
{ACAD_REACTORS
330
228
330
229
102
}
330
A0
100
AcDbEntity
  8
0
  6
Continuous
 62
     2
100
AcDbLine
 10
-1001.509230761
 20
-1122.793499523161
 30
0.0
 11
-999.5099587629654
 21
-1122.793499523161
 31
0.0
  0
LINE
  5
177
102
{ACAD_REACTORS
330
228
330
229
102
}
330
A0
100
AcDbEntity
  8
0
  6
Continuous
 62
     2
100
AcDbLine
 10
-1000.268726350746
 20
-1124.904230805828
 30
0.0
 11
-999.5099587629654
 21
-1124.904230805828
 31
0.0
  0
LINE
  5
178
102
{ACAD_REACTORS
330
22E
330
22F
102
}
330
A0
100
AcDbEntity
  8
0
  6
Continuous
 62
     2
100
AcDbLine
 10
-1007.605726794297
 20
-1123.821772001796
 30
0.0
 11
-1007.605726794297
 21
-1128.178227044513
 31
0.0
  0
LINE
  5
179
102
{ACAD_REACTORS
330
22E
330
22F
102
}
330
A0
100
AcDbEntity
  8
0
  6
Continuous
 62
     2
100
AcDbLine
 10
-1007.290009871221
 20
-1123.50605507872
 30
0.0
 11
-1005.814176610211
 21
-1123.50605507872
 31
0.0
  0
LINE
  5
17A
102
{ACAD_REACTORS
330
22E
330
22F
102
}
330
A0
100
AcDbEntity
  8
0
  6
Continuous
 62
     2
100
AcDbLine
 10
-1005.498459687135
 20
-1124.425796620856
 30
0.0
 11
-1005.498459687135
 21
-1123.821772001796
 31
0.0
  0
LINE
  5
17B
102
{ACAD_REACTORS
330
22E
330
22F
102
}
330
A0
100
AcDbEntity
  8
0
  6
Continuous
 62
     2
100
AcDbLine
 10
-1005.498459687135
 20
-1128.178227044513
 30
0.0
 11
-1005.498459687135
 21
-1126.647456112981
 31
0.0
  0
LINE
  5
17C
102
{ACAD_REACTORS
330
22E
330
22F
102
}
330
A0
100
AcDbEntity
  8
0
  6
Continuous
 62
     2
100
AcDbLine
 10
-1002.410592457251
 20
-1129.206499523147
 30
0.0
 11
-1007.883904547967
 21
-1129.206499523147
 31
0.0
  0
LINE
  5
17D
102
{ACAD_REACTORS
330
22E
330
22F
102
}
330
A0
100
AcDbEntity
  8
0
  6
Continuous
 62
     2
100
AcDbLine
 10
-1001.986347841867
 20
-1123.217744138563
 30
0.0
 11
-1001.986347841867
 21
-1128.782254907763
 31
0.0
  0
LINE
  5
17E
102
{ACAD_REACTORS
330
22E
330
22F
102
}
330
A0
100
AcDbEntity
  8
0
  6
Continuous
 62
     2
100
AcDbLine
 10
-1007.883904547967
 20
-1122.793499523179
 30
0.0
 11
-1002.410592457251
 21
-1122.793499523179
 31
0.0
  0
LINE
  5
17F
102
{ACAD_REACTORS
330
22E
330
22F
102
}
330
A0
100
AcDbEntity
  8
0
  6
Continuous
 62
     2
100
AcDbLine
 10
-1008.30814916335
 20
-1123.217744138563
 30
0.0
 11
-1008.30814916335
 21
-1128.782254907763
 31
0.0
  0
LINE
  5
180
102
{ACAD_REACTORS
330
22E
330
22F
102
}
330
A0
100
AcDbEntity
  8
0
  6
Continuous
 62
     2
100
AcDbLine
 10
-1005.814176610211
 20
-1128.49394396759
 30
0.0
 11
-1007.290009871221
 21
-1128.49394396759
 31
0.0
  0
LINE
  5
181
102
{ACAD_REACTORS
330
228
330
229
102
}
330
A0
100
AcDbEntity
  8
0
  6
Continuous
 62
     2
100
AcDbLine
 10
-1000.268726350746
 20
-1125.847309046972
 30
0.0
 11
-1000.268726350746
 21
-1124.904230805828
 31
0.0
  0
LINE
  5
182
102
{ACAD_REACTORS
330
228
330
229
102
}
330
A0
100
AcDbEntity
  8
0
  6
Continuous
 62
     2
100
AcDbLine
 10
-1001.509230761
 20
-1125.847309046972
 30
0.0
 11
-1000.268726350746
 21
-1125.847309046972
 31
0.0
  0
LINE
  5
183
102
{ACAD_REACTORS
330
228
330
229
102
}
330
A0
100
AcDbEntity
  8
0
  6
Continuous
 62
     2
100
AcDbLine
 10
-1000.268726350746
 20
-1124.162333017943
 30
0.0
 11
-1000.268726350746
 21
-1123.456605368601
 31
0.0
  0
LINE
  5
184
102
{ACAD_REACTORS
330
21A
330
21B
102
}
330
A0
100
AcDbEntity
  8
0
  6
Continuous
 62
     2
100
AcDbLine
 10
-998.3125463191922
 20
-1122.793499523161
 30
0.0
 11
-998.3125463191922
 21
-1125.847309046972
 31
0.0
  0
LINE
  5
185
102
{ACAD_REACTORS
330
21A
330
21B
102
}
330
A0
100
AcDbEntity
  8
0
  6
Continuous
 62
     2
100
AcDbLine
 10
-997.1197536170255
 20
-1124.713036938128
 30
0.0
 11
-997.1197536170255
 21
-1125.847309046972
 31
0.0
  0
LINE
  5
186
102
{ACAD_REACTORS
330
21A
330
21B
102
}
330
A0
100
AcDbEntity
  8
0
  6
Continuous
 62
     2
100
AcDbLine
 10
-996.0700960391181
 20
-1124.713036938128
 30
0.0
 11
-997.1197536170255
 21
-1124.713036938128
 31
0.0
  0
LINE
  5
187
102
{ACAD_REACTORS
330
21A
330
21B
102
}
330
A0
100
AcDbEntity
  8
0
  6
Continuous
 62
     2
100
AcDbLine
 10
-996.0700960391181
 20
-1122.793499523161
 30
0.0
 11
-994.8773033369516
 21
-1122.793499523161
 31
0.0
  0
LINE
  5
188
102
{ACAD_REACTORS
330
21A
330
21B
102
}
330
A0
100
AcDbEntity
  8
0
  6
Continuous
 62
     2
100
AcDbLine
 10
-996.0700960391181
 20
-1123.862332856496
 30
0.0
 11
-996.0700960391181
 21
-1122.793499523161
 31
0.0
  0
LINE
  5
189
102
{ACAD_REACTORS
330
22C
330
22D
102
}
330
A0
100
AcDbEntity
  8
0
  6
Continuous
 62
     2
100
AcDbLine
 10
-990.0584208201971
 20
-1123.491513128604
 30
0.0
 11
-990.0584208201971
 21
-1122.793499523161
 31
0.0
  0
LINE
  5
18A
102
{ACAD_REACTORS
330
22C
330
22D
102
}
330
A0
100
AcDbEntity
  8
0
  6
Continuous
 62
     2
100
AcDbLine
 10
-993.208740543978
 20
-1122.793499523161
 30
0.0
 11
-990.0584208201971
 21
-1122.793499523161
 31
0.0
  0
LINE
  5
18B
102
{ACAD_REACTORS
330
22C
330
22D
102
}
330
A0
100
AcDbEntity
  8
0
  6
Continuous
 62
     2
100
AcDbLine
 10
-993.208740543978
 20
-1125.847309046972
 30
0.0
 11
-990.0584208201971
 21
-1125.847309046972
 31
0.0
  0
LINE
  5
18C
102
{ACAD_REACTORS
330
22C
330
22D
102
}
330
A0
100
AcDbEntity
  8
0
  6
Continuous
 62
     2
100
AcDbLine
 10
-990.0584208201971
 20
-1125.847309046972
 30
0.0
 11
-990.0584208201971
 21
-1125.14929544153
 31
0.0
  0
LINE
  5
18D
102
{ACAD_REACTORS
330
22C
330
22D
102
}
330
A0
100
AcDbEntity
  8
0
  6
Continuous
 62
     2
100
AcDbLine
 10
-990.0584208201971
 20
-1125.14929544153
 30
0.0
 11
-991.3943486466247
 21
-1125.14929544153
 31
0.0
  0
LINE
  5
18E
102
{ACAD_REACTORS
330
22C
330
22D
102
}
330
A0
100
AcDbEntity
  8
0
  6
Continuous
 62
     2
100
AcDbLine
 10
-991.3943486466247
 20
-1125.14929544153
 30
0.0
 11
-991.3943486466247
 21
-1124.669411087788
 31
0.0
  0
LINE
  5
18F
102
{ACAD_REACTORS
330
22C
330
22D
102
}
330
A0
100
AcDbEntity
  8
0
  6
Continuous
 62
     2
100
AcDbLine
 10
-991.3943486466247
 20
-1123.491513128604
 30
0.0
 11
-990.0584208201971
 21
-1123.491513128604
 31
0.0
  0
LINE
  5
190
102
{ACAD_REACTORS
330
21C
330
21D
102
}
330
A0
100
AcDbEntity
  8
0
  6
Continuous
 62
     2
100
AcDbLine
 10
-993.8755083980162
 20
-1129.206499523147
 30
0.0
 11
-993.8755083980162
 21
-1127.897724012942
 31
0.0
  0
LINE
  5
191
102
{ACAD_REACTORS
330
21C
330
21D
102
}
330
A0
100
AcDbEntity
  8
0
  6
Continuous
 62
     2
100
AcDbLine
 10
-993.8755083980162
 20
-1127.897724012942
 30
0.0
 11
-992.6350039877634
 21
-1129.206499523147
 31
0.0
  0
LINE
  5
192
102
{ACAD_REACTORS
330
21C
330
21D
102
}
330
A0
100
AcDbEntity
  8
0
  6
Continuous
 62
     2
100
AcDbLine
 10
-991.442211285597
 20
-1129.206499523147
 30
0.0
 11
-991.442211285597
 21
-1126.152689999336
 31
0.0
  0
LINE
  5
193
102
{ACAD_REACTORS
330
21C
330
21D
102
}
330
A0
100
AcDbEntity
  8
0
  6
Continuous
 62
     2
100
AcDbLine
 10
-991.442211285597
 20
-1126.152689999336
 30
0.0
 11
-992.6350039877634
 21
-1126.152689999336
 31
0.0
  0
LINE
  5
194
102
{ACAD_REACTORS
330
21C
330
21D
102
}
330
A0
100
AcDbEntity
  8
0
  6
Continuous
 62
     2
100
AcDbLine
 10
-992.6350039877634
 20
-1126.152689999336
 30
0.0
 11
-992.6350039877634
 21
-1127.461465509541
 31
0.0
  0
LINE
  5
195
102
{ACAD_REACTORS
330
21C
330
21D
102
}
330
A0
100
AcDbEntity
  8
0
  6
Continuous
 62
     2
100
AcDbLine
 10
-992.6350039877634
 20
-1127.461465509541
 30
0.0
 11
-993.8755083980162
 21
-1126.152689999336
 31
0.0
  0
LINE
  5
196
102
{ACAD_REACTORS
330
21E
330
21F
102
}
330
A0
100
AcDbEntity
  8
0
  6
Continuous
 62
     2
100
AcDbLine
 10
-988.6270695775977
 20
-1124.538533536768
 30
0.0
 11
-987.3865651673436
 21
-1125.847309046972
 31
0.0
  0
LINE
  5
197
102
{ACAD_REACTORS
330
21E
330
21F
102
}
330
A0
100
AcDbEntity
  8
0
  6
Continuous
 62
     2
100
AcDbLine
 10
-987.3865651673436
 20
-1125.847309046972
 30
0.0
 11
-986.1937724651771
 21
-1125.847309046972
 31
0.0
  0
LINE
  5
198
102
{ACAD_REACTORS
330
21E
330
21F
102
}
330
A0
100
AcDbEntity
  8
0
  6
Continuous
 62
     2
100
AcDbLine
 10
-986.1937724651771
 20
-1125.847309046972
 30
0.0
 11
-986.1937724651771
 21
-1122.793499523161
 31
0.0
  0
LINE
  5
199
102
{ACAD_REACTORS
330
21E
330
21F
102
}
330
A0
100
AcDbEntity
  8
0
  6
Continuous
 62
     2
100
AcDbLine
 10
-986.1937724651771
 20
-1122.793499523161
 30
0.0
 11
-987.3865651673436
 21
-1122.793499523161
 31
0.0
  0
LINE
  5
19A
102
{ACAD_REACTORS
330
21E
330
21F
102
}
330
A0
100
AcDbEntity
  8
0
  6
Continuous
 62
     2
100
AcDbLine
 10
-987.3865651673436
 20
-1124.102275033366
 30
0.0
 11
-988.6270695775977
 21
-1122.793499523161
 31
0.0
  0
LINE
  5
19B
102
{ACAD_REACTORS
330
21E
330
21F
102
}
330
A0
100
AcDbEntity
  8
0
  6
Continuous
 62
     2
100
AcDbLine
 10
-989.8198622797642
 20
-1125.847309046972
 30
0.0
 11
-988.6270695775977
 21
-1125.847309046972
 31
0.0
  0
LINE
  5
19C
102
{ACAD_REACTORS
330
220
330
221
102
}
330
A0
100
AcDbEntity
  8
0
  6
Continuous
 62
     2
100
AcDbLine
 10
-991.2990761613368
 20
-1126.152689999336
 30
0.0
 11
-991.2990761613368
 21
-1126.937955305459
 31
0.0
  0
LINE
  5
19D
102
{ACAD_REACTORS
330
220
330
221
102
}
330
A0
100
AcDbEntity
  8
0
  6
Continuous
 62
     2
100
AcDbLine
 10
-990.4879771238622
 20
-1126.937955305459
 30
0.0
 11
-990.4879771238622
 21
-1129.206499523147
 31
0.0
  0
LINE
  5
19E
102
{ACAD_REACTORS
330
220
330
221
102
}
330
A0
100
AcDbEntity
  8
0
  6
Continuous
 62
     2
100
AcDbLine
 10
-990.4879771238622
 20
-1129.206499523147
 30
0.0
 11
-989.2951844216957
 21
-1129.206499523147
 31
0.0
  0
LINE
  5
19F
102
{ACAD_REACTORS
330
222
330
223
102
}
330
A0
100
AcDbEntity
  8
0
  6
Continuous
 62
     2
100
AcDbLine
 10
-986.3456579282762
 20
-1129.206499523147
 30
0.0
 11
-986.5571379817519
 21
-1128.665538978929
 31
0.0
  0
LINE
  5
1A0
102
{ACAD_REACTORS
330
222
330
223
102
}
330
A0
100
AcDbEntity
  8
0
  6
Continuous
 62
     2
100
AcDbLine
 10
-986.5031065649625
 20
-1126.152689999336
 30
0.0
 11
-985.1051535180222
 21
-1129.206499523147
 31
0.0
  0
LINE
  5
1A1
102
{ACAD_REACTORS
330
222
330
223
102
}
330
A0
100
AcDbEntity
  8
0
  6
Continuous
 62
     2
100
AcDbLine
 10
-987.7436109752152
 20
-1126.152689999336
 30
0.0
 11
-986.5031065649625
 21
-1126.152689999336
 31
0.0
  0
LINE
  5
1A2
102
{ACAD_REACTORS
330
222
330
223
102
}
330
A0
100
AcDbEntity
  8
0
  6
Continuous
 62
     2
100
AcDbLine
 10
-989.1415640221545
 20
-1129.206499523147
 30
0.0
 11
-987.9010596119016
 21
-1129.206499523147
 31
0.0
  0
LINE
  5
1A3
102
{ACAD_REACTORS
330
222
330
223
102
}
330
A0
100
AcDbEntity
  8
0
  6
Continuous
 62
     2
100
AcDbLine
 10
-987.4235240072808
 20
-1127.984975713622
 30
0.0
 11
-986.8231935328982
 21
-1127.984975713622
 31
0.0
  0
LINE
  5
1A4
102
{ACAD_REACTORS
330
222
330
223
102
}
330
A0
100
AcDbEntity
  8
0
  6
Continuous
 62
     2
100
AcDbLine
 10
-986.8231935328982
 20
-1127.984975713622
 30
0.0
 11
-987.1233587700883
 21
-1127.217160747635
 31
0.0
  0
LINE
  5
1A5
102
{ACAD_REACTORS
330
224
330
225
102
}
330
A0
100
AcDbEntity
  8
0
  6
Continuous
 62
     2
100
AcDbLine
 10
-984.7147095144902
 20
-1125.847309046972
 30
0.0
 11
-985.9552139247431
 21
-1125.847309046972
 31
0.0
  0
LINE
  5
1A6
102
{ACAD_REACTORS
330
226
330
227
102
}
330
A0
100
AcDbEntity
  8
0
  6
Continuous
 62
     2
100
AcDbLine
 10
-983.1927060265251
 20
-1125.847309046972
 30
0.0
 11
-984.5954302442733
 21
-1125.847309046972
 31
0.0
  0
LINE
  5
1A7
102
{ACAD_REACTORS
330
226
330
227
102
}
330
A0
100
AcDbEntity
  8
0
  6
Continuous
 62
     2
100
AcDbLine
 10
-983.1927060265251
 20
-1125.847309046972
 30
0.0
 11
-982.4961150884594
 21
-1125.059577261678
 31
0.0
  0
LINE
  5
1A8
102
{ACAD_REACTORS
330
226
330
227
102
}
330
A0
100
AcDbEntity
  8
0
  6
Continuous
 62
     2
100
AcDbLine
 10
-981.8949475665667
 20
-1122.793499523161
 30
0.0
 11
-980.4922233488194
 21
-1122.793499523161
 31
0.0
  0
LINE
  5
1A9
102
{ACAD_REACTORS
330
226
330
227
102
}
330
A0
100
AcDbEntity
  8
0
  6
Continuous
 62
     2
100
AcDbLine
 10
-984.5000068281006
 20
-1122.793499523161
 30
0.0
 11
-983.197477197333
 21
-1124.266450053197
 31
0.0
  0
LINE
  5
1AA
102
{ACAD_REACTORS
330
226
330
227
102
}
330
A0
100
AcDbEntity
  8
0
  6
Continuous
 62
     2
100
AcDbLine
 10
-984.5954302442733
 20
-1125.847309046972
 30
0.0
 11
-983.197477197333
 21
-1124.266450053197
 31
0.0
  0
LINE
  5
1AB
102
{ACAD_REACTORS
330
230
330
231
102
}
330
A0
100
AcDbEntity
  8
0
  6
Continuous
 62
     2
100
AcDbLine
 10
-982.7346736288935
 20
-1128.159479114983
 30
0.0
 11
-982.7346736288935
 21
-1129.031996121786
 31
0.0
  0
LINE
  5
1AC
102
{ACAD_REACTORS
330
230
330
231
102
}
330
A0
100
AcDbEntity
  8
0
  6
Continuous
 62
     2
100
AcDbLine
 10
-983.5043309718549
 20
-1126.937955305459
 30
0.0
 11
-982.4006916722867
 21
-1126.937955305459
 31
0.0
  0
LINE
  5
1AD
102
{ACAD_REACTORS
330
232
330
233
102
}
330
A0
100
AcDbEntity
  8
0
  6
Continuous
 62
     2
100
AcDbLine
 10
-998.8373751081454
 20
-1128.159479114982
 30
0.0
 11
-998.8373751081454
 21
-1129.031996121786
 31
0.0
  0
LINE
  5
1AE
102
{ACAD_REACTORS
330
232
330
233
102
}
330
A0
100
AcDbEntity
  8
0
  6
Continuous
 62
     2
100
AcDbLine
 10
-998.8373751081454
 20
-1127.199710407499
 30
0.0
 11
-998.8373751081454
 21
-1126.327193400696
 31
0.0
  0
LINE
  5
1AF
330
A0
100
AcDbEntity
  8
1
  6
Continuous
 62
     7
100
AcDbLine
 10
-882.9999995231615
 20
-1127.999999523163
 30
0.0
 11
-976.1448040499129
 21
-1127.999999523163
 31
0.0
  0
LINE
  5
1B0
330
A0
100
AcDbEntity
  8
1
  6
Continuous
 62
     6
100
AcDbLine
 10
-1081.544804049913
 20
-1136.499999523163
 30
0.0
 11
-1126.499999523163
 21
-1136.499999523163
 31
0.0
  0
LINE
  5
1B1
330
A0
100
AcDbEntity
  8
1
  6
Continuous
 62
     7
100
AcDbLine
 10
-891.9184078048403
 20
-1110.999999523163
 30
0.0
 11
-891.9184078048403
 21
-1119.499999523163
 31
0.0
  0
LINE
  5
1B2
330
A0
100
AcDbEntity
  8
1
  6
Continuous
 62
     7
100
AcDbLine
 10
-918.4184078048398
 20
-1110.999999523163
 30
0.0
 11
-918.4184078048398
 21
-1119.499999523163
 31
0.0
  0
LINE
  5
1B3
330
A0
100
AcDbEntity
  8
1
  6
Continuous
 62
     7
100
AcDbLine
 10
-976.1448040499129
 20
-1119.499999523163
 30
0.0
 11
-976.1448040499129
 21
-1110.999999523163
 31
0.0
  0
LINE
  5
1B4
330
A0
100
AcDbEntity
  8
1
  6
Continuous
 62
     7
100
AcDbLine
 10
-1012.544804049913
 20
-1119.499999523163
 30
0.0
 11
-1012.544804049913
 21
-1110.999999523163
 31
0.0
  0
LINE
  5
1B5
330
A0
100
AcDbEntity
  8
1
  6
Continuous
 62
     6
100
AcDbLine
 10
-976.1448040499129
 20
-1119.499999523163
 30
0.0
 11
-882.999999523161
 21
-1119.499999523163
 31
0.0
  0
LINE
  5
1B6
330
A0
100
AcDbEntity
  8
1
  6
Continuous
 62
     7
100
AcDbLine
 10
-948.2448040499128
 20
-1127.999999523163
 30
0.0
 11
-948.2448040499128
 21
-1119.499999523163
 31
0.0
  0
LINE
  5
1B7
330
A0
100
AcDbEntity
  8
1
  6
PHANTOM
 62
     2
100
AcDbLine
 10
-997.0581491633502
 20
-1115.374999523163
 30
0.0
 11
-1002.55814916335
 21
-1115.374999523163
 31
0.0
  0
LINE
  5
1B8
330
A0
100
AcDbEntity
  8
1
  6
PHANTOM
 62
     2
100
AcDbLine
 10
-999.8081491633502
 20
-1112.624999523163
 30
0.0
 11
-999.8081491633502
 21
-1118.124999523163
 31
0.0
  0
LINE
  5
1B9
330
A0
100
AcDbEntity
  8
1
  6
DOT_CENTER
 62
     2
100
AcDbLine
 10
-1008.55814916335
 20
-1115.374999523163
 30
0.0
 11
-1003.05814916335
 21
-1115.374999523163
 31
0.0
  0
ARC
  5
1BA
102
{ACAD_REACTORS
330
232
330
233
102
}
330
A0
100
AcDbEntity
  8
0
  6
Continuous
 62
     2
100
AcDbCircle
 10
-1000.173303025263
 20
-1130.992275706497
 30
0.0
 40
4.852596863498095
100
AcDbArc
 50
74.02000874164992
 51
84.84185523037718
  0
ARC
  5
1BB
102
{ACAD_REACTORS
330
232
330
233
102
}
330
A0
100
AcDbEntity
  8
0
  6
Continuous
 62
     2
100
AcDbCircle
 10
-999.5972624165095
 20
-1127.836515350613
 30
0.0
 40
0.9059297849856105
100
AcDbArc
 50
71.55192388185576
 51
113.3722778881328
  0
ARC
  5
1BC
102
{ACAD_REACTORS
330
232
330
233
102
}
330
A0
100
AcDbEntity
  8
0
  6
Continuous
 62
     2
100
AcDbCircle
 10
-999.7537024492115
 20
-1127.88466619058
 30
0.0
 40
0.5115800601949478
100
AcDbArc
 50
208.5214732575853
 51
246.6277221118177
  0
ARC
  5
1BD
102
{ACAD_REACTORS
330
232
330
233
102
}
330
A0
100
AcDbEntity
  8
0
  6
Continuous
 62
     2
100
AcDbCircle
 10
-999.5972624165095
 20
-1127.52267417187
 30
0.0
 40
0.9059297849846357
100
AcDbArc
 50
246.6277221118672
 51
288.4480761181624
  0
ARC
  5
1BE
102
{ACAD_REACTORS
330
232
330
233
102
}
330
A0
100
AcDbEntity
  8
0
  6
Continuous
 62
     2
100
AcDbCircle
 10
-1000.01543015017
 20
-1126.269128395833
 30
0.0
 40
2.227384008972539
100
AcDbArc
 50
288.4480761181291
 51
301.930908949964
  0
ARC
  5
1BF
102
{ACAD_REACTORS
330
22E
330
22F
102
}
330
A0
100
AcDbEntity
  8
0
  6
Continuous
 62
     2
100
AcDbCircle
 10
-1005.240503882777
 20
-1125.536626366918
 30
0.0
 40
0.9118481501447065
100
AcDbArc
 50
295.3740086781968
 51
64.62599132177876
  0
ARC
  5
1C0
102
{ACAD_REACTORS
330
22E
330
22F
102
}
330
A0
100
AcDbEntity
  8
0
  6
Continuous
 62
     2
100
AcDbCircle
 10
-1004.714461184689
 20
-1123.821949478444
 30
0.0
 40
0.3157169230760134
100
AcDbArc
 50
90.18896704249953
 51
180.0
  0
ARC
  5
1C1
102
{ACAD_REACTORS
330
230
330
231
102
}
330
A0
100
AcDbEntity
  8
0
  6
Continuous
 62
     2
100
AcDbCircle
 10
-983.5043309718549
 20
-1127.892478312285
 30
0.0
 40
0.9545230068260935
100
AcDbArc
 50
90.0
 51
109.3371432194401
  0
ARC
  5
1C2
102
{ACAD_REACTORS
330
230
330
231
102
}
330
A0
100
AcDbEntity
  8
0
  6
Continuous
 62
     2
100
AcDbCircle
 10
-983.2736437118772
 20
-1127.679594761241
 30
0.0
 40
0.9410597353348766
100
AcDbArc
 50
151.4785267423678
 51
208.5214732576808
  0
ARC
  5
1C3
102
{ACAD_REACTORS
330
230
330
231
102
}
330
A0
100
AcDbEntity
  8
0
  6
Continuous
 62
     2
100
AcDbCircle
 10
-983.4945609372554
 20
-1127.52267417187
 30
0.0
 40
0.9059297849850417
100
AcDbArc
 50
246.6277221118078
 51
288.4480761180943
  0
ARC
  5
1C4
102
{ACAD_REACTORS
330
230
330
231
102
}
330
A0
100
AcDbEntity
  8
0
  6
Continuous
 62
     2
100
AcDbCircle
 10
-983.9127286709173
 20
-1126.269128395833
 30
0.0
 40
2.227384008972611
100
AcDbArc
 50
288.4480761181346
 51
301.9309089499342
  0
ARC
  5
1C5
102
{ACAD_REACTORS
330
230
330
231
102
}
330
A0
100
AcDbEntity
  8
0
  6
Continuous
 62
     2
100
AcDbCircle
 10
-984.0706015460102
 20
-1124.366913815985
 30
0.0
 40
4.852596863498941
100
AcDbArc
 50
275.1581447696365
 51
285.9799912583397
  0
ARC
  5
1C6
102
{ACAD_REACTORS
330
230
330
231
102
}
330
A0
100
AcDbEntity
  8
0
  6
Continuous
 62
     2
100
AcDbCircle
 10
-983.7817454512743
 20
-1127.566804399206
 30
0.0
 40
1.639695123940421
100
AcDbArc
 50
195.0618917771015
 51
275.1581447696745
  0
ARC
  5
1C7
102
{ACAD_REACTORS
330
228
330
229
102
}
330
A0
100
AcDbEntity
  8
0
  6
Continuous
 62
     2
100
AcDbCircle
 10
-999.5099587629654
 20
-1123.848865164495
 30
0.0
 40
1.055365641333083
100
AcDbArc
 50
270.0
 51
90.0
  0
ARC
  5
1C8
102
{ACAD_REACTORS
330
22E
330
22F
102
}
330
A0
100
AcDbEntity
  8
0
  6
Continuous
 62
     2
100
AcDbCircle
 10
-1007.290009871221
 20
-1128.178227044513
 30
0.0
 40
0.3157169230760246
100
AcDbArc
 50
180.0
 51
270.0
  0
ARC
  5
1C9
102
{ACAD_REACTORS
330
22E
330
22F
102
}
330
A0
100
AcDbEntity
  8
0
  6
Continuous
 62
     2
100
AcDbCircle
 10
-1005.814176610211
 20
-1123.821772001796
 30
0.0
 40
0.3157169230760246
100
AcDbArc
 50
0.0
 51
90.0
  0
ARC
  5
1CA
102
{ACAD_REACTORS
330
22E
330
22F
102
}
330
A0
100
AcDbEntity
  8
0
  6
Continuous
 62
     2
100
AcDbCircle
 10
-1005.814176610211
 20
-1124.425796620856
 30
0.0
 40
0.3157169230761294
100
AcDbArc
 50
295.1944106484705
 51
0.0
  0
ARC
  5
1CB
102
{ACAD_REACTORS
330
22E
330
22F
102
}
330
A0
100
AcDbEntity
  8
0
  6
Continuous
 62
     2
100
AcDbCircle
 10
-1005.814176610211
 20
-1128.178227044513
 30
0.0
 40
0.3157169230769341
100
AcDbArc
 50
270.0
 51
0.0
  0
ARC
  5
1CC
102
{ACAD_REACTORS
330
22E
330
22F
102
}
330
A0
100
AcDbEntity
  8
0
  6
Continuous
 62
     2
100
AcDbCircle
 10
-1007.883904547967
 20
-1123.217744138563
 30
0.0
 40
0.424244615383941
100
AcDbArc
 50
90.0
 51
180.0
  0
ARC
  5
1CD
102
{ACAD_REACTORS
330
22E
330
22F
102
}
330
A0
100
AcDbEntity
  8
0
  6
Continuous
 62
     2
100
AcDbCircle
 10
-1002.410592457251
 20
-1123.217744138563
 30
0.0
 40
0.4242446153840547
100
AcDbArc
 50
0.0
 51
90.0
  0
ARC
  5
1CE
102
{ACAD_REACTORS
330
22E
330
22F
102
}
330
A0
100
AcDbEntity
  8
0
  6
Continuous
 62
     2
100
AcDbCircle
 10
-1002.410592457251
 20
-1128.782254907763
 30
0.0
 40
0.424244615383941
100
AcDbArc
 50
270.0
 51
0.0
  0
ARC
  5
1CF
102
{ACAD_REACTORS
330
22C
330
22D
102
}
330
A0
100
AcDbEntity
  8
0
  6
Continuous
 62
     2
100
AcDbCircle
 10
-993.192208570159
 20
-1124.320404285067
 30
0.0
 40
0.7717997786796852
100
AcDbArc
 50
321.8795802028358
 51
38.12041979716419
  0
ARC
  5
1D0
102
{ACAD_REACTORS
330
22C
330
22D
102
}
330
A0
100
AcDbEntity
  8
0
  6
Continuous
 62
     2
100
AcDbCircle
 10
-992.9924685338128
 20
-1124.477135463187
 30
0.0
 40
0.5179085730137529
100
AcDbArc
 50
218.1204197971956
 51
321.8795802028121
  0
ARC
  5
1D1
102
{ACAD_REACTORS
330
22A
330
22B
102
}
330
A0
100
AcDbEntity
  8
0
  6
Continuous
 62
     2
100
AcDbCircle
 10
-996.6724761227731
 20
-1127.679594761241
 30
0.0
 40
1.458034083652319
100
AcDbArc
 50
297.5481481756983
 51
62.45185182428927
  0
ARC
  5
1D2
102
{ACAD_REACTORS
330
22A
330
22B
102
}
330
A0
100
AcDbEntity
  8
0
  6
Continuous
 62
     2
100
AcDbCircle
 10
-997.2343559064396
 20
-1127.679594761241
 30
0.0
 40
1.458034083651136
100
AcDbArc
 50
117.5481481756672
 51
242.4518518243452
  0
ARC
  5
1D3
102
{ACAD_REACTORS
330
22A
330
22B
102
}
330
A0
100
AcDbEntity
  8
0
  6
Continuous
 62
     2
100
AcDbCircle
 10
-996.9534160146063
 20
-1128.218169771544
 30
0.0
 40
2.06547977220824
100
AcDbArc
 50
62.45185182430162
 51
117.5481481756704
  0
ARC
  5
1D4
102
{ACAD_REACTORS
330
22A
330
22B
102
}
330
A0
100
AcDbEntity
  8
0
  6
Continuous
 62
     2
100
AcDbCircle
 10
-996.9534160146063
 20
-1127.141019750938
 30
0.0
 40
2.065479772208521
100
AcDbArc
 50
242.4518518243412
 51
297.5481481756867
  0
ARC
  5
1D5
102
{ACAD_REACTORS
330
22C
330
22D
102
}
330
A0
100
AcDbEntity
  8
0
  6
Continuous
 62
     2
100
AcDbCircle
 10
-992.7927284974666
 20
-1124.320404285067
 30
0.0
 40
0.7717997786796852
100
AcDbArc
 50
141.8795802028358
 51
218.1204197971642
  0
ARC
  5
1D6
102
{ACAD_REACTORS
330
22C
330
22D
102
}
330
A0
100
AcDbEntity
  8
0
  6
Continuous
 62
     2
100
AcDbCircle
 10
-992.9924685338128
 20
-1124.163673106946
 30
0.0
 40
0.5179085730131405
100
AcDbArc
 50
38.12041979708892
 51
141.8795802029033
  0
ARC
  5
1D7
102
{ACAD_REACTORS
330
22E
330
22F
102
}
330
A0
100
AcDbEntity
  8
0
  6
Continuous
 62
     2
100
AcDbCircle
 10
-1007.883904547967
 20
-1128.782254907763
 30
0.0
 40
0.4242446153830315
100
AcDbArc
 50
180.0
 51
270.0
  0
ARC
  5
1D8
102
{ACAD_REACTORS
330
22E
330
22F
102
}
330
A0
100
AcDbEntity
  8
0
  6
Continuous
 62
     2
100
AcDbCircle
 10
-1005.814176610211
 20
-1126.647456112981
 30
0.0
 40
0.3157169230760246
100
AcDbArc
 50
0.0
 51
64.80558935145919
  0
ARC
  5
1D9
102
{ACAD_REACTORS
330
22E
330
22F
102
}
330
A0
100
AcDbEntity
  8
0
  6
Continuous
 62
     2
100
AcDbCircle
 10
-1005.291592162636
 20
-1125.536626366918
 30
0.0
 40
0.9118975235573348
100
AcDbArc
 50
115.1944106485622
 51
244.8055893514925
  0
ARC
  5
1DA
102
{ACAD_REACTORS
330
22E
330
22F
102
}
330
A0
100
AcDbEntity
  8
0
  6
Continuous
 62
     2
100
AcDbCircle
 10
-1007.290009871221
 20
-1123.821772001796
 30
0.0
 40
0.3157169230760246
100
AcDbArc
 50
90.0
 51
180.0
  0
ARC
  5
1DB
102
{ACAD_REACTORS
330
228
330
229
102
}
330
A0
100
AcDbEntity
  8
0
  6
Continuous
 62
     2
100
AcDbCircle
 10
-999.9514312892038
 20
-1123.809469193272
 30
0.0
 40
0.3528638246709761
100
AcDbArc
 50
270.0
 51
90.0
  0
ARC
  5
1DC
102
{ACAD_REACTORS
330
22C
330
22D
102
}
330
A0
100
AcDbEntity
  8
0
  6
Continuous
 62
     2
100
AcDbCircle
 10
-993.208740543978
 20
-1124.320404285067
 30
0.0
 40
1.526904761906053
100
AcDbArc
 50
90.0
 51
270.0
  0
ARC
  5
1DD
102
{ACAD_REACTORS
330
230
330
231
102
}
330
A0
100
AcDbEntity
  8
0
  6
Continuous
 62
     2
100
AcDbCircle
 10
-983.7817454512743
 20
-1127.792385123276
 30
0.0
 40
1.639695123940101
100
AcDbArc
 50
90.0
 51
164.9381082228985
  0
ARC
  5
1DE
102
{ACAD_REACTORS
330
230
330
231
102
}
330
A0
100
AcDbEntity
  8
0
  6
Continuous
 62
     2
100
AcDbCircle
 10
-984.200873294736
 20
-1127.679594761241
 30
0.0
 40
1.205656168392903
100
AcDbArc
 50
164.9381082229099
 51
195.0618917770796
  0
ARC
  5
1DF
102
{ACAD_REACTORS
330
230
330
231
102
}
330
A0
100
AcDbEntity
  8
0
  6
Continuous
 62
     2
100
AcDbCircle
 10
-983.6510009699585
 20
-1127.88466619058
 30
0.0
 40
0.5115800601959901
100
AcDbArc
 50
208.5214732576668
 51
246.6277221118294
  0
ARC
  5
1E0
102
{ACAD_REACTORS
330
230
330
231
102
}
330
A0
100
AcDbEntity
  8
0
  6
Continuous
 62
     2
100
AcDbCircle
 10
-983.6510009699585
 20
-1127.474523331902
 30
0.0
 40
0.5115800601937612
100
AcDbArc
 50
109.3371432195076
 51
151.4785267424451
  0
ARC
  5
1E1
102
{ACAD_REACTORS
330
22E
330
22F
102
}
330
A0
100
AcDbEntity
  8
0
  6
Continuous
 62
     2
100
AcDbCircle
 10
-1004.714461184689
 20
-1127.227619373582
 30
0.0
 40
0.3157169230770478
100
AcDbArc
 50
180.0
 51
269.8110329575005
  0
ARC
  5
1E2
102
{ACAD_REACTORS
330
22E
330
22F
102
}
330
A0
100
AcDbEntity
  8
0
  6
Continuous
 62
     2
100
AcDbCircle
 10
-1004.708845049379
 20
-1125.524784426013
 30
0.0
 40
2.018561131933151
100
AcDbArc
 50
269.8110329575939
 51
90.18896704240609
  0
ARC
  5
1E3
102
{ACAD_REACTORS
330
22E
330
22F
102
}
330
A0
100
AcDbEntity
  8
0
  6
Continuous
 62
     2
100
AcDbCircle
 10
-1004.714461184689
 20
-1124.427484766951
 30
0.0
 40
0.3157169230770478
100
AcDbArc
 50
180.0
 51
244.6259913216321
  0
ARC
  5
1E4
102
{ACAD_REACTORS
330
22E
330
22F
102
}
330
A0
100
AcDbEntity
  8
0
  6
Continuous
 62
     2
100
AcDbCircle
 10
-1004.714461184689
 20
-1126.645767966887
 30
0.0
 40
0.3157169230769098
100
AcDbArc
 50
115.3740086782794
 51
180.0
  0
ARC
  5
1E5
102
{ACAD_REACTORS
330
232
330
233
102
}
330
A0
100
AcDbEntity
  8
0
  6
Continuous
 62
     2
100
AcDbCircle
 10
-999.8844469305272
 20
-1127.792385123276
 30
0.0
 40
1.63969512394045
100
AcDbArc
 50
84.84185523036217
 51
164.9381082228872
  0
ARC
  5
1E6
102
{ACAD_REACTORS
330
232
330
233
102
}
330
A0
100
AcDbEntity
  8
0
  6
Continuous
 62
     2
100
AcDbCircle
 10
-1000.30357477399
 20
-1127.679594761241
 30
0.0
 40
1.205656168390598
100
AcDbArc
 50
164.9381082228804
 51
195.0618917771091
  0
ARC
  5
1E7
102
{ACAD_REACTORS
330
232
330
233
102
}
330
A0
100
AcDbEntity
  8
0
  6
Continuous
 62
     2
100
AcDbCircle
 10
-999.8844469305272
 20
-1127.566804399206
 30
0.0
 40
1.639695123939213
100
AcDbArc
 50
195.0618917771128
 51
275.1581447696378
  0
ARC
  5
1E8
102
{ACAD_REACTORS
330
232
330
233
102
}
330
A0
100
AcDbEntity
  8
0
  6
Continuous
 62
     2
100
AcDbCircle
 10
-1000.173303025263
 20
-1124.366913815985
 30
0.0
 40
4.852596863497922
100
AcDbArc
 50
275.1581447696228
 51
285.9799912583501
  0
ARC
  5
1E9
102
{ACAD_REACTORS
330
232
330
233
102
}
330
A0
100
AcDbEntity
  8
0
  6
Continuous
 62
     2
100
AcDbCircle
 10
-999.3763451911311
 20
-1127.679594761241
 30
0.0
 40
0.9410597353334782
100
AcDbArc
 50
151.4785267423215
 51
208.5214732576663
  0
ARC
  5
1EA
102
{ACAD_REACTORS
330
232
330
233
102
}
330
A0
100
AcDbEntity
  8
0
  6
Continuous
 62
     2
100
AcDbCircle
 10
-999.7537024492115
 20
-1127.474523331902
 30
0.0
 40
0.5115800601943187
100
AcDbArc
 50
113.3722778882227
 51
151.4785267424147
  0
ARC
  5
1EB
102
{ACAD_REACTORS
330
232
330
233
102
}
330
A0
100
AcDbEntity
  8
0
  6
Continuous
 62
     2
100
AcDbCircle
 10
-1000.01543015017
 20
-1129.09006112665
 30
0.0
 40
2.227384008974298
100
AcDbArc
 50
58.06909105006077
 51
71.55192388187832
  0
ARC
  5
1EC
102
{ACAD_REACTORS
330
22A
330
22B
102
}
330
A0
100
AcDbEntity
  8
0
  6
Continuous
 62
     2
100
AcDbCircle
 10
-996.9534160146063
 20
-1127.522863583121
 30
0.0
 40
0.5179085730136636
100
AcDbArc
 50
38.1204197972034
 51
141.8795802028044
  0
ARC
  5
1ED
102
{ACAD_REACTORS
330
22A
330
22B
102
}
330
A0
100
AcDbEntity
  8
0
  6
Continuous
 62
     2
100
AcDbCircle
 10
-996.7536759782603
 20
-1127.679594761241
 30
0.0
 40
0.7717997786795062
100
AcDbArc
 50
141.8795802028254
 51
218.1204197971613
  0
ARC
  5
1EE
102
{ACAD_REACTORS
330
22A
330
22B
102
}
330
A0
100
AcDbEntity
  8
0
  6
Continuous
 62
     2
100
AcDbCircle
 10
-996.9534160146063
 20
-1127.836325939361
 30
0.0
 40
0.5179085730137529
100
AcDbArc
 50
218.1204197971956
 51
321.8795802027966
  0
ARC
  5
1EF
102
{ACAD_REACTORS
330
22A
330
22B
102
}
330
A0
100
AcDbEntity
  8
0
  6
Continuous
 62
     2
100
AcDbCircle
 10
-997.1531560509527
 20
-1127.679594761241
 30
0.0
 40
0.7717997786795447
100
AcDbArc
 50
321.8795802028491
 51
38.12041979716419
  0
CIRCLE
  5
1F0
330
A0
100
AcDbEntity
  8
1
  6
Continuous
 62
     2
100
AcDbCircle
 10
-999.8081491633502
 20
-1115.374999523163
 30
0.0
 40
2.5
  0
CIRCLE
  5
1F1
330
A0
100
AcDbEntity
  8
1
  6
Continuous
 62
     2
100
AcDbCircle
 10
-999.8081491633502
 20
-1115.374999523163
 30
0.0
 40
1.25
  0
CIRCLE
  5
1F2
102
{ACAD_REACTORS
330
22E
330
22F
102
}
330
A0
100
AcDbEntity
  8
0
  6
Continuous
 62
     2
100
AcDbCircle
 10
-1005.26431889745
 20
-1125.536626366918
 30
0.0
 40
0.4709789327790759
  0
MTEXT
  5
1F3
330
A0
100
AcDbEntity
  8
1
 62
     3
100
AcDbMText
 10
-1169.994931737091
 20
-949.708691367864
 30
0.0
 40
1.8
 41
0.0
 71
     7
 72
     1
  3
Weitergabe sowie Vervielfältigung dieses Dokuments, Verwertung und \PMitteilung seines Inhalts sind verboten, soweit nicht ausdrücklich gestattet. \PZuwiderhandlungen verpflichten zu Schadenersatz. Alle Rechte für den Fall\Pder Patent-, Gebrauchsmus
  1
ter- oder Designeintragung vorbehalten.
  7
CONVERTER_11
 73
     1
 44
0.99639855942377
  0
MTEXT
  5
1F4
330
A0
100
AcDbEntity
  8
1
 62
     3
100
AcDbMText
 10
-987.1418218983029
 20
-949.708691367864
 30
0.0
 40
1.8
 41
0.0
 71
     7
 72
     1
  3
Transfer or duplication of this document as well as the utilisation or\Pcommunication of its content are not permitted unless express consent\Pis granted. Violations give rise to claims for damages. All rights reserved\Pin case of patent, utility mo
  1
del or design patent registrations.
  7
CONVERTER_11
 73
     1
 44
0.99639855942377
  0
TEXT
  5
1F5
330
A0
100
AcDbEntity
  8
1
 62
     2
100
AcDbText
 10
-993.3448040499129
 20
-1135.259016738155
 30
0.0
 40
1.8
  1
of
 41
0.9
  7
CONVERTER_11
100
AcDbText
  0
TEXT
  5
1F6
330
A0
100
AcDbEntity
  8
1
 62
     2
100
AcDbText
 10
-1011.544804049913
 20
-1135.259016738155
 30
0.0
 40
1.8
  1
page
 41
0.9
  7
CONVERTER_11
100
AcDbText
  0
TEXT
  5
1F7
330
A0
100
AcDbEntity
  8
1
 62
     2
100
AcDbText
 10
-1002.898539079571
 20
-1135.299248176965
 30
0.0
 40
1.8
  1
1
 41
0.9
  7
CONVERTER_11
100
AcDbText
  0
TEXT
  5
1F8
330
A0
100
AcDbEntity
  8
1
 62
     2
100
AcDbText
 10
-988.1094952400992
 20
-1135.249999523163
 30
0.0
 40
1.8
  1
1
 41
0.9
  7
CONVERTER_11
100
AcDbText
  0
MTEXT
  5
1FA
330
A0
100
AcDbEntity
  8
1
 62
     7
100
AcDbMText
 10
-929.5724017865373
 20
-1133.249999523163
 30
0.0
 40
3.0
 41
0.0
 71
     5
 72
     1
  1
ES-SSMK-GB 60X18 CUS
  7
CONVERTER_12
 73
     1
 44
1.20048019207683
  0
MTEXT
  5
1FB
330
A0
100
AcDbEntity
  8
1
 62
     2
100
AcDbMText
 10
-975.1448040499129
 20
-1128.999999523163
 30
0.0
 40
1.8
 41
0.0
 71
     1
 72
     1
  1
description
  7
CONVERTER_11
 73
     1
 44
1.20048019207683
  0
MTEXT
  5
1FC
330
A0
100
AcDbEntity
  8
1
 62
     3
100
AcDbMText
 10
-986.3448040499129
 20
-1115.374999523163
 30
0.0
 40
2.5
 41
0.0
 71
     5
 72
     1
  1
DIN A4
  7
CONVERTER_11
 73
     1
 44
1.20048019207683
  0
MTEXT
  5
1FD
330
A0
100
AcDbEntity
  8
1
 62
     7
100
AcDbMText
 10
-1172.499999523162
 20
-1113.999999523163
 30
0.0
 40
3.5
 41
0.0
 71
     5
 72
     1
  1
D
  7
CONVERTER_11
 73
     1
 44
1.20048019207683
  0
MTEXT
  5
1FE
330
A0
100
AcDbEntity
  8
1
 62
     7
100
AcDbMText
 10
-1172.499999523162
 20
-1061.499999523163
 30
0.0
 40
3.5
 41
0.0
 71
     5
 72
     1
  1
C
  7
CONVERTER_11
 73
     1
 44
1.20048019207683
  0
MTEXT
  5
1FF
330
A0
100
AcDbEntity
  8
1
 62
     7
100
AcDbMText
 10
-1172.499999523162
 20
-1011.499999523163
 30
0.0
 40
3.5
 41
0.0
 71
     5
 72
     1
  1
B
  7
CONVERTER_11
 73
     1
 44
1.20048019207683
  0
MTEXT
  5
200
330
A0
100
AcDbEntity
  8
1
 62
     7
100
AcDbMText
 10
-1172.499999523162
 20
-958.9999995231628
 30
0.0
 40
3.5
 41
0.0
 71
     5
 72
     1
  1
A
  7
CONVERTER_11
 73
     1
 44
1.20048019207683
  0
MTEXT
  5
201
330
A0
100
AcDbEntity
  8
1
 62
     7
100
AcDbMText
 10
-902.2499995231635
 20
-1138.999999523163
 30
0.0
 40
3.5
 41
0.0
 71
     5
 72
     1
  1
6
  7
CONVERTER_11
 73
     1
 44
1.20048019207683
  0
MTEXT
  5
202
330
A0
100
AcDbEntity
  8
1
 62
     7
100
AcDbMText
 10
-951.4999995231627
 20
-1138.999999523163
 30
0.0
 40
3.5
 41
0.0
 71
     5
 72
     1
  1
5
  7
CONVERTER_11
 73
     1
 44
1.20048019207683
  0
MTEXT
  5
203
330
A0
100
AcDbEntity
  8
1
 62
     7
100
AcDbMText
 10
-1001.499999523163
 20
-1138.999999523163
 30
0.0
 40
3.5
 41
0.0
 71
     5
 72
     1
  1
4
  7
CONVERTER_11
 73
     1
 44
1.20048019207683
  0
MTEXT
  5
204
330
A0
100
AcDbEntity
  8
1
 62
     7
100
AcDbMText
 10
-1051.499999523163
 20
-1138.999999523163
 30
0.0
 40
3.5
 41
0.0
 71
     5
 72
     1
  1
3
  7
CONVERTER_11
 73
     1
 44
1.20048019207683
  0
MTEXT
  5
205
330
A0
100
AcDbEntity
  8
1
 62
     7
100
AcDbMText
 10
-1101.499999523163
 20
-1138.999999523163
 30
0.0
 40
3.5
 41
0.0
 71
     5
 72
     1
  1
2
  7
CONVERTER_11
 73
     1
 44
1.20048019207683
  0
MTEXT
  5
206
330
A0
100
AcDbEntity
  8
1
 62
     7
100
AcDbMText
 10
-1150.749999523162
 20
-1138.999999523163
 30
0.0
 40
3.5
 41
0.0
 71
     5
 72
     1
  1
1
  7
CONVERTER_11
 73
     1
 44
1.20048019207683
  0
MTEXT
  5
207
330
A0
100
AcDbEntity
  8
1
 62
     7
100
AcDbMText
 10
-880.4999995231638
 20
-1113.999999523163
 30
0.0
 40
3.5
 41
0.0
 71
     5
 72
     1
  1
D
  7
CONVERTER_11
 73
     1
 44
1.20048019207683
  0
MTEXT
  5
208
330
A0
100
AcDbEntity
  8
1
 62
     7
100
AcDbMText
 10
-880.4999995231638
 20
-1011.499999523161
 30
0.0
 40
3.5
 41
0.0
 71
     5
 72
     1
  1
B
  7
CONVERTER_11
 73
     1
 44
1.20048019207683
  0
MTEXT
  5
209
330
A0
100
AcDbEntity
  8
1
 62
     7
100
AcDbMText
 10
-880.4999995231638
 20
-958.9999995231628
 30
0.0
 40
3.5
 41
0.0
 71
     5
 72
     1
  1
A
  7
CONVERTER_11
 73
     1
 44
1.20048019207683
  0
MTEXT
  5
20A
330
A0
100
AcDbEntity
  8
1
 62
     7
100
AcDbMText
 10
-880.4999995231638
 20
-1061.499999523161
 30
0.0
 40
3.5
 41
0.0
 71
     5
 72
     1
  1
C
  7
CONVERTER_11
 73
     1
 44
1.20048019207683
  0
MTEXT
  5
20B
330
A0
100
AcDbEntity
  8
1
 62
     2
100
AcDbMText
 10
-1046.98281877496
 20
-1123.749999523163
 30
0.0
 40
2.0
 41
0.0
 71
     5
 72
     1
  1
General Information\P- Simplified representation\P- Document excluded from change process\P- Linear dimensions [mm]
  7
CONVERTER_11
 73
     1
 44
1.20048019207683
  0
TEXT
  5
20C
330
A0
100
AcDbEntity
  8
1
 62
     7
100
AcDbText
 10
-974.6448040499131
 20
-1126.699999523163
 30
0.0
 40
2.5
  1
0824408
 41
0.81
  7
CONVERTER_12
100
AcDbText
  0
MTEXT
  5
20D
330
A0
100
AcDbEntity
  8
1
 62
     2
100
AcDbMText
 10
-975.0448040499127
 20
-1120.499999523163
 30
0.0
 40
1.8
 41
0.0
 71
     1
 72
     1
  1
ident.-No.
  7
CONVERTER_11
 73
     1
 44
1.20048019207683
  0
MTEXT
  5
20E
330
A0
100
AcDbEntity
  8
1
 62
     2
100
AcDbMText
 10
-890.81840780484
 20
-1111.999999523163
 30
0.0
 40
1.8
 41
0.0
 71
     1
 72
     1
  1
scale
  7
CONVERTER_11
 73
     1
 44
1.20048019207683
  0
MTEXT
  5
210
330
A0
100
AcDbEntity
  8
1
 62
     3
100
AcDbMText
 10
-887.4592036640005
 20
-1118.199999523163
 30
0.0
 40
2.5
 41
0.0
 71
     8
 72
     1
  1
1:1
  7
CONVERTER_13
 73
     1
 44
1.32052821128451
  0
TEXT
  5
211
330
A0
100
AcDbEntity
  8
1
 62
     7
100
AcDbText
 10
-975.0448040499127
 20
-1118.199999523163
 30
0.0
 40
2.5
  1
01210323
 41
0.81
  7
CONVERTER_12
100
AcDbText
  0
MTEXT
  5
213
330
A0
100
AcDbEntity
  8
1
 62
     2
100
AcDbMText
 10
-975.0448040499127
 20
-1111.999999523163
 30
0.0
 40
1.8
 41
0.0
 71
     1
 72
     1
  1
document-No. / RI
  7
CONVERTER_14
 73
     1
 44
1.32052821128451
  0
TEXT
  5
214
330
A0
100
AcDbEntity
  8
1
 62
     3
100
AcDbText
 10
-947.2448040499128
 20
-1126.699999523163
 30
0.0
 40
2.5
  1
TECDOC 2D_Productdrawing
 41
0.81
  7
CONVERTER_12
100
AcDbText
  0
MTEXT
  5
215
330
A0
100
AcDbEntity
  8
1
 62
     2
100
AcDbMText
 10
-947.2448040499128
 20
-1120.499999523163
 30
0.0
 40
1.8
 41
0.0
 71
     1
 72
     1
  1
document-type
  7
CONVERTER_11
 73
     1
 44
1.20048019207683
  0
MTEXT
  5
216
330
A0
100
AcDbEntity
  8
1
 62
     2
100
AcDbMText
 10
-917.4184078048398
 20
-1111.999999523163
 30
0.0
 40
1.8
 41
0.0
 71
     1
 72
     1
  1
date
  7
CONVERTER_11
 73
     1
 44
1.32052821128451
  0
TEXT
  5
217
330
A0
100
AcDbEntity
  8
1
 62
     3
100
AcDbText
 10
-917.4184078048398
 20
-1118.199999523163
 30
0.0
 40
2.5
  1
22.03.2021
 41
0.81
  7
CONVERTER_12
100
AcDbText
  0
TEXT
  5
218
330
A0
100
AcDbEntity
  8
1
 62
     7
100
AcDbText
 10
-955.014891830857
 20
-1118.199999523163
 30
0.0
 40
2.5
  1
00
 41
0.81
  7
CONVERTER_12
100
AcDbText
  0
TEXT
  5
219
330
A0
100
AcDbEntity
  8
1
 62
     7
100
AcDbText
 10
-957.171256327899
 20
-1118.199999523163
 30
0.0
 40
2.5
  1
/
 41
0.9
  7
CONVERTER_11
100
AcDbText
  0
HATCH
  5
21A
330
A0
100
AcDbEntity
  8
1
  6
Continuous
 62
     2
100
AcDbHatch
 10
0.0
 20
0.0
 30
0.0
210
0.0
220
0.0
230
1.0
  2
_USER
 70
     0
 71
     1
 91
        1
 92
        1
 93
       12
 72
     1
 10
-994.8773033369516
 20
-1125.847309046972
 11
-996.0700960391181
 21
-1125.847309046972
 72
     1
 10
-996.0700960391181
 20
-1125.847309046972
 11
-996.0700960391181
 21
-1124.713036938128
 72
     1
 10
-996.0700960391181
 20
-1124.713036938128
 11
-997.1197536170255
 21
-1124.713036938128
 72
     1
 10
-997.1197536170255
 20
-1124.713036938128
 11
-997.1197536170255
 21
-1125.847309046972
 72
     1
 10
-997.1197536170255
 20
-1125.847309046972
 11
-998.3125463191922
 21
-1125.847309046972
 72
     1
 10
-998.3125463191922
 20
-1125.847309046972
 11
-998.3125463191922
 21
-1122.793499523161
 72
     1
 10
-998.3125463191922
 20
-1122.793499523161
 11
-997.1197536170255
 21
-1122.793499523161
 72
     1
 10
-997.1197536170255
 20
-1122.793499523161
 11
-997.1197536170255
 21
-1123.862332856496
 72
     1
 10
-997.1197536170255
 20
-1123.862332856496
 11
-996.0700960391181
 21
-1123.862332856496
 72
     1
 10
-996.0700960391181
 20
-1123.862332856496
 11
-996.0700960391181
 21
-1122.793499523161
 72
     1
 10
-996.0700960391181
 20
-1122.793499523161
 11
-994.8773033369516
 21
-1122.793499523161
 72
     1
 10
-994.8773033369516
 20
-1122.793499523161
 11
-994.8773033369516
 21
-1125.847309046972
 97
       12
330
187
330
188
330
172
330
171
330
170
330
184
330
16F
330
185
330
186
330
16E
330
16D
330
16C
 75
     1
 76
     0
 52
45.0
 41
0.1
 77
     0
 78
     1
 53
45.0
 43
0.0
 44
0.0
 45
-0.0707106781186548
 46
0.0707106781186548
 79
     0
 98
        1
 10
0.0
 20
0.0
  0
HATCH
  5
21B
330
A0
100
AcDbEntity
  8
1
  6
Continuous
 62
     2
100
AcDbHatch
 10
0.0
 20
0.0
 30
0.0
210
0.0
220
0.0
230
1.0
  2
_USER
 70
     0
 71
     1
 91
        1
 92
        1
 93
       12
 72
     1
 10
-994.8773033369516
 20
-1125.847309046972
 11
-996.0700960391181
 21
-1125.847309046972
 72
     1
 10
-996.0700960391181
 20
-1125.847309046972
 11
-996.0700960391181
 21
-1124.713036938128
 72
     1
 10
-996.0700960391181
 20
-1124.713036938128
 11
-997.1197536170255
 21
-1124.713036938128
 72
     1
 10
-997.1197536170255
 20
-1124.713036938128
 11
-997.1197536170255
 21
-1125.847309046972
 72
     1
 10
-997.1197536170255
 20
-1125.847309046972
 11
-998.3125463191922
 21
-1125.847309046972
 72
     1
 10
-998.3125463191922
 20
-1125.847309046972
 11
-998.3125463191922
 21
-1122.793499523161
 72
     1
 10
-998.3125463191922
 20
-1122.793499523161
 11
-997.1197536170255
 21
-1122.793499523161
 72
     1
 10
-997.1197536170255
 20
-1122.793499523161
 11
-997.1197536170255
 21
-1123.862332856496
 72
     1
 10
-997.1197536170255
 20
-1123.862332856496
 11
-996.0700960391181
 21
-1123.862332856496
 72
     1
 10
-996.0700960391181
 20
-1123.862332856496
 11
-996.0700960391181
 21
-1122.793499523161
 72
     1
 10
-996.0700960391181
 20
-1122.793499523161
 11
-994.8773033369516
 21
-1122.793499523161
 72
     1
 10
-994.8773033369516
 20
-1122.793499523161
 11
-994.8773033369516
 21
-1125.847309046972
 97
       12
330
187
330
188
330
172
330
171
330
170
330
184
330
16F
330
185
330
186
330
16E
330
16D
330
16C
 75
     1
 76
     0
 52
45.0
 41
0.1
 77
     0
 78
     1
 53
45.0
 43
0.0
 44
0.0
 45
-0.0707106781186548
 46
0.0707106781186548
 79
     0
 98
        1
 10
0.0
 20
0.0
  0
HATCH
  5
21C
330
A0
100
AcDbEntity
  8
1
  6
Continuous
 62
     2
100
AcDbHatch
 10
0.0
 20
0.0
 30
0.0
210
0.0
220
0.0
230
1.0
  2
_USER
 70
     0
 71
     1
 91
        1
 92
        1
 93
       10
 72
     1
 10
-992.6350039877634
 20
-1127.461465509541
 11
-993.8755083980162
 21
-1126.152689999336
 72
     1
 10
-993.8755083980162
 20
-1126.152689999336
 11
-995.0683011001838
 21
-1126.152689999336
 72
     1
 10
-995.0683011001838
 20
-1126.152689999336
 11
-995.0683011001838
 21
-1129.206499523147
 72
     1
 10
-995.0683011001838
 20
-1129.206499523147
 11
-993.8755083980162
 21
-1129.206499523147
 72
     1
 10
-993.8755083980162
 20
-1129.206499523147
 11
-993.8755083980162
 21
-1127.897724012942
 72
     1
 10
-993.8755083980162
 20
-1127.897724012942
 11
-992.6350039877634
 21
-1129.206499523147
 72
     1
 10
-992.6350039877634
 20
-1129.206499523147
 11
-991.442211285597
 21
-1129.206499523147
 72
     1
 10
-991.442211285597
 20
-1129.206499523147
 11
-991.442211285597
 21
-1126.152689999336
 72
     1
 10
-991.442211285597
 20
-1126.152689999336
 11
-992.6350039877634
 21
-1126.152689999336
 72
     1
 10
-992.6350039877634
 20
-1126.152689999336
 11
-992.6350039877634
 21
-1127.461465509541
 97
       10
330
195
330
165
330
164
330
167
330
190
330
191
330
166
330
192
330
193
330
194
 75
     1
 76
     0
 52
45.0
 41
0.1
 77
     0
 78
     1
 53
45.0
 43
0.0
 44
0.0
 45
-0.0707106781186548
 46
0.0707106781186548
 79
     0
 98
        1
 10
0.0
 20
0.0
  0
HATCH
  5
21D
330
A0
100
AcDbEntity
  8
1
  6
Continuous
 62
     2
100
AcDbHatch
 10
0.0
 20
0.0
 30
0.0
210
0.0
220
0.0
230
1.0
  2
_USER
 70
     0
 71
     1
 91
        1
 92
        1
 93
       10
 72
     1
 10
-992.6350039877634
 20
-1127.461465509541
 11
-993.8755083980162
 21
-1126.152689999336
 72
     1
 10
-993.8755083980162
 20
-1126.152689999336
 11
-995.0683011001838
 21
-1126.152689999336
 72
     1
 10
-995.0683011001838
 20
-1126.152689999336
 11
-995.0683011001838
 21
-1129.206499523147
 72
     1
 10
-995.0683011001838
 20
-1129.206499523147
 11
-993.8755083980162
 21
-1129.206499523147
 72
     1
 10
-993.8755083980162
 20
-1129.206499523147
 11
-993.8755083980162
 21
-1127.897724012942
 72
     1
 10
-993.8755083980162
 20
-1127.897724012942
 11
-992.6350039877634
 21
-1129.206499523147
 72
     1
 10
-992.6350039877634
 20
-1129.206499523147
 11
-991.442211285597
 21
-1129.206499523147
 72
     1
 10
-991.442211285597
 20
-1129.206499523147
 11
-991.442211285597
 21
-1126.152689999336
 72
     1
 10
-991.442211285597
 20
-1126.152689999336
 11
-992.6350039877634
 21
-1126.152689999336
 72
     1
 10
-992.6350039877634
 20
-1126.152689999336
 11
-992.6350039877634
 21
-1127.461465509541
 97
       10
330
195
330
165
330
164
330
167
330
190
330
191
330
166
330
192
330
193
330
194
 75
     1
 76
     0
 52
45.0
 41
0.1
 77
     0
 78
     1
 53
45.0
 43
0.0
 44
0.0
 45
-0.0707106781186548
 46
0.0707106781186548
 79
     0
 98
        1
 10
0.0
 20
0.0
  0
HATCH
  5
21E
330
A0
100
AcDbEntity
  8
1
  6
Continuous
 62
     2
100
AcDbHatch
 10
0.0
 20
0.0
 30
0.0
210
0.0
220
0.0
230
1.0
  2
_USER
 70
     0
 71
     1
 91
        1
 92
        1
 93
       10
 72
     1
 10
-987.3865651673436
 20
-1124.102275033366
 11
-988.6270695775977
 21
-1122.793499523161
 72
     1
 10
-988.6270695775977
 20
-1122.793499523161
 11
-989.8198622797642
 21
-1122.793499523161
 72
     1
 10
-989.8198622797642
 20
-1122.793499523161
 11
-989.8198622797642
 21
-1125.847309046972
 72
     1
 10
-989.8198622797642
 20
-1125.847309046972
 11
-988.6270695775977
 21
-1125.847309046972
 72
     1
 10
-988.6270695775977
 20
-1125.847309046972
 11
-988.6270695775977
 21
-1124.538533536768
 72
     1
 10
-988.6270695775977
 20
-1124.538533536768
 11
-987.3865651673436
 21
-1125.847309046972
 72
     1
 10
-987.3865651673436
 20
-1125.847309046972
 11
-986.1937724651771
 21
-1125.847309046972
 72
     1
 10
-986.1937724651771
 20
-1125.847309046972
 11
-986.1937724651771
 21
-1122.793499523161
 72
     1
 10
-986.1937724651771
 20
-1122.793499523161
 11
-987.3865651673436
 21
-1122.793499523161
 72
     1
 10
-987.3865651673436
 20
-1122.793499523161
 11
-987.3865651673436
 21
-1124.102275033366
 97
       10
330
19A
330
162
330
161
330
19B
330
160
330
196
330
197
330
198
330
199
330
163
 75
     1
 76
     0
 52
45.0
 41
0.1
 77
     0
 78
     1
 53
45.0
 43
0.0
 44
0.0
 45
-0.0707106781186548
 46
0.0707106781186548
 79
     0
 98
        1
 10
0.0
 20
0.0
  0
HATCH
  5
21F
330
A0
100
AcDbEntity
  8
1
  6
Continuous
 62
     2
100
AcDbHatch
 10
0.0
 20
0.0
 30
0.0
210
0.0
220
0.0
230
1.0
  2
_USER
 70
     0
 71
     1
 91
        1
 92
        1
 93
       10
 72
     1
 10
-987.3865651673436
 20
-1124.102275033366
 11
-988.6270695775977
 21
-1122.793499523161
 72
     1
 10
-988.6270695775977
 20
-1122.793499523161
 11
-989.8198622797642
 21
-1122.793499523161
 72
     1
 10
-989.8198622797642
 20
-1122.793499523161
 11
-989.8198622797642
 21
-1125.847309046972
 72
     1
 10
-989.8198622797642
 20
-1125.847309046972
 11
-988.6270695775977
 21
-1125.847309046972
 72
     1
 10
-988.6270695775977
 20
-1125.847309046972
 11
-988.6270695775977
 21
-1124.538533536768
 72
     1
 10
-988.6270695775977
 20
-1124.538533536768
 11
-987.3865651673436
 21
-1125.847309046972
 72
     1
 10
-987.3865651673436
 20
-1125.847309046972
 11
-986.1937724651771
 21
-1125.847309046972
 72
     1
 10
-986.1937724651771
 20
-1125.847309046972
 11
-986.1937724651771
 21
-1122.793499523161
 72
     1
 10
-986.1937724651771
 20
-1122.793499523161
 11
-987.3865651673436
 21
-1122.793499523161
 72
     1
 10
-987.3865651673436
 20
-1122.793499523161
 11
-987.3865651673436
 21
-1124.102275033366
 97
       10
330
19A
330
162
330
161
330
19B
330
160
330
196
330
197
330
198
330
199
330
163
 75
     1
 76
     0
 52
45.0
 41
0.1
 77
     0
 78
     1
 53
45.0
 43
0.0
 44
0.0
 45
-0.0707106781186548
 46
0.0707106781186548
 79
     0
 98
        1
 10
0.0
 20
0.0
  0
HATCH
  5
220
330
A0
100
AcDbEntity
  8
1
  6
Continuous
 62
     2
100
AcDbHatch
 10
0.0
 20
0.0
 30
0.0
210
0.0
220
0.0
230
1.0
  2
_USER
 70
     0
 71
     1
 91
        1
 92
        1
 93
        8
 72
     1
 10
-988.4840853842231
 20
-1126.152689999336
 11
-991.2990761613368
 21
-1126.152689999336
 72
     1
 10
-991.2990761613368
 20
-1126.152689999336
 11
-991.2990761613368
 21
-1126.937955305459
 72
     1
 10
-991.2990761613368
 20
-1126.937955305459
 11
-990.4879771238622
 21
-1126.937955305459
 72
     1
 10
-990.4879771238622
 20
-1126.937955305459
 11
-990.4879771238622
 21
-1129.206499523147
 72
     1
 10
-990.4879771238622
 20
-1129.206499523147
 11
-989.2951844216957
 21
-1129.206499523147
 72
     1
 10
-989.2951844216957
 20
-1129.206499523147
 11
-989.2951844216957
 21
-1126.937955305459
 72
     1
 10
-989.2951844216957
 20
-1126.937955305459
 11
-988.4840853842231
 21
-1126.937955305459
 72
     1
 10
-988.4840853842231
 20
-1126.937955305459
 11
-988.4840853842231
 21
-1126.152689999336
 97
        8
330
15C
330
19C
330
15B
330
19D
330
19E
330
15F
330
15E
330
15D
 75
     1
 76
     0
 52
45.0
 41
0.1
 77
     0
 78
     1
 53
45.0
 43
0.0
 44
0.0
 45
-0.0707106781186548
 46
0.0707106781186548
 79
     0
 98
        1
 10
0.0
 20
0.0
  0
HATCH
  5
221
330
A0
100
AcDbEntity
  8
1
  6
Continuous
 62
     2
100
AcDbHatch
 10
0.0
 20
0.0
 30
0.0
210
0.0
220
0.0
230
1.0
  2
_USER
 70
     0
 71
     1
 91
        1
 92
        1
 93
        8
 72
     1
 10
-988.4840853842231
 20
-1126.152689999336
 11
-991.2990761613368
 21
-1126.152689999336
 72
     1
 10
-991.2990761613368
 20
-1126.152689999336
 11
-991.2990761613368
 21
-1126.937955305459
 72
     1
 10
-991.2990761613368
 20
-1126.937955305459
 11
-990.4879771238622
 21
-1126.937955305459
 72
     1
 10
-990.4879771238622
 20
-1126.937955305459
 11
-990.4879771238622
 21
-1129.206499523147
 72
     1
 10
-990.4879771238622
 20
-1129.206499523147
 11
-989.2951844216957
 21
-1129.206499523147
 72
     1
 10
-989.2951844216957
 20
-1129.206499523147
 11
-989.2951844216957
 21
-1126.937955305459
 72
     1
 10
-989.2951844216957
 20
-1126.937955305459
 11
-988.4840853842231
 21
-1126.937955305459
 72
     1
 10
-988.4840853842231
 20
-1126.937955305459
 11
-988.4840853842231
 21
-1126.152689999336
 97
        8
330
15C
330
19C
330
15B
330
19D
330
19E
330
15F
330
15E
330
15D
 75
     1
 76
     0
 52
45.0
 41
0.1
 77
     0
 78
     1
 53
45.0
 43
0.0
 44
0.0
 45
-0.0707106781186548
 46
0.0707106781186548
 79
     0
 98
        1
 10
0.0
 20
0.0
  0
HATCH
  5
222
330
A0
100
AcDbEntity
  8
1
  6
Continuous
 62
     2
100
AcDbHatch
 10
0.0
 20
0.0
 30
0.0
210
0.0
220
0.0
230
1.0
  2
_USER
 70
     0
 71
     1
 91
        2
 92
        1
 93
        8
 72
     1
 10
-986.3456579282762
 20
-1129.206499523147
 11
-986.5571379817519
 21
-1128.665538978929
 72
     1
 10
-986.5571379817519
 20
-1128.665538978929
 11
-987.6895795584257
 21
-1128.665538978929
 72
     1
 10
-987.6895795584257
 20
-1128.665538978929
 11
-987.9010596119016
 21
-1129.206499523147
 72
     1
 10
-987.9010596119016
 20
-1129.206499523147
 11
-989.1415640221545
 21
-1129.206499523147
 72
     1
 10
-989.1415640221545
 20
-1129.206499523147
 11
-987.7436109752152
 21
-1126.152689999336
 72
     1
 10
-987.7436109752152
 20
-1126.152689999336
 11
-986.5031065649625
 21
-1126.152689999336
 72
     1
 10
-986.5031065649625
 20
-1126.152689999336
 11
-985.1051535180222
 21
-1129.206499523147
 72
     1
 10
-985.1051535180222
 20
-1129.206499523147
 11
-986.3456579282762
 21
-1129.206499523147
 97
        8
330
1A0
330
1A1
330
158
330
1A2
330
157
330
15A
330
19F
330
159
 92
       16
 93
        3
 72
     1
 10
-987.4235240072808
 20
-1127.984975713622
 11
-987.1233587700883
 21
-1127.217160747635
 72
     1
 10
-987.1233587700883
 20
-1127.217160747635
 11
-986.8231935328982
 21
-1127.984975713622
 72
     1
 10
-986.8231935328982
 20
-1127.984975713622
 11
-987.4235240072808
 21
-1127.984975713622
 97
        3
330
156
330
1A4
330
1A3
 75
     1
 76
     0
 52
45.0
 41
0.1
 77
     0
 78
     1
 53
45.0
 43
0.0
 44
0.0
 45
-0.0707106781186548
 46
0.0707106781186548
 79
     0
 98
        1
 10
0.0
 20
0.0
  0
HATCH
  5
223
330
A0
100
AcDbEntity
  8
1
  6
Continuous
 62
     2
100
AcDbHatch
 10
0.0
 20
0.0
 30
0.0
210
0.0
220
0.0
230
1.0
  2
_USER
 70
     0
 71
     1
 91
        2
 92
        1
 93
        8
 72
     1
 10
-986.3456579282762
 20
-1129.206499523147
 11
-986.5571379817519
 21
-1128.665538978929
 72
     1
 10
-986.5571379817519
 20
-1128.665538978929
 11
-987.6895795584257
 21
-1128.665538978929
 72
     1
 10
-987.6895795584257
 20
-1128.665538978929
 11
-987.9010596119016
 21
-1129.206499523147
 72
     1
 10
-987.9010596119016
 20
-1129.206499523147
 11
-989.1415640221545
 21
-1129.206499523147
 72
     1
 10
-989.1415640221545
 20
-1129.206499523147
 11
-987.7436109752152
 21
-1126.152689999336
 72
     1
 10
-987.7436109752152
 20
-1126.152689999336
 11
-986.5031065649625
 21
-1126.152689999336
 72
     1
 10
-986.5031065649625
 20
-1126.152689999336
 11
-985.1051535180222
 21
-1129.206499523147
 72
     1
 10
-985.1051535180222
 20
-1129.206499523147
 11
-986.3456579282762
 21
-1129.206499523147
 97
        8
330
1A0
330
1A1
330
158
330
1A2
330
157
330
15A
330
19F
330
159
 92
       16
 93
        3
 72
     1
 10
-987.4235240072808
 20
-1127.984975713622
 11
-987.1233587700883
 21
-1127.217160747635
 72
     1
 10
-987.1233587700883
 20
-1127.217160747635
 11
-986.8231935328982
 21
-1127.984975713622
 72
     1
 10
-986.8231935328982
 20
-1127.984975713622
 11
-987.4235240072808
 21
-1127.984975713622
 97
        3
330
156
330
1A4
330
1A3
 75
     1
 76
     0
 52
45.0
 41
0.1
 77
     0
 78
     1
 53
45.0
 43
0.0
 44
0.0
 45
-0.0707106781186548
 46
0.0707106781186548
 79
     0
 98
        1
 10
0.0
 20
0.0
  0
HATCH
  5
224
330
A0
100
AcDbEntity
  8
1
  6
Continuous
 62
     2
100
AcDbHatch
 10
0.0
 20
0.0
 30
0.0
210
0.0
220
0.0
230
1.0
  2
_USER
 70
     0
 71
     1
 91
        1
 92
        1
 93
        4
 72
     1
 10
-984.7147095144902
 20
-1125.847309046972
 11
-985.9552139247431
 21
-1125.847309046972
 72
     1
 10
-985.9552139247431
 20
-1125.847309046972
 11
-985.9552139247431
 21
-1122.793499523161
 72
     1
 10
-985.9552139247431
 20
-1122.793499523161
 11
-984.7147095144902
 21
-1122.793499523161
 72
     1
 10
-984.7147095144902
 20
-1122.793499523161
 11
-984.7147095144902
 21
-1125.847309046972
 97
        4
330
153
330
155
330
1A5
330
154
 75
     1
 76
     0
 52
45.0
 41
0.1
 77
     0
 78
     1
 53
45.0
 43
0.0
 44
0.0
 45
-0.0707106781186548
 46
0.0707106781186548
 79
     0
 98
        1
 10
0.0
 20
0.0
  0
HATCH
  5
225
330
A0
100
AcDbEntity
  8
1
  6
Continuous
 62
     2
100
AcDbHatch
 10
0.0
 20
0.0
 30
0.0
210
0.0
220
0.0
230
1.0
  2
_USER
 70
     0
 71
     1
 91
        1
 92
        1
 93
        4
 72
     1
 10
-984.7147095144902
 20
-1125.847309046972
 11
-985.9552139247431
 21
-1125.847309046972
 72
     1
 10
-985.9552139247431
 20
-1125.847309046972
 11
-985.9552139247431
 21
-1122.793499523161
 72
     1
 10
-985.9552139247431
 20
-1122.793499523161
 11
-984.7147095144902
 21
-1122.793499523161
 72
     1
 10
-984.7147095144902
 20
-1122.793499523161
 11
-984.7147095144902
 21
-1125.847309046972
 97
        4
330
153
330
155
330
1A5
330
154
 75
     1
 76
     0
 52
45.0
 41
0.1
 77
     0
 78
     1
 53
45.0
 43
0.0
 44
0.0
 45
-0.0707106781186548
 46
0.0707106781186548
 79
     0
 98
        1
 10
0.0
 20
0.0
  0
HATCH
  5
226
330
A0
100
AcDbEntity
  8
1
  6
Continuous
 62
     2
100
AcDbHatch
 10
0.0
 20
0.0
 30
0.0
210
0.0
220
0.0
230
1.0
  2
_USER
 70
     0
 71
     1
 91
        1
 92
        1
 93
       12
 72
     1
 10
-980.4922233488194
 20
-1122.793499523161
 11
-981.794752979586
 21
-1124.266450053197
 72
     1
 10
-981.794752979586
 20
-1124.266450053197
 11
-980.3967999326456
 21
-1125.847309046972
 72
     1
 10
-980.3967999326456
 20
-1125.847309046972
 11
-981.799524150394
 21
-1125.847309046972
 72
     1
 10
-981.799524150394
 20
-1125.847309046972
 11
-982.4961150884594
 21
-1125.059577261678
 72
     1
 10
-982.4961150884594
 20
-1125.059577261678
 11
-983.1927060265251
 21
-1125.847309046972
 72
     1
 10
-983.1927060265251
 20
-1125.847309046972
 11
-984.5954302442733
 21
-1125.847309046972
 72
     1
 10
-984.5954302442733
 20
-1125.847309046972
 11
-983.197477197333
 21
-1124.266450053197
 72
     1
 10
-983.197477197333
 20
-1124.266450053197
 11
-984.5000068281006
 21
-1122.793499523161
 72
     1
 10
-984.5000068281006
 20
-1122.793499523161
 11
-983.0972826103513
 21
-1122.793499523161
 72
     1
 10
-983.0972826103513
 20
-1122.793499523161
 11
-982.4961150884594
 21
-1123.473322844716
 72
     1
 10
-982.4961150884594
 20
-1123.473322844716
 11
-981.8949475665667
 21
-1122.793499523161
 72
     1
 10
-981.8949475665667
 20
-1122.793499523161
 11
-980.4922233488194
 21
-1122.793499523161
 97
       12
330
14E
330
14D
330
14C
330
1A9
330
1AA
330
1A6
330
1A7
330
152
330
151
330
150
330
14F
330
1A8
 75
     1
 76
     0
 52
45.0
 41
0.1
 77
     0
 78
     1
 53
45.0
 43
0.0
 44
0.0
 45
-0.0707106781186548
 46
0.0707106781186548
 79
     0
 98
        1
 10
0.0
 20
0.0
  0
HATCH
  5
227
330
A0
100
AcDbEntity
  8
1
  6
Continuous
 62
     2
100
AcDbHatch
 10
0.0
 20
0.0
 30
0.0
210
0.0
220
0.0
230
1.0
  2
_USER
 70
     0
 71
     1
 91
        1
 92
        1
 93
       12
 72
     1
 10
-980.4922233488194
 20
-1122.793499523161
 11
-981.794752979586
 21
-1124.266450053197
 72
     1
 10
-981.794752979586
 20
-1124.266450053197
 11
-980.3967999326456
 21
-1125.847309046972
 72
     1
 10
-980.3967999326456
 20
-1125.847309046972
 11
-981.799524150394
 21
-1125.847309046972
 72
     1
 10
-981.799524150394
 20
-1125.847309046972
 11
-982.4961150884594
 21
-1125.059577261678
 72
     1
 10
-982.4961150884594
 20
-1125.059577261678
 11
-983.1927060265251
 21
-1125.847309046972
 72
     1
 10
-983.1927060265251
 20
-1125.847309046972
 11
-984.5954302442733
 21
-1125.847309046972
 72
     1
 10
-984.5954302442733
 20
-1125.847309046972
 11
-983.197477197333
 21
-1124.266450053197
 72
     1
 10
-983.197477197333
 20
-1124.266450053197
 11
-984.5000068281006
 21
-1122.793499523161
 72
     1
 10
-984.5000068281006
 20
-1122.793499523161
 11
-983.0972826103513
 21
-1122.793499523161
 72
     1
 10
-983.0972826103513
 20
-1122.793499523161
 11
-982.4961150884594
 21
-1123.473322844716
 72
     1
 10
-982.4961150884594
 20
-1123.473322844716
 11
-981.8949475665667
 21
-1122.793499523161
 72
     1
 10
-981.8949475665667
 20
-1122.793499523161
 11
-980.4922233488194
 21
-1122.793499523161
 97
       12
330
14E
330
14D
330
14C
330
1A9
330
1AA
330
1A6
330
1A7
330
152
330
151
330
150
330
14F
330
1A8
 75
     1
 76
     0
 52
45.0
 41
0.1
 77
     0
 78
     1
 53
45.0
 43
0.0
 44
0.0
 45
-0.0707106781186548
 46
0.0707106781186548
 79
     0
 98
        1
 10
0.0
 20
0.0
  0
HATCH
  5
228
330
A0
100
AcDbEntity
  8
1
  6
Continuous
 62
     2
100
AcDbHatch
 10
0.0
 20
0.0
 30
0.0
210
0.0
220
0.0
230
1.0
  2
_USER
 70
     0
 71
     1
 91
        2
 92
        1
 93
        6
 72
     1
 10
-999.5099587629654
 20
-1124.904230805828
 11
-1000.268726350746
 21
-1124.904230805828
 72
     1
 10
-1000.268726350746
 20
-1124.904230805828
 11
-1000.268726350746
 21
-1125.847309046972
 72
     1
 10
-1000.268726350746
 20
-1125.847309046972
 11
-1001.509230761
 21
-1125.847309046972
 72
     1
 10
-1001.509230761
 20
-1125.847309046972
 11
-1001.509230761
 21
-1122.793499523161
 72
     1
 10
-1001.509230761
 20
-1122.793499523161
 11
-999.5099587629654
 21
-1122.793499523161
 72
     2
 10
-999.5099587629654
 20
-1123.848865164495
 40
1.055365641333083
 50
270.0
 51
450.0
 73
     0
 97
        6
330
176
330
175
330
182
330
181
330
177
330
1C7
 92
       16
 93
        4
 72
     2
 10
-999.9514312892038
 20
-1123.809469193272
 40
0.3528638246709761
 50
270.0
 51
450.0
 73
     1
 72
     1
 10
-999.9514312892038
 20
-1123.456605368601
 11
-1000.268726350746
 21
-1123.456605368601
 72
     1
 10
-1000.268726350746
 20
-1123.456605368601
 11
-1000.268726350746
 21
-1124.162333017943
 72
     1
 10
-1000.268726350746
 20
-1124.162333017943
 11
-999.9514312892038
 21
-1124.162333017943
 97
        4
330
1DB
330
173
330
183
330
174
 75
     1
 76
     0
 52
45.0
 41
0.1
 77
     0
 78
     1
 53
45.0
 43
0.0
 44
0.0
 45
-0.0707106781186548
 46
0.0707106781186548
 79
     0
 98
        1
 10
0.0
 20
0.0
  0
HATCH
  5
229
330
A0
100
AcDbEntity
  8
1
  6
Continuous
 62
     2
100
AcDbHatch
 10
0.0
 20
0.0
 30
0.0
210
0.0
220
0.0
230
1.0
  2
_USER
 70
     0
 71
     1
 91
        2
 92
        1
 93
        6
 72
     1
 10
-999.5099587629654
 20
-1124.904230805828
 11
-1000.268726350746
 21
-1124.904230805828
 72
     1
 10
-1000.268726350746
 20
-1124.904230805828
 11
-1000.268726350746
 21
-1125.847309046972
 72
     1
 10
-1000.268726350746
 20
-1125.847309046972
 11
-1001.509230761
 21
-1125.847309046972
 72
     1
 10
-1001.509230761
 20
-1125.847309046972
 11
-1001.509230761
 21
-1122.793499523161
 72
     1
 10
-1001.509230761
 20
-1122.793499523161
 11
-999.5099587629654
 21
-1122.793499523161
 72
     2
 10
-999.5099587629654
 20
-1123.848865164495
 40
1.055365641333083
 50
270.0
 51
450.0
 73
     0
 97
        6
330
176
330
175
330
182
330
181
330
177
330
1C7
 92
       16
 93
        4
 72
     2
 10
-999.9514312892038
 20
-1123.809469193272
 40
0.3528638246709761
 50
270.0
 51
450.0
 73
     1
 72
     1
 10
-999.9514312892038
 20
-1123.456605368601
 11
-1000.268726350746
 21
-1123.456605368601
 72
     1
 10
-1000.268726350746
 20
-1123.456605368601
 11
-1000.268726350746
 21
-1124.162333017943
 72
     1
 10
-1000.268726350746
 20
-1124.162333017943
 11
-999.9514312892038
 21
-1124.162333017943
 97
        4
330
1DB
330
173
330
183
330
174
 75
     1
 76
     0
 52
45.0
 41
0.1
 77
     0
 78
     1
 53
45.0
 43
0.0
 44
0.0
 45
-0.0707106781186548
 46
0.0707106781186548
 79
     0
 98
        1
 10
0.0
 20
0.0
  0
HATCH
  5
22A
330
A0
100
AcDbEntity
  8
1
  6
Continuous
 62
     2
100
AcDbHatch
 10
0.0
 20
0.0
 30
0.0
210
0.0
220
0.0
230
1.0
  2
_USER
 70
     0
 71
     1
 91
        2
 92
        1
 93
        4
 72
     2
 10
-996.9534160146063
 20
-1128.218169771544
 40
2.06547977220824
 50
62.45185182430162
 51
117.5481481756704
 73
     1
 72
     2
 10
-997.2343559064396
 20
-1127.679594761241
 40
1.458034083651136
 50
117.5481481756672
 51
242.4518518243452
 73
     1
 72
     2
 10
-996.9534160146063
 20
-1127.141019750938
 40
2.065479772208521
 50
242.4518518243412
 51
297.5481481756867
 73
     1
 72
     2
 10
-996.6724761227731
 20
-1127.679594761241
 40
1.458034083652319
 50
297.5481481756983
 51
422.4518518242893
 73
     1
 97
        4
330
1D3
330
1D2
330
1D4
330
1D1
 92
       16
 93
        4
 72
     2
 10
-997.1531560509527
 20
-1127.679594761241
 40
0.7717997786795447
 50
321.8795802028491
 51
398.1204197971642
 73
     1
 72
     2
 10
-996.9534160146063
 20
-1127.522863583121
 40
0.5179085730136636
 50
38.1204197972034
 51
141.8795802028044
 73
     1
 72
     2
 10
-996.7536759782603
 20
-1127.679594761241
 40
0.7717997786795062
 50
141.8795802028254
 51
218.1204197971613
 73
     1
 72
     2
 10
-996.9534160146063
 20
-1127.836325939361
 40
0.5179085730137529
 50
218.1204197971956
 51
321.8795802027966
 73
     1
 97
        4
330
1EF
330
1EC
330
1ED
330
1EE
 75
     1
 76
     0
 52
45.0
 41
0.1
 77
     0
 78
     1
 53
45.0
 43
0.0
 44
0.0
 45
-0.0707106781186548
 46
0.0707106781186548
 79
     0
 98
        1
 10
0.0
 20
0.0
  0
HATCH
  5
22B
330
A0
100
AcDbEntity
  8
1
  6
Continuous
 62
     2
100
AcDbHatch
 10
0.0
 20
0.0
 30
0.0
210
0.0
220
0.0
230
1.0
  2
_USER
 70
     0
 71
     1
 91
        2
 92
        1
 93
        4
 72
     2
 10
-996.9534160146063
 20
-1128.218169771544
 40
2.06547977220824
 50
62.45185182430162
 51
117.5481481756704
 73
     1
 72
     2
 10
-997.2343559064396
 20
-1127.679594761241
 40
1.458034083651136
 50
117.5481481756672
 51
242.4518518243452
 73
     1
 72
     2
 10
-996.9534160146063
 20
-1127.141019750938
 40
2.065479772208521
 50
242.4518518243412
 51
297.5481481756867
 73
     1
 72
     2
 10
-996.6724761227731
 20
-1127.679594761241
 40
1.458034083652319
 50
297.5481481756983
 51
422.4518518242893
 73
     1
 97
        4
330
1D3
330
1D2
330
1D4
330
1D1
 92
       16
 93
        4
 72
     2
 10
-997.1531560509527
 20
-1127.679594761241
 40
0.7717997786795447
 50
321.8795802028491
 51
398.1204197971642
 73
     1
 72
     2
 10
-996.9534160146063
 20
-1127.522863583121
 40
0.5179085730136636
 50
38.1204197972034
 51
141.8795802028044
 73
     1
 72
     2
 10
-996.7536759782603
 20
-1127.679594761241
 40
0.7717997786795062
 50
141.8795802028254
 51
218.1204197971613
 73
     1
 72
     2
 10
-996.9534160146063
 20
-1127.836325939361
 40
0.5179085730137529
 50
218.1204197971956
 51
321.8795802027966
 73
     1
 97
        4
330
1EF
330
1EC
330
1ED
330
1EE
 75
     1
 76
     0
 52
45.0
 41
0.1
 77
     0
 78
     1
 53
45.0
 43
0.0
 44
0.0
 45
-0.0707106781186548
 46
0.0707106781186548
 79
     0
 98
        1
 10
0.0
 20
0.0
  0
HATCH
  5
22C
330
A0
100
AcDbEntity
  8
1
  6
Continuous
 62
     2
100
AcDbHatch
 10
0.0
 20
0.0
 30
0.0
210
0.0
220
0.0
230
1.0
  2
_USER
 70
     0
 71
     1
 91
        2
 92
        1
 93
       12
 72
     1
 10
-990.0584208201971
 20
-1123.491513128604
 11
-991.3943486466247
 21
-1123.491513128604
 72
     1
 10
-991.3943486466247
 20
-1123.491513128604
 11
-991.3943486466247
 21
-1123.971397482346
 72
     1
 10
-991.3943486466247
 20
-1123.971397482346
 11
-990.0584208201971
 21
-1123.971397482346
 72
     1
 10
-990.0584208201971
 20
-1123.971397482346
 11
-990.0584208201971
 21
-1124.669411087788
 72
     1
 10
-990.0584208201971
 20
-1124.669411087788
 11
-991.3943486466247
 21
-1124.669411087788
 72
     1
 10
-991.3943486466247
 20
-1124.669411087788
 11
-991.3943486466247
 21
-1125.14929544153
 72
     1
 10
-991.3943486466247
 20
-1125.14929544153
 11
-990.0584208201971
 21
-1125.14929544153
 72
     1
 10
-990.0584208201971
 20
-1125.14929544153
 11
-990.0584208201971
 21
-1125.847309046972
 72
     1
 10
-990.0584208201971
 20
-1125.847309046972
 11
-993.208740543978
 21
-1125.847309046972
 72
     2
 10
-993.208740543978
 20
-1124.320404285067
 40
1.526904761906053
 50
90.0
 51
270.0
 73
     0
 72
     1
 10
-993.208740543978
 20
-1122.793499523161
 11
-990.0584208201971
 21
-1122.793499523161
 72
     1
 10
-990.0584208201971
 20
-1122.793499523161
 11
-990.0584208201971
 21
-1123.491513128604
 97
       12
330
18A
330
1DC
330
18B
330
18C
330
18D
330
18E
330
16B
330
16A
330
169
330
168
330
18F
330
189
 92
       16
 93
        4
 72
     2
 10
-992.9924685338128
 20
-1124.163673106946
 40
0.5179085730131405
 50
38.12041979708892
 51
141.8795802029033
 73
     1
 72
     2
 10
-992.7927284974666
 20
-1124.320404285067
 40
0.7717997786796852
 50
141.8795802028358
 51
218.1204197971642
 73
     1
 72
     2
 10
-992.9924685338128
 20
-1124.477135463187
 40
0.5179085730137529
 50
218.1204197971956
 51
321.8795802028121
 73
     1
 72
     2
 10
-993.192208570159
 20
-1124.320404285067
 40
0.7717997786796852
 50
321.8795802028358
 51
398.1204197971642
 73
     1
 97
        4
330
1D6
330
1D5
330
1D0
330
1CF
 75
     1
 76
     0
 52
45.0
 41
0.1
 77
     0
 78
     1
 53
45.0
 43
0.0
 44
0.0
 45
-0.0707106781186548
 46
0.0707106781186548
 79
     0
 98
        1
 10
0.0
 20
0.0
  0
HATCH
  5
22D
330
A0
100
AcDbEntity
  8
1
  6
Continuous
 62
     2
100
AcDbHatch
 10
0.0
 20
0.0
 30
0.0
210
0.0
220
0.0
230
1.0
  2
_USER
 70
     0
 71
     1
 91
        2
 92
        1
 93
       12
 72
     1
 10
-990.0584208201971
 20
-1123.491513128604
 11
-991.3943486466247
 21
-1123.491513128604
 72
     1
 10
-991.3943486466247
 20
-1123.491513128604
 11
-991.3943486466247
 21
-1123.971397482346
 72
     1
 10
-991.3943486466247
 20
-1123.971397482346
 11
-990.0584208201971
 21
-1123.971397482346
 72
     1
 10
-990.0584208201971
 20
-1123.971397482346
 11
-990.0584208201971
 21
-1124.669411087788
 72
     1
 10
-990.0584208201971
 20
-1124.669411087788
 11
-991.3943486466247
 21
-1124.669411087788
 72
     1
 10
-991.3943486466247
 20
-1124.669411087788
 11
-991.3943486466247
 21
-1125.14929544153
 72
     1
 10
-991.3943486466247
 20
-1125.14929544153
 11
-990.0584208201971
 21
-1125.14929544153
 72
     1
 10
-990.0584208201971
 20
-1125.14929544153
 11
-990.0584208201971
 21
-1125.847309046972
 72
     1
 10
-990.0584208201971
 20
-1125.847309046972
 11
-993.208740543978
 21
-1125.847309046972
 72
     2
 10
-993.208740543978
 20
-1124.320404285067
 40
1.526904761906053
 50
90.0
 51
270.0
 73
     0
 72
     1
 10
-993.208740543978
 20
-1122.793499523161
 11
-990.0584208201971
 21
-1122.793499523161
 72
     1
 10
-990.0584208201971
 20
-1122.793499523161
 11
-990.0584208201971
 21
-1123.491513128604
 97
       12
330
18A
330
1DC
330
18B
330
18C
330
18D
330
18E
330
16B
330
16A
330
169
330
168
330
18F
330
189
 92
       16
 93
        4
 72
     2
 10
-992.9924685338128
 20
-1124.163673106946
 40
0.5179085730131405
 50
38.12041979708892
 51
141.8795802029033
 73
     1
 72
     2
 10
-992.7927284974666
 20
-1124.320404285067
 40
0.7717997786796852
 50
141.8795802028358
 51
218.1204197971642
 73
     1
 72
     2
 10
-992.9924685338128
 20
-1124.477135463187
 40
0.5179085730137529
 50
218.1204197971956
 51
321.8795802028121
 73
     1
 72
     2
 10
-993.192208570159
 20
-1124.320404285067
 40
0.7717997786796852
 50
321.8795802028358
 51
398.1204197971642
 73
     1
 97
        4
330
1D6
330
1D5
330
1D0
330
1CF
 75
     1
 76
     0
 52
45.0
 41
0.1
 77
     0
 78
     1
 53
45.0
 43
0.0
 44
0.0
 45
-0.0707106781186548
 46
0.0707106781186548
 79
     0
 98
        1
 10
0.0
 20
0.0
  0
HATCH
  5
22E
330
A0
100
AcDbEntity
  8
1
  6
Continuous
 62
     2
100
AcDbHatch
 10
0.0
 20
0.0
 30
0.0
210
0.0
220
0.0
230
1.0
  2
_USER
 70
     0
 71
     1
 91
        4
 92
        1
 93
        8
 72
     1
 10
-1001.986347841867
 20
-1123.217744138563
 11
-1001.986347841867
 21
-1128.782254907763
 72
     2
 10
-1002.410592457251
 20
-1128.782254907763
 40
0.424244615383941
 50
0.0
 51
90.0
 73
     0
 72
     1
 10
-1002.410592457251
 20
-1129.206499523147
 11
-1007.883904547967
 21
-1129.206499523147
 72
     2
 10
-1007.883904547967
 20
-1128.782254907763
 40
0.4242446153830315
 50
90.0
 51
180.0
 73
     0
 72
     1
 10
-1008.30814916335
 20
-1128.782254907763
 11
-1008.30814916335
 21
-1123.217744138563
 72
     2
 10
-1007.883904547967
 20
-1123.217744138563
 40
0.424244615383941
 50
180.0
 51
270.0
 73
     0
 72
     1
 10
-1007.883904547967
 20
-1122.793499523179
 11
-1002.410592457251
 21
-1122.793499523179
 72
     2
 10
-1002.410592457251
 20
-1123.217744138563
 40
0.4242446153840547
 50
270.0
 51
360.0
 73
     0
 97
        8
330
17E
330
1CC
330
17F
330
1D7
330
17C
330
1CE
330
17D
330
1CD
 92
       16
 93
        1
 72
     2
 10
-1005.26431889745
 20
-1125.536626366918
 40
0.4709789327790759
 50
0.0
 51
360.0
 73
     1
 97
        1
330
1F2
 92
       16
 93
        8
 72
     2
 10
-1004.714461184689
 20
-1126.645767966887
 40
0.3157169230769098
 50
115.3740086782794
 51
180.0
 73
     1
 72
     1
 10
-1005.030178107766
 20
-1126.645767966887
 11
-1005.030178107766
 21
-1127.227619373582
 72
     2
 10
-1004.714461184689
 20
-1127.227619373582
 40
0.3157169230770478
 50
180.0
 51
269.8110329575005
 73
     1
 72
     2
 10
-1004.708845049379
 20
-1125.524784426013
 40
2.018561131933151
 50
269.8110329575939
 51
450.1889670424061
 73
     1
 72
     2
 10
-1004.714461184689
 20
-1123.821949478444
 40
0.3157169230760134
 50
90.18896704249953
 51
180.0
 73
     1
 72
     1
 10
-1005.030178107766
 20
-1123.821949478444
 11
-1005.030178107766
 21
-1124.427484766951
 72
     2
 10
-1004.714461184689
 20
-1124.427484766951
 40
0.3157169230770478
 50
180.0
 51
244.6259913216321
 73
     1
 72
     2
 10
-1005.240503882777
 20
-1125.536626366918
 40
0.9118481501447065
 50
295.3740086782213
 51
424.6259913218032
 73
     0
 97
        8
330
1E4
330
145
330
1E1
330
1E2
330
1C0
330
144
330
1E3
330
1BF
 92
       16
 93
       12
 72
     2
 10
-1007.290009871221
 20
-1128.178227044513
 40
0.3157169230760246
 50
180.0
 51
270.0
 73
     1
 72
     1
 10
-1007.290009871221
 20
-1128.49394396759
 11
-1005.814176610211
 21
-1128.49394396759
 72
     2
 10
-1005.814176610211
 20
-1128.178227044513
 40
0.3157169230769341
 50
270.0
 51
360.0
 73
     1
 72
     1
 10
-1005.498459687135
 20
-1128.178227044513
 11
-1005.498459687135
 21
-1126.647456112981
 72
     2
 10
-1005.814176610211
 20
-1126.647456112981
 40
0.3157169230760246
 50
0.0
 51
64.80558935145919
 73
     1
 72
     2
 10
-1005.291592162636
 20
-1125.536626366918
 40
0.9118975235573348
 50
115.1944106485075
 51
244.8055893514378
 73
     0
 72
     2
 10
-1005.814176610211
 20
-1124.425796620856
 40
0.3157169230761294
 50
295.1944106484705
 51
360.0
 73
     1
 72
     1
 10
-1005.498459687135
 20
-1124.425796620856
 11
-1005.498459687135
 21
-1123.821772001796
 72
     2
 10
-1005.814176610211
 20
-1123.821772001796
 40
0.3157169230760246
 50
0.0
 51
90.0
 73
     1
 72
     1
 10
-1005.814176610211
 20
-1123.50605507872
 11
-1007.290009871221
 21
-1123.50605507872
 72
     2
 10
-1007.290009871221
 20
-1123.821772001796
 40
0.3157169230760246
 50
90.0
 51
180.0
 73
     1
 72
     1
 10
-1007.605726794297
 20
-1123.821772001796
 11
-1007.605726794297
 21
-1128.178227044513
 97
       12
330
1C8
330
180
330
1CB
330
17B
330
1D8
330
1D9
330
1CA
330
17A
330
1C9
330
179
330
1DA
330
178
 75
     1
 76
     0
 52
45.0
 41
0.1
 77
     0
 78
     1
 53
45.0
 43
0.0
 44
0.0
 45
-0.0707106781186548
 46
0.0707106781186548
 79
     0
 98
        1
 10
0.0
 20
0.0
  0
HATCH
  5
22F
330
A0
100
AcDbEntity
  8
1
  6
Continuous
 62
     2
100
AcDbHatch
 10
0.0
 20
0.0
 30
0.0
210
0.0
220
0.0
230
1.0
  2
_USER
 70
     0
 71
     1
 91
        4
 92
        1
 93
        8
 72
     1
 10
-1001.986347841867
 20
-1123.217744138563
 11
-1001.986347841867
 21
-1128.782254907763
 72
     2
 10
-1002.410592457251
 20
-1128.782254907763
 40
0.424244615383941
 50
0.0
 51
90.0
 73
     0
 72
     1
 10
-1002.410592457251
 20
-1129.206499523147
 11
-1007.883904547967
 21
-1129.206499523147
 72
     2
 10
-1007.883904547967
 20
-1128.782254907763
 40
0.4242446153830315
 50
90.0
 51
180.0
 73
     0
 72
     1
 10
-1008.30814916335
 20
-1128.782254907763
 11
-1008.30814916335
 21
-1123.217744138563
 72
     2
 10
-1007.883904547967
 20
-1123.217744138563
 40
0.424244615383941
 50
180.0
 51
270.0
 73
     0
 72
     1
 10
-1007.883904547967
 20
-1122.793499523179
 11
-1002.410592457251
 21
-1122.793499523179
 72
     2
 10
-1002.410592457251
 20
-1123.217744138563
 40
0.4242446153840547
 50
270.0
 51
360.0
 73
     0
 97
        8
330
17E
330
1CC
330
17F
330
1D7
330
17C
330
1CE
330
17D
330
1CD
 92
       16
 93
        1
 72
     2
 10
-1005.26431889745
 20
-1125.536626366918
 40
0.4709789327790759
 50
0.0
 51
360.0
 73
     1
 97
        1
330
1F2
 92
       16
 93
        8
 72
     2
 10
-1004.714461184689
 20
-1126.645767966887
 40
0.3157169230769098
 50
115.3740086782794
 51
180.0
 73
     1
 72
     1
 10
-1005.030178107766
 20
-1126.645767966887
 11
-1005.030178107766
 21
-1127.227619373582
 72
     2
 10
-1004.714461184689
 20
-1127.227619373582
 40
0.3157169230770478
 50
180.0
 51
269.8110329575005
 73
     1
 72
     2
 10
-1004.708845049379
 20
-1125.524784426013
 40
2.018561131933151
 50
269.8110329575939
 51
450.1889670424061
 73
     1
 72
     2
 10
-1004.714461184689
 20
-1123.821949478444
 40
0.3157169230760134
 50
90.18896704249953
 51
180.0
 73
     1
 72
     1
 10
-1005.030178107766
 20
-1123.821949478444
 11
-1005.030178107766
 21
-1124.427484766951
 72
     2
 10
-1004.714461184689
 20
-1124.427484766951
 40
0.3157169230770478
 50
180.0
 51
244.6259913216321
 73
     1
 72
     2
 10
-1005.240503882777
 20
-1125.536626366918
 40
0.9118481501447065
 50
295.3740086782213
 51
424.6259913218032
 73
     0
 97
        8
330
1E4
330
145
330
1E1
330
1E2
330
1C0
330
144
330
1E3
330
1BF
 92
       16
 93
       12
 72
     2
 10
-1007.290009871221
 20
-1128.178227044513
 40
0.3157169230760246
 50
180.0
 51
270.0
 73
     1
 72
     1
 10
-1007.290009871221
 20
-1128.49394396759
 11
-1005.814176610211
 21
-1128.49394396759
 72
     2
 10
-1005.814176610211
 20
-1128.178227044513
 40
0.3157169230769341
 50
270.0
 51
360.0
 73
     1
 72
     1
 10
-1005.498459687135
 20
-1128.178227044513
 11
-1005.498459687135
 21
-1126.647456112981
 72
     2
 10
-1005.814176610211
 20
-1126.647456112981
 40
0.3157169230760246
 50
0.0
 51
64.80558935145919
 73
     1
 72
     2
 10
-1005.291592162636
 20
-1125.536626366918
 40
0.9118975235573348
 50
115.1944106485075
 51
244.8055893514378
 73
     0
 72
     2
 10
-1005.814176610211
 20
-1124.425796620856
 40
0.3157169230761294
 50
295.1944106484705
 51
360.0
 73
     1
 72
     1
 10
-1005.498459687135
 20
-1124.425796620856
 11
-1005.498459687135
 21
-1123.821772001796
 72
     2
 10
-1005.814176610211
 20
-1123.821772001796
 40
0.3157169230760246
 50
0.0
 51
90.0
 73
     1
 72
     1
 10
-1005.814176610211
 20
-1123.50605507872
 11
-1007.290009871221
 21
-1123.50605507872
 72
     2
 10
-1007.290009871221
 20
-1123.821772001796
 40
0.3157169230760246
 50
90.0
 51
180.0
 73
     1
 72
     1
 10
-1007.605726794297
 20
-1123.821772001796
 11
-1007.605726794297
 21
-1128.178227044513
 97
       12
330
1C8
330
180
330
1CB
330
17B
330
1D8
330
1D9
330
1CA
330
17A
330
1C9
330
179
330
1DA
330
178
 75
     1
 76
     0
 52
45.0
 41
0.1
 77
     0
 78
     1
 53
45.0
 43
0.0
 44
0.0
 45
-0.0707106781186548
 46
0.0707106781186548
 79
     0
 98
        1
 10
0.0
 20
0.0
  0
HATCH
  5
230
330
A0
100
AcDbEntity
  8
1
  6
Continuous
 62
     2
100
AcDbHatch
 10
0.0
 20
0.0
 30
0.0
210
0.0
220
0.0
230
1.0
  2
_USER
 70
     0
 71
     1
 91
        1
 92
        1
 93
       18
 72
     1
 10
-980.3967999326456
 20
-1126.937955305459
 11
-981.207898970119
 21
-1126.937955305459
 72
     1
 10
-981.207898970119
 20
-1126.937955305459
 11
-981.207898970119
 21
-1129.206499523147
 72
     1
 10
-981.207898970119
 20
-1129.206499523147
 11
-982.4006916722867
 21
-1129.206499523147
 72
     1
 10
-982.4006916722867
 20
-1129.206499523147
 11
-982.4006916722867
 21
-1126.937955305459
 72
     1
 10
-982.4006916722867
 20
-1126.937955305459
 11
-983.5043309718549
 21
-1126.937955305459
 72
     2
 10
-983.5043309718549
 20
-1127.892478312285
 40
0.9545230068260935
 50
90.0
 51
109.3371432194401
 73
     1
 72
     2
 10
-983.6510009699585
 20
-1127.474523331902
 40
0.5115800601937612
 50
109.3371432195076
 51
151.4785267424451
 73
     1
 72
     2
 10
-983.2736437118772
 20
-1127.679594761241
 40
0.9410597353348766
 50
151.4785267423678
 51
208.5214732576808
 73
     1
 72
     2
 10
-983.6510009699585
 20
-1127.88466619058
 40
0.5115800601959901
 50
208.5214732576668
 51
246.6277221118294
 73
     1
 72
     2
 10
-983.4945609372554
 20
-1127.52267417187
 40
0.9059297849850417
 50
246.6277221118078
 51
288.4480761180943
 73
     1
 72
     2
 10
-983.9127286709173
 20
-1126.269128395833
 40
2.227384008972611
 50
288.4480761181346
 51
301.9309089499342
 73
     1
 72
     1
 10
-982.7346736288935
 20
-1128.159479114983
 11
-982.7346736288935
 21
-1129.031996121786
 72
     2
 10
-984.0706015460102
 20
-1124.366913815985
 40
4.852596863498941
 50
74.02000874166028
 51
84.84185523036345
 73
     0
 72
     2
 10
-983.7817454512743
 20
-1127.566804399206
 40
1.639695123940421
 50
84.84185523032548
 51
164.9381082228985
 73
     0
 72
     2
 10
-984.200873294736
 20
-1127.679594761241
 40
1.205656168392903
 50
164.9381082229203
 51
195.0618917770901
 73
     0
 72
     2
 10
-983.7817454512743
 20
-1127.792385123276
 40
1.639695123940101
 50
195.0618917771015
 51
270.0
 73
     0
 72
     1
 10
-983.7817454512743
 20
-1126.152689999336
 11
-980.3967999326456
 21
-1126.152689999336
 72
     1
 10
-980.3967999326456
 20
-1126.152689999336
 11
-980.3967999326456
 21
-1126.937955305459
 97
       18
330
147
330
1DD
330
1DE
330
1C6
330
1C5
330
1AB
330
1C4
330
1C3
330
1DF
330
1C2
330
1E0
330
1C1
330
1AC
330
146
330
14B
330
14A
330
149
330
148
 75
     1
 76
     0
 52
45.0
 41
0.1
 77
     0
 78
     1
 53
45.0
 43
0.0
 44
0.0
 45
-0.0707106781186548
 46
0.0707106781186548
 79
     0
 98
        1
 10
0.0
 20
0.0
  0
HATCH
  5
231
330
A0
100
AcDbEntity
  8
1
  6
Continuous
 62
     2
100
AcDbHatch
 10
0.0
 20
0.0
 30
0.0
210
0.0
220
0.0
230
1.0
  2
_USER
 70
     0
 71
     1
 91
        1
 92
        1
 93
       18
 72
     1
 10
-980.3967999326456
 20
-1126.937955305459
 11
-981.207898970119
 21
-1126.937955305459
 72
     1
 10
-981.207898970119
 20
-1126.937955305459
 11
-981.207898970119
 21
-1129.206499523147
 72
     1
 10
-981.207898970119
 20
-1129.206499523147
 11
-982.4006916722867
 21
-1129.206499523147
 72
     1
 10
-982.4006916722867
 20
-1129.206499523147
 11
-982.4006916722867
 21
-1126.937955305459
 72
     1
 10
-982.4006916722867
 20
-1126.937955305459
 11
-983.5043309718549
 21
-1126.937955305459
 72
     2
 10
-983.5043309718549
 20
-1127.892478312285
 40
0.9545230068260935
 50
90.0
 51
109.3371432194401
 73
     1
 72
     2
 10
-983.6510009699585
 20
-1127.474523331902
 40
0.5115800601937612
 50
109.3371432195076
 51
151.4785267424451
 73
     1
 72
     2
 10
-983.2736437118772
 20
-1127.679594761241
 40
0.9410597353348766
 50
151.4785267423678
 51
208.5214732576808
 73
     1
 72
     2
 10
-983.6510009699585
 20
-1127.88466619058
 40
0.5115800601959901
 50
208.5214732576668
 51
246.6277221118294
 73
     1
 72
     2
 10
-983.4945609372554
 20
-1127.52267417187
 40
0.9059297849850417
 50
246.6277221118078
 51
288.4480761180943
 73
     1
 72
     2
 10
-983.9127286709173
 20
-1126.269128395833
 40
2.227384008972611
 50
288.4480761181346
 51
301.9309089499342
 73
     1
 72
     1
 10
-982.7346736288935
 20
-1128.159479114983
 11
-982.7346736288935
 21
-1129.031996121786
 72
     2
 10
-984.0706015460102
 20
-1124.366913815985
 40
4.852596863498941
 50
74.02000874166028
 51
84.84185523036345
 73
     0
 72
     2
 10
-983.7817454512743
 20
-1127.566804399206
 40
1.639695123940421
 50
84.84185523032548
 51
164.9381082228985
 73
     0
 72
     2
 10
-984.200873294736
 20
-1127.679594761241
 40
1.205656168392903
 50
164.9381082229203
 51
195.0618917770901
 73
     0
 72
     2
 10
-983.7817454512743
 20
-1127.792385123276
 40
1.639695123940101
 50
195.0618917771015
 51
270.0
 73
     0
 72
     1
 10
-983.7817454512743
 20
-1126.152689999336
 11
-980.3967999326456
 21
-1126.152689999336
 72
     1
 10
-980.3967999326456
 20
-1126.152689999336
 11
-980.3967999326456
 21
-1126.937955305459
 97
       18
330
147
330
1DD
330
1DE
330
1C6
330
1C5
330
1AB
330
1C4
330
1C3
330
1DF
330
1C2
330
1E0
330
1C1
330
1AC
330
146
330
14B
330
14A
330
149
330
148
 75
     1
 76
     0
 52
45.0
 41
0.1
 77
     0
 78
     1
 53
45.0
 43
0.0
 44
0.0
 45
-0.0707106781186548
 46
0.0707106781186548
 79
     0
 98
        1
 10
0.0
 20
0.0
  0
HATCH
  5
232
330
A0
100
AcDbEntity
  8
1
  6
Continuous
 62
     2
100
AcDbHatch
 10
0.0
 20
0.0
 30
0.0
210
0.0
220
0.0
230
1.0
  2
_USER
 70
     0
 71
     1
 91
        1
 92
        1
 93
       14
 72
     2
 10
-999.8844469305272
 20
-1127.792385123276
 40
1.63969512394045
 50
84.84185523036217
 51
164.9381082228872
 73
     1
 72
     2
 10
-1000.30357477399
 20
-1127.679594761241
 40
1.205656168390598
 50
164.9381082228804
 51
195.0618917771091
 73
     1
 72
     2
 10
-999.8844469305272
 20
-1127.566804399206
 40
1.639695123939213
 50
195.0618917771128
 51
275.1581447696378
 73
     1
 72
     2
 10
-1000.173303025263
 20
-1124.366913815985
 40
4.852596863497922
 50
275.1581447696228
 51
285.9799912583501
 73
     1
 72
     1
 10
-998.8373751081454
 20
-1129.031996121786
 11
-998.8373751081454
 21
-1128.159479114982
 72
     2
 10
-1000.01543015017
 20
-1126.269128395833
 40
2.227384008972539
 50
58.06909105003603
 51
71.55192388187089
 73
     0
 72
     2
 10
-999.5972624165095
 20
-1127.52267417187
 40
0.9059297849846357
 50
71.55192388183757
 51
113.3722778881328
 73
     0
 72
     2
 10
-999.7537024492115
 20
-1127.88466619058
 40
0.5115800601949478
 50
113.3722778881823
 51
151.4785267424147
 73
     0
 72
     2
 10
-999.3763451911311
 20
-1127.679594761241
 40
0.9410597353334782
 50
151.4785267423337
 51
208.5214732576785
 73
     0
 72
     2
 10
-999.7537024492115
 20
-1127.474523331902
 40
0.5115800601943187
 50
208.5214732575853
 51
246.6277221117773
 73
     0
 72
     2
 10
-999.5972624165095
 20
-1127.836515350613
 40
0.9059297849856105
 50
246.6277221118672
 51
288.4480761181443
 73
     0
 72
     2
 10
-1000.01543015017
 20
-1129.09006112665
 40
2.227384008974298
 50
288.4480761181217
 51
301.9309089499392
 73
     0
 72
     1
 10
-998.8373751081454
 20
-1127.199710407499
 11
-998.8373751081454
 21
-1126.327193400696
 72
     2
 10
-1000.173303025263
 20
-1130.992275706497
 40
4.852596863498095
 50
74.02000874164992
 51
84.84185523037718
 73
     1
 97
       14
330
1E5
330
1E6
330
1E7
330
1E8
330
1AD
330
1BE
330
1BD
330
1BC
330
1E9
330
1EA
330
1BB
330
1EB
330
1AE
330
1BA
 75
     1
 76
     0
 52
45.0
 41
0.1
 77
     0
 78
     1
 53
45.0
 43
0.0
 44
0.0
 45
-0.0707106781186548
 46
0.0707106781186548
 79
     0
 98
        1
 10
0.0
 20
0.0
  0
HATCH
  5
233
330
A0
100
AcDbEntity
  8
1
  6
Continuous
 62
     2
100
AcDbHatch
 10
0.0
 20
0.0
 30
0.0
210
0.0
220
0.0
230
1.0
  2
_USER
 70
     0
 71
     1
 91
        1
 92
        1
 93
       14
 72
     2
 10
-999.8844469305272
 20
-1127.792385123276
 40
1.63969512394045
 50
84.84185523036217
 51
164.9381082228872
 73
     1
 72
     2
 10
-1000.30357477399
 20
-1127.679594761241
 40
1.205656168390598
 50
164.9381082228804
 51
195.0618917771091
 73
     1
 72
     2
 10
-999.8844469305272
 20
-1127.566804399206
 40
1.639695123939213
 50
195.0618917771128
 51
275.1581447696378
 73
     1
 72
     2
 10
-1000.173303025263
 20
-1124.366913815985
 40
4.852596863497922
 50
275.1581447696228
 51
285.9799912583501
 73
     1
 72
     1
 10
-998.8373751081454
 20
-1129.031996121786
 11
-998.8373751081454
 21
-1128.159479114982
 72
     2
 10
-1000.01543015017
 20
-1126.269128395833
 40
2.227384008972539
 50
58.06909105003603
 51
71.55192388187089
 73
     0
 72
     2
 10
-999.5972624165095
 20
-1127.52267417187
 40
0.9059297849846357
 50
71.55192388183757
 51
113.3722778881328
 73
     0
 72
     2
 10
-999.7537024492115
 20
-1127.88466619058
 40
0.5115800601949478
 50
113.3722778881823
 51
151.4785267424147
 73
     0
 72
     2
 10
-999.3763451911311
 20
-1127.679594761241
 40
0.9410597353334782
 50
151.4785267423337
 51
208.5214732576785
 73
     0
 72
     2
 10
-999.7537024492115
 20
-1127.474523331902
 40
0.5115800601943187
 50
208.5214732575853
 51
246.6277221117773
 73
     0
 72
     2
 10
-999.5972624165095
 20
-1127.836515350613
 40
0.9059297849856105
 50
246.6277221118672
 51
288.4480761181443
 73
     0
 72
     2
 10
-1000.01543015017
 20
-1129.09006112665
 40
2.227384008974298
 50
288.4480761181217
 51
301.9309089499392
 73
     0
 72
     1
 10
-998.8373751081454
 20
-1127.199710407499
 11
-998.8373751081454
 21
-1126.327193400696
 72
     2
 10
-1000.173303025263
 20
-1130.992275706497
 40
4.852596863498095
 50
74.02000874164992
 51
84.84185523037718
 73
     1
 97
       14
330
1E5
330
1E6
330
1E7
330
1E8
330
1AD
330
1BE
330
1BD
330
1BC
330
1E9
330
1EA
330
1BB
330
1EB
330
1AE
330
1BA
 75
     1
 76
     0
 52
45.0
 41
0.1
 77
     0
 78
     1
 53
45.0
 43
0.0
 44
0.0
 45
-0.0707106781186548
 46
0.0707106781186548
 79
     0
 98
        1
 10
0.0
 20
0.0
  0
ENDBLK
  5
A2
330
A0
100
AcDbEntity
  8
0
100
AcDbBlockEnd
  0
BLOCK
  5
A4
330
A3
100
AcDbEntity
  8
0
100
AcDbBlockBegin
  2
_punkt
 70
     0
 10
-882.9999995231627
 20
-1136.499999523163
 30
0.0
  3
_punkt
  1

  0
LINE
  5
234
330
A3
100
AcDbEntity
  8
1
  6
Continuous
 62
     2
100
AcDbLine
 10
-882.9999995231627
 20
-1136.499999523163
 30
0.0
 11
-877.9999995231638
 21
-1136.499999523163
 31
0.0
  0
LINE
  5
235
330
A3
100
AcDbEntity
  8
1
  6
Continuous
 62
     2
100
AcDbLine
 10
-882.9999995231627
 20
-1136.499999523163
 30
0.0
 11
-882.9999995231627
 21
-1141.499999523163
 31
0.0
  0
ENDBLK
  5
A5
330
A3
100
AcDbEntity
  8
0
100
AcDbBlockEnd
  0
BLOCK
  5
A9
330
A6
100
AcDbEntity
  8
0
100
AcDbBlockBegin
  2
A4I_CS
 70
     0
 10
-882.9999995231627
 20
-1141.499999523163
 30
0.0
  3
A4I_CS
  1

  0
INSERT
  5
A7
330
A6
100
AcDbEntity
  8
1
100
AcDbBlockReference
  2
_rahmen
 10
-882.9999995231627
 20
-1141.499999523163
 30
0.0
  0
INSERT
  5
A8
330
A6
100
AcDbEntity
  8
1
100
AcDbBlockReference
  2
_punkt
 10
-882.9999995231627
 20
-1136.499999523163
 30
0.0
  0
ENDBLK
  5
AA
330
A6
100
AcDbEntity
  8
0
100
AcDbBlockEnd
  0
BLOCK
  5
B3
330
AB
100
AcDbEntity
  8
0
100
AcDbBlockBegin
  2
1
 70
     0
 10
0.0
 20
0.0
 30
0.0
  3
1
  1

  0
INSERT
  5
AC
330
AB
100
AcDbEntity
  8
0
100
AcDbBlockReference
  2
Allg1
 10
-977.7612099999958
 20
-1043.618062953745
 30
0.0
  0
INSERT
  5
AD
330
AB
100
AcDbEntity
  8
0
100
AcDbBlockReference
  2
Drfsicht1
 10
-1037.999998
 20
-1039.775
 30
0.0
  0
INSERT
  5
AE
330
AB
100
AcDbEntity
  8
0
100
AcDbBlockReference
  2
Rckans1
 10
-968.0000019999959
 20
-986.0249999999991
 30
0.0
  0
INSERT
  5
AF
330
AB
100
AcDbEntity
  8
0
100
AcDbBlockReference
  2
SA_Links1
 10
-1000.975
 20
-986.0249999999991
 30
0.0
  0
INSERT
  5
B0
330
AB
100
AcDbEntity
  8
0
100
AcDbBlockReference
  2
SA_Rechts1
 10
-1125.024998
 20
-986.025
 30
0.0
  0
INSERT
  5
B1
330
AB
100
AcDbEntity
  8
0
100
AcDbBlockReference
  2
Vordans1
 10
-1037.999998
 20
-986.025
 30
0.0
  0
INSERT
  5
B2
330
AB
100
AcDbEntity
  8
0
100
AcDbBlockReference
  2
A4I_CS
 10
-882.9999995231627
 20
-1141.499999523163
 30
0.0
  0
ENDBLK
  5
B4
330
AB
100
AcDbEntity
  8
0
100
AcDbBlockEnd
  0
BLOCK
  5
CD
330
C6
100
AcDbEntity
  8
0
100
AcDbBlockBegin
  2
*D17
 70
     1
 10
0.0
 20
0.0
 30
0.0
  3
*D17
  1

  0
LINE
  5
C7
330
C6
100
AcDbEntity
  8
1
  6
Continuous
 62
     2
100
AcDbLine
 10
-1091.749998944455
 20
-1028.962499793322
 30
0.0
 11
-1091.749998944455
 21
-1042.962499793322
 31
0.0
  0
LINE
  5
C8
330
C6
100
AcDbEntity
  8
1
  6
Continuous
 62
     2
100
AcDbLine
 10
-1081.499998944455
 20
-1028.962499793322
 30
0.0
 11
-1093.249998944455
 21
-1028.962499793322
 31
0.0
  0
LINE
  5
C9
330
C6
100
AcDbEntity
  8
1
  6
Continuous
 62
     2
100
AcDbLine
 10
-1081.499998944455
 20
-1042.962499793322
 30
0.0
 11
-1093.249998944455
 21
-1042.962499793322
 31
0.0
  0
SOLID
  5
CA
330
C6
100
AcDbEntity
  8
1
 62
     2
100
AcDbTrace
 10
-1091.289215202899
 20
-1032.462499793322
 30
0.0
 11
-1092.210782686011
 21
-1032.462499793322
 31
0.0
 12
-1091.749998944455
 22
-1028.962499793322
 32
0.0
 13
-1091.749998944455
 23
-1028.962499793322
 33
0.0
  0
SOLID
  5
CB
330
C6
100
AcDbEntity
  8
1
 62
     2
100
AcDbTrace
 10
-1092.210782686011
 20
-1039.462499793322
 30
0.0
 11
-1091.289215202899
 21
-1039.462499793322
 31
0.0
 12
-1091.749998944455
 22
-1042.962499793322
 32
0.0
 13
-1091.749998944455
 23
-1042.962499793322
 33
0.0
  0
MTEXT
  5
CC
330
C6
100
AcDbEntity
  8
1
 62
     3
100
AcDbMText
 10
-1093.249998944455
 20
-1039.120746812249
 30
0.0
 40
3.5
 41
0.0
 71
     7
 72
     1
  1
14
  7
CONVERTER_11
 11
0.0
 21
1.0
 31
0.0
 73
     1
 44
0.60024009603842
  0
ENDBLK
  5
CE
330
C6
100
AcDbEntity
  8
0
100
AcDbBlockEnd
  0
BLOCK
  5
EC
330
E5
100
AcDbEntity
  8
0
100
AcDbBlockBegin
  2
*D18
 70
     1
 10
0.0
 20
0.0
 30
0.0
  3
*D18
  1

  0
LINE
  5
E6
330
E5
100
AcDbEntity
  8
1
  6
Continuous
 62
     2
100
AcDbLine
 10
-1081.499998944455
 20
-996.074999988084
 30
0.0
 11
-1025.499998944455
 21
-996.074999988084
 31
0.0
  0
LINE
  5
E7
330
E5
100
AcDbEntity
  8
1
  6
Continuous
 62
     2
100
AcDbLine
 10
-1081.499998944455
 20
-986.074999988084
 30
0.0
 11
-1081.499998944455
 21
-997.574999988084
 31
0.0
  0
LINE
  5
E8
330
E5
100
AcDbEntity
  8
1
  6
Continuous
 62
     2
100
AcDbLine
 10
-1025.499998944455
 20
-986.0749999880841
 30
0.0
 11
-1025.499998944455
 21
-997.574999988084
 31
0.0
  0
SOLID
  5
E9
330
E5
100
AcDbEntity
  8
1
 62
     2
100
AcDbTrace
 10
-1077.999998944455
 20
-995.614216246528
 30
0.0
 11
-1077.999998944455
 21
-996.5357837296399
 31
0.0
 12
-1081.499998944455
 22
-996.074999988084
 32
0.0
 13
-1081.499998944455
 23
-996.074999988084
 33
0.0
  0
SOLID
  5
EA
330
E5
100
AcDbEntity
  8
1
 62
     2
100
AcDbTrace
 10
-1028.999998944455
 20
-996.5357837296399
 30
0.0
 11
-1028.999998944455
 21
-995.614216246528
 31
0.0
 12
-1025.499998944455
 22
-996.074999988084
 32
0.0
 13
-1025.499998944455
 23
-996.074999988084
 33
0.0
  0
MTEXT
  5
EB
330
E5
100
AcDbEntity
  8
1
 62
     3
100
AcDbMText
 10
-1056.124996828876
 20
-994.574999988084
 30
0.0
 40
3.5
 41
0.0
 71
     7
 72
     1
  1
56
  7
CONVERTER_11
 11
0.9999999999970619
 21
2.424068405545306E-6
 31
0.0
 73
     1
 44
0.60024009603842
  0
ENDBLK
  5
ED
330
E5
100
AcDbEntity
  8
0
100
AcDbBlockEnd
  0
BLOCK
  5
F9
330
F0
100
AcDbEntity
  8
0
100
AcDbBlockBegin
  2
*D19
 70
     1
 10
0.0
 20
0.0
 30
0.0
  3
*D19
  1

  0
LINE
  5
F1
330
F0
100
AcDbEntity
  8
1
  6
Continuous
 62
     2
100
AcDbLine
 10
-1091.499998944455
 20
-978.924999988084
 30
0.0
 11
-1091.499998944455
 21
-985.924999988084
 31
0.0
  0
LINE
  5
F2
330
F0
100
AcDbEntity
  8
1
  6
Continuous
 62
     2
100
AcDbLine
 10
-1091.499998944455
 20
-985.924999988084
 30
0.0
 11
-1091.499998944455
 21
-986.074999988084
 31
0.0
  0
LINE
  5
F3
330
F0
100
AcDbEntity
  8
1
  6
Continuous
 62
     2
100
AcDbLine
 10
-1091.499998944455
 20
-986.074999988084
 30
0.0
 11
-1091.499998944455
 21
-993.074999988084
 31
0.0
  0
LINE
  5
F4
330
F0
100
AcDbEntity
  8
1
  6
Continuous
 62
     2
100
AcDbLine
 10
-1081.499998944455
 20
-985.924999988084
 30
0.0
 11
-1092.999998944455
 21
-985.924999988084
 31
0.0
  0
LINE
  5
F5
330
F0
100
AcDbEntity
  8
1
  6
Continuous
 62
     2
100
AcDbLine
 10
-1081.499998944455
 20
-986.074999988084
 30
0.0
 11
-1092.999998944455
 21
-986.074999988084
 31
0.0
  0
SOLID
  5
F6
330
F0
100
AcDbEntity
  8
1
 62
     2
100
AcDbTrace
 10
-1091.960782686011
 20
-982.424999988084
 30
0.0
 11
-1091.039215202899
 21
-982.424999988084
 31
0.0
 12
-1091.499998944455
 22
-985.924999988084
 32
0.0
 13
-1091.499998944455
 23
-985.924999988084
 33
0.0
  0
SOLID
  5
F7
330
F0
100
AcDbEntity
  8
1
 62
     2
100
AcDbTrace
 10
-1091.039215202899
 20
-989.574999988084
 30
0.0
 11
-1091.960782686011
 21
-989.574999988084
 31
0.0
 12
-1091.499998944455
 22
-986.074999988084
 32
0.0
 13
-1091.499998944455
 23
-986.074999988084
 33
0.0
  0
MTEXT
  5
F8
330
F0
100
AcDbEntity
  8
1
 62
     3
100
AcDbMText
 10
-1093.349998944455
 20
-987.0720101705429
 30
0.0
 40
3.5
 41
0.0
 71
     7
 72
     1
  1
0,15
  7
CONVERTER_11
 11
0.0
 21
1.0
 31
0.0
 73
     1
 44
0.60024009603842
  0
ENDBLK
  5
FA
330
F0
100
AcDbEntity
  8
0
100
AcDbBlockEnd
  0
ENDSEC
  0
SECTION
  2
ENTITIES
  0
INSERT
  5
B5
330
1F
100
AcDbEntity
  8
1
100
AcDbBlockReference
  2
1
 10
0.0
 20
0.0
 30
0.0
  0
ENDSEC
  0
SECTION
  2
OBJECTS
  0
DICTIONARY
  5
C
330
0
100
AcDbDictionary
281
     1
  3
ACAD_DETAILVIEWSTYLE
350
27B
  3
ACAD_GROUP
350
D
  3
ACAD_LAYOUT
350
1A
  3
ACAD_MATERIAL
350
43
  3
ACAD_MLEADERSTYLE
350
6B
  3
ACAD_MLINESTYLE
350
17
  3
ACAD_PLOTSETTINGS
350
19
  3
ACAD_PLOTSTYLENAME
350
E
  3
ACAD_SCALELIST
350
47
  3
ACAD_SECTIONVIEWSTYLE
350
27C
  3
ACAD_TABLESTYLE
350
69
  3
ACAD_VISUALSTYLE
350
2A
  3
ACDB_RECOMPOSE_DATA
350
278
  3
AcDbVariableDictionary
350
238
  0
DICTIONARY
  5
236
330
8
100
AcDbDictionary
280
     1
281
     1
  3
ACAD_XREC_ROUNDTRIP
360
237
  0
DICTIONARY
  5
27B
102
{ACAD_REACTORS
330
C
102
}
330
C
100
AcDbDictionary
281
     1
  0
DICTIONARY
  5
D
102
{ACAD_REACTORS
330
C
102
}
330
C
100
AcDbDictionary
281
     1
  0
DICTIONARY
  5
1A
102
{ACAD_REACTORS
330
C
102
}
330
C
100
AcDbDictionary
281
     1
  3
Layout1
350
1E
  3
Layout2
350
26
  3
Model
350
22
  0
DICTIONARY
  5
43
102
{ACAD_REACTORS
330
C
102
}
330
C
100
AcDbDictionary
281
     1
  3
ByBlock
350
45
  3
ByLayer
350
44
  3
Global
350
46
  0
DICTIONARY
  5
6B
102
{ACAD_REACTORS
330
C
102
}
330
C
100
AcDbDictionary
281
     1
  3
Standard
350
6C
  0
DICTIONARY
  5
17
102
{ACAD_REACTORS
330
C
102
}
330
C
100
AcDbDictionary
281
     1
  3
Standard
350
18
  0
DICTIONARY
  5
19
102
{ACAD_REACTORS
330
C
102
}
330
C
100
AcDbDictionary
281
     1
  0
ACDBDICTIONARYWDFLT
  5
E
102
{ACAD_REACTORS
330
C
102
}
330
C
100
AcDbDictionary
281
     1
  3
Normal
350
F
100
AcDbDictionaryWithDefault
340
F
  0
DICTIONARY
  5
47
102
{ACAD_REACTORS
330
C
102
}
330
C
100
AcDbDictionary
281
     1
  3
A0
350
48
  3
A1
350
49
  3
A2
350
4A
  3
A3
350
4B
  3
A4
350
4C
  3
A5
350
4D
  3
A6
350
4E
  3
A7
350
4F
  3
A8
350
50
  3
A9
350
51
  3
B0
350
52
  3
B1
350
53
  3
B2
350
54
  3
B3
350
55
  3
B4
350
56
  3
B5
350
57
  3
B6
350
58
  3
B7
350
59
  3
B8
350
5A
  3
B9
350
5B
  3
C0
350
5C
  3
C1
350
5D
  3
C2
350
5E
  3
C3
350
5F
  3
C4
350
60
  3
C5
350
61
  3
C6
350
62
  3
C7
350
63
  3
C8
350
64
  3
C9
350
65
  3
D0
350
66
  3
D1
350
67
  3
D2
350
68
  0
DICTIONARY
  5
27C
102
{ACAD_REACTORS
330
C
102
}
330
C
100
AcDbDictionary
281
     1
  0
DICTIONARY
  5
69
102
{ACAD_REACTORS
330
C
102
}
330
C
100
AcDbDictionary
281
     1
  3
Standard
350
6A
  0
DICTIONARY
  5
2A
102
{ACAD_REACTORS
330
C
102
}
330
C
100
AcDbDictionary
281
     1
  3
2dWireframe
350
2F
  3
Basic
350
32
  3
Brighten
350
36
  3
ColorChange
350
3A
  3
Conceptual
350
34
  3
Dim
350
35
  3
EdgeColorOff
350
3D
  3
Facepattern
350
39
  3
Flat
350
2B
  3
FlatWithEdges
350
2C
  3
Gouraud
350
2D
  3
GouraudWithEdges
350
2E
  3
Hidden
350
31
  3
JitterOff
350
3B
  3
Linepattern
350
38
  3
OverhangOff
350
3C
  3
Realistic
350
33
  3
Shaded
350
42
  3
Shaded with edges
350
41
  3
Shades of Gray
350
3E
  3
Sketchy
350
3F
  3
Thicken
350
37
  3
Wireframe
350
30
  3
X-Ray
350
40
  0
XRECORD
  5
278
102
{ACAD_REACTORS
330
C
102
}
330
C
100
AcDbXrecord
280
     1
 90
        1
330
6A
  0
DICTIONARY
  5
238
102
{ACAD_REACTORS
330
C
102
}
330
C
100
AcDbDictionary
281
     1
  3
CANNOSCALE
350
239
  3
CMLEADERSTYLE
350
27A
  3
CTABLESTYLE
350
279
  3
MSLTSCALE
350
23A
  3
XCLIPFRAME
350
23B
  0
XRECORD
  5
237
102
{ACAD_REACTORS
330
236
102
}
330
236
100
AcDbXrecord
280
     1
102
VTR_0.000_0.000_1.000_1.000_VISUALSTYLE
340
2F
102
VTR_0.000_0.000_1.000_1.000_GRIDDISPLAY
 70
     3
102
VTR_0.000_0.000_1.000_1.000_GRIDMAJOR
 70
     5
102
VTR_0.000_0.000_1.000_1.000_DEFAULTLIGHTING
280
     1
102
VTR_0.000_0.000_1.000_1.000_DEFAULTLIGHTINGTYPE
 70
     1
102
VTR_0.000_0.000_1.000_1.000_BRIGHTNESS
141
0.0
102
VTR_0.000_0.000_1.000_1.000_CONTRAST
142
0.0
  0
LAYOUT
  5
1E
102
{ACAD_REACTORS
330
1A
102
}
330
1A
100
AcDbPlotSettings
  1

  2
none_device
  4

  6

 40
0.0
 41
0.0
 42
0.0
 43
0.0
 44
0.0
 45
0.0
 46
0.0
 47
0.0
 48
0.0
 49
0.0
140
0.0
141
0.0
142
1.0
143
1.0
 70
   688
 72
     0
 73
     0
 74
     5
  7

 75
    16
 76
     0
 77
     2
 78
   300
147
1.0
148
0.0
149
0.0
100
AcDbLayout
  1
Layout1
 70
     1
 71
     1
 10
0.0
 20
0.0
 11
12.0
 21
9.0
 12
0.0
 22
0.0
 32
0.0
 14
1.00000000000000E+20
 24
1.00000000000000E+20
 34
1.00000000000000E+20
 15
-1.00000000000000E+20
 25
-1.00000000000000E+20
 35
-1.00000000000000E+20
146
0.0
 13
0.0
 23
0.0
 33
0.0
 16
1.0
 26
0.0
 36
0.0
 17
0.0
 27
1.0
 37
0.0
 76
     0
330
1B
  0
LAYOUT
  5
26
102
{ACAD_REACTORS
330
1A
102
}
330
1A
100
AcDbPlotSettings
  1

  2
none_device
  4

  6

 40
0.0
 41
0.0
 42
0.0
 43
0.0
 44
0.0
 45
0.0
 46
0.0
 47
0.0
 48
0.0
 49
0.0
140
0.0
141
0.0
142
1.0
143
1.0
 70
   688
 72
     0
 73
     0
 74
     5
  7

 75
    16
 76
     0
 77
     2
 78
   300
147
1.0
148
0.0
149
0.0
100
AcDbLayout
  1
Layout2
 70
     1
 71
     2
 10
0.0
 20
0.0
 11
0.0
 21
0.0
 12
0.0
 22
0.0
 32
0.0
 14
0.0
 24
0.0
 34
0.0
 15
0.0
 25
0.0
 35
0.0
146
0.0
 13
0.0
 23
0.0
 33
0.0
 16
1.0
 26
0.0
 36
0.0
 17
0.0
 27
1.0
 37
0.0
 76
     0
330
23
  0
LAYOUT
  5
22
102
{ACAD_REACTORS
330
1A
102
}
330
1A
100
AcDbPlotSettings
  1

  2
none_device
  4
Letter_(8.50_x_11.00_Inches)
  6

 40
6.35
 41
6.35
 42
6.35000508
 43
6.35000508
 44
215.9
 45
279.4
 46
0.0
 47
0.0
 48
0.0
 49
0.0
140
0.0
141
0.0
142
1.0
143
1.0
 70
  1712
 72
     0
 73
     0
 74
     0
  7

 75
     0
 76
     0
 77
     2
 78
   300
147
1.0
148
0.0
149
0.0
100
AcDbLayout
  1
Model
 70
     1
 71
     0
 10
0.0
 20
0.0
 11
12.0
 21
9.0
 12
0.0
 22
0.0
 32
0.0
 14
-1174.999999523162
 24
-1141.499999523163
 34
0.0
 15
-877.9999995231638
 25
-931.4999995231628
 35
0.0
146
0.0
 13
0.0
 23
0.0
 33
0.0
 16
1.0
 26
0.0
 36
0.0
 17
0.0
 27
1.0
 37
0.0
 76
     0
330
1F
331
29
  0
MATERIAL
  5
45
102
{ACAD_REACTORS
330
43
102
}
102
{ACAD_XDICTIONARY
360
26E
102
}
330
43
100
AcDbMaterial
  1
ByBlock
  0
MATERIAL
  5
44
102
{ACAD_REACTORS
330
43
102
}
102
{ACAD_XDICTIONARY
360
26C
102
}
330
43
100
AcDbMaterial
  1
ByLayer
  0
MATERIAL
  5
46
102
{ACAD_REACTORS
330
43
102
}
102
{ACAD_XDICTIONARY
360
270
102
}
330
43
100
AcDbMaterial
  1
Global
  0
MLEADERSTYLE
  5
6C
102
{ACAD_REACTORS
330
6B
102
}
102
{ACAD_XDICTIONARY
360
276
102
}
330
6B
100
AcDbMLeaderStyle
170
     2
171
     1
172
     0
 90
        2
 40
0.0
 41
0.0
173
     1
 91
-1056964608
340
14
 92
       -2
290
     1
 42
0.09
291
     1
 43
0.36
  3
Standard
341
0
 44
0.18
300

342
11
174
     1
178
     6
175
     1
176
     0
 93
-1056964608
 45
0.18
292
     0
297
     0
 46
0.18
343
0
 94
-1056964608
 47
1.0
 49
1.0
140
1.0
293
     1
141
0.0
294
     1
177
     0
142
1.0
295
     0
296
     0
143
0.125
1001
ACAD_MLEADERVER
1070
     2
  0
MLINESTYLE
  5
18
102
{ACAD_REACTORS
330
17
102
}
330
17
100
AcDbMlineStyle
  2
Standard
 70
     0
  3

 62
   256
 51
90.0
 52
90.0
 71
     2
 49
0.5
 62
   256
  6
BYLAYER
 49
-0.5
 62
   256
  6
BYLAYER
  0
ACDBPLACEHOLDER
  5
F
102
{ACAD_REACTORS
330
E
102
}
330
E
  0
SCALE
  5
48
102
{ACAD_REACTORS
330
47
102
}
330
47
100
AcDbScale
 70
     0
300
1:1
140
1.0
141
1.0
290
     1
  0
SCALE
  5
49
102
{ACAD_REACTORS
330
47
102
}
330
47
100
AcDbScale
 70
     0
300
1:2
140
1.0
141
2.0
290
     0
  0
SCALE
  5
4A
102
{ACAD_REACTORS
330
47
102
}
330
47
100
AcDbScale
 70
     0
300
1:4
140
1.0
141
4.0
290
     0
  0
SCALE
  5
4B
102
{ACAD_REACTORS
330
47
102
}
330
47
100
AcDbScale
 70
     0
300
1:5
140
1.0
141
5.0
290
     0
  0
SCALE
  5
4C
102
{ACAD_REACTORS
330
47
102
}
330
47
100
AcDbScale
 70
     0
300
1:8
140
1.0
141
8.0
290
     0
  0
SCALE
  5
4D
102
{ACAD_REACTORS
330
47
102
}
330
47
100
AcDbScale
 70
     0
300
1:10
140
1.0
141
10.0
290
     0
  0
SCALE
  5
4E
102
{ACAD_REACTORS
330
47
102
}
330
47
100
AcDbScale
 70
     0
300
1:16
140
1.0
141
16.0
290
     0
  0
SCALE
  5
4F
102
{ACAD_REACTORS
330
47
102
}
330
47
100
AcDbScale
 70
     0
300
1:20
140
1.0
141
20.0
290
     0
  0
SCALE
  5
50
102
{ACAD_REACTORS
330
47
102
}
330
47
100
AcDbScale
 70
     0
300
1:30
140
1.0
141
30.0
290
     0
  0
SCALE
  5
51
102
{ACAD_REACTORS
330
47
102
}
330
47
100
AcDbScale
 70
     0
300
1:40
140
1.0
141
40.0
290
     0
  0
SCALE
  5
52
102
{ACAD_REACTORS
330
47
102
}
330
47
100
AcDbScale
 70
     0
300
1:50
140
1.0
141
50.0
290
     0
  0
SCALE
  5
53
102
{ACAD_REACTORS
330
47
102
}
330
47
100
AcDbScale
 70
     0
300
1:100
140
1.0
141
100.0
290
     0
  0
SCALE
  5
54
102
{ACAD_REACTORS
330
47
102
}
330
47
100
AcDbScale
 70
     0
300
2:1
140
2.0
141
1.0
290
     0
  0
SCALE
  5
55
102
{ACAD_REACTORS
330
47
102
}
330
47
100
AcDbScale
 70
     0
300
4:1
140
4.0
141
1.0
290
     0
  0
SCALE
  5
56
102
{ACAD_REACTORS
330
47
102
}
330
47
100
AcDbScale
 70
     0
300
8:1
140
8.0
141
1.0
290
     0
  0
SCALE
  5
57
102
{ACAD_REACTORS
330
47
102
}
330
47
100
AcDbScale
 70
     0
300
10:1
140
10.0
141
1.0
290
     0
  0
SCALE
  5
58
102
{ACAD_REACTORS
330
47
102
}
330
47
100
AcDbScale
 70
     0
300
100:1
140
100.0
141
1.0
290
     0
  0
SCALE
  5
59
102
{ACAD_REACTORS
330
47
102
}
330
47
100
AcDbScale
 70
     0
300
1/128" = 1'-0"
140
0.0078125
141
12.0
290
     0
  0
SCALE
  5
5A
102
{ACAD_REACTORS
330
47
102
}
330
47
100
AcDbScale
 70
     0
300
1/64" = 1'-0"
140
0.015625
141
12.0
290
     0
  0
SCALE
  5
5B
102
{ACAD_REACTORS
330
47
102
}
330
47
100
AcDbScale
 70
     0
300
1/32" = 1'-0"
140
0.03125
141
12.0
290
     0
  0
SCALE
  5
5C
102
{ACAD_REACTORS
330
47
102
}
330
47
100
AcDbScale
 70
     0
300
1/16" = 1'-0"
140
0.0625
141
12.0
290
     0
  0
SCALE
  5
5D
102
{ACAD_REACTORS
330
47
102
}
330
47
100
AcDbScale
 70
     0
300
3/32" = 1'-0"
140
0.09375
141
12.0
290
     0
  0
SCALE
  5
5E
102
{ACAD_REACTORS
330
47
102
}
330
47
100
AcDbScale
 70
     0
300
1/8" = 1'-0"
140
0.125
141
12.0
290
     0
  0
SCALE
  5
5F
102
{ACAD_REACTORS
330
47
102
}
330
47
100
AcDbScale
 70
     0
300
3/16" = 1'-0"
140
0.1875
141
12.0
290
     0
  0
SCALE
  5
60
102
{ACAD_REACTORS
330
47
102
}
330
47
100
AcDbScale
 70
     0
300
1/4" = 1'-0"
140
0.25
141
12.0
290
     0
  0
SCALE
  5
61
102
{ACAD_REACTORS
330
47
102
}
330
47
100
AcDbScale
 70
     0
300
3/8" = 1'-0"
140
0.375
141
12.0
290
     0
  0
SCALE
  5
62
102
{ACAD_REACTORS
330
47
102
}
330
47
100
AcDbScale
 70
     0
300
1/2" = 1'-0"
140
0.5
141
12.0
290
     0
  0
SCALE
  5
63
102
{ACAD_REACTORS
330
47
102
}
330
47
100
AcDbScale
 70
     0
300
3/4" = 1'-0"
140
0.75
141
12.0
290
     0
  0
SCALE
  5
64
102
{ACAD_REACTORS
330
47
102
}
330
47
100
AcDbScale
 70
     0
300
1" = 1'-0"
140
1.0
141
12.0
290
     0
  0
SCALE
  5
65
102
{ACAD_REACTORS
330
47
102
}
330
47
100
AcDbScale
 70
     0
300
1-1/2" = 1'-0"
140
1.5
141
12.0
290
     0
  0
SCALE
  5
66
102
{ACAD_REACTORS
330
47
102
}
330
47
100
AcDbScale
 70
     0
300
3" = 1'-0"
140
3.0
141
12.0
290
     0
  0
SCALE
  5
67
102
{ACAD_REACTORS
330
47
102
}
330
47
100
AcDbScale
 70
     0
300
6" = 1'-0"
140
6.0
141
12.0
290
     0
  0
SCALE
  5
68
102
{ACAD_REACTORS
330
47
102
}
330
47
100
AcDbScale
 70
     0
300
1'-0" = 1'-0"
140
12.0
141
12.0
290
     0
  0
TABLESTYLE
  5
6A
102
{ACAD_REACTORS
330
69
102
}
102
{ACAD_XDICTIONARY
360
272
102
}
330
69
100
AcDbTableStyle
  3
Standard
 70
     0
 71
     0
 40
0.06
 41
0.06
280
     0
281
     0
  7
Standard
140
0.18
170
     2
 62
     0
 63
   257
283
     0
274
    -2
284
     1
 64
     0
275
    -2
285
     1
 65
     0
276
    -2
286
     1
 66
     0
277
    -2
287
     1
 67
     0
278
    -2
288
     1
 68
     0
279
    -2
289
     1
 69
     0
  7
Standard
140
0.25
170
     5
 62
     0
 63
   257
283
     0
274
    -2
284
     1
 64
     0
275
    -2
285
     1
 65
     0
276
    -2
286
     1
 66
     0
277
    -2
287
     1
 67
     0
278
    -2
288
     1
 68
     0
279
    -2
289
     1
 69
     0
  7
Standard
140
0.18
170
     5
 62
     0
 63
   257
283
     0
274
    -2
284
     1
 64
     0
275
    -2
285
     1
 65
     0
276
    -2
286
     1
 66
     0
277
    -2
287
     1
 67
     0
278
    -2
288
     1
 68
     0
279
    -2
289
     1
 69
     0
  0
VISUALSTYLE
  5
2F
102
{ACAD_REACTORS
330
2A
102
}
102
{ACAD_XDICTIONARY
360
244
102
}
330
2A
100
AcDbVisualStyle
  2
2dWireframe
 70
     4
 71
     0
 72
     2
 73
     0
 90
        0
 40
0.6
 41
30.0
 62
     5
 63
     7
421
 16777215
 74
     1
 91
        4
 64
     7
 65
   257
 75
     1
175
     1
 42
1.0
 92
        0
 66
   257
 43
1.0
 76
     1
 77
     6
 78
     2
 67
     7
 79
     5
170
     0
171
     0
290
     0
174
     0
 93
        1
 44
0.0
173
     0
291
     0
 45
0.0
1001
ACAD
1000
AcDbSavedByObjectVersion
1070
     0
  0
VISUALSTYLE
  5
32
102
{ACAD_REACTORS
330
2A
102
}
102
{ACAD_XDICTIONARY
360
24A
102
}
330
2A
100
AcDbVisualStyle
  2
Basic
 70
     7
 71
     1
 72
     0
 73
     1
 90
        0
 40
0.6
 41
30.0
 62
     5
 63
     7
421
 16777215
 74
     0
 91
        4
 64
     7
 65
   257
 75
     1
175
     1
 42
1.0
 92
        8
 66
     7
 43
1.0
 76
     1
 77
     6
 78
     2
 67
     7
 79
     5
170
     0
171
     0
290
     0
174
     0
 93
        1
 44
0.0
173
     0
291
     1
 45
0.0
1001
ACAD
1000
AcDbSavedByObjectVersion
1070
     0
  0
VISUALSTYLE
  5
36
102
{ACAD_REACTORS
330
2A
102
}
102
{ACAD_XDICTIONARY
360
252
102
}
330
2A
100
AcDbVisualStyle
  2
Brighten
 70
    12
 71
     2
 72
     2
 73
     0
 90
        0
 40
0.6
 41
30.0
 62
     5
 63
     7
421
 16777215
 74
     1
 91
        4
 64
     7
 65
   257
 75
     1
175
     1
 42
1.0
 92
        8
 66
     7
 43
1.0
 76
     1
 77
     6
 78
     2
 67
     7
 79
     5
170
     0
171
     0
290
     0
174
     0
 93
        1
 44
50.0
173
     0
291
     1
 45
0.0
1001
ACAD
1000
AcDbSavedByObjectVersion
1070
     0
  0
VISUALSTYLE
  5
3A
102
{ACAD_REACTORS
330
2A
102
}
102
{ACAD_XDICTIONARY
360
25A
102
}
330
2A
100
AcDbVisualStyle
  2
ColorChange
 70
    16
 71
     2
 72
     2
 73
     3
 90
        0
 40
0.6
 41
30.0
 62
     5
 63
     8
421
  8421504
 74
     1
 91
        4
 64
     7
 65
   257
 75
     1
175
     1
 42
1.0
 92
        8
 66
     8
424
  8421504
 43
1.0
 76
     1
 77
     6
 78
     2
 67
     7
 79
     5
170
     0
171
     0
290
     0
174
     0
 93
        1
 44
0.0
173
     0
291
     1
 45
0.0
1001
ACAD
1000
AcDbSavedByObjectVersion
1070
     0
  0
VISUALSTYLE
  5
34
102
{ACAD_REACTORS
330
2A
102
}
102
{ACAD_XDICTIONARY
360
24E
102
}
330
2A
100
AcDbVisualStyle
  2
Conceptual
 70
     9
 71
     3
 72
     2
 73
     0
 90
        0
 40
0.6
 41
30.0
 62
     5
 63
     7
421
 16777215
 74
     2
 91
        2
 64
     7
 65
   257
 75
     1
175
     1
 42
179.0
 92
        8
 66
     7
 43
1.0
 76
     1
 77
     6
 78
     2
 67
     7
 79
     3
170
     0
171
     0
290
     0
174
     0
 93
        1
 44
0.0
173
     0
291
     0
 45
0.0
1001
ACAD
1000
AcDbSavedByObjectVersion
1070
     0
  0
VISUALSTYLE
  5
35
102
{ACAD_REACTORS
330
2A
102
}
102
{ACAD_XDICTIONARY
360
250
102
}
330
2A
100
AcDbVisualStyle
  2
Dim
 70
    11
 71
     2
 72
     2
 73
     0
 90
        0
 40
0.6
 41
30.0
 62
     5
 63
     7
421
 16777215
 74
     1
 91
        4
 64
     7
 65
   257
 75
     1
175
     1
 42
1.0
 92
        8
 66
     7
 43
1.0
 76
     1
 77
     6
 78
     2
 67
     7
 79
     5
170
     0
171
     0
290
     0
174
     0
 93
        1
 44
-50.0
173
     0
291
     1
 45
0.0
1001
ACAD
1000
AcDbSavedByObjectVersion
1070
     0
  0
VISUALSTYLE
  5
3D
102
{ACAD_REACTORS
330
2A
102
}
102
{ACAD_XDICTIONARY
360
260
102
}
330
2A
100
AcDbVisualStyle
  2
EdgeColorOff
 70
    22
 71
     2
 72
     2
 73
     0
 90
        0
 40
0.6
 41
30.0
 62
     5
 63
     7
421
 16777215
 74
     1
 91
        4
 64
     7
 65
   257
 75
     1
175
     1
 42
1.0
 92
        8
 66
     7
 43
1.0
 76
     1
 77
     6
 78
     2
 67
     7
 79
     5
170
     0
171
     0
290
     0
174
     0
 93
        1
 44
0.0
173
     0
291
     1
 45
0.0
1001
ACAD
1000
AcDbSavedByObjectVersion
1070
     0
  0
VISUALSTYLE
  5
39
102
{ACAD_REACTORS
330
2A
102
}
102
{ACAD_XDICTIONARY
360
258
102
}
330
2A
100
AcDbVisualStyle
  2
Facepattern
 70
    15
 71
     2
 72
     2
 73
     0
 90
        0
 40
0.6
 41
30.0
 62
     5
 63
     7
421
 16777215
 74
     1
 91
        4
 64
     7
 65
   257
 75
     1
175
     1
 42
1.0
 92
        8
 66
     7
 43
1.0
 76
     1
 77
     6
 78
     2
 67
     7
 79
     5
170
     0
171
     0
290
     0
174
     0
 93
        1
 44
0.0
173
     0
291
     1
 45
0.0
1001
ACAD
1000
AcDbSavedByObjectVersion
1070
     0
  0
VISUALSTYLE
  5
2B
102
{ACAD_REACTORS
330
2A
102
}
102
{ACAD_XDICTIONARY
360
23C
102
}
330
2A
100
AcDbVisualStyle
  2
Flat
 70
     0
 71
     2
 72
     1
 73
     1
 90
        2
 40
0.6
 41
30.0
 62
     5
 63
     7
421
 16777215
 74
     0
 91
        0
 64
     7
 65
   257
 75
     1
175
     1
 42
1.0
 92
        8
 66
     7
 43
1.0
 76
     1
 77
     6
 78
     2
 67
     7
 79
     5
170
     0
171
     0
290
     0
174
     0
 93
       13
 44
0.0
173
     0
291
     1
 45
0.0
1001
ACAD
1000
AcDbSavedByObjectVersion
1070
     0
  0
VISUALSTYLE
  5
2C
102
{ACAD_REACTORS
330
2A
102
}
102
{ACAD_XDICTIONARY
360
23E
102
}
330
2A
100
AcDbVisualStyle
  2
FlatWithEdges
 70
     1
 71
     2
 72
     1
 73
     1
 90
        2
 40
0.6
 41
30.0
 62
     5
 63
     7
421
 16777215
 74
     1
 91
        0
 64
     7
 65
   257
 75
     1
175
     1
 42
1.0
 92
        0
 66
   257
 43
1.0
 76
     1
 77
     6
 78
     2
 67
     7
 79
     5
170
     0
171
     0
290
     0
174
     0
 93
       13
 44
0.0
173
     0
291
     1
 45
0.0
1001
ACAD
1000
AcDbSavedByObjectVersion
1070
     0
  0
VISUALSTYLE
  5
2D
102
{ACAD_REACTORS
330
2A
102
}
102
{ACAD_XDICTIONARY
360
240
102
}
330
2A
100
AcDbVisualStyle
  2
Gouraud
 70
     2
 71
     2
 72
     2
 73
     1
 90
        2
 40
0.6
 41
30.0
 62
     5
 63
     7
421
 16777215
 74
     0
 91
        0
 64
     7
 65
   257
 75
     1
175
     1
 42
1.0
 92
        0
 66
     7
 43
1.0
 76
     1
 77
     6
 78
     2
 67
     7
 79
     5
170
     0
171
     0
290
     0
174
     0
 93
       13
 44
0.0
173
     0
291
     1
 45
0.0
1001
ACAD
1000
AcDbSavedByObjectVersion
1070
     0
  0
VISUALSTYLE
  5
2E
102
{ACAD_REACTORS
330
2A
102
}
102
{ACAD_XDICTIONARY
360
242
102
}
330
2A
100
AcDbVisualStyle
  2
GouraudWithEdges
 70
     3
 71
     2
 72
     2
 73
     1
 90
        2
 40
0.6
 41
30.0
 62
     5
 63
     7
421
 16777215
 74
     1
 91
        0
 64
     7
 65
   257
 75
     1
175
     1
 42
1.0
 92
        0
 66
   257
 43
1.0
 76
     1
 77
     6
 78
     2
 67
     7
 79
     5
170
     0
171
     0
290
     0
174
     0
 93
       13
 44
0.0
173
     0
291
     1
 45
0.0
1001
ACAD
1000
AcDbSavedByObjectVersion
1070
     0
  0
VISUALSTYLE
  5
31
102
{ACAD_REACTORS
330
2A
102
}
102
{ACAD_XDICTIONARY
360
248
102
}
330
2A
100
AcDbVisualStyle
  2
Hidden
 70
     6
 71
     1
 72
     2
 73
     2
 90
        0
 40
0.6
 41
30.0
 62
     5
 63
     7
421
 16777215
 74
     2
 91
        2
 64
     7
 65
   257
 75
     2
175
     1
 42
40.0
 92
        0
 66
   257
 43
1.0
 76
     1
 77
     6
 78
     2
 67
     7
 79
     3
170
     0
171
     0
290
     0
174
     0
 93
        1
 44
0.0
173
     0
291
     0
 45
0.0
1001
ACAD
1000
AcDbSavedByObjectVersion
1070
     0
  0
VISUALSTYLE
  5
3B
102
{ACAD_REACTORS
330
2A
102
}
102
{ACAD_XDICTIONARY
360
25C
102
}
330
2A
100
AcDbVisualStyle
  2
JitterOff
 70
    20
 71
     2
 72
     2
 73
     0
 90
        0
 40
0.6
 41
30.0
 62
     5
 63
     7
421
 16777215
 74
     1
 91
        4
 64
     7
 65
   257
 75
     1
175
     1
 42
1.0
 92
       10
 66
     7
 43
1.0
 76
     1
 77
     6
 78
     2
 67
     7
 79
     5
170
     0
171
     0
290
     0
174
     0
 93
        1
 44
0.0
173
     0
291
     1
 45
0.0
1001
ACAD
1000
AcDbSavedByObjectVersion
1070
     0
  0
VISUALSTYLE
  5
38
102
{ACAD_REACTORS
330
2A
102
}
102
{ACAD_XDICTIONARY
360
256
102
}
330
2A
100
AcDbVisualStyle
  2
Linepattern
 70
    14
 71
     2
 72
     2
 73
     0
 90
        0
 40
0.6
 41
30.0
 62
     5
 63
     7
421
 16777215
 74
     1
 91
        4
 64
     7
 65
   257
 75
     7
175
     7
 42
1.0
 92
        8
 66
     7
 43
1.0
 76
     1
 77
     6
 78
     2
 67
     7
 79
     5
170
     0
171
     0
290
     0
174
     0
 93
        1
 44
0.0
173
     0
291
     1
 45
0.0
1001
ACAD
1000
AcDbSavedByObjectVersion
1070
     0
  0
VISUALSTYLE
  5
3C
102
{ACAD_REACTORS
330
2A
102
}
102
{ACAD_XDICTIONARY
360
25E
102
}
330
2A
100
AcDbVisualStyle
  2
OverhangOff
 70
    21
 71
     2
 72
     2
 73
     0
 90
        0
 40
0.6
 41
30.0
 62
     5
 63
     7
421
 16777215
 74
     1
 91
        4
 64
     7
 65
   257
 75
     1
175
     1
 42
1.0
 92
        9
 66
     7
 43
1.0
 76
     1
 77
     6
 78
     2
 67
     7
 79
     5
170
     0
171
     0
290
     0
174
     0
 93
        1
 44
0.0
173
     0
291
     1
 45
0.0
1001
ACAD
1000
AcDbSavedByObjectVersion
1070
     0
  0
VISUALSTYLE
  5
33
102
{ACAD_REACTORS
330
2A
102
}
102
{ACAD_XDICTIONARY
360
24C
102
}
330
2A
100
AcDbVisualStyle
  2
Realistic
 70
     8
 71
     2
 72
     3
 73
     0
 90
        2
 40
0.6
 41
30.0
 62
     5
 63
     7
421
 16777215
 74
     0
 91
        0
 64
     7
 65
   257
 75
     1
175
     1
 42
1.0
 92
        8
 66
   257
 43
1.0
 76
     1
 77
     6
 78
     2
 67
     7
 79
     3
170
     0
171
     0
290
     0
174
     0
 93
       13
 44
0.0
173
     0
291
     0
 45
0.0
1001
ACAD
1000
AcDbSavedByObjectVersion
1070
     0
  0
VISUALSTYLE
  5
42
102
{ACAD_REACTORS
330
2A
102
}
102
{ACAD_XDICTIONARY
360
26A
102
}
330
2A
100
AcDbVisualStyle
  2
Shaded
 70
    27
 71
     2
 72
     2
 73
     1
 90
        2
 40
0.6
 41
30.0
 62
     5
 63
     7
421
 16777215
 74
     0
 91
        4
 64
     7
 65
   257
 75
     1
175
     1
 42
1.0
 92
        8
 66
   257
 43
1.0
 76
     1
 77
     6
 78
     2
 67
     8
425
  7895160
 79
     3
170
     0
171
     0
290
     0
174
     0
 93
        5
 44
0.0
173
     0
291
     0
 45
0.0
1001
ACAD
1000
AcDbSavedByObjectVersion
1070
     0
  0
VISUALSTYLE
  5
41
102
{ACAD_REACTORS
330
2A
102
}
102
{ACAD_XDICTIONARY
360
268
102
}
330
2A
100
AcDbVisualStyle
  2
Shaded with edges
 70
    26
 71
     2
 72
     2
 73
     1
 90
        2
 40
0.6
 41
30.0
 62
     5
 63
     7
421
 16777215
 74
     1
 91
       10
 64
     7
 65
   257
 75
     2
175
     1
 42
1.0
 92
        8
 66
   257
 43
1.0
 76
     1
 77
     6
 78
     2
 67
     7
 79
     3
170
     0
171
     0
290
     0
174
     0
 93
        5
 44
0.0
173
     0
291
     0
 45
0.0
1001
ACAD
1000
AcDbSavedByObjectVersion
1070
     0
  0
VISUALSTYLE
  5
3E
102
{ACAD_REACTORS
330
2A
102
}
102
{ACAD_XDICTIONARY
360
262
102
}
330
2A
100
AcDbVisualStyle
  2
Shades of Gray
 70
    23
 71
     2
 72
     2
 73
     3
 90
        0
 40
0.6
 41
30.0
 62
     5
 63
     7
421
 16777215
 74
     2
 91
        2
 64
     7
 65
     7
 75
     1
175
     1
 42
40.0
 92
        8
 66
     7
 43
1.0
 76
     1
 77
     6
 78
     2
 67
     7
 79
     3
170
     0
171
     0
290
     0
174
     0
 93
        1
 44
0.0
173
     0
291
     0
 45
0.0
1001
ACAD
1000
AcDbSavedByObjectVersion
1070
     0
  0
VISUALSTYLE
  5
3F
102
{ACAD_REACTORS
330
2A
102
}
102
{ACAD_XDICTIONARY
360
264
102
}
330
2A
100
AcDbVisualStyle
  2
Sketchy
 70
    24
 71
     1
 72
     2
 73
     2
 90
        0
 40
0.6
 41
30.0
 62
     5
 63
     7
421
 16777215
 74
     2
 91
        2
 64
     7
 65
     7
 75
     1
175
     1
 42
40.0
 92
       11
 66
     7
 43
1.0
 76
     1
 77
     6
 78
     2
 67
     7
 79
     6
170
     0
171
     0
290
     0
174
     0
 93
        1
 44
0.0
173
     0
291
     0
 45
0.0
1001
ACAD
1000
AcDbSavedByObjectVersion
1070
     0
  0
VISUALSTYLE
  5
37
102
{ACAD_REACTORS
330
2A
102
}
102
{ACAD_XDICTIONARY
360
254
102
}
330
2A
100
AcDbVisualStyle
  2
Thicken
 70
    13
 71
     2
 72
     2
 73
     0
 90
        0
 40
0.6
 41
30.0
 62
     5
 63
     7
421
 16777215
 74
     1
 91
        4
 64
     7
 65
   257
 75
     1
175
     1
 42
1.0
 92
       12
 66
     7
 43
1.0
 76
     1
 77
     6
 78
     2
 67
     7
 79
     5
170
     0
171
     0
290
     0
174
     0
 93
        1
 44
0.0
173
     0
291
     1
 45
0.0
1001
ACAD
1000
AcDbSavedByObjectVersion
1070
     0
  0
VISUALSTYLE
  5
30
102
{ACAD_REACTORS
330
2A
102
}
102
{ACAD_XDICTIONARY
360
246
102
}
330
2A
100
AcDbVisualStyle
  2
Wireframe
 70
     5
 71
     0
 72
     2
 73
     0
 90
        0
 40
0.6
 41
30.0
 62
     5
 63
     7
421
 16777215
 74
     1
 91
        4
 64
     7
 65
   257
 75
     1
175
     1
 42
1.0
 92
        0
 66
   257
 43
1.0
 76
     1
 77
     6
 78
     2
 67
     7
 79
     3
170
     0
171
     0
290
     0
174
     0
 93
        1
 44
0.0
173
     0
291
     0
 45
0.0
1001
ACAD
1000
AcDbSavedByObjectVersion
1070
     0
  0
VISUALSTYLE
  5
40
102
{ACAD_REACTORS
330
2A
102
}
102
{ACAD_XDICTIONARY
360
266
102
}
330
2A
100
AcDbVisualStyle
  2
X-Ray
 70
    25
 71
     2
 72
     2
 73
     1
 90
        1
 40
0.5
 41
30.0
 62
     5
 63
     7
421
 16777215
 74
     1
 91
        0
 64
     7
 65
   257
 75
     1
175
     1
 42
1.0
 92
        8
 66
     7
 43
1.0
 76
     1
 77
     6
 78
     2
 67
     7
 79
     3
170
     0
171
     0
290
     0
174
     0
 93
       13
 44
0.0
173
     0
291
     0
 45
0.0
1001
ACAD
1000
AcDbSavedByObjectVersion
1070
     0
  0
DICTIONARYVAR
  5
239
102
{ACAD_REACTORS
330
238
102
}
330
238
100
DictionaryVariables
280
     0
  1
1:1
  0
DICTIONARYVAR
  5
27A
102
{ACAD_REACTORS
330
238
102
}
330
238
100
DictionaryVariables
280
     0
  1
Standard
  0
DICTIONARYVAR
  5
279
102
{ACAD_REACTORS
330
238
102
}
330
238
100
DictionaryVariables
280
     0
  1
Standard
  0
DICTIONARYVAR
  5
23A
102
{ACAD_REACTORS
330
238
102
}
330
238
100
DictionaryVariables
280
     0
  1
1
  0
DICTIONARYVAR
  5
23B
102
{ACAD_REACTORS
330
238
102
}
330
238
100
DictionaryVariables
280
     0
  1
2
  0
DICTIONARY
  5
26E
330
45
100
AcDbDictionary
280
     1
281
     1
  3
ACAD_XREC_ROUNDTRIP
360
26F
  0
DICTIONARY
  5
26C
330
44
100
AcDbDictionary
280
     1
281
     1
  3
ACAD_XREC_ROUNDTRIP
360
26D
  0
DICTIONARY
  5
270
330
46
100
AcDbDictionary
280
     1
281
     1
  3
ACAD_XREC_ROUNDTRIP
360
271
  0
DICTIONARY
  5
276
330
6C
100
AcDbDictionary
280
     1
281
     1
  3
ACAD_XREC_ROUNDTRIP
360
277
  0
DICTIONARY
  5
272
330
6A
100
AcDbDictionary
280
     1
281
     1
  3
ACAD_ROUNDTRIP_2008_TABLESTYLE_CELLSTYLEMAP
360
274
  3
ACAD_XREC_ROUNDTRIP
360
273
  0
DICTIONARY
  5
244
330
2F
100
AcDbDictionary
280
     1
281
     1
  3
ACAD_XREC_ROUNDTRIP
360
245
  0
DICTIONARY
  5
24A
330
32
100
AcDbDictionary
280
     1
281
     1
  3
ACAD_XREC_ROUNDTRIP
360
24B
  0
DICTIONARY
  5
252
330
36
100
AcDbDictionary
280
     1
281
     1
  3
ACAD_XREC_ROUNDTRIP
360
253
  0
DICTIONARY
  5
25A
330
3A
100
AcDbDictionary
280
     1
281
     1
  3
ACAD_XREC_ROUNDTRIP
360
25B
  0
DICTIONARY
  5
24E
330
34
100
AcDbDictionary
280
     1
281
     1
  3
ACAD_XREC_ROUNDTRIP
360
24F
  0
DICTIONARY
  5
250
330
35
100
AcDbDictionary
280
     1
281
     1
  3
ACAD_XREC_ROUNDTRIP
360
251
  0
DICTIONARY
  5
260
330
3D
100
AcDbDictionary
280
     1
281
     1
  3
ACAD_XREC_ROUNDTRIP
360
261
  0
DICTIONARY
  5
258
330
39
100
AcDbDictionary
280
     1
281
     1
  3
ACAD_XREC_ROUNDTRIP
360
259
  0
DICTIONARY
  5
23C
330
2B
100
AcDbDictionary
280
     1
281
     1
  3
ACAD_XREC_ROUNDTRIP
360
23D
  0
DICTIONARY
  5
23E
330
2C
100
AcDbDictionary
280
     1
281
     1
  3
ACAD_XREC_ROUNDTRIP
360
23F
  0
DICTIONARY
  5
240
330
2D
100
AcDbDictionary
280
     1
281
     1
  3
ACAD_XREC_ROUNDTRIP
360
241
  0
DICTIONARY
  5
242
330
2E
100
AcDbDictionary
280
     1
281
     1
  3
ACAD_XREC_ROUNDTRIP
360
243
  0
DICTIONARY
  5
248
330
31
100
AcDbDictionary
280
     1
281
     1
  3
ACAD_XREC_ROUNDTRIP
360
249
  0
DICTIONARY
  5
25C
330
3B
100
AcDbDictionary
280
     1
281
     1
  3
ACAD_XREC_ROUNDTRIP
360
25D
  0
DICTIONARY
  5
256
330
38
100
AcDbDictionary
280
     1
281
     1
  3
ACAD_XREC_ROUNDTRIP
360
257
  0
DICTIONARY
  5
25E
330
3C
100
AcDbDictionary
280
     1
281
     1
  3
ACAD_XREC_ROUNDTRIP
360
25F
  0
DICTIONARY
  5
24C
330
33
100
AcDbDictionary
280
     1
281
     1
  3
ACAD_XREC_ROUNDTRIP
360
24D
  0
DICTIONARY
  5
26A
330
42
100
AcDbDictionary
280
     1
281
     1
  3
ACAD_XREC_ROUNDTRIP
360
26B
  0
DICTIONARY
  5
268
330
41
100
AcDbDictionary
280
     1
281
     1
  3
ACAD_XREC_ROUNDTRIP
360
269
  0
DICTIONARY
  5
262
330
3E
100
AcDbDictionary
280
     1
281
     1
  3
ACAD_XREC_ROUNDTRIP
360
263
  0
DICTIONARY
  5
264
330
3F
100
AcDbDictionary
280
     1
281
     1
  3
ACAD_XREC_ROUNDTRIP
360
265
  0
DICTIONARY
  5
254
330
37
100
AcDbDictionary
280
     1
281
     1
  3
ACAD_XREC_ROUNDTRIP
360
255
  0
DICTIONARY
  5
246
330
30
100
AcDbDictionary
280
     1
281
     1
  3
ACAD_XREC_ROUNDTRIP
360
247
  0
DICTIONARY
  5
266
330
40
100
AcDbDictionary
280
     1
281
     1
  3
ACAD_XREC_ROUNDTRIP
360
267
  0
XRECORD
  5
26F
102
{ACAD_REACTORS
330
26E
102
}
330
26E
100
AcDbXrecord
280
     1
102
MATERIAL
148
0.0
149
0.0
149
0.0
 93
        0
 94
      127
282
     0
 72
     1
 77
     1
171
     1
175
     1
179
     1
273
     0
  0
XRECORD
  5
26D
102
{ACAD_REACTORS
330
26C
102
}
330
26C
100
AcDbXrecord
280
     1
102
MATERIAL
148
0.0
149
0.0
149
0.0
 93
        0
 94
      127
282
     0
 72
     1
 77
     1
171
     1
175
     1
179
     1
273
     0
  0
XRECORD
  5
271
102
{ACAD_REACTORS
330
270
102
}
330
270
100
AcDbXrecord
280
     1
102
MATERIAL
148
0.0
149
0.0
149
0.0
 93
        0
 94
      127
282
     0
 72
     1
 77
     1
171
     1
175
     1
179
     1
273
     0
  0
XRECORD
  5
277
102
{ACAD_REACTORS
330
276
102
}
330
276
100
AcDbXrecord
280
     1
102
ACAD_ROUNDTRIP_2010_MLEADER_STYLE
  0
CELLSTYLEMAP
  5
274
102
{ACAD_REACTORS
330
272
102
}
330
272
100
AcDbCellStyleMap
 90
        3
300
CELLSTYLE
  1
TABLEFORMAT_BEGIN
 90
        5
170
     1
 91
        0
 92
    32768
 62
   257
 93
        1
300
CONTENTFORMAT
  1
CONTENTFORMAT_BEGIN
 90
        0
 91
        0
 92
        4
 93
        0
300

 40
0.0
140
1.0
 94
        5
 62
     0
340
11
144
0.25
309
CONTENTFORMAT_END
171
     1
301
MARGIN
  1
CELLMARGIN_BEGIN
 40
0.06
 40
0.06
 40
0.06
 40
0.06
 40
0.06
 40
0.06
309
CELLMARGIN_END
 94
        6
 95
        1
302
GRIDFORMAT
  1
GRIDFORMAT_BEGIN
 90
        0
 91
        1
 62
     0
 92
       -2
340
14
 93
        0
 40
0.045
309
GRIDFORMAT_END
 95
        2
302
GRIDFORMAT
  1
GRIDFORMAT_BEGIN
 90
        0
 91
        1
 62
     0
 92
       -2
340
14
 93
        0
 40
0.045
309
GRIDFORMAT_END
 95
        4
302
GRIDFORMAT
  1
GRIDFORMAT_BEGIN
 90
        0
 91
        1
 62
     0
 92
       -2
340
14
 93
        0
 40
0.045
309
GRIDFORMAT_END
 95
        8
302
GRIDFORMAT
  1
GRIDFORMAT_BEGIN
 90
        0
 91
        1
 62
     0
 92
       -2
340
14
 93
        0
 40
0.045
309
GRIDFORMAT_END
 95
       16
302
GRIDFORMAT
  1
GRIDFORMAT_BEGIN
 90
        0
 91
        1
 62
     0
 92
       -2
340
14
 93
        0
 40
0.045
309
GRIDFORMAT_END
 95
       32
302
GRIDFORMAT
  1
GRIDFORMAT_BEGIN
 90
        0
 91
        1
 62
     0
 92
       -2
340
14
 93
        0
 40
0.045
309
GRIDFORMAT_END
309
TABLEFORMAT_END
  1
CELLSTYLE_BEGIN
 90
        1
 91
        1
300
_TITLE
309
CELLSTYLE_END
300
CELLSTYLE
  1
TABLEFORMAT_BEGIN
 90
        5
170
     1
 91
        0
 92
        0
 62
   257
 93
        1
300
CONTENTFORMAT
  1
CONTENTFORMAT_BEGIN
 90
        0
 91
        0
 92
        4
 93
        0
300

 40
0.0
140
1.0
 94
        5
 62
     0
340
11
144
0.18
309
CONTENTFORMAT_END
171
     1
301
MARGIN
  1
CELLMARGIN_BEGIN
 40
0.06
 40
0.06
 40
0.06
 40
0.06
 40
0.06
 40
0.06
309
CELLMARGIN_END
 94
        6
 95
        1
302
GRIDFORMAT
  1
GRIDFORMAT_BEGIN
 90
        0
 91
        1
 62
     0
 92
       -2
340
14
 93
        0
 40
0.045
309
GRIDFORMAT_END
 95
        2
302
GRIDFORMAT
  1
GRIDFORMAT_BEGIN
 90
        0
 91
        1
 62
     0
 92
       -2
340
14
 93
        0
 40
0.045
309
GRIDFORMAT_END
 95
        4
302
GRIDFORMAT
  1
GRIDFORMAT_BEGIN
 90
        0
 91
        1
 62
     0
 92
       -2
340
14
 93
        0
 40
0.045
309
GRIDFORMAT_END
 95
        8
302
GRIDFORMAT
  1
GRIDFORMAT_BEGIN
 90
        0
 91
        1
 62
     0
 92
       -2
340
14
 93
        0
 40
0.045
309
GRIDFORMAT_END
 95
       16
302
GRIDFORMAT
  1
GRIDFORMAT_BEGIN
 90
        0
 91
        1
 62
     0
 92
       -2
340
14
 93
        0
 40
0.045
309
GRIDFORMAT_END
 95
       32
302
GRIDFORMAT
  1
GRIDFORMAT_BEGIN
 90
        0
 91
        1
 62
     0
 92
       -2
340
14
 93
        0
 40
0.045
309
GRIDFORMAT_END
309
TABLEFORMAT_END
  1
CELLSTYLE_BEGIN
 90
        2
 91
        1
300
_HEADER
309
CELLSTYLE_END
300
CELLSTYLE
  1
TABLEFORMAT_BEGIN
 90
        5
170
     1
 91
        0
 92
        0
 62
   257
 93
        1
300
CONTENTFORMAT
  1
CONTENTFORMAT_BEGIN
 90
        0
 91
        0
 92
        4
 93
        0
300

 40
0.0
140
1.0
 94
        2
 62
     0
340
11
144
0.18
309
CONTENTFORMAT_END
171
     1
301
MARGIN
  1
CELLMARGIN_BEGIN
 40
0.06
 40
0.06
 40
0.06
 40
0.06
 40
0.06
 40
0.06
309
CELLMARGIN_END
 94
        6
 95
        1
302
GRIDFORMAT
  1
GRIDFORMAT_BEGIN
 90
        0
 91
        1
 62
     0
 92
       -2
340
14
 93
        0
 40
0.045
309
GRIDFORMAT_END
 95
        2
302
GRIDFORMAT
  1
GRIDFORMAT_BEGIN
 90
        0
 91
        1
 62
     0
 92
       -2
340
14
 93
        0
 40
0.045
309
GRIDFORMAT_END
 95
        4
302
GRIDFORMAT
  1
GRIDFORMAT_BEGIN
 90
        0
 91
        1
 62
     0
 92
       -2
340
14
 93
        0
 40
0.045
309
GRIDFORMAT_END
 95
        8
302
GRIDFORMAT
  1
GRIDFORMAT_BEGIN
 90
        0
 91
        1
 62
     0
 92
       -2
340
14
 93
        0
 40
0.045
309
GRIDFORMAT_END
 95
       16
302
GRIDFORMAT
  1
GRIDFORMAT_BEGIN
 90
        0
 91
        1
 62
     0
 92
       -2
340
14
 93
        0
 40
0.045
309
GRIDFORMAT_END
 95
       32
302
GRIDFORMAT
  1
GRIDFORMAT_BEGIN
 90
        0
 91
        1
 62
     0
 92
       -2
340
14
 93
        0
 40
0.045
309
GRIDFORMAT_END
309
TABLEFORMAT_END
  1
CELLSTYLE_BEGIN
 90
        3
 91
        2
300
_DATA
309
CELLSTYLE_END
  0
XRECORD
  5
273
102
{ACAD_REACTORS
330
272
102
}
330
272
100
AcDbXrecord
280
     1
102
ACAD_ROUNDTRIP_PRE2007_TABLESTYLE
 90
        4
 91
        0
  1

 92
        4
 93
        0
  2

 94
        4
 95
        0
  3

  0
XRECORD
  5
245
102
{ACAD_REACTORS
330
244
102
}
330
244
100
AcDbXrecord
280
     1
102
RTVSPropertyOp0
 70
     1
102
RTVSPropertyOp1
 70
     1
102
RTVSPropertyOp2
 70
     1
102
RTVSPropertyOp3
 70
     1
102
RTVSPropertyOp4
 70
     1
102
RTVSPropertyOp5
 70
     1
102
RTVSPropertyOp6
 70
     1
102
RTVSPropertyOp7
 70
     1
102
RTVSPropertyOp8
 70
     1
102
RTVSPropertyOp9
 70
     1
102
RTVSPropertyOp10
 70
     1
102
RTVSPropertyOp11
 70
     1
102
RTVSPropertyOp12
 70
     1
102
RTVSPropertyOp13
 70
     1
102
RTVSPropertyOp14
 70
     1
102
RTVSPropertyOp15
 70
     1
102
RTVSPropertyOp16
 70
     1
102
RTVSPropertyOp17
 70
     1
102
RTVSPropertyOp18
 70
     1
102
RTVSPropertyOp19
 70
     1
102
RTVSPropertyOp20
 70
     1
102
RTVSPropertyOp21
 70
     1
102
RTVSPropertyOp22
 70
     1
102
RTVSPropertyOp23
 70
     1
102
RTVSPropertyOp24
 70
     1
102
RTVSPropertyOp25
 70
     1
102
RTVSPropertyOp26
 70
     1
102
RTVSPropertyOp27
 70
     1
102
RTVSPropertyOp28
 70
     1
102
RTVSPropertyOp29
 70
     1
102
RTVSPropertyOp30
 70
     1
102
RTVSPropertyOp31
 70
     1
102
RTVSPropertyOp32
 70
     1
102
RTVSPropertyOp33
 70
     1
102
RTVSPropertyOp34
 70
     1
102
RTVSPropertyOp35
 70
     1
102
RTVSPropertyOp36
 70
     1
102
RTVSPropertyOp37
 70
     1
102
RTVSPropertyOp38
 70
     1
102
RTVSPropertyOp39
 70
     1
102
RTVSPropertyOp40
 70
     1
102
RTVSPropertyOp41
 70
     1
102
RTVSPropertyOp42
 70
     1
102
RTVSPropertyOp43
 70
     1
102
RTVSPropertyOp44
 70
     1
102
RTVSPropertyOp45
 70
     1
102
RTVSPropertyOp46
 70
     1
102
RTVSPropertyOp47
 70
     1
102
RTVSPropertyOp48
 70
     1
102
RTVSPropertyOp49
 70
     1
102
RTVSPropertyOp50
 70
     1
102
RTVSPropertyOp51
 70
     0
102
RTVSPropertyOp52
 70
     0
102
RTVSPropertyOp53
 70
     1
102
RTVSPropertyOp54
 70
     1
102
RTVSPropertyOp55
 70
     1
102
RTVSPropertyOp56
 70
     1
102
RTVSPropertyOp57
 70
     1
102
RTVSPost2010Prop28
280
     1
102
RTVSPost2010PropOp28
 70
     1
102
RTVSPost2010Prop29
280
     1
102
RTVSPost2010PropOp29
 70
     1
102
RTVSPost2010Prop30
280
     0
102
RTVSPost2010PropOp30
 70
     1
102
RTVSPost2010Prop31
280
     0
102
RTVSPost2010PropOp31
 70
     1
102
RTVSPost2010Prop32
280
     0
102
RTVSPost2010PropOp32
 70
     1
102
RTVSPost2010Prop33
280
     0
102
RTVSPost2010PropOp33
 70
     1
102
RTVSPost2010Prop34
280
     0
102
RTVSPost2010PropOp34
 70
     1
102
RTVSPost2010Prop35
280
     0
102
RTVSPost2010PropOp35
 70
     1
102
RTVSPost2010Prop36
280
     0
102
RTVSPost2010PropOp36
 70
     1
102
RTVSPost2010Prop37
 90
       50
102
RTVSPost2010PropOp37
 70
     1
102
RTVSPost2010Prop38
140
0.0
102
RTVSPost2010PropOp38
 70
     1
102
RTVSPost2010Prop39
140
1.0
102
RTVSPost2010PropOp39
 70
     1
102
RTVSPost2010Prop40
 90
        0
102
RTVSPost2010PropOp40
 70
     1
102
RTVSPost2010Prop41ColorIndex
 90
       18
102
RTVSPost2010Prop41ColorRGB
 90
        0
102
RTVSPost2010PropOp41
 70
     1
102
RTVSPost2010Prop42
 90
       50
102
RTVSPost2010PropOp42
 70
     1
102
RTVSPost2010Prop43
 90
        3
102
RTVSPost2010PropOp43
 70
     1
102
RTVSPost2010Prop44ColorIndex
 90
        5
102
RTVSPost2010Prop44ColorRGB
 90
      255
102
RTVSPost2010PropOp44
 70
     1
102
RTVSPost2010Prop45
280
     0
102
RTVSPost2010PropOp45
 70
     1
102
RTVSPost2010Prop46
 90
       50
102
RTVSPost2010PropOp46
 70
     1
102
RTVSPost2010Prop47
 90
       50
102
RTVSPost2010PropOp47
 70
     1
102
RTVSPost2010Prop48
 90
       50
102
RTVSPost2010PropOp48
 70
     1
102
RTVSPost2010Prop49
280
     0
102
RTVSPost2010PropOp49
 70
     1
102
RTVSPost2010Prop50
 90
       50
102
RTVSPost2010PropOp50
 70
     1
102
RTVSPost2010Prop51ColorIndex
 90
      256
102
RTVSPost2010Prop51ColorRGB
 90
-16777216
102
RTVSPost2010PropOp51
 70
     0
102
RTVSPost2010Prop52
140
1.0
102
RTVSPost2010PropOp52
 70
     0
102
RTVSPost2010Prop53
 90
        2
102
RTVSPost2010PropOp53
 70
     1
102
RTVSPost2010Prop54
  1
strokes_ogs.tif
102
RTVSPost2010PropOp54
 70
     1
102
RTVSPost2010Prop55
280
     0
102
RTVSPost2010PropOp55
 70
     1
102
RTVSPost2010Prop56
140
1.0
102
RTVSPost2010PropOp56
 70
     1
102
RTVSPost2010Prop57
140
1.0
102
RTVSPost2010PropOp57
 70
     1
  0
XRECORD
  5
24B
102
{ACAD_REACTORS
330
24A
102
}
330
24A
100
AcDbXrecord
280
     1
102
RTVSPropertyOp0
 70
     1
102
RTVSPropertyOp1
 70
     1
102
RTVSPropertyOp2
 70
     1
102
RTVSPropertyOp3
 70
     1
102
RTVSPropertyOp4
 70
     1
102
RTVSPropertyOp5
 70
     1
102
RTVSPropertyOp6
 70
     1
102
RTVSPropertyOp7
 70
     1
102
RTVSPropertyOp8
 70
     1
102
RTVSPropertyOp9
 70
     1
102
RTVSPropertyOp10
 70
     1
102
RTVSPropertyOp11
 70
     1
102
RTVSPropertyOp12
 70
     1
102
RTVSPropertyOp13
 70
     1
102
RTVSPropertyOp14
 70
     1
102
RTVSPropertyOp15
 70
     1
102
RTVSPropertyOp16
 70
     1
102
RTVSPropertyOp17
 70
     1
102
RTVSPropertyOp18
 70
     1
102
RTVSPropertyOp19
 70
     1
102
RTVSPropertyOp20
 70
     1
102
RTVSPropertyOp21
 70
     1
102
RTVSPropertyOp22
 70
     1
102
RTVSPropertyOp23
 70
     1
102
RTVSPropertyOp24
 70
     1
102
RTVSPropertyOp25
 70
     1
102
RTVSPropertyOp26
 70
     1
102
RTVSPropertyOp27
 70
     1
102
RTVSPropertyOp28
 70
     1
102
RTVSPropertyOp29
 70
     1
102
RTVSPropertyOp30
 70
     1
102
RTVSPropertyOp31
 70
     1
102
RTVSPropertyOp32
 70
     1
102
RTVSPropertyOp33
 70
     1
102
RTVSPropertyOp34
 70
     1
102
RTVSPropertyOp35
 70
     1
102
RTVSPropertyOp36
 70
     1
102
RTVSPropertyOp37
 70
     1
102
RTVSPropertyOp38
 70
     1
102
RTVSPropertyOp39
 70
     1
102
RTVSPropertyOp40
 70
     1
102
RTVSPropertyOp41
 70
     1
102
RTVSPropertyOp42
 70
     1
102
RTVSPropertyOp43
 70
     1
102
RTVSPropertyOp44
 70
     1
102
RTVSPropertyOp45
 70
     1
102
RTVSPropertyOp46
 70
     1
102
RTVSPropertyOp47
 70
     1
102
RTVSPropertyOp48
 70
     1
102
RTVSPropertyOp49
 70
     1
102
RTVSPropertyOp50
 70
     1
102
RTVSPropertyOp51
 70
     0
102
RTVSPropertyOp52
 70
     0
102
RTVSPropertyOp53
 70
     1
102
RTVSPropertyOp54
 70
     1
102
RTVSPropertyOp55
 70
     1
102
RTVSPropertyOp56
 70
     1
102
RTVSPropertyOp57
 70
     1
102
RTVSPost2010Prop28
280
     0
102
RTVSPost2010PropOp28
 70
     1
102
RTVSPost2010Prop29
280
     1
102
RTVSPost2010PropOp29
 70
     1
102
RTVSPost2010Prop30
280
     1
102
RTVSPost2010PropOp30
 70
     1
102
RTVSPost2010Prop31
280
     0
102
RTVSPost2010PropOp31
 70
     1
102
RTVSPost2010Prop32
280
     0
102
RTVSPost2010PropOp32
 70
     1
102
RTVSPost2010Prop33
280
     0
102
RTVSPost2010PropOp33
 70
     1
102
RTVSPost2010Prop34
280
     0
102
RTVSPost2010PropOp34
 70
     1
102
RTVSPost2010Prop35
280
     0
102
RTVSPost2010PropOp35
 70
     1
102
RTVSPost2010Prop36
280
     0
102
RTVSPost2010PropOp36
 70
     1
102
RTVSPost2010Prop37
 90
       50
102
RTVSPost2010PropOp37
 70
     1
102
RTVSPost2010Prop38
140
0.0
102
RTVSPost2010PropOp38
 70
     1
102
RTVSPost2010Prop39
140
1.0
102
RTVSPost2010PropOp39
 70
     1
102
RTVSPost2010Prop40
 90
        0
102
RTVSPost2010PropOp40
 70
     1
102
RTVSPost2010Prop41ColorIndex
 90
       18
102
RTVSPost2010Prop41ColorRGB
 90
        0
102
RTVSPost2010PropOp41
 70
     1
102
RTVSPost2010Prop42
 90
       50
102
RTVSPost2010PropOp42
 70
     1
102
RTVSPost2010Prop43
 90
        3
102
RTVSPost2010PropOp43
 70
     1
102
RTVSPost2010Prop44ColorIndex
 90
        5
102
RTVSPost2010Prop44ColorRGB
 90
      255
102
RTVSPost2010PropOp44
 70
     1
102
RTVSPost2010Prop45
280
     0
102
RTVSPost2010PropOp45
 70
     1
102
RTVSPost2010Prop46
 90
       50
102
RTVSPost2010PropOp46
 70
     1
102
RTVSPost2010Prop47
 90
       50
102
RTVSPost2010PropOp47
 70
     1
102
RTVSPost2010Prop48
 90
       50
102
RTVSPost2010PropOp48
 70
     1
102
RTVSPost2010Prop49
280
     0
102
RTVSPost2010PropOp49
 70
     1
102
RTVSPost2010Prop50
 90
       50
102
RTVSPost2010PropOp50
 70
     1
102
RTVSPost2010Prop51ColorIndex
 90
      256
102
RTVSPost2010Prop51ColorRGB
 90
-16777216
102
RTVSPost2010PropOp51
 70
     0
102
RTVSPost2010Prop52
140
1.0
102
RTVSPost2010PropOp52
 70
     0
102
RTVSPost2010Prop53
 90
        2
102
RTVSPost2010PropOp53
 70
     1
102
RTVSPost2010Prop54
  1
strokes_ogs.tif
102
RTVSPost2010PropOp54
 70
     1
102
RTVSPost2010Prop55
280
     0
102
RTVSPost2010PropOp55
 70
     1
102
RTVSPost2010Prop56
140
1.0
102
RTVSPost2010PropOp56
 70
     1
102
RTVSPost2010Prop57
140
1.0
102
RTVSPost2010PropOp57
 70
     1
  0
XRECORD
  5
253
102
{ACAD_REACTORS
330
252
102
}
330
252
100
AcDbXrecord
280
     1
102
RTVSPropertyOp0
 70
     1
102
RTVSPropertyOp1
 70
     1
102
RTVSPropertyOp2
 70
     1
102
RTVSPropertyOp3
 70
     1
102
RTVSPropertyOp4
 70
     1
102
RTVSPropertyOp5
 70
     1
102
RTVSPropertyOp6
 70
     1
102
RTVSPropertyOp7
 70
     1
102
RTVSPropertyOp8
 70
     1
102
RTVSPropertyOp9
 70
     1
102
RTVSPropertyOp10
 70
     1
102
RTVSPropertyOp11
 70
     1
102
RTVSPropertyOp12
 70
     1
102
RTVSPropertyOp13
 70
     1
102
RTVSPropertyOp14
 70
     1
102
RTVSPropertyOp15
 70
     1
102
RTVSPropertyOp16
 70
     1
102
RTVSPropertyOp17
 70
     1
102
RTVSPropertyOp18
 70
     1
102
RTVSPropertyOp19
 70
     1
102
RTVSPropertyOp20
 70
     1
102
RTVSPropertyOp21
 70
     1
102
RTVSPropertyOp22
 70
     1
102
RTVSPropertyOp23
 70
     1
102
RTVSPropertyOp24
 70
     1
102
RTVSPropertyOp25
 70
     1
102
RTVSPropertyOp26
 70
     1
102
RTVSPropertyOp27
 70
     1
102
RTVSPropertyOp28
 70
     1
102
RTVSPropertyOp29
 70
     1
102
RTVSPropertyOp30
 70
     1
102
RTVSPropertyOp31
 70
     1
102
RTVSPropertyOp32
 70
     1
102
RTVSPropertyOp33
 70
     1
102
RTVSPropertyOp34
 70
     1
102
RTVSPropertyOp35
 70
     1
102
RTVSPropertyOp36
 70
     1
102
RTVSPropertyOp37
 70
     1
102
RTVSPropertyOp38
 70
     1
102
RTVSPropertyOp39
 70
     1
102
RTVSPropertyOp40
 70
     1
102
RTVSPropertyOp41
 70
     1
102
RTVSPropertyOp42
 70
     1
102
RTVSPropertyOp43
 70
     1
102
RTVSPropertyOp44
 70
     1
102
RTVSPropertyOp45
 70
     1
102
RTVSPropertyOp46
 70
     1
102
RTVSPropertyOp47
 70
     1
102
RTVSPropertyOp48
 70
     1
102
RTVSPropertyOp49
 70
     1
102
RTVSPropertyOp50
 70
     1
102
RTVSPropertyOp51
 70
     0
102
RTVSPropertyOp52
 70
     0
102
RTVSPropertyOp53
 70
     1
102
RTVSPropertyOp54
 70
     1
102
RTVSPropertyOp55
 70
     1
102
RTVSPropertyOp56
 70
     1
102
RTVSPropertyOp57
 70
     1
102
RTVSPost2010Prop28
280
     0
102
RTVSPost2010PropOp28
 70
     1
102
RTVSPost2010Prop29
280
     1
102
RTVSPost2010PropOp29
 70
     1
102
RTVSPost2010Prop30
280
     1
102
RTVSPost2010PropOp30
 70
     1
102
RTVSPost2010Prop31
280
     0
102
RTVSPost2010PropOp31
 70
     1
102
RTVSPost2010Prop32
280
     0
102
RTVSPost2010PropOp32
 70
     1
102
RTVSPost2010Prop33
280
     0
102
RTVSPost2010PropOp33
 70
     1
102
RTVSPost2010Prop34
280
     0
102
RTVSPost2010PropOp34
 70
     1
102
RTVSPost2010Prop35
280
     0
102
RTVSPost2010PropOp35
 70
     1
102
RTVSPost2010Prop36
280
     0
102
RTVSPost2010PropOp36
 70
     1
102
RTVSPost2010Prop37
 90
       50
102
RTVSPost2010PropOp37
 70
     1
102
RTVSPost2010Prop38
140
0.0
102
RTVSPost2010PropOp38
 70
     1
102
RTVSPost2010Prop39
140
1.0
102
RTVSPost2010PropOp39
 70
     1
102
RTVSPost2010Prop40
 90
        0
102
RTVSPost2010PropOp40
 70
     1
102
RTVSPost2010Prop41ColorIndex
 90
       18
102
RTVSPost2010Prop41ColorRGB
 90
        0
102
RTVSPost2010PropOp41
 70
     1
102
RTVSPost2010Prop42
 90
       50
102
RTVSPost2010PropOp42
 70
     1
102
RTVSPost2010Prop43
 90
        3
102
RTVSPost2010PropOp43
 70
     1
102
RTVSPost2010Prop44ColorIndex
 90
        5
102
RTVSPost2010Prop44ColorRGB
 90
      255
102
RTVSPost2010PropOp44
 70
     1
102
RTVSPost2010Prop45
280
     0
102
RTVSPost2010PropOp45
 70
     1
102
RTVSPost2010Prop46
 90
       50
102
RTVSPost2010PropOp46
 70
     1
102
RTVSPost2010Prop47
 90
       50
102
RTVSPost2010PropOp47
 70
     1
102
RTVSPost2010Prop48
 90
       50
102
RTVSPost2010PropOp48
 70
     1
102
RTVSPost2010Prop49
280
     0
102
RTVSPost2010PropOp49
 70
     1
102
RTVSPost2010Prop50
 90
       50
102
RTVSPost2010PropOp50
 70
     1
102
RTVSPost2010Prop51ColorIndex
 90
      256
102
RTVSPost2010Prop51ColorRGB
 90
-16777216
102
RTVSPost2010PropOp51
 70
     0
102
RTVSPost2010Prop52
140
1.0
102
RTVSPost2010PropOp52
 70
     0
102
RTVSPost2010Prop53
 90
        2
102
RTVSPost2010PropOp53
 70
     1
102
RTVSPost2010Prop54
  1
strokes_ogs.tif
102
RTVSPost2010PropOp54
 70
     1
102
RTVSPost2010Prop55
280
     0
102
RTVSPost2010PropOp55
 70
     1
102
RTVSPost2010Prop56
140
1.0
102
RTVSPost2010PropOp56
 70
     1
102
RTVSPost2010Prop57
140
1.0
102
RTVSPost2010PropOp57
 70
     1
  0
XRECORD
  5
25B
102
{ACAD_REACTORS
330
25A
102
}
330
25A
100
AcDbXrecord
280
     1
102
RTVSPropertyOp0
 70
     1
102
RTVSPropertyOp1
 70
     1
102
RTVSPropertyOp2
 70
     1
102
RTVSPropertyOp3
 70
     1
102
RTVSPropertyOp4
 70
     1
102
RTVSPropertyOp5
 70
     1
102
RTVSPropertyOp6
 70
     1
102
RTVSPropertyOp7
 70
     1
102
RTVSPropertyOp8
 70
     1
102
RTVSPropertyOp9
 70
     1
102
RTVSPropertyOp10
 70
     1
102
RTVSPropertyOp11
 70
     1
102
RTVSPropertyOp12
 70
     1
102
RTVSPropertyOp13
 70
     1
102
RTVSPropertyOp14
 70
     1
102
RTVSPropertyOp15
 70
     1
102
RTVSPropertyOp16
 70
     1
102
RTVSPropertyOp17
 70
     1
102
RTVSPropertyOp18
 70
     1
102
RTVSPropertyOp19
 70
     1
102
RTVSPropertyOp20
 70
     1
102
RTVSPropertyOp21
 70
     1
102
RTVSPropertyOp22
 70
     1
102
RTVSPropertyOp23
 70
     1
102
RTVSPropertyOp24
 70
     1
102
RTVSPropertyOp25
 70
     1
102
RTVSPropertyOp26
 70
     1
102
RTVSPropertyOp27
 70
     1
102
RTVSPropertyOp28
 70
     1
102
RTVSPropertyOp29
 70
     1
102
RTVSPropertyOp30
 70
     1
102
RTVSPropertyOp31
 70
     1
102
RTVSPropertyOp32
 70
     1
102
RTVSPropertyOp33
 70
     1
102
RTVSPropertyOp34
 70
     1
102
RTVSPropertyOp35
 70
     1
102
RTVSPropertyOp36
 70
     1
102
RTVSPropertyOp37
 70
     1
102
RTVSPropertyOp38
 70
     1
102
RTVSPropertyOp39
 70
     1
102
RTVSPropertyOp40
 70
     1
102
RTVSPropertyOp41
 70
     1
102
RTVSPropertyOp42
 70
     1
102
RTVSPropertyOp43
 70
     1
102
RTVSPropertyOp44
 70
     1
102
RTVSPropertyOp45
 70
     1
102
RTVSPropertyOp46
 70
     1
102
RTVSPropertyOp47
 70
     1
102
RTVSPropertyOp48
 70
     1
102
RTVSPropertyOp49
 70
     1
102
RTVSPropertyOp50
 70
     1
102
RTVSPropertyOp51
 70
     0
102
RTVSPropertyOp52
 70
     0
102
RTVSPropertyOp53
 70
     1
102
RTVSPropertyOp54
 70
     1
102
RTVSPropertyOp55
 70
     1
102
RTVSPropertyOp56
 70
     1
102
RTVSPropertyOp57
 70
     1
102
RTVSPost2010Prop28
280
     0
102
RTVSPost2010PropOp28
 70
     1
102
RTVSPost2010Prop29
280
     1
102
RTVSPost2010PropOp29
 70
     1
102
RTVSPost2010Prop30
280
     1
102
RTVSPost2010PropOp30
 70
     1
102
RTVSPost2010Prop31
280
     0
102
RTVSPost2010PropOp31
 70
     1
102
RTVSPost2010Prop32
280
     0
102
RTVSPost2010PropOp32
 70
     1
102
RTVSPost2010Prop33
280
     0
102
RTVSPost2010PropOp33
 70
     1
102
RTVSPost2010Prop34
280
     0
102
RTVSPost2010PropOp34
 70
     1
102
RTVSPost2010Prop35
280
     0
102
RTVSPost2010PropOp35
 70
     1
102
RTVSPost2010Prop36
280
     0
102
RTVSPost2010PropOp36
 70
     1
102
RTVSPost2010Prop37
 90
       50
102
RTVSPost2010PropOp37
 70
     1
102
RTVSPost2010Prop38
140
0.0
102
RTVSPost2010PropOp38
 70
     1
102
RTVSPost2010Prop39
140
1.0
102
RTVSPost2010PropOp39
 70
     1
102
RTVSPost2010Prop40
 90
        0
102
RTVSPost2010PropOp40
 70
     1
102
RTVSPost2010Prop41ColorIndex
 90
       18
102
RTVSPost2010Prop41ColorRGB
 90
        0
102
RTVSPost2010PropOp41
 70
     1
102
RTVSPost2010Prop42
 90
       50
102
RTVSPost2010PropOp42
 70
     1
102
RTVSPost2010Prop43
 90
        3
102
RTVSPost2010PropOp43
 70
     1
102
RTVSPost2010Prop44ColorIndex
 90
        5
102
RTVSPost2010Prop44ColorRGB
 90
      255
102
RTVSPost2010PropOp44
 70
     1
102
RTVSPost2010Prop45
280
     0
102
RTVSPost2010PropOp45
 70
     1
102
RTVSPost2010Prop46
 90
       50
102
RTVSPost2010PropOp46
 70
     1
102
RTVSPost2010Prop47
 90
       50
102
RTVSPost2010PropOp47
 70
     1
102
RTVSPost2010Prop48
 90
       50
102
RTVSPost2010PropOp48
 70
     1
102
RTVSPost2010Prop49
280
     0
102
RTVSPost2010PropOp49
 70
     1
102
RTVSPost2010Prop50
 90
       50
102
RTVSPost2010PropOp50
 70
     1
102
RTVSPost2010Prop51ColorIndex
 90
      256
102
RTVSPost2010Prop51ColorRGB
 90
-16777216
102
RTVSPost2010PropOp51
 70
     0
102
RTVSPost2010Prop52
140
1.0
102
RTVSPost2010PropOp52
 70
     0
102
RTVSPost2010Prop53
 90
        2
102
RTVSPost2010PropOp53
 70
     1
102
RTVSPost2010Prop54
  1
strokes_ogs.tif
102
RTVSPost2010PropOp54
 70
     1
102
RTVSPost2010Prop55
280
     0
102
RTVSPost2010PropOp55
 70
     1
102
RTVSPost2010Prop56
140
1.0
102
RTVSPost2010PropOp56
 70
     1
102
RTVSPost2010Prop57
140
1.0
102
RTVSPost2010PropOp57
 70
     1
  0
XRECORD
  5
24F
102
{ACAD_REACTORS
330
24E
102
}
330
24E
100
AcDbXrecord
280
     1
102
RTVSPropertyOp0
 70
     1
102
RTVSPropertyOp1
 70
     1
102
RTVSPropertyOp2
 70
     1
102
RTVSPropertyOp3
 70
     1
102
RTVSPropertyOp4
 70
     1
102
RTVSPropertyOp5
 70
     1
102
RTVSPropertyOp6
 70
     1
102
RTVSPropertyOp7
 70
     1
102
RTVSPropertyOp8
 70
     1
102
RTVSPropertyOp9
 70
     1
102
RTVSPropertyOp10
 70
     1
102
RTVSPropertyOp11
 70
     1
102
RTVSPropertyOp12
 70
     1
102
RTVSPropertyOp13
 70
     1
102
RTVSPropertyOp14
 70
     1
102
RTVSPropertyOp15
 70
     1
102
RTVSPropertyOp16
 70
     1
102
RTVSPropertyOp17
 70
     1
102
RTVSPropertyOp18
 70
     1
102
RTVSPropertyOp19
 70
     1
102
RTVSPropertyOp20
 70
     1
102
RTVSPropertyOp21
 70
     1
102
RTVSPropertyOp22
 70
     1
102
RTVSPropertyOp23
 70
     1
102
RTVSPropertyOp24
 70
     1
102
RTVSPropertyOp25
 70
     1
102
RTVSPropertyOp26
 70
     1
102
RTVSPropertyOp27
 70
     1
102
RTVSPropertyOp28
 70
     1
102
RTVSPropertyOp29
 70
     1
102
RTVSPropertyOp30
 70
     1
102
RTVSPropertyOp31
 70
     1
102
RTVSPropertyOp32
 70
     1
102
RTVSPropertyOp33
 70
     1
102
RTVSPropertyOp34
 70
     1
102
RTVSPropertyOp35
 70
     1
102
RTVSPropertyOp36
 70
     1
102
RTVSPropertyOp37
 70
     1
102
RTVSPropertyOp38
 70
     1
102
RTVSPropertyOp39
 70
     1
102
RTVSPropertyOp40
 70
     1
102
RTVSPropertyOp41
 70
     1
102
RTVSPropertyOp42
 70
     1
102
RTVSPropertyOp43
 70
     1
102
RTVSPropertyOp44
 70
     1
102
RTVSPropertyOp45
 70
     1
102
RTVSPropertyOp46
 70
     1
102
RTVSPropertyOp47
 70
     1
102
RTVSPropertyOp48
 70
     1
102
RTVSPropertyOp49
 70
     1
102
RTVSPropertyOp50
 70
     1
102
RTVSPropertyOp51
 70
     0
102
RTVSPropertyOp52
 70
     0
102
RTVSPropertyOp53
 70
     1
102
RTVSPropertyOp54
 70
     1
102
RTVSPropertyOp55
 70
     1
102
RTVSPropertyOp56
 70
     1
102
RTVSPropertyOp57
 70
     1
102
RTVSPost2010Prop28
280
     0
102
RTVSPost2010PropOp28
 70
     1
102
RTVSPost2010Prop29
280
     1
102
RTVSPost2010PropOp29
 70
     1
102
RTVSPost2010Prop30
280
     1
102
RTVSPost2010PropOp30
 70
     1
102
RTVSPost2010Prop31
280
     0
102
RTVSPost2010PropOp31
 70
     1
102
RTVSPost2010Prop32
280
     0
102
RTVSPost2010PropOp32
 70
     1
102
RTVSPost2010Prop33
280
     0
102
RTVSPost2010PropOp33
 70
     1
102
RTVSPost2010Prop34
280
     0
102
RTVSPost2010PropOp34
 70
     1
102
RTVSPost2010Prop35
280
     0
102
RTVSPost2010PropOp35
 70
     1
102
RTVSPost2010Prop36
280
     0
102
RTVSPost2010PropOp36
 70
     1
102
RTVSPost2010Prop37
 90
       50
102
RTVSPost2010PropOp37
 70
     1
102
RTVSPost2010Prop38
140
0.0
102
RTVSPost2010PropOp38
 70
     1
102
RTVSPost2010Prop39
140
1.0
102
RTVSPost2010PropOp39
 70
     1
102
RTVSPost2010Prop40
 90
        0
102
RTVSPost2010PropOp40
 70
     1
102
RTVSPost2010Prop41ColorIndex
 90
       18
102
RTVSPost2010Prop41ColorRGB
 90
        0
102
RTVSPost2010PropOp41
 70
     1
102
RTVSPost2010Prop42
 90
       50
102
RTVSPost2010PropOp42
 70
     1
102
RTVSPost2010Prop43
 90
        3
102
RTVSPost2010PropOp43
 70
     1
102
RTVSPost2010Prop44ColorIndex
 90
        5
102
RTVSPost2010Prop44ColorRGB
 90
      255
102
RTVSPost2010PropOp44
 70
     1
102
RTVSPost2010Prop45
280
     0
102
RTVSPost2010PropOp45
 70
     1
102
RTVSPost2010Prop46
 90
       50
102
RTVSPost2010PropOp46
 70
     1
102
RTVSPost2010Prop47
 90
       50
102
RTVSPost2010PropOp47
 70
     1
102
RTVSPost2010Prop48
 90
       50
102
RTVSPost2010PropOp48
 70
     1
102
RTVSPost2010Prop49
280
     0
102
RTVSPost2010PropOp49
 70
     1
102
RTVSPost2010Prop50
 90
       50
102
RTVSPost2010PropOp50
 70
     1
102
RTVSPost2010Prop51ColorIndex
 90
      256
102
RTVSPost2010Prop51ColorRGB
 90
-16777216
102
RTVSPost2010PropOp51
 70
     0
102
RTVSPost2010Prop52
140
1.0
102
RTVSPost2010PropOp52
 70
     0
102
RTVSPost2010Prop53
 90
        2
102
RTVSPost2010PropOp53
 70
     1
102
RTVSPost2010Prop54
  1
strokes_ogs.tif
102
RTVSPost2010PropOp54
 70
     1
102
RTVSPost2010Prop55
280
     0
102
RTVSPost2010PropOp55
 70
     1
102
RTVSPost2010Prop56
140
1.0
102
RTVSPost2010PropOp56
 70
     1
102
RTVSPost2010Prop57
140
1.0
102
RTVSPost2010PropOp57
 70
     1
  0
XRECORD
  5
251
102
{ACAD_REACTORS
330
250
102
}
330
250
100
AcDbXrecord
280
     1
102
RTVSPropertyOp0
 70
     1
102
RTVSPropertyOp1
 70
     1
102
RTVSPropertyOp2
 70
     1
102
RTVSPropertyOp3
 70
     1
102
RTVSPropertyOp4
 70
     1
102
RTVSPropertyOp5
 70
     1
102
RTVSPropertyOp6
 70
     1
102
RTVSPropertyOp7
 70
     1
102
RTVSPropertyOp8
 70
     1
102
RTVSPropertyOp9
 70
     1
102
RTVSPropertyOp10
 70
     1
102
RTVSPropertyOp11
 70
     1
102
RTVSPropertyOp12
 70
     1
102
RTVSPropertyOp13
 70
     1
102
RTVSPropertyOp14
 70
     1
102
RTVSPropertyOp15
 70
     1
102
RTVSPropertyOp16
 70
     1
102
RTVSPropertyOp17
 70
     1
102
RTVSPropertyOp18
 70
     1
102
RTVSPropertyOp19
 70
     1
102
RTVSPropertyOp20
 70
     1
102
RTVSPropertyOp21
 70
     1
102
RTVSPropertyOp22
 70
     1
102
RTVSPropertyOp23
 70
     1
102
RTVSPropertyOp24
 70
     1
102
RTVSPropertyOp25
 70
     1
102
RTVSPropertyOp26
 70
     1
102
RTVSPropertyOp27
 70
     1
102
RTVSPropertyOp28
 70
     1
102
RTVSPropertyOp29
 70
     1
102
RTVSPropertyOp30
 70
     1
102
RTVSPropertyOp31
 70
     1
102
RTVSPropertyOp32
 70
     1
102
RTVSPropertyOp33
 70
     1
102
RTVSPropertyOp34
 70
     1
102
RTVSPropertyOp35
 70
     1
102
RTVSPropertyOp36
 70
     1
102
RTVSPropertyOp37
 70
     1
102
RTVSPropertyOp38
 70
     1
102
RTVSPropertyOp39
 70
     1
102
RTVSPropertyOp40
 70
     1
102
RTVSPropertyOp41
 70
     1
102
RTVSPropertyOp42
 70
     1
102
RTVSPropertyOp43
 70
     1
102
RTVSPropertyOp44
 70
     1
102
RTVSPropertyOp45
 70
     1
102
RTVSPropertyOp46
 70
     1
102
RTVSPropertyOp47
 70
     1
102
RTVSPropertyOp48
 70
     1
102
RTVSPropertyOp49
 70
     1
102
RTVSPropertyOp50
 70
     1
102
RTVSPropertyOp51
 70
     0
102
RTVSPropertyOp52
 70
     0
102
RTVSPropertyOp53
 70
     1
102
RTVSPropertyOp54
 70
     1
102
RTVSPropertyOp55
 70
     1
102
RTVSPropertyOp56
 70
     1
102
RTVSPropertyOp57
 70
     1
102
RTVSPost2010Prop28
280
     0
102
RTVSPost2010PropOp28
 70
     1
102
RTVSPost2010Prop29
280
     1
102
RTVSPost2010PropOp29
 70
     1
102
RTVSPost2010Prop30
280
     1
102
RTVSPost2010PropOp30
 70
     1
102
RTVSPost2010Prop31
280
     0
102
RTVSPost2010PropOp31
 70
     1
102
RTVSPost2010Prop32
280
     0
102
RTVSPost2010PropOp32
 70
     1
102
RTVSPost2010Prop33
280
     0
102
RTVSPost2010PropOp33
 70
     1
102
RTVSPost2010Prop34
280
     0
102
RTVSPost2010PropOp34
 70
     1
102
RTVSPost2010Prop35
280
     0
102
RTVSPost2010PropOp35
 70
     1
102
RTVSPost2010Prop36
280
     0
102
RTVSPost2010PropOp36
 70
     1
102
RTVSPost2010Prop37
 90
       50
102
RTVSPost2010PropOp37
 70
     1
102
RTVSPost2010Prop38
140
0.0
102
RTVSPost2010PropOp38
 70
     1
102
RTVSPost2010Prop39
140
1.0
102
RTVSPost2010PropOp39
 70
     1
102
RTVSPost2010Prop40
 90
        0
102
RTVSPost2010PropOp40
 70
     1
102
RTVSPost2010Prop41ColorIndex
 90
       18
102
RTVSPost2010Prop41ColorRGB
 90
        0
102
RTVSPost2010PropOp41
 70
     1
102
RTVSPost2010Prop42
 90
       50
102
RTVSPost2010PropOp42
 70
     1
102
RTVSPost2010Prop43
 90
        3
102
RTVSPost2010PropOp43
 70
     1
102
RTVSPost2010Prop44ColorIndex
 90
        5
102
RTVSPost2010Prop44ColorRGB
 90
      255
102
RTVSPost2010PropOp44
 70
     1
102
RTVSPost2010Prop45
280
     0
102
RTVSPost2010PropOp45
 70
     1
102
RTVSPost2010Prop46
 90
       50
102
RTVSPost2010PropOp46
 70
     1
102
RTVSPost2010Prop47
 90
       50
102
RTVSPost2010PropOp47
 70
     1
102
RTVSPost2010Prop48
 90
       50
102
RTVSPost2010PropOp48
 70
     1
102
RTVSPost2010Prop49
280
     0
102
RTVSPost2010PropOp49
 70
     1
102
RTVSPost2010Prop50
 90
       50
102
RTVSPost2010PropOp50
 70
     1
102
RTVSPost2010Prop51ColorIndex
 90
      256
102
RTVSPost2010Prop51ColorRGB
 90
-16777216
102
RTVSPost2010PropOp51
 70
     0
102
RTVSPost2010Prop52
140
1.0
102
RTVSPost2010PropOp52
 70
     0
102
RTVSPost2010Prop53
 90
        2
102
RTVSPost2010PropOp53
 70
     1
102
RTVSPost2010Prop54
  1
strokes_ogs.tif
102
RTVSPost2010PropOp54
 70
     1
102
RTVSPost2010Prop55
280
     0
102
RTVSPost2010PropOp55
 70
     1
102
RTVSPost2010Prop56
140
1.0
102
RTVSPost2010PropOp56
 70
     1
102
RTVSPost2010Prop57
140
1.0
102
RTVSPost2010PropOp57
 70
     1
  0
XRECORD
  5
261
102
{ACAD_REACTORS
330
260
102
}
330
260
100
AcDbXrecord
280
     1
102
RTVSPropertyOp0
 70
     0
102
RTVSPropertyOp1
 70
     0
102
RTVSPropertyOp2
 70
     0
102
RTVSPropertyOp3
 70
     0
102
RTVSPropertyOp4
 70
     0
102
RTVSPropertyOp5
 70
     0
102
RTVSPropertyOp6
 70
     0
102
RTVSPropertyOp7
 70
     0
102
RTVSPropertyOp8
 70
     0
102
RTVSPropertyOp9
 70
     0
102
RTVSPropertyOp10
 70
     0
102
RTVSPropertyOp11
 70
     0
102
RTVSPropertyOp12
 70
     0
102
RTVSPropertyOp13
 70
     0
102
RTVSPropertyOp14
 70
     2
102
RTVSPropertyOp15
 70
     0
102
RTVSPropertyOp16
 70
     0
102
RTVSPropertyOp17
 70
     0
102
RTVSPropertyOp18
 70
     0
102
RTVSPropertyOp19
 70
     0
102
RTVSPropertyOp20
 70
     0
102
RTVSPropertyOp21
 70
     0
102
RTVSPropertyOp22
 70
     0
102
RTVSPropertyOp23
 70
     0
102
RTVSPropertyOp24
 70
     0
102
RTVSPropertyOp25
 70
     0
102
RTVSPropertyOp26
 70
     0
102
RTVSPropertyOp27
 70
     0
102
RTVSPropertyOp28
 70
     0
102
RTVSPropertyOp29
 70
     0
102
RTVSPropertyOp30
 70
     0
102
RTVSPropertyOp31
 70
     0
102
RTVSPropertyOp32
 70
     0
102
RTVSPropertyOp33
 70
     0
102
RTVSPropertyOp34
 70
     0
102
RTVSPropertyOp35
 70
     0
102
RTVSPropertyOp36
 70
     0
102
RTVSPropertyOp37
 70
     0
102
RTVSPropertyOp38
 70
     0
102
RTVSPropertyOp39
 70
     0
102
RTVSPropertyOp40
 70
     0
102
RTVSPropertyOp41
 70
     0
102
RTVSPropertyOp42
 70
     0
102
RTVSPropertyOp43
 70
     0
102
RTVSPropertyOp44
 70
     0
102
RTVSPropertyOp45
 70
     0
102
RTVSPropertyOp46
 70
     0
102
RTVSPropertyOp47
 70
     0
102
RTVSPropertyOp48
 70
     0
102
RTVSPropertyOp49
 70
     0
102
RTVSPropertyOp50
 70
     0
102
RTVSPropertyOp51
 70
     0
102
RTVSPropertyOp52
 70
     0
102
RTVSPropertyOp53
 70
     0
102
RTVSPropertyOp54
 70
     0
102
RTVSPropertyOp55
 70
     0
102
RTVSPropertyOp56
 70
     0
102
RTVSPropertyOp57
 70
     0
102
RTVSPost2010Prop28
280
     0
102
RTVSPost2010PropOp28
 70
     0
102
RTVSPost2010Prop29
280
     1
102
RTVSPost2010PropOp29
 70
     0
102
RTVSPost2010Prop30
280
     1
102
RTVSPost2010PropOp30
 70
     0
102
RTVSPost2010Prop31
280
     0
102
RTVSPost2010PropOp31
 70
     0
102
RTVSPost2010Prop32
280
     0
102
RTVSPost2010PropOp32
 70
     0
102
RTVSPost2010Prop33
280
     0
102
RTVSPost2010PropOp33
 70
     0
102
RTVSPost2010Prop34
280
     0
102
RTVSPost2010PropOp34
 70
     0
102
RTVSPost2010Prop35
280
     0
102
RTVSPost2010PropOp35
 70
     0
102
RTVSPost2010Prop36
280
     0
102
RTVSPost2010PropOp36
 70
     0
102
RTVSPost2010Prop37
 90
       50
102
RTVSPost2010PropOp37
 70
     0
102
RTVSPost2010Prop38
140
0.0
102
RTVSPost2010PropOp38
 70
     0
102
RTVSPost2010Prop39
140
1.0
102
RTVSPost2010PropOp39
 70
     0
102
RTVSPost2010Prop40
 90
        0
102
RTVSPost2010PropOp40
 70
     0
102
RTVSPost2010Prop41ColorIndex
 90
       18
102
RTVSPost2010Prop41ColorRGB
 90
        0
102
RTVSPost2010PropOp41
 70
     0
102
RTVSPost2010Prop42
 90
       50
102
RTVSPost2010PropOp42
 70
     0
102
RTVSPost2010Prop43
 90
        3
102
RTVSPost2010PropOp43
 70
     0
102
RTVSPost2010Prop44ColorIndex
 90
        5
102
RTVSPost2010Prop44ColorRGB
 90
      255
102
RTVSPost2010PropOp44
 70
     0
102
RTVSPost2010Prop45
280
     0
102
RTVSPost2010PropOp45
 70
     0
102
RTVSPost2010Prop46
 90
       50
102
RTVSPost2010PropOp46
 70
     0
102
RTVSPost2010Prop47
 90
       50
102
RTVSPost2010PropOp47
 70
     0
102
RTVSPost2010Prop48
 90
       50
102
RTVSPost2010PropOp48
 70
     0
102
RTVSPost2010Prop49
280
     0
102
RTVSPost2010PropOp49
 70
     0
102
RTVSPost2010Prop50
 90
       50
102
RTVSPost2010PropOp50
 70
     0
102
RTVSPost2010Prop51ColorIndex
 90
      256
102
RTVSPost2010Prop51ColorRGB
 90
-16777216
102
RTVSPost2010PropOp51
 70
     0
102
RTVSPost2010Prop52
140
1.0
102
RTVSPost2010PropOp52
 70
     0
102
RTVSPost2010Prop53
 90
        2
102
RTVSPost2010PropOp53
 70
     0
102
RTVSPost2010Prop54
  1
strokes_ogs.tif
102
RTVSPost2010PropOp54
 70
     0
102
RTVSPost2010Prop55
280
     0
102
RTVSPost2010PropOp55
 70
     0
102
RTVSPost2010Prop56
140
1.0
102
RTVSPost2010PropOp56
 70
     0
102
RTVSPost2010Prop57
140
1.0
102
RTVSPost2010PropOp57
 70
     0
  0
XRECORD
  5
259
102
{ACAD_REACTORS
330
258
102
}
330
258
100
AcDbXrecord
280
     1
102
RTVSPropertyOp0
 70
     1
102
RTVSPropertyOp1
 70
     1
102
RTVSPropertyOp2
 70
     1
102
RTVSPropertyOp3
 70
     1
102
RTVSPropertyOp4
 70
     1
102
RTVSPropertyOp5
 70
     1
102
RTVSPropertyOp6
 70
     1
102
RTVSPropertyOp7
 70
     1
102
RTVSPropertyOp8
 70
     1
102
RTVSPropertyOp9
 70
     1
102
RTVSPropertyOp10
 70
     1
102
RTVSPropertyOp11
 70
     1
102
RTVSPropertyOp12
 70
     1
102
RTVSPropertyOp13
 70
     1
102
RTVSPropertyOp14
 70
     1
102
RTVSPropertyOp15
 70
     1
102
RTVSPropertyOp16
 70
     1
102
RTVSPropertyOp17
 70
     1
102
RTVSPropertyOp18
 70
     1
102
RTVSPropertyOp19
 70
     1
102
RTVSPropertyOp20
 70
     1
102
RTVSPropertyOp21
 70
     1
102
RTVSPropertyOp22
 70
     1
102
RTVSPropertyOp23
 70
     1
102
RTVSPropertyOp24
 70
     1
102
RTVSPropertyOp25
 70
     1
102
RTVSPropertyOp26
 70
     1
102
RTVSPropertyOp27
 70
     1
102
RTVSPropertyOp28
 70
     1
102
RTVSPropertyOp29
 70
     1
102
RTVSPropertyOp30
 70
     1
102
RTVSPropertyOp31
 70
     1
102
RTVSPropertyOp32
 70
     1
102
RTVSPropertyOp33
 70
     1
102
RTVSPropertyOp34
 70
     1
102
RTVSPropertyOp35
 70
     1
102
RTVSPropertyOp36
 70
     1
102
RTVSPropertyOp37
 70
     1
102
RTVSPropertyOp38
 70
     1
102
RTVSPropertyOp39
 70
     1
102
RTVSPropertyOp40
 70
     1
102
RTVSPropertyOp41
 70
     1
102
RTVSPropertyOp42
 70
     1
102
RTVSPropertyOp43
 70
     1
102
RTVSPropertyOp44
 70
     1
102
RTVSPropertyOp45
 70
     1
102
RTVSPropertyOp46
 70
     1
102
RTVSPropertyOp47
 70
     1
102
RTVSPropertyOp48
 70
     1
102
RTVSPropertyOp49
 70
     1
102
RTVSPropertyOp50
 70
     1
102
RTVSPropertyOp51
 70
     0
102
RTVSPropertyOp52
 70
     0
102
RTVSPropertyOp53
 70
     1
102
RTVSPropertyOp54
 70
     1
102
RTVSPropertyOp55
 70
     1
102
RTVSPropertyOp56
 70
     1
102
RTVSPropertyOp57
 70
     1
102
RTVSPost2010Prop28
280
     0
102
RTVSPost2010PropOp28
 70
     1
102
RTVSPost2010Prop29
280
     1
102
RTVSPost2010PropOp29
 70
     1
102
RTVSPost2010Prop30
280
     1
102
RTVSPost2010PropOp30
 70
     1
102
RTVSPost2010Prop31
280
     0
102
RTVSPost2010PropOp31
 70
     1
102
RTVSPost2010Prop32
280
     0
102
RTVSPost2010PropOp32
 70
     1
102
RTVSPost2010Prop33
280
     0
102
RTVSPost2010PropOp33
 70
     1
102
RTVSPost2010Prop34
280
     0
102
RTVSPost2010PropOp34
 70
     1
102
RTVSPost2010Prop35
280
     0
102
RTVSPost2010PropOp35
 70
     1
102
RTVSPost2010Prop36
280
     0
102
RTVSPost2010PropOp36
 70
     1
102
RTVSPost2010Prop37
 90
       50
102
RTVSPost2010PropOp37
 70
     1
102
RTVSPost2010Prop38
140
0.0
102
RTVSPost2010PropOp38
 70
     1
102
RTVSPost2010Prop39
140
1.0
102
RTVSPost2010PropOp39
 70
     1
102
RTVSPost2010Prop40
 90
        0
102
RTVSPost2010PropOp40
 70
     1
102
RTVSPost2010Prop41ColorIndex
 90
       18
102
RTVSPost2010Prop41ColorRGB
 90
        0
102
RTVSPost2010PropOp41
 70
     1
102
RTVSPost2010Prop42
 90
       50
102
RTVSPost2010PropOp42
 70
     1
102
RTVSPost2010Prop43
 90
        3
102
RTVSPost2010PropOp43
 70
     1
102
RTVSPost2010Prop44ColorIndex
 90
        5
102
RTVSPost2010Prop44ColorRGB
 90
      255
102
RTVSPost2010PropOp44
 70
     1
102
RTVSPost2010Prop45
280
     0
102
RTVSPost2010PropOp45
 70
     1
102
RTVSPost2010Prop46
 90
       50
102
RTVSPost2010PropOp46
 70
     1
102
RTVSPost2010Prop47
 90
       50
102
RTVSPost2010PropOp47
 70
     1
102
RTVSPost2010Prop48
 90
       50
102
RTVSPost2010PropOp48
 70
     1
102
RTVSPost2010Prop49
280
     0
102
RTVSPost2010PropOp49
 70
     1
102
RTVSPost2010Prop50
 90
       50
102
RTVSPost2010PropOp50
 70
     1
102
RTVSPost2010Prop51ColorIndex
 90
      256
102
RTVSPost2010Prop51ColorRGB
 90
-16777216
102
RTVSPost2010PropOp51
 70
     0
102
RTVSPost2010Prop52
140
1.0
102
RTVSPost2010PropOp52
 70
     0
102
RTVSPost2010Prop53
 90
        2
102
RTVSPost2010PropOp53
 70
     1
102
RTVSPost2010Prop54
  1
strokes_ogs.tif
102
RTVSPost2010PropOp54
 70
     1
102
RTVSPost2010Prop55
280
     0
102
RTVSPost2010PropOp55
 70
     1
102
RTVSPost2010Prop56
140
1.0
102
RTVSPost2010PropOp56
 70
     1
102
RTVSPost2010Prop57
140
1.0
102
RTVSPost2010PropOp57
 70
     1
  0
XRECORD
  5
23D
102
{ACAD_REACTORS
330
23C
102
}
330
23C
100
AcDbXrecord
280
     1
102
RTVSPropertyOp0
 70
     1
102
RTVSPropertyOp1
 70
     1
102
RTVSPropertyOp2
 70
     1
102
RTVSPropertyOp3
 70
     1
102
RTVSPropertyOp4
 70
     1
102
RTVSPropertyOp5
 70
     1
102
RTVSPropertyOp6
 70
     1
102
RTVSPropertyOp7
 70
     1
102
RTVSPropertyOp8
 70
     1
102
RTVSPropertyOp9
 70
     1
102
RTVSPropertyOp10
 70
     1
102
RTVSPropertyOp11
 70
     1
102
RTVSPropertyOp12
 70
     1
102
RTVSPropertyOp13
 70
     1
102
RTVSPropertyOp14
 70
     1
102
RTVSPropertyOp15
 70
     1
102
RTVSPropertyOp16
 70
     1
102
RTVSPropertyOp17
 70
     1
102
RTVSPropertyOp18
 70
     1
102
RTVSPropertyOp19
 70
     1
102
RTVSPropertyOp20
 70
     1
102
RTVSPropertyOp21
 70
     1
102
RTVSPropertyOp22
 70
     1
102
RTVSPropertyOp23
 70
     1
102
RTVSPropertyOp24
 70
     1
102
RTVSPropertyOp25
 70
     1
102
RTVSPropertyOp26
 70
     1
102
RTVSPropertyOp27
 70
     1
102
RTVSPropertyOp28
 70
     1
102
RTVSPropertyOp29
 70
     1
102
RTVSPropertyOp30
 70
     1
102
RTVSPropertyOp31
 70
     1
102
RTVSPropertyOp32
 70
     1
102
RTVSPropertyOp33
 70
     1
102
RTVSPropertyOp34
 70
     1
102
RTVSPropertyOp35
 70
     1
102
RTVSPropertyOp36
 70
     1
102
RTVSPropertyOp37
 70
     1
102
RTVSPropertyOp38
 70
     1
102
RTVSPropertyOp39
 70
     1
102
RTVSPropertyOp40
 70
     1
102
RTVSPropertyOp41
 70
     1
102
RTVSPropertyOp42
 70
     1
102
RTVSPropertyOp43
 70
     1
102
RTVSPropertyOp44
 70
     1
102
RTVSPropertyOp45
 70
     1
102
RTVSPropertyOp46
 70
     1
102
RTVSPropertyOp47
 70
     1
102
RTVSPropertyOp48
 70
     1
102
RTVSPropertyOp49
 70
     1
102
RTVSPropertyOp50
 70
     1
102
RTVSPropertyOp51
 70
     0
102
RTVSPropertyOp52
 70
     0
102
RTVSPropertyOp53
 70
     1
102
RTVSPropertyOp54
 70
     1
102
RTVSPropertyOp55
 70
     1
102
RTVSPropertyOp56
 70
     1
102
RTVSPropertyOp57
 70
     1
102
RTVSPost2010Prop28
280
     0
102
RTVSPost2010PropOp28
 70
     1
102
RTVSPost2010Prop29
280
     1
102
RTVSPost2010PropOp29
 70
     1
102
RTVSPost2010Prop30
280
     1
102
RTVSPost2010PropOp30
 70
     1
102
RTVSPost2010Prop31
280
     0
102
RTVSPost2010PropOp31
 70
     1
102
RTVSPost2010Prop32
280
     0
102
RTVSPost2010PropOp32
 70
     1
102
RTVSPost2010Prop33
280
     0
102
RTVSPost2010PropOp33
 70
     1
102
RTVSPost2010Prop34
280
     0
102
RTVSPost2010PropOp34
 70
     1
102
RTVSPost2010Prop35
280
     0
102
RTVSPost2010PropOp35
 70
     1
102
RTVSPost2010Prop36
280
     0
102
RTVSPost2010PropOp36
 70
     1
102
RTVSPost2010Prop37
 90
       50
102
RTVSPost2010PropOp37
 70
     1
102
RTVSPost2010Prop38
140
0.0
102
RTVSPost2010PropOp38
 70
     1
102
RTVSPost2010Prop39
140
1.0
102
RTVSPost2010PropOp39
 70
     1
102
RTVSPost2010Prop40
 90
        0
102
RTVSPost2010PropOp40
 70
     1
102
RTVSPost2010Prop41ColorIndex
 90
       18
102
RTVSPost2010Prop41ColorRGB
 90
        0
102
RTVSPost2010PropOp41
 70
     1
102
RTVSPost2010Prop42
 90
       50
102
RTVSPost2010PropOp42
 70
     1
102
RTVSPost2010Prop43
 90
        3
102
RTVSPost2010PropOp43
 70
     1
102
RTVSPost2010Prop44ColorIndex
 90
        5
102
RTVSPost2010Prop44ColorRGB
 90
      255
102
RTVSPost2010PropOp44
 70
     1
102
RTVSPost2010Prop45
280
     0
102
RTVSPost2010PropOp45
 70
     1
102
RTVSPost2010Prop46
 90
       50
102
RTVSPost2010PropOp46
 70
     1
102
RTVSPost2010Prop47
 90
       50
102
RTVSPost2010PropOp47
 70
     1
102
RTVSPost2010Prop48
 90
       50
102
RTVSPost2010PropOp48
 70
     1
102
RTVSPost2010Prop49
280
     0
102
RTVSPost2010PropOp49
 70
     1
102
RTVSPost2010Prop50
 90
       50
102
RTVSPost2010PropOp50
 70
     1
102
RTVSPost2010Prop51ColorIndex
 90
      256
102
RTVSPost2010Prop51ColorRGB
 90
-16777216
102
RTVSPost2010PropOp51
 70
     0
102
RTVSPost2010Prop52
140
1.0
102
RTVSPost2010PropOp52
 70
     0
102
RTVSPost2010Prop53
 90
        2
102
RTVSPost2010PropOp53
 70
     1
102
RTVSPost2010Prop54
  1
strokes_ogs.tif
102
RTVSPost2010PropOp54
 70
     1
102
RTVSPost2010Prop55
280
     0
102
RTVSPost2010PropOp55
 70
     1
102
RTVSPost2010Prop56
140
1.0
102
RTVSPost2010PropOp56
 70
     1
102
RTVSPost2010Prop57
140
1.0
102
RTVSPost2010PropOp57
 70
     1
  0
XRECORD
  5
23F
102
{ACAD_REACTORS
330
23E
102
}
330
23E
100
AcDbXrecord
280
     1
102
RTVSPropertyOp0
 70
     1
102
RTVSPropertyOp1
 70
     1
102
RTVSPropertyOp2
 70
     1
102
RTVSPropertyOp3
 70
     1
102
RTVSPropertyOp4
 70
     1
102
RTVSPropertyOp5
 70
     1
102
RTVSPropertyOp6
 70
     1
102
RTVSPropertyOp7
 70
     1
102
RTVSPropertyOp8
 70
     1
102
RTVSPropertyOp9
 70
     1
102
RTVSPropertyOp10
 70
     1
102
RTVSPropertyOp11
 70
     1
102
RTVSPropertyOp12
 70
     1
102
RTVSPropertyOp13
 70
     1
102
RTVSPropertyOp14
 70
     1
102
RTVSPropertyOp15
 70
     1
102
RTVSPropertyOp16
 70
     1
102
RTVSPropertyOp17
 70
     1
102
RTVSPropertyOp18
 70
     1
102
RTVSPropertyOp19
 70
     1
102
RTVSPropertyOp20
 70
     1
102
RTVSPropertyOp21
 70
     1
102
RTVSPropertyOp22
 70
     1
102
RTVSPropertyOp23
 70
     1
102
RTVSPropertyOp24
 70
     1
102
RTVSPropertyOp25
 70
     1
102
RTVSPropertyOp26
 70
     1
102
RTVSPropertyOp27
 70
     1
102
RTVSPropertyOp28
 70
     1
102
RTVSPropertyOp29
 70
     1
102
RTVSPropertyOp30
 70
     1
102
RTVSPropertyOp31
 70
     1
102
RTVSPropertyOp32
 70
     1
102
RTVSPropertyOp33
 70
     1
102
RTVSPropertyOp34
 70
     1
102
RTVSPropertyOp35
 70
     1
102
RTVSPropertyOp36
 70
     1
102
RTVSPropertyOp37
 70
     1
102
RTVSPropertyOp38
 70
     1
102
RTVSPropertyOp39
 70
     1
102
RTVSPropertyOp40
 70
     1
102
RTVSPropertyOp41
 70
     1
102
RTVSPropertyOp42
 70
     1
102
RTVSPropertyOp43
 70
     1
102
RTVSPropertyOp44
 70
     1
102
RTVSPropertyOp45
 70
     1
102
RTVSPropertyOp46
 70
     1
102
RTVSPropertyOp47
 70
     1
102
RTVSPropertyOp48
 70
     1
102
RTVSPropertyOp49
 70
     1
102
RTVSPropertyOp50
 70
     1
102
RTVSPropertyOp51
 70
     0
102
RTVSPropertyOp52
 70
     0
102
RTVSPropertyOp53
 70
     1
102
RTVSPropertyOp54
 70
     1
102
RTVSPropertyOp55
 70
     1
102
RTVSPropertyOp56
 70
     1
102
RTVSPropertyOp57
 70
     1
102
RTVSPost2010Prop28
280
     0
102
RTVSPost2010PropOp28
 70
     1
102
RTVSPost2010Prop29
280
     1
102
RTVSPost2010PropOp29
 70
     1
102
RTVSPost2010Prop30
280
     1
102
RTVSPost2010PropOp30
 70
     1
102
RTVSPost2010Prop31
280
     0
102
RTVSPost2010PropOp31
 70
     1
102
RTVSPost2010Prop32
280
     0
102
RTVSPost2010PropOp32
 70
     1
102
RTVSPost2010Prop33
280
     0
102
RTVSPost2010PropOp33
 70
     1
102
RTVSPost2010Prop34
280
     0
102
RTVSPost2010PropOp34
 70
     1
102
RTVSPost2010Prop35
280
     0
102
RTVSPost2010PropOp35
 70
     1
102
RTVSPost2010Prop36
280
     0
102
RTVSPost2010PropOp36
 70
     1
102
RTVSPost2010Prop37
 90
       50
102
RTVSPost2010PropOp37
 70
     1
102
RTVSPost2010Prop38
140
0.0
102
RTVSPost2010PropOp38
 70
     1
102
RTVSPost2010Prop39
140
1.0
102
RTVSPost2010PropOp39
 70
     1
102
RTVSPost2010Prop40
 90
        0
102
RTVSPost2010PropOp40
 70
     1
102
RTVSPost2010Prop41ColorIndex
 90
       18
102
RTVSPost2010Prop41ColorRGB
 90
        0
102
RTVSPost2010PropOp41
 70
     1
102
RTVSPost2010Prop42
 90
       50
102
RTVSPost2010PropOp42
 70
     1
102
RTVSPost2010Prop43
 90
        3
102
RTVSPost2010PropOp43
 70
     1
102
RTVSPost2010Prop44ColorIndex
 90
        5
102
RTVSPost2010Prop44ColorRGB
 90
      255
102
RTVSPost2010PropOp44
 70
     1
102
RTVSPost2010Prop45
280
     0
102
RTVSPost2010PropOp45
 70
     1
102
RTVSPost2010Prop46
 90
       50
102
RTVSPost2010PropOp46
 70
     1
102
RTVSPost2010Prop47
 90
       50
102
RTVSPost2010PropOp47
 70
     1
102
RTVSPost2010Prop48
 90
       50
102
RTVSPost2010PropOp48
 70
     1
102
RTVSPost2010Prop49
280
     0
102
RTVSPost2010PropOp49
 70
     1
102
RTVSPost2010Prop50
 90
       50
102
RTVSPost2010PropOp50
 70
     1
102
RTVSPost2010Prop51ColorIndex
 90
      256
102
RTVSPost2010Prop51ColorRGB
 90
-16777216
102
RTVSPost2010PropOp51
 70
     0
102
RTVSPost2010Prop52
140
1.0
102
RTVSPost2010PropOp52
 70
     0
102
RTVSPost2010Prop53
 90
        2
102
RTVSPost2010PropOp53
 70
     1
102
RTVSPost2010Prop54
  1
strokes_ogs.tif
102
RTVSPost2010PropOp54
 70
     1
102
RTVSPost2010Prop55
280
     0
102
RTVSPost2010PropOp55
 70
     1
102
RTVSPost2010Prop56
140
1.0
102
RTVSPost2010PropOp56
 70
     1
102
RTVSPost2010Prop57
140
1.0
102
RTVSPost2010PropOp57
 70
     1
  0
XRECORD
  5
241
102
{ACAD_REACTORS
330
240
102
}
330
240
100
AcDbXrecord
280
     1
102
RTVSPropertyOp0
 70
     1
102
RTVSPropertyOp1
 70
     1
102
RTVSPropertyOp2
 70
     1
102
RTVSPropertyOp3
 70
     1
102
RTVSPropertyOp4
 70
     1
102
RTVSPropertyOp5
 70
     1
102
RTVSPropertyOp6
 70
     1
102
RTVSPropertyOp7
 70
     1
102
RTVSPropertyOp8
 70
     1
102
RTVSPropertyOp9
 70
     1
102
RTVSPropertyOp10
 70
     1
102
RTVSPropertyOp11
 70
     1
102
RTVSPropertyOp12
 70
     1
102
RTVSPropertyOp13
 70
     1
102
RTVSPropertyOp14
 70
     1
102
RTVSPropertyOp15
 70
     1
102
RTVSPropertyOp16
 70
     1
102
RTVSPropertyOp17
 70
     1
102
RTVSPropertyOp18
 70
     1
102
RTVSPropertyOp19
 70
     1
102
RTVSPropertyOp20
 70
     1
102
RTVSPropertyOp21
 70
     1
102
RTVSPropertyOp22
 70
     1
102
RTVSPropertyOp23
 70
     1
102
RTVSPropertyOp24
 70
     1
102
RTVSPropertyOp25
 70
     1
102
RTVSPropertyOp26
 70
     1
102
RTVSPropertyOp27
 70
     1
102
RTVSPropertyOp28
 70
     1
102
RTVSPropertyOp29
 70
     1
102
RTVSPropertyOp30
 70
     1
102
RTVSPropertyOp31
 70
     1
102
RTVSPropertyOp32
 70
     1
102
RTVSPropertyOp33
 70
     1
102
RTVSPropertyOp34
 70
     1
102
RTVSPropertyOp35
 70
     1
102
RTVSPropertyOp36
 70
     1
102
RTVSPropertyOp37
 70
     1
102
RTVSPropertyOp38
 70
     1
102
RTVSPropertyOp39
 70
     1
102
RTVSPropertyOp40
 70
     1
102
RTVSPropertyOp41
 70
     1
102
RTVSPropertyOp42
 70
     1
102
RTVSPropertyOp43
 70
     1
102
RTVSPropertyOp44
 70
     1
102
RTVSPropertyOp45
 70
     1
102
RTVSPropertyOp46
 70
     1
102
RTVSPropertyOp47
 70
     1
102
RTVSPropertyOp48
 70
     1
102
RTVSPropertyOp49
 70
     1
102
RTVSPropertyOp50
 70
     1
102
RTVSPropertyOp51
 70
     0
102
RTVSPropertyOp52
 70
     0
102
RTVSPropertyOp53
 70
     1
102
RTVSPropertyOp54
 70
     1
102
RTVSPropertyOp55
 70
     1
102
RTVSPropertyOp56
 70
     1
102
RTVSPropertyOp57
 70
     1
102
RTVSPost2010Prop28
280
     0
102
RTVSPost2010PropOp28
 70
     1
102
RTVSPost2010Prop29
280
     1
102
RTVSPost2010PropOp29
 70
     1
102
RTVSPost2010Prop30
280
     1
102
RTVSPost2010PropOp30
 70
     1
102
RTVSPost2010Prop31
280
     0
102
RTVSPost2010PropOp31
 70
     1
102
RTVSPost2010Prop32
280
     0
102
RTVSPost2010PropOp32
 70
     1
102
RTVSPost2010Prop33
280
     0
102
RTVSPost2010PropOp33
 70
     1
102
RTVSPost2010Prop34
280
     0
102
RTVSPost2010PropOp34
 70
     1
102
RTVSPost2010Prop35
280
     0
102
RTVSPost2010PropOp35
 70
     1
102
RTVSPost2010Prop36
280
     0
102
RTVSPost2010PropOp36
 70
     1
102
RTVSPost2010Prop37
 90
       50
102
RTVSPost2010PropOp37
 70
     1
102
RTVSPost2010Prop38
140
0.0
102
RTVSPost2010PropOp38
 70
     1
102
RTVSPost2010Prop39
140
1.0
102
RTVSPost2010PropOp39
 70
     1
102
RTVSPost2010Prop40
 90
        0
102
RTVSPost2010PropOp40
 70
     1
102
RTVSPost2010Prop41ColorIndex
 90
       18
102
RTVSPost2010Prop41ColorRGB
 90
        0
102
RTVSPost2010PropOp41
 70
     1
102
RTVSPost2010Prop42
 90
       50
102
RTVSPost2010PropOp42
 70
     1
102
RTVSPost2010Prop43
 90
        3
102
RTVSPost2010PropOp43
 70
     1
102
RTVSPost2010Prop44ColorIndex
 90
        5
102
RTVSPost2010Prop44ColorRGB
 90
      255
102
RTVSPost2010PropOp44
 70
     1
102
RTVSPost2010Prop45
280
     0
102
RTVSPost2010PropOp45
 70
     1
102
RTVSPost2010Prop46
 90
       50
102
RTVSPost2010PropOp46
 70
     1
102
RTVSPost2010Prop47
 90
       50
102
RTVSPost2010PropOp47
 70
     1
102
RTVSPost2010Prop48
 90
       50
102
RTVSPost2010PropOp48
 70
     1
102
RTVSPost2010Prop49
280
     0
102
RTVSPost2010PropOp49
 70
     1
102
RTVSPost2010Prop50
 90
       50
102
RTVSPost2010PropOp50
 70
     1
102
RTVSPost2010Prop51ColorIndex
 90
      256
102
RTVSPost2010Prop51ColorRGB
 90
-16777216
102
RTVSPost2010PropOp51
 70
     0
102
RTVSPost2010Prop52
140
1.0
102
RTVSPost2010PropOp52
 70
     0
102
RTVSPost2010Prop53
 90
        2
102
RTVSPost2010PropOp53
 70
     1
102
RTVSPost2010Prop54
  1
strokes_ogs.tif
102
RTVSPost2010PropOp54
 70
     1
102
RTVSPost2010Prop55
280
     0
102
RTVSPost2010PropOp55
 70
     1
102
RTVSPost2010Prop56
140
1.0
102
RTVSPost2010PropOp56
 70
     1
102
RTVSPost2010Prop57
140
1.0
102
RTVSPost2010PropOp57
 70
     1
  0
XRECORD
  5
243
102
{ACAD_REACTORS
330
242
102
}
330
242
100
AcDbXrecord
280
     1
102
RTVSPropertyOp0
 70
     1
102
RTVSPropertyOp1
 70
     1
102
RTVSPropertyOp2
 70
     1
102
RTVSPropertyOp3
 70
     1
102
RTVSPropertyOp4
 70
     1
102
RTVSPropertyOp5
 70
     1
102
RTVSPropertyOp6
 70
     1
102
RTVSPropertyOp7
 70
     1
102
RTVSPropertyOp8
 70
     1
102
RTVSPropertyOp9
 70
     1
102
RTVSPropertyOp10
 70
     1
102
RTVSPropertyOp11
 70
     1
102
RTVSPropertyOp12
 70
     1
102
RTVSPropertyOp13
 70
     1
102
RTVSPropertyOp14
 70
     1
102
RTVSPropertyOp15
 70
     1
102
RTVSPropertyOp16
 70
     1
102
RTVSPropertyOp17
 70
     1
102
RTVSPropertyOp18
 70
     1
102
RTVSPropertyOp19
 70
     1
102
RTVSPropertyOp20
 70
     1
102
RTVSPropertyOp21
 70
     1
102
RTVSPropertyOp22
 70
     1
102
RTVSPropertyOp23
 70
     1
102
RTVSPropertyOp24
 70
     1
102
RTVSPropertyOp25
 70
     1
102
RTVSPropertyOp26
 70
     1
102
RTVSPropertyOp27
 70
     1
102
RTVSPropertyOp28
 70
     1
102
RTVSPropertyOp29
 70
     1
102
RTVSPropertyOp30
 70
     1
102
RTVSPropertyOp31
 70
     1
102
RTVSPropertyOp32
 70
     1
102
RTVSPropertyOp33
 70
     1
102
RTVSPropertyOp34
 70
     1
102
RTVSPropertyOp35
 70
     1
102
RTVSPropertyOp36
 70
     1
102
RTVSPropertyOp37
 70
     1
102
RTVSPropertyOp38
 70
     1
102
RTVSPropertyOp39
 70
     1
102
RTVSPropertyOp40
 70
     1
102
RTVSPropertyOp41
 70
     1
102
RTVSPropertyOp42
 70
     1
102
RTVSPropertyOp43
 70
     1
102
RTVSPropertyOp44
 70
     1
102
RTVSPropertyOp45
 70
     1
102
RTVSPropertyOp46
 70
     1
102
RTVSPropertyOp47
 70
     1
102
RTVSPropertyOp48
 70
     1
102
RTVSPropertyOp49
 70
     1
102
RTVSPropertyOp50
 70
     1
102
RTVSPropertyOp51
 70
     0
102
RTVSPropertyOp52
 70
     0
102
RTVSPropertyOp53
 70
     1
102
RTVSPropertyOp54
 70
     1
102
RTVSPropertyOp55
 70
     1
102
RTVSPropertyOp56
 70
     1
102
RTVSPropertyOp57
 70
     1
102
RTVSPost2010Prop28
280
     0
102
RTVSPost2010PropOp28
 70
     1
102
RTVSPost2010Prop29
280
     1
102
RTVSPost2010PropOp29
 70
     1
102
RTVSPost2010Prop30
280
     1
102
RTVSPost2010PropOp30
 70
     1
102
RTVSPost2010Prop31
280
     0
102
RTVSPost2010PropOp31
 70
     1
102
RTVSPost2010Prop32
280
     0
102
RTVSPost2010PropOp32
 70
     1
102
RTVSPost2010Prop33
280
     0
102
RTVSPost2010PropOp33
 70
     1
102
RTVSPost2010Prop34
280
     0
102
RTVSPost2010PropOp34
 70
     1
102
RTVSPost2010Prop35
280
     0
102
RTVSPost2010PropOp35
 70
     1
102
RTVSPost2010Prop36
280
     0
102
RTVSPost2010PropOp36
 70
     1
102
RTVSPost2010Prop37
 90
       50
102
RTVSPost2010PropOp37
 70
     1
102
RTVSPost2010Prop38
140
0.0
102
RTVSPost2010PropOp38
 70
     1
102
RTVSPost2010Prop39
140
1.0
102
RTVSPost2010PropOp39
 70
     1
102
RTVSPost2010Prop40
 90
        0
102
RTVSPost2010PropOp40
 70
     1
102
RTVSPost2010Prop41ColorIndex
 90
       18
102
RTVSPost2010Prop41ColorRGB
 90
        0
102
RTVSPost2010PropOp41
 70
     1
102
RTVSPost2010Prop42
 90
       50
102
RTVSPost2010PropOp42
 70
     1
102
RTVSPost2010Prop43
 90
        3
102
RTVSPost2010PropOp43
 70
     1
102
RTVSPost2010Prop44ColorIndex
 90
        5
102
RTVSPost2010Prop44ColorRGB
 90
      255
102
RTVSPost2010PropOp44
 70
     1
102
RTVSPost2010Prop45
280
     0
102
RTVSPost2010PropOp45
 70
     1
102
RTVSPost2010Prop46
 90
       50
102
RTVSPost2010PropOp46
 70
     1
102
RTVSPost2010Prop47
 90
       50
102
RTVSPost2010PropOp47
 70
     1
102
RTVSPost2010Prop48
 90
       50
102
RTVSPost2010PropOp48
 70
     1
102
RTVSPost2010Prop49
280
     0
102
RTVSPost2010PropOp49
 70
     1
102
RTVSPost2010Prop50
 90
       50
102
RTVSPost2010PropOp50
 70
     1
102
RTVSPost2010Prop51ColorIndex
 90
      256
102
RTVSPost2010Prop51ColorRGB
 90
-16777216
102
RTVSPost2010PropOp51
 70
     0
102
RTVSPost2010Prop52
140
1.0
102
RTVSPost2010PropOp52
 70
     0
102
RTVSPost2010Prop53
 90
        2
102
RTVSPost2010PropOp53
 70
     1
102
RTVSPost2010Prop54
  1
strokes_ogs.tif
102
RTVSPost2010PropOp54
 70
     1
102
RTVSPost2010Prop55
280
     0
102
RTVSPost2010PropOp55
 70
     1
102
RTVSPost2010Prop56
140
1.0
102
RTVSPost2010PropOp56
 70
     1
102
RTVSPost2010Prop57
140
1.0
102
RTVSPost2010PropOp57
 70
     1
  0
XRECORD
  5
249
102
{ACAD_REACTORS
330
248
102
}
330
248
100
AcDbXrecord
280
     1
102
RTVSPropertyOp0
 70
     1
102
RTVSPropertyOp1
 70
     1
102
RTVSPropertyOp2
 70
     1
102
RTVSPropertyOp3
 70
     1
102
RTVSPropertyOp4
 70
     1
102
RTVSPropertyOp5
 70
     1
102
RTVSPropertyOp6
 70
     1
102
RTVSPropertyOp7
 70
     1
102
RTVSPropertyOp8
 70
     1
102
RTVSPropertyOp9
 70
     1
102
RTVSPropertyOp10
 70
     1
102
RTVSPropertyOp11
 70
     1
102
RTVSPropertyOp12
 70
     1
102
RTVSPropertyOp13
 70
     1
102
RTVSPropertyOp14
 70
     1
102
RTVSPropertyOp15
 70
     1
102
RTVSPropertyOp16
 70
     1
102
RTVSPropertyOp17
 70
     1
102
RTVSPropertyOp18
 70
     1
102
RTVSPropertyOp19
 70
     1
102
RTVSPropertyOp20
 70
     1
102
RTVSPropertyOp21
 70
     1
102
RTVSPropertyOp22
 70
     1
102
RTVSPropertyOp23
 70
     1
102
RTVSPropertyOp24
 70
     1
102
RTVSPropertyOp25
 70
     1
102
RTVSPropertyOp26
 70
     1
102
RTVSPropertyOp27
 70
     1
102
RTVSPropertyOp28
 70
     1
102
RTVSPropertyOp29
 70
     1
102
RTVSPropertyOp30
 70
     1
102
RTVSPropertyOp31
 70
     1
102
RTVSPropertyOp32
 70
     1
102
RTVSPropertyOp33
 70
     1
102
RTVSPropertyOp34
 70
     1
102
RTVSPropertyOp35
 70
     1
102
RTVSPropertyOp36
 70
     1
102
RTVSPropertyOp37
 70
     1
102
RTVSPropertyOp38
 70
     1
102
RTVSPropertyOp39
 70
     1
102
RTVSPropertyOp40
 70
     1
102
RTVSPropertyOp41
 70
     1
102
RTVSPropertyOp42
 70
     1
102
RTVSPropertyOp43
 70
     1
102
RTVSPropertyOp44
 70
     1
102
RTVSPropertyOp45
 70
     1
102
RTVSPropertyOp46
 70
     1
102
RTVSPropertyOp47
 70
     1
102
RTVSPropertyOp48
 70
     1
102
RTVSPropertyOp49
 70
     1
102
RTVSPropertyOp50
 70
     1
102
RTVSPropertyOp51
 70
     0
102
RTVSPropertyOp52
 70
     0
102
RTVSPropertyOp53
 70
     1
102
RTVSPropertyOp54
 70
     1
102
RTVSPropertyOp55
 70
     1
102
RTVSPropertyOp56
 70
     1
102
RTVSPropertyOp57
 70
     1
102
RTVSPost2010Prop28
280
     0
102
RTVSPost2010PropOp28
 70
     1
102
RTVSPost2010Prop29
280
     1
102
RTVSPost2010PropOp29
 70
     1
102
RTVSPost2010Prop30
280
     1
102
RTVSPost2010PropOp30
 70
     1
102
RTVSPost2010Prop31
280
     0
102
RTVSPost2010PropOp31
 70
     1
102
RTVSPost2010Prop32
280
     0
102
RTVSPost2010PropOp32
 70
     1
102
RTVSPost2010Prop33
280
     0
102
RTVSPost2010PropOp33
 70
     1
102
RTVSPost2010Prop34
280
     0
102
RTVSPost2010PropOp34
 70
     1
102
RTVSPost2010Prop35
280
     0
102
RTVSPost2010PropOp35
 70
     1
102
RTVSPost2010Prop36
280
     0
102
RTVSPost2010PropOp36
 70
     1
102
RTVSPost2010Prop37
 90
       50
102
RTVSPost2010PropOp37
 70
     1
102
RTVSPost2010Prop38
140
0.0
102
RTVSPost2010PropOp38
 70
     1
102
RTVSPost2010Prop39
140
1.0
102
RTVSPost2010PropOp39
 70
     1
102
RTVSPost2010Prop40
 90
        0
102
RTVSPost2010PropOp40
 70
     1
102
RTVSPost2010Prop41ColorIndex
 90
       18
102
RTVSPost2010Prop41ColorRGB
 90
        0
102
RTVSPost2010PropOp41
 70
     1
102
RTVSPost2010Prop42
 90
       50
102
RTVSPost2010PropOp42
 70
     1
102
RTVSPost2010Prop43
 90
        3
102
RTVSPost2010PropOp43
 70
     1
102
RTVSPost2010Prop44ColorIndex
 90
        5
102
RTVSPost2010Prop44ColorRGB
 90
      255
102
RTVSPost2010PropOp44
 70
     1
102
RTVSPost2010Prop45
280
     0
102
RTVSPost2010PropOp45
 70
     1
102
RTVSPost2010Prop46
 90
       50
102
RTVSPost2010PropOp46
 70
     1
102
RTVSPost2010Prop47
 90
       50
102
RTVSPost2010PropOp47
 70
     1
102
RTVSPost2010Prop48
 90
       50
102
RTVSPost2010PropOp48
 70
     1
102
RTVSPost2010Prop49
280
     0
102
RTVSPost2010PropOp49
 70
     1
102
RTVSPost2010Prop50
 90
       50
102
RTVSPost2010PropOp50
 70
     1
102
RTVSPost2010Prop51ColorIndex
 90
      256
102
RTVSPost2010Prop51ColorRGB
 90
-16777216
102
RTVSPost2010PropOp51
 70
     0
102
RTVSPost2010Prop52
140
1.0
102
RTVSPost2010PropOp52
 70
     0
102
RTVSPost2010Prop53
 90
        2
102
RTVSPost2010PropOp53
 70
     1
102
RTVSPost2010Prop54
  1
strokes_ogs.tif
102
RTVSPost2010PropOp54
 70
     1
102
RTVSPost2010Prop55
280
     0
102
RTVSPost2010PropOp55
 70
     1
102
RTVSPost2010Prop56
140
1.0
102
RTVSPost2010PropOp56
 70
     1
102
RTVSPost2010Prop57
140
1.0
102
RTVSPost2010PropOp57
 70
     1
  0
XRECORD
  5
25D
102
{ACAD_REACTORS
330
25C
102
}
330
25C
100
AcDbXrecord
280
     1
102
RTVSPropertyOp0
 70
     0
102
RTVSPropertyOp1
 70
     0
102
RTVSPropertyOp2
 70
     0
102
RTVSPropertyOp3
 70
     0
102
RTVSPropertyOp4
 70
     0
102
RTVSPropertyOp5
 70
     0
102
RTVSPropertyOp6
 70
     0
102
RTVSPropertyOp7
 70
     0
102
RTVSPropertyOp8
 70
     0
102
RTVSPropertyOp9
 70
     0
102
RTVSPropertyOp10
 70
     0
102
RTVSPropertyOp11
 70
     0
102
RTVSPropertyOp12
 70
     0
102
RTVSPropertyOp13
 70
     0
102
RTVSPropertyOp14
 70
     2
102
RTVSPropertyOp15
 70
     0
102
RTVSPropertyOp16
 70
     0
102
RTVSPropertyOp17
 70
     0
102
RTVSPropertyOp18
 70
     0
102
RTVSPropertyOp19
 70
     0
102
RTVSPropertyOp20
 70
     0
102
RTVSPropertyOp21
 70
     0
102
RTVSPropertyOp22
 70
     0
102
RTVSPropertyOp23
 70
     0
102
RTVSPropertyOp24
 70
     0
102
RTVSPropertyOp25
 70
     0
102
RTVSPropertyOp26
 70
     0
102
RTVSPropertyOp27
 70
     0
102
RTVSPropertyOp28
 70
     0
102
RTVSPropertyOp29
 70
     0
102
RTVSPropertyOp30
 70
     0
102
RTVSPropertyOp31
 70
     0
102
RTVSPropertyOp32
 70
     0
102
RTVSPropertyOp33
 70
     0
102
RTVSPropertyOp34
 70
     0
102
RTVSPropertyOp35
 70
     0
102
RTVSPropertyOp36
 70
     0
102
RTVSPropertyOp37
 70
     0
102
RTVSPropertyOp38
 70
     0
102
RTVSPropertyOp39
 70
     0
102
RTVSPropertyOp40
 70
     0
102
RTVSPropertyOp41
 70
     0
102
RTVSPropertyOp42
 70
     0
102
RTVSPropertyOp43
 70
     0
102
RTVSPropertyOp44
 70
     0
102
RTVSPropertyOp45
 70
     0
102
RTVSPropertyOp46
 70
     0
102
RTVSPropertyOp47
 70
     0
102
RTVSPropertyOp48
 70
     0
102
RTVSPropertyOp49
 70
     0
102
RTVSPropertyOp50
 70
     0
102
RTVSPropertyOp51
 70
     0
102
RTVSPropertyOp52
 70
     0
102
RTVSPropertyOp53
 70
     0
102
RTVSPropertyOp54
 70
     0
102
RTVSPropertyOp55
 70
     0
102
RTVSPropertyOp56
 70
     0
102
RTVSPropertyOp57
 70
     0
102
RTVSPost2010Prop28
280
     0
102
RTVSPost2010PropOp28
 70
     0
102
RTVSPost2010Prop29
280
     1
102
RTVSPost2010PropOp29
 70
     0
102
RTVSPost2010Prop30
280
     1
102
RTVSPost2010PropOp30
 70
     0
102
RTVSPost2010Prop31
280
     0
102
RTVSPost2010PropOp31
 70
     0
102
RTVSPost2010Prop32
280
     0
102
RTVSPost2010PropOp32
 70
     0
102
RTVSPost2010Prop33
280
     0
102
RTVSPost2010PropOp33
 70
     0
102
RTVSPost2010Prop34
280
     0
102
RTVSPost2010PropOp34
 70
     0
102
RTVSPost2010Prop35
280
     0
102
RTVSPost2010PropOp35
 70
     0
102
RTVSPost2010Prop36
280
     0
102
RTVSPost2010PropOp36
 70
     0
102
RTVSPost2010Prop37
 90
       50
102
RTVSPost2010PropOp37
 70
     0
102
RTVSPost2010Prop38
140
0.0
102
RTVSPost2010PropOp38
 70
     0
102
RTVSPost2010Prop39
140
1.0
102
RTVSPost2010PropOp39
 70
     0
102
RTVSPost2010Prop40
 90
        0
102
RTVSPost2010PropOp40
 70
     0
102
RTVSPost2010Prop41ColorIndex
 90
       18
102
RTVSPost2010Prop41ColorRGB
 90
        0
102
RTVSPost2010PropOp41
 70
     0
102
RTVSPost2010Prop42
 90
       50
102
RTVSPost2010PropOp42
 70
     0
102
RTVSPost2010Prop43
 90
        3
102
RTVSPost2010PropOp43
 70
     0
102
RTVSPost2010Prop44ColorIndex
 90
        5
102
RTVSPost2010Prop44ColorRGB
 90
      255
102
RTVSPost2010PropOp44
 70
     0
102
RTVSPost2010Prop45
280
     0
102
RTVSPost2010PropOp45
 70
     0
102
RTVSPost2010Prop46
 90
       50
102
RTVSPost2010PropOp46
 70
     0
102
RTVSPost2010Prop47
 90
       50
102
RTVSPost2010PropOp47
 70
     0
102
RTVSPost2010Prop48
 90
       50
102
RTVSPost2010PropOp48
 70
     0
102
RTVSPost2010Prop49
280
     0
102
RTVSPost2010PropOp49
 70
     0
102
RTVSPost2010Prop50
 90
       50
102
RTVSPost2010PropOp50
 70
     0
102
RTVSPost2010Prop51ColorIndex
 90
      256
102
RTVSPost2010Prop51ColorRGB
 90
-16777216
102
RTVSPost2010PropOp51
 70
     0
102
RTVSPost2010Prop52
140
1.0
102
RTVSPost2010PropOp52
 70
     0
102
RTVSPost2010Prop53
 90
        2
102
RTVSPost2010PropOp53
 70
     0
102
RTVSPost2010Prop54
  1
strokes_ogs.tif
102
RTVSPost2010PropOp54
 70
     0
102
RTVSPost2010Prop55
280
     0
102
RTVSPost2010PropOp55
 70
     0
102
RTVSPost2010Prop56
140
1.0
102
RTVSPost2010PropOp56
 70
     0
102
RTVSPost2010Prop57
140
1.0
102
RTVSPost2010PropOp57
 70
     0
  0
XRECORD
  5
257
102
{ACAD_REACTORS
330
256
102
}
330
256
100
AcDbXrecord
280
     1
102
RTVSPropertyOp0
 70
     1
102
RTVSPropertyOp1
 70
     1
102
RTVSPropertyOp2
 70
     1
102
RTVSPropertyOp3
 70
     1
102
RTVSPropertyOp4
 70
     1
102
RTVSPropertyOp5
 70
     1
102
RTVSPropertyOp6
 70
     1
102
RTVSPropertyOp7
 70
     1
102
RTVSPropertyOp8
 70
     1
102
RTVSPropertyOp9
 70
     1
102
RTVSPropertyOp10
 70
     1
102
RTVSPropertyOp11
 70
     1
102
RTVSPropertyOp12
 70
     1
102
RTVSPropertyOp13
 70
     1
102
RTVSPropertyOp14
 70
     1
102
RTVSPropertyOp15
 70
     1
102
RTVSPropertyOp16
 70
     1
102
RTVSPropertyOp17
 70
     1
102
RTVSPropertyOp18
 70
     1
102
RTVSPropertyOp19
 70
     1
102
RTVSPropertyOp20
 70
     1
102
RTVSPropertyOp21
 70
     1
102
RTVSPropertyOp22
 70
     1
102
RTVSPropertyOp23
 70
     1
102
RTVSPropertyOp24
 70
     1
102
RTVSPropertyOp25
 70
     1
102
RTVSPropertyOp26
 70
     1
102
RTVSPropertyOp27
 70
     1
102
RTVSPropertyOp28
 70
     1
102
RTVSPropertyOp29
 70
     1
102
RTVSPropertyOp30
 70
     1
102
RTVSPropertyOp31
 70
     1
102
RTVSPropertyOp32
 70
     1
102
RTVSPropertyOp33
 70
     1
102
RTVSPropertyOp34
 70
     1
102
RTVSPropertyOp35
 70
     1
102
RTVSPropertyOp36
 70
     1
102
RTVSPropertyOp37
 70
     1
102
RTVSPropertyOp38
 70
     1
102
RTVSPropertyOp39
 70
     1
102
RTVSPropertyOp40
 70
     1
102
RTVSPropertyOp41
 70
     1
102
RTVSPropertyOp42
 70
     1
102
RTVSPropertyOp43
 70
     1
102
RTVSPropertyOp44
 70
     1
102
RTVSPropertyOp45
 70
     1
102
RTVSPropertyOp46
 70
     1
102
RTVSPropertyOp47
 70
     1
102
RTVSPropertyOp48
 70
     1
102
RTVSPropertyOp49
 70
     1
102
RTVSPropertyOp50
 70
     1
102
RTVSPropertyOp51
 70
     0
102
RTVSPropertyOp52
 70
     0
102
RTVSPropertyOp53
 70
     1
102
RTVSPropertyOp54
 70
     1
102
RTVSPropertyOp55
 70
     1
102
RTVSPropertyOp56
 70
     1
102
RTVSPropertyOp57
 70
     1
102
RTVSPost2010Prop28
280
     0
102
RTVSPost2010PropOp28
 70
     1
102
RTVSPost2010Prop29
280
     1
102
RTVSPost2010PropOp29
 70
     1
102
RTVSPost2010Prop30
280
     1
102
RTVSPost2010PropOp30
 70
     1
102
RTVSPost2010Prop31
280
     0
102
RTVSPost2010PropOp31
 70
     1
102
RTVSPost2010Prop32
280
     0
102
RTVSPost2010PropOp32
 70
     1
102
RTVSPost2010Prop33
280
     0
102
RTVSPost2010PropOp33
 70
     1
102
RTVSPost2010Prop34
280
     0
102
RTVSPost2010PropOp34
 70
     1
102
RTVSPost2010Prop35
280
     0
102
RTVSPost2010PropOp35
 70
     1
102
RTVSPost2010Prop36
280
     0
102
RTVSPost2010PropOp36
 70
     1
102
RTVSPost2010Prop37
 90
       50
102
RTVSPost2010PropOp37
 70
     1
102
RTVSPost2010Prop38
140
0.0
102
RTVSPost2010PropOp38
 70
     1
102
RTVSPost2010Prop39
140
1.0
102
RTVSPost2010PropOp39
 70
     1
102
RTVSPost2010Prop40
 90
        0
102
RTVSPost2010PropOp40
 70
     1
102
RTVSPost2010Prop41ColorIndex
 90
       18
102
RTVSPost2010Prop41ColorRGB
 90
        0
102
RTVSPost2010PropOp41
 70
     1
102
RTVSPost2010Prop42
 90
       50
102
RTVSPost2010PropOp42
 70
     1
102
RTVSPost2010Prop43
 90
        3
102
RTVSPost2010PropOp43
 70
     1
102
RTVSPost2010Prop44ColorIndex
 90
        5
102
RTVSPost2010Prop44ColorRGB
 90
      255
102
RTVSPost2010PropOp44
 70
     1
102
RTVSPost2010Prop45
280
     0
102
RTVSPost2010PropOp45
 70
     1
102
RTVSPost2010Prop46
 90
       50
102
RTVSPost2010PropOp46
 70
     1
102
RTVSPost2010Prop47
 90
       50
102
RTVSPost2010PropOp47
 70
     1
102
RTVSPost2010Prop48
 90
       50
102
RTVSPost2010PropOp48
 70
     1
102
RTVSPost2010Prop49
280
     0
102
RTVSPost2010PropOp49
 70
     1
102
RTVSPost2010Prop50
 90
       50
102
RTVSPost2010PropOp50
 70
     1
102
RTVSPost2010Prop51ColorIndex
 90
      256
102
RTVSPost2010Prop51ColorRGB
 90
-16777216
102
RTVSPost2010PropOp51
 70
     0
102
RTVSPost2010Prop52
140
1.0
102
RTVSPost2010PropOp52
 70
     0
102
RTVSPost2010Prop53
 90
        2
102
RTVSPost2010PropOp53
 70
     1
102
RTVSPost2010Prop54
  1
strokes_ogs.tif
102
RTVSPost2010PropOp54
 70
     1
102
RTVSPost2010Prop55
280
     0
102
RTVSPost2010PropOp55
 70
     1
102
RTVSPost2010Prop56
140
1.0
102
RTVSPost2010PropOp56
 70
     1
102
RTVSPost2010Prop57
140
1.0
102
RTVSPost2010PropOp57
 70
     1
  0
XRECORD
  5
25F
102
{ACAD_REACTORS
330
25E
102
}
330
25E
100
AcDbXrecord
280
     1
102
RTVSPropertyOp0
 70
     0
102
RTVSPropertyOp1
 70
     0
102
RTVSPropertyOp2
 70
     0
102
RTVSPropertyOp3
 70
     0
102
RTVSPropertyOp4
 70
     0
102
RTVSPropertyOp5
 70
     0
102
RTVSPropertyOp6
 70
     0
102
RTVSPropertyOp7
 70
     0
102
RTVSPropertyOp8
 70
     0
102
RTVSPropertyOp9
 70
     0
102
RTVSPropertyOp10
 70
     0
102
RTVSPropertyOp11
 70
     0
102
RTVSPropertyOp12
 70
     0
102
RTVSPropertyOp13
 70
     0
102
RTVSPropertyOp14
 70
     2
102
RTVSPropertyOp15
 70
     0
102
RTVSPropertyOp16
 70
     0
102
RTVSPropertyOp17
 70
     0
102
RTVSPropertyOp18
 70
     0
102
RTVSPropertyOp19
 70
     0
102
RTVSPropertyOp20
 70
     0
102
RTVSPropertyOp21
 70
     0
102
RTVSPropertyOp22
 70
     0
102
RTVSPropertyOp23
 70
     0
102
RTVSPropertyOp24
 70
     0
102
RTVSPropertyOp25
 70
     0
102
RTVSPropertyOp26
 70
     0
102
RTVSPropertyOp27
 70
     0
102
RTVSPropertyOp28
 70
     0
102
RTVSPropertyOp29
 70
     0
102
RTVSPropertyOp30
 70
     0
102
RTVSPropertyOp31
 70
     0
102
RTVSPropertyOp32
 70
     0
102
RTVSPropertyOp33
 70
     0
102
RTVSPropertyOp34
 70
     0
102
RTVSPropertyOp35
 70
     0
102
RTVSPropertyOp36
 70
     0
102
RTVSPropertyOp37
 70
     0
102
RTVSPropertyOp38
 70
     0
102
RTVSPropertyOp39
 70
     0
102
RTVSPropertyOp40
 70
     0
102
RTVSPropertyOp41
 70
     0
102
RTVSPropertyOp42
 70
     0
102
RTVSPropertyOp43
 70
     0
102
RTVSPropertyOp44
 70
     0
102
RTVSPropertyOp45
 70
     0
102
RTVSPropertyOp46
 70
     0
102
RTVSPropertyOp47
 70
     0
102
RTVSPropertyOp48
 70
     0
102
RTVSPropertyOp49
 70
     0
102
RTVSPropertyOp50
 70
     0
102
RTVSPropertyOp51
 70
     0
102
RTVSPropertyOp52
 70
     0
102
RTVSPropertyOp53
 70
     0
102
RTVSPropertyOp54
 70
     0
102
RTVSPropertyOp55
 70
     0
102
RTVSPropertyOp56
 70
     0
102
RTVSPropertyOp57
 70
     0
102
RTVSPost2010Prop28
280
     0
102
RTVSPost2010PropOp28
 70
     0
102
RTVSPost2010Prop29
280
     1
102
RTVSPost2010PropOp29
 70
     0
102
RTVSPost2010Prop30
280
     1
102
RTVSPost2010PropOp30
 70
     0
102
RTVSPost2010Prop31
280
     0
102
RTVSPost2010PropOp31
 70
     0
102
RTVSPost2010Prop32
280
     0
102
RTVSPost2010PropOp32
 70
     0
102
RTVSPost2010Prop33
280
     0
102
RTVSPost2010PropOp33
 70
     0
102
RTVSPost2010Prop34
280
     0
102
RTVSPost2010PropOp34
 70
     0
102
RTVSPost2010Prop35
280
     0
102
RTVSPost2010PropOp35
 70
     0
102
RTVSPost2010Prop36
280
     0
102
RTVSPost2010PropOp36
 70
     0
102
RTVSPost2010Prop37
 90
       50
102
RTVSPost2010PropOp37
 70
     0
102
RTVSPost2010Prop38
140
0.0
102
RTVSPost2010PropOp38
 70
     0
102
RTVSPost2010Prop39
140
1.0
102
RTVSPost2010PropOp39
 70
     0
102
RTVSPost2010Prop40
 90
        0
102
RTVSPost2010PropOp40
 70
     0
102
RTVSPost2010Prop41ColorIndex
 90
       18
102
RTVSPost2010Prop41ColorRGB
 90
        0
102
RTVSPost2010PropOp41
 70
     0
102
RTVSPost2010Prop42
 90
       50
102
RTVSPost2010PropOp42
 70
     0
102
RTVSPost2010Prop43
 90
        3
102
RTVSPost2010PropOp43
 70
     0
102
RTVSPost2010Prop44ColorIndex
 90
        5
102
RTVSPost2010Prop44ColorRGB
 90
      255
102
RTVSPost2010PropOp44
 70
     0
102
RTVSPost2010Prop45
280
     0
102
RTVSPost2010PropOp45
 70
     0
102
RTVSPost2010Prop46
 90
       50
102
RTVSPost2010PropOp46
 70
     0
102
RTVSPost2010Prop47
 90
       50
102
RTVSPost2010PropOp47
 70
     0
102
RTVSPost2010Prop48
 90
       50
102
RTVSPost2010PropOp48
 70
     0
102
RTVSPost2010Prop49
280
     0
102
RTVSPost2010PropOp49
 70
     0
102
RTVSPost2010Prop50
 90
       50
102
RTVSPost2010PropOp50
 70
     0
102
RTVSPost2010Prop51ColorIndex
 90
      256
102
RTVSPost2010Prop51ColorRGB
 90
-16777216
102
RTVSPost2010PropOp51
 70
     0
102
RTVSPost2010Prop52
140
1.0
102
RTVSPost2010PropOp52
 70
     0
102
RTVSPost2010Prop53
 90
        2
102
RTVSPost2010PropOp53
 70
     0
102
RTVSPost2010Prop54
  1
strokes_ogs.tif
102
RTVSPost2010PropOp54
 70
     0
102
RTVSPost2010Prop55
280
     0
102
RTVSPost2010PropOp55
 70
     0
102
RTVSPost2010Prop56
140
1.0
102
RTVSPost2010PropOp56
 70
     0
102
RTVSPost2010Prop57
140
1.0
102
RTVSPost2010PropOp57
 70
     0
  0
XRECORD
  5
24D
102
{ACAD_REACTORS
330
24C
102
}
330
24C
100
AcDbXrecord
280
     1
102
RTVSPropertyOp0
 70
     1
102
RTVSPropertyOp1
 70
     1
102
RTVSPropertyOp2
 70
     1
102
RTVSPropertyOp3
 70
     1
102
RTVSPropertyOp4
 70
     1
102
RTVSPropertyOp5
 70
     1
102
RTVSPropertyOp6
 70
     1
102
RTVSPropertyOp7
 70
     1
102
RTVSPropertyOp8
 70
     1
102
RTVSPropertyOp9
 70
     1
102
RTVSPropertyOp10
 70
     1
102
RTVSPropertyOp11
 70
     1
102
RTVSPropertyOp12
 70
     1
102
RTVSPropertyOp13
 70
     1
102
RTVSPropertyOp14
 70
     1
102
RTVSPropertyOp15
 70
     1
102
RTVSPropertyOp16
 70
     1
102
RTVSPropertyOp17
 70
     1
102
RTVSPropertyOp18
 70
     1
102
RTVSPropertyOp19
 70
     1
102
RTVSPropertyOp20
 70
     1
102
RTVSPropertyOp21
 70
     1
102
RTVSPropertyOp22
 70
     1
102
RTVSPropertyOp23
 70
     1
102
RTVSPropertyOp24
 70
     1
102
RTVSPropertyOp25
 70
     1
102
RTVSPropertyOp26
 70
     1
102
RTVSPropertyOp27
 70
     1
102
RTVSPropertyOp28
 70
     1
102
RTVSPropertyOp29
 70
     1
102
RTVSPropertyOp30
 70
     1
102
RTVSPropertyOp31
 70
     1
102
RTVSPropertyOp32
 70
     1
102
RTVSPropertyOp33
 70
     1
102
RTVSPropertyOp34
 70
     1
102
RTVSPropertyOp35
 70
     1
102
RTVSPropertyOp36
 70
     1
102
RTVSPropertyOp37
 70
     1
102
RTVSPropertyOp38
 70
     1
102
RTVSPropertyOp39
 70
     1
102
RTVSPropertyOp40
 70
     1
102
RTVSPropertyOp41
 70
     1
102
RTVSPropertyOp42
 70
     1
102
RTVSPropertyOp43
 70
     1
102
RTVSPropertyOp44
 70
     1
102
RTVSPropertyOp45
 70
     1
102
RTVSPropertyOp46
 70
     1
102
RTVSPropertyOp47
 70
     1
102
RTVSPropertyOp48
 70
     1
102
RTVSPropertyOp49
 70
     1
102
RTVSPropertyOp50
 70
     1
102
RTVSPropertyOp51
 70
     0
102
RTVSPropertyOp52
 70
     0
102
RTVSPropertyOp53
 70
     1
102
RTVSPropertyOp54
 70
     1
102
RTVSPropertyOp55
 70
     1
102
RTVSPropertyOp56
 70
     1
102
RTVSPropertyOp57
 70
     1
102
RTVSPost2010Prop28
280
     0
102
RTVSPost2010PropOp28
 70
     1
102
RTVSPost2010Prop29
280
     1
102
RTVSPost2010PropOp29
 70
     1
102
RTVSPost2010Prop30
280
     1
102
RTVSPost2010PropOp30
 70
     1
102
RTVSPost2010Prop31
280
     0
102
RTVSPost2010PropOp31
 70
     1
102
RTVSPost2010Prop32
280
     0
102
RTVSPost2010PropOp32
 70
     1
102
RTVSPost2010Prop33
280
     0
102
RTVSPost2010PropOp33
 70
     1
102
RTVSPost2010Prop34
280
     0
102
RTVSPost2010PropOp34
 70
     1
102
RTVSPost2010Prop35
280
     0
102
RTVSPost2010PropOp35
 70
     1
102
RTVSPost2010Prop36
280
     0
102
RTVSPost2010PropOp36
 70
     1
102
RTVSPost2010Prop37
 90
       50
102
RTVSPost2010PropOp37
 70
     1
102
RTVSPost2010Prop38
140
0.0
102
RTVSPost2010PropOp38
 70
     1
102
RTVSPost2010Prop39
140
1.0
102
RTVSPost2010PropOp39
 70
     1
102
RTVSPost2010Prop40
 90
        0
102
RTVSPost2010PropOp40
 70
     1
102
RTVSPost2010Prop41ColorIndex
 90
       18
102
RTVSPost2010Prop41ColorRGB
 90
        0
102
RTVSPost2010PropOp41
 70
     1
102
RTVSPost2010Prop42
 90
       50
102
RTVSPost2010PropOp42
 70
     1
102
RTVSPost2010Prop43
 90
        3
102
RTVSPost2010PropOp43
 70
     1
102
RTVSPost2010Prop44ColorIndex
 90
        5
102
RTVSPost2010Prop44ColorRGB
 90
      255
102
RTVSPost2010PropOp44
 70
     1
102
RTVSPost2010Prop45
280
     0
102
RTVSPost2010PropOp45
 70
     1
102
RTVSPost2010Prop46
 90
       50
102
RTVSPost2010PropOp46
 70
     1
102
RTVSPost2010Prop47
 90
       50
102
RTVSPost2010PropOp47
 70
     1
102
RTVSPost2010Prop48
 90
       50
102
RTVSPost2010PropOp48
 70
     1
102
RTVSPost2010Prop49
280
     0
102
RTVSPost2010PropOp49
 70
     1
102
RTVSPost2010Prop50
 90
       50
102
RTVSPost2010PropOp50
 70
     1
102
RTVSPost2010Prop51ColorIndex
 90
      256
102
RTVSPost2010Prop51ColorRGB
 90
-16777216
102
RTVSPost2010PropOp51
 70
     0
102
RTVSPost2010Prop52
140
1.0
102
RTVSPost2010PropOp52
 70
     0
102
RTVSPost2010Prop53
 90
        2
102
RTVSPost2010PropOp53
 70
     1
102
RTVSPost2010Prop54
  1
strokes_ogs.tif
102
RTVSPost2010PropOp54
 70
     1
102
RTVSPost2010Prop55
280
     0
102
RTVSPost2010PropOp55
 70
     1
102
RTVSPost2010Prop56
140
1.0
102
RTVSPost2010PropOp56
 70
     1
102
RTVSPost2010Prop57
140
1.0
102
RTVSPost2010PropOp57
 70
     1
  0
XRECORD
  5
26B
102
{ACAD_REACTORS
330
26A
102
}
330
26A
100
AcDbXrecord
280
     1
102
RTVSPropertyOp0
 70
     1
102
RTVSPropertyOp1
 70
     1
102
RTVSPropertyOp2
 70
     1
102
RTVSPropertyOp3
 70
     1
102
RTVSPropertyOp4
 70
     1
102
RTVSPropertyOp5
 70
     1
102
RTVSPropertyOp6
 70
     1
102
RTVSPropertyOp7
 70
     1
102
RTVSPropertyOp8
 70
     1
102
RTVSPropertyOp9
 70
     1
102
RTVSPropertyOp10
 70
     1
102
RTVSPropertyOp11
 70
     1
102
RTVSPropertyOp12
 70
     1
102
RTVSPropertyOp13
 70
     1
102
RTVSPropertyOp14
 70
     1
102
RTVSPropertyOp15
 70
     1
102
RTVSPropertyOp16
 70
     1
102
RTVSPropertyOp17
 70
     1
102
RTVSPropertyOp18
 70
     1
102
RTVSPropertyOp19
 70
     1
102
RTVSPropertyOp20
 70
     1
102
RTVSPropertyOp21
 70
     1
102
RTVSPropertyOp22
 70
     1
102
RTVSPropertyOp23
 70
     1
102
RTVSPropertyOp24
 70
     1
102
RTVSPropertyOp25
 70
     1
102
RTVSPropertyOp26
 70
     1
102
RTVSPropertyOp27
 70
     1
102
RTVSPropertyOp28
 70
     1
102
RTVSPropertyOp29
 70
     1
102
RTVSPropertyOp30
 70
     1
102
RTVSPropertyOp31
 70
     1
102
RTVSPropertyOp32
 70
     1
102
RTVSPropertyOp33
 70
     1
102
RTVSPropertyOp34
 70
     1
102
RTVSPropertyOp35
 70
     1
102
RTVSPropertyOp36
 70
     1
102
RTVSPropertyOp37
 70
     1
102
RTVSPropertyOp38
 70
     1
102
RTVSPropertyOp39
 70
     1
102
RTVSPropertyOp40
 70
     1
102
RTVSPropertyOp41
 70
     1
102
RTVSPropertyOp42
 70
     1
102
RTVSPropertyOp43
 70
     1
102
RTVSPropertyOp44
 70
     1
102
RTVSPropertyOp45
 70
     1
102
RTVSPropertyOp46
 70
     1
102
RTVSPropertyOp47
 70
     1
102
RTVSPropertyOp48
 70
     1
102
RTVSPropertyOp49
 70
     1
102
RTVSPropertyOp50
 70
     1
102
RTVSPropertyOp51
 70
     0
102
RTVSPropertyOp52
 70
     0
102
RTVSPropertyOp53
 70
     1
102
RTVSPropertyOp54
 70
     1
102
RTVSPropertyOp55
 70
     1
102
RTVSPropertyOp56
 70
     1
102
RTVSPropertyOp57
 70
     1
102
RTVSPost2010Prop28
280
     0
102
RTVSPost2010PropOp28
 70
     1
102
RTVSPost2010Prop29
280
     1
102
RTVSPost2010PropOp29
 70
     1
102
RTVSPost2010Prop30
280
     1
102
RTVSPost2010PropOp30
 70
     1
102
RTVSPost2010Prop31
280
     0
102
RTVSPost2010PropOp31
 70
     1
102
RTVSPost2010Prop32
280
     0
102
RTVSPost2010PropOp32
 70
     1
102
RTVSPost2010Prop33
280
     0
102
RTVSPost2010PropOp33
 70
     1
102
RTVSPost2010Prop34
280
     0
102
RTVSPost2010PropOp34
 70
     1
102
RTVSPost2010Prop35
280
     0
102
RTVSPost2010PropOp35
 70
     1
102
RTVSPost2010Prop36
280
     0
102
RTVSPost2010PropOp36
 70
     1
102
RTVSPost2010Prop37
 90
       50
102
RTVSPost2010PropOp37
 70
     1
102
RTVSPost2010Prop38
140
0.0
102
RTVSPost2010PropOp38
 70
     1
102
RTVSPost2010Prop39
140
1.0
102
RTVSPost2010PropOp39
 70
     1
102
RTVSPost2010Prop40
 90
        0
102
RTVSPost2010PropOp40
 70
     1
102
RTVSPost2010Prop41ColorIndex
 90
       18
102
RTVSPost2010Prop41ColorRGB
 90
        0
102
RTVSPost2010PropOp41
 70
     1
102
RTVSPost2010Prop42
 90
       50
102
RTVSPost2010PropOp42
 70
     1
102
RTVSPost2010Prop43
 90
        3
102
RTVSPost2010PropOp43
 70
     1
102
RTVSPost2010Prop44ColorIndex
 90
        5
102
RTVSPost2010Prop44ColorRGB
 90
      255
102
RTVSPost2010PropOp44
 70
     1
102
RTVSPost2010Prop45
280
     0
102
RTVSPost2010PropOp45
 70
     1
102
RTVSPost2010Prop46
 90
       50
102
RTVSPost2010PropOp46
 70
     1
102
RTVSPost2010Prop47
 90
       50
102
RTVSPost2010PropOp47
 70
     1
102
RTVSPost2010Prop48
 90
       50
102
RTVSPost2010PropOp48
 70
     1
102
RTVSPost2010Prop49
280
     0
102
RTVSPost2010PropOp49
 70
     1
102
RTVSPost2010Prop50
 90
       50
102
RTVSPost2010PropOp50
 70
     1
102
RTVSPost2010Prop51ColorIndex
 90
      256
102
RTVSPost2010Prop51ColorRGB
 90
-16777216
102
RTVSPost2010PropOp51
 70
     0
102
RTVSPost2010Prop52
140
1.0
102
RTVSPost2010PropOp52
 70
     0
102
RTVSPost2010Prop53
 90
        2
102
RTVSPost2010PropOp53
 70
     1
102
RTVSPost2010Prop54
  1
strokes_ogs.tif
102
RTVSPost2010PropOp54
 70
     1
102
RTVSPost2010Prop55
280
     0
102
RTVSPost2010PropOp55
 70
     1
102
RTVSPost2010Prop56
140
1.0
102
RTVSPost2010PropOp56
 70
     1
102
RTVSPost2010Prop57
140
1.0
102
RTVSPost2010PropOp57
 70
     1
  0
XRECORD
  5
269
102
{ACAD_REACTORS
330
268
102
}
330
268
100
AcDbXrecord
280
     1
102
RTVSPropertyOp0
 70
     1
102
RTVSPropertyOp1
 70
     1
102
RTVSPropertyOp2
 70
     1
102
RTVSPropertyOp3
 70
     1
102
RTVSPropertyOp4
 70
     1
102
RTVSPropertyOp5
 70
     1
102
RTVSPropertyOp6
 70
     1
102
RTVSPropertyOp7
 70
     1
102
RTVSPropertyOp8
 70
     1
102
RTVSPropertyOp9
 70
     1
102
RTVSPropertyOp10
 70
     1
102
RTVSPropertyOp11
 70
     1
102
RTVSPropertyOp12
 70
     1
102
RTVSPropertyOp13
 70
     1
102
RTVSPropertyOp14
 70
     1
102
RTVSPropertyOp15
 70
     1
102
RTVSPropertyOp16
 70
     1
102
RTVSPropertyOp17
 70
     1
102
RTVSPropertyOp18
 70
     1
102
RTVSPropertyOp19
 70
     1
102
RTVSPropertyOp20
 70
     1
102
RTVSPropertyOp21
 70
     1
102
RTVSPropertyOp22
 70
     1
102
RTVSPropertyOp23
 70
     1
102
RTVSPropertyOp24
 70
     1
102
RTVSPropertyOp25
 70
     1
102
RTVSPropertyOp26
 70
     1
102
RTVSPropertyOp27
 70
     1
102
RTVSPropertyOp28
 70
     1
102
RTVSPropertyOp29
 70
     1
102
RTVSPropertyOp30
 70
     1
102
RTVSPropertyOp31
 70
     1
102
RTVSPropertyOp32
 70
     1
102
RTVSPropertyOp33
 70
     1
102
RTVSPropertyOp34
 70
     1
102
RTVSPropertyOp35
 70
     1
102
RTVSPropertyOp36
 70
     1
102
RTVSPropertyOp37
 70
     1
102
RTVSPropertyOp38
 70
     1
102
RTVSPropertyOp39
 70
     1
102
RTVSPropertyOp40
 70
     1
102
RTVSPropertyOp41
 70
     1
102
RTVSPropertyOp42
 70
     1
102
RTVSPropertyOp43
 70
     1
102
RTVSPropertyOp44
 70
     1
102
RTVSPropertyOp45
 70
     1
102
RTVSPropertyOp46
 70
     1
102
RTVSPropertyOp47
 70
     1
102
RTVSPropertyOp48
 70
     1
102
RTVSPropertyOp49
 70
     1
102
RTVSPropertyOp50
 70
     1
102
RTVSPropertyOp51
 70
     0
102
RTVSPropertyOp52
 70
     0
102
RTVSPropertyOp53
 70
     1
102
RTVSPropertyOp54
 70
     1
102
RTVSPropertyOp55
 70
     1
102
RTVSPropertyOp56
 70
     1
102
RTVSPropertyOp57
 70
     1
102
RTVSPost2010Prop28
280
     0
102
RTVSPost2010PropOp28
 70
     1
102
RTVSPost2010Prop29
280
     1
102
RTVSPost2010PropOp29
 70
     1
102
RTVSPost2010Prop30
280
     1
102
RTVSPost2010PropOp30
 70
     1
102
RTVSPost2010Prop31
280
     0
102
RTVSPost2010PropOp31
 70
     1
102
RTVSPost2010Prop32
280
     0
102
RTVSPost2010PropOp32
 70
     1
102
RTVSPost2010Prop33
280
     0
102
RTVSPost2010PropOp33
 70
     1
102
RTVSPost2010Prop34
280
     0
102
RTVSPost2010PropOp34
 70
     1
102
RTVSPost2010Prop35
280
     0
102
RTVSPost2010PropOp35
 70
     1
102
RTVSPost2010Prop36
280
     0
102
RTVSPost2010PropOp36
 70
     1
102
RTVSPost2010Prop37
 90
       50
102
RTVSPost2010PropOp37
 70
     1
102
RTVSPost2010Prop38
140
0.0
102
RTVSPost2010PropOp38
 70
     1
102
RTVSPost2010Prop39
140
1.0
102
RTVSPost2010PropOp39
 70
     1
102
RTVSPost2010Prop40
 90
        0
102
RTVSPost2010PropOp40
 70
     1
102
RTVSPost2010Prop41ColorIndex
 90
       18
102
RTVSPost2010Prop41ColorRGB
 90
        0
102
RTVSPost2010PropOp41
 70
     1
102
RTVSPost2010Prop42
 90
       50
102
RTVSPost2010PropOp42
 70
     1
102
RTVSPost2010Prop43
 90
        3
102
RTVSPost2010PropOp43
 70
     1
102
RTVSPost2010Prop44ColorIndex
 90
        5
102
RTVSPost2010Prop44ColorRGB
 90
      255
102
RTVSPost2010PropOp44
 70
     1
102
RTVSPost2010Prop45
280
     0
102
RTVSPost2010PropOp45
 70
     1
102
RTVSPost2010Prop46
 90
       50
102
RTVSPost2010PropOp46
 70
     1
102
RTVSPost2010Prop47
 90
       50
102
RTVSPost2010PropOp47
 70
     1
102
RTVSPost2010Prop48
 90
       50
102
RTVSPost2010PropOp48
 70
     1
102
RTVSPost2010Prop49
280
     0
102
RTVSPost2010PropOp49
 70
     1
102
RTVSPost2010Prop50
 90
       50
102
RTVSPost2010PropOp50
 70
     1
102
RTVSPost2010Prop51ColorIndex
 90
      256
102
RTVSPost2010Prop51ColorRGB
 90
-16777216
102
RTVSPost2010PropOp51
 70
     0
102
RTVSPost2010Prop52
140
1.0
102
RTVSPost2010PropOp52
 70
     0
102
RTVSPost2010Prop53
 90
        2
102
RTVSPost2010PropOp53
 70
     1
102
RTVSPost2010Prop54
  1
strokes_ogs.tif
102
RTVSPost2010PropOp54
 70
     1
102
RTVSPost2010Prop55
280
     0
102
RTVSPost2010PropOp55
 70
     1
102
RTVSPost2010Prop56
140
1.0
102
RTVSPost2010PropOp56
 70
     1
102
RTVSPost2010Prop57
140
1.0
102
RTVSPost2010PropOp57
 70
     1
  0
XRECORD
  5
263
102
{ACAD_REACTORS
330
262
102
}
330
262
100
AcDbXrecord
280
     1
102
RTVSPropertyOp0
 70
     1
102
RTVSPropertyOp1
 70
     1
102
RTVSPropertyOp2
 70
     1
102
RTVSPropertyOp3
 70
     1
102
RTVSPropertyOp4
 70
     1
102
RTVSPropertyOp5
 70
     1
102
RTVSPropertyOp6
 70
     1
102
RTVSPropertyOp7
 70
     1
102
RTVSPropertyOp8
 70
     1
102
RTVSPropertyOp9
 70
     1
102
RTVSPropertyOp10
 70
     1
102
RTVSPropertyOp11
 70
     1
102
RTVSPropertyOp12
 70
     1
102
RTVSPropertyOp13
 70
     1
102
RTVSPropertyOp14
 70
     1
102
RTVSPropertyOp15
 70
     1
102
RTVSPropertyOp16
 70
     1
102
RTVSPropertyOp17
 70
     1
102
RTVSPropertyOp18
 70
     1
102
RTVSPropertyOp19
 70
     1
102
RTVSPropertyOp20
 70
     1
102
RTVSPropertyOp21
 70
     1
102
RTVSPropertyOp22
 70
     1
102
RTVSPropertyOp23
 70
     1
102
RTVSPropertyOp24
 70
     1
102
RTVSPropertyOp25
 70
     1
102
RTVSPropertyOp26
 70
     1
102
RTVSPropertyOp27
 70
     1
102
RTVSPropertyOp28
 70
     1
102
RTVSPropertyOp29
 70
     1
102
RTVSPropertyOp30
 70
     1
102
RTVSPropertyOp31
 70
     1
102
RTVSPropertyOp32
 70
     1
102
RTVSPropertyOp33
 70
     1
102
RTVSPropertyOp34
 70
     1
102
RTVSPropertyOp35
 70
     1
102
RTVSPropertyOp36
 70
     1
102
RTVSPropertyOp37
 70
     1
102
RTVSPropertyOp38
 70
     1
102
RTVSPropertyOp39
 70
     1
102
RTVSPropertyOp40
 70
     1
102
RTVSPropertyOp41
 70
     1
102
RTVSPropertyOp42
 70
     1
102
RTVSPropertyOp43
 70
     1
102
RTVSPropertyOp44
 70
     1
102
RTVSPropertyOp45
 70
     1
102
RTVSPropertyOp46
 70
     1
102
RTVSPropertyOp47
 70
     1
102
RTVSPropertyOp48
 70
     1
102
RTVSPropertyOp49
 70
     1
102
RTVSPropertyOp50
 70
     1
102
RTVSPropertyOp51
 70
     0
102
RTVSPropertyOp52
 70
     0
102
RTVSPropertyOp53
 70
     1
102
RTVSPropertyOp54
 70
     1
102
RTVSPropertyOp55
 70
     1
102
RTVSPropertyOp56
 70
     1
102
RTVSPropertyOp57
 70
     1
102
RTVSPost2010Prop28
280
     0
102
RTVSPost2010PropOp28
 70
     1
102
RTVSPost2010Prop29
280
     1
102
RTVSPost2010PropOp29
 70
     1
102
RTVSPost2010Prop30
280
     1
102
RTVSPost2010PropOp30
 70
     1
102
RTVSPost2010Prop31
280
     0
102
RTVSPost2010PropOp31
 70
     1
102
RTVSPost2010Prop32
280
     0
102
RTVSPost2010PropOp32
 70
     1
102
RTVSPost2010Prop33
280
     0
102
RTVSPost2010PropOp33
 70
     1
102
RTVSPost2010Prop34
280
     0
102
RTVSPost2010PropOp34
 70
     1
102
RTVSPost2010Prop35
280
     0
102
RTVSPost2010PropOp35
 70
     1
102
RTVSPost2010Prop36
280
     0
102
RTVSPost2010PropOp36
 70
     1
102
RTVSPost2010Prop37
 90
       50
102
RTVSPost2010PropOp37
 70
     1
102
RTVSPost2010Prop38
140
0.0
102
RTVSPost2010PropOp38
 70
     1
102
RTVSPost2010Prop39
140
1.0
102
RTVSPost2010PropOp39
 70
     1
102
RTVSPost2010Prop40
 90
        0
102
RTVSPost2010PropOp40
 70
     1
102
RTVSPost2010Prop41ColorIndex
 90
       18
102
RTVSPost2010Prop41ColorRGB
 90
        0
102
RTVSPost2010PropOp41
 70
     1
102
RTVSPost2010Prop42
 90
       50
102
RTVSPost2010PropOp42
 70
     1
102
RTVSPost2010Prop43
 90
        3
102
RTVSPost2010PropOp43
 70
     1
102
RTVSPost2010Prop44ColorIndex
 90
        5
102
RTVSPost2010Prop44ColorRGB
 90
      255
102
RTVSPost2010PropOp44
 70
     1
102
RTVSPost2010Prop45
280
     0
102
RTVSPost2010PropOp45
 70
     1
102
RTVSPost2010Prop46
 90
       50
102
RTVSPost2010PropOp46
 70
     1
102
RTVSPost2010Prop47
 90
       50
102
RTVSPost2010PropOp47
 70
     1
102
RTVSPost2010Prop48
 90
       50
102
RTVSPost2010PropOp48
 70
     1
102
RTVSPost2010Prop49
280
     0
102
RTVSPost2010PropOp49
 70
     1
102
RTVSPost2010Prop50
 90
       50
102
RTVSPost2010PropOp50
 70
     1
102
RTVSPost2010Prop51ColorIndex
 90
      256
102
RTVSPost2010Prop51ColorRGB
 90
-16777216
102
RTVSPost2010PropOp51
 70
     0
102
RTVSPost2010Prop52
140
1.0
102
RTVSPost2010PropOp52
 70
     0
102
RTVSPost2010Prop53
 90
        2
102
RTVSPost2010PropOp53
 70
     1
102
RTVSPost2010Prop54
  1
strokes_ogs.tif
102
RTVSPost2010PropOp54
 70
     1
102
RTVSPost2010Prop55
280
     0
102
RTVSPost2010PropOp55
 70
     1
102
RTVSPost2010Prop56
140
1.0
102
RTVSPost2010PropOp56
 70
     1
102
RTVSPost2010Prop57
140
1.0
102
RTVSPost2010PropOp57
 70
     1
  0
XRECORD
  5
265
102
{ACAD_REACTORS
330
264
102
}
330
264
100
AcDbXrecord
280
     1
102
RTVSPropertyOp0
 70
     1
102
RTVSPropertyOp1
 70
     1
102
RTVSPropertyOp2
 70
     1
102
RTVSPropertyOp3
 70
     1
102
RTVSPropertyOp4
 70
     1
102
RTVSPropertyOp5
 70
     1
102
RTVSPropertyOp6
 70
     1
102
RTVSPropertyOp7
 70
     1
102
RTVSPropertyOp8
 70
     1
102
RTVSPropertyOp9
 70
     1
102
RTVSPropertyOp10
 70
     1
102
RTVSPropertyOp11
 70
     1
102
RTVSPropertyOp12
 70
     1
102
RTVSPropertyOp13
 70
     1
102
RTVSPropertyOp14
 70
     1
102
RTVSPropertyOp15
 70
     1
102
RTVSPropertyOp16
 70
     1
102
RTVSPropertyOp17
 70
     1
102
RTVSPropertyOp18
 70
     1
102
RTVSPropertyOp19
 70
     1
102
RTVSPropertyOp20
 70
     1
102
RTVSPropertyOp21
 70
     1
102
RTVSPropertyOp22
 70
     1
102
RTVSPropertyOp23
 70
     1
102
RTVSPropertyOp24
 70
     1
102
RTVSPropertyOp25
 70
     1
102
RTVSPropertyOp26
 70
     1
102
RTVSPropertyOp27
 70
     1
102
RTVSPropertyOp28
 70
     1
102
RTVSPropertyOp29
 70
     1
102
RTVSPropertyOp30
 70
     1
102
RTVSPropertyOp31
 70
     1
102
RTVSPropertyOp32
 70
     1
102
RTVSPropertyOp33
 70
     1
102
RTVSPropertyOp34
 70
     1
102
RTVSPropertyOp35
 70
     1
102
RTVSPropertyOp36
 70
     1
102
RTVSPropertyOp37
 70
     1
102
RTVSPropertyOp38
 70
     1
102
RTVSPropertyOp39
 70
     1
102
RTVSPropertyOp40
 70
     1
102
RTVSPropertyOp41
 70
     1
102
RTVSPropertyOp42
 70
     1
102
RTVSPropertyOp43
 70
     1
102
RTVSPropertyOp44
 70
     1
102
RTVSPropertyOp45
 70
     1
102
RTVSPropertyOp46
 70
     1
102
RTVSPropertyOp47
 70
     1
102
RTVSPropertyOp48
 70
     1
102
RTVSPropertyOp49
 70
     1
102
RTVSPropertyOp50
 70
     1
102
RTVSPropertyOp51
 70
     0
102
RTVSPropertyOp52
 70
     0
102
RTVSPropertyOp53
 70
     1
102
RTVSPropertyOp54
 70
     1
102
RTVSPropertyOp55
 70
     1
102
RTVSPropertyOp56
 70
     1
102
RTVSPropertyOp57
 70
     1
102
RTVSPost2010Prop28
280
     0
102
RTVSPost2010PropOp28
 70
     1
102
RTVSPost2010Prop29
280
     1
102
RTVSPost2010PropOp29
 70
     1
102
RTVSPost2010Prop30
280
     1
102
RTVSPost2010PropOp30
 70
     1
102
RTVSPost2010Prop31
280
     0
102
RTVSPost2010PropOp31
 70
     1
102
RTVSPost2010Prop32
280
     0
102
RTVSPost2010PropOp32
 70
     1
102
RTVSPost2010Prop33
280
     0
102
RTVSPost2010PropOp33
 70
     1
102
RTVSPost2010Prop34
280
     0
102
RTVSPost2010PropOp34
 70
     1
102
RTVSPost2010Prop35
280
     0
102
RTVSPost2010PropOp35
 70
     1
102
RTVSPost2010Prop36
280
     0
102
RTVSPost2010PropOp36
 70
     1
102
RTVSPost2010Prop37
 90
       50
102
RTVSPost2010PropOp37
 70
     1
102
RTVSPost2010Prop38
140
0.0
102
RTVSPost2010PropOp38
 70
     1
102
RTVSPost2010Prop39
140
1.0
102
RTVSPost2010PropOp39
 70
     1
102
RTVSPost2010Prop40
 90
        0
102
RTVSPost2010PropOp40
 70
     1
102
RTVSPost2010Prop41ColorIndex
 90
       18
102
RTVSPost2010Prop41ColorRGB
 90
        0
102
RTVSPost2010PropOp41
 70
     1
102
RTVSPost2010Prop42
 90
       50
102
RTVSPost2010PropOp42
 70
     1
102
RTVSPost2010Prop43
 90
        3
102
RTVSPost2010PropOp43
 70
     1
102
RTVSPost2010Prop44ColorIndex
 90
        5
102
RTVSPost2010Prop44ColorRGB
 90
      255
102
RTVSPost2010PropOp44
 70
     1
102
RTVSPost2010Prop45
280
     0
102
RTVSPost2010PropOp45
 70
     1
102
RTVSPost2010Prop46
 90
       50
102
RTVSPost2010PropOp46
 70
     1
102
RTVSPost2010Prop47
 90
       50
102
RTVSPost2010PropOp47
 70
     1
102
RTVSPost2010Prop48
 90
       50
102
RTVSPost2010PropOp48
 70
     1
102
RTVSPost2010Prop49
280
     0
102
RTVSPost2010PropOp49
 70
     1
102
RTVSPost2010Prop50
 90
       50
102
RTVSPost2010PropOp50
 70
     1
102
RTVSPost2010Prop51ColorIndex
 90
      256
102
RTVSPost2010Prop51ColorRGB
 90
-16777216
102
RTVSPost2010PropOp51
 70
     0
102
RTVSPost2010Prop52
140
1.0
102
RTVSPost2010PropOp52
 70
     0
102
RTVSPost2010Prop53
 90
        2
102
RTVSPost2010PropOp53
 70
     1
102
RTVSPost2010Prop54
  1
strokes_ogs.tif
102
RTVSPost2010PropOp54
 70
     1
102
RTVSPost2010Prop55
280
     0
102
RTVSPost2010PropOp55
 70
     1
102
RTVSPost2010Prop56
140
1.0
102
RTVSPost2010PropOp56
 70
     1
102
RTVSPost2010Prop57
140
1.0
102
RTVSPost2010PropOp57
 70
     1
  0
XRECORD
  5
255
102
{ACAD_REACTORS
330
254
102
}
330
254
100
AcDbXrecord
280
     1
102
RTVSPropertyOp0
 70
     1
102
RTVSPropertyOp1
 70
     1
102
RTVSPropertyOp2
 70
     1
102
RTVSPropertyOp3
 70
     1
102
RTVSPropertyOp4
 70
     1
102
RTVSPropertyOp5
 70
     1
102
RTVSPropertyOp6
 70
     1
102
RTVSPropertyOp7
 70
     1
102
RTVSPropertyOp8
 70
     1
102
RTVSPropertyOp9
 70
     1
102
RTVSPropertyOp10
 70
     1
102
RTVSPropertyOp11
 70
     1
102
RTVSPropertyOp12
 70
     1
102
RTVSPropertyOp13
 70
     1
102
RTVSPropertyOp14
 70
     1
102
RTVSPropertyOp15
 70
     1
102
RTVSPropertyOp16
 70
     1
102
RTVSPropertyOp17
 70
     1
102
RTVSPropertyOp18
 70
     1
102
RTVSPropertyOp19
 70
     1
102
RTVSPropertyOp20
 70
     1
102
RTVSPropertyOp21
 70
     1
102
RTVSPropertyOp22
 70
     1
102
RTVSPropertyOp23
 70
     1
102
RTVSPropertyOp24
 70
     1
102
RTVSPropertyOp25
 70
     1
102
RTVSPropertyOp26
 70
     1
102
RTVSPropertyOp27
 70
     1
102
RTVSPropertyOp28
 70
     1
102
RTVSPropertyOp29
 70
     1
102
RTVSPropertyOp30
 70
     1
102
RTVSPropertyOp31
 70
     1
102
RTVSPropertyOp32
 70
     1
102
RTVSPropertyOp33
 70
     1
102
RTVSPropertyOp34
 70
     1
102
RTVSPropertyOp35
 70
     1
102
RTVSPropertyOp36
 70
     1
102
RTVSPropertyOp37
 70
     1
102
RTVSPropertyOp38
 70
     1
102
RTVSPropertyOp39
 70
     1
102
RTVSPropertyOp40
 70
     1
102
RTVSPropertyOp41
 70
     1
102
RTVSPropertyOp42
 70
     1
102
RTVSPropertyOp43
 70
     1
102
RTVSPropertyOp44
 70
     1
102
RTVSPropertyOp45
 70
     1
102
RTVSPropertyOp46
 70
     1
102
RTVSPropertyOp47
 70
     1
102
RTVSPropertyOp48
 70
     1
102
RTVSPropertyOp49
 70
     1
102
RTVSPropertyOp50
 70
     1
102
RTVSPropertyOp51
 70
     0
102
RTVSPropertyOp52
 70
     0
102
RTVSPropertyOp53
 70
     1
102
RTVSPropertyOp54
 70
     1
102
RTVSPropertyOp55
 70
     1
102
RTVSPropertyOp56
 70
     1
102
RTVSPropertyOp57
 70
     1
102
RTVSPost2010Prop28
280
     0
102
RTVSPost2010PropOp28
 70
     1
102
RTVSPost2010Prop29
280
     1
102
RTVSPost2010PropOp29
 70
     1
102
RTVSPost2010Prop30
280
     1
102
RTVSPost2010PropOp30
 70
     1
102
RTVSPost2010Prop31
280
     0
102
RTVSPost2010PropOp31
 70
     1
102
RTVSPost2010Prop32
280
     0
102
RTVSPost2010PropOp32
 70
     1
102
RTVSPost2010Prop33
280
     0
102
RTVSPost2010PropOp33
 70
     1
102
RTVSPost2010Prop34
280
     0
102
RTVSPost2010PropOp34
 70
     1
102
RTVSPost2010Prop35
280
     0
102
RTVSPost2010PropOp35
 70
     1
102
RTVSPost2010Prop36
280
     0
102
RTVSPost2010PropOp36
 70
     1
102
RTVSPost2010Prop37
 90
       50
102
RTVSPost2010PropOp37
 70
     1
102
RTVSPost2010Prop38
140
0.0
102
RTVSPost2010PropOp38
 70
     1
102
RTVSPost2010Prop39
140
1.0
102
RTVSPost2010PropOp39
 70
     1
102
RTVSPost2010Prop40
 90
        0
102
RTVSPost2010PropOp40
 70
     1
102
RTVSPost2010Prop41ColorIndex
 90
       18
102
RTVSPost2010Prop41ColorRGB
 90
        0
102
RTVSPost2010PropOp41
 70
     1
102
RTVSPost2010Prop42
 90
       50
102
RTVSPost2010PropOp42
 70
     1
102
RTVSPost2010Prop43
 90
        3
102
RTVSPost2010PropOp43
 70
     1
102
RTVSPost2010Prop44ColorIndex
 90
        5
102
RTVSPost2010Prop44ColorRGB
 90
      255
102
RTVSPost2010PropOp44
 70
     1
102
RTVSPost2010Prop45
280
     0
102
RTVSPost2010PropOp45
 70
     1
102
RTVSPost2010Prop46
 90
       50
102
RTVSPost2010PropOp46
 70
     1
102
RTVSPost2010Prop47
 90
       50
102
RTVSPost2010PropOp47
 70
     1
102
RTVSPost2010Prop48
 90
       50
102
RTVSPost2010PropOp48
 70
     1
102
RTVSPost2010Prop49
280
     0
102
RTVSPost2010PropOp49
 70
     1
102
RTVSPost2010Prop50
 90
       50
102
RTVSPost2010PropOp50
 70
     1
102
RTVSPost2010Prop51ColorIndex
 90
      256
102
RTVSPost2010Prop51ColorRGB
 90
-16777216
102
RTVSPost2010PropOp51
 70
     0
102
RTVSPost2010Prop52
140
1.0
102
RTVSPost2010PropOp52
 70
     0
102
RTVSPost2010Prop53
 90
        2
102
RTVSPost2010PropOp53
 70
     1
102
RTVSPost2010Prop54
  1
strokes_ogs.tif
102
RTVSPost2010PropOp54
 70
     1
102
RTVSPost2010Prop55
280
     0
102
RTVSPost2010PropOp55
 70
     1
102
RTVSPost2010Prop56
140
1.0
102
RTVSPost2010PropOp56
 70
     1
102
RTVSPost2010Prop57
140
1.0
102
RTVSPost2010PropOp57
 70
     1
  0
XRECORD
  5
247
102
{ACAD_REACTORS
330
246
102
}
330
246
100
AcDbXrecord
280
     1
102
RTVSPropertyOp0
 70
     1
102
RTVSPropertyOp1
 70
     1
102
RTVSPropertyOp2
 70
     1
102
RTVSPropertyOp3
 70
     1
102
RTVSPropertyOp4
 70
     1
102
RTVSPropertyOp5
 70
     1
102
RTVSPropertyOp6
 70
     1
102
RTVSPropertyOp7
 70
     1
102
RTVSPropertyOp8
 70
     1
102
RTVSPropertyOp9
 70
     1
102
RTVSPropertyOp10
 70
     1
102
RTVSPropertyOp11
 70
     1
102
RTVSPropertyOp12
 70
     1
102
RTVSPropertyOp13
 70
     1
102
RTVSPropertyOp14
 70
     1
102
RTVSPropertyOp15
 70
     1
102
RTVSPropertyOp16
 70
     1
102
RTVSPropertyOp17
 70
     1
102
RTVSPropertyOp18
 70
     1
102
RTVSPropertyOp19
 70
     1
102
RTVSPropertyOp20
 70
     1
102
RTVSPropertyOp21
 70
     1
102
RTVSPropertyOp22
 70
     1
102
RTVSPropertyOp23
 70
     1
102
RTVSPropertyOp24
 70
     1
102
RTVSPropertyOp25
 70
     1
102
RTVSPropertyOp26
 70
     1
102
RTVSPropertyOp27
 70
     1
102
RTVSPropertyOp28
 70
     1
102
RTVSPropertyOp29
 70
     1
102
RTVSPropertyOp30
 70
     1
102
RTVSPropertyOp31
 70
     1
102
RTVSPropertyOp32
 70
     1
102
RTVSPropertyOp33
 70
     1
102
RTVSPropertyOp34
 70
     1
102
RTVSPropertyOp35
 70
     1
102
RTVSPropertyOp36
 70
     1
102
RTVSPropertyOp37
 70
     1
102
RTVSPropertyOp38
 70
     1
102
RTVSPropertyOp39
 70
     1
102
RTVSPropertyOp40
 70
     1
102
RTVSPropertyOp41
 70
     1
102
RTVSPropertyOp42
 70
     1
102
RTVSPropertyOp43
 70
     1
102
RTVSPropertyOp44
 70
     1
102
RTVSPropertyOp45
 70
     1
102
RTVSPropertyOp46
 70
     1
102
RTVSPropertyOp47
 70
     1
102
RTVSPropertyOp48
 70
     1
102
RTVSPropertyOp49
 70
     1
102
RTVSPropertyOp50
 70
     1
102
RTVSPropertyOp51
 70
     0
102
RTVSPropertyOp52
 70
     0
102
RTVSPropertyOp53
 70
     1
102
RTVSPropertyOp54
 70
     1
102
RTVSPropertyOp55
 70
     1
102
RTVSPropertyOp56
 70
     1
102
RTVSPropertyOp57
 70
     1
102
RTVSPost2010Prop28
280
     0
102
RTVSPost2010PropOp28
 70
     1
102
RTVSPost2010Prop29
280
     1
102
RTVSPost2010PropOp29
 70
     1
102
RTVSPost2010Prop30
280
     1
102
RTVSPost2010PropOp30
 70
     1
102
RTVSPost2010Prop31
280
     0
102
RTVSPost2010PropOp31
 70
     1
102
RTVSPost2010Prop32
280
     0
102
RTVSPost2010PropOp32
 70
     1
102
RTVSPost2010Prop33
280
     0
102
RTVSPost2010PropOp33
 70
     1
102
RTVSPost2010Prop34
280
     0
102
RTVSPost2010PropOp34
 70
     1
102
RTVSPost2010Prop35
280
     0
102
RTVSPost2010PropOp35
 70
     1
102
RTVSPost2010Prop36
280
     0
102
RTVSPost2010PropOp36
 70
     1
102
RTVSPost2010Prop37
 90
       50
102
RTVSPost2010PropOp37
 70
     1
102
RTVSPost2010Prop38
140
0.0
102
RTVSPost2010PropOp38
 70
     1
102
RTVSPost2010Prop39
140
1.0
102
RTVSPost2010PropOp39
 70
     1
102
RTVSPost2010Prop40
 90
        0
102
RTVSPost2010PropOp40
 70
     1
102
RTVSPost2010Prop41ColorIndex
 90
       18
102
RTVSPost2010Prop41ColorRGB
 90
        0
102
RTVSPost2010PropOp41
 70
     1
102
RTVSPost2010Prop42
 90
       50
102
RTVSPost2010PropOp42
 70
     1
102
RTVSPost2010Prop43
 90
        3
102
RTVSPost2010PropOp43
 70
     1
102
RTVSPost2010Prop44ColorIndex
 90
        5
102
RTVSPost2010Prop44ColorRGB
 90
      255
102
RTVSPost2010PropOp44
 70
     1
102
RTVSPost2010Prop45
280
     0
102
RTVSPost2010PropOp45
 70
     1
102
RTVSPost2010Prop46
 90
       50
102
RTVSPost2010PropOp46
 70
     1
102
RTVSPost2010Prop47
 90
       50
102
RTVSPost2010PropOp47
 70
     1
102
RTVSPost2010Prop48
 90
       50
102
RTVSPost2010PropOp48
 70
     1
102
RTVSPost2010Prop49
280
     0
102
RTVSPost2010PropOp49
 70
     1
102
RTVSPost2010Prop50
 90
       50
102
RTVSPost2010PropOp50
 70
     1
102
RTVSPost2010Prop51ColorIndex
 90
      256
102
RTVSPost2010Prop51ColorRGB
 90
-16777216
102
RTVSPost2010PropOp51
 70
     0
102
RTVSPost2010Prop52
140
1.0
102
RTVSPost2010PropOp52
 70
     0
102
RTVSPost2010Prop53
 90
        2
102
RTVSPost2010PropOp53
 70
     1
102
RTVSPost2010Prop54
  1
strokes_ogs.tif
102
RTVSPost2010PropOp54
 70
     1
102
RTVSPost2010Prop55
280
     0
102
RTVSPost2010PropOp55
 70
     1
102
RTVSPost2010Prop56
140
1.0
102
RTVSPost2010PropOp56
 70
     1
102
RTVSPost2010Prop57
140
1.0
102
RTVSPost2010PropOp57
 70
     1
  0
XRECORD
  5
267
102
{ACAD_REACTORS
330
266
102
}
330
266
100
AcDbXrecord
280
     1
102
RTVSPropertyOp0
 70
     1
102
RTVSPropertyOp1
 70
     1
102
RTVSPropertyOp2
 70
     1
102
RTVSPropertyOp3
 70
     1
102
RTVSPropertyOp4
 70
     1
102
RTVSPropertyOp5
 70
     1
102
RTVSPropertyOp6
 70
     1
102
RTVSPropertyOp7
 70
     1
102
RTVSPropertyOp8
 70
     1
102
RTVSPropertyOp9
 70
     1
102
RTVSPropertyOp10
 70
     1
102
RTVSPropertyOp11
 70
     1
102
RTVSPropertyOp12
 70
     1
102
RTVSPropertyOp13
 70
     1
102
RTVSPropertyOp14
 70
     1
102
RTVSPropertyOp15
 70
     1
102
RTVSPropertyOp16
 70
     1
102
RTVSPropertyOp17
 70
     1
102
RTVSPropertyOp18
 70
     1
102
RTVSPropertyOp19
 70
     1
102
RTVSPropertyOp20
 70
     1
102
RTVSPropertyOp21
 70
     1
102
RTVSPropertyOp22
 70
     1
102
RTVSPropertyOp23
 70
     1
102
RTVSPropertyOp24
 70
     1
102
RTVSPropertyOp25
 70
     1
102
RTVSPropertyOp26
 70
     1
102
RTVSPropertyOp27
 70
     1
102
RTVSPropertyOp28
 70
     1
102
RTVSPropertyOp29
 70
     1
102
RTVSPropertyOp30
 70
     1
102
RTVSPropertyOp31
 70
     1
102
RTVSPropertyOp32
 70
     1
102
RTVSPropertyOp33
 70
     1
102
RTVSPropertyOp34
 70
     1
102
RTVSPropertyOp35
 70
     1
102
RTVSPropertyOp36
 70
     1
102
RTVSPropertyOp37
 70
     1
102
RTVSPropertyOp38
 70
     1
102
RTVSPropertyOp39
 70
     1
102
RTVSPropertyOp40
 70
     1
102
RTVSPropertyOp41
 70
     1
102
RTVSPropertyOp42
 70
     1
102
RTVSPropertyOp43
 70
     1
102
RTVSPropertyOp44
 70
     1
102
RTVSPropertyOp45
 70
     1
102
RTVSPropertyOp46
 70
     1
102
RTVSPropertyOp47
 70
     1
102
RTVSPropertyOp48
 70
     1
102
RTVSPropertyOp49
 70
     1
102
RTVSPropertyOp50
 70
     1
102
RTVSPropertyOp51
 70
     0
102
RTVSPropertyOp52
 70
     0
102
RTVSPropertyOp53
 70
     1
102
RTVSPropertyOp54
 70
     1
102
RTVSPropertyOp55
 70
     1
102
RTVSPropertyOp56
 70
     1
102
RTVSPropertyOp57
 70
     1
102
RTVSPost2010Prop28
280
     0
102
RTVSPost2010PropOp28
 70
     1
102
RTVSPost2010Prop29
280
     1
102
RTVSPost2010PropOp29
 70
     1
102
RTVSPost2010Prop30
280
     1
102
RTVSPost2010PropOp30
 70
     1
102
RTVSPost2010Prop31
280
     0
102
RTVSPost2010PropOp31
 70
     1
102
RTVSPost2010Prop32
280
     0
102
RTVSPost2010PropOp32
 70
     1
102
RTVSPost2010Prop33
280
     0
102
RTVSPost2010PropOp33
 70
     1
102
RTVSPost2010Prop34
280
     0
102
RTVSPost2010PropOp34
 70
     1
102
RTVSPost2010Prop35
280
     0
102
RTVSPost2010PropOp35
 70
     1
102
RTVSPost2010Prop36
280
     0
102
RTVSPost2010PropOp36
 70
     1
102
RTVSPost2010Prop37
 90
       50
102
RTVSPost2010PropOp37
 70
     1
102
RTVSPost2010Prop38
140
0.0
102
RTVSPost2010PropOp38
 70
     1
102
RTVSPost2010Prop39
140
1.0
102
RTVSPost2010PropOp39
 70
     1
102
RTVSPost2010Prop40
 90
        0
102
RTVSPost2010PropOp40
 70
     1
102
RTVSPost2010Prop41ColorIndex
 90
       18
102
RTVSPost2010Prop41ColorRGB
 90
        0
102
RTVSPost2010PropOp41
 70
     1
102
RTVSPost2010Prop42
 90
       50
102
RTVSPost2010PropOp42
 70
     1
102
RTVSPost2010Prop43
 90
        3
102
RTVSPost2010PropOp43
 70
     1
102
RTVSPost2010Prop44ColorIndex
 90
        5
102
RTVSPost2010Prop44ColorRGB
 90
      255
102
RTVSPost2010PropOp44
 70
     1
102
RTVSPost2010Prop45
280
     0
102
RTVSPost2010PropOp45
 70
     1
102
RTVSPost2010Prop46
 90
       50
102
RTVSPost2010PropOp46
 70
     1
102
RTVSPost2010Prop47
 90
       50
102
RTVSPost2010PropOp47
 70
     1
102
RTVSPost2010Prop48
 90
       50
102
RTVSPost2010PropOp48
 70
     1
102
RTVSPost2010Prop49
280
     0
102
RTVSPost2010PropOp49
 70
     1
102
RTVSPost2010Prop50
 90
       50
102
RTVSPost2010PropOp50
 70
     1
102
RTVSPost2010Prop51ColorIndex
 90
      256
102
RTVSPost2010Prop51ColorRGB
 90
-16777216
102
RTVSPost2010PropOp51
 70
     0
102
RTVSPost2010Prop52
140
1.0
102
RTVSPost2010PropOp52
 70
     0
102
RTVSPost2010Prop53
 90
        2
102
RTVSPost2010PropOp53
 70
     1
102
RTVSPost2010Prop54
  1
strokes_ogs.tif
102
RTVSPost2010PropOp54
 70
     1
102
RTVSPost2010Prop55
280
     0
102
RTVSPost2010PropOp55
 70
     1
102
RTVSPost2010Prop56
140
1.0
102
RTVSPost2010PropOp56
 70
     1
102
RTVSPost2010Prop57
140
1.0
102
RTVSPost2010PropOp57
 70
     1
  0
ENDSEC
  0
EOF
