  0
SECTION
  2
HEADER
  9
$ACADVER
  1
AC1018
  9
$ACADMAINTVER
 70
     0
  9
$DWGCODEPAGE
  3
ANSI_1252
  9
$INSBASE
 10
0.0
 20
0.0
 30
0.0
  9
$EXTMIN
 10
-415.499999999989
 20
-267.0000000000051
 30
0.0
  9
$EXTMAX
 10
-118.4999999999909
 20
-57.000000000005
 30
0.0
  9
$LIMMIN
 10
0.0
 20
0.0
  9
$LIMMAX
 10
12.0
 20
9.0
  9
$ORTHOMODE
 70
     0
  9
$REGENMODE
 70
     1
  9
$FILLMODE
 70
     1
  9
$QTEXTMODE
 70
     0
  9
$MIRRTEXT
 70
     1
  9
$LTSCALE
 40
1.0
  9
$ATTMODE
 70
     1
  9
$TEXTSIZE
 40
0.2
  9
$TRACEWID
 40
0.05
  9
$TEXTSTYLE
  7
Standard
  9
$CLAYER
  8
0
  9
$CELTYPE
  6
ByLayer
  9
$CECOLOR
 62
   256
  9
$CELTSCALE
 40
1.0
  9
$DISPSILH
 70
     0
  9
$DIMSCALE
 40
1.0
  9
$DIMASZ
 40
0.18
  9
$DIMEXO
 40
0.0625
  9
$DIMDLI
 40
0.38
  9
$DIMRND
 40
0.0
  9
$DIMDLE
 40
0.0
  9
$DIMEXE
 40
0.18
  9
$DIMTP
 40
0.0
  9
$DIMTM
 40
0.0
  9
$DIMTXT
 40
0.18
  9
$DIMCEN
 40
0.09
  9
$DIMTSZ
 40
0.0
  9
$DIMTOL
 70
     0
  9
$DIMLIM
 70
     0
  9
$DIMTIH
 70
     1
  9
$DIMTOH
 70
     1
  9
$DIMSE1
 70
     0
  9
$DIMSE2
 70
     0
  9
$DIMTAD
 70
     0
  9
$DIMZIN
 70
     0
  9
$DIMBLK
  1

  9
$DIMASO
 70
     1
  9
$DIMSHO
 70
     1
  9
$DIMPOST
  1

  9
$DIMAPOST
  1

  9
$DIMALT
 70
     0
  9
$DIMALTD
 70
     2
  9
$DIMALTF
 40
25.4
  9
$DIMLFAC
 40
1.0
  9
$DIMTOFL
 70
     0
  9
$DIMTVP
 40
0.0
  9
$DIMTIX
 70
     0
  9
$DIMSOXD
 70
     0
  9
$DIMSAH
 70
     0
  9
$DIMBLK1
  1

  9
$DIMBLK2
  1

  9
$DIMSTYLE
  2
Standard
  9
$DIMCLRD
 70
     0
  9
$DIMCLRE
 70
     0
  9
$DIMCLRT
 70
     0
  9
$DIMTFAC
 40
1.0
  9
$DIMGAP
 40
0.09
  9
$DIMJUST
 70
     0
  9
$DIMSD1
 70
     0
  9
$DIMSD2
 70
     0
  9
$DIMTOLJ
 70
     1
  9
$DIMTZIN
 70
     0
  9
$DIMALTZ
 70
     0
  9
$DIMALTTZ
 70
     0
  9
$DIMUPT
 70
     0
  9
$DIMDEC
 70
     4
  9
$DIMTDEC
 70
     4
  9
$DIMALTU
 70
     2
  9
$DIMALTTD
 70
     2
  9
$DIMTXSTY
  7
Standard
  9
$DIMAUNIT
 70
     0
  9
$DIMADEC
 70
     0
  9
$DIMALTRND
 40
0.0
  9
$DIMAZIN
 70
     0
  9
$DIMDSEP
 70
    46
  9
$DIMATFIT
 70
     3
  9
$DIMFRAC
 70
     0
  9
$DIMLDRBLK
  1

  9
$DIMLUNIT
 70
     2
  9
$DIMLWD
 70
    -2
  9
$DIMLWE
 70
    -2
  9
$DIMTMOVE
 70
     0
  9
$LUNITS
 70
     2
  9
$LUPREC
 70
     4
  9
$SKETCHINC
 40
0.1
  9
$FILLETRAD
 40
0.5
  9
$AUNITS
 70
     0
  9
$AUPREC
 70
     0
  9
$MENU
  1
.
  9
$ELEVATION
 40
0.0
  9
$PELEVATION
 40
0.0
  9
$THICKNESS
 40
0.0
  9
$LIMCHECK
 70
     0
  9
$CHAMFERA
 40
0.5
  9
$CHAMFERB
 40
0.5
  9
$CHAMFERC
 40
1.0
  9
$CHAMFERD
 40
0.0
  9
$SKPOLY
 70
     0
  9
$TDCREATE
 40
2458206.657927002
  9
$TDUCREATE
 40
2458206.574593669
  9
$TDUPDATE
 40
2458206.657927372
  9
$TDUUPDATE
 40
2458206.574594039
  9
$TDINDWG
 40
0.0000000116
  9
$TDUSRTIMER
 40
0.0000000116
  9
$USRTIMER
 70
     1
  9
$ANGBASE
 50
0.0
  9
$ANGDIR
 70
     0
  9
$PDMODE
 70
     0
  9
$PDSIZE
 40
0.0
  9
$PLINEWID
 40
0.0
  9
$SPLFRAME
 70
     0
  9
$SPLINETYPE
 70
     6
  9
$SPLINESEGS
 70
     8
  9
$HANDSEED
  5
266
  9
$SURFTAB1
 70
     6
  9
$SURFTAB2
 70
     6
  9
$SURFTYPE
 70
     6
  9
$SURFU
 70
     6
  9
$SURFV
 70
     6
  9
$UCSBASE
  2

  9
$UCSNAME
  2

  9
$UCSORG
 10
0.0
 20
0.0
 30
0.0
  9
$UCSXDIR
 10
1.0
 20
0.0
 30
0.0
  9
$UCSYDIR
 10
0.0
 20
1.0
 30
0.0
  9
$UCSORTHOREF
  2

  9
$UCSORTHOVIEW
 70
     0
  9
$UCSORGTOP
 10
0.0
 20
0.0
 30
0.0
  9
$UCSORGBOTTOM
 10
0.0
 20
0.0
 30
0.0
  9
$UCSORGLEFT
 10
0.0
 20
0.0
 30
0.0
  9
$UCSORGRIGHT
 10
0.0
 20
0.0
 30
0.0
  9
$UCSORGFRONT
 10
0.0
 20
0.0
 30
0.0
  9
$UCSORGBACK
 10
0.0
 20
0.0
 30
0.0
  9
$PUCSBASE
  2

  9
$PUCSNAME
  2

  9
$PUCSORG
 10
0.0
 20
0.0
 30
0.0
  9
$PUCSXDIR
 10
1.0
 20
0.0
 30
0.0
  9
$PUCSYDIR
 10
0.0
 20
1.0
 30
0.0
  9
$PUCSORTHOREF
  2

  9
$PUCSORTHOVIEW
 70
     0
  9
$PUCSORGTOP
 10
0.0
 20
0.0
 30
0.0
  9
$PUCSORGBOTTOM
 10
0.0
 20
0.0
 30
0.0
  9
$PUCSORGLEFT
 10
0.0
 20
0.0
 30
0.0
  9
$PUCSORGRIGHT
 10
0.0
 20
0.0
 30
0.0
  9
$PUCSORGFRONT
 10
0.0
 20
0.0
 30
0.0
  9
$PUCSORGBACK
 10
0.0
 20
0.0
 30
0.0
  9
$USERI1
 70
     0
  9
$USERI2
 70
     0
  9
$USERI3
 70
     0
  9
$USERI4
 70
     0
  9
$USERI5
 70
     0
  9
$USERR1
 40
18.1
  9
$USERR2
 40
0.0
  9
$USERR3
 40
0.0
  9
$USERR4
 40
0.0
  9
$USERR5
 40
0.0
  9
$WORLDVIEW
 70
     1
  9
$SHADEDGE
 70
     3
  9
$SHADEDIF
 70
    70
  9
$TILEMODE
 70
     1
  9
$MAXACTVP
 70
    64
  9
$PINSBASE
 10
0.0
 20
0.0
 30
0.0
  9
$PLIMCHECK
 70
     0
  9
$PEXTMIN
 10
1.00000000000000E+20
 20
1.00000000000000E+20
 30
1.00000000000000E+20
  9
$PEXTMAX
 10
-1.00000000000000E+20
 20
-1.00000000000000E+20
 30
-1.00000000000000E+20
  9
$PLIMMIN
 10
0.0
 20
0.0
  9
$PLIMMAX
 10
12.0
 20
9.0
  9
$UNITMODE
 70
     0
  9
$VISRETAIN
 70
     1
  9
$PLINEGEN
 70
     0
  9
$PSLTSCALE
 70
     1
  9
$TREEDEPTH
 70
  3020
  9
$CMLSTYLE
  2
Standard
  9
$CMLJUST
 70
     0
  9
$CMLSCALE
 40
1.0
  9
$PROXYGRAPHICS
 70
     1
  9
$MEASUREMENT
 70
     1
  9
$CELWEIGHT
370
    -1
  9
$ENDCAPS
280
     0
  9
$JOINSTYLE
280
     0
  9
$LWDISPLAY
290
     0
  9
$INSUNITS
 70
     4
  9
$HYPERLINKBASE
  1

  9
$STYLESHEET
  1

  9
$XEDIT
290
     1
  9
$CEPSNTYPE
380
     0
  9
$PSTYLEMODE
290
     1
  9
$FINGERPRINTGUID
  2
{713D795E-535B-4548-BB8F-A4A379905D73}
  9
$VERSIONGUID
  2
{FAEB1C32-E019-11D5-929B-00C0DF256EC4}
  9
$EXTNAMES
290
     1
  9
$PSVPSCALE
 40
0.0
  9
$OLESTARTUP
290
     0
  9
$SORTENTS
280
   127
  9
$INDEXCTL
280
     0
  9
$HIDETEXT
280
     1
  9
$XCLIPFRAME
290
     0
  9
$HALOGAP
280
     0
  9
$OBSCOLOR
 70
   257
  9
$OBSLTYPE
280
     0
  9
$INTERSECTIONDISPLAY
280
     0
  9
$INTERSECTIONCOLOR
 70
   257
  9
$DIMASSOC
280
     2
  9
$PROJECTNAME
  1

  0
ENDSEC
  0
SECTION
  2
CLASSES
  0
CLASS
  1
ACDBDICTIONARYWDFLT
  2
AcDbDictionaryWithDefault
  3
ObjectDBX Classes
 90
        0
 91
        4
280
     0
281
     0
  0
CLASS
  1
VISUALSTYLE
  2
AcDbVisualStyle
  3
ObjectDBX Classes
 90
     4095
 91
        4
280
     0
281
     0
  0
CLASS
  1
MATERIAL
  2
AcDbMaterial
  3
ObjectDBX Classes
 90
     1153
 91
        4
280
     0
281
     0
  0
ENDSEC
  0
SECTION
  2
TABLES
  0
TABLE
  2
VPORT
  5
8
330
0
100
AcDbSymbolTable
 70
     1
  0
VPORT
  5
29
330
8
100
AcDbSymbolTableRecord
100
AcDbViewportTableRecord
  2
*Active
 70
     0
 10
0.0
 20
0.0
 11
1.0
 21
1.0
 12
-266.9999999999899
 22
-162.0000000000051
 13
0.0
 23
0.0
 14
0.5
 24
0.5
 15
0.5
 25
0.5
 16
0.0
 26
0.0
 36
1.0
 17
0.0
 27
0.0
 37
0.0
 40
231.0000000000001
 41
1.60267857142857
 42
50.0
 43
0.0
 44
0.0
 50
0.0
 51
0.0
 71
     0
 72
   100
 73
     1
 74
     3
 75
     0
 76
     0
 77
     0
 78
     0
281
     0
 65
     1
110
0.0
120
0.0
130
0.0
111
1.0
121
0.0
131
0.0
112
0.0
122
1.0
132
0.0
 79
     0
146
0.0
  0
ENDTAB
  0
TABLE
  2
LTYPE
  5
5
330
0
100
AcDbSymbolTable
 70
     8
  0
LTYPE
  5
14
330
5
100
AcDbSymbolTableRecord
100
AcDbLinetypeTableRecord
  2
ByBlock
 70
     0
  3

 72
    65
 73
     0
 40
0.0
  0
LTYPE
  5
15
330
5
100
AcDbSymbolTableRecord
100
AcDbLinetypeTableRecord
  2
ByLayer
 70
     0
  3

 72
    65
 73
     0
 40
0.0
  0
LTYPE
  5
16
330
5
100
AcDbSymbolTableRecord
100
AcDbLinetypeTableRecord
  2
Continuous
 70
     0
  3
Solid line
 72
    65
 73
     0
 40
0.0
  0
LTYPE
  5
3F
330
5
100
AcDbSymbolTableRecord
100
AcDbLinetypeTableRecord
  2
DASHED
 70
     0
  3
Dashed
 72
    65
 73
     2
 40
15.0
 49
7.0
 74
     0
 49
-8.0
 74
     0
  0
LTYPE
  5
40
330
5
100
AcDbSymbolTableRecord
100
AcDbLinetypeTableRecord
  2
DOTTED
 70
     0
  3
Dotted
 72
    65
 73
     2
 40
1.0
 49
0.0
 74
     0
 49
-1.0
 74
     0
  0
LTYPE
  5
41
330
5
100
AcDbSymbolTableRecord
100
AcDbLinetypeTableRecord
  2
DOT_CENTER
 70
     0
  3
Dot_Center
 72
    65
 73
     4
 40
14.0
 49
12.0
 74
     0
 49
-1.0
 74
     0
 49
0.0
 74
     0
 49
-1.0
 74
     0
  0
LTYPE
  5
42
330
5
100
AcDbSymbolTableRecord
100
AcDbLinetypeTableRecord
  2
LONG_DASHED
 70
     0
  3
Long_Dashed
 72
    65
 73
     2
 40
15.0
 49
10.0
 74
     0
 49
-5.0
 74
     0
  0
LTYPE
  5
43
330
5
100
AcDbSymbolTableRecord
100
AcDbLinetypeTableRecord
  2
DASH_CENTER
 70
     0
  3
Dash_Center
 72
    65
 73
     4
 40
14.0
 49
11.0
 74
     0
 49
-1.0
 74
     0
 49
1.0
 74
     0
 49
-1.0
 74
     0
  0
LTYPE
  5
44
330
5
100
AcDbSymbolTableRecord
100
AcDbLinetypeTableRecord
  2
PHANTOM
 70
     0
  3
Phantom
 72
    65
 73
     6
 40
13.0
 49
10.0
 74
     0
 49
-1.0
 74
     0
 49
0.0
 74
     0
 49
-1.0
 74
     0
 49
0.0
 74
     0
 49
-1.0
 74
     0
  0
LTYPE
  5
45
330
5
100
AcDbSymbolTableRecord
100
AcDbLinetypeTableRecord
  2
CENTER_DASH_DASH
 70
     0
  3
Center_Dash_Dash
 72
    65
 73
     6
 40
14.0
 49
9.0
 74
     0
 49
-1.0
 74
     0
 49
1.0
 74
     0
 49
-1.0
 74
     0
 49
1.0
 74
     0
 49
-1.0
 74
     0
  0
ENDTAB
  0
TABLE
  2
LAYER
  5
2
330
0
100
AcDbSymbolTable
 70
     2
  0
LAYER
  5
10
330
2
100
AcDbSymbolTableRecord
100
AcDbLayerTableRecord
  2
0
 70
     0
 62
     7
  6
Continuous
370
    -3
390
F
  0
LAYER
  5
46
330
2
100
AcDbSymbolTableRecord
100
AcDbLayerTableRecord
  2
1
 70
     0
 62
     7
  6
Continuous
370
    -3
390
F
  0
ENDTAB
  0
TABLE
  2
STYLE
  5
3
330
0
100
AcDbSymbolTable
 70
     5
  0
STYLE
  5
11
330
3
100
AcDbSymbolTableRecord
100
AcDbTextStyleTableRecord
  2
Standard
 70
     0
 40
0.0
 41
1.0
 50
0.0
 71
     0
 42
0.2
  3
txt
  4

  0
STYLE
  5
A5
330
3
100
AcDbSymbolTableRecord
100
AcDbTextStyleTableRecord
  2
CONVERTER_11
 70
     0
 40
0.0
 41
0.9
 50
0.0
 71
     0
 42
0.2
  3
txt.shx
  4

  0
STYLE
  5
1FC
330
3
100
AcDbSymbolTableRecord
100
AcDbTextStyleTableRecord
  2
CONVERTER_12
 70
     0
 40
0.0
 41
0.81
 50
0.0
 71
     0
 42
0.2
  3
txt.shx
  4

  0
STYLE
  5
202
330
3
100
AcDbSymbolTableRecord
100
AcDbTextStyleTableRecord
  2
CONVERTER_13
 70
     0
 40
0.0
 41
0.855
 50
0.0
 71
     0
 42
0.2
  3
txt.shx
  4

  0
STYLE
  5
205
330
3
100
AcDbSymbolTableRecord
100
AcDbTextStyleTableRecord
  2
CONVERTER_14
 70
     0
 40
0.0
 41
0.72
 50
0.0
 71
     0
 42
0.2
  3
txt.shx
  4

  0
ENDTAB
  0
TABLE
  2
VIEW
  5
6
330
0
100
AcDbSymbolTable
 70
     0
  0
ENDTAB
  0
TABLE
  2
UCS
  5
7
330
0
100
AcDbSymbolTable
 70
     0
  0
ENDTAB
  0
TABLE
  2
APPID
  5
9
330
0
100
AcDbSymbolTable
 70
     1
  0
APPID
  5
12
330
9
100
AcDbSymbolTableRecord
100
AcDbRegAppTableRecord
  2
ACAD
 70
     0
  0
ENDTAB
  0
TABLE
  2
DIMSTYLE
  5
A
330
0
100
AcDbSymbolTable
 70
     4
100
AcDbDimStyleTable
  0
DIMSTYLE
105
27
330
A
100
AcDbSymbolTableRecord
100
AcDbDimStyleTableRecord
  2
Standard
 70
     0
178
     0
340
11
  0
DIMSTYLE
105
B5
102
{ACAD_REACTORS
330
B6
102
}
330
A
100
AcDbSymbolTableRecord
100
AcDbDimStyleTableRecord
  2
ME10_DIM_10
 70
     0
 41
0.7
 42
0.0
 44
0.3
 73
     0
 74
     0
 77
     1
 78
     8
140
0.7
147
0.3
172
     1
173
     1
174
     1
175
     1
176
     2
177
     2
178
     3
340
A5
  0
DIMSTYLE
105
F8
102
{ACAD_REACTORS
330
F9
102
}
330
A
100
AcDbSymbolTableRecord
100
AcDbDimStyleTableRecord
  2
ME10_DIM_11
 70
     0
 41
0.7
 42
0.0
 44
0.3
 73
     0
 74
     0
 77
     1
 78
     8
140
0.7
147
0.3
172
     1
173
     1
174
     1
175
     1
176
     2
177
     2
178
     3
340
A5
  0
DIMSTYLE
105
103
102
{ACAD_REACTORS
330
104
102
}
330
A
100
AcDbSymbolTableRecord
100
AcDbDimStyleTableRecord
  2
ME10_DIM_12
 70
     0
 41
0.7
 42
0.0
 44
0.3
 73
     0
 74
     0
 77
     1
 78
     8
140
0.7
147
0.3
172
     1
173
     1
174
     1
175
     1
176
     2
177
     2
178
     3
340
A5
  0
ENDTAB
  0
TABLE
  2
BLOCK_RECORD
  5
1
330
0
100
AcDbSymbolTable
 70
    20
  0
BLOCK_RECORD
  5
1F
330
1
100
AcDbSymbolTableRecord
100
AcDbBlockTableRecord
  2
*Model_Space
340
22
  0
BLOCK_RECORD
  5
1B
330
1
100
AcDbSymbolTableRecord
100
AcDbBlockTableRecord
  2
*Paper_Space
340
1E
  0
BLOCK_RECORD
  5
23
330
1
100
AcDbSymbolTableRecord
100
AcDbBlockTableRecord
  2
*Paper_Space0
340
26
  0
BLOCK_RECORD
  5
47
330
1
100
AcDbSymbolTableRecord
100
AcDbBlockTableRecord
  2
ZB_14_UNBEDRUCKT-SELECT__1
340
0
102
{BLKREFS
331
4B
102
}
  0
BLOCK_RECORD
  5
4A
330
1
100
AcDbSymbolTableRecord
100
AcDbBlockTableRecord
  2
Allg1
340
0
102
{BLKREFS
331
7D
102
}
  0
BLOCK_RECORD
  5
4E
330
1
100
AcDbSymbolTableRecord
100
AcDbBlockTableRecord
  2
ZB_14_UNBEDRUCKT-SELECT__2
340
0
102
{BLKREFS
331
52
102
}
  0
BLOCK_RECORD
  5
51
330
1
100
AcDbSymbolTableRecord
100
AcDbBlockTableRecord
  2
Drfsicht1
340
0
102
{BLKREFS
331
7E
102
}
  0
BLOCK_RECORD
  5
55
330
1
100
AcDbSymbolTableRecord
100
AcDbBlockTableRecord
  2
ZB_14_UNBEDRUCKT-SELECT__3
340
0
102
{BLKREFS
331
59
102
}
  0
BLOCK_RECORD
  5
58
330
1
100
AcDbSymbolTableRecord
100
AcDbBlockTableRecord
  2
Rckans1
340
0
102
{BLKREFS
331
7F
102
}
  0
BLOCK_RECORD
  5
5C
330
1
100
AcDbSymbolTableRecord
100
AcDbBlockTableRecord
  2
ZB_14_UNBEDRUCKT-SELECT__4
340
0
102
{BLKREFS
331
60
102
}
  0
BLOCK_RECORD
  5
5F
330
1
100
AcDbSymbolTableRecord
100
AcDbBlockTableRecord
  2
SA_Links1
340
0
102
{BLKREFS
331
80
102
}
  0
BLOCK_RECORD
  5
63
330
1
100
AcDbSymbolTableRecord
100
AcDbBlockTableRecord
  2
ZB_14_UNBEDRUCKT-SELECT__5
340
0
102
{BLKREFS
331
67
102
}
  0
BLOCK_RECORD
  5
66
330
1
100
AcDbSymbolTableRecord
100
AcDbBlockTableRecord
  2
SA_Rechts1
340
0
102
{BLKREFS
331
81
102
}
  0
BLOCK_RECORD
  5
6A
330
1
100
AcDbSymbolTableRecord
100
AcDbBlockTableRecord
  2
ZB_14_UNBEDRUCKT-SELECT__6
340
0
102
{BLKREFS
331
6E
102
}
  0
BLOCK_RECORD
  5
6D
330
1
100
AcDbSymbolTableRecord
100
AcDbBlockTableRecord
  2
Vordans1
340
0
102
{BLKREFS
331
82
102
}
  0
BLOCK_RECORD
  5
71
330
1
100
AcDbSymbolTableRecord
100
AcDbBlockTableRecord
  2
_rahmen
340
0
102
{BLKREFS
331
78
102
}
  0
BLOCK_RECORD
  5
74
330
1
100
AcDbSymbolTableRecord
100
AcDbBlockTableRecord
  2
_punkt
340
0
102
{BLKREFS
331
79
102
}
  0
BLOCK_RECORD
  5
77
330
1
100
AcDbSymbolTableRecord
100
AcDbBlockTableRecord
  2
A4I_CS
340
0
102
{BLKREFS
331
83
102
}
  0
BLOCK_RECORD
  5
7C
330
1
100
AcDbSymbolTableRecord
100
AcDbBlockTableRecord
  2
1
340
0
102
{BLKREFS
331
86
102
}
  0
BLOCK_RECORD
  5
AC
330
1
100
AcDbSymbolTableRecord
100
AcDbBlockTableRecord
  2
*D17
340
0
  0
BLOCK_RECORD
  5
EF
330
1
100
AcDbSymbolTableRecord
100
AcDbBlockTableRecord
  2
*D18
340
0
  0
BLOCK_RECORD
  5
FA
330
1
100
AcDbSymbolTableRecord
100
AcDbBlockTableRecord
  2
*D19
340
0
  0
ENDTAB
  0
ENDSEC
  0
SECTION
  2
BLOCKS
  0
BLOCK
  5
20
330
1F
100
AcDbEntity
  8
0
100
AcDbBlockBegin
  2
*Model_Space
 70
     0
 10
0.0
 20
0.0
 30
0.0
  3
*Model_Space
  1

  0
ENDBLK
  5
21
330
1F
100
AcDbEntity
  8
0
100
AcDbBlockEnd
  0
BLOCK
  5
1C
330
1B
100
AcDbEntity
 67
     1
  8
0
100
AcDbBlockBegin
  2
*Paper_Space
 70
     0
 10
0.0
 20
0.0
 30
0.0
  3
*Paper_Space
  1

  0
ENDBLK
  5
1D
330
1B
100
AcDbEntity
 67
     1
  8
0
100
AcDbBlockEnd
  0
BLOCK
  5
24
330
23
100
AcDbEntity
  8
0
100
AcDbBlockBegin
  2
*Paper_Space0
 70
     0
 10
0.0
 20
0.0
 30
0.0
  3
*Paper_Space0
  1

  0
ENDBLK
  5
25
330
23
100
AcDbEntity
  8
0
100
AcDbBlockEnd
  0
BLOCK
  5
48
330
47
100
AcDbEntity
  8
0
100
AcDbBlockBegin
  2
ZB_14_UNBEDRUCKT-SELECT__1
 70
     0
 10
-45.04662690438246
 20
-43.77827757986397
 30
0.0
  3
ZB_14_UNBEDRUCKT-SELECT__1
  1

  0
LINE
  5
87
330
47
100
AcDbEntity
  8
0
  6
Continuous
 62
     7
100
AcDbLine
 10
-38.82046290213723
 20
-40.84990226060535
 30
0.0
 11
-38.33315620623735
 21
-42.80922893458071
 31
0.0
  0
LINE
  5
88
330
47
100
AcDbEntity
  8
0
  6
Continuous
 62
     7
100
AcDbLine
 10
-39.94627883984119
 20
-40.52490719325969
 30
0.0
 11
-42.27127883984135
 21
-42.53841625705866
 31
0.0
  0
LINE
  5
89
330
47
100
AcDbEntity
  8
0
  6
Continuous
 62
     7
100
AcDbLine
 10
-38.72870822918713
 20
-43.56106830490087
 30
0.0
 11
-38.0534717688233
 21
-43.75599228097988
 31
0.0
  0
LINE
  5
8A
330
47
100
AcDbEntity
  8
0
  6
Continuous
 62
     7
100
AcDbLine
 10
-45.04662690438246
 20
-38.09993558508496
 30
0.0
 11
-45.04662690438246
 21
-39.05256352924783
 31
0.0
  0
LINE
  5
8B
330
47
100
AcDbEntity
  8
0
  6
Continuous
 62
     7
100
AcDbLine
 10
-45.04662690438246
 20
-39.05256352924783
 30
0.0
 11
-42.17952416689244
 21
-39.88022479788992
 31
0.0
  0
LINE
  5
8C
330
47
100
AcDbEntity
  8
0
  6
Continuous
 62
     7
100
AcDbLine
 10
-35.95336016464585
 20
-41.67756352924784
 30
0.0
 11
-35.95336016464585
 21
-40.72493558508496
 31
0.0
  0
LINE
  5
8D
330
47
100
AcDbEntity
  8
0
  6
Continuous
 62
     7
100
AcDbLine
 10
-38.82046290213723
 20
-40.84990226060535
 30
0.0
 11
-35.95336016464585
 21
-41.67756352924784
 31
0.0
  0
LINE
  5
8E
330
47
100
AcDbEntity
  8
0
  6
Continuous
 62
     7
100
AcDbLine
 10
-41.55192133637482
 20
-40.06139812946169
 30
0.0
 11
-39.44806573265503
 21
-40.66872892903354
 31
0.0
  0
LINE
  5
8F
330
47
100
AcDbEntity
  8
0
  6
Continuous
 62
     7
100
AcDbLine
 10
-35.95336016464585
 20
-40.72493558508496
 30
0.0
 11
-45.04662690438246
 21
-38.09993558508496
 31
0.0
  0
LINE
  5
90
330
47
100
AcDbEntity
  8
0
  6
Continuous
 62
     7
100
AcDbLine
 10
-38.33315620623735
 20
-42.80922893458071
 30
0.0
 11
-38.05347176882329
 21
-42.88996687719529
 31
0.0
  0
LINE
  5
91
330
47
100
AcDbEntity
  8
0
  6
Continuous
 62
     7
100
AcDbLine
 10
-42.9465153002052
 20
-42.34349228097976
 30
0.0
 11
-42.27127883984135
 21
-42.53841625705866
 31
0.0
  0
LINE
  5
92
330
47
100
AcDbEntity
  8
0
  6
Continuous
 62
     7
100
AcDbLine
 10
-39.44806573265503
 20
-40.66872892903354
 30
0.0
 11
-38.72870822918713
 21
-43.56106830490087
 31
0.0
  0
LINE
  5
93
330
47
100
AcDbEntity
  8
0
  6
Continuous
 62
     7
100
AcDbLine
 10
-38.33315620623735
 20
-42.80922893458071
 30
0.0
 11
-36.75815620623721
 21
-41.4452389236201
 31
0.0
  0
LINE
  5
94
330
47
100
AcDbEntity
  8
0
  6
Continuous
 62
     2
100
AcDbLine
 10
-36.47847176882314
 20
-41.52597686623467
 30
0.0
 11
-38.05347176882329
 21
-42.88996687719529
 31
0.0
  0
LINE
  5
95
330
47
100
AcDbEntity
  8
0
  6
Continuous
 62
     7
100
AcDbLine
 10
-42.17952416689244
 20
-39.88022479788992
 30
0.0
 11
-42.66683086279177
 21
-41.55820481980973
 31
0.0
  0
LINE
  5
96
330
47
100
AcDbEntity
  8
0
  6
Continuous
 62
     7
100
AcDbLine
 10
-42.94651530020521
 20
-41.47746687719533
 30
0.0
 11
-42.66683086279177
 21
-41.55820481980973
 31
0.0
  0
LINE
  5
97
330
47
100
AcDbEntity
  8
0
  6
Continuous
 62
     2
100
AcDbLine
 10
-42.54152706752468
 20
-41.12673677946024
 30
0.0
 11
-42.94651530020521
 21
-41.47746687719533
 31
0.0
  0
LINE
  5
98
330
47
100
AcDbEntity
  8
0
  6
Continuous
 62
     7
100
AcDbLine
 10
-42.45289917375033
 20
-40.82155764609382
 30
0.0
 11
-43.2738421355592
 21
-41.53251510607833
 31
0.0
  0
LINE
  5
99
330
47
100
AcDbEntity
  8
0
  6
Continuous
 62
     7
100
AcDbLine
 10
-42.27127883984135
 20
-42.53841625705866
 30
0.0
 11
-41.55192133637482
 21
-40.06139812946169
 31
0.0
  0
LINE
  5
9A
330
47
100
AcDbEntity
  8
0
  6
Continuous
 62
     7
100
AcDbLine
 10
-28.95336016464584
 20
-35.61538570275677
 30
0.0
 11
-35.95336016464585
 21
-41.67756352924784
 31
0.0
  0
LINE
  5
9B
330
47
100
AcDbEntity
  8
0
  6
Continuous
 62
     7
100
AcDbLine
 10
-30.7261449334693
 20
-37.63876622560566
 30
0.0
 11
-37.72614493346931
 21
-43.70094405209673
 31
0.0
  0
LINE
  5
9C
330
47
100
AcDbEntity
  8
0
  6
Continuous
 62
     7
100
AcDbLine
 10
-28.95336016464584
 20
-35.61538570275677
 30
0.0
 11
-28.95336016464584
 21
-34.66275775859389
 31
0.0
  0
LINE
  5
9D
330
47
100
AcDbEntity
  8
0
  6
Continuous
 62
     7
100
AcDbLine
 10
-28.95336016464584
 20
-34.66275775859389
 30
0.0
 11
-38.04662690438245
 21
-32.03775775859389
 31
0.0
  0
LINE
  5
9E
330
47
100
AcDbEntity
  8
0
  6
Continuous
 62
     7
100
AcDbLine
 10
-38.04662690438245
 20
-32.03775775859389
 30
0.0
 11
-45.04662690438246
 21
-38.09993558508496
 31
0.0
  0
LINE
  5
9F
330
47
100
AcDbEntity
  8
0
  6
Continuous
 62
     7
100
AcDbLine
 10
-35.95336016464585
 20
-40.72493558508496
 30
0.0
 11
-28.95336016464584
 21
-34.66275775859389
 31
0.0
  0
SPLINE
  5
A0
330
47
100
AcDbEntity
  8
0
  6
Continuous
 62
     7
100
AcDbSpline
210
0.0
220
0.0
230
1.0
 70
     8
 71
     3
 72
    11
 73
     7
 74
     5
 42
0.000000001
 43
0.0000000001
 44
0.00000001
 40
0.0
 40
0.0
 40
0.0
 40
0.0
 40
0.0935705952109615
 40
0.1815181363976752
 40
0.2647690944697078
 40
0.3453217744507384
 40
0.3453217744507384
 40
0.3453217744507384
 40
0.3453217744507384
 10
-38.0534717688233
 20
-43.75599228097988
 30
0.0
 10
-38.02294146156692
 20
-43.7630326812964
 30
0.0
 10
-37.96371554041936
 20
-43.7766903800165
 30
0.0
 10
-37.87468326481287
 20
-43.77221689094201
 30
0.0
 10
-37.79244602929612
 20
-43.7492522764787
 30
0.0
 10
-37.74800125529221
 20
-43.71686898490965
 30
0.0
 10
-37.72614493346931
 20
-43.70094405209673
 30
0.0
 11
-38.0534717688233
 21
-43.75599228097988
 31
0.0
 11
-37.96139932768121
 21
-43.77266926926057
 31
0.0
 11
-37.87353784102991
 21
-43.76877959506537
 31
0.0
 11
-37.79390573071503
 21
-43.74450101396837
 31
0.0
 11
-37.72614493346931
 21
-43.70094405209673
 31
0.0
  0
SPLINE
  5
A1
330
47
100
AcDbEntity
  8
0
  6
Continuous
 62
     7
100
AcDbSpline
210
0.0
220
0.0
230
1.0
 70
     8
 71
     3
 72
    15
 73
    11
 74
     9
 42
0.000000001
 43
0.0000000001
 44
0.00000001
 40
0.0
 40
0.0
 40
0.0
 40
0.0
 40
0.1075605161160413
 40
0.2212191566792041
 40
0.3444594698633719
 40
0.4773441629485362
 40
0.6171468747723426
 40
0.7594447323084879
 40
0.8992538434254111
 40
1.032150054401065
 40
1.032150054401065
 40
1.032150054401065
 40
1.032150054401065
 10
-37.72614493346931
 20
-43.70094405209673
 30
0.0
 10
-37.70161538452537
 20
-43.67422244032689
 30
0.0
 10
-37.65116559918219
 20
-43.61926423148537
 30
0.0
 10
-37.61865237696213
 20
-43.50538177555166
 30
0.0
 10
-37.61966936962574
 20
-43.38107481306983
 30
0.0
 10
-37.65570696059169
 20
-43.25258478109756
 30
0.0
 10
-37.72255351144391
 20
-43.13016711285355
 30
0.0
 10
-37.81548482144705
 20
-43.02361136266779
 30
0.0
 10
-37.92631836858338
 20
-42.93776544986613
 30
0.0
 10
-38.01180968299087
 20
-42.90562817747194
 30
0.0
 10
-38.05347176882329
 20
-42.88996687719529
 30
0.0
 11
-37.72614493346931
 21
-43.70094405209673
 31
0.0
 11
-37.65954663044743
 21
-43.61648144618668
 31
0.0
 11
-37.62485385941652
 21
-43.50824698035226
 31
0.0
 11
-37.62487726191978
 21
-43.38500666639209
 31
0.0
 11
-37.65961420366934
 21
-43.25674253692611
 31
0.0
 11
-37.72625188330116
 21
-43.13384331779077
 31
0.0
 11
-37.8193923765605
 21
-43.02626298147745
 31
0.0
 11
-37.93149227544481
 21
-42.94271539010325
 31
0.0
 11
-38.05347176882329
 21
-42.88996687719529
 31
0.0
  0
SPLINE
  5
A2
330
47
100
AcDbEntity
  8
0
  6
Continuous
 62
     7
100
AcDbSpline
210
0.0
220
0.0
230
1.0
 70
     8
 71
     3
 72
    15
 73
    11
 74
     9
 42
0.000000001
 43
0.0000000001
 44
0.00000001
 40
0.0
 40
0.0
 40
0.0
 40
0.0
 40
0.107560516116017
 40
0.2212191566791395
 40
0.3444594698632504
 40
0.4773441629483611
 40
0.6171468747721296
 40
0.759444732308224
 40
0.899253843425099
 40
1.032150054400754
 40
1.032150054400754
 40
1.032150054400754
 40
1.032150054400754
 10
-43.2738421355592
 20
-41.53251510607833
 30
0.0
 10
-43.2983716845031
 20
-41.55923671784821
 30
0.0
 10
-43.34882146984611
 20
-41.6141949266898
 30
0.0
 10
-43.38133469206618
 20
-41.72807738262342
 30
0.0
 10
-43.3803176994026
 20
-41.85238434510525
 30
0.0
 10
-43.34428010843666
 20
-41.98087437707746
 30
0.0
 10
-43.27743355758442
 20
-42.1032920453214
 30
0.0
 10
-43.18450224758134
 20
-42.20984779550716
 30
0.0
 10
-43.07366870044501
 20
-42.29569370830874
 30
0.0
 10
-42.98817738603761
 20
-42.32783098070307
 30
0.0
 10
-42.9465153002052
 20
-42.34349228097976
 30
0.0
 11
-43.2738421355592
 21
-41.53251510607833
 31
0.0
 11
-43.34044043858092
 21
-41.61697771198848
 31
0.0
 11
-43.37513320961181
 21
-41.72521217782285
 31
0.0
 11
-43.37510980710854
 21
-41.84845249178297
 31
0.0
 11
-43.340372865359
 21
-41.9767166212489
 31
0.0
 11
-43.2737351857272
 21
-42.0996158403842
 31
0.0
 11
-43.18059469246788
 21
-42.20719617669748
 31
0.0
 11
-43.06849479358362
 21
-42.29074376807167
 31
0.0
 11
-42.9465153002052
 21
-42.34349228097976
 31
0.0
  0
SPLINE
  5
A3
330
47
100
AcDbEntity
  8
0
  6
Continuous
 62
     7
100
AcDbSpline
210
0.0
220
0.0
230
1.0
 70
     8
 71
     3
 72
    11
 73
     7
 74
     5
 42
0.000000001
 43
0.0000000001
 44
0.00000001
 40
0.0
 40
0.0
 40
0.0
 40
0.0
 40
0.0935705952109138
 40
0.1815181363975992
 40
0.2647690944696098
 40
0.3453217744506468
 40
0.3453217744506468
 40
0.3453217744506468
 40
0.3453217744506468
 10
-42.94651530020521
 20
-41.47746687719533
 30
0.0
 10
-42.97704560746158
 20
-41.47042647687881
 30
0.0
 10
-43.03627152860909
 20
-41.45676877815869
 30
0.0
 10
-43.12530380421559
 20
-41.4612422672332
 30
0.0
 10
-43.20754103973228
 20
-41.48420688169651
 30
0.0
 10
-43.25198581373627
 20
-41.51659017326545
 30
0.0
 10
-43.2738421355592
 20
-41.53251510607833
 30
0.0
 11
-42.94651530020521
 21
-41.47746687719533
 31
0.0
 11
-43.03858774134726
 21
-41.46078988891464
 31
0.0
 11
-43.12644922799852
 21
-41.46467956310984
 31
0.0
 11
-43.20608133831339
 21
-41.4889581442068
 31
0.0
 11
-43.2738421355592
 21
-41.53251510607833
 31
0.0
  0
SPLINE
  5
A4
330
47
100
AcDbEntity
  8
0
  6
Continuous
 62
     7
100
AcDbSpline
210
0.0
220
0.0
230
1.0
 70
     8
 71
     3
 72
    11
 73
     7
 74
     5
 42
0.000000001
 43
0.0000000001
 44
0.00000001
 40
0.0
 40
0.0
 40
0.0
 40
0.0
 40
0.1231062047300435
 40
0.255033152472452
 40
0.3998739696127808
 40
0.5561029043246137
 40
0.5561029043246137
 40
0.5561029043246137
 40
0.5561029043246137
 10
-30.7261449334693
 20
-37.63876622560566
 30
0.0
 10
-30.69851001437809
 20
-37.6075692274837
 30
0.0
 10
-30.64126010482519
 20
-37.54293991139706
 30
0.0
 10
-30.61403548184634
 20
-37.40740131018786
 30
0.0
 10
-30.62825899887834
 20
-37.26164580205855
 30
0.0
 10
-30.67162423423866
 20
-37.17032272449707
 30
0.0
 10
-30.69412701498528
 20
-37.12293401721653
 30
0.0
 11
-30.7261449334693
 21
-37.63876622560566
 31
0.0
 11
-30.65253395778348
 21
-37.54009220333209
 31
0.0
 11
-30.62126186275641
 21
-37.4119252154732
 31
0.0
 11
-30.63563261061892
 21
-37.26779907356394
 31
0.0
 11
-30.69412701498528
 21
-37.12293401721653
 31
0.0
  0
ENDBLK
  5
49
330
47
100
AcDbEntity
  8
0
100
AcDbBlockEnd
  0
BLOCK
  5
4C
330
4A
100
AcDbEntity
  8
0
100
AcDbBlockBegin
  2
Allg1
 70
     0
 10
-36.99999842218894
 20
-38.20000045547798
 30
0.0
  3
Allg1
  1

  0
INSERT
  5
4B
330
4A
100
AcDbEntity
  8
0
100
AcDbBlockReference
  2
ZB_14_UNBEDRUCKT-SELECT__1
 10
-45.04662690438246
 20
-43.77827757986397
 30
0.0
  0
MTEXT
  5
A6
330
4A
100
AcDbEntity
  8
1
 62
     6
100
AcDbMText
 10
-36.99999842218901
 20
-45.36224093974548
 30
0.0
 40
1.0
 41
0.0
 71
     2
 72
     1
  1
 
  7
CONVERTER_11
 73
     1
 44
1.32052821128451
  0
ENDBLK
  5
4D
330
4A
100
AcDbEntity
  8
0
100
AcDbBlockEnd
  0
BLOCK
  5
4F
330
4E
100
AcDbEntity
  8
0
100
AcDbBlockBegin
  2
ZB_14_UNBEDRUCKT-SELECT__2
 70
     0
 10
-63.44999253429444
 20
-45.20000000001002
 30
0.0
  3
ZB_14_UNBEDRUCKT-SELECT__2
  1

  0
LINE
  5
A7
330
4E
100
AcDbEntity
  8
0
  6
Continuous
 62
     7
100
AcDbLine
 10
-63.44999253429444
 20
-31.20000000001003
 30
0.0
 11
-63.44999253429444
 21
-45.20000000001002
 31
0.0
  0
LINE
  5
A8
330
4E
100
AcDbEntity
  8
0
  6
Continuous
 62
     7
100
AcDbLine
 10
-52.94999253429444
 20
-45.20000000001002
 30
0.0
 11
-52.94999253429444
 21
-31.20000000001003
 31
0.0
  0
LINE
  5
A9
330
4E
100
AcDbEntity
  8
0
  6
Continuous
 62
     7
100
AcDbLine
 10
-52.94999253429444
 20
-45.20000000001002
 30
0.0
 11
-63.44999253429444
 21
-45.20000000001002
 31
0.0
  0
LINE
  5
AA
330
4E
100
AcDbEntity
  8
0
  6
Continuous
 62
     7
100
AcDbLine
 10
-52.94999253429444
 20
-31.20000000001003
 30
0.0
 11
-63.44999253429444
 21
-31.20000000001003
 31
0.0
  0
ENDBLK
  5
50
330
4E
100
AcDbEntity
  8
0
100
AcDbBlockEnd
  0
BLOCK
  5
53
330
51
100
AcDbEntity
  8
0
100
AcDbBlockBegin
  2
Drfsicht1
 70
     0
 10
-58.19999817809801
 20
-38.20000000000502
 30
0.0
  3
Drfsicht1
  1

  0
INSERT
  5
52
330
51
100
AcDbEntity
  8
0
100
AcDbBlockReference
  2
ZB_14_UNBEDRUCKT-SELECT__2
 10
-63.44999253429444
 20
-45.20000000001002
 30
0.0
  0
MTEXT
  5
AB
330
51
100
AcDbEntity
  8
1
 62
     6
100
AcDbMText
 10
-58.19999817809799
 20
-46.20000000000499
 30
0.0
 40
1.0
 41
0.0
 71
     2
 72
     1
  1
 
  7
CONVERTER_11
 73
     1
 44
1.32052821128451
  0
DIMENSION
  5
B6
330
51
100
AcDbEntity
  8
1
100
AcDbDimension
  2
*D17
 10
-65.44999253429444
 20
-31.20000000001003
 30
0.0
 11
-66.09999253429444
 21
-38.14480790988085
 31
0.0
 70
    32
  1
<>
 71
     5
 42
-1.0
 53
90.0
  3
ME10_DIM_10
100
AcDbAlignedDimension
 13
-63.44999253429444
 23
-45.20000000001002
 33
0.0
 14
-63.44999253429444
 24
-31.20000000001003
 34
0.0
 50
90.0
100
AcDbRotatedDimension
  0
ENDBLK
  5
54
330
51
100
AcDbEntity
  8
0
100
AcDbBlockEnd
  0
BLOCK
  5
56
330
55
100
AcDbEntity
  8
0
100
AcDbBlockBegin
  2
ZB_14_UNBEDRUCKT-SELECT__3
 70
     0
 10
-35.95000710950919
 20
-23.19999939355797
 30
0.0
  3
ZB_14_UNBEDRUCKT-SELECT__3
  1

  0
LINE
  5
B7
330
55
100
AcDbEntity
  8
0
  6
Continuous
 62
     7
100
AcDbLine
 10
-25.45000710950919
 20
-20.09999939355774
 30
0.0
 11
-28.76065218407754
 21
-20.09999939355774
 31
0.0
  0
LINE
  5
B8
330
55
100
AcDbEntity
  8
0
  6
Continuous
 62
     7
100
AcDbLine
 10
-29.48534551036457
 20
-20.09999939355777
 30
0.0
 11
-31.91466870865202
 21
-20.09999939355774
 31
0.0
  0
LINE
  5
B9
330
55
100
AcDbEntity
  8
0
  6
Continuous
 62
     7
100
AcDbLine
 10
-32.63936203493927
 20
-20.09999939355774
 30
0.0
 11
-35.95000710950919
 21
-20.09999939355774
 31
0.0
  0
LINE
  5
BA
330
55
100
AcDbEntity
  8
0
  6
Continuous
 62
     7
100
AcDbLine
 10
-35.95000710950919
 20
-20.09999939355774
 30
0.0
 11
-35.95000710950919
 21
-18.99999939355774
 31
0.0
  0
LINE
  5
BB
330
55
100
AcDbEntity
  8
0
  6
Continuous
 62
     7
100
AcDbLine
 10
-35.95000710950919
 20
-18.99999939355774
 30
0.0
 11
-25.45000710950919
 21
-18.99999939355774
 31
0.0
  0
LINE
  5
BC
330
55
100
AcDbEntity
  8
0
  6
Continuous
 62
     7
100
AcDbLine
 10
-25.45000710950919
 20
-18.99999939355774
 30
0.0
 11
-25.45000710950919
 21
-20.09999939355774
 31
0.0
  0
LINE
  5
BD
330
55
100
AcDbEntity
  8
0
  6
Continuous
 62
     7
100
AcDbLine
 10
-28.76065218407754
 20
-20.09999939355774
 30
0.0
 11
-28.19795887996679
 21
-22.19999939355795
 31
0.0
  0
LINE
  5
BE
330
55
100
AcDbEntity
  8
0
  6
Continuous
 62
     7
100
AcDbLine
 10
-28.65470301382462
 20
-23.19999939355797
 30
0.0
 11
-29.48534551036457
 21
-20.09999939355777
 31
0.0
  0
LINE
  5
BF
330
55
100
AcDbEntity
  8
0
  6
Continuous
 62
     7
100
AcDbLine
 10
-32.74531120519356
 20
-23.19999939355795
 30
0.0
 11
-33.52500710950898
 21
-23.19999939355795
 31
0.0
  0
LINE
  5
C0
330
55
100
AcDbEntity
  8
0
  6
Continuous
 62
     7
100
AcDbLine
 10
-32.63936203493927
 20
-20.09999939355774
 30
0.0
 11
-33.20205533905065
 21
-22.19999939355795
 31
0.0
  0
LINE
  5
C1
330
55
100
AcDbEntity
  8
0
  6
Continuous
 62
     7
100
AcDbLine
 10
-27.87500710950917
 20
-22.19999939355795
 30
0.0
 11
-28.19795887996679
 21
-22.19999939355795
 31
0.0
  0
LINE
  5
C2
330
55
100
AcDbEntity
  8
0
  6
Continuous
 62
     7
100
AcDbLine
 10
-33.20205533905065
 20
-22.19999939355795
 30
0.0
 11
-33.52500710950898
 21
-22.19999939355795
 31
0.0
  0
LINE
  5
C3
330
55
100
AcDbEntity
  8
0
  6
Continuous
 62
     7
100
AcDbLine
 10
-27.87500710950917
 20
-23.19999939355795
 30
0.0
 11
-28.65470301382462
 21
-23.19999939355797
 31
0.0
  0
LINE
  5
C4
330
55
100
AcDbEntity
  8
0
  6
Continuous
 62
     7
100
AcDbLine
 10
-31.91466870865202
 20
-20.09999939355774
 30
0.0
 11
-32.74531120519356
 21
-23.19999939355795
 31
0.0
  0
ARC
  5
C5
330
55
100
AcDbEntity
  8
0
  6
Continuous
 62
     7
100
AcDbCircle
 10
-33.52500710950898
 20
-22.69999939355795
 30
0.0
 40
0.5
100
AcDbArc
 50
90.0
 51
270.0
  0
ARC
  5
C6
330
55
100
AcDbEntity
  8
0
  6
Continuous
 62
     7
100
AcDbCircle
 10
-27.87500710950917
 20
-22.69999939355795
 30
0.0
 40
0.5
100
AcDbArc
 50
270.0
 51
90.0
  0
ENDBLK
  5
57
330
55
100
AcDbEntity
  8
0
100
AcDbBlockEnd
  0
BLOCK
  5
5A
330
58
100
AcDbEntity
  8
0
100
AcDbBlockBegin
  2
Rckans1
 70
     0
 10
-30.70000146570561
 20
-21.1000015258789
 30
0.0
  3
Rckans1
  1

  0
INSERT
  5
59
330
58
100
AcDbEntity
  8
0
100
AcDbBlockReference
  2
ZB_14_UNBEDRUCKT-SELECT__3
 10
-35.95000710950919
 20
-23.19999939355797
 30
0.0
  0
MTEXT
  5
C7
330
58
100
AcDbEntity
  8
1
 62
     6
100
AcDbMText
 10
-30.70000146570561
 20
-24.19999999999999
 30
0.0
 40
1.0
 41
0.0
 71
     2
 72
     1
  1
 
  7
CONVERTER_11
 73
     1
 44
1.32052821128451
  0
ENDBLK
  5
5B
330
58
100
AcDbEntity
  8
0
100
AcDbBlockEnd
  0
BLOCK
  5
5D
330
5C
100
AcDbEntity
  8
0
100
AcDbBlockBegin
  2
ZB_14_UNBEDRUCKT-SELECT__4
 70
     0
 10
-51.3499998218917
 20
-23.19999939355795
 30
0.0
  3
ZB_14_UNBEDRUCKT-SELECT__4
  1

  0
LINE
  5
C8
330
5C
100
AcDbEntity
  8
0
  6
Continuous
 62
     7
100
AcDbLine
 10
-51.3499998218917
 20
-22.19999939355795
 30
0.0
 11
-37.3499998218917
 21
-22.19999939355795
 31
0.0
  0
LINE
  5
C9
330
5C
100
AcDbEntity
  8
0
  6
Continuous
 62
     7
100
AcDbLine
 10
-51.3499998218917
 20
-18.99999939355775
 30
0.0
 11
-37.3499998218917
 21
-18.99999939355775
 31
0.0
  0
LINE
  5
CA
330
5C
100
AcDbEntity
  8
0
  6
Continuous
 62
     7
100
AcDbLine
 10
-37.3499998218917
 20
-18.99999939355775
 30
0.0
 11
-37.3499998218917
 21
-20.09999939355775
 31
0.0
  0
LINE
  5
CB
330
5C
100
AcDbEntity
  8
0
  6
Continuous
 62
     7
100
AcDbLine
 10
-37.3499998218917
 20
-20.09999939355775
 30
0.0
 11
-51.3499998218917
 21
-20.09999939355775
 31
0.0
  0
LINE
  5
CC
330
5C
100
AcDbEntity
  8
0
  6
Continuous
 62
     7
100
AcDbLine
 10
-51.3499998218917
 20
-18.99999939355775
 30
0.0
 11
-51.3499998218917
 21
-20.09999939355775
 31
0.0
  0
LINE
  5
CD
330
5C
100
AcDbEntity
  8
0
  6
Continuous
 62
     7
100
AcDbLine
 10
-37.3499998218917
 20
-22.19999939355795
 30
0.0
 11
-37.3499998218917
 21
-23.19999939355795
 31
0.0
  0
LINE
  5
CE
330
5C
100
AcDbEntity
  8
0
  6
Continuous
 62
     7
100
AcDbLine
 10
-37.3499998218917
 20
-20.09999939355775
 30
0.0
 11
-37.3499998218917
 21
-22.19999939355795
 31
0.0
  0
LINE
  5
CF
330
5C
100
AcDbEntity
  8
0
  6
Continuous
 62
     7
100
AcDbLine
 10
-51.3499998218917
 20
-22.19999939355795
 30
0.0
 11
-51.3499998218917
 21
-23.19999939355795
 31
0.0
  0
LINE
  5
D0
330
5C
100
AcDbEntity
  8
0
  6
Continuous
 62
     7
100
AcDbLine
 10
-51.3499998218917
 20
-20.09999939355775
 30
0.0
 11
-51.3499998218917
 21
-22.19999939355795
 31
0.0
  0
LINE
  5
D1
330
5C
100
AcDbEntity
  8
0
  6
Continuous
 62
     7
100
AcDbLine
 10
-37.3499998218917
 20
-23.19999939355795
 30
0.0
 11
-51.3499998218917
 21
-23.19999939355795
 31
0.0
  0
ENDBLK
  5
5E
330
5C
100
AcDbEntity
  8
0
100
AcDbBlockEnd
  0
BLOCK
  5
61
330
5F
100
AcDbEntity
  8
0
100
AcDbBlockBegin
  2
SA_Links1
 70
     0
 10
-44.34999982189671
 20
-21.1000015258789
 30
0.0
  3
SA_Links1
  1

  0
INSERT
  5
60
330
5F
100
AcDbEntity
  8
0
100
AcDbBlockReference
  2
ZB_14_UNBEDRUCKT-SELECT__4
 10
-51.3499998218917
 20
-23.19999939355795
 30
0.0
  0
MTEXT
  5
D2
330
5F
100
AcDbEntity
  8
1
 62
     6
100
AcDbMText
 10
-44.34999982189677
 20
-24.19999999999999
 30
0.0
 40
1.0
 41
0.0
 71
     2
 72
     1
  1
 
  7
CONVERTER_11
 73
     1
 44
1.32052821128451
  0
ENDBLK
  5
62
330
5F
100
AcDbEntity
  8
0
100
AcDbBlockEnd
  0
BLOCK
  5
64
330
63
100
AcDbEntity
  8
0
100
AcDbBlockBegin
  2
ZB_14_UNBEDRUCKT-SELECT__5
 70
     0
 10
-81.44999617810822
 20
-23.19999939355795
 30
0.0
  3
ZB_14_UNBEDRUCKT-SELECT__5
  1

  0
LINE
  5
D3
330
63
100
AcDbEntity
  8
0
  6
Continuous
 62
     7
100
AcDbLine
 10
-67.44999617810822
 20
-22.19999939355792
 30
0.0
 11
-81.44999617810822
 21
-22.19999939355792
 31
0.0
  0
LINE
  5
D4
330
63
100
AcDbEntity
  8
0
  6
Continuous
 62
     7
100
AcDbLine
 10
-67.44999617810822
 20
-23.19999939355795
 30
0.0
 11
-81.44999617810822
 21
-23.19999939355795
 31
0.0
  0
LINE
  5
D5
330
63
100
AcDbEntity
  8
0
  6
Continuous
 62
     7
100
AcDbLine
 10
-81.44999617810822
 20
-23.19999939355795
 30
0.0
 11
-81.44999617810822
 21
-22.19999939355792
 31
0.0
  0
LINE
  5
D6
330
63
100
AcDbEntity
  8
0
  6
Continuous
 62
     7
100
AcDbLine
 10
-67.44999617810822
 20
-23.19999939355795
 30
0.0
 11
-67.44999617810822
 21
-22.19999939355792
 31
0.0
  0
LINE
  5
D7
330
63
100
AcDbEntity
  8
0
  6
Continuous
 62
     7
100
AcDbLine
 10
-67.44999617810822
 20
-20.09999939355771
 30
0.0
 11
-81.44999617810822
 21
-20.09999939355771
 31
0.0
  0
LINE
  5
D8
330
63
100
AcDbEntity
  8
0
  6
Continuous
 62
     7
100
AcDbLine
 10
-81.44999617810822
 20
-20.09999939355771
 30
0.0
 11
-81.44999617810822
 21
-18.99999939355772
 31
0.0
  0
LINE
  5
D9
330
63
100
AcDbEntity
  8
0
  6
Continuous
 62
     7
100
AcDbLine
 10
-67.44999617810822
 20
-20.09999939355771
 30
0.0
 11
-67.44999617810822
 21
-22.19999939355792
 31
0.0
  0
LINE
  5
DA
330
63
100
AcDbEntity
  8
0
  6
Continuous
 62
     7
100
AcDbLine
 10
-67.44999617810822
 20
-20.09999939355771
 30
0.0
 11
-67.44999617810822
 21
-18.99999939355772
 31
0.0
  0
LINE
  5
DB
330
63
100
AcDbEntity
  8
0
  6
Continuous
 62
     7
100
AcDbLine
 10
-81.44999617810822
 20
-20.09999939355771
 30
0.0
 11
-81.44999617810822
 21
-22.19999939355792
 31
0.0
  0
LINE
  5
DC
330
63
100
AcDbEntity
  8
0
  6
Continuous
 62
     7
100
AcDbLine
 10
-81.44999617810822
 20
-18.99999939355772
 30
0.0
 11
-67.44999617810822
 21
-18.99999939355772
 31
0.0
  0
ENDBLK
  5
65
330
63
100
AcDbEntity
  8
0
100
AcDbBlockEnd
  0
BLOCK
  5
68
330
66
100
AcDbEntity
  8
0
100
AcDbBlockBegin
  2
SA_Rechts1
 70
     0
 10
-74.4499961781032
 20
-21.10000152587887
 30
0.0
  3
SA_Rechts1
  1

  0
INSERT
  5
67
330
66
100
AcDbEntity
  8
0
100
AcDbBlockReference
  2
ZB_14_UNBEDRUCKT-SELECT__5
 10
-81.44999617810822
 20
-23.19999939355795
 30
0.0
  0
MTEXT
  5
DD
330
66
100
AcDbEntity
  8
1
 62
     6
100
AcDbMText
 10
-74.44999617810322
 20
-24.19999999999996
 30
0.0
 40
1.0
 41
0.0
 71
     2
 72
     1
  1
 
  7
CONVERTER_11
 73
     1
 44
1.32052821128451
  0
ENDBLK
  5
69
330
66
100
AcDbEntity
  8
0
100
AcDbBlockEnd
  0
BLOCK
  5
6B
330
6A
100
AcDbEntity
  8
0
100
AcDbBlockBegin
  2
ZB_14_UNBEDRUCKT-SELECT__6
 70
     0
 10
-63.44999253429442
 20
-23.19999939355798
 30
0.0
  3
ZB_14_UNBEDRUCKT-SELECT__6
  1

  0
LINE
  5
DE
330
6A
100
AcDbEntity
  8
0
  6
Continuous
 62
     7
100
AcDbLine
 10
-60.24529662997899
 20
-23.19999939355798
 30
0.0
 11
-59.41465413343904
 21
-20.09999939355776
 31
0.0
  0
LINE
  5
DF
330
6A
100
AcDbEntity
  8
0
  6
Continuous
 62
     7
100
AcDbLine
 10
-61.02499253429444
 20
-23.19999939355795
 30
0.0
 11
-60.24529662997899
 21
-23.19999939355798
 31
0.0
  0
LINE
  5
E0
330
6A
100
AcDbEntity
  8
0
  6
Continuous
 62
     7
100
AcDbLine
 10
-55.69794430475292
 20
-22.19999939355795
 30
0.0
 11
-55.37499253429463
 21
-22.19999939355795
 31
0.0
  0
LINE
  5
E1
330
6A
100
AcDbEntity
  8
0
  6
Continuous
 62
     7
100
AcDbLine
 10
-56.15468843861005
 20
-23.19999939355795
 30
0.0
 11
-55.37499253429463
 21
-23.19999939355795
 31
0.0
  0
LINE
  5
E2
330
6A
100
AcDbEntity
  8
0
  6
Continuous
 62
     7
100
AcDbLine
 10
-52.94999253429442
 20
-18.99999939355775
 30
0.0
 11
-63.44999253429442
 21
-18.99999939355775
 31
0.0
  0
LINE
  5
E3
330
6A
100
AcDbEntity
  8
0
  6
Continuous
 62
     7
100
AcDbLine
 10
-52.94999253429442
 20
-20.09999939355775
 30
0.0
 11
-52.94999253429442
 21
-18.99999939355775
 31
0.0
  0
LINE
  5
E4
330
6A
100
AcDbEntity
  8
0
  6
Continuous
 62
     7
100
AcDbLine
 10
-56.26063760886434
 20
-20.09999939355775
 30
0.0
 11
-52.94999253429442
 21
-20.09999939355775
 31
0.0
  0
LINE
  5
E5
330
6A
100
AcDbEntity
  8
0
  6
Continuous
 62
     7
100
AcDbLine
 10
-56.26063760886434
 20
-20.09999939355775
 30
0.0
 11
-55.69794430475292
 21
-22.19999939355795
 31
0.0
  0
LINE
  5
E6
330
6A
100
AcDbEntity
  8
0
  6
Continuous
 62
     7
100
AcDbLine
 10
-63.44999253429442
 20
-18.99999939355775
 30
0.0
 11
-63.44999253429442
 21
-20.09999939355775
 31
0.0
  0
LINE
  5
E7
330
6A
100
AcDbEntity
  8
0
  6
Continuous
 62
     7
100
AcDbLine
 10
-61.02499253429444
 20
-22.19999939355795
 30
0.0
 11
-60.70204076383683
 21
-22.19999939355795
 31
0.0
  0
LINE
  5
E8
330
6A
100
AcDbEntity
  8
0
  6
Continuous
 62
     7
100
AcDbLine
 10
-63.44999253429442
 20
-20.09999939355775
 30
0.0
 11
-60.13934745972606
 21
-20.09999939355775
 31
0.0
  0
LINE
  5
E9
330
6A
100
AcDbEntity
  8
0
  6
Continuous
 62
     7
100
AcDbLine
 10
-60.13934745972606
 20
-20.09999939355775
 30
0.0
 11
-60.70204076383683
 21
-22.19999939355795
 31
0.0
  0
LINE
  5
EA
330
6A
100
AcDbEntity
  8
0
  6
Continuous
 62
     7
100
AcDbLine
 10
-59.41465413343904
 20
-20.09999939355776
 30
0.0
 11
-56.98533093515159
 21
-20.09999939355775
 31
0.0
  0
LINE
  5
EB
330
6A
100
AcDbEntity
  8
0
  6
Continuous
 62
     7
100
AcDbLine
 10
-56.98533093515159
 20
-20.09999939355775
 30
0.0
 11
-56.15468843861005
 21
-23.19999939355795
 31
0.0
  0
ARC
  5
EC
330
6A
100
AcDbEntity
  8
0
  6
Continuous
 62
     7
100
AcDbCircle
 10
-61.02499253429444
 20
-22.69999939355795
 30
0.0
 40
0.5
100
AcDbArc
 50
90.0
 51
270.0
  0
ARC
  5
ED
330
6A
100
AcDbEntity
  8
0
  6
Continuous
 62
     7
100
AcDbCircle
 10
-55.37499253429463
 20
-22.69999939355795
 30
0.0
 40
0.5
100
AcDbArc
 50
270.0
 51
90.0
  0
ENDBLK
  5
6C
330
6A
100
AcDbEntity
  8
0
100
AcDbBlockEnd
  0
BLOCK
  5
6F
330
6D
100
AcDbEntity
  8
0
100
AcDbBlockBegin
  2
Vordans1
 70
     0
 10
-58.199998178098
 20
-21.1000015258789
 30
0.0
  3
Vordans1
  1

  0
INSERT
  5
6E
330
6D
100
AcDbEntity
  8
0
100
AcDbBlockReference
  2
ZB_14_UNBEDRUCKT-SELECT__6
 10
-63.44999253429442
 20
-23.19999939355798
 30
0.0
  0
MTEXT
  5
EE
330
6D
100
AcDbEntity
  8
1
 62
     6
100
AcDbMText
 10
-58.19999817809799
 20
-24.19999999999996
 30
0.0
 40
1.0
 41
0.0
 71
     2
 72
     1
  1
 
  7
CONVERTER_11
 73
     1
 44
1.32052821128451
  0
DIMENSION
  5
F9
330
6D
100
AcDbEntity
  8
1
100
AcDbDimension
  2
*D18
 10
-63.44999253429442
 20
-25.67686533138645
 30
0.0
 11
-58.19999817809801
 21
-24.99186533138645
 31
0.0
 70
    33
  1
<>
 71
     5
 42
-1.0
 53
0.00013888888889
  3
ME10_DIM_11
100
AcDbAlignedDimension
 13
-52.94999253429442
 23
-20.09999939355775
 33
0.0
 14
-63.44999253429442
 24
-20.09999939355775
 34
0.0
  0
DIMENSION
  5
104
330
6D
100
AcDbEntity
  8
1
100
AcDbDimension
  2
*D19
 10
-65.44999253429441
 20
-18.99999939355774
 30
0.0
 11
-66.13499253429441
 21
-20.85898380990344
 31
0.0
 70
    32
  1
<>
 71
     5
 42
-1.0
 53
90.0
  3
ME10_DIM_12
100
AcDbAlignedDimension
 13
-61.02499253429444
 23
-23.19999939355795
 33
0.0
 14
-63.44999253429442
 24
-18.99999939355775
 34
0.0
 50
90.0
100
AcDbRotatedDimension
  0
ENDBLK
  5
70
330
6D
100
AcDbEntity
  8
0
100
AcDbBlockEnd
  0
BLOCK
  5
72
330
71
100
AcDbEntity
  8
0
100
AcDbBlockBegin
  2
_rahmen
 70
     0
 10
-123.4999999999899
 20
-267.0000000000051
 30
0.0
  3
_rahmen
  1

  0
LINE
  5
105
330
71
100
AcDbEntity
  8
1
  6
DOT_CENTER
 62
     2
100
AcDbLine
 10
-249.0581496401773
 20
-240.8750000000051
 30
0.0
 11
-243.5581496401773
 21
-240.8750000000051
 31
0.0
  0
LINE
  5
106
330
71
100
AcDbEntity
  8
1
  6
PHANTOM
 62
     2
100
AcDbLine
 10
-240.3081496401773
 20
-238.1250000000051
 30
0.0
 11
-240.3081496401773
 21
-243.6250000000051
 31
0.0
  0
LINE
  5
107
330
71
100
AcDbEntity
  8
1
  6
PHANTOM
 62
     2
100
AcDbLine
 10
-237.5581496401773
 20
-240.8750000000051
 30
0.0
 11
-243.0581496401773
 21
-240.8750000000051
 31
0.0
  0
LINE
  5
108
330
71
100
AcDbEntity
  8
1
  6
Continuous
 62
     7
100
AcDbLine
 10
-188.7448045267399
 20
-253.5000000000051
 30
0.0
 11
-188.7448045267399
 21
-245.000000000005
 31
0.0
  0
LINE
  5
109
330
71
100
AcDbEntity
  8
1
  6
Continuous
 62
     6
100
AcDbLine
 10
-216.64480452674
 20
-245.000000000005
 30
0.0
 11
-123.4999999999882
 21
-245.000000000005
 31
0.0
  0
LINE
  5
10A
330
71
100
AcDbEntity
  8
1
  6
Continuous
 62
     7
100
AcDbLine
 10
-253.0448045267399
 20
-245.000000000005
 30
0.0
 11
-253.0448045267399
 21
-236.500000000005
 31
0.0
  0
LINE
  5
10B
330
71
100
AcDbEntity
  8
1
  6
Continuous
 62
     7
100
AcDbLine
 10
-216.64480452674
 20
-245.000000000005
 30
0.0
 11
-216.64480452674
 21
-236.500000000005
 31
0.0
  0
LINE
  5
10C
330
71
100
AcDbEntity
  8
1
  6
Continuous
 62
     7
100
AcDbLine
 10
-158.918408281667
 20
-236.500000000005
 30
0.0
 11
-158.918408281667
 21
-245.000000000005
 31
0.0
  0
LINE
  5
10D
330
71
100
AcDbEntity
  8
1
  6
Continuous
 62
     7
100
AcDbLine
 10
-132.4184082816674
 20
-236.500000000005
 30
0.0
 11
-132.4184082816674
 21
-245.000000000005
 31
0.0
  0
LINE
  5
10E
330
71
100
AcDbEntity
  8
1
  6
Continuous
 62
     6
100
AcDbLine
 10
-322.0448045267399
 20
-262.000000000005
 30
0.0
 11
-366.9999999999899
 21
-262.000000000005
 31
0.0
  0
LINE
  5
10F
330
71
100
AcDbEntity
  8
1
  6
Continuous
 62
     7
100
AcDbLine
 10
-123.4999999999886
 20
-253.500000000005
 30
0.0
 11
-216.64480452674
 21
-253.500000000005
 31
0.0
  0
LINE
  5
110
102
{ACAD_REACTORS
330
222
330
223
102
}
330
71
100
AcDbEntity
  8
0
  6
Continuous
 62
     2
100
AcDbLine
 10
-239.3373755849725
 20
-252.6997108843417
 30
0.0
 11
-239.3373755849725
 21
-251.8271938775384
 31
0.0
  0
LINE
  5
111
102
{ACAD_REACTORS
330
222
330
223
102
}
330
71
100
AcDbEntity
  8
0
  6
Continuous
 62
     2
100
AcDbLine
 10
-239.3373755849725
 20
-253.6594795918246
 30
0.0
 11
-239.3373755849725
 21
-254.5319965986278
 31
0.0
  0
LINE
  5
112
102
{ACAD_REACTORS
330
224
330
225
102
}
330
71
100
AcDbEntity
  8
0
  6
Continuous
 62
     2
100
AcDbLine
 10
-224.004331448682
 20
-252.4379557823012
 30
0.0
 11
-222.9006921491139
 21
-252.4379557823012
 31
0.0
  0
LINE
  5
113
102
{ACAD_REACTORS
330
224
330
225
102
}
330
71
100
AcDbEntity
  8
0
  6
Continuous
 62
     2
100
AcDbLine
 10
-223.2346741057206
 20
-253.6594795918251
 30
0.0
 11
-223.2346741057206
 21
-254.5319965986284
 31
0.0
  0
LINE
  5
114
102
{ACAD_REACTORS
330
22E
330
22F
102
}
330
71
100
AcDbEntity
  8
0
  6
Continuous
 62
     2
100
AcDbLine
 10
-225.0954307211005
 20
-251.3473095238144
 30
0.0
 11
-223.6974776741602
 21
-249.7664505300394
 31
0.0
  0
LINE
  5
115
102
{ACAD_REACTORS
330
22E
330
22F
102
}
330
71
100
AcDbEntity
  8
0
  6
Continuous
 62
     2
100
AcDbLine
 10
-225.0000073049277
 20
-248.2935000000032
 30
0.0
 11
-223.6974776741602
 21
-249.7664505300394
 31
0.0
  0
LINE
  5
116
102
{ACAD_REACTORS
330
22E
330
22F
102
}
330
71
100
AcDbEntity
  8
0
  6
Continuous
 62
     2
100
AcDbLine
 10
-222.3949480433938
 20
-248.2935000000032
 30
0.0
 11
-220.9922238256466
 21
-248.2935000000032
 31
0.0
  0
LINE
  5
117
102
{ACAD_REACTORS
330
22E
330
22F
102
}
330
71
100
AcDbEntity
  8
0
  6
Continuous
 62
     2
100
AcDbLine
 10
-223.6927065033523
 20
-251.3473095238144
 30
0.0
 11
-222.9961155652866
 21
-250.5595777385207
 31
0.0
  0
LINE
  5
118
102
{ACAD_REACTORS
330
22E
330
22F
102
}
330
71
100
AcDbEntity
  8
0
  6
Continuous
 62
     2
100
AcDbLine
 10
-223.6927065033523
 20
-251.3473095238144
 30
0.0
 11
-225.0954307211005
 21
-251.3473095238144
 31
0.0
  0
LINE
  5
119
102
{ACAD_REACTORS
330
230
330
231
102
}
330
71
100
AcDbEntity
  8
0
  6
Continuous
 62
     2
100
AcDbLine
 10
-225.2147099913174
 20
-251.3473095238144
 30
0.0
 11
-226.4552144015703
 21
-251.3473095238144
 31
0.0
  0
LINE
  5
11A
102
{ACAD_REACTORS
330
232
330
233
102
}
330
71
100
AcDbEntity
  8
0
  6
Continuous
 62
     2
100
AcDbLine
 10
-227.3231940097254
 20
-253.4849761904642
 30
0.0
 11
-227.6233592469155
 21
-252.7171612244775
 31
0.0
  0
LINE
  5
11B
102
{ACAD_REACTORS
330
232
330
233
102
}
330
71
100
AcDbEntity
  8
0
  6
Continuous
 62
     2
100
AcDbLine
 10
-227.9235244841079
 20
-253.4849761904642
 30
0.0
 11
-227.3231940097254
 21
-253.4849761904642
 31
0.0
  0
LINE
  5
11C
102
{ACAD_REACTORS
330
232
330
233
102
}
330
71
100
AcDbEntity
  8
0
  6
Continuous
 62
     2
100
AcDbLine
 10
-229.6415644989817
 20
-254.7064999999887
 30
0.0
 11
-228.4010600887287
 21
-254.7064999999887
 31
0.0
  0
LINE
  5
11D
102
{ACAD_REACTORS
330
232
330
233
102
}
330
71
100
AcDbEntity
  8
0
  6
Continuous
 62
     2
100
AcDbLine
 10
-228.2436114520424
 20
-251.6526904761776
 30
0.0
 11
-227.0031070417897
 21
-251.6526904761776
 31
0.0
  0
LINE
  5
11E
102
{ACAD_REACTORS
330
232
330
233
102
}
330
71
100
AcDbEntity
  8
0
  6
Continuous
 62
     2
100
AcDbLine
 10
-227.0031070417897
 20
-251.6526904761776
 30
0.0
 11
-225.6051539948494
 21
-254.7064999999887
 31
0.0
  0
LINE
  5
11F
102
{ACAD_REACTORS
330
232
330
233
102
}
330
71
100
AcDbEntity
  8
0
  6
Continuous
 62
     2
100
AcDbLine
 10
-226.8456584051033
 20
-254.7064999999887
 30
0.0
 11
-227.0571384585791
 21
-254.1655394557708
 31
0.0
  0
LINE
  5
120
102
{ACAD_REACTORS
330
234
330
235
102
}
330
71
100
AcDbEntity
  8
0
  6
Continuous
 62
     2
100
AcDbLine
 10
-230.9879776006893
 20
-254.7064999999887
 30
0.0
 11
-229.7951848985228
 21
-254.7064999999887
 31
0.0
  0
LINE
  5
121
102
{ACAD_REACTORS
330
234
330
235
102
}
330
71
100
AcDbEntity
  8
0
  6
Continuous
 62
     2
100
AcDbLine
 10
-230.9879776006893
 20
-252.4379557823012
 30
0.0
 11
-230.9879776006893
 21
-254.7064999999887
 31
0.0
  0
LINE
  5
122
102
{ACAD_REACTORS
330
234
330
235
102
}
330
71
100
AcDbEntity
  8
0
  6
Continuous
 62
     2
100
AcDbLine
 10
-231.7990766381639
 20
-251.6526904761776
 30
0.0
 11
-231.7990766381639
 21
-252.4379557823012
 31
0.0
  0
LINE
  5
123
102
{ACAD_REACTORS
330
236
330
237
102
}
330
71
100
AcDbEntity
  8
0
  6
Continuous
 62
     2
100
AcDbLine
 10
-230.3198627565913
 20
-251.3473095238144
 30
0.0
 11
-229.1270700544248
 21
-251.3473095238144
 31
0.0
  0
LINE
  5
124
102
{ACAD_REACTORS
330
236
330
237
102
}
330
71
100
AcDbEntity
  8
0
  6
Continuous
 62
     2
100
AcDbLine
 10
-227.8865656441708
 20
-249.6022755102084
 30
0.0
 11
-229.1270700544248
 21
-248.2935000000032
 31
0.0
  0
LINE
  5
125
102
{ACAD_REACTORS
330
236
330
237
102
}
330
71
100
AcDbEntity
  8
0
  6
Continuous
 62
     2
100
AcDbLine
 10
-226.6937729420042
 20
-248.2935000000032
 30
0.0
 11
-227.8865656441708
 21
-248.2935000000032
 31
0.0
  0
LINE
  5
126
102
{ACAD_REACTORS
330
236
330
237
102
}
330
71
100
AcDbEntity
  8
0
  6
Continuous
 62
     2
100
AcDbLine
 10
-226.6937729420042
 20
-251.3473095238144
 30
0.0
 11
-226.6937729420042
 21
-248.2935000000032
 31
0.0
  0
LINE
  5
127
102
{ACAD_REACTORS
330
236
330
237
102
}
330
71
100
AcDbEntity
  8
0
  6
Continuous
 62
     2
100
AcDbLine
 10
-227.8865656441708
 20
-251.3473095238144
 30
0.0
 11
-226.6937729420042
 21
-251.3473095238144
 31
0.0
  0
LINE
  5
128
102
{ACAD_REACTORS
330
236
330
237
102
}
330
71
100
AcDbEntity
  8
0
  6
Continuous
 62
     2
100
AcDbLine
 10
-229.1270700544248
 20
-250.0385340136097
 30
0.0
 11
-227.8865656441708
 21
-251.3473095238144
 31
0.0
  0
LINE
  5
129
102
{ACAD_REACTORS
330
238
330
239
102
}
330
71
100
AcDbEntity
  8
0
  6
Continuous
 62
     2
100
AcDbLine
 10
-233.1350044645905
 20
-252.9614659863827
 30
0.0
 11
-234.3755088748434
 21
-251.6526904761776
 31
0.0
  0
LINE
  5
12A
102
{ACAD_REACTORS
330
238
330
239
102
}
330
71
100
AcDbEntity
  8
0
  6
Continuous
 62
     2
100
AcDbLine
 10
-233.1350044645905
 20
-251.6526904761776
 30
0.0
 11
-233.1350044645905
 21
-252.9614659863827
 31
0.0
  0
LINE
  5
12B
102
{ACAD_REACTORS
330
238
330
239
102
}
330
71
100
AcDbEntity
  8
0
  6
Continuous
 62
     2
100
AcDbLine
 10
-231.9422117624241
 20
-251.6526904761776
 30
0.0
 11
-233.1350044645905
 21
-251.6526904761776
 31
0.0
  0
LINE
  5
12C
102
{ACAD_REACTORS
330
238
330
239
102
}
330
71
100
AcDbEntity
  8
0
  6
Continuous
 62
     2
100
AcDbLine
 10
-231.9422117624241
 20
-254.7064999999887
 30
0.0
 11
-231.9422117624241
 21
-251.6526904761776
 31
0.0
  0
LINE
  5
12D
102
{ACAD_REACTORS
330
238
330
239
102
}
330
71
100
AcDbEntity
  8
0
  6
Continuous
 62
     2
100
AcDbLine
 10
-234.3755088748434
 20
-253.3977244897841
 30
0.0
 11
-233.1350044645905
 21
-254.7064999999887
 31
0.0
  0
LINE
  5
12E
102
{ACAD_REACTORS
330
238
330
239
102
}
330
71
100
AcDbEntity
  8
0
  6
Continuous
 62
     2
100
AcDbLine
 10
-234.3755088748434
 20
-254.7064999999887
 30
0.0
 11
-234.3755088748434
 21
-253.3977244897841
 31
0.0
  0
LINE
  5
12F
102
{ACAD_REACTORS
330
228
330
229
102
}
330
71
100
AcDbEntity
  8
0
  6
Continuous
 62
     2
100
AcDbLine
 10
-231.8943491234519
 20
-248.9915136054462
 30
0.0
 11
-230.5584212970242
 21
-248.9915136054462
 31
0.0
  0
LINE
  5
130
102
{ACAD_REACTORS
330
228
330
229
102
}
330
71
100
AcDbEntity
  8
0
  6
Continuous
 62
     2
100
AcDbLine
 10
-231.8943491234519
 20
-250.6492959183719
 30
0.0
 11
-231.8943491234519
 21
-250.1694115646302
 31
0.0
  0
LINE
  5
131
102
{ACAD_REACTORS
330
228
330
229
102
}
330
71
100
AcDbEntity
  8
0
  6
Continuous
 62
     2
100
AcDbLine
 10
-230.5584212970242
 20
-250.6492959183719
 30
0.0
 11
-231.8943491234519
 21
-250.6492959183719
 31
0.0
  0
LINE
  5
132
102
{ACAD_REACTORS
330
228
330
229
102
}
330
71
100
AcDbEntity
  8
0
  6
Continuous
 62
     2
100
AcDbLine
 10
-230.5584212970242
 20
-251.3473095238144
 30
0.0
 11
-230.5584212970242
 21
-250.6492959183719
 31
0.0
  0
LINE
  5
133
102
{ACAD_REACTORS
330
228
330
229
102
}
330
71
100
AcDbEntity
  8
0
  6
Continuous
 62
     2
100
AcDbLine
 10
-233.7087410208052
 20
-251.3473095238144
 30
0.0
 11
-230.5584212970242
 21
-251.3473095238144
 31
0.0
  0
LINE
  5
134
102
{ACAD_REACTORS
330
228
330
229
102
}
330
71
100
AcDbEntity
  8
0
  6
Continuous
 62
     2
100
AcDbLine
 10
-233.7087410208052
 20
-248.2935000000032
 30
0.0
 11
-230.5584212970242
 21
-248.2935000000032
 31
0.0
  0
LINE
  5
135
102
{ACAD_REACTORS
330
228
330
229
102
}
330
71
100
AcDbEntity
  8
0
  6
Continuous
 62
     2
100
AcDbLine
 10
-230.5584212970242
 20
-248.9915136054462
 30
0.0
 11
-230.5584212970242
 21
-248.2935000000032
 31
0.0
  0
LINE
  5
136
102
{ACAD_REACTORS
330
23A
330
23B
102
}
330
71
100
AcDbEntity
  8
0
  6
Continuous
 62
     2
100
AcDbLine
 10
-236.5700965159452
 20
-249.3623333333378
 30
0.0
 11
-236.5700965159452
 21
-248.2935000000032
 31
0.0
  0
LINE
  5
137
102
{ACAD_REACTORS
330
23A
330
23B
102
}
330
71
100
AcDbEntity
  8
0
  6
Continuous
 62
     2
100
AcDbLine
 10
-236.5700965159452
 20
-248.2935000000032
 30
0.0
 11
-235.3773038137788
 21
-248.2935000000032
 31
0.0
  0
LINE
  5
138
102
{ACAD_REACTORS
330
23A
330
23B
102
}
330
71
100
AcDbEntity
  8
0
  6
Continuous
 62
     2
100
AcDbLine
 10
-236.5700965159452
 20
-250.2130374149706
 30
0.0
 11
-237.6197540938527
 21
-250.2130374149706
 31
0.0
  0
LINE
  5
139
102
{ACAD_REACTORS
330
23A
330
23B
102
}
330
71
100
AcDbEntity
  8
0
  6
Continuous
 62
     2
100
AcDbLine
 10
-237.6197540938527
 20
-250.2130374149706
 30
0.0
 11
-237.6197540938527
 21
-251.3473095238144
 31
0.0
  0
LINE
  5
13A
102
{ACAD_REACTORS
330
23A
330
23B
102
}
330
71
100
AcDbEntity
  8
0
  6
Continuous
 62
     2
100
AcDbLine
 10
-238.8125467960193
 20
-248.2935000000032
 30
0.0
 11
-238.8125467960193
 21
-251.3473095238144
 31
0.0
  0
LINE
  5
13B
102
{ACAD_REACTORS
330
22C
330
22D
102
}
330
71
100
AcDbEntity
  8
0
  6
Continuous
 62
     2
100
AcDbLine
 10
-240.7687268275729
 20
-249.6623334947855
 30
0.0
 11
-240.7687268275729
 21
-248.9566058454433
 31
0.0
  0
LINE
  5
13C
102
{ACAD_REACTORS
330
22C
330
22D
102
}
330
71
100
AcDbEntity
  8
0
  6
Continuous
 62
     2
100
AcDbLine
 10
-242.009231237827
 20
-251.3473095238144
 30
0.0
 11
-240.7687268275729
 21
-251.3473095238144
 31
0.0
  0
LINE
  5
13D
102
{ACAD_REACTORS
330
22C
330
22D
102
}
330
71
100
AcDbEntity
  8
0
  6
Continuous
 62
     2
100
AcDbLine
 10
-240.7687268275729
 20
-251.3473095238144
 30
0.0
 11
-240.7687268275729
 21
-250.4042312826706
 31
0.0
  0
LINE
  5
13E
102
{ACAD_REACTORS
330
226
330
227
102
}
330
71
100
AcDbEntity
  8
0
  6
Continuous
 62
     2
100
AcDbLine
 10
-246.3141770870384
 20
-253.9939444444318
 30
0.0
 11
-247.790010348048
 21
-253.9939444444318
 31
0.0
  0
LINE
  5
13F
102
{ACAD_REACTORS
330
226
330
227
102
}
330
71
100
AcDbEntity
  8
0
  6
Continuous
 62
     2
100
AcDbLine
 10
-248.8081496401773
 20
-248.7177446154052
 30
0.0
 11
-248.8081496401773
 21
-254.2822553846054
 31
0.0
  0
LINE
  5
140
102
{ACAD_REACTORS
330
226
330
227
102
}
330
71
100
AcDbEntity
  8
0
  6
Continuous
 62
     2
100
AcDbLine
 10
-248.3839050247945
 20
-248.2935000000214
 30
0.0
 11
-242.9105929340777
 21
-248.2935000000214
 31
0.0
  0
LINE
  5
141
102
{ACAD_REACTORS
330
226
330
227
102
}
330
71
100
AcDbEntity
  8
0
  6
Continuous
 62
     2
100
AcDbLine
 10
-242.4863483186938
 20
-248.7177446154052
 30
0.0
 11
-242.4863483186938
 21
-254.2822553846054
 31
0.0
  0
LINE
  5
142
102
{ACAD_REACTORS
330
226
330
227
102
}
330
71
100
AcDbEntity
  8
0
  6
Continuous
 62
     2
100
AcDbLine
 10
-242.9105929340777
 20
-254.7064999999887
 30
0.0
 11
-248.3839050247945
 21
-254.7064999999887
 31
0.0
  0
LINE
  5
143
102
{ACAD_REACTORS
330
226
330
227
102
}
330
71
100
AcDbEntity
  8
0
  6
Continuous
 62
     2
100
AcDbLine
 10
-245.9984601639618
 20
-253.6782275213551
 30
0.0
 11
-245.9984601639618
 21
-252.1474565898235
 31
0.0
  0
LINE
  5
144
102
{ACAD_REACTORS
330
226
330
227
102
}
330
71
100
AcDbEntity
  8
0
  6
Continuous
 62
     2
100
AcDbLine
 10
-245.9984601639618
 20
-249.9257970976985
 30
0.0
 11
-245.9984601639618
 21
-249.321772478638
 31
0.0
  0
LINE
  5
145
102
{ACAD_REACTORS
330
226
330
227
102
}
330
71
100
AcDbEntity
  8
0
  6
Continuous
 62
     2
100
AcDbLine
 10
-247.790010348048
 20
-249.0060555555618
 30
0.0
 11
-246.3141770870384
 21
-249.0060555555618
 31
0.0
  0
LINE
  5
146
102
{ACAD_REACTORS
330
226
330
227
102
}
330
71
100
AcDbEntity
  8
0
  6
Continuous
 62
     2
100
AcDbLine
 10
-248.1057272711237
 20
-249.321772478638
 30
0.0
 11
-248.1057272711237
 21
-253.6782275213551
 31
0.0
  0
LINE
  5
147
102
{ACAD_REACTORS
330
22C
330
22D
102
}
330
71
100
AcDbEntity
  8
0
  6
Continuous
 62
     2
100
AcDbLine
 10
-240.7687268275729
 20
-250.4042312826706
 30
0.0
 11
-240.0099592397926
 21
-250.4042312826706
 31
0.0
  0
LINE
  5
148
102
{ACAD_REACTORS
330
22C
330
22D
102
}
330
71
100
AcDbEntity
  8
0
  6
Continuous
 62
     2
100
AcDbLine
 10
-242.009231237827
 20
-248.2935000000032
 30
0.0
 11
-240.0099592397926
 21
-248.2935000000032
 31
0.0
  0
LINE
  5
149
102
{ACAD_REACTORS
330
22C
330
22D
102
}
330
71
100
AcDbEntity
  8
0
  6
Continuous
 62
     2
100
AcDbLine
 10
-242.009231237827
 20
-248.2935000000032
 30
0.0
 11
-242.009231237827
 21
-251.3473095238144
 31
0.0
  0
LINE
  5
14A
102
{ACAD_REACTORS
330
22C
330
22D
102
}
330
71
100
AcDbEntity
  8
0
  6
Continuous
 62
     2
100
AcDbLine
 10
-240.7687268275729
 20
-249.6623334947855
 30
0.0
 11
-240.451431766031
 21
-249.6623334947855
 31
0.0
  0
LINE
  5
14B
102
{ACAD_REACTORS
330
22C
330
22D
102
}
330
71
100
AcDbEntity
  8
0
  6
Continuous
 62
     2
100
AcDbLine
 10
-240.7687268275729
 20
-248.9566058454433
 30
0.0
 11
-240.451431766031
 21
-248.9566058454433
 31
0.0
  0
LINE
  5
14C
102
{ACAD_REACTORS
330
23A
330
23B
102
}
330
71
100
AcDbEntity
  8
0
  6
Continuous
 62
     2
100
AcDbLine
 10
-237.6197540938527
 20
-249.3623333333378
 30
0.0
 11
-236.5700965159452
 21
-249.3623333333378
 31
0.0
  0
LINE
  5
14D
102
{ACAD_REACTORS
330
23A
330
23B
102
}
330
71
100
AcDbEntity
  8
0
  6
Continuous
 62
     2
100
AcDbLine
 10
-237.6197540938527
 20
-248.2935000000032
 30
0.0
 11
-237.6197540938527
 21
-249.3623333333378
 31
0.0
  0
LINE
  5
14E
102
{ACAD_REACTORS
330
23A
330
23B
102
}
330
71
100
AcDbEntity
  8
0
  6
Continuous
 62
     2
100
AcDbLine
 10
-238.8125467960193
 20
-248.2935000000032
 30
0.0
 11
-237.6197540938527
 21
-248.2935000000032
 31
0.0
  0
LINE
  5
14F
102
{ACAD_REACTORS
330
23A
330
23B
102
}
330
71
100
AcDbEntity
  8
0
  6
Continuous
 62
     2
100
AcDbLine
 10
-237.6197540938527
 20
-251.3473095238144
 30
0.0
 11
-238.8125467960193
 21
-251.3473095238144
 31
0.0
  0
LINE
  5
150
102
{ACAD_REACTORS
330
23A
330
23B
102
}
330
71
100
AcDbEntity
  8
0
  6
Continuous
 62
     2
100
AcDbLine
 10
-236.5700965159452
 20
-251.3473095238144
 30
0.0
 11
-236.5700965159452
 21
-250.2130374149706
 31
0.0
  0
LINE
  5
151
102
{ACAD_REACTORS
330
23A
330
23B
102
}
330
71
100
AcDbEntity
  8
0
  6
Continuous
 62
     2
100
AcDbLine
 10
-235.3773038137788
 20
-251.3473095238144
 30
0.0
 11
-236.5700965159452
 21
-251.3473095238144
 31
0.0
  0
LINE
  5
152
102
{ACAD_REACTORS
330
23A
330
23B
102
}
330
71
100
AcDbEntity
  8
0
  6
Continuous
 62
     2
100
AcDbLine
 10
-235.3773038137788
 20
-248.2935000000032
 30
0.0
 11
-235.3773038137788
 21
-251.3473095238144
 31
0.0
  0
LINE
  5
153
102
{ACAD_REACTORS
330
228
330
229
102
}
330
71
100
AcDbEntity
  8
0
  6
Continuous
 62
     2
100
AcDbLine
 10
-231.8943491234519
 20
-250.1694115646302
 30
0.0
 11
-230.5584212970242
 21
-250.1694115646302
 31
0.0
  0
LINE
  5
154
102
{ACAD_REACTORS
330
228
330
229
102
}
330
71
100
AcDbEntity
  8
0
  6
Continuous
 62
     2
100
AcDbLine
 10
-230.5584212970242
 20
-250.1694115646302
 30
0.0
 11
-230.5584212970242
 21
-249.4713979591879
 31
0.0
  0
LINE
  5
155
102
{ACAD_REACTORS
330
228
330
229
102
}
330
71
100
AcDbEntity
  8
0
  6
Continuous
 62
     2
100
AcDbLine
 10
-230.5584212970242
 20
-249.4713979591879
 30
0.0
 11
-231.8943491234519
 21
-249.4713979591879
 31
0.0
  0
LINE
  5
156
102
{ACAD_REACTORS
330
228
330
229
102
}
330
71
100
AcDbEntity
  8
0
  6
Continuous
 62
     2
100
AcDbLine
 10
-231.8943491234519
 20
-249.4713979591879
 30
0.0
 11
-231.8943491234519
 21
-248.9915136054462
 31
0.0
  0
LINE
  5
157
102
{ACAD_REACTORS
330
238
330
239
102
}
330
71
100
AcDbEntity
  8
0
  6
Continuous
 62
     2
100
AcDbLine
 10
-235.568301577011
 20
-254.7064999999887
 30
0.0
 11
-234.3755088748434
 21
-254.7064999999887
 31
0.0
  0
LINE
  5
158
102
{ACAD_REACTORS
330
238
330
239
102
}
330
71
100
AcDbEntity
  8
0
  6
Continuous
 62
     2
100
AcDbLine
 10
-233.1350044645905
 20
-254.7064999999887
 30
0.0
 11
-231.9422117624241
 21
-254.7064999999887
 31
0.0
  0
LINE
  5
159
102
{ACAD_REACTORS
330
238
330
239
102
}
330
71
100
AcDbEntity
  8
0
  6
Continuous
 62
     2
100
AcDbLine
 10
-234.3755088748434
 20
-251.6526904761776
 30
0.0
 11
-235.568301577011
 21
-251.6526904761776
 31
0.0
  0
LINE
  5
15A
102
{ACAD_REACTORS
330
238
330
239
102
}
330
71
100
AcDbEntity
  8
0
  6
Continuous
 62
     2
100
AcDbLine
 10
-235.568301577011
 20
-251.6526904761776
 30
0.0
 11
-235.568301577011
 21
-254.7064999999887
 31
0.0
  0
LINE
  5
15B
102
{ACAD_REACTORS
330
236
330
237
102
}
330
71
100
AcDbEntity
  8
0
  6
Continuous
 62
     2
100
AcDbLine
 10
-227.8865656441708
 20
-248.2935000000032
 30
0.0
 11
-227.8865656441708
 21
-249.6022755102084
 31
0.0
  0
LINE
  5
15C
102
{ACAD_REACTORS
330
236
330
237
102
}
330
71
100
AcDbEntity
  8
0
  6
Continuous
 62
     2
100
AcDbLine
 10
-229.1270700544248
 20
-248.2935000000032
 30
0.0
 11
-230.3198627565913
 21
-248.2935000000032
 31
0.0
  0
LINE
  5
15D
102
{ACAD_REACTORS
330
236
330
237
102
}
330
71
100
AcDbEntity
  8
0
  6
Continuous
 62
     2
100
AcDbLine
 10
-230.3198627565913
 20
-248.2935000000032
 30
0.0
 11
-230.3198627565913
 21
-251.3473095238144
 31
0.0
  0
LINE
  5
15E
102
{ACAD_REACTORS
330
236
330
237
102
}
330
71
100
AcDbEntity
  8
0
  6
Continuous
 62
     2
100
AcDbLine
 10
-229.1270700544248
 20
-251.3473095238144
 30
0.0
 11
-229.1270700544248
 21
-250.0385340136097
 31
0.0
  0
LINE
  5
15F
102
{ACAD_REACTORS
330
234
330
235
102
}
330
71
100
AcDbEntity
  8
0
  6
Continuous
 62
     2
100
AcDbLine
 10
-229.7951848985228
 20
-254.7064999999887
 30
0.0
 11
-229.7951848985228
 21
-252.4379557823012
 31
0.0
  0
LINE
  5
160
102
{ACAD_REACTORS
330
234
330
235
102
}
330
71
100
AcDbEntity
  8
0
  6
Continuous
 62
     2
100
AcDbLine
 10
-229.7951848985228
 20
-252.4379557823012
 30
0.0
 11
-228.9840858610503
 21
-252.4379557823012
 31
0.0
  0
LINE
  5
161
102
{ACAD_REACTORS
330
234
330
235
102
}
330
71
100
AcDbEntity
  8
0
  6
Continuous
 62
     2
100
AcDbLine
 10
-228.9840858610503
 20
-252.4379557823012
 30
0.0
 11
-228.9840858610503
 21
-251.6526904761776
 31
0.0
  0
LINE
  5
162
102
{ACAD_REACTORS
330
234
330
235
102
}
330
71
100
AcDbEntity
  8
0
  6
Continuous
 62
     2
100
AcDbLine
 10
-228.9840858610503
 20
-251.6526904761776
 30
0.0
 11
-231.7990766381639
 21
-251.6526904761776
 31
0.0
  0
LINE
  5
163
102
{ACAD_REACTORS
330
234
330
235
102
}
330
71
100
AcDbEntity
  8
0
  6
Continuous
 62
     2
100
AcDbLine
 10
-231.7990766381639
 20
-252.4379557823012
 30
0.0
 11
-230.9879776006893
 21
-252.4379557823012
 31
0.0
  0
LINE
  5
164
102
{ACAD_REACTORS
330
232
330
233
102
}
330
71
100
AcDbEntity
  8
0
  6
Continuous
 62
     2
100
AcDbLine
 10
-228.1895800352529
 20
-254.1655394557708
 30
0.0
 11
-227.0571384585791
 21
-254.1655394557708
 31
0.0
  0
LINE
  5
165
102
{ACAD_REACTORS
330
232
330
233
102
}
330
71
100
AcDbEntity
  8
0
  6
Continuous
 62
     2
100
AcDbLine
 10
-225.6051539948494
 20
-254.7064999999887
 30
0.0
 11
-226.8456584051033
 21
-254.7064999999887
 31
0.0
  0
LINE
  5
166
102
{ACAD_REACTORS
330
232
330
233
102
}
330
71
100
AcDbEntity
  8
0
  6
Continuous
 62
     2
100
AcDbLine
 10
-228.2436114520424
 20
-251.6526904761776
 30
0.0
 11
-229.6415644989817
 21
-254.7064999999887
 31
0.0
  0
LINE
  5
167
102
{ACAD_REACTORS
330
232
330
233
102
}
330
71
100
AcDbEntity
  8
0
  6
Continuous
 62
     2
100
AcDbLine
 10
-228.4010600887287
 20
-254.7064999999887
 30
0.0
 11
-228.1895800352529
 21
-254.1655394557708
 31
0.0
  0
LINE
  5
168
102
{ACAD_REACTORS
330
232
330
233
102
}
330
71
100
AcDbEntity
  8
0
  6
Continuous
 62
     2
100
AcDbLine
 10
-227.9235244841079
 20
-253.4849761904642
 30
0.0
 11
-227.6233592469155
 21
-252.7171612244775
 31
0.0
  0
LINE
  5
169
102
{ACAD_REACTORS
330
230
330
231
102
}
330
71
100
AcDbEntity
  8
0
  6
Continuous
 62
     2
100
AcDbLine
 10
-226.4552144015703
 20
-251.3473095238144
 30
0.0
 11
-226.4552144015703
 21
-248.2935000000032
 31
0.0
  0
LINE
  5
16A
102
{ACAD_REACTORS
330
230
330
231
102
}
330
71
100
AcDbEntity
  8
0
  6
Continuous
 62
     2
100
AcDbLine
 10
-225.2147099913174
 20
-248.2935000000032
 30
0.0
 11
-225.2147099913174
 21
-251.3473095238144
 31
0.0
  0
LINE
  5
16B
102
{ACAD_REACTORS
330
230
330
231
102
}
330
71
100
AcDbEntity
  8
0
  6
Continuous
 62
     2
100
AcDbLine
 10
-226.4552144015703
 20
-248.2935000000032
 30
0.0
 11
-225.2147099913174
 21
-248.2935000000032
 31
0.0
  0
LINE
  5
16C
102
{ACAD_REACTORS
330
22E
330
22F
102
}
330
71
100
AcDbEntity
  8
0
  6
Continuous
 62
     2
100
AcDbLine
 10
-222.9961155652866
 20
-250.5595777385207
 30
0.0
 11
-222.2995246272211
 21
-251.3473095238144
 31
0.0
  0
LINE
  5
16D
102
{ACAD_REACTORS
330
22E
330
22F
102
}
330
71
100
AcDbEntity
  8
0
  6
Continuous
 62
     2
100
AcDbLine
 10
-222.2995246272211
 20
-251.3473095238144
 30
0.0
 11
-220.8968004094728
 21
-251.3473095238144
 31
0.0
  0
LINE
  5
16E
102
{ACAD_REACTORS
330
22E
330
22F
102
}
330
71
100
AcDbEntity
  8
0
  6
Continuous
 62
     2
100
AcDbLine
 10
-222.2947534564131
 20
-249.7664505300394
 30
0.0
 11
-220.8968004094728
 21
-251.3473095238144
 31
0.0
  0
LINE
  5
16F
102
{ACAD_REACTORS
330
22E
330
22F
102
}
330
71
100
AcDbEntity
  8
0
  6
Continuous
 62
     2
100
AcDbLine
 10
-222.2947534564131
 20
-249.7664505300394
 30
0.0
 11
-220.9922238256466
 21
-248.2935000000032
 31
0.0
  0
LINE
  5
170
102
{ACAD_REACTORS
330
22E
330
22F
102
}
330
71
100
AcDbEntity
  8
0
  6
Continuous
 62
     2
100
AcDbLine
 10
-222.9961155652866
 20
-248.9733233215587
 30
0.0
 11
-222.3949480433938
 21
-248.2935000000032
 31
0.0
  0
LINE
  5
171
102
{ACAD_REACTORS
330
22E
330
22F
102
}
330
71
100
AcDbEntity
  8
0
  6
Continuous
 62
     2
100
AcDbLine
 10
-223.5972830871784
 20
-248.2935000000032
 30
0.0
 11
-222.9961155652866
 21
-248.9733233215587
 31
0.0
  0
LINE
  5
172
102
{ACAD_REACTORS
330
22E
330
22F
102
}
330
71
100
AcDbEntity
  8
0
  6
Continuous
 62
     2
100
AcDbLine
 10
-223.5972830871784
 20
-248.2935000000032
 30
0.0
 11
-225.0000073049277
 21
-248.2935000000032
 31
0.0
  0
LINE
  5
173
102
{ACAD_REACTORS
330
224
330
225
102
}
330
71
100
AcDbEntity
  8
0
  6
Continuous
 62
     2
100
AcDbLine
 10
-222.9006921491139
 20
-254.7064999999887
 30
0.0
 11
-221.7078994469462
 21
-254.7064999999887
 31
0.0
  0
LINE
  5
174
102
{ACAD_REACTORS
330
224
330
225
102
}
330
71
100
AcDbEntity
  8
0
  6
Continuous
 62
     2
100
AcDbLine
 10
-221.7078994469462
 20
-254.7064999999887
 30
0.0
 11
-221.7078994469462
 21
-252.4379557823012
 31
0.0
  0
LINE
  5
175
102
{ACAD_REACTORS
330
224
330
225
102
}
330
71
100
AcDbEntity
  8
0
  6
Continuous
 62
     2
100
AcDbLine
 10
-221.7078994469462
 20
-252.4379557823012
 30
0.0
 11
-220.8968004094728
 21
-252.4379557823012
 31
0.0
  0
LINE
  5
176
102
{ACAD_REACTORS
330
224
330
225
102
}
330
71
100
AcDbEntity
  8
0
  6
Continuous
 62
     2
100
AcDbLine
 10
-220.8968004094728
 20
-252.4379557823012
 30
0.0
 11
-220.8968004094728
 21
-251.6526904761776
 31
0.0
  0
LINE
  5
177
102
{ACAD_REACTORS
330
224
330
225
102
}
330
71
100
AcDbEntity
  8
0
  6
Continuous
 62
     2
100
AcDbLine
 10
-224.2817459281015
 20
-251.6526904761781
 30
0.0
 11
-220.8968004094728
 21
-251.6526904761776
 31
0.0
  0
LINE
  5
178
102
{ACAD_REACTORS
330
224
330
225
102
}
330
71
100
AcDbEntity
  8
0
  6
Continuous
 62
     2
100
AcDbLine
 10
-222.9006921491139
 20
-252.4379557823012
 30
0.0
 11
-222.9006921491139
 21
-254.7064999999887
 31
0.0
  0
LINE
  5
179
102
{ACAD_REACTORS
330
226
330
227
102
}
330
71
100
AcDbEntity
  8
0
  6
Continuous
 62
     2
100
AcDbLine
 10
-245.5301785845931
 20
-252.7276198504242
 30
0.0
 11
-245.5301785845931
 21
-252.1457684437291
 31
0.0
  0
LINE
  5
17A
102
{ACAD_REACTORS
330
226
330
227
102
}
330
71
100
AcDbEntity
  8
0
  6
Continuous
 62
     2
100
AcDbLine
 10
-245.5301785845931
 20
-249.9274852437929
 30
0.0
 11
-245.5301785845931
 21
-249.3219499552861
 31
0.0
  0
LINE
  5
17B
330
71
100
AcDbEntity
  8
1
  6
Continuous
 62
     6
100
AcDbLine
 10
-266.9999999999899
 20
-262.000000000005
 30
0.0
 11
-253.0448045267399
 21
-262.0000000000051
 31
0.0
  0
LINE
  5
17C
330
71
100
AcDbEntity
  8
1
  6
Continuous
 62
     6
100
AcDbLine
 10
-316.9999999999901
 20
-262.000000000005
 30
0.0
 11
-322.0448045267399
 21
-262.000000000005
 31
0.0
  0
LINE
  5
17D
330
71
100
AcDbEntity
  8
1
  6
Continuous
 62
     6
100
AcDbLine
 10
-166.9999999999899
 20
-262.000000000005
 30
0.0
 11
-123.4999999999899
 21
-262.000000000005
 31
0.0
  0
LINE
  5
17E
330
71
100
AcDbEntity
  8
1
  6
Continuous
 62
     6
100
AcDbLine
 10
-216.9999999999899
 20
-262.000000000005
 30
0.0
 11
-234.8448045267399
 21
-262.000000000005
 31
0.0
  0
LINE
  5
17F
330
71
100
AcDbEntity
  8
1
  6
Continuous
 62
     2
100
AcDbLine
 10
-123.4999999999899
 20
-262.000000000005
 30
0.0
 11
-118.4999999999909
 21
-262.000000000005
 31
0.0
  0
LINE
  5
180
330
71
100
AcDbEntity
  8
1
  6
Continuous
 62
     2
100
AcDbLine
 10
-123.4999999999899
 20
-262.000000000005
 30
0.0
 11
-123.4999999999899
 21
-267.0000000000051
 31
0.0
  0
LINE
  5
181
330
71
100
AcDbEntity
  8
1
  6
Continuous
 62
     6
100
AcDbLine
 10
-253.0448045267399
 20
-245.000000000005
 30
0.0
 11
-216.64480452674
 21
-245.000000000005
 31
0.0
  0
LINE
  5
182
330
71
100
AcDbEntity
  8
1
  6
Continuous
 62
     2
100
AcDbLine
 10
-118.4999999999909
 20
-267.0000000000051
 30
0.0
 11
-118.4999999999909
 21
-262.000000000005
 31
0.0
  0
LINE
  5
183
330
71
100
AcDbEntity
  8
1
  6
Continuous
 62
     2
100
AcDbLine
 10
-118.4999999999909
 20
-267.0000000000051
 30
0.0
 11
-123.4999999999899
 21
-267.0000000000051
 31
0.0
  0
LINE
  5
184
330
71
100
AcDbEntity
  8
1
  6
Continuous
 62
     2
100
AcDbLine
 10
-123.4999999999899
 20
-267.0000000000051
 30
0.0
 11
-166.9999999999899
 21
-267.0000000000051
 31
0.0
  0
LINE
  5
185
330
71
100
AcDbEntity
  8
1
  6
Continuous
 62
     6
100
AcDbLine
 10
-123.4999999999882
 20
-245.000000000005
 30
0.0
 11
-123.499999999989
 21
-212.0000000000049
 31
0.0
  0
LINE
  5
186
330
71
100
AcDbEntity
  8
1
  6
Continuous
 62
     2
100
AcDbLine
 10
-118.4999999999909
 20
-57.000000000005
 30
0.0
 11
-266.9999999999899
 21
-57.000000000005
 31
0.0
  0
LINE
  5
187
330
71
100
AcDbEntity
  8
1
  6
Continuous
 62
     6
100
AcDbLine
 10
-123.4999999999909
 20
-77.000000000005
 30
0.0
 11
-410.499999999989
 21
-77.000000000005
 31
0.0
  0
LINE
  5
188
330
71
100
AcDbEntity
  8
1
  6
Continuous
 62
     2
100
AcDbLine
 10
-123.499999999989
 20
-212.0000000000049
 30
0.0
 11
-118.4999999999909
 21
-212.0000000000049
 31
0.0
  0
LINE
  5
189
330
71
100
AcDbEntity
  8
1
  6
Continuous
 62
     6
100
AcDbLine
 10
-123.499999999989
 20
-212.0000000000049
 30
0.0
 11
-123.4999999999895
 21
-162.0000000000051
 31
0.0
  0
LINE
  5
18A
330
71
100
AcDbEntity
  8
1
  6
Continuous
 62
     2
100
AcDbLine
 10
-118.4999999999909
 20
-212.0000000000049
 30
0.0
 11
-118.4999999999909
 21
-162.0000000000051
 31
0.0
  0
LINE
  5
18B
330
71
100
AcDbEntity
  8
1
  6
Continuous
 62
     2
100
AcDbLine
 10
-123.4999999999895
 20
-162.0000000000051
 30
0.0
 11
-118.4999999999909
 21
-162.0000000000051
 31
0.0
  0
LINE
  5
18C
330
71
100
AcDbEntity
  8
1
  6
Continuous
 62
     6
100
AcDbLine
 10
-123.4999999999895
 20
-162.0000000000051
 30
0.0
 11
-123.4999999999907
 21
-112.000000000005
 31
0.0
  0
LINE
  5
18D
330
71
100
AcDbEntity
  8
1
  6
Continuous
 62
     2
100
AcDbLine
 10
-118.4999999999909
 20
-162.0000000000051
 30
0.0
 11
-118.4999999999909
 21
-112.000000000005
 31
0.0
  0
LINE
  5
18E
330
71
100
AcDbEntity
  8
1
  6
Continuous
 62
     2
100
AcDbLine
 10
-123.4999999999907
 20
-112.000000000005
 30
0.0
 11
-118.4999999999909
 21
-112.000000000005
 31
0.0
  0
LINE
  5
18F
330
71
100
AcDbEntity
  8
1
  6
Continuous
 62
     6
100
AcDbLine
 10
-123.4999999999907
 20
-112.000000000005
 30
0.0
 11
-123.4999999999909
 21
-77.000000000005
 31
0.0
  0
LINE
  5
190
330
71
100
AcDbEntity
  8
1
  6
Continuous
 62
     2
100
AcDbLine
 10
-118.4999999999909
 20
-112.000000000005
 30
0.0
 11
-118.4999999999909
 21
-57.000000000005
 31
0.0
  0
LINE
  5
191
330
71
100
AcDbEntity
  8
1
  6
Continuous
 62
     2
100
AcDbLine
 10
-118.4999999999909
 20
-262.000000000005
 30
0.0
 11
-118.4999999999909
 21
-212.0000000000049
 31
0.0
  0
LINE
  5
192
330
71
100
AcDbEntity
  8
1
  6
Continuous
 62
     2
100
AcDbLine
 10
-266.9999999999899
 20
-57.000000000005
 30
0.0
 11
-415.499999999989
 21
-57.000000000005
 31
0.0
  0
LINE
  5
193
330
71
100
AcDbEntity
  8
1
  6
Continuous
 62
     2
100
AcDbLine
 10
-266.9999999999899
 20
-57.000000000005
 30
0.0
 11
-266.9999999999899
 21
-66.20869184470632
 31
0.0
  0
LINE
  5
194
330
71
100
AcDbEntity
  8
1
  6
Continuous
 62
     2
100
AcDbLine
 10
-415.499999999989
 20
-267.0000000000051
 30
0.0
 11
-410.499999999988
 21
-267.0000000000051
 31
0.0
  0
LINE
  5
195
330
71
100
AcDbEntity
  8
1
  6
Continuous
 62
     2
100
AcDbLine
 10
-415.499999999989
 20
-57.000000000005
 30
0.0
 11
-415.499999999989
 21
-112.000000000005
 31
0.0
  0
LINE
  5
196
330
71
100
AcDbEntity
  8
1
  6
Continuous
 62
     6
100
AcDbLine
 10
-410.499999999989
 20
-77.000000000005
 30
0.0
 11
-410.4999999999889
 21
-112.000000000005
 31
0.0
  0
LINE
  5
197
330
71
100
AcDbEntity
  8
1
  6
Continuous
 62
     2
100
AcDbLine
 10
-415.499999999989
 20
-112.000000000005
 30
0.0
 11
-410.4999999999889
 21
-112.000000000005
 31
0.0
  0
LINE
  5
198
330
71
100
AcDbEntity
  8
1
  6
Continuous
 62
     2
100
AcDbLine
 10
-415.499999999989
 20
-112.000000000005
 30
0.0
 11
-415.499999999989
 21
-162.0000000000051
 31
0.0
  0
LINE
  5
199
330
71
100
AcDbEntity
  8
1
  6
Continuous
 62
     6
100
AcDbLine
 10
-410.4999999999889
 20
-112.000000000005
 30
0.0
 11
-410.4999999999884
 21
-162.0000000000051
 31
0.0
  0
LINE
  5
19A
330
71
100
AcDbEntity
  8
1
  6
Continuous
 62
     2
100
AcDbLine
 10
-415.499999999989
 20
-162.0000000000051
 30
0.0
 11
-410.4999999999884
 21
-162.0000000000051
 31
0.0
  0
LINE
  5
19B
330
71
100
AcDbEntity
  8
1
  6
Continuous
 62
     2
100
AcDbLine
 10
-415.499999999989
 20
-162.0000000000051
 30
0.0
 11
-415.499999999989
 21
-212.0000000000049
 31
0.0
  0
LINE
  5
19C
330
71
100
AcDbEntity
  8
1
  6
Continuous
 62
     6
100
AcDbLine
 10
-410.4999999999884
 20
-162.0000000000051
 30
0.0
 11
-410.4999999999882
 21
-212.0000000000049
 31
0.0
  0
LINE
  5
19D
330
71
100
AcDbEntity
  8
1
  6
Continuous
 62
     2
100
AcDbLine
 10
-415.499999999989
 20
-212.0000000000049
 30
0.0
 11
-410.4999999999882
 21
-212.0000000000049
 31
0.0
  0
LINE
  5
19E
330
71
100
AcDbEntity
  8
1
  6
Continuous
 62
     2
100
AcDbLine
 10
-415.499999999989
 20
-212.0000000000049
 30
0.0
 11
-415.499999999989
 21
-262.000000000005
 31
0.0
  0
LINE
  5
19F
330
71
100
AcDbEntity
  8
1
  6
Continuous
 62
     6
100
AcDbLine
 10
-410.4999999999882
 20
-212.0000000000049
 30
0.0
 11
-410.499999999988
 21
-262.000000000005
 31
0.0
  0
LINE
  5
1A0
330
71
100
AcDbEntity
  8
1
  6
Continuous
 62
     2
100
AcDbLine
 10
-366.9999999999899
 20
-267.0000000000051
 30
0.0
 11
-366.9999999999899
 21
-262.000000000005
 31
0.0
  0
LINE
  5
1A1
330
71
100
AcDbEntity
  8
1
  6
Continuous
 62
     2
100
AcDbLine
 10
-366.9999999999899
 20
-267.0000000000051
 30
0.0
 11
-316.9999999999901
 21
-267.0000000000051
 31
0.0
  0
LINE
  5
1A2
330
71
100
AcDbEntity
  8
1
  6
Continuous
 62
     2
100
AcDbLine
 10
-316.9999999999901
 20
-267.0000000000051
 30
0.0
 11
-316.9999999999901
 21
-262.000000000005
 31
0.0
  0
LINE
  5
1A3
330
71
100
AcDbEntity
  8
1
  6
Continuous
 62
     2
100
AcDbLine
 10
-316.9999999999901
 20
-267.0000000000051
 30
0.0
 11
-266.9999999999899
 21
-267.0000000000051
 31
0.0
  0
LINE
  5
1A4
330
71
100
AcDbEntity
  8
1
  6
Continuous
 62
     2
100
AcDbLine
 10
-266.9999999999899
 20
-267.0000000000051
 30
0.0
 11
-266.9999999999899
 21
-262.000000000005
 31
0.0
  0
LINE
  5
1A5
330
71
100
AcDbEntity
  8
1
  6
Continuous
 62
     2
100
AcDbLine
 10
-266.9999999999899
 20
-267.0000000000051
 30
0.0
 11
-216.9999999999899
 21
-267.0000000000051
 31
0.0
  0
LINE
  5
1A6
330
71
100
AcDbEntity
  8
1
  6
Continuous
 62
     2
100
AcDbLine
 10
-216.9999999999899
 20
-267.0000000000051
 30
0.0
 11
-216.9999999999899
 21
-262.000000000005
 31
0.0
  0
LINE
  5
1A7
330
71
100
AcDbEntity
  8
1
  6
Continuous
 62
     2
100
AcDbLine
 10
-166.9999999999899
 20
-267.0000000000051
 30
0.0
 11
-166.9999999999899
 21
-262.000000000005
 31
0.0
  0
LINE
  5
1A8
330
71
100
AcDbEntity
  8
1
  6
Continuous
 62
     2
100
AcDbLine
 10
-166.9999999999899
 20
-267.0000000000051
 30
0.0
 11
-216.9999999999899
 21
-267.0000000000051
 31
0.0
  0
LINE
  5
1A9
330
71
100
AcDbEntity
  8
1
  6
Continuous
 62
     2
100
AcDbLine
 10
-410.499999999988
 20
-262.000000000005
 30
0.0
 11
-410.499999999988
 21
-267.0000000000051
 31
0.0
  0
LINE
  5
1AA
330
71
100
AcDbEntity
  8
1
  6
Continuous
 62
     2
100
AcDbLine
 10
-410.499999999988
 20
-267.0000000000051
 30
0.0
 11
-366.9999999999899
 21
-267.0000000000051
 31
0.0
  0
LINE
  5
1AB
330
71
100
AcDbEntity
  8
1
  6
Continuous
 62
     2
100
AcDbLine
 10
-410.499999999988
 20
-262.000000000005
 30
0.0
 11
-415.499999999989
 21
-262.000000000005
 31
0.0
  0
LINE
  5
1AC
330
71
100
AcDbEntity
  8
1
  6
Continuous
 62
     2
100
AcDbLine
 10
-415.499999999989
 20
-262.000000000005
 30
0.0
 11
-415.499999999989
 21
-267.0000000000051
 31
0.0
  0
LINE
  5
1AD
330
71
100
AcDbEntity
  8
1
  6
Continuous
 62
     6
100
AcDbLine
 10
-123.4999999999899
 20
-262.000000000005
 30
0.0
 11
-123.4999999999886
 21
-253.500000000005
 31
0.0
  0
LINE
  5
1AE
330
71
100
AcDbEntity
  8
1
  6
Continuous
 62
     6
100
AcDbLine
 10
-216.64480452674
 20
-262.0000000000051
 30
0.0
 11
-166.9999999999899
 21
-262.000000000005
 31
0.0
  0
LINE
  5
1AF
330
71
100
AcDbEntity
  8
1
  6
Continuous
 62
     6
100
AcDbLine
 10
-369.2999999999901
 20
-262.0000000000051
 30
0.0
 11
-366.9999999999899
 21
-262.000000000005
 31
0.0
  0
LINE
  5
1B0
330
71
100
AcDbEntity
  8
1
  6
Continuous
 62
     6
100
AcDbLine
 10
-266.9999999999899
 20
-262.000000000005
 30
0.0
 11
-316.9999999999901
 21
-262.000000000005
 31
0.0
  0
LINE
  5
1B1
330
71
100
AcDbEntity
  8
1
  6
Continuous
 62
     7
100
AcDbLine
 10
-253.0448045267399
 20
-245.000000000005
 30
0.0
 11
-253.0448045267399
 21
-257.7500000000051
 31
0.0
  0
LINE
  5
1B2
330
71
100
AcDbEntity
  8
1
  6
Continuous
 62
     7
100
AcDbLine
 10
-216.64480452674
 20
-245.000000000005
 30
0.0
 11
-216.64480452674
 21
-257.750000000005
 31
0.0
  0
LINE
  5
1B3
330
71
100
AcDbEntity
  8
1
  6
Continuous
 62
     6
100
AcDbLine
 10
-369.2999999999901
 20
-262.0000000000051
 30
0.0
 11
-375.4999999999881
 21
-262.000000000005
 31
0.0
  0
LINE
  5
1B4
330
71
100
AcDbEntity
  8
1
  6
Continuous
 62
     6
100
AcDbLine
 10
-216.64480452674
 20
-262.0000000000051
 30
0.0
 11
-216.9999999999899
 21
-262.000000000005
 31
0.0
  0
LINE
  5
1B5
330
71
100
AcDbEntity
  8
1
  6
Continuous
 62
     6
100
AcDbLine
 10
-123.4999999999882
 20
-245.000000000005
 30
0.0
 11
-123.4999999999886
 21
-253.500000000005
 31
0.0
  0
LINE
  5
1B6
330
71
100
AcDbEntity
  8
1
  6
Continuous
 62
     6
100
AcDbLine
 10
-375.4999999999881
 20
-262.000000000005
 30
0.0
 11
-410.499999999988
 21
-262.000000000005
 31
0.0
  0
LINE
  5
1B7
330
71
100
AcDbEntity
  8
1
  6
Continuous
 62
     2
100
AcDbLine
 10
-248.8081496401773
 20
-239.6250000000051
 30
0.0
 11
-243.8081496401773
 21
-238.3750000000051
 31
0.0
  0
LINE
  5
1B8
330
71
100
AcDbEntity
  8
1
  6
Continuous
 62
     2
100
AcDbLine
 10
-248.8081496401773
 20
-242.1250000000051
 30
0.0
 11
-248.8081496401773
 21
-239.6250000000051
 31
0.0
  0
LINE
  5
1B9
330
71
100
AcDbEntity
  8
1
  6
Continuous
 62
     2
100
AcDbLine
 10
-243.8081496401773
 20
-243.3750000000051
 30
0.0
 11
-248.8081496401773
 21
-242.1250000000051
 31
0.0
  0
LINE
  5
1BA
330
71
100
AcDbEntity
  8
1
  6
Continuous
 62
     2
100
AcDbLine
 10
-243.8081496401773
 20
-238.3750000000051
 30
0.0
 11
-243.8081496401773
 21
-243.3750000000051
 31
0.0
  0
LINE
  5
1BB
330
71
100
AcDbEntity
  8
1
  6
Continuous
 62
     7
100
AcDbLine
 10
-253.0448045267399
 20
-257.7500000000051
 30
0.0
 11
-234.8448045267399
 21
-257.750000000005
 31
0.0
  0
LINE
  5
1BC
330
71
100
AcDbEntity
  8
1
  6
Continuous
 62
     7
100
AcDbLine
 10
-253.0448045267399
 20
-257.7500000000051
 30
0.0
 11
-253.0448045267399
 21
-262.0000000000051
 31
0.0
  0
LINE
  5
1BD
330
71
100
AcDbEntity
  8
1
  6
Continuous
 62
     7
100
AcDbLine
 10
-216.64480452674
 20
-257.750000000005
 30
0.0
 11
-216.64480452674
 21
-262.0000000000051
 31
0.0
  0
LINE
  5
1BE
330
71
100
AcDbEntity
  8
1
  6
Continuous
 62
     7
100
AcDbLine
 10
-234.8448045267399
 20
-257.750000000005
 30
0.0
 11
-234.8448045267399
 21
-262.000000000005
 31
0.0
  0
LINE
  5
1BF
330
71
100
AcDbEntity
  8
1
  6
Continuous
 62
     6
100
AcDbLine
 10
-234.8448045267399
 20
-262.000000000005
 30
0.0
 11
-253.0448045267399
 21
-262.0000000000051
 31
0.0
  0
LINE
  5
1C0
330
71
100
AcDbEntity
  8
1
  6
Continuous
 62
     7
100
AcDbLine
 10
-234.8448045267399
 20
-257.750000000005
 30
0.0
 11
-216.64480452674
 21
-257.750000000005
 31
0.0
  0
LINE
  5
1C1
330
71
100
AcDbEntity
  8
1
  6
Continuous
 62
     6
100
AcDbLine
 10
-253.0448045267399
 20
-236.500000000005
 30
0.0
 11
-123.4999999999882
 21
-236.500000000005
 31
0.0
  0
ARC
  5
1C2
102
{ACAD_REACTORS
330
22A
330
22B
102
}
330
71
100
AcDbEntity
  8
0
  6
Continuous
 62
     2
100
AcDbCircle
 10
-237.6531565277799
 20
-253.1795952380834
 30
0.0
 40
0.7717997786796947
100
AcDbArc
 50
321.8795802028417
 51
38.12041979715329
  0
ARC
  5
1C3
102
{ACAD_REACTORS
330
22A
330
22B
102
}
330
71
100
AcDbEntity
  8
0
  6
Continuous
 62
     2
100
AcDbCircle
 10
-237.4534164914335
 20
-253.3363264162034
 30
0.0
 40
0.5179085730137354
100
AcDbArc
 50
218.1204197971931
 51
321.879580202801
  0
ARC
  5
1C4
102
{ACAD_REACTORS
330
22A
330
22B
102
}
330
71
100
AcDbEntity
  8
0
  6
Continuous
 62
     2
100
AcDbCircle
 10
-237.2536764550874
 20
-253.1795952380834
 30
0.0
 40
0.7717997786794633
100
AcDbArc
 50
141.8795802028363
 51
218.1204197971687
  0
ARC
  5
1C5
102
{ACAD_REACTORS
330
22A
330
22B
102
}
330
71
100
AcDbEntity
  8
0
  6
Continuous
 62
     2
100
AcDbCircle
 10
-237.4534164914335
 20
-253.0228640599629
 30
0.0
 40
0.5179085730132998
100
AcDbArc
 50
38.12041979714704
 51
141.8795802028588
  0
ARC
  5
1C6
102
{ACAD_REACTORS
330
222
330
223
102
}
330
71
100
AcDbEntity
  8
0
  6
Continuous
 62
     2
100
AcDbCircle
 10
-240.5154306269974
 20
-254.5900616034916
 30
0.0
 40
2.227384008973478
100
AcDbArc
 50
58.06909105004071
 51
71.55192388186722
  0
ARC
  5
1C7
102
{ACAD_REACTORS
330
222
330
223
102
}
330
71
100
AcDbEntity
  8
0
  6
Continuous
 62
     2
100
AcDbCircle
 10
-240.2537029260386
 20
-252.9745238087444
 30
0.0
 40
0.5115800601948779
100
AcDbArc
 50
113.3722778881992
 51
151.4785267423044
  0
ARC
  5
1C8
102
{ACAD_REACTORS
330
222
330
223
102
}
330
71
100
AcDbEntity
  8
0
  6
Continuous
 62
     2
100
AcDbCircle
 10
-239.8763456679583
 20
-253.1795952380834
 30
0.0
 40
0.9410597353332545
100
AcDbArc
 50
151.4785267422669
 51
208.5214732577057
  0
ARC
  5
1C9
102
{ACAD_REACTORS
330
222
330
223
102
}
330
71
100
AcDbEntity
  8
0
  6
Continuous
 62
     2
100
AcDbCircle
 10
-240.6733035020903
 20
-249.866914292827
 30
0.0
 40
4.852596863498138
100
AcDbArc
 50
275.1581447696249
 51
285.9799912583529
  0
ARC
  5
1CA
102
{ACAD_REACTORS
330
222
330
223
102
}
330
71
100
AcDbEntity
  8
0
  6
Continuous
 62
     2
100
AcDbCircle
 10
-240.3844474073544
 20
-253.0668048760486
 30
0.0
 40
1.639695123939387
100
AcDbArc
 50
195.0618917770896
 51
275.1581447696395
  0
ARC
  5
1CB
102
{ACAD_REACTORS
330
222
330
223
102
}
330
71
100
AcDbEntity
  8
0
  6
Continuous
 62
     2
100
AcDbCircle
 10
-240.8035752508172
 20
-253.1795952380834
 30
0.0
 40
1.205656168390944
100
AcDbArc
 50
164.9381082228765
 51
195.0618917770948
  0
ARC
  5
1CC
102
{ACAD_REACTORS
330
222
330
223
102
}
330
71
100
AcDbEntity
  8
0
  6
Continuous
 62
     2
100
AcDbCircle
 10
-240.3844474073544
 20
-253.2923856001183
 30
0.0
 40
1.639695123940507
100
AcDbArc
 50
84.84185523036236
 51
164.9381082228864
  0
ARC
  5
1CD
102
{ACAD_REACTORS
330
226
330
227
102
}
330
71
100
AcDbEntity
  8
0
  6
Continuous
 62
     2
100
AcDbCircle
 10
-245.2144616615163
 20
-252.1457684437291
 30
0.0
 40
0.3157169230765328
100
AcDbArc
 50
115.3740086783519
 51
180.0
  0
ARC
  5
1CE
102
{ACAD_REACTORS
330
226
330
227
102
}
330
71
100
AcDbEntity
  8
0
  6
Continuous
 62
     2
100
AcDbCircle
 10
-245.2144616615163
 20
-249.9274852437929
 30
0.0
 40
0.315716923076792
100
AcDbArc
 50
180.0
 51
244.6259913216482
  0
ARC
  5
1CF
102
{ACAD_REACTORS
330
226
330
227
102
}
330
71
100
AcDbEntity
  8
0
  6
Continuous
 62
     2
100
AcDbCircle
 10
-245.2088455262063
 20
-251.0247849028552
 30
0.0
 40
2.018561131933266
100
AcDbArc
 50
269.8110329575858
 51
90.18896704241416
  0
ARC
  5
1D0
102
{ACAD_REACTORS
330
226
330
227
102
}
330
71
100
AcDbEntity
  8
0
  6
Continuous
 62
     2
100
AcDbCircle
 10
-245.2144616615163
 20
-252.7276198504242
 30
0.0
 40
0.315716923076792
100
AcDbArc
 50
180.0
 51
269.8110329574542
  0
ARC
  5
1D1
102
{ACAD_REACTORS
330
224
330
225
102
}
330
71
100
AcDbEntity
  8
0
  6
Continuous
 62
     2
100
AcDbCircle
 10
-224.1510014467857
 20
-252.9745238087444
 30
0.0
 40
0.5115800601944143
100
AcDbArc
 50
109.3371432194853
 51
151.4785267424225
  0
ARC
  5
1D2
102
{ACAD_REACTORS
330
224
330
225
102
}
330
71
100
AcDbEntity
  8
0
  6
Continuous
 62
     2
100
AcDbCircle
 10
-224.1510014467857
 20
-253.3846666674219
 30
0.0
 40
0.5115800601960215
100
AcDbArc
 50
208.5214732576866
 51
246.6277221118449
  0
ARC
  5
1D3
102
{ACAD_REACTORS
330
224
330
225
102
}
330
71
100
AcDbEntity
  8
0
  6
Continuous
 62
     2
100
AcDbCircle
 10
-224.7008737715631
 20
-253.1795952380834
 30
0.0
 40
1.205656168393002
100
AcDbArc
 50
164.9381082229028
 51
195.0618917770959
  0
ARC
  5
1D4
102
{ACAD_REACTORS
330
224
330
225
102
}
330
71
100
AcDbEntity
  8
0
  6
Continuous
 62
     2
100
AcDbCircle
 10
-224.2817459281015
 20
-253.2923856001183
 30
0.0
 40
1.639695123940214
100
AcDbArc
 50
90.0
 51
164.938108222895
  0
ARC
  5
1D5
102
{ACAD_REACTORS
330
228
330
229
102
}
330
71
100
AcDbEntity
  8
0
  6
Continuous
 62
     2
100
AcDbCircle
 10
-233.7087410208052
 20
-249.8204047619091
 30
0.0
 40
1.526904761905882
100
AcDbArc
 50
90.0
 51
270.0
  0
ARC
  5
1D6
102
{ACAD_REACTORS
330
22C
330
22D
102
}
330
71
100
AcDbEntity
  8
0
  6
Continuous
 62
     2
100
AcDbCircle
 10
-240.451431766031
 20
-249.3094696701144
 30
0.0
 40
0.3528638246711182
100
AcDbArc
 50
270.0
 51
90.0
  0
ARC
  5
1D7
102
{ACAD_REACTORS
330
226
330
227
102
}
330
71
100
AcDbEntity
  8
0
  6
Continuous
 62
     2
100
AcDbCircle
 10
-247.790010348048
 20
-249.321772478638
 30
0.0
 40
0.3157169230761951
100
AcDbArc
 50
90.0
 51
180.0
  0
ARC
  5
1D8
102
{ACAD_REACTORS
330
226
330
227
102
}
330
71
100
AcDbEntity
  8
0
  6
Continuous
 62
     2
100
AcDbCircle
 10
-245.7915926394634
 20
-251.0366268437607
 30
0.0
 40
0.9118975235576147
100
AcDbArc
 50
115.1944106485282
 51
244.8055893514878
  0
ARC
  5
1D9
102
{ACAD_REACTORS
330
226
330
227
102
}
330
71
100
AcDbEntity
  8
0
  6
Continuous
 62
     2
100
AcDbCircle
 10
-246.3141770870384
 20
-252.1474565898235
 30
0.0
 40
0.315716923076593
100
AcDbArc
 50
0.0
 51
64.80558935146027
  0
ARC
  5
1DA
102
{ACAD_REACTORS
330
226
330
227
102
}
330
71
100
AcDbEntity
  8
0
  6
Continuous
 62
     2
100
AcDbCircle
 10
-248.3839050247945
 20
-254.2822553846054
 30
0.0
 40
0.4242446153828041
100
AcDbArc
 50
180.0
 51
270.0
  0
ARC
  5
1DB
102
{ACAD_REACTORS
330
228
330
229
102
}
330
71
100
AcDbEntity
  8
0
  6
Continuous
 62
     2
100
AcDbCircle
 10
-233.49246901064
 20
-249.6636735837886
 30
0.0
 40
0.5179085730135266
100
AcDbArc
 50
38.12041979714334
 51
141.8795802028489
  0
ARC
  5
1DC
102
{ACAD_REACTORS
330
228
330
229
102
}
330
71
100
AcDbEntity
  8
0
  6
Continuous
 62
     2
100
AcDbCircle
 10
-233.2927289742937
 20
-249.8204047619091
 30
0.0
 40
0.7717997786796724
100
AcDbArc
 50
141.8795802028404
 51
218.1204197971562
  0
ARC
  5
1DD
102
{ACAD_REACTORS
330
22A
330
22B
102
}
330
71
100
AcDbEntity
  8
0
  6
Continuous
 62
     2
100
AcDbCircle
 10
-237.4534164914335
 20
-252.6410202277801
 30
0.0
 40
2.065479772208509
100
AcDbArc
 50
242.4518518243402
 51
297.5481481756871
  0
ARC
  5
1DE
102
{ACAD_REACTORS
330
22A
330
22B
102
}
330
71
100
AcDbEntity
  8
0
  6
Continuous
 62
     2
100
AcDbCircle
 10
-237.4534164914335
 20
-253.7181702483862
 30
0.0
 40
2.065479772208568
100
AcDbArc
 50
62.45185182430637
 51
117.5481481756664
  0
ARC
  5
1DF
102
{ACAD_REACTORS
330
22A
330
22B
102
}
330
71
100
AcDbEntity
  8
0
  6
Continuous
 62
     2
100
AcDbCircle
 10
-237.7343563832668
 20
-253.1795952380834
 30
0.0
 40
1.45803408365149
100
AcDbArc
 50
117.5481481756624
 51
242.4518518243375
  0
ARC
  5
1E0
102
{ACAD_REACTORS
330
22A
330
22B
102
}
330
71
100
AcDbEntity
  8
0
  6
Continuous
 62
     2
100
AcDbCircle
 10
-237.1724765996002
 20
-253.1795952380834
 30
0.0
 40
1.458034083652003
100
AcDbArc
 50
297.548148175701
 51
62.45185182429896
  0
ARC
  5
1E1
102
{ACAD_REACTORS
330
228
330
229
102
}
330
71
100
AcDbEntity
  8
0
  6
Continuous
 62
     2
100
AcDbCircle
 10
-233.49246901064
 20
-249.9771359400295
 30
0.0
 40
0.5179085730134372
100
AcDbArc
 50
218.1204197971511
 51
321.8795802028566
  0
ARC
  5
1E2
102
{ACAD_REACTORS
330
228
330
229
102
}
330
71
100
AcDbEntity
  8
0
  6
Continuous
 62
     2
100
AcDbCircle
 10
-233.6922090469862
 20
-249.8204047619091
 30
0.0
 40
0.7717997786796373
100
AcDbArc
 50
321.8795802028437
 51
38.12041979715956
  0
ARC
  5
1E3
102
{ACAD_REACTORS
330
226
330
227
102
}
330
71
100
AcDbEntity
  8
0
  6
Continuous
 62
     2
100
AcDbCircle
 10
-242.9105929340777
 20
-254.2822553846054
 30
0.0
 40
0.4242446153832873
100
AcDbArc
 50
270.0
 51
0.0
  0
ARC
  5
1E4
102
{ACAD_REACTORS
330
226
330
227
102
}
330
71
100
AcDbEntity
  8
0
  6
Continuous
 62
     2
100
AcDbCircle
 10
-242.9105929340777
 20
-248.7177446154052
 30
0.0
 40
0.4242446153838841
100
AcDbArc
 50
0.0
 51
90.0
  0
ARC
  5
1E5
102
{ACAD_REACTORS
330
226
330
227
102
}
330
71
100
AcDbEntity
  8
0
  6
Continuous
 62
     2
100
AcDbCircle
 10
-248.3839050247945
 20
-248.7177446154052
 30
0.0
 40
0.4242446153837989
100
AcDbArc
 50
90.0
 51
180.0
  0
ARC
  5
1E6
102
{ACAD_REACTORS
330
226
330
227
102
}
330
71
100
AcDbEntity
  8
0
  6
Continuous
 62
     2
100
AcDbCircle
 10
-246.3141770870384
 20
-253.6782275213551
 30
0.0
 40
0.3157169230767067
100
AcDbArc
 50
270.0
 51
0.0
  0
ARC
  5
1E7
102
{ACAD_REACTORS
330
226
330
227
102
}
330
71
100
AcDbEntity
  8
0
  6
Continuous
 62
     2
100
AcDbCircle
 10
-246.3141770870384
 20
-249.9257970976985
 30
0.0
 40
0.3157169230761203
100
AcDbArc
 50
295.1944106485397
 51
0.0
  0
ARC
  5
1E8
102
{ACAD_REACTORS
330
226
330
227
102
}
330
71
100
AcDbEntity
  8
0
  6
Continuous
 62
     2
100
AcDbCircle
 10
-246.3141770870384
 20
-249.321772478638
 30
0.0
 40
0.315716923076593
100
AcDbArc
 50
0.0
 51
90.0
  0
ARC
  5
1E9
102
{ACAD_REACTORS
330
226
330
227
102
}
330
71
100
AcDbEntity
  8
0
  6
Continuous
 62
     2
100
AcDbCircle
 10
-247.790010348048
 20
-253.6782275213551
 30
0.0
 40
0.3157169230756836
100
AcDbArc
 50
180.0
 51
270.0
  0
ARC
  5
1EA
102
{ACAD_REACTORS
330
22C
330
22D
102
}
330
71
100
AcDbEntity
  8
0
  6
Continuous
 62
     2
100
AcDbCircle
 10
-240.0099592397926
 20
-249.3488656413369
 30
0.0
 40
1.055365641333708
100
AcDbArc
 50
270.0
 51
90.0
  0
ARC
  5
1EB
102
{ACAD_REACTORS
330
224
330
225
102
}
330
71
100
AcDbEntity
  8
0
  6
Continuous
 62
     2
100
AcDbCircle
 10
-224.2817459281015
 20
-253.0668048760486
 30
0.0
 40
1.639695123940448
100
AcDbArc
 50
195.0618917771012
 51
275.1581447696762
  0
ARC
  5
1EC
102
{ACAD_REACTORS
330
224
330
225
102
}
330
71
100
AcDbEntity
  8
0
  6
Continuous
 62
     2
100
AcDbCircle
 10
-224.5706020228373
 20
-249.866914292827
 30
0.0
 40
4.852596863498825
100
AcDbArc
 50
275.1581447696364
 51
285.9799912583387
  0
ARC
  5
1ED
102
{ACAD_REACTORS
330
224
330
225
102
}
330
71
100
AcDbEntity
  8
0
  6
Continuous
 62
     2
100
AcDbCircle
 10
-224.4127291477445
 20
-251.7691288726753
 30
0.0
 40
2.227384008972746
100
AcDbArc
 50
288.4480761181335
 51
301.9309089499397
  0
ARC
  5
1EE
102
{ACAD_REACTORS
330
224
330
225
102
}
330
71
100
AcDbEntity
  8
0
  6
Continuous
 62
     2
100
AcDbCircle
 10
-223.9945614140826
 20
-253.0226746487119
 30
0.0
 40
0.9059297849852801
100
AcDbArc
 50
246.6277221118183
 51
288.4480761180817
  0
ARC
  5
1EF
102
{ACAD_REACTORS
330
224
330
225
102
}
330
71
100
AcDbEntity
  8
0
  6
Continuous
 62
     2
100
AcDbCircle
 10
-223.7736441887043
 20
-253.1795952380834
 30
0.0
 40
0.9410597353348924
100
AcDbArc
 50
151.4785267423624
 51
208.5214732576695
  0
ARC
  5
1F0
102
{ACAD_REACTORS
330
224
330
225
102
}
330
71
100
AcDbEntity
  8
0
  6
Continuous
 62
     2
100
AcDbCircle
 10
-224.004331448682
 20
-253.3924787891273
 30
0.0
 40
0.9545230068260935
100
AcDbArc
 50
90.0
 51
109.337143219432
  0
ARC
  5
1F1
102
{ACAD_REACTORS
330
226
330
227
102
}
330
71
100
AcDbEntity
  8
0
  6
Continuous
 62
     2
100
AcDbCircle
 10
-245.2144616615163
 20
-249.3219499552861
 30
0.0
 40
0.3157169230760711
100
AcDbArc
 50
90.18896704254594
 51
180.0
  0
ARC
  5
1F2
102
{ACAD_REACTORS
330
226
330
227
102
}
330
71
100
AcDbEntity
  8
0
  6
Continuous
 62
     2
100
AcDbCircle
 10
-245.7405043596042
 20
-251.0366268437607
 30
0.0
 40
0.911848150144459
100
AcDbArc
 50
295.3740086781764
 51
64.62599132180748
  0
ARC
  5
1F3
102
{ACAD_REACTORS
330
222
330
223
102
}
330
71
100
AcDbEntity
  8
0
  6
Continuous
 62
     2
100
AcDbCircle
 10
-240.5154306269974
 20
-251.7691288726747
 30
0.0
 40
2.227384008972737
100
AcDbArc
 50
288.4480761181328
 51
301.9309089499593
  0
ARC
  5
1F4
102
{ACAD_REACTORS
330
222
330
223
102
}
330
71
100
AcDbEntity
  8
0
  6
Continuous
 62
     2
100
AcDbCircle
 10
-240.0972628933366
 20
-253.0226746487119
 30
0.0
 40
0.9059297849849192
100
AcDbArc
 50
246.627722111871
 51
288.4480761181584
  0
ARC
  5
1F5
102
{ACAD_REACTORS
330
222
330
223
102
}
330
71
100
AcDbEntity
  8
0
  6
Continuous
 62
     2
100
AcDbCircle
 10
-240.2537029260386
 20
-253.3846666674219
 30
0.0
 40
0.5115800601948034
100
AcDbArc
 50
208.5214732576956
 51
246.6277221118274
  0
ARC
  5
1F6
102
{ACAD_REACTORS
330
222
330
223
102
}
330
71
100
AcDbEntity
  8
0
  6
Continuous
 62
     2
100
AcDbCircle
 10
-240.0972628933366
 20
-253.336515827455
 30
0.0
 40
0.9059297849853228
100
AcDbArc
 50
71.55192388185348
 51
113.372277888129
  0
ARC
  5
1F7
102
{ACAD_REACTORS
330
222
330
223
102
}
330
71
100
AcDbEntity
  8
0
  6
Continuous
 62
     2
100
AcDbCircle
 10
-240.6733035020903
 20
-256.4922761833393
 30
0.0
 40
4.852596863498068
100
AcDbArc
 50
74.02000874164739
 51
84.84185523037506
  0
CIRCLE
  5
1F8
102
{ACAD_REACTORS
330
226
330
227
102
}
330
71
100
AcDbEntity
  8
0
  6
Continuous
 62
     2
100
AcDbCircle
 10
-245.764319374277
 20
-251.0366268437607
 30
0.0
 40
0.4709789327785074
  0
CIRCLE
  5
1F9
330
71
100
AcDbEntity
  8
1
  6
Continuous
 62
     2
100
AcDbCircle
 10
-240.3081496401773
 20
-240.8750000000051
 30
0.0
 40
1.249999999999915
  0
CIRCLE
  5
1FA
330
71
100
AcDbEntity
  8
1
  6
Continuous
 62
     2
100
AcDbCircle
 10
-240.3081496401773
 20
-240.8750000000051
 30
0.0
 40
2.5
  0
TEXT
  5
1FB
330
71
100
AcDbEntity
  8
1
 62
     7
100
AcDbText
 10
-197.6712568047261
 20
-243.7000000000051
 30
0.0
 40
2.5
  1
/
 41
0.9
  7
CONVERTER_11
100
AcDbText
  0
TEXT
  5
1FD
330
71
100
AcDbEntity
  8
1
 62
     7
100
AcDbText
 10
-195.5148923076841
 20
-243.7000000000051
 30
0.0
 40
2.5
  1
01
 41
0.81
  7
CONVERTER_12
100
AcDbText
  0
TEXT
  5
1FE
330
71
100
AcDbEntity
  8
1
 62
     3
100
AcDbText
 10
-157.918408281667
 20
-243.7000000000051
 30
0.0
 40
2.5
  1
28.03.2018
 41
0.81
  7
CONVERTER_12
100
AcDbText
  0
MTEXT
  5
1FF
330
71
100
AcDbEntity
  8
1
 62
     2
100
AcDbMText
 10
-157.918408281667
 20
-237.5000000000051
 30
0.0
 40
1.8
 41
0.0
 71
     1
 72
     1
  1
date
  7
CONVERTER_11
 73
     1
 44
1.32052821128451
  0
MTEXT
  5
200
330
71
100
AcDbEntity
  8
1
 62
     2
100
AcDbMText
 10
-187.7448045267399
 20
-246.0000000000051
 30
0.0
 40
1.8
 41
0.0
 71
     1
 72
     1
  1
document-type
  7
CONVERTER_11
 73
     1
 44
1.20048019207683
  0
TEXT
  5
201
330
71
100
AcDbEntity
  8
1
 62
     3
100
AcDbText
 10
-187.7448045267399
 20
-252.2000000000051
 30
0.0
 40
2.5
  1
TECDOC 2D_Productdrawing
 41
0.81
  7
CONVERTER_12
100
AcDbText
  0
MTEXT
  5
203
330
71
100
AcDbEntity
  8
1
 62
     2
100
AcDbMText
 10
-215.5448045267399
 20
-237.500000000005
 30
0.0
 40
1.8
 41
0.0
 71
     1
 72
     1
  1
document-No. / RI
  7
CONVERTER_13
 73
     1
 44
1.32052821128451
  0
TEXT
  5
204
330
71
100
AcDbEntity
  8
1
 62
     7
100
AcDbText
 10
-215.5448045267399
 20
-243.7000000000051
 30
0.0
 40
2.5
  1
01097586
 41
0.81
  7
CONVERTER_12
100
AcDbText
  0
MTEXT
  5
206
330
71
100
AcDbEntity
  8
1
 62
     3
100
AcDbMText
 10
-127.9592041408276
 20
-243.7000000000049
 30
0.0
 40
2.5
 41
0.0
 71
     8
 72
     1
  1
5:1
  7
CONVERTER_14
 73
     1
 44
1.32052821128451
  0
MTEXT
  5
207
330
71
100
AcDbEntity
  8
1
 62
     2
100
AcDbMText
 10
-131.3184082816672
 20
-237.500000000005
 30
0.0
 40
1.8
 41
0.0
 71
     1
 72
     1
  1
scale
  7
CONVERTER_11
 73
     1
 44
1.20048019207683
  0
MTEXT
  5
208
330
71
100
AcDbEntity
  8
1
 62
     2
100
AcDbMText
 10
-215.5448045267399
 20
-246.000000000005
 30
0.0
 40
1.8
 41
0.0
 71
     1
 72
     1
  1
ident.-No.
  7
CONVERTER_11
 73
     1
 44
1.20048019207683
  0
TEXT
  5
209
330
71
100
AcDbEntity
  8
1
 62
     7
100
AcDbText
 10
-215.1448045267402
 20
-252.2000000000051
 30
0.0
 40
2.5
  1
0820277
 41
0.81
  7
CONVERTER_12
100
AcDbText
  0
MTEXT
  5
20A
330
71
100
AcDbEntity
  8
1
 62
     2
100
AcDbMText
 10
-287.4828192517874
 20
-249.2500000000051
 30
0.0
 40
2.0
 41
0.0
 71
     5
 72
     1
  1
General Information\P- Simplified representation\P- Document excluded from change process\P- Linear dimensions [mm]
  7
CONVERTER_11
 73
     1
 44
1.20048019207683
  0
MTEXT
  5
20B
330
71
100
AcDbEntity
  8
1
 62
     7
100
AcDbMText
 10
-120.9999999999909
 20
-187.0000000000031
 30
0.0
 40
3.5
 41
0.0
 71
     5
 72
     1
  1
C
  7
CONVERTER_11
 73
     1
 44
1.20048019207683
  0
MTEXT
  5
20C
330
71
100
AcDbEntity
  8
1
 62
     7
100
AcDbMText
 10
-120.9999999999909
 20
-84.500000000005
 30
0.0
 40
3.5
 41
0.0
 71
     5
 72
     1
  1
A
  7
CONVERTER_11
 73
     1
 44
1.20048019207683
  0
MTEXT
  5
20D
330
71
100
AcDbEntity
  8
1
 62
     7
100
AcDbMText
 10
-120.9999999999909
 20
-137.0000000000031
 30
0.0
 40
3.5
 41
0.0
 71
     5
 72
     1
  1
B
  7
CONVERTER_11
 73
     1
 44
1.20048019207683
  0
MTEXT
  5
20E
330
71
100
AcDbEntity
  8
1
 62
     7
100
AcDbMText
 10
-120.9999999999909
 20
-239.500000000005
 30
0.0
 40
3.5
 41
0.0
 71
     5
 72
     1
  1
D
  7
CONVERTER_11
 73
     1
 44
1.20048019207683
  0
MTEXT
  5
20F
330
71
100
AcDbEntity
  8
1
 62
     7
100
AcDbMText
 10
-391.2499999999895
 20
-264.5000000000051
 30
0.0
 40
3.5
 41
0.0
 71
     5
 72
     1
  1
1
  7
CONVERTER_11
 73
     1
 44
1.20048019207683
  0
MTEXT
  5
210
330
71
100
AcDbEntity
  8
1
 62
     7
100
AcDbMText
 10
-341.9999999999899
 20
-264.5000000000051
 30
0.0
 40
3.5
 41
0.0
 71
     5
 72
     1
  1
2
  7
CONVERTER_11
 73
     1
 44
1.20048019207683
  0
MTEXT
  5
211
330
71
100
AcDbEntity
  8
1
 62
     7
100
AcDbMText
 10
-291.9999999999899
 20
-264.5000000000051
 30
0.0
 40
3.5
 41
0.0
 71
     5
 72
     1
  1
3
  7
CONVERTER_11
 73
     1
 44
1.20048019207683
  0
MTEXT
  5
212
330
71
100
AcDbEntity
  8
1
 62
     7
100
AcDbMText
 10
-241.99999999999
 20
-264.5000000000051
 30
0.0
 40
3.5
 41
0.0
 71
     5
 72
     1
  1
4
  7
CONVERTER_11
 73
     1
 44
1.20048019207683
  0
MTEXT
  5
213
330
71
100
AcDbEntity
  8
1
 62
     7
100
AcDbMText
 10
-191.9999999999899
 20
-264.5000000000051
 30
0.0
 40
3.5
 41
0.0
 71
     5
 72
     1
  1
5
  7
CONVERTER_11
 73
     1
 44
1.20048019207683
  0
MTEXT
  5
214
330
71
100
AcDbEntity
  8
1
 62
     7
100
AcDbMText
 10
-142.7499999999907
 20
-264.5000000000051
 30
0.0
 40
3.5
 41
0.0
 71
     5
 72
     1
  1
6
  7
CONVERTER_11
 73
     1
 44
1.20048019207683
  0
MTEXT
  5
215
330
71
100
AcDbEntity
  8
1
 62
     7
100
AcDbMText
 10
-412.999999999989
 20
-84.500000000005
 30
0.0
 40
3.5
 41
0.0
 71
     5
 72
     1
  1
A
  7
CONVERTER_11
 73
     1
 44
1.20048019207683
  0
MTEXT
  5
216
330
71
100
AcDbEntity
  8
1
 62
     7
100
AcDbMText
 10
-412.999999999989
 20
-137.000000000005
 30
0.0
 40
3.5
 41
0.0
 71
     5
 72
     1
  1
B
  7
CONVERTER_11
 73
     1
 44
1.20048019207683
  0
MTEXT
  5
217
330
71
100
AcDbEntity
  8
1
 62
     7
100
AcDbMText
 10
-412.999999999989
 20
-187.000000000005
 30
0.0
 40
3.5
 41
0.0
 71
     5
 72
     1
  1
C
  7
CONVERTER_11
 73
     1
 44
1.20048019207683
  0
MTEXT
  5
218
330
71
100
AcDbEntity
  8
1
 62
     7
100
AcDbMText
 10
-412.999999999989
 20
-239.500000000005
 30
0.0
 40
3.5
 41
0.0
 71
     5
 72
     1
  1
D
  7
CONVERTER_11
 73
     1
 44
1.20048019207683
  0
MTEXT
  5
219
330
71
100
AcDbEntity
  8
1
 62
     3
100
AcDbMText
 10
-226.84480452674
 20
-240.875000000005
 30
0.0
 40
2.5
 41
0.0
 71
     5
 72
     1
  1
DIN A4
  7
CONVERTER_11
 73
     1
 44
1.20048019207683
  0
MTEXT
  5
21A
330
71
100
AcDbEntity
  8
1
 62
     2
100
AcDbMText
 10
-215.64480452674
 20
-254.500000000005
 30
0.0
 40
1.8
 41
0.0
 71
     1
 72
     1
  1
description
  7
CONVERTER_11
 73
     1
 44
1.20048019207683
  0
MTEXT
  5
21B
330
71
100
AcDbEntity
  8
1
 62
     7
100
AcDbMText
 10
-170.0724022633644
 20
-258.7500000000048
 30
0.0
 40
3.0
 41
0.0
 71
     5
 72
     1
  1
ZB 14:UNPRINTED
  7
CONVERTER_12
 73
     1
 44
1.20048019207683
  0
TEXT
  5
21C
330
71
100
AcDbEntity
  8
1
 62
     2
100
AcDbText
 10
-228.6094957169264
 20
-260.7500000000051
 30
0.0
 40
1.8
  1
1
 41
0.9
  7
CONVERTER_11
100
AcDbText
  0
TEXT
  5
21D
330
71
100
AcDbEntity
  8
1
 62
     2
100
AcDbText
 10
-243.3985395563979
 20
-260.799248653807
 30
0.0
 40
1.8
  1
1
 41
0.9
  7
CONVERTER_11
100
AcDbText
  0
TEXT
  5
21E
330
71
100
AcDbEntity
  8
1
 62
     2
100
AcDbText
 10
-252.0448045267399
 20
-260.7590172149967
 30
0.0
 40
1.8
  1
page
 41
0.9
  7
CONVERTER_11
100
AcDbText
  0
TEXT
  5
21F
330
71
100
AcDbEntity
  8
1
 62
     2
100
AcDbText
 10
-233.8448045267401
 20
-260.7590172149966
 30
0.0
 40
1.8
  1
of
 41
0.9
  7
CONVERTER_11
100
AcDbText
  0
MTEXT
  5
220
330
71
100
AcDbEntity
  8
1
 62
     3
100
AcDbMText
 10
-227.64182237513
 20
-75.20869184470621
 30
0.0
 40
1.8
 41
0.0
 71
     7
 72
     1
  3
Transfer or duplication of this document as well as the utilisation or\Pcommunication of its content are not permitted unless express consent\Pis granted. Violations give rise to claims for damages. All rights reserved\Pin case of patent, utility mo
  1
del or design patent registrations.
  7
CONVERTER_11
 73
     1
 44
0.99639855942377
  0
MTEXT
  5
221
330
71
100
AcDbEntity
  8
1
 62
     3
100
AcDbMText
 10
-410.4949322139181
 20
-75.20869184470621
 30
0.0
 40
1.8
 41
0.0
 71
     7
 72
     1
  3
Weitergabe sowie Vervielf\U+00e4ltigung dieses Dokuments, Verwertung und \PMitteilung seines Inhalts sind verboten, soweit nicht ausdr\U+00fccklich gestattet. \PZuwiderhandlungen verpflichten zu Schadenersatz. Alle Rechte f\U+00fcr den Fall\Pder Pat
  1
ent-, Gebrauchsmuster- oder Designeintragung vorbehalten.
  7
CONVERTER_11
 73
     1
 44
0.99639855942377
  0
HATCH
  5
222
330
71
100
AcDbEntity
  8
1
  6
Continuous
 62
     2
100
AcDbHatch
 10
0.0
 20
0.0
 30
0.0
210
0.0
220
0.0
230
1.0
  2
_USER
 70
     0
 71
     1
 91
        1
 92
        1
 93
       14
 72
     2
 10
-240.8035752508172
 20
-253.1795952380834
 40
1.205656168390944
 50
164.9381082228765
 51
195.0618917770948
 73
     1
 72
     2
 10
-240.3844474073544
 20
-253.0668048760486
 40
1.639695123939387
 50
195.0618917770896
 51
275.1581447696395
 73
     1
 72
     2
 10
-240.6733035020903
 20
-249.866914292827
 40
4.852596863498138
 50
275.1581447696249
 51
285.9799912583529
 73
     1
 72
     1
 10
-239.3373755849725
 20
-254.5319965986278
 11
-239.3373755849725
 21
-253.6594795918246
 72
     2
 10
-240.5154306269974
 20
-251.7691288726747
 40
2.227384008972737
 50
58.0690910500407
 51
71.55192388186722
 73
     0
 72
     2
 10
-240.0972628933366
 20
-253.0226746487119
 40
0.9059297849849192
 50
71.55192388184153
 51
113.372277888129
 73
     0
 72
     2
 10
-240.2537029260386
 20
-253.3846666674219
 40
0.5115800601948034
 50
113.3722778881726
 51
151.4785267423044
 73
     0
 72
     2
 10
-239.8763456679583
 20
-253.1795952380834
 40
0.9410597353332545
 50
151.4785267422943
 51
208.5214732577331
 73
     0
 72
     2
 10
-240.2537029260386
 20
-252.9745238087444
 40
0.5115800601948779
 50
208.5214732576956
 51
246.6277221118009
 73
     0
 72
     2
 10
-240.0972628933366
 20
-253.336515827455
 40
0.9059297849853228
 50
246.627722111871
 51
288.4480761181465
 73
     0
 72
     2
 10
-240.5154306269974
 20
-254.5900616034916
 40
2.227384008973478
 50
288.4480761181328
 51
301.9309089499592
 73
     0
 72
     1
 10
-239.3373755849725
 20
-252.6997108843417
 11
-239.3373755849725
 21
-251.8271938775384
 72
     2
 10
-240.6733035020903
 20
-256.4922761833393
 40
4.852596863498068
 50
74.02000874164739
 51
84.84185523037506
 73
     1
 72
     2
 10
-240.3844474073544
 20
-253.2923856001183
 40
1.639695123940507
 50
84.84185523036236
 51
164.9381082228864
 73
     1
 97
       14
330
1F7
330
110
330
1C6
330
1F6
330
1C7
330
1C8
330
1F5
330
1F4
330
1F3
330
111
330
1C9
330
1CA
330
1CB
330
1CC
 75
     1
 76
     0
 52
45.0
 41
0.1
 77
     0
 78
     1
 53
45.0
 43
0.0
 44
0.0
 45
-0.0707106781186548
 46
0.0707106781186548
 79
     0
 98
        1
 10
0.0
 20
0.0
  0
HATCH
  5
223
330
71
100
AcDbEntity
  8
1
  6
Continuous
 62
     2
100
AcDbHatch
 10
0.0
 20
0.0
 30
0.0
210
0.0
220
0.0
230
1.0
  2
_USER
 70
     0
 71
     1
 91
        1
 92
        1
 93
       14
 72
     2
 10
-240.8035752508172
 20
-253.1795952380834
 40
1.205656168390944
 50
164.9381082228765
 51
195.0618917770948
 73
     1
 72
     2
 10
-240.3844474073544
 20
-253.0668048760486
 40
1.639695123939387
 50
195.0618917770896
 51
275.1581447696395
 73
     1
 72
     2
 10
-240.6733035020903
 20
-249.866914292827
 40
4.852596863498138
 50
275.1581447696249
 51
285.9799912583529
 73
     1
 72
     1
 10
-239.3373755849725
 20
-254.5319965986278
 11
-239.3373755849725
 21
-253.6594795918246
 72
     2
 10
-240.5154306269974
 20
-251.7691288726747
 40
2.227384008972737
 50
58.0690910500407
 51
71.55192388186722
 73
     0
 72
     2
 10
-240.0972628933366
 20
-253.0226746487119
 40
0.9059297849849192
 50
71.55192388184153
 51
113.372277888129
 73
     0
 72
     2
 10
-240.2537029260386
 20
-253.3846666674219
 40
0.5115800601948034
 50
113.3722778881726
 51
151.4785267423044
 73
     0
 72
     2
 10
-239.8763456679583
 20
-253.1795952380834
 40
0.9410597353332545
 50
151.4785267422943
 51
208.5214732577331
 73
     0
 72
     2
 10
-240.2537029260386
 20
-252.9745238087444
 40
0.5115800601948779
 50
208.5214732576956
 51
246.6277221118009
 73
     0
 72
     2
 10
-240.0972628933366
 20
-253.336515827455
 40
0.9059297849853228
 50
246.627722111871
 51
288.4480761181465
 73
     0
 72
     2
 10
-240.5154306269974
 20
-254.5900616034916
 40
2.227384008973478
 50
288.4480761181328
 51
301.9309089499592
 73
     0
 72
     1
 10
-239.3373755849725
 20
-252.6997108843417
 11
-239.3373755849725
 21
-251.8271938775384
 72
     2
 10
-240.6733035020903
 20
-256.4922761833393
 40
4.852596863498068
 50
74.02000874164739
 51
84.84185523037506
 73
     1
 72
     2
 10
-240.3844474073544
 20
-253.2923856001183
 40
1.639695123940507
 50
84.84185523036236
 51
164.9381082228864
 73
     1
 97
       14
330
1F7
330
110
330
1C6
330
1F6
330
1C7
330
1C8
330
1F5
330
1F4
330
1F3
330
111
330
1C9
330
1CA
330
1CB
330
1CC
 75
     1
 76
     0
 52
45.0
 41
0.1
 77
     0
 78
     1
 53
45.0
 43
0.0
 44
0.0
 45
-0.0707106781186548
 46
0.0707106781186548
 79
     0
 98
        1
 10
0.0
 20
0.0
  0
HATCH
  5
224
330
71
100
AcDbEntity
  8
1
  6
Continuous
 62
     2
100
AcDbHatch
 10
0.0
 20
0.0
 30
0.0
210
0.0
220
0.0
230
1.0
  2
_USER
 70
     0
 71
     1
 91
        1
 92
        1
 93
       18
 72
     2
 10
-224.2817459281015
 20
-253.2923856001183
 40
1.639695123940214
 50
90.0
 51
164.938108222895
 73
     1
 72
     2
 10
-224.7008737715631
 20
-253.1795952380834
 40
1.205656168393002
 50
164.9381082229028
 51
195.0618917770959
 73
     1
 72
     2
 10
-224.2817459281015
 20
-253.0668048760486
 40
1.639695123940448
 50
195.0618917771012
 51
275.1581447696762
 73
     1
 72
     2
 10
-224.5706020228373
 20
-249.866914292827
 40
4.852596863498825
 50
275.1581447696364
 51
285.9799912583387
 73
     1
 72
     1
 10
-223.2346741057206
 20
-254.5319965986284
 11
-223.2346741057206
 21
-253.6594795918251
 72
     2
 10
-224.4127291477445
 20
-251.7691288726753
 40
2.227384008972746
 50
58.06909105006029
 51
71.55192388186651
 73
     0
 72
     2
 10
-223.9945614140826
 20
-253.0226746487119
 40
0.9059297849852801
 50
71.55192388191827
 51
113.3722778881817
 73
     0
 72
     2
 10
-224.1510014467857
 20
-253.3846666674219
 40
0.5115800601960215
 50
113.3722778881551
 51
151.4785267423134
 73
     0
 72
     2
 10
-223.7736441887043
 20
-253.1795952380834
 40
0.9410597353348924
 50
151.4785267423305
 51
208.5214732576376
 73
     0
 72
     2
 10
-224.1510014467857
 20
-252.9745238087444
 40
0.5115800601944143
 50
208.5214732575775
 51
250.6628567805147
 73
     0
 72
     2
 10
-224.004331448682
 20
-253.3924787891273
 40
0.9545230068260935
 50
250.662856780568
 51
270.0
 73
     0
 72
     1
 10
-224.004331448682
 20
-252.4379557823012
 11
-222.9006921491139
 21
-252.4379557823012
 72
     1
 10
-222.9006921491139
 20
-252.4379557823012
 11
-222.9006921491139
 21
-254.7064999999887
 72
     1
 10
-222.9006921491139
 20
-254.7064999999887
 11
-221.7078994469462
 21
-254.7064999999887
 72
     1
 10
-221.7078994469462
 20
-254.7064999999887
 11
-221.7078994469462
 21
-252.4379557823012
 72
     1
 10
-221.7078994469462
 20
-252.4379557823012
 11
-220.8968004094728
 21
-252.4379557823012
 72
     1
 10
-220.8968004094728
 20
-252.4379557823012
 11
-220.8968004094728
 21
-251.6526904761776
 72
     1
 10
-220.8968004094728
 20
-251.6526904761776
 11
-224.2817459281015
 21
-251.6526904761781
 97
       18
330
176
330
175
330
174
330
173
330
178
330
112
330
1F0
330
1D1
330
1EF
330
1D2
330
1EE
330
1ED
330
113
330
1EC
330
1EB
330
1D3
330
1D4
330
177
 75
     1
 76
     0
 52
45.0
 41
0.1
 77
     0
 78
     1
 53
45.0
 43
0.0
 44
0.0
 45
-0.0707106781186548
 46
0.0707106781186548
 79
     0
 98
        1
 10
0.0
 20
0.0
  0
HATCH
  5
225
330
71
100
AcDbEntity
  8
1
  6
Continuous
 62
     2
100
AcDbHatch
 10
0.0
 20
0.0
 30
0.0
210
0.0
220
0.0
230
1.0
  2
_USER
 70
     0
 71
     1
 91
        1
 92
        1
 93
       18
 72
     2
 10
-224.2817459281015
 20
-253.2923856001183
 40
1.639695123940214
 50
90.0
 51
164.938108222895
 73
     1
 72
     2
 10
-224.7008737715631
 20
-253.1795952380834
 40
1.205656168393002
 50
164.9381082229028
 51
195.0618917770959
 73
     1
 72
     2
 10
-224.2817459281015
 20
-253.0668048760486
 40
1.639695123940448
 50
195.0618917771012
 51
275.1581447696762
 73
     1
 72
     2
 10
-224.5706020228373
 20
-249.866914292827
 40
4.852596863498825
 50
275.1581447696364
 51
285.9799912583387
 73
     1
 72
     1
 10
-223.2346741057206
 20
-254.5319965986284
 11
-223.2346741057206
 21
-253.6594795918251
 72
     2
 10
-224.4127291477445
 20
-251.7691288726753
 40
2.227384008972746
 50
58.06909105006029
 51
71.55192388186651
 73
     0
 72
     2
 10
-223.9945614140826
 20
-253.0226746487119
 40
0.9059297849852801
 50
71.55192388191827
 51
113.3722778881817
 73
     0
 72
     2
 10
-224.1510014467857
 20
-253.3846666674219
 40
0.5115800601960215
 50
113.3722778881551
 51
151.4785267423134
 73
     0
 72
     2
 10
-223.7736441887043
 20
-253.1795952380834
 40
0.9410597353348924
 50
151.4785267423305
 51
208.5214732576376
 73
     0
 72
     2
 10
-224.1510014467857
 20
-252.9745238087444
 40
0.5115800601944143
 50
208.5214732575775
 51
250.6628567805147
 73
     0
 72
     2
 10
-224.004331448682
 20
-253.3924787891273
 40
0.9545230068260935
 50
250.662856780568
 51
270.0
 73
     0
 72
     1
 10
-224.004331448682
 20
-252.4379557823012
 11
-222.9006921491139
 21
-252.4379557823012
 72
     1
 10
-222.9006921491139
 20
-252.4379557823012
 11
-222.9006921491139
 21
-254.7064999999887
 72
     1
 10
-222.9006921491139
 20
-254.7064999999887
 11
-221.7078994469462
 21
-254.7064999999887
 72
     1
 10
-221.7078994469462
 20
-254.7064999999887
 11
-221.7078994469462
 21
-252.4379557823012
 72
     1
 10
-221.7078994469462
 20
-252.4379557823012
 11
-220.8968004094728
 21
-252.4379557823012
 72
     1
 10
-220.8968004094728
 20
-252.4379557823012
 11
-220.8968004094728
 21
-251.6526904761776
 72
     1
 10
-220.8968004094728
 20
-251.6526904761776
 11
-224.2817459281015
 21
-251.6526904761781
 97
       18
330
176
330
175
330
174
330
173
330
178
330
112
330
1F0
330
1D1
330
1EF
330
1D2
330
1EE
330
1ED
330
113
330
1EC
330
1EB
330
1D3
330
1D4
330
177
 75
     1
 76
     0
 52
45.0
 41
0.1
 77
     0
 78
     1
 53
45.0
 43
0.0
 44
0.0
 45
-0.0707106781186548
 46
0.0707106781186548
 79
     0
 98
        1
 10
0.0
 20
0.0
  0
HATCH
  5
226
330
71
100
AcDbEntity
  8
1
  6
Continuous
 62
     2
100
AcDbHatch
 10
0.0
 20
0.0
 30
0.0
210
0.0
220
0.0
230
1.0
  2
_USER
 70
     0
 71
     1
 91
        4
 92
        1
 93
        8
 72
     2
 10
-248.3839050247945
 20
-248.7177446154052
 40
0.4242446153837989
 50
90.0
 51
180.0
 73
     1
 72
     1
 10
-248.8081496401773
 20
-248.7177446154052
 11
-248.8081496401773
 21
-254.2822553846054
 72
     2
 10
-248.3839050247945
 20
-254.2822553846054
 40
0.4242446153828041
 50
180.0
 51
270.0
 73
     1
 72
     1
 10
-248.3839050247945
 20
-254.7064999999887
 11
-242.9105929340777
 21
-254.7064999999887
 72
     2
 10
-242.9105929340777
 20
-254.2822553846054
 40
0.4242446153832873
 50
270.0
 51
360.0
 73
     1
 72
     1
 10
-242.4863483186938
 20
-254.2822553846054
 11
-242.4863483186938
 21
-248.7177446154052
 72
     2
 10
-242.9105929340777
 20
-248.7177446154052
 40
0.4242446153838841
 50
0.0
 51
90.0
 73
     1
 72
     1
 10
-242.9105929340777
 20
-248.2935000000214
 11
-248.3839050247945
 21
-248.2935000000214
 97
        8
330
1E4
330
141
330
1E3
330
142
330
1DA
330
13F
330
1E5
330
140
 92
       16
 93
        1
 72
     2
 10
-245.764319374277
 20
-251.0366268437607
 40
0.4709789327785074
 50
0.0
 51
360.0
 73
     1
 97
        1
330
1F8
 92
       16
 93
        8
 72
     2
 10
-245.7405043596042
 20
-251.0366268437607
 40
0.911848150144459
 50
295.3740086781764
 51
424.6259913218075
 73
     1
 72
     2
 10
-245.2144616615163
 20
-249.9274852437929
 40
0.315716923076792
 50
115.3740086783518
 51
180.0
 73
     0
 72
     1
 10
-245.5301785845931
 20
-249.9274852437929
 11
-245.5301785845931
 21
-249.3219499552861
 72
     2
 10
-245.2144616615163
 20
-249.3219499552861
 40
0.3157169230760711
 50
180.0
 51
269.8110329574541
 73
     0
 72
     2
 10
-245.2088455262063
 20
-251.0247849028552
 40
2.018561131933266
 50
269.8110329575858
 51
450.1889670424142
 73
     0
 72
     2
 10
-245.2144616615163
 20
-252.7276198504242
 40
0.315716923076792
 50
90.18896704254585
 51
180.0
 73
     0
 72
     1
 10
-245.5301785845931
 20
-252.7276198504242
 11
-245.5301785845931
 21
-252.1457684437291
 72
     2
 10
-245.2144616615163
 20
-252.1457684437291
 40
0.3157169230765328
 50
180.0
 51
244.6259913216482
 73
     0
 97
        8
330
1F2
330
1CE
330
17A
330
1F1
330
1CF
330
1D0
330
179
330
1CD
 92
       16
 93
       12
 72
     1
 10
-247.790010348048
 20
-253.9939444444318
 11
-246.3141770870384
 21
-253.9939444444318
 72
     2
 10
-246.3141770870384
 20
-253.6782275213551
 40
0.3157169230767067
 50
270.0
 51
360.0
 73
     1
 72
     1
 10
-245.9984601639618
 20
-253.6782275213551
 11
-245.9984601639618
 21
-252.1474565898235
 72
     2
 10
-246.3141770870384
 20
-252.1474565898235
 40
0.315716923076593
 50
0.0
 51
64.80558935146027
 73
     1
 72
     2
 10
-245.7915926394634
 20
-251.0366268437607
 40
0.9118975235576147
 50
115.1944106485122
 51
244.8055893514718
 73
     0
 72
     2
 10
-246.3141770870384
 20
-249.9257970976985
 40
0.3157169230761203
 50
295.1944106485397
 51
360.0
 73
     1
 72
     1
 10
-245.9984601639618
 20
-249.9257970976985
 11
-245.9984601639618
 21
-249.321772478638
 72
     2
 10
-246.3141770870384
 20
-249.321772478638
 40
0.315716923076593
 50
0.0
 51
90.0
 73
     1
 72
     1
 10
-246.3141770870384
 20
-249.0060555555618
 11
-247.790010348048
 21
-249.0060555555618
 72
     2
 10
-247.790010348048
 20
-249.321772478638
 40
0.3157169230761951
 50
90.0
 51
180.0
 73
     1
 72
     1
 10
-248.1057272711237
 20
-249.321772478638
 11
-248.1057272711237
 21
-253.6782275213551
 72
     2
 10
-247.790010348048
 20
-253.6782275213551
 40
0.3157169230756836
 50
180.0
 51
270.0
 73
     1
 97
       12
330
146
330
1D7
330
145
330
1E8
330
144
330
1E7
330
1D8
330
1D9
330
143
330
1E6
330
13E
330
1E9
 75
     1
 76
     0
 52
45.0
 41
0.1
 77
     0
 78
     1
 53
45.0
 43
0.0
 44
0.0
 45
-0.0707106781186548
 46
0.0707106781186548
 79
     0
 98
        1
 10
0.0
 20
0.0
  0
HATCH
  5
227
330
71
100
AcDbEntity
  8
1
  6
Continuous
 62
     2
100
AcDbHatch
 10
0.0
 20
0.0
 30
0.0
210
0.0
220
0.0
230
1.0
  2
_USER
 70
     0
 71
     1
 91
        4
 92
        1
 93
        8
 72
     2
 10
-248.3839050247945
 20
-248.7177446154052
 40
0.4242446153837989
 50
90.0
 51
180.0
 73
     1
 72
     1
 10
-248.8081496401773
 20
-248.7177446154052
 11
-248.8081496401773
 21
-254.2822553846054
 72
     2
 10
-248.3839050247945
 20
-254.2822553846054
 40
0.4242446153828041
 50
180.0
 51
270.0
 73
     1
 72
     1
 10
-248.3839050247945
 20
-254.7064999999887
 11
-242.9105929340777
 21
-254.7064999999887
 72
     2
 10
-242.9105929340777
 20
-254.2822553846054
 40
0.4242446153832873
 50
270.0
 51
360.0
 73
     1
 72
     1
 10
-242.4863483186938
 20
-254.2822553846054
 11
-242.4863483186938
 21
-248.7177446154052
 72
     2
 10
-242.9105929340777
 20
-248.7177446154052
 40
0.4242446153838841
 50
0.0
 51
90.0
 73
     1
 72
     1
 10
-242.9105929340777
 20
-248.2935000000214
 11
-248.3839050247945
 21
-248.2935000000214
 97
        8
330
1E4
330
141
330
1E3
330
142
330
1DA
330
13F
330
1E5
330
140
 92
       16
 93
        1
 72
     2
 10
-245.764319374277
 20
-251.0366268437607
 40
0.4709789327785074
 50
0.0
 51
360.0
 73
     1
 97
        1
330
1F8
 92
       16
 93
        8
 72
     2
 10
-245.7405043596042
 20
-251.0366268437607
 40
0.911848150144459
 50
295.3740086781764
 51
424.6259913218075
 73
     1
 72
     2
 10
-245.2144616615163
 20
-249.9274852437929
 40
0.315716923076792
 50
115.3740086783518
 51
180.0
 73
     0
 72
     1
 10
-245.5301785845931
 20
-249.9274852437929
 11
-245.5301785845931
 21
-249.3219499552861
 72
     2
 10
-245.2144616615163
 20
-249.3219499552861
 40
0.3157169230760711
 50
180.0
 51
269.8110329574541
 73
     0
 72
     2
 10
-245.2088455262063
 20
-251.0247849028552
 40
2.018561131933266
 50
269.8110329575858
 51
450.1889670424142
 73
     0
 72
     2
 10
-245.2144616615163
 20
-252.7276198504242
 40
0.315716923076792
 50
90.18896704254585
 51
180.0
 73
     0
 72
     1
 10
-245.5301785845931
 20
-252.7276198504242
 11
-245.5301785845931
 21
-252.1457684437291
 72
     2
 10
-245.2144616615163
 20
-252.1457684437291
 40
0.3157169230765328
 50
180.0
 51
244.6259913216482
 73
     0
 97
        8
330
1F2
330
1CE
330
17A
330
1F1
330
1CF
330
1D0
330
179
330
1CD
 92
       16
 93
       12
 72
     1
 10
-247.790010348048
 20
-253.9939444444318
 11
-246.3141770870384
 21
-253.9939444444318
 72
     2
 10
-246.3141770870384
 20
-253.6782275213551
 40
0.3157169230767067
 50
270.0
 51
360.0
 73
     1
 72
     1
 10
-245.9984601639618
 20
-253.6782275213551
 11
-245.9984601639618
 21
-252.1474565898235
 72
     2
 10
-246.3141770870384
 20
-252.1474565898235
 40
0.315716923076593
 50
0.0
 51
64.80558935146027
 73
     1
 72
     2
 10
-245.7915926394634
 20
-251.0366268437607
 40
0.9118975235576147
 50
115.1944106485122
 51
244.8055893514718
 73
     0
 72
     2
 10
-246.3141770870384
 20
-249.9257970976985
 40
0.3157169230761203
 50
295.1944106485397
 51
360.0
 73
     1
 72
     1
 10
-245.9984601639618
 20
-249.9257970976985
 11
-245.9984601639618
 21
-249.321772478638
 72
     2
 10
-246.3141770870384
 20
-249.321772478638
 40
0.315716923076593
 50
0.0
 51
90.0
 73
     1
 72
     1
 10
-246.3141770870384
 20
-249.0060555555618
 11
-247.790010348048
 21
-249.0060555555618
 72
     2
 10
-247.790010348048
 20
-249.321772478638
 40
0.3157169230761951
 50
90.0
 51
180.0
 73
     1
 72
     1
 10
-248.1057272711237
 20
-249.321772478638
 11
-248.1057272711237
 21
-253.6782275213551
 72
     2
 10
-247.790010348048
 20
-253.6782275213551
 40
0.3157169230756836
 50
180.0
 51
270.0
 73
     1
 97
       12
330
146
330
1D7
330
145
330
1E8
330
144
330
1E7
330
1D8
330
1D9
330
143
330
1E6
330
13E
330
1E9
 75
     1
 76
     0
 52
45.0
 41
0.1
 77
     0
 78
     1
 53
45.0
 43
0.0
 44
0.0
 45
-0.0707106781186548
 46
0.0707106781186548
 79
     0
 98
        1
 10
0.0
 20
0.0
  0
HATCH
  5
228
330
71
100
AcDbEntity
  8
1
  6
Continuous
 62
     2
100
AcDbHatch
 10
0.0
 20
0.0
 30
0.0
210
0.0
220
0.0
230
1.0
  2
_USER
 70
     0
 71
     1
 91
        2
 92
        1
 93
       12
 72
     2
 10
-233.7087410208052
 20
-249.8204047619091
 40
1.526904761905882
 50
90.0
 51
270.0
 73
     1
 72
     1
 10
-233.7087410208052
 20
-251.3473095238144
 11
-230.5584212970242
 21
-251.3473095238144
 72
     1
 10
-230.5584212970242
 20
-251.3473095238144
 11
-230.5584212970242
 21
-250.6492959183719
 72
     1
 10
-230.5584212970242
 20
-250.6492959183719
 11
-231.8943491234519
 21
-250.6492959183719
 72
     1
 10
-231.8943491234519
 20
-250.6492959183719
 11
-231.8943491234519
 21
-250.1694115646302
 72
     1
 10
-231.8943491234519
 20
-250.1694115646302
 11
-230.5584212970242
 21
-250.1694115646302
 72
     1
 10
-230.5584212970242
 20
-250.1694115646302
 11
-230.5584212970242
 21
-249.4713979591879
 72
     1
 10
-230.5584212970242
 20
-249.4713979591879
 11
-231.8943491234519
 21
-249.4713979591879
 72
     1
 10
-231.8943491234519
 20
-249.4713979591879
 11
-231.8943491234519
 21
-248.9915136054462
 72
     1
 10
-231.8943491234519
 20
-248.9915136054462
 11
-230.5584212970242
 21
-248.9915136054462
 72
     1
 10
-230.5584212970242
 20
-248.9915136054462
 11
-230.5584212970242
 21
-248.2935000000032
 72
     1
 10
-230.5584212970242
 20
-248.2935000000032
 11
-233.7087410208052
 21
-248.2935000000032
 97
       12
330
135
330
12F
330
156
330
155
330
154
330
153
330
130
330
131
330
132
330
133
330
1D5
330
134
 92
       16
 93
        4
 72
     2
 10
-233.2927289742937
 20
-249.8204047619091
 40
0.7717997786796724
 50
141.8795802028404
 51
218.1204197971562
 73
     1
 72
     2
 10
-233.49246901064
 20
-249.9771359400295
 40
0.5179085730134372
 50
218.1204197971511
 51
321.8795802028566
 73
     1
 72
     2
 10
-233.6922090469862
 20
-249.8204047619091
 40
0.7717997786796373
 50
321.8795802028437
 51
398.1204197971596
 73
     1
 72
     2
 10
-233.49246901064
 20
-249.6636735837886
 40
0.5179085730135266
 50
38.12041979714334
 51
141.8795802028489
 73
     1
 97
        4
330
1E2
330
1E1
330
1DC
330
1DB
 75
     1
 76
     0
 52
45.0
 41
0.1
 77
     0
 78
     1
 53
45.0
 43
0.0
 44
0.0
 45
-0.0707106781186548
 46
0.0707106781186548
 79
     0
 98
        1
 10
0.0
 20
0.0
  0
HATCH
  5
229
330
71
100
AcDbEntity
  8
1
  6
Continuous
 62
     2
100
AcDbHatch
 10
0.0
 20
0.0
 30
0.0
210
0.0
220
0.0
230
1.0
  2
_USER
 70
     0
 71
     1
 91
        2
 92
        1
 93
       12
 72
     2
 10
-233.7087410208052
 20
-249.8204047619091
 40
1.526904761905882
 50
90.0
 51
270.0
 73
     1
 72
     1
 10
-233.7087410208052
 20
-251.3473095238144
 11
-230.5584212970242
 21
-251.3473095238144
 72
     1
 10
-230.5584212970242
 20
-251.3473095238144
 11
-230.5584212970242
 21
-250.6492959183719
 72
     1
 10
-230.5584212970242
 20
-250.6492959183719
 11
-231.8943491234519
 21
-250.6492959183719
 72
     1
 10
-231.8943491234519
 20
-250.6492959183719
 11
-231.8943491234519
 21
-250.1694115646302
 72
     1
 10
-231.8943491234519
 20
-250.1694115646302
 11
-230.5584212970242
 21
-250.1694115646302
 72
     1
 10
-230.5584212970242
 20
-250.1694115646302
 11
-230.5584212970242
 21
-249.4713979591879
 72
     1
 10
-230.5584212970242
 20
-249.4713979591879
 11
-231.8943491234519
 21
-249.4713979591879
 72
     1
 10
-231.8943491234519
 20
-249.4713979591879
 11
-231.8943491234519
 21
-248.9915136054462
 72
     1
 10
-231.8943491234519
 20
-248.9915136054462
 11
-230.5584212970242
 21
-248.9915136054462
 72
     1
 10
-230.5584212970242
 20
-248.9915136054462
 11
-230.5584212970242
 21
-248.2935000000032
 72
     1
 10
-230.5584212970242
 20
-248.2935000000032
 11
-233.7087410208052
 21
-248.2935000000032
 97
       12
330
135
330
12F
330
156
330
155
330
154
330
153
330
130
330
131
330
132
330
133
330
1D5
330
134
 92
       16
 93
        4
 72
     2
 10
-233.2927289742937
 20
-249.8204047619091
 40
0.7717997786796724
 50
141.8795802028404
 51
218.1204197971562
 73
     1
 72
     2
 10
-233.49246901064
 20
-249.9771359400295
 40
0.5179085730134372
 50
218.1204197971511
 51
321.8795802028566
 73
     1
 72
     2
 10
-233.6922090469862
 20
-249.8204047619091
 40
0.7717997786796373
 50
321.8795802028437
 51
398.1204197971596
 73
     1
 72
     2
 10
-233.49246901064
 20
-249.6636735837886
 40
0.5179085730135266
 50
38.12041979714334
 51
141.8795802028489
 73
     1
 97
        4
330
1E2
330
1E1
330
1DC
330
1DB
 75
     1
 76
     0
 52
45.0
 41
0.1
 77
     0
 78
     1
 53
45.0
 43
0.0
 44
0.0
 45
-0.0707106781186548
 46
0.0707106781186548
 79
     0
 98
        1
 10
0.0
 20
0.0
  0
HATCH
  5
22A
330
71
100
AcDbEntity
  8
1
  6
Continuous
 62
     2
100
AcDbHatch
 10
0.0
 20
0.0
 30
0.0
210
0.0
220
0.0
230
1.0
  2
_USER
 70
     0
 71
     1
 91
        2
 92
        1
 93
        4
 72
     2
 10
-237.7343563832668
 20
-253.1795952380834
 40
1.45803408365149
 50
117.5481481756624
 51
242.4518518243375
 73
     1
 72
     2
 10
-237.4534164914335
 20
-252.6410202277801
 40
2.065479772208509
 50
242.4518518243402
 51
297.5481481756871
 73
     1
 72
     2
 10
-237.1724765996002
 20
-253.1795952380834
 40
1.458034083652003
 50
297.548148175701
 51
422.451851824299
 73
     1
 72
     2
 10
-237.4534164914335
 20
-253.7181702483862
 40
2.065479772208568
 50
62.45185182430637
 51
117.5481481756664
 73
     1
 97
        4
330
1E0
330
1DD
330
1DF
330
1DE
 92
       16
 93
        4
 72
     2
 10
-237.4534164914335
 20
-253.0228640599629
 40
0.5179085730132998
 50
38.12041979714704
 51
141.8795802028588
 73
     1
 72
     2
 10
-237.2536764550874
 20
-253.1795952380834
 40
0.7717997786794633
 50
141.8795802028363
 51
218.1204197971687
 73
     1
 72
     2
 10
-237.4534164914335
 20
-253.3363264162034
 40
0.5179085730137354
 50
218.1204197971931
 51
321.879580202801
 73
     1
 72
     2
 10
-237.6531565277799
 20
-253.1795952380834
 40
0.7717997786796947
 50
321.8795802028417
 51
398.1204197971533
 73
     1
 97
        4
330
1C3
330
1C4
330
1C5
330
1C2
 75
     1
 76
     0
 52
45.0
 41
0.1
 77
     0
 78
     1
 53
45.0
 43
0.0
 44
0.0
 45
-0.0707106781186548
 46
0.0707106781186548
 79
     0
 98
        1
 10
0.0
 20
0.0
  0
HATCH
  5
22B
330
71
100
AcDbEntity
  8
1
  6
Continuous
 62
     2
100
AcDbHatch
 10
0.0
 20
0.0
 30
0.0
210
0.0
220
0.0
230
1.0
  2
_USER
 70
     0
 71
     1
 91
        2
 92
        1
 93
        4
 72
     2
 10
-237.7343563832668
 20
-253.1795952380834
 40
1.45803408365149
 50
117.5481481756624
 51
242.4518518243375
 73
     1
 72
     2
 10
-237.4534164914335
 20
-252.6410202277801
 40
2.065479772208509
 50
242.4518518243402
 51
297.5481481756871
 73
     1
 72
     2
 10
-237.1724765996002
 20
-253.1795952380834
 40
1.458034083652003
 50
297.548148175701
 51
422.451851824299
 73
     1
 72
     2
 10
-237.4534164914335
 20
-253.7181702483862
 40
2.065479772208568
 50
62.45185182430637
 51
117.5481481756664
 73
     1
 97
        4
330
1E0
330
1DD
330
1DF
330
1DE
 92
       16
 93
        4
 72
     2
 10
-237.4534164914335
 20
-253.0228640599629
 40
0.5179085730132998
 50
38.12041979714704
 51
141.8795802028588
 73
     1
 72
     2
 10
-237.2536764550874
 20
-253.1795952380834
 40
0.7717997786794633
 50
141.8795802028363
 51
218.1204197971687
 73
     1
 72
     2
 10
-237.4534164914335
 20
-253.3363264162034
 40
0.5179085730137354
 50
218.1204197971931
 51
321.879580202801
 73
     1
 72
     2
 10
-237.6531565277799
 20
-253.1795952380834
 40
0.7717997786796947
 50
321.8795802028417
 51
398.1204197971533
 73
     1
 97
        4
330
1C3
330
1C4
330
1C5
330
1C2
 75
     1
 76
     0
 52
45.0
 41
0.1
 77
     0
 78
     1
 53
45.0
 43
0.0
 44
0.0
 45
-0.0707106781186548
 46
0.0707106781186548
 79
     0
 98
        1
 10
0.0
 20
0.0
  0
HATCH
  5
22C
330
71
100
AcDbEntity
  8
1
  6
Continuous
 62
     2
100
AcDbHatch
 10
0.0
 20
0.0
 30
0.0
210
0.0
220
0.0
230
1.0
  2
_USER
 70
     0
 71
     1
 91
        2
 92
        1
 93
        6
 72
     1
 10
-242.009231237827
 20
-248.2935000000032
 11
-242.009231237827
 21
-251.3473095238144
 72
     1
 10
-242.009231237827
 20
-251.3473095238144
 11
-240.7687268275729
 21
-251.3473095238144
 72
     1
 10
-240.7687268275729
 20
-251.3473095238144
 11
-240.7687268275729
 21
-250.4042312826706
 72
     1
 10
-240.7687268275729
 20
-250.4042312826706
 11
-240.0099592397926
 21
-250.4042312826706
 72
     2
 10
-240.0099592397926
 20
-249.3488656413369
 40
1.055365641333708
 50
270.0
 51
450.0
 73
     1
 72
     1
 10
-240.0099592397926
 20
-248.2935000000032
 11
-242.009231237827
 21
-248.2935000000032
 97
        6
330
1EA
330
147
330
13D
330
13C
330
149
330
148
 92
       16
 93
        4
 72
     1
 10
-240.451431766031
 20
-248.9566058454433
 11
-240.7687268275729
 21
-248.9566058454433
 72
     1
 10
-240.7687268275729
 20
-248.9566058454433
 11
-240.7687268275729
 21
-249.6623334947855
 72
     1
 10
-240.7687268275729
 20
-249.6623334947855
 11
-240.451431766031
 21
-249.6623334947855
 72
     2
 10
-240.451431766031
 20
-249.3094696701144
 40
0.3528638246711182
 50
270.0
 51
450.0
 73
     1
 97
        4
330
14A
330
13B
330
14B
330
1D6
 75
     1
 76
     0
 52
45.0
 41
0.1
 77
     0
 78
     1
 53
45.0
 43
0.0
 44
0.0
 45
-0.0707106781186548
 46
0.0707106781186548
 79
     0
 98
        1
 10
0.0
 20
0.0
  0
HATCH
  5
22D
330
71
100
AcDbEntity
  8
1
  6
Continuous
 62
     2
100
AcDbHatch
 10
0.0
 20
0.0
 30
0.0
210
0.0
220
0.0
230
1.0
  2
_USER
 70
     0
 71
     1
 91
        2
 92
        1
 93
        6
 72
     1
 10
-242.009231237827
 20
-248.2935000000032
 11
-242.009231237827
 21
-251.3473095238144
 72
     1
 10
-242.009231237827
 20
-251.3473095238144
 11
-240.7687268275729
 21
-251.3473095238144
 72
     1
 10
-240.7687268275729
 20
-251.3473095238144
 11
-240.7687268275729
 21
-250.4042312826706
 72
     1
 10
-240.7687268275729
 20
-250.4042312826706
 11
-240.0099592397926
 21
-250.4042312826706
 72
     2
 10
-240.0099592397926
 20
-249.3488656413369
 40
1.055365641333708
 50
270.0
 51
450.0
 73
     1
 72
     1
 10
-240.0099592397926
 20
-248.2935000000032
 11
-242.009231237827
 21
-248.2935000000032
 97
        6
330
1EA
330
147
330
13D
330
13C
330
149
330
148
 92
       16
 93
        4
 72
     1
 10
-240.451431766031
 20
-248.9566058454433
 11
-240.7687268275729
 21
-248.9566058454433
 72
     1
 10
-240.7687268275729
 20
-248.9566058454433
 11
-240.7687268275729
 21
-249.6623334947855
 72
     1
 10
-240.7687268275729
 20
-249.6623334947855
 11
-240.451431766031
 21
-249.6623334947855
 72
     2
 10
-240.451431766031
 20
-249.3094696701144
 40
0.3528638246711182
 50
270.0
 51
450.0
 73
     1
 97
        4
330
14A
330
13B
330
14B
330
1D6
 75
     1
 76
     0
 52
45.0
 41
0.1
 77
     0
 78
     1
 53
45.0
 43
0.0
 44
0.0
 45
-0.0707106781186548
 46
0.0707106781186548
 79
     0
 98
        1
 10
0.0
 20
0.0
  0
HATCH
  5
22E
330
71
100
AcDbEntity
  8
1
  6
Continuous
 62
     2
100
AcDbHatch
 10
0.0
 20
0.0
 30
0.0
210
0.0
220
0.0
230
1.0
  2
_USER
 70
     0
 71
     1
 91
        1
 92
        1
 93
       12
 72
     1
 10
-222.3949480433938
 20
-248.2935000000032
 11
-220.9922238256466
 21
-248.2935000000032
 72
     1
 10
-220.9922238256466
 20
-248.2935000000032
 11
-222.2947534564131
 21
-249.7664505300394
 72
     1
 10
-222.2947534564131
 20
-249.7664505300394
 11
-220.8968004094728
 21
-251.3473095238144
 72
     1
 10
-220.8968004094728
 20
-251.3473095238144
 11
-222.2995246272211
 21
-251.3473095238144
 72
     1
 10
-222.2995246272211
 20
-251.3473095238144
 11
-222.9961155652866
 21
-250.5595777385207
 72
     1
 10
-222.9961155652866
 20
-250.5595777385207
 11
-223.6927065033523
 21
-251.3473095238144
 72
     1
 10
-223.6927065033523
 20
-251.3473095238144
 11
-225.0954307211005
 21
-251.3473095238144
 72
     1
 10
-225.0954307211005
 20
-251.3473095238144
 11
-223.6974776741602
 21
-249.7664505300394
 72
     1
 10
-223.6974776741602
 20
-249.7664505300394
 11
-225.0000073049277
 21
-248.2935000000032
 72
     1
 10
-225.0000073049277
 20
-248.2935000000032
 11
-223.5972830871784
 21
-248.2935000000032
 72
     1
 10
-223.5972830871784
 20
-248.2935000000032
 11
-222.9961155652866
 21
-248.9733233215587
 72
     1
 10
-222.9961155652866
 20
-248.9733233215587
 11
-222.3949480433938
 21
-248.2935000000032
 97
       12
330
116
330
16F
330
16E
330
16D
330
16C
330
117
330
118
330
114
330
115
330
172
330
171
330
170
 75
     1
 76
     0
 52
45.0
 41
0.1
 77
     0
 78
     1
 53
45.0
 43
0.0
 44
0.0
 45
-0.0707106781186548
 46
0.0707106781186548
 79
     0
 98
        1
 10
0.0
 20
0.0
  0
HATCH
  5
22F
330
71
100
AcDbEntity
  8
1
  6
Continuous
 62
     2
100
AcDbHatch
 10
0.0
 20
0.0
 30
0.0
210
0.0
220
0.0
230
1.0
  2
_USER
 70
     0
 71
     1
 91
        1
 92
        1
 93
       12
 72
     1
 10
-222.3949480433938
 20
-248.2935000000032
 11
-220.9922238256466
 21
-248.2935000000032
 72
     1
 10
-220.9922238256466
 20
-248.2935000000032
 11
-222.2947534564131
 21
-249.7664505300394
 72
     1
 10
-222.2947534564131
 20
-249.7664505300394
 11
-220.8968004094728
 21
-251.3473095238144
 72
     1
 10
-220.8968004094728
 20
-251.3473095238144
 11
-222.2995246272211
 21
-251.3473095238144
 72
     1
 10
-222.2995246272211
 20
-251.3473095238144
 11
-222.9961155652866
 21
-250.5595777385207
 72
     1
 10
-222.9961155652866
 20
-250.5595777385207
 11
-223.6927065033523
 21
-251.3473095238144
 72
     1
 10
-223.6927065033523
 20
-251.3473095238144
 11
-225.0954307211005
 21
-251.3473095238144
 72
     1
 10
-225.0954307211005
 20
-251.3473095238144
 11
-223.6974776741602
 21
-249.7664505300394
 72
     1
 10
-223.6974776741602
 20
-249.7664505300394
 11
-225.0000073049277
 21
-248.2935000000032
 72
     1
 10
-225.0000073049277
 20
-248.2935000000032
 11
-223.5972830871784
 21
-248.2935000000032
 72
     1
 10
-223.5972830871784
 20
-248.2935000000032
 11
-222.9961155652866
 21
-248.9733233215587
 72
     1
 10
-222.9961155652866
 20
-248.9733233215587
 11
-222.3949480433938
 21
-248.2935000000032
 97
       12
330
116
330
16F
330
16E
330
16D
330
16C
330
117
330
118
330
114
330
115
330
172
330
171
330
170
 75
     1
 76
     0
 52
45.0
 41
0.1
 77
     0
 78
     1
 53
45.0
 43
0.0
 44
0.0
 45
-0.0707106781186548
 46
0.0707106781186548
 79
     0
 98
        1
 10
0.0
 20
0.0
  0
HATCH
  5
230
330
71
100
AcDbEntity
  8
1
  6
Continuous
 62
     2
100
AcDbHatch
 10
0.0
 20
0.0
 30
0.0
210
0.0
220
0.0
230
1.0
  2
_USER
 70
     0
 71
     1
 91
        1
 92
        1
 93
        4
 72
     1
 10
-225.2147099913174
 20
-248.2935000000032
 11
-225.2147099913174
 21
-251.3473095238144
 72
     1
 10
-225.2147099913174
 20
-251.3473095238144
 11
-226.4552144015703
 21
-251.3473095238144
 72
     1
 10
-226.4552144015703
 20
-251.3473095238144
 11
-226.4552144015703
 21
-248.2935000000032
 72
     1
 10
-226.4552144015703
 20
-248.2935000000032
 11
-225.2147099913174
 21
-248.2935000000032
 97
        4
330
16A
330
119
330
169
330
16B
 75
     1
 76
     0
 52
45.0
 41
0.1
 77
     0
 78
     1
 53
45.0
 43
0.0
 44
0.0
 45
-0.0707106781186548
 46
0.0707106781186548
 79
     0
 98
        1
 10
0.0
 20
0.0
  0
HATCH
  5
231
330
71
100
AcDbEntity
  8
1
  6
Continuous
 62
     2
100
AcDbHatch
 10
0.0
 20
0.0
 30
0.0
210
0.0
220
0.0
230
1.0
  2
_USER
 70
     0
 71
     1
 91
        1
 92
        1
 93
        4
 72
     1
 10
-225.2147099913174
 20
-248.2935000000032
 11
-225.2147099913174
 21
-251.3473095238144
 72
     1
 10
-225.2147099913174
 20
-251.3473095238144
 11
-226.4552144015703
 21
-251.3473095238144
 72
     1
 10
-226.4552144015703
 20
-251.3473095238144
 11
-226.4552144015703
 21
-248.2935000000032
 72
     1
 10
-226.4552144015703
 20
-248.2935000000032
 11
-225.2147099913174
 21
-248.2935000000032
 97
        4
330
16A
330
119
330
169
330
16B
 75
     1
 76
     0
 52
45.0
 41
0.1
 77
     0
 78
     1
 53
45.0
 43
0.0
 44
0.0
 45
-0.0707106781186548
 46
0.0707106781186548
 79
     0
 98
        1
 10
0.0
 20
0.0
  0
HATCH
  5
232
330
71
100
AcDbEntity
  8
1
  6
Continuous
 62
     2
100
AcDbHatch
 10
0.0
 20
0.0
 30
0.0
210
0.0
220
0.0
230
1.0
  2
_USER
 70
     0
 71
     1
 91
        2
 92
        1
 93
        8
 72
     1
 10
-225.6051539948494
 20
-254.7064999999887
 11
-226.8456584051033
 21
-254.7064999999887
 72
     1
 10
-226.8456584051033
 20
-254.7064999999887
 11
-227.0571384585791
 21
-254.1655394557708
 72
     1
 10
-227.0571384585791
 20
-254.1655394557708
 11
-228.1895800352529
 21
-254.1655394557708
 72
     1
 10
-228.1895800352529
 20
-254.1655394557708
 11
-228.4010600887287
 21
-254.7064999999887
 72
     1
 10
-228.4010600887287
 20
-254.7064999999887
 11
-229.6415644989817
 21
-254.7064999999887
 72
     1
 10
-229.6415644989817
 20
-254.7064999999887
 11
-228.2436114520424
 21
-251.6526904761776
 72
     1
 10
-228.2436114520424
 20
-251.6526904761776
 11
-227.0031070417897
 21
-251.6526904761776
 72
     1
 10
-227.0031070417897
 20
-251.6526904761776
 11
-225.6051539948494
 21
-254.7064999999887
 97
        8
330
165
330
11F
330
164
330
167
330
11C
330
166
330
11D
330
11E
 92
       16
 93
        3
 72
     1
 10
-227.9235244841079
 20
-253.4849761904642
 11
-227.3231940097254
 21
-253.4849761904642
 72
     1
 10
-227.3231940097254
 20
-253.4849761904642
 11
-227.6233592469155
 21
-252.7171612244775
 72
     1
 10
-227.6233592469155
 20
-252.7171612244775
 11
-227.9235244841079
 21
-253.4849761904642
 97
        3
330
11B
330
11A
330
168
 75
     1
 76
     0
 52
45.0
 41
0.1
 77
     0
 78
     1
 53
45.0
 43
0.0
 44
0.0
 45
-0.0707106781186548
 46
0.0707106781186548
 79
     0
 98
        1
 10
0.0
 20
0.0
  0
HATCH
  5
233
330
71
100
AcDbEntity
  8
1
  6
Continuous
 62
     2
100
AcDbHatch
 10
0.0
 20
0.0
 30
0.0
210
0.0
220
0.0
230
1.0
  2
_USER
 70
     0
 71
     1
 91
        2
 92
        1
 93
        8
 72
     1
 10
-225.6051539948494
 20
-254.7064999999887
 11
-226.8456584051033
 21
-254.7064999999887
 72
     1
 10
-226.8456584051033
 20
-254.7064999999887
 11
-227.0571384585791
 21
-254.1655394557708
 72
     1
 10
-227.0571384585791
 20
-254.1655394557708
 11
-228.1895800352529
 21
-254.1655394557708
 72
     1
 10
-228.1895800352529
 20
-254.1655394557708
 11
-228.4010600887287
 21
-254.7064999999887
 72
     1
 10
-228.4010600887287
 20
-254.7064999999887
 11
-229.6415644989817
 21
-254.7064999999887
 72
     1
 10
-229.6415644989817
 20
-254.7064999999887
 11
-228.2436114520424
 21
-251.6526904761776
 72
     1
 10
-228.2436114520424
 20
-251.6526904761776
 11
-227.0031070417897
 21
-251.6526904761776
 72
     1
 10
-227.0031070417897
 20
-251.6526904761776
 11
-225.6051539948494
 21
-254.7064999999887
 97
        8
330
165
330
11F
330
164
330
167
330
11C
330
166
330
11D
330
11E
 92
       16
 93
        3
 72
     1
 10
-227.9235244841079
 20
-253.4849761904642
 11
-227.3231940097254
 21
-253.4849761904642
 72
     1
 10
-227.3231940097254
 20
-253.4849761904642
 11
-227.6233592469155
 21
-252.7171612244775
 72
     1
 10
-227.6233592469155
 20
-252.7171612244775
 11
-227.9235244841079
 21
-253.4849761904642
 97
        3
330
11B
330
11A
330
168
 75
     1
 76
     0
 52
45.0
 41
0.1
 77
     0
 78
     1
 53
45.0
 43
0.0
 44
0.0
 45
-0.0707106781186548
 46
0.0707106781186548
 79
     0
 98
        1
 10
0.0
 20
0.0
  0
HATCH
  5
234
330
71
100
AcDbEntity
  8
1
  6
Continuous
 62
     2
100
AcDbHatch
 10
0.0
 20
0.0
 30
0.0
210
0.0
220
0.0
230
1.0
  2
_USER
 70
     0
 71
     1
 91
        1
 92
        1
 93
        8
 72
     1
 10
-231.7990766381639
 20
-251.6526904761776
 11
-231.7990766381639
 21
-252.4379557823012
 72
     1
 10
-231.7990766381639
 20
-252.4379557823012
 11
-230.9879776006893
 21
-252.4379557823012
 72
     1
 10
-230.9879776006893
 20
-252.4379557823012
 11
-230.9879776006893
 21
-254.7064999999887
 72
     1
 10
-230.9879776006893
 20
-254.7064999999887
 11
-229.7951848985228
 21
-254.7064999999887
 72
     1
 10
-229.7951848985228
 20
-254.7064999999887
 11
-229.7951848985228
 21
-252.4379557823012
 72
     1
 10
-229.7951848985228
 20
-252.4379557823012
 11
-228.9840858610503
 21
-252.4379557823012
 72
     1
 10
-228.9840858610503
 20
-252.4379557823012
 11
-228.9840858610503
 21
-251.6526904761776
 72
     1
 10
-228.9840858610503
 20
-251.6526904761776
 11
-231.7990766381639
 21
-251.6526904761776
 97
        8
330
161
330
160
330
15F
330
120
330
121
330
163
330
122
330
162
 75
     1
 76
     0
 52
45.0
 41
0.1
 77
     0
 78
     1
 53
45.0
 43
0.0
 44
0.0
 45
-0.0707106781186548
 46
0.0707106781186548
 79
     0
 98
        1
 10
0.0
 20
0.0
  0
HATCH
  5
235
330
71
100
AcDbEntity
  8
1
  6
Continuous
 62
     2
100
AcDbHatch
 10
0.0
 20
0.0
 30
0.0
210
0.0
220
0.0
230
1.0
  2
_USER
 70
     0
 71
     1
 91
        1
 92
        1
 93
        8
 72
     1
 10
-231.7990766381639
 20
-251.6526904761776
 11
-231.7990766381639
 21
-252.4379557823012
 72
     1
 10
-231.7990766381639
 20
-252.4379557823012
 11
-230.9879776006893
 21
-252.4379557823012
 72
     1
 10
-230.9879776006893
 20
-252.4379557823012
 11
-230.9879776006893
 21
-254.7064999999887
 72
     1
 10
-230.9879776006893
 20
-254.7064999999887
 11
-229.7951848985228
 21
-254.7064999999887
 72
     1
 10
-229.7951848985228
 20
-254.7064999999887
 11
-229.7951848985228
 21
-252.4379557823012
 72
     1
 10
-229.7951848985228
 20
-252.4379557823012
 11
-228.9840858610503
 21
-252.4379557823012
 72
     1
 10
-228.9840858610503
 20
-252.4379557823012
 11
-228.9840858610503
 21
-251.6526904761776
 72
     1
 10
-228.9840858610503
 20
-251.6526904761776
 11
-231.7990766381639
 21
-251.6526904761776
 97
        8
330
161
330
160
330
15F
330
120
330
121
330
163
330
122
330
162
 75
     1
 76
     0
 52
45.0
 41
0.1
 77
     0
 78
     1
 53
45.0
 43
0.0
 44
0.0
 45
-0.0707106781186548
 46
0.0707106781186548
 79
     0
 98
        1
 10
0.0
 20
0.0
  0
HATCH
  5
236
330
71
100
AcDbEntity
  8
1
  6
Continuous
 62
     2
100
AcDbHatch
 10
0.0
 20
0.0
 30
0.0
210
0.0
220
0.0
230
1.0
  2
_USER
 70
     0
 71
     1
 91
        1
 92
        1
 93
       10
 72
     1
 10
-229.1270700544248
 20
-248.2935000000032
 11
-230.3198627565913
 21
-248.2935000000032
 72
     1
 10
-230.3198627565913
 20
-248.2935000000032
 11
-230.3198627565913
 21
-251.3473095238144
 72
     1
 10
-230.3198627565913
 20
-251.3473095238144
 11
-229.1270700544248
 21
-251.3473095238144
 72
     1
 10
-229.1270700544248
 20
-251.3473095238144
 11
-229.1270700544248
 21
-250.0385340136097
 72
     1
 10
-229.1270700544248
 20
-250.0385340136097
 11
-227.8865656441708
 21
-251.3473095238144
 72
     1
 10
-227.8865656441708
 20
-251.3473095238144
 11
-226.6937729420042
 21
-251.3473095238144
 72
     1
 10
-226.6937729420042
 20
-251.3473095238144
 11
-226.6937729420042
 21
-248.2935000000032
 72
     1
 10
-226.6937729420042
 20
-248.2935000000032
 11
-227.8865656441708
 21
-248.2935000000032
 72
     1
 10
-227.8865656441708
 20
-248.2935000000032
 11
-227.8865656441708
 21
-249.6022755102084
 72
     1
 10
-227.8865656441708
 20
-249.6022755102084
 11
-229.1270700544248
 21
-248.2935000000032
 97
       10
330
15B
330
125
330
126
330
127
330
128
330
15E
330
123
330
15D
330
15C
330
124
 75
     1
 76
     0
 52
45.0
 41
0.1
 77
     0
 78
     1
 53
45.0
 43
0.0
 44
0.0
 45
-0.0707106781186548
 46
0.0707106781186548
 79
     0
 98
        1
 10
0.0
 20
0.0
  0
HATCH
  5
237
330
71
100
AcDbEntity
  8
1
  6
Continuous
 62
     2
100
AcDbHatch
 10
0.0
 20
0.0
 30
0.0
210
0.0
220
0.0
230
1.0
  2
_USER
 70
     0
 71
     1
 91
        1
 92
        1
 93
       10
 72
     1
 10
-229.1270700544248
 20
-248.2935000000032
 11
-230.3198627565913
 21
-248.2935000000032
 72
     1
 10
-230.3198627565913
 20
-248.2935000000032
 11
-230.3198627565913
 21
-251.3473095238144
 72
     1
 10
-230.3198627565913
 20
-251.3473095238144
 11
-229.1270700544248
 21
-251.3473095238144
 72
     1
 10
-229.1270700544248
 20
-251.3473095238144
 11
-229.1270700544248
 21
-250.0385340136097
 72
     1
 10
-229.1270700544248
 20
-250.0385340136097
 11
-227.8865656441708
 21
-251.3473095238144
 72
     1
 10
-227.8865656441708
 20
-251.3473095238144
 11
-226.6937729420042
 21
-251.3473095238144
 72
     1
 10
-226.6937729420042
 20
-251.3473095238144
 11
-226.6937729420042
 21
-248.2935000000032
 72
     1
 10
-226.6937729420042
 20
-248.2935000000032
 11
-227.8865656441708
 21
-248.2935000000032
 72
     1
 10
-227.8865656441708
 20
-248.2935000000032
 11
-227.8865656441708
 21
-249.6022755102084
 72
     1
 10
-227.8865656441708
 20
-249.6022755102084
 11
-229.1270700544248
 21
-248.2935000000032
 97
       10
330
15B
330
125
330
126
330
127
330
128
330
15E
330
123
330
15D
330
15C
330
124
 75
     1
 76
     0
 52
45.0
 41
0.1
 77
     0
 78
     1
 53
45.0
 43
0.0
 44
0.0
 45
-0.0707106781186548
 46
0.0707106781186548
 79
     0
 98
        1
 10
0.0
 20
0.0
  0
HATCH
  5
238
330
71
100
AcDbEntity
  8
1
  6
Continuous
 62
     2
100
AcDbHatch
 10
0.0
 20
0.0
 30
0.0
210
0.0
220
0.0
230
1.0
  2
_USER
 70
     0
 71
     1
 91
        1
 92
        1
 93
       10
 72
     1
 10
-234.3755088748434
 20
-251.6526904761776
 11
-235.568301577011
 21
-251.6526904761776
 72
     1
 10
-235.568301577011
 20
-251.6526904761776
 11
-235.568301577011
 21
-254.7064999999887
 72
     1
 10
-235.568301577011
 20
-254.7064999999887
 11
-234.3755088748434
 21
-254.7064999999887
 72
     1
 10
-234.3755088748434
 20
-254.7064999999887
 11
-234.3755088748434
 21
-253.3977244897841
 72
     1
 10
-234.3755088748434
 20
-253.3977244897841
 11
-233.1350044645905
 21
-254.7064999999887
 72
     1
 10
-233.1350044645905
 20
-254.7064999999887
 11
-231.9422117624241
 21
-254.7064999999887
 72
     1
 10
-231.9422117624241
 20
-254.7064999999887
 11
-231.9422117624241
 21
-251.6526904761776
 72
     1
 10
-231.9422117624241
 20
-251.6526904761776
 11
-233.1350044645905
 21
-251.6526904761776
 72
     1
 10
-233.1350044645905
 20
-251.6526904761776
 11
-233.1350044645905
 21
-252.9614659863827
 72
     1
 10
-233.1350044645905
 20
-252.9614659863827
 11
-234.3755088748434
 21
-251.6526904761776
 97
       10
330
12A
330
12B
330
12C
330
158
330
12D
330
12E
330
157
330
15A
330
159
330
129
 75
     1
 76
     0
 52
45.0
 41
0.1
 77
     0
 78
     1
 53
45.0
 43
0.0
 44
0.0
 45
-0.0707106781186548
 46
0.0707106781186548
 79
     0
 98
        1
 10
0.0
 20
0.0
  0
HATCH
  5
239
330
71
100
AcDbEntity
  8
1
  6
Continuous
 62
     2
100
AcDbHatch
 10
0.0
 20
0.0
 30
0.0
210
0.0
220
0.0
230
1.0
  2
_USER
 70
     0
 71
     1
 91
        1
 92
        1
 93
       10
 72
     1
 10
-234.3755088748434
 20
-251.6526904761776
 11
-235.568301577011
 21
-251.6526904761776
 72
     1
 10
-235.568301577011
 20
-251.6526904761776
 11
-235.568301577011
 21
-254.7064999999887
 72
     1
 10
-235.568301577011
 20
-254.7064999999887
 11
-234.3755088748434
 21
-254.7064999999887
 72
     1
 10
-234.3755088748434
 20
-254.7064999999887
 11
-234.3755088748434
 21
-253.3977244897841
 72
     1
 10
-234.3755088748434
 20
-253.3977244897841
 11
-233.1350044645905
 21
-254.7064999999887
 72
     1
 10
-233.1350044645905
 20
-254.7064999999887
 11
-231.9422117624241
 21
-254.7064999999887
 72
     1
 10
-231.9422117624241
 20
-254.7064999999887
 11
-231.9422117624241
 21
-251.6526904761776
 72
     1
 10
-231.9422117624241
 20
-251.6526904761776
 11
-233.1350044645905
 21
-251.6526904761776
 72
     1
 10
-233.1350044645905
 20
-251.6526904761776
 11
-233.1350044645905
 21
-252.9614659863827
 72
     1
 10
-233.1350044645905
 20
-252.9614659863827
 11
-234.3755088748434
 21
-251.6526904761776
 97
       10
330
12A
330
12B
330
12C
330
158
330
12D
330
12E
330
157
330
15A
330
159
330
129
 75
     1
 76
     0
 52
45.0
 41
0.1
 77
     0
 78
     1
 53
45.0
 43
0.0
 44
0.0
 45
-0.0707106781186548
 46
0.0707106781186548
 79
     0
 98
        1
 10
0.0
 20
0.0
  0
HATCH
  5
23A
330
71
100
AcDbEntity
  8
1
  6
Continuous
 62
     2
100
AcDbHatch
 10
0.0
 20
0.0
 30
0.0
210
0.0
220
0.0
230
1.0
  2
_USER
 70
     0
 71
     1
 91
        1
 92
        1
 93
       12
 72
     1
 10
-235.3773038137788
 20
-248.2935000000032
 11
-235.3773038137788
 21
-251.3473095238144
 72
     1
 10
-235.3773038137788
 20
-251.3473095238144
 11
-236.5700965159452
 21
-251.3473095238144
 72
     1
 10
-236.5700965159452
 20
-251.3473095238144
 11
-236.5700965159452
 21
-250.2130374149706
 72
     1
 10
-236.5700965159452
 20
-250.2130374149706
 11
-237.6197540938527
 21
-250.2130374149706
 72
     1
 10
-237.6197540938527
 20
-250.2130374149706
 11
-237.6197540938527
 21
-251.3473095238144
 72
     1
 10
-237.6197540938527
 20
-251.3473095238144
 11
-238.8125467960193
 21
-251.3473095238144
 72
     1
 10
-238.8125467960193
 20
-251.3473095238144
 11
-238.8125467960193
 21
-248.2935000000032
 72
     1
 10
-238.8125467960193
 20
-248.2935000000032
 11
-237.6197540938527
 21
-248.2935000000032
 72
     1
 10
-237.6197540938527
 20
-248.2935000000032
 11
-237.6197540938527
 21
-249.3623333333378
 72
     1
 10
-237.6197540938527
 20
-249.3623333333378
 11
-236.5700965159452
 21
-249.3623333333378
 72
     1
 10
-236.5700965159452
 20
-249.3623333333378
 11
-236.5700965159452
 21
-248.2935000000032
 72
     1
 10
-236.5700965159452
 20
-248.2935000000032
 11
-235.3773038137788
 21
-248.2935000000032
 97
       12
330
152
330
151
330
150
330
138
330
139
330
14F
330
13A
330
14E
330
14D
330
14C
330
136
330
137
 75
     1
 76
     0
 52
45.0
 41
0.1
 77
     0
 78
     1
 53
45.0
 43
0.0
 44
0.0
 45
-0.0707106781186548
 46
0.0707106781186548
 79
     0
 98
        1
 10
0.0
 20
0.0
  0
HATCH
  5
23B
330
71
100
AcDbEntity
  8
1
  6
Continuous
 62
     2
100
AcDbHatch
 10
0.0
 20
0.0
 30
0.0
210
0.0
220
0.0
230
1.0
  2
_USER
 70
     0
 71
     1
 91
        1
 92
        1
 93
       12
 72
     1
 10
-235.3773038137788
 20
-248.2935000000032
 11
-235.3773038137788
 21
-251.3473095238144
 72
     1
 10
-235.3773038137788
 20
-251.3473095238144
 11
-236.5700965159452
 21
-251.3473095238144
 72
     1
 10
-236.5700965159452
 20
-251.3473095238144
 11
-236.5700965159452
 21
-250.2130374149706
 72
     1
 10
-236.5700965159452
 20
-250.2130374149706
 11
-237.6197540938527
 21
-250.2130374149706
 72
     1
 10
-237.6197540938527
 20
-250.2130374149706
 11
-237.6197540938527
 21
-251.3473095238144
 72
     1
 10
-237.6197540938527
 20
-251.3473095238144
 11
-238.8125467960193
 21
-251.3473095238144
 72
     1
 10
-238.8125467960193
 20
-251.3473095238144
 11
-238.8125467960193
 21
-248.2935000000032
 72
     1
 10
-238.8125467960193
 20
-248.2935000000032
 11
-237.6197540938527
 21
-248.2935000000032
 72
     1
 10
-237.6197540938527
 20
-248.2935000000032
 11
-237.6197540938527
 21
-249.3623333333378
 72
     1
 10
-237.6197540938527
 20
-249.3623333333378
 11
-236.5700965159452
 21
-249.3623333333378
 72
     1
 10
-236.5700965159452
 20
-249.3623333333378
 11
-236.5700965159452
 21
-248.2935000000032
 72
     1
 10
-236.5700965159452
 20
-248.2935000000032
 11
-235.3773038137788
 21
-248.2935000000032
 97
       12
330
152
330
151
330
150
330
138
330
139
330
14F
330
13A
330
14E
330
14D
330
14C
330
136
330
137
 75
     1
 76
     0
 52
45.0
 41
0.1
 77
     0
 78
     1
 53
45.0
 43
0.0
 44
0.0
 45
-0.0707106781186548
 46
0.0707106781186548
 79
     0
 98
        1
 10
0.0
 20
0.0
  0
ENDBLK
  5
73
330
71
100
AcDbEntity
  8
0
100
AcDbBlockEnd
  0
BLOCK
  5
75
330
74
100
AcDbEntity
  8
0
100
AcDbBlockBegin
  2
_punkt
 70
     0
 10
-123.4999999999899
 20
-262.000000000005
 30
0.0
  3
_punkt
  1

  0
LINE
  5
23C
330
74
100
AcDbEntity
  8
1
  6
Continuous
 62
     2
100
AcDbLine
 10
-123.4999999999899
 20
-262.000000000005
 30
0.0
 11
-123.4999999999899
 21
-267.0000000000051
 31
0.0
  0
LINE
  5
23D
330
74
100
AcDbEntity
  8
1
  6
Continuous
 62
     2
100
AcDbLine
 10
-123.4999999999899
 20
-262.000000000005
 30
0.0
 11
-118.4999999999909
 21
-262.000000000005
 31
0.0
  0
ENDBLK
  5
76
330
74
100
AcDbEntity
  8
0
100
AcDbBlockEnd
  0
BLOCK
  5
7A
330
77
100
AcDbEntity
  8
0
100
AcDbBlockBegin
  2
A4I_CS
 70
     0
 10
-123.4999999999899
 20
-267.0000000000051
 30
0.0
  3
A4I_CS
  1

  0
INSERT
  5
78
330
77
100
AcDbEntity
  8
1
100
AcDbBlockReference
  2
_rahmen
 10
-123.4999999999899
 20
-267.0000000000051
 30
0.0
  0
INSERT
  5
79
330
77
100
AcDbEntity
  8
1
100
AcDbBlockReference
  2
_punkt
 10
-123.4999999999899
 20
-262.000000000005
 30
0.0
  0
ENDBLK
  5
7B
330
77
100
AcDbEntity
  8
0
100
AcDbBlockEnd
  0
BLOCK
  5
84
330
7C
100
AcDbEntity
  8
0
100
AcDbBlockBegin
  2
1
 70
     0
 10
0.0
 20
0.0
 30
0.0
  3
1
  1

  0
INSERT
  5
7D
330
7C
100
AcDbEntity
  8
0
100
AcDbBlockReference
  2
Allg1
 10
-184.9999921109447
 20
-191.0000022773899
 30
0.0
 41
5.0
 42
5.0
 43
5.0
  0
INSERT
  5
7E
330
7C
100
AcDbEntity
  8
0
100
AcDbBlockReference
  2
Drfsicht1
 10
-290.99999089049
 20
-191.0000000000251
 30
0.0
 41
5.0
 42
5.0
 43
5.0
  0
INSERT
  5
7F
330
7C
100
AcDbEntity
  8
0
100
AcDbBlockReference
  2
Rckans1
 10
-153.5000073285281
 20
-105.5000076293945
 30
0.0
 41
5.0
 42
5.0
 43
5.0
  0
INSERT
  5
80
330
7C
100
AcDbEntity
  8
0
100
AcDbBlockReference
  2
SA_Links1
 10
-221.7499991094836
 20
-105.5000076293945
 30
0.0
 41
5.0
 42
5.0
 43
5.0
  0
INSERT
  5
81
330
7C
100
AcDbEntity
  8
0
100
AcDbBlockReference
  2
SA_Rechts1
 10
-372.249980890516
 20
-105.5000076293943
 30
0.0
 41
5.0
 42
5.0
 43
5.0
  0
INSERT
  5
82
330
7C
100
AcDbEntity
  8
0
100
AcDbBlockReference
  2
Vordans1
 10
-290.99999089049
 20
-105.5000076293945
 30
0.0
 41
5.0
 42
5.0
 43
5.0
  0
INSERT
  5
83
330
7C
100
AcDbEntity
  8
0
100
AcDbBlockReference
  2
A4I_CS
 10
-123.4999999999899
 20
-267.0000000000051
 30
0.0
  0
ENDBLK
  5
85
330
7C
100
AcDbEntity
  8
0
100
AcDbBlockEnd
  0
BLOCK
  5
B3
330
AC
100
AcDbEntity
  8
0
100
AcDbBlockBegin
  2
*D17
 70
     1
 10
0.0
 20
0.0
 30
0.0
  3
*D17
  1

  0
LINE
  5
AD
330
AC
100
AcDbEntity
  8
1
  6
Continuous
 62
     2
100
AcDbLine
 10
-65.44999253429444
 20
-31.20000000001003
 30
0.0
 11
-65.44999253429444
 21
-45.20000000001003
 31
0.0
  0
LINE
  5
AE
330
AC
100
AcDbEntity
  8
1
  6
Continuous
 62
     2
100
AcDbLine
 10
-63.44999253429444
 20
-31.20000000001003
 30
0.0
 11
-65.74999253429444
 21
-31.20000000001003
 31
0.0
  0
LINE
  5
AF
330
AC
100
AcDbEntity
  8
1
  6
Continuous
 62
     2
100
AcDbLine
 10
-63.44999253429444
 20
-45.20000000001003
 30
0.0
 11
-65.74999253429444
 21
-45.20000000001003
 31
0.0
  0
SOLID
  5
B0
330
AC
100
AcDbEntity
  8
1
 62
     2
100
AcDbTrace
 10
-65.35783578598326
 20
-31.90000000001003
 30
0.0
 11
-65.54214928260562
 21
-31.90000000001003
 31
0.0
 12
-65.44999253429444
 22
-31.20000000001003
 32
0.0
 13
-65.44999253429444
 23
-31.20000000001003
 33
0.0
  0
SOLID
  5
B1
330
AC
100
AcDbEntity
  8
1
 62
     2
100
AcDbTrace
 10
-65.54214928260562
 20
-44.50000000001003
 30
0.0
 11
-65.35783578598326
 21
-44.50000000001003
 31
0.0
 12
-65.44999253429444
 22
-45.20000000001003
 32
0.0
 13
-65.44999253429444
 23
-45.20000000001003
 33
0.0
  0
MTEXT
  5
B2
330
AC
100
AcDbEntity
  8
1
 62
     3
100
AcDbMText
 10
-65.74999253429445
 20
-38.56480790988086
 30
0.0
 40
0.7
 41
0.0
 71
     7
 72
     1
  1
14
  7
CONVERTER_11
 11
0.0
 21
1.0
 31
0.0
 73
     1
 44
0.60024009603842
  0
ENDBLK
  5
B4
330
AC
100
AcDbEntity
  8
0
100
AcDbBlockEnd
  0
BLOCK
  5
F6
330
EF
100
AcDbEntity
  8
0
100
AcDbBlockBegin
  2
*D18
 70
     1
 10
0.0
 20
0.0
 30
0.0
  3
*D18
  1

  0
LINE
  5
F0
330
EF
100
AcDbEntity
  8
1
  6
Continuous
 62
     2
100
AcDbLine
 10
-63.44999253429442
 20
-25.67686533138645
 30
0.0
 11
-52.94999253429442
 21
-25.67686533138645
 31
0.0
  0
LINE
  5
F1
330
EF
100
AcDbEntity
  8
1
  6
Continuous
 62
     2
100
AcDbLine
 10
-63.44999253429442
 20
-20.09999939355775
 30
0.0
 11
-63.44999253429442
 21
-25.97686533138645
 31
0.0
  0
LINE
  5
F2
330
EF
100
AcDbEntity
  8
1
  6
Continuous
 62
     2
100
AcDbLine
 10
-52.94999253429442
 20
-20.09999939355775
 30
0.0
 11
-52.94999253429442
 21
-25.97686533138645
 31
0.0
  0
SOLID
  5
F3
330
EF
100
AcDbEntity
  8
1
 62
     2
100
AcDbTrace
 10
-62.74999253429441
 20
-25.58470858307527
 30
0.0
 11
-62.74999253429441
 21
-25.76902207969762
 31
0.0
 12
-63.44999253429442
 22
-25.67686533138645
 32
0.0
 13
-63.44999253429442
 23
-25.67686533138645
 33
0.0
  0
SOLID
  5
F4
330
EF
100
AcDbEntity
  8
1
 62
     2
100
AcDbTrace
 10
-53.64999253429442
 20
-25.76902207969762
 30
0.0
 11
-53.64999253429442
 21
-25.58470858307527
 31
0.0
 12
-52.94999253429442
 22
-25.67686533138645
 32
0.0
 13
-52.94999253429442
 23
-25.67686533138645
 33
0.0
  0
MTEXT
  5
F5
330
EF
100
AcDbEntity
  8
1
 62
     3
100
AcDbMText
 10
-59.05749817809801
 20
-25.30686533138645
 30
0.0
 40
0.7
 41
0.0
 71
     7
 72
     1
  1
10,5
  7
CONVERTER_11
 11
0.9999999999970619
 21
2.424068405545306E-6
 31
0.0
 73
     1
 44
0.60024009603842
  0
ENDBLK
  5
F7
330
EF
100
AcDbEntity
  8
0
100
AcDbBlockEnd
  0
BLOCK
  5
101
330
FA
100
AcDbEntity
  8
0
100
AcDbBlockBegin
  2
*D19
 70
     1
 10
0.0
 20
0.0
 30
0.0
  3
*D19
  1

  0
LINE
  5
FB
330
FA
100
AcDbEntity
  8
1
  6
Continuous
 62
     2
100
AcDbLine
 10
-65.44999253429441
 20
-18.99999939355774
 30
0.0
 11
-65.44999253429441
 21
-23.19999939355794
 31
0.0
  0
LINE
  5
FC
330
FA
100
AcDbEntity
  8
1
  6
Continuous
 62
     2
100
AcDbLine
 10
-63.44999253429442
 20
-18.99999939355774
 30
0.0
 11
-65.7499925342944
 21
-18.99999939355774
 31
0.0
  0
LINE
  5
FD
330
FA
100
AcDbEntity
  8
1
  6
Continuous
 62
     2
100
AcDbLine
 10
-61.02499253429444
 20
-23.19999939355794
 30
0.0
 11
-65.7499925342944
 21
-23.19999939355794
 31
0.0
  0
SOLID
  5
FE
330
FA
100
AcDbEntity
  8
1
 62
     2
100
AcDbTrace
 10
-65.35783578598323
 20
-19.69999939355774
 30
0.0
 11
-65.54214928260559
 21
-19.69999939355774
 31
0.0
 12
-65.44999253429441
 22
-18.99999939355774
 32
0.0
 13
-65.44999253429441
 23
-18.99999939355774
 33
0.0
  0
SOLID
  5
FF
330
FA
100
AcDbEntity
  8
1
 62
     2
100
AcDbTrace
 10
-65.54214928260559
 20
-22.49999939355794
 30
0.0
 11
-65.35783578598323
 21
-22.49999939355794
 31
0.0
 12
-65.44999253429441
 22
-23.19999939355794
 32
0.0
 13
-65.44999253429441
 23
-23.19999939355794
 33
0.0
  0
MTEXT
  5
100
330
FA
100
AcDbEntity
  8
1
 62
     3
100
AcDbMText
 10
-65.81999253429441
 20
-21.50648380990344
 30
0.0
 40
0.7
 41
0.0
 71
     7
 72
     1
  1
4,2
  7
CONVERTER_11
 11
0.0
 21
1.0
 31
0.0
 73
     1
 44
0.60024009603842
  0
ENDBLK
  5
102
330
FA
100
AcDbEntity
  8
0
100
AcDbBlockEnd
  0
ENDSEC
  0
SECTION
  2
ENTITIES
  0
INSERT
  5
86
330
1F
100
AcDbEntity
  8
1
100
AcDbBlockReference
  2
1
 10
0.0
 20
0.0
 30
0.0
  0
ENDSEC
  0
SECTION
  2
OBJECTS
  0
DICTIONARY
  5
C
330
0
100
AcDbDictionary
281
     1
  3
ACAD_GROUP
350
D
  3
ACAD_LAYOUT
350
1A
  3
ACAD_MATERIAL
350
3B
  3
ACAD_MLEADERSTYLE
350
265
  3
ACAD_MLINESTYLE
350
17
  3
ACAD_PLOTSETTINGS
350
19
  3
ACAD_PLOTSTYLENAME
350
E
  3
ACAD_TABLESTYLE
350
264
  3
ACAD_VISUALSTYLE
350
2A
  0
DICTIONARY
  5
D
102
{ACAD_REACTORS
330
C
102
}
330
C
100
AcDbDictionary
281
     1
  0
DICTIONARY
  5
1A
102
{ACAD_REACTORS
330
C
102
}
330
C
100
AcDbDictionary
281
     1
  3
Layout1
350
1E
  3
Layout2
350
26
  3
Model
350
22
  0
DICTIONARY
  5
3B
102
{ACAD_REACTORS
330
C
102
}
330
C
100
AcDbDictionary
281
     1
  3
ByBlock
350
3D
  3
ByLayer
350
3C
  3
Global
350
3E
  0
DICTIONARY
  5
265
102
{ACAD_REACTORS
330
C
102
}
330
C
100
AcDbDictionary
281
     1
  0
DICTIONARY
  5
17
102
{ACAD_REACTORS
330
C
102
}
330
C
100
AcDbDictionary
281
     1
  3
Standard
350
18
  0
DICTIONARY
  5
19
102
{ACAD_REACTORS
330
C
102
}
330
C
100
AcDbDictionary
281
     1
  0
ACDBDICTIONARYWDFLT
  5
E
102
{ACAD_REACTORS
330
C
102
}
330
C
100
AcDbDictionary
281
     1
  3
Normal
350
F
100
AcDbDictionaryWithDefault
340
F
  0
DICTIONARY
  5
264
102
{ACAD_REACTORS
330
C
102
}
330
C
100
AcDbDictionary
281
     1
  0
DICTIONARY
  5
2A
102
{ACAD_REACTORS
330
C
102
}
330
C
100
AcDbDictionary
281
     1
  3
2dWireframe
350
2F
  3
3D Hidden
350
31
  3
3dWireframe
350
30
  3
Basic
350
32
  3
Brighten
350
36
  3
ColorChange
350
3A
  3
Conceptual
350
34
  3
Dim
350
35
  3
Facepattern
350
39
  3
Flat
350
2B
  3
FlatWithEdges
350
2C
  3
Gouraud
350
2D
  3
GouraudWithEdges
350
2E
  3
Linepattern
350
38
  3
Realistic
350
33
  3
Thicken
350
37
  0
LAYOUT
  5
1E
102
{ACAD_REACTORS
330
1A
102
}
330
1A
100
AcDbPlotSettings
  1

  2
none_device
  4

  6

 40
0.0
 41
0.0
 42
0.0
 43
0.0
 44
0.0
 45
0.0
 46
0.0
 47
0.0
 48
0.0
 49
0.0
140
0.0
141
0.0
142
1.0
143
1.0
 70
   688
 72
     0
 73
     0
 74
     5
  7

 75
    16
 76
     0
 77
     2
 78
   300
147
1.0
148
0.0
149
0.0
100
AcDbLayout
  1
Layout1
 70
     1
 71
     1
 10
0.0
 20
0.0
 11
12.0
 21
9.0
 12
0.0
 22
0.0
 32
0.0
 14
1.00000000000000E+20
 24
1.00000000000000E+20
 34
1.00000000000000E+20
 15
-1.00000000000000E+20
 25
-1.00000000000000E+20
 35
-1.00000000000000E+20
146
0.0
 13
0.0
 23
0.0
 33
0.0
 16
1.0
 26
0.0
 36
0.0
 17
0.0
 27
1.0
 37
0.0
 76
     0
330
1B
  0
LAYOUT
  5
26
102
{ACAD_REACTORS
330
1A
102
}
330
1A
100
AcDbPlotSettings
  1

  2
none_device
  4

  6

 40
0.0
 41
0.0
 42
0.0
 43
0.0
 44
0.0
 45
0.0
 46
0.0
 47
0.0
 48
0.0
 49
0.0
140
0.0
141
0.0
142
1.0
143
1.0
 70
   688
 72
     0
 73
     0
 74
     5
  7

 75
    16
 76
     0
 77
     2
 78
   300
147
1.0
148
0.0
149
0.0
100
AcDbLayout
  1
Layout2
 70
     1
 71
     2
 10
0.0
 20
0.0
 11
0.0
 21
0.0
 12
0.0
 22
0.0
 32
0.0
 14
0.0
 24
0.0
 34
0.0
 15
0.0
 25
0.0
 35
0.0
146
0.0
 13
0.0
 23
0.0
 33
0.0
 16
1.0
 26
0.0
 36
0.0
 17
0.0
 27
1.0
 37
0.0
 76
     0
330
23
  0
LAYOUT
  5
22
102
{ACAD_REACTORS
330
1A
102
}
330
1A
100
AcDbPlotSettings
  1

  2
none_device
  4

  6

 40
0.0
 41
0.0
 42
0.0
 43
0.0
 44
0.0
 45
0.0
 46
0.0
 47
0.0
 48
0.0
 49
0.0
140
0.0
141
0.0
142
1.0
143
1.0
 70
  1712
 72
     0
 73
     0
 74
     0
  7

 75
     0
 76
     0
 77
     2
 78
   300
147
1.0
148
0.0
149
0.0
100
AcDbLayout
  1
Model
 70
     1
 71
     0
 10
0.0
 20
0.0
 11
12.0
 21
9.0
 12
0.0
 22
0.0
 32
0.0
 14
-415.499999999989
 24
-267.0000000000051
 34
0.0
 15
-118.4999999999909
 25
-57.000000000005
 35
0.0
146
0.0
 13
0.0
 23
0.0
 33
0.0
 16
1.0
 26
0.0
 36
0.0
 17
0.0
 27
1.0
 37
0.0
 76
     0
330
1F
331
29
  0
MATERIAL
  5
3D
102
{ACAD_REACTORS
330
3B
102
}
102
{ACAD_XDICTIONARY
360
260
102
}
330
3B
100
AcDbMaterial
  1
ByBlock
  0
MATERIAL
  5
3C
102
{ACAD_REACTORS
330
3B
102
}
102
{ACAD_XDICTIONARY
360
25E
102
}
330
3B
100
AcDbMaterial
  1
ByLayer
  0
MATERIAL
  5
3E
102
{ACAD_REACTORS
330
3B
102
}
102
{ACAD_XDICTIONARY
360
262
102
}
330
3B
100
AcDbMaterial
  1
Global
  0
MLINESTYLE
  5
18
102
{ACAD_REACTORS
330
17
102
}
330
17
100
AcDbMlineStyle
  2
Standard
 70
     0
  3

 62
   256
 51
90.0
 52
90.0
 71
     2
 49
0.5
 62
   256
  6
BYLAYER
 49
-0.5
 62
   256
  6
BYLAYER
  0
ACDBPLACEHOLDER
  5
F
102
{ACAD_REACTORS
330
E
102
}
330
E
  0
VISUALSTYLE
  5
2F
102
{ACAD_REACTORS
330
2A
102
}
102
{ACAD_XDICTIONARY
360
246
102
}
330
2A
100
AcDbVisualStyle
  2
2dWireframe
 70
     4
 71
     0
 72
     2
 73
     0
 90
        0
 40
-0.6
 41
-30.0
 62
     5
 63
     7
421
 16777215
 74
     1
 91
        4
 64
     7
 65
   257
 75
     1
175
     1
 42
1.0
 92
        0
 66
   257
 43
1.0
 76
     1
 77
     6
 78
     2
 67
     7
 79
     5
170
     0
171
     0
290
     0
174
     0
 93
        1
 44
0.0
173
     0
291
     0
 45
0.0
1001
ACAD
1000
AcDbSavedByObjectVersion
1070
     0
  0
VISUALSTYLE
  5
31
102
{ACAD_REACTORS
330
2A
102
}
102
{ACAD_XDICTIONARY
360
24A
102
}
330
2A
100
AcDbVisualStyle
  2
3D Hidden
 70
     6
 71
     1
 72
     2
 73
     2
 90
        0
 40
-0.6
 41
-30.0
 62
     5
 63
     7
421
 16777215
 74
     2
 91
        2
 64
     7
 65
   257
 75
     2
175
     1
 42
40.0
 92
        0
 66
   257
 43
1.0
 76
     1
 77
     6
 78
     2
 67
     7
 79
     3
170
     0
171
     0
290
     0
174
     0
 93
        1
 44
0.0
173
     0
291
     0
 45
0.0
1001
ACAD
1000
AcDbSavedByObjectVersion
1070
     0
  0
VISUALSTYLE
  5
30
102
{ACAD_REACTORS
330
2A
102
}
102
{ACAD_XDICTIONARY
360
248
102
}
330
2A
100
AcDbVisualStyle
  2
3dWireframe
 70
     5
 71
     0
 72
     2
 73
     0
 90
        0
 40
-0.6
 41
-30.0
 62
     5
 63
     7
421
 16777215
 74
     1
 91
        4
 64
     7
 65
   257
 75
     1
175
     1
 42
1.0
 92
        0
 66
   257
 43
1.0
 76
     1
 77
     6
 78
     2
 67
     7
 79
     5
170
     0
171
     0
290
     0
174
     0
 93
        1
 44
0.0
173
     0
291
     0
 45
0.0
1001
ACAD
1000
AcDbSavedByObjectVersion
1070
     0
  0
VISUALSTYLE
  5
32
102
{ACAD_REACTORS
330
2A
102
}
102
{ACAD_XDICTIONARY
360
24C
102
}
330
2A
100
AcDbVisualStyle
  2
Basic
 70
     7
 71
     1
 72
     0
 73
     1
 90
        0
 40
-0.6
 41
-30.0
 62
     5
 63
     7
421
 16777215
 74
     0
 91
        4
 64
     7
 65
   257
 75
     1
175
     1
 42
1.0
 92
        8
 66
     7
 43
1.0
 76
     1
 77
     6
 78
     2
 67
     7
 79
     5
170
     0
171
     0
290
     0
174
     0
 93
        1
 44
0.0
173
     0
291
     1
 45
0.0
1001
ACAD
1000
AcDbSavedByObjectVersion
1070
     0
  0
VISUALSTYLE
  5
36
102
{ACAD_REACTORS
330
2A
102
}
102
{ACAD_XDICTIONARY
360
254
102
}
330
2A
100
AcDbVisualStyle
  2
Brighten
 70
    12
 71
     2
 72
     2
 73
     0
 90
        0
 40
-0.6
 41
-30.0
 62
     5
 63
     7
421
 16777215
 74
     1
 91
        4
 64
     7
 65
   257
 75
     1
175
     1
 42
1.0
 92
        8
 66
     7
 43
1.0
 76
     1
 77
     6
 78
     2
 67
     7
 79
     5
170
     0
171
     0
290
     0
174
     0
 93
        1
 44
50.0
173
     0
291
     1
 45
0.0
1001
ACAD
1000
AcDbSavedByObjectVersion
1070
     0
  0
VISUALSTYLE
  5
3A
102
{ACAD_REACTORS
330
2A
102
}
102
{ACAD_XDICTIONARY
360
25C
102
}
330
2A
100
AcDbVisualStyle
  2
ColorChange
 70
    16
 71
     2
 72
     2
 73
     3
 90
        0
 40
-0.6
 41
-30.0
 62
     5
 63
     8
421
  8421504
 74
     1
 91
        4
 64
     7
 65
   257
 75
     1
175
     1
 42
1.0
 92
        8
 66
     8
424
  8421504
 43
1.0
 76
     1
 77
     6
 78
     2
 67
     7
 79
     5
170
     0
171
     0
290
     0
174
     0
 93
        1
 44
0.0
173
     0
291
     1
 45
0.0
1001
ACAD
1000
AcDbSavedByObjectVersion
1070
     0
  0
VISUALSTYLE
  5
34
102
{ACAD_REACTORS
330
2A
102
}
102
{ACAD_XDICTIONARY
360
250
102
}
330
2A
100
AcDbVisualStyle
  2
Conceptual
 70
     9
 71
     3
 72
     2
 73
     0
 90
        0
 40
-0.6
 41
-30.0
 62
     5
 63
     7
421
 16777215
 74
     2
 91
        2
 64
     7
 65
   257
 75
     1
175
     1
 42
40.0
 92
        8
 66
     7
 43
1.0
 76
     1
 77
     6
 78
     2
 67
     7
 79
     3
170
     0
171
     0
290
     0
174
     0
 93
        1
 44
0.0
173
     0
291
     0
 45
0.0
1001
ACAD
1000
AcDbSavedByObjectVersion
1070
     0
  0
VISUALSTYLE
  5
35
102
{ACAD_REACTORS
330
2A
102
}
102
{ACAD_XDICTIONARY
360
252
102
}
330
2A
100
AcDbVisualStyle
  2
Dim
 70
    11
 71
     2
 72
     2
 73
     0
 90
        0
 40
-0.6
 41
-30.0
 62
     5
 63
     7
421
 16777215
 74
     1
 91
        4
 64
     7
 65
   257
 75
     1
175
     1
 42
1.0
 92
        8
 66
     7
 43
1.0
 76
     1
 77
     6
 78
     2
 67
     7
 79
     5
170
     0
171
     0
290
     0
174
     0
 93
        1
 44
-50.0
173
     0
291
     1
 45
0.0
1001
ACAD
1000
AcDbSavedByObjectVersion
1070
     0
  0
VISUALSTYLE
  5
39
102
{ACAD_REACTORS
330
2A
102
}
102
{ACAD_XDICTIONARY
360
25A
102
}
330
2A
100
AcDbVisualStyle
  2
Facepattern
 70
    15
 71
     2
 72
     2
 73
     0
 90
        0
 40
-0.6
 41
-30.0
 62
     5
 63
     7
421
 16777215
 74
     1
 91
        4
 64
     7
 65
   257
 75
     1
175
     1
 42
1.0
 92
        8
 66
     7
 43
1.0
 76
     1
 77
     6
 78
     2
 67
     7
 79
     5
170
     0
171
     0
290
     0
174
     0
 93
        1
 44
0.0
173
     0
291
     1
 45
0.0
1001
ACAD
1000
AcDbSavedByObjectVersion
1070
     0
  0
VISUALSTYLE
  5
2B
102
{ACAD_REACTORS
330
2A
102
}
102
{ACAD_XDICTIONARY
360
23E
102
}
330
2A
100
AcDbVisualStyle
  2
Flat
 70
     0
 71
     2
 72
     1
 73
     1
 90
        2
 40
-0.6
 41
30.0
 62
     5
 63
     7
421
 16777215
 74
     0
 91
        4
 64
     7
 65
   257
 75
     1
175
     1
 42
1.0
 92
        8
 66
     7
 43
1.0
 76
     1
 77
     6
 78
     2
 67
     7
 79
     5
170
     0
171
     0
290
     0
174
     0
 93
       13
 44
0.0
173
     0
291
     1
 45
0.0
1001
ACAD
1000
AcDbSavedByObjectVersion
1070
     0
  0
VISUALSTYLE
  5
2C
102
{ACAD_REACTORS
330
2A
102
}
102
{ACAD_XDICTIONARY
360
240
102
}
330
2A
100
AcDbVisualStyle
  2
FlatWithEdges
 70
     1
 71
     2
 72
     1
 73
     1
 90
        2
 40
-0.6
 41
30.0
 62
     5
 63
     7
421
 16777215
 74
     1
 91
        4
 64
     7
 65
   257
 75
     1
175
     1
 42
1.0
 92
        0
 66
   257
 43
1.0
 76
     1
 77
     6
 78
     2
 67
     7
 79
     5
170
     0
171
     0
290
     0
174
     0
 93
       13
 44
0.0
173
     0
291
     1
 45
0.0
1001
ACAD
1000
AcDbSavedByObjectVersion
1070
     0
  0
VISUALSTYLE
  5
2D
102
{ACAD_REACTORS
330
2A
102
}
102
{ACAD_XDICTIONARY
360
242
102
}
330
2A
100
AcDbVisualStyle
  2
Gouraud
 70
     2
 71
     2
 72
     2
 73
     1
 90
        2
 40
-0.6
 41
30.0
 62
     5
 63
     7
421
 16777215
 74
     0
 91
        4
 64
     7
 65
   257
 75
     1
175
     1
 42
1.0
 92
        0
 66
     7
 43
1.0
 76
     1
 77
     6
 78
     2
 67
     7
 79
     5
170
     0
171
     0
290
     0
174
     0
 93
       13
 44
0.0
173
     0
291
     1
 45
0.0
1001
ACAD
1000
AcDbSavedByObjectVersion
1070
     0
  0
VISUALSTYLE
  5
2E
102
{ACAD_REACTORS
330
2A
102
}
102
{ACAD_XDICTIONARY
360
244
102
}
330
2A
100
AcDbVisualStyle
  2
GouraudWithEdges
 70
     3
 71
     2
 72
     2
 73
     1
 90
        2
 40
-0.6
 41
30.0
 62
     5
 63
     7
421
 16777215
 74
     1
 91
        4
 64
     7
 65
   257
 75
     1
175
     1
 42
1.0
 92
        0
 66
   257
 43
1.0
 76
     1
 77
     6
 78
     2
 67
     7
 79
     5
170
     0
171
     0
290
     0
174
     0
 93
       13
 44
0.0
173
     0
291
     1
 45
0.0
1001
ACAD
1000
AcDbSavedByObjectVersion
1070
     0
  0
VISUALSTYLE
  5
38
102
{ACAD_REACTORS
330
2A
102
}
102
{ACAD_XDICTIONARY
360
258
102
}
330
2A
100
AcDbVisualStyle
  2
Linepattern
 70
    14
 71
     2
 72
     2
 73
     0
 90
        0
 40
-0.6
 41
-30.0
 62
     5
 63
     7
421
 16777215
 74
     1
 91
        4
 64
     7
 65
   257
 75
     7
175
     7
 42
1.0
 92
        8
 66
     7
 43
1.0
 76
     1
 77
     6
 78
     2
 67
     7
 79
     5
170
     0
171
     0
290
     0
174
     0
 93
        1
 44
0.0
173
     0
291
     1
 45
0.0
1001
ACAD
1000
AcDbSavedByObjectVersion
1070
     0
  0
VISUALSTYLE
  5
33
102
{ACAD_REACTORS
330
2A
102
}
102
{ACAD_XDICTIONARY
360
24E
102
}
330
2A
100
AcDbVisualStyle
  2
Realistic
 70
     8
 71
     2
 72
     2
 73
     0
 90
        0
 40
-0.6
 41
-30.0
 62
     5
 63
     7
421
 16777215
 74
     1
 91
        0
 64
     7
 65
   257
 75
     1
175
     1
 42
1.0
 92
        8
 66
     8
424
  7895160
 43
1.0
 76
     1
 77
     6
 78
     2
 67
     7
 79
     5
170
     0
171
     0
290
     0
174
     0
 93
       13
 44
0.0
173
     0
291
     0
 45
0.0
1001
ACAD
1000
AcDbSavedByObjectVersion
1070
     0
  0
VISUALSTYLE
  5
37
102
{ACAD_REACTORS
330
2A
102
}
102
{ACAD_XDICTIONARY
360
256
102
}
330
2A
100
AcDbVisualStyle
  2
Thicken
 70
    13
 71
     2
 72
     2
 73
     0
 90
        0
 40
-0.6
 41
-30.0
 62
     5
 63
     7
421
 16777215
 74
     1
 91
        4
 64
     7
 65
   257
 75
     1
175
     1
 42
1.0
 92
       12
 66
     7
 43
1.0
 76
     1
 77
     6
 78
     2
 67
     7
 79
     5
170
     0
171
     0
290
     0
174
     0
 93
        1
 44
0.0
173
     0
291
     1
 45
0.0
1001
ACAD
1000
AcDbSavedByObjectVersion
1070
     0
  0
DICTIONARY
  5
260
330
3D
100
AcDbDictionary
280
     1
281
     1
  3
ACAD_XREC_ROUNDTRIP
360
261
  0
DICTIONARY
  5
25E
330
3C
100
AcDbDictionary
280
     1
281
     1
  3
ACAD_XREC_ROUNDTRIP
360
25F
  0
DICTIONARY
  5
262
330
3E
100
AcDbDictionary
280
     1
281
     1
  3
ACAD_XREC_ROUNDTRIP
360
263
  0
DICTIONARY
  5
246
330
2F
100
AcDbDictionary
280
     1
281
     1
  3
ACAD_XREC_ROUNDTRIP
360
247
  0
DICTIONARY
  5
24A
330
31
100
AcDbDictionary
280
     1
281
     1
  3
ACAD_XREC_ROUNDTRIP
360
24B
  0
DICTIONARY
  5
248
330
30
100
AcDbDictionary
280
     1
281
     1
  3
ACAD_XREC_ROUNDTRIP
360
249
  0
DICTIONARY
  5
24C
330
32
100
AcDbDictionary
280
     1
281
     1
  3
ACAD_XREC_ROUNDTRIP
360
24D
  0
DICTIONARY
  5
254
330
36
100
AcDbDictionary
280
     1
281
     1
  3
ACAD_XREC_ROUNDTRIP
360
255
  0
DICTIONARY
  5
25C
330
3A
100
AcDbDictionary
280
     1
281
     1
  3
ACAD_XREC_ROUNDTRIP
360
25D
  0
DICTIONARY
  5
250
330
34
100
AcDbDictionary
280
     1
281
     1
  3
ACAD_XREC_ROUNDTRIP
360
251
  0
DICTIONARY
  5
252
330
35
100
AcDbDictionary
280
     1
281
     1
  3
ACAD_XREC_ROUNDTRIP
360
253
  0
DICTIONARY
  5
25A
330
39
100
AcDbDictionary
280
     1
281
     1
  3
ACAD_XREC_ROUNDTRIP
360
25B
  0
DICTIONARY
  5
23E
330
2B
100
AcDbDictionary
280
     1
281
     1
  3
ACAD_XREC_ROUNDTRIP
360
23F
  0
DICTIONARY
  5
240
330
2C
100
AcDbDictionary
280
     1
281
     1
  3
ACAD_XREC_ROUNDTRIP
360
241
  0
DICTIONARY
  5
242
330
2D
100
AcDbDictionary
280
     1
281
     1
  3
ACAD_XREC_ROUNDTRIP
360
243
  0
DICTIONARY
  5
244
330
2E
100
AcDbDictionary
280
     1
281
     1
  3
ACAD_XREC_ROUNDTRIP
360
245
  0
DICTIONARY
  5
258
330
38
100
AcDbDictionary
280
     1
281
     1
  3
ACAD_XREC_ROUNDTRIP
360
259
  0
DICTIONARY
  5
24E
330
33
100
AcDbDictionary
280
     1
281
     1
  3
ACAD_XREC_ROUNDTRIP
360
24F
  0
DICTIONARY
  5
256
330
37
100
AcDbDictionary
280
     1
281
     1
  3
ACAD_XREC_ROUNDTRIP
360
257
  0
XRECORD
  5
261
102
{ACAD_REACTORS
330
260
102
}
330
260
100
AcDbXrecord
280
     1
102
MATERIAL
148
0.0
149
0.0
149
0.0
 93
        0
 94
      127
282
     0
 72
     1
 77
     1
171
     1
175
     1
179
     1
273
     0
  0
XRECORD
  5
25F
102
{ACAD_REACTORS
330
25E
102
}
330
25E
100
AcDbXrecord
280
     1
102
MATERIAL
148
0.0
149
0.0
149
0.0
 93
        0
 94
      127
282
     0
 72
     1
 77
     1
171
     1
175
     1
179
     1
273
     0
  0
XRECORD
  5
263
102
{ACAD_REACTORS
330
262
102
}
330
262
100
AcDbXrecord
280
     1
102
MATERIAL
148
0.0
149
0.0
149
0.0
 93
        0
 94
      127
282
     0
 72
     1
 77
     1
171
     1
175
     1
179
     1
273
     0
  0
XRECORD
  5
247
102
{ACAD_REACTORS
330
246
102
}
330
246
100
AcDbXrecord
280
     1
102
RTVSPropertyOp0
 70
     1
102
RTVSPropertyOp1
 70
     1
102
RTVSPropertyOp2
 70
     1
102
RTVSPropertyOp3
 70
     1
102
RTVSPropertyOp4
 70
     1
102
RTVSPropertyOp5
 70
     1
102
RTVSPropertyOp6
 70
     1
102
RTVSPropertyOp7
 70
     1
102
RTVSPropertyOp8
 70
     1
102
RTVSPropertyOp9
 70
     1
102
RTVSPropertyOp10
 70
     1
102
RTVSPropertyOp11
 70
     1
102
RTVSPropertyOp12
 70
     1
102
RTVSPropertyOp13
 70
     1
102
RTVSPropertyOp14
 70
     1
102
RTVSPropertyOp15
 70
     1
102
RTVSPropertyOp16
 70
     1
102
RTVSPropertyOp17
 70
     1
102
RTVSPropertyOp18
 70
     1
102
RTVSPropertyOp19
 70
     1
102
RTVSPropertyOp20
 70
     1
102
RTVSPropertyOp21
 70
     1
102
RTVSPropertyOp22
 70
     1
102
RTVSPropertyOp23
 70
     1
102
RTVSPropertyOp24
 70
     1
102
RTVSPropertyOp25
 70
     1
102
RTVSPropertyOp26
 70
     1
102
RTVSPropertyOp27
 70
     1
102
RTVSPropertyOp28
 70
     1
102
RTVSPropertyOp29
 70
     1
102
RTVSPropertyOp30
 70
     1
102
RTVSPropertyOp31
 70
     1
102
RTVSPropertyOp32
 70
     1
  0
XRECORD
  5
24B
102
{ACAD_REACTORS
330
24A
102
}
330
24A
100
AcDbXrecord
280
     1
102
RTVSPropertyOp0
 70
     1
102
RTVSPropertyOp1
 70
     1
102
RTVSPropertyOp2
 70
     1
102
RTVSPropertyOp3
 70
     1
102
RTVSPropertyOp4
 70
     1
102
RTVSPropertyOp5
 70
     1
102
RTVSPropertyOp6
 70
     1
102
RTVSPropertyOp7
 70
     1
102
RTVSPropertyOp8
 70
     1
102
RTVSPropertyOp9
 70
     1
102
RTVSPropertyOp10
 70
     1
102
RTVSPropertyOp11
 70
     1
102
RTVSPropertyOp12
 70
     1
102
RTVSPropertyOp13
 70
     1
102
RTVSPropertyOp14
 70
     1
102
RTVSPropertyOp15
 70
     1
102
RTVSPropertyOp16
 70
     1
102
RTVSPropertyOp17
 70
     1
102
RTVSPropertyOp18
 70
     1
102
RTVSPropertyOp19
 70
     1
102
RTVSPropertyOp20
 70
     1
102
RTVSPropertyOp21
 70
     1
102
RTVSPropertyOp22
 70
     1
102
RTVSPropertyOp23
 70
     1
102
RTVSPropertyOp24
 70
     1
102
RTVSPropertyOp25
 70
     1
102
RTVSPropertyOp26
 70
     1
102
RTVSPropertyOp27
 70
     1
102
RTVSPropertyOp28
 70
     1
102
RTVSPropertyOp29
 70
     1
102
RTVSPropertyOp30
 70
     1
102
RTVSPropertyOp31
 70
     1
102
RTVSPropertyOp32
 70
     1
  0
XRECORD
  5
249
102
{ACAD_REACTORS
330
248
102
}
330
248
100
AcDbXrecord
280
     1
102
RTVSPropertyOp0
 70
     1
102
RTVSPropertyOp1
 70
     1
102
RTVSPropertyOp2
 70
     1
102
RTVSPropertyOp3
 70
     1
102
RTVSPropertyOp4
 70
     1
102
RTVSPropertyOp5
 70
     1
102
RTVSPropertyOp6
 70
     1
102
RTVSPropertyOp7
 70
     1
102
RTVSPropertyOp8
 70
     1
102
RTVSPropertyOp9
 70
     1
102
RTVSPropertyOp10
 70
     1
102
RTVSPropertyOp11
 70
     1
102
RTVSPropertyOp12
 70
     1
102
RTVSPropertyOp13
 70
     1
102
RTVSPropertyOp14
 70
     1
102
RTVSPropertyOp15
 70
     1
102
RTVSPropertyOp16
 70
     1
102
RTVSPropertyOp17
 70
     1
102
RTVSPropertyOp18
 70
     1
102
RTVSPropertyOp19
 70
     1
102
RTVSPropertyOp20
 70
     1
102
RTVSPropertyOp21
 70
     1
102
RTVSPropertyOp22
 70
     1
102
RTVSPropertyOp23
 70
     1
102
RTVSPropertyOp24
 70
     1
102
RTVSPropertyOp25
 70
     1
102
RTVSPropertyOp26
 70
     1
102
RTVSPropertyOp27
 70
     1
102
RTVSPropertyOp28
 70
     1
102
RTVSPropertyOp29
 70
     1
102
RTVSPropertyOp30
 70
     1
102
RTVSPropertyOp31
 70
     1
102
RTVSPropertyOp32
 70
     1
  0
XRECORD
  5
24D
102
{ACAD_REACTORS
330
24C
102
}
330
24C
100
AcDbXrecord
280
     1
102
RTVSPropertyOp0
 70
     1
102
RTVSPropertyOp1
 70
     1
102
RTVSPropertyOp2
 70
     1
102
RTVSPropertyOp3
 70
     1
102
RTVSPropertyOp4
 70
     1
102
RTVSPropertyOp5
 70
     1
102
RTVSPropertyOp6
 70
     1
102
RTVSPropertyOp7
 70
     1
102
RTVSPropertyOp8
 70
     1
102
RTVSPropertyOp9
 70
     1
102
RTVSPropertyOp10
 70
     1
102
RTVSPropertyOp11
 70
     1
102
RTVSPropertyOp12
 70
     1
102
RTVSPropertyOp13
 70
     1
102
RTVSPropertyOp14
 70
     1
102
RTVSPropertyOp15
 70
     1
102
RTVSPropertyOp16
 70
     1
102
RTVSPropertyOp17
 70
     1
102
RTVSPropertyOp18
 70
     1
102
RTVSPropertyOp19
 70
     1
102
RTVSPropertyOp20
 70
     1
102
RTVSPropertyOp21
 70
     1
102
RTVSPropertyOp22
 70
     1
102
RTVSPropertyOp23
 70
     1
102
RTVSPropertyOp24
 70
     1
102
RTVSPropertyOp25
 70
     1
102
RTVSPropertyOp26
 70
     1
102
RTVSPropertyOp27
 70
     1
102
RTVSPropertyOp28
 70
     1
102
RTVSPropertyOp29
 70
     1
102
RTVSPropertyOp30
 70
     1
102
RTVSPropertyOp31
 70
     1
102
RTVSPropertyOp32
 70
     1
  0
XRECORD
  5
255
102
{ACAD_REACTORS
330
254
102
}
330
254
100
AcDbXrecord
280
     1
102
RTVSPropertyOp0
 70
     1
102
RTVSPropertyOp1
 70
     1
102
RTVSPropertyOp2
 70
     1
102
RTVSPropertyOp3
 70
     1
102
RTVSPropertyOp4
 70
     1
102
RTVSPropertyOp5
 70
     1
102
RTVSPropertyOp6
 70
     1
102
RTVSPropertyOp7
 70
     1
102
RTVSPropertyOp8
 70
     1
102
RTVSPropertyOp9
 70
     1
102
RTVSPropertyOp10
 70
     1
102
RTVSPropertyOp11
 70
     1
102
RTVSPropertyOp12
 70
     1
102
RTVSPropertyOp13
 70
     1
102
RTVSPropertyOp14
 70
     1
102
RTVSPropertyOp15
 70
     1
102
RTVSPropertyOp16
 70
     1
102
RTVSPropertyOp17
 70
     1
102
RTVSPropertyOp18
 70
     1
102
RTVSPropertyOp19
 70
     1
102
RTVSPropertyOp20
 70
     1
102
RTVSPropertyOp21
 70
     1
102
RTVSPropertyOp22
 70
     1
102
RTVSPropertyOp23
 70
     1
102
RTVSPropertyOp24
 70
     1
102
RTVSPropertyOp25
 70
     1
102
RTVSPropertyOp26
 70
     1
102
RTVSPropertyOp27
 70
     1
102
RTVSPropertyOp28
 70
     1
102
RTVSPropertyOp29
 70
     1
102
RTVSPropertyOp30
 70
     1
102
RTVSPropertyOp31
 70
     1
102
RTVSPropertyOp32
 70
     1
  0
XRECORD
  5
25D
102
{ACAD_REACTORS
330
25C
102
}
330
25C
100
AcDbXrecord
280
     1
102
RTVSPropertyOp0
 70
     1
102
RTVSPropertyOp1
 70
     1
102
RTVSPropertyOp2
 70
     1
102
RTVSPropertyOp3
 70
     1
102
RTVSPropertyOp4
 70
     1
102
RTVSPropertyOp5
 70
     1
102
RTVSPropertyOp6
 70
     1
102
RTVSPropertyOp7
 70
     1
102
RTVSPropertyOp8
 70
     1
102
RTVSPropertyOp9
 70
     1
102
RTVSPropertyOp10
 70
     1
102
RTVSPropertyOp11
 70
     1
102
RTVSPropertyOp12
 70
     1
102
RTVSPropertyOp13
 70
     1
102
RTVSPropertyOp14
 70
     1
102
RTVSPropertyOp15
 70
     1
102
RTVSPropertyOp16
 70
     1
102
RTVSPropertyOp17
 70
     1
102
RTVSPropertyOp18
 70
     1
102
RTVSPropertyOp19
 70
     1
102
RTVSPropertyOp20
 70
     1
102
RTVSPropertyOp21
 70
     1
102
RTVSPropertyOp22
 70
     1
102
RTVSPropertyOp23
 70
     1
102
RTVSPropertyOp24
 70
     1
102
RTVSPropertyOp25
 70
     1
102
RTVSPropertyOp26
 70
     1
102
RTVSPropertyOp27
 70
     1
102
RTVSPropertyOp28
 70
     1
102
RTVSPropertyOp29
 70
     1
102
RTVSPropertyOp30
 70
     1
102
RTVSPropertyOp31
 70
     1
102
RTVSPropertyOp32
 70
     1
  0
XRECORD
  5
251
102
{ACAD_REACTORS
330
250
102
}
330
250
100
AcDbXrecord
280
     1
102
RTVSPropertyOp0
 70
     1
102
RTVSPropertyOp1
 70
     1
102
RTVSPropertyOp2
 70
     1
102
RTVSPropertyOp3
 70
     1
102
RTVSPropertyOp4
 70
     1
102
RTVSPropertyOp5
 70
     1
102
RTVSPropertyOp6
 70
     1
102
RTVSPropertyOp7
 70
     1
102
RTVSPropertyOp8
 70
     1
102
RTVSPropertyOp9
 70
     1
102
RTVSPropertyOp10
 70
     1
102
RTVSPropertyOp11
 70
     1
102
RTVSPropertyOp12
 70
     1
102
RTVSPropertyOp13
 70
     1
102
RTVSPropertyOp14
 70
     1
102
RTVSPropertyOp15
 70
     1
102
RTVSPropertyOp16
 70
     1
102
RTVSPropertyOp17
 70
     1
102
RTVSPropertyOp18
 70
     1
102
RTVSPropertyOp19
 70
     1
102
RTVSPropertyOp20
 70
     1
102
RTVSPropertyOp21
 70
     1
102
RTVSPropertyOp22
 70
     1
102
RTVSPropertyOp23
 70
     1
102
RTVSPropertyOp24
 70
     1
102
RTVSPropertyOp25
 70
     1
102
RTVSPropertyOp26
 70
     1
102
RTVSPropertyOp27
 70
     1
102
RTVSPropertyOp28
 70
     1
102
RTVSPropertyOp29
 70
     1
102
RTVSPropertyOp30
 70
     1
102
RTVSPropertyOp31
 70
     1
102
RTVSPropertyOp32
 70
     1
  0
XRECORD
  5
253
102
{ACAD_REACTORS
330
252
102
}
330
252
100
AcDbXrecord
280
     1
102
RTVSPropertyOp0
 70
     1
102
RTVSPropertyOp1
 70
     1
102
RTVSPropertyOp2
 70
     1
102
RTVSPropertyOp3
 70
     1
102
RTVSPropertyOp4
 70
     1
102
RTVSPropertyOp5
 70
     1
102
RTVSPropertyOp6
 70
     1
102
RTVSPropertyOp7
 70
     1
102
RTVSPropertyOp8
 70
     1
102
RTVSPropertyOp9
 70
     1
102
RTVSPropertyOp10
 70
     1
102
RTVSPropertyOp11
 70
     1
102
RTVSPropertyOp12
 70
     1
102
RTVSPropertyOp13
 70
     1
102
RTVSPropertyOp14
 70
     1
102
RTVSPropertyOp15
 70
     1
102
RTVSPropertyOp16
 70
     1
102
RTVSPropertyOp17
 70
     1
102
RTVSPropertyOp18
 70
     1
102
RTVSPropertyOp19
 70
     1
102
RTVSPropertyOp20
 70
     1
102
RTVSPropertyOp21
 70
     1
102
RTVSPropertyOp22
 70
     1
102
RTVSPropertyOp23
 70
     1
102
RTVSPropertyOp24
 70
     1
102
RTVSPropertyOp25
 70
     1
102
RTVSPropertyOp26
 70
     1
102
RTVSPropertyOp27
 70
     1
102
RTVSPropertyOp28
 70
     1
102
RTVSPropertyOp29
 70
     1
102
RTVSPropertyOp30
 70
     1
102
RTVSPropertyOp31
 70
     1
102
RTVSPropertyOp32
 70
     1
  0
XRECORD
  5
25B
102
{ACAD_REACTORS
330
25A
102
}
330
25A
100
AcDbXrecord
280
     1
102
RTVSPropertyOp0
 70
     1
102
RTVSPropertyOp1
 70
     1
102
RTVSPropertyOp2
 70
     1
102
RTVSPropertyOp3
 70
     1
102
RTVSPropertyOp4
 70
     1
102
RTVSPropertyOp5
 70
     1
102
RTVSPropertyOp6
 70
     1
102
RTVSPropertyOp7
 70
     1
102
RTVSPropertyOp8
 70
     1
102
RTVSPropertyOp9
 70
     1
102
RTVSPropertyOp10
 70
     1
102
RTVSPropertyOp11
 70
     1
102
RTVSPropertyOp12
 70
     1
102
RTVSPropertyOp13
 70
     1
102
RTVSPropertyOp14
 70
     1
102
RTVSPropertyOp15
 70
     1
102
RTVSPropertyOp16
 70
     1
102
RTVSPropertyOp17
 70
     1
102
RTVSPropertyOp18
 70
     1
102
RTVSPropertyOp19
 70
     1
102
RTVSPropertyOp20
 70
     1
102
RTVSPropertyOp21
 70
     1
102
RTVSPropertyOp22
 70
     1
102
RTVSPropertyOp23
 70
     1
102
RTVSPropertyOp24
 70
     1
102
RTVSPropertyOp25
 70
     1
102
RTVSPropertyOp26
 70
     1
102
RTVSPropertyOp27
 70
     1
102
RTVSPropertyOp28
 70
     1
102
RTVSPropertyOp29
 70
     1
102
RTVSPropertyOp30
 70
     1
102
RTVSPropertyOp31
 70
     1
102
RTVSPropertyOp32
 70
     1
  0
XRECORD
  5
23F
102
{ACAD_REACTORS
330
23E
102
}
330
23E
100
AcDbXrecord
280
     1
102
RTVSPropertyOp0
 70
     1
102
RTVSPropertyOp1
 70
     1
102
RTVSPropertyOp2
 70
     1
102
RTVSPropertyOp3
 70
     1
102
RTVSPropertyOp4
 70
     1
102
RTVSPropertyOp5
 70
     1
102
RTVSPropertyOp6
 70
     1
102
RTVSPropertyOp7
 70
     1
102
RTVSPropertyOp8
 70
     1
102
RTVSPropertyOp9
 70
     1
102
RTVSPropertyOp10
 70
     1
102
RTVSPropertyOp11
 70
     1
102
RTVSPropertyOp12
 70
     1
102
RTVSPropertyOp13
 70
     1
102
RTVSPropertyOp14
 70
     1
102
RTVSPropertyOp15
 70
     1
102
RTVSPropertyOp16
 70
     1
102
RTVSPropertyOp17
 70
     1
102
RTVSPropertyOp18
 70
     1
102
RTVSPropertyOp19
 70
     1
102
RTVSPropertyOp20
 70
     1
102
RTVSPropertyOp21
 70
     1
102
RTVSPropertyOp22
 70
     1
102
RTVSPropertyOp23
 70
     1
102
RTVSPropertyOp24
 70
     1
102
RTVSPropertyOp25
 70
     1
102
RTVSPropertyOp26
 70
     1
102
RTVSPropertyOp27
 70
     1
102
RTVSPropertyOp28
 70
     1
102
RTVSPropertyOp29
 70
     1
102
RTVSPropertyOp30
 70
     1
102
RTVSPropertyOp31
 70
     1
102
RTVSPropertyOp32
 70
     1
  0
XRECORD
  5
241
102
{ACAD_REACTORS
330
240
102
}
330
240
100
AcDbXrecord
280
     1
102
RTVSPropertyOp0
 70
     1
102
RTVSPropertyOp1
 70
     1
102
RTVSPropertyOp2
 70
     1
102
RTVSPropertyOp3
 70
     1
102
RTVSPropertyOp4
 70
     1
102
RTVSPropertyOp5
 70
     1
102
RTVSPropertyOp6
 70
     1
102
RTVSPropertyOp7
 70
     1
102
RTVSPropertyOp8
 70
     1
102
RTVSPropertyOp9
 70
     1
102
RTVSPropertyOp10
 70
     1
102
RTVSPropertyOp11
 70
     1
102
RTVSPropertyOp12
 70
     1
102
RTVSPropertyOp13
 70
     1
102
RTVSPropertyOp14
 70
     1
102
RTVSPropertyOp15
 70
     1
102
RTVSPropertyOp16
 70
     1
102
RTVSPropertyOp17
 70
     1
102
RTVSPropertyOp18
 70
     1
102
RTVSPropertyOp19
 70
     1
102
RTVSPropertyOp20
 70
     1
102
RTVSPropertyOp21
 70
     1
102
RTVSPropertyOp22
 70
     1
102
RTVSPropertyOp23
 70
     1
102
RTVSPropertyOp24
 70
     1
102
RTVSPropertyOp25
 70
     1
102
RTVSPropertyOp26
 70
     1
102
RTVSPropertyOp27
 70
     1
102
RTVSPropertyOp28
 70
     1
102
RTVSPropertyOp29
 70
     1
102
RTVSPropertyOp30
 70
     1
102
RTVSPropertyOp31
 70
     1
102
RTVSPropertyOp32
 70
     1
  0
XRECORD
  5
243
102
{ACAD_REACTORS
330
242
102
}
330
242
100
AcDbXrecord
280
     1
102
RTVSPropertyOp0
 70
     1
102
RTVSPropertyOp1
 70
     1
102
RTVSPropertyOp2
 70
     1
102
RTVSPropertyOp3
 70
     1
102
RTVSPropertyOp4
 70
     1
102
RTVSPropertyOp5
 70
     1
102
RTVSPropertyOp6
 70
     1
102
RTVSPropertyOp7
 70
     1
102
RTVSPropertyOp8
 70
     1
102
RTVSPropertyOp9
 70
     1
102
RTVSPropertyOp10
 70
     1
102
RTVSPropertyOp11
 70
     1
102
RTVSPropertyOp12
 70
     1
102
RTVSPropertyOp13
 70
     1
102
RTVSPropertyOp14
 70
     1
102
RTVSPropertyOp15
 70
     1
102
RTVSPropertyOp16
 70
     1
102
RTVSPropertyOp17
 70
     1
102
RTVSPropertyOp18
 70
     1
102
RTVSPropertyOp19
 70
     1
102
RTVSPropertyOp20
 70
     1
102
RTVSPropertyOp21
 70
     1
102
RTVSPropertyOp22
 70
     1
102
RTVSPropertyOp23
 70
     1
102
RTVSPropertyOp24
 70
     1
102
RTVSPropertyOp25
 70
     1
102
RTVSPropertyOp26
 70
     1
102
RTVSPropertyOp27
 70
     1
102
RTVSPropertyOp28
 70
     1
102
RTVSPropertyOp29
 70
     1
102
RTVSPropertyOp30
 70
     1
102
RTVSPropertyOp31
 70
     1
102
RTVSPropertyOp32
 70
     1
  0
XRECORD
  5
245
102
{ACAD_REACTORS
330
244
102
}
330
244
100
AcDbXrecord
280
     1
102
RTVSPropertyOp0
 70
     1
102
RTVSPropertyOp1
 70
     1
102
RTVSPropertyOp2
 70
     1
102
RTVSPropertyOp3
 70
     1
102
RTVSPropertyOp4
 70
     1
102
RTVSPropertyOp5
 70
     1
102
RTVSPropertyOp6
 70
     1
102
RTVSPropertyOp7
 70
     1
102
RTVSPropertyOp8
 70
     1
102
RTVSPropertyOp9
 70
     1
102
RTVSPropertyOp10
 70
     1
102
RTVSPropertyOp11
 70
     1
102
RTVSPropertyOp12
 70
     1
102
RTVSPropertyOp13
 70
     1
102
RTVSPropertyOp14
 70
     1
102
RTVSPropertyOp15
 70
     1
102
RTVSPropertyOp16
 70
     1
102
RTVSPropertyOp17
 70
     1
102
RTVSPropertyOp18
 70
     1
102
RTVSPropertyOp19
 70
     1
102
RTVSPropertyOp20
 70
     1
102
RTVSPropertyOp21
 70
     1
102
RTVSPropertyOp22
 70
     1
102
RTVSPropertyOp23
 70
     1
102
RTVSPropertyOp24
 70
     1
102
RTVSPropertyOp25
 70
     1
102
RTVSPropertyOp26
 70
     1
102
RTVSPropertyOp27
 70
     1
102
RTVSPropertyOp28
 70
     1
102
RTVSPropertyOp29
 70
     1
102
RTVSPropertyOp30
 70
     1
102
RTVSPropertyOp31
 70
     1
102
RTVSPropertyOp32
 70
     1
  0
XRECORD
  5
259
102
{ACAD_REACTORS
330
258
102
}
330
258
100
AcDbXrecord
280
     1
102
RTVSPropertyOp0
 70
     1
102
RTVSPropertyOp1
 70
     1
102
RTVSPropertyOp2
 70
     1
102
RTVSPropertyOp3
 70
     1
102
RTVSPropertyOp4
 70
     1
102
RTVSPropertyOp5
 70
     1
102
RTVSPropertyOp6
 70
     1
102
RTVSPropertyOp7
 70
     1
102
RTVSPropertyOp8
 70
     1
102
RTVSPropertyOp9
 70
     1
102
RTVSPropertyOp10
 70
     1
102
RTVSPropertyOp11
 70
     1
102
RTVSPropertyOp12
 70
     1
102
RTVSPropertyOp13
 70
     1
102
RTVSPropertyOp14
 70
     1
102
RTVSPropertyOp15
 70
     1
102
RTVSPropertyOp16
 70
     1
102
RTVSPropertyOp17
 70
     1
102
RTVSPropertyOp18
 70
     1
102
RTVSPropertyOp19
 70
     1
102
RTVSPropertyOp20
 70
     1
102
RTVSPropertyOp21
 70
     1
102
RTVSPropertyOp22
 70
     1
102
RTVSPropertyOp23
 70
     1
102
RTVSPropertyOp24
 70
     1
102
RTVSPropertyOp25
 70
     1
102
RTVSPropertyOp26
 70
     1
102
RTVSPropertyOp27
 70
     1
102
RTVSPropertyOp28
 70
     1
102
RTVSPropertyOp29
 70
     1
102
RTVSPropertyOp30
 70
     1
102
RTVSPropertyOp31
 70
     1
102
RTVSPropertyOp32
 70
     1
  0
XRECORD
  5
24F
102
{ACAD_REACTORS
330
24E
102
}
330
24E
100
AcDbXrecord
280
     1
102
RTVSPropertyOp0
 70
     1
102
RTVSPropertyOp1
 70
     1
102
RTVSPropertyOp2
 70
     1
102
RTVSPropertyOp3
 70
     1
102
RTVSPropertyOp4
 70
     1
102
RTVSPropertyOp5
 70
     1
102
RTVSPropertyOp6
 70
     1
102
RTVSPropertyOp7
 70
     1
102
RTVSPropertyOp8
 70
     1
102
RTVSPropertyOp9
 70
     1
102
RTVSPropertyOp10
 70
     1
102
RTVSPropertyOp11
 70
     1
102
RTVSPropertyOp12
 70
     1
102
RTVSPropertyOp13
 70
     1
102
RTVSPropertyOp14
 70
     1
102
RTVSPropertyOp15
 70
     1
102
RTVSPropertyOp16
 70
     1
102
RTVSPropertyOp17
 70
     1
102
RTVSPropertyOp18
 70
     1
102
RTVSPropertyOp19
 70
     1
102
RTVSPropertyOp20
 70
     1
102
RTVSPropertyOp21
 70
     1
102
RTVSPropertyOp22
 70
     1
102
RTVSPropertyOp23
 70
     1
102
RTVSPropertyOp24
 70
     1
102
RTVSPropertyOp25
 70
     1
102
RTVSPropertyOp26
 70
     1
102
RTVSPropertyOp27
 70
     1
102
RTVSPropertyOp28
 70
     1
102
RTVSPropertyOp29
 70
     1
102
RTVSPropertyOp30
 70
     1
102
RTVSPropertyOp31
 70
     1
102
RTVSPropertyOp32
 70
     1
  0
XRECORD
  5
257
102
{ACAD_REACTORS
330
256
102
}
330
256
100
AcDbXrecord
280
     1
102
RTVSPropertyOp0
 70
     1
102
RTVSPropertyOp1
 70
     1
102
RTVSPropertyOp2
 70
     1
102
RTVSPropertyOp3
 70
     1
102
RTVSPropertyOp4
 70
     1
102
RTVSPropertyOp5
 70
     1
102
RTVSPropertyOp6
 70
     1
102
RTVSPropertyOp7
 70
     1
102
RTVSPropertyOp8
 70
     1
102
RTVSPropertyOp9
 70
     1
102
RTVSPropertyOp10
 70
     1
102
RTVSPropertyOp11
 70
     1
102
RTVSPropertyOp12
 70
     1
102
RTVSPropertyOp13
 70
     1
102
RTVSPropertyOp14
 70
     1
102
RTVSPropertyOp15
 70
     1
102
RTVSPropertyOp16
 70
     1
102
RTVSPropertyOp17
 70
     1
102
RTVSPropertyOp18
 70
     1
102
RTVSPropertyOp19
 70
     1
102
RTVSPropertyOp20
 70
     1
102
RTVSPropertyOp21
 70
     1
102
RTVSPropertyOp22
 70
     1
102
RTVSPropertyOp23
 70
     1
102
RTVSPropertyOp24
 70
     1
102
RTVSPropertyOp25
 70
     1
102
RTVSPropertyOp26
 70
     1
102
RTVSPropertyOp27
 70
     1
102
RTVSPropertyOp28
 70
     1
102
RTVSPropertyOp29
 70
     1
102
RTVSPropertyOp30
 70
     1
102
RTVSPropertyOp31
 70
     1
102
RTVSPropertyOp32
 70
     1
  0
ENDSEC
  0
EOF
