  0
SECTION
  2
HEADER
  9
$ACADVER
  1
AC1018
  9
$ACADMAINTVER
 70
     0
  9
$DWGCODEPAGE
  3
ANSI_1252
  9
$INSBASE
 10
0.0
 20
0.0
 30
0.0
  9
$EXTMIN
 10
-402.4999995231689
 20
-255.4999997615365
 30
0.0
  9
$EXTMAX
 10
-105.4999995231709
 20
-45.49999976153637
 30
0.0
  9
$LIMMIN
 10
0.0
 20
0.0
  9
$LIMMAX
 10
12.0
 20
9.0
  9
$ORTHOMODE
 70
     0
  9
$REGENMODE
 70
     1
  9
$FILLMODE
 70
     1
  9
$QTEXTMODE
 70
     0
  9
$MIRRTEXT
 70
     1
  9
$LTSCALE
 40
1.0
  9
$ATTMODE
 70
     1
  9
$TEXTSIZE
 40
0.2
  9
$TRACEWID
 40
0.05
  9
$TEXTSTYLE
  7
Standard
  9
$CLAYER
  8
0
  9
$CELTYPE
  6
ByLayer
  9
$CECOLOR
 62
   256
  9
$CELTSCALE
 40
1.0
  9
$DISPSILH
 70
     0
  9
$DIMSCALE
 40
1.0
  9
$DIMASZ
 40
0.18
  9
$DIMEXO
 40
0.0625
  9
$DIMDLI
 40
0.38
  9
$DIMRND
 40
0.0
  9
$DIMDLE
 40
0.0
  9
$DIMEXE
 40
0.18
  9
$DIMTP
 40
0.0
  9
$DIMTM
 40
0.0
  9
$DIMTXT
 40
0.18
  9
$DIMCEN
 40
0.09
  9
$DIMTSZ
 40
0.0
  9
$DIMTOL
 70
     0
  9
$DIMLIM
 70
     0
  9
$DIMTIH
 70
     1
  9
$DIMTOH
 70
     1
  9
$DIMSE1
 70
     0
  9
$DIMSE2
 70
     0
  9
$DIMTAD
 70
     0
  9
$DIMZIN
 70
     0
  9
$DIMBLK
  1

  9
$DIMASO
 70
     1
  9
$DIMSHO
 70
     1
  9
$DIMPOST
  1

  9
$DIMAPOST
  1

  9
$DIMALT
 70
     0
  9
$DIMALTD
 70
     2
  9
$DIMALTF
 40
25.4
  9
$DIMLFAC
 40
1.0
  9
$DIMTOFL
 70
     0
  9
$DIMTVP
 40
0.0
  9
$DIMTIX
 70
     0
  9
$DIMSOXD
 70
     0
  9
$DIMSAH
 70
     0
  9
$DIMBLK1
  1

  9
$DIMBLK2
  1

  9
$DIMSTYLE
  2
Standard
  9
$DIMCLRD
 70
     0
  9
$DIMCLRE
 70
     0
  9
$DIMCLRT
 70
     0
  9
$DIMTFAC
 40
1.0
  9
$DIMGAP
 40
0.09
  9
$DIMJUST
 70
     0
  9
$DIMSD1
 70
     0
  9
$DIMSD2
 70
     0
  9
$DIMTOLJ
 70
     1
  9
$DIMTZIN
 70
     0
  9
$DIMALTZ
 70
     0
  9
$DIMALTTZ
 70
     0
  9
$DIMUPT
 70
     0
  9
$DIMDEC
 70
     4
  9
$DIMTDEC
 70
     4
  9
$DIMALTU
 70
     2
  9
$DIMALTTD
 70
     2
  9
$DIMTXSTY
  7
Standard
  9
$DIMAUNIT
 70
     0
  9
$DIMADEC
 70
     0
  9
$DIMALTRND
 40
0.0
  9
$DIMAZIN
 70
     0
  9
$DIMDSEP
 70
    46
  9
$DIMATFIT
 70
     3
  9
$DIMFRAC
 70
     0
  9
$DIMLDRBLK
  1

  9
$DIMLUNIT
 70
     2
  9
$DIMLWD
 70
    -2
  9
$DIMLWE
 70
    -2
  9
$DIMTMOVE
 70
     0
  9
$LUNITS
 70
     2
  9
$LUPREC
 70
     4
  9
$SKETCHINC
 40
0.1
  9
$FILLETRAD
 40
0.5
  9
$AUNITS
 70
     0
  9
$AUPREC
 70
     0
  9
$MENU
  1
.
  9
$ELEVATION
 40
0.0
  9
$PELEVATION
 40
0.0
  9
$THICKNESS
 40
0.0
  9
$LIMCHECK
 70
     0
  9
$CHAMFERA
 40
0.5
  9
$CHAMFERB
 40
0.5
  9
$CHAMFERC
 40
1.0
  9
$CHAMFERD
 40
0.0
  9
$SKPOLY
 70
     0
  9
$TDCREATE
 40
2458213.402037303
  9
$TDUCREATE
 40
2458213.31870397
  9
$TDUPDATE
 40
2458213.402037847
  9
$TDUUPDATE
 40
2458213.318704514
  9
$TDINDWG
 40
0.0000000116
  9
$TDUSRTIMER
 40
0.0000000116
  9
$USRTIMER
 70
     1
  9
$ANGBASE
 50
0.0
  9
$ANGDIR
 70
     0
  9
$PDMODE
 70
     0
  9
$PDSIZE
 40
0.0
  9
$PLINEWID
 40
0.0
  9
$SPLFRAME
 70
     0
  9
$SPLINETYPE
 70
     6
  9
$SPLINESEGS
 70
     8
  9
$HANDSEED
  5
25C
  9
$SURFTAB1
 70
     6
  9
$SURFTAB2
 70
     6
  9
$SURFTYPE
 70
     6
  9
$SURFU
 70
     6
  9
$SURFV
 70
     6
  9
$UCSBASE
  2

  9
$UCSNAME
  2

  9
$UCSORG
 10
0.0
 20
0.0
 30
0.0
  9
$UCSXDIR
 10
1.0
 20
0.0
 30
0.0
  9
$UCSYDIR
 10
0.0
 20
1.0
 30
0.0
  9
$UCSORTHOREF
  2

  9
$UCSORTHOVIEW
 70
     0
  9
$UCSORGTOP
 10
0.0
 20
0.0
 30
0.0
  9
$UCSORGBOTTOM
 10
0.0
 20
0.0
 30
0.0
  9
$UCSORGLEFT
 10
0.0
 20
0.0
 30
0.0
  9
$UCSORGRIGHT
 10
0.0
 20
0.0
 30
0.0
  9
$UCSORGFRONT
 10
0.0
 20
0.0
 30
0.0
  9
$UCSORGBACK
 10
0.0
 20
0.0
 30
0.0
  9
$PUCSBASE
  2

  9
$PUCSNAME
  2

  9
$PUCSORG
 10
0.0
 20
0.0
 30
0.0
  9
$PUCSXDIR
 10
1.0
 20
0.0
 30
0.0
  9
$PUCSYDIR
 10
0.0
 20
1.0
 30
0.0
  9
$PUCSORTHOREF
  2

  9
$PUCSORTHOVIEW
 70
     0
  9
$PUCSORGTOP
 10
0.0
 20
0.0
 30
0.0
  9
$PUCSORGBOTTOM
 10
0.0
 20
0.0
 30
0.0
  9
$PUCSORGLEFT
 10
0.0
 20
0.0
 30
0.0
  9
$PUCSORGRIGHT
 10
0.0
 20
0.0
 30
0.0
  9
$PUCSORGFRONT
 10
0.0
 20
0.0
 30
0.0
  9
$PUCSORGBACK
 10
0.0
 20
0.0
 30
0.0
  9
$USERI1
 70
     0
  9
$USERI2
 70
     0
  9
$USERI3
 70
     0
  9
$USERI4
 70
     0
  9
$USERI5
 70
     0
  9
$USERR1
 40
18.1
  9
$USERR2
 40
0.0
  9
$USERR3
 40
0.0
  9
$USERR4
 40
0.0
  9
$USERR5
 40
0.0
  9
$WORLDVIEW
 70
     1
  9
$SHADEDGE
 70
     3
  9
$SHADEDIF
 70
    70
  9
$TILEMODE
 70
     1
  9
$MAXACTVP
 70
    64
  9
$PINSBASE
 10
0.0
 20
0.0
 30
0.0
  9
$PLIMCHECK
 70
     0
  9
$PEXTMIN
 10
1.00000000000000E+20
 20
1.00000000000000E+20
 30
1.00000000000000E+20
  9
$PEXTMAX
 10
-1.00000000000000E+20
 20
-1.00000000000000E+20
 30
-1.00000000000000E+20
  9
$PLIMMIN
 10
0.0
 20
0.0
  9
$PLIMMAX
 10
12.0
 20
9.0
  9
$UNITMODE
 70
     0
  9
$VISRETAIN
 70
     1
  9
$PLINEGEN
 70
     0
  9
$PSLTSCALE
 70
     1
  9
$TREEDEPTH
 70
  3020
  9
$CMLSTYLE
  2
Standard
  9
$CMLJUST
 70
     0
  9
$CMLSCALE
 40
1.0
  9
$PROXYGRAPHICS
 70
     1
  9
$MEASUREMENT
 70
     1
  9
$CELWEIGHT
370
    -1
  9
$ENDCAPS
280
     0
  9
$JOINSTYLE
280
     0
  9
$LWDISPLAY
290
     0
  9
$INSUNITS
 70
     4
  9
$HYPERLINKBASE
  1

  9
$STYLESHEET
  1

  9
$XEDIT
290
     1
  9
$CEPSNTYPE
380
     0
  9
$PSTYLEMODE
290
     1
  9
$FINGERPRINTGUID
  2
{71FA1F16-1323-43A1-863F-45D995EEB48C}
  9
$VERSIONGUID
  2
{FAEB1C32-E019-11D5-929B-00C0DF256EC4}
  9
$EXTNAMES
290
     1
  9
$PSVPSCALE
 40
0.0
  9
$OLESTARTUP
290
     0
  9
$SORTENTS
280
   127
  9
$INDEXCTL
280
     0
  9
$HIDETEXT
280
     1
  9
$XCLIPFRAME
290
     0
  9
$HALOGAP
280
     0
  9
$OBSCOLOR
 70
   257
  9
$OBSLTYPE
280
     0
  9
$INTERSECTIONDISPLAY
280
     0
  9
$INTERSECTIONCOLOR
 70
   257
  9
$DIMASSOC
280
     2
  9
$PROJECTNAME
  1

  0
ENDSEC
  0
SECTION
  2
CLASSES
  0
CLASS
  1
ACDBDICTIONARYWDFLT
  2
AcDbDictionaryWithDefault
  3
ObjectDBX Classes
 90
        0
 91
        4
280
     0
281
     0
  0
CLASS
  1
VISUALSTYLE
  2
AcDbVisualStyle
  3
ObjectDBX Classes
 90
     4095
 91
        4
280
     0
281
     0
  0
CLASS
  1
MATERIAL
  2
AcDbMaterial
  3
ObjectDBX Classes
 90
     1153
 91
        4
280
     0
281
     0
  0
ENDSEC
  0
SECTION
  2
TABLES
  0
TABLE
  2
VPORT
  5
8
330
0
100
AcDbSymbolTable
 70
     1
  0
VPORT
  5
29
330
8
100
AcDbSymbolTableRecord
100
AcDbViewportTableRecord
  2
*Active
 70
     0
 10
0.0
 20
0.0
 11
1.0
 21
1.0
 12
-253.9999995231699
 22
-150.4999997615364
 13
0.0
 23
0.0
 14
0.5
 24
0.5
 15
0.5
 25
0.5
 16
0.0
 26
0.0
 36
1.0
 17
0.0
 27
0.0
 37
0.0
 40
231.0000000000001
 41
1.60267857142857
 42
50.0
 43
0.0
 44
0.0
 50
0.0
 51
0.0
 71
     0
 72
   100
 73
     1
 74
     3
 75
     0
 76
     0
 77
     0
 78
     0
281
     0
 65
     1
110
0.0
120
0.0
130
0.0
111
1.0
121
0.0
131
0.0
112
0.0
122
1.0
132
0.0
 79
     0
146
0.0
  0
ENDTAB
  0
TABLE
  2
LTYPE
  5
5
330
0
100
AcDbSymbolTable
 70
     8
  0
LTYPE
  5
14
330
5
100
AcDbSymbolTableRecord
100
AcDbLinetypeTableRecord
  2
ByBlock
 70
     0
  3

 72
    65
 73
     0
 40
0.0
  0
LTYPE
  5
15
330
5
100
AcDbSymbolTableRecord
100
AcDbLinetypeTableRecord
  2
ByLayer
 70
     0
  3

 72
    65
 73
     0
 40
0.0
  0
LTYPE
  5
16
330
5
100
AcDbSymbolTableRecord
100
AcDbLinetypeTableRecord
  2
Continuous
 70
     0
  3
Solid line
 72
    65
 73
     0
 40
0.0
  0
LTYPE
  5
3F
330
5
100
AcDbSymbolTableRecord
100
AcDbLinetypeTableRecord
  2
DASHED
 70
     0
  3
Dashed
 72
    65
 73
     2
 40
15.0
 49
7.0
 74
     0
 49
-8.0
 74
     0
  0
LTYPE
  5
40
330
5
100
AcDbSymbolTableRecord
100
AcDbLinetypeTableRecord
  2
DOTTED
 70
     0
  3
Dotted
 72
    65
 73
     2
 40
1.0
 49
0.0
 74
     0
 49
-1.0
 74
     0
  0
LTYPE
  5
41
330
5
100
AcDbSymbolTableRecord
100
AcDbLinetypeTableRecord
  2
DOT_CENTER
 70
     0
  3
Dot_Center
 72
    65
 73
     4
 40
14.0
 49
12.0
 74
     0
 49
-1.0
 74
     0
 49
0.0
 74
     0
 49
-1.0
 74
     0
  0
LTYPE
  5
42
330
5
100
AcDbSymbolTableRecord
100
AcDbLinetypeTableRecord
  2
LONG_DASHED
 70
     0
  3
Long_Dashed
 72
    65
 73
     2
 40
15.0
 49
10.0
 74
     0
 49
-5.0
 74
     0
  0
LTYPE
  5
43
330
5
100
AcDbSymbolTableRecord
100
AcDbLinetypeTableRecord
  2
DASH_CENTER
 70
     0
  3
Dash_Center
 72
    65
 73
     4
 40
14.0
 49
11.0
 74
     0
 49
-1.0
 74
     0
 49
1.0
 74
     0
 49
-1.0
 74
     0
  0
LTYPE
  5
44
330
5
100
AcDbSymbolTableRecord
100
AcDbLinetypeTableRecord
  2
PHANTOM
 70
     0
  3
Phantom
 72
    65
 73
     6
 40
13.0
 49
10.0
 74
     0
 49
-1.0
 74
     0
 49
0.0
 74
     0
 49
-1.0
 74
     0
 49
0.0
 74
     0
 49
-1.0
 74
     0
  0
LTYPE
  5
45
330
5
100
AcDbSymbolTableRecord
100
AcDbLinetypeTableRecord
  2
CENTER_DASH_DASH
 70
     0
  3
Center_Dash_Dash
 72
    65
 73
     6
 40
14.0
 49
9.0
 74
     0
 49
-1.0
 74
     0
 49
1.0
 74
     0
 49
-1.0
 74
     0
 49
1.0
 74
     0
 49
-1.0
 74
     0
  0
ENDTAB
  0
TABLE
  2
LAYER
  5
2
330
0
100
AcDbSymbolTable
 70
     2
  0
LAYER
  5
10
330
2
100
AcDbSymbolTableRecord
100
AcDbLayerTableRecord
  2
0
 70
     0
 62
     7
  6
Continuous
370
    -3
390
F
  0
LAYER
  5
46
330
2
100
AcDbSymbolTableRecord
100
AcDbLayerTableRecord
  2
1
 70
     0
 62
     7
  6
Continuous
370
    -3
390
F
  0
ENDTAB
  0
TABLE
  2
STYLE
  5
3
330
0
100
AcDbSymbolTable
 70
     5
  0
STYLE
  5
11
330
3
100
AcDbSymbolTableRecord
100
AcDbTextStyleTableRecord
  2
Standard
 70
     0
 40
0.0
 41
1.0
 50
0.0
 71
     0
 42
0.2
  3
txt
  4

  0
STYLE
  5
A2
330
3
100
AcDbSymbolTableRecord
100
AcDbTextStyleTableRecord
  2
CONVERTER_11
 70
     0
 40
0.0
 41
0.9
 50
0.0
 71
     0
 42
0.2
  3
txt.shx
  4

  0
STYLE
  5
1F2
330
3
100
AcDbSymbolTableRecord
100
AcDbTextStyleTableRecord
  2
CONVERTER_12
 70
     0
 40
0.0
 41
0.81
 50
0.0
 71
     0
 42
0.2
  3
txt.shx
  4

  0
STYLE
  5
1F8
330
3
100
AcDbSymbolTableRecord
100
AcDbTextStyleTableRecord
  2
CONVERTER_13
 70
     0
 40
0.0
 41
0.855
 50
0.0
 71
     0
 42
0.2
  3
txt.shx
  4

  0
STYLE
  5
1FB
330
3
100
AcDbSymbolTableRecord
100
AcDbTextStyleTableRecord
  2
CONVERTER_14
 70
     0
 40
0.0
 41
0.72
 50
0.0
 71
     0
 42
0.2
  3
txt.shx
  4

  0
ENDTAB
  0
TABLE
  2
VIEW
  5
6
330
0
100
AcDbSymbolTable
 70
     0
  0
ENDTAB
  0
TABLE
  2
UCS
  5
7
330
0
100
AcDbSymbolTable
 70
     0
  0
ENDTAB
  0
TABLE
  2
APPID
  5
9
330
0
100
AcDbSymbolTable
 70
     1
  0
APPID
  5
12
330
9
100
AcDbSymbolTableRecord
100
AcDbRegAppTableRecord
  2
ACAD
 70
     0
  0
ENDTAB
  0
TABLE
  2
DIMSTYLE
  5
A
330
0
100
AcDbSymbolTable
 70
     3
100
AcDbDimStyleTable
  0
DIMSTYLE
105
27
330
A
100
AcDbSymbolTableRecord
100
AcDbDimStyleTableRecord
  2
Standard
 70
     0
178
     0
340
11
  0
DIMSTYLE
105
B2
102
{ACAD_REACTORS
330
B3
102
}
330
A
100
AcDbSymbolTableRecord
100
AcDbDimStyleTableRecord
  2
ME10_DIM_10
 70
     0
 41
0.7
 42
0.0
 44
0.3
 73
     0
 74
     0
 77
     1
 78
     8
140
0.7
147
0.3
172
     1
173
     1
174
     1
175
     1
176
     2
177
     2
178
     3
340
A2
  0
DIMSTYLE
105
EF
102
{ACAD_REACTORS
330
F0
102
}
330
A
100
AcDbSymbolTableRecord
100
AcDbDimStyleTableRecord
  2
ME10_DIM_11
 70
     0
 41
0.7
 42
0.0
 44
0.3
 73
     0
 74
     0
 77
     1
 78
     8
140
0.7
147
0.3
172
     1
173
     1
174
     1
175
     1
176
     2
177
     2
178
     3
340
A2
  0
ENDTAB
  0
TABLE
  2
BLOCK_RECORD
  5
1
330
0
100
AcDbSymbolTable
 70
    20
  0
BLOCK_RECORD
  5
1F
330
1
100
AcDbSymbolTableRecord
100
AcDbBlockTableRecord
  2
*Model_Space
340
22
  0
BLOCK_RECORD
  5
1B
330
1
100
AcDbSymbolTableRecord
100
AcDbBlockTableRecord
  2
*Paper_Space
340
1E
  0
BLOCK_RECORD
  5
23
330
1
100
AcDbSymbolTableRecord
100
AcDbBlockTableRecord
  2
*Paper_Space0
340
26
  0
BLOCK_RECORD
  5
47
330
1
100
AcDbSymbolTableRecord
100
AcDbBlockTableRecord
  2
ZBM_5_BK_UNBEDRUCKT-select__1
340
0
102
{BLKREFS
331
4B
102
}
  0
BLOCK_RECORD
  5
4A
330
1
100
AcDbSymbolTableRecord
100
AcDbBlockTableRecord
  2
Allg1
340
0
102
{BLKREFS
331
7D
102
}
  0
BLOCK_RECORD
  5
4E
330
1
100
AcDbSymbolTableRecord
100
AcDbBlockTableRecord
  2
ZBM_5_BK_UNBEDRUCKT-select__2
340
0
102
{BLKREFS
331
52
102
}
  0
BLOCK_RECORD
  5
51
330
1
100
AcDbSymbolTableRecord
100
AcDbBlockTableRecord
  2
Drfsicht1
340
0
102
{BLKREFS
331
7E
102
}
  0
BLOCK_RECORD
  5
55
330
1
100
AcDbSymbolTableRecord
100
AcDbBlockTableRecord
  2
ZBM_5_BK_UNBEDRUCKT-select__3
340
0
102
{BLKREFS
331
59
102
}
  0
BLOCK_RECORD
  5
58
330
1
100
AcDbSymbolTableRecord
100
AcDbBlockTableRecord
  2
Rckans1
340
0
102
{BLKREFS
331
7F
102
}
  0
BLOCK_RECORD
  5
5C
330
1
100
AcDbSymbolTableRecord
100
AcDbBlockTableRecord
  2
ZBM_5_BK_UNBEDRUCKT-select__4
340
0
102
{BLKREFS
331
60
102
}
  0
BLOCK_RECORD
  5
5F
330
1
100
AcDbSymbolTableRecord
100
AcDbBlockTableRecord
  2
SA_Links1
340
0
102
{BLKREFS
331
80
102
}
  0
BLOCK_RECORD
  5
63
330
1
100
AcDbSymbolTableRecord
100
AcDbBlockTableRecord
  2
ZBM_5_BK_UNBEDRUCKT-select__5
340
0
102
{BLKREFS
331
67
102
}
  0
BLOCK_RECORD
  5
66
330
1
100
AcDbSymbolTableRecord
100
AcDbBlockTableRecord
  2
SA_Rechts1
340
0
102
{BLKREFS
331
81
102
}
  0
BLOCK_RECORD
  5
6A
330
1
100
AcDbSymbolTableRecord
100
AcDbBlockTableRecord
  2
ZBM_5_BK_UNBEDRUCKT-select__6
340
0
102
{BLKREFS
331
6E
102
}
  0
BLOCK_RECORD
  5
6D
330
1
100
AcDbSymbolTableRecord
100
AcDbBlockTableRecord
  2
Vordans1
340
0
102
{BLKREFS
331
82
102
}
  0
BLOCK_RECORD
  5
71
330
1
100
AcDbSymbolTableRecord
100
AcDbBlockTableRecord
  2
_rahmen
340
0
102
{BLKREFS
331
78
102
}
  0
BLOCK_RECORD
  5
74
330
1
100
AcDbSymbolTableRecord
100
AcDbBlockTableRecord
  2
_punkt
340
0
102
{BLKREFS
331
79
102
}
  0
BLOCK_RECORD
  5
77
330
1
100
AcDbSymbolTableRecord
100
AcDbBlockTableRecord
  2
A4I_CS
340
0
102
{BLKREFS
331
83
102
}
  0
BLOCK_RECORD
  5
7C
330
1
100
AcDbSymbolTableRecord
100
AcDbBlockTableRecord
  2
1
340
0
102
{BLKREFS
331
86
102
}
  0
BLOCK_RECORD
  5
A9
330
1
100
AcDbSymbolTableRecord
100
AcDbBlockTableRecord
  2
*D17
340
0
  0
BLOCK_RECORD
  5
E6
330
1
100
AcDbSymbolTableRecord
100
AcDbBlockTableRecord
  2
*D18
340
0
  0
BLOCK_RECORD
  5
F1
330
1
100
AcDbSymbolTableRecord
100
AcDbBlockTableRecord
  2
*D19
340
0
102
{BLKREFS
331
FA
102
}
  0
ENDTAB
  0
ENDSEC
  0
SECTION
  2
BLOCKS
  0
BLOCK
  5
20
330
1F
100
AcDbEntity
  8
0
100
AcDbBlockBegin
  2
*Model_Space
 70
     0
 10
0.0
 20
0.0
 30
0.0
  3
*Model_Space
  1

  0
ENDBLK
  5
21
330
1F
100
AcDbEntity
  8
0
100
AcDbBlockEnd
  0
BLOCK
  5
1C
330
1B
100
AcDbEntity
 67
     1
  8
0
100
AcDbBlockBegin
  2
*Paper_Space
 70
     0
 10
0.0
 20
0.0
 30
0.0
  3
*Paper_Space
  1

  0
ENDBLK
  5
1D
330
1B
100
AcDbEntity
 67
     1
  8
0
100
AcDbBlockEnd
  0
BLOCK
  5
24
330
23
100
AcDbEntity
  8
0
100
AcDbBlockBegin
  2
*Paper_Space0
 70
     0
 10
0.0
 20
0.0
 30
0.0
  3
*Paper_Space0
  1

  0
ENDBLK
  5
25
330
23
100
AcDbEntity
  8
0
100
AcDbBlockEnd
  0
BLOCK
  5
48
330
47
100
AcDbEntity
  8
0
100
AcDbBlockBegin
  2
ZBM_5_BK_UNBEDRUCKT-select__1
 70
     0
 10
-41.09663334602097
 20
-38.37819295442841
 30
0.0
  3
ZBM_5_BK_UNBEDRUCKT-select__1
  1

  0
LINE
  5
87
330
47
100
AcDbEntity
  8
0
  6
Continuous
 62
     7
100
AcDbLine
 10
-34.23720077957724
 20
-37.4742623543118
 30
0.0
 11
-32.49942296443562
 21
-35.96930262026616
 31
0.0
  0
LINE
  5
88
330
47
100
AcDbEntity
  8
0
  6
Continuous
 62
     7
100
AcDbLine
 10
-33.79780201020225
 20
-38.30283735982775
 30
0.0
 11
-31.49780201020225
 21
-36.31097893112354
 31
0.0
  0
LINE
  5
89
330
47
100
AcDbEntity
  8
0
  6
Continuous
 62
     7
100
AcDbLine
 10
-41.09663334602097
 20
-32.62147635243765
 30
0.0
 11
-38.79663334602097
 21
-30.62961792373345
 31
0.0
  0
LINE
  5
8A
330
47
100
AcDbEntity
  8
0
  6
Continuous
 62
     7
100
AcDbLine
 10
-29.70336660628436
 20
-33.25461792373345
 30
0.0
 11
-29.70336660628436
 21
-34.12064332751789
 31
0.0
  0
LINE
  5
8B
330
47
100
AcDbEntity
  8
0
  6
Continuous
 62
     7
100
AcDbLine
 10
-35.44072246091697
 20
-35.12022259223576
 30
0.0
 11
-37.65927749138834
 21
-34.47978092020843
 31
0.0
  0
LINE
  5
8C
330
47
100
AcDbEntity
  8
0
  6
Continuous
 62
     7
100
AcDbLine
 10
-38.86279917272807
 20
-36.13896711558743
 30
0.0
 11
-38.32512884555623
 21
-34.28756619092388
 31
0.0
  0
LINE
  5
8D
330
47
100
AcDbEntity
  8
0
  6
Continuous
 62
     7
100
AcDbLine
 10
-38.32512884555623
 20
-34.28756619092388
 30
0.0
 11
-41.09663334602097
 21
-33.4875017562221
 31
0.0
  0
LINE
  5
8E
330
47
100
AcDbEntity
  8
0
  6
Continuous
 62
     7
100
AcDbLine
 10
-41.09663334602097
 20
-33.4875017562221
 30
0.0
 11
-41.09663334602097
 21
-32.62147635243765
 31
0.0
  0
LINE
  5
8F
330
47
100
AcDbEntity
  8
0
  6
Continuous
 62
     7
100
AcDbLine
 10
-41.09663334602097
 20
-32.62147635243765
 30
0.0
 11
-32.00336660628435
 21
-35.24647635243766
 31
0.0
  0
LINE
  5
90
330
47
100
AcDbEntity
  8
0
  6
Continuous
 62
     7
100
AcDbLine
 10
-37.65927749138834
 20
-34.47978092020843
 30
0.0
 11
-38.54185840485688
 21
-36.64987288681852
 31
0.0
  0
LINE
  5
91
330
47
100
AcDbEntity
  8
0
  6
Continuous
 62
     7
100
AcDbLine
 10
-38.54185840485688
 20
-36.64987288681852
 30
0.0
 11
-36.44185840485687
 21
-34.8312195388712
 31
0.0
  0
LINE
  5
92
330
47
100
AcDbEntity
  8
0
  6
Continuous
 62
     7
100
AcDbLine
 10
-39.30219794210308
 20
-36.1469084138093
 30
0.0
 11
-38.71823628467109
 21
-35.64118278363714
 31
0.0
  0
LINE
  5
93
330
47
100
AcDbEntity
  8
0
  6
Continuous
 62
     7
100
AcDbLine
 10
-38.6475442713951
 20
-36.90283735982774
 30
0.0
 11
-36.34754427139511
 21
-34.91097893112354
 31
0.0
  0
LINE
  5
94
330
47
100
AcDbEntity
  8
0
  6
Continuous
 62
     7
100
AcDbLine
 10
-32.00336660628435
 20
-35.24647635243766
 30
0.0
 11
-29.70336660628436
 21
-33.25461792373345
 31
0.0
  0
LINE
  5
95
330
47
100
AcDbEntity
  8
0
  6
Continuous
 62
     7
100
AcDbLine
 10
-32.00336660628435
 20
-35.24647635243766
 30
0.0
 11
-32.00336660628436
 21
-36.1125017562221
 31
0.0
  0
LINE
  5
96
330
47
100
AcDbEntity
  8
0
  6
Continuous
 62
     7
100
AcDbLine
 10
-32.00336660628436
 20
-36.1125017562221
 30
0.0
 11
-34.77487110674909
 21
-35.31243732152031
 31
0.0
  0
LINE
  5
97
330
47
100
AcDbEntity
  8
0
  6
Continuous
 62
     7
100
AcDbLine
 10
-32.00336660628436
 20
-36.1125017562221
 30
0.0
 11
-29.70336660628436
 21
-34.12064332751789
 31
0.0
  0
LINE
  5
98
330
47
100
AcDbEntity
  8
0
  6
Continuous
 62
     7
100
AcDbLine
 10
-35.44072246091697
 20
-35.12022259223576
 30
0.0
 11
-34.55814154744844
 21
-37.79987288681852
 31
0.0
  0
LINE
  5
99
330
47
100
AcDbEntity
  8
0
  6
Continuous
 62
     7
100
AcDbLine
 10
-34.23720077957724
 20
-37.4742623543118
 30
0.0
 11
-34.77487110674909
 21
-35.31243732152031
 31
0.0
  0
LINE
  5
9A
330
47
100
AcDbEntity
  8
0
  6
Continuous
 62
     7
100
AcDbLine
 10
-38.79663334602097
 20
-30.62961792373345
 30
0.0
 11
-29.70336660628436
 21
-33.25461792373345
 31
0.0
  0
SPLINE
  5
9B
330
47
100
AcDbEntity
  8
0
  6
Continuous
 62
     7
100
AcDbSpline
210
0.0
220
0.0
230
1.0
 70
     8
 71
     3
 72
    13
 73
     9
 74
     7
 42
0.000000001
 43
0.0000000001
 44
0.00000001
 40
0.0
 40
0.0
 40
0.0
 40
0.0
 40
0.1266252209026376
 40
0.2492646276374015
 40
0.3652100363523002
 40
0.4731482407519009
 40
0.5737475715961918
 40
0.6698880320896962
 40
0.6698880320896962
 40
0.6698880320896962
 40
0.6698880320896962
 10
-31.52942457320776
 20
-35.70205591565651
 30
0.0
 10
-31.50445437920085
 20
-35.73625361145491
 30
0.0
 10
-31.4552999960394
 20
-35.80357256129957
 30
0.0
 10
-31.409252977464
 20
-35.91753798569874
 30
0.0
 10
-31.3881118987591
 20
-36.03212085340296
 30
0.0
 10
-31.39583980994818
 20
-36.14090052460627
 30
0.0
 10
-31.43022642349531
 20
-36.23924081248461
 30
0.0
 10
-31.47561973933785
 20
-36.28743027985713
 30
0.0
 10
-31.49780201020225
 20
-36.31097893112354
 30
0.0
 11
-31.52942457320776
 21
-35.70205591565651
 31
0.0
 11
-31.45908839935527
 21
-35.80734964123951
 31
0.0
 11
-31.41251127316871
 21
-35.92080005115903
 31
0.0
 11
-31.39271680231408
 21
-36.03504328783499
 31
0.0
 11
-31.40098944386011
 21
-36.14266401092318
 31
0.0
 11
-31.4367926128691
 21
-36.23667656002868
 31
0.0
 11
-31.49780201020225
 21
-36.31097893112354
 31
0.0
  0
SPLINE
  5
9C
330
47
100
AcDbEntity
  8
0
  6
Continuous
 62
     7
100
AcDbSpline
210
0.0
220
0.0
230
1.0
 70
     8
 71
     3
 72
    15
 73
    11
 74
     9
 42
0.000000001
 43
0.0000000001
 44
0.00000001
 40
0.0
 40
0.0
 40
0.0
 40
0.0
 40
0.1143730262203967
 40
0.2359671966256728
 40
0.3685734224590056
 40
0.5116778216790452
 40
0.6614597920746977
 40
0.81230063820553
 40
0.9583147932834328
 40
1.094872761441429
 40
1.094872761441429
 40
1.094872761441429
 40
1.094872761441429
 10
-33.79780201020225
 20
-38.30283735982775
 30
0.0
 10
-33.82986438689682
 20
-38.32437502221448
 30
0.0
 10
-33.89601346185153
 20
-38.3688101533813
 30
0.0
 10
-34.02251597471357
 20
-38.38156761179715
 30
0.0
 10
-34.15354746621592
 20
-38.35546001820994
 30
0.0
 10
-34.28150868113156
 20
-38.29047071678328
 30
0.0
 10
-34.39525023307503
 20
-38.19380309141022
 30
0.0
 10
-34.48433462808197
 20
-38.07346006797093
 30
0.0
 10
-34.54533652685166
 20
-37.93984008933757
 30
0.0
 10
-34.55396951204721
 20
-37.8454760002051
 30
0.0
 10
-34.55814154744844
 20
-37.79987288681852
 30
0.0
 11
-33.79780201020225
 21
-38.30283735982775
 31
0.0
 11
-33.89747556666288
 21
-38.35892989471466
 31
0.0
 11
-34.01795578708085
 21
-38.37535123160467
 31
0.0
 11
-34.14823149164855
 21
-38.35059940847738
 31
0.0
 11
-34.27639570018991
 21
-38.28693776284745
 31
0.0
 11
-34.39073430649483
 21
-38.19018383819919
 31
0.0
 11
-34.48079756039608
 21
-38.06918147822675
 31
0.0
 11
-34.53835313645059
 21
-37.93498949261595
 31
0.0
 11
-34.55814154744844
 21
-37.79987288681852
 31
0.0
  0
SPLINE
  5
9D
330
47
100
AcDbEntity
  8
0
  6
Continuous
 62
     7
100
AcDbSpline
210
0.0
220
0.0
230
1.0
 70
     8
 71
     3
 72
    15
 73
    11
 74
     9
 42
0.000000001
 43
0.0000000001
 44
0.00000001
 40
0.0
 40
0.0
 40
0.0
 40
0.0
 40
0.1388530613329375
 40
0.2892066392203219
 40
0.4465681238233441
 40
0.6043801209549349
 40
0.7559603066498077
 40
0.8964373746555033
 40
1.024681318023945
 40
1.144692052829532
 40
1.144692052829532
 40
1.144692052829532
 40
1.144692052829532
 10
-34.23720077957724
 20
-37.4742623543118
 30
0.0
 10
-34.19093109687611
 20
-37.48002925287337
 30
0.0
 10
-34.09455944382677
 20
-37.49204070862103
 30
0.0
 10
-33.96108361635756
 20
-37.56448348627679
 30
0.0
 10
-33.84372907091583
 20
-37.66742970057393
 30
0.0
 10
-33.75359225701517
 20
-37.79615938284222
 30
0.0
 10
-33.69878479384918
 20
-37.93775783973852
 30
0.0
 10
-33.68611831452712
 20
-38.07856209751284
 30
0.0
 10
-33.71492132121558
 20
-38.20991358525127
 30
0.0
 10
-33.77079275712921
 20
-38.27255526135119
 30
0.0
 10
-33.79780201020225
 20
-38.30283735982775
 30
0.0
 11
-34.23720077957724
 21
-37.4742623543118
 31
0.0
 11
-34.1006807168921
 21
-37.49960885346469
 31
0.0
 11
-33.9666165785882
 21
-37.56767503567926
 31
0.0
 11
-33.84847622849576
 21
-37.67162451601281
 31
0.0
 11
-33.75812687691736
 21
-37.80101393315783
 31
0.0
 11
-33.70464572319883
 21
-37.94284594407753
 31
0.0
 11
-33.69340398854952
 21
-38.08287248063415
 31
0.0
 11
-33.72553236852978
 21
-38.20702673097885
 31
0.0
 11
-33.79780201020225
 21
-38.30283735982775
 31
0.0
  0
SPLINE
  5
9E
330
47
100
AcDbEntity
  8
0
  6
Continuous
 62
     7
100
AcDbSpline
210
0.0
220
0.0
230
1.0
 70
     8
 71
     3
 72
     9
 73
     5
 74
     3
 42
0.000000001
 43
0.0000000001
 44
0.00000001
 40
0.0
 40
0.0
 40
0.0
 40
0.0
 40
0.0284817791935696
 40
0.056838538333303
 40
0.056838538333303
 40
0.056838538333303
 40
0.056838538333303
 10
-36.30858342381849
 20
-34.86969271196057
 30
0.0
 10
-36.31457235882986
 20
-34.87707859252409
 30
0.0
 10
-36.32652395542289
 20
-34.89181792018282
 30
0.0
 10
-36.34054777679562
 20
-34.90460130478084
 30
0.0
 10
-36.34754427139511
 20
-34.91097893112354
 30
0.0
 11
-36.30858342381849
 21
-34.86969271196057
 31
0.0
 11
-36.32707057416086
 21
-34.89135920791188
 31
0.0
 11
-36.34754427139511
 21
-34.91097893112354
 31
0.0
  0
SPLINE
  5
9F
330
47
100
AcDbEntity
  8
0
  6
Continuous
 62
     7
100
AcDbSpline
210
0.0
220
0.0
230
1.0
 70
     8
 71
     3
 72
     9
 73
     5
 74
     3
 42
0.000000001
 43
0.0000000001
 44
0.00000001
 40
0.0
 40
0.0
 40
0.0
 40
0.0
 40
0.1459633086346712
 40
0.2806984683897886
 40
0.2806984683897886
 40
0.2806984683897886
 40
0.2806984683897886
 10
-38.54185840485688
 20
-36.64987288681852
 30
0.0
 10
-38.54595534223958
 20
-36.69980940850709
 30
0.0
 10
-38.55383408062036
 20
-36.79584110611374
 30
0.0
 10
-38.61715178769396
 20
-36.86813589353764
 30
0.0
 10
-38.6475442713951
 20
-36.90283735982774
 30
0.0
 11
-38.54185840485688
 21
-36.64987288681852
 31
0.0
 11
-38.5691399455779
 21
-36.79326398009373
 31
0.0
 11
-38.6475442713951
 21
-36.90283735982774
 31
0.0
  0
SPLINE
  5
A0
330
47
100
AcDbEntity
  8
0
  6
Continuous
 62
     7
100
AcDbSpline
210
0.0
220
0.0
230
1.0
 70
     8
 71
     3
 72
    11
 73
     7
 74
     5
 42
0.000000001
 43
0.0000000001
 44
0.00000001
 40
0.0
 40
0.0
 40
0.0
 40
0.0
 40
0.1053397320423179
 40
0.2164350600266317
 40
0.3366591568524635
 40
0.4662259277645551
 40
0.4662259277645551
 40
0.4662259277645551
 40
0.4662259277645551
 10
-39.30219794210308
 20
-36.1469084138093
 30
0.0
 10
-39.27291794091402
 20
-36.12678743625365
 30
0.0
 10
-39.21275811855167
 20
-36.08544611555067
 30
0.0
 10
-39.09853099976337
 20
-36.06891800826497
 30
0.0
 10
-38.97762989957684
 20
-36.08417342113999
 30
0.0
 10
-38.90201874891441
 20
-36.12025273349533
 30
0.0
 10
-38.86279917272807
 20
-36.13896711558743
 30
0.0
 11
-39.30219794210308
 21
-36.1469084138093
 31
0.0
 11
-39.21121317188982
 21
-36.09382139749392
 31
0.0
 11
-39.10185694658998
 21
-36.07424108287983
 31
0.0
 11
-38.98262960324992
 21
-36.08969018363146
 31
0.0
 11
-38.86279917272807
 21
-36.13896711558743
 31
0.0
  0
SPLINE
  5
A1
330
47
100
AcDbEntity
  8
0
  6
Continuous
 62
     7
100
AcDbSpline
210
0.0
220
0.0
230
1.0
 70
     8
 71
     3
 72
    17
 73
    13
 74
    11
 42
0.000000001
 43
0.0000000001
 44
0.00000001
 40
0.0
 40
0.0
 40
0.0
 40
0.0
 40
0.1184371340328266
 40
0.2448174500634751
 40
0.3830873285441597
 40
0.5323020626117725
 40
0.6878968158885289
 40
0.8434915691652844
 40
0.9927063032329164
 40
1.130976181713608
 40
1.257356497744258
 40
1.375793631777076
 40
1.375793631777076
 40
1.375793631777076
 40
1.375793631777076
 10
-38.6475442713951
 20
-36.90283735982774
 30
0.0
 10
-38.68087877443412
 20
-36.92500325200166
 30
0.0
 10
-38.74978342044692
 20
-36.9708216164172
 30
0.0
 10
-38.88177609508982
 20
-36.9814429475229
 30
0.0
 10
-39.0175158476496
 20
-36.95065885191878
 30
0.0
 10
-39.14872474151728
 20
-36.87886745289921
 30
0.0
 10
-39.26291101103173
 20
-36.77432276123095
 30
0.0
 10
-39.35007109689029
 20
-36.64637270794931
 30
0.0
 10
-39.40238202670827
 20
-36.50625366775583
 30
0.0
 10
-39.41345898642907
 20
-36.36750842664645
 30
0.0
 10
-39.3840904985549
 20
-36.23838689182814
 30
0.0
 10
-39.32889855764599
 20
-36.17673445944654
 30
0.0
 10
-39.30219794210308
 20
-36.1469084138093
 30
0.0
 11
-38.6475442713951
 21
-36.90283735982774
 31
0.0
 11
-38.75116304926438
 21
-36.96020028122994
 31
0.0
 11
-38.87667959157673
 21
-36.97495098362843
 31
0.0
 11
-39.01180795228218
 21
-36.9456442242222
 31
0.0
 11
-39.14332073314733
 21
-36.8751500720396
 31
0.0
 11
-39.25834423574354
 21
-36.770367817818
 31
0.0
 11
-39.34561984282605
 21
-36.64155518117997
 31
0.0
 11
-39.39660341882632
 21
-36.5013206918378
 31
0.0
 11
-39.40630553660941
 21
-36.36339161975957
 31
0.0
 11
-39.37377519284966
 21
-36.24126970383058
 31
0.0
 11
-39.30219794210308
 21
-36.1469084138093
 31
0.0
  0
ENDBLK
  5
49
330
47
100
AcDbEntity
  8
0
100
AcDbBlockEnd
  0
BLOCK
  5
4C
330
4A
100
AcDbEntity
  8
0
100
AcDbBlockBegin
  2
Allg1
 70
     0
 10
-35.39999999999702
 20
-34.80000045542201
 30
0.0
  3
Allg1
  1

  0
INSERT
  5
4B
330
4A
100
AcDbEntity
  8
0
100
AcDbBlockReference
  2
ZBM_5_BK_UNBEDRUCKT-select__1
 10
-41.09663334602097
 20
-38.37819295442841
 30
0.0
  0
MTEXT
  5
A3
330
4A
100
AcDbEntity
  8
1
 62
     6
100
AcDbMText
 10
-35.39999999999697
 20
-39.97038513328835
 30
0.0
 40
1.0
 41
0.0
 71
     2
 72
     1
  1
 
  7
CONVERTER_11
 73
     1
 44
1.32052821128451
  0
ENDBLK
  5
4D
330
4A
100
AcDbEntity
  8
0
100
AcDbBlockEnd
  0
BLOCK
  5
4F
330
4E
100
AcDbEntity
  8
0
100
AcDbBlockBegin
  2
ZBM_5_BK_UNBEDRUCKT-select__2
 70
     0
 10
-61.29999990463398
 20
-34.69999995230728
 30
0.0
  3
ZBM_5_BK_UNBEDRUCKT-select__2
  1

  0
LINE
  5
A4
330
4E
100
AcDbEntity
  8
0
  6
Continuous
 62
     7
100
AcDbLine
 10
-50.79999990463398
 20
-34.69999995230728
 30
0.0
 11
-50.79999990463398
 21
-30.09999995230729
 31
0.0
  0
LINE
  5
A5
330
4E
100
AcDbEntity
  8
0
  6
Continuous
 62
     7
100
AcDbLine
 10
-61.29999990463398
 20
-30.09999995230729
 30
0.0
 11
-50.79999990463398
 21
-30.09999995230729
 31
0.0
  0
LINE
  5
A6
330
4E
100
AcDbEntity
  8
0
  6
Continuous
 62
     7
100
AcDbLine
 10
-61.29999990463398
 20
-34.69999995230728
 30
0.0
 11
-50.79999990463398
 21
-34.69999995230728
 31
0.0
  0
LINE
  5
A7
330
4E
100
AcDbEntity
  8
0
  6
Continuous
 62
     7
100
AcDbLine
 10
-61.29999990463398
 20
-34.69999995230728
 30
0.0
 11
-61.29999990463398
 21
-30.09999995230729
 31
0.0
  0
ENDBLK
  5
50
330
4E
100
AcDbEntity
  8
0
100
AcDbBlockEnd
  0
BLOCK
  5
53
330
51
100
AcDbEntity
  8
0
100
AcDbBlockBegin
  2
Drfsicht1
 70
     0
 10
-56.04999990463557
 20
-32.39999999999601
 30
0.0
  3
Drfsicht1
  1

  0
INSERT
  5
52
330
51
100
AcDbEntity
  8
0
100
AcDbBlockReference
  2
ZBM_5_BK_UNBEDRUCKT-select__2
 10
-61.29999990463398
 20
-34.69999995230728
 30
0.0
  0
MTEXT
  5
A8
330
51
100
AcDbEntity
  8
1
 62
     6
100
AcDbMText
 10
-56.04999990463557
 20
-35.69999995231228
 30
0.0
 40
1.0
 41
0.0
 71
     2
 72
     1
  1
 
  7
CONVERTER_11
 73
     1
 44
1.32052821128451
  0
DIMENSION
  5
B3
330
51
100
AcDbEntity
  8
1
100
AcDbDimension
  2
*D17
 10
-63.4975721451832
 20
-30.09999995230728
 30
0.0
 11
-64.1825721451832
 21
-32.3233983811044
 31
0.0
 70
    32
  1
<>
 71
     5
 42
-1.0
 53
90.0
  3
ME10_DIM_10
100
AcDbAlignedDimension
 13
-61.29999990463398
 23
-34.69999995230728
 33
0.0
 14
-61.29999990463398
 24
-30.09999995230729
 34
0.0
 50
90.0
100
AcDbRotatedDimension
  0
ENDBLK
  5
54
330
51
100
AcDbEntity
  8
0
100
AcDbBlockEnd
  0
BLOCK
  5
56
330
55
100
AcDbEntity
  8
0
100
AcDbBlockBegin
  2
ZBM_5_BK_UNBEDRUCKT-select__3
 70
     0
 10
-38.2000000000014
 20
-24.10000009944083
 30
0.0
  3
ZBM_5_BK_UNBEDRUCKT-select__3
  1

  0
LINE
  5
B4
330
55
100
AcDbEntity
  8
0
  6
Continuous
 62
     7
100
AcDbLine
 10
-38.2000000000014
 20
-19.80000009944266
 30
0.0
 11
-38.20000000000066
 21
-20.80000009944266
 31
0.0
  0
LINE
  5
B5
330
55
100
AcDbEntity
  8
0
  6
Continuous
 62
     7
100
AcDbLine
 10
-27.70000000000141
 20
-19.80000009943487
 30
0.0
 11
-38.2000000000014
 21
-19.80000009944266
 31
0.0
  0
LINE
  5
B6
330
55
100
AcDbEntity
  8
0
  6
Continuous
 62
     7
100
AcDbLine
 10
-27.70000000000066
 20
-20.80000009943487
 30
0.0
 11
-27.70000000000141
 21
-19.80000009943487
 31
0.0
  0
LINE
  5
B7
330
55
100
AcDbEntity
  8
0
  6
Continuous
 62
     7
100
AcDbLine
 10
-30.90025773880781
 20
-20.80000009943724
 30
0.0
 11
-27.70000000000066
 21
-20.80000009943487
 31
0.0
  0
LINE
  5
B8
330
55
100
AcDbEntity
  8
0
  6
Continuous
 62
     7
100
AcDbLine
 10
-31.66911665594602
 20
-20.80000009943781
 30
0.0
 11
-30.64999999999858
 21
-23.60000009943705
 31
0.0
  0
LINE
  5
B9
330
55
100
AcDbEntity
  8
0
  6
Continuous
 62
     7
100
AcDbLine
 10
-30.2794095225502
 20
-23.11703718629225
 30
0.0
 11
-30.90025773880781
 21
-20.80000009943724
 31
0.0
  0
LINE
  5
BA
330
55
100
AcDbEntity
  8
0
  6
Continuous
 62
     7
100
AcDbLine
 10
-34.2308833440553
 20
-20.80000009943971
 30
0.0
 11
-31.66911665594602
 21
-20.80000009943781
 31
0.0
  0
LINE
  5
BB
330
55
100
AcDbEntity
  8
0
  6
Continuous
 62
     7
100
AcDbLine
 10
-35.62059047744769
 20
-23.11703718629621
 30
0.0
 11
-34.99974226119352
 21
-20.80000009944028
 31
0.0
  0
LINE
  5
BC
330
55
100
AcDbEntity
  8
0
  6
Continuous
 62
     7
100
AcDbLine
 10
-38.20000000000066
 20
-20.80000009944266
 30
0.0
 11
-34.99974226119352
 21
-20.80000009944028
 31
0.0
  0
LINE
  5
BD
330
55
100
AcDbEntity
  8
0
  6
Continuous
 62
     7
100
AcDbLine
 10
-34.2308833440553
 20
-20.80000009943971
 30
0.0
 11
-35.24999999999859
 21
-23.60000009944046
 31
0.0
  0
ARC
  5
BE
330
55
100
AcDbEntity
  8
0
  6
Continuous
 62
     7
100
AcDbCircle
 10
-30.14999999999859
 20
-23.60000009943668
 30
0.0
 40
0.4999999999999893
100
AcDbArc
 50
180.0000000000423
 51
105.0000000000416
  0
ARC
  5
BF
330
55
100
AcDbEntity
  8
0
  6
Continuous
 62
     7
100
AcDbCircle
 10
-35.74999999999859
 20
-23.60000009944083
 30
0.0
 40
0.4999999999999917
100
AcDbArc
 50
75.00000000004236
 51
0.00000000004234
  0
ENDBLK
  5
57
330
55
100
AcDbEntity
  8
0
100
AcDbBlockEnd
  0
BLOCK
  5
5A
330
58
100
AcDbEntity
  8
0
100
AcDbBlockBegin
  2
Rckans1
 70
     0
 10
-32.94999999999982
 20
-21.94999857355984
 30
0.0
  3
Rckans1
  1

  0
INSERT
  5
59
330
58
100
AcDbEntity
  8
0
100
AcDbBlockReference
  2
ZBM_5_BK_UNBEDRUCKT-select__3
 10
-38.2000000000014
 20
-24.10000009944083
 30
0.0
  0
MTEXT
  5
C0
330
58
100
AcDbEntity
  8
1
 62
     6
100
AcDbMText
 10
-32.94999999999982
 20
-25.09999957356371
 30
0.0
 40
1.0
 41
0.0
 71
     2
 72
     1
  1
 
  7
CONVERTER_11
 73
     1
 44
1.32052821128451
  0
ENDBLK
  5
5B
330
58
100
AcDbEntity
  8
0
100
AcDbBlockEnd
  0
BLOCK
  5
5D
330
5C
100
AcDbEntity
  8
0
100
AcDbBlockBegin
  2
ZBM_5_BK_UNBEDRUCKT-select__4
 70
     0
 10
-46.80000000001139
 20
-24.10000009944084
 30
0.0
  3
ZBM_5_BK_UNBEDRUCKT-select__4
  1

  0
LINE
  5
C1
330
5C
100
AcDbEntity
  8
0
  6
Continuous
 62
     7
100
AcDbLine
 10
-42.20000000001139
 20
-23.10000009943669
 30
0.0
 11
-46.80000000001139
 21
-23.10000009943669
 31
0.0
  0
LINE
  5
C2
330
5C
100
AcDbEntity
  8
0
  6
Continuous
 62
     7
100
AcDbLine
 10
-42.20000000001139
 20
-20.80000009943971
 30
0.0
 11
-46.80000000001139
 21
-20.80000009943971
 31
0.0
  0
LINE
  5
C3
330
5C
100
AcDbEntity
  8
0
  6
Continuous
 62
     7
100
AcDbLine
 10
-46.80000000001139
 20
-20.80000009943971
 30
0.0
 11
-46.80000000001139
 21
-19.80000009943488
 31
0.0
  0
LINE
  5
C4
330
5C
100
AcDbEntity
  8
0
  6
Continuous
 62
     7
100
AcDbLine
 10
-42.20000000001139
 20
-19.80000009943488
 30
0.0
 11
-46.80000000001139
 21
-19.80000009943488
 31
0.0
  0
LINE
  5
C5
330
5C
100
AcDbEntity
  8
0
  6
Continuous
 62
     7
100
AcDbLine
 10
-42.20000000001139
 20
-20.80000009943971
 30
0.0
 11
-42.20000000001139
 21
-19.80000009943488
 31
0.0
  0
LINE
  5
C6
330
5C
100
AcDbEntity
  8
0
  6
Continuous
 62
     7
100
AcDbLine
 10
-46.80000000001139
 20
-23.10000009943669
 30
0.0
 11
-46.80000000001139
 21
-24.10000009944084
 31
0.0
  0
LINE
  5
C7
330
5C
100
AcDbEntity
  8
0
  6
Continuous
 62
     7
100
AcDbLine
 10
-46.80000000001139
 20
-20.80000009943971
 30
0.0
 11
-46.80000000001139
 21
-23.10000009943669
 31
0.0
  0
LINE
  5
C8
330
5C
100
AcDbEntity
  8
0
  6
Continuous
 62
     7
100
AcDbLine
 10
-42.20000000001139
 20
-23.10000009943669
 30
0.0
 11
-42.20000000001139
 21
-24.10000009944084
 31
0.0
  0
LINE
  5
C9
330
5C
100
AcDbEntity
  8
0
  6
Continuous
 62
     7
100
AcDbLine
 10
-42.20000000001139
 20
-20.80000009943971
 30
0.0
 11
-42.20000000001139
 21
-23.10000009943669
 31
0.0
  0
LINE
  5
CA
330
5C
100
AcDbEntity
  8
0
  6
Continuous
 62
     7
100
AcDbLine
 10
-42.20000000001139
 20
-24.10000009944084
 30
0.0
 11
-46.80000000001139
 21
-24.10000009944084
 31
0.0
  0
LINE
  5
CB
330
5C
100
AcDbEntity
  8
1
  6
DOT_CENTER
 62
     2
100
AcDbLine
 10
-42.20000000001139
 20
-23.60000009943877
 30
0.0
 11
-46.80000000001139
 21
-23.60000009943877
 31
0.0
  0
ENDBLK
  5
5E
330
5C
100
AcDbEntity
  8
0
100
AcDbBlockEnd
  0
BLOCK
  5
61
330
5F
100
AcDbEntity
  8
0
100
AcDbBlockBegin
  2
SA_Links1
 70
     0
 10
-44.49999995232268
 20
-21.94999857355985
 30
0.0
  3
SA_Links1
  1

  0
INSERT
  5
60
330
5F
100
AcDbEntity
  8
0
100
AcDbBlockReference
  2
ZBM_5_BK_UNBEDRUCKT-select__4
 10
-46.80000000001139
 20
-24.10000009944084
 30
0.0
  0
MTEXT
  5
CC
330
5F
100
AcDbEntity
  8
1
 62
     6
100
AcDbMText
 10
-44.4999999523227
 20
-25.09999957356371
 30
0.0
 40
1.0
 41
0.0
 71
     2
 72
     1
  1
 
  7
CONVERTER_11
 73
     1
 44
1.32052821128451
  0
ENDBLK
  5
62
330
5F
100
AcDbEntity
  8
0
100
AcDbBlockEnd
  0
BLOCK
  5
64
330
63
100
AcDbEntity
  8
0
100
AcDbBlockBegin
  2
ZBM_5_BK_UNBEDRUCKT-select__5
 70
     0
 10
-72.29999980925976
 20
-24.10000009943668
 30
0.0
  3
ZBM_5_BK_UNBEDRUCKT-select__5
  1

  0
LINE
  5
CD
330
63
100
AcDbEntity
  8
0
  6
Continuous
 62
     7
100
AcDbLine
 10
-72.29999980925976
 20
-23.10000009943668
 30
0.0
 11
-72.29999980925976
 21
-24.10000009943668
 31
0.0
  0
LINE
  5
CE
330
63
100
AcDbEntity
  8
0
  6
Continuous
 62
     7
100
AcDbLine
 10
-67.69999980925975
 20
-19.80000009944266
 30
0.0
 11
-67.69999980925975
 21
-20.80000009944028
 31
0.0
  0
LINE
  5
CF
330
63
100
AcDbEntity
  8
0
  6
Continuous
 62
     7
100
AcDbLine
 10
-72.29999980925976
 20
-20.80000009944028
 30
0.0
 11
-67.69999980925975
 21
-20.80000009944028
 31
0.0
  0
LINE
  5
D0
330
63
100
AcDbEntity
  8
0
  6
Continuous
 62
     7
100
AcDbLine
 10
-72.29999980925976
 20
-19.80000009944266
 30
0.0
 11
-72.29999980925976
 21
-20.80000009944028
 31
0.0
  0
LINE
  5
D1
330
63
100
AcDbEntity
  8
0
  6
Continuous
 62
     7
100
AcDbLine
 10
-72.29999980925976
 20
-23.10000009943668
 30
0.0
 11
-67.69999980925975
 21
-23.10000009943668
 31
0.0
  0
LINE
  5
D2
330
63
100
AcDbEntity
  8
0
  6
Continuous
 62
     7
100
AcDbLine
 10
-72.29999980925976
 20
-24.10000009943668
 30
0.0
 11
-67.69999980925975
 21
-24.10000009943668
 31
0.0
  0
LINE
  5
D3
330
63
100
AcDbEntity
  8
0
  6
Continuous
 62
     7
100
AcDbLine
 10
-72.29999980925976
 20
-23.10000009943668
 30
0.0
 11
-72.29999980925976
 21
-20.80000009944028
 31
0.0
  0
LINE
  5
D4
330
63
100
AcDbEntity
  8
0
  6
Continuous
 62
     7
100
AcDbLine
 10
-67.69999980925975
 20
-23.10000009943668
 30
0.0
 11
-67.69999980925975
 21
-24.10000009943668
 31
0.0
  0
LINE
  5
D5
330
63
100
AcDbEntity
  8
0
  6
Continuous
 62
     7
100
AcDbLine
 10
-67.69999980925975
 20
-23.10000009943668
 30
0.0
 11
-67.69999980925975
 21
-20.80000009944028
 31
0.0
  0
LINE
  5
D6
330
63
100
AcDbEntity
  8
0
  6
Continuous
 62
     7
100
AcDbLine
 10
-72.29999980925976
 20
-19.80000009944266
 30
0.0
 11
-67.69999980925975
 21
-19.80000009944266
 31
0.0
  0
LINE
  5
D7
330
63
100
AcDbEntity
  8
1
  6
DOT_CENTER
 62
     2
100
AcDbLine
 10
-72.29999980925976
 20
-23.60000009943668
 30
0.0
 11
-67.69999980925975
 21
-23.60000009943668
 31
0.0
  0
ENDBLK
  5
65
330
63
100
AcDbEntity
  8
0
100
AcDbBlockEnd
  0
BLOCK
  5
68
330
66
100
AcDbEntity
  8
0
100
AcDbBlockBegin
  2
SA_Rechts1
 70
     0
 10
-69.99999985694848
 20
-21.94999857355984
 30
0.0
  3
SA_Rechts1
  1

  0
INSERT
  5
67
330
66
100
AcDbEntity
  8
0
100
AcDbBlockReference
  2
ZBM_5_BK_UNBEDRUCKT-select__5
 10
-72.29999980925976
 20
-24.10000009943668
 30
0.0
  0
MTEXT
  5
D8
330
66
100
AcDbEntity
  8
1
 62
     6
100
AcDbMText
 10
-69.99999985694845
 20
-25.09999957356368
 30
0.0
 40
1.0
 41
0.0
 71
     2
 72
     1
  1
 
  7
CONVERTER_11
 73
     1
 44
1.32052821128451
  0
ENDBLK
  5
69
330
66
100
AcDbEntity
  8
0
100
AcDbBlockEnd
  0
BLOCK
  5
6B
330
6A
100
AcDbEntity
  8
0
100
AcDbBlockBegin
  2
ZBM_5_BK_UNBEDRUCKT-select__6
 70
     0
 10
-61.29999990463472
 20
-24.10000009944083
 30
0.0
  3
ZBM_5_BK_UNBEDRUCKT-select__6
  1

  0
LINE
  5
D9
330
6A
100
AcDbEntity
  8
0
  6
Continuous
 62
     7
100
AcDbLine
 10
-50.79999990463472
 20
-20.80000009944265
 30
0.0
 11
-54.00025764344188
 21
-20.80000009944028
 31
0.0
  0
LINE
  5
DA
330
6A
100
AcDbEntity
  8
0
  6
Continuous
 62
     7
100
AcDbLine
 10
-53.3794094271877
 20
-23.11703718629621
 30
0.0
 11
-54.00025764344188
 21
-20.80000009944028
 31
0.0
  0
LINE
  5
DB
330
6A
100
AcDbEntity
  8
0
  6
Continuous
 62
     7
100
AcDbLine
 10
-58.72059038208518
 20
-23.11703718629224
 30
0.0
 11
-58.09974216582759
 21
-20.80000009943724
 31
0.0
  0
LINE
  5
DC
330
6A
100
AcDbEntity
  8
0
  6
Continuous
 62
     7
100
AcDbLine
 10
-57.33088324868937
 20
-20.80000009943781
 30
0.0
 11
-58.3499999046368
 21
-23.60000009943705
 31
0.0
  0
LINE
  5
DD
330
6A
100
AcDbEntity
  8
0
  6
Continuous
 62
     7
100
AcDbLine
 10
-54.7691165605801
 20
-20.80000009943971
 30
0.0
 11
-57.33088324868937
 21
-20.80000009943781
 31
0.0
  0
LINE
  5
DE
330
6A
100
AcDbEntity
  8
0
  6
Continuous
 62
     7
100
AcDbLine
 10
-61.29999990463399
 20
-19.80000009943487
 30
0.0
 11
-50.79999990463399
 21
-19.80000009944265
 31
0.0
  0
LINE
  5
DF
330
6A
100
AcDbEntity
  8
0
  6
Continuous
 62
     7
100
AcDbLine
 10
-58.09974216582759
 20
-20.80000009943724
 30
0.0
 11
-61.29999990463472
 21
-20.80000009943487
 31
0.0
  0
LINE
  5
E0
330
6A
100
AcDbEntity
  8
0
  6
Continuous
 62
     7
100
AcDbLine
 10
-61.29999990463472
 20
-20.80000009943487
 30
0.0
 11
-61.29999990463399
 21
-19.80000009943487
 31
0.0
  0
LINE
  5
E1
330
6A
100
AcDbEntity
  8
0
  6
Continuous
 62
     7
100
AcDbLine
 10
-50.79999990463399
 20
-19.80000009944265
 30
0.0
 11
-50.79999990463472
 21
-20.80000009944265
 31
0.0
  0
LINE
  5
E2
330
6A
100
AcDbEntity
  8
0
  6
Continuous
 62
     7
100
AcDbLine
 10
-54.7691165605801
 20
-20.80000009943971
 30
0.0
 11
-53.7499999046368
 21
-23.60000009944046
 31
0.0
  0
ARC
  5
E3
330
6A
100
AcDbEntity
  8
0
  6
Continuous
 62
     7
100
AcDbCircle
 10
-53.24999990463681
 20
-23.60000009944083
 30
0.0
 40
0.4999999999999929
100
AcDbArc
 50
179.9999999999577
 51
104.9999999999569
  0
ARC
  5
E4
330
6A
100
AcDbEntity
  8
0
  6
Continuous
 62
     7
100
AcDbCircle
 10
-58.8499999046368
 20
-23.60000009943668
 30
0.0
 40
0.5000000000000042
100
AcDbArc
 50
74.99999999995678
 51
359.9999999999577
  0
ENDBLK
  5
6C
330
6A
100
AcDbEntity
  8
0
100
AcDbBlockEnd
  0
BLOCK
  5
6F
330
6D
100
AcDbEntity
  8
0
100
AcDbBlockBegin
  2
Vordans1
 70
     0
 10
-56.04999990463558
 20
-21.94999857355984
 30
0.0
  3
Vordans1
  1

  0
INSERT
  5
6E
330
6D
100
AcDbEntity
  8
0
100
AcDbBlockReference
  2
ZBM_5_BK_UNBEDRUCKT-select__6
 10
-61.29999990463472
 20
-24.10000009944083
 30
0.0
  0
MTEXT
  5
E5
330
6D
100
AcDbEntity
  8
1
 62
     6
100
AcDbMText
 10
-56.04999990463557
 20
-25.09999957356371
 30
0.0
 40
1.0
 41
0.0
 71
     2
 72
     1
  1
 
  7
CONVERTER_11
 73
     1
 44
1.32052821128451
  0
DIMENSION
  5
F0
330
6D
100
AcDbEntity
  8
1
100
AcDbDimension
  2
*D18
 10
-50.79999990463472
 20
-26.29262852489741
 30
0.0
 11
-56.04999990463557
 21
-25.60762852489741
 31
0.0
 70
    32
  1
<>
 71
     5
 42
-1.0
 53
0.00013888888889
  3
ME10_DIM_11
100
AcDbAlignedDimension
 13
-61.29999990463472
 23
-20.80000009943487
 33
0.0
 14
-50.79999990463472
 24
-20.80000009944265
 34
0.0
100
AcDbRotatedDimension
  0
INSERT
  5
FA
330
6D
100
AcDbEntity
  8
1
100
AcDbBlockReference
  2
*D19
 10
0.0
 20
0.0
 30
0.0
  0
ENDBLK
  5
70
330
6D
100
AcDbEntity
  8
0
100
AcDbBlockEnd
  0
BLOCK
  5
72
330
71
100
AcDbEntity
  8
0
100
AcDbBlockBegin
  2
_rahmen
 70
     0
 10
-110.4999995231699
 20
-255.4999997615365
 30
0.0
  3
_rahmen
  1

  0
LINE
  5
FB
330
71
100
AcDbEntity
  8
1
  6
DOT_CENTER
 62
     2
100
AcDbLine
 10
-236.0581491633573
 20
-229.3749997615365
 30
0.0
 11
-230.5581491633573
 21
-229.3749997615365
 31
0.0
  0
LINE
  5
FC
330
71
100
AcDbEntity
  8
1
  6
PHANTOM
 62
     2
100
AcDbLine
 10
-227.3081491633573
 20
-226.6249997615365
 30
0.0
 11
-227.3081491633573
 21
-232.1249997615365
 31
0.0
  0
LINE
  5
FD
330
71
100
AcDbEntity
  8
1
  6
PHANTOM
 62
     2
100
AcDbLine
 10
-224.5581491633573
 20
-229.3749997615365
 30
0.0
 11
-230.0581491633573
 21
-229.3749997615365
 31
0.0
  0
LINE
  5
FE
330
71
100
AcDbEntity
  8
1
  6
Continuous
 62
     7
100
AcDbLine
 10
-175.7448040499199
 20
-241.9999997615365
 30
0.0
 11
-175.7448040499199
 21
-233.4999997615364
 31
0.0
  0
LINE
  5
FF
330
71
100
AcDbEntity
  8
1
  6
Continuous
 62
     6
100
AcDbLine
 10
-203.6448040499199
 20
-233.4999997615364
 30
0.0
 11
-110.4999995231682
 21
-233.4999997615364
 31
0.0
  0
LINE
  5
100
330
71
100
AcDbEntity
  8
1
  6
Continuous
 62
     7
100
AcDbLine
 10
-240.0448040499199
 20
-233.4999997615364
 30
0.0
 11
-240.0448040499199
 21
-224.9999997615364
 31
0.0
  0
LINE
  5
101
330
71
100
AcDbEntity
  8
1
  6
Continuous
 62
     7
100
AcDbLine
 10
-203.6448040499199
 20
-233.4999997615364
 30
0.0
 11
-203.6448040499199
 21
-224.9999997615364
 31
0.0
  0
LINE
  5
102
330
71
100
AcDbEntity
  8
1
  6
Continuous
 62
     7
100
AcDbLine
 10
-145.918407804847
 20
-224.9999997615364
 30
0.0
 11
-145.918407804847
 21
-233.4999997615364
 31
0.0
  0
LINE
  5
103
330
71
100
AcDbEntity
  8
1
  6
Continuous
 62
     7
100
AcDbLine
 10
-119.4184078048474
 20
-224.9999997615364
 30
0.0
 11
-119.4184078048474
 21
-233.4999997615364
 31
0.0
  0
LINE
  5
104
330
71
100
AcDbEntity
  8
1
  6
Continuous
 62
     6
100
AcDbLine
 10
-309.0448040499198
 20
-250.4999997615364
 30
0.0
 11
-353.9999995231698
 21
-250.4999997615364
 31
0.0
  0
LINE
  5
105
330
71
100
AcDbEntity
  8
1
  6
Continuous
 62
     7
100
AcDbLine
 10
-110.4999995231686
 20
-241.9999997615364
 30
0.0
 11
-203.6448040499199
 21
-241.9999997615364
 31
0.0
  0
LINE
  5
106
102
{ACAD_REACTORS
330
218
330
219
102
}
330
71
100
AcDbEntity
  8
0
  6
Continuous
 62
     2
100
AcDbLine
 10
-226.3373751081525
 20
-241.1997106458731
 30
0.0
 11
-226.3373751081525
 21
-240.3271936390698
 31
0.0
  0
LINE
  5
107
102
{ACAD_REACTORS
330
218
330
219
102
}
330
71
100
AcDbEntity
  8
0
  6
Continuous
 62
     2
100
AcDbLine
 10
-226.3373751081525
 20
-242.159479353356
 30
0.0
 11
-226.3373751081525
 21
-243.0319963601592
 31
0.0
  0
LINE
  5
108
102
{ACAD_REACTORS
330
21A
330
21B
102
}
330
71
100
AcDbEntity
  8
0
  6
Continuous
 62
     2
100
AcDbLine
 10
-211.004330971862
 20
-240.9379555438326
 30
0.0
 11
-209.9006916722939
 21
-240.9379555438326
 31
0.0
  0
LINE
  5
109
102
{ACAD_REACTORS
330
21A
330
21B
102
}
330
71
100
AcDbEntity
  8
0
  6
Continuous
 62
     2
100
AcDbLine
 10
-210.2346736289005
 20
-242.1594793533565
 30
0.0
 11
-210.2346736289005
 21
-243.0319963601598
 31
0.0
  0
LINE
  5
10A
102
{ACAD_REACTORS
330
224
330
225
102
}
330
71
100
AcDbEntity
  8
0
  6
Continuous
 62
     2
100
AcDbLine
 10
-212.0954302442805
 20
-239.8473092853458
 30
0.0
 11
-210.6974771973402
 21
-238.2664502915708
 31
0.0
  0
LINE
  5
10B
102
{ACAD_REACTORS
330
224
330
225
102
}
330
71
100
AcDbEntity
  8
0
  6
Continuous
 62
     2
100
AcDbLine
 10
-212.0000068281076
 20
-236.7934997615346
 30
0.0
 11
-210.6974771973402
 21
-238.2664502915708
 31
0.0
  0
LINE
  5
10C
102
{ACAD_REACTORS
330
224
330
225
102
}
330
71
100
AcDbEntity
  8
0
  6
Continuous
 62
     2
100
AcDbLine
 10
-209.3949475665738
 20
-236.7934997615346
 30
0.0
 11
-207.9922233488265
 21
-236.7934997615346
 31
0.0
  0
LINE
  5
10D
102
{ACAD_REACTORS
330
224
330
225
102
}
330
71
100
AcDbEntity
  8
0
  6
Continuous
 62
     2
100
AcDbLine
 10
-210.6927060265323
 20
-239.8473092853458
 30
0.0
 11
-209.9961150884666
 21
-239.0595775000521
 31
0.0
  0
LINE
  5
10E
102
{ACAD_REACTORS
330
224
330
225
102
}
330
71
100
AcDbEntity
  8
0
  6
Continuous
 62
     2
100
AcDbLine
 10
-210.6927060265323
 20
-239.8473092853458
 30
0.0
 11
-212.0954302442805
 21
-239.8473092853458
 31
0.0
  0
LINE
  5
10F
102
{ACAD_REACTORS
330
226
330
227
102
}
330
71
100
AcDbEntity
  8
0
  6
Continuous
 62
     2
100
AcDbLine
 10
-212.2147095144973
 20
-239.8473092853458
 30
0.0
 11
-213.4552139247502
 21
-239.8473092853458
 31
0.0
  0
LINE
  5
110
102
{ACAD_REACTORS
330
228
330
229
102
}
330
71
100
AcDbEntity
  8
0
  6
Continuous
 62
     2
100
AcDbLine
 10
-214.3231935329054
 20
-241.9849759519956
 30
0.0
 11
-214.6233587700955
 21
-241.2171609860089
 31
0.0
  0
LINE
  5
111
102
{ACAD_REACTORS
330
228
330
229
102
}
330
71
100
AcDbEntity
  8
0
  6
Continuous
 62
     2
100
AcDbLine
 10
-214.9235240072879
 20
-241.9849759519956
 30
0.0
 11
-214.3231935329054
 21
-241.9849759519956
 31
0.0
  0
LINE
  5
112
102
{ACAD_REACTORS
330
228
330
229
102
}
330
71
100
AcDbEntity
  8
0
  6
Continuous
 62
     2
100
AcDbLine
 10
-216.6415640221617
 20
-243.2064997615201
 30
0.0
 11
-215.4010596119087
 21
-243.2064997615201
 31
0.0
  0
LINE
  5
113
102
{ACAD_REACTORS
330
228
330
229
102
}
330
71
100
AcDbEntity
  8
0
  6
Continuous
 62
     2
100
AcDbLine
 10
-215.2436109752223
 20
-240.152690237709
 30
0.0
 11
-214.0031065649696
 21
-240.152690237709
 31
0.0
  0
LINE
  5
114
102
{ACAD_REACTORS
330
228
330
229
102
}
330
71
100
AcDbEntity
  8
0
  6
Continuous
 62
     2
100
AcDbLine
 10
-214.0031065649696
 20
-240.152690237709
 30
0.0
 11
-212.6051535180293
 21
-243.2064997615201
 31
0.0
  0
LINE
  5
115
102
{ACAD_REACTORS
330
228
330
229
102
}
330
71
100
AcDbEntity
  8
0
  6
Continuous
 62
     2
100
AcDbLine
 10
-213.8456579282833
 20
-243.2064997615201
 30
0.0
 11
-214.057137981759
 21
-242.6655392173022
 31
0.0
  0
LINE
  5
116
102
{ACAD_REACTORS
330
22A
330
22B
102
}
330
71
100
AcDbEntity
  8
0
  6
Continuous
 62
     2
100
AcDbLine
 10
-217.9879771238693
 20
-243.2064997615201
 30
0.0
 11
-216.7951844217027
 21
-243.2064997615201
 31
0.0
  0
LINE
  5
117
102
{ACAD_REACTORS
330
22A
330
22B
102
}
330
71
100
AcDbEntity
  8
0
  6
Continuous
 62
     2
100
AcDbLine
 10
-217.9879771238693
 20
-240.9379555438326
 30
0.0
 11
-217.9879771238693
 21
-243.2064997615201
 31
0.0
  0
LINE
  5
118
102
{ACAD_REACTORS
330
22A
330
22B
102
}
330
71
100
AcDbEntity
  8
0
  6
Continuous
 62
     2
100
AcDbLine
 10
-218.7990761613439
 20
-240.152690237709
 30
0.0
 11
-218.7990761613439
 21
-240.9379555438326
 31
0.0
  0
LINE
  5
119
102
{ACAD_REACTORS
330
22C
330
22D
102
}
330
71
100
AcDbEntity
  8
0
  6
Continuous
 62
     2
100
AcDbLine
 10
-217.3198622797713
 20
-239.8473092853458
 30
0.0
 11
-216.1270695776047
 21
-239.8473092853458
 31
0.0
  0
LINE
  5
11A
102
{ACAD_REACTORS
330
22C
330
22D
102
}
330
71
100
AcDbEntity
  8
0
  6
Continuous
 62
     2
100
AcDbLine
 10
-214.8865651673507
 20
-238.1022752717398
 30
0.0
 11
-216.1270695776047
 21
-236.7934997615346
 31
0.0
  0
LINE
  5
11B
102
{ACAD_REACTORS
330
22C
330
22D
102
}
330
71
100
AcDbEntity
  8
0
  6
Continuous
 62
     2
100
AcDbLine
 10
-213.6937724651841
 20
-236.7934997615346
 30
0.0
 11
-214.8865651673507
 21
-236.7934997615346
 31
0.0
  0
LINE
  5
11C
102
{ACAD_REACTORS
330
22C
330
22D
102
}
330
71
100
AcDbEntity
  8
0
  6
Continuous
 62
     2
100
AcDbLine
 10
-213.6937724651841
 20
-239.8473092853458
 30
0.0
 11
-213.6937724651841
 21
-236.7934997615346
 31
0.0
  0
LINE
  5
11D
102
{ACAD_REACTORS
330
22C
330
22D
102
}
330
71
100
AcDbEntity
  8
0
  6
Continuous
 62
     2
100
AcDbLine
 10
-214.8865651673507
 20
-239.8473092853458
 30
0.0
 11
-213.6937724651841
 21
-239.8473092853458
 31
0.0
  0
LINE
  5
11E
102
{ACAD_REACTORS
330
22C
330
22D
102
}
330
71
100
AcDbEntity
  8
0
  6
Continuous
 62
     2
100
AcDbLine
 10
-216.1270695776047
 20
-238.5385337751411
 30
0.0
 11
-214.8865651673507
 21
-239.8473092853458
 31
0.0
  0
LINE
  5
11F
102
{ACAD_REACTORS
330
22E
330
22F
102
}
330
71
100
AcDbEntity
  8
0
  6
Continuous
 62
     2
100
AcDbLine
 10
-220.1350039877705
 20
-241.4614657479141
 30
0.0
 11
-221.3755083980234
 21
-240.152690237709
 31
0.0
  0
LINE
  5
120
102
{ACAD_REACTORS
330
22E
330
22F
102
}
330
71
100
AcDbEntity
  8
0
  6
Continuous
 62
     2
100
AcDbLine
 10
-220.1350039877705
 20
-240.152690237709
 30
0.0
 11
-220.1350039877705
 21
-241.4614657479141
 31
0.0
  0
LINE
  5
121
102
{ACAD_REACTORS
330
22E
330
22F
102
}
330
71
100
AcDbEntity
  8
0
  6
Continuous
 62
     2
100
AcDbLine
 10
-218.9422112856041
 20
-240.152690237709
 30
0.0
 11
-220.1350039877705
 21
-240.152690237709
 31
0.0
  0
LINE
  5
122
102
{ACAD_REACTORS
330
22E
330
22F
102
}
330
71
100
AcDbEntity
  8
0
  6
Continuous
 62
     2
100
AcDbLine
 10
-218.9422112856041
 20
-243.2064997615201
 30
0.0
 11
-218.9422112856041
 21
-240.152690237709
 31
0.0
  0
LINE
  5
123
102
{ACAD_REACTORS
330
22E
330
22F
102
}
330
71
100
AcDbEntity
  8
0
  6
Continuous
 62
     2
100
AcDbLine
 10
-221.3755083980234
 20
-241.8977242513155
 30
0.0
 11
-220.1350039877705
 21
-243.2064997615201
 31
0.0
  0
LINE
  5
124
102
{ACAD_REACTORS
330
22E
330
22F
102
}
330
71
100
AcDbEntity
  8
0
  6
Continuous
 62
     2
100
AcDbLine
 10
-221.3755083980234
 20
-243.2064997615201
 30
0.0
 11
-221.3755083980234
 21
-241.8977242513155
 31
0.0
  0
LINE
  5
125
102
{ACAD_REACTORS
330
21E
330
21F
102
}
330
71
100
AcDbEntity
  8
0
  6
Continuous
 62
     2
100
AcDbLine
 10
-218.8943486466318
 20
-237.4915133669776
 30
0.0
 11
-217.5584208202042
 21
-237.4915133669776
 31
0.0
  0
LINE
  5
126
102
{ACAD_REACTORS
330
21E
330
21F
102
}
330
71
100
AcDbEntity
  8
0
  6
Continuous
 62
     2
100
AcDbLine
 10
-218.8943486466318
 20
-239.1492956799033
 30
0.0
 11
-218.8943486466318
 21
-238.6694113261616
 31
0.0
  0
LINE
  5
127
102
{ACAD_REACTORS
330
21E
330
21F
102
}
330
71
100
AcDbEntity
  8
0
  6
Continuous
 62
     2
100
AcDbLine
 10
-217.5584208202042
 20
-239.1492956799033
 30
0.0
 11
-218.8943486466318
 21
-239.1492956799033
 31
0.0
  0
LINE
  5
128
102
{ACAD_REACTORS
330
21E
330
21F
102
}
330
71
100
AcDbEntity
  8
0
  6
Continuous
 62
     2
100
AcDbLine
 10
-217.5584208202042
 20
-239.8473092853458
 30
0.0
 11
-217.5584208202042
 21
-239.1492956799033
 31
0.0
  0
LINE
  5
129
102
{ACAD_REACTORS
330
21E
330
21F
102
}
330
71
100
AcDbEntity
  8
0
  6
Continuous
 62
     2
100
AcDbLine
 10
-220.7087405439852
 20
-239.8473092853458
 30
0.0
 11
-217.5584208202042
 21
-239.8473092853458
 31
0.0
  0
LINE
  5
12A
102
{ACAD_REACTORS
330
21E
330
21F
102
}
330
71
100
AcDbEntity
  8
0
  6
Continuous
 62
     2
100
AcDbLine
 10
-220.7087405439852
 20
-236.7934997615346
 30
0.0
 11
-217.5584208202042
 21
-236.7934997615346
 31
0.0
  0
LINE
  5
12B
102
{ACAD_REACTORS
330
21E
330
21F
102
}
330
71
100
AcDbEntity
  8
0
  6
Continuous
 62
     2
100
AcDbLine
 10
-217.5584208202042
 20
-237.4915133669776
 30
0.0
 11
-217.5584208202042
 21
-236.7934997615346
 31
0.0
  0
LINE
  5
12C
102
{ACAD_REACTORS
330
230
330
231
102
}
330
71
100
AcDbEntity
  8
0
  6
Continuous
 62
     2
100
AcDbLine
 10
-223.5700960391252
 20
-237.8623330948692
 30
0.0
 11
-223.5700960391252
 21
-236.7934997615346
 31
0.0
  0
LINE
  5
12D
102
{ACAD_REACTORS
330
230
330
231
102
}
330
71
100
AcDbEntity
  8
0
  6
Continuous
 62
     2
100
AcDbLine
 10
-223.5700960391252
 20
-236.7934997615346
 30
0.0
 11
-222.3773033369588
 21
-236.7934997615346
 31
0.0
  0
LINE
  5
12E
102
{ACAD_REACTORS
330
230
330
231
102
}
330
71
100
AcDbEntity
  8
0
  6
Continuous
 62
     2
100
AcDbLine
 10
-223.5700960391252
 20
-238.713037176502
 30
0.0
 11
-224.6197536170326
 21
-238.713037176502
 31
0.0
  0
LINE
  5
12F
102
{ACAD_REACTORS
330
230
330
231
102
}
330
71
100
AcDbEntity
  8
0
  6
Continuous
 62
     2
100
AcDbLine
 10
-224.6197536170326
 20
-238.713037176502
 30
0.0
 11
-224.6197536170326
 21
-239.8473092853458
 31
0.0
  0
LINE
  5
130
102
{ACAD_REACTORS
330
230
330
231
102
}
330
71
100
AcDbEntity
  8
0
  6
Continuous
 62
     2
100
AcDbLine
 10
-225.8125463191992
 20
-236.7934997615346
 30
0.0
 11
-225.8125463191992
 21
-239.8473092853458
 31
0.0
  0
LINE
  5
131
102
{ACAD_REACTORS
330
222
330
223
102
}
330
71
100
AcDbEntity
  8
0
  6
Continuous
 62
     2
100
AcDbLine
 10
-227.7687263507528
 20
-238.1623332563169
 30
0.0
 11
-227.7687263507528
 21
-237.4566056069747
 31
0.0
  0
LINE
  5
132
102
{ACAD_REACTORS
330
222
330
223
102
}
330
71
100
AcDbEntity
  8
0
  6
Continuous
 62
     2
100
AcDbLine
 10
-229.009230761007
 20
-239.8473092853458
 30
0.0
 11
-227.7687263507528
 21
-239.8473092853458
 31
0.0
  0
LINE
  5
133
102
{ACAD_REACTORS
330
222
330
223
102
}
330
71
100
AcDbEntity
  8
0
  6
Continuous
 62
     2
100
AcDbLine
 10
-227.7687263507528
 20
-239.8473092853458
 30
0.0
 11
-227.7687263507528
 21
-238.904231044202
 31
0.0
  0
LINE
  5
134
102
{ACAD_REACTORS
330
21C
330
21D
102
}
330
71
100
AcDbEntity
  8
0
  6
Continuous
 62
     2
100
AcDbLine
 10
-233.3141766102183
 20
-242.4939442059632
 30
0.0
 11
-234.790009871228
 21
-242.4939442059632
 31
0.0
  0
LINE
  5
135
102
{ACAD_REACTORS
330
21C
330
21D
102
}
330
71
100
AcDbEntity
  8
0
  6
Continuous
 62
     2
100
AcDbLine
 10
-235.8081491633573
 20
-237.2177443769366
 30
0.0
 11
-235.8081491633573
 21
-242.7822551461368
 31
0.0
  0
LINE
  5
136
102
{ACAD_REACTORS
330
21C
330
21D
102
}
330
71
100
AcDbEntity
  8
0
  6
Continuous
 62
     2
100
AcDbLine
 10
-235.3839045479745
 20
-236.7934997615528
 30
0.0
 11
-229.9105924572577
 21
-236.7934997615528
 31
0.0
  0
LINE
  5
137
102
{ACAD_REACTORS
330
21C
330
21D
102
}
330
71
100
AcDbEntity
  8
0
  6
Continuous
 62
     2
100
AcDbLine
 10
-229.4863478418738
 20
-237.2177443769366
 30
0.0
 11
-229.4863478418738
 21
-242.7822551461368
 31
0.0
  0
LINE
  5
138
102
{ACAD_REACTORS
330
21C
330
21D
102
}
330
71
100
AcDbEntity
  8
0
  6
Continuous
 62
     2
100
AcDbLine
 10
-229.9105924572577
 20
-243.2064997615201
 30
0.0
 11
-235.3839045479745
 21
-243.2064997615201
 31
0.0
  0
LINE
  5
139
102
{ACAD_REACTORS
330
21C
330
21D
102
}
330
71
100
AcDbEntity
  8
0
  6
Continuous
 62
     2
100
AcDbLine
 10
-232.9984596871418
 20
-242.1782272828865
 30
0.0
 11
-232.9984596871418
 21
-240.6474563513549
 31
0.0
  0
LINE
  5
13A
102
{ACAD_REACTORS
330
21C
330
21D
102
}
330
71
100
AcDbEntity
  8
0
  6
Continuous
 62
     2
100
AcDbLine
 10
-232.9984596871418
 20
-238.4257968592299
 30
0.0
 11
-232.9984596871418
 21
-237.8217722401694
 31
0.0
  0
LINE
  5
13B
102
{ACAD_REACTORS
330
21C
330
21D
102
}
330
71
100
AcDbEntity
  8
0
  6
Continuous
 62
     2
100
AcDbLine
 10
-234.790009871228
 20
-237.5060553170932
 30
0.0
 11
-233.3141766102183
 21
-237.5060553170932
 31
0.0
  0
LINE
  5
13C
102
{ACAD_REACTORS
330
21C
330
21D
102
}
330
71
100
AcDbEntity
  8
0
  6
Continuous
 62
     2
100
AcDbLine
 10
-235.1057267943037
 20
-237.8217722401694
 30
0.0
 11
-235.1057267943037
 21
-242.1782272828865
 31
0.0
  0
LINE
  5
13D
102
{ACAD_REACTORS
330
222
330
223
102
}
330
71
100
AcDbEntity
  8
0
  6
Continuous
 62
     2
100
AcDbLine
 10
-227.7687263507528
 20
-238.904231044202
 30
0.0
 11
-227.0099587629726
 21
-238.904231044202
 31
0.0
  0
LINE
  5
13E
102
{ACAD_REACTORS
330
222
330
223
102
}
330
71
100
AcDbEntity
  8
0
  6
Continuous
 62
     2
100
AcDbLine
 10
-229.009230761007
 20
-236.7934997615346
 30
0.0
 11
-227.0099587629726
 21
-236.7934997615346
 31
0.0
  0
LINE
  5
13F
102
{ACAD_REACTORS
330
222
330
223
102
}
330
71
100
AcDbEntity
  8
0
  6
Continuous
 62
     2
100
AcDbLine
 10
-229.009230761007
 20
-236.7934997615346
 30
0.0
 11
-229.009230761007
 21
-239.8473092853458
 31
0.0
  0
LINE
  5
140
102
{ACAD_REACTORS
330
222
330
223
102
}
330
71
100
AcDbEntity
  8
0
  6
Continuous
 62
     2
100
AcDbLine
 10
-227.7687263507528
 20
-238.1623332563169
 30
0.0
 11
-227.4514312892109
 21
-238.1623332563169
 31
0.0
  0
LINE
  5
141
102
{ACAD_REACTORS
330
222
330
223
102
}
330
71
100
AcDbEntity
  8
0
  6
Continuous
 62
     2
100
AcDbLine
 10
-227.7687263507528
 20
-237.4566056069747
 30
0.0
 11
-227.4514312892109
 21
-237.4566056069747
 31
0.0
  0
LINE
  5
142
102
{ACAD_REACTORS
330
230
330
231
102
}
330
71
100
AcDbEntity
  8
0
  6
Continuous
 62
     2
100
AcDbLine
 10
-224.6197536170326
 20
-237.8623330948692
 30
0.0
 11
-223.5700960391252
 21
-237.8623330948692
 31
0.0
  0
LINE
  5
143
102
{ACAD_REACTORS
330
230
330
231
102
}
330
71
100
AcDbEntity
  8
0
  6
Continuous
 62
     2
100
AcDbLine
 10
-224.6197536170326
 20
-236.7934997615346
 30
0.0
 11
-224.6197536170326
 21
-237.8623330948692
 31
0.0
  0
LINE
  5
144
102
{ACAD_REACTORS
330
230
330
231
102
}
330
71
100
AcDbEntity
  8
0
  6
Continuous
 62
     2
100
AcDbLine
 10
-225.8125463191992
 20
-236.7934997615346
 30
0.0
 11
-224.6197536170326
 21
-236.7934997615346
 31
0.0
  0
LINE
  5
145
102
{ACAD_REACTORS
330
230
330
231
102
}
330
71
100
AcDbEntity
  8
0
  6
Continuous
 62
     2
100
AcDbLine
 10
-224.6197536170326
 20
-239.8473092853458
 30
0.0
 11
-225.8125463191992
 21
-239.8473092853458
 31
0.0
  0
LINE
  5
146
102
{ACAD_REACTORS
330
230
330
231
102
}
330
71
100
AcDbEntity
  8
0
  6
Continuous
 62
     2
100
AcDbLine
 10
-223.5700960391252
 20
-239.8473092853458
 30
0.0
 11
-223.5700960391252
 21
-238.713037176502
 31
0.0
  0
LINE
  5
147
102
{ACAD_REACTORS
330
230
330
231
102
}
330
71
100
AcDbEntity
  8
0
  6
Continuous
 62
     2
100
AcDbLine
 10
-222.3773033369588
 20
-239.8473092853458
 30
0.0
 11
-223.5700960391252
 21
-239.8473092853458
 31
0.0
  0
LINE
  5
148
102
{ACAD_REACTORS
330
230
330
231
102
}
330
71
100
AcDbEntity
  8
0
  6
Continuous
 62
     2
100
AcDbLine
 10
-222.3773033369588
 20
-236.7934997615346
 30
0.0
 11
-222.3773033369588
 21
-239.8473092853458
 31
0.0
  0
LINE
  5
149
102
{ACAD_REACTORS
330
21E
330
21F
102
}
330
71
100
AcDbEntity
  8
0
  6
Continuous
 62
     2
100
AcDbLine
 10
-218.8943486466318
 20
-238.6694113261616
 30
0.0
 11
-217.5584208202042
 21
-238.6694113261616
 31
0.0
  0
LINE
  5
14A
102
{ACAD_REACTORS
330
21E
330
21F
102
}
330
71
100
AcDbEntity
  8
0
  6
Continuous
 62
     2
100
AcDbLine
 10
-217.5584208202042
 20
-238.6694113261616
 30
0.0
 11
-217.5584208202042
 21
-237.9713977207193
 31
0.0
  0
LINE
  5
14B
102
{ACAD_REACTORS
330
21E
330
21F
102
}
330
71
100
AcDbEntity
  8
0
  6
Continuous
 62
     2
100
AcDbLine
 10
-217.5584208202042
 20
-237.9713977207193
 30
0.0
 11
-218.8943486466318
 21
-237.9713977207193
 31
0.0
  0
LINE
  5
14C
102
{ACAD_REACTORS
330
21E
330
21F
102
}
330
71
100
AcDbEntity
  8
0
  6
Continuous
 62
     2
100
AcDbLine
 10
-218.8943486466318
 20
-237.9713977207193
 30
0.0
 11
-218.8943486466318
 21
-237.4915133669776
 31
0.0
  0
LINE
  5
14D
102
{ACAD_REACTORS
330
22E
330
22F
102
}
330
71
100
AcDbEntity
  8
0
  6
Continuous
 62
     2
100
AcDbLine
 10
-222.568301100191
 20
-243.2064997615201
 30
0.0
 11
-221.3755083980234
 21
-243.2064997615201
 31
0.0
  0
LINE
  5
14E
102
{ACAD_REACTORS
330
22E
330
22F
102
}
330
71
100
AcDbEntity
  8
0
  6
Continuous
 62
     2
100
AcDbLine
 10
-220.1350039877705
 20
-243.2064997615201
 30
0.0
 11
-218.9422112856041
 21
-243.2064997615201
 31
0.0
  0
LINE
  5
14F
102
{ACAD_REACTORS
330
22E
330
22F
102
}
330
71
100
AcDbEntity
  8
0
  6
Continuous
 62
     2
100
AcDbLine
 10
-221.3755083980234
 20
-240.152690237709
 30
0.0
 11
-222.568301100191
 21
-240.152690237709
 31
0.0
  0
LINE
  5
150
102
{ACAD_REACTORS
330
22E
330
22F
102
}
330
71
100
AcDbEntity
  8
0
  6
Continuous
 62
     2
100
AcDbLine
 10
-222.568301100191
 20
-240.152690237709
 30
0.0
 11
-222.568301100191
 21
-243.2064997615201
 31
0.0
  0
LINE
  5
151
102
{ACAD_REACTORS
330
22C
330
22D
102
}
330
71
100
AcDbEntity
  8
0
  6
Continuous
 62
     2
100
AcDbLine
 10
-214.8865651673507
 20
-236.7934997615346
 30
0.0
 11
-214.8865651673507
 21
-238.1022752717398
 31
0.0
  0
LINE
  5
152
102
{ACAD_REACTORS
330
22C
330
22D
102
}
330
71
100
AcDbEntity
  8
0
  6
Continuous
 62
     2
100
AcDbLine
 10
-216.1270695776047
 20
-236.7934997615346
 30
0.0
 11
-217.3198622797713
 21
-236.7934997615346
 31
0.0
  0
LINE
  5
153
102
{ACAD_REACTORS
330
22C
330
22D
102
}
330
71
100
AcDbEntity
  8
0
  6
Continuous
 62
     2
100
AcDbLine
 10
-217.3198622797713
 20
-236.7934997615346
 30
0.0
 11
-217.3198622797713
 21
-239.8473092853458
 31
0.0
  0
LINE
  5
154
102
{ACAD_REACTORS
330
22C
330
22D
102
}
330
71
100
AcDbEntity
  8
0
  6
Continuous
 62
     2
100
AcDbLine
 10
-216.1270695776047
 20
-239.8473092853458
 30
0.0
 11
-216.1270695776047
 21
-238.5385337751411
 31
0.0
  0
LINE
  5
155
102
{ACAD_REACTORS
330
22A
330
22B
102
}
330
71
100
AcDbEntity
  8
0
  6
Continuous
 62
     2
100
AcDbLine
 10
-216.7951844217027
 20
-243.2064997615201
 30
0.0
 11
-216.7951844217027
 21
-240.9379555438326
 31
0.0
  0
LINE
  5
156
102
{ACAD_REACTORS
330
22A
330
22B
102
}
330
71
100
AcDbEntity
  8
0
  6
Continuous
 62
     2
100
AcDbLine
 10
-216.7951844217027
 20
-240.9379555438326
 30
0.0
 11
-215.9840853842302
 21
-240.9379555438326
 31
0.0
  0
LINE
  5
157
102
{ACAD_REACTORS
330
22A
330
22B
102
}
330
71
100
AcDbEntity
  8
0
  6
Continuous
 62
     2
100
AcDbLine
 10
-215.9840853842302
 20
-240.9379555438326
 30
0.0
 11
-215.9840853842302
 21
-240.152690237709
 31
0.0
  0
LINE
  5
158
102
{ACAD_REACTORS
330
22A
330
22B
102
}
330
71
100
AcDbEntity
  8
0
  6
Continuous
 62
     2
100
AcDbLine
 10
-215.9840853842302
 20
-240.152690237709
 30
0.0
 11
-218.7990761613439
 21
-240.152690237709
 31
0.0
  0
LINE
  5
159
102
{ACAD_REACTORS
330
22A
330
22B
102
}
330
71
100
AcDbEntity
  8
0
  6
Continuous
 62
     2
100
AcDbLine
 10
-218.7990761613439
 20
-240.9379555438326
 30
0.0
 11
-217.9879771238693
 21
-240.9379555438326
 31
0.0
  0
LINE
  5
15A
102
{ACAD_REACTORS
330
228
330
229
102
}
330
71
100
AcDbEntity
  8
0
  6
Continuous
 62
     2
100
AcDbLine
 10
-215.1895795584329
 20
-242.6655392173022
 30
0.0
 11
-214.057137981759
 21
-242.6655392173022
 31
0.0
  0
LINE
  5
15B
102
{ACAD_REACTORS
330
228
330
229
102
}
330
71
100
AcDbEntity
  8
0
  6
Continuous
 62
     2
100
AcDbLine
 10
-212.6051535180293
 20
-243.2064997615201
 30
0.0
 11
-213.8456579282833
 21
-243.2064997615201
 31
0.0
  0
LINE
  5
15C
102
{ACAD_REACTORS
330
228
330
229
102
}
330
71
100
AcDbEntity
  8
0
  6
Continuous
 62
     2
100
AcDbLine
 10
-215.2436109752223
 20
-240.152690237709
 30
0.0
 11
-216.6415640221617
 21
-243.2064997615201
 31
0.0
  0
LINE
  5
15D
102
{ACAD_REACTORS
330
228
330
229
102
}
330
71
100
AcDbEntity
  8
0
  6
Continuous
 62
     2
100
AcDbLine
 10
-215.4010596119087
 20
-243.2064997615201
 30
0.0
 11
-215.1895795584329
 21
-242.6655392173022
 31
0.0
  0
LINE
  5
15E
102
{ACAD_REACTORS
330
228
330
229
102
}
330
71
100
AcDbEntity
  8
0
  6
Continuous
 62
     2
100
AcDbLine
 10
-214.9235240072879
 20
-241.9849759519956
 30
0.0
 11
-214.6233587700955
 21
-241.2171609860089
 31
0.0
  0
LINE
  5
15F
102
{ACAD_REACTORS
330
226
330
227
102
}
330
71
100
AcDbEntity
  8
0
  6
Continuous
 62
     2
100
AcDbLine
 10
-213.4552139247502
 20
-239.8473092853458
 30
0.0
 11
-213.4552139247502
 21
-236.7934997615346
 31
0.0
  0
LINE
  5
160
102
{ACAD_REACTORS
330
226
330
227
102
}
330
71
100
AcDbEntity
  8
0
  6
Continuous
 62
     2
100
AcDbLine
 10
-212.2147095144973
 20
-236.7934997615346
 30
0.0
 11
-212.2147095144973
 21
-239.8473092853458
 31
0.0
  0
LINE
  5
161
102
{ACAD_REACTORS
330
226
330
227
102
}
330
71
100
AcDbEntity
  8
0
  6
Continuous
 62
     2
100
AcDbLine
 10
-213.4552139247502
 20
-236.7934997615346
 30
0.0
 11
-212.2147095144973
 21
-236.7934997615346
 31
0.0
  0
LINE
  5
162
102
{ACAD_REACTORS
330
224
330
225
102
}
330
71
100
AcDbEntity
  8
0
  6
Continuous
 62
     2
100
AcDbLine
 10
-209.9961150884666
 20
-239.0595775000521
 30
0.0
 11
-209.2995241504011
 21
-239.8473092853458
 31
0.0
  0
LINE
  5
163
102
{ACAD_REACTORS
330
224
330
225
102
}
330
71
100
AcDbEntity
  8
0
  6
Continuous
 62
     2
100
AcDbLine
 10
-209.2995241504011
 20
-239.8473092853458
 30
0.0
 11
-207.8967999326528
 21
-239.8473092853458
 31
0.0
  0
LINE
  5
164
102
{ACAD_REACTORS
330
224
330
225
102
}
330
71
100
AcDbEntity
  8
0
  6
Continuous
 62
     2
100
AcDbLine
 10
-209.2947529795931
 20
-238.2664502915708
 30
0.0
 11
-207.8967999326528
 21
-239.8473092853458
 31
0.0
  0
LINE
  5
165
102
{ACAD_REACTORS
330
224
330
225
102
}
330
71
100
AcDbEntity
  8
0
  6
Continuous
 62
     2
100
AcDbLine
 10
-209.2947529795931
 20
-238.2664502915708
 30
0.0
 11
-207.9922233488265
 21
-236.7934997615346
 31
0.0
  0
LINE
  5
166
102
{ACAD_REACTORS
330
224
330
225
102
}
330
71
100
AcDbEntity
  8
0
  6
Continuous
 62
     2
100
AcDbLine
 10
-209.9961150884666
 20
-237.4733230830901
 30
0.0
 11
-209.3949475665738
 21
-236.7934997615346
 31
0.0
  0
LINE
  5
167
102
{ACAD_REACTORS
330
224
330
225
102
}
330
71
100
AcDbEntity
  8
0
  6
Continuous
 62
     2
100
AcDbLine
 10
-210.5972826103584
 20
-236.7934997615346
 30
0.0
 11
-209.9961150884666
 21
-237.4733230830901
 31
0.0
  0
LINE
  5
168
102
{ACAD_REACTORS
330
224
330
225
102
}
330
71
100
AcDbEntity
  8
0
  6
Continuous
 62
     2
100
AcDbLine
 10
-210.5972826103584
 20
-236.7934997615346
 30
0.0
 11
-212.0000068281076
 21
-236.7934997615346
 31
0.0
  0
LINE
  5
169
102
{ACAD_REACTORS
330
21A
330
21B
102
}
330
71
100
AcDbEntity
  8
0
  6
Continuous
 62
     2
100
AcDbLine
 10
-209.9006916722939
 20
-243.2064997615201
 30
0.0
 11
-208.7078989701261
 21
-243.2064997615201
 31
0.0
  0
LINE
  5
16A
102
{ACAD_REACTORS
330
21A
330
21B
102
}
330
71
100
AcDbEntity
  8
0
  6
Continuous
 62
     2
100
AcDbLine
 10
-208.7078989701261
 20
-243.2064997615201
 30
0.0
 11
-208.7078989701261
 21
-240.9379555438326
 31
0.0
  0
LINE
  5
16B
102
{ACAD_REACTORS
330
21A
330
21B
102
}
330
71
100
AcDbEntity
  8
0
  6
Continuous
 62
     2
100
AcDbLine
 10
-208.7078989701261
 20
-240.9379555438326
 30
0.0
 11
-207.8967999326528
 21
-240.9379555438326
 31
0.0
  0
LINE
  5
16C
102
{ACAD_REACTORS
330
21A
330
21B
102
}
330
71
100
AcDbEntity
  8
0
  6
Continuous
 62
     2
100
AcDbLine
 10
-207.8967999326528
 20
-240.9379555438326
 30
0.0
 11
-207.8967999326528
 21
-240.152690237709
 31
0.0
  0
LINE
  5
16D
102
{ACAD_REACTORS
330
21A
330
21B
102
}
330
71
100
AcDbEntity
  8
0
  6
Continuous
 62
     2
100
AcDbLine
 10
-211.2817454512814
 20
-240.1526902377095
 30
0.0
 11
-207.8967999326528
 21
-240.152690237709
 31
0.0
  0
LINE
  5
16E
102
{ACAD_REACTORS
330
21A
330
21B
102
}
330
71
100
AcDbEntity
  8
0
  6
Continuous
 62
     2
100
AcDbLine
 10
-209.9006916722939
 20
-240.9379555438326
 30
0.0
 11
-209.9006916722939
 21
-243.2064997615201
 31
0.0
  0
LINE
  5
16F
102
{ACAD_REACTORS
330
21C
330
21D
102
}
330
71
100
AcDbEntity
  8
0
  6
Continuous
 62
     2
100
AcDbLine
 10
-232.5301781077731
 20
-241.2276196119556
 30
0.0
 11
-232.5301781077731
 21
-240.6457682052605
 31
0.0
  0
LINE
  5
170
102
{ACAD_REACTORS
330
21C
330
21D
102
}
330
71
100
AcDbEntity
  8
0
  6
Continuous
 62
     2
100
AcDbLine
 10
-232.5301781077731
 20
-238.4274850053243
 30
0.0
 11
-232.5301781077731
 21
-237.8219497168175
 31
0.0
  0
LINE
  5
171
330
71
100
AcDbEntity
  8
1
  6
Continuous
 62
     6
100
AcDbLine
 10
-253.9999995231698
 20
-250.4999997615364
 30
0.0
 11
-240.0448040499199
 21
-250.4999997615365
 31
0.0
  0
LINE
  5
172
330
71
100
AcDbEntity
  8
1
  6
Continuous
 62
     6
100
AcDbLine
 10
-303.9999995231701
 20
-250.4999997615364
 30
0.0
 11
-309.0448040499198
 21
-250.4999997615364
 31
0.0
  0
LINE
  5
173
330
71
100
AcDbEntity
  8
1
  6
Continuous
 62
     6
100
AcDbLine
 10
-153.9999995231699
 20
-250.4999997615364
 30
0.0
 11
-110.4999995231699
 21
-250.4999997615364
 31
0.0
  0
LINE
  5
174
330
71
100
AcDbEntity
  8
1
  6
Continuous
 62
     6
100
AcDbLine
 10
-203.9999995231699
 20
-250.4999997615364
 30
0.0
 11
-221.8448040499198
 21
-250.4999997615364
 31
0.0
  0
LINE
  5
175
330
71
100
AcDbEntity
  8
1
  6
Continuous
 62
     2
100
AcDbLine
 10
-110.4999995231699
 20
-250.4999997615364
 30
0.0
 11
-105.4999995231709
 21
-250.4999997615364
 31
0.0
  0
LINE
  5
176
330
71
100
AcDbEntity
  8
1
  6
Continuous
 62
     2
100
AcDbLine
 10
-110.4999995231699
 20
-250.4999997615364
 30
0.0
 11
-110.4999995231699
 21
-255.4999997615365
 31
0.0
  0
LINE
  5
177
330
71
100
AcDbEntity
  8
1
  6
Continuous
 62
     6
100
AcDbLine
 10
-240.0448040499199
 20
-233.4999997615364
 30
0.0
 11
-203.6448040499199
 21
-233.4999997615364
 31
0.0
  0
LINE
  5
178
330
71
100
AcDbEntity
  8
1
  6
Continuous
 62
     2
100
AcDbLine
 10
-105.4999995231709
 20
-255.4999997615365
 30
0.0
 11
-105.4999995231709
 21
-250.4999997615364
 31
0.0
  0
LINE
  5
179
330
71
100
AcDbEntity
  8
1
  6
Continuous
 62
     2
100
AcDbLine
 10
-105.4999995231709
 20
-255.4999997615365
 30
0.0
 11
-110.4999995231699
 21
-255.4999997615365
 31
0.0
  0
LINE
  5
17A
330
71
100
AcDbEntity
  8
1
  6
Continuous
 62
     2
100
AcDbLine
 10
-110.4999995231699
 20
-255.4999997615365
 30
0.0
 11
-153.9999995231699
 21
-255.4999997615365
 31
0.0
  0
LINE
  5
17B
330
71
100
AcDbEntity
  8
1
  6
Continuous
 62
     6
100
AcDbLine
 10
-110.4999995231682
 20
-233.4999997615364
 30
0.0
 11
-110.499999523169
 21
-200.4999997615363
 31
0.0
  0
LINE
  5
17C
330
71
100
AcDbEntity
  8
1
  6
Continuous
 62
     2
100
AcDbLine
 10
-105.4999995231709
 20
-45.49999976153637
 30
0.0
 11
-253.9999995231698
 21
-45.49999976153637
 31
0.0
  0
LINE
  5
17D
330
71
100
AcDbEntity
  8
1
  6
Continuous
 62
     6
100
AcDbLine
 10
-110.4999995231709
 20
-65.49999976153637
 30
0.0
 11
-397.4999995231689
 21
-65.49999976153637
 31
0.0
  0
LINE
  5
17E
330
71
100
AcDbEntity
  8
1
  6
Continuous
 62
     2
100
AcDbLine
 10
-110.499999523169
 20
-200.4999997615363
 30
0.0
 11
-105.4999995231709
 21
-200.4999997615363
 31
0.0
  0
LINE
  5
17F
330
71
100
AcDbEntity
  8
1
  6
Continuous
 62
     6
100
AcDbLine
 10
-110.499999523169
 20
-200.4999997615363
 30
0.0
 11
-110.4999995231695
 21
-150.4999997615365
 31
0.0
  0
LINE
  5
180
330
71
100
AcDbEntity
  8
1
  6
Continuous
 62
     2
100
AcDbLine
 10
-105.4999995231709
 20
-200.4999997615363
 30
0.0
 11
-105.4999995231709
 21
-150.4999997615365
 31
0.0
  0
LINE
  5
181
330
71
100
AcDbEntity
  8
1
  6
Continuous
 62
     2
100
AcDbLine
 10
-110.4999995231695
 20
-150.4999997615365
 30
0.0
 11
-105.4999995231709
 21
-150.4999997615365
 31
0.0
  0
LINE
  5
182
330
71
100
AcDbEntity
  8
1
  6
Continuous
 62
     6
100
AcDbLine
 10
-110.4999995231695
 20
-150.4999997615365
 30
0.0
 11
-110.4999995231707
 21
-100.4999997615364
 31
0.0
  0
LINE
  5
183
330
71
100
AcDbEntity
  8
1
  6
Continuous
 62
     2
100
AcDbLine
 10
-105.4999995231709
 20
-150.4999997615365
 30
0.0
 11
-105.4999995231709
 21
-100.4999997615364
 31
0.0
  0
LINE
  5
184
330
71
100
AcDbEntity
  8
1
  6
Continuous
 62
     2
100
AcDbLine
 10
-110.4999995231707
 20
-100.4999997615364
 30
0.0
 11
-105.4999995231709
 21
-100.4999997615364
 31
0.0
  0
LINE
  5
185
330
71
100
AcDbEntity
  8
1
  6
Continuous
 62
     6
100
AcDbLine
 10
-110.4999995231707
 20
-100.4999997615364
 30
0.0
 11
-110.4999995231709
 21
-65.49999976153637
 31
0.0
  0
LINE
  5
186
330
71
100
AcDbEntity
  8
1
  6
Continuous
 62
     2
100
AcDbLine
 10
-105.4999995231709
 20
-100.4999997615364
 30
0.0
 11
-105.4999995231709
 21
-45.49999976153637
 31
0.0
  0
LINE
  5
187
330
71
100
AcDbEntity
  8
1
  6
Continuous
 62
     2
100
AcDbLine
 10
-105.4999995231709
 20
-250.4999997615364
 30
0.0
 11
-105.4999995231709
 21
-200.4999997615363
 31
0.0
  0
LINE
  5
188
330
71
100
AcDbEntity
  8
1
  6
Continuous
 62
     2
100
AcDbLine
 10
-253.9999995231698
 20
-45.49999976153637
 30
0.0
 11
-402.4999995231689
 21
-45.49999976153637
 31
0.0
  0
LINE
  5
189
330
71
100
AcDbEntity
  8
1
  6
Continuous
 62
     2
100
AcDbLine
 10
-253.9999995231698
 20
-45.49999976153637
 30
0.0
 11
-253.9999995231698
 21
-54.70869160623769
 31
0.0
  0
LINE
  5
18A
330
71
100
AcDbEntity
  8
1
  6
Continuous
 62
     2
100
AcDbLine
 10
-402.4999995231689
 20
-255.4999997615365
 30
0.0
 11
-397.499999523168
 21
-255.4999997615365
 31
0.0
  0
LINE
  5
18B
330
71
100
AcDbEntity
  8
1
  6
Continuous
 62
     2
100
AcDbLine
 10
-402.4999995231689
 20
-45.49999976153637
 30
0.0
 11
-402.4999995231689
 21
-100.4999997615364
 31
0.0
  0
LINE
  5
18C
330
71
100
AcDbEntity
  8
1
  6
Continuous
 62
     6
100
AcDbLine
 10
-397.4999995231689
 20
-65.49999976153637
 30
0.0
 11
-397.4999995231689
 21
-100.4999997615364
 31
0.0
  0
LINE
  5
18D
330
71
100
AcDbEntity
  8
1
  6
Continuous
 62
     2
100
AcDbLine
 10
-402.4999995231689
 20
-100.4999997615364
 30
0.0
 11
-397.4999995231689
 21
-100.4999997615364
 31
0.0
  0
LINE
  5
18E
330
71
100
AcDbEntity
  8
1
  6
Continuous
 62
     2
100
AcDbLine
 10
-402.4999995231689
 20
-100.4999997615364
 30
0.0
 11
-402.4999995231689
 21
-150.4999997615365
 31
0.0
  0
LINE
  5
18F
330
71
100
AcDbEntity
  8
1
  6
Continuous
 62
     6
100
AcDbLine
 10
-397.4999995231689
 20
-100.4999997615364
 30
0.0
 11
-397.4999995231684
 21
-150.4999997615365
 31
0.0
  0
LINE
  5
190
330
71
100
AcDbEntity
  8
1
  6
Continuous
 62
     2
100
AcDbLine
 10
-402.4999995231689
 20
-150.4999997615365
 30
0.0
 11
-397.4999995231684
 21
-150.4999997615365
 31
0.0
  0
LINE
  5
191
330
71
100
AcDbEntity
  8
1
  6
Continuous
 62
     2
100
AcDbLine
 10
-402.4999995231689
 20
-150.4999997615365
 30
0.0
 11
-402.4999995231689
 21
-200.4999997615363
 31
0.0
  0
LINE
  5
192
330
71
100
AcDbEntity
  8
1
  6
Continuous
 62
     6
100
AcDbLine
 10
-397.4999995231684
 20
-150.4999997615365
 30
0.0
 11
-397.4999995231681
 21
-200.4999997615363
 31
0.0
  0
LINE
  5
193
330
71
100
AcDbEntity
  8
1
  6
Continuous
 62
     2
100
AcDbLine
 10
-402.4999995231689
 20
-200.4999997615363
 30
0.0
 11
-397.4999995231681
 21
-200.4999997615363
 31
0.0
  0
LINE
  5
194
330
71
100
AcDbEntity
  8
1
  6
Continuous
 62
     2
100
AcDbLine
 10
-402.4999995231689
 20
-200.4999997615363
 30
0.0
 11
-402.4999995231689
 21
-250.4999997615364
 31
0.0
  0
LINE
  5
195
330
71
100
AcDbEntity
  8
1
  6
Continuous
 62
     6
100
AcDbLine
 10
-397.4999995231681
 20
-200.4999997615363
 30
0.0
 11
-397.499999523168
 21
-250.4999997615364
 31
0.0
  0
LINE
  5
196
330
71
100
AcDbEntity
  8
1
  6
Continuous
 62
     2
100
AcDbLine
 10
-353.9999995231698
 20
-255.4999997615365
 30
0.0
 11
-353.9999995231698
 21
-250.4999997615364
 31
0.0
  0
LINE
  5
197
330
71
100
AcDbEntity
  8
1
  6
Continuous
 62
     2
100
AcDbLine
 10
-353.9999995231698
 20
-255.4999997615365
 30
0.0
 11
-303.9999995231701
 21
-255.4999997615365
 31
0.0
  0
LINE
  5
198
330
71
100
AcDbEntity
  8
1
  6
Continuous
 62
     2
100
AcDbLine
 10
-303.9999995231701
 20
-255.4999997615365
 30
0.0
 11
-303.9999995231701
 21
-250.4999997615364
 31
0.0
  0
LINE
  5
199
330
71
100
AcDbEntity
  8
1
  6
Continuous
 62
     2
100
AcDbLine
 10
-303.9999995231701
 20
-255.4999997615365
 30
0.0
 11
-253.9999995231698
 21
-255.4999997615365
 31
0.0
  0
LINE
  5
19A
330
71
100
AcDbEntity
  8
1
  6
Continuous
 62
     2
100
AcDbLine
 10
-253.9999995231698
 20
-255.4999997615365
 30
0.0
 11
-253.9999995231698
 21
-250.4999997615364
 31
0.0
  0
LINE
  5
19B
330
71
100
AcDbEntity
  8
1
  6
Continuous
 62
     2
100
AcDbLine
 10
-253.9999995231698
 20
-255.4999997615365
 30
0.0
 11
-203.9999995231699
 21
-255.4999997615365
 31
0.0
  0
LINE
  5
19C
330
71
100
AcDbEntity
  8
1
  6
Continuous
 62
     2
100
AcDbLine
 10
-203.9999995231699
 20
-255.4999997615365
 30
0.0
 11
-203.9999995231699
 21
-250.4999997615364
 31
0.0
  0
LINE
  5
19D
330
71
100
AcDbEntity
  8
1
  6
Continuous
 62
     2
100
AcDbLine
 10
-153.9999995231699
 20
-255.4999997615365
 30
0.0
 11
-153.9999995231699
 21
-250.4999997615364
 31
0.0
  0
LINE
  5
19E
330
71
100
AcDbEntity
  8
1
  6
Continuous
 62
     2
100
AcDbLine
 10
-153.9999995231699
 20
-255.4999997615365
 30
0.0
 11
-203.9999995231699
 21
-255.4999997615365
 31
0.0
  0
LINE
  5
19F
330
71
100
AcDbEntity
  8
1
  6
Continuous
 62
     2
100
AcDbLine
 10
-397.499999523168
 20
-250.4999997615364
 30
0.0
 11
-397.499999523168
 21
-255.4999997615365
 31
0.0
  0
LINE
  5
1A0
330
71
100
AcDbEntity
  8
1
  6
Continuous
 62
     2
100
AcDbLine
 10
-397.499999523168
 20
-255.4999997615365
 30
0.0
 11
-353.9999995231698
 21
-255.4999997615365
 31
0.0
  0
LINE
  5
1A1
330
71
100
AcDbEntity
  8
1
  6
Continuous
 62
     2
100
AcDbLine
 10
-397.499999523168
 20
-250.4999997615364
 30
0.0
 11
-402.4999995231689
 21
-250.4999997615364
 31
0.0
  0
LINE
  5
1A2
330
71
100
AcDbEntity
  8
1
  6
Continuous
 62
     2
100
AcDbLine
 10
-402.4999995231689
 20
-250.4999997615364
 30
0.0
 11
-402.4999995231689
 21
-255.4999997615365
 31
0.0
  0
LINE
  5
1A3
330
71
100
AcDbEntity
  8
1
  6
Continuous
 62
     6
100
AcDbLine
 10
-110.4999995231699
 20
-250.4999997615364
 30
0.0
 11
-110.4999995231686
 21
-241.9999997615364
 31
0.0
  0
LINE
  5
1A4
330
71
100
AcDbEntity
  8
1
  6
Continuous
 62
     6
100
AcDbLine
 10
-203.6448040499199
 20
-250.4999997615365
 30
0.0
 11
-153.9999995231699
 21
-250.4999997615364
 31
0.0
  0
LINE
  5
1A5
330
71
100
AcDbEntity
  8
1
  6
Continuous
 62
     6
100
AcDbLine
 10
-356.2999995231701
 20
-250.4999997615365
 30
0.0
 11
-353.9999995231698
 21
-250.4999997615364
 31
0.0
  0
LINE
  5
1A6
330
71
100
AcDbEntity
  8
1
  6
Continuous
 62
     6
100
AcDbLine
 10
-253.9999995231698
 20
-250.4999997615364
 30
0.0
 11
-303.9999995231701
 21
-250.4999997615364
 31
0.0
  0
LINE
  5
1A7
330
71
100
AcDbEntity
  8
1
  6
Continuous
 62
     7
100
AcDbLine
 10
-240.0448040499199
 20
-233.4999997615364
 30
0.0
 11
-240.0448040499199
 21
-246.2499997615365
 31
0.0
  0
LINE
  5
1A8
330
71
100
AcDbEntity
  8
1
  6
Continuous
 62
     7
100
AcDbLine
 10
-203.6448040499199
 20
-233.4999997615364
 30
0.0
 11
-203.6448040499199
 21
-246.2499997615364
 31
0.0
  0
LINE
  5
1A9
330
71
100
AcDbEntity
  8
1
  6
Continuous
 62
     6
100
AcDbLine
 10
-356.2999995231701
 20
-250.4999997615365
 30
0.0
 11
-362.4999995231681
 21
-250.4999997615364
 31
0.0
  0
LINE
  5
1AA
330
71
100
AcDbEntity
  8
1
  6
Continuous
 62
     6
100
AcDbLine
 10
-203.6448040499199
 20
-250.4999997615365
 30
0.0
 11
-203.9999995231699
 21
-250.4999997615364
 31
0.0
  0
LINE
  5
1AB
330
71
100
AcDbEntity
  8
1
  6
Continuous
 62
     6
100
AcDbLine
 10
-110.4999995231682
 20
-233.4999997615364
 30
0.0
 11
-110.4999995231686
 21
-241.9999997615364
 31
0.0
  0
LINE
  5
1AC
330
71
100
AcDbEntity
  8
1
  6
Continuous
 62
     6
100
AcDbLine
 10
-362.4999995231681
 20
-250.4999997615364
 30
0.0
 11
-397.499999523168
 21
-250.4999997615364
 31
0.0
  0
LINE
  5
1AD
330
71
100
AcDbEntity
  8
1
  6
Continuous
 62
     2
100
AcDbLine
 10
-235.8081491633573
 20
-228.1249997615365
 30
0.0
 11
-230.8081491633573
 21
-226.8749997615365
 31
0.0
  0
LINE
  5
1AE
330
71
100
AcDbEntity
  8
1
  6
Continuous
 62
     2
100
AcDbLine
 10
-235.8081491633573
 20
-230.6249997615365
 30
0.0
 11
-235.8081491633573
 21
-228.1249997615365
 31
0.0
  0
LINE
  5
1AF
330
71
100
AcDbEntity
  8
1
  6
Continuous
 62
     2
100
AcDbLine
 10
-230.8081491633573
 20
-231.8749997615365
 30
0.0
 11
-235.8081491633573
 21
-230.6249997615365
 31
0.0
  0
LINE
  5
1B0
330
71
100
AcDbEntity
  8
1
  6
Continuous
 62
     2
100
AcDbLine
 10
-230.8081491633573
 20
-226.8749997615365
 30
0.0
 11
-230.8081491633573
 21
-231.8749997615365
 31
0.0
  0
LINE
  5
1B1
330
71
100
AcDbEntity
  8
1
  6
Continuous
 62
     7
100
AcDbLine
 10
-240.0448040499199
 20
-246.2499997615365
 30
0.0
 11
-221.8448040499198
 21
-246.2499997615364
 31
0.0
  0
LINE
  5
1B2
330
71
100
AcDbEntity
  8
1
  6
Continuous
 62
     7
100
AcDbLine
 10
-240.0448040499199
 20
-246.2499997615365
 30
0.0
 11
-240.0448040499199
 21
-250.4999997615365
 31
0.0
  0
LINE
  5
1B3
330
71
100
AcDbEntity
  8
1
  6
Continuous
 62
     7
100
AcDbLine
 10
-203.6448040499199
 20
-246.2499997615364
 30
0.0
 11
-203.6448040499199
 21
-250.4999997615365
 31
0.0
  0
LINE
  5
1B4
330
71
100
AcDbEntity
  8
1
  6
Continuous
 62
     7
100
AcDbLine
 10
-221.8448040499198
 20
-246.2499997615364
 30
0.0
 11
-221.8448040499198
 21
-250.4999997615364
 31
0.0
  0
LINE
  5
1B5
330
71
100
AcDbEntity
  8
1
  6
Continuous
 62
     6
100
AcDbLine
 10
-221.8448040499198
 20
-250.4999997615364
 30
0.0
 11
-240.0448040499199
 21
-250.4999997615365
 31
0.0
  0
LINE
  5
1B6
330
71
100
AcDbEntity
  8
1
  6
Continuous
 62
     7
100
AcDbLine
 10
-221.8448040499198
 20
-246.2499997615364
 30
0.0
 11
-203.6448040499199
 21
-246.2499997615364
 31
0.0
  0
LINE
  5
1B7
330
71
100
AcDbEntity
  8
1
  6
Continuous
 62
     6
100
AcDbLine
 10
-240.0448040499199
 20
-224.9999997615364
 30
0.0
 11
-110.4999995231682
 21
-224.9999997615364
 31
0.0
  0
ARC
  5
1B8
102
{ACAD_REACTORS
330
220
330
221
102
}
330
71
100
AcDbEntity
  8
0
  6
Continuous
 62
     2
100
AcDbCircle
 10
-224.6531560509599
 20
-241.6795949996148
 30
0.0
 40
0.7717997786796724
100
AcDbArc
 50
321.8795802028404
 51
38.12041979715458
  0
ARC
  5
1B9
102
{ACAD_REACTORS
330
220
330
221
102
}
330
71
100
AcDbEntity
  8
0
  6
Continuous
 62
     2
100
AcDbCircle
 10
-224.4534160146135
 20
-241.8363261777348
 30
0.0
 40
0.5179085730136459
100
AcDbArc
 50
218.1204197972009
 51
321.879580202801
  0
ARC
  5
1BA
102
{ACAD_REACTORS
330
220
330
221
102
}
330
71
100
AcDbEntity
  8
0
  6
Continuous
 62
     2
100
AcDbCircle
 10
-224.2536759782674
 20
-241.6795949996148
 30
0.0
 40
0.7717997786793738
100
AcDbArc
 50
141.8795802028311
 51
218.1204197971739
  0
ARC
  5
1BB
102
{ACAD_REACTORS
330
220
330
221
102
}
330
71
100
AcDbEntity
  8
0
  6
Continuous
 62
     2
100
AcDbCircle
 10
-224.4534160146135
 20
-241.5228638214943
 30
0.0
 40
0.5179085730132998
100
AcDbArc
 50
38.12041979714704
 51
141.8795802028511
  0
ARC
  5
1BC
102
{ACAD_REACTORS
330
218
330
219
102
}
330
71
100
AcDbEntity
  8
0
  6
Continuous
 62
     2
100
AcDbCircle
 10
-227.5154301501773
 20
-243.090061365023
 30
0.0
 40
2.227384008973448
100
AcDbArc
 50
58.06909105004196
 51
71.5519238818686
  0
ARC
  5
1BD
102
{ACAD_REACTORS
330
218
330
219
102
}
330
71
100
AcDbEntity
  8
0
  6
Continuous
 62
     2
100
AcDbCircle
 10
-227.2537024492186
 20
-241.4745235702758
 30
0.0
 40
0.5115800601948554
100
AcDbArc
 50
113.3722778881933
 51
151.4785267423044
  0
ARC
  5
1BE
102
{ACAD_REACTORS
330
218
330
219
102
}
330
71
100
AcDbEntity
  8
0
  6
Continuous
 62
     2
100
AcDbCircle
 10
-226.8763451911383
 20
-241.6795949996148
 30
0.0
 40
0.9410597353332295
100
AcDbArc
 50
151.4785267422661
 51
208.5214732577066
  0
ARC
  5
1BF
102
{ACAD_REACTORS
330
218
330
219
102
}
330
71
100
AcDbEntity
  8
0
  6
Continuous
 62
     2
100
AcDbCircle
 10
-227.6733030252703
 20
-238.3669140543584
 30
0.0
 40
4.852596863498138
100
AcDbArc
 50
275.1581447696249
 51
285.9799912583529
  0
ARC
  5
1C0
102
{ACAD_REACTORS
330
218
330
219
102
}
330
71
100
AcDbEntity
  8
0
  6
Continuous
 62
     2
100
AcDbCircle
 10
-227.3844469305344
 20
-241.56680463758
 30
0.0
 40
1.639695123939305
100
AcDbArc
 50
195.0618917770904
 51
275.1581447696406
  0
ARC
  5
1C1
102
{ACAD_REACTORS
330
218
330
219
102
}
330
71
100
AcDbEntity
  8
0
  6
Continuous
 62
     2
100
AcDbCircle
 10
-227.8035747739972
 20
-241.6795949996148
 30
0.0
 40
1.205656168390854
100
AcDbArc
 50
164.9381082228767
 51
195.0618917770959
  0
ARC
  5
1C2
102
{ACAD_REACTORS
330
218
330
219
102
}
330
71
100
AcDbEntity
  8
0
  6
Continuous
 62
     2
100
AcDbCircle
 10
-227.3844469305344
 20
-241.7923853616497
 30
0.0
 40
1.639695123940509
100
AcDbArc
 50
84.84185523036136
 51
164.9381082228866
  0
ARC
  5
1C3
102
{ACAD_REACTORS
330
21C
330
21D
102
}
330
71
100
AcDbEntity
  8
0
  6
Continuous
 62
     2
100
AcDbCircle
 10
-232.2144611846963
 20
-240.6457682052605
 30
0.0
 40
0.315716923076545
100
AcDbArc
 50
115.3740086783565
 51
180.0
  0
ARC
  5
1C4
102
{ACAD_REACTORS
330
21C
330
21D
102
}
330
71
100
AcDbEntity
  8
0
  6
Continuous
 62
     2
100
AcDbCircle
 10
-232.2144611846963
 20
-238.4274850053243
 30
0.0
 40
0.3157169230768204
100
AcDbArc
 50
180.0
 51
244.6259913216435
  0
ARC
  5
1C5
102
{ACAD_REACTORS
330
21C
330
21D
102
}
330
71
100
AcDbEntity
  8
0
  6
Continuous
 62
     2
100
AcDbCircle
 10
-232.2088450493862
 20
-239.5247846643866
 30
0.0
 40
2.018561131933266
100
AcDbArc
 50
269.8110329575834
 51
90.18896704241658
  0
ARC
  5
1C6
102
{ACAD_REACTORS
330
21C
330
21D
102
}
330
71
100
AcDbEntity
  8
0
  6
Continuous
 62
     2
100
AcDbCircle
 10
-232.2144611846963
 20
-241.2276196119556
 30
0.0
 40
0.3157169230768204
100
AcDbArc
 50
180.0
 51
269.811032957449
  0
ARC
  5
1C7
102
{ACAD_REACTORS
330
21A
330
21B
102
}
330
71
100
AcDbEntity
  8
0
  6
Continuous
 62
     2
100
AcDbCircle
 10
-211.1510009699657
 20
-241.4745235702758
 30
0.0
 40
0.5115800601944143
100
AcDbArc
 50
109.3371432194853
 51
151.4785267424209
  0
ARC
  5
1C8
102
{ACAD_REACTORS
330
21A
330
21B
102
}
330
71
100
AcDbEntity
  8
0
  6
Continuous
 62
     2
100
AcDbCircle
 10
-211.1510009699657
 20
-241.8846664289533
 30
0.0
 40
0.5115800601959967
100
AcDbArc
 50
208.5214732576881
 51
246.6277221118449
  0
ARC
  5
1C9
102
{ACAD_REACTORS
330
21A
330
21B
102
}
330
71
100
AcDbEntity
  8
0
  6
Continuous
 62
     2
100
AcDbCircle
 10
-211.7008732947431
 20
-241.6795949996148
 30
0.0
 40
1.205656168392968
100
AcDbArc
 50
164.9381082229037
 51
195.0618917770962
  0
ARC
  5
1CA
102
{ACAD_REACTORS
330
21A
330
21B
102
}
330
71
100
AcDbEntity
  8
0
  6
Continuous
 62
     2
100
AcDbCircle
 10
-211.2817454512814
 20
-241.7923853616497
 30
0.0
 40
1.639695123940214
100
AcDbArc
 50
90.0
 51
164.9381082228965
  0
ARC
  5
1CB
102
{ACAD_REACTORS
330
21E
330
21F
102
}
330
71
100
AcDbEntity
  8
0
  6
Continuous
 62
     2
100
AcDbCircle
 10
-220.7087405439852
 20
-238.3204045234405
 30
0.0
 40
1.526904761905882
100
AcDbArc
 50
90.0
 51
270.0
  0
ARC
  5
1CC
102
{ACAD_REACTORS
330
222
330
223
102
}
330
71
100
AcDbEntity
  8
0
  6
Continuous
 62
     2
100
AcDbCircle
 10
-227.4514312892109
 20
-237.8094694316458
 30
0.0
 40
0.3528638246711182
100
AcDbArc
 50
270.0
 51
90.0
  0
ARC
  5
1CD
102
{ACAD_REACTORS
330
21C
330
21D
102
}
330
71
100
AcDbEntity
  8
0
  6
Continuous
 62
     2
100
AcDbCircle
 10
-234.790009871228
 20
-237.8217722401694
 30
0.0
 40
0.3157169230761951
100
AcDbArc
 50
90.0
 51
180.0
  0
ARC
  5
1CE
102
{ACAD_REACTORS
330
21C
330
21D
102
}
330
71
100
AcDbEntity
  8
0
  6
Continuous
 62
     2
100
AcDbCircle
 10
-232.7915921626434
 20
-239.5366266052921
 30
0.0
 40
0.9118975235575526
100
AcDbArc
 50
115.1944106485242
 51
244.8055893514925
  0
ARC
  5
1CF
102
{ACAD_REACTORS
330
21C
330
21D
102
}
330
71
100
AcDbEntity
  8
0
  6
Continuous
 62
     2
100
AcDbCircle
 10
-233.3141766102183
 20
-240.6474563513549
 30
0.0
 40
0.3157169230765078
100
AcDbArc
 50
0.0
 51
64.80558935146027
  0
ARC
  5
1D0
102
{ACAD_REACTORS
330
21C
330
21D
102
}
330
71
100
AcDbEntity
  8
0
  6
Continuous
 62
     2
100
AcDbCircle
 10
-235.3839045479745
 20
-242.7822551461368
 30
0.0
 40
0.4242446153828041
100
AcDbArc
 50
180.0
 51
270.0
  0
ARC
  5
1D1
102
{ACAD_REACTORS
330
21E
330
21F
102
}
330
71
100
AcDbEntity
  8
0
  6
Continuous
 62
     2
100
AcDbCircle
 10
-220.49246853382
 20
-238.16367334532
 30
0.0
 40
0.5179085730135041
100
AcDbArc
 50
38.12041979714528
 51
141.8795802028508
  0
ARC
  5
1D2
102
{ACAD_REACTORS
330
21E
330
21F
102
}
330
71
100
AcDbEntity
  8
0
  6
Continuous
 62
     2
100
AcDbCircle
 10
-220.2927284974737
 20
-238.3204045234405
 30
0.0
 40
0.7717997786796947
100
AcDbArc
 50
141.8795802028417
 51
218.1204197971549
  0
ARC
  5
1D3
102
{ACAD_REACTORS
330
220
330
221
102
}
330
71
100
AcDbEntity
  8
0
  6
Continuous
 62
     2
100
AcDbCircle
 10
-224.4534160146135
 20
-241.1410199893115
 30
0.0
 40
2.065479772208469
100
AcDbArc
 50
242.4518518243423
 51
297.5481481756871
  0
ARC
  5
1D4
102
{ACAD_REACTORS
330
220
330
221
102
}
330
71
100
AcDbEntity
  8
0
  6
Continuous
 62
     2
100
AcDbCircle
 10
-224.4534160146135
 20
-242.2181700099176
 30
0.0
 40
2.065479772208568
100
AcDbArc
 50
62.45185182430637
 51
117.5481481756643
  0
ARC
  5
1D5
102
{ACAD_REACTORS
330
220
330
221
102
}
330
71
100
AcDbEntity
  8
0
  6
Continuous
 62
     2
100
AcDbCircle
 10
-224.7343559064468
 20
-241.6795949996148
 30
0.0
 40
1.458034083651451
100
AcDbArc
 50
117.5481481756595
 51
242.4518518243405
  0
ARC
  5
1D6
102
{ACAD_REACTORS
330
220
330
221
102
}
330
71
100
AcDbEntity
  8
0
  6
Continuous
 62
     2
100
AcDbCircle
 10
-224.1724761227802
 20
-241.6795949996148
 30
0.0
 40
1.458034083652003
100
AcDbArc
 50
297.548148175701
 51
62.45185182429896
  0
ARC
  5
1D7
102
{ACAD_REACTORS
330
21E
330
21F
102
}
330
71
100
AcDbEntity
  8
0
  6
Continuous
 62
     2
100
AcDbCircle
 10
-220.49246853382
 20
-238.4771357015609
 30
0.0
 40
0.5179085730134595
100
AcDbArc
 50
218.1204197971492
 51
321.8795802028547
  0
ARC
  5
1D8
102
{ACAD_REACTORS
330
21E
330
21F
102
}
330
71
100
AcDbEntity
  8
0
  6
Continuous
 62
     2
100
AcDbCircle
 10
-220.6922085701661
 20
-238.3204045234405
 30
0.0
 40
0.7717997786795479
100
AcDbArc
 50
321.8795802028385
 51
38.12041979716478
  0
ARC
  5
1D9
102
{ACAD_REACTORS
330
21C
330
21D
102
}
330
71
100
AcDbEntity
  8
0
  6
Continuous
 62
     2
100
AcDbCircle
 10
-229.9105924572577
 20
-242.7822551461368
 30
0.0
 40
0.4242446153832873
100
AcDbArc
 50
270.0
 51
0.0
  0
ARC
  5
1DA
102
{ACAD_REACTORS
330
21C
330
21D
102
}
330
71
100
AcDbEntity
  8
0
  6
Continuous
 62
     2
100
AcDbCircle
 10
-229.9105924572577
 20
-237.2177443769366
 30
0.0
 40
0.4242446153839126
100
AcDbArc
 50
0.0
 51
90.0
  0
ARC
  5
1DB
102
{ACAD_REACTORS
330
21C
330
21D
102
}
330
71
100
AcDbEntity
  8
0
  6
Continuous
 62
     2
100
AcDbCircle
 10
-235.3839045479745
 20
-237.2177443769366
 30
0.0
 40
0.4242446153837989
100
AcDbArc
 50
90.0
 51
180.0
  0
ARC
  5
1DC
102
{ACAD_REACTORS
330
21C
330
21D
102
}
330
71
100
AcDbEntity
  8
0
  6
Continuous
 62
     2
100
AcDbCircle
 10
-233.3141766102183
 20
-242.1782272828865
 30
0.0
 40
0.3157169230767067
100
AcDbArc
 50
270.0
 51
0.0
  0
ARC
  5
1DD
102
{ACAD_REACTORS
330
21C
330
21D
102
}
330
71
100
AcDbEntity
  8
0
  6
Continuous
 62
     2
100
AcDbCircle
 10
-233.3141766102183
 20
-238.4257968592299
 30
0.0
 40
0.315716923076146
100
AcDbArc
 50
295.1944106485375
 51
0.0
  0
ARC
  5
1DE
102
{ACAD_REACTORS
330
21C
330
21D
102
}
330
71
100
AcDbEntity
  8
0
  6
Continuous
 62
     2
100
AcDbCircle
 10
-233.3141766102183
 20
-237.8217722401694
 30
0.0
 40
0.3157169230765078
100
AcDbArc
 50
0.0
 51
90.0
  0
ARC
  5
1DF
102
{ACAD_REACTORS
330
21C
330
21D
102
}
330
71
100
AcDbEntity
  8
0
  6
Continuous
 62
     2
100
AcDbCircle
 10
-234.790009871228
 20
-242.1782272828865
 30
0.0
 40
0.315716923075712
100
AcDbArc
 50
180.0
 51
270.0
  0
ARC
  5
1E0
102
{ACAD_REACTORS
330
222
330
223
102
}
330
71
100
AcDbEntity
  8
0
  6
Continuous
 62
     2
100
AcDbCircle
 10
-227.0099587629726
 20
-237.8488654028683
 30
0.0
 40
1.05536564133368
100
AcDbArc
 50
270.0
 51
90.0
  0
ARC
  5
1E1
102
{ACAD_REACTORS
330
21A
330
21B
102
}
330
71
100
AcDbEntity
  8
0
  6
Continuous
 62
     2
100
AcDbCircle
 10
-211.2817454512814
 20
-241.56680463758
 30
0.0
 40
1.639695123940503
100
AcDbArc
 50
195.0618917771007
 51
275.1581447696762
  0
ARC
  5
1E2
102
{ACAD_REACTORS
330
21A
330
21B
102
}
330
71
100
AcDbEntity
  8
0
  6
Continuous
 62
     2
100
AcDbCircle
 10
-211.5706015460173
 20
-238.3669140543584
 30
0.0
 40
4.85259686349883
100
AcDbArc
 50
275.158144769637
 51
285.9799912583393
  0
ARC
  5
1E3
102
{ACAD_REACTORS
330
21A
330
21B
102
}
330
71
100
AcDbEntity
  8
0
  6
Continuous
 62
     2
100
AcDbCircle
 10
-211.4127286709245
 20
-240.2691286342067
 30
0.0
 40
2.227384008972746
100
AcDbArc
 50
288.4480761181335
 51
301.9309089499416
  0
ARC
  5
1E4
102
{ACAD_REACTORS
330
21A
330
21B
102
}
330
71
100
AcDbEntity
  8
0
  6
Continuous
 62
     2
100
AcDbCircle
 10
-210.9945609372626
 20
-241.5226744102433
 30
0.0
 40
0.9059297849852801
100
AcDbArc
 50
246.6277221118183
 51
288.4480761180817
  0
ARC
  5
1E5
102
{ACAD_REACTORS
330
21A
330
21B
102
}
330
71
100
AcDbEntity
  8
0
  6
Continuous
 62
     2
100
AcDbCircle
 10
-210.7736437118843
 20
-241.6795949996148
 30
0.0
 40
0.9410597353348924
100
AcDbArc
 50
151.4785267423624
 51
208.5214732576695
  0
ARC
  5
1E6
102
{ACAD_REACTORS
330
21A
330
21B
102
}
330
71
100
AcDbEntity
  8
0
  6
Continuous
 62
     2
100
AcDbCircle
 10
-211.004330971862
 20
-241.8924785506587
 30
0.0
 40
0.9545230068260935
100
AcDbArc
 50
90.0
 51
109.337143219432
  0
ARC
  5
1E7
102
{ACAD_REACTORS
330
21C
330
21D
102
}
330
71
100
AcDbEntity
  8
0
  6
Continuous
 62
     2
100
AcDbCircle
 10
-232.2144611846963
 20
-237.8219497168175
 30
0.0
 40
0.3157169230760711
100
AcDbArc
 50
90.18896704255108
 51
180.0
  0
ARC
  5
1E8
102
{ACAD_REACTORS
330
21C
330
21D
102
}
330
71
100
AcDbEntity
  8
0
  6
Continuous
 62
     2
100
AcDbCircle
 10
-232.7405038827841
 20
-239.5366266052921
 30
0.0
 40
0.9118481501444224
100
AcDbArc
 50
295.3740086781716
 51
64.6259913218123
  0
ARC
  5
1E9
102
{ACAD_REACTORS
330
218
330
219
102
}
330
71
100
AcDbEntity
  8
0
  6
Continuous
 62
     2
100
AcDbCircle
 10
-227.5154301501773
 20
-240.2691286342061
 30
0.0
 40
2.227384008972719
100
AcDbArc
 50
288.4480761181314
 51
301.930908949958
  0
ARC
  5
1EA
102
{ACAD_REACTORS
330
218
330
219
102
}
330
71
100
AcDbEntity
  8
0
  6
Continuous
 62
     2
100
AcDbCircle
 10
-227.0972624165165
 20
-241.5226744102433
 30
0.0
 40
0.9059297849849305
100
AcDbArc
 50
246.6277221118694
 51
288.4480761181533
  0
ARC
  5
1EB
102
{ACAD_REACTORS
330
218
330
219
102
}
330
71
100
AcDbEntity
  8
0
  6
Continuous
 62
     2
100
AcDbCircle
 10
-227.2537024492186
 20
-241.8846664289533
 30
0.0
 40
0.5115800601948034
100
AcDbArc
 50
208.5214732576956
 51
246.6277221118332
  0
ARC
  5
1EC
102
{ACAD_REACTORS
330
218
330
219
102
}
330
71
100
AcDbEntity
  8
0
  6
Continuous
 62
     2
100
AcDbCircle
 10
-227.0972624165165
 20
-241.8365155889864
 30
0.0
 40
0.9059297849852959
100
AcDbArc
 50
71.55192388185858
 51
113.3722778881306
  0
ARC
  5
1ED
102
{ACAD_REACTORS
330
218
330
219
102
}
330
71
100
AcDbEntity
  8
0
  6
Continuous
 62
     2
100
AcDbCircle
 10
-227.6733030252703
 20
-244.9922759448707
 30
0.0
 40
4.852596863498068
100
AcDbArc
 50
74.02000874164739
 51
84.84185523037506
  0
CIRCLE
  5
1EE
102
{ACAD_REACTORS
330
21C
330
21D
102
}
330
71
100
AcDbEntity
  8
0
  6
Continuous
 62
     2
100
AcDbCircle
 10
-232.764318897457
 20
-239.5366266052921
 30
0.0
 40
0.4709789327785927
  0
CIRCLE
  5
1EF
330
71
100
AcDbEntity
  8
1
  6
Continuous
 62
     2
100
AcDbCircle
 10
-227.3081491633573
 20
-229.3749997615365
 30
0.0
 40
1.25
  0
CIRCLE
  5
1F0
330
71
100
AcDbEntity
  8
1
  6
Continuous
 62
     2
100
AcDbCircle
 10
-227.3081491633573
 20
-229.3749997615365
 30
0.0
 40
2.5
  0
TEXT
  5
1F1
330
71
100
AcDbEntity
  8
1
 62
     7
100
AcDbText
 10
-184.6712563279061
 20
-232.1999997615365
 30
0.0
 40
2.5
  1
/
 41
0.9
  7
CONVERTER_11
100
AcDbText
  0
TEXT
  5
1F3
330
71
100
AcDbEntity
  8
1
 62
     7
100
AcDbText
 10
-182.5148918308641
 20
-232.1999997615365
 30
0.0
 40
2.5
  1
00
 41
0.81
  7
CONVERTER_12
100
AcDbText
  0
TEXT
  5
1F4
330
71
100
AcDbEntity
  8
1
 62
     3
100
AcDbText
 10
-144.918407804847
 20
-232.1999997615365
 30
0.0
 40
2.5
  1
04.04.2018
 41
0.81
  7
CONVERTER_12
100
AcDbText
  0
MTEXT
  5
1F5
330
71
100
AcDbEntity
  8
1
 62
     2
100
AcDbMText
 10
-144.918407804847
 20
-225.9999997615365
 30
0.0
 40
1.8
 41
0.0
 71
     1
 72
     1
  1
date
  7
CONVERTER_11
 73
     1
 44
1.32052821128451
  0
MTEXT
  5
1F6
330
71
100
AcDbEntity
  8
1
 62
     2
100
AcDbMText
 10
-174.7448040499199
 20
-234.4999997615365
 30
0.0
 40
1.8
 41
0.0
 71
     1
 72
     1
  1
document-type
  7
CONVERTER_11
 73
     1
 44
1.20048019207683
  0
TEXT
  5
1F7
330
71
100
AcDbEntity
  8
1
 62
     3
100
AcDbText
 10
-174.7448040499199
 20
-240.6999997615365
 30
0.0
 40
2.5
  1
TECDOC 2D_Productdrawing
 41
0.81
  7
CONVERTER_12
100
AcDbText
  0
MTEXT
  5
1F9
330
71
100
AcDbEntity
  8
1
 62
     2
100
AcDbMText
 10
-202.5448040499199
 20
-225.9999997615364
 30
0.0
 40
1.8
 41
0.0
 71
     1
 72
     1
  1
document-No. / RI
  7
CONVERTER_13
 73
     1
 44
1.32052821128451
  0
TEXT
  5
1FA
330
71
100
AcDbEntity
  8
1
 62
     7
100
AcDbText
 10
-202.5448040499199
 20
-232.1999997615365
 30
0.0
 40
2.5
  1
01098692
 41
0.81
  7
CONVERTER_12
100
AcDbText
  0
MTEXT
  5
1FC
330
71
100
AcDbEntity
  8
1
 62
     3
100
AcDbMText
 10
-114.9592036640076
 20
-232.1999997615363
 30
0.0
 40
2.5
 41
0.0
 71
     8
 72
     1
  1
5:1
  7
CONVERTER_14
 73
     1
 44
1.32052821128451
  0
MTEXT
  5
1FD
330
71
100
AcDbEntity
  8
1
 62
     2
100
AcDbMText
 10
-118.3184078048471
 20
-225.9999997615364
 30
0.0
 40
1.8
 41
0.0
 71
     1
 72
     1
  1
scale
  7
CONVERTER_11
 73
     1
 44
1.20048019207683
  0
MTEXT
  5
1FE
330
71
100
AcDbEntity
  8
1
 62
     2
100
AcDbMText
 10
-202.5448040499199
 20
-234.4999997615364
 30
0.0
 40
1.8
 41
0.0
 71
     1
 72
     1
  1
ident.-No.
  7
CONVERTER_11
 73
     1
 44
1.20048019207683
  0
TEXT
  5
1FF
330
71
100
AcDbEntity
  8
1
 62
     7
100
AcDbText
 10
-202.1448040499201
 20
-240.6999997615365
 30
0.0
 40
2.5
  1
0815415
 41
0.81
  7
CONVERTER_12
100
AcDbText
  0
MTEXT
  5
200
330
71
100
AcDbEntity
  8
1
 62
     2
100
AcDbMText
 10
-274.4828187749674
 20
-237.7499997615365
 30
0.0
 40
2.0
 41
0.0
 71
     5
 72
     1
  1
General Information\P- Simplified representation\P- Document excluded from change process\P- Linear dimensions [mm]
  7
CONVERTER_11
 73
     1
 44
1.20048019207683
  0
MTEXT
  5
201
330
71
100
AcDbEntity
  8
1
 62
     7
100
AcDbMText
 10
-107.9999995231709
 20
-175.4999997615345
 30
0.0
 40
3.5
 41
0.0
 71
     5
 72
     1
  1
C
  7
CONVERTER_11
 73
     1
 44
1.20048019207683
  0
MTEXT
  5
202
330
71
100
AcDbEntity
  8
1
 62
     7
100
AcDbMText
 10
-107.9999995231709
 20
-72.99999976153637
 30
0.0
 40
3.5
 41
0.0
 71
     5
 72
     1
  1
A
  7
CONVERTER_11
 73
     1
 44
1.20048019207683
  0
MTEXT
  5
203
330
71
100
AcDbEntity
  8
1
 62
     7
100
AcDbMText
 10
-107.9999995231709
 20
-125.4999997615345
 30
0.0
 40
3.5
 41
0.0
 71
     5
 72
     1
  1
B
  7
CONVERTER_11
 73
     1
 44
1.20048019207683
  0
MTEXT
  5
204
330
71
100
AcDbEntity
  8
1
 62
     7
100
AcDbMText
 10
-107.9999995231709
 20
-227.9999997615364
 30
0.0
 40
3.5
 41
0.0
 71
     5
 72
     1
  1
D
  7
CONVERTER_11
 73
     1
 44
1.20048019207683
  0
MTEXT
  5
205
330
71
100
AcDbEntity
  8
1
 62
     7
100
AcDbMText
 10
-378.2499995231694
 20
-252.9999997615365
 30
0.0
 40
3.5
 41
0.0
 71
     5
 72
     1
  1
1
  7
CONVERTER_11
 73
     1
 44
1.20048019207683
  0
MTEXT
  5
206
330
71
100
AcDbEntity
  8
1
 62
     7
100
AcDbMText
 10
-328.9999995231698
 20
-252.9999997615365
 30
0.0
 40
3.5
 41
0.0
 71
     5
 72
     1
  1
2
  7
CONVERTER_11
 73
     1
 44
1.20048019207683
  0
MTEXT
  5
207
330
71
100
AcDbEntity
  8
1
 62
     7
100
AcDbMText
 10
-278.9999995231698
 20
-252.9999997615365
 30
0.0
 40
3.5
 41
0.0
 71
     5
 72
     1
  1
3
  7
CONVERTER_11
 73
     1
 44
1.20048019207683
  0
MTEXT
  5
208
330
71
100
AcDbEntity
  8
1
 62
     7
100
AcDbMText
 10
-228.99999952317
 20
-252.9999997615365
 30
0.0
 40
3.5
 41
0.0
 71
     5
 72
     1
  1
4
  7
CONVERTER_11
 73
     1
 44
1.20048019207683
  0
MTEXT
  5
209
330
71
100
AcDbEntity
  8
1
 62
     7
100
AcDbMText
 10
-178.9999995231699
 20
-252.9999997615365
 30
0.0
 40
3.5
 41
0.0
 71
     5
 72
     1
  1
5
  7
CONVERTER_11
 73
     1
 44
1.20048019207683
  0
MTEXT
  5
20A
330
71
100
AcDbEntity
  8
1
 62
     7
100
AcDbMText
 10
-129.7499995231707
 20
-252.9999997615365
 30
0.0
 40
3.5
 41
0.0
 71
     5
 72
     1
  1
6
  7
CONVERTER_11
 73
     1
 44
1.20048019207683
  0
MTEXT
  5
20B
330
71
100
AcDbEntity
  8
1
 62
     7
100
AcDbMText
 10
-399.9999995231689
 20
-72.99999976153637
 30
0.0
 40
3.5
 41
0.0
 71
     5
 72
     1
  1
A
  7
CONVERTER_11
 73
     1
 44
1.20048019207683
  0
MTEXT
  5
20C
330
71
100
AcDbEntity
  8
1
 62
     7
100
AcDbMText
 10
-399.9999995231689
 20
-125.4999997615364
 30
0.0
 40
3.5
 41
0.0
 71
     5
 72
     1
  1
B
  7
CONVERTER_11
 73
     1
 44
1.20048019207683
  0
MTEXT
  5
20D
330
71
100
AcDbEntity
  8
1
 62
     7
100
AcDbMText
 10
-399.9999995231689
 20
-175.4999997615364
 30
0.0
 40
3.5
 41
0.0
 71
     5
 72
     1
  1
C
  7
CONVERTER_11
 73
     1
 44
1.20048019207683
  0
MTEXT
  5
20E
330
71
100
AcDbEntity
  8
1
 62
     7
100
AcDbMText
 10
-399.9999995231689
 20
-227.9999997615364
 30
0.0
 40
3.5
 41
0.0
 71
     5
 72
     1
  1
D
  7
CONVERTER_11
 73
     1
 44
1.20048019207683
  0
MTEXT
  5
20F
330
71
100
AcDbEntity
  8
1
 62
     3
100
AcDbMText
 10
-213.84480404992
 20
-229.3749997615364
 30
0.0
 40
2.5
 41
0.0
 71
     5
 72
     1
  1
DIN A4
  7
CONVERTER_11
 73
     1
 44
1.20048019207683
  0
MTEXT
  5
210
330
71
100
AcDbEntity
  8
1
 62
     2
100
AcDbMText
 10
-202.6448040499199
 20
-242.9999997615364
 30
0.0
 40
1.8
 41
0.0
 71
     1
 72
     1
  1
description
  7
CONVERTER_11
 73
     1
 44
1.20048019207683
  0
MTEXT
  5
211
330
71
100
AcDbEntity
  8
1
 62
     7
100
AcDbMText
 10
-157.0724017865444
 20
-247.2499997615362
 30
0.0
 40
3.0
 41
0.0
 71
     5
 72
     1
  1
ZBM 5/BK:UNBEDRUCKT
  7
CONVERTER_12
 73
     1
 44
1.20048019207683
  0
TEXT
  5
212
330
71
100
AcDbEntity
  8
1
 62
     2
100
AcDbText
 10
-215.6094952401064
 20
-249.2499997615365
 30
0.0
 40
1.8
  1
1
 41
0.9
  7
CONVERTER_11
100
AcDbText
  0
TEXT
  5
213
330
71
100
AcDbEntity
  8
1
 62
     2
100
AcDbText
 10
-230.3985390795779
 20
-249.2992484153384
 30
0.0
 40
1.8
  1
1
 41
0.9
  7
CONVERTER_11
100
AcDbText
  0
TEXT
  5
214
330
71
100
AcDbEntity
  8
1
 62
     2
100
AcDbText
 10
-239.0448040499199
 20
-249.2590169765281
 30
0.0
 40
1.8
  1
page
 41
0.9
  7
CONVERTER_11
100
AcDbText
  0
TEXT
  5
215
330
71
100
AcDbEntity
  8
1
 62
     2
100
AcDbText
 10
-220.84480404992
 20
-249.259016976528
 30
0.0
 40
1.8
  1
of
 41
0.9
  7
CONVERTER_11
100
AcDbText
  0
MTEXT
  5
216
330
71
100
AcDbEntity
  8
1
 62
     3
100
AcDbMText
 10
-214.64182189831
 20
-63.70869160623758
 30
0.0
 40
1.8
 41
0.0
 71
     7
 72
     1
  3
Transfer or duplication of this document as well as the utilisation or\Pcommunication of its content are not permitted unless express consent\Pis granted. Violations give rise to claims for damages. All rights reserved\Pin case of patent, utility mo
  1
del or design patent registrations.
  7
CONVERTER_11
 73
     1
 44
0.99639855942377
  0
MTEXT
  5
217
330
71
100
AcDbEntity
  8
1
 62
     3
100
AcDbMText
 10
-397.4949317370981
 20
-63.70869160623758
 30
0.0
 40
1.8
 41
0.0
 71
     7
 72
     1
  3
Weitergabe sowie Vervielf\U+00e4ltigung dieses Dokuments, Verwertung und \PMitteilung seines Inhalts sind verboten, soweit nicht ausdr\U+00fccklich gestattet. \PZuwiderhandlungen verpflichten zu Schadenersatz. Alle Rechte f\U+00fcr den Fall\Pder Pat
  1
ent-, Gebrauchsmuster- oder Designeintragung vorbehalten.
  7
CONVERTER_11
 73
     1
 44
0.99639855942377
  0
HATCH
  5
218
330
71
100
AcDbEntity
  8
1
  6
Continuous
 62
     2
100
AcDbHatch
 10
0.0
 20
0.0
 30
0.0
210
0.0
220
0.0
230
1.0
  2
_USER
 70
     0
 71
     1
 91
        1
 92
        1
 93
       14
 72
     2
 10
-227.8035747739972
 20
-241.6795949996148
 40
1.205656168390854
 50
164.9381082228767
 51
195.0618917770959
 73
     1
 72
     2
 10
-227.3844469305344
 20
-241.56680463758
 40
1.639695123939305
 50
195.0618917770904
 51
275.1581447696406
 73
     1
 72
     2
 10
-227.6733030252703
 20
-238.3669140543584
 40
4.852596863498138
 50
275.1581447696249
 51
285.9799912583529
 73
     1
 72
     1
 10
-226.3373751081525
 20
-243.0319963601592
 11
-226.3373751081525
 21
-242.159479353356
 72
     2
 10
-227.5154301501773
 20
-240.2691286342061
 40
2.227384008972719
 50
58.06909105004197
 51
71.5519238818686
 73
     0
 72
     2
 10
-227.0972624165165
 20
-241.5226744102433
 40
0.9059297849849305
 50
71.55192388184666
 51
113.3722778881306
 73
     0
 72
     2
 10
-227.2537024492186
 20
-241.8846664289533
 40
0.5115800601948034
 50
113.3722778881668
 51
151.4785267423044
 73
     0
 72
     2
 10
-226.8763451911383
 20
-241.6795949996148
 40
0.9410597353332295
 50
151.4785267422934
 51
208.5214732577339
 73
     0
 72
     2
 10
-227.2537024492186
 20
-241.4745235702758
 40
0.5115800601948554
 50
208.5214732576956
 51
246.6277221118067
 73
     0
 72
     2
 10
-227.0972624165165
 20
-241.8365155889864
 40
0.9059297849852959
 50
246.6277221118694
 51
288.4480761181414
 73
     0
 72
     2
 10
-227.5154301501773
 20
-243.090061365023
 40
2.227384008973448
 50
288.4480761181314
 51
301.930908949958
 73
     0
 72
     1
 10
-226.3373751081525
 20
-241.1997106458731
 11
-226.3373751081525
 21
-240.3271936390698
 72
     2
 10
-227.6733030252703
 20
-244.9922759448707
 40
4.852596863498068
 50
74.02000874164739
 51
84.84185523037506
 73
     1
 72
     2
 10
-227.3844469305344
 20
-241.7923853616497
 40
1.639695123940509
 50
84.84185523036136
 51
164.9381082228866
 73
     1
 97
       14
330
1ED
330
106
330
1BC
330
1EC
330
1BD
330
1BE
330
1EB
330
1EA
330
1E9
330
107
330
1BF
330
1C0
330
1C1
330
1C2
 75
     1
 76
     0
 52
45.0
 41
0.1
 77
     0
 78
     1
 53
45.0
 43
0.0
 44
0.0
 45
-0.0707106781186548
 46
0.0707106781186548
 79
     0
 98
        1
 10
0.0
 20
0.0
  0
HATCH
  5
219
330
71
100
AcDbEntity
  8
1
  6
Continuous
 62
     2
100
AcDbHatch
 10
0.0
 20
0.0
 30
0.0
210
0.0
220
0.0
230
1.0
  2
_USER
 70
     0
 71
     1
 91
        1
 92
        1
 93
       14
 72
     2
 10
-227.8035747739972
 20
-241.6795949996148
 40
1.205656168390854
 50
164.9381082228767
 51
195.0618917770959
 73
     1
 72
     2
 10
-227.3844469305344
 20
-241.56680463758
 40
1.639695123939305
 50
195.0618917770904
 51
275.1581447696406
 73
     1
 72
     2
 10
-227.6733030252703
 20
-238.3669140543584
 40
4.852596863498138
 50
275.1581447696249
 51
285.9799912583529
 73
     1
 72
     1
 10
-226.3373751081525
 20
-243.0319963601592
 11
-226.3373751081525
 21
-242.159479353356
 72
     2
 10
-227.5154301501773
 20
-240.2691286342061
 40
2.227384008972719
 50
58.06909105004197
 51
71.5519238818686
 73
     0
 72
     2
 10
-227.0972624165165
 20
-241.5226744102433
 40
0.9059297849849305
 50
71.55192388184666
 51
113.3722778881306
 73
     0
 72
     2
 10
-227.2537024492186
 20
-241.8846664289533
 40
0.5115800601948034
 50
113.3722778881668
 51
151.4785267423044
 73
     0
 72
     2
 10
-226.8763451911383
 20
-241.6795949996148
 40
0.9410597353332295
 50
151.4785267422934
 51
208.5214732577339
 73
     0
 72
     2
 10
-227.2537024492186
 20
-241.4745235702758
 40
0.5115800601948554
 50
208.5214732576956
 51
246.6277221118067
 73
     0
 72
     2
 10
-227.0972624165165
 20
-241.8365155889864
 40
0.9059297849852959
 50
246.6277221118694
 51
288.4480761181414
 73
     0
 72
     2
 10
-227.5154301501773
 20
-243.090061365023
 40
2.227384008973448
 50
288.4480761181314
 51
301.930908949958
 73
     0
 72
     1
 10
-226.3373751081525
 20
-241.1997106458731
 11
-226.3373751081525
 21
-240.3271936390698
 72
     2
 10
-227.6733030252703
 20
-244.9922759448707
 40
4.852596863498068
 50
74.02000874164739
 51
84.84185523037506
 73
     1
 72
     2
 10
-227.3844469305344
 20
-241.7923853616497
 40
1.639695123940509
 50
84.84185523036136
 51
164.9381082228866
 73
     1
 97
       14
330
1ED
330
106
330
1BC
330
1EC
330
1BD
330
1BE
330
1EB
330
1EA
330
1E9
330
107
330
1BF
330
1C0
330
1C1
330
1C2
 75
     1
 76
     0
 52
45.0
 41
0.1
 77
     0
 78
     1
 53
45.0
 43
0.0
 44
0.0
 45
-0.0707106781186548
 46
0.0707106781186548
 79
     0
 98
        1
 10
0.0
 20
0.0
  0
HATCH
  5
21A
330
71
100
AcDbEntity
  8
1
  6
Continuous
 62
     2
100
AcDbHatch
 10
0.0
 20
0.0
 30
0.0
210
0.0
220
0.0
230
1.0
  2
_USER
 70
     0
 71
     1
 91
        1
 92
        1
 93
       18
 72
     2
 10
-211.2817454512814
 20
-241.7923853616497
 40
1.639695123940214
 50
90.0
 51
164.9381082228965
 73
     1
 72
     2
 10
-211.7008732947431
 20
-241.6795949996148
 40
1.205656168392968
 50
164.9381082229037
 51
195.0618917770962
 73
     1
 72
     2
 10
-211.2817454512814
 20
-241.56680463758
 40
1.639695123940503
 50
195.0618917771007
 51
275.1581447696762
 73
     1
 72
     2
 10
-211.5706015460173
 20
-238.3669140543584
 40
4.85259686349883
 50
275.158144769637
 51
285.9799912583393
 73
     1
 72
     1
 10
-210.2346736289005
 20
-243.0319963601598
 11
-210.2346736289005
 21
-242.1594793533565
 72
     2
 10
-211.4127286709245
 20
-240.2691286342067
 40
2.227384008972746
 50
58.06909105005842
 51
71.55192388186651
 73
     0
 72
     2
 10
-210.9945609372626
 20
-241.5226744102433
 40
0.9059297849852801
 50
71.55192388191827
 51
113.3722778881817
 73
     0
 72
     2
 10
-211.1510009699657
 20
-241.8846664289533
 40
0.5115800601959967
 50
113.3722778881551
 51
151.4785267423119
 73
     0
 72
     2
 10
-210.7736437118843
 20
-241.6795949996148
 40
0.9410597353348924
 50
151.4785267423305
 51
208.5214732576376
 73
     0
 72
     2
 10
-211.1510009699657
 20
-241.4745235702758
 40
0.5115800601944143
 50
208.521473257579
 51
250.6628567805147
 73
     0
 72
     2
 10
-211.004330971862
 20
-241.8924785506587
 40
0.9545230068260935
 50
250.662856780568
 51
270.0
 73
     0
 72
     1
 10
-211.004330971862
 20
-240.9379555438326
 11
-209.9006916722939
 21
-240.9379555438326
 72
     1
 10
-209.9006916722939
 20
-240.9379555438326
 11
-209.9006916722939
 21
-243.2064997615201
 72
     1
 10
-209.9006916722939
 20
-243.2064997615201
 11
-208.7078989701261
 21
-243.2064997615201
 72
     1
 10
-208.7078989701261
 20
-243.2064997615201
 11
-208.7078989701261
 21
-240.9379555438326
 72
     1
 10
-208.7078989701261
 20
-240.9379555438326
 11
-207.8967999326528
 21
-240.9379555438326
 72
     1
 10
-207.8967999326528
 20
-240.9379555438326
 11
-207.8967999326528
 21
-240.152690237709
 72
     1
 10
-207.8967999326528
 20
-240.152690237709
 11
-211.2817454512814
 21
-240.1526902377095
 97
       18
330
16C
330
16B
330
16A
330
169
330
16E
330
108
330
1E6
330
1C7
330
1E5
330
1C8
330
1E4
330
1E3
330
109
330
1E2
330
1E1
330
1C9
330
1CA
330
16D
 75
     1
 76
     0
 52
45.0
 41
0.1
 77
     0
 78
     1
 53
45.0
 43
0.0
 44
0.0
 45
-0.0707106781186548
 46
0.0707106781186548
 79
     0
 98
        1
 10
0.0
 20
0.0
  0
HATCH
  5
21B
330
71
100
AcDbEntity
  8
1
  6
Continuous
 62
     2
100
AcDbHatch
 10
0.0
 20
0.0
 30
0.0
210
0.0
220
0.0
230
1.0
  2
_USER
 70
     0
 71
     1
 91
        1
 92
        1
 93
       18
 72
     2
 10
-211.2817454512814
 20
-241.7923853616497
 40
1.639695123940214
 50
90.0
 51
164.9381082228965
 73
     1
 72
     2
 10
-211.7008732947431
 20
-241.6795949996148
 40
1.205656168392968
 50
164.9381082229037
 51
195.0618917770962
 73
     1
 72
     2
 10
-211.2817454512814
 20
-241.56680463758
 40
1.639695123940503
 50
195.0618917771007
 51
275.1581447696762
 73
     1
 72
     2
 10
-211.5706015460173
 20
-238.3669140543584
 40
4.85259686349883
 50
275.158144769637
 51
285.9799912583393
 73
     1
 72
     1
 10
-210.2346736289005
 20
-243.0319963601598
 11
-210.2346736289005
 21
-242.1594793533565
 72
     2
 10
-211.4127286709245
 20
-240.2691286342067
 40
2.227384008972746
 50
58.06909105005842
 51
71.55192388186651
 73
     0
 72
     2
 10
-210.9945609372626
 20
-241.5226744102433
 40
0.9059297849852801
 50
71.55192388191827
 51
113.3722778881817
 73
     0
 72
     2
 10
-211.1510009699657
 20
-241.8846664289533
 40
0.5115800601959967
 50
113.3722778881551
 51
151.4785267423119
 73
     0
 72
     2
 10
-210.7736437118843
 20
-241.6795949996148
 40
0.9410597353348924
 50
151.4785267423305
 51
208.5214732576376
 73
     0
 72
     2
 10
-211.1510009699657
 20
-241.4745235702758
 40
0.5115800601944143
 50
208.521473257579
 51
250.6628567805147
 73
     0
 72
     2
 10
-211.004330971862
 20
-241.8924785506587
 40
0.9545230068260935
 50
250.662856780568
 51
270.0
 73
     0
 72
     1
 10
-211.004330971862
 20
-240.9379555438326
 11
-209.9006916722939
 21
-240.9379555438326
 72
     1
 10
-209.9006916722939
 20
-240.9379555438326
 11
-209.9006916722939
 21
-243.2064997615201
 72
     1
 10
-209.9006916722939
 20
-243.2064997615201
 11
-208.7078989701261
 21
-243.2064997615201
 72
     1
 10
-208.7078989701261
 20
-243.2064997615201
 11
-208.7078989701261
 21
-240.9379555438326
 72
     1
 10
-208.7078989701261
 20
-240.9379555438326
 11
-207.8967999326528
 21
-240.9379555438326
 72
     1
 10
-207.8967999326528
 20
-240.9379555438326
 11
-207.8967999326528
 21
-240.152690237709
 72
     1
 10
-207.8967999326528
 20
-240.152690237709
 11
-211.2817454512814
 21
-240.1526902377095
 97
       18
330
16C
330
16B
330
16A
330
169
330
16E
330
108
330
1E6
330
1C7
330
1E5
330
1C8
330
1E4
330
1E3
330
109
330
1E2
330
1E1
330
1C9
330
1CA
330
16D
 75
     1
 76
     0
 52
45.0
 41
0.1
 77
     0
 78
     1
 53
45.0
 43
0.0
 44
0.0
 45
-0.0707106781186548
 46
0.0707106781186548
 79
     0
 98
        1
 10
0.0
 20
0.0
  0
HATCH
  5
21C
330
71
100
AcDbEntity
  8
1
  6
Continuous
 62
     2
100
AcDbHatch
 10
0.0
 20
0.0
 30
0.0
210
0.0
220
0.0
230
1.0
  2
_USER
 70
     0
 71
     1
 91
        4
 92
        1
 93
        8
 72
     2
 10
-235.3839045479745
 20
-237.2177443769366
 40
0.4242446153837989
 50
90.0
 51
180.0
 73
     1
 72
     1
 10
-235.8081491633573
 20
-237.2177443769366
 11
-235.8081491633573
 21
-242.7822551461368
 72
     2
 10
-235.3839045479745
 20
-242.7822551461368
 40
0.4242446153828041
 50
180.0
 51
270.0
 73
     1
 72
     1
 10
-235.3839045479745
 20
-243.2064997615201
 11
-229.9105924572577
 21
-243.2064997615201
 72
     2
 10
-229.9105924572577
 20
-242.7822551461368
 40
0.4242446153832873
 50
270.0
 51
360.0
 73
     1
 72
     1
 10
-229.4863478418738
 20
-242.7822551461368
 11
-229.4863478418738
 21
-237.2177443769366
 72
     2
 10
-229.9105924572577
 20
-237.2177443769366
 40
0.4242446153839126
 50
0.0
 51
90.0
 73
     1
 72
     1
 10
-229.9105924572577
 20
-236.7934997615528
 11
-235.3839045479745
 21
-236.7934997615528
 97
        8
330
1DA
330
137
330
1D9
330
138
330
1D0
330
135
330
1DB
330
136
 92
       16
 93
        1
 72
     2
 10
-232.764318897457
 20
-239.5366266052921
 40
0.4709789327785927
 50
0.0
 51
360.0
 73
     1
 97
        1
330
1EE
 92
       16
 93
        8
 72
     2
 10
-232.7405038827841
 20
-239.5366266052921
 40
0.9118481501444224
 50
295.3740086781716
 51
424.6259913218123
 73
     1
 72
     2
 10
-232.2144611846963
 20
-238.4274850053243
 40
0.3157169230768204
 50
115.3740086783565
 51
180.0
 73
     0
 72
     1
 10
-232.5301781077731
 20
-238.4274850053243
 11
-232.5301781077731
 21
-237.8219497168175
 72
     2
 10
-232.2144611846963
 20
-237.8219497168175
 40
0.3157169230760711
 50
180.0
 51
269.8110329574489
 73
     0
 72
     2
 10
-232.2088450493862
 20
-239.5247846643866
 40
2.018561131933266
 50
269.8110329575834
 51
450.1889670424166
 73
     0
 72
     2
 10
-232.2144611846963
 20
-241.2276196119556
 40
0.3157169230768204
 50
90.18896704255098
 51
180.0
 73
     0
 72
     1
 10
-232.5301781077731
 20
-241.2276196119556
 11
-232.5301781077731
 21
-240.6457682052605
 72
     2
 10
-232.2144611846963
 20
-240.6457682052605
 40
0.315716923076545
 50
180.0
 51
244.6259913216435
 73
     0
 97
        8
330
1E8
330
1C4
330
170
330
1E7
330
1C5
330
1C6
330
16F
330
1C3
 92
       16
 93
       12
 72
     1
 10
-234.790009871228
 20
-242.4939442059632
 11
-233.3141766102183
 21
-242.4939442059632
 72
     2
 10
-233.3141766102183
 20
-242.1782272828865
 40
0.3157169230767067
 50
270.0
 51
360.0
 73
     1
 72
     1
 10
-232.9984596871418
 20
-242.1782272828865
 11
-232.9984596871418
 21
-240.6474563513549
 72
     2
 10
-233.3141766102183
 20
-240.6474563513549
 40
0.3157169230765078
 50
0.0
 51
64.80558935146027
 73
     1
 72
     2
 10
-232.7915921626434
 20
-239.5366266052921
 40
0.9118975235575526
 50
115.1944106485075
 51
244.8055893514758
 73
     0
 72
     2
 10
-233.3141766102183
 20
-238.4257968592299
 40
0.315716923076146
 50
295.1944106485375
 51
360.0
 73
     1
 72
     1
 10
-232.9984596871418
 20
-238.4257968592299
 11
-232.9984596871418
 21
-237.8217722401694
 72
     2
 10
-233.3141766102183
 20
-237.8217722401694
 40
0.3157169230765078
 50
0.0
 51
90.0
 73
     1
 72
     1
 10
-233.3141766102183
 20
-237.5060553170932
 11
-234.790009871228
 21
-237.5060553170932
 72
     2
 10
-234.790009871228
 20
-237.8217722401694
 40
0.3157169230761951
 50
90.0
 51
180.0
 73
     1
 72
     1
 10
-235.1057267943037
 20
-237.8217722401694
 11
-235.1057267943037
 21
-242.1782272828865
 72
     2
 10
-234.790009871228
 20
-242.1782272828865
 40
0.315716923075712
 50
180.0
 51
270.0
 73
     1
 97
       12
330
13C
330
1CD
330
13B
330
1DE
330
13A
330
1DD
330
1CE
330
1CF
330
139
330
1DC
330
134
330
1DF
 75
     1
 76
     0
 52
45.0
 41
0.1
 77
     0
 78
     1
 53
45.0
 43
0.0
 44
0.0
 45
-0.0707106781186548
 46
0.0707106781186548
 79
     0
 98
        1
 10
0.0
 20
0.0
  0
HATCH
  5
21D
330
71
100
AcDbEntity
  8
1
  6
Continuous
 62
     2
100
AcDbHatch
 10
0.0
 20
0.0
 30
0.0
210
0.0
220
0.0
230
1.0
  2
_USER
 70
     0
 71
     1
 91
        4
 92
        1
 93
        8
 72
     2
 10
-235.3839045479745
 20
-237.2177443769366
 40
0.4242446153837989
 50
90.0
 51
180.0
 73
     1
 72
     1
 10
-235.8081491633573
 20
-237.2177443769366
 11
-235.8081491633573
 21
-242.7822551461368
 72
     2
 10
-235.3839045479745
 20
-242.7822551461368
 40
0.4242446153828041
 50
180.0
 51
270.0
 73
     1
 72
     1
 10
-235.3839045479745
 20
-243.2064997615201
 11
-229.9105924572577
 21
-243.2064997615201
 72
     2
 10
-229.9105924572577
 20
-242.7822551461368
 40
0.4242446153832873
 50
270.0
 51
360.0
 73
     1
 72
     1
 10
-229.4863478418738
 20
-242.7822551461368
 11
-229.4863478418738
 21
-237.2177443769366
 72
     2
 10
-229.9105924572577
 20
-237.2177443769366
 40
0.4242446153839126
 50
0.0
 51
90.0
 73
     1
 72
     1
 10
-229.9105924572577
 20
-236.7934997615528
 11
-235.3839045479745
 21
-236.7934997615528
 97
        8
330
1DA
330
137
330
1D9
330
138
330
1D0
330
135
330
1DB
330
136
 92
       16
 93
        1
 72
     2
 10
-232.764318897457
 20
-239.5366266052921
 40
0.4709789327785927
 50
0.0
 51
360.0
 73
     1
 97
        1
330
1EE
 92
       16
 93
        8
 72
     2
 10
-232.7405038827841
 20
-239.5366266052921
 40
0.9118481501444224
 50
295.3740086781716
 51
424.6259913218123
 73
     1
 72
     2
 10
-232.2144611846963
 20
-238.4274850053243
 40
0.3157169230768204
 50
115.3740086783565
 51
180.0
 73
     0
 72
     1
 10
-232.5301781077731
 20
-238.4274850053243
 11
-232.5301781077731
 21
-237.8219497168175
 72
     2
 10
-232.2144611846963
 20
-237.8219497168175
 40
0.3157169230760711
 50
180.0
 51
269.8110329574489
 73
     0
 72
     2
 10
-232.2088450493862
 20
-239.5247846643866
 40
2.018561131933266
 50
269.8110329575834
 51
450.1889670424166
 73
     0
 72
     2
 10
-232.2144611846963
 20
-241.2276196119556
 40
0.3157169230768204
 50
90.18896704255098
 51
180.0
 73
     0
 72
     1
 10
-232.5301781077731
 20
-241.2276196119556
 11
-232.5301781077731
 21
-240.6457682052605
 72
     2
 10
-232.2144611846963
 20
-240.6457682052605
 40
0.315716923076545
 50
180.0
 51
244.6259913216435
 73
     0
 97
        8
330
1E8
330
1C4
330
170
330
1E7
330
1C5
330
1C6
330
16F
330
1C3
 92
       16
 93
       12
 72
     1
 10
-234.790009871228
 20
-242.4939442059632
 11
-233.3141766102183
 21
-242.4939442059632
 72
     2
 10
-233.3141766102183
 20
-242.1782272828865
 40
0.3157169230767067
 50
270.0
 51
360.0
 73
     1
 72
     1
 10
-232.9984596871418
 20
-242.1782272828865
 11
-232.9984596871418
 21
-240.6474563513549
 72
     2
 10
-233.3141766102183
 20
-240.6474563513549
 40
0.3157169230765078
 50
0.0
 51
64.80558935146027
 73
     1
 72
     2
 10
-232.7915921626434
 20
-239.5366266052921
 40
0.9118975235575526
 50
115.1944106485075
 51
244.8055893514758
 73
     0
 72
     2
 10
-233.3141766102183
 20
-238.4257968592299
 40
0.315716923076146
 50
295.1944106485375
 51
360.0
 73
     1
 72
     1
 10
-232.9984596871418
 20
-238.4257968592299
 11
-232.9984596871418
 21
-237.8217722401694
 72
     2
 10
-233.3141766102183
 20
-237.8217722401694
 40
0.3157169230765078
 50
0.0
 51
90.0
 73
     1
 72
     1
 10
-233.3141766102183
 20
-237.5060553170932
 11
-234.790009871228
 21
-237.5060553170932
 72
     2
 10
-234.790009871228
 20
-237.8217722401694
 40
0.3157169230761951
 50
90.0
 51
180.0
 73
     1
 72
     1
 10
-235.1057267943037
 20
-237.8217722401694
 11
-235.1057267943037
 21
-242.1782272828865
 72
     2
 10
-234.790009871228
 20
-242.1782272828865
 40
0.315716923075712
 50
180.0
 51
270.0
 73
     1
 97
       12
330
13C
330
1CD
330
13B
330
1DE
330
13A
330
1DD
330
1CE
330
1CF
330
139
330
1DC
330
134
330
1DF
 75
     1
 76
     0
 52
45.0
 41
0.1
 77
     0
 78
     1
 53
45.0
 43
0.0
 44
0.0
 45
-0.0707106781186548
 46
0.0707106781186548
 79
     0
 98
        1
 10
0.0
 20
0.0
  0
HATCH
  5
21E
330
71
100
AcDbEntity
  8
1
  6
Continuous
 62
     2
100
AcDbHatch
 10
0.0
 20
0.0
 30
0.0
210
0.0
220
0.0
230
1.0
  2
_USER
 70
     0
 71
     1
 91
        2
 92
        1
 93
       12
 72
     2
 10
-220.7087405439852
 20
-238.3204045234405
 40
1.526904761905882
 50
90.0
 51
270.0
 73
     1
 72
     1
 10
-220.7087405439852
 20
-239.8473092853458
 11
-217.5584208202042
 21
-239.8473092853458
 72
     1
 10
-217.5584208202042
 20
-239.8473092853458
 11
-217.5584208202042
 21
-239.1492956799033
 72
     1
 10
-217.5584208202042
 20
-239.1492956799033
 11
-218.8943486466318
 21
-239.1492956799033
 72
     1
 10
-218.8943486466318
 20
-239.1492956799033
 11
-218.8943486466318
 21
-238.6694113261616
 72
     1
 10
-218.8943486466318
 20
-238.6694113261616
 11
-217.5584208202042
 21
-238.6694113261616
 72
     1
 10
-217.5584208202042
 20
-238.6694113261616
 11
-217.5584208202042
 21
-237.9713977207193
 72
     1
 10
-217.5584208202042
 20
-237.9713977207193
 11
-218.8943486466318
 21
-237.9713977207193
 72
     1
 10
-218.8943486466318
 20
-237.9713977207193
 11
-218.8943486466318
 21
-237.4915133669776
 72
     1
 10
-218.8943486466318
 20
-237.4915133669776
 11
-217.5584208202042
 21
-237.4915133669776
 72
     1
 10
-217.5584208202042
 20
-237.4915133669776
 11
-217.5584208202042
 21
-236.7934997615346
 72
     1
 10
-217.5584208202042
 20
-236.7934997615346
 11
-220.7087405439852
 21
-236.7934997615346
 97
       12
330
12B
330
125
330
14C
330
14B
330
14A
330
149
330
126
330
127
330
128
330
129
330
1CB
330
12A
 92
       16
 93
        4
 72
     2
 10
-220.2927284974737
 20
-238.3204045234405
 40
0.7717997786796947
 50
141.8795802028417
 51
218.1204197971549
 73
     1
 72
     2
 10
-220.49246853382
 20
-238.4771357015609
 40
0.5179085730134595
 50
218.1204197971492
 51
321.8795802028547
 73
     1
 72
     2
 10
-220.6922085701661
 20
-238.3204045234405
 40
0.7717997786795479
 50
321.8795802028385
 51
398.1204197971648
 73
     1
 72
     2
 10
-220.49246853382
 20
-238.16367334532
 40
0.5179085730135041
 50
38.12041979714528
 51
141.8795802028508
 73
     1
 97
        4
330
1D8
330
1D7
330
1D2
330
1D1
 75
     1
 76
     0
 52
45.0
 41
0.1
 77
     0
 78
     1
 53
45.0
 43
0.0
 44
0.0
 45
-0.0707106781186548
 46
0.0707106781186548
 79
     0
 98
        1
 10
0.0
 20
0.0
  0
HATCH
  5
21F
330
71
100
AcDbEntity
  8
1
  6
Continuous
 62
     2
100
AcDbHatch
 10
0.0
 20
0.0
 30
0.0
210
0.0
220
0.0
230
1.0
  2
_USER
 70
     0
 71
     1
 91
        2
 92
        1
 93
       12
 72
     2
 10
-220.7087405439852
 20
-238.3204045234405
 40
1.526904761905882
 50
90.0
 51
270.0
 73
     1
 72
     1
 10
-220.7087405439852
 20
-239.8473092853458
 11
-217.5584208202042
 21
-239.8473092853458
 72
     1
 10
-217.5584208202042
 20
-239.8473092853458
 11
-217.5584208202042
 21
-239.1492956799033
 72
     1
 10
-217.5584208202042
 20
-239.1492956799033
 11
-218.8943486466318
 21
-239.1492956799033
 72
     1
 10
-218.8943486466318
 20
-239.1492956799033
 11
-218.8943486466318
 21
-238.6694113261616
 72
     1
 10
-218.8943486466318
 20
-238.6694113261616
 11
-217.5584208202042
 21
-238.6694113261616
 72
     1
 10
-217.5584208202042
 20
-238.6694113261616
 11
-217.5584208202042
 21
-237.9713977207193
 72
     1
 10
-217.5584208202042
 20
-237.9713977207193
 11
-218.8943486466318
 21
-237.9713977207193
 72
     1
 10
-218.8943486466318
 20
-237.9713977207193
 11
-218.8943486466318
 21
-237.4915133669776
 72
     1
 10
-218.8943486466318
 20
-237.4915133669776
 11
-217.5584208202042
 21
-237.4915133669776
 72
     1
 10
-217.5584208202042
 20
-237.4915133669776
 11
-217.5584208202042
 21
-236.7934997615346
 72
     1
 10
-217.5584208202042
 20
-236.7934997615346
 11
-220.7087405439852
 21
-236.7934997615346
 97
       12
330
12B
330
125
330
14C
330
14B
330
14A
330
149
330
126
330
127
330
128
330
129
330
1CB
330
12A
 92
       16
 93
        4
 72
     2
 10
-220.2927284974737
 20
-238.3204045234405
 40
0.7717997786796947
 50
141.8795802028417
 51
218.1204197971549
 73
     1
 72
     2
 10
-220.49246853382
 20
-238.4771357015609
 40
0.5179085730134595
 50
218.1204197971492
 51
321.8795802028547
 73
     1
 72
     2
 10
-220.6922085701661
 20
-238.3204045234405
 40
0.7717997786795479
 50
321.8795802028385
 51
398.1204197971648
 73
     1
 72
     2
 10
-220.49246853382
 20
-238.16367334532
 40
0.5179085730135041
 50
38.12041979714528
 51
141.8795802028508
 73
     1
 97
        4
330
1D8
330
1D7
330
1D2
330
1D1
 75
     1
 76
     0
 52
45.0
 41
0.1
 77
     0
 78
     1
 53
45.0
 43
0.0
 44
0.0
 45
-0.0707106781186548
 46
0.0707106781186548
 79
     0
 98
        1
 10
0.0
 20
0.0
  0
HATCH
  5
220
330
71
100
AcDbEntity
  8
1
  6
Continuous
 62
     2
100
AcDbHatch
 10
0.0
 20
0.0
 30
0.0
210
0.0
220
0.0
230
1.0
  2
_USER
 70
     0
 71
     1
 91
        2
 92
        1
 93
        4
 72
     2
 10
-224.7343559064468
 20
-241.6795949996148
 40
1.458034083651451
 50
117.5481481756595
 51
242.4518518243405
 73
     1
 72
     2
 10
-224.4534160146135
 20
-241.1410199893115
 40
2.065479772208469
 50
242.4518518243423
 51
297.5481481756871
 73
     1
 72
     2
 10
-224.1724761227802
 20
-241.6795949996148
 40
1.458034083652003
 50
297.548148175701
 51
422.451851824299
 73
     1
 72
     2
 10
-224.4534160146135
 20
-242.2181700099176
 40
2.065479772208568
 50
62.45185182430637
 51
117.5481481756643
 73
     1
 97
        4
330
1D6
330
1D3
330
1D5
330
1D4
 92
       16
 93
        4
 72
     2
 10
-224.4534160146135
 20
-241.5228638214943
 40
0.5179085730132998
 50
38.12041979714704
 51
141.8795802028511
 73
     1
 72
     2
 10
-224.2536759782674
 20
-241.6795949996148
 40
0.7717997786793738
 50
141.8795802028311
 51
218.1204197971739
 73
     1
 72
     2
 10
-224.4534160146135
 20
-241.8363261777348
 40
0.5179085730136459
 50
218.1204197972009
 51
321.879580202801
 73
     1
 72
     2
 10
-224.6531560509599
 20
-241.6795949996148
 40
0.7717997786796724
 50
321.8795802028404
 51
398.1204197971546
 73
     1
 97
        4
330
1B9
330
1BA
330
1BB
330
1B8
 75
     1
 76
     0
 52
45.0
 41
0.1
 77
     0
 78
     1
 53
45.0
 43
0.0
 44
0.0
 45
-0.0707106781186548
 46
0.0707106781186548
 79
     0
 98
        1
 10
0.0
 20
0.0
  0
HATCH
  5
221
330
71
100
AcDbEntity
  8
1
  6
Continuous
 62
     2
100
AcDbHatch
 10
0.0
 20
0.0
 30
0.0
210
0.0
220
0.0
230
1.0
  2
_USER
 70
     0
 71
     1
 91
        2
 92
        1
 93
        4
 72
     2
 10
-224.7343559064468
 20
-241.6795949996148
 40
1.458034083651451
 50
117.5481481756595
 51
242.4518518243405
 73
     1
 72
     2
 10
-224.4534160146135
 20
-241.1410199893115
 40
2.065479772208469
 50
242.4518518243423
 51
297.5481481756871
 73
     1
 72
     2
 10
-224.1724761227802
 20
-241.6795949996148
 40
1.458034083652003
 50
297.548148175701
 51
422.451851824299
 73
     1
 72
     2
 10
-224.4534160146135
 20
-242.2181700099176
 40
2.065479772208568
 50
62.45185182430637
 51
117.5481481756643
 73
     1
 97
        4
330
1D6
330
1D3
330
1D5
330
1D4
 92
       16
 93
        4
 72
     2
 10
-224.4534160146135
 20
-241.5228638214943
 40
0.5179085730132998
 50
38.12041979714704
 51
141.8795802028511
 73
     1
 72
     2
 10
-224.2536759782674
 20
-241.6795949996148
 40
0.7717997786793738
 50
141.8795802028311
 51
218.1204197971739
 73
     1
 72
     2
 10
-224.4534160146135
 20
-241.8363261777348
 40
0.5179085730136459
 50
218.1204197972009
 51
321.879580202801
 73
     1
 72
     2
 10
-224.6531560509599
 20
-241.6795949996148
 40
0.7717997786796724
 50
321.8795802028404
 51
398.1204197971546
 73
     1
 97
        4
330
1B9
330
1BA
330
1BB
330
1B8
 75
     1
 76
     0
 52
45.0
 41
0.1
 77
     0
 78
     1
 53
45.0
 43
0.0
 44
0.0
 45
-0.0707106781186548
 46
0.0707106781186548
 79
     0
 98
        1
 10
0.0
 20
0.0
  0
HATCH
  5
222
330
71
100
AcDbEntity
  8
1
  6
Continuous
 62
     2
100
AcDbHatch
 10
0.0
 20
0.0
 30
0.0
210
0.0
220
0.0
230
1.0
  2
_USER
 70
     0
 71
     1
 91
        2
 92
        1
 93
        6
 72
     1
 10
-229.009230761007
 20
-236.7934997615346
 11
-229.009230761007
 21
-239.8473092853458
 72
     1
 10
-229.009230761007
 20
-239.8473092853458
 11
-227.7687263507528
 21
-239.8473092853458
 72
     1
 10
-227.7687263507528
 20
-239.8473092853458
 11
-227.7687263507528
 21
-238.904231044202
 72
     1
 10
-227.7687263507528
 20
-238.904231044202
 11
-227.0099587629726
 21
-238.904231044202
 72
     2
 10
-227.0099587629726
 20
-237.8488654028683
 40
1.05536564133368
 50
270.0
 51
450.0
 73
     1
 72
     1
 10
-227.0099587629726
 20
-236.7934997615346
 11
-229.009230761007
 21
-236.7934997615346
 97
        6
330
1E0
330
13D
330
133
330
132
330
13F
330
13E
 92
       16
 93
        4
 72
     1
 10
-227.4514312892109
 20
-237.4566056069747
 11
-227.7687263507528
 21
-237.4566056069747
 72
     1
 10
-227.7687263507528
 20
-237.4566056069747
 11
-227.7687263507528
 21
-238.1623332563169
 72
     1
 10
-227.7687263507528
 20
-238.1623332563169
 11
-227.4514312892109
 21
-238.1623332563169
 72
     2
 10
-227.4514312892109
 20
-237.8094694316458
 40
0.3528638246711182
 50
270.0
 51
450.0
 73
     1
 97
        4
330
140
330
131
330
141
330
1CC
 75
     1
 76
     0
 52
45.0
 41
0.1
 77
     0
 78
     1
 53
45.0
 43
0.0
 44
0.0
 45
-0.0707106781186548
 46
0.0707106781186548
 79
     0
 98
        1
 10
0.0
 20
0.0
  0
HATCH
  5
223
330
71
100
AcDbEntity
  8
1
  6
Continuous
 62
     2
100
AcDbHatch
 10
0.0
 20
0.0
 30
0.0
210
0.0
220
0.0
230
1.0
  2
_USER
 70
     0
 71
     1
 91
        2
 92
        1
 93
        6
 72
     1
 10
-229.009230761007
 20
-236.7934997615346
 11
-229.009230761007
 21
-239.8473092853458
 72
     1
 10
-229.009230761007
 20
-239.8473092853458
 11
-227.7687263507528
 21
-239.8473092853458
 72
     1
 10
-227.7687263507528
 20
-239.8473092853458
 11
-227.7687263507528
 21
-238.904231044202
 72
     1
 10
-227.7687263507528
 20
-238.904231044202
 11
-227.0099587629726
 21
-238.904231044202
 72
     2
 10
-227.0099587629726
 20
-237.8488654028683
 40
1.05536564133368
 50
270.0
 51
450.0
 73
     1
 72
     1
 10
-227.0099587629726
 20
-236.7934997615346
 11
-229.009230761007
 21
-236.7934997615346
 97
        6
330
1E0
330
13D
330
133
330
132
330
13F
330
13E
 92
       16
 93
        4
 72
     1
 10
-227.4514312892109
 20
-237.4566056069747
 11
-227.7687263507528
 21
-237.4566056069747
 72
     1
 10
-227.7687263507528
 20
-237.4566056069747
 11
-227.7687263507528
 21
-238.1623332563169
 72
     1
 10
-227.7687263507528
 20
-238.1623332563169
 11
-227.4514312892109
 21
-238.1623332563169
 72
     2
 10
-227.4514312892109
 20
-237.8094694316458
 40
0.3528638246711182
 50
270.0
 51
450.0
 73
     1
 97
        4
330
140
330
131
330
141
330
1CC
 75
     1
 76
     0
 52
45.0
 41
0.1
 77
     0
 78
     1
 53
45.0
 43
0.0
 44
0.0
 45
-0.0707106781186548
 46
0.0707106781186548
 79
     0
 98
        1
 10
0.0
 20
0.0
  0
HATCH
  5
224
330
71
100
AcDbEntity
  8
1
  6
Continuous
 62
     2
100
AcDbHatch
 10
0.0
 20
0.0
 30
0.0
210
0.0
220
0.0
230
1.0
  2
_USER
 70
     0
 71
     1
 91
        1
 92
        1
 93
       12
 72
     1
 10
-209.3949475665738
 20
-236.7934997615346
 11
-207.9922233488265
 21
-236.7934997615346
 72
     1
 10
-207.9922233488265
 20
-236.7934997615346
 11
-209.2947529795931
 21
-238.2664502915708
 72
     1
 10
-209.2947529795931
 20
-238.2664502915708
 11
-207.8967999326528
 21
-239.8473092853458
 72
     1
 10
-207.8967999326528
 20
-239.8473092853458
 11
-209.2995241504011
 21
-239.8473092853458
 72
     1
 10
-209.2995241504011
 20
-239.8473092853458
 11
-209.9961150884666
 21
-239.0595775000521
 72
     1
 10
-209.9961150884666
 20
-239.0595775000521
 11
-210.6927060265323
 21
-239.8473092853458
 72
     1
 10
-210.6927060265323
 20
-239.8473092853458
 11
-212.0954302442805
 21
-239.8473092853458
 72
     1
 10
-212.0954302442805
 20
-239.8473092853458
 11
-210.6974771973402
 21
-238.2664502915708
 72
     1
 10
-210.6974771973402
 20
-238.2664502915708
 11
-212.0000068281076
 21
-236.7934997615346
 72
     1
 10
-212.0000068281076
 20
-236.7934997615346
 11
-210.5972826103584
 21
-236.7934997615346
 72
     1
 10
-210.5972826103584
 20
-236.7934997615346
 11
-209.9961150884666
 21
-237.4733230830901
 72
     1
 10
-209.9961150884666
 20
-237.4733230830901
 11
-209.3949475665738
 21
-236.7934997615346
 97
       12
330
10C
330
165
330
164
330
163
330
162
330
10D
330
10E
330
10A
330
10B
330
168
330
167
330
166
 75
     1
 76
     0
 52
45.0
 41
0.1
 77
     0
 78
     1
 53
45.0
 43
0.0
 44
0.0
 45
-0.0707106781186548
 46
0.0707106781186548
 79
     0
 98
        1
 10
0.0
 20
0.0
  0
HATCH
  5
225
330
71
100
AcDbEntity
  8
1
  6
Continuous
 62
     2
100
AcDbHatch
 10
0.0
 20
0.0
 30
0.0
210
0.0
220
0.0
230
1.0
  2
_USER
 70
     0
 71
     1
 91
        1
 92
        1
 93
       12
 72
     1
 10
-209.3949475665738
 20
-236.7934997615346
 11
-207.9922233488265
 21
-236.7934997615346
 72
     1
 10
-207.9922233488265
 20
-236.7934997615346
 11
-209.2947529795931
 21
-238.2664502915708
 72
     1
 10
-209.2947529795931
 20
-238.2664502915708
 11
-207.8967999326528
 21
-239.8473092853458
 72
     1
 10
-207.8967999326528
 20
-239.8473092853458
 11
-209.2995241504011
 21
-239.8473092853458
 72
     1
 10
-209.2995241504011
 20
-239.8473092853458
 11
-209.9961150884666
 21
-239.0595775000521
 72
     1
 10
-209.9961150884666
 20
-239.0595775000521
 11
-210.6927060265323
 21
-239.8473092853458
 72
     1
 10
-210.6927060265323
 20
-239.8473092853458
 11
-212.0954302442805
 21
-239.8473092853458
 72
     1
 10
-212.0954302442805
 20
-239.8473092853458
 11
-210.6974771973402
 21
-238.2664502915708
 72
     1
 10
-210.6974771973402
 20
-238.2664502915708
 11
-212.0000068281076
 21
-236.7934997615346
 72
     1
 10
-212.0000068281076
 20
-236.7934997615346
 11
-210.5972826103584
 21
-236.7934997615346
 72
     1
 10
-210.5972826103584
 20
-236.7934997615346
 11
-209.9961150884666
 21
-237.4733230830901
 72
     1
 10
-209.9961150884666
 20
-237.4733230830901
 11
-209.3949475665738
 21
-236.7934997615346
 97
       12
330
10C
330
165
330
164
330
163
330
162
330
10D
330
10E
330
10A
330
10B
330
168
330
167
330
166
 75
     1
 76
     0
 52
45.0
 41
0.1
 77
     0
 78
     1
 53
45.0
 43
0.0
 44
0.0
 45
-0.0707106781186548
 46
0.0707106781186548
 79
     0
 98
        1
 10
0.0
 20
0.0
  0
HATCH
  5
226
330
71
100
AcDbEntity
  8
1
  6
Continuous
 62
     2
100
AcDbHatch
 10
0.0
 20
0.0
 30
0.0
210
0.0
220
0.0
230
1.0
  2
_USER
 70
     0
 71
     1
 91
        1
 92
        1
 93
        4
 72
     1
 10
-212.2147095144973
 20
-236.7934997615346
 11
-212.2147095144973
 21
-239.8473092853458
 72
     1
 10
-212.2147095144973
 20
-239.8473092853458
 11
-213.4552139247502
 21
-239.8473092853458
 72
     1
 10
-213.4552139247502
 20
-239.8473092853458
 11
-213.4552139247502
 21
-236.7934997615346
 72
     1
 10
-213.4552139247502
 20
-236.7934997615346
 11
-212.2147095144973
 21
-236.7934997615346
 97
        4
330
160
330
10F
330
15F
330
161
 75
     1
 76
     0
 52
45.0
 41
0.1
 77
     0
 78
     1
 53
45.0
 43
0.0
 44
0.0
 45
-0.0707106781186548
 46
0.0707106781186548
 79
     0
 98
        1
 10
0.0
 20
0.0
  0
HATCH
  5
227
330
71
100
AcDbEntity
  8
1
  6
Continuous
 62
     2
100
AcDbHatch
 10
0.0
 20
0.0
 30
0.0
210
0.0
220
0.0
230
1.0
  2
_USER
 70
     0
 71
     1
 91
        1
 92
        1
 93
        4
 72
     1
 10
-212.2147095144973
 20
-236.7934997615346
 11
-212.2147095144973
 21
-239.8473092853458
 72
     1
 10
-212.2147095144973
 20
-239.8473092853458
 11
-213.4552139247502
 21
-239.8473092853458
 72
     1
 10
-213.4552139247502
 20
-239.8473092853458
 11
-213.4552139247502
 21
-236.7934997615346
 72
     1
 10
-213.4552139247502
 20
-236.7934997615346
 11
-212.2147095144973
 21
-236.7934997615346
 97
        4
330
160
330
10F
330
15F
330
161
 75
     1
 76
     0
 52
45.0
 41
0.1
 77
     0
 78
     1
 53
45.0
 43
0.0
 44
0.0
 45
-0.0707106781186548
 46
0.0707106781186548
 79
     0
 98
        1
 10
0.0
 20
0.0
  0
HATCH
  5
228
330
71
100
AcDbEntity
  8
1
  6
Continuous
 62
     2
100
AcDbHatch
 10
0.0
 20
0.0
 30
0.0
210
0.0
220
0.0
230
1.0
  2
_USER
 70
     0
 71
     1
 91
        2
 92
        1
 93
        8
 72
     1
 10
-212.6051535180293
 20
-243.2064997615201
 11
-213.8456579282833
 21
-243.2064997615201
 72
     1
 10
-213.8456579282833
 20
-243.2064997615201
 11
-214.057137981759
 21
-242.6655392173022
 72
     1
 10
-214.057137981759
 20
-242.6655392173022
 11
-215.1895795584329
 21
-242.6655392173022
 72
     1
 10
-215.1895795584329
 20
-242.6655392173022
 11
-215.4010596119087
 21
-243.2064997615201
 72
     1
 10
-215.4010596119087
 20
-243.2064997615201
 11
-216.6415640221617
 21
-243.2064997615201
 72
     1
 10
-216.6415640221617
 20
-243.2064997615201
 11
-215.2436109752223
 21
-240.152690237709
 72
     1
 10
-215.2436109752223
 20
-240.152690237709
 11
-214.0031065649696
 21
-240.152690237709
 72
     1
 10
-214.0031065649696
 20
-240.152690237709
 11
-212.6051535180293
 21
-243.2064997615201
 97
        8
330
15B
330
115
330
15A
330
15D
330
112
330
15C
330
113
330
114
 92
       16
 93
        3
 72
     1
 10
-214.9235240072879
 20
-241.9849759519956
 11
-214.3231935329054
 21
-241.9849759519956
 72
     1
 10
-214.3231935329054
 20
-241.9849759519956
 11
-214.6233587700955
 21
-241.2171609860089
 72
     1
 10
-214.6233587700955
 20
-241.2171609860089
 11
-214.9235240072879
 21
-241.9849759519956
 97
        3
330
111
330
110
330
15E
 75
     1
 76
     0
 52
45.0
 41
0.1
 77
     0
 78
     1
 53
45.0
 43
0.0
 44
0.0
 45
-0.0707106781186548
 46
0.0707106781186548
 79
     0
 98
        1
 10
0.0
 20
0.0
  0
HATCH
  5
229
330
71
100
AcDbEntity
  8
1
  6
Continuous
 62
     2
100
AcDbHatch
 10
0.0
 20
0.0
 30
0.0
210
0.0
220
0.0
230
1.0
  2
_USER
 70
     0
 71
     1
 91
        2
 92
        1
 93
        8
 72
     1
 10
-212.6051535180293
 20
-243.2064997615201
 11
-213.8456579282833
 21
-243.2064997615201
 72
     1
 10
-213.8456579282833
 20
-243.2064997615201
 11
-214.057137981759
 21
-242.6655392173022
 72
     1
 10
-214.057137981759
 20
-242.6655392173022
 11
-215.1895795584329
 21
-242.6655392173022
 72
     1
 10
-215.1895795584329
 20
-242.6655392173022
 11
-215.4010596119087
 21
-243.2064997615201
 72
     1
 10
-215.4010596119087
 20
-243.2064997615201
 11
-216.6415640221617
 21
-243.2064997615201
 72
     1
 10
-216.6415640221617
 20
-243.2064997615201
 11
-215.2436109752223
 21
-240.152690237709
 72
     1
 10
-215.2436109752223
 20
-240.152690237709
 11
-214.0031065649696
 21
-240.152690237709
 72
     1
 10
-214.0031065649696
 20
-240.152690237709
 11
-212.6051535180293
 21
-243.2064997615201
 97
        8
330
15B
330
115
330
15A
330
15D
330
112
330
15C
330
113
330
114
 92
       16
 93
        3
 72
     1
 10
-214.9235240072879
 20
-241.9849759519956
 11
-214.3231935329054
 21
-241.9849759519956
 72
     1
 10
-214.3231935329054
 20
-241.9849759519956
 11
-214.6233587700955
 21
-241.2171609860089
 72
     1
 10
-214.6233587700955
 20
-241.2171609860089
 11
-214.9235240072879
 21
-241.9849759519956
 97
        3
330
111
330
110
330
15E
 75
     1
 76
     0
 52
45.0
 41
0.1
 77
     0
 78
     1
 53
45.0
 43
0.0
 44
0.0
 45
-0.0707106781186548
 46
0.0707106781186548
 79
     0
 98
        1
 10
0.0
 20
0.0
  0
HATCH
  5
22A
330
71
100
AcDbEntity
  8
1
  6
Continuous
 62
     2
100
AcDbHatch
 10
0.0
 20
0.0
 30
0.0
210
0.0
220
0.0
230
1.0
  2
_USER
 70
     0
 71
     1
 91
        1
 92
        1
 93
        8
 72
     1
 10
-218.7990761613439
 20
-240.152690237709
 11
-218.7990761613439
 21
-240.9379555438326
 72
     1
 10
-218.7990761613439
 20
-240.9379555438326
 11
-217.9879771238693
 21
-240.9379555438326
 72
     1
 10
-217.9879771238693
 20
-240.9379555438326
 11
-217.9879771238693
 21
-243.2064997615201
 72
     1
 10
-217.9879771238693
 20
-243.2064997615201
 11
-216.7951844217027
 21
-243.2064997615201
 72
     1
 10
-216.7951844217027
 20
-243.2064997615201
 11
-216.7951844217027
 21
-240.9379555438326
 72
     1
 10
-216.7951844217027
 20
-240.9379555438326
 11
-215.9840853842302
 21
-240.9379555438326
 72
     1
 10
-215.9840853842302
 20
-240.9379555438326
 11
-215.9840853842302
 21
-240.152690237709
 72
     1
 10
-215.9840853842302
 20
-240.152690237709
 11
-218.7990761613439
 21
-240.152690237709
 97
        8
330
157
330
156
330
155
330
116
330
117
330
159
330
118
330
158
 75
     1
 76
     0
 52
45.0
 41
0.1
 77
     0
 78
     1
 53
45.0
 43
0.0
 44
0.0
 45
-0.0707106781186548
 46
0.0707106781186548
 79
     0
 98
        1
 10
0.0
 20
0.0
  0
HATCH
  5
22B
330
71
100
AcDbEntity
  8
1
  6
Continuous
 62
     2
100
AcDbHatch
 10
0.0
 20
0.0
 30
0.0
210
0.0
220
0.0
230
1.0
  2
_USER
 70
     0
 71
     1
 91
        1
 92
        1
 93
        8
 72
     1
 10
-218.7990761613439
 20
-240.152690237709
 11
-218.7990761613439
 21
-240.9379555438326
 72
     1
 10
-218.7990761613439
 20
-240.9379555438326
 11
-217.9879771238693
 21
-240.9379555438326
 72
     1
 10
-217.9879771238693
 20
-240.9379555438326
 11
-217.9879771238693
 21
-243.2064997615201
 72
     1
 10
-217.9879771238693
 20
-243.2064997615201
 11
-216.7951844217027
 21
-243.2064997615201
 72
     1
 10
-216.7951844217027
 20
-243.2064997615201
 11
-216.7951844217027
 21
-240.9379555438326
 72
     1
 10
-216.7951844217027
 20
-240.9379555438326
 11
-215.9840853842302
 21
-240.9379555438326
 72
     1
 10
-215.9840853842302
 20
-240.9379555438326
 11
-215.9840853842302
 21
-240.152690237709
 72
     1
 10
-215.9840853842302
 20
-240.152690237709
 11
-218.7990761613439
 21
-240.152690237709
 97
        8
330
157
330
156
330
155
330
116
330
117
330
159
330
118
330
158
 75
     1
 76
     0
 52
45.0
 41
0.1
 77
     0
 78
     1
 53
45.0
 43
0.0
 44
0.0
 45
-0.0707106781186548
 46
0.0707106781186548
 79
     0
 98
        1
 10
0.0
 20
0.0
  0
HATCH
  5
22C
330
71
100
AcDbEntity
  8
1
  6
Continuous
 62
     2
100
AcDbHatch
 10
0.0
 20
0.0
 30
0.0
210
0.0
220
0.0
230
1.0
  2
_USER
 70
     0
 71
     1
 91
        1
 92
        1
 93
       10
 72
     1
 10
-216.1270695776047
 20
-236.7934997615346
 11
-217.3198622797713
 21
-236.7934997615346
 72
     1
 10
-217.3198622797713
 20
-236.7934997615346
 11
-217.3198622797713
 21
-239.8473092853458
 72
     1
 10
-217.3198622797713
 20
-239.8473092853458
 11
-216.1270695776047
 21
-239.8473092853458
 72
     1
 10
-216.1270695776047
 20
-239.8473092853458
 11
-216.1270695776047
 21
-238.5385337751411
 72
     1
 10
-216.1270695776047
 20
-238.5385337751411
 11
-214.8865651673507
 21
-239.8473092853458
 72
     1
 10
-214.8865651673507
 20
-239.8473092853458
 11
-213.6937724651841
 21
-239.8473092853458
 72
     1
 10
-213.6937724651841
 20
-239.8473092853458
 11
-213.6937724651841
 21
-236.7934997615346
 72
     1
 10
-213.6937724651841
 20
-236.7934997615346
 11
-214.8865651673507
 21
-236.7934997615346
 72
     1
 10
-214.8865651673507
 20
-236.7934997615346
 11
-214.8865651673507
 21
-238.1022752717398
 72
     1
 10
-214.8865651673507
 20
-238.1022752717398
 11
-216.1270695776047
 21
-236.7934997615346
 97
       10
330
151
330
11B
330
11C
330
11D
330
11E
330
154
330
119
330
153
330
152
330
11A
 75
     1
 76
     0
 52
45.0
 41
0.1
 77
     0
 78
     1
 53
45.0
 43
0.0
 44
0.0
 45
-0.0707106781186548
 46
0.0707106781186548
 79
     0
 98
        1
 10
0.0
 20
0.0
  0
HATCH
  5
22D
330
71
100
AcDbEntity
  8
1
  6
Continuous
 62
     2
100
AcDbHatch
 10
0.0
 20
0.0
 30
0.0
210
0.0
220
0.0
230
1.0
  2
_USER
 70
     0
 71
     1
 91
        1
 92
        1
 93
       10
 72
     1
 10
-216.1270695776047
 20
-236.7934997615346
 11
-217.3198622797713
 21
-236.7934997615346
 72
     1
 10
-217.3198622797713
 20
-236.7934997615346
 11
-217.3198622797713
 21
-239.8473092853458
 72
     1
 10
-217.3198622797713
 20
-239.8473092853458
 11
-216.1270695776047
 21
-239.8473092853458
 72
     1
 10
-216.1270695776047
 20
-239.8473092853458
 11
-216.1270695776047
 21
-238.5385337751411
 72
     1
 10
-216.1270695776047
 20
-238.5385337751411
 11
-214.8865651673507
 21
-239.8473092853458
 72
     1
 10
-214.8865651673507
 20
-239.8473092853458
 11
-213.6937724651841
 21
-239.8473092853458
 72
     1
 10
-213.6937724651841
 20
-239.8473092853458
 11
-213.6937724651841
 21
-236.7934997615346
 72
     1
 10
-213.6937724651841
 20
-236.7934997615346
 11
-214.8865651673507
 21
-236.7934997615346
 72
     1
 10
-214.8865651673507
 20
-236.7934997615346
 11
-214.8865651673507
 21
-238.1022752717398
 72
     1
 10
-214.8865651673507
 20
-238.1022752717398
 11
-216.1270695776047
 21
-236.7934997615346
 97
       10
330
151
330
11B
330
11C
330
11D
330
11E
330
154
330
119
330
153
330
152
330
11A
 75
     1
 76
     0
 52
45.0
 41
0.1
 77
     0
 78
     1
 53
45.0
 43
0.0
 44
0.0
 45
-0.0707106781186548
 46
0.0707106781186548
 79
     0
 98
        1
 10
0.0
 20
0.0
  0
HATCH
  5
22E
330
71
100
AcDbEntity
  8
1
  6
Continuous
 62
     2
100
AcDbHatch
 10
0.0
 20
0.0
 30
0.0
210
0.0
220
0.0
230
1.0
  2
_USER
 70
     0
 71
     1
 91
        1
 92
        1
 93
       10
 72
     1
 10
-221.3755083980234
 20
-240.152690237709
 11
-222.568301100191
 21
-240.152690237709
 72
     1
 10
-222.568301100191
 20
-240.152690237709
 11
-222.568301100191
 21
-243.2064997615201
 72
     1
 10
-222.568301100191
 20
-243.2064997615201
 11
-221.3755083980234
 21
-243.2064997615201
 72
     1
 10
-221.3755083980234
 20
-243.2064997615201
 11
-221.3755083980234
 21
-241.8977242513155
 72
     1
 10
-221.3755083980234
 20
-241.8977242513155
 11
-220.1350039877705
 21
-243.2064997615201
 72
     1
 10
-220.1350039877705
 20
-243.2064997615201
 11
-218.9422112856041
 21
-243.2064997615201
 72
     1
 10
-218.9422112856041
 20
-243.2064997615201
 11
-218.9422112856041
 21
-240.152690237709
 72
     1
 10
-218.9422112856041
 20
-240.152690237709
 11
-220.1350039877705
 21
-240.152690237709
 72
     1
 10
-220.1350039877705
 20
-240.152690237709
 11
-220.1350039877705
 21
-241.4614657479141
 72
     1
 10
-220.1350039877705
 20
-241.4614657479141
 11
-221.3755083980234
 21
-240.152690237709
 97
       10
330
120
330
121
330
122
330
14E
330
123
330
124
330
14D
330
150
330
14F
330
11F
 75
     1
 76
     0
 52
45.0
 41
0.1
 77
     0
 78
     1
 53
45.0
 43
0.0
 44
0.0
 45
-0.0707106781186548
 46
0.0707106781186548
 79
     0
 98
        1
 10
0.0
 20
0.0
  0
HATCH
  5
22F
330
71
100
AcDbEntity
  8
1
  6
Continuous
 62
     2
100
AcDbHatch
 10
0.0
 20
0.0
 30
0.0
210
0.0
220
0.0
230
1.0
  2
_USER
 70
     0
 71
     1
 91
        1
 92
        1
 93
       10
 72
     1
 10
-221.3755083980234
 20
-240.152690237709
 11
-222.568301100191
 21
-240.152690237709
 72
     1
 10
-222.568301100191
 20
-240.152690237709
 11
-222.568301100191
 21
-243.2064997615201
 72
     1
 10
-222.568301100191
 20
-243.2064997615201
 11
-221.3755083980234
 21
-243.2064997615201
 72
     1
 10
-221.3755083980234
 20
-243.2064997615201
 11
-221.3755083980234
 21
-241.8977242513155
 72
     1
 10
-221.3755083980234
 20
-241.8977242513155
 11
-220.1350039877705
 21
-243.2064997615201
 72
     1
 10
-220.1350039877705
 20
-243.2064997615201
 11
-218.9422112856041
 21
-243.2064997615201
 72
     1
 10
-218.9422112856041
 20
-243.2064997615201
 11
-218.9422112856041
 21
-240.152690237709
 72
     1
 10
-218.9422112856041
 20
-240.152690237709
 11
-220.1350039877705
 21
-240.152690237709
 72
     1
 10
-220.1350039877705
 20
-240.152690237709
 11
-220.1350039877705
 21
-241.4614657479141
 72
     1
 10
-220.1350039877705
 20
-241.4614657479141
 11
-221.3755083980234
 21
-240.152690237709
 97
       10
330
120
330
121
330
122
330
14E
330
123
330
124
330
14D
330
150
330
14F
330
11F
 75
     1
 76
     0
 52
45.0
 41
0.1
 77
     0
 78
     1
 53
45.0
 43
0.0
 44
0.0
 45
-0.0707106781186548
 46
0.0707106781186548
 79
     0
 98
        1
 10
0.0
 20
0.0
  0
HATCH
  5
230
330
71
100
AcDbEntity
  8
1
  6
Continuous
 62
     2
100
AcDbHatch
 10
0.0
 20
0.0
 30
0.0
210
0.0
220
0.0
230
1.0
  2
_USER
 70
     0
 71
     1
 91
        1
 92
        1
 93
       12
 72
     1
 10
-222.3773033369588
 20
-236.7934997615346
 11
-222.3773033369588
 21
-239.8473092853458
 72
     1
 10
-222.3773033369588
 20
-239.8473092853458
 11
-223.5700960391252
 21
-239.8473092853458
 72
     1
 10
-223.5700960391252
 20
-239.8473092853458
 11
-223.5700960391252
 21
-238.713037176502
 72
     1
 10
-223.5700960391252
 20
-238.713037176502
 11
-224.6197536170326
 21
-238.713037176502
 72
     1
 10
-224.6197536170326
 20
-238.713037176502
 11
-224.6197536170326
 21
-239.8473092853458
 72
     1
 10
-224.6197536170326
 20
-239.8473092853458
 11
-225.8125463191992
 21
-239.8473092853458
 72
     1
 10
-225.8125463191992
 20
-239.8473092853458
 11
-225.8125463191992
 21
-236.7934997615346
 72
     1
 10
-225.8125463191992
 20
-236.7934997615346
 11
-224.6197536170326
 21
-236.7934997615346
 72
     1
 10
-224.6197536170326
 20
-236.7934997615346
 11
-224.6197536170326
 21
-237.8623330948692
 72
     1
 10
-224.6197536170326
 20
-237.8623330948692
 11
-223.5700960391252
 21
-237.8623330948692
 72
     1
 10
-223.5700960391252
 20
-237.8623330948692
 11
-223.5700960391252
 21
-236.7934997615346
 72
     1
 10
-223.5700960391252
 20
-236.7934997615346
 11
-222.3773033369588
 21
-236.7934997615346
 97
       12
330
148
330
147
330
146
330
12E
330
12F
330
145
330
130
330
144
330
143
330
142
330
12C
330
12D
 75
     1
 76
     0
 52
45.0
 41
0.1
 77
     0
 78
     1
 53
45.0
 43
0.0
 44
0.0
 45
-0.0707106781186548
 46
0.0707106781186548
 79
     0
 98
        1
 10
0.0
 20
0.0
  0
HATCH
  5
231
330
71
100
AcDbEntity
  8
1
  6
Continuous
 62
     2
100
AcDbHatch
 10
0.0
 20
0.0
 30
0.0
210
0.0
220
0.0
230
1.0
  2
_USER
 70
     0
 71
     1
 91
        1
 92
        1
 93
       12
 72
     1
 10
-222.3773033369588
 20
-236.7934997615346
 11
-222.3773033369588
 21
-239.8473092853458
 72
     1
 10
-222.3773033369588
 20
-239.8473092853458
 11
-223.5700960391252
 21
-239.8473092853458
 72
     1
 10
-223.5700960391252
 20
-239.8473092853458
 11
-223.5700960391252
 21
-238.713037176502
 72
     1
 10
-223.5700960391252
 20
-238.713037176502
 11
-224.6197536170326
 21
-238.713037176502
 72
     1
 10
-224.6197536170326
 20
-238.713037176502
 11
-224.6197536170326
 21
-239.8473092853458
 72
     1
 10
-224.6197536170326
 20
-239.8473092853458
 11
-225.8125463191992
 21
-239.8473092853458
 72
     1
 10
-225.8125463191992
 20
-239.8473092853458
 11
-225.8125463191992
 21
-236.7934997615346
 72
     1
 10
-225.8125463191992
 20
-236.7934997615346
 11
-224.6197536170326
 21
-236.7934997615346
 72
     1
 10
-224.6197536170326
 20
-236.7934997615346
 11
-224.6197536170326
 21
-237.8623330948692
 72
     1
 10
-224.6197536170326
 20
-237.8623330948692
 11
-223.5700960391252
 21
-237.8623330948692
 72
     1
 10
-223.5700960391252
 20
-237.8623330948692
 11
-223.5700960391252
 21
-236.7934997615346
 72
     1
 10
-223.5700960391252
 20
-236.7934997615346
 11
-222.3773033369588
 21
-236.7934997615346
 97
       12
330
148
330
147
330
146
330
12E
330
12F
330
145
330
130
330
144
330
143
330
142
330
12C
330
12D
 75
     1
 76
     0
 52
45.0
 41
0.1
 77
     0
 78
     1
 53
45.0
 43
0.0
 44
0.0
 45
-0.0707106781186548
 46
0.0707106781186548
 79
     0
 98
        1
 10
0.0
 20
0.0
  0
ENDBLK
  5
73
330
71
100
AcDbEntity
  8
0
100
AcDbBlockEnd
  0
BLOCK
  5
75
330
74
100
AcDbEntity
  8
0
100
AcDbBlockBegin
  2
_punkt
 70
     0
 10
-110.4999995231699
 20
-250.4999997615364
 30
0.0
  3
_punkt
  1

  0
LINE
  5
232
330
74
100
AcDbEntity
  8
1
  6
Continuous
 62
     2
100
AcDbLine
 10
-110.4999995231699
 20
-250.4999997615364
 30
0.0
 11
-110.4999995231699
 21
-255.4999997615365
 31
0.0
  0
LINE
  5
233
330
74
100
AcDbEntity
  8
1
  6
Continuous
 62
     2
100
AcDbLine
 10
-110.4999995231699
 20
-250.4999997615364
 30
0.0
 11
-105.4999995231709
 21
-250.4999997615364
 31
0.0
  0
ENDBLK
  5
76
330
74
100
AcDbEntity
  8
0
100
AcDbBlockEnd
  0
BLOCK
  5
7A
330
77
100
AcDbEntity
  8
0
100
AcDbBlockBegin
  2
A4I_CS
 70
     0
 10
-110.4999995231699
 20
-255.4999997615365
 30
0.0
  3
A4I_CS
  1

  0
INSERT
  5
78
330
77
100
AcDbEntity
  8
1
100
AcDbBlockReference
  2
_rahmen
 10
-110.4999995231699
 20
-255.4999997615365
 30
0.0
  0
INSERT
  5
79
330
77
100
AcDbEntity
  8
1
100
AcDbBlockReference
  2
_punkt
 10
-110.4999995231699
 20
-250.4999997615364
 30
0.0
  0
ENDBLK
  5
7B
330
77
100
AcDbEntity
  8
0
100
AcDbBlockEnd
  0
BLOCK
  5
84
330
7C
100
AcDbEntity
  8
0
100
AcDbBlockBegin
  2
1
 70
     0
 10
0.0
 20
0.0
 30
0.0
  3
1
  1

  0
INSERT
  5
7D
330
7C
100
AcDbEntity
  8
0
100
AcDbBlockReference
  2
Allg1
 10
-176.9999999999851
 20
-174.00000227711
 30
0.0
 41
5.0
 42
5.0
 43
5.0
  0
INSERT
  5
7E
330
7C
100
AcDbEntity
  8
0
100
AcDbBlockReference
  2
Drfsicht1
 10
-280.2499995231778
 20
-161.99999999998
 30
0.0
 41
5.0
 42
5.0
 43
5.0
  0
INSERT
  5
7F
330
7C
100
AcDbEntity
  8
0
100
AcDbBlockReference
  2
Rckans1
 10
-164.7499999999991
 20
-109.7499928677992
 30
0.0
 41
5.0
 42
5.0
 43
5.0
  0
INSERT
  5
80
330
7C
100
AcDbEntity
  8
0
100
AcDbBlockReference
  2
SA_Links1
 10
-222.4999997616134
 20
-109.7499928677993
 30
0.0
 41
5.0
 42
5.0
 43
5.0
  0
INSERT
  5
81
330
7C
100
AcDbEntity
  8
0
100
AcDbBlockReference
  2
SA_Rechts1
 10
-349.9999992847424
 20
-109.7499928677992
 30
0.0
 41
5.0
 42
5.0
 43
5.0
  0
INSERT
  5
82
330
7C
100
AcDbEntity
  8
0
100
AcDbBlockReference
  2
Vordans1
 10
-280.2499995231779
 20
-109.7499928677992
 30
0.0
 41
5.0
 42
5.0
 43
5.0
  0
INSERT
  5
83
330
7C
100
AcDbEntity
  8
0
100
AcDbBlockReference
  2
A4I_CS
 10
-110.4999995231699
 20
-255.4999997615365
 30
0.0
  0
ENDBLK
  5
85
330
7C
100
AcDbEntity
  8
0
100
AcDbBlockEnd
  0
BLOCK
  5
B0
330
A9
100
AcDbEntity
  8
0
100
AcDbBlockBegin
  2
*D17
 70
     1
 10
0.0
 20
0.0
 30
0.0
  3
*D17
  1

  0
LINE
  5
AA
330
A9
100
AcDbEntity
  8
1
  6
Continuous
 62
     2
100
AcDbLine
 10
-63.4975721451832
 20
-30.09999995230728
 30
0.0
 11
-63.4975721451832
 21
-34.69999995230727
 31
0.0
  0
LINE
  5
AB
330
A9
100
AcDbEntity
  8
1
  6
Continuous
 62
     2
100
AcDbLine
 10
-61.29999990463398
 20
-30.09999995230728
 30
0.0
 11
-63.7975721451832
 21
-30.09999995230728
 31
0.0
  0
LINE
  5
AC
330
A9
100
AcDbEntity
  8
1
  6
Continuous
 62
     2
100
AcDbLine
 10
-61.29999990463398
 20
-34.69999995230727
 30
0.0
 11
-63.7975721451832
 21
-34.69999995230727
 31
0.0
  0
SOLID
  5
AD
330
A9
100
AcDbEntity
  8
1
 62
     2
100
AcDbTrace
 10
-63.40541539687202
 20
-30.79999995230728
 30
0.0
 11
-63.58972889349437
 21
-30.79999995230728
 31
0.0
 12
-63.4975721451832
 22
-30.09999995230728
 32
0.0
 13
-63.4975721451832
 23
-30.09999995230728
 33
0.0
  0
SOLID
  5
AE
330
A9
100
AcDbEntity
  8
1
 62
     2
100
AcDbTrace
 10
-63.58972889349437
 20
-33.99999995230727
 30
0.0
 11
-63.40541539687202
 21
-33.99999995230727
 31
0.0
 12
-63.4975721451832
 22
-34.69999995230727
 32
0.0
 13
-63.4975721451832
 23
-34.69999995230727
 33
0.0
  0
MTEXT
  5
AF
330
A9
100
AcDbEntity
  8
1
 62
     3
100
AcDbMText
 10
-63.8675721451832
 20
-32.9708983811044
 30
0.0
 40
0.7
 41
0.0
 71
     7
 72
     1
  1
4,6
  7
CONVERTER_11
 11
0.0
 21
1.0
 31
0.0
 73
     1
 44
0.60024009603842
  0
ENDBLK
  5
B1
330
A9
100
AcDbEntity
  8
0
100
AcDbBlockEnd
  0
BLOCK
  5
ED
330
E6
100
AcDbEntity
  8
0
100
AcDbBlockBegin
  2
*D18
 70
     1
 10
0.0
 20
0.0
 30
0.0
  3
*D18
  1

  0
LINE
  5
E7
330
E6
100
AcDbEntity
  8
1
  6
Continuous
 62
     2
100
AcDbLine
 10
-50.79999990463472
 20
-26.29262852489741
 30
0.0
 11
-61.29999990463472
 21
-26.29262852489741
 31
0.0
  0
LINE
  5
E8
330
E6
100
AcDbEntity
  8
1
  6
Continuous
 62
     2
100
AcDbLine
 10
-50.79999990463472
 20
-20.80000009944266
 30
0.0
 11
-50.79999990463472
 21
-26.59262852489741
 31
0.0
  0
LINE
  5
E9
330
E6
100
AcDbEntity
  8
1
  6
Continuous
 62
     2
100
AcDbLine
 10
-61.29999990463472
 20
-20.80000009943487
 30
0.0
 11
-61.29999990463472
 21
-26.59262852489741
 31
0.0
  0
SOLID
  5
EA
330
E6
100
AcDbEntity
  8
1
 62
     2
100
AcDbTrace
 10
-51.49999990463473
 20
-26.38478527320859
 30
0.0
 11
-51.49999990463473
 21
-26.20047177658623
 31
0.0
 12
-50.79999990463472
 22
-26.29262852489741
 32
0.0
 13
-50.79999990463472
 23
-26.29262852489741
 33
0.0
  0
SOLID
  5
EB
330
E6
100
AcDbEntity
  8
1
 62
     2
100
AcDbTrace
 10
-60.59999990463472
 20
-26.20047177658623
 30
0.0
 11
-60.59999990463472
 21
-26.38478527320859
 31
0.0
 12
-61.29999990463472
 22
-26.29262852489741
 32
0.0
 13
-61.29999990463472
 23
-26.29262852489741
 33
0.0
  0
MTEXT
  5
EC
330
E6
100
AcDbEntity
  8
1
 62
     3
100
AcDbMText
 10
-56.90749990463557
 20
-25.92262852489741
 30
0.0
 40
0.7
 41
0.0
 71
     7
 72
     1
  1
10,5
  7
CONVERTER_11
 11
0.9999999999970619
 21
2.424068405545306E-6
 31
0.0
 73
     1
 44
0.60024009603842
  0
ENDBLK
  5
EE
330
E6
100
AcDbEntity
  8
0
100
AcDbBlockEnd
  0
BLOCK
  5
F8
330
F1
100
AcDbEntity
  8
0
100
AcDbBlockBegin
  2
*D19
 70
     1
 10
0.0
 20
0.0
 30
0.0
  3
*D19
  1

  0
LINE
  5
F2
330
F1
100
AcDbEntity
  8
1
  6
Continuous
 62
     2
100
AcDbLine
 10
-63.29999990463399
 20
-24.10000009943668
 30
0.0
 11
-63.29999990463399
 21
-19.80000009943486
 31
0.0
  0
LINE
  5
F3
330
F1
100
AcDbEntity
  8
1
  6
Continuous
 62
     2
100
AcDbLine
 10
-58.8499999046368
 20
-24.10000009943668
 30
0.0
 11
-63.59999990463398
 21
-24.10000009943668
 31
0.0
  0
LINE
  5
F4
330
F1
100
AcDbEntity
  8
1
  6
Continuous
 62
     2
100
AcDbLine
 10
-61.29999990463399
 20
-19.80000009943486
 30
0.0
 11
-63.59999990463398
 21
-19.80000009943486
 31
0.0
  0
SOLID
  5
F5
330
F1
100
AcDbEntity
  8
1
 62
     2
100
AcDbTrace
 10
-63.39215665294516
 20
-23.40000009943668
 30
0.0
 11
-63.20784315632281
 21
-23.40000009943668
 31
0.0
 12
-63.29999990463399
 22
-24.10000009943668
 32
0.0
 13
-63.29999990463399
 23
-24.10000009943668
 33
0.0
  0
SOLID
  5
F6
330
F1
100
AcDbEntity
  8
1
 62
     2
100
AcDbTrace
 10
-63.20784315632281
 20
-20.50000009943486
 30
0.0
 11
-63.39215665294516
 21
-20.50000009943486
 31
0.0
 12
-63.29999990463399
 22
-19.80000009943486
 32
0.0
 13
-63.29999990463399
 23
-19.80000009943486
 33
0.0
  0
MTEXT
  5
F7
330
F1
100
AcDbEntity
  8
1
 62
     3
100
AcDbMText
 10
-63.66999990463399
 20
-22.0407321287178
 30
0.0
 40
0.7
 41
0.0
 71
     7
 72
     1
  1
4,3
  7
CONVERTER_11
 11
0.0
 21
1.0
 31
0.0
 73
     1
 44
0.60024009603842
  0
ENDBLK
  5
F9
330
F1
100
AcDbEntity
  8
0
100
AcDbBlockEnd
  0
ENDSEC
  0
SECTION
  2
ENTITIES
  0
INSERT
  5
86
330
1F
100
AcDbEntity
  8
1
100
AcDbBlockReference
  2
1
 10
0.0
 20
0.0
 30
0.0
  0
ENDSEC
  0
SECTION
  2
OBJECTS
  0
DICTIONARY
  5
C
330
0
100
AcDbDictionary
281
     1
  3
ACAD_GROUP
350
D
  3
ACAD_LAYOUT
350
1A
  3
ACAD_MATERIAL
350
3B
  3
ACAD_MLEADERSTYLE
350
25B
  3
ACAD_MLINESTYLE
350
17
  3
ACAD_PLOTSETTINGS
350
19
  3
ACAD_PLOTSTYLENAME
350
E
  3
ACAD_TABLESTYLE
350
25A
  3
ACAD_VISUALSTYLE
350
2A
  0
DICTIONARY
  5
D
102
{ACAD_REACTORS
330
C
102
}
330
C
100
AcDbDictionary
281
     1
  0
DICTIONARY
  5
1A
102
{ACAD_REACTORS
330
C
102
}
330
C
100
AcDbDictionary
281
     1
  3
Layout1
350
1E
  3
Layout2
350
26
  3
Model
350
22
  0
DICTIONARY
  5
3B
102
{ACAD_REACTORS
330
C
102
}
330
C
100
AcDbDictionary
281
     1
  3
ByBlock
350
3D
  3
ByLayer
350
3C
  3
Global
350
3E
  0
DICTIONARY
  5
25B
102
{ACAD_REACTORS
330
C
102
}
330
C
100
AcDbDictionary
281
     1
  0
DICTIONARY
  5
17
102
{ACAD_REACTORS
330
C
102
}
330
C
100
AcDbDictionary
281
     1
  3
Standard
350
18
  0
DICTIONARY
  5
19
102
{ACAD_REACTORS
330
C
102
}
330
C
100
AcDbDictionary
281
     1
  0
ACDBDICTIONARYWDFLT
  5
E
102
{ACAD_REACTORS
330
C
102
}
330
C
100
AcDbDictionary
281
     1
  3
Normal
350
F
100
AcDbDictionaryWithDefault
340
F
  0
DICTIONARY
  5
25A
102
{ACAD_REACTORS
330
C
102
}
330
C
100
AcDbDictionary
281
     1
  0
DICTIONARY
  5
2A
102
{ACAD_REACTORS
330
C
102
}
330
C
100
AcDbDictionary
281
     1
  3
2dWireframe
350
2F
  3
3D Hidden
350
31
  3
3dWireframe
350
30
  3
Basic
350
32
  3
Brighten
350
36
  3
ColorChange
350
3A
  3
Conceptual
350
34
  3
Dim
350
35
  3
Facepattern
350
39
  3
Flat
350
2B
  3
FlatWithEdges
350
2C
  3
Gouraud
350
2D
  3
GouraudWithEdges
350
2E
  3
Linepattern
350
38
  3
Realistic
350
33
  3
Thicken
350
37
  0
LAYOUT
  5
1E
102
{ACAD_REACTORS
330
1A
102
}
330
1A
100
AcDbPlotSettings
  1

  2
none_device
  4

  6

 40
0.0
 41
0.0
 42
0.0
 43
0.0
 44
0.0
 45
0.0
 46
0.0
 47
0.0
 48
0.0
 49
0.0
140
0.0
141
0.0
142
1.0
143
1.0
 70
   688
 72
     0
 73
     0
 74
     5
  7

 75
    16
 76
     0
 77
     2
 78
   300
147
1.0
148
0.0
149
0.0
100
AcDbLayout
  1
Layout1
 70
     1
 71
     1
 10
0.0
 20
0.0
 11
12.0
 21
9.0
 12
0.0
 22
0.0
 32
0.0
 14
1.00000000000000E+20
 24
1.00000000000000E+20
 34
1.00000000000000E+20
 15
-1.00000000000000E+20
 25
-1.00000000000000E+20
 35
-1.00000000000000E+20
146
0.0
 13
0.0
 23
0.0
 33
0.0
 16
1.0
 26
0.0
 36
0.0
 17
0.0
 27
1.0
 37
0.0
 76
     0
330
1B
  0
LAYOUT
  5
26
102
{ACAD_REACTORS
330
1A
102
}
330
1A
100
AcDbPlotSettings
  1

  2
none_device
  4

  6

 40
0.0
 41
0.0
 42
0.0
 43
0.0
 44
0.0
 45
0.0
 46
0.0
 47
0.0
 48
0.0
 49
0.0
140
0.0
141
0.0
142
1.0
143
1.0
 70
   688
 72
     0
 73
     0
 74
     5
  7

 75
    16
 76
     0
 77
     2
 78
   300
147
1.0
148
0.0
149
0.0
100
AcDbLayout
  1
Layout2
 70
     1
 71
     2
 10
0.0
 20
0.0
 11
0.0
 21
0.0
 12
0.0
 22
0.0
 32
0.0
 14
0.0
 24
0.0
 34
0.0
 15
0.0
 25
0.0
 35
0.0
146
0.0
 13
0.0
 23
0.0
 33
0.0
 16
1.0
 26
0.0
 36
0.0
 17
0.0
 27
1.0
 37
0.0
 76
     0
330
23
  0
LAYOUT
  5
22
102
{ACAD_REACTORS
330
1A
102
}
330
1A
100
AcDbPlotSettings
  1

  2
none_device
  4

  6

 40
0.0
 41
0.0
 42
0.0
 43
0.0
 44
0.0
 45
0.0
 46
0.0
 47
0.0
 48
0.0
 49
0.0
140
0.0
141
0.0
142
1.0
143
1.0
 70
  1712
 72
     0
 73
     0
 74
     0
  7

 75
     0
 76
     0
 77
     2
 78
   300
147
1.0
148
0.0
149
0.0
100
AcDbLayout
  1
Model
 70
     1
 71
     0
 10
0.0
 20
0.0
 11
12.0
 21
9.0
 12
0.0
 22
0.0
 32
0.0
 14
-402.4999995231689
 24
-255.4999997615365
 34
0.0
 15
-105.4999995231709
 25
-45.49999976153637
 35
0.0
146
0.0
 13
0.0
 23
0.0
 33
0.0
 16
1.0
 26
0.0
 36
0.0
 17
0.0
 27
1.0
 37
0.0
 76
     0
330
1F
331
29
  0
MATERIAL
  5
3D
102
{ACAD_REACTORS
330
3B
102
}
102
{ACAD_XDICTIONARY
360
256
102
}
330
3B
100
AcDbMaterial
  1
ByBlock
  0
MATERIAL
  5
3C
102
{ACAD_REACTORS
330
3B
102
}
102
{ACAD_XDICTIONARY
360
254
102
}
330
3B
100
AcDbMaterial
  1
ByLayer
  0
MATERIAL
  5
3E
102
{ACAD_REACTORS
330
3B
102
}
102
{ACAD_XDICTIONARY
360
258
102
}
330
3B
100
AcDbMaterial
  1
Global
  0
MLINESTYLE
  5
18
102
{ACAD_REACTORS
330
17
102
}
330
17
100
AcDbMlineStyle
  2
Standard
 70
     0
  3

 62
   256
 51
90.0
 52
90.0
 71
     2
 49
0.5
 62
   256
  6
BYLAYER
 49
-0.5
 62
   256
  6
BYLAYER
  0
ACDBPLACEHOLDER
  5
F
102
{ACAD_REACTORS
330
E
102
}
330
E
  0
VISUALSTYLE
  5
2F
102
{ACAD_REACTORS
330
2A
102
}
102
{ACAD_XDICTIONARY
360
23C
102
}
330
2A
100
AcDbVisualStyle
  2
2dWireframe
 70
     4
 71
     0
 72
     2
 73
     0
 90
        0
 40
-0.6
 41
-30.0
 62
     5
 63
     7
421
 16777215
 74
     1
 91
        4
 64
     7
 65
   257
 75
     1
175
     1
 42
1.0
 92
        0
 66
   257
 43
1.0
 76
     1
 77
     6
 78
     2
 67
     7
 79
     5
170
     0
171
     0
290
     0
174
     0
 93
        1
 44
0.0
173
     0
291
     0
 45
0.0
1001
ACAD
1000
AcDbSavedByObjectVersion
1070
     0
  0
VISUALSTYLE
  5
31
102
{ACAD_REACTORS
330
2A
102
}
102
{ACAD_XDICTIONARY
360
240
102
}
330
2A
100
AcDbVisualStyle
  2
3D Hidden
 70
     6
 71
     1
 72
     2
 73
     2
 90
        0
 40
-0.6
 41
-30.0
 62
     5
 63
     7
421
 16777215
 74
     2
 91
        2
 64
     7
 65
   257
 75
     2
175
     1
 42
40.0
 92
        0
 66
   257
 43
1.0
 76
     1
 77
     6
 78
     2
 67
     7
 79
     3
170
     0
171
     0
290
     0
174
     0
 93
        1
 44
0.0
173
     0
291
     0
 45
0.0
1001
ACAD
1000
AcDbSavedByObjectVersion
1070
     0
  0
VISUALSTYLE
  5
30
102
{ACAD_REACTORS
330
2A
102
}
102
{ACAD_XDICTIONARY
360
23E
102
}
330
2A
100
AcDbVisualStyle
  2
3dWireframe
 70
     5
 71
     0
 72
     2
 73
     0
 90
        0
 40
-0.6
 41
-30.0
 62
     5
 63
     7
421
 16777215
 74
     1
 91
        4
 64
     7
 65
   257
 75
     1
175
     1
 42
1.0
 92
        0
 66
   257
 43
1.0
 76
     1
 77
     6
 78
     2
 67
     7
 79
     5
170
     0
171
     0
290
     0
174
     0
 93
        1
 44
0.0
173
     0
291
     0
 45
0.0
1001
ACAD
1000
AcDbSavedByObjectVersion
1070
     0
  0
VISUALSTYLE
  5
32
102
{ACAD_REACTORS
330
2A
102
}
102
{ACAD_XDICTIONARY
360
242
102
}
330
2A
100
AcDbVisualStyle
  2
Basic
 70
     7
 71
     1
 72
     0
 73
     1
 90
        0
 40
-0.6
 41
-30.0
 62
     5
 63
     7
421
 16777215
 74
     0
 91
        4
 64
     7
 65
   257
 75
     1
175
     1
 42
1.0
 92
        8
 66
     7
 43
1.0
 76
     1
 77
     6
 78
     2
 67
     7
 79
     5
170
     0
171
     0
290
     0
174
     0
 93
        1
 44
0.0
173
     0
291
     1
 45
0.0
1001
ACAD
1000
AcDbSavedByObjectVersion
1070
     0
  0
VISUALSTYLE
  5
36
102
{ACAD_REACTORS
330
2A
102
}
102
{ACAD_XDICTIONARY
360
24A
102
}
330
2A
100
AcDbVisualStyle
  2
Brighten
 70
    12
 71
     2
 72
     2
 73
     0
 90
        0
 40
-0.6
 41
-30.0
 62
     5
 63
     7
421
 16777215
 74
     1
 91
        4
 64
     7
 65
   257
 75
     1
175
     1
 42
1.0
 92
        8
 66
     7
 43
1.0
 76
     1
 77
     6
 78
     2
 67
     7
 79
     5
170
     0
171
     0
290
     0
174
     0
 93
        1
 44
50.0
173
     0
291
     1
 45
0.0
1001
ACAD
1000
AcDbSavedByObjectVersion
1070
     0
  0
VISUALSTYLE
  5
3A
102
{ACAD_REACTORS
330
2A
102
}
102
{ACAD_XDICTIONARY
360
252
102
}
330
2A
100
AcDbVisualStyle
  2
ColorChange
 70
    16
 71
     2
 72
     2
 73
     3
 90
        0
 40
-0.6
 41
-30.0
 62
     5
 63
     8
421
  8421504
 74
     1
 91
        4
 64
     7
 65
   257
 75
     1
175
     1
 42
1.0
 92
        8
 66
     8
424
  8421504
 43
1.0
 76
     1
 77
     6
 78
     2
 67
     7
 79
     5
170
     0
171
     0
290
     0
174
     0
 93
        1
 44
0.0
173
     0
291
     1
 45
0.0
1001
ACAD
1000
AcDbSavedByObjectVersion
1070
     0
  0
VISUALSTYLE
  5
34
102
{ACAD_REACTORS
330
2A
102
}
102
{ACAD_XDICTIONARY
360
246
102
}
330
2A
100
AcDbVisualStyle
  2
Conceptual
 70
     9
 71
     3
 72
     2
 73
     0
 90
        0
 40
-0.6
 41
-30.0
 62
     5
 63
     7
421
 16777215
 74
     2
 91
        2
 64
     7
 65
   257
 75
     1
175
     1
 42
40.0
 92
        8
 66
     7
 43
1.0
 76
     1
 77
     6
 78
     2
 67
     7
 79
     3
170
     0
171
     0
290
     0
174
     0
 93
        1
 44
0.0
173
     0
291
     0
 45
0.0
1001
ACAD
1000
AcDbSavedByObjectVersion
1070
     0
  0
VISUALSTYLE
  5
35
102
{ACAD_REACTORS
330
2A
102
}
102
{ACAD_XDICTIONARY
360
248
102
}
330
2A
100
AcDbVisualStyle
  2
Dim
 70
    11
 71
     2
 72
     2
 73
     0
 90
        0
 40
-0.6
 41
-30.0
 62
     5
 63
     7
421
 16777215
 74
     1
 91
        4
 64
     7
 65
   257
 75
     1
175
     1
 42
1.0
 92
        8
 66
     7
 43
1.0
 76
     1
 77
     6
 78
     2
 67
     7
 79
     5
170
     0
171
     0
290
     0
174
     0
 93
        1
 44
-50.0
173
     0
291
     1
 45
0.0
1001
ACAD
1000
AcDbSavedByObjectVersion
1070
     0
  0
VISUALSTYLE
  5
39
102
{ACAD_REACTORS
330
2A
102
}
102
{ACAD_XDICTIONARY
360
250
102
}
330
2A
100
AcDbVisualStyle
  2
Facepattern
 70
    15
 71
     2
 72
     2
 73
     0
 90
        0
 40
-0.6
 41
-30.0
 62
     5
 63
     7
421
 16777215
 74
     1
 91
        4
 64
     7
 65
   257
 75
     1
175
     1
 42
1.0
 92
        8
 66
     7
 43
1.0
 76
     1
 77
     6
 78
     2
 67
     7
 79
     5
170
     0
171
     0
290
     0
174
     0
 93
        1
 44
0.0
173
     0
291
     1
 45
0.0
1001
ACAD
1000
AcDbSavedByObjectVersion
1070
     0
  0
VISUALSTYLE
  5
2B
102
{ACAD_REACTORS
330
2A
102
}
102
{ACAD_XDICTIONARY
360
234
102
}
330
2A
100
AcDbVisualStyle
  2
Flat
 70
     0
 71
     2
 72
     1
 73
     1
 90
        2
 40
-0.6
 41
30.0
 62
     5
 63
     7
421
 16777215
 74
     0
 91
        4
 64
     7
 65
   257
 75
     1
175
     1
 42
1.0
 92
        8
 66
     7
 43
1.0
 76
     1
 77
     6
 78
     2
 67
     7
 79
     5
170
     0
171
     0
290
     0
174
     0
 93
       13
 44
0.0
173
     0
291
     1
 45
0.0
1001
ACAD
1000
AcDbSavedByObjectVersion
1070
     0
  0
VISUALSTYLE
  5
2C
102
{ACAD_REACTORS
330
2A
102
}
102
{ACAD_XDICTIONARY
360
236
102
}
330
2A
100
AcDbVisualStyle
  2
FlatWithEdges
 70
     1
 71
     2
 72
     1
 73
     1
 90
        2
 40
-0.6
 41
30.0
 62
     5
 63
     7
421
 16777215
 74
     1
 91
        4
 64
     7
 65
   257
 75
     1
175
     1
 42
1.0
 92
        0
 66
   257
 43
1.0
 76
     1
 77
     6
 78
     2
 67
     7
 79
     5
170
     0
171
     0
290
     0
174
     0
 93
       13
 44
0.0
173
     0
291
     1
 45
0.0
1001
ACAD
1000
AcDbSavedByObjectVersion
1070
     0
  0
VISUALSTYLE
  5
2D
102
{ACAD_REACTORS
330
2A
102
}
102
{ACAD_XDICTIONARY
360
238
102
}
330
2A
100
AcDbVisualStyle
  2
Gouraud
 70
     2
 71
     2
 72
     2
 73
     1
 90
        2
 40
-0.6
 41
30.0
 62
     5
 63
     7
421
 16777215
 74
     0
 91
        4
 64
     7
 65
   257
 75
     1
175
     1
 42
1.0
 92
        0
 66
     7
 43
1.0
 76
     1
 77
     6
 78
     2
 67
     7
 79
     5
170
     0
171
     0
290
     0
174
     0
 93
       13
 44
0.0
173
     0
291
     1
 45
0.0
1001
ACAD
1000
AcDbSavedByObjectVersion
1070
     0
  0
VISUALSTYLE
  5
2E
102
{ACAD_REACTORS
330
2A
102
}
102
{ACAD_XDICTIONARY
360
23A
102
}
330
2A
100
AcDbVisualStyle
  2
GouraudWithEdges
 70
     3
 71
     2
 72
     2
 73
     1
 90
        2
 40
-0.6
 41
30.0
 62
     5
 63
     7
421
 16777215
 74
     1
 91
        4
 64
     7
 65
   257
 75
     1
175
     1
 42
1.0
 92
        0
 66
   257
 43
1.0
 76
     1
 77
     6
 78
     2
 67
     7
 79
     5
170
     0
171
     0
290
     0
174
     0
 93
       13
 44
0.0
173
     0
291
     1
 45
0.0
1001
ACAD
1000
AcDbSavedByObjectVersion
1070
     0
  0
VISUALSTYLE
  5
38
102
{ACAD_REACTORS
330
2A
102
}
102
{ACAD_XDICTIONARY
360
24E
102
}
330
2A
100
AcDbVisualStyle
  2
Linepattern
 70
    14
 71
     2
 72
     2
 73
     0
 90
        0
 40
-0.6
 41
-30.0
 62
     5
 63
     7
421
 16777215
 74
     1
 91
        4
 64
     7
 65
   257
 75
     7
175
     7
 42
1.0
 92
        8
 66
     7
 43
1.0
 76
     1
 77
     6
 78
     2
 67
     7
 79
     5
170
     0
171
     0
290
     0
174
     0
 93
        1
 44
0.0
173
     0
291
     1
 45
0.0
1001
ACAD
1000
AcDbSavedByObjectVersion
1070
     0
  0
VISUALSTYLE
  5
33
102
{ACAD_REACTORS
330
2A
102
}
102
{ACAD_XDICTIONARY
360
244
102
}
330
2A
100
AcDbVisualStyle
  2
Realistic
 70
     8
 71
     2
 72
     2
 73
     0
 90
        0
 40
-0.6
 41
-30.0
 62
     5
 63
     7
421
 16777215
 74
     1
 91
        0
 64
     7
 65
   257
 75
     1
175
     1
 42
1.0
 92
        8
 66
     8
424
  7895160
 43
1.0
 76
     1
 77
     6
 78
     2
 67
     7
 79
     5
170
     0
171
     0
290
     0
174
     0
 93
       13
 44
0.0
173
     0
291
     0
 45
0.0
1001
ACAD
1000
AcDbSavedByObjectVersion
1070
     0
  0
VISUALSTYLE
  5
37
102
{ACAD_REACTORS
330
2A
102
}
102
{ACAD_XDICTIONARY
360
24C
102
}
330
2A
100
AcDbVisualStyle
  2
Thicken
 70
    13
 71
     2
 72
     2
 73
     0
 90
        0
 40
-0.6
 41
-30.0
 62
     5
 63
     7
421
 16777215
 74
     1
 91
        4
 64
     7
 65
   257
 75
     1
175
     1
 42
1.0
 92
       12
 66
     7
 43
1.0
 76
     1
 77
     6
 78
     2
 67
     7
 79
     5
170
     0
171
     0
290
     0
174
     0
 93
        1
 44
0.0
173
     0
291
     1
 45
0.0
1001
ACAD
1000
AcDbSavedByObjectVersion
1070
     0
  0
DICTIONARY
  5
256
330
3D
100
AcDbDictionary
280
     1
281
     1
  3
ACAD_XREC_ROUNDTRIP
360
257
  0
DICTIONARY
  5
254
330
3C
100
AcDbDictionary
280
     1
281
     1
  3
ACAD_XREC_ROUNDTRIP
360
255
  0
DICTIONARY
  5
258
330
3E
100
AcDbDictionary
280
     1
281
     1
  3
ACAD_XREC_ROUNDTRIP
360
259
  0
DICTIONARY
  5
23C
330
2F
100
AcDbDictionary
280
     1
281
     1
  3
ACAD_XREC_ROUNDTRIP
360
23D
  0
DICTIONARY
  5
240
330
31
100
AcDbDictionary
280
     1
281
     1
  3
ACAD_XREC_ROUNDTRIP
360
241
  0
DICTIONARY
  5
23E
330
30
100
AcDbDictionary
280
     1
281
     1
  3
ACAD_XREC_ROUNDTRIP
360
23F
  0
DICTIONARY
  5
242
330
32
100
AcDbDictionary
280
     1
281
     1
  3
ACAD_XREC_ROUNDTRIP
360
243
  0
DICTIONARY
  5
24A
330
36
100
AcDbDictionary
280
     1
281
     1
  3
ACAD_XREC_ROUNDTRIP
360
24B
  0
DICTIONARY
  5
252
330
3A
100
AcDbDictionary
280
     1
281
     1
  3
ACAD_XREC_ROUNDTRIP
360
253
  0
DICTIONARY
  5
246
330
34
100
AcDbDictionary
280
     1
281
     1
  3
ACAD_XREC_ROUNDTRIP
360
247
  0
DICTIONARY
  5
248
330
35
100
AcDbDictionary
280
     1
281
     1
  3
ACAD_XREC_ROUNDTRIP
360
249
  0
DICTIONARY
  5
250
330
39
100
AcDbDictionary
280
     1
281
     1
  3
ACAD_XREC_ROUNDTRIP
360
251
  0
DICTIONARY
  5
234
330
2B
100
AcDbDictionary
280
     1
281
     1
  3
ACAD_XREC_ROUNDTRIP
360
235
  0
DICTIONARY
  5
236
330
2C
100
AcDbDictionary
280
     1
281
     1
  3
ACAD_XREC_ROUNDTRIP
360
237
  0
DICTIONARY
  5
238
330
2D
100
AcDbDictionary
280
     1
281
     1
  3
ACAD_XREC_ROUNDTRIP
360
239
  0
DICTIONARY
  5
23A
330
2E
100
AcDbDictionary
280
     1
281
     1
  3
ACAD_XREC_ROUNDTRIP
360
23B
  0
DICTIONARY
  5
24E
330
38
100
AcDbDictionary
280
     1
281
     1
  3
ACAD_XREC_ROUNDTRIP
360
24F
  0
DICTIONARY
  5
244
330
33
100
AcDbDictionary
280
     1
281
     1
  3
ACAD_XREC_ROUNDTRIP
360
245
  0
DICTIONARY
  5
24C
330
37
100
AcDbDictionary
280
     1
281
     1
  3
ACAD_XREC_ROUNDTRIP
360
24D
  0
XRECORD
  5
257
102
{ACAD_REACTORS
330
256
102
}
330
256
100
AcDbXrecord
280
     1
102
MATERIAL
148
0.0
149
0.0
149
0.0
 93
        0
 94
      127
282
     0
 72
     1
 77
     1
171
     1
175
     1
179
     1
273
     0
  0
XRECORD
  5
255
102
{ACAD_REACTORS
330
254
102
}
330
254
100
AcDbXrecord
280
     1
102
MATERIAL
148
0.0
149
0.0
149
0.0
 93
        0
 94
      127
282
     0
 72
     1
 77
     1
171
     1
175
     1
179
     1
273
     0
  0
XRECORD
  5
259
102
{ACAD_REACTORS
330
258
102
}
330
258
100
AcDbXrecord
280
     1
102
MATERIAL
148
0.0
149
0.0
149
0.0
 93
        0
 94
      127
282
     0
 72
     1
 77
     1
171
     1
175
     1
179
     1
273
     0
  0
XRECORD
  5
23D
102
{ACAD_REACTORS
330
23C
102
}
330
23C
100
AcDbXrecord
280
     1
102
RTVSPropertyOp0
 70
     1
102
RTVSPropertyOp1
 70
     1
102
RTVSPropertyOp2
 70
     1
102
RTVSPropertyOp3
 70
     1
102
RTVSPropertyOp4
 70
     1
102
RTVSPropertyOp5
 70
     1
102
RTVSPropertyOp6
 70
     1
102
RTVSPropertyOp7
 70
     1
102
RTVSPropertyOp8
 70
     1
102
RTVSPropertyOp9
 70
     1
102
RTVSPropertyOp10
 70
     1
102
RTVSPropertyOp11
 70
     1
102
RTVSPropertyOp12
 70
     1
102
RTVSPropertyOp13
 70
     1
102
RTVSPropertyOp14
 70
     1
102
RTVSPropertyOp15
 70
     1
102
RTVSPropertyOp16
 70
     1
102
RTVSPropertyOp17
 70
     1
102
RTVSPropertyOp18
 70
     1
102
RTVSPropertyOp19
 70
     1
102
RTVSPropertyOp20
 70
     1
102
RTVSPropertyOp21
 70
     1
102
RTVSPropertyOp22
 70
     1
102
RTVSPropertyOp23
 70
     1
102
RTVSPropertyOp24
 70
     1
102
RTVSPropertyOp25
 70
     1
102
RTVSPropertyOp26
 70
     1
102
RTVSPropertyOp27
 70
     1
102
RTVSPropertyOp28
 70
     1
102
RTVSPropertyOp29
 70
     1
102
RTVSPropertyOp30
 70
     1
102
RTVSPropertyOp31
 70
     1
102
RTVSPropertyOp32
 70
     1
  0
XRECORD
  5
241
102
{ACAD_REACTORS
330
240
102
}
330
240
100
AcDbXrecord
280
     1
102
RTVSPropertyOp0
 70
     1
102
RTVSPropertyOp1
 70
     1
102
RTVSPropertyOp2
 70
     1
102
RTVSPropertyOp3
 70
     1
102
RTVSPropertyOp4
 70
     1
102
RTVSPropertyOp5
 70
     1
102
RTVSPropertyOp6
 70
     1
102
RTVSPropertyOp7
 70
     1
102
RTVSPropertyOp8
 70
     1
102
RTVSPropertyOp9
 70
     1
102
RTVSPropertyOp10
 70
     1
102
RTVSPropertyOp11
 70
     1
102
RTVSPropertyOp12
 70
     1
102
RTVSPropertyOp13
 70
     1
102
RTVSPropertyOp14
 70
     1
102
RTVSPropertyOp15
 70
     1
102
RTVSPropertyOp16
 70
     1
102
RTVSPropertyOp17
 70
     1
102
RTVSPropertyOp18
 70
     1
102
RTVSPropertyOp19
 70
     1
102
RTVSPropertyOp20
 70
     1
102
RTVSPropertyOp21
 70
     1
102
RTVSPropertyOp22
 70
     1
102
RTVSPropertyOp23
 70
     1
102
RTVSPropertyOp24
 70
     1
102
RTVSPropertyOp25
 70
     1
102
RTVSPropertyOp26
 70
     1
102
RTVSPropertyOp27
 70
     1
102
RTVSPropertyOp28
 70
     1
102
RTVSPropertyOp29
 70
     1
102
RTVSPropertyOp30
 70
     1
102
RTVSPropertyOp31
 70
     1
102
RTVSPropertyOp32
 70
     1
  0
XRECORD
  5
23F
102
{ACAD_REACTORS
330
23E
102
}
330
23E
100
AcDbXrecord
280
     1
102
RTVSPropertyOp0
 70
     1
102
RTVSPropertyOp1
 70
     1
102
RTVSPropertyOp2
 70
     1
102
RTVSPropertyOp3
 70
     1
102
RTVSPropertyOp4
 70
     1
102
RTVSPropertyOp5
 70
     1
102
RTVSPropertyOp6
 70
     1
102
RTVSPropertyOp7
 70
     1
102
RTVSPropertyOp8
 70
     1
102
RTVSPropertyOp9
 70
     1
102
RTVSPropertyOp10
 70
     1
102
RTVSPropertyOp11
 70
     1
102
RTVSPropertyOp12
 70
     1
102
RTVSPropertyOp13
 70
     1
102
RTVSPropertyOp14
 70
     1
102
RTVSPropertyOp15
 70
     1
102
RTVSPropertyOp16
 70
     1
102
RTVSPropertyOp17
 70
     1
102
RTVSPropertyOp18
 70
     1
102
RTVSPropertyOp19
 70
     1
102
RTVSPropertyOp20
 70
     1
102
RTVSPropertyOp21
 70
     1
102
RTVSPropertyOp22
 70
     1
102
RTVSPropertyOp23
 70
     1
102
RTVSPropertyOp24
 70
     1
102
RTVSPropertyOp25
 70
     1
102
RTVSPropertyOp26
 70
     1
102
RTVSPropertyOp27
 70
     1
102
RTVSPropertyOp28
 70
     1
102
RTVSPropertyOp29
 70
     1
102
RTVSPropertyOp30
 70
     1
102
RTVSPropertyOp31
 70
     1
102
RTVSPropertyOp32
 70
     1
  0
XRECORD
  5
243
102
{ACAD_REACTORS
330
242
102
}
330
242
100
AcDbXrecord
280
     1
102
RTVSPropertyOp0
 70
     1
102
RTVSPropertyOp1
 70
     1
102
RTVSPropertyOp2
 70
     1
102
RTVSPropertyOp3
 70
     1
102
RTVSPropertyOp4
 70
     1
102
RTVSPropertyOp5
 70
     1
102
RTVSPropertyOp6
 70
     1
102
RTVSPropertyOp7
 70
     1
102
RTVSPropertyOp8
 70
     1
102
RTVSPropertyOp9
 70
     1
102
RTVSPropertyOp10
 70
     1
102
RTVSPropertyOp11
 70
     1
102
RTVSPropertyOp12
 70
     1
102
RTVSPropertyOp13
 70
     1
102
RTVSPropertyOp14
 70
     1
102
RTVSPropertyOp15
 70
     1
102
RTVSPropertyOp16
 70
     1
102
RTVSPropertyOp17
 70
     1
102
RTVSPropertyOp18
 70
     1
102
RTVSPropertyOp19
 70
     1
102
RTVSPropertyOp20
 70
     1
102
RTVSPropertyOp21
 70
     1
102
RTVSPropertyOp22
 70
     1
102
RTVSPropertyOp23
 70
     1
102
RTVSPropertyOp24
 70
     1
102
RTVSPropertyOp25
 70
     1
102
RTVSPropertyOp26
 70
     1
102
RTVSPropertyOp27
 70
     1
102
RTVSPropertyOp28
 70
     1
102
RTVSPropertyOp29
 70
     1
102
RTVSPropertyOp30
 70
     1
102
RTVSPropertyOp31
 70
     1
102
RTVSPropertyOp32
 70
     1
  0
XRECORD
  5
24B
102
{ACAD_REACTORS
330
24A
102
}
330
24A
100
AcDbXrecord
280
     1
102
RTVSPropertyOp0
 70
     1
102
RTVSPropertyOp1
 70
     1
102
RTVSPropertyOp2
 70
     1
102
RTVSPropertyOp3
 70
     1
102
RTVSPropertyOp4
 70
     1
102
RTVSPropertyOp5
 70
     1
102
RTVSPropertyOp6
 70
     1
102
RTVSPropertyOp7
 70
     1
102
RTVSPropertyOp8
 70
     1
102
RTVSPropertyOp9
 70
     1
102
RTVSPropertyOp10
 70
     1
102
RTVSPropertyOp11
 70
     1
102
RTVSPropertyOp12
 70
     1
102
RTVSPropertyOp13
 70
     1
102
RTVSPropertyOp14
 70
     1
102
RTVSPropertyOp15
 70
     1
102
RTVSPropertyOp16
 70
     1
102
RTVSPropertyOp17
 70
     1
102
RTVSPropertyOp18
 70
     1
102
RTVSPropertyOp19
 70
     1
102
RTVSPropertyOp20
 70
     1
102
RTVSPropertyOp21
 70
     1
102
RTVSPropertyOp22
 70
     1
102
RTVSPropertyOp23
 70
     1
102
RTVSPropertyOp24
 70
     1
102
RTVSPropertyOp25
 70
     1
102
RTVSPropertyOp26
 70
     1
102
RTVSPropertyOp27
 70
     1
102
RTVSPropertyOp28
 70
     1
102
RTVSPropertyOp29
 70
     1
102
RTVSPropertyOp30
 70
     1
102
RTVSPropertyOp31
 70
     1
102
RTVSPropertyOp32
 70
     1
  0
XRECORD
  5
253
102
{ACAD_REACTORS
330
252
102
}
330
252
100
AcDbXrecord
280
     1
102
RTVSPropertyOp0
 70
     1
102
RTVSPropertyOp1
 70
     1
102
RTVSPropertyOp2
 70
     1
102
RTVSPropertyOp3
 70
     1
102
RTVSPropertyOp4
 70
     1
102
RTVSPropertyOp5
 70
     1
102
RTVSPropertyOp6
 70
     1
102
RTVSPropertyOp7
 70
     1
102
RTVSPropertyOp8
 70
     1
102
RTVSPropertyOp9
 70
     1
102
RTVSPropertyOp10
 70
     1
102
RTVSPropertyOp11
 70
     1
102
RTVSPropertyOp12
 70
     1
102
RTVSPropertyOp13
 70
     1
102
RTVSPropertyOp14
 70
     1
102
RTVSPropertyOp15
 70
     1
102
RTVSPropertyOp16
 70
     1
102
RTVSPropertyOp17
 70
     1
102
RTVSPropertyOp18
 70
     1
102
RTVSPropertyOp19
 70
     1
102
RTVSPropertyOp20
 70
     1
102
RTVSPropertyOp21
 70
     1
102
RTVSPropertyOp22
 70
     1
102
RTVSPropertyOp23
 70
     1
102
RTVSPropertyOp24
 70
     1
102
RTVSPropertyOp25
 70
     1
102
RTVSPropertyOp26
 70
     1
102
RTVSPropertyOp27
 70
     1
102
RTVSPropertyOp28
 70
     1
102
RTVSPropertyOp29
 70
     1
102
RTVSPropertyOp30
 70
     1
102
RTVSPropertyOp31
 70
     1
102
RTVSPropertyOp32
 70
     1
  0
XRECORD
  5
247
102
{ACAD_REACTORS
330
246
102
}
330
246
100
AcDbXrecord
280
     1
102
RTVSPropertyOp0
 70
     1
102
RTVSPropertyOp1
 70
     1
102
RTVSPropertyOp2
 70
     1
102
RTVSPropertyOp3
 70
     1
102
RTVSPropertyOp4
 70
     1
102
RTVSPropertyOp5
 70
     1
102
RTVSPropertyOp6
 70
     1
102
RTVSPropertyOp7
 70
     1
102
RTVSPropertyOp8
 70
     1
102
RTVSPropertyOp9
 70
     1
102
RTVSPropertyOp10
 70
     1
102
RTVSPropertyOp11
 70
     1
102
RTVSPropertyOp12
 70
     1
102
RTVSPropertyOp13
 70
     1
102
RTVSPropertyOp14
 70
     1
102
RTVSPropertyOp15
 70
     1
102
RTVSPropertyOp16
 70
     1
102
RTVSPropertyOp17
 70
     1
102
RTVSPropertyOp18
 70
     1
102
RTVSPropertyOp19
 70
     1
102
RTVSPropertyOp20
 70
     1
102
RTVSPropertyOp21
 70
     1
102
RTVSPropertyOp22
 70
     1
102
RTVSPropertyOp23
 70
     1
102
RTVSPropertyOp24
 70
     1
102
RTVSPropertyOp25
 70
     1
102
RTVSPropertyOp26
 70
     1
102
RTVSPropertyOp27
 70
     1
102
RTVSPropertyOp28
 70
     1
102
RTVSPropertyOp29
 70
     1
102
RTVSPropertyOp30
 70
     1
102
RTVSPropertyOp31
 70
     1
102
RTVSPropertyOp32
 70
     1
  0
XRECORD
  5
249
102
{ACAD_REACTORS
330
248
102
}
330
248
100
AcDbXrecord
280
     1
102
RTVSPropertyOp0
 70
     1
102
RTVSPropertyOp1
 70
     1
102
RTVSPropertyOp2
 70
     1
102
RTVSPropertyOp3
 70
     1
102
RTVSPropertyOp4
 70
     1
102
RTVSPropertyOp5
 70
     1
102
RTVSPropertyOp6
 70
     1
102
RTVSPropertyOp7
 70
     1
102
RTVSPropertyOp8
 70
     1
102
RTVSPropertyOp9
 70
     1
102
RTVSPropertyOp10
 70
     1
102
RTVSPropertyOp11
 70
     1
102
RTVSPropertyOp12
 70
     1
102
RTVSPropertyOp13
 70
     1
102
RTVSPropertyOp14
 70
     1
102
RTVSPropertyOp15
 70
     1
102
RTVSPropertyOp16
 70
     1
102
RTVSPropertyOp17
 70
     1
102
RTVSPropertyOp18
 70
     1
102
RTVSPropertyOp19
 70
     1
102
RTVSPropertyOp20
 70
     1
102
RTVSPropertyOp21
 70
     1
102
RTVSPropertyOp22
 70
     1
102
RTVSPropertyOp23
 70
     1
102
RTVSPropertyOp24
 70
     1
102
RTVSPropertyOp25
 70
     1
102
RTVSPropertyOp26
 70
     1
102
RTVSPropertyOp27
 70
     1
102
RTVSPropertyOp28
 70
     1
102
RTVSPropertyOp29
 70
     1
102
RTVSPropertyOp30
 70
     1
102
RTVSPropertyOp31
 70
     1
102
RTVSPropertyOp32
 70
     1
  0
XRECORD
  5
251
102
{ACAD_REACTORS
330
250
102
}
330
250
100
AcDbXrecord
280
     1
102
RTVSPropertyOp0
 70
     1
102
RTVSPropertyOp1
 70
     1
102
RTVSPropertyOp2
 70
     1
102
RTVSPropertyOp3
 70
     1
102
RTVSPropertyOp4
 70
     1
102
RTVSPropertyOp5
 70
     1
102
RTVSPropertyOp6
 70
     1
102
RTVSPropertyOp7
 70
     1
102
RTVSPropertyOp8
 70
     1
102
RTVSPropertyOp9
 70
     1
102
RTVSPropertyOp10
 70
     1
102
RTVSPropertyOp11
 70
     1
102
RTVSPropertyOp12
 70
     1
102
RTVSPropertyOp13
 70
     1
102
RTVSPropertyOp14
 70
     1
102
RTVSPropertyOp15
 70
     1
102
RTVSPropertyOp16
 70
     1
102
RTVSPropertyOp17
 70
     1
102
RTVSPropertyOp18
 70
     1
102
RTVSPropertyOp19
 70
     1
102
RTVSPropertyOp20
 70
     1
102
RTVSPropertyOp21
 70
     1
102
RTVSPropertyOp22
 70
     1
102
RTVSPropertyOp23
 70
     1
102
RTVSPropertyOp24
 70
     1
102
RTVSPropertyOp25
 70
     1
102
RTVSPropertyOp26
 70
     1
102
RTVSPropertyOp27
 70
     1
102
RTVSPropertyOp28
 70
     1
102
RTVSPropertyOp29
 70
     1
102
RTVSPropertyOp30
 70
     1
102
RTVSPropertyOp31
 70
     1
102
RTVSPropertyOp32
 70
     1
  0
XRECORD
  5
235
102
{ACAD_REACTORS
330
234
102
}
330
234
100
AcDbXrecord
280
     1
102
RTVSPropertyOp0
 70
     1
102
RTVSPropertyOp1
 70
     1
102
RTVSPropertyOp2
 70
     1
102
RTVSPropertyOp3
 70
     1
102
RTVSPropertyOp4
 70
     1
102
RTVSPropertyOp5
 70
     1
102
RTVSPropertyOp6
 70
     1
102
RTVSPropertyOp7
 70
     1
102
RTVSPropertyOp8
 70
     1
102
RTVSPropertyOp9
 70
     1
102
RTVSPropertyOp10
 70
     1
102
RTVSPropertyOp11
 70
     1
102
RTVSPropertyOp12
 70
     1
102
RTVSPropertyOp13
 70
     1
102
RTVSPropertyOp14
 70
     1
102
RTVSPropertyOp15
 70
     1
102
RTVSPropertyOp16
 70
     1
102
RTVSPropertyOp17
 70
     1
102
RTVSPropertyOp18
 70
     1
102
RTVSPropertyOp19
 70
     1
102
RTVSPropertyOp20
 70
     1
102
RTVSPropertyOp21
 70
     1
102
RTVSPropertyOp22
 70
     1
102
RTVSPropertyOp23
 70
     1
102
RTVSPropertyOp24
 70
     1
102
RTVSPropertyOp25
 70
     1
102
RTVSPropertyOp26
 70
     1
102
RTVSPropertyOp27
 70
     1
102
RTVSPropertyOp28
 70
     1
102
RTVSPropertyOp29
 70
     1
102
RTVSPropertyOp30
 70
     1
102
RTVSPropertyOp31
 70
     1
102
RTVSPropertyOp32
 70
     1
  0
XRECORD
  5
237
102
{ACAD_REACTORS
330
236
102
}
330
236
100
AcDbXrecord
280
     1
102
RTVSPropertyOp0
 70
     1
102
RTVSPropertyOp1
 70
     1
102
RTVSPropertyOp2
 70
     1
102
RTVSPropertyOp3
 70
     1
102
RTVSPropertyOp4
 70
     1
102
RTVSPropertyOp5
 70
     1
102
RTVSPropertyOp6
 70
     1
102
RTVSPropertyOp7
 70
     1
102
RTVSPropertyOp8
 70
     1
102
RTVSPropertyOp9
 70
     1
102
RTVSPropertyOp10
 70
     1
102
RTVSPropertyOp11
 70
     1
102
RTVSPropertyOp12
 70
     1
102
RTVSPropertyOp13
 70
     1
102
RTVSPropertyOp14
 70
     1
102
RTVSPropertyOp15
 70
     1
102
RTVSPropertyOp16
 70
     1
102
RTVSPropertyOp17
 70
     1
102
RTVSPropertyOp18
 70
     1
102
RTVSPropertyOp19
 70
     1
102
RTVSPropertyOp20
 70
     1
102
RTVSPropertyOp21
 70
     1
102
RTVSPropertyOp22
 70
     1
102
RTVSPropertyOp23
 70
     1
102
RTVSPropertyOp24
 70
     1
102
RTVSPropertyOp25
 70
     1
102
RTVSPropertyOp26
 70
     1
102
RTVSPropertyOp27
 70
     1
102
RTVSPropertyOp28
 70
     1
102
RTVSPropertyOp29
 70
     1
102
RTVSPropertyOp30
 70
     1
102
RTVSPropertyOp31
 70
     1
102
RTVSPropertyOp32
 70
     1
  0
XRECORD
  5
239
102
{ACAD_REACTORS
330
238
102
}
330
238
100
AcDbXrecord
280
     1
102
RTVSPropertyOp0
 70
     1
102
RTVSPropertyOp1
 70
     1
102
RTVSPropertyOp2
 70
     1
102
RTVSPropertyOp3
 70
     1
102
RTVSPropertyOp4
 70
     1
102
RTVSPropertyOp5
 70
     1
102
RTVSPropertyOp6
 70
     1
102
RTVSPropertyOp7
 70
     1
102
RTVSPropertyOp8
 70
     1
102
RTVSPropertyOp9
 70
     1
102
RTVSPropertyOp10
 70
     1
102
RTVSPropertyOp11
 70
     1
102
RTVSPropertyOp12
 70
     1
102
RTVSPropertyOp13
 70
     1
102
RTVSPropertyOp14
 70
     1
102
RTVSPropertyOp15
 70
     1
102
RTVSPropertyOp16
 70
     1
102
RTVSPropertyOp17
 70
     1
102
RTVSPropertyOp18
 70
     1
102
RTVSPropertyOp19
 70
     1
102
RTVSPropertyOp20
 70
     1
102
RTVSPropertyOp21
 70
     1
102
RTVSPropertyOp22
 70
     1
102
RTVSPropertyOp23
 70
     1
102
RTVSPropertyOp24
 70
     1
102
RTVSPropertyOp25
 70
     1
102
RTVSPropertyOp26
 70
     1
102
RTVSPropertyOp27
 70
     1
102
RTVSPropertyOp28
 70
     1
102
RTVSPropertyOp29
 70
     1
102
RTVSPropertyOp30
 70
     1
102
RTVSPropertyOp31
 70
     1
102
RTVSPropertyOp32
 70
     1
  0
XRECORD
  5
23B
102
{ACAD_REACTORS
330
23A
102
}
330
23A
100
AcDbXrecord
280
     1
102
RTVSPropertyOp0
 70
     1
102
RTVSPropertyOp1
 70
     1
102
RTVSPropertyOp2
 70
     1
102
RTVSPropertyOp3
 70
     1
102
RTVSPropertyOp4
 70
     1
102
RTVSPropertyOp5
 70
     1
102
RTVSPropertyOp6
 70
     1
102
RTVSPropertyOp7
 70
     1
102
RTVSPropertyOp8
 70
     1
102
RTVSPropertyOp9
 70
     1
102
RTVSPropertyOp10
 70
     1
102
RTVSPropertyOp11
 70
     1
102
RTVSPropertyOp12
 70
     1
102
RTVSPropertyOp13
 70
     1
102
RTVSPropertyOp14
 70
     1
102
RTVSPropertyOp15
 70
     1
102
RTVSPropertyOp16
 70
     1
102
RTVSPropertyOp17
 70
     1
102
RTVSPropertyOp18
 70
     1
102
RTVSPropertyOp19
 70
     1
102
RTVSPropertyOp20
 70
     1
102
RTVSPropertyOp21
 70
     1
102
RTVSPropertyOp22
 70
     1
102
RTVSPropertyOp23
 70
     1
102
RTVSPropertyOp24
 70
     1
102
RTVSPropertyOp25
 70
     1
102
RTVSPropertyOp26
 70
     1
102
RTVSPropertyOp27
 70
     1
102
RTVSPropertyOp28
 70
     1
102
RTVSPropertyOp29
 70
     1
102
RTVSPropertyOp30
 70
     1
102
RTVSPropertyOp31
 70
     1
102
RTVSPropertyOp32
 70
     1
  0
XRECORD
  5
24F
102
{ACAD_REACTORS
330
24E
102
}
330
24E
100
AcDbXrecord
280
     1
102
RTVSPropertyOp0
 70
     1
102
RTVSPropertyOp1
 70
     1
102
RTVSPropertyOp2
 70
     1
102
RTVSPropertyOp3
 70
     1
102
RTVSPropertyOp4
 70
     1
102
RTVSPropertyOp5
 70
     1
102
RTVSPropertyOp6
 70
     1
102
RTVSPropertyOp7
 70
     1
102
RTVSPropertyOp8
 70
     1
102
RTVSPropertyOp9
 70
     1
102
RTVSPropertyOp10
 70
     1
102
RTVSPropertyOp11
 70
     1
102
RTVSPropertyOp12
 70
     1
102
RTVSPropertyOp13
 70
     1
102
RTVSPropertyOp14
 70
     1
102
RTVSPropertyOp15
 70
     1
102
RTVSPropertyOp16
 70
     1
102
RTVSPropertyOp17
 70
     1
102
RTVSPropertyOp18
 70
     1
102
RTVSPropertyOp19
 70
     1
102
RTVSPropertyOp20
 70
     1
102
RTVSPropertyOp21
 70
     1
102
RTVSPropertyOp22
 70
     1
102
RTVSPropertyOp23
 70
     1
102
RTVSPropertyOp24
 70
     1
102
RTVSPropertyOp25
 70
     1
102
RTVSPropertyOp26
 70
     1
102
RTVSPropertyOp27
 70
     1
102
RTVSPropertyOp28
 70
     1
102
RTVSPropertyOp29
 70
     1
102
RTVSPropertyOp30
 70
     1
102
RTVSPropertyOp31
 70
     1
102
RTVSPropertyOp32
 70
     1
  0
XRECORD
  5
245
102
{ACAD_REACTORS
330
244
102
}
330
244
100
AcDbXrecord
280
     1
102
RTVSPropertyOp0
 70
     1
102
RTVSPropertyOp1
 70
     1
102
RTVSPropertyOp2
 70
     1
102
RTVSPropertyOp3
 70
     1
102
RTVSPropertyOp4
 70
     1
102
RTVSPropertyOp5
 70
     1
102
RTVSPropertyOp6
 70
     1
102
RTVSPropertyOp7
 70
     1
102
RTVSPropertyOp8
 70
     1
102
RTVSPropertyOp9
 70
     1
102
RTVSPropertyOp10
 70
     1
102
RTVSPropertyOp11
 70
     1
102
RTVSPropertyOp12
 70
     1
102
RTVSPropertyOp13
 70
     1
102
RTVSPropertyOp14
 70
     1
102
RTVSPropertyOp15
 70
     1
102
RTVSPropertyOp16
 70
     1
102
RTVSPropertyOp17
 70
     1
102
RTVSPropertyOp18
 70
     1
102
RTVSPropertyOp19
 70
     1
102
RTVSPropertyOp20
 70
     1
102
RTVSPropertyOp21
 70
     1
102
RTVSPropertyOp22
 70
     1
102
RTVSPropertyOp23
 70
     1
102
RTVSPropertyOp24
 70
     1
102
RTVSPropertyOp25
 70
     1
102
RTVSPropertyOp26
 70
     1
102
RTVSPropertyOp27
 70
     1
102
RTVSPropertyOp28
 70
     1
102
RTVSPropertyOp29
 70
     1
102
RTVSPropertyOp30
 70
     1
102
RTVSPropertyOp31
 70
     1
102
RTVSPropertyOp32
 70
     1
  0
XRECORD
  5
24D
102
{ACAD_REACTORS
330
24C
102
}
330
24C
100
AcDbXrecord
280
     1
102
RTVSPropertyOp0
 70
     1
102
RTVSPropertyOp1
 70
     1
102
RTVSPropertyOp2
 70
     1
102
RTVSPropertyOp3
 70
     1
102
RTVSPropertyOp4
 70
     1
102
RTVSPropertyOp5
 70
     1
102
RTVSPropertyOp6
 70
     1
102
RTVSPropertyOp7
 70
     1
102
RTVSPropertyOp8
 70
     1
102
RTVSPropertyOp9
 70
     1
102
RTVSPropertyOp10
 70
     1
102
RTVSPropertyOp11
 70
     1
102
RTVSPropertyOp12
 70
     1
102
RTVSPropertyOp13
 70
     1
102
RTVSPropertyOp14
 70
     1
102
RTVSPropertyOp15
 70
     1
102
RTVSPropertyOp16
 70
     1
102
RTVSPropertyOp17
 70
     1
102
RTVSPropertyOp18
 70
     1
102
RTVSPropertyOp19
 70
     1
102
RTVSPropertyOp20
 70
     1
102
RTVSPropertyOp21
 70
     1
102
RTVSPropertyOp22
 70
     1
102
RTVSPropertyOp23
 70
     1
102
RTVSPropertyOp24
 70
     1
102
RTVSPropertyOp25
 70
     1
102
RTVSPropertyOp26
 70
     1
102
RTVSPropertyOp27
 70
     1
102
RTVSPropertyOp28
 70
     1
102
RTVSPropertyOp29
 70
     1
102
RTVSPropertyOp30
 70
     1
102
RTVSPropertyOp31
 70
     1
102
RTVSPropertyOp32
 70
     1
  0
ENDSEC
  0
EOF
