  0
SECTION
  2
HEADER
  9
$ACADVER
  1
AC1018
  9
$ACADMAINTVER
 70
     0
  9
$DWGCODEPAGE
  3
ANSI_1252
  9
$INSBASE
 10
0.0
 20
0.0
 30
0.0
  9
$EXTMIN
 10
-33.67346148743332
 20
735.6200769538729
 30
0.0
  9
$EXTMAX
 10
263.3265385125648
 20
945.620076953873
 30
0.0
  9
$LIMMIN
 10
0.0
 20
0.0
  9
$LIMMAX
 10
12.0
 20
9.0
  9
$ORTHOMODE
 70
     0
  9
$REGENMODE
 70
     1
  9
$FILLMODE
 70
     1
  9
$QTEXTMODE
 70
     0
  9
$MIRRTEXT
 70
     1
  9
$LTSCALE
 40
1.0
  9
$ATTMODE
 70
     1
  9
$TEXTSIZE
 40
0.2
  9
$TRACEWID
 40
0.05
  9
$TEXTSTYLE
  7
Standard
  9
$CLAYER
  8
0
  9
$CELTYPE
  6
ByLayer
  9
$CECOLOR
 62
   256
  9
$CELTSCALE
 40
1.0
  9
$DISPSILH
 70
     0
  9
$DIMSCALE
 40
1.0
  9
$DIMASZ
 40
0.18
  9
$DIMEXO
 40
0.0625
  9
$DIMDLI
 40
0.38
  9
$DIMRND
 40
0.0
  9
$DIMDLE
 40
0.0
  9
$DIMEXE
 40
0.18
  9
$DIMTP
 40
0.0
  9
$DIMTM
 40
0.0
  9
$DIMTXT
 40
0.18
  9
$DIMCEN
 40
0.09
  9
$DIMTSZ
 40
0.0
  9
$DIMTOL
 70
     0
  9
$DIMLIM
 70
     0
  9
$DIMTIH
 70
     1
  9
$DIMTOH
 70
     1
  9
$DIMSE1
 70
     0
  9
$DIMSE2
 70
     0
  9
$DIMTAD
 70
     0
  9
$DIMZIN
 70
     0
  9
$DIMBLK
  1

  9
$DIMASO
 70
     1
  9
$DIMSHO
 70
     1
  9
$DIMPOST
  1

  9
$DIMAPOST
  1

  9
$DIMALT
 70
     0
  9
$DIMALTD
 70
     2
  9
$DIMALTF
 40
25.4
  9
$DIMLFAC
 40
1.0
  9
$DIMTOFL
 70
     0
  9
$DIMTVP
 40
0.0
  9
$DIMTIX
 70
     0
  9
$DIMSOXD
 70
     0
  9
$DIMSAH
 70
     0
  9
$DIMBLK1
  1

  9
$DIMBLK2
  1

  9
$DIMSTYLE
  2
Standard
  9
$DIMCLRD
 70
     0
  9
$DIMCLRE
 70
     0
  9
$DIMCLRT
 70
     0
  9
$DIMTFAC
 40
1.0
  9
$DIMGAP
 40
0.09
  9
$DIMJUST
 70
     0
  9
$DIMSD1
 70
     0
  9
$DIMSD2
 70
     0
  9
$DIMTOLJ
 70
     1
  9
$DIMTZIN
 70
     0
  9
$DIMALTZ
 70
     0
  9
$DIMALTTZ
 70
     0
  9
$DIMUPT
 70
     0
  9
$DIMDEC
 70
     4
  9
$DIMTDEC
 70
     4
  9
$DIMALTU
 70
     2
  9
$DIMALTTD
 70
     2
  9
$DIMTXSTY
  7
Standard
  9
$DIMAUNIT
 70
     0
  9
$DIMADEC
 70
     0
  9
$DIMALTRND
 40
0.0
  9
$DIMAZIN
 70
     0
  9
$DIMDSEP
 70
    46
  9
$DIMATFIT
 70
     3
  9
$DIMFRAC
 70
     0
  9
$DIMLDRBLK
  1

  9
$DIMLUNIT
 70
     2
  9
$DIMLWD
 70
    -2
  9
$DIMLWE
 70
    -2
  9
$DIMTMOVE
 70
     0
  9
$LUNITS
 70
     2
  9
$LUPREC
 70
     4
  9
$SKETCHINC
 40
0.1
  9
$FILLETRAD
 40
0.5
  9
$AUNITS
 70
     0
  9
$AUPREC
 70
     0
  9
$MENU
  1
.
  9
$ELEVATION
 40
0.0
  9
$PELEVATION
 40
0.0
  9
$THICKNESS
 40
0.0
  9
$LIMCHECK
 70
     0
  9
$CHAMFERA
 40
0.5
  9
$CHAMFERB
 40
0.5
  9
$CHAMFERC
 40
1.0
  9
$CHAMFERD
 40
0.0
  9
$SKPOLY
 70
     0
  9
$TDCREATE
 40
2458347.548632037
  9
$TDUCREATE
 40
2458347.465298704
  9
$TDUPDATE
 40
2458347.548632766
  9
$TDUUPDATE
 40
2458347.465299433
  9
$TDINDWG
 40
0.0000000116
  9
$TDUSRTIMER
 40
0.0000000116
  9
$USRTIMER
 70
     1
  9
$ANGBASE
 50
0.0
  9
$ANGDIR
 70
     0
  9
$PDMODE
 70
     0
  9
$PDSIZE
 40
0.0
  9
$PLINEWID
 40
0.0
  9
$SPLFRAME
 70
     0
  9
$SPLINETYPE
 70
     6
  9
$SPLINESEGS
 70
     8
  9
$HANDSEED
  5
4BA
  9
$SURFTAB1
 70
     6
  9
$SURFTAB2
 70
     6
  9
$SURFTYPE
 70
     6
  9
$SURFU
 70
     6
  9
$SURFV
 70
     6
  9
$UCSBASE
  2

  9
$UCSNAME
  2

  9
$UCSORG
 10
0.0
 20
0.0
 30
0.0
  9
$UCSXDIR
 10
1.0
 20
0.0
 30
0.0
  9
$UCSYDIR
 10
0.0
 20
1.0
 30
0.0
  9
$UCSORTHOREF
  2

  9
$UCSORTHOVIEW
 70
     0
  9
$UCSORGTOP
 10
0.0
 20
0.0
 30
0.0
  9
$UCSORGBOTTOM
 10
0.0
 20
0.0
 30
0.0
  9
$UCSORGLEFT
 10
0.0
 20
0.0
 30
0.0
  9
$UCSORGRIGHT
 10
0.0
 20
0.0
 30
0.0
  9
$UCSORGFRONT
 10
0.0
 20
0.0
 30
0.0
  9
$UCSORGBACK
 10
0.0
 20
0.0
 30
0.0
  9
$PUCSBASE
  2

  9
$PUCSNAME
  2

  9
$PUCSORG
 10
0.0
 20
0.0
 30
0.0
  9
$PUCSXDIR
 10
1.0
 20
0.0
 30
0.0
  9
$PUCSYDIR
 10
0.0
 20
1.0
 30
0.0
  9
$PUCSORTHOREF
  2

  9
$PUCSORTHOVIEW
 70
     0
  9
$PUCSORGTOP
 10
0.0
 20
0.0
 30
0.0
  9
$PUCSORGBOTTOM
 10
0.0
 20
0.0
 30
0.0
  9
$PUCSORGLEFT
 10
0.0
 20
0.0
 30
0.0
  9
$PUCSORGRIGHT
 10
0.0
 20
0.0
 30
0.0
  9
$PUCSORGFRONT
 10
0.0
 20
0.0
 30
0.0
  9
$PUCSORGBACK
 10
0.0
 20
0.0
 30
0.0
  9
$USERI1
 70
     0
  9
$USERI2
 70
     0
  9
$USERI3
 70
     0
  9
$USERI4
 70
     0
  9
$USERI5
 70
     0
  9
$USERR1
 40
18.1
  9
$USERR2
 40
0.0
  9
$USERR3
 40
0.0
  9
$USERR4
 40
0.0
  9
$USERR5
 40
0.0
  9
$WORLDVIEW
 70
     1
  9
$SHADEDGE
 70
     3
  9
$SHADEDIF
 70
    70
  9
$TILEMODE
 70
     1
  9
$MAXACTVP
 70
    64
  9
$PINSBASE
 10
0.0
 20
0.0
 30
0.0
  9
$PLIMCHECK
 70
     0
  9
$PEXTMIN
 10
1.00000000000000E+20
 20
1.00000000000000E+20
 30
1.00000000000000E+20
  9
$PEXTMAX
 10
-1.00000000000000E+20
 20
-1.00000000000000E+20
 30
-1.00000000000000E+20
  9
$PLIMMIN
 10
0.0
 20
0.0
  9
$PLIMMAX
 10
12.0
 20
9.0
  9
$UNITMODE
 70
     0
  9
$VISRETAIN
 70
     1
  9
$PLINEGEN
 70
     0
  9
$PSLTSCALE
 70
     1
  9
$TREEDEPTH
 70
  3020
  9
$CMLSTYLE
  2
Standard
  9
$CMLJUST
 70
     0
  9
$CMLSCALE
 40
1.0
  9
$PROXYGRAPHICS
 70
     1
  9
$MEASUREMENT
 70
     1
  9
$CELWEIGHT
370
    -1
  9
$ENDCAPS
280
     0
  9
$JOINSTYLE
280
     0
  9
$LWDISPLAY
290
     0
  9
$INSUNITS
 70
     4
  9
$HYPERLINKBASE
  1

  9
$STYLESHEET
  1

  9
$XEDIT
290
     1
  9
$CEPSNTYPE
380
     0
  9
$PSTYLEMODE
290
     1
  9
$FINGERPRINTGUID
  2
{C3F2E479-2AD2-4887-A99E-0ECFC32812F6}
  9
$VERSIONGUID
  2
{FAEB1C32-E019-11D5-929B-00C0DF256EC4}
  9
$EXTNAMES
290
     1
  9
$PSVPSCALE
 40
0.0
  9
$OLESTARTUP
290
     0
  9
$SORTENTS
280
   127
  9
$INDEXCTL
280
     0
  9
$HIDETEXT
280
     1
  9
$XCLIPFRAME
290
     0
  9
$HALOGAP
280
     0
  9
$OBSCOLOR
 70
   257
  9
$OBSLTYPE
280
     0
  9
$INTERSECTIONDISPLAY
280
     0
  9
$INTERSECTIONCOLOR
 70
   257
  9
$DIMASSOC
280
     2
  9
$PROJECTNAME
  1

  0
ENDSEC
  0
SECTION
  2
CLASSES
  0
CLASS
  1
ACDBDICTIONARYWDFLT
  2
AcDbDictionaryWithDefault
  3
ObjectDBX Classes
 90
        0
 91
        4
280
     0
281
     0
  0
CLASS
  1
VISUALSTYLE
  2
AcDbVisualStyle
  3
ObjectDBX Classes
 90
     4095
 91
        4
280
     0
281
     0
  0
CLASS
  1
MATERIAL
  2
AcDbMaterial
  3
ObjectDBX Classes
 90
     1153
 91
        4
280
     0
281
     0
  0
ENDSEC
  0
SECTION
  2
TABLES
  0
TABLE
  2
VPORT
  5
8
330
0
100
AcDbSymbolTable
 70
     1
  0
VPORT
  5
29
330
8
100
AcDbSymbolTableRecord
100
AcDbViewportTableRecord
  2
*Active
 70
     0
 10
0.0
 20
0.0
 11
1.0
 21
1.0
 12
114.8265385125657
 22
840.620076953873
 13
0.0
 23
0.0
 14
0.5
 24
0.5
 15
0.5
 25
0.5
 16
0.0
 26
0.0
 36
1.0
 17
0.0
 27
0.0
 37
0.0
 40
231.0000000000001
 41
1.60267857142857
 42
50.0
 43
0.0
 44
0.0
 50
0.0
 51
0.0
 71
     0
 72
   100
 73
     1
 74
     3
 75
     0
 76
     0
 77
     0
 78
     0
281
     0
 65
     1
110
0.0
120
0.0
130
0.0
111
1.0
121
0.0
131
0.0
112
0.0
122
1.0
132
0.0
 79
     0
146
0.0
  0
ENDTAB
  0
TABLE
  2
LTYPE
  5
5
330
0
100
AcDbSymbolTable
 70
     8
  0
LTYPE
  5
14
330
5
100
AcDbSymbolTableRecord
100
AcDbLinetypeTableRecord
  2
ByBlock
 70
     0
  3

 72
    65
 73
     0
 40
0.0
  0
LTYPE
  5
15
330
5
100
AcDbSymbolTableRecord
100
AcDbLinetypeTableRecord
  2
ByLayer
 70
     0
  3

 72
    65
 73
     0
 40
0.0
  0
LTYPE
  5
16
330
5
100
AcDbSymbolTableRecord
100
AcDbLinetypeTableRecord
  2
Continuous
 70
     0
  3
Solid line
 72
    65
 73
     0
 40
0.0
  0
LTYPE
  5
3F
330
5
100
AcDbSymbolTableRecord
100
AcDbLinetypeTableRecord
  2
DASHED
 70
     0
  3
Dashed
 72
    65
 73
     2
 40
15.0
 49
7.0
 74
     0
 49
-8.0
 74
     0
  0
LTYPE
  5
40
330
5
100
AcDbSymbolTableRecord
100
AcDbLinetypeTableRecord
  2
DOTTED
 70
     0
  3
Dotted
 72
    65
 73
     2
 40
1.0
 49
0.0
 74
     0
 49
-1.0
 74
     0
  0
LTYPE
  5
41
330
5
100
AcDbSymbolTableRecord
100
AcDbLinetypeTableRecord
  2
DOT_CENTER
 70
     0
  3
Dot_Center
 72
    65
 73
     4
 40
14.0
 49
12.0
 74
     0
 49
-1.0
 74
     0
 49
0.0
 74
     0
 49
-1.0
 74
     0
  0
LTYPE
  5
42
330
5
100
AcDbSymbolTableRecord
100
AcDbLinetypeTableRecord
  2
LONG_DASHED
 70
     0
  3
Long_Dashed
 72
    65
 73
     2
 40
15.0
 49
10.0
 74
     0
 49
-5.0
 74
     0
  0
LTYPE
  5
43
330
5
100
AcDbSymbolTableRecord
100
AcDbLinetypeTableRecord
  2
DASH_CENTER
 70
     0
  3
Dash_Center
 72
    65
 73
     4
 40
14.0
 49
11.0
 74
     0
 49
-1.0
 74
     0
 49
1.0
 74
     0
 49
-1.0
 74
     0
  0
LTYPE
  5
44
330
5
100
AcDbSymbolTableRecord
100
AcDbLinetypeTableRecord
  2
PHANTOM
 70
     0
  3
Phantom
 72
    65
 73
     6
 40
13.0
 49
10.0
 74
     0
 49
-1.0
 74
     0
 49
0.0
 74
     0
 49
-1.0
 74
     0
 49
0.0
 74
     0
 49
-1.0
 74
     0
  0
LTYPE
  5
45
330
5
100
AcDbSymbolTableRecord
100
AcDbLinetypeTableRecord
  2
CENTER_DASH_DASH
 70
     0
  3
Center_Dash_Dash
 72
    65
 73
     6
 40
14.0
 49
9.0
 74
     0
 49
-1.0
 74
     0
 49
1.0
 74
     0
 49
-1.0
 74
     0
 49
1.0
 74
     0
 49
-1.0
 74
     0
  0
ENDTAB
  0
TABLE
  2
LAYER
  5
2
330
0
100
AcDbSymbolTable
 70
     2
  0
LAYER
  5
10
330
2
100
AcDbSymbolTableRecord
100
AcDbLayerTableRecord
  2
0
 70
     0
 62
     7
  6
Continuous
370
    -3
390
F
  0
LAYER
  5
46
330
2
100
AcDbSymbolTableRecord
100
AcDbLayerTableRecord
  2
1
 70
     0
 62
     7
  6
Continuous
370
    -3
390
F
  0
ENDTAB
  0
TABLE
  2
STYLE
  5
3
330
0
100
AcDbSymbolTable
 70
     5
  0
STYLE
  5
11
330
3
100
AcDbSymbolTableRecord
100
AcDbTextStyleTableRecord
  2
Standard
 70
     0
 40
0.0
 41
1.0
 50
0.0
 71
     0
 42
0.2
  3
txt
  4

  0
STYLE
  5
137
330
3
100
AcDbSymbolTableRecord
100
AcDbTextStyleTableRecord
  2
CONVERTER_11
 70
     0
 40
0.0
 41
0.9
 50
0.0
 71
     0
 42
0.2
  3
txt.shx
  4

  0
STYLE
  5
450
330
3
100
AcDbSymbolTableRecord
100
AcDbTextStyleTableRecord
  2
CONVERTER_12
 70
     0
 40
0.0
 41
0.81
 50
0.0
 71
     0
 42
0.2
  3
txt.shx
  4

  0
STYLE
  5
456
330
3
100
AcDbSymbolTableRecord
100
AcDbTextStyleTableRecord
  2
CONVERTER_13
 70
     0
 40
0.0
 41
0.855
 50
0.0
 71
     0
 42
0.2
  3
txt.shx
  4

  0
STYLE
  5
459
330
3
100
AcDbSymbolTableRecord
100
AcDbTextStyleTableRecord
  2
CONVERTER_14
 70
     0
 40
0.0
 41
0.72
 50
0.0
 71
     0
 42
0.2
  3
txt.shx
  4

  0
ENDTAB
  0
TABLE
  2
VIEW
  5
6
330
0
100
AcDbSymbolTable
 70
     0
  0
ENDTAB
  0
TABLE
  2
UCS
  5
7
330
0
100
AcDbSymbolTable
 70
     0
  0
ENDTAB
  0
TABLE
  2
APPID
  5
9
330
0
100
AcDbSymbolTable
 70
     1
  0
APPID
  5
12
330
9
100
AcDbSymbolTableRecord
100
AcDbRegAppTableRecord
  2
ACAD
 70
     0
  0
ENDTAB
  0
TABLE
  2
DIMSTYLE
  5
A
330
0
100
AcDbSymbolTable
 70
     5
100
AcDbDimStyleTable
  0
DIMSTYLE
105
27
330
A
100
AcDbSymbolTableRecord
100
AcDbDimStyleTableRecord
  2
Standard
 70
     0
178
     0
340
11
  0
DIMSTYLE
105
14E
102
{ACAD_REACTORS
330
14F
102
}
330
A
100
AcDbSymbolTableRecord
100
AcDbDimStyleTableRecord
  2
ME10_DIM_10
 70
     0
 41
3.5
 42
0.0
 44
2.0
 73
     0
 74
     0
 77
     1
 78
     8
140
3.5
147
2.0
172
     1
173
     1
174
     1
175
     1
176
     2
177
     2
178
     3
340
137
  0
DIMSTYLE
105
341
102
{ACAD_REACTORS
330
342
102
}
330
A
100
AcDbSymbolTableRecord
100
AcDbDimStyleTableRecord
  2
ME10_DIM_11
 70
     0
 41
3.5
 42
0.0
 44
1.5
 73
     0
 74
     0
 77
     1
 78
     8
140
3.5
147
1.5
172
     1
173
     1
174
     1
175
     1
176
     2
177
     2
178
     3
340
137
  0
DIMSTYLE
105
34C
102
{ACAD_REACTORS
330
34D
102
}
330
A
100
AcDbSymbolTableRecord
100
AcDbDimStyleTableRecord
  2
ME10_DIM_12
 70
     0
 41
3.5
 42
0.0
 44
1.5
 73
     0
 74
     0
 77
     1
 78
     8
140
3.5
147
1.5
172
     1
173
     1
174
     1
175
     1
176
     2
177
     2
271
     2
178
     3
271
     2
340
137
  0
DIMSTYLE
105
357
102
{ACAD_REACTORS
330
358
102
}
330
A
100
AcDbSymbolTableRecord
100
AcDbDimStyleTableRecord
  2
ME10_DIM_13
 70
     0
 41
3.5
 42
0.0
 44
1.5
 73
     0
 74
     0
 77
     1
 78
     8
140
3.5
147
1.5
172
     1
173
     1
174
     1
175
     1
176
     2
177
     2
271
     2
178
     3
271
     2
340
137
  0
ENDTAB
  0
TABLE
  2
BLOCK_RECORD
  5
1
330
0
100
AcDbSymbolTable
 70
    21
  0
BLOCK_RECORD
  5
1F
330
1
100
AcDbSymbolTableRecord
100
AcDbBlockTableRecord
  2
*Model_Space
340
22
  0
BLOCK_RECORD
  5
1B
330
1
100
AcDbSymbolTableRecord
100
AcDbBlockTableRecord
  2
*Paper_Space
340
1E
  0
BLOCK_RECORD
  5
23
330
1
100
AcDbSymbolTableRecord
100
AcDbBlockTableRecord
  2
*Paper_Space0
340
26
  0
BLOCK_RECORD
  5
47
330
1
100
AcDbSymbolTableRecord
100
AcDbBlockTableRecord
  2
KLM_3_L-select__1
340
0
102
{BLKREFS
331
4B
102
}
  0
BLOCK_RECORD
  5
4A
330
1
100
AcDbSymbolTableRecord
100
AcDbBlockTableRecord
  2
AllgSicht1
340
0
102
{BLKREFS
331
7D
102
}
  0
BLOCK_RECORD
  5
4E
330
1
100
AcDbSymbolTableRecord
100
AcDbBlockTableRecord
  2
KLM_3_L-select__2
340
0
102
{BLKREFS
331
52
102
}
  0
BLOCK_RECORD
  5
51
330
1
100
AcDbSymbolTableRecord
100
AcDbBlockTableRecord
  2
Drfsicht1
340
0
102
{BLKREFS
331
7E
102
}
  0
BLOCK_RECORD
  5
55
330
1
100
AcDbSymbolTableRecord
100
AcDbBlockTableRecord
  2
KLM_3_L-select__3
340
0
102
{BLKREFS
331
59
102
}
  0
BLOCK_RECORD
  5
58
330
1
100
AcDbSymbolTableRecord
100
AcDbBlockTableRecord
  2
Rckans1
340
0
102
{BLKREFS
331
7F
102
}
  0
BLOCK_RECORD
  5
5C
330
1
100
AcDbSymbolTableRecord
100
AcDbBlockTableRecord
  2
KLM_3_L-select__4
340
0
102
{BLKREFS
331
60
102
}
  0
BLOCK_RECORD
  5
5F
330
1
100
AcDbSymbolTableRecord
100
AcDbBlockTableRecord
  2
SA_Links1
340
0
102
{BLKREFS
331
80
102
}
  0
BLOCK_RECORD
  5
63
330
1
100
AcDbSymbolTableRecord
100
AcDbBlockTableRecord
  2
KLM_3_L-select__5
340
0
102
{BLKREFS
331
67
102
}
  0
BLOCK_RECORD
  5
66
330
1
100
AcDbSymbolTableRecord
100
AcDbBlockTableRecord
  2
SA_Rechts1
340
0
102
{BLKREFS
331
81
102
}
  0
BLOCK_RECORD
  5
6A
330
1
100
AcDbSymbolTableRecord
100
AcDbBlockTableRecord
  2
KLM_3_L-select__6
340
0
102
{BLKREFS
331
6E
102
}
  0
BLOCK_RECORD
  5
6D
330
1
100
AcDbSymbolTableRecord
100
AcDbBlockTableRecord
  2
Vordans1
340
0
102
{BLKREFS
331
82
102
}
  0
BLOCK_RECORD
  5
71
330
1
100
AcDbSymbolTableRecord
100
AcDbBlockTableRecord
  2
_rahmen
340
0
102
{BLKREFS
331
78
102
}
  0
BLOCK_RECORD
  5
74
330
1
100
AcDbSymbolTableRecord
100
AcDbBlockTableRecord
  2
_punkt
340
0
102
{BLKREFS
331
79
102
}
  0
BLOCK_RECORD
  5
77
330
1
100
AcDbSymbolTableRecord
100
AcDbBlockTableRecord
  2
A4I_CS
340
0
102
{BLKREFS
331
83
102
}
  0
BLOCK_RECORD
  5
7C
330
1
100
AcDbSymbolTableRecord
100
AcDbBlockTableRecord
  2
1
340
0
102
{BLKREFS
331
86
102
}
  0
BLOCK_RECORD
  5
143
330
1
100
AcDbSymbolTableRecord
100
AcDbBlockTableRecord
  2
*D17
340
0
  0
BLOCK_RECORD
  5
338
330
1
100
AcDbSymbolTableRecord
100
AcDbBlockTableRecord
  2
*D18
340
0
  0
BLOCK_RECORD
  5
343
330
1
100
AcDbSymbolTableRecord
100
AcDbBlockTableRecord
  2
*D19
340
0
  0
BLOCK_RECORD
  5
34E
330
1
100
AcDbSymbolTableRecord
100
AcDbBlockTableRecord
  2
*D20
340
0
  0
ENDTAB
  0
ENDSEC
  0
SECTION
  2
BLOCKS
  0
BLOCK
  5
20
330
1F
100
AcDbEntity
  8
0
100
AcDbBlockBegin
  2
*Model_Space
 70
     0
 10
0.0
 20
0.0
 30
0.0
  3
*Model_Space
  1

  0
ENDBLK
  5
21
330
1F
100
AcDbEntity
  8
0
100
AcDbBlockEnd
  0
BLOCK
  5
1C
330
1B
100
AcDbEntity
 67
     1
  8
0
100
AcDbBlockBegin
  2
*Paper_Space
 70
     0
 10
0.0
 20
0.0
 30
0.0
  3
*Paper_Space
  1

  0
ENDBLK
  5
1D
330
1B
100
AcDbEntity
 67
     1
  8
0
100
AcDbBlockEnd
  0
BLOCK
  5
24
330
23
100
AcDbEntity
  8
0
100
AcDbBlockBegin
  2
*Paper_Space0
 70
     0
 10
0.0
 20
0.0
 30
0.0
  3
*Paper_Space0
  1

  0
ENDBLK
  5
25
330
23
100
AcDbEntity
  8
0
100
AcDbBlockEnd
  0
BLOCK
  5
48
330
47
100
AcDbEntity
  8
0
100
AcDbBlockBegin
  2
KLM_3_L-select__1
 70
     0
 10
215.1469246127228
 20
782.1417137712998
 30
0.0
  3
KLM_3_L-select__1
  1

  0
LINE
  5
87
330
47
100
AcDbEntity
  8
0
  6
Continuous
 62
     7
100
AcDbLine
 10
226.220606346396
 20
782.1417137712998
 30
0.0
 11
226.0431467016514
 21
783.601600426767
 31
0.0
  0
LINE
  5
88
330
47
100
AcDbEntity
  8
0
  6
Continuous
 62
     7
100
AcDbLine
 10
226.3677923404902
 20
782.2691805812667
 30
0.0
 11
226.220606346396
 21
782.1417137712998
 31
0.0
  0
LINE
  5
89
330
47
100
AcDbEntity
  8
0
  6
Continuous
 62
     7
100
AcDbLine
 10
228.3859353655467
 20
792.7837014428927
 30
0.0
 11
228.2045283775441
 21
800.2431257651489
 31
0.0
  0
LINE
  5
8A
330
47
100
AcDbEntity
  8
0
  6
Continuous
 62
     7
100
AcDbLine
 10
228.2045283775441
 20
785.4290124939921
 30
0.0
 11
228.3859353655467
 21
792.7837014428927
 31
0.0
  0
LINE
  5
8B
330
47
100
AcDbEntity
  8
0
  6
Continuous
 62
     7
100
AcDbLine
 10
228.2045283775441
 20
800.2431257651489
 30
0.0
 11
227.7950122137557
 21
800.6691032954665
 31
0.0
  0
LINE
  5
8C
330
47
100
AcDbEntity
  8
0
  6
Continuous
 62
     7
100
AcDbLine
 10
227.4789414134677
 20
782.9299149306923
 30
0.0
 11
227.7693784977373
 21
785.0521616436257
 31
0.0
  0
LINE
  5
8D
330
47
100
AcDbEntity
  8
0
  6
Continuous
 62
     7
100
AcDbLine
 10
228.2045283775441
 20
785.4290124939921
 30
0.0
 11
227.3545283775441
 21
784.6928909007754
 31
0.0
  0
LINE
  5
8E
330
47
100
AcDbEntity
  8
0
  6
Continuous
 62
     7
100
AcDbLine
 10
227.7950122137557
 20
800.6691032954665
 30
0.0
 11
226.9450122137557
 21
799.9329817022497
 31
0.0
  0
LINE
  5
8F
330
47
100
AcDbEntity
  8
0
  6
Continuous
 62
     7
100
AcDbLine
 10
228.2045283775441
 20
800.2431257651489
 30
0.0
 11
227.3545283775441
 21
799.5070041719321
 31
0.0
  0
LINE
  5
90
330
47
100
AcDbEntity
  8
0
  6
Continuous
 62
     7
100
AcDbLine
 10
228.3859353655467
 20
792.7837014428927
 30
0.0
 11
227.5359353655468
 21
792.0475798496759
 31
0.0
  0
LINE
  5
91
330
47
100
AcDbEntity
  8
0
  6
Continuous
 62
     7
100
AcDbLine
 10
223.3505258976458
 20
785.8748111564689
 30
0.0
 11
223.2099391661601
 21
793.2963873847901
 31
0.0
  0
LINE
  5
92
330
47
100
AcDbEntity
  8
0
  6
Continuous
 62
     7
100
AcDbLine
 10
223.2099391661601
 20
793.2963873847901
 30
0.0
 11
223.3505258976458
 21
800.6367958258437
 31
0.0
  0
LINE
  5
93
330
47
100
AcDbEntity
  8
0
  6
Continuous
 62
     7
100
AcDbLine
 10
223.7947240823504
 20
785.4127574882045
 30
0.0
 11
223.3505258976458
 21
785.8748111564689
 31
0.0
  0
LINE
  5
94
330
47
100
AcDbEntity
  8
0
  6
Continuous
 62
     7
100
AcDbLine
 10
223.8231012553378
 20
785.1890196755471
 30
0.0
 11
223.7947240823504
 21
785.4127574882045
 31
0.0
  0
LINE
  5
95
330
47
100
AcDbEntity
  8
0
  6
Continuous
 62
     7
100
AcDbLine
 10
223.8225287238506
 20
801.0455622639952
 30
0.0
 11
223.3505258976458
 21
800.6367958258437
 31
0.0
  0
LINE
  5
96
330
47
100
AcDbEntity
  8
0
  6
Continuous
 62
     7
100
AcDbLine
 10
223.3505258976458
 20
800.6367958258437
 30
0.0
 11
223.7947240823505
 21
800.8423915525955
 31
0.0
  0
LINE
  5
97
330
47
100
AcDbEntity
  8
0
  6
Continuous
 62
     7
100
AcDbLine
 10
226.0431467016518
 20
800.4027932653646
 30
0.0
 11
225.3633622336222
 21
800.5990301381684
 31
0.0
  0
LINE
  5
98
330
47
100
AcDbEntity
  8
0
  6
Continuous
 62
     7
100
AcDbLine
 10
225.4525601793976
 20
801.5742886858483
 30
0.0
 11
225.3633622336222
 21
800.5990301381684
 31
0.0
  0
LINE
  5
99
330
47
100
AcDbEntity
  8
0
  6
Continuous
 62
     7
100
AcDbLine
 10
226.0431467016518
 20
800.4027932653646
 30
0.0
 11
226.2223689343266
 21
802.3925081475521
 31
0.0
  0
LINE
  5
9A
330
47
100
AcDbEntity
  8
0
  6
Continuous
 62
     7
100
AcDbLine
 10
224.1107948826384
 20
782.9207196261923
 30
0.0
 11
224.031895159107
 21
783.5427989140079
 31
0.0
  0
LINE
  5
9B
330
47
100
AcDbEntity
  8
0
  6
Continuous
 62
     7
100
AcDbLine
 10
225.3633622336223
 20
783.7978372995707
 30
0.0
 11
225.4525601793977
 21
783.0745044268054
 31
0.0
  0
LINE
  5
9C
330
47
100
AcDbEntity
  8
0
  6
Continuous
 62
     7
100
AcDbLine
 10
224.1821479216537
 20
782.9001217780508
 30
0.0
 11
224.1107948826384
 21
782.9207196261923
 31
0.0
  0
LINE
  5
9D
330
47
100
AcDbEntity
  8
0
  6
Continuous
 62
     7
100
AcDbLine
 10
224.7249491239373
 20
783.2845476461732
 30
0.0
 11
224.5513740624835
 21
784.0322380941636
 31
0.0
  0
LINE
  5
9E
330
47
100
AcDbEntity
  8
0
  6
Continuous
 62
     7
100
AcDbLine
 10
225.4525601793977
 20
783.0745044268054
 30
0.0
 11
225.1450355626728
 21
782.8644612074378
 31
0.0
  0
LINE
  5
9F
330
47
100
AcDbEntity
  8
0
  6
Continuous
 62
     7
100
AcDbLine
 10
223.8715895944538
 20
784.2284749669676
 30
0.0
 11
224.5513740624835
 21
784.0322380941636
 31
0.0
  0
LINE
  5
A0
330
47
100
AcDbEntity
  8
0
  6
Continuous
 62
     7
100
AcDbLine
 10
223.8715895944538
 20
784.2284749669676
 30
0.0
 11
224.2247579615213
 21
782.7178655724344
 31
0.0
  0
LINE
  5
A1
330
47
100
AcDbEntity
  8
0
  6
Continuous
 62
     7
100
AcDbLine
 10
225.3633622336223
 20
783.7978372995707
 30
0.0
 11
226.0431467016514
 21
783.601600426767
 31
0.0
  0
LINE
  5
A2
330
47
100
AcDbEntity
  8
0
  6
Continuous
 62
     7
100
AcDbLine
 10
225.3654486479935
 20
783.8392365051177
 30
0.0
 11
224.7249491239373
 21
783.2845476461732
 31
0.0
  0
LINE
  5
A3
330
47
100
AcDbEntity
  8
0
  6
Continuous
 62
     7
100
AcDbLine
 10
225.1450355626728
 20
782.8644612074378
 30
0.0
 11
224.7249491239373
 21
783.2845476461732
 31
0.0
  0
LINE
  5
A4
330
47
100
AcDbEntity
  8
0
  6
Continuous
 62
     7
100
AcDbLine
 10
225.4462895529295
 20
783.1253548159916
 30
0.0
 11
225.1450355626728
 21
782.8644612074378
 31
0.0
  0
LINE
  5
A5
330
47
100
AcDbEntity
  8
0
  6
Continuous
 62
     7
100
AcDbLine
 10
224.1340764785519
 20
792.5532979496695
 30
0.0
 11
224.5513740624835
 21
800.8334309327613
 31
0.0
  0
LINE
  5
A6
330
47
100
AcDbEntity
  8
0
  6
Continuous
 62
     7
100
AcDbLine
 10
224.5513740624835
 20
784.0322380941636
 30
0.0
 11
224.1340764785519
 21
792.5532979496695
 31
0.0
  0
LINE
  5
A7
330
47
100
AcDbEntity
  8
0
  6
Continuous
 62
     7
100
AcDbLine
 10
225.6913362262686
 20
793.9019244514831
 30
0.0
 11
224.1340764785519
 21
792.5532979496695
 31
0.0
  0
LINE
  5
A8
330
47
100
AcDbEntity
  8
0
  6
Continuous
 62
     7
100
AcDbLine
 10
225.7806598175539
 20
792.0779702826624
 30
0.0
 11
225.3633622336223
 21
783.7978372995707
 31
0.0
  0
LINE
  5
A9
330
47
100
AcDbEntity
  8
0
  6
Continuous
 62
     7
100
AcDbLine
 10
223.7947240823505
 20
800.8423915525955
 30
0.0
 11
224.1130374662215
 21
803.1683325883351
 31
0.0
  0
LINE
  5
AA
330
47
100
AcDbEntity
  8
0
  6
Continuous
 62
     7
100
AcDbLine
 10
224.5513740624835
 20
800.8334309327613
 30
0.0
 11
224.724949123937
 21
801.7843319052145
 31
0.0
  0
LINE
  5
AB
330
47
100
AcDbEntity
  8
0
  6
Continuous
 62
     7
100
AcDbLine
 10
224.5513740624835
 20
800.8334309327613
 30
0.0
 11
223.8715895944542
 21
801.0296678055652
 31
0.0
  0
LINE
  5
AC
330
47
100
AcDbEntity
  8
0
  6
Continuous
 62
     7
100
AcDbLine
 10
226.6289414134677
 20
782.1937933374757
 30
0.0
 11
227.4789414134677
 21
782.9299149306923
 31
0.0
  0
LINE
  5
AD
330
47
100
AcDbEntity
  8
0
  6
Continuous
 62
     7
100
AcDbLine
 10
226.9450122137557
 20
799.9329817022497
 30
0.0
 11
227.3545283775441
 21
799.5070041719321
 31
0.0
  0
LINE
  5
AE
330
47
100
AcDbEntity
  8
0
  6
Continuous
 62
     7
100
AcDbLine
 10
227.3545283775441
 20
784.6928909007754
 30
0.0
 11
226.9450122137557
 21
784.5033476378586
 31
0.0
  0
LINE
  5
AF
330
47
100
AcDbEntity
  8
0
  6
Continuous
 62
     7
100
AcDbLine
 10
226.6289414134677
 20
782.1937933374757
 30
0.0
 11
226.3677923404902
 21
782.2691805812667
 31
0.0
  0
LINE
  5
B0
330
47
100
AcDbEntity
  8
0
  6
Continuous
 62
     7
100
AcDbLine
 10
226.8859801405818
 20
792.2352057617468
 30
0.0
 11
226.3669197418955
 21
802.5176928190444
 31
0.0
  0
LINE
  5
B1
330
47
100
AcDbEntity
  8
0
  6
Continuous
 62
     7
100
AcDbLine
 10
226.3677923404902
 20
782.2691805812667
 30
0.0
 11
226.8859801405818
 21
792.2352057617468
 31
0.0
  0
LINE
  5
B2
330
47
100
AcDbEntity
  8
0
  6
Continuous
 62
     7
100
AcDbLine
 10
226.4734801405818
 20
791.8779702826857
 30
0.0
 11
226.8859801405818
 21
792.2352057617468
 31
0.0
  0
LINE
  5
B3
330
47
100
AcDbEntity
  8
0
  6
Continuous
 62
     7
100
AcDbLine
 10
226.9450122137557
 20
784.5033476378586
 30
0.0
 11
226.6289414134677
 21
782.1937933374757
 31
0.0
  0
LINE
  5
B4
330
47
100
AcDbEntity
  8
0
  6
Continuous
 62
     7
100
AcDbLine
 10
226.6266988298846
 20
802.4427010558541
 30
0.0
 11
226.9450122137557
 21
799.9329817022497
 31
0.0
  0
LINE
  5
B5
330
47
100
AcDbEntity
  8
0
  6
Continuous
 62
     7
100
AcDbLine
 10
227.5359353655468
 20
792.0475798496759
 30
0.0
 11
227.3545283775441
 21
784.6928909007754
 31
0.0
  0
LINE
  5
B6
330
47
100
AcDbEntity
  8
0
  6
Continuous
 62
     7
100
AcDbLine
 10
227.3545283775441
 20
799.5070041719321
 30
0.0
 11
227.5359353655468
 21
792.0475798496759
 31
0.0
  0
LINE
  5
B7
330
47
100
AcDbEntity
  8
0
  6
Continuous
 62
     7
100
AcDbLine
 10
225.3633622336222
 20
800.5990301381684
 30
0.0
 11
225.7806598175539
 21
792.0779702826624
 31
0.0
  0
LINE
  5
B8
330
47
100
AcDbEntity
  8
0
  6
Continuous
 62
     7
100
AcDbLine
 10
226.0431467016514
 20
783.601600426767
 30
0.0
 11
226.4734801405818
 21
791.8779702826857
 31
0.0
  0
LINE
  5
B9
330
47
100
AcDbEntity
  8
0
  6
Continuous
 62
     7
100
AcDbLine
 10
223.8715895944542
 20
801.0296678055652
 30
0.0
 11
223.4412561555239
 21
792.7532979496463
 31
0.0
  0
LINE
  5
BA
330
47
100
AcDbEntity
  8
0
  6
Continuous
 62
     7
100
AcDbLine
 10
226.4734801405818
 20
791.8779702826857
 30
0.0
 11
226.0431467016518
 21
800.4027932653646
 31
0.0
  0
LINE
  5
BB
330
47
100
AcDbEntity
  8
0
  6
Continuous
 62
     7
100
AcDbLine
 10
223.4412561555239
 20
792.7532979496463
 30
0.0
 11
223.8715895944538
 21
784.2284749669676
 31
0.0
  0
LINE
  5
BC
330
47
100
AcDbEntity
  8
0
  6
Continuous
 62
     7
100
AcDbLine
 10
226.220606346396
 20
782.1417137712998
 30
0.0
 11
224.2247579615213
 21
782.7178655724344
 31
0.0
  0
LINE
  5
BD
330
47
100
AcDbEntity
  8
0
  6
Continuous
 62
     7
100
AcDbLine
 10
226.2223689343266
 20
802.3925081475521
 30
0.0
 11
226.3669197418955
 21
802.5176928190444
 31
0.0
  0
LINE
  5
BE
330
47
100
AcDbEntity
  8
0
  6
Continuous
 62
     7
100
AcDbLine
 10
224.2282657466413
 20
802.9681561536532
 30
0.0
 11
223.8715895944542
 21
801.0296678055652
 31
0.0
  0
LINE
  5
BF
330
47
100
AcDbEntity
  8
0
  6
Continuous
 62
     7
100
AcDbLine
 10
225.1450355626732
 20
802.09185652194
 30
0.0
 11
225.4525601793976
 21
801.5742886858483
 31
0.0
  0
LINE
  5
C0
330
47
100
AcDbEntity
  8
0
  6
Continuous
 62
     7
100
AcDbLine
 10
224.724949123937
 20
801.7843319052145
 30
0.0
 11
225.1450355626732
 21
802.09185652194
 31
0.0
  0
LINE
  5
C1
330
47
100
AcDbEntity
  8
0
  6
Continuous
 62
     7
100
AcDbLine
 10
226.2223689343266
 20
802.3925081475521
 30
0.0
 11
226.0441968720166
 21
803.8665917224309
 31
0.0
  0
LINE
  5
C2
330
47
100
AcDbEntity
  8
0
  6
Continuous
 62
     7
100
AcDbLine
 10
227.7181467016519
 20
801.8533858167035
 30
0.0
 11
227.7666350407677
 21
800.8928411081288
 31
0.0
  0
LINE
  5
C3
330
47
100
AcDbEntity
  8
0
  6
Continuous
 62
     7
100
AcDbLine
 10
227.5578411369995
 20
802.5390618696599
 30
0.0
 11
227.7181467016519
 21
801.8533858167035
 31
0.0
  0
LINE
  5
C4
330
47
100
AcDbEntity
  8
0
  6
Continuous
 62
     7
100
AcDbLine
 10
227.7950122137557
 20
800.6691032954665
 30
0.0
 11
227.4766988298846
 21
803.1788226490708
 31
0.0
  0
LINE
  5
C5
330
47
100
AcDbEntity
  8
0
  6
Continuous
 62
     7
100
AcDbLine
 10
227.4766988298846
 20
803.1788226490708
 30
0.0
 11
227.7693784977373
 21
805.3174560973612
 31
0.0
  0
LINE
  5
C6
330
47
100
AcDbEntity
  8
0
  6
Continuous
 62
     7
100
AcDbLine
 10
224.1340861909452
 20
812.7748551500218
 30
0.0
 11
224.5515734832411
 21
821.0986678186828
 31
0.0
  0
LINE
  5
C7
330
47
100
AcDbEntity
  8
0
  6
Continuous
 62
     7
100
AcDbLine
 10
224.1130374662215
 20
803.1683325883351
 30
0.0
 11
224.0320078859778
 21
803.8072045807064
 31
0.0
  0
LINE
  5
C8
330
47
100
AcDbEntity
  8
0
  6
Continuous
 62
     7
100
AcDbLine
 10
223.822631366452
 20
805.4580189349568
 30
0.0
 11
223.7947240823504
 21
805.67805194194
 31
0.0
  0
LINE
  5
C9
330
47
100
AcDbEntity
  8
0
  6
Continuous
 62
     7
100
AcDbLine
 10
223.871404225454
 20
804.493822932124
 30
0.0
 11
224.2282657466413
 21
802.9681561536532
 31
0.0
  0
LINE
  5
CA
330
47
100
AcDbEntity
  8
0
  6
Continuous
 62
     7
100
AcDbLine
 10
225.1450355626727
 20
803.1297556611734
 30
0.0
 11
224.7249491239372
 21
803.5498420999088
 31
0.0
  0
LINE
  5
CB
330
47
100
AcDbEntity
  8
0
  6
Continuous
 62
     7
100
AcDbLine
 10
225.365943634797
 20
804.1049596299997
 30
0.0
 11
224.7249491239372
 21
803.5498420999088
 31
0.0
  0
LINE
  5
CC
330
47
100
AcDbEntity
  8
0
  6
Continuous
 62
     7
100
AcDbLine
 10
224.7249491239372
 20
803.5498420999088
 30
0.0
 11
224.5511745389983
 21
804.2975901453681
 31
0.0
  0
LINE
  5
CD
330
47
100
AcDbEntity
  8
0
  6
Continuous
 62
     7
100
AcDbLine
 10
225.3638065555047
 20
804.063003488627
 30
0.0
 11
225.4525601793977
 21
803.339798880541
 31
0.0
  0
LINE
  5
CE
330
47
100
AcDbEntity
  8
0
  6
Continuous
 62
     7
100
AcDbLine
 10
225.3638065555047
 20
804.063003488627
 30
0.0
 11
226.0441968720166
 21
803.8665917224309
 31
0.0
  0
LINE
  5
CF
330
47
100
AcDbEntity
  8
0
  6
Continuous
 62
     7
100
AcDbLine
 10
225.4525601793977
 20
803.339798880541
 30
0.0
 11
225.1450355626727
 21
803.1297556611734
 31
0.0
  0
LINE
  5
D0
330
47
100
AcDbEntity
  8
0
  6
Continuous
 62
     7
100
AcDbLine
 10
225.4463167876825
 20
803.390672855715
 30
0.0
 11
225.1450355626727
 21
803.1297556611734
 31
0.0
  0
LINE
  5
D1
330
47
100
AcDbEntity
  8
0
  6
Continuous
 62
     7
100
AcDbLine
 10
226.0420965963473
 20
820.6683908583901
 30
0.0
 11
225.3629184208983
 21
820.8644527096018
 31
0.0
  0
LINE
  5
D2
330
47
100
AcDbEntity
  8
0
  6
Continuous
 62
     7
100
AcDbLine
 10
225.6896860638983
 20
814.122044158123
 30
0.0
 11
224.1340861909452
 21
812.7748551500218
 31
0.0
  0
LINE
  5
D3
330
47
100
AcDbEntity
  8
0
  6
Continuous
 62
     7
100
AcDbLine
 10
224.5511745389983
 20
804.2975901453681
 30
0.0
 11
224.1340861909452
 21
812.7748551500218
 31
0.0
  0
LINE
  5
D4
330
47
100
AcDbEntity
  8
0
  6
Continuous
 62
     7
100
AcDbLine
 10
223.871404225454
 20
804.493822932124
 30
0.0
 11
224.5511745389983
 21
804.2975901453681
 31
0.0
  0
LINE
  5
D5
330
47
100
AcDbEntity
  8
0
  6
Continuous
 62
     7
100
AcDbLine
 10
223.3852079185621
 20
806.1040294722575
 30
0.0
 11
223.2038009305594
 21
813.5634537945136
 31
0.0
  0
LINE
  5
D6
330
47
100
AcDbEntity
  8
0
  6
Continuous
 62
     7
100
AcDbLine
 10
226.0441968720166
 20
803.8665917224309
 30
0.0
 11
226.4734076200497
 21
812.0233596381269
 31
0.0
  0
LINE
  5
D7
330
47
100
AcDbEntity
  8
0
  6
Continuous
 62
     7
100
AcDbLine
 10
225.7806116831782
 20
812.2459169279206
 30
0.0
 11
225.3638065555047
 21
804.063003488627
 31
0.0
  0
LINE
  5
D8
330
47
100
AcDbEntity
  8
0
  6
Continuous
 62
     7
100
AcDbLine
 10
223.7947240823504
 20
805.67805194194
 30
0.0
 11
223.3852079185621
 21
806.1040294722575
 31
0.0
  0
LINE
  5
D9
330
47
100
AcDbEntity
  8
0
  6
Continuous
 62
     7
100
AcDbLine
 10
223.2038009305594
 20
813.5634537945136
 30
0.0
 11
223.3852079185621
 21
820.9181427434141
 31
0.0
  0
LINE
  5
DA
330
47
100
AcDbEntity
  8
0
  6
Continuous
 62
     7
100
AcDbLine
 10
227.4766988298846
 20
803.1788226490708
 30
0.0
 11
226.6266988298846
 21
802.4427010558541
 31
0.0
  0
LINE
  5
DB
330
47
100
AcDbEntity
  8
0
  6
Continuous
 62
     7
100
AcDbLine
 10
227.3545283775441
 20
804.9581853545109
 30
0.0
 11
226.9450122137557
 21
804.7686420915941
 31
0.0
  0
LINE
  5
DC
330
47
100
AcDbEntity
  8
0
  6
Continuous
 62
     7
100
AcDbLine
 10
226.3669197418955
 20
802.5176928190444
 30
0.0
 11
226.8859076200497
 21
812.380595117188
 31
0.0
  0
LINE
  5
DD
330
47
100
AcDbEntity
  8
0
  6
Continuous
 62
     7
100
AcDbLine
 10
226.9450122137557
 20
804.7686420915941
 30
0.0
 11
226.6266988298846
 21
802.4427010558541
 31
0.0
  0
LINE
  5
DE
330
47
100
AcDbEntity
  8
0
  6
Continuous
 62
     7
100
AcDbLine
 10
227.5324824887252
 20
812.1728861183868
 30
0.0
 11
227.3545283775441
 21
804.9581853545109
 31
0.0
  0
LINE
  5
DF
330
47
100
AcDbEntity
  8
0
  6
Continuous
 62
     7
100
AcDbLine
 10
223.4412584151573
 20
812.9974226679111
 30
0.0
 11
223.871404225454
 21
804.493822932124
 31
0.0
  0
LINE
  5
E0
330
47
100
AcDbEntity
  8
0
  6
Continuous
 62
     7
100
AcDbLine
 10
223.8717749614269
 20
821.2949087484648
 30
0.0
 11
223.4412584151573
 21
812.9974226679111
 31
0.0
  0
LINE
  5
E1
330
47
100
AcDbEntity
  8
0
  6
Continuous
 62
     7
100
AcDbLine
 10
225.3629184208983
 20
820.8644527096018
 30
0.0
 11
225.7806116831782
 21
812.2459169279206
 31
0.0
  0
LINE
  5
E2
330
47
100
AcDbEntity
  8
0
  6
Continuous
 62
     7
100
AcDbLine
 10
226.2223689343266
 20
802.3925081475521
 30
0.0
 11
224.2282657466413
 21
802.9681561536532
 31
0.0
  0
LINE
  5
E3
330
47
100
AcDbEntity
  8
0
  6
Continuous
 62
     7
100
AcDbLine
 10
216.3969246127228
 20
846.7241548253538
 30
0.0
 11
216.3969246127228
 21
846.9839624464892
 31
0.0
  0
LINE
  5
E4
330
47
100
AcDbEntity
  8
0
  6
Continuous
 62
     7
100
AcDbLine
 10
216.9165398549935
 20
846.5741548253537
 30
0.0
 11
216.9165398549935
 21
846.8339624464891
 31
0.0
  0
LINE
  5
E5
330
47
100
AcDbEntity
  8
0
  6
Continuous
 62
     7
100
AcDbLine
 10
215.1469246127228
 20
844.7755976668387
 30
0.0
 11
215.1469246127228
 21
845.6416230706233
 31
0.0
  0
LINE
  5
E6
330
47
100
AcDbEntity
  8
0
  6
Continuous
 62
     7
100
AcDbLine
 10
219.4165398549935
 20
848.7392183348148
 30
0.0
 11
216.9165398549935
 21
846.5741548253537
 31
0.0
  0
LINE
  5
E7
330
47
100
AcDbEntity
  8
0
  6
Continuous
 62
     7
100
AcDbLine
 10
216.3969246127228
 20
846.9839624464892
 30
0.0
 11
216.9165398549935
 21
846.8339624464891
 31
0.0
  0
LINE
  5
E8
330
47
100
AcDbEntity
  8
0
  6
Continuous
 62
     7
100
AcDbLine
 10
219.4165398549935
 20
848.9990259559502
 30
0.0
 11
216.9165398549935
 21
846.8339624464891
 31
0.0
  0
LINE
  5
E9
330
47
100
AcDbEntity
  8
0
  6
Continuous
 62
     7
100
AcDbLine
 10
216.3969246127228
 20
846.9839624464892
 30
0.0
 11
218.8969246127228
 21
849.1490259559503
 31
0.0
  0
LINE
  5
EA
330
47
100
AcDbEntity
  8
0
  6
Continuous
 62
     7
100
AcDbLine
 10
225.4525601793977
 20
821.8395831395839
 30
0.0
 11
225.3629184208983
 21
820.8644527096018
 31
0.0
  0
LINE
  5
EB
330
47
100
AcDbEntity
  8
0
  6
Continuous
 62
     7
100
AcDbLine
 10
228.4166143361531
 20
833.3054340944152
 30
0.0
 11
227.5666143361531
 21
832.5693125011984
 31
0.0
  0
LINE
  5
EC
330
47
100
AcDbEntity
  8
0
  6
Continuous
 62
     7
100
AcDbLine
 10
228.1531591007563
 20
825.9358252939562
 30
0.0
 11
227.3031591007563
 21
825.1997037007395
 31
0.0
  0
LINE
  5
ED
330
47
100
AcDbEntity
  8
0
  6
Continuous
 62
     7
100
AcDbLine
 10
227.7725939641088
 20
825.6062462178248
 30
0.0
 11
227.4766988298846
 21
823.4441171028067
 31
0.0
  0
LINE
  5
EE
330
47
100
AcDbEntity
  8
0
  6
Continuous
 62
     7
100
AcDbLine
 10
224.5515734832411
 20
821.0986678186828
 30
0.0
 11
224.7249491239373
 21
822.049626358951
 31
0.0
  0
LINE
  5
EF
330
47
100
AcDbEntity
  8
0
  6
Continuous
 62
     7
100
AcDbLine
 10
224.5515734832411
 20
821.0986678186828
 30
0.0
 11
223.8717749614269
 21
821.2949087484648
 31
0.0
  0
LINE
  5
F0
330
47
100
AcDbEntity
  8
0
  6
Continuous
 62
     7
100
AcDbLine
 10
223.3852079185621
 20
820.9181427434141
 30
0.0
 11
223.7947240823504
 21
821.1076860063309
 31
0.0
  0
LINE
  5
F1
330
47
100
AcDbEntity
  8
0
  6
Continuous
 62
     7
100
AcDbLine
 10
225.1450355626729
 20
822.3571509756762
 30
0.0
 11
225.4525601793977
 21
821.8395831395839
 31
0.0
  0
LINE
  5
F2
330
47
100
AcDbEntity
  8
0
  6
Continuous
 62
     7
100
AcDbLine
 10
224.7249491239373
 20
822.049626358951
 30
0.0
 11
225.1450355626729
 21
822.3571509756762
 31
0.0
  0
LINE
  5
F3
330
47
100
AcDbEntity
  8
0
  6
Continuous
 62
     7
100
AcDbLine
 10
223.7947240823504
 20
821.1076860063309
 30
0.0
 11
224.1130374662215
 21
823.4336270420711
 31
0.0
  0
LINE
  5
F4
330
47
100
AcDbEntity
  8
0
  6
Continuous
 62
     7
100
AcDbLine
 10
224.2282657466413
 20
823.2334506073888
 30
0.0
 11
223.8717749614269
 21
821.2949087484648
 31
0.0
  0
LINE
  5
F5
330
47
100
AcDbEntity
  8
0
  6
Continuous
 62
     7
100
AcDbLine
 10
226.2223689343266
 20
822.6578026012872
 30
0.0
 11
226.3669197418955
 21
822.7829872727795
 31
0.0
  0
LINE
  5
F6
330
47
100
AcDbEntity
  8
0
  6
Continuous
 62
     7
100
AcDbLine
 10
223.7947240823505
 20
825.9433463956755
 30
0.0
 11
223.3852079185621
 21
826.369323925993
 31
0.0
  0
LINE
  5
F7
330
47
100
AcDbEntity
  8
0
  6
Continuous
 62
     7
100
AcDbLine
 10
225.4525601793977
 20
823.6050933342764
 30
0.0
 11
225.1450355626728
 21
823.3950501149087
 31
0.0
  0
LINE
  5
F8
330
47
100
AcDbEntity
  8
0
  6
Continuous
 62
     7
100
AcDbLine
 10
225.1450355626728
 20
823.3950501149087
 30
0.0
 11
224.7249491239366
 21
823.815136553645
 31
0.0
  0
LINE
  5
F9
330
47
100
AcDbEntity
  8
0
  6
Continuous
 62
     7
100
AcDbLine
 10
225.446329012042
 20
823.6559778960562
 30
0.0
 11
225.1450355626728
 21
823.3950501149087
 31
0.0
  0
LINE
  5
FA
330
47
100
AcDbEntity
  8
0
  6
Continuous
 62
     7
100
AcDbLine
 10
225.3640058049205
 20
824.3282404240106
 30
0.0
 11
226.0443812879464
 21
824.131832939873
 31
0.0
  0
LINE
  5
FB
330
47
100
AcDbEntity
  8
0
  6
Continuous
 62
     7
100
AcDbLine
 10
224.1130374662215
 20
823.4336270420711
 30
0.0
 11
224.0326413205607
 21
824.0675047642903
 31
0.0
  0
LINE
  5
FC
330
47
100
AcDbEntity
  8
0
  6
Continuous
 62
     7
100
AcDbLine
 10
223.8199479401464
 20
825.7444706735386
 30
0.0
 11
223.7947240823505
 21
825.9433463956755
 31
0.0
  0
LINE
  5
FD
330
47
100
AcDbEntity
  8
0
  6
Continuous
 62
     7
100
AcDbLine
 10
224.2282657466413
 20
823.2334506073888
 30
0.0
 11
223.8703550081593
 21
824.7594202688032
 31
0.0
  0
LINE
  5
FE
330
47
100
AcDbEntity
  8
0
  6
Continuous
 62
     7
100
AcDbLine
 10
224.7249491239366
 20
823.815136553645
 30
0.0
 11
224.5507304911848
 21
824.5630127846658
 31
0.0
  0
LINE
  5
FF
330
47
100
AcDbEntity
  8
0
  6
Continuous
 62
     7
100
AcDbLine
 10
226.0443812879464
 20
824.131832939873
 30
0.0
 11
226.4733799147701
 21
832.2676031781447
 31
0.0
  0
LINE
  5
100
330
47
100
AcDbEntity
  8
0
  6
Continuous
 62
     7
100
AcDbLine
 10
225.3640058049205
 20
824.3282404240106
 30
0.0
 11
225.4525601793977
 21
823.6050933342764
 31
0.0
  0
LINE
  5
101
330
47
100
AcDbEntity
  8
0
  6
Continuous
 62
     7
100
AcDbLine
 10
225.3661658103616
 20
824.3704464934195
 30
0.0
 11
224.7249491239366
 21
823.815136553645
 31
0.0
  0
LINE
  5
102
330
47
100
AcDbEntity
  8
0
  6
Continuous
 62
     7
100
AcDbLine
 10
225.7805588865469
 20
832.467603381717
 30
0.0
 11
225.3640058049205
 21
824.3282404240106
 31
0.0
  0
LINE
  5
103
330
47
100
AcDbEntity
  8
0
  6
Continuous
 62
     7
100
AcDbLine
 10
224.5507304911848
 20
824.5630127846658
 30
0.0
 11
224.1341774095591
 21
832.942872776181
 31
0.0
  0
LINE
  5
104
330
47
100
AcDbEntity
  8
0
  6
Continuous
 62
     7
100
AcDbLine
 10
223.8703550081593
 20
824.7594202688032
 30
0.0
 11
224.5507304911848
 21
824.5630127846658
 31
0.0
  0
LINE
  5
105
330
47
100
AcDbEntity
  8
0
  6
Continuous
 62
     7
100
AcDbLine
 10
227.4766988298846
 20
823.4441171028067
 30
0.0
 11
226.6266988298846
 21
822.7079955095899
 31
0.0
  0
LINE
  5
106
330
47
100
AcDbEntity
  8
0
  6
Continuous
 62
     7
100
AcDbLine
 10
227.3031591007563
 20
825.1997037007395
 30
0.0
 11
226.9450122137557
 21
825.0339365453295
 31
0.0
  0
LINE
  5
107
330
47
100
AcDbEntity
  8
0
  6
Continuous
 62
     7
100
AcDbLine
 10
226.3669197418955
 20
822.7829872727795
 30
0.0
 11
226.8858799147702
 21
832.6248386572057
 31
0.0
  0
LINE
  5
108
330
47
100
AcDbEntity
  8
0
  6
Continuous
 62
     7
100
AcDbLine
 10
226.9450122137557
 20
825.0339365453295
 30
0.0
 11
226.6266988298846
 21
822.7079955095899
 31
0.0
  0
LINE
  5
109
330
47
100
AcDbEntity
  8
0
  6
Continuous
 62
     7
100
AcDbLine
 10
226.4733799147701
 20
832.2676031781447
 30
0.0
 11
226.8858799147702
 21
832.6248386572057
 31
0.0
  0
LINE
  5
10A
330
47
100
AcDbEntity
  8
0
  6
Continuous
 62
     7
100
AcDbLine
 10
227.5666143361531
 20
832.5693125011984
 30
0.0
 11
227.3031591007563
 21
825.1997037007395
 31
0.0
  0
LINE
  5
10B
330
47
100
AcDbEntity
  8
0
  6
Continuous
 62
     7
100
AcDbLine
 10
223.4413563813355
 20
833.1428729797535
 30
0.0
 11
223.8703550081593
 21
824.7594202688032
 31
0.0
  0
LINE
  5
10C
330
47
100
AcDbEntity
  8
0
  6
Continuous
 62
     7
100
AcDbLine
 10
223.3852079185621
 20
826.369323925993
 30
0.0
 11
223.2072538073805
 21
833.6867665438803
 31
0.0
  0
LINE
  5
10D
330
47
100
AcDbEntity
  8
0
  6
Continuous
 62
     7
100
AcDbLine
 10
226.2223689343266
 20
822.6578026012872
 30
0.0
 11
224.2282657466413
 21
823.2334506073888
 31
0.0
  0
LINE
  5
10E
330
47
100
AcDbEntity
  8
0
  6
Continuous
 62
     7
100
AcDbLine
 10
227.7950122137557
 20
820.9343977492019
 30
0.0
 11
227.4766988298846
 21
823.4441171028067
 31
0.0
  0
LINE
  5
10F
330
47
100
AcDbEntity
  8
0
  6
Continuous
 62
     7
100
AcDbLine
 10
228.4166143361531
 20
833.3054340944152
 30
0.0
 11
228.1531591007563
 21
825.9358252939562
 31
0.0
  0
LINE
  5
110
330
47
100
AcDbEntity
  8
0
  6
Continuous
 62
     7
100
AcDbLine
 10
223.8203577983688
 20
821.2949935937805
 30
0.0
 11
223.3852079185621
 21
820.9181427434141
 31
0.0
  0
LINE
  5
111
330
47
100
AcDbEntity
  8
0
  6
Continuous
 62
     7
100
AcDbLine
 10
216.3969246127228
 20
846.7241548253538
 30
0.0
 11
216.9165398549935
 21
846.5741548253537
 31
0.0
  0
LINE
  5
112
330
47
100
AcDbEntity
  8
0
  6
Continuous
 62
     7
100
AcDbLine
 10
216.3969246127228
 20
846.7241548253538
 30
0.0
 11
215.1469246127228
 21
845.6416230706233
 31
0.0
  0
LINE
  5
113
330
47
100
AcDbEntity
  8
0
  6
Continuous
 62
     7
100
AcDbLine
 10
228.3824824887252
 20
812.9090077116036
 30
0.0
 11
228.2392103984603
 21
820.4723440809374
 31
0.0
  0
LINE
  5
114
330
47
100
AcDbEntity
  8
0
  6
Continuous
 62
     7
100
AcDbLine
 10
228.3824824887252
 20
812.9090077116036
 30
0.0
 11
227.5324824887252
 21
812.1728861183868
 31
0.0
  0
LINE
  5
115
330
47
100
AcDbEntity
  8
0
  6
Continuous
 62
     7
100
AcDbLine
 10
228.2392103984603
 20
820.4723440809374
 30
0.0
 11
227.7950122137557
 21
820.9343977492019
 31
0.0
  0
LINE
  5
116
330
47
100
AcDbEntity
  8
0
  6
Continuous
 62
     7
100
AcDbLine
 10
228.2392103984603
 20
820.4723440809374
 30
0.0
 11
227.3892103984604
 21
819.7362224877206
 31
0.0
  0
LINE
  5
117
330
47
100
AcDbEntity
  8
0
  6
Continuous
 62
     7
100
AcDbLine
 10
226.4734076200497
 20
812.0233596381269
 30
0.0
 11
226.8859076200497
 21
812.380595117188
 31
0.0
  0
LINE
  5
118
330
47
100
AcDbEntity
  8
0
  6
Continuous
 62
     7
100
AcDbLine
 10
227.7170965963474
 20
822.1189834097291
 30
0.0
 11
227.7639965776079
 21
821.1789383379698
 31
0.0
  0
LINE
  5
119
330
47
100
AcDbEntity
  8
0
  6
Continuous
 62
     7
100
AcDbLine
 10
227.5584844155789
 20
822.7992844389499
 30
0.0
 11
227.7170965963474
 21
822.1189834097291
 31
0.0
  0
LINE
  5
11A
330
47
100
AcDbEntity
  8
0
  6
Continuous
 62
     7
100
AcDbLine
 10
228.2045283775441
 20
805.6943069477277
 30
0.0
 11
227.3545283775441
 21
804.9581853545109
 31
0.0
  0
LINE
  5
11B
330
47
100
AcDbEntity
  8
0
  6
Continuous
 62
     7
100
AcDbLine
 10
226.0420965963473
 20
820.6683908583901
 30
0.0
 11
226.2223689343266
 21
822.6578026012872
 31
0.0
  0
LINE
  5
11C
330
47
100
AcDbEntity
  8
0
  6
Continuous
 62
     7
100
AcDbLine
 10
226.0443812879464
 20
824.131832939873
 30
0.0
 11
226.2223689343266
 21
822.6578026012872
 31
0.0
  0
LINE
  5
11D
330
47
100
AcDbEntity
  8
0
  6
Continuous
 62
     7
100
AcDbLine
 10
226.6266988298846
 20
822.7079955095899
 30
0.0
 11
226.9450122137557
 21
820.1982761559851
 31
0.0
  0
LINE
  5
11E
330
47
100
AcDbEntity
  8
0
  6
Continuous
 62
     7
100
AcDbLine
 10
226.9450122137557
 20
820.1982761559851
 30
0.0
 11
227.3892103984604
 21
819.7362224877206
 31
0.0
  0
LINE
  5
11F
330
47
100
AcDbEntity
  8
0
  6
Continuous
 62
     7
100
AcDbLine
 10
226.8859076200497
 20
812.380595117188
 30
0.0
 11
226.3669197418955
 21
822.7829872727795
 31
0.0
  0
LINE
  5
120
330
47
100
AcDbEntity
  8
0
  6
Continuous
 62
     7
100
AcDbLine
 10
227.3892103984604
 20
819.7362224877206
 30
0.0
 11
227.5324824887252
 21
812.1728861183868
 31
0.0
  0
LINE
  5
121
330
47
100
AcDbEntity
  8
0
  6
Continuous
 62
     7
100
AcDbLine
 10
226.4733799147701
 20
832.2676031781447
 30
0.0
 11
226.0384032201318
 21
841.6314986139084
 31
0.0
  0
LINE
  5
122
330
47
100
AcDbEntity
  8
0
  6
Continuous
 62
     7
100
AcDbLine
 10
227.7950122137557
 20
820.9343977492019
 30
0.0
 11
226.9450122137557
 21
820.1982761559851
 31
0.0
  0
LINE
  5
123
330
47
100
AcDbEntity
  8
0
  6
Continuous
 62
     7
100
AcDbLine
 10
228.2045283775441
 20
805.6943069477277
 30
0.0
 11
228.3824824887252
 21
812.9090077116036
 31
0.0
  0
LINE
  5
124
330
47
100
AcDbEntity
  8
0
  6
Continuous
 62
     7
100
AcDbLine
 10
226.4734076200497
 20
812.0233596381269
 30
0.0
 11
226.0420965963473
 21
820.6683908583901
 31
0.0
  0
LINE
  5
125
330
47
100
AcDbEntity
  8
0
  6
Continuous
 62
     7
100
AcDbLine
 10
238.8530733344667
 20
843.705724685761
 30
0.0
 11
238.8530733344667
 21
844.5717500895454
 31
0.0
  0
LINE
  5
126
330
47
100
AcDbEntity
  8
0
  6
Continuous
 62
     7
100
AcDbLine
 10
238.8530733344667
 20
844.5717500895454
 30
0.0
 11
233.8530733344667
 21
840.2416230706232
 31
0.0
  0
LINE
  5
127
330
47
100
AcDbEntity
  8
0
  6
Continuous
 62
     7
100
AcDbLine
 10
233.8530733344667
 20
840.2416230706232
 30
0.0
 11
233.8530733344667
 21
839.3755976668388
 31
0.0
  0
LINE
  5
128
330
47
100
AcDbEntity
  8
0
  6
Continuous
 62
     7
100
AcDbLine
 10
233.8530733344667
 20
839.3755976668388
 30
0.0
 11
238.8530733344667
 21
843.705724685761
 31
0.0
  0
LINE
  5
129
330
47
100
AcDbEntity
  8
0
  6
Continuous
 62
     7
100
AcDbLine
 10
223.3741450497916
 20
842.4006036998268
 30
0.0
 11
223.2072538073805
 21
833.6867665438803
 31
0.0
  0
LINE
  5
12A
330
47
100
AcDbEntity
  8
0
  6
Continuous
 62
     7
100
AcDbLine
 10
225.6950940172534
 20
834.2946662116333
 30
0.0
 11
224.1341774095591
 21
832.942872776181
 31
0.0
  0
LINE
  5
12B
330
47
100
AcDbEntity
  8
0
  6
Continuous
 62
     7
100
AcDbLine
 10
227.261570212304
 20
841.2784007178112
 30
0.0
 11
227.5666143361531
 21
832.5693125011984
 31
0.0
  0
LINE
  5
12C
330
47
100
AcDbEntity
  8
0
  6
Continuous
 62
     7
100
AcDbLine
 10
226.8858799147702
 20
832.6248386572057
 30
0.0
 11
226.473329947828
 21
841.5059460822519
 31
0.0
  0
LINE
  5
12D
330
47
100
AcDbEntity
  8
0
  6
Continuous
 62
     7
100
AcDbLine
 10
223.8763330759739
 20
842.2556345037767
 30
0.0
 11
223.4413563813355
 21
833.1428729797535
 31
0.0
  0
LINE
  5
12E
330
47
100
AcDbEntity
  8
0
  6
Continuous
 62
     7
100
AcDbLine
 10
225.3425005364412
 20
841.8323884147877
 30
0.0
 11
225.7805588865469
 21
832.467603381717
 31
0.0
  0
LINE
  5
12F
330
47
100
AcDbEntity
  8
0
  6
Continuous
 62
     7
100
AcDbLine
 10
224.1341774095591
 20
832.942872776181
 30
0.0
 11
224.5722357596646
 21
842.0547447028974
 31
0.0
  0
LINE
  5
130
330
47
100
AcDbEntity
  8
0
  6
Continuous
 62
     7
100
AcDbLine
 10
228.1462991759087
 20
841.0230014651627
 30
0.0
 11
228.4166143361531
 21
833.3054340944152
 31
0.0
  0
LINE
  5
131
330
47
100
AcDbEntity
  8
0
  6
Continuous
 62
     7
100
AcDbLine
 10
215.1469246127228
 20
845.6416230706233
 30
0.0
 11
233.8530733344667
 21
840.2416230706232
 31
0.0
  0
LINE
  5
132
330
47
100
AcDbEntity
  8
0
  6
Continuous
 62
     7
100
AcDbLine
 10
219.4165398549935
 20
848.7392183348148
 30
0.0
 11
219.4165398549935
 21
848.9990259559502
 31
0.0
  0
LINE
  5
133
330
47
100
AcDbEntity
  8
0
  6
Continuous
 62
     7
100
AcDbLine
 10
219.4165398549935
 20
848.9990259559502
 30
0.0
 11
218.8969246127228
 21
849.1490259559503
 31
0.0
  0
LINE
  5
134
330
47
100
AcDbEntity
  8
0
  6
Continuous
 62
     7
100
AcDbLine
 10
220.1469246127228
 20
849.9717500895454
 30
0.0
 11
219.1219246127229
 21
849.0840740506663
 31
0.0
  0
LINE
  5
135
330
47
100
AcDbEntity
  8
0
  6
Continuous
 62
     7
100
AcDbLine
 10
220.1469246127228
 20
849.9717500895454
 30
0.0
 11
238.8530733344667
 21
844.5717500895454
 31
0.0
  0
LINE
  5
136
330
47
100
AcDbEntity
  8
0
  6
Continuous
 62
     7
100
AcDbLine
 10
233.8530733344667
 20
839.3755976668388
 30
0.0
 11
215.1469246127228
 21
844.7755976668387
 31
0.0
  0
ENDBLK
  5
49
330
47
100
AcDbEntity
  8
0
100
AcDbBlockEnd
  0
BLOCK
  5
4C
330
4A
100
AcDbEntity
  8
0
100
AcDbBlockBegin
  2
AllgSicht1
 70
     0
 10
227.0000000000692
 20
813.2717260531459
 30
0.0
  3
AllgSicht1
  1

  0
INSERT
  5
4B
330
4A
100
AcDbEntity
  8
0
100
AcDbBlockReference
  2
KLM_3_L-select__1
 10
215.1469246127228
 20
782.1417137712998
 30
0.0
  0
MTEXT
  5
138
330
4A
100
AcDbEntity
  8
1
 62
     6
100
AcDbMText
 10
226.9999989735946
 20
777.119929281023
 30
0.0
 40
5.0
 41
0.0
 71
     2
 72
     1
  1
 
  7
CONVERTER_11
 73
     1
 44
1.32052821128451
  0
ENDBLK
  5
4D
330
4A
100
AcDbEntity
  8
0
100
AcDbBlockEnd
  0
BLOCK
  5
4F
330
4E
100
AcDbEntity
  8
0
100
AcDbBlockBegin
  2
KLM_3_L-select__2
 70
     0
 10
56.60000086790009
 20
784.8803080615947
 30
0.0
  3
KLM_3_L-select__2
  1

  0
LINE
  5
139
330
4E
100
AcDbEntity
  8
0
  6
Continuous
 62
     7
100
AcDbLine
 10
56.60000086790009
 20
787.3803080615947
 30
0.0
 11
57.2000008679001
 21
787.3803080615947
 31
0.0
  0
LINE
  5
13A
330
4E
100
AcDbEntity
  8
0
  6
Continuous
 62
     7
100
AcDbLine
 10
56.60000086790009
 20
784.8803080615947
 30
0.0
 11
78.20000086790009
 21
784.8803080615947
 31
0.0
  0
LINE
  5
13B
330
4E
100
AcDbEntity
  8
0
  6
Continuous
 62
     7
100
AcDbLine
 10
57.2000008679001
 20
792.3803080615947
 30
0.0
 11
57.2000008679001
 21
787.3803080615947
 31
0.0
  0
LINE
  5
13C
330
4E
100
AcDbEntity
  8
0
  6
Continuous
 62
     7
100
AcDbLine
 10
57.2000008679001
 20
792.3803080615947
 30
0.0
 11
56.60000086790009
 21
792.3803080615947
 31
0.0
  0
LINE
  5
13D
330
4E
100
AcDbEntity
  8
0
  6
Continuous
 62
     7
100
AcDbLine
 10
56.60000086790009
 20
787.3803080615947
 30
0.0
 11
56.60000086790009
 21
792.3803080615947
 31
0.0
  0
LINE
  5
13E
330
4E
100
AcDbEntity
  8
0
  6
Continuous
 62
     7
100
AcDbLine
 10
56.60000086790009
 20
787.3803080615947
 30
0.0
 11
56.60000086790009
 21
784.8803080615947
 31
0.0
  0
LINE
  5
13F
330
4E
100
AcDbEntity
  8
0
  6
Continuous
 62
     7
100
AcDbLine
 10
56.60000086790009
 20
794.8803080615947
 30
0.0
 11
56.60000086790009
 21
792.3803080615947
 31
0.0
  0
LINE
  5
140
330
4E
100
AcDbEntity
  8
0
  6
Continuous
 62
     7
100
AcDbLine
 10
56.60000086790009
 20
794.8803080615947
 30
0.0
 11
78.20000086790009
 21
794.8803080615947
 31
0.0
  0
LINE
  5
141
330
4E
100
AcDbEntity
  8
0
  6
Continuous
 62
     7
100
AcDbLine
 10
78.20000086790009
 20
794.8803080615947
 30
0.0
 11
78.20000086790009
 21
784.8803080615947
 31
0.0
  0
ENDBLK
  5
50
330
4E
100
AcDbEntity
  8
0
100
AcDbBlockEnd
  0
BLOCK
  5
53
330
51
100
AcDbEntity
  8
0
100
AcDbBlockBegin
  2
Drfsicht1
 70
     0
 10
67.40000194183342
 20
789.8803082544366
 30
0.0
  3
Drfsicht1
  1

  0
INSERT
  5
52
330
51
100
AcDbEntity
  8
0
100
AcDbBlockReference
  2
KLM_3_L-select__2
 10
56.60000086790009
 20
784.8803080615947
 30
0.0
  0
MTEXT
  5
142
330
51
100
AcDbEntity
  8
1
 62
     6
100
AcDbMText
 10
72.17474447897669
 20
779.8803080615946
 30
0.0
 40
5.0
 41
0.0
 71
     2
 72
     1
  1
 
  7
CONVERTER_11
 73
     1
 44
1.32052821128451
  0
DIMENSION
  5
14F
330
51
100
AcDbEntity
  8
1
100
AcDbDimension
  2
*D17
 10
46.60000086790009
 20
784.8803080615947
 30
0.0
 11
42.85000086790009
 21
790.6900497459493
 31
0.0
 70
    32
  1
<>
 71
     5
 42
-1.0
 53
90.0
  3
ME10_DIM_10
100
AcDbAlignedDimension
 13
56.60000086790009
 23
794.8803080615947
 33
0.0
 14
56.60000086790009
 24
784.8803080615947
 34
0.0
 50
90.0
100
AcDbRotatedDimension
  0
ENDBLK
  5
54
330
51
100
AcDbEntity
  8
0
100
AcDbBlockEnd
  0
BLOCK
  5
56
330
55
100
AcDbEntity
  8
0
100
AcDbBlockBegin
  2
KLM_3_L-select__3
 70
     0
 10
165.7999991321001
 20
823.9598225497389
 30
0.0
  3
KLM_3_L-select__3
  1

  0
LINE
  5
150
330
55
100
AcDbEntity
  8
0
  6
Continuous
 62
     7
100
AcDbLine
 10
186.7999991321001
 20
897.7598458461514
 30
0.0
 11
186.7999991321001
 21
898.0598458461513
 31
0.0
  0
LINE
  5
151
330
55
100
AcDbEntity
  8
0
  6
Continuous
 62
     7
100
AcDbLine
 10
187.3999991321001
 20
897.7598458461514
 30
0.0
 11
187.3999991321001
 21
896.7598458461514
 31
0.0
  0
LINE
  5
152
330
55
100
AcDbEntity
  8
0
  6
Continuous
 62
     7
100
AcDbLine
 10
187.3999991321001
 20
897.7598458461514
 30
0.0
 11
187.3999991321001
 21
898.0598458461513
 31
0.0
  0
LINE
  5
153
330
55
100
AcDbEntity
  8
0
  6
Continuous
 62
     7
100
AcDbLine
 10
186.7999991321001
 20
898.0598458461513
 30
0.0
 11
187.3999991321001
 21
898.0598458461513
 31
0.0
  0
LINE
  5
154
330
55
100
AcDbEntity
  8
0
  6
Continuous
 62
     7
100
AcDbLine
 10
180.3255375037654
 20
882.2782238985604
 30
0.0
 11
179.7999987148378
 21
893.3614505049458
 31
0.0
  0
LINE
  5
155
330
55
100
AcDbEntity
  8
0
  6
Continuous
 62
     7
100
AcDbLine
 10
178.1499987148379
 20
893.9411924982055
 30
0.0
 11
178.1499987148379
 21
893.4399885254119
 31
0.0
  0
LINE
  5
156
330
55
100
AcDbEntity
  8
0
  6
Continuous
 62
     7
100
AcDbLine
 10
180.5999991321002
 20
893.9411924982055
 30
0.0
 11
180.5999991321002
 21
893.4399796633119
 31
0.0
  0
LINE
  5
157
330
55
100
AcDbEntity
  8
0
  6
Continuous
 62
     7
100
AcDbLine
 10
178.1499987148379
 20
894.4175064702869
 30
0.0
 11
178.1499987148379
 21
893.9411924982055
 31
0.0
  0
LINE
  5
158
330
55
100
AcDbEntity
  8
0
  6
Continuous
 62
     7
100
AcDbLine
 10
180.5999991321002
 20
894.4175064702869
 30
0.0
 11
180.5999991321002
 21
893.9411924982055
 31
0.0
  0
LINE
  5
159
330
55
100
AcDbEntity
  8
0
  6
Continuous
 62
     7
100
AcDbLine
 10
181.6307380222912
 20
894.9537617456755
 30
0.0
 11
177.2811621244057
 21
894.9537617456755
 31
0.0
  0
LINE
  5
15A
330
55
100
AcDbEntity
  8
0
  6
Continuous
 62
     7
100
AcDbLine
 10
180.5999991321002
 20
893.9411924982055
 30
0.0
 11
181.6500245618863
 21
893.9411924982055
 31
0.0
  0
LINE
  5
15B
330
55
100
AcDbEntity
  8
0
  6
Continuous
 62
     7
100
AcDbLine
 10
180.5999991321002
 20
894.4175064702869
 30
0.0
 11
178.1499987148379
 21
894.4175064702869
 31
0.0
  0
LINE
  5
15C
330
55
100
AcDbEntity
  8
0
  6
Continuous
 62
     7
100
AcDbLine
 10
178.9499987148378
 20
893.3614505049458
 30
0.0
 11
179.7999987148378
 21
893.3614505049458
 31
0.0
  0
LINE
  5
15D
330
55
100
AcDbEntity
  8
0
  6
Continuous
 62
     7
100
AcDbLine
 10
180.5999991321002
 20
893.4399796633119
 30
0.0
 11
181.1255383180555
 21
882.2782238985604
 31
0.0
  0
LINE
  5
15E
330
55
100
AcDbEntity
  8
0
  6
Continuous
 62
     7
100
AcDbLine
 10
177.2453336544219
 20
893.9411924982055
 30
0.0
 11
176.8384147087559
 21
882.441019290119
 31
0.0
  0
LINE
  5
15F
330
55
100
AcDbEntity
  8
0
  6
Continuous
 62
     7
100
AcDbLine
 10
181.640797152966
 20
894.4256438670171
 30
0.0
 11
183.9749991321002
 21
896.7598458461514
 31
0.0
  0
LINE
  5
160
330
55
100
AcDbEntity
  8
0
  6
Continuous
 62
     7
100
AcDbLine
 10
178.1499987148379
 20
893.9411924982055
 30
0.0
 11
177.2453336544219
 21
893.9411924982055
 31
0.0
  0
LINE
  5
161
330
55
100
AcDbEntity
  8
0
  6
Continuous
 62
     7
100
AcDbLine
 10
177.2811621244057
 20
894.9537617456755
 30
0.0
 11
177.2568426726056
 21
894.266455560977
 31
0.0
  0
LINE
  5
162
330
55
100
AcDbEntity
  8
0
  6
Continuous
 62
     7
100
AcDbLine
 10
177.2568426726056
 20
894.266455560977
 30
0.0
 11
177.2453336544219
 21
893.9411924982055
 31
0.0
  0
LINE
  5
163
330
55
100
AcDbEntity
  8
0
  6
Continuous
 62
     7
100
AcDbLine
 10
177.1426266109074
 20
873.8435096287857
 30
0.0
 11
177.5561790141458
 21
873.5327159095214
 31
0.0
  0
LINE
  5
164
330
55
100
AcDbEntity
  8
0
  6
Continuous
 62
     7
100
AcDbLine
 10
178.2237027026359
 20
870.7408460820234
 30
0.0
 11
178.1198240569774
 21
872.7408460820238
 31
0.0
  0
LINE
  5
165
330
55
100
AcDbEntity
  8
0
  6
Continuous
 62
     7
100
AcDbLine
 10
180.5262947270398
 20
870.7408460820236
 30
0.0
 11
178.2237027026359
 21
870.7408460820234
 31
0.0
  0
LINE
  5
166
330
55
100
AcDbEntity
  8
0
  6
Continuous
 62
     7
100
AcDbLine
 10
178.9549122761023
 20
871.7601638681865
 30
0.0
 11
178.9054539935274
 21
872.7408460820238
 31
0.0
  0
LINE
  5
167
330
55
100
AcDbEntity
  8
0
  6
Continuous
 62
     7
100
AcDbLine
 10
177.3450681043116
 20
896.7598458461514
 30
0.0
 11
177.2811621244057
 21
894.9537617456755
 31
0.0
  0
LINE
  5
168
330
55
100
AcDbEntity
  8
0
  6
Continuous
 62
     7
100
AcDbLine
 10
177.6244591116201
 20
882.2782238985604
 30
0.0
 11
178.1499987148379
 21
893.4399885254119
 31
0.0
  0
LINE
  5
169
330
55
100
AcDbEntity
  8
0
  6
Continuous
 62
     7
100
AcDbLine
 10
178.1198240569774
 20
872.7408460820238
 30
0.0
 11
177.6244591116201
 21
882.2782238985604
 31
0.0
  0
LINE
  5
16A
330
55
100
AcDbEntity
  8
0
  6
Continuous
 62
     7
100
AcDbLine
 10
178.1198240569774
 20
872.7408460820238
 30
0.0
 11
178.9054539935274
 21
872.7408460820238
 31
0.0
  0
LINE
  5
16B
330
55
100
AcDbEntity
  8
0
  6
Continuous
 62
     7
100
AcDbLine
 10
178.42445992591
 20
882.2782238985604
 30
0.0
 11
178.9054539935274
 21
872.7408460820238
 31
0.0
  0
LINE
  5
16C
330
55
100
AcDbEntity
  8
0
  6
Continuous
 62
     7
100
AcDbLine
 10
178.9499987148378
 20
893.3614505049458
 30
0.0
 11
178.42445992591
 21
882.2782238985604
 31
0.0
  0
LINE
  5
16D
330
55
100
AcDbEntity
  8
0
  6
Continuous
 62
     7
100
AcDbLine
 10
179.8445434361486
 20
872.7408460820238
 30
0.0
 11
180.3255375037654
 21
882.2782238985604
 31
0.0
  0
LINE
  5
16E
330
55
100
AcDbEntity
  8
0
  6
Continuous
 62
     7
100
AcDbLine
 10
179.8445434361486
 20
872.7408460820238
 30
0.0
 11
180.6301733726982
 21
872.7408460820238
 31
0.0
  0
LINE
  5
16F
330
55
100
AcDbEntity
  8
0
  6
Continuous
 62
     7
100
AcDbLine
 10
179.8445434361486
 20
872.7408460820238
 30
0.0
 11
179.7950851535738
 21
871.7601638681875
 31
0.0
  0
LINE
  5
170
330
55
100
AcDbEntity
  8
0
  6
Continuous
 62
     7
100
AcDbLine
 10
179.7950851535738
 20
871.7601638681875
 30
0.0
 11
179.3749987148376
 21
871.3400774294513
 31
0.0
  0
LINE
  5
171
330
55
100
AcDbEntity
  8
0
  6
Continuous
 62
     7
100
AcDbLine
 10
179.3749987148376
 20
871.3400774294513
 30
0.0
 11
178.9549122761023
 21
871.7601638681865
 31
0.0
  0
LINE
  5
172
330
55
100
AcDbEntity
  8
0
  6
Continuous
 62
     7
100
AcDbLine
 10
177.5561790141458
 20
873.5327159095214
 30
0.0
 11
177.9237356498751
 21
870.7408460820241
 31
0.0
  0
LINE
  5
173
330
55
100
AcDbEntity
  8
0
  6
Continuous
 62
     7
100
AcDbLine
 10
176.8384147087559
 20
882.441019290119
 30
0.0
 11
177.1426266109074
 21
873.8435096287857
 31
0.0
  0
LINE
  5
174
330
55
100
AcDbEntity
  8
0
  6
Continuous
 62
     7
100
AcDbLine
 10
177.5561790141459
 20
867.9489762545262
 30
0.0
 11
177.9237356498751
 21
870.7408460820241
 31
0.0
  0
LINE
  5
175
330
55
100
AcDbEntity
  8
0
  6
Continuous
 62
     7
100
AcDbLine
 10
177.0432631311203
 20
867.5635086965892
 30
0.0
 11
177.5561790141459
 21
867.9489762545262
 31
0.0
  0
LINE
  5
176
330
55
100
AcDbEntity
  8
0
  6
Continuous
 62
     7
100
AcDbLine
 10
176.8778267713568
 20
858.8778774823978
 30
0.0
 11
177.0432631311203
 21
867.5635086965892
 31
0.0
  0
LINE
  5
177
330
55
100
AcDbEntity
  8
0
  6
Continuous
 62
     7
100
AcDbLine
 10
177.0833104793444
 20
850.4877405890446
 30
0.0
 11
176.8778267713568
 21
858.8778774823978
 31
0.0
  0
LINE
  5
178
330
55
100
AcDbEntity
  8
0
  6
Continuous
 62
     7
100
AcDbLine
 10
177.5561790141458
 20
850.132369493379
 30
0.0
 11
177.0833104793444
 21
850.4877405890446
 31
0.0
  0
LINE
  5
179
330
55
100
AcDbEntity
  8
0
  6
Continuous
 62
     7
100
AcDbLine
 10
177.9237356498752
 20
847.3404996658812
 30
0.0
 11
177.5561790141458
 21
850.132369493379
 31
0.0
  0
LINE
  5
17A
330
55
100
AcDbEntity
  8
0
  6
Continuous
 62
     7
100
AcDbLine
 10
177.5561790141459
 20
844.5486298383837
 30
0.0
 11
177.9237356498752
 21
847.3404996658812
 31
0.0
  0
LINE
  5
17B
330
55
100
AcDbEntity
  8
0
  6
Continuous
 62
     7
100
AcDbLine
 10
177.0833104793444
 20
844.1932587427181
 30
0.0
 11
177.5561790141459
 21
844.5486298383837
 31
0.0
  0
LINE
  5
17C
330
55
100
AcDbEntity
  8
0
  6
Continuous
 62
     7
100
AcDbLine
 10
176.873839732632
 20
835.6403264578105
 30
0.0
 11
177.0833104793444
 21
844.1932587427181
 31
0.0
  0
LINE
  5
17D
330
55
100
AcDbEntity
  8
0
  6
Continuous
 62
     7
100
AcDbLine
 10
180.8262617798001
 20
870.740846082024
 30
0.0
 11
181.1938184155293
 21
873.5327159095215
 31
0.0
  0
LINE
  5
17E
330
55
100
AcDbEntity
  8
0
  6
Continuous
 62
     7
100
AcDbLine
 10
181.1938184155293
 20
873.5327159095215
 30
0.0
 11
181.6666869503307
 21
873.888087005187
 31
0.0
  0
LINE
  5
17F
330
55
100
AcDbEntity
  8
0
  6
Continuous
 62
     7
100
AcDbLine
 10
181.1938184155294
 20
867.9489762545261
 30
0.0
 11
181.6666869503307
 21
867.5936051588604
 31
0.0
  0
LINE
  5
180
330
55
100
AcDbEntity
  8
0
  6
Continuous
 62
     7
100
AcDbLine
 10
181.6307380222912
 20
894.9537617456755
 30
0.0
 11
181.640797152966
 21
894.4256438670171
 31
0.0
  0
LINE
  5
181
330
55
100
AcDbEntity
  8
0
  6
Continuous
 62
     7
100
AcDbLine
 10
181.640797152966
 20
894.4256438670171
 30
0.0
 11
181.6500245618863
 21
893.9411924982055
 31
0.0
  0
LINE
  5
182
330
55
100
AcDbEntity
  8
0
  6
Continuous
 62
     7
100
AcDbLine
 10
181.5963373009549
 20
896.7598458461514
 30
0.0
 11
181.6307380222912
 21
894.9537617456755
 31
0.0
  0
LINE
  5
183
330
55
100
AcDbEntity
  8
0
  6
Continuous
 62
     7
100
AcDbLine
 10
181.7067342985548
 20
844.1631622804467
 30
0.0
 11
181.8690698730903
 21
835.64032645781
 31
0.0
  0
LINE
  5
184
330
55
100
AcDbEntity
  8
0
  6
Continuous
 62
     7
100
AcDbLine
 10
181.8761576970431
 20
859.0406728739522
 30
0.0
 11
181.6666869503307
 21
850.4877405890446
 31
0.0
  0
LINE
  5
185
330
55
100
AcDbEntity
  8
0
  6
Continuous
 62
     7
100
AcDbLine
 10
181.6666869503307
 20
867.5936051588604
 30
0.0
 11
181.8761576970431
 21
859.0406728739522
 31
0.0
  0
LINE
  5
186
330
55
100
AcDbEntity
  8
0
  6
Continuous
 62
     7
100
AcDbLine
 10
181.6666869503307
 20
873.888087005187
 30
0.0
 11
181.8721706583189
 21
882.2782238985612
 31
0.0
  0
LINE
  5
187
330
55
100
AcDbEntity
  8
0
  6
Continuous
 62
     7
100
AcDbLine
 10
181.8721706583189
 20
882.2782238985612
 30
0.0
 11
181.6500245618863
 21
893.9411924982055
 31
0.0
  0
LINE
  5
188
330
55
100
AcDbEntity
  8
0
  6
Continuous
 62
     7
100
AcDbLine
 10
181.1255383180555
 20
882.2782238985604
 30
0.0
 11
180.6301733726982
 21
872.7408460820238
 31
0.0
  0
LINE
  5
189
330
55
100
AcDbEntity
  8
0
  6
Continuous
 62
     7
100
AcDbLine
 10
170.4063091662016
 20
896.7598458461514
 30
0.0
 11
165.7999991321001
 21
896.7598458461514
 31
0.0
  0
LINE
  5
18A
330
55
100
AcDbEntity
  8
0
  6
Continuous
 62
     7
100
AcDbLine
 10
177.3450681043116
 20
896.7598458461514
 30
0.0
 11
170.4063091662016
 21
896.7598458461514
 31
0.0
  0
LINE
  5
18B
330
55
100
AcDbEntity
  8
0
  6
Continuous
 62
     7
100
AcDbLine
 10
165.7999991321001
 20
896.7598458461514
 30
0.0
 11
165.7999991321001
 21
897.7598458461514
 31
0.0
  0
LINE
  5
18C
330
55
100
AcDbEntity
  8
0
  6
Continuous
 62
     7
100
AcDbLine
 10
187.3999991321001
 20
897.7598458461514
 30
0.0
 11
186.7999991321001
 21
897.7598458461514
 31
0.0
  0
LINE
  5
18D
330
55
100
AcDbEntity
  8
0
  6
Continuous
 62
     7
100
AcDbLine
 10
186.7999991321001
 20
897.7598458461514
 30
0.0
 11
165.7999991321001
 21
897.7598458461514
 31
0.0
  0
LINE
  5
18E
330
55
100
AcDbEntity
  8
0
  6
Continuous
 62
     7
100
AcDbLine
 10
177.9211461374043
 20
823.9598225497389
 30
0.0
 11
177.5561790141458
 21
826.7320230772365
 31
0.0
  0
LINE
  5
18F
330
55
100
AcDbEntity
  8
0
  6
Continuous
 62
     7
100
AcDbLine
 10
177.6243433808214
 20
835.6403264578375
 30
0.0
 11
178.1212496344369
 21
825.9401532497387
 31
0.0
  0
LINE
  5
190
330
55
100
AcDbEntity
  8
0
  6
Continuous
 62
     7
100
AcDbLine
 10
178.2237027026359
 20
870.7408460820234
 30
0.0
 11
178.1224621915969
 21
868.7408460820238
 31
0.0
  0
LINE
  5
191
330
55
100
AcDbEntity
  8
0
  6
Continuous
 62
     7
100
AcDbLine
 10
179.7950851535731
 20
869.7215282958605
 30
0.0
 11
179.8435700327673
 21
868.7408460820237
 31
0.0
  0
LINE
  5
192
330
55
100
AcDbEntity
  8
0
  6
Continuous
 62
     7
100
AcDbLine
 10
178.1212496344364
 20
845.3404996658812
 30
0.0
 11
177.6243433808214
 21
835.6403264578375
 31
0.0
  0
LINE
  5
193
330
55
100
AcDbEntity
  8
0
  6
Continuous
 62
     7
100
AcDbLine
 10
177.6244271203188
 20
858.9021942189145
 30
0.0
 11
178.1200370021508
 21
849.3404996658808
 31
0.0
  0
LINE
  5
194
330
55
100
AcDbEntity
  8
0
  6
Continuous
 62
     7
100
AcDbLine
 10
178.9067095964434
 20
868.7408460820237
 30
0.0
 11
178.9549122761024
 21
869.721528295861
 31
0.0
  0
LINE
  5
195
330
55
100
AcDbEntity
  8
0
  6
Continuous
 62
     7
100
AcDbLine
 10
178.9549122761024
 20
869.721528295861
 30
0.0
 11
179.3749987148375
 21
870.1416147345961
 31
0.0
  0
LINE
  5
196
330
55
100
AcDbEntity
  8
0
  6
Continuous
 62
     7
100
AcDbLine
 10
179.3749987148375
 20
870.1416147345961
 30
0.0
 11
179.7950851535731
 21
869.7215282958605
 31
0.0
  0
LINE
  5
197
330
55
100
AcDbEntity
  8
0
  6
Continuous
 62
     7
100
AcDbLine
 10
178.1200370021508
 20
849.3404996658808
 30
0.0
 11
178.2237027026359
 21
847.3404996658812
 31
0.0
  0
LINE
  5
198
330
55
100
AcDbEntity
  8
0
  6
Continuous
 62
     7
100
AcDbLine
 10
179.8440306938992
 20
849.3404996658812
 30
0.0
 11
180.6289618409231
 21
849.3404996658808
 31
0.0
  0
LINE
  5
199
330
55
100
AcDbEntity
  8
0
  6
Continuous
 62
     7
100
AcDbLine
 10
178.906197125652
 20
845.3404996658812
 30
0.0
 11
178.1212496344364
 21
845.3404996658812
 31
0.0
  0
LINE
  5
19A
330
55
100
AcDbEntity
  8
0
  6
Continuous
 62
     7
100
AcDbLine
 10
178.906197125652
 20
845.3404996658812
 30
0.0
 11
178.9549122761024
 21
846.3211818797186
 31
0.0
  0
LINE
  5
19B
330
55
100
AcDbEntity
  8
0
  6
Continuous
 62
     7
100
AcDbLine
 10
178.9549122761024
 20
846.3211818797186
 30
0.0
 11
179.3749987148371
 21
846.7412683184532
 31
0.0
  0
LINE
  5
19C
330
55
100
AcDbEntity
  8
0
  6
Continuous
 62
     7
100
AcDbLine
 10
179.3749987148371
 20
846.7412683184532
 30
0.0
 11
179.7950851535733
 21
846.321181879717
 31
0.0
  0
LINE
  5
19D
330
55
100
AcDbEntity
  8
0
  6
Continuous
 62
     7
100
AcDbLine
 10
179.7950851535733
 20
846.321181879717
 30
0.0
 11
179.8438003040236
 21
845.3404996658812
 31
0.0
  0
LINE
  5
19E
330
55
100
AcDbEntity
  8
0
  6
Continuous
 62
     7
100
AcDbLine
 10
180.6287477952388
 20
845.3404996658812
 30
0.0
 11
179.8438003040236
 21
845.3404996658812
 31
0.0
  0
LINE
  5
19F
330
55
100
AcDbEntity
  8
0
  6
Continuous
 62
     7
100
AcDbLine
 10
178.2237027026359
 20
847.3404996658812
 30
0.0
 11
180.5262947270398
 21
847.3404996658811
 31
0.0
  0
LINE
  5
1A0
330
55
100
AcDbEntity
  8
0
  6
Continuous
 62
     7
100
AcDbLine
 10
178.2237027026359
 20
847.3404996658812
 30
0.0
 11
178.1212496344364
 21
845.3404996658812
 31
0.0
  0
LINE
  5
1A1
330
55
100
AcDbEntity
  8
0
  6
Continuous
 62
     7
100
AcDbLine
 10
178.1200370021508
 20
849.3404996658808
 30
0.0
 11
178.9056840669351
 21
849.3404996658812
 31
0.0
  0
LINE
  5
1A2
330
55
100
AcDbEntity
  8
0
  6
Continuous
 62
     7
100
AcDbLine
 10
180.3256540488537
 20
835.6403264578097
 30
0.0
 11
179.8438003040236
 21
845.3404996658812
 31
0.0
  0
LINE
  5
1A3
330
55
100
AcDbEntity
  8
0
  6
Continuous
 62
     7
100
AcDbLine
 10
180.5262947270398
 20
847.3404996658811
 30
0.0
 11
180.6289618409231
 21
849.3404996658808
 31
0.0
  0
LINE
  5
1A4
330
55
100
AcDbEntity
  8
0
  6
Continuous
 62
     7
100
AcDbLine
 10
178.4243433808218
 20
835.6403264578106
 30
0.0
 11
178.906197125652
 21
825.9401532497388
 31
0.0
  0
LINE
  5
1A5
330
55
100
AcDbEntity
  8
0
  6
Continuous
 62
     7
100
AcDbLine
 10
179.8438003040235
 20
825.9401532497387
 30
0.0
 11
180.3256540488537
 21
835.6403264578097
 31
0.0
  0
LINE
  5
1A6
330
55
100
AcDbEntity
  8
0
  6
Continuous
 62
     7
100
AcDbLine
 10
179.8435700327673
 20
868.7408460820237
 30
0.0
 11
180.3256428339479
 21
858.9901726813877
 31
0.0
  0
LINE
  5
1A7
330
55
100
AcDbEntity
  8
0
  6
Continuous
 62
     7
100
AcDbLine
 10
177.5561790141458
 20
826.7320230772365
 30
0.0
 11
177.0833104793444
 21
827.0873941729021
 31
0.0
  0
LINE
  5
1A8
330
55
100
AcDbEntity
  8
0
  6
Continuous
 62
     7
100
AcDbLine
 10
179.8438003040235
 20
825.9401532497387
 30
0.0
 11
180.6287477952392
 21
825.9401532497387
 31
0.0
  0
LINE
  5
1A9
330
55
100
AcDbEntity
  8
0
  6
Continuous
 62
     7
100
AcDbLine
 10
177.0833104793444
 20
827.0873941729021
 30
0.0
 11
176.873839732632
 21
835.6403264578105
 31
0.0
  0
LINE
  5
1AA
330
55
100
AcDbEntity
  8
0
  6
Continuous
 62
     7
100
AcDbLine
 10
178.1212496344369
 20
825.9401532497387
 30
0.0
 11
178.906197125652
 21
825.9401532497388
 31
0.0
  0
LINE
  5
1AB
330
55
100
AcDbEntity
  8
0
  6
Continuous
 62
     7
100
AcDbLine
 10
179.8438003040235
 20
825.9401532497387
 30
0.0
 11
179.7950851535731
 21
824.959471035902
 31
0.0
  0
LINE
  5
1AC
330
55
100
AcDbEntity
  8
0
  6
Continuous
 62
     7
100
AcDbLine
 10
178.9549122761024
 20
824.9594710359017
 30
0.0
 11
178.906197125652
 21
825.9401532497388
 31
0.0
  0
LINE
  5
1AD
330
55
100
AcDbEntity
  8
0
  6
Continuous
 62
     7
100
AcDbLine
 10
178.1212496344369
 20
825.9401532497387
 30
0.0
 11
178.2226951125687
 21
823.9598225497389
 31
0.0
  0
LINE
  5
1AE
330
55
100
AcDbEntity
  8
0
  6
Continuous
 62
     7
100
AcDbLine
 10
178.9549122761024
 20
848.3598174520442
 30
0.0
 11
178.9056840669351
 21
849.3404996658812
 31
0.0
  0
LINE
  5
1AF
330
55
100
AcDbEntity
  8
0
  6
Continuous
 62
     7
100
AcDbLine
 10
179.3749987148377
 20
847.9397310133089
 30
0.0
 11
178.9549122761024
 21
848.3598174520442
 31
0.0
  0
LINE
  5
1B0
330
55
100
AcDbEntity
  8
0
  6
Continuous
 62
     7
100
AcDbLine
 10
179.7950851535732
 20
848.3598174520444
 30
0.0
 11
179.3749987148377
 21
847.9397310133089
 31
0.0
  0
LINE
  5
1B1
330
55
100
AcDbEntity
  8
0
  6
Continuous
 62
     7
100
AcDbLine
 10
179.8440306938992
 20
849.3404996658812
 30
0.0
 11
179.7950851535732
 21
848.3598174520444
 31
0.0
  0
LINE
  5
1B2
330
55
100
AcDbEntity
  8
0
  6
Continuous
 62
     7
100
AcDbLine
 10
180.6285337518956
 20
868.7408460820238
 30
0.0
 11
179.8435700327673
 21
868.7408460820237
 31
0.0
  0
LINE
  5
1B3
330
55
100
AcDbEntity
  8
0
  6
Continuous
 62
     7
100
AcDbLine
 10
178.906197125652
 20
845.3404996658812
 30
0.0
 11
178.4243433808218
 21
835.6403264578106
 31
0.0
  0
LINE
  5
1B4
330
55
100
AcDbEntity
  8
0
  6
Continuous
 62
     7
100
AcDbLine
 10
178.9056840669351
 20
849.3404996658812
 30
0.0
 11
178.4243989616114
 21
858.9282492623024
 31
0.0
  0
LINE
  5
1B5
330
55
100
AcDbEntity
  8
0
  6
Continuous
 62
     7
100
AcDbLine
 10
178.4243989616114
 20
858.9282492623024
 30
0.0
 11
178.9067095964434
 21
868.7408460820237
 31
0.0
  0
LINE
  5
1B6
330
55
100
AcDbEntity
  8
0
  6
Continuous
 62
     7
100
AcDbLine
 10
178.9067095964434
 20
868.7408460820237
 30
0.0
 11
178.1224621915969
 21
868.7408460820238
 31
0.0
  0
LINE
  5
1B7
330
55
100
AcDbEntity
  8
0
  6
Continuous
 62
     7
100
AcDbLine
 10
180.3256428339479
 20
858.9901726813877
 30
0.0
 11
179.8440306938992
 21
849.3404996658812
 31
0.0
  0
LINE
  5
1B8
330
55
100
AcDbEntity
  8
0
  6
Continuous
 62
     7
100
AcDbLine
 10
179.3749987148377
 20
824.5393845971664
 30
0.0
 11
178.9549122761024
 21
824.9594710359017
 31
0.0
  0
LINE
  5
1B9
330
55
100
AcDbEntity
  8
0
  6
Continuous
 62
     7
100
AcDbLine
 10
178.2226951125687
 20
823.9598225497389
 30
0.0
 11
177.9211461374043
 21
823.9598225497389
 31
0.0
  0
LINE
  5
1BA
330
55
100
AcDbEntity
  8
0
  6
Continuous
 62
     7
100
AcDbLine
 10
179.7950851535731
 20
824.959471035902
 30
0.0
 11
179.3749987148377
 21
824.5393845971664
 31
0.0
  0
LINE
  5
1BB
330
55
100
AcDbEntity
  8
0
  6
Continuous
 62
     7
100
AcDbLine
 10
180.5273023171069
 20
823.9598225497389
 30
0.0
 11
178.2226951125687
 21
823.9598225497389
 31
0.0
  0
LINE
  5
1BC
330
55
100
AcDbEntity
  8
0
  6
Continuous
 62
     7
100
AcDbLine
 10
180.6285337518956
 20
868.7408460820238
 30
0.0
 11
180.5262947270398
 21
870.7408460820236
 31
0.0
  0
LINE
  5
1BD
330
55
100
AcDbEntity
  8
0
  6
Continuous
 62
     7
100
AcDbLine
 10
180.6301733726982
 20
872.7408460820238
 30
0.0
 11
180.5262947270398
 21
870.7408460820236
 31
0.0
  0
LINE
  5
1BE
330
55
100
AcDbEntity
  8
0
  6
Continuous
 62
     7
100
AcDbLine
 10
180.5273023171069
 20
823.9598225497389
 30
0.0
 11
180.6287477952392
 21
825.9401532497387
 31
0.0
  0
LINE
  5
1BF
330
55
100
AcDbEntity
  8
0
  6
Continuous
 62
     7
100
AcDbLine
 10
180.6287477952388
 20
845.3404996658812
 30
0.0
 11
180.5262947270398
 21
847.3404996658811
 31
0.0
  0
LINE
  5
1C0
330
55
100
AcDbEntity
  8
0
  6
Continuous
 62
     7
100
AcDbLine
 10
180.6289618409231
 20
849.3404996658808
 30
0.0
 11
181.1256514396543
 21
859.0162289221907
 31
0.0
  0
LINE
  5
1C1
330
55
100
AcDbEntity
  8
0
  6
Continuous
 62
     7
100
AcDbLine
 10
180.8262617798001
 20
870.740846082024
 30
0.0
 11
181.1938184155294
 21
867.9489762545261
 31
0.0
  0
LINE
  5
1C2
330
55
100
AcDbEntity
  8
0
  6
Continuous
 62
     7
100
AcDbLine
 10
181.6666869503307
 20
850.4877405890446
 30
0.0
 11
181.1938184155293
 21
850.132369493379
 31
0.0
  0
LINE
  5
1C3
330
55
100
AcDbEntity
  8
0
  6
Continuous
 62
     7
100
AcDbLine
 10
180.8288512922708
 20
823.9598225497389
 30
0.0
 11
180.5273023171069
 21
823.9598225497389
 31
0.0
  0
LINE
  5
1C4
330
55
100
AcDbEntity
  8
0
  6
Continuous
 62
     7
100
AcDbLine
 10
181.1938184155293
 20
826.7320230772366
 30
0.0
 11
180.8288512922708
 21
823.9598225497389
 31
0.0
  0
LINE
  5
1C5
330
55
100
AcDbEntity
  8
0
  6
Continuous
 62
     7
100
AcDbLine
 10
181.7067342985548
 20
827.1174906351733
 30
0.0
 11
181.1938184155293
 21
826.7320230772366
 31
0.0
  0
LINE
  5
1C6
330
55
100
AcDbEntity
  8
0
  6
Continuous
 62
     7
100
AcDbLine
 10
181.8690698730903
 20
835.64032645781
 30
0.0
 11
181.7067342985548
 21
827.1174906351733
 31
0.0
  0
LINE
  5
1C7
330
55
100
AcDbEntity
  8
0
  6
Continuous
 62
     7
100
AcDbLine
 10
181.1938184155293
 20
844.5486298383837
 30
0.0
 11
181.7067342985548
 21
844.1631622804467
 31
0.0
  0
LINE
  5
1C8
330
55
100
AcDbEntity
  8
0
  6
Continuous
 62
     7
100
AcDbLine
 10
180.8262617798
 20
847.3404996658811
 30
0.0
 11
181.1938184155293
 21
844.5486298383837
 31
0.0
  0
LINE
  5
1C9
330
55
100
AcDbEntity
  8
0
  6
Continuous
 62
     7
100
AcDbLine
 10
181.1938184155293
 20
850.132369493379
 30
0.0
 11
180.8262617798
 21
847.3404996658811
 31
0.0
  0
LINE
  5
1CA
330
55
100
AcDbEntity
  8
0
  6
Continuous
 62
     7
100
AcDbLine
 10
180.6287477952392
 20
825.9401532497387
 30
0.0
 11
181.1256540488542
 21
835.6403264577826
 31
0.0
  0
LINE
  5
1CB
330
55
100
AcDbEntity
  8
0
  6
Continuous
 62
     7
100
AcDbLine
 10
181.1256540488542
 20
835.6403264577826
 30
0.0
 11
180.6287477952388
 21
845.3404996658812
 31
0.0
  0
LINE
  5
1CC
330
55
100
AcDbEntity
  8
0
  6
Continuous
 62
     7
100
AcDbLine
 10
181.1256514396543
 20
859.0162289221907
 30
0.0
 11
180.6285337518956
 21
868.7408460820238
 31
0.0
  0
LINE
  5
1CD
330
55
100
AcDbEntity
  8
0
  6
Continuous
 62
     7
100
AcDbLine
 10
178.1224621915969
 20
868.7408460820238
 30
0.0
 11
177.6244271203188
 21
858.9021942189145
 31
0.0
  0
LINE
  5
1CE
330
55
100
AcDbEntity
  8
0
  6
Continuous
 62
     7
100
AcDbLine
 10
183.9749991321002
 20
896.7598458461514
 30
0.0
 11
181.5963373009549
 21
896.7598458461514
 31
0.0
  0
LINE
  5
1CF
330
55
100
AcDbEntity
  8
0
  6
Continuous
 62
     7
100
AcDbLine
 10
187.3999991321001
 20
896.7598458461514
 30
0.0
 11
183.9749991321002
 21
896.7598458461514
 31
0.0
  0
LINE
  5
1D0
330
55
100
AcDbEntity
  8
0
  6
Continuous
 62
     7
100
AcDbLine
 10
177.2568426726056
 20
894.266455560977
 30
0.0
 11
170.4063091662016
 21
896.7598458461514
 31
0.0
  0
ENDBLK
  5
57
330
55
100
AcDbEntity
  8
0
100
AcDbBlockEnd
  0
BLOCK
  5
5A
330
58
100
AcDbEntity
  8
0
100
AcDbBlockBegin
  2
Rckans1
 70
     0
 10
176.5999980581668
 20
861.0000000000102
 30
0.0
  3
Rckans1
  1

  0
INSERT
  5
59
330
58
100
AcDbEntity
  8
0
100
AcDbBlockReference
  2
KLM_3_L-select__3
 10
165.7999991321001
 20
823.9598225497389
 30
0.0
  0
MTEXT
  5
1D1
330
58
100
AcDbEntity
  8
1
 62
     6
100
AcDbMText
 10
176.5999991321
 20
818.9401532497386
 30
0.0
 40
5.0
 41
0.0
 71
     2
 72
     1
  1
 
  7
CONVERTER_11
 73
     1
 44
1.32052821128451
  0
ENDBLK
  5
5B
330
58
100
AcDbEntity
  8
0
100
AcDbBlockEnd
  0
BLOCK
  5
5D
330
5C
100
AcDbEntity
  8
0
100
AcDbBlockBegin
  2
KLM_3_L-select__4
 70
     0
 10
121.0000001928419
 20
823.9598225497389
 30
0.0
  3
KLM_3_L-select__4
  1

  0
LINE
  5
1D2
330
5C
100
AcDbEntity
  8
0
  6
Continuous
 62
     7
100
AcDbLine
 10
124.74819356383
 20
823.9598225497389
 30
0.0
 11
124.4538215756416
 21
823.9598225497389
 31
0.0
  0
LINE
  5
1D3
330
5C
100
AcDbEntity
  8
0
  6
Continuous
 62
     7
100
AcDbLine
 10
125.2788215756416
 20
825.9401532497388
 30
0.0
 11
124.74819356383
 21
823.9598225497389
 31
0.0
  0
LINE
  5
1D4
330
5C
100
AcDbEntity
  8
0
  6
Continuous
 62
     7
100
AcDbLine
 10
125.2788215756416
 20
835.6403264578106
 30
0.0
 11
125.2788215756416
 21
825.9401532497388
 31
0.0
  0
LINE
  5
1D5
330
5C
100
AcDbEntity
  8
0
  6
Continuous
 62
     7
100
AcDbLine
 10
125.2788215756416
 20
845.3404996658812
 30
0.0
 11
125.2788215756416
 21
835.6403264578106
 31
0.0
  0
LINE
  5
1D6
330
5C
100
AcDbEntity
  8
0
  6
Continuous
 62
     7
100
AcDbLine
 10
124.4538215756416
 20
835.64032645781
 30
0.0
 11
125.2788215756416
 21
835.6403264578106
 31
0.0
  0
LINE
  5
1D7
330
5C
100
AcDbEntity
  8
0
  6
Continuous
 62
     7
100
AcDbLine
 10
124.4538215756416
 20
835.64032645781
 30
0.0
 11
124.4538215756416
 21
844.1631622804467
 31
0.0
  0
LINE
  5
1D8
330
5C
100
AcDbEntity
  8
0
  6
Continuous
 62
     7
100
AcDbLine
 10
124.7429231907794
 20
847.3404996658815
 30
0.0
 11
125.2788215756416
 21
845.3404996658812
 31
0.0
  0
LINE
  5
1D9
330
5C
100
AcDbEntity
  8
0
  6
Continuous
 62
     7
100
AcDbLine
 10
124.4538215756416
 20
844.5486298383837
 30
0.0
 11
124.4538215756416
 21
847.3404996658811
 31
0.0
  0
LINE
  5
1DA
330
5C
100
AcDbEntity
  8
0
  6
Continuous
 62
     7
100
AcDbLine
 10
124.4538215756416
 20
844.1631622804467
 30
0.0
 11
124.4538215756416
 21
844.5486298383837
 31
0.0
  0
LINE
  5
1DB
330
5C
100
AcDbEntity
  8
0
  6
Continuous
 62
     7
100
AcDbLine
 10
124.4538215756416
 20
847.3404996658811
 30
0.0
 11
124.4538215756416
 21
850.132369493379
 31
0.0
  0
LINE
  5
1DC
330
5C
100
AcDbEntity
  8
0
  6
Continuous
 62
     7
100
AcDbLine
 10
125.2788215756416
 20
882.2782238985603
 30
0.0
 11
125.2788215756416
 21
872.7408460820237
 31
0.0
  0
LINE
  5
1DD
330
5C
100
AcDbEntity
  8
0
  6
Continuous
 62
     7
100
AcDbLine
 10
124.4538215756416
 20
873.5327159095214
 30
0.0
 11
124.4538215756416
 21
873.888087005187
 31
0.0
  0
LINE
  5
1DE
330
5C
100
AcDbEntity
  8
0
  6
Continuous
 62
     7
100
AcDbLine
 10
124.4538215756416
 20
870.7408460820241
 30
0.0
 11
124.4538215756416
 21
873.5327159095214
 31
0.0
  0
LINE
  5
1DF
330
5C
100
AcDbEntity
  8
0
  6
Continuous
 62
     7
100
AcDbLine
 10
124.7429231907794
 20
870.740846082024
 30
0.0
 11
124.4538215756416
 21
870.7408460820241
 31
0.0
  0
LINE
  5
1E0
330
5C
100
AcDbEntity
  8
0
  6
Continuous
 62
     7
100
AcDbLine
 10
124.7429231907794
 20
870.740846082024
 30
0.0
 11
125.2788215756416
 21
872.7408460820237
 31
0.0
  0
LINE
  5
1E1
330
5C
100
AcDbEntity
  8
0
  6
Continuous
 62
     7
100
AcDbLine
 10
125.2788215756416
 20
849.3404996658813
 30
0.0
 11
124.7429231907794
 21
847.3404996658815
 31
0.0
  0
LINE
  5
1E2
330
5C
100
AcDbEntity
  8
0
  6
Continuous
 62
     7
100
AcDbLine
 10
121.9288215756416
 20
882.2782238985604
 30
0.0
 11
122.7538215756416
 21
882.2782238985612
 31
0.0
  0
LINE
  5
1E3
330
5C
100
AcDbEntity
  8
0
  6
Continuous
 62
     7
100
AcDbLine
 10
122.7538215756416
 20
882.2782238985612
 30
0.0
 11
124.4538215756416
 21
882.2782238985603
 31
0.0
  0
LINE
  5
1E4
330
5C
100
AcDbEntity
  8
0
  6
Continuous
 62
     7
100
AcDbLine
 10
124.7429231907794
 20
847.3404996658815
 30
0.0
 11
124.4538215756416
 21
847.3404996658811
 31
0.0
  0
LINE
  5
1E5
330
5C
100
AcDbEntity
  8
0
  6
Continuous
 62
     7
100
AcDbLine
 10
122.7538215756416
 20
873.888087005187
 30
0.0
 11
124.4538215756416
 21
873.888087005187
 31
0.0
  0
LINE
  5
1E6
330
5C
100
AcDbEntity
  8
0
  6
Continuous
 62
     7
100
AcDbLine
 10
121.9288215756416
 20
894.4175064702869
 30
0.0
 11
121.9288215756416
 21
893.4399796633119
 31
0.0
  0
LINE
  5
1E7
330
5C
100
AcDbEntity
  8
0
  6
Continuous
 62
     7
100
AcDbLine
 10
121.0000001928419
 20
897.7598458461514
 30
0.0
 11
121.0000001928419
 21
896.7598458461513
 31
0.0
  0
LINE
  5
1E8
330
5C
100
AcDbEntity
  8
0
  6
Continuous
 62
     7
100
AcDbLine
 10
121.0000001928419
 20
896.7598458461513
 30
0.0
 11
121.0000001928419
 21
894.9537617456755
 31
0.0
  0
LINE
  5
1E9
330
5C
100
AcDbEntity
  8
0
  6
Continuous
 62
     7
100
AcDbLine
 10
124.1038215756416
 20
896.7598458461513
 30
0.0
 11
123.1038215756416
 21
896.7598458461513
 31
0.0
  0
LINE
  5
1EA
330
5C
100
AcDbEntity
  8
0
  6
Continuous
 62
     7
100
AcDbLine
 10
124.4538215756416
 20
896.7598458461514
 30
0.0
 11
124.1038215756416
 21
896.7598458461513
 31
0.0
  0
LINE
  5
1EB
330
5C
100
AcDbEntity
  8
0
  6
Continuous
 62
     7
100
AcDbLine
 10
124.4538215756416
 20
893.9411924982054
 30
0.0
 11
124.4538215756416
 21
893.439988525417
 31
0.0
  0
LINE
  5
1EC
330
5C
100
AcDbEntity
  8
0
  6
Continuous
 62
     7
100
AcDbLine
 10
123.1038215756416
 20
896.7598458461513
 30
0.0
 11
121.0000001928419
 21
896.7598458461513
 31
0.0
  0
LINE
  5
1ED
330
5C
100
AcDbEntity
  8
0
  6
Continuous
 62
     7
100
AcDbLine
 10
121.9288215756416
 20
894.4175064702869
 30
0.0
 11
122.7538215756416
 21
893.9411924982055
 31
0.0
  0
LINE
  5
1EE
330
5C
100
AcDbEntity
  8
0
  6
Continuous
 62
     7
100
AcDbLine
 10
121.0000001928419
 20
897.7598458461514
 30
0.0
 11
123.5000001928418
 21
897.7598458461513
 31
0.0
  0
LINE
  5
1EF
330
5C
100
AcDbEntity
  8
0
  6
Continuous
 62
     7
100
AcDbLine
 10
121.0000001928419
 20
894.9537617456755
 30
0.0
 11
121.9288215756416
 21
894.4175064702869
 31
0.0
  0
LINE
  5
1F0
330
5C
100
AcDbEntity
  8
0
  6
Continuous
 62
     7
100
AcDbLine
 10
122.4594495874532
 20
823.9598225497389
 30
0.0
 11
121.9288215756416
 21
825.9401532497388
 31
0.0
  0
LINE
  5
1F1
330
5C
100
AcDbEntity
  8
0
  6
Continuous
 62
     7
100
AcDbLine
 10
121.9288215756416
 20
835.6403264578106
 30
0.0
 11
121.9288215756416
 21
825.9401532497388
 31
0.0
  0
LINE
  5
1F2
330
5C
100
AcDbEntity
  8
0
  6
Continuous
 62
     7
100
AcDbLine
 10
122.4647199605038
 20
847.3404996658811
 30
0.0
 11
121.9288215756416
 21
849.3404996658812
 31
0.0
  0
LINE
  5
1F3
330
5C
100
AcDbEntity
  8
0
  6
Continuous
 62
     7
100
AcDbLine
 10
121.9288215756416
 20
845.3404996658812
 30
0.0
 11
121.9288215756416
 21
835.6403264578106
 31
0.0
  0
LINE
  5
1F4
330
5C
100
AcDbEntity
  8
0
  6
Continuous
 62
     7
100
AcDbLine
 10
121.9288215756416
 20
835.6403264578106
 30
0.0
 11
122.7538215756416
 21
835.64032645781
 31
0.0
  0
LINE
  5
1F5
330
5C
100
AcDbEntity
  8
0
  6
Continuous
 62
     7
100
AcDbLine
 10
121.9288215756416
 20
849.3404996658812
 30
0.0
 11
121.9288215756416
 21
859.0162289221907
 31
0.0
  0
LINE
  5
1F6
330
5C
100
AcDbEntity
  8
0
  6
Continuous
 62
     7
100
AcDbLine
 10
122.7538215756416
 20
823.9598225497389
 30
0.0
 11
122.4594495874532
 21
823.9598225497389
 31
0.0
  0
LINE
  5
1F7
330
5C
100
AcDbEntity
  8
0
  6
Continuous
 62
     7
100
AcDbLine
 10
122.7538215756416
 20
827.1174906351733
 30
0.0
 11
122.7538215756416
 21
826.7320230772366
 31
0.0
  0
LINE
  5
1F8
330
5C
100
AcDbEntity
  8
0
  6
Continuous
 62
     7
100
AcDbLine
 10
122.7538215756416
 20
835.64032645781
 30
0.0
 11
122.7538215756416
 21
827.1174906351733
 31
0.0
  0
LINE
  5
1F9
330
5C
100
AcDbEntity
  8
0
  6
Continuous
 62
     7
100
AcDbLine
 10
122.7538215756416
 20
826.7320230772366
 30
0.0
 11
122.7538215756416
 21
823.9598225497389
 31
0.0
  0
LINE
  5
1FA
330
5C
100
AcDbEntity
  8
0
  6
Continuous
 62
     7
100
AcDbLine
 10
122.7538215756416
 20
844.1631622804467
 30
0.0
 11
122.7538215756416
 21
835.64032645781
 31
0.0
  0
LINE
  5
1FB
330
5C
100
AcDbEntity
  8
0
  6
Continuous
 62
     7
100
AcDbLine
 10
122.7538215756416
 20
847.3404996658811
 30
0.0
 11
122.7538215756416
 21
844.5486298383837
 31
0.0
  0
LINE
  5
1FC
330
5C
100
AcDbEntity
  8
0
  6
Continuous
 62
     7
100
AcDbLine
 10
122.7538215756416
 20
844.5486298383837
 30
0.0
 11
122.7538215756416
 21
844.1631622804467
 31
0.0
  0
LINE
  5
1FD
330
5C
100
AcDbEntity
  8
0
  6
Continuous
 62
     7
100
AcDbLine
 10
122.7538215756416
 20
867.5936051588604
 30
0.0
 11
122.7538215756416
 21
859.0406728739522
 31
0.0
  0
LINE
  5
1FE
330
5C
100
AcDbEntity
  8
0
  6
Continuous
 62
     7
100
AcDbLine
 10
122.4647199605038
 20
847.3404996658811
 30
0.0
 11
122.7538215756416
 21
847.3404996658811
 31
0.0
  0
LINE
  5
1FF
330
5C
100
AcDbEntity
  8
0
  6
Continuous
 62
     7
100
AcDbLine
 10
122.7538215756416
 20
850.4877405890446
 30
0.0
 11
122.7538215756416
 21
850.132369493379
 31
0.0
  0
LINE
  5
200
330
5C
100
AcDbEntity
  8
0
  6
Continuous
 62
     7
100
AcDbLine
 10
122.7538215756416
 20
850.132369493379
 30
0.0
 11
122.7538215756416
 21
847.3404996658811
 31
0.0
  0
LINE
  5
201
330
5C
100
AcDbEntity
  8
0
  6
Continuous
 62
     7
100
AcDbLine
 10
121.9288215756416
 20
893.4399796633119
 30
0.0
 11
121.9288215756416
 21
882.2782238985604
 31
0.0
  0
LINE
  5
202
330
5C
100
AcDbEntity
  8
0
  6
Continuous
 62
     7
100
AcDbLine
 10
122.7538215756416
 20
893.4399796633116
 30
0.0
 11
121.9288215756416
 21
893.4399796633119
 31
0.0
  0
LINE
  5
203
330
5C
100
AcDbEntity
  8
0
  6
Continuous
 62
     7
100
AcDbLine
 10
122.7538215756416
 20
873.5327159095215
 30
0.0
 11
122.7538215756416
 21
873.888087005187
 31
0.0
  0
LINE
  5
204
330
5C
100
AcDbEntity
  8
0
  6
Continuous
 62
     7
100
AcDbLine
 10
122.7538215756416
 20
870.740846082024
 30
0.0
 11
122.7538215756416
 21
873.5327159095215
 31
0.0
  0
LINE
  5
205
330
5C
100
AcDbEntity
  8
0
  6
Continuous
 62
     7
100
AcDbLine
 10
122.7538215756416
 20
873.888087005187
 30
0.0
 11
122.7538215756416
 21
882.2782238985612
 31
0.0
  0
LINE
  5
206
330
5C
100
AcDbEntity
  8
0
  6
Continuous
 62
     7
100
AcDbLine
 10
122.7538215756416
 20
893.4399796633116
 30
0.0
 11
122.7538215756416
 21
893.9411924982055
 31
0.0
  0
LINE
  5
207
330
5C
100
AcDbEntity
  8
0
  6
Continuous
 62
     7
100
AcDbLine
 10
121.9288215756416
 20
882.2782238985604
 30
0.0
 11
121.9288215756416
 21
872.7408460820238
 31
0.0
  0
LINE
  5
208
330
5C
100
AcDbEntity
  8
0
  6
Continuous
 62
     7
100
AcDbLine
 10
122.7538215756416
 20
882.2782238985612
 30
0.0
 11
122.7538215756416
 21
893.4399796633116
 31
0.0
  0
LINE
  5
209
330
5C
100
AcDbEntity
  8
0
  6
Continuous
 62
     7
100
AcDbLine
 10
121.9288215756416
 20
845.3404996658812
 30
0.0
 11
122.4647199605038
 21
847.3404996658811
 31
0.0
  0
LINE
  5
20A
330
5C
100
AcDbEntity
  8
0
  6
Continuous
 62
     7
100
AcDbLine
 10
124.4538215756416
 20
826.7320230772366
 30
0.0
 11
124.4538215756416
 21
827.1174906351733
 31
0.0
  0
LINE
  5
20B
330
5C
100
AcDbEntity
  8
0
  6
Continuous
 62
     7
100
AcDbLine
 10
124.4538215756416
 20
827.1174906351733
 30
0.0
 11
124.4538215756416
 21
835.64032645781
 31
0.0
  0
LINE
  5
20C
330
5C
100
AcDbEntity
  8
0
  6
Continuous
 62
     7
100
AcDbLine
 10
122.7538215756416
 20
827.1174906351733
 30
0.0
 11
124.4538215756416
 21
827.1174906351733
 31
0.0
  0
LINE
  5
20D
330
5C
100
AcDbEntity
  8
0
  6
Continuous
 62
     7
100
AcDbLine
 10
124.4538215756416
 20
823.9598225497389
 30
0.0
 11
124.4538215756416
 21
826.7320230772366
 31
0.0
  0
LINE
  5
20E
330
5C
100
AcDbEntity
  8
0
  6
Continuous
 62
     7
100
AcDbLine
 10
122.7538215756416
 20
826.7320230772366
 30
0.0
 11
124.4538215756416
 21
826.7320230772366
 31
0.0
  0
LINE
  5
20F
330
5C
100
AcDbEntity
  8
0
  6
Continuous
 62
     7
100
AcDbLine
 10
122.7538215756416
 20
823.9598225497389
 30
0.0
 11
124.4538215756416
 21
823.9598225497389
 31
0.0
  0
LINE
  5
210
330
5C
100
AcDbEntity
  8
0
  6
Continuous
 62
     7
100
AcDbLine
 10
122.7538215756416
 20
867.5936051588604
 30
0.0
 11
124.4538215756416
 21
867.5936051588604
 31
0.0
  0
LINE
  5
211
330
5C
100
AcDbEntity
  8
0
  6
Continuous
 62
     7
100
AcDbLine
 10
122.7538215756416
 20
850.4877405890446
 30
0.0
 11
124.4538215756416
 21
850.4877405890446
 31
0.0
  0
LINE
  5
212
330
5C
100
AcDbEntity
  8
0
  6
Continuous
 62
     7
100
AcDbLine
 10
124.4538215756416
 20
859.0162289221906
 30
0.0
 11
124.4538215756416
 21
859.0406728739522
 31
0.0
  0
LINE
  5
213
330
5C
100
AcDbEntity
  8
0
  6
Continuous
 62
     7
100
AcDbLine
 10
122.7538215756416
 20
859.0406728739522
 30
0.0
 11
124.4538215756416
 21
859.0406728739522
 31
0.0
  0
LINE
  5
214
330
5C
100
AcDbEntity
  8
0
  6
Continuous
 62
     7
100
AcDbLine
 10
122.7538215756416
 20
844.1631622804467
 30
0.0
 11
124.4538215756416
 21
844.1631622804467
 31
0.0
  0
LINE
  5
215
330
5C
100
AcDbEntity
  8
0
  6
Continuous
 62
     7
100
AcDbLine
 10
122.7538215756416
 20
847.3404996658811
 30
0.0
 11
124.4538215756416
 21
847.3404996658811
 31
0.0
  0
LINE
  5
216
330
5C
100
AcDbEntity
  8
0
  6
Continuous
 62
     7
100
AcDbLine
 10
124.4538215756416
 20
850.132369493379
 30
0.0
 11
124.4538215756416
 21
850.4877405890446
 31
0.0
  0
LINE
  5
217
330
5C
100
AcDbEntity
  8
0
  6
Continuous
 62
     7
100
AcDbLine
 10
122.7538215756416
 20
850.132369493379
 30
0.0
 11
124.4538215756416
 21
850.132369493379
 31
0.0
  0
LINE
  5
218
330
5C
100
AcDbEntity
  8
0
  6
Continuous
 62
     7
100
AcDbLine
 10
122.7538215756416
 20
873.5327159095215
 30
0.0
 11
124.4538215756416
 21
873.5327159095214
 31
0.0
  0
LINE
  5
219
330
5C
100
AcDbEntity
  8
0
  6
Continuous
 62
     7
100
AcDbLine
 10
122.7538215756416
 20
867.948976254526
 30
0.0
 11
124.4538215756416
 21
867.948976254526
 31
0.0
  0
LINE
  5
21A
330
5C
100
AcDbEntity
  8
0
  6
Continuous
 62
     7
100
AcDbLine
 10
122.7538215756416
 20
844.5486298383837
 30
0.0
 11
124.4538215756416
 21
844.5486298383837
 31
0.0
  0
LINE
  5
21B
330
5C
100
AcDbEntity
  8
0
  6
Continuous
 62
     7
100
AcDbLine
 10
122.7538215756416
 20
859.0162289221906
 30
0.0
 11
122.7538215756416
 21
850.4877405890446
 31
0.0
  0
LINE
  5
21C
330
5C
100
AcDbEntity
  8
0
  6
Continuous
 62
     7
100
AcDbLine
 10
122.7538215756416
 20
835.64032645781
 30
0.0
 11
124.4538215756416
 21
835.64032645781
 31
0.0
  0
LINE
  5
21D
330
5C
100
AcDbEntity
  8
0
  6
Continuous
 62
     7
100
AcDbLine
 10
124.4538215756416
 20
859.0406728739522
 30
0.0
 11
124.4538215756416
 21
867.5936051588604
 31
0.0
  0
LINE
  5
21E
330
5C
100
AcDbEntity
  8
0
  6
Continuous
 62
     7
100
AcDbLine
 10
131.0000001928418
 20
896.7598458461513
 30
0.0
 11
131.0000001928418
 21
897.7598458461514
 31
0.0
  0
LINE
  5
21F
330
5C
100
AcDbEntity
  8
0
  6
Continuous
 62
     7
100
AcDbLine
 10
131.0000001928418
 20
896.7598458461513
 30
0.0
 11
127.8129618293339
 21
896.7598458461513
 31
0.0
  0
LINE
  5
220
330
5C
100
AcDbEntity
  8
0
  6
Continuous
 62
     7
100
AcDbLine
 10
124.4538215756416
 20
896.7598458461514
 30
0.0
 11
124.4538215756416
 21
893.9411924982054
 31
0.0
  0
LINE
  5
221
330
5C
100
AcDbEntity
  8
0
  6
Continuous
 62
     7
100
AcDbLine
 10
124.1038215756416
 20
896.7598458461513
 30
0.0
 11
124.1038215756416
 21
894.4256438670172
 31
0.0
  0
LINE
  5
222
330
5C
100
AcDbEntity
  8
0
  6
Continuous
 62
     7
100
AcDbLine
 10
125.2788215756416
 20
893.439988525417
 30
0.0
 11
125.2788215756416
 21
894.6334496939267
 31
0.0
  0
LINE
  5
223
330
5C
100
AcDbEntity
  8
0
  6
Continuous
 62
     7
100
AcDbLine
 10
125.2788215756416
 20
894.6334496939267
 30
0.0
 11
124.4538215756416
 21
893.9411924982054
 31
0.0
  0
LINE
  5
224
330
5C
100
AcDbEntity
  8
0
  6
Continuous
 62
     7
100
AcDbLine
 10
127.8129618293339
 20
896.7598458461513
 30
0.0
 11
124.4538215756416
 21
896.7598458461514
 31
0.0
  0
LINE
  5
225
330
5C
100
AcDbEntity
  8
0
  6
Continuous
 62
     7
100
AcDbLine
 10
128.5000001928418
 20
897.7598458461514
 30
0.0
 11
131.0000001928418
 21
897.7598458461514
 31
0.0
  0
LINE
  5
226
330
5C
100
AcDbEntity
  8
0
  6
Continuous
 62
     7
100
AcDbLine
 10
125.2788215756416
 20
859.0162289221907
 30
0.0
 11
125.2788215756416
 21
849.3404996658813
 31
0.0
  0
LINE
  5
227
330
5C
100
AcDbEntity
  8
0
  6
Continuous
 62
     7
100
AcDbLine
 10
124.4538215756416
 20
850.4877405890446
 30
0.0
 11
124.4538215756416
 21
859.0162289221906
 31
0.0
  0
LINE
  5
228
330
5C
100
AcDbEntity
  8
0
  6
Continuous
 62
     7
100
AcDbLine
 10
125.2788215756416
 20
859.0162289221907
 30
0.0
 11
124.4538215756416
 21
859.0162289221906
 31
0.0
  0
LINE
  5
229
330
5C
100
AcDbEntity
  8
0
  6
Continuous
 62
     7
100
AcDbLine
 10
124.7429231907794
 20
870.740846082024
 30
0.0
 11
125.2788215756416
 21
868.7408460820237
 31
0.0
  0
LINE
  5
22A
330
5C
100
AcDbEntity
  8
0
  6
Continuous
 62
     7
100
AcDbLine
 10
125.2788215756416
 20
868.7408460820237
 30
0.0
 11
125.2788215756416
 21
859.0162289221907
 31
0.0
  0
LINE
  5
22B
330
5C
100
AcDbEntity
  8
0
  6
Continuous
 62
     7
100
AcDbLine
 10
124.4538215756416
 20
867.948976254526
 30
0.0
 11
124.4538215756416
 21
870.7408460820241
 31
0.0
  0
LINE
  5
22C
330
5C
100
AcDbEntity
  8
0
  6
Continuous
 62
     7
100
AcDbLine
 10
124.4538215756416
 20
867.5936051588604
 30
0.0
 11
124.4538215756416
 21
867.948976254526
 31
0.0
  0
LINE
  5
22D
330
5C
100
AcDbEntity
  8
0
  6
Continuous
 62
     7
100
AcDbLine
 10
125.2788215756416
 20
893.439988525417
 30
0.0
 11
125.2788215756416
 21
882.2782238985603
 31
0.0
  0
LINE
  5
22E
330
5C
100
AcDbEntity
  8
0
  6
Continuous
 62
     7
100
AcDbLine
 10
124.4538215756416
 20
882.2782238985603
 30
0.0
 11
125.2788215756416
 21
882.2782238985603
 31
0.0
  0
LINE
  5
22F
330
5C
100
AcDbEntity
  8
0
  6
Continuous
 62
     7
100
AcDbLine
 10
124.4538215756416
 20
873.888087005187
 30
0.0
 11
124.4538215756416
 21
882.2782238985603
 31
0.0
  0
LINE
  5
230
330
5C
100
AcDbEntity
  8
0
  6
Continuous
 62
     7
100
AcDbLine
 10
124.4538215756416
 20
893.439988525417
 30
0.0
 11
124.4538215756416
 21
882.2782238985603
 31
0.0
  0
LINE
  5
231
330
5C
100
AcDbEntity
  8
0
  6
Continuous
 62
     7
100
AcDbLine
 10
121.9288215756416
 20
859.0162289221907
 30
0.0
 11
121.9288215756416
 21
868.7408460820237
 31
0.0
  0
LINE
  5
232
330
5C
100
AcDbEntity
  8
0
  6
Continuous
 62
     7
100
AcDbLine
 10
121.9288215756416
 20
859.0162289221907
 30
0.0
 11
122.7538215756416
 21
859.0162289221906
 31
0.0
  0
LINE
  5
233
330
5C
100
AcDbEntity
  8
0
  6
Continuous
 62
     7
100
AcDbLine
 10
122.7538215756416
 20
859.0406728739522
 30
0.0
 11
122.7538215756416
 21
859.0162289221906
 31
0.0
  0
LINE
  5
234
330
5C
100
AcDbEntity
  8
0
  6
Continuous
 62
     7
100
AcDbLine
 10
122.7538215756416
 20
870.740846082024
 30
0.0
 11
122.7538215756416
 21
867.948976254526
 31
0.0
  0
LINE
  5
235
330
5C
100
AcDbEntity
  8
0
  6
Continuous
 62
     7
100
AcDbLine
 10
122.7538215756416
 20
867.948976254526
 30
0.0
 11
122.7538215756416
 21
867.5936051588604
 31
0.0
  0
LINE
  5
236
330
5C
100
AcDbEntity
  8
0
  6
Continuous
 62
     7
100
AcDbLine
 10
121.9288215756416
 20
868.7408460820237
 30
0.0
 11
122.4647199605039
 21
870.7408460820236
 31
0.0
  0
LINE
  5
237
330
5C
100
AcDbEntity
  8
0
  6
Continuous
 62
     7
100
AcDbLine
 10
122.4647199605039
 20
870.7408460820236
 30
0.0
 11
122.7538215756416
 21
870.740846082024
 31
0.0
  0
LINE
  5
238
330
5C
100
AcDbEntity
  8
0
  6
Continuous
 62
     7
100
AcDbLine
 10
121.9288215756416
 20
872.7408460820238
 30
0.0
 11
122.4647199605039
 21
870.7408460820236
 31
0.0
  0
LINE
  5
239
330
5C
100
AcDbEntity
  8
0
  6
Continuous
 62
     7
100
AcDbLine
 10
124.4538215756416
 20
870.7408460820241
 30
0.0
 11
122.7538215756416
 21
870.740846082024
 31
0.0
  0
LINE
  5
23A
330
5C
100
AcDbEntity
  8
0
  6
Continuous
 62
     7
100
AcDbLine
 10
123.5000001928418
 20
897.7598458461513
 30
0.0
 11
123.5000001928418
 21
898.0598458461513
 31
0.0
  0
LINE
  5
23B
330
5C
100
AcDbEntity
  8
0
  6
Continuous
 62
     7
100
AcDbLine
 10
128.5000001928418
 20
897.7598458461514
 30
0.0
 11
128.5000001928418
 21
898.0598458461513
 31
0.0
  0
LINE
  5
23C
330
5C
100
AcDbEntity
  8
0
  6
Continuous
 62
     7
100
AcDbLine
 10
125.2788215756416
 20
893.439988525417
 30
0.0
 11
124.4538215756416
 21
893.439988525417
 31
0.0
  0
LINE
  5
23D
330
5C
100
AcDbEntity
  8
0
  6
Continuous
 62
     7
100
AcDbLine
 10
123.1038215756416
 20
894.4256438670171
 30
0.0
 11
124.1038215756416
 21
894.4256438670172
 31
0.0
  0
LINE
  5
23E
330
5C
100
AcDbEntity
  8
0
  6
Continuous
 62
     7
100
AcDbLine
 10
123.1038215756416
 20
894.4256438670171
 30
0.0
 11
123.1038215756416
 21
896.7598458461513
 31
0.0
  0
LINE
  5
23F
330
5C
100
AcDbEntity
  8
0
  6
Continuous
 62
     7
100
AcDbLine
 10
128.5000001928418
 20
898.0598458461513
 30
0.0
 11
123.5000001928418
 21
898.0598458461513
 31
0.0
  0
LINE
  5
240
330
5C
100
AcDbEntity
  8
0
  6
Continuous
 62
     7
100
AcDbLine
 10
127.8129618293339
 20
896.7598458461513
 30
0.0
 11
125.2788215756416
 21
894.6334496939267
 31
0.0
  0
ENDBLK
  5
5E
330
5C
100
AcDbEntity
  8
0
100
AcDbBlockEnd
  0
BLOCK
  5
61
330
5F
100
AcDbEntity
  8
0
100
AcDbBlockBegin
  2
SA_Links1
 70
     0
 10
126.0
 20
861.0000000000102
 30
0.0
  3
SA_Links1
  1

  0
INSERT
  5
60
330
5F
100
AcDbEntity
  8
0
100
AcDbBlockReference
  2
KLM_3_L-select__4
 10
121.0000001928419
 20
823.9598225497389
 30
0.0
  0
MTEXT
  5
241
330
5F
100
AcDbEntity
  8
1
 62
     6
100
AcDbMText
 10
126.0000001928418
 20
818.9401532497386
 30
0.0
 40
5.0
 41
0.0
 71
     2
 72
     1
  1
 
  7
CONVERTER_11
 73
     1
 44
1.32052821128451
  0
ENDBLK
  5
62
330
5F
100
AcDbEntity
  8
0
100
AcDbBlockEnd
  0
BLOCK
  5
64
330
63
100
AcDbEntity
  8
0
100
AcDbBlockBegin
  2
KLM_3_L-select__5
 70
     0
 10
14.80000369066492
 20
823.9598225497386
 30
0.0
  3
KLM_3_L-select__5
  1

  0
LINE
  5
242
330
63
100
AcDbEntity
  8
0
  6
Continuous
 62
     7
100
AcDbLine
 10
21.34618230786515
 20
893.9411924982052
 30
0.0
 11
21.34618230786515
 21
893.4399885254118
 31
0.0
  0
LINE
  5
243
330
63
100
AcDbEntity
  8
0
  6
Continuous
 62
     7
100
AcDbLine
 10
21.34618230786515
 20
894.77958583239
 30
0.0
 11
21.34618230786515
 21
893.9411924982052
 31
0.0
  0
LINE
  5
244
330
63
100
AcDbEntity
  8
0
  6
Continuous
 62
     7
100
AcDbLine
 10
21.05708069272738
 20
870.740846082023
 30
0.0
 11
21.34618230786515
 21
870.7408460820238
 31
0.0
  0
LINE
  5
245
330
63
100
AcDbEntity
  8
0
  6
Continuous
 62
     7
100
AcDbLine
 10
21.34618230786515
 20
882.4410192901188
 30
0.0
 11
21.34618230786515
 21
882.2782238985602
 31
0.0
  0
LINE
  5
246
330
63
100
AcDbEntity
  8
0
  6
Continuous
 62
     7
100
AcDbLine
 10
21.69618230786514
 20
894.77958583239
 30
0.0
 11
21.69618230786514
 21
894.2664555609767
 31
0.0
  0
LINE
  5
247
330
63
100
AcDbEntity
  8
0
  6
Continuous
 62
     7
100
AcDbLine
 10
21.69618230786514
 20
896.7598458461512
 30
0.0
 11
21.69618230786514
 21
894.77958583239
 31
0.0
  0
LINE
  5
248
330
63
100
AcDbEntity
  8
0
  6
Continuous
 62
     7
100
AcDbLine
 10
21.34618230786515
 20
873.5327159095211
 30
0.0
 11
21.34618230786515
 21
870.7408460820238
 31
0.0
  0
LINE
  5
249
330
63
100
AcDbEntity
  8
0
  6
Continuous
 62
     7
100
AcDbLine
 10
21.34618230786515
 20
893.4399885254118
 30
0.0
 11
21.34618230786515
 21
882.4410192901188
 31
0.0
  0
LINE
  5
24A
330
63
100
AcDbEntity
  8
0
  6
Continuous
 62
     7
100
AcDbLine
 10
21.34618230786514
 20
826.7320230772362
 30
0.0
 11
21.34618230786515
 21
823.9598225497386
 31
0.0
  0
LINE
  5
24B
330
63
100
AcDbEntity
  8
0
  6
Continuous
 62
     7
100
AcDbLine
 10
21.34618230786515
 20
823.9598225497386
 30
0.0
 11
21.05181031967673
 21
823.9598225497386
 31
0.0
  0
LINE
  5
24C
330
63
100
AcDbEntity
  8
0
  6
Continuous
 62
     7
100
AcDbLine
 10
17.30000369066492
 20
897.7598458461512
 30
0.0
 11
17.30000369066492
 21
898.0598458461511
 31
0.0
  0
LINE
  5
24D
330
63
100
AcDbEntity
  8
0
  6
Continuous
 62
     7
100
AcDbLine
 10
22.30000369066492
 20
897.7598458461512
 30
0.0
 11
22.30000369066492
 21
898.0598458461511
 31
0.0
  0
LINE
  5
24E
330
63
100
AcDbEntity
  8
0
  6
Continuous
 62
     7
100
AcDbLine
 10
17.30000369066492
 20
897.7598458461512
 30
0.0
 11
14.80000369066492
 21
897.7598458461512
 31
0.0
  0
LINE
  5
24F
330
63
100
AcDbEntity
  8
0
  6
Continuous
 62
     7
100
AcDbLine
 10
24.80000369066492
 20
897.7598458461512
 30
0.0
 11
22.30000369066492
 21
897.7598458461512
 31
0.0
  0
LINE
  5
250
330
63
100
AcDbEntity
  8
0
  6
Continuous
 62
     7
100
AcDbLine
 10
22.30000369066492
 20
897.7598458461512
 30
0.0
 11
17.30000369066492
 21
897.7598458461512
 31
0.0
  0
LINE
  5
251
330
63
100
AcDbEntity
  8
0
  6
Continuous
 62
     7
100
AcDbLine
 10
22.30000369066492
 20
898.0598458461511
 30
0.0
 11
17.30000369066492
 21
898.0598458461511
 31
0.0
  0
LINE
  5
252
330
63
100
AcDbEntity
  8
0
  6
Continuous
 62
     7
100
AcDbLine
 10
23.87118230786515
 20
835.6403264578095
 30
0.0
 11
23.87118230786515
 21
845.340499665881
 31
0.0
  0
LINE
  5
253
330
63
100
AcDbEntity
  8
0
  6
Continuous
 62
     7
100
AcDbLine
 10
23.33528392300289
 20
847.3404996658811
 30
0.0
 11
23.87118230786515
 21
845.340499665881
 31
0.0
  0
LINE
  5
254
330
63
100
AcDbEntity
  8
0
  6
Continuous
 62
     7
100
AcDbLine
 10
23.87118230786513
 20
868.7408460820235
 30
0.0
 11
23.87118230786515
 21
858.9021942189142
 31
0.0
  0
LINE
  5
255
330
63
100
AcDbEntity
  8
0
  6
Continuous
 62
     7
100
AcDbLine
 10
23.87118230786515
 20
858.9021942189142
 30
0.0
 11
23.87118230786514
 21
849.3404996658811
 31
0.0
  0
LINE
  5
256
330
63
100
AcDbEntity
  8
0
  6
Continuous
 62
     7
100
AcDbLine
 10
23.87118230786515
 20
835.6403264578095
 30
0.0
 11
23.87118230786515
 21
825.9401532497385
 31
0.0
  0
LINE
  5
257
330
63
100
AcDbEntity
  8
0
  6
Continuous
 62
     7
100
AcDbLine
 10
23.87118230786515
 20
835.6403264578095
 30
0.0
 11
23.04618230786515
 21
835.6403264578103
 31
0.0
  0
LINE
  5
258
330
63
100
AcDbEntity
  8
0
  6
Continuous
 62
     7
100
AcDbLine
 10
23.04618230786514
 20
823.9598225497386
 30
0.0
 11
23.04618230786514
 21
826.7320230772362
 31
0.0
  0
LINE
  5
259
330
63
100
AcDbEntity
  8
0
  6
Continuous
 62
     7
100
AcDbLine
 10
23.34055429605361
 20
823.9598225497386
 30
0.0
 11
23.04618230786514
 21
823.9598225497386
 31
0.0
  0
LINE
  5
25A
330
63
100
AcDbEntity
  8
0
  6
Continuous
 62
     7
100
AcDbLine
 10
23.87118230786515
 20
858.9021942189142
 30
0.0
 11
23.04618230786515
 21
858.9021942189141
 31
0.0
  0
LINE
  5
25B
330
63
100
AcDbEntity
  8
0
  6
Continuous
 62
     7
100
AcDbLine
 10
23.04618230786515
 20
835.6403264578103
 30
0.0
 11
23.04618230786514
 21
844.1932587427178
 31
0.0
  0
LINE
  5
25C
330
63
100
AcDbEntity
  8
0
  6
Continuous
 62
     7
100
AcDbLine
 10
23.33528392300283
 20
870.7408460820232
 30
0.0
 11
23.87118230786517
 21
872.7408460820236
 31
0.0
  0
LINE
  5
25D
330
63
100
AcDbEntity
  8
0
  6
Continuous
 62
     7
100
AcDbLine
 10
23.87118230786513
 20
882.2782238985602
 30
0.0
 11
23.04618230786514
 21
882.2782238985601
 31
0.0
  0
LINE
  5
25E
330
63
100
AcDbEntity
  8
0
  6
Continuous
 62
     7
100
AcDbLine
 10
23.87118230786513
 20
893.4399885254116
 30
0.0
 11
23.04618230786514
 21
893.4399885254118
 31
0.0
  0
LINE
  5
25F
330
63
100
AcDbEntity
  8
0
  6
Continuous
 62
     7
100
AcDbLine
 10
23.04618230786514
 20
893.9411924982053
 30
0.0
 11
23.04618230786514
 21
893.4399885254118
 31
0.0
  0
LINE
  5
260
330
63
100
AcDbEntity
  8
0
  6
Continuous
 62
     7
100
AcDbLine
 10
23.04618230786514
 20
873.5327159095211
 30
0.0
 11
23.04618230786515
 21
870.7408460820238
 31
0.0
  0
LINE
  5
261
330
63
100
AcDbEntity
  8
0
  6
Continuous
 62
     7
100
AcDbLine
 10
23.04618230786514
 20
882.4410192901188
 30
0.0
 11
23.04618230786514
 21
882.2782238985601
 31
0.0
  0
LINE
  5
262
330
63
100
AcDbEntity
  8
0
  6
Continuous
 62
     7
100
AcDbLine
 10
23.33528392300283
 20
870.7408460820232
 30
0.0
 11
23.04618230786515
 21
870.7408460820238
 31
0.0
  0
LINE
  5
263
330
63
100
AcDbEntity
  8
0
  6
Continuous
 62
     7
100
AcDbLine
 10
22.69618230786514
 20
894.2664555609767
 30
0.0
 11
22.69618230786514
 21
896.7598458461512
 31
0.0
  0
LINE
  5
264
330
63
100
AcDbEntity
  8
0
  6
Continuous
 62
     7
100
AcDbLine
 10
23.04618230786514
 20
893.4399885254118
 30
0.0
 11
23.04618230786514
 21
882.4410192901188
 31
0.0
  0
LINE
  5
265
330
63
100
AcDbEntity
  8
0
  6
Continuous
 62
     7
100
AcDbLine
 10
23.87118230786513
 20
894.4175064702866
 30
0.0
 11
23.04618230786514
 21
893.9411924982053
 31
0.0
  0
LINE
  5
266
330
63
100
AcDbEntity
  8
0
  6
Continuous
 62
     7
100
AcDbLine
 10
23.87118230786515
 20
825.9401532497385
 30
0.0
 11
23.34055429605361
 21
823.9598225497386
 31
0.0
  0
LINE
  5
267
330
63
100
AcDbEntity
  8
0
  6
Continuous
 62
     7
100
AcDbLine
 10
23.33528392300283
 20
870.7408460820232
 30
0.0
 11
23.87118230786513
 21
868.7408460820235
 31
0.0
  0
LINE
  5
268
330
63
100
AcDbEntity
  8
0
  6
Continuous
 62
     7
100
AcDbLine
 10
21.34618230786515
 20
893.4399885254118
 30
0.0
 11
20.52118230786513
 21
893.4399885254118
 31
0.0
  0
LINE
  5
269
330
63
100
AcDbEntity
  8
0
  6
Continuous
 62
     7
100
AcDbLine
 10
20.52118230786513
 20
894.6334496939264
 30
0.0
 11
21.34618230786515
 21
893.9411924982052
 31
0.0
  0
LINE
  5
26A
330
63
100
AcDbEntity
  8
0
  6
Continuous
 62
     7
100
AcDbLine
 10
14.80000369066492
 20
896.7598458461512
 30
0.0
 11
17.98704205417286
 21
896.759845846151
 31
0.0
  0
LINE
  5
26B
330
63
100
AcDbEntity
  8
0
  6
Continuous
 62
     7
100
AcDbLine
 10
21.69618230786514
 20
896.7598458461512
 30
0.0
 11
22.69618230786514
 21
896.7598458461512
 31
0.0
  0
LINE
  5
26C
330
63
100
AcDbEntity
  8
0
  6
Continuous
 62
     7
100
AcDbLine
 10
22.69618230786514
 20
896.7598458461512
 30
0.0
 11
24.80000369066492
 21
896.7598458461512
 31
0.0
  0
LINE
  5
26D
330
63
100
AcDbEntity
  8
0
  6
Continuous
 62
     7
100
AcDbLine
 10
17.98704205417286
 20
896.759845846151
 30
0.0
 11
21.69618230786514
 21
896.7598458461512
 31
0.0
  0
LINE
  5
26E
330
63
100
AcDbEntity
  8
0
  6
Continuous
 62
     7
100
AcDbLine
 10
14.80000369066492
 20
897.7598458461512
 30
0.0
 11
14.80000369066492
 21
896.7598458461512
 31
0.0
  0
LINE
  5
26F
330
63
100
AcDbEntity
  8
0
  6
Continuous
 62
     7
100
AcDbLine
 10
21.05181031967673
 20
823.9598225497386
 30
0.0
 11
20.52118230786513
 21
825.9401532497388
 31
0.0
  0
LINE
  5
270
330
63
100
AcDbEntity
  8
0
  6
Continuous
 62
     7
100
AcDbLine
 10
20.52118230786513
 20
893.4399885254118
 30
0.0
 11
20.52118230786513
 21
894.6334496939264
 31
0.0
  0
LINE
  5
271
330
63
100
AcDbEntity
  8
0
  6
Continuous
 62
     7
100
AcDbLine
 10
20.52118230786513
 20
882.2782238985602
 30
0.0
 11
20.52118230786513
 21
893.4399885254118
 31
0.0
  0
LINE
  5
272
330
63
100
AcDbEntity
  8
0
  6
Continuous
 62
     7
100
AcDbLine
 10
20.52118230786512
 20
872.7408460820235
 30
0.0
 11
20.52118230786513
 21
882.2782238985602
 31
0.0
  0
LINE
  5
273
330
63
100
AcDbEntity
  8
0
  6
Continuous
 62
     7
100
AcDbLine
 10
20.52118230786512
 20
872.7408460820235
 30
0.0
 11
21.05708069272738
 21
870.740846082023
 31
0.0
  0
LINE
  5
274
330
63
100
AcDbEntity
  8
0
  6
Continuous
 62
     7
100
AcDbLine
 10
20.52118230786513
 20
845.340499665881
 30
0.0
 11
21.05708069272736
 21
847.3404996658811
 31
0.0
  0
LINE
  5
275
330
63
100
AcDbEntity
  8
0
  6
Continuous
 62
     7
100
AcDbLine
 10
24.80000369066492
 20
896.7598458461512
 30
0.0
 11
24.80000369066492
 21
894.9537617456753
 31
0.0
  0
LINE
  5
276
330
63
100
AcDbEntity
  8
0
  6
Continuous
 62
     7
100
AcDbLine
 10
23.87118230786513
 20
882.2782238985602
 30
0.0
 11
23.87118230786513
 21
893.4399885254116
 31
0.0
  0
LINE
  5
277
330
63
100
AcDbEntity
  8
0
  6
Continuous
 62
     7
100
AcDbLine
 10
23.87118230786513
 20
894.4175064702866
 30
0.0
 11
23.87118230786513
 21
893.4399885254116
 31
0.0
  0
LINE
  5
278
330
63
100
AcDbEntity
  8
0
  6
Continuous
 62
     7
100
AcDbLine
 10
23.87118230786517
 20
872.7408460820236
 30
0.0
 11
23.87118230786513
 21
882.2782238985602
 31
0.0
  0
LINE
  5
279
330
63
100
AcDbEntity
  8
0
  6
Continuous
 62
     7
100
AcDbLine
 10
24.80000369066492
 20
896.7598458461512
 30
0.0
 11
24.80000369066492
 21
897.7598458461512
 31
0.0
  0
LINE
  5
27A
330
63
100
AcDbEntity
  8
0
  6
Continuous
 62
     7
100
AcDbLine
 10
24.80000369066492
 20
894.9537617456753
 30
0.0
 11
23.87118230786513
 21
894.4175064702866
 31
0.0
  0
LINE
  5
27B
330
63
100
AcDbEntity
  8
0
  6
Continuous
 62
     7
100
AcDbLine
 10
23.87118230786514
 20
849.3404996658811
 30
0.0
 11
23.33528392300289
 21
847.3404996658811
 31
0.0
  0
LINE
  5
27C
330
63
100
AcDbEntity
  8
0
  6
Continuous
 62
     7
100
AcDbLine
 10
20.52118230786513
 20
858.9021942189142
 30
0.0
 11
21.34618230786515
 21
858.9021942189142
 31
0.0
  0
LINE
  5
27D
330
63
100
AcDbEntity
  8
0
  6
Continuous
 62
     7
100
AcDbLine
 10
20.52118230786513
 20
858.9021942189142
 30
0.0
 11
20.52118230786514
 21
868.7408460820235
 31
0.0
  0
LINE
  5
27E
330
63
100
AcDbEntity
  8
0
  6
Continuous
 62
     7
100
AcDbLine
 10
23.04618230786515
 20
867.948976254526
 30
0.0
 11
21.34618230786515
 21
867.948976254526
 31
0.0
  0
LINE
  5
27F
330
63
100
AcDbEntity
  8
0
  6
Continuous
 62
     7
100
AcDbLine
 10
23.04618230786515
 20
858.8778774823976
 30
0.0
 11
21.34618230786515
 21
858.8778774823976
 31
0.0
  0
LINE
  5
280
330
63
100
AcDbEntity
  8
0
  6
Continuous
 62
     7
100
AcDbLine
 10
23.04618230786514
 20
867.563508696589
 30
0.0
 11
21.34618230786515
 21
867.563508696589
 31
0.0
  0
LINE
  5
281
330
63
100
AcDbEntity
  8
0
  6
Continuous
 62
     7
100
AcDbLine
 10
20.52118230786514
 20
868.7408460820235
 30
0.0
 11
21.05708069272738
 21
870.740846082023
 31
0.0
  0
LINE
  5
282
330
63
100
AcDbEntity
  8
0
  6
Continuous
 62
     7
100
AcDbLine
 10
23.04618230786514
 20
827.0873941729019
 30
0.0
 11
21.34618230786514
 21
827.0873941729019
 31
0.0
  0
LINE
  5
283
330
63
100
AcDbEntity
  8
0
  6
Continuous
 62
     7
100
AcDbLine
 10
23.04618230786514
 20
826.7320230772362
 30
0.0
 11
21.34618230786514
 21
826.7320230772362
 31
0.0
  0
LINE
  5
284
330
63
100
AcDbEntity
  8
0
  6
Continuous
 62
     7
100
AcDbLine
 10
20.52118230786513
 20
825.9401532497388
 30
0.0
 11
20.52118230786513
 21
835.6403264578094
 31
0.0
  0
LINE
  5
285
330
63
100
AcDbEntity
  8
0
  6
Continuous
 62
     7
100
AcDbLine
 10
20.52118230786512
 20
849.3404996658811
 30
0.0
 11
20.52118230786513
 21
858.9021942189142
 31
0.0
  0
LINE
  5
286
330
63
100
AcDbEntity
  8
0
  6
Continuous
 62
     7
100
AcDbLine
 10
21.34618230786515
 20
835.6403264578103
 30
0.0
 11
20.52118230786513
 21
835.6403264578094
 31
0.0
  0
LINE
  5
287
330
63
100
AcDbEntity
  8
0
  6
Continuous
 62
     7
100
AcDbLine
 10
21.34618230786515
 20
844.1932587427178
 30
0.0
 11
21.34618230786515
 21
835.6403264578103
 31
0.0
  0
LINE
  5
288
330
63
100
AcDbEntity
  8
0
  6
Continuous
 62
     7
100
AcDbLine
 10
20.52118230786513
 20
835.6403264578094
 30
0.0
 11
20.52118230786513
 21
845.340499665881
 31
0.0
  0
LINE
  5
289
330
63
100
AcDbEntity
  8
0
  6
Continuous
 62
     7
100
AcDbLine
 10
23.04618230786515
 20
835.6403264578103
 30
0.0
 11
21.34618230786515
 21
835.6403264578103
 31
0.0
  0
LINE
  5
28A
330
63
100
AcDbEntity
  8
0
  6
Continuous
 62
     7
100
AcDbLine
 10
23.04618230786515
 20
847.3404996658809
 30
0.0
 11
21.34618230786515
 21
847.3404996658809
 31
0.0
  0
LINE
  5
28B
330
63
100
AcDbEntity
  8
0
  6
Continuous
 62
     7
100
AcDbLine
 10
23.04618230786515
 20
850.4877405890444
 30
0.0
 11
21.34618230786515
 21
850.4877405890443
 31
0.0
  0
LINE
  5
28C
330
63
100
AcDbEntity
  8
0
  6
Continuous
 62
     7
100
AcDbLine
 10
23.04618230786515
 20
850.1323694933787
 30
0.0
 11
21.34618230786515
 21
850.1323694933787
 31
0.0
  0
LINE
  5
28D
330
63
100
AcDbEntity
  8
0
  6
Continuous
 62
     7
100
AcDbLine
 10
21.05708069272736
 20
847.3404996658811
 30
0.0
 11
20.52118230786512
 21
849.3404996658811
 31
0.0
  0
LINE
  5
28E
330
63
100
AcDbEntity
  8
0
  6
Continuous
 62
     7
100
AcDbLine
 10
21.05708069272736
 20
847.3404996658811
 30
0.0
 11
21.34618230786515
 21
847.3404996658809
 31
0.0
  0
LINE
  5
28F
330
63
100
AcDbEntity
  8
0
  6
Continuous
 62
     7
100
AcDbLine
 10
23.33528392300289
 20
847.3404996658811
 30
0.0
 11
23.04618230786515
 21
847.3404996658809
 31
0.0
  0
LINE
  5
290
330
63
100
AcDbEntity
  8
0
  6
Continuous
 62
     7
100
AcDbLine
 10
23.04618230786514
 20
844.1932587427178
 30
0.0
 11
23.04618230786514
 21
844.5486298383835
 31
0.0
  0
LINE
  5
291
330
63
100
AcDbEntity
  8
0
  6
Continuous
 62
     7
100
AcDbLine
 10
23.04618230786514
 20
844.1932587427178
 30
0.0
 11
21.34618230786515
 21
844.1932587427178
 31
0.0
  0
LINE
  5
292
330
63
100
AcDbEntity
  8
0
  6
Continuous
 62
     7
100
AcDbLine
 10
23.04618230786514
 20
844.5486298383835
 30
0.0
 11
21.34618230786515
 21
844.5486298383835
 31
0.0
  0
LINE
  5
293
330
63
100
AcDbEntity
  8
0
  6
Continuous
 62
     7
100
AcDbLine
 10
23.04618230786514
 20
826.7320230772362
 30
0.0
 11
23.04618230786514
 21
827.0873941729019
 31
0.0
  0
LINE
  5
294
330
63
100
AcDbEntity
  8
0
  6
Continuous
 62
     7
100
AcDbLine
 10
23.04618230786515
 20
867.948976254526
 30
0.0
 11
23.04618230786515
 21
870.7408460820238
 31
0.0
  0
LINE
  5
295
330
63
100
AcDbEntity
  8
0
  6
Continuous
 62
     7
100
AcDbLine
 10
23.04618230786515
 20
850.1323694933787
 30
0.0
 11
23.04618230786515
 21
850.4877405890444
 31
0.0
  0
LINE
  5
296
330
63
100
AcDbEntity
  8
0
  6
Continuous
 62
     7
100
AcDbLine
 10
23.04618230786515
 20
858.8778774823976
 30
0.0
 11
23.04618230786515
 21
858.9021942189141
 31
0.0
  0
LINE
  5
297
330
63
100
AcDbEntity
  8
0
  6
Continuous
 62
     7
100
AcDbLine
 10
23.04618230786515
 20
850.4877405890444
 30
0.0
 11
23.04618230786515
 21
858.8778774823976
 31
0.0
  0
LINE
  5
298
330
63
100
AcDbEntity
  8
0
  6
Continuous
 62
     7
100
AcDbLine
 10
23.04618230786514
 20
827.0873941729019
 30
0.0
 11
23.04618230786515
 21
835.6403264578103
 31
0.0
  0
LINE
  5
299
330
63
100
AcDbEntity
  8
0
  6
Continuous
 62
     7
100
AcDbLine
 10
23.04618230786514
 20
867.563508696589
 30
0.0
 11
23.04618230786515
 21
867.948976254526
 31
0.0
  0
LINE
  5
29A
330
63
100
AcDbEntity
  8
0
  6
Continuous
 62
     7
100
AcDbLine
 10
23.04618230786515
 20
858.9021942189141
 30
0.0
 11
23.04618230786514
 21
867.563508696589
 31
0.0
  0
LINE
  5
29B
330
63
100
AcDbEntity
  8
0
  6
Continuous
 62
     7
100
AcDbLine
 10
23.04618230786515
 20
847.3404996658809
 30
0.0
 11
23.04618230786515
 21
850.1323694933787
 31
0.0
  0
LINE
  5
29C
330
63
100
AcDbEntity
  8
0
  6
Continuous
 62
     7
100
AcDbLine
 10
23.04618230786514
 20
844.5486298383835
 30
0.0
 11
23.04618230786515
 21
847.3404996658809
 31
0.0
  0
LINE
  5
29D
330
63
100
AcDbEntity
  8
0
  6
Continuous
 62
     7
100
AcDbLine
 10
23.04618230786515
 20
870.7408460820238
 30
0.0
 11
21.34618230786515
 21
870.7408460820238
 31
0.0
  0
LINE
  5
29E
330
63
100
AcDbEntity
  8
0
  6
Continuous
 62
     7
100
AcDbLine
 10
21.34618230786515
 20
873.8435096287855
 30
0.0
 11
21.34618230786515
 21
873.5327159095211
 31
0.0
  0
LINE
  5
29F
330
63
100
AcDbEntity
  8
0
  6
Continuous
 62
     7
100
AcDbLine
 10
21.34618230786515
 20
882.2782238985602
 30
0.0
 11
21.34618230786515
 21
873.8435096287855
 31
0.0
  0
LINE
  5
2A0
330
63
100
AcDbEntity
  8
0
  6
Continuous
 62
     7
100
AcDbLine
 10
23.04618230786514
 20
873.8435096287855
 30
0.0
 11
21.34618230786515
 21
873.8435096287855
 31
0.0
  0
LINE
  5
2A1
330
63
100
AcDbEntity
  8
0
  6
Continuous
 62
     7
100
AcDbLine
 10
23.04618230786514
 20
873.8435096287855
 30
0.0
 11
23.04618230786514
 21
873.5327159095211
 31
0.0
  0
LINE
  5
2A2
330
63
100
AcDbEntity
  8
0
  6
Continuous
 62
     7
100
AcDbLine
 10
23.04618230786514
 20
873.5327159095211
 30
0.0
 11
21.34618230786515
 21
873.5327159095211
 31
0.0
  0
LINE
  5
2A3
330
63
100
AcDbEntity
  8
0
  6
Continuous
 62
     7
100
AcDbLine
 10
20.52118230786513
 20
882.2782238985602
 30
0.0
 11
21.34618230786515
 21
882.2782238985602
 31
0.0
  0
LINE
  5
2A4
330
63
100
AcDbEntity
  8
0
  6
Continuous
 62
     7
100
AcDbLine
 10
23.04618230786514
 20
882.2782238985601
 30
0.0
 11
23.04618230786514
 21
873.8435096287855
 31
0.0
  0
LINE
  5
2A5
330
63
100
AcDbEntity
  8
0
  6
Continuous
 62
     7
100
AcDbLine
 10
21.34618230786515
 20
858.8778774823976
 30
0.0
 11
21.34618230786515
 21
850.4877405890443
 31
0.0
  0
LINE
  5
2A6
330
63
100
AcDbEntity
  8
0
  6
Continuous
 62
     7
100
AcDbLine
 10
21.34618230786515
 20
858.9021942189142
 30
0.0
 11
21.34618230786515
 21
858.8778774823976
 31
0.0
  0
LINE
  5
2A7
330
63
100
AcDbEntity
  8
0
  6
Continuous
 62
     7
100
AcDbLine
 10
21.34618230786515
 20
847.3404996658809
 30
0.0
 11
21.34618230786515
 21
844.5486298383835
 31
0.0
  0
LINE
  5
2A8
330
63
100
AcDbEntity
  8
0
  6
Continuous
 62
     7
100
AcDbLine
 10
21.34618230786515
 20
850.4877405890443
 30
0.0
 11
21.34618230786515
 21
850.1323694933787
 31
0.0
  0
LINE
  5
2A9
330
63
100
AcDbEntity
  8
0
  6
Continuous
 62
     7
100
AcDbLine
 10
21.34618230786515
 20
850.1323694933787
 30
0.0
 11
21.34618230786515
 21
847.3404996658809
 31
0.0
  0
LINE
  5
2AA
330
63
100
AcDbEntity
  8
0
  6
Continuous
 62
     7
100
AcDbLine
 10
21.34618230786514
 20
827.0873941729019
 30
0.0
 11
21.34618230786514
 21
826.7320230772362
 31
0.0
  0
LINE
  5
2AB
330
63
100
AcDbEntity
  8
0
  6
Continuous
 62
     7
100
AcDbLine
 10
21.34618230786515
 20
867.948976254526
 30
0.0
 11
21.34618230786515
 21
867.563508696589
 31
0.0
  0
LINE
  5
2AC
330
63
100
AcDbEntity
  8
0
  6
Continuous
 62
     7
100
AcDbLine
 10
21.34618230786515
 20
870.7408460820238
 30
0.0
 11
21.34618230786515
 21
867.948976254526
 31
0.0
  0
LINE
  5
2AD
330
63
100
AcDbEntity
  8
0
  6
Continuous
 62
     7
100
AcDbLine
 10
21.34618230786515
 20
835.6403264578103
 30
0.0
 11
21.34618230786514
 21
827.0873941729019
 31
0.0
  0
LINE
  5
2AE
330
63
100
AcDbEntity
  8
0
  6
Continuous
 62
     7
100
AcDbLine
 10
21.34618230786515
 20
844.5486298383835
 30
0.0
 11
21.34618230786515
 21
844.1932587427178
 31
0.0
  0
LINE
  5
2AF
330
63
100
AcDbEntity
  8
0
  6
Continuous
 62
     7
100
AcDbLine
 10
21.34618230786515
 20
823.9598225497386
 30
0.0
 11
23.04618230786514
 21
823.9598225497386
 31
0.0
  0
LINE
  5
2B0
330
63
100
AcDbEntity
  8
0
  6
Continuous
 62
     7
100
AcDbLine
 10
21.69618230786514
 20
894.2664555609767
 30
0.0
 11
22.69618230786514
 21
894.2664555609767
 31
0.0
  0
LINE
  5
2B1
330
63
100
AcDbEntity
  8
0
  6
Continuous
 62
     7
100
AcDbLine
 10
21.69618230786514
 20
894.77958583239
 30
0.0
 11
21.34618230786515
 21
894.77958583239
 31
0.0
  0
LINE
  5
2B2
330
63
100
AcDbEntity
  8
0
  6
Continuous
 62
     7
100
AcDbLine
 10
23.04618230786514
 20
882.4410192901188
 30
0.0
 11
21.34618230786515
 21
882.4410192901188
 31
0.0
  0
LINE
  5
2B3
330
63
100
AcDbEntity
  8
0
  6
Continuous
 62
     7
100
AcDbLine
 10
21.34618230786515
 20
867.563508696589
 30
0.0
 11
21.34618230786515
 21
858.9021942189142
 31
0.0
  0
LINE
  5
2B4
330
63
100
AcDbEntity
  8
0
  6
Continuous
 62
     7
100
AcDbLine
 10
17.98704205417286
 20
896.759845846151
 30
0.0
 11
20.52118230786513
 21
894.6334496939264
 31
0.0
  0
ENDBLK
  5
65
330
63
100
AcDbEntity
  8
0
100
AcDbBlockEnd
  0
BLOCK
  5
68
330
66
100
AcDbEntity
  8
0
100
AcDbBlockBegin
  2
SA_Rechts1
 70
     0
 10
19.80000388350677
 20
861.00000000001
 30
0.0
  3
SA_Rechts1
  1

  0
INSERT
  5
67
330
66
100
AcDbEntity
  8
0
100
AcDbBlockReference
  2
KLM_3_L-select__5
 10
14.80000369066492
 20
823.9598225497386
 30
0.0
  0
MTEXT
  5
2B5
330
66
100
AcDbEntity
  8
1
 62
     6
100
AcDbMText
 10
19.80000369066493
 20
818.9401532497386
 30
0.0
 40
5.0
 41
0.0
 71
     2
 72
     1
  1
 
  7
CONVERTER_11
 73
     1
 44
1.32052821128451
  0
ENDBLK
  5
69
330
66
100
AcDbEntity
  8
0
100
AcDbBlockEnd
  0
BLOCK
  5
6B
330
6A
100
AcDbEntity
  8
0
100
AcDbBlockBegin
  2
KLM_3_L-select__6
 70
     0
 10
56.60000086790009
 20
823.9598225497386
 30
0.0
  3
KLM_3_L-select__6
  1

  0
LINE
  5
2B6
330
6A
100
AcDbEntity
  8
0
  6
Continuous
 62
     7
100
AcDbLine
 10
65.0938028743482
 20
845.3404996658811
 30
0.0
 11
65.57565661917843
 21
835.6403264578103
 31
0.0
  0
LINE
  5
2B7
330
6A
100
AcDbEntity
  8
0
  6
Continuous
 62
     7
100
AcDbLine
 10
62.13093012690992
 20
835.6403264578098
 30
0.0
 11
62.29326570144544
 21
844.1631622804465
 31
0.0
  0
LINE
  5
2B8
330
6A
100
AcDbEntity
  8
0
  6
Continuous
 62
     7
100
AcDbLine
 10
65.87875036556383
 20
845.3404996658812
 30
0.0
 11
65.0938028743482
 21
845.3404996658811
 31
0.0
  0
LINE
  5
2B9
330
6A
100
AcDbEntity
  8
0
  6
Continuous
 62
     7
100
AcDbLine
 10
66.44382098585433
 20
844.5486298383835
 30
0.0
 11
66.91668952065582
 21
844.1932587427178
 31
0.0
  0
LINE
  5
2BA
330
6A
100
AcDbEntity
  8
0
  6
Continuous
 62
     7
100
AcDbLine
 10
62.80618158447099
 20
844.5486298383835
 30
0.0
 11
63.17373822020024
 21
847.3404996658809
 31
0.0
  0
LINE
  5
2BB
330
6A
100
AcDbEntity
  8
0
  6
Continuous
 62
     7
100
AcDbLine
 10
62.29326570144544
 20
844.1631622804465
 30
0.0
 11
62.80618158447099
 21
844.5486298383835
 31
0.0
  0
LINE
  5
2BC
330
6A
100
AcDbEntity
  8
0
  6
Continuous
 62
     7
100
AcDbLine
 10
66.37565661917884
 20
835.6403264578373
 30
0.0
 11
65.87875036556383
 21
845.3404996658812
 31
0.0
  0
LINE
  5
2BD
330
6A
100
AcDbEntity
  8
0
  6
Continuous
 62
     7
100
AcDbLine
 10
63.67434595114655
 20
835.6403264578094
 30
0.0
 11
64.15619969597665
 21
845.340499665881
 31
0.0
  0
LINE
  5
2BE
330
6A
100
AcDbEntity
  8
0
  6
Continuous
 62
     7
100
AcDbLine
 10
63.37125220476149
 20
845.3404996658812
 30
0.0
 11
62.87434595114598
 21
835.6403264577824
 31
0.0
  0
LINE
  5
2BF
330
6A
100
AcDbEntity
  8
0
  6
Continuous
 62
     7
100
AcDbLine
 10
64.62500128516264
 20
871.3400774294511
 30
0.0
 11
64.20491484642638
 21
871.7601638681873
 31
0.0
  0
LINE
  5
2C0
330
6A
100
AcDbEntity
  8
0
  6
Continuous
 62
     7
100
AcDbLine
 10
65.0450877238979
 20
871.7601638681864
 30
0.0
 11
64.62500128516264
 21
871.3400774294511
 31
0.0
  0
LINE
  5
2C1
330
6A
100
AcDbEntity
  8
0
  6
Continuous
 62
     7
100
AcDbLine
 10
65.0945460064728
 20
872.7408460820235
 30
0.0
 11
65.0450877238979
 21
871.7601638681864
 31
0.0
  0
LINE
  5
2C2
330
6A
100
AcDbEntity
  8
0
  6
Continuous
 62
     7
100
AcDbLine
 10
65.88017594302283
 20
872.7408460820235
 30
0.0
 11
65.77629729736438
 21
870.740846082023
 31
0.0
  0
LINE
  5
2C3
330
6A
100
AcDbEntity
  8
0
  6
Continuous
 62
     7
100
AcDbLine
 10
65.77629729736438
 20
870.740846082023
 30
0.0
 11
63.47370527296043
 21
870.7408460820237
 31
0.0
  0
LINE
  5
2C4
330
6A
100
AcDbEntity
  8
0
  6
Continuous
 62
     7
100
AcDbLine
 10
63.47370527296043
 20
870.7408460820237
 30
0.0
 11
63.369826627302
 21
872.7408460820235
 31
0.0
  0
LINE
  5
2C5
330
6A
100
AcDbEntity
  8
0
  6
Continuous
 62
     7
100
AcDbLine
 10
64.20491484642638
 20
871.7601638681873
 30
0.0
 11
64.15545656385162
 21
872.7408460820235
 31
0.0
  0
LINE
  5
2C6
330
6A
100
AcDbEntity
  8
0
  6
Continuous
 62
     7
100
AcDbLine
 10
63.369826627302
 20
872.7408460820235
 30
0.0
 11
64.15545656385162
 21
872.7408460820235
 31
0.0
  0
LINE
  5
2C7
330
6A
100
AcDbEntity
  8
0
  6
Continuous
 62
     7
100
AcDbLine
 10
66.91668952065582
 20
850.4877405890443
 30
0.0
 11
66.4438209858544
 21
850.1323694933787
 31
0.0
  0
LINE
  5
2C8
330
6A
100
AcDbEntity
  8
0
  6
Continuous
 62
     7
100
AcDbLine
 10
62.87446168194469
 20
882.2782238985602
 30
0.0
 11
63.369826627302
 21
872.7408460820235
 31
0.0
  0
LINE
  5
2C9
330
6A
100
AcDbEntity
  8
0
  6
Continuous
 62
     7
100
AcDbLine
 10
57.20000086790009
 20
897.7598458461512
 30
0.0
 11
57.20000086790009
 21
898.0598458461511
 31
0.0
  0
LINE
  5
2CA
330
6A
100
AcDbEntity
  8
0
  6
Continuous
 62
     7
100
AcDbLine
 10
56.60000086790009
 20
898.0598458461511
 30
0.0
 11
57.20000086790009
 21
898.0598458461511
 31
0.0
  0
LINE
  5
2CB
330
6A
100
AcDbEntity
  8
0
  6
Continuous
 62
     7
100
AcDbLine
 10
56.60000086790009
 20
897.7598458461512
 30
0.0
 11
56.60000086790009
 21
898.0598458461511
 31
0.0
  0
LINE
  5
2CC
330
6A
100
AcDbEntity
  8
0
  6
Continuous
 62
     7
100
AcDbLine
 10
78.20000086790009
 20
896.7598458461512
 30
0.0
 11
73.5936908337986
 21
896.7598458461512
 31
0.0
  0
LINE
  5
2CD
330
6A
100
AcDbEntity
  8
0
  6
Continuous
 62
     7
100
AcDbLine
 10
66.72500086790009
 20
896.759845846151
 30
0.0
 11
66.72500086790009
 21
894.77958583239
 31
0.0
  0
LINE
  5
2CE
330
6A
100
AcDbEntity
  8
0
  6
Continuous
 62
     7
100
AcDbLine
 10
66.72500086790009
 20
894.77958583239
 30
0.0
 11
66.72500086790009
 21
893.9411924982052
 31
0.0
  0
LINE
  5
2CF
330
6A
100
AcDbEntity
  8
0
  6
Continuous
 62
     7
100
AcDbLine
 10
67.12217322864349
 20
858.8778774823976
 30
0.0
 11
66.91668952065582
 21
850.4877405890443
 31
0.0
  0
LINE
  5
2D0
330
6A
100
AcDbEntity
  8
0
  6
Continuous
 62
     7
100
AcDbLine
 10
67.16158529124434
 20
882.4410192901188
 30
0.0
 11
66.85737338909283
 21
873.8435096287855
 31
0.0
  0
LINE
  5
2D1
330
6A
100
AcDbEntity
  8
0
  6
Continuous
 62
     7
100
AcDbLine
 10
66.74315732739464
 20
894.2664555609767
 30
0.0
 11
67.16158529124434
 21
882.4410192901188
 31
0.0
  0
LINE
  5
2D2
330
6A
100
AcDbEntity
  8
0
  6
Continuous
 62
     7
100
AcDbLine
 10
66.72500086790009
 20
894.77958583239
 30
0.0
 11
66.74315732739464
 21
894.2664555609767
 31
0.0
  0
LINE
  5
2D3
330
6A
100
AcDbEntity
  8
0
  6
Continuous
 62
     7
100
AcDbLine
 10
73.5936908337986
 20
896.7598458461512
 30
0.0
 11
66.72500086790009
 21
896.759845846151
 31
0.0
  0
LINE
  5
2D4
330
6A
100
AcDbEntity
  8
0
  6
Continuous
 62
     7
100
AcDbLine
 10
78.20000086790009
 20
897.7598458461512
 30
0.0
 11
78.20000086790009
 21
896.7598458461512
 31
0.0
  0
LINE
  5
2D5
330
6A
100
AcDbEntity
  8
0
  6
Continuous
 62
     7
100
AcDbLine
 10
56.60000086790009
 20
897.7598458461512
 30
0.0
 11
57.20000086790009
 21
897.7598458461512
 31
0.0
  0
LINE
  5
2D6
330
6A
100
AcDbEntity
  8
0
  6
Continuous
 62
     7
100
AcDbLine
 10
57.20000086790009
 20
897.7598458461512
 30
0.0
 11
78.20000086790009
 21
897.7598458461512
 31
0.0
  0
LINE
  5
2D7
330
6A
100
AcDbEntity
  8
0
  6
Continuous
 62
     7
100
AcDbLine
 10
56.60000086790009
 20
896.7598458461512
 30
0.0
 11
56.60000086790009
 21
897.7598458461512
 31
0.0
  0
LINE
  5
2D8
330
6A
100
AcDbEntity
  8
0
  6
Continuous
 62
     7
100
AcDbLine
 10
60.02500086790008
 20
896.7598458461512
 30
0.0
 11
56.60000086790009
 21
896.7598458461512
 31
0.0
  0
LINE
  5
2D9
330
6A
100
AcDbEntity
  8
0
  6
Continuous
 62
     7
100
AcDbLine
 10
62.4036626990453
 20
896.7598458461512
 30
0.0
 11
60.02500086790008
 21
896.7598458461512
 31
0.0
  0
LINE
  5
2DA
330
6A
100
AcDbEntity
  8
0
  6
Continuous
 62
     7
100
AcDbLine
 10
62.4036626990453
 20
896.7598458461512
 30
0.0
 11
62.35920284703423
 21
894.425643867017
 31
0.0
  0
LINE
  5
2DB
330
6A
100
AcDbEntity
  8
0
  6
Continuous
 62
     7
100
AcDbLine
 10
62.35920284703423
 20
894.425643867017
 30
0.0
 11
62.12782934168139
 21
882.2782238985601
 31
0.0
  0
LINE
  5
2DC
330
6A
100
AcDbEntity
  8
0
  6
Continuous
 62
     7
100
AcDbLine
 10
62.5250017024253
 20
896.7598458461512
 30
0.0
 11
62.4036626990453
 21
896.7598458461512
 31
0.0
  0
LINE
  5
2DD
330
6A
100
AcDbEntity
  8
0
  6
Continuous
 62
     7
100
AcDbLine
 10
66.72500086790009
 20
896.759845846151
 30
0.0
 11
62.5250017024253
 21
896.7598458461512
 31
0.0
  0
LINE
  5
2DE
330
6A
100
AcDbEntity
  8
0
  6
Continuous
 62
     7
100
AcDbLine
 10
62.33331304966953
 20
867.5936051588602
 30
0.0
 11
62.80618158447088
 21
867.9489762545257
 31
0.0
  0
LINE
  5
2DF
330
6A
100
AcDbEntity
  8
0
  6
Continuous
 62
     7
100
AcDbLine
 10
62.80618158447096
 20
873.5327159095211
 30
0.0
 11
62.33331304966951
 21
873.8880870051868
 31
0.0
  0
LINE
  5
2E0
330
6A
100
AcDbEntity
  8
0
  6
Continuous
 62
     7
100
AcDbLine
 10
62.33331304966951
 20
873.8880870051868
 30
0.0
 11
62.12782934168139
 21
882.2782238985601
 31
0.0
  0
LINE
  5
2E1
330
6A
100
AcDbEntity
  8
0
  6
Continuous
 62
     7
100
AcDbLine
 10
62.5250017024253
 20
896.7598458461512
 30
0.0
 11
62.52500170242529
 21
893.9411924982052
 31
0.0
  0
LINE
  5
2E2
330
6A
100
AcDbEntity
  8
0
  6
Continuous
 62
     7
100
AcDbLine
 10
63.47370527296043
 20
870.7408460820237
 30
0.0
 11
63.37146624810461
 21
868.7408460820235
 31
0.0
  0
LINE
  5
2E3
330
6A
100
AcDbEntity
  8
0
  6
Continuous
 62
     7
100
AcDbLine
 10
64.1564299672329
 20
868.7408460820235
 30
0.0
 11
63.37146624810461
 21
868.7408460820235
 31
0.0
  0
LINE
  5
2E4
330
6A
100
AcDbEntity
  8
0
  6
Continuous
 62
     7
100
AcDbLine
 10
63.40000128516269
 20
893.9411924982052
 30
0.0
 11
62.52500170242529
 21
893.9411924982052
 31
0.0
  0
LINE
  5
2E5
330
6A
100
AcDbEntity
  8
0
  6
Continuous
 62
     7
100
AcDbLine
 10
63.40000128516269
 20
893.9411924982052
 30
0.0
 11
63.40000128516267
 21
894.6334496939264
 31
0.0
  0
LINE
  5
2E6
330
6A
100
AcDbEntity
  8
0
  6
Continuous
 62
     7
100
AcDbLine
 10
65.0945460064728
 20
872.7408460820235
 30
0.0
 11
65.88017594302283
 21
872.7408460820235
 31
0.0
  0
LINE
  5
2E7
330
6A
100
AcDbEntity
  8
0
  6
Continuous
 62
     7
100
AcDbLine
 10
65.87753780840337
 20
868.7408460820235
 30
0.0
 11
65.77629729736438
 21
870.740846082023
 31
0.0
  0
LINE
  5
2E8
330
6A
100
AcDbEntity
  8
0
  6
Continuous
 62
     7
100
AcDbLine
 10
64.20491484642713
 20
869.7215282958603
 30
0.0
 11
64.62500128516272
 21
870.1416147345959
 31
0.0
  0
LINE
  5
2E9
330
6A
100
AcDbEntity
  8
0
  6
Continuous
 62
     7
100
AcDbLine
 10
64.62500128516272
 20
870.1416147345959
 30
0.0
 11
65.04508772389782
 21
869.7215282958608
 31
0.0
  0
LINE
  5
2EA
330
6A
100
AcDbEntity
  8
0
  6
Continuous
 62
     7
100
AcDbLine
 10
63.4000012851627
 20
893.4399885254168
 30
0.0
 11
63.40000128516269
 21
893.9411924982052
 31
0.0
  0
LINE
  5
2EB
330
6A
100
AcDbEntity
  8
0
  6
Continuous
 62
     7
100
AcDbLine
 10
63.67446249623489
 20
882.2782238985603
 30
0.0
 11
64.20000128516243
 21
893.3614505049455
 31
0.0
  0
LINE
  5
2EC
330
6A
100
AcDbEntity
  8
0
  6
Continuous
 62
     7
100
AcDbLine
 10
64.1564299672329
 20
868.7408460820235
 30
0.0
 11
64.20491484642713
 21
869.7215282958603
 31
0.0
  0
LINE
  5
2ED
330
6A
100
AcDbEntity
  8
0
  6
Continuous
 62
     7
100
AcDbLine
 10
65.04508772389782
 20
869.7215282958608
 30
0.0
 11
65.09329040355686
 21
868.7408460820235
 31
0.0
  0
LINE
  5
2EE
330
6A
100
AcDbEntity
  8
0
  6
Continuous
 62
     7
100
AcDbLine
 10
65.87753780840337
 20
868.7408460820235
 30
0.0
 11
65.09329040355686
 21
868.7408460820235
 31
0.0
  0
LINE
  5
2EF
330
6A
100
AcDbEntity
  8
0
  6
Continuous
 62
     7
100
AcDbLine
 10
65.57554007409028
 20
882.2782238985601
 30
0.0
 11
65.0945460064728
 21
872.7408460820235
 31
0.0
  0
LINE
  5
2F0
330
6A
100
AcDbEntity
  8
0
  6
Continuous
 62
     7
100
AcDbLine
 10
64.15545656385162
 20
872.7408460820235
 30
0.0
 11
63.67446249623489
 21
882.2782238985603
 31
0.0
  0
LINE
  5
2F1
330
6A
100
AcDbEntity
  8
0
  6
Continuous
 62
     7
100
AcDbLine
 10
64.20000128516243
 20
893.3614505049455
 30
0.0
 11
65.05000128516245
 21
893.3614505049455
 31
0.0
  0
LINE
  5
2F2
330
6A
100
AcDbEntity
  8
0
  6
Continuous
 62
     7
100
AcDbLine
 10
63.40000128516267
 20
894.6334496939264
 30
0.0
 11
65.85000128516235
 21
894.6334496939264
 31
0.0
  0
LINE
  5
2F3
330
6A
100
AcDbEntity
  8
0
  6
Continuous
 62
     7
100
AcDbLine
 10
66.95673686887994
 20
867.563508696589
 30
0.0
 11
67.12217322864349
 21
858.8778774823976
 31
0.0
  0
LINE
  5
2F4
330
6A
100
AcDbEntity
  8
0
  6
Continuous
 62
     7
100
AcDbLine
 10
66.44382098585436
 20
867.948976254526
 30
0.0
 11
66.95673686887994
 21
867.563508696589
 31
0.0
  0
LINE
  5
2F5
330
6A
100
AcDbEntity
  8
0
  6
Continuous
 62
     7
100
AcDbLine
 10
66.85737338909283
 20
873.8435096287855
 30
0.0
 11
66.4438209858544
 21
873.5327159095211
 31
0.0
  0
LINE
  5
2F6
330
6A
100
AcDbEntity
  8
0
  6
Continuous
 62
     7
100
AcDbLine
 10
65.05000128516245
 20
893.3614505049455
 30
0.0
 11
65.57554007409028
 21
882.2782238985601
 31
0.0
  0
LINE
  5
2F7
330
6A
100
AcDbEntity
  8
0
  6
Continuous
 62
     7
100
AcDbLine
 10
66.37554088838016
 20
882.2782238985602
 30
0.0
 11
65.85000128516236
 21
893.4399885254118
 31
0.0
  0
LINE
  5
2F8
330
6A
100
AcDbEntity
  8
0
  6
Continuous
 62
     7
100
AcDbLine
 10
62.80618158447088
 20
867.9489762545257
 30
0.0
 11
63.17373822020019
 21
870.7408460820238
 31
0.0
  0
LINE
  5
2F9
330
6A
100
AcDbEntity
  8
0
  6
Continuous
 62
     7
100
AcDbLine
 10
63.17373822020019
 20
870.7408460820238
 30
0.0
 11
62.80618158447096
 21
873.5327159095211
 31
0.0
  0
LINE
  5
2FA
330
6A
100
AcDbEntity
  8
0
  6
Continuous
 62
     7
100
AcDbLine
 10
63.4000012851627
 20
893.4399885254168
 30
0.0
 11
62.87446168194469
 21
882.2782238985602
 31
0.0
  0
LINE
  5
2FB
330
6A
100
AcDbEntity
  8
0
  6
Continuous
 62
     7
100
AcDbLine
 10
63.67435716605233
 20
858.9901726813874
 30
0.0
 11
64.1564299672329
 21
868.7408460820235
 31
0.0
  0
LINE
  5
2FC
330
6A
100
AcDbEntity
  8
0
  6
Continuous
 62
     7
100
AcDbLine
 10
60.02500086790008
 20
896.7598458461512
 30
0.0
 11
62.35920284703423
 21
894.425643867017
 31
0.0
  0
LINE
  5
2FD
330
6A
100
AcDbEntity
  8
0
  6
Continuous
 62
     7
100
AcDbLine
 10
65.09329040355686
 20
868.7408460820235
 30
0.0
 11
65.57560103838888
 21
858.9282492623021
 31
0.0
  0
LINE
  5
2FE
330
6A
100
AcDbEntity
  8
0
  6
Continuous
 62
     7
100
AcDbLine
 10
63.37146624810461
 20
868.7408460820235
 30
0.0
 11
62.87434856034592
 21
859.0162289221905
 31
0.0
  0
LINE
  5
2FF
330
6A
100
AcDbEntity
  8
0
  6
Continuous
 62
     7
100
AcDbLine
 10
65.57565661917843
 20
835.6403264578103
 30
0.0
 11
65.09380287434821
 21
825.9401532497387
 31
0.0
  0
LINE
  5
300
330
6A
100
AcDbEntity
  8
0
  6
Continuous
 62
     7
100
AcDbLine
 10
66.91668952065582
 20
844.1932587427178
 30
0.0
 11
67.12616026736828
 21
835.6403264578103
 31
0.0
  0
LINE
  5
301
330
6A
100
AcDbEntity
  8
0
  6
Continuous
 62
     7
100
AcDbLine
 10
67.12616026736828
 20
835.6403264578103
 30
0.0
 11
66.91668952065582
 21
827.0873941729019
 31
0.0
  0
LINE
  5
302
330
6A
100
AcDbEntity
  8
0
  6
Continuous
 62
     7
100
AcDbLine
 10
65.87875036556335
 20
825.9401532497387
 30
0.0
 11
66.37565661917884
 21
835.6403264578373
 31
0.0
  0
LINE
  5
303
330
6A
100
AcDbEntity
  8
0
  6
Continuous
 62
     7
100
AcDbLine
 10
64.62500128516315
 20
846.741268318453
 30
0.0
 11
65.04508772389782
 21
846.3211818797183
 31
0.0
  0
LINE
  5
304
330
6A
100
AcDbEntity
  8
0
  6
Continuous
 62
     7
100
AcDbLine
 10
65.7762972973644
 20
847.3404996658811
 30
0.0
 11
63.47370527296044
 21
847.3404996658812
 31
0.0
  0
LINE
  5
305
330
6A
100
AcDbEntity
  8
0
  6
Continuous
 62
     7
100
AcDbLine
 10
64.15619969597665
 20
845.340499665881
 30
0.0
 11
63.37125220476149
 21
845.3404996658812
 31
0.0
  0
LINE
  5
306
330
6A
100
AcDbEntity
  8
0
  6
Continuous
 62
     7
100
AcDbLine
 10
64.20491484642693
 20
846.3211818797167
 30
0.0
 11
64.62500128516315
 21
846.741268318453
 31
0.0
  0
LINE
  5
307
330
6A
100
AcDbEntity
  8
0
  6
Continuous
 62
     7
100
AcDbLine
 10
64.15619969597665
 20
845.340499665881
 30
0.0
 11
64.20491484642693
 21
846.3211818797167
 31
0.0
  0
LINE
  5
308
330
6A
100
AcDbEntity
  8
0
  6
Continuous
 62
     7
100
AcDbLine
 10
63.17373822020024
 20
847.3404996658809
 30
0.0
 11
62.80618158447092
 21
850.1323694933787
 31
0.0
  0
LINE
  5
309
330
6A
100
AcDbEntity
  8
0
  6
Continuous
 62
     7
100
AcDbLine
 10
63.47370527296044
 20
847.3404996658812
 30
0.0
 11
63.37125220476149
 21
845.3404996658812
 31
0.0
  0
LINE
  5
30A
330
6A
100
AcDbEntity
  8
0
  6
Continuous
 62
     7
100
AcDbLine
 10
65.57560103838888
 20
858.9282492623021
 30
0.0
 11
65.0943159330651
 21
849.3404996658811
 31
0.0
  0
LINE
  5
30B
330
6A
100
AcDbEntity
  8
0
  6
Continuous
 62
     7
100
AcDbLine
 10
64.15596930610097
 20
849.3404996658811
 30
0.0
 11
63.67435716605233
 21
858.9901726813874
 31
0.0
  0
LINE
  5
30C
330
6A
100
AcDbEntity
  8
0
  6
Continuous
 62
     7
100
AcDbLine
 10
65.0943159330651
 20
849.3404996658811
 30
0.0
 11
65.87996299784942
 21
849.3404996658811
 31
0.0
  0
LINE
  5
30D
330
6A
100
AcDbEntity
  8
0
  6
Continuous
 62
     7
100
AcDbLine
 10
65.7762972973644
 20
847.3404996658811
 30
0.0
 11
65.87996299784942
 21
849.3404996658811
 31
0.0
  0
LINE
  5
30E
330
6A
100
AcDbEntity
  8
0
  6
Continuous
 62
     7
100
AcDbLine
 10
65.0943159330651
 20
849.3404996658811
 30
0.0
 11
65.04508772389786
 21
848.3598174520441
 31
0.0
  0
LINE
  5
30F
330
6A
100
AcDbEntity
  8
0
  6
Continuous
 62
     7
100
AcDbLine
 10
65.04508772389786
 20
848.3598174520441
 30
0.0
 11
64.6250012851625
 21
847.9397310133087
 31
0.0
  0
LINE
  5
310
330
6A
100
AcDbEntity
  8
0
  6
Continuous
 62
     7
100
AcDbLine
 10
62.1238423029571
 20
859.040672873952
 30
0.0
 11
62.33331304966953
 21
867.5936051588602
 31
0.0
  0
LINE
  5
311
330
6A
100
AcDbEntity
  8
0
  6
Continuous
 62
     7
100
AcDbLine
 10
66.07626435012507
 20
847.3404996658809
 30
0.0
 11
66.44382098585433
 21
844.5486298383835
 31
0.0
  0
LINE
  5
312
330
6A
100
AcDbEntity
  8
0
  6
Continuous
 62
     7
100
AcDbLine
 10
65.04508772389782
 20
846.3211818797183
 30
0.0
 11
65.0938028743482
 21
845.3404996658811
 31
0.0
  0
LINE
  5
313
330
6A
100
AcDbEntity
  8
0
  6
Continuous
 62
     7
100
AcDbLine
 10
65.87875036556383
 20
845.3404996658812
 30
0.0
 11
65.7762972973644
 21
847.3404996658811
 31
0.0
  0
LINE
  5
314
330
6A
100
AcDbEntity
  8
0
  6
Continuous
 62
     7
100
AcDbLine
 10
62.80618158447092
 20
850.1323694933787
 30
0.0
 11
62.33331304966951
 21
850.4877405890444
 31
0.0
  0
LINE
  5
315
330
6A
100
AcDbEntity
  8
0
  6
Continuous
 62
     7
100
AcDbLine
 10
62.33331304966951
 20
850.4877405890444
 30
0.0
 11
62.1238423029571
 21
859.040672873952
 31
0.0
  0
LINE
  5
316
330
6A
100
AcDbEntity
  8
0
  6
Continuous
 62
     7
100
AcDbLine
 10
63.37103815907707
 20
849.3404996658811
 30
0.0
 11
64.15596930610097
 21
849.3404996658811
 31
0.0
  0
LINE
  5
317
330
6A
100
AcDbEntity
  8
0
  6
Continuous
 62
     7
100
AcDbLine
 10
64.20491484642702
 20
848.3598174520441
 30
0.0
 11
64.15596930610097
 21
849.3404996658811
 31
0.0
  0
LINE
  5
318
330
6A
100
AcDbEntity
  8
0
  6
Continuous
 62
     7
100
AcDbLine
 10
63.37103815907707
 20
849.3404996658811
 30
0.0
 11
63.47370527296044
 21
847.3404996658812
 31
0.0
  0
LINE
  5
319
330
6A
100
AcDbEntity
  8
0
  6
Continuous
 62
     7
100
AcDbLine
 10
64.6250012851625
 20
847.9397310133087
 30
0.0
 11
64.20491484642702
 21
848.3598174520441
 31
0.0
  0
LINE
  5
31A
330
6A
100
AcDbEntity
  8
0
  6
Continuous
 62
     7
100
AcDbLine
 10
62.87434856034592
 20
859.0162289221905
 30
0.0
 11
63.37103815907707
 21
849.3404996658811
 31
0.0
  0
LINE
  5
31B
330
6A
100
AcDbEntity
  8
0
  6
Continuous
 62
     7
100
AcDbLine
 10
65.85000128516236
 20
893.4399885254118
 30
0.0
 11
65.85000128516236
 21
893.9411924982052
 31
0.0
  0
LINE
  5
31C
330
6A
100
AcDbEntity
  8
0
  6
Continuous
 62
     7
100
AcDbLine
 10
66.07885386259589
 20
823.9598225497386
 30
0.0
 11
65.77730488743157
 21
823.9598225497386
 31
0.0
  0
LINE
  5
31D
330
6A
100
AcDbEntity
  8
0
  6
Continuous
 62
     7
100
AcDbLine
 10
65.85000128516236
 20
893.9411924982052
 30
0.0
 11
65.85000128516235
 21
894.6334496939264
 31
0.0
  0
LINE
  5
31E
330
6A
100
AcDbEntity
  8
0
  6
Continuous
 62
     7
100
AcDbLine
 10
62.80618158447092
 20
826.7320230772364
 30
0.0
 11
62.29326570144541
 21
827.1174906351732
 31
0.0
  0
LINE
  5
31F
330
6A
100
AcDbEntity
  8
0
  6
Continuous
 62
     7
100
AcDbLine
 10
66.91668952065582
 20
827.0873941729019
 30
0.0
 11
66.44382098585439
 21
826.7320230772362
 31
0.0
  0
LINE
  5
320
330
6A
100
AcDbEntity
  8
0
  6
Continuous
 62
     7
100
AcDbLine
 10
62.29326570144541
 20
827.1174906351732
 30
0.0
 11
62.13093012690992
 21
835.6403264578098
 31
0.0
  0
LINE
  5
321
330
6A
100
AcDbEntity
  8
0
  6
Continuous
 62
     7
100
AcDbLine
 10
64.15619969597672
 20
825.9401532497388
 30
0.0
 11
63.67434595114655
 21
835.6403264578094
 31
0.0
  0
LINE
  5
322
330
6A
100
AcDbEntity
  8
0
  6
Continuous
 62
     7
100
AcDbLine
 10
65.09380287434821
 20
825.9401532497387
 30
0.0
 11
65.04508772389785
 21
824.9594710359016
 31
0.0
  0
LINE
  5
323
330
6A
100
AcDbEntity
  8
0
  6
Continuous
 62
     7
100
AcDbLine
 10
65.77730488743157
 20
823.9598225497386
 30
0.0
 11
65.87875036556335
 21
825.9401532497387
 31
0.0
  0
LINE
  5
324
330
6A
100
AcDbEntity
  8
0
  6
Continuous
 62
     7
100
AcDbLine
 10
63.4726976828933
 20
823.9598225497386
 30
0.0
 11
63.1711487077294
 21
823.9598225497386
 31
0.0
  0
LINE
  5
325
330
6A
100
AcDbEntity
  8
0
  6
Continuous
 62
     7
100
AcDbLine
 10
65.77730488743157
 20
823.9598225497386
 30
0.0
 11
63.4726976828933
 21
823.9598225497386
 31
0.0
  0
LINE
  5
326
330
6A
100
AcDbEntity
  8
0
  6
Continuous
 62
     7
100
AcDbLine
 10
64.2049148464271
 20
824.9594710359017
 30
0.0
 11
64.15619969597672
 21
825.9401532497388
 31
0.0
  0
LINE
  5
327
330
6A
100
AcDbEntity
  8
0
  6
Continuous
 62
     7
100
AcDbLine
 10
64.62500128516254
 20
824.5393845971663
 30
0.0
 11
64.2049148464271
 21
824.9594710359017
 31
0.0
  0
LINE
  5
328
330
6A
100
AcDbEntity
  8
0
  6
Continuous
 62
     7
100
AcDbLine
 10
65.04508772389785
 20
824.9594710359016
 30
0.0
 11
64.62500128516254
 21
824.5393845971663
 31
0.0
  0
LINE
  5
329
330
6A
100
AcDbEntity
  8
0
  6
Continuous
 62
     7
100
AcDbLine
 10
63.37125220476102
 20
825.9401532497388
 30
0.0
 11
64.15619969597672
 21
825.9401532497388
 31
0.0
  0
LINE
  5
32A
330
6A
100
AcDbEntity
  8
0
  6
Continuous
 62
     7
100
AcDbLine
 10
65.09380287434821
 20
825.9401532497387
 30
0.0
 11
65.87875036556335
 21
825.9401532497387
 31
0.0
  0
LINE
  5
32B
330
6A
100
AcDbEntity
  8
0
  6
Continuous
 62
     7
100
AcDbLine
 10
63.37125220476102
 20
825.9401532497388
 30
0.0
 11
63.4726976828933
 21
823.9598225497386
 31
0.0
  0
LINE
  5
32C
330
6A
100
AcDbEntity
  8
0
  6
Continuous
 62
     7
100
AcDbLine
 10
66.44382098585439
 20
826.7320230772362
 30
0.0
 11
66.07885386259589
 21
823.9598225497386
 31
0.0
  0
LINE
  5
32D
330
6A
100
AcDbEntity
  8
0
  6
Continuous
 62
     7
100
AcDbLine
 10
63.1711487077294
 20
823.9598225497386
 30
0.0
 11
62.80618158447092
 21
826.7320230772364
 31
0.0
  0
LINE
  5
32E
330
6A
100
AcDbEntity
  8
0
  6
Continuous
 62
     7
100
AcDbLine
 10
62.87434595114598
 20
835.6403264577824
 30
0.0
 11
63.37125220476102
 21
825.9401532497388
 31
0.0
  0
LINE
  5
32F
330
6A
100
AcDbEntity
  8
0
  6
Continuous
 62
     7
100
AcDbLine
 10
66.4438209858544
 20
850.1323694933787
 30
0.0
 11
66.07626435012507
 21
847.3404996658809
 31
0.0
  0
LINE
  5
330
330
6A
100
AcDbEntity
  8
0
  6
Continuous
 62
     7
100
AcDbLine
 10
66.07626435012514
 20
870.7408460820238
 30
0.0
 11
66.44382098585436
 21
867.948976254526
 31
0.0
  0
LINE
  5
331
330
6A
100
AcDbEntity
  8
0
  6
Continuous
 62
     7
100
AcDbLine
 10
66.4438209858544
 20
873.5327159095211
 30
0.0
 11
66.07626435012514
 21
870.7408460820238
 31
0.0
  0
LINE
  5
332
330
6A
100
AcDbEntity
  8
0
  6
Continuous
 62
     7
100
AcDbLine
 10
65.87996299784942
 20
849.3404996658811
 30
0.0
 11
66.37557287968141
 21
858.9021942189142
 31
0.0
  0
LINE
  5
333
330
6A
100
AcDbEntity
  8
0
  6
Continuous
 62
     7
100
AcDbLine
 10
65.85000128516236
 20
893.9411924982052
 30
0.0
 11
66.72500086790009
 21
893.9411924982052
 31
0.0
  0
LINE
  5
334
330
6A
100
AcDbEntity
  8
0
  6
Continuous
 62
     7
100
AcDbLine
 10
65.88017594302283
 20
872.7408460820235
 30
0.0
 11
66.37554088838016
 21
882.2782238985602
 31
0.0
  0
LINE
  5
335
330
6A
100
AcDbEntity
  8
0
  6
Continuous
 62
     7
100
AcDbLine
 10
66.37557287968141
 20
858.9021942189142
 30
0.0
 11
65.87753780840337
 21
868.7408460820235
 31
0.0
  0
LINE
  5
336
330
6A
100
AcDbEntity
  8
0
  6
Continuous
 62
     7
100
AcDbLine
 10
73.5936908337986
 20
896.7598458461512
 30
0.0
 11
66.74315732739464
 21
894.2664555609767
 31
0.0
  0
ENDBLK
  5
6C
330
6A
100
AcDbEntity
  8
0
100
AcDbBlockEnd
  0
BLOCK
  5
6F
330
6D
100
AcDbEntity
  8
0
100
AcDbBlockBegin
  2
Vordans1
 70
     0
 10
67.40000194183342
 20
861.00000000001
 30
0.0
  3
Vordans1
  1

  0
INSERT
  5
6E
330
6D
100
AcDbEntity
  8
0
100
AcDbBlockReference
  2
KLM_3_L-select__6
 10
56.60000086790009
 20
823.9598225497386
 30
0.0
  0
MTEXT
  5
337
330
6D
100
AcDbEntity
  8
1
 62
     6
100
AcDbMText
 10
73.8434944789767
 20
818.9401532497386
 30
0.0
 40
5.0
 41
0.0
 71
     2
 72
     1
  1
 
  7
CONVERTER_11
 73
     1
 44
1.32052821128451
  0
DIMENSION
  5
342
330
6D
100
AcDbEntity
  8
1
100
AcDbDimension
  2
*D18
 10
56.60000086790009
 20
907.7598458461512
 30
0.0
 11
66.86448301320266
 21
911.1848458461511
 31
0.0
 70
    32
  1
<>
 71
     5
 42
-1.0
 53
0.00013888888889
  3
ME10_DIM_11
100
AcDbAlignedDimension
 13
78.20000086790009
 23
896.7598458461512
 33
0.0
 14
56.60000086790009
 24
897.7598458461512
 34
0.0
100
AcDbRotatedDimension
  0
DIMENSION
  5
34D
330
6D
100
AcDbEntity
  8
1
100
AcDbDimension
  2
*D19
 10
47.20000086790009
 20
897.7598458461512
 30
0.0
 11
43.77500086790009
 21
863.221616971523
 31
0.0
 70
    32
  1
<>
 71
     5
 42
-1.0
 53
90.0
  3
ME10_DIM_12
100
AcDbAlignedDimension
 13
63.4726976828933
 23
823.9598225497386
 33
0.0
 14
57.20000086790009
 24
897.7598458461512
 34
0.0
 50
90.0
100
AcDbRotatedDimension
  0
DIMENSION
  5
358
330
6D
100
AcDbEntity
  8
1
100
AcDbDimension
  2
*D20
 10
39.20000086790009
 20
898.0598458461511
 30
0.0
 11
35.77500086790009
 21
863.221616971523
 31
0.0
 70
    32
  1
<>
 71
     5
 42
-1.0
 53
90.0
  3
ME10_DIM_13
100
AcDbAlignedDimension
 13
63.4726976828933
 23
823.9598225497386
 33
0.0
 14
56.60000086790009
 24
898.0598458461511
 34
0.0
 50
90.0
100
AcDbRotatedDimension
  0
ENDBLK
  5
70
330
6D
100
AcDbEntity
  8
0
100
AcDbBlockEnd
  0
BLOCK
  5
72
330
71
100
AcDbEntity
  8
0
100
AcDbBlockBegin
  2
_rahmen
 70
     0
 10
258.3265385125658
 20
735.6200769538729
 30
0.0
  3
_rahmen
  1

  0
LINE
  5
359
330
71
100
AcDbEntity
  8
1
  6
DOT_CENTER
 62
     2
100
AcDbLine
 10
132.7683888723784
 20
761.7450769538729
 30
0.0
 11
138.2683888723784
 21
761.7450769538729
 31
0.0
  0
LINE
  5
35A
330
71
100
AcDbEntity
  8
1
  6
PHANTOM
 62
     2
100
AcDbLine
 10
141.5183888723784
 20
764.4950769538729
 30
0.0
 11
141.5183888723784
 21
758.9950769538729
 31
0.0
  0
LINE
  5
35B
330
71
100
AcDbEntity
  8
1
  6
PHANTOM
 62
     2
100
AcDbLine
 10
144.2683888723784
 20
761.7450769538729
 30
0.0
 11
138.7683888723784
 21
761.7450769538729
 31
0.0
  0
LINE
  5
35C
330
71
100
AcDbEntity
  8
1
  6
Continuous
 62
     7
100
AcDbLine
 10
193.0817339858158
 20
749.1200769538729
 30
0.0
 11
193.0817339858158
 21
757.620076953873
 31
0.0
  0
LINE
  5
35D
330
71
100
AcDbEntity
  8
1
  6
Continuous
 62
     6
100
AcDbLine
 10
165.1817339858157
 20
757.620076953873
 30
0.0
 11
258.3265385125675
 21
757.620076953873
 31
0.0
  0
LINE
  5
35E
330
71
100
AcDbEntity
  8
1
  6
Continuous
 62
     7
100
AcDbLine
 10
128.7817339858158
 20
757.620076953873
 30
0.0
 11
128.7817339858158
 21
766.120076953873
 31
0.0
  0
LINE
  5
35F
330
71
100
AcDbEntity
  8
1
  6
Continuous
 62
     7
100
AcDbLine
 10
165.1817339858157
 20
757.620076953873
 30
0.0
 11
165.1817339858157
 21
766.120076953873
 31
0.0
  0
LINE
  5
360
330
71
100
AcDbEntity
  8
1
  6
Continuous
 62
     7
100
AcDbLine
 10
222.9081302308886
 20
766.120076953873
 30
0.0
 11
222.9081302308886
 21
757.620076953873
 31
0.0
  0
LINE
  5
361
330
71
100
AcDbEntity
  8
1
  6
Continuous
 62
     7
100
AcDbLine
 10
249.4081302308883
 20
766.120076953873
 30
0.0
 11
249.4081302308883
 21
757.620076953873
 31
0.0
  0
LINE
  5
362
330
71
100
AcDbEntity
  8
1
  6
Continuous
 62
     6
100
AcDbLine
 10
59.78173398581578
 20
740.620076953873
 30
0.0
 11
14.82653851256578
 21
740.620076953873
 31
0.0
  0
LINE
  5
363
330
71
100
AcDbEntity
  8
1
  6
Continuous
 62
     7
100
AcDbLine
 10
258.326538512567
 20
749.120076953873
 30
0.0
 11
165.1817339858157
 21
749.120076953873
 31
0.0
  0
LINE
  5
364
102
{ACAD_REACTORS
330
476
330
477
102
}
330
71
100
AcDbEntity
  8
0
  6
Continuous
 62
     2
100
AcDbLine
 10
142.4891629275832
 20
749.9203660695363
 30
0.0
 11
142.4891629275832
 21
750.7928830763395
 31
0.0
  0
LINE
  5
365
102
{ACAD_REACTORS
330
476
330
477
102
}
330
71
100
AcDbEntity
  8
0
  6
Continuous
 62
     2
100
AcDbLine
 10
142.4891629275832
 20
748.9605973620534
 30
0.0
 11
142.4891629275832
 21
748.0880803552502
 31
0.0
  0
LINE
  5
366
102
{ACAD_REACTORS
330
478
330
479
102
}
330
71
100
AcDbEntity
  8
0
  6
Continuous
 62
     2
100
AcDbLine
 10
157.8222070638737
 20
750.1821211715768
 30
0.0
 11
158.9258463634418
 21
750.1821211715768
 31
0.0
  0
LINE
  5
367
102
{ACAD_REACTORS
330
478
330
479
102
}
330
71
100
AcDbEntity
  8
0
  6
Continuous
 62
     2
100
AcDbLine
 10
158.5918644068351
 20
748.9605973620529
 30
0.0
 11
158.5918644068351
 21
748.0880803552495
 31
0.0
  0
LINE
  5
368
102
{ACAD_REACTORS
330
482
330
483
102
}
330
71
100
AcDbEntity
  8
0
  6
Continuous
 62
     2
100
AcDbLine
 10
156.7311077914551
 20
751.2727674300636
 30
0.0
 11
158.1290608383955
 21
752.8536264238386
 31
0.0
  0
LINE
  5
369
102
{ACAD_REACTORS
330
482
330
483
102
}
330
71
100
AcDbEntity
  8
0
  6
Continuous
 62
     2
100
AcDbLine
 10
156.826531207628
 20
754.3265769538748
 30
0.0
 11
158.1290608383955
 21
752.8536264238386
 31
0.0
  0
LINE
  5
36A
102
{ACAD_REACTORS
330
482
330
483
102
}
330
71
100
AcDbEntity
  8
0
  6
Continuous
 62
     2
100
AcDbLine
 10
159.4315904691619
 20
754.3265769538748
 30
0.0
 11
160.8343146869091
 21
754.3265769538748
 31
0.0
  0
LINE
  5
36B
102
{ACAD_REACTORS
330
482
330
483
102
}
330
71
100
AcDbEntity
  8
0
  6
Continuous
 62
     2
100
AcDbLine
 10
158.1338320092034
 20
751.2727674300636
 30
0.0
 11
158.8304229472691
 21
752.0604992153573
 31
0.0
  0
LINE
  5
36C
102
{ACAD_REACTORS
330
482
330
483
102
}
330
71
100
AcDbEntity
  8
0
  6
Continuous
 62
     2
100
AcDbLine
 10
158.1338320092034
 20
751.2727674300636
 30
0.0
 11
156.7311077914551
 21
751.2727674300636
 31
0.0
  0
LINE
  5
36D
102
{ACAD_REACTORS
330
484
330
485
102
}
330
71
100
AcDbEntity
  8
0
  6
Continuous
 62
     2
100
AcDbLine
 10
156.6118285212383
 20
751.2727674300636
 30
0.0
 11
155.3713241109854
 21
751.2727674300636
 31
0.0
  0
LINE
  5
36E
102
{ACAD_REACTORS
330
486
330
487
102
}
330
71
100
AcDbEntity
  8
0
  6
Continuous
 62
     2
100
AcDbLine
 10
154.5033445028303
 20
749.1351007634138
 30
0.0
 11
154.2031792656402
 21
749.9029157294004
 31
0.0
  0
LINE
  5
36F
102
{ACAD_REACTORS
330
486
330
487
102
}
330
71
100
AcDbEntity
  8
0
  6
Continuous
 62
     2
100
AcDbLine
 10
153.9030140284478
 20
749.1351007634138
 30
0.0
 11
154.5033445028303
 21
749.1351007634138
 31
0.0
  0
LINE
  5
370
102
{ACAD_REACTORS
330
486
330
487
102
}
330
71
100
AcDbEntity
  8
0
  6
Continuous
 62
     2
100
AcDbLine
 10
152.184974013574
 20
747.9135769538893
 30
0.0
 11
153.425478423827
 21
747.9135769538893
 31
0.0
  0
LINE
  5
371
102
{ACAD_REACTORS
330
486
330
487
102
}
330
71
100
AcDbEntity
  8
0
  6
Continuous
 62
     2
100
AcDbLine
 10
153.5829270605133
 20
750.9673864777003
 30
0.0
 11
154.823431470766
 21
750.9673864777003
 31
0.0
  0
LINE
  5
372
102
{ACAD_REACTORS
330
486
330
487
102
}
330
71
100
AcDbEntity
  8
0
  6
Continuous
 62
     2
100
AcDbLine
 10
154.823431470766
 20
750.9673864777003
 30
0.0
 11
156.2213845177063
 21
747.9135769538893
 31
0.0
  0
LINE
  5
373
102
{ACAD_REACTORS
330
486
330
487
102
}
330
71
100
AcDbEntity
  8
0
  6
Continuous
 62
     2
100
AcDbLine
 10
154.9808801074524
 20
747.9135769538893
 30
0.0
 11
154.7694000539766
 21
748.4545374981071
 31
0.0
  0
LINE
  5
374
102
{ACAD_REACTORS
330
488
330
489
102
}
330
71
100
AcDbEntity
  8
0
  6
Continuous
 62
     2
100
AcDbLine
 10
150.8385609118664
 20
747.9135769538893
 30
0.0
 11
152.0313536140329
 21
747.9135769538893
 31
0.0
  0
LINE
  5
375
102
{ACAD_REACTORS
330
488
330
489
102
}
330
71
100
AcDbEntity
  8
0
  6
Continuous
 62
     2
100
AcDbLine
 10
150.8385609118664
 20
750.1821211715768
 30
0.0
 11
150.8385609118664
 21
747.9135769538893
 31
0.0
  0
LINE
  5
376
102
{ACAD_REACTORS
330
488
330
489
102
}
330
71
100
AcDbEntity
  8
0
  6
Continuous
 62
     2
100
AcDbLine
 10
150.0274618743918
 20
750.9673864777003
 30
0.0
 11
150.0274618743918
 21
750.1821211715768
 31
0.0
  0
LINE
  5
377
102
{ACAD_REACTORS
330
48A
330
48B
102
}
330
71
100
AcDbEntity
  8
0
  6
Continuous
 62
     2
100
AcDbLine
 10
151.5066757559644
 20
751.2727674300636
 30
0.0
 11
152.6994684581309
 21
751.2727674300636
 31
0.0
  0
LINE
  5
378
102
{ACAD_REACTORS
330
48A
330
48B
102
}
330
71
100
AcDbEntity
  8
0
  6
Continuous
 62
     2
100
AcDbLine
 10
153.9399728683849
 20
753.0178014436696
 30
0.0
 11
152.6994684581309
 21
754.3265769538748
 31
0.0
  0
LINE
  5
379
102
{ACAD_REACTORS
330
48A
330
48B
102
}
330
71
100
AcDbEntity
  8
0
  6
Continuous
 62
     2
100
AcDbLine
 10
155.1327655705515
 20
754.3265769538748
 30
0.0
 11
153.9399728683849
 21
754.3265769538748
 31
0.0
  0
LINE
  5
37A
102
{ACAD_REACTORS
330
48A
330
48B
102
}
330
71
100
AcDbEntity
  8
0
  6
Continuous
 62
     2
100
AcDbLine
 10
155.1327655705515
 20
751.2727674300636
 30
0.0
 11
155.1327655705515
 21
754.3265769538748
 31
0.0
  0
LINE
  5
37B
102
{ACAD_REACTORS
330
48A
330
48B
102
}
330
71
100
AcDbEntity
  8
0
  6
Continuous
 62
     2
100
AcDbLine
 10
153.9399728683849
 20
751.2727674300636
 30
0.0
 11
155.1327655705515
 21
751.2727674300636
 31
0.0
  0
LINE
  5
37C
102
{ACAD_REACTORS
330
48A
330
48B
102
}
330
71
100
AcDbEntity
  8
0
  6
Continuous
 62
     2
100
AcDbLine
 10
152.6994684581309
 20
752.5815429402683
 30
0.0
 11
153.9399728683849
 21
751.2727674300636
 31
0.0
  0
LINE
  5
37D
102
{ACAD_REACTORS
330
48C
330
48D
102
}
330
71
100
AcDbEntity
  8
0
  6
Continuous
 62
     2
100
AcDbLine
 10
148.6915340479652
 20
749.6586109674953
 30
0.0
 11
147.4510296377123
 21
750.9673864777003
 31
0.0
  0
LINE
  5
37E
102
{ACAD_REACTORS
330
48C
330
48D
102
}
330
71
100
AcDbEntity
  8
0
  6
Continuous
 62
     2
100
AcDbLine
 10
148.6915340479652
 20
750.9673864777003
 30
0.0
 11
148.6915340479652
 21
749.6586109674953
 31
0.0
  0
LINE
  5
37F
102
{ACAD_REACTORS
330
48C
330
48D
102
}
330
71
100
AcDbEntity
  8
0
  6
Continuous
 62
     2
100
AcDbLine
 10
149.8843267501316
 20
750.9673864777003
 30
0.0
 11
148.6915340479652
 21
750.9673864777003
 31
0.0
  0
LINE
  5
380
102
{ACAD_REACTORS
330
48C
330
48D
102
}
330
71
100
AcDbEntity
  8
0
  6
Continuous
 62
     2
100
AcDbLine
 10
149.8843267501316
 20
747.9135769538893
 30
0.0
 11
149.8843267501316
 21
750.9673864777003
 31
0.0
  0
LINE
  5
381
102
{ACAD_REACTORS
330
48C
330
48D
102
}
330
71
100
AcDbEntity
  8
0
  6
Continuous
 62
     2
100
AcDbLine
 10
147.4510296377123
 20
749.2223524640939
 30
0.0
 11
148.6915340479652
 21
747.9135769538893
 31
0.0
  0
LINE
  5
382
102
{ACAD_REACTORS
330
48C
330
48D
102
}
330
71
100
AcDbEntity
  8
0
  6
Continuous
 62
     2
100
AcDbLine
 10
147.4510296377123
 20
747.9135769538893
 30
0.0
 11
147.4510296377123
 21
749.2223524640939
 31
0.0
  0
LINE
  5
383
102
{ACAD_REACTORS
330
47C
330
47D
102
}
330
71
100
AcDbEntity
  8
0
  6
Continuous
 62
     2
100
AcDbLine
 10
149.9321893891038
 20
753.6285633484317
 30
0.0
 11
151.2681172155315
 21
753.6285633484317
 31
0.0
  0
LINE
  5
384
102
{ACAD_REACTORS
330
47C
330
47D
102
}
330
71
100
AcDbEntity
  8
0
  6
Continuous
 62
     2
100
AcDbLine
 10
149.9321893891038
 20
751.9707810355061
 30
0.0
 11
149.9321893891038
 21
752.4506653892478
 31
0.0
  0
LINE
  5
385
102
{ACAD_REACTORS
330
47C
330
47D
102
}
330
71
100
AcDbEntity
  8
0
  6
Continuous
 62
     2
100
AcDbLine
 10
151.2681172155315
 20
751.9707810355061
 30
0.0
 11
149.9321893891038
 21
751.9707810355061
 31
0.0
  0
LINE
  5
386
102
{ACAD_REACTORS
330
47C
330
47D
102
}
330
71
100
AcDbEntity
  8
0
  6
Continuous
 62
     2
100
AcDbLine
 10
151.2681172155315
 20
751.2727674300636
 30
0.0
 11
151.2681172155315
 21
751.9707810355061
 31
0.0
  0
LINE
  5
387
102
{ACAD_REACTORS
330
47C
330
47D
102
}
330
71
100
AcDbEntity
  8
0
  6
Continuous
 62
     2
100
AcDbLine
 10
148.1177974917505
 20
751.2727674300636
 30
0.0
 11
151.2681172155315
 21
751.2727674300636
 31
0.0
  0
LINE
  5
388
102
{ACAD_REACTORS
330
47C
330
47D
102
}
330
71
100
AcDbEntity
  8
0
  6
Continuous
 62
     2
100
AcDbLine
 10
148.1177974917505
 20
754.3265769538748
 30
0.0
 11
151.2681172155315
 21
754.3265769538748
 31
0.0
  0
LINE
  5
389
102
{ACAD_REACTORS
330
47C
330
47D
102
}
330
71
100
AcDbEntity
  8
0
  6
Continuous
 62
     2
100
AcDbLine
 10
151.2681172155315
 20
753.6285633484317
 30
0.0
 11
151.2681172155315
 21
754.3265769538748
 31
0.0
  0
LINE
  5
38A
102
{ACAD_REACTORS
330
48E
330
48F
102
}
330
71
100
AcDbEntity
  8
0
  6
Continuous
 62
     2
100
AcDbLine
 10
145.2564419966105
 20
753.2577436205402
 30
0.0
 11
145.2564419966105
 21
754.3265769538748
 31
0.0
  0
LINE
  5
38B
102
{ACAD_REACTORS
330
48E
330
48F
102
}
330
71
100
AcDbEntity
  8
0
  6
Continuous
 62
     2
100
AcDbLine
 10
145.2564419966105
 20
754.3265769538748
 30
0.0
 11
146.4492346987769
 21
754.3265769538748
 31
0.0
  0
LINE
  5
38C
102
{ACAD_REACTORS
330
48E
330
48F
102
}
330
71
100
AcDbEntity
  8
0
  6
Continuous
 62
     2
100
AcDbLine
 10
145.2564419966105
 20
752.4070395389074
 30
0.0
 11
144.206784418703
 21
752.4070395389074
 31
0.0
  0
LINE
  5
38D
102
{ACAD_REACTORS
330
48E
330
48F
102
}
330
71
100
AcDbEntity
  8
0
  6
Continuous
 62
     2
100
AcDbLine
 10
144.206784418703
 20
752.4070395389074
 30
0.0
 11
144.206784418703
 21
751.2727674300636
 31
0.0
  0
LINE
  5
38E
102
{ACAD_REACTORS
330
48E
330
48F
102
}
330
71
100
AcDbEntity
  8
0
  6
Continuous
 62
     2
100
AcDbLine
 10
143.0139917165364
 20
754.3265769538748
 30
0.0
 11
143.0139917165364
 21
751.2727674300636
 31
0.0
  0
LINE
  5
38F
102
{ACAD_REACTORS
330
480
330
481
102
}
330
71
100
AcDbEntity
  8
0
  6
Continuous
 62
     2
100
AcDbLine
 10
141.0578116849828
 20
752.9577434590924
 30
0.0
 11
141.0578116849828
 21
753.6634711084347
 31
0.0
  0
LINE
  5
390
102
{ACAD_REACTORS
330
480
330
481
102
}
330
71
100
AcDbEntity
  8
0
  6
Continuous
 62
     2
100
AcDbLine
 10
139.8173072747287
 20
751.2727674300636
 30
0.0
 11
141.0578116849828
 21
751.2727674300636
 31
0.0
  0
LINE
  5
391
102
{ACAD_REACTORS
330
480
330
481
102
}
330
71
100
AcDbEntity
  8
0
  6
Continuous
 62
     2
100
AcDbLine
 10
141.0578116849828
 20
751.2727674300636
 30
0.0
 11
141.0578116849828
 21
752.2158456712074
 31
0.0
  0
LINE
  5
392
102
{ACAD_REACTORS
330
47A
330
47B
102
}
330
71
100
AcDbEntity
  8
0
  6
Continuous
 62
     2
100
AcDbLine
 10
135.5123614255173
 20
748.6261325094462
 30
0.0
 11
134.0365281645076
 21
748.6261325094462
 31
0.0
  0
LINE
  5
393
102
{ACAD_REACTORS
330
47A
330
47B
102
}
330
71
100
AcDbEntity
  8
0
  6
Continuous
 62
     2
100
AcDbLine
 10
133.0183888723784
 20
753.9023323384728
 30
0.0
 11
133.0183888723784
 21
748.3378215692726
 31
0.0
  0
LINE
  5
394
102
{ACAD_REACTORS
330
47A
330
47B
102
}
330
71
100
AcDbEntity
  8
0
  6
Continuous
 62
     2
100
AcDbLine
 10
133.4426334877612
 20
754.3265769538566
 30
0.0
 11
138.915945578478
 21
754.3265769538566
 31
0.0
  0
LINE
  5
395
102
{ACAD_REACTORS
330
47A
330
47B
102
}
330
71
100
AcDbEntity
  8
0
  6
Continuous
 62
     2
100
AcDbLine
 10
139.3401901938618
 20
753.9023323384728
 30
0.0
 11
139.3401901938618
 21
748.3378215692726
 31
0.0
  0
LINE
  5
396
102
{ACAD_REACTORS
330
47A
330
47B
102
}
330
71
100
AcDbEntity
  8
0
  6
Continuous
 62
     2
100
AcDbLine
 10
138.915945578478
 20
747.9135769538893
 30
0.0
 11
133.4426334877612
 21
747.9135769538893
 31
0.0
  0
LINE
  5
397
102
{ACAD_REACTORS
330
47A
330
47B
102
}
330
71
100
AcDbEntity
  8
0
  6
Continuous
 62
     2
100
AcDbLine
 10
135.8280783485939
 20
748.9418494325229
 30
0.0
 11
135.8280783485939
 21
750.4726203640545
 31
0.0
  0
LINE
  5
398
102
{ACAD_REACTORS
330
47A
330
47B
102
}
330
71
100
AcDbEntity
  8
0
  6
Continuous
 62
     2
100
AcDbLine
 10
135.8280783485939
 20
752.6942798561795
 30
0.0
 11
135.8280783485939
 21
753.29830447524
 31
0.0
  0
LINE
  5
399
102
{ACAD_REACTORS
330
47A
330
47B
102
}
330
71
100
AcDbEntity
  8
0
  6
Continuous
 62
     2
100
AcDbLine
 10
134.0365281645076
 20
753.6140213983161
 30
0.0
 11
135.5123614255173
 21
753.6140213983161
 31
0.0
  0
LINE
  5
39A
102
{ACAD_REACTORS
330
47A
330
47B
102
}
330
71
100
AcDbEntity
  8
0
  6
Continuous
 62
     2
100
AcDbLine
 10
133.720811241432
 20
753.29830447524
 30
0.0
 11
133.720811241432
 21
748.9418494325229
 31
0.0
  0
LINE
  5
39B
102
{ACAD_REACTORS
330
480
330
481
102
}
330
71
100
AcDbEntity
  8
0
  6
Continuous
 62
     2
100
AcDbLine
 10
141.0578116849828
 20
752.2158456712074
 30
0.0
 11
141.8165792727631
 21
752.2158456712074
 31
0.0
  0
LINE
  5
39C
102
{ACAD_REACTORS
330
480
330
481
102
}
330
71
100
AcDbEntity
  8
0
  6
Continuous
 62
     2
100
AcDbLine
 10
139.8173072747287
 20
754.3265769538748
 30
0.0
 11
141.8165792727631
 21
754.3265769538748
 31
0.0
  0
LINE
  5
39D
102
{ACAD_REACTORS
330
480
330
481
102
}
330
71
100
AcDbEntity
  8
0
  6
Continuous
 62
     2
100
AcDbLine
 10
139.8173072747287
 20
754.3265769538748
 30
0.0
 11
139.8173072747287
 21
751.2727674300636
 31
0.0
  0
LINE
  5
39E
102
{ACAD_REACTORS
330
480
330
481
102
}
330
71
100
AcDbEntity
  8
0
  6
Continuous
 62
     2
100
AcDbLine
 10
141.0578116849828
 20
752.9577434590924
 30
0.0
 11
141.3751067465247
 21
752.9577434590924
 31
0.0
  0
LINE
  5
39F
102
{ACAD_REACTORS
330
480
330
481
102
}
330
71
100
AcDbEntity
  8
0
  6
Continuous
 62
     2
100
AcDbLine
 10
141.0578116849828
 20
753.6634711084347
 30
0.0
 11
141.3751067465247
 21
753.6634711084347
 31
0.0
  0
LINE
  5
3A0
102
{ACAD_REACTORS
330
48E
330
48F
102
}
330
71
100
AcDbEntity
  8
0
  6
Continuous
 62
     2
100
AcDbLine
 10
144.206784418703
 20
753.2577436205402
 30
0.0
 11
145.2564419966105
 21
753.2577436205402
 31
0.0
  0
LINE
  5
3A1
102
{ACAD_REACTORS
330
48E
330
48F
102
}
330
71
100
AcDbEntity
  8
0
  6
Continuous
 62
     2
100
AcDbLine
 10
144.206784418703
 20
754.3265769538748
 30
0.0
 11
144.206784418703
 21
753.2577436205402
 31
0.0
  0
LINE
  5
3A2
102
{ACAD_REACTORS
330
48E
330
48F
102
}
330
71
100
AcDbEntity
  8
0
  6
Continuous
 62
     2
100
AcDbLine
 10
143.0139917165364
 20
754.3265769538748
 30
0.0
 11
144.206784418703
 21
754.3265769538748
 31
0.0
  0
LINE
  5
3A3
102
{ACAD_REACTORS
330
48E
330
48F
102
}
330
71
100
AcDbEntity
  8
0
  6
Continuous
 62
     2
100
AcDbLine
 10
144.206784418703
 20
751.2727674300636
 30
0.0
 11
143.0139917165364
 21
751.2727674300636
 31
0.0
  0
LINE
  5
3A4
102
{ACAD_REACTORS
330
48E
330
48F
102
}
330
71
100
AcDbEntity
  8
0
  6
Continuous
 62
     2
100
AcDbLine
 10
145.2564419966105
 20
751.2727674300636
 30
0.0
 11
145.2564419966105
 21
752.4070395389074
 31
0.0
  0
LINE
  5
3A5
102
{ACAD_REACTORS
330
48E
330
48F
102
}
330
71
100
AcDbEntity
  8
0
  6
Continuous
 62
     2
100
AcDbLine
 10
146.4492346987769
 20
751.2727674300636
 30
0.0
 11
145.2564419966105
 21
751.2727674300636
 31
0.0
  0
LINE
  5
3A6
102
{ACAD_REACTORS
330
48E
330
48F
102
}
330
71
100
AcDbEntity
  8
0
  6
Continuous
 62
     2
100
AcDbLine
 10
146.4492346987769
 20
754.3265769538748
 30
0.0
 11
146.4492346987769
 21
751.2727674300636
 31
0.0
  0
LINE
  5
3A7
102
{ACAD_REACTORS
330
47C
330
47D
102
}
330
71
100
AcDbEntity
  8
0
  6
Continuous
 62
     2
100
AcDbLine
 10
149.9321893891038
 20
752.4506653892478
 30
0.0
 11
151.2681172155315
 21
752.4506653892478
 31
0.0
  0
LINE
  5
3A8
102
{ACAD_REACTORS
330
47C
330
47D
102
}
330
71
100
AcDbEntity
  8
0
  6
Continuous
 62
     2
100
AcDbLine
 10
151.2681172155315
 20
752.4506653892478
 30
0.0
 11
151.2681172155315
 21
753.14867899469
 31
0.0
  0
LINE
  5
3A9
102
{ACAD_REACTORS
330
47C
330
47D
102
}
330
71
100
AcDbEntity
  8
0
  6
Continuous
 62
     2
100
AcDbLine
 10
151.2681172155315
 20
753.14867899469
 30
0.0
 11
149.9321893891038
 21
753.14867899469
 31
0.0
  0
LINE
  5
3AA
102
{ACAD_REACTORS
330
47C
330
47D
102
}
330
71
100
AcDbEntity
  8
0
  6
Continuous
 62
     2
100
AcDbLine
 10
149.9321893891038
 20
753.14867899469
 30
0.0
 11
149.9321893891038
 21
753.6285633484317
 31
0.0
  0
LINE
  5
3AB
102
{ACAD_REACTORS
330
48C
330
48D
102
}
330
71
100
AcDbEntity
  8
0
  6
Continuous
 62
     2
100
AcDbLine
 10
146.2582369355447
 20
747.9135769538893
 30
0.0
 11
147.4510296377123
 21
747.9135769538893
 31
0.0
  0
LINE
  5
3AC
102
{ACAD_REACTORS
330
48C
330
48D
102
}
330
71
100
AcDbEntity
  8
0
  6
Continuous
 62
     2
100
AcDbLine
 10
148.6915340479652
 20
747.9135769538893
 30
0.0
 11
149.8843267501316
 21
747.9135769538893
 31
0.0
  0
LINE
  5
3AD
102
{ACAD_REACTORS
330
48C
330
48D
102
}
330
71
100
AcDbEntity
  8
0
  6
Continuous
 62
     2
100
AcDbLine
 10
147.4510296377123
 20
750.9673864777003
 30
0.0
 11
146.2582369355447
 21
750.9673864777003
 31
0.0
  0
LINE
  5
3AE
102
{ACAD_REACTORS
330
48C
330
48D
102
}
330
71
100
AcDbEntity
  8
0
  6
Continuous
 62
     2
100
AcDbLine
 10
146.2582369355447
 20
750.9673864777003
 30
0.0
 11
146.2582369355447
 21
747.9135769538893
 31
0.0
  0
LINE
  5
3AF
102
{ACAD_REACTORS
330
48A
330
48B
102
}
330
71
100
AcDbEntity
  8
0
  6
Continuous
 62
     2
100
AcDbLine
 10
153.9399728683849
 20
754.3265769538748
 30
0.0
 11
153.9399728683849
 21
753.0178014436696
 31
0.0
  0
LINE
  5
3B0
102
{ACAD_REACTORS
330
48A
330
48B
102
}
330
71
100
AcDbEntity
  8
0
  6
Continuous
 62
     2
100
AcDbLine
 10
152.6994684581309
 20
754.3265769538748
 30
0.0
 11
151.5066757559644
 21
754.3265769538748
 31
0.0
  0
LINE
  5
3B1
102
{ACAD_REACTORS
330
48A
330
48B
102
}
330
71
100
AcDbEntity
  8
0
  6
Continuous
 62
     2
100
AcDbLine
 10
151.5066757559644
 20
754.3265769538748
 30
0.0
 11
151.5066757559644
 21
751.2727674300636
 31
0.0
  0
LINE
  5
3B2
102
{ACAD_REACTORS
330
48A
330
48B
102
}
330
71
100
AcDbEntity
  8
0
  6
Continuous
 62
     2
100
AcDbLine
 10
152.6994684581309
 20
751.2727674300636
 30
0.0
 11
152.6994684581309
 21
752.5815429402683
 31
0.0
  0
LINE
  5
3B3
102
{ACAD_REACTORS
330
488
330
489
102
}
330
71
100
AcDbEntity
  8
0
  6
Continuous
 62
     2
100
AcDbLine
 10
152.0313536140329
 20
747.9135769538893
 30
0.0
 11
152.0313536140329
 21
750.1821211715768
 31
0.0
  0
LINE
  5
3B4
102
{ACAD_REACTORS
330
488
330
489
102
}
330
71
100
AcDbEntity
  8
0
  6
Continuous
 62
     2
100
AcDbLine
 10
152.0313536140329
 20
750.1821211715768
 30
0.0
 11
152.8424526515054
 21
750.1821211715768
 31
0.0
  0
LINE
  5
3B5
102
{ACAD_REACTORS
330
488
330
489
102
}
330
71
100
AcDbEntity
  8
0
  6
Continuous
 62
     2
100
AcDbLine
 10
152.8424526515054
 20
750.1821211715768
 30
0.0
 11
152.8424526515054
 21
750.9673864777003
 31
0.0
  0
LINE
  5
3B6
102
{ACAD_REACTORS
330
488
330
489
102
}
330
71
100
AcDbEntity
  8
0
  6
Continuous
 62
     2
100
AcDbLine
 10
152.8424526515054
 20
750.9673864777003
 30
0.0
 11
150.0274618743918
 21
750.9673864777003
 31
0.0
  0
LINE
  5
3B7
102
{ACAD_REACTORS
330
488
330
489
102
}
330
71
100
AcDbEntity
  8
0
  6
Continuous
 62
     2
100
AcDbLine
 10
150.0274618743918
 20
750.1821211715768
 30
0.0
 11
150.8385609118664
 21
750.1821211715768
 31
0.0
  0
LINE
  5
3B8
102
{ACAD_REACTORS
330
486
330
487
102
}
330
71
100
AcDbEntity
  8
0
  6
Continuous
 62
     2
100
AcDbLine
 10
153.6369584773028
 20
748.4545374981071
 30
0.0
 11
154.7694000539766
 21
748.4545374981071
 31
0.0
  0
LINE
  5
3B9
102
{ACAD_REACTORS
330
486
330
487
102
}
330
71
100
AcDbEntity
  8
0
  6
Continuous
 62
     2
100
AcDbLine
 10
156.2213845177063
 20
747.9135769538893
 30
0.0
 11
154.9808801074524
 21
747.9135769538893
 31
0.0
  0
LINE
  5
3BA
102
{ACAD_REACTORS
330
486
330
487
102
}
330
71
100
AcDbEntity
  8
0
  6
Continuous
 62
     2
100
AcDbLine
 10
153.5829270605133
 20
750.9673864777003
 30
0.0
 11
152.184974013574
 21
747.9135769538893
 31
0.0
  0
LINE
  5
3BB
102
{ACAD_REACTORS
330
486
330
487
102
}
330
71
100
AcDbEntity
  8
0
  6
Continuous
 62
     2
100
AcDbLine
 10
153.425478423827
 20
747.9135769538893
 30
0.0
 11
153.6369584773028
 21
748.4545374981071
 31
0.0
  0
LINE
  5
3BC
102
{ACAD_REACTORS
330
486
330
487
102
}
330
71
100
AcDbEntity
  8
0
  6
Continuous
 62
     2
100
AcDbLine
 10
153.9030140284478
 20
749.1351007634138
 30
0.0
 11
154.2031792656402
 21
749.9029157294004
 31
0.0
  0
LINE
  5
3BD
102
{ACAD_REACTORS
330
484
330
485
102
}
330
71
100
AcDbEntity
  8
0
  6
Continuous
 62
     2
100
AcDbLine
 10
155.3713241109854
 20
751.2727674300636
 30
0.0
 11
155.3713241109854
 21
754.3265769538748
 31
0.0
  0
LINE
  5
3BE
102
{ACAD_REACTORS
330
484
330
485
102
}
330
71
100
AcDbEntity
  8
0
  6
Continuous
 62
     2
100
AcDbLine
 10
156.6118285212383
 20
754.3265769538748
 30
0.0
 11
156.6118285212383
 21
751.2727674300636
 31
0.0
  0
LINE
  5
3BF
102
{ACAD_REACTORS
330
484
330
485
102
}
330
71
100
AcDbEntity
  8
0
  6
Continuous
 62
     2
100
AcDbLine
 10
155.3713241109854
 20
754.3265769538748
 30
0.0
 11
156.6118285212383
 21
754.3265769538748
 31
0.0
  0
LINE
  5
3C0
102
{ACAD_REACTORS
330
482
330
483
102
}
330
71
100
AcDbEntity
  8
0
  6
Continuous
 62
     2
100
AcDbLine
 10
158.8304229472691
 20
752.0604992153573
 30
0.0
 11
159.5270138853346
 21
751.2727674300636
 31
0.0
  0
LINE
  5
3C1
102
{ACAD_REACTORS
330
482
330
483
102
}
330
71
100
AcDbEntity
  8
0
  6
Continuous
 62
     2
100
AcDbLine
 10
159.5270138853346
 20
751.2727674300636
 30
0.0
 11
160.9297381030829
 21
751.2727674300636
 31
0.0
  0
LINE
  5
3C2
102
{ACAD_REACTORS
330
482
330
483
102
}
330
71
100
AcDbEntity
  8
0
  6
Continuous
 62
     2
100
AcDbLine
 10
159.5317850561426
 20
752.8536264238386
 30
0.0
 11
160.9297381030829
 21
751.2727674300636
 31
0.0
  0
LINE
  5
3C3
102
{ACAD_REACTORS
330
482
330
483
102
}
330
71
100
AcDbEntity
  8
0
  6
Continuous
 62
     2
100
AcDbLine
 10
159.5317850561426
 20
752.8536264238386
 30
0.0
 11
160.8343146869091
 21
754.3265769538748
 31
0.0
  0
LINE
  5
3C4
102
{ACAD_REACTORS
330
482
330
483
102
}
330
71
100
AcDbEntity
  8
0
  6
Continuous
 62
     2
100
AcDbLine
 10
158.8304229472691
 20
753.6467536323192
 30
0.0
 11
159.4315904691619
 21
754.3265769538748
 31
0.0
  0
LINE
  5
3C5
102
{ACAD_REACTORS
330
482
330
483
102
}
330
71
100
AcDbEntity
  8
0
  6
Continuous
 62
     2
100
AcDbLine
 10
158.2292554253773
 20
754.3265769538748
 30
0.0
 11
158.8304229472691
 21
753.6467536323192
 31
0.0
  0
LINE
  5
3C6
102
{ACAD_REACTORS
330
482
330
483
102
}
330
71
100
AcDbEntity
  8
0
  6
Continuous
 62
     2
100
AcDbLine
 10
158.2292554253773
 20
754.3265769538748
 30
0.0
 11
156.826531207628
 21
754.3265769538748
 31
0.0
  0
LINE
  5
3C7
102
{ACAD_REACTORS
330
478
330
479
102
}
330
71
100
AcDbEntity
  8
0
  6
Continuous
 62
     2
100
AcDbLine
 10
158.9258463634418
 20
747.9135769538893
 30
0.0
 11
160.1186390656095
 21
747.9135769538893
 31
0.0
  0
LINE
  5
3C8
102
{ACAD_REACTORS
330
478
330
479
102
}
330
71
100
AcDbEntity
  8
0
  6
Continuous
 62
     2
100
AcDbLine
 10
160.1186390656095
 20
747.9135769538893
 30
0.0
 11
160.1186390656095
 21
750.1821211715768
 31
0.0
  0
LINE
  5
3C9
102
{ACAD_REACTORS
330
478
330
479
102
}
330
71
100
AcDbEntity
  8
0
  6
Continuous
 62
     2
100
AcDbLine
 10
160.1186390656095
 20
750.1821211715768
 30
0.0
 11
160.9297381030829
 21
750.1821211715768
 31
0.0
  0
LINE
  5
3CA
102
{ACAD_REACTORS
330
478
330
479
102
}
330
71
100
AcDbEntity
  8
0
  6
Continuous
 62
     2
100
AcDbLine
 10
160.9297381030829
 20
750.1821211715768
 30
0.0
 11
160.9297381030829
 21
750.9673864777003
 31
0.0
  0
LINE
  5
3CB
102
{ACAD_REACTORS
330
478
330
479
102
}
330
71
100
AcDbEntity
  8
0
  6
Continuous
 62
     2
100
AcDbLine
 10
157.5447925844542
 20
750.9673864776998
 30
0.0
 11
160.9297381030829
 21
750.9673864777003
 31
0.0
  0
LINE
  5
3CC
102
{ACAD_REACTORS
330
478
330
479
102
}
330
71
100
AcDbEntity
  8
0
  6
Continuous
 62
     2
100
AcDbLine
 10
158.9258463634418
 20
750.1821211715768
 30
0.0
 11
158.9258463634418
 21
747.9135769538893
 31
0.0
  0
LINE
  5
3CD
102
{ACAD_REACTORS
330
47A
330
47B
102
}
330
71
100
AcDbEntity
  8
0
  6
Continuous
 62
     2
100
AcDbLine
 10
136.2963599279626
 20
749.8924571034538
 30
0.0
 11
136.2963599279626
 21
750.4743085101488
 31
0.0
  0
LINE
  5
3CE
102
{ACAD_REACTORS
330
47A
330
47B
102
}
330
71
100
AcDbEntity
  8
0
  6
Continuous
 62
     2
100
AcDbLine
 10
136.2963599279626
 20
752.692591710085
 30
0.0
 11
136.2963599279626
 21
753.2981269985919
 31
0.0
  0
LINE
  5
3CF
330
71
100
AcDbEntity
  8
1
  6
Continuous
 62
     6
100
AcDbLine
 10
114.8265385125658
 20
740.620076953873
 30
0.0
 11
128.7817339858158
 21
740.6200769538729
 31
0.0
  0
LINE
  5
3D0
330
71
100
AcDbEntity
  8
1
  6
Continuous
 62
     6
100
AcDbLine
 10
64.82653851256555
 20
740.620076953873
 30
0.0
 11
59.78173398581578
 21
740.620076953873
 31
0.0
  0
LINE
  5
3D1
330
71
100
AcDbEntity
  8
1
  6
Continuous
 62
     6
100
AcDbLine
 10
214.8265385125658
 20
740.620076953873
 30
0.0
 11
258.3265385125658
 21
740.620076953873
 31
0.0
  0
LINE
  5
3D2
330
71
100
AcDbEntity
  8
1
  6
Continuous
 62
     6
100
AcDbLine
 10
164.8265385125658
 20
740.620076953873
 30
0.0
 11
146.9817339858158
 21
740.620076953873
 31
0.0
  0
LINE
  5
3D3
330
71
100
AcDbEntity
  8
1
  6
Continuous
 62
     2
100
AcDbLine
 10
258.3265385125658
 20
740.620076953873
 30
0.0
 11
263.3265385125648
 21
740.620076953873
 31
0.0
  0
LINE
  5
3D4
330
71
100
AcDbEntity
  8
1
  6
Continuous
 62
     2
100
AcDbLine
 10
258.3265385125658
 20
740.620076953873
 30
0.0
 11
258.3265385125658
 21
735.6200769538729
 31
0.0
  0
LINE
  5
3D5
330
71
100
AcDbEntity
  8
1
  6
Continuous
 62
     6
100
AcDbLine
 10
128.7817339858158
 20
757.620076953873
 30
0.0
 11
165.1817339858157
 21
757.620076953873
 31
0.0
  0
LINE
  5
3D6
330
71
100
AcDbEntity
  8
1
  6
Continuous
 62
     2
100
AcDbLine
 10
263.3265385125648
 20
735.6200769538729
 30
0.0
 11
263.3265385125648
 21
740.620076953873
 31
0.0
  0
LINE
  5
3D7
330
71
100
AcDbEntity
  8
1
  6
Continuous
 62
     2
100
AcDbLine
 10
263.3265385125648
 20
735.6200769538729
 30
0.0
 11
258.3265385125658
 21
735.6200769538729
 31
0.0
  0
LINE
  5
3D8
330
71
100
AcDbEntity
  8
1
  6
Continuous
 62
     2
100
AcDbLine
 10
258.3265385125658
 20
735.6200769538729
 30
0.0
 11
214.8265385125658
 21
735.6200769538729
 31
0.0
  0
LINE
  5
3D9
330
71
100
AcDbEntity
  8
1
  6
Continuous
 62
     6
100
AcDbLine
 10
258.3265385125675
 20
757.620076953873
 30
0.0
 11
258.3265385125667
 21
790.6200769538731
 31
0.0
  0
LINE
  5
3DA
330
71
100
AcDbEntity
  8
1
  6
Continuous
 62
     2
100
AcDbLine
 10
263.3265385125648
 20
945.620076953873
 30
0.0
 11
114.8265385125658
 21
945.620076953873
 31
0.0
  0
LINE
  5
3DB
330
71
100
AcDbEntity
  8
1
  6
Continuous
 62
     6
100
AcDbLine
 10
258.3265385125648
 20
925.620076953873
 30
0.0
 11
-28.67346148743332
 21
925.620076953873
 31
0.0
  0
LINE
  5
3DC
330
71
100
AcDbEntity
  8
1
  6
Continuous
 62
     2
100
AcDbLine
 10
258.3265385125667
 20
790.6200769538731
 30
0.0
 11
263.3265385125648
 21
790.6200769538731
 31
0.0
  0
LINE
  5
3DD
330
71
100
AcDbEntity
  8
1
  6
Continuous
 62
     6
100
AcDbLine
 10
258.3265385125667
 20
790.6200769538731
 30
0.0
 11
258.3265385125662
 21
840.6200769538729
 31
0.0
  0
LINE
  5
3DE
330
71
100
AcDbEntity
  8
1
  6
Continuous
 62
     2
100
AcDbLine
 10
263.3265385125648
 20
790.6200769538731
 30
0.0
 11
263.3265385125648
 21
840.6200769538729
 31
0.0
  0
LINE
  5
3DF
330
71
100
AcDbEntity
  8
1
  6
Continuous
 62
     2
100
AcDbLine
 10
258.3265385125662
 20
840.6200769538729
 30
0.0
 11
263.3265385125648
 21
840.6200769538729
 31
0.0
  0
LINE
  5
3E0
330
71
100
AcDbEntity
  8
1
  6
Continuous
 62
     6
100
AcDbLine
 10
258.3265385125662
 20
840.6200769538729
 30
0.0
 11
258.326538512565
 21
890.620076953873
 31
0.0
  0
LINE
  5
3E1
330
71
100
AcDbEntity
  8
1
  6
Continuous
 62
     2
100
AcDbLine
 10
263.3265385125648
 20
840.6200769538729
 30
0.0
 11
263.3265385125648
 21
890.620076953873
 31
0.0
  0
LINE
  5
3E2
330
71
100
AcDbEntity
  8
1
  6
Continuous
 62
     2
100
AcDbLine
 10
258.326538512565
 20
890.620076953873
 30
0.0
 11
263.3265385125648
 21
890.620076953873
 31
0.0
  0
LINE
  5
3E3
330
71
100
AcDbEntity
  8
1
  6
Continuous
 62
     6
100
AcDbLine
 10
258.326538512565
 20
890.620076953873
 30
0.0
 11
258.3265385125648
 21
925.620076953873
 31
0.0
  0
LINE
  5
3E4
330
71
100
AcDbEntity
  8
1
  6
Continuous
 62
     2
100
AcDbLine
 10
263.3265385125648
 20
890.620076953873
 30
0.0
 11
263.3265385125648
 21
945.620076953873
 31
0.0
  0
LINE
  5
3E5
330
71
100
AcDbEntity
  8
1
  6
Continuous
 62
     2
100
AcDbLine
 10
263.3265385125648
 20
740.620076953873
 30
0.0
 11
263.3265385125648
 21
790.6200769538731
 31
0.0
  0
LINE
  5
3E6
330
71
100
AcDbEntity
  8
1
  6
Continuous
 62
     2
100
AcDbLine
 10
114.8265385125658
 20
945.620076953873
 30
0.0
 11
-33.67346148743332
 21
945.620076953873
 31
0.0
  0
LINE
  5
3E7
330
71
100
AcDbEntity
  8
1
  6
Continuous
 62
     2
100
AcDbLine
 10
114.8265385125658
 20
945.620076953873
 30
0.0
 11
114.8265385125658
 21
936.4113851091716
 31
0.0
  0
LINE
  5
3E8
330
71
100
AcDbEntity
  8
1
  6
Continuous
 62
     2
100
AcDbLine
 10
-33.67346148743332
 20
735.6200769538729
 30
0.0
 11
-28.67346148743235
 21
735.6200769538729
 31
0.0
  0
LINE
  5
3E9
330
71
100
AcDbEntity
  8
1
  6
Continuous
 62
     2
100
AcDbLine
 10
-33.67346148743332
 20
945.620076953873
 30
0.0
 11
-33.67346148743332
 21
890.620076953873
 31
0.0
  0
LINE
  5
3EA
330
71
100
AcDbEntity
  8
1
  6
Continuous
 62
     6
100
AcDbLine
 10
-28.67346148743332
 20
925.620076953873
 30
0.0
 11
-28.67346148743326
 21
890.620076953873
 31
0.0
  0
LINE
  5
3EB
330
71
100
AcDbEntity
  8
1
  6
Continuous
 62
     2
100
AcDbLine
 10
-33.67346148743332
 20
890.620076953873
 30
0.0
 11
-28.67346148743326
 21
890.620076953873
 31
0.0
  0
LINE
  5
3EC
330
71
100
AcDbEntity
  8
1
  6
Continuous
 62
     2
100
AcDbLine
 10
-33.67346148743332
 20
890.620076953873
 30
0.0
 11
-33.67346148743332
 21
840.6200769538729
 31
0.0
  0
LINE
  5
3ED
330
71
100
AcDbEntity
  8
1
  6
Continuous
 62
     6
100
AcDbLine
 10
-28.67346148743326
 20
890.620076953873
 30
0.0
 11
-28.67346148743275
 21
840.6200769538729
 31
0.0
  0
LINE
  5
3EE
330
71
100
AcDbEntity
  8
1
  6
Continuous
 62
     2
100
AcDbLine
 10
-33.67346148743332
 20
840.6200769538729
 30
0.0
 11
-28.67346148743275
 21
840.6200769538729
 31
0.0
  0
LINE
  5
3EF
330
71
100
AcDbEntity
  8
1
  6
Continuous
 62
     2
100
AcDbLine
 10
-33.67346148743332
 20
840.6200769538729
 30
0.0
 11
-33.67346148743332
 21
790.6200769538731
 31
0.0
  0
LINE
  5
3F0
330
71
100
AcDbEntity
  8
1
  6
Continuous
 62
     6
100
AcDbLine
 10
-28.67346148743275
 20
840.6200769538729
 30
0.0
 11
-28.67346148743252
 21
790.6200769538731
 31
0.0
  0
LINE
  5
3F1
330
71
100
AcDbEntity
  8
1
  6
Continuous
 62
     2
100
AcDbLine
 10
-33.67346148743332
 20
790.6200769538731
 30
0.0
 11
-28.67346148743252
 21
790.6200769538731
 31
0.0
  0
LINE
  5
3F2
330
71
100
AcDbEntity
  8
1
  6
Continuous
 62
     2
100
AcDbLine
 10
-33.67346148743332
 20
790.6200769538731
 30
0.0
 11
-33.67346148743332
 21
740.620076953873
 31
0.0
  0
LINE
  5
3F3
330
71
100
AcDbEntity
  8
1
  6
Continuous
 62
     6
100
AcDbLine
 10
-28.67346148743252
 20
790.6200769538731
 30
0.0
 11
-28.67346148743235
 21
740.620076953873
 31
0.0
  0
LINE
  5
3F4
330
71
100
AcDbEntity
  8
1
  6
Continuous
 62
     2
100
AcDbLine
 10
14.82653851256578
 20
735.6200769538729
 30
0.0
 11
14.82653851256578
 21
740.620076953873
 31
0.0
  0
LINE
  5
3F5
330
71
100
AcDbEntity
  8
1
  6
Continuous
 62
     2
100
AcDbLine
 10
14.82653851256578
 20
735.6200769538729
 30
0.0
 11
64.82653851256555
 21
735.6200769538729
 31
0.0
  0
LINE
  5
3F6
330
71
100
AcDbEntity
  8
1
  6
Continuous
 62
     2
100
AcDbLine
 10
64.82653851256555
 20
735.6200769538729
 30
0.0
 11
64.82653851256555
 21
740.620076953873
 31
0.0
  0
LINE
  5
3F7
330
71
100
AcDbEntity
  8
1
  6
Continuous
 62
     2
100
AcDbLine
 10
64.82653851256555
 20
735.6200769538729
 30
0.0
 11
114.8265385125658
 21
735.6200769538729
 31
0.0
  0
LINE
  5
3F8
330
71
100
AcDbEntity
  8
1
  6
Continuous
 62
     2
100
AcDbLine
 10
114.8265385125658
 20
735.6200769538729
 30
0.0
 11
114.8265385125658
 21
740.620076953873
 31
0.0
  0
LINE
  5
3F9
330
71
100
AcDbEntity
  8
1
  6
Continuous
 62
     2
100
AcDbLine
 10
114.8265385125658
 20
735.6200769538729
 30
0.0
 11
164.8265385125658
 21
735.6200769538729
 31
0.0
  0
LINE
  5
3FA
330
71
100
AcDbEntity
  8
1
  6
Continuous
 62
     2
100
AcDbLine
 10
164.8265385125658
 20
735.6200769538729
 30
0.0
 11
164.8265385125658
 21
740.620076953873
 31
0.0
  0
LINE
  5
3FB
330
71
100
AcDbEntity
  8
1
  6
Continuous
 62
     2
100
AcDbLine
 10
214.8265385125658
 20
735.6200769538729
 30
0.0
 11
214.8265385125658
 21
740.620076953873
 31
0.0
  0
LINE
  5
3FC
330
71
100
AcDbEntity
  8
1
  6
Continuous
 62
     2
100
AcDbLine
 10
214.8265385125658
 20
735.6200769538729
 30
0.0
 11
164.8265385125658
 21
735.6200769538729
 31
0.0
  0
LINE
  5
3FD
330
71
100
AcDbEntity
  8
1
  6
Continuous
 62
     2
100
AcDbLine
 10
-28.67346148743235
 20
740.620076953873
 30
0.0
 11
-28.67346148743235
 21
735.6200769538729
 31
0.0
  0
LINE
  5
3FE
330
71
100
AcDbEntity
  8
1
  6
Continuous
 62
     2
100
AcDbLine
 10
-28.67346148743235
 20
735.6200769538729
 30
0.0
 11
14.82653851256578
 21
735.6200769538729
 31
0.0
  0
LINE
  5
3FF
330
71
100
AcDbEntity
  8
1
  6
Continuous
 62
     2
100
AcDbLine
 10
-28.67346148743235
 20
740.620076953873
 30
0.0
 11
-33.67346148743332
 21
740.620076953873
 31
0.0
  0
LINE
  5
400
330
71
100
AcDbEntity
  8
1
  6
Continuous
 62
     2
100
AcDbLine
 10
-33.67346148743332
 20
740.620076953873
 30
0.0
 11
-33.67346148743332
 21
735.6200769538729
 31
0.0
  0
LINE
  5
401
330
71
100
AcDbEntity
  8
1
  6
Continuous
 62
     6
100
AcDbLine
 10
258.3265385125658
 20
740.620076953873
 30
0.0
 11
258.326538512567
 21
749.120076953873
 31
0.0
  0
LINE
  5
402
330
71
100
AcDbEntity
  8
1
  6
Continuous
 62
     6
100
AcDbLine
 10
165.1817339858157
 20
740.6200769538729
 30
0.0
 11
214.8265385125658
 21
740.620076953873
 31
0.0
  0
LINE
  5
403
330
71
100
AcDbEntity
  8
1
  6
Continuous
 62
     6
100
AcDbLine
 10
12.52653851256554
 20
740.6200769538729
 30
0.0
 11
14.82653851256578
 21
740.620076953873
 31
0.0
  0
LINE
  5
404
330
71
100
AcDbEntity
  8
1
  6
Continuous
 62
     6
100
AcDbLine
 10
114.8265385125658
 20
740.620076953873
 30
0.0
 11
64.82653851256555
 21
740.620076953873
 31
0.0
  0
LINE
  5
405
330
71
100
AcDbEntity
  8
1
  6
Continuous
 62
     7
100
AcDbLine
 10
128.7817339858158
 20
757.620076953873
 30
0.0
 11
128.7817339858158
 21
744.8700769538729
 31
0.0
  0
LINE
  5
406
330
71
100
AcDbEntity
  8
1
  6
Continuous
 62
     7
100
AcDbLine
 10
165.1817339858157
 20
757.620076953873
 30
0.0
 11
165.1817339858157
 21
744.870076953873
 31
0.0
  0
LINE
  5
407
330
71
100
AcDbEntity
  8
1
  6
Continuous
 62
     6
100
AcDbLine
 10
12.52653851256554
 20
740.6200769538729
 30
0.0
 11
6.32653851256754
 21
740.620076953873
 31
0.0
  0
LINE
  5
408
330
71
100
AcDbEntity
  8
1
  6
Continuous
 62
     6
100
AcDbLine
 10
165.1817339858157
 20
740.6200769538729
 30
0.0
 11
164.8265385125658
 21
740.620076953873
 31
0.0
  0
LINE
  5
409
330
71
100
AcDbEntity
  8
1
  6
Continuous
 62
     6
100
AcDbLine
 10
258.3265385125675
 20
757.620076953873
 30
0.0
 11
258.326538512567
 21
749.120076953873
 31
0.0
  0
LINE
  5
40A
330
71
100
AcDbEntity
  8
1
  6
Continuous
 62
     6
100
AcDbLine
 10
6.32653851256754
 20
740.620076953873
 30
0.0
 11
-28.67346148743235
 21
740.620076953873
 31
0.0
  0
LINE
  5
40B
330
71
100
AcDbEntity
  8
1
  6
Continuous
 62
     2
100
AcDbLine
 10
133.0183888723784
 20
762.9950769538729
 30
0.0
 11
138.0183888723784
 21
764.2450769538729
 31
0.0
  0
LINE
  5
40C
330
71
100
AcDbEntity
  8
1
  6
Continuous
 62
     2
100
AcDbLine
 10
133.0183888723784
 20
760.4950769538729
 30
0.0
 11
133.0183888723784
 21
762.9950769538729
 31
0.0
  0
LINE
  5
40D
330
71
100
AcDbEntity
  8
1
  6
Continuous
 62
     2
100
AcDbLine
 10
138.0183888723784
 20
759.2450769538729
 30
0.0
 11
133.0183888723784
 21
760.4950769538729
 31
0.0
  0
LINE
  5
40E
330
71
100
AcDbEntity
  8
1
  6
Continuous
 62
     2
100
AcDbLine
 10
138.0183888723784
 20
764.2450769538729
 30
0.0
 11
138.0183888723784
 21
759.2450769538729
 31
0.0
  0
LINE
  5
40F
330
71
100
AcDbEntity
  8
1
  6
Continuous
 62
     7
100
AcDbLine
 10
128.7817339858158
 20
744.8700769538729
 30
0.0
 11
146.9817339858158
 21
744.870076953873
 31
0.0
  0
LINE
  5
410
330
71
100
AcDbEntity
  8
1
  6
Continuous
 62
     7
100
AcDbLine
 10
128.7817339858158
 20
744.8700769538729
 30
0.0
 11
128.7817339858158
 21
740.6200769538729
 31
0.0
  0
LINE
  5
411
330
71
100
AcDbEntity
  8
1
  6
Continuous
 62
     7
100
AcDbLine
 10
165.1817339858157
 20
744.870076953873
 30
0.0
 11
165.1817339858157
 21
740.6200769538729
 31
0.0
  0
LINE
  5
412
330
71
100
AcDbEntity
  8
1
  6
Continuous
 62
     7
100
AcDbLine
 10
146.9817339858158
 20
744.870076953873
 30
0.0
 11
146.9817339858158
 21
740.620076953873
 31
0.0
  0
LINE
  5
413
330
71
100
AcDbEntity
  8
1
  6
Continuous
 62
     6
100
AcDbLine
 10
146.9817339858158
 20
740.620076953873
 30
0.0
 11
128.7817339858158
 21
740.6200769538729
 31
0.0
  0
LINE
  5
414
330
71
100
AcDbEntity
  8
1
  6
Continuous
 62
     7
100
AcDbLine
 10
146.9817339858158
 20
744.870076953873
 30
0.0
 11
165.1817339858157
 21
744.870076953873
 31
0.0
  0
LINE
  5
415
330
71
100
AcDbEntity
  8
1
  6
Continuous
 62
     6
100
AcDbLine
 10
128.7817339858158
 20
766.120076953873
 30
0.0
 11
258.3265385125675
 21
766.120076953873
 31
0.0
  0
ARC
  5
416
102
{ACAD_REACTORS
330
47E
330
47F
102
}
330
71
100
AcDbEntity
  8
0
  6
Continuous
 62
     2
100
AcDbCircle
 10
144.1733819847757
 20
749.4404817157946
 30
0.0
 40
0.7717997786797969
100
AcDbArc
 50
321.8795802028424
 51
38.12041979715104
  0
ARC
  5
417
102
{ACAD_REACTORS
330
47E
330
47F
102
}
330
71
100
AcDbEntity
  8
0
  6
Continuous
 62
     2
100
AcDbCircle
 10
144.3731220211222
 20
749.2837505376746
 30
0.0
 40
0.5179085730137754
100
AcDbArc
 50
218.1204197971937
 51
321.8795802027966
  0
ARC
  5
418
102
{ACAD_REACTORS
330
47E
330
47F
102
}
330
71
100
AcDbEntity
  8
0
  6
Continuous
 62
     2
100
AcDbCircle
 10
144.5728620574683
 20
749.4404817157946
 30
0.0
 40
0.7717997786795031
100
AcDbArc
 50
141.879580202836
 51
218.1204197971707
  0
ARC
  5
419
102
{ACAD_REACTORS
330
47E
330
47F
102
}
330
71
100
AcDbEntity
  8
0
  6
Continuous
 62
     2
100
AcDbCircle
 10
144.3731220211222
 20
749.5972128939151
 30
0.0
 40
0.5179085730133126
100
AcDbArc
 50
38.12041979715392
 51
141.8795802028558
  0
ARC
  5
41A
102
{ACAD_REACTORS
330
476
330
477
102
}
330
71
100
AcDbEntity
  8
0
  6
Continuous
 62
     2
100
AcDbCircle
 10
141.3111078855583
 20
748.0300153503864
 30
0.0
 40
2.227384008973468
100
AcDbArc
 50
58.06909105003972
 51
71.5519238818663
  0
ARC
  5
41B
102
{ACAD_REACTORS
330
476
330
477
102
}
330
71
100
AcDbEntity
  8
0
  6
Continuous
 62
     2
100
AcDbCircle
 10
141.572835586517
 20
749.6455531451336
 30
0.0
 40
0.5115800601948179
100
AcDbArc
 50
113.3722778881916
 51
151.4785267422984
  0
ARC
  5
41C
102
{ACAD_REACTORS
330
476
330
477
102
}
330
71
100
AcDbEntity
  8
0
  6
Continuous
 62
     2
100
AcDbCircle
 10
141.9501928445974
 20
749.4404817157946
 30
0.0
 40
0.9410597353332545
100
AcDbArc
 50
151.4785267422669
 51
208.5214732577088
  0
ARC
  5
41D
102
{ACAD_REACTORS
330
476
330
477
102
}
330
71
100
AcDbEntity
  8
0
  6
Continuous
 62
     2
100
AcDbCircle
 10
141.1532350104654
 20
752.753162661051
 30
0.0
 40
4.852596863498157
100
AcDbArc
 50
275.1581447696236
 51
285.979991258353
  0
ARC
  5
41E
102
{ACAD_REACTORS
330
476
330
477
102
}
330
71
100
AcDbEntity
  8
0
  6
Continuous
 62
     2
100
AcDbCircle
 10
141.4420911052013
 20
749.5532720778294
 30
0.0
 40
1.639695123939422
100
AcDbArc
 50
195.0618917770903
 51
275.1581447696353
  0
ARC
  5
41F
102
{ACAD_REACTORS
330
476
330
477
102
}
330
71
100
AcDbEntity
  8
0
  6
Continuous
 62
     2
100
AcDbCircle
 10
141.0229632617385
 20
749.4404817157946
 30
0.0
 40
1.205656168390957
100
AcDbArc
 50
164.9381082228794
 51
195.0618917770945
  0
ARC
  5
420
102
{ACAD_REACTORS
330
476
330
477
102
}
330
71
100
AcDbEntity
  8
0
  6
Continuous
 62
     2
100
AcDbCircle
 10
141.4420911052013
 20
749.3276913537596
 30
0.0
 40
1.639695123940553
100
AcDbArc
 50
84.84185523036649
 51
164.9381082228867
  0
ARC
  5
421
102
{ACAD_REACTORS
330
47A
330
47B
102
}
330
71
100
AcDbEntity
  8
0
  6
Continuous
 62
     2
100
AcDbCircle
 10
136.6120768510394
 20
750.4743085101488
 30
0.0
 40
0.3157169230765964
100
AcDbArc
 50
115.3740086783521
 51
180.0
  0
ARC
  5
422
102
{ACAD_REACTORS
330
47A
330
47B
102
}
330
71
100
AcDbEntity
  8
0
  6
Continuous
 62
     2
100
AcDbCircle
 10
136.6120768510394
 20
752.692591710085
 30
0.0
 40
0.315716923076792
100
AcDbArc
 50
180.0
 51
244.625991321639
  0
ARC
  5
423
102
{ACAD_REACTORS
330
47A
330
47B
102
}
330
71
100
AcDbEntity
  8
0
  6
Continuous
 62
     2
100
AcDbCircle
 10
136.6176929863494
 20
751.5952920510227
 30
0.0
 40
2.018561131933266
100
AcDbArc
 50
269.8110329575858
 51
90.18896704241416
  0
ARC
  5
424
102
{ACAD_REACTORS
330
47A
330
47B
102
}
330
71
100
AcDbEntity
  8
0
  6
Continuous
 62
     2
100
AcDbCircle
 10
136.6120768510394
 20
749.8924571034538
 30
0.0
 40
0.315716923076792
100
AcDbArc
 50
180.0
 51
269.811032957449
  0
ARC
  5
425
102
{ACAD_REACTORS
330
478
330
479
102
}
330
71
100
AcDbEntity
  8
0
  6
Continuous
 62
     2
100
AcDbCircle
 10
157.67553706577
 20
749.6455531451336
 30
0.0
 40
0.5115800601944048
100
AcDbArc
 50
109.3371432194823
 51
151.4785267424182
  0
ARC
  5
426
102
{ACAD_REACTORS
330
478
330
479
102
}
330
71
100
AcDbEntity
  8
0
  6
Continuous
 62
     2
100
AcDbCircle
 10
157.67553706577
 20
749.235410286456
 30
0.0
 40
0.5115800601959695
100
AcDbArc
 50
208.5214732576826
 51
246.6277221118453
  0
ARC
  5
427
102
{ACAD_REACTORS
330
478
330
479
102
}
330
71
100
AcDbEntity
  8
0
  6
Continuous
 62
     2
100
AcDbCircle
 10
157.1256647409926
 20
749.4404817157946
 30
0.0
 40
1.20565616839296
100
AcDbArc
 50
164.938108222905
 51
195.061891777095
  0
ARC
  5
428
102
{ACAD_REACTORS
330
478
330
479
102
}
330
71
100
AcDbEntity
  8
0
  6
Continuous
 62
     2
100
AcDbCircle
 10
157.5447925844542
 20
749.3276913537596
 30
0.0
 40
1.639695123940214
100
AcDbArc
 50
90.0
 51
164.9381082228947
  0
ARC
  5
429
102
{ACAD_REACTORS
330
47C
330
47D
102
}
330
71
100
AcDbEntity
  8
0
  6
Continuous
 62
     2
100
AcDbCircle
 10
148.1177974917505
 20
752.7996721919689
 30
0.0
 40
1.526904761905939
100
AcDbArc
 50
90.0
 51
270.0
  0
ARC
  5
42A
102
{ACAD_REACTORS
330
480
330
481
102
}
330
71
100
AcDbEntity
  8
0
  6
Continuous
 62
     2
100
AcDbCircle
 10
141.3751067465247
 20
753.3106072837636
 30
0.0
 40
0.3528638246712035
100
AcDbArc
 50
270.0
 51
90.0
  0
ARC
  5
42B
102
{ACAD_REACTORS
330
47A
330
47B
102
}
330
71
100
AcDbEntity
  8
0
  6
Continuous
 62
     2
100
AcDbCircle
 10
134.0365281645076
 20
753.29830447524
 30
0.0
 40
0.3157169230761383
100
AcDbArc
 50
90.0
 51
180.0
  0
ARC
  5
42C
102
{ACAD_REACTORS
330
47A
330
47B
102
}
330
71
100
AcDbEntity
  8
0
  6
Continuous
 62
     2
100
AcDbCircle
 10
136.0349458730923
 20
751.5834501101173
 30
0.0
 40
0.911897523557601
100
AcDbArc
 50
115.1944106485306
 51
244.8055893514846
  0
ARC
  5
42D
102
{ACAD_REACTORS
330
47A
330
47B
102
}
330
71
100
AcDbEntity
  8
0
  6
Continuous
 62
     2
100
AcDbCircle
 10
135.5123614255173
 20
750.4726203640545
 30
0.0
 40
0.315716923076593
100
AcDbArc
 50
0.0
 51
64.80558935146468
  0
ARC
  5
42E
102
{ACAD_REACTORS
330
47A
330
47B
102
}
330
71
100
AcDbEntity
  8
0
  6
Continuous
 62
     2
100
AcDbCircle
 10
133.4426334877612
 20
748.3378215692726
 30
0.0
 40
0.4242446153828041
100
AcDbArc
 50
180.0
 51
270.0
  0
ARC
  5
42F
102
{ACAD_REACTORS
330
47C
330
47D
102
}
330
71
100
AcDbEntity
  8
0
  6
Continuous
 62
     2
100
AcDbCircle
 10
148.3340695019157
 20
752.9564033700893
 30
0.0
 40
0.5179085730135616
100
AcDbArc
 50
38.12041979714829
 51
141.8795802028459
  0
ARC
  5
430
102
{ACAD_REACTORS
330
47C
330
47D
102
}
330
71
100
AcDbEntity
  8
0
  6
Continuous
 62
     2
100
AcDbCircle
 10
148.533809538262
 20
752.7996721919689
 30
0.0
 40
0.7717997786797298
100
AcDbArc
 50
141.8795802028384
 51
218.1204197971549
  0
ARC
  5
431
102
{ACAD_REACTORS
330
47E
330
47F
102
}
330
71
100
AcDbEntity
  8
0
  6
Continuous
 62
     2
100
AcDbCircle
 10
144.3731220211222
 20
749.9790567260978
 30
0.0
 40
2.065479772208446
100
AcDbArc
 50
242.4518518243384
 51
297.5481481756882
  0
ARC
  5
432
102
{ACAD_REACTORS
330
47E
330
47F
102
}
330
71
100
AcDbEntity
  8
0
  6
Continuous
 62
     2
100
AcDbCircle
 10
144.3731220211222
 20
748.9019067054918
 30
0.0
 40
2.065479772208543
100
AcDbArc
 50
62.451851824306
 51
117.5481481756674
  0
ARC
  5
433
102
{ACAD_REACTORS
330
47E
330
47F
102
}
330
71
100
AcDbEntity
  8
0
  6
Continuous
 62
     2
100
AcDbCircle
 10
144.0921821292889
 20
749.4404817157946
 30
0.0
 40
1.458034083651465
100
AcDbArc
 50
117.548148175663
 51
242.451851824337
  0
ARC
  5
434
102
{ACAD_REACTORS
330
47E
330
47F
102
}
330
71
100
AcDbEntity
  8
0
  6
Continuous
 62
     2
100
AcDbCircle
 10
144.6540619129555
 20
749.4404817157946
 30
0.0
 40
1.458034083651977
100
AcDbArc
 50
297.5481481757016
 51
62.45185182429842
  0
ARC
  5
435
102
{ACAD_REACTORS
330
47C
330
47D
102
}
330
71
100
AcDbEntity
  8
0
  6
Continuous
 62
     2
100
AcDbCircle
 10
148.3340695019157
 20
752.6429410138485
 30
0.0
 40
0.5179085730134946
100
AcDbArc
 50
218.1204197971541
 51
321.8795802028517
  0
ARC
  5
436
102
{ACAD_REACTORS
330
47C
330
47D
102
}
330
71
100
AcDbEntity
  8
0
  6
Continuous
 62
     2
100
AcDbCircle
 10
148.1343294655695
 20
752.7996721919689
 30
0.0
 40
0.7717997786796597
100
AcDbArc
 50
321.879580202845
 51
38.12041979716158
  0
ARC
  5
437
102
{ACAD_REACTORS
330
47A
330
47B
102
}
330
71
100
AcDbEntity
  8
0
  6
Continuous
 62
     2
100
AcDbCircle
 10
138.915945578478
 20
748.3378215692726
 30
0.0
 40
0.4242446153832589
100
AcDbArc
 50
270.0
 51
0.0
  0
ARC
  5
438
102
{ACAD_REACTORS
330
47A
330
47B
102
}
330
71
100
AcDbEntity
  8
0
  6
Continuous
 62
     2
100
AcDbCircle
 10
138.915945578478
 20
753.9023323384728
 30
0.0
 40
0.4242446153837989
100
AcDbArc
 50
0.0
 51
90.0
  0
ARC
  5
439
102
{ACAD_REACTORS
330
47A
330
47B
102
}
330
71
100
AcDbEntity
  8
0
  6
Continuous
 62
     2
100
AcDbCircle
 10
133.4426334877612
 20
753.9023323384728
 30
0.0
 40
0.4242446153838273
100
AcDbArc
 50
90.0
 51
180.0
  0
ARC
  5
43A
102
{ACAD_REACTORS
330
47A
330
47B
102
}
330
71
100
AcDbEntity
  8
0
  6
Continuous
 62
     2
100
AcDbCircle
 10
135.5123614255173
 20
748.9418494325229
 30
0.0
 40
0.3157169230767067
100
AcDbArc
 50
270.0
 51
0.0
  0
ARC
  5
43B
102
{ACAD_REACTORS
330
47A
330
47B
102
}
330
71
100
AcDbEntity
  8
0
  6
Continuous
 62
     2
100
AcDbCircle
 10
135.5123614255173
 20
752.6942798561795
 30
0.0
 40
0.3157169230761717
100
AcDbArc
 50
295.1944106485354
 51
0.0
  0
ARC
  5
43C
102
{ACAD_REACTORS
330
47A
330
47B
102
}
330
71
100
AcDbEntity
  8
0
  6
Continuous
 62
     2
100
AcDbCircle
 10
135.5123614255173
 20
753.29830447524
 30
0.0
 40
0.315716923076593
100
AcDbArc
 50
0.0
 51
90.0
  0
ARC
  5
43D
102
{ACAD_REACTORS
330
47A
330
47B
102
}
330
71
100
AcDbEntity
  8
0
  6
Continuous
 62
     2
100
AcDbCircle
 10
134.0365281645076
 20
748.9418494325229
 30
0.0
 40
0.3157169230755983
100
AcDbArc
 50
180.0
 51
270.0
  0
ARC
  5
43E
102
{ACAD_REACTORS
330
480
330
481
102
}
330
71
100
AcDbEntity
  8
0
  6
Continuous
 62
     2
100
AcDbCircle
 10
141.8165792727631
 20
753.271211312541
 30
0.0
 40
1.055365641333651
100
AcDbArc
 50
270.0
 51
90.0
  0
ARC
  5
43F
102
{ACAD_REACTORS
330
478
330
479
102
}
330
71
100
AcDbEntity
  8
0
  6
Continuous
 62
     2
100
AcDbCircle
 10
157.5447925844542
 20
749.5532720778294
 30
0.0
 40
1.639695123940421
100
AcDbArc
 50
195.0618917771015
 51
275.158144769676
  0
ARC
  5
440
102
{ACAD_REACTORS
330
478
330
479
102
}
330
71
100
AcDbEntity
  8
0
  6
Continuous
 62
     2
100
AcDbCircle
 10
157.2559364897184
 20
752.753162661051
 30
0.0
 40
4.852596863498822
100
AcDbArc
 50
275.158144769636
 51
285.9799912583383
  0
ARC
  5
441
102
{ACAD_REACTORS
330
478
330
479
102
}
330
71
100
AcDbEntity
  8
0
  6
Continuous
 62
     2
100
AcDbCircle
 10
157.4138093648112
 20
750.8509480812027
 30
0.0
 40
2.227384008972719
100
AcDbArc
 50
288.4480761181337
 51
301.9309089499401
  0
ARC
  5
442
102
{ACAD_REACTORS
330
478
330
479
102
}
330
71
100
AcDbEntity
  8
0
  6
Continuous
 62
     2
100
AcDbCircle
 10
157.8319770984731
 20
749.597402305166
 30
0.0
 40
0.9059297849852166
100
AcDbArc
 50
246.6277221118185
 51
288.4480761180828
  0
ARC
  5
443
102
{ACAD_REACTORS
330
478
330
479
102
}
330
71
100
AcDbEntity
  8
0
  6
Continuous
 62
     2
100
AcDbCircle
 10
158.0528943238514
 20
749.4404817157946
 30
0.0
 40
0.941059735334906
100
AcDbArc
 50
151.4785267423609
 51
208.5214732576695
  0
ARC
  5
444
102
{ACAD_REACTORS
330
478
330
479
102
}
330
71
100
AcDbEntity
  8
0
  6
Continuous
 62
     2
100
AcDbCircle
 10
157.8222070638737
 20
749.2275981647507
 30
0.0
 40
0.9545230068260935
100
AcDbArc
 50
90.0
 51
109.3371432194304
  0
ARC
  5
445
102
{ACAD_REACTORS
330
47A
330
47B
102
}
330
71
100
AcDbEntity
  8
0
  6
Continuous
 62
     2
100
AcDbCircle
 10
136.6120768510394
 20
753.2981269985919
 30
0.0
 40
0.3157169230760143
100
AcDbArc
 50
90.18896704255111
 51
180.0
  0
ARC
  5
446
102
{ACAD_REACTORS
330
47A
330
47B
102
}
330
71
100
AcDbEntity
  8
0
  6
Continuous
 62
     2
100
AcDbCircle
 10
136.0860341529515
 20
751.5834501101173
 30
0.0
 40
0.9118481501444333
100
AcDbArc
 50
295.3740086781772
 51
64.62599132180748
  0
ARC
  5
447
102
{ACAD_REACTORS
330
476
330
477
102
}
330
71
100
AcDbEntity
  8
0
  6
Continuous
 62
     2
100
AcDbCircle
 10
141.3111078855583
 20
750.8509480812032
 30
0.0
 40
2.227384008972719
100
AcDbArc
 50
288.4480761181337
 51
301.9309089499603
  0
ARC
  5
448
102
{ACAD_REACTORS
330
476
330
477
102
}
330
71
100
AcDbEntity
  8
0
  6
Continuous
 62
     2
100
AcDbCircle
 10
141.7292756192191
 20
749.597402305166
 30
0.0
 40
0.905929784984867
100
AcDbArc
 50
246.6277221118696
 51
288.4480761181608
  0
ARC
  5
449
102
{ACAD_REACTORS
330
476
330
477
102
}
330
71
100
AcDbEntity
  8
0
  6
Continuous
 62
     2
100
AcDbCircle
 10
141.572835586517
 20
749.235410286456
 30
0.0
 40
0.5115800601947035
100
AcDbArc
 50
208.5214732577016
 51
246.6277221118336
  0
ARC
  5
44A
102
{ACAD_REACTORS
330
476
330
477
102
}
330
71
100
AcDbEntity
  8
0
  6
Continuous
 62
     2
100
AcDbCircle
 10
141.7292756192191
 20
749.2835611264229
 30
0.0
 40
0.9059297849853858
100
AcDbArc
 50
71.5519238818529
 51
113.3722778881275
  0
ARC
  5
44B
102
{ACAD_REACTORS
330
476
330
477
102
}
330
71
100
AcDbEntity
  8
0
  6
Continuous
 62
     2
100
AcDbCircle
 10
141.1532350104654
 20
746.1278007705387
 30
0.0
 40
4.85259686349804
100
AcDbArc
 50
74.02000874164729
 51
84.84185523037642
  0
CIRCLE
  5
44C
102
{ACAD_REACTORS
330
47A
330
47B
102
}
330
71
100
AcDbEntity
  8
0
  6
Continuous
 62
     2
100
AcDbCircle
 10
136.0622191382787
 20
751.5834501101173
 30
0.0
 40
0.4709789327785074
  0
CIRCLE
  5
44D
330
71
100
AcDbEntity
  8
1
  6
Continuous
 62
     2
100
AcDbCircle
 10
141.5183888723784
 20
761.7450769538729
 30
0.0
 40
1.249999999999886
  0
CIRCLE
  5
44E
330
71
100
AcDbEntity
  8
1
  6
Continuous
 62
     2
100
AcDbCircle
 10
141.5183888723784
 20
761.7450769538729
 30
0.0
 40
2.5
  0
TEXT
  5
44F
330
71
100
AcDbEntity
  8
1
 62
     7
100
AcDbText
 10
184.1552817078295
 20
758.9200769538729
 30
0.0
 40
2.5
  1
/
 41
0.9
  7
CONVERTER_11
100
AcDbText
  0
TEXT
  5
451
330
71
100
AcDbEntity
  8
1
 62
     7
100
AcDbText
 10
186.3116462048716
 20
758.9200769538729
 30
0.0
 40
2.5
  1
01
 41
0.81
  7
CONVERTER_12
100
AcDbText
  0
TEXT
  5
452
330
71
100
AcDbEntity
  8
1
 62
     3
100
AcDbText
 10
223.9081302308886
 20
758.9200769538729
 30
0.0
 40
2.5
  1
16.08.2018
 41
0.81
  7
CONVERTER_12
100
AcDbText
  0
MTEXT
  5
453
330
71
100
AcDbEntity
  8
1
 62
     2
100
AcDbMText
 10
223.9081302308886
 20
765.1200769538729
 30
0.0
 40
1.8
 41
0.0
 71
     1
 72
     1
  1
date
  7
CONVERTER_11
 73
     1
 44
1.32052821128451
  0
MTEXT
  5
454
330
71
100
AcDbEntity
  8
1
 62
     2
100
AcDbMText
 10
194.0817339858158
 20
756.6200769538729
 30
0.0
 40
1.8
 41
0.0
 71
     1
 72
     1
  1
document-type
  7
CONVERTER_11
 73
     1
 44
1.20048019207683
  0
TEXT
  5
455
330
71
100
AcDbEntity
  8
1
 62
     3
100
AcDbText
 10
194.0817339858158
 20
750.4200769538729
 30
0.0
 40
2.5
  1
 
 41
0.81
  7
CONVERTER_12
100
AcDbText
  0
MTEXT
  5
457
330
71
100
AcDbEntity
  8
1
 62
     2
100
AcDbMText
 10
166.2817339858158
 20
765.120076953873
 30
0.0
 40
1.8
 41
0.0
 71
     1
 72
     1
  1
document-No. / RI
  7
CONVERTER_13
 73
     1
 44
1.32052821128451
  0
TEXT
  5
458
330
71
100
AcDbEntity
  8
1
 62
     7
100
AcDbText
 10
166.2817339858158
 20
758.9200769538729
 30
0.0
 40
2.5
  1
00673132
 41
0.81
  7
CONVERTER_12
100
AcDbText
  0
MTEXT
  5
45A
330
71
100
AcDbEntity
  8
1
 62
     3
100
AcDbMText
 10
253.8673343717281
 20
758.920076953873
 30
0.0
 40
2.5
 41
0.0
 71
     8
 72
     1
  1
1:1
  7
CONVERTER_14
 73
     1
 44
1.32052821128451
  0
MTEXT
  5
45B
330
71
100
AcDbEntity
  8
1
 62
     2
100
AcDbMText
 10
250.5081302308885
 20
765.120076953873
 30
0.0
 40
1.8
 41
0.0
 71
     1
 72
     1
  1
scale
  7
CONVERTER_11
 73
     1
 44
1.20048019207683
  0
MTEXT
  5
45C
330
71
100
AcDbEntity
  8
1
 62
     2
100
AcDbMText
 10
166.2817339858158
 20
756.620076953873
 30
0.0
 40
1.8
 41
0.0
 71
     1
 72
     1
  1
ident.-No.
  7
CONVERTER_11
 73
     1
 44
1.20048019207683
  0
TEXT
  5
45D
330
71
100
AcDbEntity
  8
1
 62
     7
100
AcDbText
 10
166.6817339858155
 20
750.4200769538729
 30
0.0
 40
2.5
  1
0814788
 41
0.81
  7
CONVERTER_12
100
AcDbText
  0
MTEXT
  5
45E
330
71
100
AcDbEntity
  8
1
 62
     2
100
AcDbMText
 10
94.34371926076824
 20
753.3700769538729
 30
0.0
 40
2.0
 41
0.0
 71
     5
 72
     1
  1
General Information\P- Simplified representation\P- Document excluded from change process\P- Linear dimensions [mm]
  7
CONVERTER_11
 73
     1
 44
1.20048019207683
  0
MTEXT
  5
45F
330
71
100
AcDbEntity
  8
1
 62
     7
100
AcDbMText
 10
260.8265385125648
 20
815.6200769538749
 30
0.0
 40
3.5
 41
0.0
 71
     5
 72
     1
  1
C
  7
CONVERTER_11
 73
     1
 44
1.20048019207683
  0
MTEXT
  5
460
330
71
100
AcDbEntity
  8
1
 62
     7
100
AcDbMText
 10
260.8265385125648
 20
918.120076953873
 30
0.0
 40
3.5
 41
0.0
 71
     5
 72
     1
  1
A
  7
CONVERTER_11
 73
     1
 44
1.20048019207683
  0
MTEXT
  5
461
330
71
100
AcDbEntity
  8
1
 62
     7
100
AcDbMText
 10
260.8265385125648
 20
865.6200769538749
 30
0.0
 40
3.5
 41
0.0
 71
     5
 72
     1
  1
B
  7
CONVERTER_11
 73
     1
 44
1.20048019207683
  0
MTEXT
  5
462
330
71
100
AcDbEntity
  8
1
 62
     7
100
AcDbMText
 10
260.8265385125648
 20
763.120076953873
 30
0.0
 40
3.5
 41
0.0
 71
     5
 72
     1
  1
D
  7
CONVERTER_11
 73
     1
 44
1.20048019207683
  0
MTEXT
  5
463
330
71
100
AcDbEntity
  8
1
 62
     7
100
AcDbMText
 10
-9.42346148743383
 20
738.1200769538729
 30
0.0
 40
3.5
 41
0.0
 71
     5
 72
     1
  1
1
  7
CONVERTER_11
 73
     1
 44
1.20048019207683
  0
MTEXT
  5
464
330
71
100
AcDbEntity
  8
1
 62
     7
100
AcDbMText
 10
39.82653851256578
 20
738.1200769538729
 30
0.0
 40
3.5
 41
0.0
 71
     5
 72
     1
  1
2
  7
CONVERTER_11
 73
     1
 44
1.20048019207683
  0
MTEXT
  5
465
330
71
100
AcDbEntity
  8
1
 62
     7
100
AcDbMText
 10
89.82653851256578
 20
738.1200769538729
 30
0.0
 40
3.5
 41
0.0
 71
     5
 72
     1
  1
3
  7
CONVERTER_11
 73
     1
 44
1.20048019207683
  0
MTEXT
  5
466
330
71
100
AcDbEntity
  8
1
 62
     7
100
AcDbMText
 10
139.8265385125657
 20
738.1200769538729
 30
0.0
 40
3.5
 41
0.0
 71
     5
 72
     1
  1
4
  7
CONVERTER_11
 73
     1
 44
1.20048019207683
  0
MTEXT
  5
467
330
71
100
AcDbEntity
  8
1
 62
     7
100
AcDbMText
 10
189.8265385125658
 20
738.1200769538729
 30
0.0
 40
3.5
 41
0.0
 71
     5
 72
     1
  1
5
  7
CONVERTER_11
 73
     1
 44
1.20048019207683
  0
MTEXT
  5
468
330
71
100
AcDbEntity
  8
1
 62
     7
100
AcDbMText
 10
239.076538512565
 20
738.1200769538729
 30
0.0
 40
3.5
 41
0.0
 71
     5
 72
     1
  1
6
  7
CONVERTER_11
 73
     1
 44
1.20048019207683
  0
MTEXT
  5
469
330
71
100
AcDbEntity
  8
1
 62
     7
100
AcDbMText
 10
-31.17346148743332
 20
918.120076953873
 30
0.0
 40
3.5
 41
0.0
 71
     5
 72
     1
  1
A
  7
CONVERTER_11
 73
     1
 44
1.20048019207683
  0
MTEXT
  5
46A
330
71
100
AcDbEntity
  8
1
 62
     7
100
AcDbMText
 10
-31.17346148743332
 20
865.620076953873
 30
0.0
 40
3.5
 41
0.0
 71
     5
 72
     1
  1
B
  7
CONVERTER_11
 73
     1
 44
1.20048019207683
  0
MTEXT
  5
46B
330
71
100
AcDbEntity
  8
1
 62
     7
100
AcDbMText
 10
-31.17346148743332
 20
815.620076953873
 30
0.0
 40
3.5
 41
0.0
 71
     5
 72
     1
  1
C
  7
CONVERTER_11
 73
     1
 44
1.20048019207683
  0
MTEXT
  5
46C
330
71
100
AcDbEntity
  8
1
 62
     7
100
AcDbMText
 10
-31.17346148743332
 20
763.120076953873
 30
0.0
 40
3.5
 41
0.0
 71
     5
 72
     1
  1
D
  7
CONVERTER_11
 73
     1
 44
1.20048019207683
  0
MTEXT
  5
46D
330
71
100
AcDbEntity
  8
1
 62
     3
100
AcDbMText
 10
154.9817339858157
 20
761.745076953873
 30
0.0
 40
2.5
 41
0.0
 71
     5
 72
     1
  1
DIN A4
  7
CONVERTER_11
 73
     1
 44
1.20048019207683
  0
MTEXT
  5
46E
330
71
100
AcDbEntity
  8
1
 62
     2
100
AcDbMText
 10
166.1817339858157
 20
748.120076953873
 30
0.0
 40
1.8
 41
0.0
 71
     1
 72
     1
  1
description
  7
CONVERTER_11
 73
     1
 44
1.20048019207683
  0
MTEXT
  5
46F
330
71
100
AcDbEntity
  8
1
 62
     7
100
AcDbMText
 10
211.7541362491913
 20
743.8700769538732
 30
0.0
 40
3.0
 41
0.0
 71
     5
 72
     1
  1
KLM 3-L
  7
CONVERTER_12
 73
     1
 44
1.20048019207683
  0
TEXT
  5
470
330
71
100
AcDbEntity
  8
1
 62
     2
100
AcDbText
 10
153.2170427956293
 20
741.8700769538729
 30
0.0
 40
1.8
  1
1
 41
0.9
  7
CONVERTER_11
100
AcDbText
  0
TEXT
  5
471
330
71
100
AcDbEntity
  8
1
 62
     2
100
AcDbText
 10
138.4279989561578
 20
741.820828300071
 30
0.0
 40
1.8
  1
1
 41
0.9
  7
CONVERTER_11
100
AcDbText
  0
TEXT
  5
472
330
71
100
AcDbEntity
  8
1
 62
     2
100
AcDbText
 10
129.7817339858158
 20
741.8610597388813
 30
0.0
 40
1.8
  1
page
 41
0.9
  7
CONVERTER_11
100
AcDbText
  0
TEXT
  5
473
330
71
100
AcDbEntity
  8
1
 62
     2
100
AcDbText
 10
147.9817339858156
 20
741.8610597388813
 30
0.0
 40
1.8
  1
of
 41
0.9
  7
CONVERTER_11
100
AcDbText
  0
MTEXT
  5
474
330
71
100
AcDbEntity
  8
1
 62
     3
100
AcDbMText
 10
154.1847161374257
 20
927.4113851091718
 30
0.0
 40
1.8
 41
0.0
 71
     7
 72
     1
  3
Transfer or duplication of this document as well as the utilisation or\Pcommunication of its content are not permitted unless express consent\Pis granted. Violations give rise to claims for damages. All rights reserved\Pin case of patent, utility mo
  1
del or design patent registrations.
  7
CONVERTER_11
 73
     1
 44
0.99639855942377
  0
MTEXT
  5
475
330
71
100
AcDbEntity
  8
1
 62
     3
100
AcDbMText
 10
-28.66839370136245
 20
927.4113851091718
 30
0.0
 40
1.8
 41
0.0
 71
     7
 72
     1
  3
Weitergabe sowie Vervielf\U+00e4ltigung dieses Dokuments, Verwertung und \PMitteilung seines Inhalts sind verboten, soweit nicht ausdr\U+00fccklich gestattet. \PZuwiderhandlungen verpflichten zu Schadenersatz. Alle Rechte f\U+00fcr den Fall\Pder Pat
  1
ent-, Gebrauchsmuster- oder Designeintragung vorbehalten.
  7
CONVERTER_11
 73
     1
 44
0.99639855942377
  0
HATCH
  5
476
330
71
100
AcDbEntity
  8
1
  6
Continuous
 62
     2
100
AcDbHatch
 10
0.0
 20
0.0
 30
0.0
210
0.0
220
0.0
230
1.0
  2
_USER
 70
     0
 71
     1
 91
        1
 92
        1
 93
       14
 72
     2
 10
141.0229632617385
 20
749.4404817157946
 40
1.205656168390957
 50
164.9381082228794
 51
195.0618917770945
 73
     1
 72
     2
 10
141.4420911052013
 20
749.5532720778294
 40
1.639695123939422
 50
195.0618917770903
 51
275.1581447696353
 73
     1
 72
     2
 10
141.1532350104654
 20
752.753162661051
 40
4.852596863498157
 50
275.1581447696236
 51
285.979991258353
 73
     1
 72
     1
 10
142.4891629275832
 20
748.0880803552502
 11
142.4891629275832
 21
748.9605973620534
 72
     2
 10
141.3111078855583
 20
750.8509480812032
 40
2.227384008972719
 50
58.06909105003973
 51
71.55192388186632
 73
     0
 72
     2
 10
141.7292756192191
 20
749.597402305166
 40
0.905929784984867
 50
71.55192388183924
 51
113.3722778881304
 73
     0
 72
     2
 10
141.572835586517
 20
749.235410286456
 40
0.5115800601947035
 50
113.3722778881664
 51
151.4785267422984
 73
     0
 72
     2
 10
141.9501928445974
 20
749.4404817157946
 40
0.9410597353332545
 50
151.4785267422912
 51
208.5214732577331
 73
     0
 72
     2
 10
141.572835586517
 20
749.6455531451336
 40
0.5115800601948179
 50
208.5214732577016
 51
246.6277221118083
 73
     0
 72
     2
 10
141.7292756192191
 20
749.2835611264229
 40
0.9059297849853858
 50
246.6277221118725
 51
288.4480761181471
 73
     0
 72
     2
 10
141.3111078855583
 20
748.0300153503864
 40
2.227384008973468
 50
288.4480761181337
 51
301.9309089499603
 73
     0
 72
     1
 10
142.4891629275832
 20
749.9203660695363
 11
142.4891629275832
 21
750.7928830763395
 72
     2
 10
141.1532350104654
 20
746.1278007705387
 40
4.85259686349804
 50
74.02000874164729
 51
84.84185523037642
 73
     1
 72
     2
 10
141.4420911052013
 20
749.3276913537596
 40
1.639695123940553
 50
84.84185523036649
 51
164.9381082228867
 73
     1
 97
       14
330
44B
330
364
330
41A
330
44A
330
41B
330
41C
330
449
330
448
330
447
330
365
330
41D
330
41E
330
41F
330
420
 75
     1
 76
     0
 52
45.0
 41
0.1
 77
     0
 78
     1
 53
45.0
 43
0.0
 44
0.0
 45
-0.0707106781186548
 46
0.0707106781186548
 79
     0
 98
        1
 10
0.0
 20
0.0
  0
HATCH
  5
477
330
71
100
AcDbEntity
  8
1
  6
Continuous
 62
     2
100
AcDbHatch
 10
0.0
 20
0.0
 30
0.0
210
0.0
220
0.0
230
1.0
  2
_USER
 70
     0
 71
     1
 91
        1
 92
        1
 93
       14
 72
     2
 10
141.0229632617385
 20
749.4404817157946
 40
1.205656168390957
 50
164.9381082228794
 51
195.0618917770945
 73
     1
 72
     2
 10
141.4420911052013
 20
749.5532720778294
 40
1.639695123939422
 50
195.0618917770903
 51
275.1581447696353
 73
     1
 72
     2
 10
141.1532350104654
 20
752.753162661051
 40
4.852596863498157
 50
275.1581447696236
 51
285.979991258353
 73
     1
 72
     1
 10
142.4891629275832
 20
748.0880803552502
 11
142.4891629275832
 21
748.9605973620534
 72
     2
 10
141.3111078855583
 20
750.8509480812032
 40
2.227384008972719
 50
58.06909105003973
 51
71.55192388186632
 73
     0
 72
     2
 10
141.7292756192191
 20
749.597402305166
 40
0.905929784984867
 50
71.55192388183924
 51
113.3722778881304
 73
     0
 72
     2
 10
141.572835586517
 20
749.235410286456
 40
0.5115800601947035
 50
113.3722778881664
 51
151.4785267422984
 73
     0
 72
     2
 10
141.9501928445974
 20
749.4404817157946
 40
0.9410597353332545
 50
151.4785267422912
 51
208.5214732577331
 73
     0
 72
     2
 10
141.572835586517
 20
749.6455531451336
 40
0.5115800601948179
 50
208.5214732577016
 51
246.6277221118083
 73
     0
 72
     2
 10
141.7292756192191
 20
749.2835611264229
 40
0.9059297849853858
 50
246.6277221118725
 51
288.4480761181471
 73
     0
 72
     2
 10
141.3111078855583
 20
748.0300153503864
 40
2.227384008973468
 50
288.4480761181337
 51
301.9309089499603
 73
     0
 72
     1
 10
142.4891629275832
 20
749.9203660695363
 11
142.4891629275832
 21
750.7928830763395
 72
     2
 10
141.1532350104654
 20
746.1278007705387
 40
4.85259686349804
 50
74.02000874164729
 51
84.84185523037642
 73
     1
 72
     2
 10
141.4420911052013
 20
749.3276913537596
 40
1.639695123940553
 50
84.84185523036649
 51
164.9381082228867
 73
     1
 97
       14
330
44B
330
364
330
41A
330
44A
330
41B
330
41C
330
449
330
448
330
447
330
365
330
41D
330
41E
330
41F
330
420
 75
     1
 76
     0
 52
45.0
 41
0.1
 77
     0
 78
     1
 53
45.0
 43
0.0
 44
0.0
 45
-0.0707106781186548
 46
0.0707106781186548
 79
     0
 98
        1
 10
0.0
 20
0.0
  0
HATCH
  5
478
330
71
100
AcDbEntity
  8
1
  6
Continuous
 62
     2
100
AcDbHatch
 10
0.0
 20
0.0
 30
0.0
210
0.0
220
0.0
230
1.0
  2
_USER
 70
     0
 71
     1
 91
        1
 92
        1
 93
       18
 72
     2
 10
157.5447925844542
 20
749.3276913537596
 40
1.639695123940214
 50
90.0
 51
164.9381082228947
 73
     1
 72
     2
 10
157.1256647409926
 20
749.4404817157946
 40
1.20565616839296
 50
164.938108222905
 51
195.061891777095
 73
     1
 72
     2
 10
157.5447925844542
 20
749.5532720778294
 40
1.639695123940421
 50
195.0618917771015
 51
275.158144769676
 73
     1
 72
     2
 10
157.2559364897184
 20
752.753162661051
 40
4.852596863498822
 50
275.158144769636
 51
285.9799912583383
 73
     1
 72
     1
 10
158.5918644068351
 20
748.0880803552495
 11
158.5918644068351
 21
748.9605973620529
 72
     2
 10
157.4138093648112
 20
750.8509480812027
 40
2.227384008972719
 50
58.06909105005989
 51
71.55192388186632
 73
     0
 72
     2
 10
157.8319770984731
 20
749.597402305166
 40
0.9059297849852166
 50
71.55192388191715
 51
113.3722778881815
 73
     0
 72
     2
 10
157.67553706577
 20
749.235410286456
 40
0.5115800601959695
 50
113.3722778881547
 51
151.4785267423175
 73
     0
 72
     2
 10
158.0528943238514
 20
749.4404817157946
 40
0.941059735334906
 50
151.4785267423305
 51
208.5214732576391
 73
     0
 72
     2
 10
157.67553706577
 20
749.6455531451336
 40
0.5115800601944048
 50
208.5214732575818
 51
250.6628567805177
 73
     0
 72
     2
 10
157.8222070638737
 20
749.2275981647507
 40
0.9545230068260935
 50
250.6628567805696
 51
270.0
 73
     0
 72
     1
 10
157.8222070638737
 20
750.1821211715768
 11
158.9258463634418
 21
750.1821211715768
 72
     1
 10
158.9258463634418
 20
750.1821211715768
 11
158.9258463634418
 21
747.9135769538893
 72
     1
 10
158.9258463634418
 20
747.9135769538893
 11
160.1186390656095
 21
747.9135769538893
 72
     1
 10
160.1186390656095
 20
747.9135769538893
 11
160.1186390656095
 21
750.1821211715768
 72
     1
 10
160.1186390656095
 20
750.1821211715768
 11
160.9297381030829
 21
750.1821211715768
 72
     1
 10
160.9297381030829
 20
750.1821211715768
 11
160.9297381030829
 21
750.9673864777003
 72
     1
 10
160.9297381030829
 20
750.9673864777003
 11
157.5447925844542
 21
750.9673864776998
 97
       18
330
3CA
330
3C9
330
3C8
330
3C7
330
3CC
330
366
330
444
330
425
330
443
330
426
330
442
330
441
330
367
330
440
330
43F
330
427
330
428
330
3CB
 75
     1
 76
     0
 52
45.0
 41
0.1
 77
     0
 78
     1
 53
45.0
 43
0.0
 44
0.0
 45
-0.0707106781186548
 46
0.0707106781186548
 79
     0
 98
        1
 10
0.0
 20
0.0
  0
HATCH
  5
479
330
71
100
AcDbEntity
  8
1
  6
Continuous
 62
     2
100
AcDbHatch
 10
0.0
 20
0.0
 30
0.0
210
0.0
220
0.0
230
1.0
  2
_USER
 70
     0
 71
     1
 91
        1
 92
        1
 93
       18
 72
     2
 10
157.5447925844542
 20
749.3276913537596
 40
1.639695123940214
 50
90.0
 51
164.9381082228947
 73
     1
 72
     2
 10
157.1256647409926
 20
749.4404817157946
 40
1.20565616839296
 50
164.938108222905
 51
195.061891777095
 73
     1
 72
     2
 10
157.5447925844542
 20
749.5532720778294
 40
1.639695123940421
 50
195.0618917771015
 51
275.158144769676
 73
     1
 72
     2
 10
157.2559364897184
 20
752.753162661051
 40
4.852596863498822
 50
275.158144769636
 51
285.9799912583383
 73
     1
 72
     1
 10
158.5918644068351
 20
748.0880803552495
 11
158.5918644068351
 21
748.9605973620529
 72
     2
 10
157.4138093648112
 20
750.8509480812027
 40
2.227384008972719
 50
58.06909105005989
 51
71.55192388186632
 73
     0
 72
     2
 10
157.8319770984731
 20
749.597402305166
 40
0.9059297849852166
 50
71.55192388191715
 51
113.3722778881815
 73
     0
 72
     2
 10
157.67553706577
 20
749.235410286456
 40
0.5115800601959695
 50
113.3722778881547
 51
151.4785267423175
 73
     0
 72
     2
 10
158.0528943238514
 20
749.4404817157946
 40
0.941059735334906
 50
151.4785267423305
 51
208.5214732576391
 73
     0
 72
     2
 10
157.67553706577
 20
749.6455531451336
 40
0.5115800601944048
 50
208.5214732575818
 51
250.6628567805177
 73
     0
 72
     2
 10
157.8222070638737
 20
749.2275981647507
 40
0.9545230068260935
 50
250.6628567805696
 51
270.0
 73
     0
 72
     1
 10
157.8222070638737
 20
750.1821211715768
 11
158.9258463634418
 21
750.1821211715768
 72
     1
 10
158.9258463634418
 20
750.1821211715768
 11
158.9258463634418
 21
747.9135769538893
 72
     1
 10
158.9258463634418
 20
747.9135769538893
 11
160.1186390656095
 21
747.9135769538893
 72
     1
 10
160.1186390656095
 20
747.9135769538893
 11
160.1186390656095
 21
750.1821211715768
 72
     1
 10
160.1186390656095
 20
750.1821211715768
 11
160.9297381030829
 21
750.1821211715768
 72
     1
 10
160.9297381030829
 20
750.1821211715768
 11
160.9297381030829
 21
750.9673864777003
 72
     1
 10
160.9297381030829
 20
750.9673864777003
 11
157.5447925844542
 21
750.9673864776998
 97
       18
330
3CA
330
3C9
330
3C8
330
3C7
330
3CC
330
366
330
444
330
425
330
443
330
426
330
442
330
441
330
367
330
440
330
43F
330
427
330
428
330
3CB
 75
     1
 76
     0
 52
45.0
 41
0.1
 77
     0
 78
     1
 53
45.0
 43
0.0
 44
0.0
 45
-0.0707106781186548
 46
0.0707106781186548
 79
     0
 98
        1
 10
0.0
 20
0.0
  0
HATCH
  5
47A
330
71
100
AcDbEntity
  8
1
  6
Continuous
 62
     2
100
AcDbHatch
 10
0.0
 20
0.0
 30
0.0
210
0.0
220
0.0
230
1.0
  2
_USER
 70
     0
 71
     1
 91
        4
 92
        1
 93
        8
 72
     2
 10
133.4426334877612
 20
753.9023323384728
 40
0.4242446153838273
 50
90.0
 51
180.0
 73
     1
 72
     1
 10
133.0183888723784
 20
753.9023323384728
 11
133.0183888723784
 21
748.3378215692726
 72
     2
 10
133.4426334877612
 20
748.3378215692726
 40
0.4242446153828041
 50
180.0
 51
270.0
 73
     1
 72
     1
 10
133.4426334877612
 20
747.9135769538893
 11
138.915945578478
 21
747.9135769538893
 72
     2
 10
138.915945578478
 20
748.3378215692726
 40
0.4242446153832589
 50
270.0
 51
360.0
 73
     1
 72
     1
 10
139.3401901938618
 20
748.3378215692726
 11
139.3401901938618
 21
753.9023323384728
 72
     2
 10
138.915945578478
 20
753.9023323384728
 40
0.4242446153837989
 50
0.0
 51
90.0
 73
     1
 72
     1
 10
138.915945578478
 20
754.3265769538566
 11
133.4426334877612
 21
754.3265769538566
 97
        8
330
438
330
395
330
437
330
396
330
42E
330
393
330
439
330
394
 92
       16
 93
        1
 72
     2
 10
136.0622191382787
 20
751.5834501101173
 40
0.4709789327785074
 50
0.0
 51
360.0
 73
     1
 97
        1
330
44C
 92
       16
 93
        8
 72
     2
 10
136.0860341529515
 20
751.5834501101173
 40
0.9118481501444333
 50
295.3740086781772
 51
424.6259913218075
 73
     1
 72
     2
 10
136.6120768510394
 20
752.692591710085
 40
0.315716923076792
 50
115.3740086783609
 51
180.0
 73
     0
 72
     1
 10
136.2963599279626
 20
752.692591710085
 11
136.2963599279626
 21
753.2981269985919
 72
     2
 10
136.6120768510394
 20
753.2981269985919
 40
0.3157169230760143
 50
180.0
 51
269.8110329574489
 73
     0
 72
     2
 10
136.6176929863494
 20
751.5952920510227
 40
2.018561131933266
 50
269.8110329575858
 51
450.1889670424142
 73
     0
 72
     2
 10
136.6120768510394
 20
749.8924571034538
 40
0.315716923076792
 50
90.18896704255098
 51
180.0
 73
     0
 72
     1
 10
136.2963599279626
 20
749.8924571034538
 11
136.2963599279626
 21
750.4743085101488
 72
     2
 10
136.6120768510394
 20
750.4743085101488
 40
0.3157169230765964
 50
180.0
 51
244.6259913216479
 73
     0
 97
        8
330
446
330
422
330
3CE
330
445
330
423
330
424
330
3CD
330
421
 92
       16
 93
       12
 72
     1
 10
134.0365281645076
 20
748.6261325094462
 11
135.5123614255173
 21
748.6261325094462
 72
     2
 10
135.5123614255173
 20
748.9418494325229
 40
0.3157169230767067
 50
270.0
 51
360.0
 73
     1
 72
     1
 10
135.8280783485939
 20
748.9418494325229
 11
135.8280783485939
 21
750.4726203640545
 72
     2
 10
135.5123614255173
 20
750.4726203640545
 40
0.315716923076593
 50
0.0
 51
64.80558935146468
 73
     1
 72
     2
 10
136.0349458730923
 20
751.5834501101173
 40
0.911897523557601
 50
115.1944106485154
 51
244.8055893514694
 73
     0
 72
     2
 10
135.5123614255173
 20
752.6942798561795
 40
0.3157169230761717
 50
295.1944106485354
 51
360.0
 73
     1
 72
     1
 10
135.8280783485939
 20
752.6942798561795
 11
135.8280783485939
 21
753.29830447524
 72
     2
 10
135.5123614255173
 20
753.29830447524
 40
0.315716923076593
 50
0.0
 51
90.0
 73
     1
 72
     1
 10
135.5123614255173
 20
753.6140213983161
 11
134.0365281645076
 21
753.6140213983161
 72
     2
 10
134.0365281645076
 20
753.29830447524
 40
0.3157169230761383
 50
90.0
 51
180.0
 73
     1
 72
     1
 10
133.720811241432
 20
753.29830447524
 11
133.720811241432
 21
748.9418494325229
 72
     2
 10
134.0365281645076
 20
748.9418494325229
 40
0.3157169230755983
 50
180.0
 51
270.0
 73
     1
 97
       12
330
39A
330
42B
330
399
330
43C
330
398
330
43B
330
42C
330
42D
330
397
330
43A
330
392
330
43D
 75
     1
 76
     0
 52
45.0
 41
0.1
 77
     0
 78
     1
 53
45.0
 43
0.0
 44
0.0
 45
-0.0707106781186548
 46
0.0707106781186548
 79
     0
 98
        1
 10
0.0
 20
0.0
  0
HATCH
  5
47B
330
71
100
AcDbEntity
  8
1
  6
Continuous
 62
     2
100
AcDbHatch
 10
0.0
 20
0.0
 30
0.0
210
0.0
220
0.0
230
1.0
  2
_USER
 70
     0
 71
     1
 91
        4
 92
        1
 93
        8
 72
     2
 10
133.4426334877612
 20
753.9023323384728
 40
0.4242446153838273
 50
90.0
 51
180.0
 73
     1
 72
     1
 10
133.0183888723784
 20
753.9023323384728
 11
133.0183888723784
 21
748.3378215692726
 72
     2
 10
133.4426334877612
 20
748.3378215692726
 40
0.4242446153828041
 50
180.0
 51
270.0
 73
     1
 72
     1
 10
133.4426334877612
 20
747.9135769538893
 11
138.915945578478
 21
747.9135769538893
 72
     2
 10
138.915945578478
 20
748.3378215692726
 40
0.4242446153832589
 50
270.0
 51
360.0
 73
     1
 72
     1
 10
139.3401901938618
 20
748.3378215692726
 11
139.3401901938618
 21
753.9023323384728
 72
     2
 10
138.915945578478
 20
753.9023323384728
 40
0.4242446153837989
 50
0.0
 51
90.0
 73
     1
 72
     1
 10
138.915945578478
 20
754.3265769538566
 11
133.4426334877612
 21
754.3265769538566
 97
        8
330
438
330
395
330
437
330
396
330
42E
330
393
330
439
330
394
 92
       16
 93
        1
 72
     2
 10
136.0622191382787
 20
751.5834501101173
 40
0.4709789327785074
 50
0.0
 51
360.0
 73
     1
 97
        1
330
44C
 92
       16
 93
        8
 72
     2
 10
136.0860341529515
 20
751.5834501101173
 40
0.9118481501444333
 50
295.3740086781772
 51
424.6259913218075
 73
     1
 72
     2
 10
136.6120768510394
 20
752.692591710085
 40
0.315716923076792
 50
115.3740086783609
 51
180.0
 73
     0
 72
     1
 10
136.2963599279626
 20
752.692591710085
 11
136.2963599279626
 21
753.2981269985919
 72
     2
 10
136.6120768510394
 20
753.2981269985919
 40
0.3157169230760143
 50
180.0
 51
269.8110329574489
 73
     0
 72
     2
 10
136.6176929863494
 20
751.5952920510227
 40
2.018561131933266
 50
269.8110329575858
 51
450.1889670424142
 73
     0
 72
     2
 10
136.6120768510394
 20
749.8924571034538
 40
0.315716923076792
 50
90.18896704255098
 51
180.0
 73
     0
 72
     1
 10
136.2963599279626
 20
749.8924571034538
 11
136.2963599279626
 21
750.4743085101488
 72
     2
 10
136.6120768510394
 20
750.4743085101488
 40
0.3157169230765964
 50
180.0
 51
244.6259913216479
 73
     0
 97
        8
330
446
330
422
330
3CE
330
445
330
423
330
424
330
3CD
330
421
 92
       16
 93
       12
 72
     1
 10
134.0365281645076
 20
748.6261325094462
 11
135.5123614255173
 21
748.6261325094462
 72
     2
 10
135.5123614255173
 20
748.9418494325229
 40
0.3157169230767067
 50
270.0
 51
360.0
 73
     1
 72
     1
 10
135.8280783485939
 20
748.9418494325229
 11
135.8280783485939
 21
750.4726203640545
 72
     2
 10
135.5123614255173
 20
750.4726203640545
 40
0.315716923076593
 50
0.0
 51
64.80558935146468
 73
     1
 72
     2
 10
136.0349458730923
 20
751.5834501101173
 40
0.911897523557601
 50
115.1944106485154
 51
244.8055893514694
 73
     0
 72
     2
 10
135.5123614255173
 20
752.6942798561795
 40
0.3157169230761717
 50
295.1944106485354
 51
360.0
 73
     1
 72
     1
 10
135.8280783485939
 20
752.6942798561795
 11
135.8280783485939
 21
753.29830447524
 72
     2
 10
135.5123614255173
 20
753.29830447524
 40
0.315716923076593
 50
0.0
 51
90.0
 73
     1
 72
     1
 10
135.5123614255173
 20
753.6140213983161
 11
134.0365281645076
 21
753.6140213983161
 72
     2
 10
134.0365281645076
 20
753.29830447524
 40
0.3157169230761383
 50
90.0
 51
180.0
 73
     1
 72
     1
 10
133.720811241432
 20
753.29830447524
 11
133.720811241432
 21
748.9418494325229
 72
     2
 10
134.0365281645076
 20
748.9418494325229
 40
0.3157169230755983
 50
180.0
 51
270.0
 73
     1
 97
       12
330
39A
330
42B
330
399
330
43C
330
398
330
43B
330
42C
330
42D
330
397
330
43A
330
392
330
43D
 75
     1
 76
     0
 52
45.0
 41
0.1
 77
     0
 78
     1
 53
45.0
 43
0.0
 44
0.0
 45
-0.0707106781186548
 46
0.0707106781186548
 79
     0
 98
        1
 10
0.0
 20
0.0
  0
HATCH
  5
47C
330
71
100
AcDbEntity
  8
1
  6
Continuous
 62
     2
100
AcDbHatch
 10
0.0
 20
0.0
 30
0.0
210
0.0
220
0.0
230
1.0
  2
_USER
 70
     0
 71
     1
 91
        2
 92
        1
 93
       12
 72
     2
 10
148.1177974917505
 20
752.7996721919689
 40
1.526904761905939
 50
90.0
 51
270.0
 73
     1
 72
     1
 10
148.1177974917505
 20
751.2727674300636
 11
151.2681172155315
 21
751.2727674300636
 72
     1
 10
151.2681172155315
 20
751.2727674300636
 11
151.2681172155315
 21
751.9707810355061
 72
     1
 10
151.2681172155315
 20
751.9707810355061
 11
149.9321893891038
 21
751.9707810355061
 72
     1
 10
149.9321893891038
 20
751.9707810355061
 11
149.9321893891038
 21
752.4506653892478
 72
     1
 10
149.9321893891038
 20
752.4506653892478
 11
151.2681172155315
 21
752.4506653892478
 72
     1
 10
151.2681172155315
 20
752.4506653892478
 11
151.2681172155315
 21
753.14867899469
 72
     1
 10
151.2681172155315
 20
753.14867899469
 11
149.9321893891038
 21
753.14867899469
 72
     1
 10
149.9321893891038
 20
753.14867899469
 11
149.9321893891038
 21
753.6285633484317
 72
     1
 10
149.9321893891038
 20
753.6285633484317
 11
151.2681172155315
 21
753.6285633484317
 72
     1
 10
151.2681172155315
 20
753.6285633484317
 11
151.2681172155315
 21
754.3265769538748
 72
     1
 10
151.2681172155315
 20
754.3265769538748
 11
148.1177974917505
 21
754.3265769538748
 97
       12
330
389
330
383
330
3AA
330
3A9
330
3A8
330
3A7
330
384
330
385
330
386
330
387
330
429
330
388
 92
       16
 93
        4
 72
     2
 10
148.533809538262
 20
752.7996721919689
 40
0.7717997786797298
 50
141.8795802028384
 51
218.1204197971549
 73
     1
 72
     2
 10
148.3340695019157
 20
752.6429410138485
 40
0.5179085730134946
 50
218.1204197971541
 51
321.8795802028517
 73
     1
 72
     2
 10
148.1343294655695
 20
752.7996721919689
 40
0.7717997786796597
 50
321.879580202845
 51
398.1204197971616
 73
     1
 72
     2
 10
148.3340695019157
 20
752.9564033700893
 40
0.5179085730135616
 50
38.12041979714829
 51
141.8795802028459
 73
     1
 97
        4
330
436
330
435
330
430
330
42F
 75
     1
 76
     0
 52
45.0
 41
0.1
 77
     0
 78
     1
 53
45.0
 43
0.0
 44
0.0
 45
-0.0707106781186548
 46
0.0707106781186548
 79
     0
 98
        1
 10
0.0
 20
0.0
  0
HATCH
  5
47D
330
71
100
AcDbEntity
  8
1
  6
Continuous
 62
     2
100
AcDbHatch
 10
0.0
 20
0.0
 30
0.0
210
0.0
220
0.0
230
1.0
  2
_USER
 70
     0
 71
     1
 91
        2
 92
        1
 93
       12
 72
     2
 10
148.1177974917505
 20
752.7996721919689
 40
1.526904761905939
 50
90.0
 51
270.0
 73
     1
 72
     1
 10
148.1177974917505
 20
751.2727674300636
 11
151.2681172155315
 21
751.2727674300636
 72
     1
 10
151.2681172155315
 20
751.2727674300636
 11
151.2681172155315
 21
751.9707810355061
 72
     1
 10
151.2681172155315
 20
751.9707810355061
 11
149.9321893891038
 21
751.9707810355061
 72
     1
 10
149.9321893891038
 20
751.9707810355061
 11
149.9321893891038
 21
752.4506653892478
 72
     1
 10
149.9321893891038
 20
752.4506653892478
 11
151.2681172155315
 21
752.4506653892478
 72
     1
 10
151.2681172155315
 20
752.4506653892478
 11
151.2681172155315
 21
753.14867899469
 72
     1
 10
151.2681172155315
 20
753.14867899469
 11
149.9321893891038
 21
753.14867899469
 72
     1
 10
149.9321893891038
 20
753.14867899469
 11
149.9321893891038
 21
753.6285633484317
 72
     1
 10
149.9321893891038
 20
753.6285633484317
 11
151.2681172155315
 21
753.6285633484317
 72
     1
 10
151.2681172155315
 20
753.6285633484317
 11
151.2681172155315
 21
754.3265769538748
 72
     1
 10
151.2681172155315
 20
754.3265769538748
 11
148.1177974917505
 21
754.3265769538748
 97
       12
330
389
330
383
330
3AA
330
3A9
330
3A8
330
3A7
330
384
330
385
330
386
330
387
330
429
330
388
 92
       16
 93
        4
 72
     2
 10
148.533809538262
 20
752.7996721919689
 40
0.7717997786797298
 50
141.8795802028384
 51
218.1204197971549
 73
     1
 72
     2
 10
148.3340695019157
 20
752.6429410138485
 40
0.5179085730134946
 50
218.1204197971541
 51
321.8795802028517
 73
     1
 72
     2
 10
148.1343294655695
 20
752.7996721919689
 40
0.7717997786796597
 50
321.879580202845
 51
398.1204197971616
 73
     1
 72
     2
 10
148.3340695019157
 20
752.9564033700893
 40
0.5179085730135616
 50
38.12041979714829
 51
141.8795802028459
 73
     1
 97
        4
330
436
330
435
330
430
330
42F
 75
     1
 76
     0
 52
45.0
 41
0.1
 77
     0
 78
     1
 53
45.0
 43
0.0
 44
0.0
 45
-0.0707106781186548
 46
0.0707106781186548
 79
     0
 98
        1
 10
0.0
 20
0.0
  0
HATCH
  5
47E
330
71
100
AcDbEntity
  8
1
  6
Continuous
 62
     2
100
AcDbHatch
 10
0.0
 20
0.0
 30
0.0
210
0.0
220
0.0
230
1.0
  2
_USER
 70
     0
 71
     1
 91
        2
 92
        1
 93
        4
 72
     2
 10
144.0921821292889
 20
749.4404817157946
 40
1.458034083651465
 50
117.548148175663
 51
242.451851824337
 73
     1
 72
     2
 10
144.3731220211222
 20
749.9790567260978
 40
2.065479772208446
 50
242.4518518243384
 51
297.5481481756882
 73
     1
 72
     2
 10
144.6540619129555
 20
749.4404817157946
 40
1.458034083651977
 50
297.5481481757016
 51
422.4518518242985
 73
     1
 72
     2
 10
144.3731220211222
 20
748.9019067054918
 40
2.065479772208543
 50
62.451851824306
 51
117.5481481756674
 73
     1
 97
        4
330
434
330
431
330
433
330
432
 92
       16
 93
        4
 72
     2
 10
144.3731220211222
 20
749.5972128939151
 40
0.5179085730133126
 50
38.12041979715392
 51
141.8795802028558
 73
     1
 72
     2
 10
144.5728620574683
 20
749.4404817157946
 40
0.7717997786795031
 50
141.879580202836
 51
218.1204197971707
 73
     1
 72
     2
 10
144.3731220211222
 20
749.2837505376746
 40
0.5179085730137754
 50
218.1204197971937
 51
321.8795802027966
 73
     1
 72
     2
 10
144.1733819847757
 20
749.4404817157946
 40
0.7717997786797969
 50
321.8795802028424
 51
398.120419797151
 73
     1
 97
        4
330
417
330
418
330
419
330
416
 75
     1
 76
     0
 52
45.0
 41
0.1
 77
     0
 78
     1
 53
45.0
 43
0.0
 44
0.0
 45
-0.0707106781186548
 46
0.0707106781186548
 79
     0
 98
        1
 10
0.0
 20
0.0
  0
HATCH
  5
47F
330
71
100
AcDbEntity
  8
1
  6
Continuous
 62
     2
100
AcDbHatch
 10
0.0
 20
0.0
 30
0.0
210
0.0
220
0.0
230
1.0
  2
_USER
 70
     0
 71
     1
 91
        2
 92
        1
 93
        4
 72
     2
 10
144.0921821292889
 20
749.4404817157946
 40
1.458034083651465
 50
117.548148175663
 51
242.451851824337
 73
     1
 72
     2
 10
144.3731220211222
 20
749.9790567260978
 40
2.065479772208446
 50
242.4518518243384
 51
297.5481481756882
 73
     1
 72
     2
 10
144.6540619129555
 20
749.4404817157946
 40
1.458034083651977
 50
297.5481481757016
 51
422.4518518242985
 73
     1
 72
     2
 10
144.3731220211222
 20
748.9019067054918
 40
2.065479772208543
 50
62.451851824306
 51
117.5481481756674
 73
     1
 97
        4
330
434
330
431
330
433
330
432
 92
       16
 93
        4
 72
     2
 10
144.3731220211222
 20
749.5972128939151
 40
0.5179085730133126
 50
38.12041979715392
 51
141.8795802028558
 73
     1
 72
     2
 10
144.5728620574683
 20
749.4404817157946
 40
0.7717997786795031
 50
141.879580202836
 51
218.1204197971707
 73
     1
 72
     2
 10
144.3731220211222
 20
749.2837505376746
 40
0.5179085730137754
 50
218.1204197971937
 51
321.8795802027966
 73
     1
 72
     2
 10
144.1733819847757
 20
749.4404817157946
 40
0.7717997786797969
 50
321.8795802028424
 51
398.120419797151
 73
     1
 97
        4
330
417
330
418
330
419
330
416
 75
     1
 76
     0
 52
45.0
 41
0.1
 77
     0
 78
     1
 53
45.0
 43
0.0
 44
0.0
 45
-0.0707106781186548
 46
0.0707106781186548
 79
     0
 98
        1
 10
0.0
 20
0.0
  0
HATCH
  5
480
330
71
100
AcDbEntity
  8
1
  6
Continuous
 62
     2
100
AcDbHatch
 10
0.0
 20
0.0
 30
0.0
210
0.0
220
0.0
230
1.0
  2
_USER
 70
     0
 71
     1
 91
        2
 92
        1
 93
        6
 72
     1
 10
139.8173072747287
 20
754.3265769538748
 11
139.8173072747287
 21
751.2727674300636
 72
     1
 10
139.8173072747287
 20
751.2727674300636
 11
141.0578116849828
 21
751.2727674300636
 72
     1
 10
141.0578116849828
 20
751.2727674300636
 11
141.0578116849828
 21
752.2158456712074
 72
     1
 10
141.0578116849828
 20
752.2158456712074
 11
141.8165792727631
 21
752.2158456712074
 72
     2
 10
141.8165792727631
 20
753.271211312541
 40
1.055365641333651
 50
270.0
 51
450.0
 73
     1
 72
     1
 10
141.8165792727631
 20
754.3265769538748
 11
139.8173072747287
 21
754.3265769538748
 97
        6
330
43E
330
39B
330
391
330
390
330
39D
330
39C
 92
       16
 93
        4
 72
     1
 10
141.3751067465247
 20
753.6634711084347
 11
141.0578116849828
 21
753.6634711084347
 72
     1
 10
141.0578116849828
 20
753.6634711084347
 11
141.0578116849828
 21
752.9577434590924
 72
     1
 10
141.0578116849828
 20
752.9577434590924
 11
141.3751067465247
 21
752.9577434590924
 72
     2
 10
141.3751067465247
 20
753.3106072837636
 40
0.3528638246712035
 50
270.0
 51
450.0
 73
     1
 97
        4
330
39E
330
38F
330
39F
330
42A
 75
     1
 76
     0
 52
45.0
 41
0.1
 77
     0
 78
     1
 53
45.0
 43
0.0
 44
0.0
 45
-0.0707106781186548
 46
0.0707106781186548
 79
     0
 98
        1
 10
0.0
 20
0.0
  0
HATCH
  5
481
330
71
100
AcDbEntity
  8
1
  6
Continuous
 62
     2
100
AcDbHatch
 10
0.0
 20
0.0
 30
0.0
210
0.0
220
0.0
230
1.0
  2
_USER
 70
     0
 71
     1
 91
        2
 92
        1
 93
        6
 72
     1
 10
139.8173072747287
 20
754.3265769538748
 11
139.8173072747287
 21
751.2727674300636
 72
     1
 10
139.8173072747287
 20
751.2727674300636
 11
141.0578116849828
 21
751.2727674300636
 72
     1
 10
141.0578116849828
 20
751.2727674300636
 11
141.0578116849828
 21
752.2158456712074
 72
     1
 10
141.0578116849828
 20
752.2158456712074
 11
141.8165792727631
 21
752.2158456712074
 72
     2
 10
141.8165792727631
 20
753.271211312541
 40
1.055365641333651
 50
270.0
 51
450.0
 73
     1
 72
     1
 10
141.8165792727631
 20
754.3265769538748
 11
139.8173072747287
 21
754.3265769538748
 97
        6
330
43E
330
39B
330
391
330
390
330
39D
330
39C
 92
       16
 93
        4
 72
     1
 10
141.3751067465247
 20
753.6634711084347
 11
141.0578116849828
 21
753.6634711084347
 72
     1
 10
141.0578116849828
 20
753.6634711084347
 11
141.0578116849828
 21
752.9577434590924
 72
     1
 10
141.0578116849828
 20
752.9577434590924
 11
141.3751067465247
 21
752.9577434590924
 72
     2
 10
141.3751067465247
 20
753.3106072837636
 40
0.3528638246712035
 50
270.0
 51
450.0
 73
     1
 97
        4
330
39E
330
38F
330
39F
330
42A
 75
     1
 76
     0
 52
45.0
 41
0.1
 77
     0
 78
     1
 53
45.0
 43
0.0
 44
0.0
 45
-0.0707106781186548
 46
0.0707106781186548
 79
     0
 98
        1
 10
0.0
 20
0.0
  0
HATCH
  5
482
330
71
100
AcDbEntity
  8
1
  6
Continuous
 62
     2
100
AcDbHatch
 10
0.0
 20
0.0
 30
0.0
210
0.0
220
0.0
230
1.0
  2
_USER
 70
     0
 71
     1
 91
        1
 92
        1
 93
       12
 72
     1
 10
159.4315904691619
 20
754.3265769538748
 11
160.8343146869091
 21
754.3265769538748
 72
     1
 10
160.8343146869091
 20
754.3265769538748
 11
159.5317850561426
 21
752.8536264238386
 72
     1
 10
159.5317850561426
 20
752.8536264238386
 11
160.9297381030829
 21
751.2727674300636
 72
     1
 10
160.9297381030829
 20
751.2727674300636
 11
159.5270138853346
 21
751.2727674300636
 72
     1
 10
159.5270138853346
 20
751.2727674300636
 11
158.8304229472691
 21
752.0604992153573
 72
     1
 10
158.8304229472691
 20
752.0604992153573
 11
158.1338320092034
 21
751.2727674300636
 72
     1
 10
158.1338320092034
 20
751.2727674300636
 11
156.7311077914551
 21
751.2727674300636
 72
     1
 10
156.7311077914551
 20
751.2727674300636
 11
158.1290608383955
 21
752.8536264238386
 72
     1
 10
158.1290608383955
 20
752.8536264238386
 11
156.826531207628
 21
754.3265769538748
 72
     1
 10
156.826531207628
 20
754.3265769538748
 11
158.2292554253773
 21
754.3265769538748
 72
     1
 10
158.2292554253773
 20
754.3265769538748
 11
158.8304229472691
 21
753.6467536323192
 72
     1
 10
158.8304229472691
 20
753.6467536323192
 11
159.4315904691619
 21
754.3265769538748
 97
       12
330
36A
330
3C3
330
3C2
330
3C1
330
3C0
330
36B
330
36C
330
368
330
369
330
3C6
330
3C5
330
3C4
 75
     1
 76
     0
 52
45.0
 41
0.1
 77
     0
 78
     1
 53
45.0
 43
0.0
 44
0.0
 45
-0.0707106781186548
 46
0.0707106781186548
 79
     0
 98
        1
 10
0.0
 20
0.0
  0
HATCH
  5
483
330
71
100
AcDbEntity
  8
1
  6
Continuous
 62
     2
100
AcDbHatch
 10
0.0
 20
0.0
 30
0.0
210
0.0
220
0.0
230
1.0
  2
_USER
 70
     0
 71
     1
 91
        1
 92
        1
 93
       12
 72
     1
 10
159.4315904691619
 20
754.3265769538748
 11
160.8343146869091
 21
754.3265769538748
 72
     1
 10
160.8343146869091
 20
754.3265769538748
 11
159.5317850561426
 21
752.8536264238386
 72
     1
 10
159.5317850561426
 20
752.8536264238386
 11
160.9297381030829
 21
751.2727674300636
 72
     1
 10
160.9297381030829
 20
751.2727674300636
 11
159.5270138853346
 21
751.2727674300636
 72
     1
 10
159.5270138853346
 20
751.2727674300636
 11
158.8304229472691
 21
752.0604992153573
 72
     1
 10
158.8304229472691
 20
752.0604992153573
 11
158.1338320092034
 21
751.2727674300636
 72
     1
 10
158.1338320092034
 20
751.2727674300636
 11
156.7311077914551
 21
751.2727674300636
 72
     1
 10
156.7311077914551
 20
751.2727674300636
 11
158.1290608383955
 21
752.8536264238386
 72
     1
 10
158.1290608383955
 20
752.8536264238386
 11
156.826531207628
 21
754.3265769538748
 72
     1
 10
156.826531207628
 20
754.3265769538748
 11
158.2292554253773
 21
754.3265769538748
 72
     1
 10
158.2292554253773
 20
754.3265769538748
 11
158.8304229472691
 21
753.6467536323192
 72
     1
 10
158.8304229472691
 20
753.6467536323192
 11
159.4315904691619
 21
754.3265769538748
 97
       12
330
36A
330
3C3
330
3C2
330
3C1
330
3C0
330
36B
330
36C
330
368
330
369
330
3C6
330
3C5
330
3C4
 75
     1
 76
     0
 52
45.0
 41
0.1
 77
     0
 78
     1
 53
45.0
 43
0.0
 44
0.0
 45
-0.0707106781186548
 46
0.0707106781186548
 79
     0
 98
        1
 10
0.0
 20
0.0
  0
HATCH
  5
484
330
71
100
AcDbEntity
  8
1
  6
Continuous
 62
     2
100
AcDbHatch
 10
0.0
 20
0.0
 30
0.0
210
0.0
220
0.0
230
1.0
  2
_USER
 70
     0
 71
     1
 91
        1
 92
        1
 93
        4
 72
     1
 10
156.6118285212383
 20
754.3265769538748
 11
156.6118285212383
 21
751.2727674300636
 72
     1
 10
156.6118285212383
 20
751.2727674300636
 11
155.3713241109854
 21
751.2727674300636
 72
     1
 10
155.3713241109854
 20
751.2727674300636
 11
155.3713241109854
 21
754.3265769538748
 72
     1
 10
155.3713241109854
 20
754.3265769538748
 11
156.6118285212383
 21
754.3265769538748
 97
        4
330
3BE
330
36D
330
3BD
330
3BF
 75
     1
 76
     0
 52
45.0
 41
0.1
 77
     0
 78
     1
 53
45.0
 43
0.0
 44
0.0
 45
-0.0707106781186548
 46
0.0707106781186548
 79
     0
 98
        1
 10
0.0
 20
0.0
  0
HATCH
  5
485
330
71
100
AcDbEntity
  8
1
  6
Continuous
 62
     2
100
AcDbHatch
 10
0.0
 20
0.0
 30
0.0
210
0.0
220
0.0
230
1.0
  2
_USER
 70
     0
 71
     1
 91
        1
 92
        1
 93
        4
 72
     1
 10
156.6118285212383
 20
754.3265769538748
 11
156.6118285212383
 21
751.2727674300636
 72
     1
 10
156.6118285212383
 20
751.2727674300636
 11
155.3713241109854
 21
751.2727674300636
 72
     1
 10
155.3713241109854
 20
751.2727674300636
 11
155.3713241109854
 21
754.3265769538748
 72
     1
 10
155.3713241109854
 20
754.3265769538748
 11
156.6118285212383
 21
754.3265769538748
 97
        4
330
3BE
330
36D
330
3BD
330
3BF
 75
     1
 76
     0
 52
45.0
 41
0.1
 77
     0
 78
     1
 53
45.0
 43
0.0
 44
0.0
 45
-0.0707106781186548
 46
0.0707106781186548
 79
     0
 98
        1
 10
0.0
 20
0.0
  0
HATCH
  5
486
330
71
100
AcDbEntity
  8
1
  6
Continuous
 62
     2
100
AcDbHatch
 10
0.0
 20
0.0
 30
0.0
210
0.0
220
0.0
230
1.0
  2
_USER
 70
     0
 71
     1
 91
        2
 92
        1
 93
        8
 72
     1
 10
156.2213845177063
 20
747.9135769538893
 11
154.9808801074524
 21
747.9135769538893
 72
     1
 10
154.9808801074524
 20
747.9135769538893
 11
154.7694000539766
 21
748.4545374981071
 72
     1
 10
154.7694000539766
 20
748.4545374981071
 11
153.6369584773028
 21
748.4545374981071
 72
     1
 10
153.6369584773028
 20
748.4545374981071
 11
153.425478423827
 21
747.9135769538893
 72
     1
 10
153.425478423827
 20
747.9135769538893
 11
152.184974013574
 21
747.9135769538893
 72
     1
 10
152.184974013574
 20
747.9135769538893
 11
153.5829270605133
 21
750.9673864777003
 72
     1
 10
153.5829270605133
 20
750.9673864777003
 11
154.823431470766
 21
750.9673864777003
 72
     1
 10
154.823431470766
 20
750.9673864777003
 11
156.2213845177063
 21
747.9135769538893
 97
        8
330
3B9
330
373
330
3B8
330
3BB
330
370
330
3BA
330
371
330
372
 92
       16
 93
        3
 72
     1
 10
153.9030140284478
 20
749.1351007634138
 11
154.5033445028303
 21
749.1351007634138
 72
     1
 10
154.5033445028303
 20
749.1351007634138
 11
154.2031792656402
 21
749.9029157294004
 72
     1
 10
154.2031792656402
 20
749.9029157294004
 11
153.9030140284478
 21
749.1351007634138
 97
        3
330
36F
330
36E
330
3BC
 75
     1
 76
     0
 52
45.0
 41
0.1
 77
     0
 78
     1
 53
45.0
 43
0.0
 44
0.0
 45
-0.0707106781186548
 46
0.0707106781186548
 79
     0
 98
        1
 10
0.0
 20
0.0
  0
HATCH
  5
487
330
71
100
AcDbEntity
  8
1
  6
Continuous
 62
     2
100
AcDbHatch
 10
0.0
 20
0.0
 30
0.0
210
0.0
220
0.0
230
1.0
  2
_USER
 70
     0
 71
     1
 91
        2
 92
        1
 93
        8
 72
     1
 10
156.2213845177063
 20
747.9135769538893
 11
154.9808801074524
 21
747.9135769538893
 72
     1
 10
154.9808801074524
 20
747.9135769538893
 11
154.7694000539766
 21
748.4545374981071
 72
     1
 10
154.7694000539766
 20
748.4545374981071
 11
153.6369584773028
 21
748.4545374981071
 72
     1
 10
153.6369584773028
 20
748.4545374981071
 11
153.425478423827
 21
747.9135769538893
 72
     1
 10
153.425478423827
 20
747.9135769538893
 11
152.184974013574
 21
747.9135769538893
 72
     1
 10
152.184974013574
 20
747.9135769538893
 11
153.5829270605133
 21
750.9673864777003
 72
     1
 10
153.5829270605133
 20
750.9673864777003
 11
154.823431470766
 21
750.9673864777003
 72
     1
 10
154.823431470766
 20
750.9673864777003
 11
156.2213845177063
 21
747.9135769538893
 97
        8
330
3B9
330
373
330
3B8
330
3BB
330
370
330
3BA
330
371
330
372
 92
       16
 93
        3
 72
     1
 10
153.9030140284478
 20
749.1351007634138
 11
154.5033445028303
 21
749.1351007634138
 72
     1
 10
154.5033445028303
 20
749.1351007634138
 11
154.2031792656402
 21
749.9029157294004
 72
     1
 10
154.2031792656402
 20
749.9029157294004
 11
153.9030140284478
 21
749.1351007634138
 97
        3
330
36F
330
36E
330
3BC
 75
     1
 76
     0
 52
45.0
 41
0.1
 77
     0
 78
     1
 53
45.0
 43
0.0
 44
0.0
 45
-0.0707106781186548
 46
0.0707106781186548
 79
     0
 98
        1
 10
0.0
 20
0.0
  0
HATCH
  5
488
330
71
100
AcDbEntity
  8
1
  6
Continuous
 62
     2
100
AcDbHatch
 10
0.0
 20
0.0
 30
0.0
210
0.0
220
0.0
230
1.0
  2
_USER
 70
     0
 71
     1
 91
        1
 92
        1
 93
        8
 72
     1
 10
150.0274618743918
 20
750.9673864777003
 11
150.0274618743918
 21
750.1821211715768
 72
     1
 10
150.0274618743918
 20
750.1821211715768
 11
150.8385609118664
 21
750.1821211715768
 72
     1
 10
150.8385609118664
 20
750.1821211715768
 11
150.8385609118664
 21
747.9135769538893
 72
     1
 10
150.8385609118664
 20
747.9135769538893
 11
152.0313536140329
 21
747.9135769538893
 72
     1
 10
152.0313536140329
 20
747.9135769538893
 11
152.0313536140329
 21
750.1821211715768
 72
     1
 10
152.0313536140329
 20
750.1821211715768
 11
152.8424526515054
 21
750.1821211715768
 72
     1
 10
152.8424526515054
 20
750.1821211715768
 11
152.8424526515054
 21
750.9673864777003
 72
     1
 10
152.8424526515054
 20
750.9673864777003
 11
150.0274618743918
 21
750.9673864777003
 97
        8
330
3B5
330
3B4
330
3B3
330
374
330
375
330
3B7
330
376
330
3B6
 75
     1
 76
     0
 52
45.0
 41
0.1
 77
     0
 78
     1
 53
45.0
 43
0.0
 44
0.0
 45
-0.0707106781186548
 46
0.0707106781186548
 79
     0
 98
        1
 10
0.0
 20
0.0
  0
HATCH
  5
489
330
71
100
AcDbEntity
  8
1
  6
Continuous
 62
     2
100
AcDbHatch
 10
0.0
 20
0.0
 30
0.0
210
0.0
220
0.0
230
1.0
  2
_USER
 70
     0
 71
     1
 91
        1
 92
        1
 93
        8
 72
     1
 10
150.0274618743918
 20
750.9673864777003
 11
150.0274618743918
 21
750.1821211715768
 72
     1
 10
150.0274618743918
 20
750.1821211715768
 11
150.8385609118664
 21
750.1821211715768
 72
     1
 10
150.8385609118664
 20
750.1821211715768
 11
150.8385609118664
 21
747.9135769538893
 72
     1
 10
150.8385609118664
 20
747.9135769538893
 11
152.0313536140329
 21
747.9135769538893
 72
     1
 10
152.0313536140329
 20
747.9135769538893
 11
152.0313536140329
 21
750.1821211715768
 72
     1
 10
152.0313536140329
 20
750.1821211715768
 11
152.8424526515054
 21
750.1821211715768
 72
     1
 10
152.8424526515054
 20
750.1821211715768
 11
152.8424526515054
 21
750.9673864777003
 72
     1
 10
152.8424526515054
 20
750.9673864777003
 11
150.0274618743918
 21
750.9673864777003
 97
        8
330
3B5
330
3B4
330
3B3
330
374
330
375
330
3B7
330
376
330
3B6
 75
     1
 76
     0
 52
45.0
 41
0.1
 77
     0
 78
     1
 53
45.0
 43
0.0
 44
0.0
 45
-0.0707106781186548
 46
0.0707106781186548
 79
     0
 98
        1
 10
0.0
 20
0.0
  0
HATCH
  5
48A
330
71
100
AcDbEntity
  8
1
  6
Continuous
 62
     2
100
AcDbHatch
 10
0.0
 20
0.0
 30
0.0
210
0.0
220
0.0
230
1.0
  2
_USER
 70
     0
 71
     1
 91
        1
 92
        1
 93
       10
 72
     1
 10
152.6994684581309
 20
754.3265769538748
 11
151.5066757559644
 21
754.3265769538748
 72
     1
 10
151.5066757559644
 20
754.3265769538748
 11
151.5066757559644
 21
751.2727674300636
 72
     1
 10
151.5066757559644
 20
751.2727674300636
 11
152.6994684581309
 21
751.2727674300636
 72
     1
 10
152.6994684581309
 20
751.2727674300636
 11
152.6994684581309
 21
752.5815429402683
 72
     1
 10
152.6994684581309
 20
752.5815429402683
 11
153.9399728683849
 21
751.2727674300636
 72
     1
 10
153.9399728683849
 20
751.2727674300636
 11
155.1327655705515
 21
751.2727674300636
 72
     1
 10
155.1327655705515
 20
751.2727674300636
 11
155.1327655705515
 21
754.3265769538748
 72
     1
 10
155.1327655705515
 20
754.3265769538748
 11
153.9399728683849
 21
754.3265769538748
 72
     1
 10
153.9399728683849
 20
754.3265769538748
 11
153.9399728683849
 21
753.0178014436696
 72
     1
 10
153.9399728683849
 20
753.0178014436696
 11
152.6994684581309
 21
754.3265769538748
 97
       10
330
3AF
330
379
330
37A
330
37B
330
37C
330
3B2
330
377
330
3B1
330
3B0
330
378
 75
     1
 76
     0
 52
45.0
 41
0.1
 77
     0
 78
     1
 53
45.0
 43
0.0
 44
0.0
 45
-0.0707106781186548
 46
0.0707106781186548
 79
     0
 98
        1
 10
0.0
 20
0.0
  0
HATCH
  5
48B
330
71
100
AcDbEntity
  8
1
  6
Continuous
 62
     2
100
AcDbHatch
 10
0.0
 20
0.0
 30
0.0
210
0.0
220
0.0
230
1.0
  2
_USER
 70
     0
 71
     1
 91
        1
 92
        1
 93
       10
 72
     1
 10
152.6994684581309
 20
754.3265769538748
 11
151.5066757559644
 21
754.3265769538748
 72
     1
 10
151.5066757559644
 20
754.3265769538748
 11
151.5066757559644
 21
751.2727674300636
 72
     1
 10
151.5066757559644
 20
751.2727674300636
 11
152.6994684581309
 21
751.2727674300636
 72
     1
 10
152.6994684581309
 20
751.2727674300636
 11
152.6994684581309
 21
752.5815429402683
 72
     1
 10
152.6994684581309
 20
752.5815429402683
 11
153.9399728683849
 21
751.2727674300636
 72
     1
 10
153.9399728683849
 20
751.2727674300636
 11
155.1327655705515
 21
751.2727674300636
 72
     1
 10
155.1327655705515
 20
751.2727674300636
 11
155.1327655705515
 21
754.3265769538748
 72
     1
 10
155.1327655705515
 20
754.3265769538748
 11
153.9399728683849
 21
754.3265769538748
 72
     1
 10
153.9399728683849
 20
754.3265769538748
 11
153.9399728683849
 21
753.0178014436696
 72
     1
 10
153.9399728683849
 20
753.0178014436696
 11
152.6994684581309
 21
754.3265769538748
 97
       10
330
3AF
330
379
330
37A
330
37B
330
37C
330
3B2
330
377
330
3B1
330
3B0
330
378
 75
     1
 76
     0
 52
45.0
 41
0.1
 77
     0
 78
     1
 53
45.0
 43
0.0
 44
0.0
 45
-0.0707106781186548
 46
0.0707106781186548
 79
     0
 98
        1
 10
0.0
 20
0.0
  0
HATCH
  5
48C
330
71
100
AcDbEntity
  8
1
  6
Continuous
 62
     2
100
AcDbHatch
 10
0.0
 20
0.0
 30
0.0
210
0.0
220
0.0
230
1.0
  2
_USER
 70
     0
 71
     1
 91
        1
 92
        1
 93
       10
 72
     1
 10
147.4510296377123
 20
750.9673864777003
 11
146.2582369355447
 21
750.9673864777003
 72
     1
 10
146.2582369355447
 20
750.9673864777003
 11
146.2582369355447
 21
747.9135769538893
 72
     1
 10
146.2582369355447
 20
747.9135769538893
 11
147.4510296377123
 21
747.9135769538893
 72
     1
 10
147.4510296377123
 20
747.9135769538893
 11
147.4510296377123
 21
749.2223524640939
 72
     1
 10
147.4510296377123
 20
749.2223524640939
 11
148.6915340479652
 21
747.9135769538893
 72
     1
 10
148.6915340479652
 20
747.9135769538893
 11
149.8843267501316
 21
747.9135769538893
 72
     1
 10
149.8843267501316
 20
747.9135769538893
 11
149.8843267501316
 21
750.9673864777003
 72
     1
 10
149.8843267501316
 20
750.9673864777003
 11
148.6915340479652
 21
750.9673864777003
 72
     1
 10
148.6915340479652
 20
750.9673864777003
 11
148.6915340479652
 21
749.6586109674953
 72
     1
 10
148.6915340479652
 20
749.6586109674953
 11
147.4510296377123
 21
750.9673864777003
 97
       10
330
37E
330
37F
330
380
330
3AC
330
381
330
382
330
3AB
330
3AE
330
3AD
330
37D
 75
     1
 76
     0
 52
45.0
 41
0.1
 77
     0
 78
     1
 53
45.0
 43
0.0
 44
0.0
 45
-0.0707106781186548
 46
0.0707106781186548
 79
     0
 98
        1
 10
0.0
 20
0.0
  0
HATCH
  5
48D
330
71
100
AcDbEntity
  8
1
  6
Continuous
 62
     2
100
AcDbHatch
 10
0.0
 20
0.0
 30
0.0
210
0.0
220
0.0
230
1.0
  2
_USER
 70
     0
 71
     1
 91
        1
 92
        1
 93
       10
 72
     1
 10
147.4510296377123
 20
750.9673864777003
 11
146.2582369355447
 21
750.9673864777003
 72
     1
 10
146.2582369355447
 20
750.9673864777003
 11
146.2582369355447
 21
747.9135769538893
 72
     1
 10
146.2582369355447
 20
747.9135769538893
 11
147.4510296377123
 21
747.9135769538893
 72
     1
 10
147.4510296377123
 20
747.9135769538893
 11
147.4510296377123
 21
749.2223524640939
 72
     1
 10
147.4510296377123
 20
749.2223524640939
 11
148.6915340479652
 21
747.9135769538893
 72
     1
 10
148.6915340479652
 20
747.9135769538893
 11
149.8843267501316
 21
747.9135769538893
 72
     1
 10
149.8843267501316
 20
747.9135769538893
 11
149.8843267501316
 21
750.9673864777003
 72
     1
 10
149.8843267501316
 20
750.9673864777003
 11
148.6915340479652
 21
750.9673864777003
 72
     1
 10
148.6915340479652
 20
750.9673864777003
 11
148.6915340479652
 21
749.6586109674953
 72
     1
 10
148.6915340479652
 20
749.6586109674953
 11
147.4510296377123
 21
750.9673864777003
 97
       10
330
37E
330
37F
330
380
330
3AC
330
381
330
382
330
3AB
330
3AE
330
3AD
330
37D
 75
     1
 76
     0
 52
45.0
 41
0.1
 77
     0
 78
     1
 53
45.0
 43
0.0
 44
0.0
 45
-0.0707106781186548
 46
0.0707106781186548
 79
     0
 98
        1
 10
0.0
 20
0.0
  0
HATCH
  5
48E
330
71
100
AcDbEntity
  8
1
  6
Continuous
 62
     2
100
AcDbHatch
 10
0.0
 20
0.0
 30
0.0
210
0.0
220
0.0
230
1.0
  2
_USER
 70
     0
 71
     1
 91
        1
 92
        1
 93
       12
 72
     1
 10
146.4492346987769
 20
754.3265769538748
 11
146.4492346987769
 21
751.2727674300636
 72
     1
 10
146.4492346987769
 20
751.2727674300636
 11
145.2564419966105
 21
751.2727674300636
 72
     1
 10
145.2564419966105
 20
751.2727674300636
 11
145.2564419966105
 21
752.4070395389074
 72
     1
 10
145.2564419966105
 20
752.4070395389074
 11
144.206784418703
 21
752.4070395389074
 72
     1
 10
144.206784418703
 20
752.4070395389074
 11
144.206784418703
 21
751.2727674300636
 72
     1
 10
144.206784418703
 20
751.2727674300636
 11
143.0139917165364
 21
751.2727674300636
 72
     1
 10
143.0139917165364
 20
751.2727674300636
 11
143.0139917165364
 21
754.3265769538748
 72
     1
 10
143.0139917165364
 20
754.3265769538748
 11
144.206784418703
 21
754.3265769538748
 72
     1
 10
144.206784418703
 20
754.3265769538748
 11
144.206784418703
 21
753.2577436205402
 72
     1
 10
144.206784418703
 20
753.2577436205402
 11
145.2564419966105
 21
753.2577436205402
 72
     1
 10
145.2564419966105
 20
753.2577436205402
 11
145.2564419966105
 21
754.3265769538748
 72
     1
 10
145.2564419966105
 20
754.3265769538748
 11
146.4492346987769
 21
754.3265769538748
 97
       12
330
3A6
330
3A5
330
3A4
330
38C
330
38D
330
3A3
330
38E
330
3A2
330
3A1
330
3A0
330
38A
330
38B
 75
     1
 76
     0
 52
45.0
 41
0.1
 77
     0
 78
     1
 53
45.0
 43
0.0
 44
0.0
 45
-0.0707106781186548
 46
0.0707106781186548
 79
     0
 98
        1
 10
0.0
 20
0.0
  0
HATCH
  5
48F
330
71
100
AcDbEntity
  8
1
  6
Continuous
 62
     2
100
AcDbHatch
 10
0.0
 20
0.0
 30
0.0
210
0.0
220
0.0
230
1.0
  2
_USER
 70
     0
 71
     1
 91
        1
 92
        1
 93
       12
 72
     1
 10
146.4492346987769
 20
754.3265769538748
 11
146.4492346987769
 21
751.2727674300636
 72
     1
 10
146.4492346987769
 20
751.2727674300636
 11
145.2564419966105
 21
751.2727674300636
 72
     1
 10
145.2564419966105
 20
751.2727674300636
 11
145.2564419966105
 21
752.4070395389074
 72
     1
 10
145.2564419966105
 20
752.4070395389074
 11
144.206784418703
 21
752.4070395389074
 72
     1
 10
144.206784418703
 20
752.4070395389074
 11
144.206784418703
 21
751.2727674300636
 72
     1
 10
144.206784418703
 20
751.2727674300636
 11
143.0139917165364
 21
751.2727674300636
 72
     1
 10
143.0139917165364
 20
751.2727674300636
 11
143.0139917165364
 21
754.3265769538748
 72
     1
 10
143.0139917165364
 20
754.3265769538748
 11
144.206784418703
 21
754.3265769538748
 72
     1
 10
144.206784418703
 20
754.3265769538748
 11
144.206784418703
 21
753.2577436205402
 72
     1
 10
144.206784418703
 20
753.2577436205402
 11
145.2564419966105
 21
753.2577436205402
 72
     1
 10
145.2564419966105
 20
753.2577436205402
 11
145.2564419966105
 21
754.3265769538748
 72
     1
 10
145.2564419966105
 20
754.3265769538748
 11
146.4492346987769
 21
754.3265769538748
 97
       12
330
3A6
330
3A5
330
3A4
330
38C
330
38D
330
3A3
330
38E
330
3A2
330
3A1
330
3A0
330
38A
330
38B
 75
     1
 76
     0
 52
45.0
 41
0.1
 77
     0
 78
     1
 53
45.0
 43
0.0
 44
0.0
 45
-0.0707106781186548
 46
0.0707106781186548
 79
     0
 98
        1
 10
0.0
 20
0.0
  0
ENDBLK
  5
73
330
71
100
AcDbEntity
  8
0
100
AcDbBlockEnd
  0
BLOCK
  5
75
330
74
100
AcDbEntity
  8
0
100
AcDbBlockBegin
  2
_punkt
 70
     0
 10
258.3265385125658
 20
740.620076953873
 30
0.0
  3
_punkt
  1

  0
LINE
  5
490
330
74
100
AcDbEntity
  8
1
  6
Continuous
 62
     2
100
AcDbLine
 10
258.3265385125658
 20
740.620076953873
 30
0.0
 11
258.3265385125658
 21
735.6200769538729
 31
0.0
  0
LINE
  5
491
330
74
100
AcDbEntity
  8
1
  6
Continuous
 62
     2
100
AcDbLine
 10
258.3265385125658
 20
740.620076953873
 30
0.0
 11
263.3265385125648
 21
740.620076953873
 31
0.0
  0
ENDBLK
  5
76
330
74
100
AcDbEntity
  8
0
100
AcDbBlockEnd
  0
BLOCK
  5
7A
330
77
100
AcDbEntity
  8
0
100
AcDbBlockBegin
  2
A4I_CS
 70
     0
 10
258.3265385125658
 20
735.6200769538729
 30
0.0
  3
A4I_CS
  1

  0
INSERT
  5
78
330
77
100
AcDbEntity
  8
1
100
AcDbBlockReference
  2
_rahmen
 10
258.3265385125658
 20
735.6200769538729
 30
0.0
  0
INSERT
  5
79
330
77
100
AcDbEntity
  8
1
100
AcDbBlockReference
  2
_punkt
 10
258.3265385125658
 20
740.620076953873
 30
0.0
  0
ENDBLK
  5
7B
330
77
100
AcDbEntity
  8
0
100
AcDbBlockEnd
  0
BLOCK
  5
84
330
7C
100
AcDbEntity
  8
0
100
AcDbBlockBegin
  2
1
 70
     0
 10
0.0
 20
0.0
 30
0.0
  3
1
  1

  0
INSERT
  5
7D
330
7C
100
AcDbEntity
  8
0
100
AcDbBlockReference
  2
AllgSicht1
 10
227.0000000000692
 20
813.2717260531459
 30
0.0
  0
INSERT
  5
7E
330
7C
100
AcDbEntity
  8
0
100
AcDbBlockReference
  2
Drfsicht1
 10
67.40000194183342
 20
789.8803082544366
 30
0.0
  0
INSERT
  5
7F
330
7C
100
AcDbEntity
  8
0
100
AcDbBlockReference
  2
Rckans1
 10
176.5999980581668
 20
861.0000000000102
 30
0.0
  0
INSERT
  5
80
330
7C
100
AcDbEntity
  8
0
100
AcDbBlockReference
  2
SA_Links1
 10
126.0
 20
861.0000000000102
 30
0.0
  0
INSERT
  5
81
330
7C
100
AcDbEntity
  8
0
100
AcDbBlockReference
  2
SA_Rechts1
 10
19.80000388350677
 20
861.00000000001
 30
0.0
  0
INSERT
  5
82
330
7C
100
AcDbEntity
  8
0
100
AcDbBlockReference
  2
Vordans1
 10
67.40000194183342
 20
861.00000000001
 30
0.0
  0
INSERT
  5
83
330
7C
100
AcDbEntity
  8
0
100
AcDbBlockReference
  2
A4I_CS
 10
258.3265385125658
 20
735.6200769538729
 30
0.0
  0
ENDBLK
  5
85
330
7C
100
AcDbEntity
  8
0
100
AcDbBlockEnd
  0
BLOCK
  5
14C
330
143
100
AcDbEntity
  8
0
100
AcDbBlockBegin
  2
*D17
 70
     1
 10
0.0
 20
0.0
 30
0.0
  3
*D17
  1

  0
LINE
  5
144
330
143
100
AcDbEntity
  8
1
  6
Continuous
 62
     2
100
AcDbLine
 10
46.60000086790009
 20
777.8803080615947
 30
0.0
 11
46.60000086790009
 21
784.8803080615947
 31
0.0
  0
LINE
  5
145
330
143
100
AcDbEntity
  8
1
  6
Continuous
 62
     2
100
AcDbLine
 10
46.60000086790009
 20
784.8803080615947
 30
0.0
 11
46.60000086790009
 21
794.8803080615947
 31
0.0
  0
LINE
  5
146
330
143
100
AcDbEntity
  8
1
  6
Continuous
 62
     2
100
AcDbLine
 10
46.60000086790009
 20
794.8803080615947
 30
0.0
 11
46.60000086790009
 21
801.8803080615947
 31
0.0
  0
LINE
  5
147
330
143
100
AcDbEntity
  8
1
  6
Continuous
 62
     2
100
AcDbLine
 10
56.60000086790009
 20
784.8803080615947
 30
0.0
 11
44.60000086790009
 21
784.8803080615947
 31
0.0
  0
LINE
  5
148
330
143
100
AcDbEntity
  8
1
  6
Continuous
 62
     2
100
AcDbLine
 10
56.60000086790009
 20
794.8803080615947
 30
0.0
 11
44.60000086790009
 21
794.8803080615947
 31
0.0
  0
SOLID
  5
149
330
143
100
AcDbEntity
  8
1
 62
     2
100
AcDbTrace
 10
47.06078460945598
 20
781.3803080615947
 30
0.0
 11
46.13921712634421
 21
781.3803080615947
 31
0.0
 12
46.60000086790009
 22
784.8803080615947
 32
0.0
 13
46.60000086790009
 23
784.8803080615947
 33
0.0
  0
SOLID
  5
14A
330
143
100
AcDbEntity
  8
1
 62
     2
100
AcDbTrace
 10
46.13921712634421
 20
798.3803080615947
 30
0.0
 11
47.06078460945598
 21
798.3803080615947
 31
0.0
 12
46.60000086790009
 22
794.8803080615947
 32
0.0
 13
46.60000086790009
 23
794.8803080615947
 33
0.0
  0
MTEXT
  5
14B
330
143
100
AcDbEntity
  8
1
 62
     3
100
AcDbMText
 10
44.60000086790009
 20
788.5900497459493
 30
0.0
 40
3.5
 41
0.0
 71
     7
 72
     1
  1
10
  7
CONVERTER_11
 11
0.0
 21
1.0
 31
0.0
 73
     1
 44
0.60024009603842
  0
ENDBLK
  5
14D
330
143
100
AcDbEntity
  8
0
100
AcDbBlockEnd
  0
BLOCK
  5
33F
330
338
100
AcDbEntity
  8
0
100
AcDbBlockBegin
  2
*D18
 70
     1
 10
0.0
 20
0.0
 30
0.0
  3
*D18
  1

  0
LINE
  5
339
330
338
100
AcDbEntity
  8
1
  6
Continuous
 62
     2
100
AcDbLine
 10
56.60000086790009
 20
907.7598458461512
 30
0.0
 11
78.20000086790009
 21
907.7598458461512
 31
0.0
  0
LINE
  5
33A
330
338
100
AcDbEntity
  8
1
  6
Continuous
 62
     2
100
AcDbLine
 10
56.60000086790009
 20
897.7598458461512
 30
0.0
 11
56.60000086790009
 21
909.2598458461512
 31
0.0
  0
LINE
  5
33B
330
338
100
AcDbEntity
  8
1
  6
Continuous
 62
     2
100
AcDbLine
 10
78.20000086790009
 20
896.7598458461512
 30
0.0
 11
78.20000086790009
 21
909.2598458461512
 31
0.0
  0
SOLID
  5
33C
330
338
100
AcDbEntity
  8
1
 62
     2
100
AcDbTrace
 10
60.10000086790009
 20
908.2206295877071
 30
0.0
 11
60.10000086790009
 21
907.2990621045952
 31
0.0
 12
56.60000086790009
 22
907.7598458461512
 32
0.0
 13
56.60000086790009
 23
907.7598458461512
 33
0.0
  0
SOLID
  5
33D
330
338
100
AcDbEntity
  8
1
 62
     2
100
AcDbTrace
 10
74.70000086790009
 20
907.2990621045952
 30
0.0
 11
74.70000086790009
 21
908.2206295877071
 31
0.0
 12
78.20000086790009
 22
907.7598458461512
 32
0.0
 13
78.20000086790009
 23
907.7598458461512
 33
0.0
  0
MTEXT
  5
33E
330
338
100
AcDbEntity
  8
1
 62
     3
100
AcDbMText
 10
62.57698301320266
 20
909.6098458461511
 30
0.0
 40
3.5
 41
0.0
 71
     7
 72
     1
  1
21,6
  7
CONVERTER_11
 11
0.9999999999970619
 21
2.424068405545306E-6
 31
0.0
 73
     1
 44
0.60024009603842
  0
ENDBLK
  5
340
330
338
100
AcDbEntity
  8
0
100
AcDbBlockEnd
  0
BLOCK
  5
34A
330
343
100
AcDbEntity
  8
0
100
AcDbBlockBegin
  2
*D19
 70
     1
 10
0.0
 20
0.0
 30
0.0
  3
*D19
  1

  0
LINE
  5
344
330
343
100
AcDbEntity
  8
1
  6
Continuous
 62
     2
100
AcDbLine
 10
47.20000086790009
 20
897.7598458461512
 30
0.0
 11
47.20000086790009
 21
823.9598225497386
 31
0.0
  0
LINE
  5
345
330
343
100
AcDbEntity
  8
1
  6
Continuous
 62
     2
100
AcDbLine
 10
57.20000086790009
 20
897.7598458461512
 30
0.0
 11
45.70000086790009
 21
897.7598458461512
 31
0.0
  0
LINE
  5
346
330
343
100
AcDbEntity
  8
1
  6
Continuous
 62
     2
100
AcDbLine
 10
63.47269768289329
 20
823.9598225497386
 30
0.0
 11
45.70000086790009
 21
823.9598225497386
 31
0.0
  0
SOLID
  5
347
330
343
100
AcDbEntity
  8
1
 62
     2
100
AcDbTrace
 10
47.66078460945597
 20
894.2598458461512
 30
0.0
 11
46.7392171263442
 21
894.2598458461512
 31
0.0
 12
47.20000086790009
 22
897.7598458461512
 32
0.0
 13
47.20000086790009
 23
897.7598458461512
 33
0.0
  0
SOLID
  5
348
330
343
100
AcDbEntity
  8
1
 62
     2
100
AcDbTrace
 10
46.7392171263442
 20
827.4598225497386
 30
0.0
 11
47.66078460945597
 21
827.4598225497386
 31
0.0
 12
47.20000086790009
 22
823.9598225497386
 32
0.0
 13
47.20000086790009
 23
823.9598225497386
 33
0.0
  0
MTEXT
  5
349
330
343
100
AcDbEntity
  8
1
 62
     3
100
AcDbMText
 10
45.35000086790009
 20
858.409116971523
 30
0.0
 40
3.5
 41
0.0
 71
     7
 72
     1
  1
73,8
  7
CONVERTER_11
 11
0.0
 21
1.0
 31
0.0
 73
     1
 44
0.60024009603842
  0
ENDBLK
  5
34B
330
343
100
AcDbEntity
  8
0
100
AcDbBlockEnd
  0
BLOCK
  5
355
330
34E
100
AcDbEntity
  8
0
100
AcDbBlockBegin
  2
*D20
 70
     1
 10
0.0
 20
0.0
 30
0.0
  3
*D20
  1

  0
LINE
  5
34F
330
34E
100
AcDbEntity
  8
1
  6
Continuous
 62
     2
100
AcDbLine
 10
39.20000086790009
 20
898.0598458461511
 30
0.0
 11
39.20000086790009
 21
823.9598225497386
 31
0.0
  0
LINE
  5
350
330
34E
100
AcDbEntity
  8
1
  6
Continuous
 62
     2
100
AcDbLine
 10
56.60000086790009
 20
898.0598458461511
 30
0.0
 11
37.70000086790009
 21
898.0598458461511
 31
0.0
  0
LINE
  5
351
330
34E
100
AcDbEntity
  8
1
  6
Continuous
 62
     2
100
AcDbLine
 10
63.4726976828933
 20
823.9598225497386
 30
0.0
 11
37.70000086790009
 21
823.9598225497386
 31
0.0
  0
SOLID
  5
352
330
34E
100
AcDbEntity
  8
1
 62
     2
100
AcDbTrace
 10
39.66078460945597
 20
894.5598458461511
 30
0.0
 11
38.7392171263442
 21
894.5598458461511
 31
0.0
 12
39.20000086790009
 22
898.0598458461511
 32
0.0
 13
39.20000086790009
 23
898.0598458461511
 33
0.0
  0
SOLID
  5
353
330
34E
100
AcDbEntity
  8
1
 62
     2
100
AcDbTrace
 10
38.7392171263442
 20
827.4598225497386
 30
0.0
 11
39.66078460945597
 21
827.4598225497386
 31
0.0
 12
39.20000086790009
 22
823.9598225497386
 32
0.0
 13
39.20000086790009
 23
823.9598225497386
 33
0.0
  0
MTEXT
  5
354
330
34E
100
AcDbEntity
  8
1
 62
     3
100
AcDbMText
 10
37.35000086790009
 20
858.9341169715229
 30
0.0
 40
3.5
 41
0.0
 71
     7
 72
     1
  1
74,1
  7
CONVERTER_11
 11
0.0
 21
1.0
 31
0.0
 73
     1
 44
0.60024009603842
  0
ENDBLK
  5
356
330
34E
100
AcDbEntity
  8
0
100
AcDbBlockEnd
  0
ENDSEC
  0
SECTION
  2
ENTITIES
  0
INSERT
  5
86
330
1F
100
AcDbEntity
  8
1
100
AcDbBlockReference
  2
1
 10
0.0
 20
0.0
 30
0.0
  0
ENDSEC
  0
SECTION
  2
OBJECTS
  0
DICTIONARY
  5
C
330
0
100
AcDbDictionary
281
     1
  3
ACAD_GROUP
350
D
  3
ACAD_LAYOUT
350
1A
  3
ACAD_MATERIAL
350
3B
  3
ACAD_MLEADERSTYLE
350
4B9
  3
ACAD_MLINESTYLE
350
17
  3
ACAD_PLOTSETTINGS
350
19
  3
ACAD_PLOTSTYLENAME
350
E
  3
ACAD_TABLESTYLE
350
4B8
  3
ACAD_VISUALSTYLE
350
2A
  0
DICTIONARY
  5
D
102
{ACAD_REACTORS
330
C
102
}
330
C
100
AcDbDictionary
281
     1
  0
DICTIONARY
  5
1A
102
{ACAD_REACTORS
330
C
102
}
330
C
100
AcDbDictionary
281
     1
  3
Layout1
350
1E
  3
Layout2
350
26
  3
Model
350
22
  0
DICTIONARY
  5
3B
102
{ACAD_REACTORS
330
C
102
}
330
C
100
AcDbDictionary
281
     1
  3
ByBlock
350
3D
  3
ByLayer
350
3C
  3
Global
350
3E
  0
DICTIONARY
  5
4B9
102
{ACAD_REACTORS
330
C
102
}
330
C
100
AcDbDictionary
281
     1
  0
DICTIONARY
  5
17
102
{ACAD_REACTORS
330
C
102
}
330
C
100
AcDbDictionary
281
     1
  3
Standard
350
18
  0
DICTIONARY
  5
19
102
{ACAD_REACTORS
330
C
102
}
330
C
100
AcDbDictionary
281
     1
  0
ACDBDICTIONARYWDFLT
  5
E
102
{ACAD_REACTORS
330
C
102
}
330
C
100
AcDbDictionary
281
     1
  3
Normal
350
F
100
AcDbDictionaryWithDefault
340
F
  0
DICTIONARY
  5
4B8
102
{ACAD_REACTORS
330
C
102
}
330
C
100
AcDbDictionary
281
     1
  0
DICTIONARY
  5
2A
102
{ACAD_REACTORS
330
C
102
}
330
C
100
AcDbDictionary
281
     1
  3
2dWireframe
350
2F
  3
3D Hidden
350
31
  3
3dWireframe
350
30
  3
Basic
350
32
  3
Brighten
350
36
  3
ColorChange
350
3A
  3
Conceptual
350
34
  3
Dim
350
35
  3
Facepattern
350
39
  3
Flat
350
2B
  3
FlatWithEdges
350
2C
  3
Gouraud
350
2D
  3
GouraudWithEdges
350
2E
  3
Linepattern
350
38
  3
Realistic
350
33
  3
Thicken
350
37
  0
LAYOUT
  5
1E
102
{ACAD_REACTORS
330
1A
102
}
330
1A
100
AcDbPlotSettings
  1

  2
none_device
  4

  6

 40
0.0
 41
0.0
 42
0.0
 43
0.0
 44
0.0
 45
0.0
 46
0.0
 47
0.0
 48
0.0
 49
0.0
140
0.0
141
0.0
142
1.0
143
1.0
 70
   688
 72
     0
 73
     0
 74
     5
  7

 75
    16
 76
     0
 77
     2
 78
   300
147
1.0
148
0.0
149
0.0
100
AcDbLayout
  1
Layout1
 70
     1
 71
     1
 10
0.0
 20
0.0
 11
12.0
 21
9.0
 12
0.0
 22
0.0
 32
0.0
 14
1.00000000000000E+20
 24
1.00000000000000E+20
 34
1.00000000000000E+20
 15
-1.00000000000000E+20
 25
-1.00000000000000E+20
 35
-1.00000000000000E+20
146
0.0
 13
0.0
 23
0.0
 33
0.0
 16
1.0
 26
0.0
 36
0.0
 17
0.0
 27
1.0
 37
0.0
 76
     0
330
1B
  0
LAYOUT
  5
26
102
{ACAD_REACTORS
330
1A
102
}
330
1A
100
AcDbPlotSettings
  1

  2
none_device
  4

  6

 40
0.0
 41
0.0
 42
0.0
 43
0.0
 44
0.0
 45
0.0
 46
0.0
 47
0.0
 48
0.0
 49
0.0
140
0.0
141
0.0
142
1.0
143
1.0
 70
   688
 72
     0
 73
     0
 74
     5
  7

 75
    16
 76
     0
 77
     2
 78
   300
147
1.0
148
0.0
149
0.0
100
AcDbLayout
  1
Layout2
 70
     1
 71
     2
 10
0.0
 20
0.0
 11
0.0
 21
0.0
 12
0.0
 22
0.0
 32
0.0
 14
0.0
 24
0.0
 34
0.0
 15
0.0
 25
0.0
 35
0.0
146
0.0
 13
0.0
 23
0.0
 33
0.0
 16
1.0
 26
0.0
 36
0.0
 17
0.0
 27
1.0
 37
0.0
 76
     0
330
23
  0
LAYOUT
  5
22
102
{ACAD_REACTORS
330
1A
102
}
330
1A
100
AcDbPlotSettings
  1

  2
none_device
  4

  6

 40
0.0
 41
0.0
 42
0.0
 43
0.0
 44
0.0
 45
0.0
 46
0.0
 47
0.0
 48
0.0
 49
0.0
140
0.0
141
0.0
142
1.0
143
1.0
 70
  1712
 72
     0
 73
     0
 74
     0
  7

 75
     0
 76
     0
 77
     2
 78
   300
147
1.0
148
0.0
149
0.0
100
AcDbLayout
  1
Model
 70
     1
 71
     0
 10
0.0
 20
0.0
 11
12.0
 21
9.0
 12
0.0
 22
0.0
 32
0.0
 14
-33.67346148743332
 24
735.6200769538729
 34
0.0
 15
263.3265385125648
 25
945.620076953873
 35
0.0
146
0.0
 13
0.0
 23
0.0
 33
0.0
 16
1.0
 26
0.0
 36
0.0
 17
0.0
 27
1.0
 37
0.0
 76
     0
330
1F
331
29
  0
MATERIAL
  5
3D
102
{ACAD_REACTORS
330
3B
102
}
102
{ACAD_XDICTIONARY
360
4B4
102
}
330
3B
100
AcDbMaterial
  1
ByBlock
  0
MATERIAL
  5
3C
102
{ACAD_REACTORS
330
3B
102
}
102
{ACAD_XDICTIONARY
360
4B2
102
}
330
3B
100
AcDbMaterial
  1
ByLayer
  0
MATERIAL
  5
3E
102
{ACAD_REACTORS
330
3B
102
}
102
{ACAD_XDICTIONARY
360
4B6
102
}
330
3B
100
AcDbMaterial
  1
Global
  0
MLINESTYLE
  5
18
102
{ACAD_REACTORS
330
17
102
}
330
17
100
AcDbMlineStyle
  2
Standard
 70
     0
  3

 62
   256
 51
90.0
 52
90.0
 71
     2
 49
0.5
 62
   256
  6
BYLAYER
 49
-0.5
 62
   256
  6
BYLAYER
  0
ACDBPLACEHOLDER
  5
F
102
{ACAD_REACTORS
330
E
102
}
330
E
  0
VISUALSTYLE
  5
2F
102
{ACAD_REACTORS
330
2A
102
}
102
{ACAD_XDICTIONARY
360
49A
102
}
330
2A
100
AcDbVisualStyle
  2
2dWireframe
 70
     4
 71
     0
 72
     2
 73
     0
 90
        0
 40
-0.6
 41
-30.0
 62
     5
 63
     7
421
 16777215
 74
     1
 91
        4
 64
     7
 65
   257
 75
     1
175
     1
 42
1.0
 92
        0
 66
   257
 43
1.0
 76
     1
 77
     6
 78
     2
 67
     7
 79
     5
170
     0
171
     0
290
     0
174
     0
 93
        1
 44
0.0
173
     0
291
     0
 45
0.0
1001
ACAD
1000
AcDbSavedByObjectVersion
1070
     0
  0
VISUALSTYLE
  5
31
102
{ACAD_REACTORS
330
2A
102
}
102
{ACAD_XDICTIONARY
360
49E
102
}
330
2A
100
AcDbVisualStyle
  2
3D Hidden
 70
     6
 71
     1
 72
     2
 73
     2
 90
        0
 40
-0.6
 41
-30.0
 62
     5
 63
     7
421
 16777215
 74
     2
 91
        2
 64
     7
 65
   257
 75
     2
175
     1
 42
40.0
 92
        0
 66
   257
 43
1.0
 76
     1
 77
     6
 78
     2
 67
     7
 79
     3
170
     0
171
     0
290
     0
174
     0
 93
        1
 44
0.0
173
     0
291
     0
 45
0.0
1001
ACAD
1000
AcDbSavedByObjectVersion
1070
     0
  0
VISUALSTYLE
  5
30
102
{ACAD_REACTORS
330
2A
102
}
102
{ACAD_XDICTIONARY
360
49C
102
}
330
2A
100
AcDbVisualStyle
  2
3dWireframe
 70
     5
 71
     0
 72
     2
 73
     0
 90
        0
 40
-0.6
 41
-30.0
 62
     5
 63
     7
421
 16777215
 74
     1
 91
        4
 64
     7
 65
   257
 75
     1
175
     1
 42
1.0
 92
        0
 66
   257
 43
1.0
 76
     1
 77
     6
 78
     2
 67
     7
 79
     5
170
     0
171
     0
290
     0
174
     0
 93
        1
 44
0.0
173
     0
291
     0
 45
0.0
1001
ACAD
1000
AcDbSavedByObjectVersion
1070
     0
  0
VISUALSTYLE
  5
32
102
{ACAD_REACTORS
330
2A
102
}
102
{ACAD_XDICTIONARY
360
4A0
102
}
330
2A
100
AcDbVisualStyle
  2
Basic
 70
     7
 71
     1
 72
     0
 73
     1
 90
        0
 40
-0.6
 41
-30.0
 62
     5
 63
     7
421
 16777215
 74
     0
 91
        4
 64
     7
 65
   257
 75
     1
175
     1
 42
1.0
 92
        8
 66
     7
 43
1.0
 76
     1
 77
     6
 78
     2
 67
     7
 79
     5
170
     0
171
     0
290
     0
174
     0
 93
        1
 44
0.0
173
     0
291
     1
 45
0.0
1001
ACAD
1000
AcDbSavedByObjectVersion
1070
     0
  0
VISUALSTYLE
  5
36
102
{ACAD_REACTORS
330
2A
102
}
102
{ACAD_XDICTIONARY
360
4A8
102
}
330
2A
100
AcDbVisualStyle
  2
Brighten
 70
    12
 71
     2
 72
     2
 73
     0
 90
        0
 40
-0.6
 41
-30.0
 62
     5
 63
     7
421
 16777215
 74
     1
 91
        4
 64
     7
 65
   257
 75
     1
175
     1
 42
1.0
 92
        8
 66
     7
 43
1.0
 76
     1
 77
     6
 78
     2
 67
     7
 79
     5
170
     0
171
     0
290
     0
174
     0
 93
        1
 44
50.0
173
     0
291
     1
 45
0.0
1001
ACAD
1000
AcDbSavedByObjectVersion
1070
     0
  0
VISUALSTYLE
  5
3A
102
{ACAD_REACTORS
330
2A
102
}
102
{ACAD_XDICTIONARY
360
4B0
102
}
330
2A
100
AcDbVisualStyle
  2
ColorChange
 70
    16
 71
     2
 72
     2
 73
     3
 90
        0
 40
-0.6
 41
-30.0
 62
     5
 63
     8
421
  8421504
 74
     1
 91
        4
 64
     7
 65
   257
 75
     1
175
     1
 42
1.0
 92
        8
 66
     8
424
  8421504
 43
1.0
 76
     1
 77
     6
 78
     2
 67
     7
 79
     5
170
     0
171
     0
290
     0
174
     0
 93
        1
 44
0.0
173
     0
291
     1
 45
0.0
1001
ACAD
1000
AcDbSavedByObjectVersion
1070
     0
  0
VISUALSTYLE
  5
34
102
{ACAD_REACTORS
330
2A
102
}
102
{ACAD_XDICTIONARY
360
4A4
102
}
330
2A
100
AcDbVisualStyle
  2
Conceptual
 70
     9
 71
     3
 72
     2
 73
     0
 90
        0
 40
-0.6
 41
-30.0
 62
     5
 63
     7
421
 16777215
 74
     2
 91
        2
 64
     7
 65
   257
 75
     1
175
     1
 42
40.0
 92
        8
 66
     7
 43
1.0
 76
     1
 77
     6
 78
     2
 67
     7
 79
     3
170
     0
171
     0
290
     0
174
     0
 93
        1
 44
0.0
173
     0
291
     0
 45
0.0
1001
ACAD
1000
AcDbSavedByObjectVersion
1070
     0
  0
VISUALSTYLE
  5
35
102
{ACAD_REACTORS
330
2A
102
}
102
{ACAD_XDICTIONARY
360
4A6
102
}
330
2A
100
AcDbVisualStyle
  2
Dim
 70
    11
 71
     2
 72
     2
 73
     0
 90
        0
 40
-0.6
 41
-30.0
 62
     5
 63
     7
421
 16777215
 74
     1
 91
        4
 64
     7
 65
   257
 75
     1
175
     1
 42
1.0
 92
        8
 66
     7
 43
1.0
 76
     1
 77
     6
 78
     2
 67
     7
 79
     5
170
     0
171
     0
290
     0
174
     0
 93
        1
 44
-50.0
173
     0
291
     1
 45
0.0
1001
ACAD
1000
AcDbSavedByObjectVersion
1070
     0
  0
VISUALSTYLE
  5
39
102
{ACAD_REACTORS
330
2A
102
}
102
{ACAD_XDICTIONARY
360
4AE
102
}
330
2A
100
AcDbVisualStyle
  2
Facepattern
 70
    15
 71
     2
 72
     2
 73
     0
 90
        0
 40
-0.6
 41
-30.0
 62
     5
 63
     7
421
 16777215
 74
     1
 91
        4
 64
     7
 65
   257
 75
     1
175
     1
 42
1.0
 92
        8
 66
     7
 43
1.0
 76
     1
 77
     6
 78
     2
 67
     7
 79
     5
170
     0
171
     0
290
     0
174
     0
 93
        1
 44
0.0
173
     0
291
     1
 45
0.0
1001
ACAD
1000
AcDbSavedByObjectVersion
1070
     0
  0
VISUALSTYLE
  5
2B
102
{ACAD_REACTORS
330
2A
102
}
102
{ACAD_XDICTIONARY
360
492
102
}
330
2A
100
AcDbVisualStyle
  2
Flat
 70
     0
 71
     2
 72
     1
 73
     1
 90
        2
 40
-0.6
 41
30.0
 62
     5
 63
     7
421
 16777215
 74
     0
 91
        4
 64
     7
 65
   257
 75
     1
175
     1
 42
1.0
 92
        8
 66
     7
 43
1.0
 76
     1
 77
     6
 78
     2
 67
     7
 79
     5
170
     0
171
     0
290
     0
174
     0
 93
       13
 44
0.0
173
     0
291
     1
 45
0.0
1001
ACAD
1000
AcDbSavedByObjectVersion
1070
     0
  0
VISUALSTYLE
  5
2C
102
{ACAD_REACTORS
330
2A
102
}
102
{ACAD_XDICTIONARY
360
494
102
}
330
2A
100
AcDbVisualStyle
  2
FlatWithEdges
 70
     1
 71
     2
 72
     1
 73
     1
 90
        2
 40
-0.6
 41
30.0
 62
     5
 63
     7
421
 16777215
 74
     1
 91
        4
 64
     7
 65
   257
 75
     1
175
     1
 42
1.0
 92
        0
 66
   257
 43
1.0
 76
     1
 77
     6
 78
     2
 67
     7
 79
     5
170
     0
171
     0
290
     0
174
     0
 93
       13
 44
0.0
173
     0
291
     1
 45
0.0
1001
ACAD
1000
AcDbSavedByObjectVersion
1070
     0
  0
VISUALSTYLE
  5
2D
102
{ACAD_REACTORS
330
2A
102
}
102
{ACAD_XDICTIONARY
360
496
102
}
330
2A
100
AcDbVisualStyle
  2
Gouraud
 70
     2
 71
     2
 72
     2
 73
     1
 90
        2
 40
-0.6
 41
30.0
 62
     5
 63
     7
421
 16777215
 74
     0
 91
        4
 64
     7
 65
   257
 75
     1
175
     1
 42
1.0
 92
        0
 66
     7
 43
1.0
 76
     1
 77
     6
 78
     2
 67
     7
 79
     5
170
     0
171
     0
290
     0
174
     0
 93
       13
 44
0.0
173
     0
291
     1
 45
0.0
1001
ACAD
1000
AcDbSavedByObjectVersion
1070
     0
  0
VISUALSTYLE
  5
2E
102
{ACAD_REACTORS
330
2A
102
}
102
{ACAD_XDICTIONARY
360
498
102
}
330
2A
100
AcDbVisualStyle
  2
GouraudWithEdges
 70
     3
 71
     2
 72
     2
 73
     1
 90
        2
 40
-0.6
 41
30.0
 62
     5
 63
     7
421
 16777215
 74
     1
 91
        4
 64
     7
 65
   257
 75
     1
175
     1
 42
1.0
 92
        0
 66
   257
 43
1.0
 76
     1
 77
     6
 78
     2
 67
     7
 79
     5
170
     0
171
     0
290
     0
174
     0
 93
       13
 44
0.0
173
     0
291
     1
 45
0.0
1001
ACAD
1000
AcDbSavedByObjectVersion
1070
     0
  0
VISUALSTYLE
  5
38
102
{ACAD_REACTORS
330
2A
102
}
102
{ACAD_XDICTIONARY
360
4AC
102
}
330
2A
100
AcDbVisualStyle
  2
Linepattern
 70
    14
 71
     2
 72
     2
 73
     0
 90
        0
 40
-0.6
 41
-30.0
 62
     5
 63
     7
421
 16777215
 74
     1
 91
        4
 64
     7
 65
   257
 75
     7
175
     7
 42
1.0
 92
        8
 66
     7
 43
1.0
 76
     1
 77
     6
 78
     2
 67
     7
 79
     5
170
     0
171
     0
290
     0
174
     0
 93
        1
 44
0.0
173
     0
291
     1
 45
0.0
1001
ACAD
1000
AcDbSavedByObjectVersion
1070
     0
  0
VISUALSTYLE
  5
33
102
{ACAD_REACTORS
330
2A
102
}
102
{ACAD_XDICTIONARY
360
4A2
102
}
330
2A
100
AcDbVisualStyle
  2
Realistic
 70
     8
 71
     2
 72
     2
 73
     0
 90
        0
 40
-0.6
 41
-30.0
 62
     5
 63
     7
421
 16777215
 74
     1
 91
        0
 64
     7
 65
   257
 75
     1
175
     1
 42
1.0
 92
        8
 66
     8
424
  7895160
 43
1.0
 76
     1
 77
     6
 78
     2
 67
     7
 79
     5
170
     0
171
     0
290
     0
174
     0
 93
       13
 44
0.0
173
     0
291
     0
 45
0.0
1001
ACAD
1000
AcDbSavedByObjectVersion
1070
     0
  0
VISUALSTYLE
  5
37
102
{ACAD_REACTORS
330
2A
102
}
102
{ACAD_XDICTIONARY
360
4AA
102
}
330
2A
100
AcDbVisualStyle
  2
Thicken
 70
    13
 71
     2
 72
     2
 73
     0
 90
        0
 40
-0.6
 41
-30.0
 62
     5
 63
     7
421
 16777215
 74
     1
 91
        4
 64
     7
 65
   257
 75
     1
175
     1
 42
1.0
 92
       12
 66
     7
 43
1.0
 76
     1
 77
     6
 78
     2
 67
     7
 79
     5
170
     0
171
     0
290
     0
174
     0
 93
        1
 44
0.0
173
     0
291
     1
 45
0.0
1001
ACAD
1000
AcDbSavedByObjectVersion
1070
     0
  0
DICTIONARY
  5
4B4
330
3D
100
AcDbDictionary
280
     1
281
     1
  3
ACAD_XREC_ROUNDTRIP
360
4B5
  0
DICTIONARY
  5
4B2
330
3C
100
AcDbDictionary
280
     1
281
     1
  3
ACAD_XREC_ROUNDTRIP
360
4B3
  0
DICTIONARY
  5
4B6
330
3E
100
AcDbDictionary
280
     1
281
     1
  3
ACAD_XREC_ROUNDTRIP
360
4B7
  0
DICTIONARY
  5
49A
330
2F
100
AcDbDictionary
280
     1
281
     1
  3
ACAD_XREC_ROUNDTRIP
360
49B
  0
DICTIONARY
  5
49E
330
31
100
AcDbDictionary
280
     1
281
     1
  3
ACAD_XREC_ROUNDTRIP
360
49F
  0
DICTIONARY
  5
49C
330
30
100
AcDbDictionary
280
     1
281
     1
  3
ACAD_XREC_ROUNDTRIP
360
49D
  0
DICTIONARY
  5
4A0
330
32
100
AcDbDictionary
280
     1
281
     1
  3
ACAD_XREC_ROUNDTRIP
360
4A1
  0
DICTIONARY
  5
4A8
330
36
100
AcDbDictionary
280
     1
281
     1
  3
ACAD_XREC_ROUNDTRIP
360
4A9
  0
DICTIONARY
  5
4B0
330
3A
100
AcDbDictionary
280
     1
281
     1
  3
ACAD_XREC_ROUNDTRIP
360
4B1
  0
DICTIONARY
  5
4A4
330
34
100
AcDbDictionary
280
     1
281
     1
  3
ACAD_XREC_ROUNDTRIP
360
4A5
  0
DICTIONARY
  5
4A6
330
35
100
AcDbDictionary
280
     1
281
     1
  3
ACAD_XREC_ROUNDTRIP
360
4A7
  0
DICTIONARY
  5
4AE
330
39
100
AcDbDictionary
280
     1
281
     1
  3
ACAD_XREC_ROUNDTRIP
360
4AF
  0
DICTIONARY
  5
492
330
2B
100
AcDbDictionary
280
     1
281
     1
  3
ACAD_XREC_ROUNDTRIP
360
493
  0
DICTIONARY
  5
494
330
2C
100
AcDbDictionary
280
     1
281
     1
  3
ACAD_XREC_ROUNDTRIP
360
495
  0
DICTIONARY
  5
496
330
2D
100
AcDbDictionary
280
     1
281
     1
  3
ACAD_XREC_ROUNDTRIP
360
497
  0
DICTIONARY
  5
498
330
2E
100
AcDbDictionary
280
     1
281
     1
  3
ACAD_XREC_ROUNDTRIP
360
499
  0
DICTIONARY
  5
4AC
330
38
100
AcDbDictionary
280
     1
281
     1
  3
ACAD_XREC_ROUNDTRIP
360
4AD
  0
DICTIONARY
  5
4A2
330
33
100
AcDbDictionary
280
     1
281
     1
  3
ACAD_XREC_ROUNDTRIP
360
4A3
  0
DICTIONARY
  5
4AA
330
37
100
AcDbDictionary
280
     1
281
     1
  3
ACAD_XREC_ROUNDTRIP
360
4AB
  0
XRECORD
  5
4B5
102
{ACAD_REACTORS
330
4B4
102
}
330
4B4
100
AcDbXrecord
280
     1
102
MATERIAL
148
0.0
149
0.0
149
0.0
 93
        0
 94
      127
282
     0
 72
     1
 77
     1
171
     1
175
     1
179
     1
273
     0
  0
XRECORD
  5
4B3
102
{ACAD_REACTORS
330
4B2
102
}
330
4B2
100
AcDbXrecord
280
     1
102
MATERIAL
148
0.0
149
0.0
149
0.0
 93
        0
 94
      127
282
     0
 72
     1
 77
     1
171
     1
175
     1
179
     1
273
     0
  0
XRECORD
  5
4B7
102
{ACAD_REACTORS
330
4B6
102
}
330
4B6
100
AcDbXrecord
280
     1
102
MATERIAL
148
0.0
149
0.0
149
0.0
 93
        0
 94
      127
282
     0
 72
     1
 77
     1
171
     1
175
     1
179
     1
273
     0
  0
XRECORD
  5
49B
102
{ACAD_REACTORS
330
49A
102
}
330
49A
100
AcDbXrecord
280
     1
102
RTVSPropertyOp0
 70
     1
102
RTVSPropertyOp1
 70
     1
102
RTVSPropertyOp2
 70
     1
102
RTVSPropertyOp3
 70
     1
102
RTVSPropertyOp4
 70
     1
102
RTVSPropertyOp5
 70
     1
102
RTVSPropertyOp6
 70
     1
102
RTVSPropertyOp7
 70
     1
102
RTVSPropertyOp8
 70
     1
102
RTVSPropertyOp9
 70
     1
102
RTVSPropertyOp10
 70
     1
102
RTVSPropertyOp11
 70
     1
102
RTVSPropertyOp12
 70
     1
102
RTVSPropertyOp13
 70
     1
102
RTVSPropertyOp14
 70
     1
102
RTVSPropertyOp15
 70
     1
102
RTVSPropertyOp16
 70
     1
102
RTVSPropertyOp17
 70
     1
102
RTVSPropertyOp18
 70
     1
102
RTVSPropertyOp19
 70
     1
102
RTVSPropertyOp20
 70
     1
102
RTVSPropertyOp21
 70
     1
102
RTVSPropertyOp22
 70
     1
102
RTVSPropertyOp23
 70
     1
102
RTVSPropertyOp24
 70
     1
102
RTVSPropertyOp25
 70
     1
102
RTVSPropertyOp26
 70
     1
102
RTVSPropertyOp27
 70
     1
102
RTVSPropertyOp28
 70
     1
102
RTVSPropertyOp29
 70
     1
102
RTVSPropertyOp30
 70
     1
102
RTVSPropertyOp31
 70
     1
102
RTVSPropertyOp32
 70
     1
  0
XRECORD
  5
49F
102
{ACAD_REACTORS
330
49E
102
}
330
49E
100
AcDbXrecord
280
     1
102
RTVSPropertyOp0
 70
     1
102
RTVSPropertyOp1
 70
     1
102
RTVSPropertyOp2
 70
     1
102
RTVSPropertyOp3
 70
     1
102
RTVSPropertyOp4
 70
     1
102
RTVSPropertyOp5
 70
     1
102
RTVSPropertyOp6
 70
     1
102
RTVSPropertyOp7
 70
     1
102
RTVSPropertyOp8
 70
     1
102
RTVSPropertyOp9
 70
     1
102
RTVSPropertyOp10
 70
     1
102
RTVSPropertyOp11
 70
     1
102
RTVSPropertyOp12
 70
     1
102
RTVSPropertyOp13
 70
     1
102
RTVSPropertyOp14
 70
     1
102
RTVSPropertyOp15
 70
     1
102
RTVSPropertyOp16
 70
     1
102
RTVSPropertyOp17
 70
     1
102
RTVSPropertyOp18
 70
     1
102
RTVSPropertyOp19
 70
     1
102
RTVSPropertyOp20
 70
     1
102
RTVSPropertyOp21
 70
     1
102
RTVSPropertyOp22
 70
     1
102
RTVSPropertyOp23
 70
     1
102
RTVSPropertyOp24
 70
     1
102
RTVSPropertyOp25
 70
     1
102
RTVSPropertyOp26
 70
     1
102
RTVSPropertyOp27
 70
     1
102
RTVSPropertyOp28
 70
     1
102
RTVSPropertyOp29
 70
     1
102
RTVSPropertyOp30
 70
     1
102
RTVSPropertyOp31
 70
     1
102
RTVSPropertyOp32
 70
     1
  0
XRECORD
  5
49D
102
{ACAD_REACTORS
330
49C
102
}
330
49C
100
AcDbXrecord
280
     1
102
RTVSPropertyOp0
 70
     1
102
RTVSPropertyOp1
 70
     1
102
RTVSPropertyOp2
 70
     1
102
RTVSPropertyOp3
 70
     1
102
RTVSPropertyOp4
 70
     1
102
RTVSPropertyOp5
 70
     1
102
RTVSPropertyOp6
 70
     1
102
RTVSPropertyOp7
 70
     1
102
RTVSPropertyOp8
 70
     1
102
RTVSPropertyOp9
 70
     1
102
RTVSPropertyOp10
 70
     1
102
RTVSPropertyOp11
 70
     1
102
RTVSPropertyOp12
 70
     1
102
RTVSPropertyOp13
 70
     1
102
RTVSPropertyOp14
 70
     1
102
RTVSPropertyOp15
 70
     1
102
RTVSPropertyOp16
 70
     1
102
RTVSPropertyOp17
 70
     1
102
RTVSPropertyOp18
 70
     1
102
RTVSPropertyOp19
 70
     1
102
RTVSPropertyOp20
 70
     1
102
RTVSPropertyOp21
 70
     1
102
RTVSPropertyOp22
 70
     1
102
RTVSPropertyOp23
 70
     1
102
RTVSPropertyOp24
 70
     1
102
RTVSPropertyOp25
 70
     1
102
RTVSPropertyOp26
 70
     1
102
RTVSPropertyOp27
 70
     1
102
RTVSPropertyOp28
 70
     1
102
RTVSPropertyOp29
 70
     1
102
RTVSPropertyOp30
 70
     1
102
RTVSPropertyOp31
 70
     1
102
RTVSPropertyOp32
 70
     1
  0
XRECORD
  5
4A1
102
{ACAD_REACTORS
330
4A0
102
}
330
4A0
100
AcDbXrecord
280
     1
102
RTVSPropertyOp0
 70
     1
102
RTVSPropertyOp1
 70
     1
102
RTVSPropertyOp2
 70
     1
102
RTVSPropertyOp3
 70
     1
102
RTVSPropertyOp4
 70
     1
102
RTVSPropertyOp5
 70
     1
102
RTVSPropertyOp6
 70
     1
102
RTVSPropertyOp7
 70
     1
102
RTVSPropertyOp8
 70
     1
102
RTVSPropertyOp9
 70
     1
102
RTVSPropertyOp10
 70
     1
102
RTVSPropertyOp11
 70
     1
102
RTVSPropertyOp12
 70
     1
102
RTVSPropertyOp13
 70
     1
102
RTVSPropertyOp14
 70
     1
102
RTVSPropertyOp15
 70
     1
102
RTVSPropertyOp16
 70
     1
102
RTVSPropertyOp17
 70
     1
102
RTVSPropertyOp18
 70
     1
102
RTVSPropertyOp19
 70
     1
102
RTVSPropertyOp20
 70
     1
102
RTVSPropertyOp21
 70
     1
102
RTVSPropertyOp22
 70
     1
102
RTVSPropertyOp23
 70
     1
102
RTVSPropertyOp24
 70
     1
102
RTVSPropertyOp25
 70
     1
102
RTVSPropertyOp26
 70
     1
102
RTVSPropertyOp27
 70
     1
102
RTVSPropertyOp28
 70
     1
102
RTVSPropertyOp29
 70
     1
102
RTVSPropertyOp30
 70
     1
102
RTVSPropertyOp31
 70
     1
102
RTVSPropertyOp32
 70
     1
  0
XRECORD
  5
4A9
102
{ACAD_REACTORS
330
4A8
102
}
330
4A8
100
AcDbXrecord
280
     1
102
RTVSPropertyOp0
 70
     1
102
RTVSPropertyOp1
 70
     1
102
RTVSPropertyOp2
 70
     1
102
RTVSPropertyOp3
 70
     1
102
RTVSPropertyOp4
 70
     1
102
RTVSPropertyOp5
 70
     1
102
RTVSPropertyOp6
 70
     1
102
RTVSPropertyOp7
 70
     1
102
RTVSPropertyOp8
 70
     1
102
RTVSPropertyOp9
 70
     1
102
RTVSPropertyOp10
 70
     1
102
RTVSPropertyOp11
 70
     1
102
RTVSPropertyOp12
 70
     1
102
RTVSPropertyOp13
 70
     1
102
RTVSPropertyOp14
 70
     1
102
RTVSPropertyOp15
 70
     1
102
RTVSPropertyOp16
 70
     1
102
RTVSPropertyOp17
 70
     1
102
RTVSPropertyOp18
 70
     1
102
RTVSPropertyOp19
 70
     1
102
RTVSPropertyOp20
 70
     1
102
RTVSPropertyOp21
 70
     1
102
RTVSPropertyOp22
 70
     1
102
RTVSPropertyOp23
 70
     1
102
RTVSPropertyOp24
 70
     1
102
RTVSPropertyOp25
 70
     1
102
RTVSPropertyOp26
 70
     1
102
RTVSPropertyOp27
 70
     1
102
RTVSPropertyOp28
 70
     1
102
RTVSPropertyOp29
 70
     1
102
RTVSPropertyOp30
 70
     1
102
RTVSPropertyOp31
 70
     1
102
RTVSPropertyOp32
 70
     1
  0
XRECORD
  5
4B1
102
{ACAD_REACTORS
330
4B0
102
}
330
4B0
100
AcDbXrecord
280
     1
102
RTVSPropertyOp0
 70
     1
102
RTVSPropertyOp1
 70
     1
102
RTVSPropertyOp2
 70
     1
102
RTVSPropertyOp3
 70
     1
102
RTVSPropertyOp4
 70
     1
102
RTVSPropertyOp5
 70
     1
102
RTVSPropertyOp6
 70
     1
102
RTVSPropertyOp7
 70
     1
102
RTVSPropertyOp8
 70
     1
102
RTVSPropertyOp9
 70
     1
102
RTVSPropertyOp10
 70
     1
102
RTVSPropertyOp11
 70
     1
102
RTVSPropertyOp12
 70
     1
102
RTVSPropertyOp13
 70
     1
102
RTVSPropertyOp14
 70
     1
102
RTVSPropertyOp15
 70
     1
102
RTVSPropertyOp16
 70
     1
102
RTVSPropertyOp17
 70
     1
102
RTVSPropertyOp18
 70
     1
102
RTVSPropertyOp19
 70
     1
102
RTVSPropertyOp20
 70
     1
102
RTVSPropertyOp21
 70
     1
102
RTVSPropertyOp22
 70
     1
102
RTVSPropertyOp23
 70
     1
102
RTVSPropertyOp24
 70
     1
102
RTVSPropertyOp25
 70
     1
102
RTVSPropertyOp26
 70
     1
102
RTVSPropertyOp27
 70
     1
102
RTVSPropertyOp28
 70
     1
102
RTVSPropertyOp29
 70
     1
102
RTVSPropertyOp30
 70
     1
102
RTVSPropertyOp31
 70
     1
102
RTVSPropertyOp32
 70
     1
  0
XRECORD
  5
4A5
102
{ACAD_REACTORS
330
4A4
102
}
330
4A4
100
AcDbXrecord
280
     1
102
RTVSPropertyOp0
 70
     1
102
RTVSPropertyOp1
 70
     1
102
RTVSPropertyOp2
 70
     1
102
RTVSPropertyOp3
 70
     1
102
RTVSPropertyOp4
 70
     1
102
RTVSPropertyOp5
 70
     1
102
RTVSPropertyOp6
 70
     1
102
RTVSPropertyOp7
 70
     1
102
RTVSPropertyOp8
 70
     1
102
RTVSPropertyOp9
 70
     1
102
RTVSPropertyOp10
 70
     1
102
RTVSPropertyOp11
 70
     1
102
RTVSPropertyOp12
 70
     1
102
RTVSPropertyOp13
 70
     1
102
RTVSPropertyOp14
 70
     1
102
RTVSPropertyOp15
 70
     1
102
RTVSPropertyOp16
 70
     1
102
RTVSPropertyOp17
 70
     1
102
RTVSPropertyOp18
 70
     1
102
RTVSPropertyOp19
 70
     1
102
RTVSPropertyOp20
 70
     1
102
RTVSPropertyOp21
 70
     1
102
RTVSPropertyOp22
 70
     1
102
RTVSPropertyOp23
 70
     1
102
RTVSPropertyOp24
 70
     1
102
RTVSPropertyOp25
 70
     1
102
RTVSPropertyOp26
 70
     1
102
RTVSPropertyOp27
 70
     1
102
RTVSPropertyOp28
 70
     1
102
RTVSPropertyOp29
 70
     1
102
RTVSPropertyOp30
 70
     1
102
RTVSPropertyOp31
 70
     1
102
RTVSPropertyOp32
 70
     1
  0
XRECORD
  5
4A7
102
{ACAD_REACTORS
330
4A6
102
}
330
4A6
100
AcDbXrecord
280
     1
102
RTVSPropertyOp0
 70
     1
102
RTVSPropertyOp1
 70
     1
102
RTVSPropertyOp2
 70
     1
102
RTVSPropertyOp3
 70
     1
102
RTVSPropertyOp4
 70
     1
102
RTVSPropertyOp5
 70
     1
102
RTVSPropertyOp6
 70
     1
102
RTVSPropertyOp7
 70
     1
102
RTVSPropertyOp8
 70
     1
102
RTVSPropertyOp9
 70
     1
102
RTVSPropertyOp10
 70
     1
102
RTVSPropertyOp11
 70
     1
102
RTVSPropertyOp12
 70
     1
102
RTVSPropertyOp13
 70
     1
102
RTVSPropertyOp14
 70
     1
102
RTVSPropertyOp15
 70
     1
102
RTVSPropertyOp16
 70
     1
102
RTVSPropertyOp17
 70
     1
102
RTVSPropertyOp18
 70
     1
102
RTVSPropertyOp19
 70
     1
102
RTVSPropertyOp20
 70
     1
102
RTVSPropertyOp21
 70
     1
102
RTVSPropertyOp22
 70
     1
102
RTVSPropertyOp23
 70
     1
102
RTVSPropertyOp24
 70
     1
102
RTVSPropertyOp25
 70
     1
102
RTVSPropertyOp26
 70
     1
102
RTVSPropertyOp27
 70
     1
102
RTVSPropertyOp28
 70
     1
102
RTVSPropertyOp29
 70
     1
102
RTVSPropertyOp30
 70
     1
102
RTVSPropertyOp31
 70
     1
102
RTVSPropertyOp32
 70
     1
  0
XRECORD
  5
4AF
102
{ACAD_REACTORS
330
4AE
102
}
330
4AE
100
AcDbXrecord
280
     1
102
RTVSPropertyOp0
 70
     1
102
RTVSPropertyOp1
 70
     1
102
RTVSPropertyOp2
 70
     1
102
RTVSPropertyOp3
 70
     1
102
RTVSPropertyOp4
 70
     1
102
RTVSPropertyOp5
 70
     1
102
RTVSPropertyOp6
 70
     1
102
RTVSPropertyOp7
 70
     1
102
RTVSPropertyOp8
 70
     1
102
RTVSPropertyOp9
 70
     1
102
RTVSPropertyOp10
 70
     1
102
RTVSPropertyOp11
 70
     1
102
RTVSPropertyOp12
 70
     1
102
RTVSPropertyOp13
 70
     1
102
RTVSPropertyOp14
 70
     1
102
RTVSPropertyOp15
 70
     1
102
RTVSPropertyOp16
 70
     1
102
RTVSPropertyOp17
 70
     1
102
RTVSPropertyOp18
 70
     1
102
RTVSPropertyOp19
 70
     1
102
RTVSPropertyOp20
 70
     1
102
RTVSPropertyOp21
 70
     1
102
RTVSPropertyOp22
 70
     1
102
RTVSPropertyOp23
 70
     1
102
RTVSPropertyOp24
 70
     1
102
RTVSPropertyOp25
 70
     1
102
RTVSPropertyOp26
 70
     1
102
RTVSPropertyOp27
 70
     1
102
RTVSPropertyOp28
 70
     1
102
RTVSPropertyOp29
 70
     1
102
RTVSPropertyOp30
 70
     1
102
RTVSPropertyOp31
 70
     1
102
RTVSPropertyOp32
 70
     1
  0
XRECORD
  5
493
102
{ACAD_REACTORS
330
492
102
}
330
492
100
AcDbXrecord
280
     1
102
RTVSPropertyOp0
 70
     1
102
RTVSPropertyOp1
 70
     1
102
RTVSPropertyOp2
 70
     1
102
RTVSPropertyOp3
 70
     1
102
RTVSPropertyOp4
 70
     1
102
RTVSPropertyOp5
 70
     1
102
RTVSPropertyOp6
 70
     1
102
RTVSPropertyOp7
 70
     1
102
RTVSPropertyOp8
 70
     1
102
RTVSPropertyOp9
 70
     1
102
RTVSPropertyOp10
 70
     1
102
RTVSPropertyOp11
 70
     1
102
RTVSPropertyOp12
 70
     1
102
RTVSPropertyOp13
 70
     1
102
RTVSPropertyOp14
 70
     1
102
RTVSPropertyOp15
 70
     1
102
RTVSPropertyOp16
 70
     1
102
RTVSPropertyOp17
 70
     1
102
RTVSPropertyOp18
 70
     1
102
RTVSPropertyOp19
 70
     1
102
RTVSPropertyOp20
 70
     1
102
RTVSPropertyOp21
 70
     1
102
RTVSPropertyOp22
 70
     1
102
RTVSPropertyOp23
 70
     1
102
RTVSPropertyOp24
 70
     1
102
RTVSPropertyOp25
 70
     1
102
RTVSPropertyOp26
 70
     1
102
RTVSPropertyOp27
 70
     1
102
RTVSPropertyOp28
 70
     1
102
RTVSPropertyOp29
 70
     1
102
RTVSPropertyOp30
 70
     1
102
RTVSPropertyOp31
 70
     1
102
RTVSPropertyOp32
 70
     1
  0
XRECORD
  5
495
102
{ACAD_REACTORS
330
494
102
}
330
494
100
AcDbXrecord
280
     1
102
RTVSPropertyOp0
 70
     1
102
RTVSPropertyOp1
 70
     1
102
RTVSPropertyOp2
 70
     1
102
RTVSPropertyOp3
 70
     1
102
RTVSPropertyOp4
 70
     1
102
RTVSPropertyOp5
 70
     1
102
RTVSPropertyOp6
 70
     1
102
RTVSPropertyOp7
 70
     1
102
RTVSPropertyOp8
 70
     1
102
RTVSPropertyOp9
 70
     1
102
RTVSPropertyOp10
 70
     1
102
RTVSPropertyOp11
 70
     1
102
RTVSPropertyOp12
 70
     1
102
RTVSPropertyOp13
 70
     1
102
RTVSPropertyOp14
 70
     1
102
RTVSPropertyOp15
 70
     1
102
RTVSPropertyOp16
 70
     1
102
RTVSPropertyOp17
 70
     1
102
RTVSPropertyOp18
 70
     1
102
RTVSPropertyOp19
 70
     1
102
RTVSPropertyOp20
 70
     1
102
RTVSPropertyOp21
 70
     1
102
RTVSPropertyOp22
 70
     1
102
RTVSPropertyOp23
 70
     1
102
RTVSPropertyOp24
 70
     1
102
RTVSPropertyOp25
 70
     1
102
RTVSPropertyOp26
 70
     1
102
RTVSPropertyOp27
 70
     1
102
RTVSPropertyOp28
 70
     1
102
RTVSPropertyOp29
 70
     1
102
RTVSPropertyOp30
 70
     1
102
RTVSPropertyOp31
 70
     1
102
RTVSPropertyOp32
 70
     1
  0
XRECORD
  5
497
102
{ACAD_REACTORS
330
496
102
}
330
496
100
AcDbXrecord
280
     1
102
RTVSPropertyOp0
 70
     1
102
RTVSPropertyOp1
 70
     1
102
RTVSPropertyOp2
 70
     1
102
RTVSPropertyOp3
 70
     1
102
RTVSPropertyOp4
 70
     1
102
RTVSPropertyOp5
 70
     1
102
RTVSPropertyOp6
 70
     1
102
RTVSPropertyOp7
 70
     1
102
RTVSPropertyOp8
 70
     1
102
RTVSPropertyOp9
 70
     1
102
RTVSPropertyOp10
 70
     1
102
RTVSPropertyOp11
 70
     1
102
RTVSPropertyOp12
 70
     1
102
RTVSPropertyOp13
 70
     1
102
RTVSPropertyOp14
 70
     1
102
RTVSPropertyOp15
 70
     1
102
RTVSPropertyOp16
 70
     1
102
RTVSPropertyOp17
 70
     1
102
RTVSPropertyOp18
 70
     1
102
RTVSPropertyOp19
 70
     1
102
RTVSPropertyOp20
 70
     1
102
RTVSPropertyOp21
 70
     1
102
RTVSPropertyOp22
 70
     1
102
RTVSPropertyOp23
 70
     1
102
RTVSPropertyOp24
 70
     1
102
RTVSPropertyOp25
 70
     1
102
RTVSPropertyOp26
 70
     1
102
RTVSPropertyOp27
 70
     1
102
RTVSPropertyOp28
 70
     1
102
RTVSPropertyOp29
 70
     1
102
RTVSPropertyOp30
 70
     1
102
RTVSPropertyOp31
 70
     1
102
RTVSPropertyOp32
 70
     1
  0
XRECORD
  5
499
102
{ACAD_REACTORS
330
498
102
}
330
498
100
AcDbXrecord
280
     1
102
RTVSPropertyOp0
 70
     1
102
RTVSPropertyOp1
 70
     1
102
RTVSPropertyOp2
 70
     1
102
RTVSPropertyOp3
 70
     1
102
RTVSPropertyOp4
 70
     1
102
RTVSPropertyOp5
 70
     1
102
RTVSPropertyOp6
 70
     1
102
RTVSPropertyOp7
 70
     1
102
RTVSPropertyOp8
 70
     1
102
RTVSPropertyOp9
 70
     1
102
RTVSPropertyOp10
 70
     1
102
RTVSPropertyOp11
 70
     1
102
RTVSPropertyOp12
 70
     1
102
RTVSPropertyOp13
 70
     1
102
RTVSPropertyOp14
 70
     1
102
RTVSPropertyOp15
 70
     1
102
RTVSPropertyOp16
 70
     1
102
RTVSPropertyOp17
 70
     1
102
RTVSPropertyOp18
 70
     1
102
RTVSPropertyOp19
 70
     1
102
RTVSPropertyOp20
 70
     1
102
RTVSPropertyOp21
 70
     1
102
RTVSPropertyOp22
 70
     1
102
RTVSPropertyOp23
 70
     1
102
RTVSPropertyOp24
 70
     1
102
RTVSPropertyOp25
 70
     1
102
RTVSPropertyOp26
 70
     1
102
RTVSPropertyOp27
 70
     1
102
RTVSPropertyOp28
 70
     1
102
RTVSPropertyOp29
 70
     1
102
RTVSPropertyOp30
 70
     1
102
RTVSPropertyOp31
 70
     1
102
RTVSPropertyOp32
 70
     1
  0
XRECORD
  5
4AD
102
{ACAD_REACTORS
330
4AC
102
}
330
4AC
100
AcDbXrecord
280
     1
102
RTVSPropertyOp0
 70
     1
102
RTVSPropertyOp1
 70
     1
102
RTVSPropertyOp2
 70
     1
102
RTVSPropertyOp3
 70
     1
102
RTVSPropertyOp4
 70
     1
102
RTVSPropertyOp5
 70
     1
102
RTVSPropertyOp6
 70
     1
102
RTVSPropertyOp7
 70
     1
102
RTVSPropertyOp8
 70
     1
102
RTVSPropertyOp9
 70
     1
102
RTVSPropertyOp10
 70
     1
102
RTVSPropertyOp11
 70
     1
102
RTVSPropertyOp12
 70
     1
102
RTVSPropertyOp13
 70
     1
102
RTVSPropertyOp14
 70
     1
102
RTVSPropertyOp15
 70
     1
102
RTVSPropertyOp16
 70
     1
102
RTVSPropertyOp17
 70
     1
102
RTVSPropertyOp18
 70
     1
102
RTVSPropertyOp19
 70
     1
102
RTVSPropertyOp20
 70
     1
102
RTVSPropertyOp21
 70
     1
102
RTVSPropertyOp22
 70
     1
102
RTVSPropertyOp23
 70
     1
102
RTVSPropertyOp24
 70
     1
102
RTVSPropertyOp25
 70
     1
102
RTVSPropertyOp26
 70
     1
102
RTVSPropertyOp27
 70
     1
102
RTVSPropertyOp28
 70
     1
102
RTVSPropertyOp29
 70
     1
102
RTVSPropertyOp30
 70
     1
102
RTVSPropertyOp31
 70
     1
102
RTVSPropertyOp32
 70
     1
  0
XRECORD
  5
4A3
102
{ACAD_REACTORS
330
4A2
102
}
330
4A2
100
AcDbXrecord
280
     1
102
RTVSPropertyOp0
 70
     1
102
RTVSPropertyOp1
 70
     1
102
RTVSPropertyOp2
 70
     1
102
RTVSPropertyOp3
 70
     1
102
RTVSPropertyOp4
 70
     1
102
RTVSPropertyOp5
 70
     1
102
RTVSPropertyOp6
 70
     1
102
RTVSPropertyOp7
 70
     1
102
RTVSPropertyOp8
 70
     1
102
RTVSPropertyOp9
 70
     1
102
RTVSPropertyOp10
 70
     1
102
RTVSPropertyOp11
 70
     1
102
RTVSPropertyOp12
 70
     1
102
RTVSPropertyOp13
 70
     1
102
RTVSPropertyOp14
 70
     1
102
RTVSPropertyOp15
 70
     1
102
RTVSPropertyOp16
 70
     1
102
RTVSPropertyOp17
 70
     1
102
RTVSPropertyOp18
 70
     1
102
RTVSPropertyOp19
 70
     1
102
RTVSPropertyOp20
 70
     1
102
RTVSPropertyOp21
 70
     1
102
RTVSPropertyOp22
 70
     1
102
RTVSPropertyOp23
 70
     1
102
RTVSPropertyOp24
 70
     1
102
RTVSPropertyOp25
 70
     1
102
RTVSPropertyOp26
 70
     1
102
RTVSPropertyOp27
 70
     1
102
RTVSPropertyOp28
 70
     1
102
RTVSPropertyOp29
 70
     1
102
RTVSPropertyOp30
 70
     1
102
RTVSPropertyOp31
 70
     1
102
RTVSPropertyOp32
 70
     1
  0
XRECORD
  5
4AB
102
{ACAD_REACTORS
330
4AA
102
}
330
4AA
100
AcDbXrecord
280
     1
102
RTVSPropertyOp0
 70
     1
102
RTVSPropertyOp1
 70
     1
102
RTVSPropertyOp2
 70
     1
102
RTVSPropertyOp3
 70
     1
102
RTVSPropertyOp4
 70
     1
102
RTVSPropertyOp5
 70
     1
102
RTVSPropertyOp6
 70
     1
102
RTVSPropertyOp7
 70
     1
102
RTVSPropertyOp8
 70
     1
102
RTVSPropertyOp9
 70
     1
102
RTVSPropertyOp10
 70
     1
102
RTVSPropertyOp11
 70
     1
102
RTVSPropertyOp12
 70
     1
102
RTVSPropertyOp13
 70
     1
102
RTVSPropertyOp14
 70
     1
102
RTVSPropertyOp15
 70
     1
102
RTVSPropertyOp16
 70
     1
102
RTVSPropertyOp17
 70
     1
102
RTVSPropertyOp18
 70
     1
102
RTVSPropertyOp19
 70
     1
102
RTVSPropertyOp20
 70
     1
102
RTVSPropertyOp21
 70
     1
102
RTVSPropertyOp22
 70
     1
102
RTVSPropertyOp23
 70
     1
102
RTVSPropertyOp24
 70
     1
102
RTVSPropertyOp25
 70
     1
102
RTVSPropertyOp26
 70
     1
102
RTVSPropertyOp27
 70
     1
102
RTVSPropertyOp28
 70
     1
102
RTVSPropertyOp29
 70
     1
102
RTVSPropertyOp30
 70
     1
102
RTVSPropertyOp31
 70
     1
102
RTVSPropertyOp32
 70
     1
  0
ENDSEC
  0
EOF
