  0
SECTION
  2
HEADER
  9
$ACADVER
  1
AC1018
  9
$ACADMAINTVER
 70
     0
  9
$DWGCODEPAGE
  3
ANSI_1252
  9
$INSBASE
 10
0.0
 20
0.0
 30
0.0
  9
$EXTMIN
 10
-225.8320816295733
 20
12.04365550946204
 30
0.0
  9
$EXTMAX
 10
71.16791837042481
 20
222.0436555094622
 30
0.0
  9
$LIMMIN
 10
0.0
 20
0.0
  9
$LIMMAX
 10
12.0
 20
9.0
  9
$ORTHOMODE
 70
     0
  9
$REGENMODE
 70
     1
  9
$FILLMODE
 70
     1
  9
$QTEXTMODE
 70
     0
  9
$MIRRTEXT
 70
     1
  9
$LTSCALE
 40
1.0
  9
$ATTMODE
 70
     1
  9
$TEXTSIZE
 40
0.2
  9
$TRACEWID
 40
0.05
  9
$TEXTSTYLE
  7
Standard
  9
$CLAYER
  8
0
  9
$CELTYPE
  6
ByLayer
  9
$CECOLOR
 62
   256
  9
$CELTSCALE
 40
1.0
  9
$DISPSILH
 70
     0
  9
$DIMSCALE
 40
1.0
  9
$DIMASZ
 40
0.18
  9
$DIMEXO
 40
0.0625
  9
$DIMDLI
 40
0.38
  9
$DIMRND
 40
0.0
  9
$DIMDLE
 40
0.0
  9
$DIMEXE
 40
0.18
  9
$DIMTP
 40
0.0
  9
$DIMTM
 40
0.0
  9
$DIMTXT
 40
0.18
  9
$DIMCEN
 40
0.09
  9
$DIMTSZ
 40
0.0
  9
$DIMTOL
 70
     0
  9
$DIMLIM
 70
     0
  9
$DIMTIH
 70
     1
  9
$DIMTOH
 70
     1
  9
$DIMSE1
 70
     0
  9
$DIMSE2
 70
     0
  9
$DIMTAD
 70
     0
  9
$DIMZIN
 70
     0
  9
$DIMBLK
  1

  9
$DIMASO
 70
     1
  9
$DIMSHO
 70
     1
  9
$DIMPOST
  1

  9
$DIMAPOST
  1

  9
$DIMALT
 70
     0
  9
$DIMALTD
 70
     2
  9
$DIMALTF
 40
25.4
  9
$DIMLFAC
 40
1.0
  9
$DIMTOFL
 70
     0
  9
$DIMTVP
 40
0.0
  9
$DIMTIX
 70
     0
  9
$DIMSOXD
 70
     0
  9
$DIMSAH
 70
     0
  9
$DIMBLK1
  1

  9
$DIMBLK2
  1

  9
$DIMSTYLE
  2
Standard
  9
$DIMCLRD
 70
     0
  9
$DIMCLRE
 70
     0
  9
$DIMCLRT
 70
     0
  9
$DIMTFAC
 40
1.0
  9
$DIMGAP
 40
0.09
  9
$DIMJUST
 70
     0
  9
$DIMSD1
 70
     0
  9
$DIMSD2
 70
     0
  9
$DIMTOLJ
 70
     1
  9
$DIMTZIN
 70
     0
  9
$DIMALTZ
 70
     0
  9
$DIMALTTZ
 70
     0
  9
$DIMUPT
 70
     0
  9
$DIMDEC
 70
     4
  9
$DIMTDEC
 70
     4
  9
$DIMALTU
 70
     2
  9
$DIMALTTD
 70
     2
  9
$DIMTXSTY
  7
Standard
  9
$DIMAUNIT
 70
     0
  9
$DIMADEC
 70
     0
  9
$DIMALTRND
 40
0.0
  9
$DIMAZIN
 70
     0
  9
$DIMDSEP
 70
    46
  9
$DIMATFIT
 70
     3
  9
$DIMFRAC
 70
     0
  9
$DIMLDRBLK
  1

  9
$DIMLUNIT
 70
     2
  9
$DIMLWD
 70
    -2
  9
$DIMLWE
 70
    -2
  9
$DIMTMOVE
 70
     0
  9
$LUNITS
 70
     2
  9
$LUPREC
 70
     4
  9
$SKETCHINC
 40
0.1
  9
$FILLETRAD
 40
0.5
  9
$AUNITS
 70
     0
  9
$AUPREC
 70
     0
  9
$MENU
  1
.
  9
$ELEVATION
 40
0.0
  9
$PELEVATION
 40
0.0
  9
$THICKNESS
 40
0.0
  9
$LIMCHECK
 70
     0
  9
$CHAMFERA
 40
0.5
  9
$CHAMFERB
 40
0.5
  9
$CHAMFERC
 40
1.0
  9
$CHAMFERD
 40
0.0
  9
$SKPOLY
 70
     0
  9
$TDCREATE
 40
2458431.599960636
  9
$TDUCREATE
 40
2458431.55829397
  9
$TDUPDATE
 40
2458431.599960995
  9
$TDUUPDATE
 40
2458431.558294329
  9
$TDINDWG
 40
0.0000000116
  9
$TDUSRTIMER
 40
0.0000000116
  9
$USRTIMER
 70
     1
  9
$ANGBASE
 50
0.0
  9
$ANGDIR
 70
     0
  9
$PDMODE
 70
     0
  9
$PDSIZE
 40
0.0
  9
$PLINEWID
 40
0.0
  9
$SPLFRAME
 70
     0
  9
$SPLINETYPE
 70
     6
  9
$SPLINESEGS
 70
     8
  9
$HANDSEED
  5
2A6
  9
$SURFTAB1
 70
     6
  9
$SURFTAB2
 70
     6
  9
$SURFTYPE
 70
     6
  9
$SURFU
 70
     6
  9
$SURFV
 70
     6
  9
$UCSBASE
  2

  9
$UCSNAME
  2

  9
$UCSORG
 10
0.0
 20
0.0
 30
0.0
  9
$UCSXDIR
 10
1.0
 20
0.0
 30
0.0
  9
$UCSYDIR
 10
0.0
 20
1.0
 30
0.0
  9
$UCSORTHOREF
  2

  9
$UCSORTHOVIEW
 70
     0
  9
$UCSORGTOP
 10
0.0
 20
0.0
 30
0.0
  9
$UCSORGBOTTOM
 10
0.0
 20
0.0
 30
0.0
  9
$UCSORGLEFT
 10
0.0
 20
0.0
 30
0.0
  9
$UCSORGRIGHT
 10
0.0
 20
0.0
 30
0.0
  9
$UCSORGFRONT
 10
0.0
 20
0.0
 30
0.0
  9
$UCSORGBACK
 10
0.0
 20
0.0
 30
0.0
  9
$PUCSBASE
  2

  9
$PUCSNAME
  2

  9
$PUCSORG
 10
0.0
 20
0.0
 30
0.0
  9
$PUCSXDIR
 10
1.0
 20
0.0
 30
0.0
  9
$PUCSYDIR
 10
0.0
 20
1.0
 30
0.0
  9
$PUCSORTHOREF
  2

  9
$PUCSORTHOVIEW
 70
     0
  9
$PUCSORGTOP
 10
0.0
 20
0.0
 30
0.0
  9
$PUCSORGBOTTOM
 10
0.0
 20
0.0
 30
0.0
  9
$PUCSORGLEFT
 10
0.0
 20
0.0
 30
0.0
  9
$PUCSORGRIGHT
 10
0.0
 20
0.0
 30
0.0
  9
$PUCSORGFRONT
 10
0.0
 20
0.0
 30
0.0
  9
$PUCSORGBACK
 10
0.0
 20
0.0
 30
0.0
  9
$USERI1
 70
     0
  9
$USERI2
 70
     0
  9
$USERI3
 70
     0
  9
$USERI4
 70
     0
  9
$USERI5
 70
     0
  9
$USERR1
 40
18.1
  9
$USERR2
 40
0.0
  9
$USERR3
 40
0.0
  9
$USERR4
 40
0.0
  9
$USERR5
 40
0.0
  9
$WORLDVIEW
 70
     1
  9
$SHADEDGE
 70
     3
  9
$SHADEDIF
 70
    70
  9
$TILEMODE
 70
     1
  9
$MAXACTVP
 70
    64
  9
$PINSBASE
 10
0.0
 20
0.0
 30
0.0
  9
$PLIMCHECK
 70
     0
  9
$PEXTMIN
 10
1.00000000000000E+20
 20
1.00000000000000E+20
 30
1.00000000000000E+20
  9
$PEXTMAX
 10
-1.00000000000000E+20
 20
-1.00000000000000E+20
 30
-1.00000000000000E+20
  9
$PLIMMIN
 10
0.0
 20
0.0
  9
$PLIMMAX
 10
12.0
 20
9.0
  9
$UNITMODE
 70
     0
  9
$VISRETAIN
 70
     1
  9
$PLINEGEN
 70
     0
  9
$PSLTSCALE
 70
     1
  9
$TREEDEPTH
 70
  3020
  9
$CMLSTYLE
  2
Standard
  9
$CMLJUST
 70
     0
  9
$CMLSCALE
 40
1.0
  9
$PROXYGRAPHICS
 70
     1
  9
$MEASUREMENT
 70
     1
  9
$CELWEIGHT
370
    -1
  9
$ENDCAPS
280
     0
  9
$JOINSTYLE
280
     0
  9
$LWDISPLAY
290
     0
  9
$INSUNITS
 70
     4
  9
$HYPERLINKBASE
  1

  9
$STYLESHEET
  1

  9
$XEDIT
290
     1
  9
$CEPSNTYPE
380
     0
  9
$PSTYLEMODE
290
     1
  9
$FINGERPRINTGUID
  2
{8CB2C7B6-217F-42BF-BB8A-3F0BBD94AD09}
  9
$VERSIONGUID
  2
{FAEB1C32-E019-11D5-929B-00C0DF256EC4}
  9
$EXTNAMES
290
     1
  9
$PSVPSCALE
 40
0.0
  9
$OLESTARTUP
290
     0
  9
$SORTENTS
280
   127
  9
$INDEXCTL
280
     0
  9
$HIDETEXT
280
     1
  9
$XCLIPFRAME
290
     0
  9
$HALOGAP
280
     0
  9
$OBSCOLOR
 70
   257
  9
$OBSLTYPE
280
     0
  9
$INTERSECTIONDISPLAY
280
     0
  9
$INTERSECTIONCOLOR
 70
   257
  9
$DIMASSOC
280
     2
  9
$PROJECTNAME
  1

  0
ENDSEC
  0
SECTION
  2
CLASSES
  0
CLASS
  1
ACDBDICTIONARYWDFLT
  2
AcDbDictionaryWithDefault
  3
ObjectDBX Classes
 90
        0
 91
        4
280
     0
281
     0
  0
CLASS
  1
VISUALSTYLE
  2
AcDbVisualStyle
  3
ObjectDBX Classes
 90
     4095
 91
        4
280
     0
281
     0
  0
CLASS
  1
MATERIAL
  2
AcDbMaterial
  3
ObjectDBX Classes
 90
     1153
 91
        4
280
     0
281
     0
  0
ENDSEC
  0
SECTION
  2
TABLES
  0
TABLE
  2
VPORT
  5
8
330
0
100
AcDbSymbolTable
 70
     1
  0
VPORT
  5
29
330
8
100
AcDbSymbolTableRecord
100
AcDbViewportTableRecord
  2
*Active
 70
     0
 10
0.0
 20
0.0
 11
1.0
 21
1.0
 12
-77.33208162957425
 22
117.0436555094621
 13
0.0
 23
0.0
 14
0.5
 24
0.5
 15
0.5
 25
0.5
 16
0.0
 26
0.0
 36
1.0
 17
0.0
 27
0.0
 37
0.0
 40
231.0000000000002
 41
1.60267857142857
 42
50.0
 43
0.0
 44
0.0
 50
0.0
 51
0.0
 71
     0
 72
   100
 73
     1
 74
     3
 75
     0
 76
     0
 77
     0
 78
     0
281
     0
 65
     1
110
0.0
120
0.0
130
0.0
111
1.0
121
0.0
131
0.0
112
0.0
122
1.0
132
0.0
 79
     0
146
0.0
  0
ENDTAB
  0
TABLE
  2
LTYPE
  5
5
330
0
100
AcDbSymbolTable
 70
     8
  0
LTYPE
  5
14
330
5
100
AcDbSymbolTableRecord
100
AcDbLinetypeTableRecord
  2
ByBlock
 70
     0
  3

 72
    65
 73
     0
 40
0.0
  0
LTYPE
  5
15
330
5
100
AcDbSymbolTableRecord
100
AcDbLinetypeTableRecord
  2
ByLayer
 70
     0
  3

 72
    65
 73
     0
 40
0.0
  0
LTYPE
  5
16
330
5
100
AcDbSymbolTableRecord
100
AcDbLinetypeTableRecord
  2
Continuous
 70
     0
  3
Solid line
 72
    65
 73
     0
 40
0.0
  0
LTYPE
  5
3F
330
5
100
AcDbSymbolTableRecord
100
AcDbLinetypeTableRecord
  2
DASHED
 70
     0
  3
Dashed
 72
    65
 73
     2
 40
15.0
 49
7.0
 74
     0
 49
-8.0
 74
     0
  0
LTYPE
  5
40
330
5
100
AcDbSymbolTableRecord
100
AcDbLinetypeTableRecord
  2
DOTTED
 70
     0
  3
Dotted
 72
    65
 73
     2
 40
1.0
 49
0.0
 74
     0
 49
-1.0
 74
     0
  0
LTYPE
  5
41
330
5
100
AcDbSymbolTableRecord
100
AcDbLinetypeTableRecord
  2
DOT_CENTER
 70
     0
  3
Dot_Center
 72
    65
 73
     4
 40
14.0
 49
12.0
 74
     0
 49
-1.0
 74
     0
 49
0.0
 74
     0
 49
-1.0
 74
     0
  0
LTYPE
  5
42
330
5
100
AcDbSymbolTableRecord
100
AcDbLinetypeTableRecord
  2
LONG_DASHED
 70
     0
  3
Long_Dashed
 72
    65
 73
     2
 40
15.0
 49
10.0
 74
     0
 49
-5.0
 74
     0
  0
LTYPE
  5
43
330
5
100
AcDbSymbolTableRecord
100
AcDbLinetypeTableRecord
  2
DASH_CENTER
 70
     0
  3
Dash_Center
 72
    65
 73
     4
 40
14.0
 49
11.0
 74
     0
 49
-1.0
 74
     0
 49
1.0
 74
     0
 49
-1.0
 74
     0
  0
LTYPE
  5
44
330
5
100
AcDbSymbolTableRecord
100
AcDbLinetypeTableRecord
  2
PHANTOM
 70
     0
  3
Phantom
 72
    65
 73
     6
 40
13.0
 49
10.0
 74
     0
 49
-1.0
 74
     0
 49
0.0
 74
     0
 49
-1.0
 74
     0
 49
0.0
 74
     0
 49
-1.0
 74
     0
  0
LTYPE
  5
45
330
5
100
AcDbSymbolTableRecord
100
AcDbLinetypeTableRecord
  2
CENTER_DASH_DASH
 70
     0
  3
Center_Dash_Dash
 72
    65
 73
     6
 40
14.0
 49
9.0
 74
     0
 49
-1.0
 74
     0
 49
1.0
 74
     0
 49
-1.0
 74
     0
 49
1.0
 74
     0
 49
-1.0
 74
     0
  0
ENDTAB
  0
TABLE
  2
LAYER
  5
2
330
0
100
AcDbSymbolTable
 70
     2
  0
LAYER
  5
10
330
2
100
AcDbSymbolTableRecord
100
AcDbLayerTableRecord
  2
0
 70
     0
 62
     7
  6
Continuous
370
    -3
390
F
  0
LAYER
  5
46
330
2
100
AcDbSymbolTableRecord
100
AcDbLayerTableRecord
  2
1
 70
     0
 62
     7
  6
Continuous
370
    -3
390
F
  0
ENDTAB
  0
TABLE
  2
STYLE
  5
3
330
0
100
AcDbSymbolTable
 70
     5
  0
STYLE
  5
11
330
3
100
AcDbSymbolTableRecord
100
AcDbTextStyleTableRecord
  2
Standard
 70
     0
 40
0.0
 41
1.0
 50
0.0
 71
     0
 42
0.2
  3
txt
  4

  0
STYLE
  5
A7
330
3
100
AcDbSymbolTableRecord
100
AcDbTextStyleTableRecord
  2
CONVERTER_11
 70
     0
 40
0.0
 41
0.9
 50
0.0
 71
     0
 42
0.2
  3
txt.shx
  4

  0
STYLE
  5
23C
330
3
100
AcDbSymbolTableRecord
100
AcDbTextStyleTableRecord
  2
CONVERTER_12
 70
     0
 40
0.0
 41
0.81
 50
0.0
 71
     0
 42
0.2
  3
txt.shx
  4

  0
STYLE
  5
242
330
3
100
AcDbSymbolTableRecord
100
AcDbTextStyleTableRecord
  2
CONVERTER_13
 70
     0
 40
0.0
 41
0.855
 50
0.0
 71
     0
 42
0.2
  3
txt.shx
  4

  0
STYLE
  5
245
330
3
100
AcDbSymbolTableRecord
100
AcDbTextStyleTableRecord
  2
CONVERTER_14
 70
     0
 40
0.0
 41
0.72
 50
0.0
 71
     0
 42
0.2
  3
txt.shx
  4

  0
ENDTAB
  0
TABLE
  2
VIEW
  5
6
330
0
100
AcDbSymbolTable
 70
     0
  0
ENDTAB
  0
TABLE
  2
UCS
  5
7
330
0
100
AcDbSymbolTable
 70
     0
  0
ENDTAB
  0
TABLE
  2
APPID
  5
9
330
0
100
AcDbSymbolTable
 70
     1
  0
APPID
  5
12
330
9
100
AcDbSymbolTableRecord
100
AcDbRegAppTableRecord
  2
ACAD
 70
     0
  0
ENDTAB
  0
TABLE
  2
DIMSTYLE
  5
A
330
0
100
AcDbSymbolTable
 70
     4
100
AcDbDimStyleTable
  0
DIMSTYLE
105
27
330
A
100
AcDbSymbolTableRecord
100
AcDbDimStyleTableRecord
  2
Standard
 70
     0
178
     0
340
11
  0
DIMSTYLE
105
D2
102
{ACAD_REACTORS
330
D3
102
}
330
A
100
AcDbSymbolTableRecord
100
AcDbDimStyleTableRecord
  2
ME10_DIM_10
 70
     0
 41
1.75
 42
0.0
 44
0.75
 73
     0
 74
     0
 77
     1
 78
     8
140
1.75
147
0.75
172
     1
173
     1
174
     1
175
     1
176
     2
177
     2
178
     3
340
A7
  0
DIMSTYLE
105
DD
102
{ACAD_REACTORS
330
DE
102
}
330
A
100
AcDbSymbolTableRecord
100
AcDbDimStyleTableRecord
  2
ME10_DIM_11
 70
     0
 41
1.75
 42
0.0
 44
0.75
 73
     0
 74
     0
 77
     1
 78
     8
140
1.75
147
0.75
172
     1
173
     1
174
     1
175
     1
176
     2
177
     2
178
     3
340
A7
  0
DIMSTYLE
105
E8
102
{ACAD_REACTORS
330
E9
102
}
330
A
100
AcDbSymbolTableRecord
100
AcDbDimStyleTableRecord
  2
ME10_DIM_12
 70
     0
 41
1.75
 42
0.0
 44
0.75
 73
     0
 74
     0
 77
     1
 78
     8
140
1.75
147
0.75
172
     1
173
     1
174
     1
175
     1
176
     2
177
     2
178
     3
340
A7
  0
ENDTAB
  0
TABLE
  2
BLOCK_RECORD
  5
1
330
0
100
AcDbSymbolTable
 70
    20
  0
BLOCK_RECORD
  5
1F
330
1
100
AcDbSymbolTableRecord
100
AcDbBlockTableRecord
  2
*Model_Space
340
22
  0
BLOCK_RECORD
  5
1B
330
1
100
AcDbSymbolTableRecord
100
AcDbBlockTableRecord
  2
*Paper_Space
340
1E
  0
BLOCK_RECORD
  5
23
330
1
100
AcDbSymbolTableRecord
100
AcDbBlockTableRecord
  2
*Paper_Space0
340
26
  0
BLOCK_RECORD
  5
47
330
1
100
AcDbSymbolTableRecord
100
AcDbBlockTableRecord
  2
ma_20x8-select__1
340
0
102
{BLKREFS
331
4B
102
}
  0
BLOCK_RECORD
  5
4A
330
1
100
AcDbSymbolTableRecord
100
AcDbBlockTableRecord
  2
Allg1
340
0
102
{BLKREFS
331
7D
102
}
  0
BLOCK_RECORD
  5
4E
330
1
100
AcDbSymbolTableRecord
100
AcDbBlockTableRecord
  2
ma_20x8-select__2
340
0
102
{BLKREFS
331
52
102
}
  0
BLOCK_RECORD
  5
51
330
1
100
AcDbSymbolTableRecord
100
AcDbBlockTableRecord
  2
Vordans1
340
0
102
{BLKREFS
331
7E
102
}
  0
BLOCK_RECORD
  5
55
330
1
100
AcDbSymbolTableRecord
100
AcDbBlockTableRecord
  2
ma_20x8-select__3
340
0
102
{BLKREFS
331
59
102
}
  0
BLOCK_RECORD
  5
58
330
1
100
AcDbSymbolTableRecord
100
AcDbBlockTableRecord
  2
Drfsicht1
340
0
102
{BLKREFS
331
7F
102
}
  0
BLOCK_RECORD
  5
5C
330
1
100
AcDbSymbolTableRecord
100
AcDbBlockTableRecord
  2
ma_20x8-select__4
340
0
102
{BLKREFS
331
60
102
}
  0
BLOCK_RECORD
  5
5F
330
1
100
AcDbSymbolTableRecord
100
AcDbBlockTableRecord
  2
SA_Rechts1
340
0
102
{BLKREFS
331
80
102
}
  0
BLOCK_RECORD
  5
63
330
1
100
AcDbSymbolTableRecord
100
AcDbBlockTableRecord
  2
ma_20x8-select__5
340
0
102
{BLKREFS
331
67
102
}
  0
BLOCK_RECORD
  5
66
330
1
100
AcDbSymbolTableRecord
100
AcDbBlockTableRecord
  2
SA_Links1
340
0
102
{BLKREFS
331
81
102
}
  0
BLOCK_RECORD
  5
6A
330
1
100
AcDbSymbolTableRecord
100
AcDbBlockTableRecord
  2
ma_20x8-select__6
340
0
102
{BLKREFS
331
6E
102
}
  0
BLOCK_RECORD
  5
6D
330
1
100
AcDbSymbolTableRecord
100
AcDbBlockTableRecord
  2
Rckans1
340
0
102
{BLKREFS
331
82
102
}
  0
BLOCK_RECORD
  5
71
330
1
100
AcDbSymbolTableRecord
100
AcDbBlockTableRecord
  2
_rahmen
340
0
102
{BLKREFS
331
78
102
}
  0
BLOCK_RECORD
  5
74
330
1
100
AcDbSymbolTableRecord
100
AcDbBlockTableRecord
  2
_punkt
340
0
102
{BLKREFS
331
79
102
}
  0
BLOCK_RECORD
  5
77
330
1
100
AcDbSymbolTableRecord
100
AcDbBlockTableRecord
  2
A4I_CS
340
0
102
{BLKREFS
331
83
102
}
  0
BLOCK_RECORD
  5
7C
330
1
100
AcDbSymbolTableRecord
100
AcDbBlockTableRecord
  2
1
340
0
102
{BLKREFS
331
86
102
}
  0
BLOCK_RECORD
  5
C9
330
1
100
AcDbSymbolTableRecord
100
AcDbBlockTableRecord
  2
*D17
340
0
  0
BLOCK_RECORD
  5
D4
330
1
100
AcDbSymbolTableRecord
100
AcDbBlockTableRecord
  2
*D18
340
0
  0
BLOCK_RECORD
  5
DF
330
1
100
AcDbSymbolTableRecord
100
AcDbBlockTableRecord
  2
*D19
340
0
  0
ENDTAB
  0
ENDSEC
  0
SECTION
  2
BLOCKS
  0
BLOCK
  5
20
330
1F
100
AcDbEntity
  8
0
100
AcDbBlockBegin
  2
*Model_Space
 70
     0
 10
0.0
 20
0.0
 30
0.0
  3
*Model_Space
  1

  0
ENDBLK
  5
21
330
1F
100
AcDbEntity
  8
0
100
AcDbBlockEnd
  0
BLOCK
  5
1C
330
1B
100
AcDbEntity
 67
     1
  8
0
100
AcDbBlockBegin
  2
*Paper_Space
 70
     0
 10
0.0
 20
0.0
 30
0.0
  3
*Paper_Space
  1

  0
ENDBLK
  5
1D
330
1B
100
AcDbEntity
 67
     1
  8
0
100
AcDbBlockEnd
  0
BLOCK
  5
24
330
23
100
AcDbEntity
  8
0
100
AcDbBlockBegin
  2
*Paper_Space0
 70
     0
 10
0.0
 20
0.0
 30
0.0
  3
*Paper_Space0
  1

  0
ENDBLK
  5
25
330
23
100
AcDbEntity
  8
0
100
AcDbBlockEnd
  0
BLOCK
  5
48
330
47
100
AcDbEntity
  8
0
100
AcDbBlockBegin
  2
ma_20x8-select__1
 70
     0
 10
-16.25833025202036
 20
39.49093109338307
 30
0.0
  3
ma_20x8-select__1
  1

  0
LINE
  5
87
330
47
100
AcDbEntity
  8
0
  6
Continuous
 62
     7
100
AcDbLine
 10
6.25833024637503
 20
39.49093109338307
 30
0.0
 11
-16.25833025202036
 21
45.99093109338308
 31
0.0
  0
LINE
  5
88
330
47
100
AcDbEntity
  8
0
  6
Continuous
 62
     7
100
AcDbLine
 10
-11.7321897253645
 20
56.79887818701698
 30
0.0
 11
-11.09996817634889
 21
57.34639810928445
 31
0.0
  0
LINE
  5
89
330
47
100
AcDbEntity
  8
0
  6
Continuous
 62
     7
100
AcDbLine
 10
-8.81909976747922
 20
51.23349368586103
 30
0.0
 11
-12.28520946081964
 21
48.23175463086703
 31
0.0
  0
LINE
  5
8A
330
47
100
AcDbEntity
  8
0
  6
Continuous
 62
     7
100
AcDbLine
 10
-13.57740721479834
 20
47.04620202565685
 30
0.0
 11
-12.79195549754309
 21
48.37803961122105
 31
0.0
  0
LINE
  5
8B
330
47
100
AcDbEntity
  8
0
  6
Continuous
 62
     7
100
AcDbLine
 10
-11.18152078447411
 20
53.84543107950989
 30
0.0
 11
-11.11439583814823
 21
55.41220812017679
 31
0.0
  0
LINE
  5
8C
330
47
100
AcDbEntity
  8
0
  6
Continuous
 62
     7
100
AcDbLine
 10
-11.1694890132546
 20
53.8415780714512
 30
0.0
 11
-11.18152078447411
 21
53.84543107950989
 31
0.0
  0
LINE
  5
8D
330
47
100
AcDbEntity
  8
0
  6
Continuous
 62
     7
100
AcDbLine
 10
6.25833024637503
 20
39.49093109338307
 30
0.0
 11
13.25833024637485
 21
45.55310891987396
 31
0.0
  0
LINE
  5
8E
330
47
100
AcDbEntity
  8
0
  6
Continuous
 62
     7
100
AcDbLine
 10
3.73275536977098
 20
43.6077664774613
 30
0.0
 11
3.73275536977098
 21
49.53967066841641
 31
0.0
  0
LINE
  5
8F
330
47
100
AcDbEntity
  8
0
  6
Continuous
 62
     7
100
AcDbLine
 10
4.63275536977099
 20
44.23339574765637
 30
0.0
 11
4.63275536977099
 21
49.28024278216363
 31
0.0
  0
LINE
  5
90
330
47
100
AcDbEntity
  8
0
  6
Continuous
 62
     7
100
AcDbLine
 10
4.63275536977099
 20
47.35027758530767
 30
0.0
 11
5.45534458953307
 21
47.11281653157661
 31
0.0
  0
LINE
  5
91
330
47
100
AcDbEntity
  8
0
  6
Continuous
 62
     7
100
AcDbLine
 10
4.42303900646263
 20
43.40849875573074
 30
0.0
 11
-12.79195549754309
 21
48.37803961122105
 31
0.0
  0
LINE
  5
92
330
47
100
AcDbEntity
  8
0
  6
Continuous
 62
     7
100
AcDbLine
 10
4.08951102240421
 20
41.94620202565685
 30
0.0
 11
-13.57740721479834
 21
47.04620202565685
 31
0.0
  0
LINE
  5
93
330
47
100
AcDbEntity
  8
0
  6
Continuous
 62
     7
100
AcDbLine
 10
-4.11242699252892
 20
49.87479428080079
 30
0.0
 11
1.91410161189055
 21
48.13508532478051
 31
0.0
  0
LINE
  5
94
330
47
100
AcDbEntity
  8
0
  6
Continuous
 62
     7
100
AcDbLine
 10
-4.11399575817371
 20
45.87292841545273
 30
0.0
 11
-4.11167051527124
 21
51.80454110148257
 31
0.0
  0
LINE
  5
95
330
47
100
AcDbEntity
  8
0
  6
Continuous
 62
     7
100
AcDbLine
 10
1.91410161189055
 20
44.1327665957988
 30
0.0
 11
1.91410161189055
 21
50.06467078675391
 31
0.0
  0
LINE
  5
96
330
47
100
AcDbEntity
  8
0
  6
Continuous
 62
     7
100
AcDbLine
 10
-5.01358841703114
 20
46.13261844732891
 30
0.0
 11
-5.01126317412868
 21
52.06423113335874
 31
0.0
  0
LINE
  5
97
330
47
100
AcDbEntity
  8
0
  6
Continuous
 62
     7
100
AcDbLine
 10
-6.83275496543162
 20
46.6577665955388
 30
0.0
 11
-6.83275496543162
 21
52.59005052137647
 31
0.0
  0
LINE
  5
98
330
47
100
AcDbEntity
  8
0
  6
Continuous
 62
     7
100
AcDbLine
 10
8.75571134310844
 20
51.61449815237848
 30
0.0
 11
-11.09996817634889
 21
57.34639810928445
 31
0.0
  0
LINE
  5
99
330
47
100
AcDbEntity
  8
0
  6
Continuous
 62
     7
100
AcDbLine
 10
6.02910092291205
 20
48.87715254166977
 30
0.0
 11
-11.1694890132546
 21
53.8415780714512
 31
0.0
  0
LINE
  5
9A
330
47
100
AcDbEntity
  8
0
  6
Continuous
 62
     2
100
AcDbLine
 10
8.02627943881025
 20
51.68227404392476
 30
0.0
 11
-11.02627944444739
 21
57.18227404392476
 31
0.0
  0
LINE
  5
9B
330
47
100
AcDbEntity
  8
0
  6
Continuous
 62
     7
100
AcDbLine
 10
6.5525223990543
 20
50.31220812017678
 30
0.0
 11
-11.11439583814823
 21
55.41220812017679
 31
0.0
  0
LINE
  5
9C
330
47
100
AcDbEntity
  8
0
  6
Continuous
 62
     7
100
AcDbLine
 10
-8.81909976747922
 20
51.23349368586103
 30
0.0
 11
-6.83275496543162
 21
50.66008532452051
 31
0.0
  0
SPLINE
  5
9D
330
47
100
AcDbEntity
  8
0
  6
Continuous
 62
     7
100
AcDbSpline
210
0.0
220
0.0
230
1.0
 70
     8
 71
     3
 72
    23
 73
    19
 74
    17
 42
0.000000001
 43
0.0000000001
 44
0.00000001
 40
0.0
 40
0.0
 40
0.0
 40
0.0
 40
0.3356658704351252
 40
0.7821861598179832
 40
1.847740950709817
 40
3.094548355927951
 40
4.486879582534341
 40
5.986034199912713
 40
6.320964258624448
 40
6.878400559829822
 40
7.615438832854824
 40
8.489591818546975
 40
9.458984150848988
 40
10.31944647106011
 40
11.03755105345663
 40
11.59507753865221
 40
11.74789184678156
 40
11.87891602578362
 40
11.87891602578362
 40
11.87891602578362
 40
11.87891602578362
 10
-11.7321897253645
 20
56.79887818701698
 30
0.0
 10
-11.81441969500027
 20
56.72289883955367
 30
0.0
 10
-12.00603627994789
 20
56.54584780316228
 30
0.0
 10
-12.40839971212742
 20
56.07797422539572
 30
0.0
 10
-12.93686598103638
 20
55.32323243849272
 30
0.0
 10
-13.55120198607242
 20
54.25064023674626
 30
0.0
 10
-14.1580474292456
 20
53.01102131027031
 30
0.0
 10
-14.57751347854387
 20
52.02015800707574
 30
0.0
 10
-14.86766033812963
 20
51.27766072900364
 30
0.0
 10
-15.05759069618245
 20
50.76878050393443
 30
0.0
 10
-15.29688034024395
 20
50.08659698413572
 30
0.0
 10
-15.56129874648406
 20
49.26793339223215
 30
0.0
 10
-15.81166947724743
 20
48.40188212664769
 30
0.0
 10
-16.01805224276831
 20
47.57778920066641
 30
0.0
 10
-16.16196619321817
 20
46.88023508741065
 30
0.0
 10
-16.23221749844597
 20
46.40884574284093
 30
0.0
 10
-16.25555363334827
 20
46.12922050382231
 30
0.0
 10
-16.25745332048256
 20
46.03460640545094
 30
0.0
 10
-16.25833025202036
 20
45.99093109338308
 30
0.0
 11
-11.7321897253645
 21
56.79887818701698
 31
0.0
 11
-11.97495924824916
 21
56.56707108270815
 31
0.0
 11
-12.27014310339246
 21
56.23203845427896
 31
0.0
 11
-12.88951577046892
 21
55.36498337514656
 31
0.0
 11
-13.51576980884609
 21
54.28686715537843
 31
0.0
 11
-14.13123210674526
 21
53.03795066400417
 31
0.0
 11
-14.71822955238769
 21
51.65849477005337
 31
0.0
 11
-14.84006693808295
 21
51.34651112374751
 31
0.0
 11
-15.0351617583941
 21
50.82432989019654
 31
0.0
 11
-15.27909511747686
 21
50.12882868123393
 31
0.0
 11
-15.54744811948693
 21
49.29688510869309
 31
0.0
 11
-15.81580186858001
 21
48.36537678440747
 31
0.0
 11
-16.02319174942134
 21
47.53028107677412
 31
0.0
 11
-16.16543051082293
 21
46.8264044361139
 31
0.0
 11
-16.24273763163666
 21
46.27426370196194
 31
0.0
 11
-16.25442671078358
 21
46.12189710985813
 31
0.0
 11
-16.25833025202036
 21
45.99093109338308
 31
0.0
  0
SPLINE
  5
9E
330
47
100
AcDbEntity
  8
0
  6
Continuous
 62
     7
100
AcDbSpline
210
0.0
220
0.0
230
1.0
 70
     8
 71
     3
 72
    11
 73
     7
 74
     5
 42
0.000000001
 43
0.0000000001
 44
0.00000001
 40
0.0
 40
0.0
 40
0.0
 40
0.0
 40
2.035501012252563
 40
4.388021839427479
 40
6.740685384024264
 40
8.728292646799412
 40
8.728292646799412
 40
8.728292646799412
 40
8.728292646799412
 10
-13.57740721479834
 20
47.04620202565685
 30
0.0
 10
-13.42810251305812
 20
47.70818610664175
 30
0.0
 10
-13.10623958138348
 20
49.13525520649235
 30
0.0
 10
-12.49616610137301
 20
51.29841181603125
 30
0.0
 10
-11.84354850697614
 20
53.43255054766779
 30
0.0
 10
-11.34342508838707
 20
54.790391183327
 30
0.0
 10
-11.11439583814823
 20
55.41220812017679
 30
0.0
 11
-13.57740721479834
 21
47.04620202565685
 31
0.0
 11
-13.11329422963653
 21
49.02808585375797
 31
0.0
 11
-12.48794031378207
 21
51.29596740365017
 31
0.0
 11
-11.78535629142064
 21
53.54127394131104
 31
0.0
 11
-11.11439583814823
 21
55.41220812017679
 31
0.0
  0
SPLINE
  5
9F
330
47
100
AcDbEntity
  8
0
  6
Continuous
 62
     7
100
AcDbSpline
210
0.0
220
0.0
230
1.0
 70
     8
 71
     3
 72
    11
 73
     7
 74
     5
 42
0.000000001
 43
0.0000000001
 44
0.00000001
 40
0.0
 40
0.0
 40
0.0
 40
0.0
 40
1.759829244684947
 40
2.85495267646802
 40
4.741187031403603
 40
5.700311300217349
 40
5.700311300217349
 40
5.700311300217349
 40
5.700311300217349
 10
-12.7340375369621
 20
48.36132013615739
 30
0.0
 10
-12.58946744874054
 20
48.92986711592729
 30
0.0
 10
-12.35493288559117
 20
49.85221496331604
 30
0.0
 10
-11.92882929690989
 20
51.37413495622162
 30
0.0
 10
-11.55832790939142
 20
52.63447323797439
 30
0.0
 10
-11.26751674802289
 20
53.53726246069383
 30
0.0
 10
-11.1694890132546
 20
53.8415780714512
 30
0.0
 11
-12.7340375369621
 21
48.36132013615739
 31
0.0
 11
-12.29194983188315
 21
50.06471598895164
 31
0.0
 11
-11.99825858369093
 21
51.11972346841698
 31
0.0
 11
-11.46092723177624
 21
52.92780395928955
 31
0.0
 11
-11.1694890132546
 21
53.8415780714512
 31
0.0
  0
SPLINE
  5
A0
330
47
100
AcDbEntity
  8
0
  6
Continuous
 62
     7
100
AcDbSpline
210
0.0
220
0.0
230
1.0
 70
     8
 71
     3
 72
    11
 73
     7
 74
     5
 42
0.000000001
 43
0.0000000001
 44
0.00000001
 40
0.0
 40
0.0
 40
0.0
 40
0.0
 40
0.1760064311829074
 40
0.404337484613318
 40
0.5876652432509148
 40
0.8128569142535891
 40
0.8128569142535891
 40
0.8128569142535891
 40
0.8128569142535891
 10
-11.02627944444739
 20
57.18227404392476
 30
0.0
 10
-11.08376360981718
 20
57.16963417662245
 30
0.0
 10
-11.21582129620672
 20
57.14059674383893
 30
0.0
 10
-11.391708645675
 20
57.05005657569706
 30
0.0
 10
-11.56955754591775
 20
56.93407238700649
 30
0.0
 10
-11.67439775945056
 20
56.84691996860022
 30
0.0
 10
-11.7321897253645
 20
56.79887818701698
 30
0.0
 11
-11.02627944444739
 21
57.18227404392476
 31
0.0
 11
-11.19664004136616
 21
57.13805265397109
 31
0.0
 11
-11.40264066974175
 21
57.0395701054929
 31
0.0
 11
-11.55600483775151
 21
56.93912858266755
 31
0.0
 11
-11.7321897253645
 21
56.79887818701698
 31
0.0
  0
SPLINE
  5
A1
330
47
100
AcDbEntity
  8
0
  6
Continuous
 62
     7
100
AcDbSpline
210
0.0
220
0.0
230
1.0
 70
     8
 71
     3
 72
    14
 73
    10
 74
     8
 42
0.000000001
 43
0.0000000001
 44
0.00000001
 40
0.0
 40
0.0
 40
0.0
 40
0.0
 40
0.047522785589348
 40
0.0877483628534291
 40
0.1206733245856659
 40
0.1463129826052515
 40
0.1647045929731419
 40
0.1759159401377941
 40
0.1801133422321996
 40
0.1801133422321996
 40
0.1801133422321996
 40
0.1801133422321996
 10
-11.02627944444739
 20
57.18227404392476
 30
0.0
 10
-11.03317709899591
 20
57.19653391004832
 30
0.0
 10
-11.04591327311114
 20
57.22286400854854
 30
0.0
 10
-11.06314583348022
 20
57.25921678972573
 30
0.0
 10
-11.07691030631187
 20
57.28911663435969
 30
0.0
 10
-11.08755822296509
 20
57.31249528362862
 30
0.0
 10
-11.09437634387785
 20
57.32952726490093
 30
0.0
 10
-11.09910480614363
 20
57.33990156445275
 30
0.0
 10
-11.09978333609489
 20
57.34500729089736
 30
0.0
 10
-11.09996817634889
 20
57.34639810928445
 30
0.0
 11
-11.02627944444739
 21
57.18227404392476
 31
0.0
 11
-11.04691216294354
 21
57.22508415842623
 31
0.0
 11
-11.06411155244833
 21
57.26144730001723
 31
0.0
 11
-11.07790745978272
 21
57.29134255120618
 31
0.0
 11
-11.08833799285788
 21
57.31476467834901
 31
0.0
 11
-11.09545075088261
 21
57.33172522081642
 31
0.0
 11
-11.09930405457082
 21
57.34225358016097
 31
0.0
 11
-11.09996817634889
 21
57.34639810928445
 31
0.0
  0
SPLINE
  5
A2
330
47
100
AcDbEntity
  8
0
  6
Continuous
 62
     7
100
AcDbSpline
210
0.0
220
0.0
230
1.0
 70
     8
 71
     3
 72
    13
 73
     9
 74
     7
 42
0.000000001
 43
0.0000000001
 44
0.00000001
 40
0.0
 40
0.0
 40
0.0
 40
0.0
 40
1.609233322902054
 40
3.664334812854368
 40
5.442668890638891
 40
6.976400891037756
 40
7.48298574529757
 40
7.865688688203507
 40
7.865688688203507
 40
7.865688688203507
 40
7.865688688203507
 10
8.755711343108445
 20
51.61449815237848
 30
0.0
 10
9.242575808390015
 20
51.37917135852971
 30
0.0
 10
10.35119962658773
 20
50.84331606826633
 30
0.0
 10
11.57284134628187
 20
49.44750247585306
 30
0.0
 10
12.54772293121526
 20
47.94873407551482
 30
0.0
 10
13.04325252869492
 20
46.76532714809117
 30
0.0
 10
13.23356512496621
 20
45.97707044871844
 30
0.0
 10
13.25087918810937
 20
45.68066592210575
 30
0.0
 10
13.25833024637485
 20
45.55310891987396
 30
0.0
 11
8.755711343108445
 21
51.61449815237848
 31
0.0
 11
10.16111896204177
 21
50.83062233271904
 31
0.0
 11
11.58778891188556
 21
49.35141478022531
 31
0.0
 11
12.54262245785401
 21
47.85115980344042
 31
0.0
 11
13.1174856708757
 21
46.42923641157248
 31
0.0
 11
13.22624785614756
 21
45.93446474432292
 31
0.0
 11
13.25833024637485
 21
45.55310891987396
 31
0.0
  0
SPLINE
  5
A3
330
47
100
AcDbEntity
  8
0
  6
Continuous
 62
     7
100
AcDbSpline
210
0.0
220
0.0
230
1.0
 70
     8
 71
     3
 72
    22
 73
    18
 74
    16
 42
0.000000001
 43
0.0000000001
 44
0.00000001
 40
0.0
 40
0.0
 40
0.0
 40
0.0
 40
0.1991028682485901
 40
0.4392164778494873
 40
1.045009369799645
 40
1.799677126056209
 40
2.683227934352469
 40
4.414494283865364
 40
6.324808237169927
 40
7.939972370713794
 40
9.497580885509038
 40
10.29875638694683
 40
11.03588952556026
 40
11.5247015921237
 40
11.9428443320917
 40
12.19464811040866
 40
12.3540944202831
 40
12.3540944202831
 40
12.3540944202831
 40
12.3540944202831
 10
6.258330246375031
 20
39.49093109338307
 30
0.0
 10
6.260116479983723
 20
39.55729279740386
 30
0.0
 10
6.264056881037559
 20
39.70368523288392
 30
0.0
 10
6.298036841876298
 20
40.05056717172073
 30
0.0
 10
6.371321651648789
 20
40.57911282601624
 30
0.0
 10
6.496019537784948
 20
41.3167234351355
 30
0.0
 10
6.699298079640985
 20
42.42134400337524
 30
0.0
 10
6.987002386166063
 20
43.90204434353041
 30
0.0
 10
7.318844837786734
 20
45.62258753699903
 30
0.0
 10
7.623321778690952
 20
47.28941032317589
 30
0.0
 10
7.839390509967227
 20
48.59642621320094
 30
0.0
 10
7.982325979104006
 20
49.61861529334999
 30
0.0
 10
8.05741036485919
 20
50.29005233978026
 30
0.0
 10
8.098264637229459
 20
50.83723548063377
 30
0.0
 10
8.101656885397565
 20
51.22265894812877
 30
0.0
 10
8.0867464706973
 20
51.50123712572554
 30
0.0
 10
8.043173259217985
 20
51.6316943145976
 30
0.0
 10
8.02627943881025
 20
51.68227404392476
 30
0.0
 11
6.258330246375031
 21
39.49093109338307
 31
0.0
 11
6.265814029459143
 21
39.68989325426523
 31
0.0
 11
6.287050727029026
 21
39.92906589539713
 31
0.0
 11
6.367144056402912
 21
40.52954077853607
 31
0.0
 11
6.490512451656779
 21
41.27405649782948
 31
0.0
 11
6.649126307256226
 21
42.14325363663737
 31
0.0
 11
6.97524645159347
 21
43.84352680309811
 31
0.0
 11
7.334136431049025
 21
45.71982565648957
 31
0.0
 11
7.622223469245633
 21
47.30908996358679
 31
0.0
 11
7.87208223466309
 21
48.84652772917831
 31
0.0
 11
7.98147348794236
 21
49.64020004051478
 31
0.0
 11
8.061204959448666
 21
50.37300844408994
 31
0.0
 11
8.094245427725594
 21
50.86070257335005
 31
0.0
 11
8.096688023800915
 21
51.2788381786735
 31
0.0
 11
8.07152232957441
 21
51.52938124940523
 31
0.0
 11
8.02627943881025
 21
51.68227404392476
 31
0.0
  0
SPLINE
  5
A4
330
47
100
AcDbEntity
  8
0
  6
Continuous
 62
     7
100
AcDbSpline
210
0.0
220
0.0
230
1.0
 70
     8
 71
     3
 72
    11
 73
     7
 74
     5
 42
0.000000001
 43
0.0000000001
 44
0.00000001
 40
0.0
 40
0.0
 40
0.0
 40
0.0
 40
2.035501012252071
 40
4.388021839427461
 40
6.740685384025892
 40
8.728292646799385
 40
8.728292646799385
 40
8.728292646799385
 40
8.728292646799385
 10
4.08951102240421
 20
41.94620202565685
 30
0.0
 10
4.238815724144391
 20
42.60818610664161
 30
0.0
 10
4.560678655819027
 20
44.03525520649219
 30
0.0
 10
5.170752135829629
 20
46.19841181603164
 30
0.0
 10
5.823369730226551
 20
48.3325505476683
 30
0.0
 10
6.323493148815639
 20
49.69039118332751
 30
0.0
 10
6.552522399054297
 20
50.31220812017678
 30
0.0
 11
4.08951102240421
 21
41.94620202565685
 31
0.0
 11
4.553624007565903
 21
43.9280858537575
 31
0.0
 11
5.178977923420469
 21
46.19596740365016
 31
0.0
 11
5.881561945782408
 21
48.44127394131259
 31
0.0
 11
6.552522399054297
 21
50.31220812017678
 31
0.0
  0
SPLINE
  5
A5
330
47
100
AcDbEntity
  8
0
  6
Continuous
 62
     7
100
AcDbSpline
210
0.0
220
0.0
230
1.0
 70
     8
 71
     3
 72
     9
 73
     5
 74
     3
 42
0.000000001
 43
0.0000000001
 44
0.00000001
 40
0.0
 40
0.0
 40
0.0
 40
0.0
 40
0.3476831753972106
 40
0.7367325588155529
 40
0.7367325588155529
 40
0.7367325588155529
 40
0.7367325588155529
 10
8.02627943881025
 20
51.68227404392476
 30
0.0
 10
8.142654063295106
 20
51.69036159834294
 30
0.0
 10
8.389249184241834
 20
51.70749891810767
 30
0.0
 10
8.629068810861822
 20
51.64663750091722
 30
0.0
 10
8.755711343108445
 20
51.61449815237848
 30
0.0
 11
8.02627943881025
 21
51.68227404392476
 31
0.0
 11
8.373894314802646
 21
51.68916528343899
 31
0.0
 11
8.755711343108445
 21
51.61449815237848
 31
0.0
  0
SPLINE
  5
A6
330
47
100
AcDbEntity
  8
0
  6
Continuous
 62
     7
100
AcDbSpline
210
0.0
220
0.0
230
1.0
 70
     8
 71
     3
 72
    13
 73
     9
 74
     7
 42
0.000000001
 43
0.0000000001
 44
0.00000001
 40
0.0
 40
0.0
 40
0.0
 40
0.0
 40
0.2381502115130263
 40
0.4725940265767102
 40
1.270115099128108
 40
1.746482553131038
 40
1.987286959300645
 40
2.200894792894702
 40
2.200894792894702
 40
2.200894792894702
 40
2.200894792894702
 10
-9.430318398472814
 20
53.3399024950282
 30
0.0
 10
-9.401733902134202
 20
53.26584203840924
 30
0.0
 10
-9.345009765509873
 20
53.11887375290065
 30
0.0
 10
-9.197411957012669
 20
52.72208852942483
 30
0.0
 10
-9.031576474180934
 20
52.24698240866149
 30
0.0
 10
-8.89685229777965
 20
51.76035154432113
 30
0.0
 10
-8.83278371422658
 20
51.45602043063354
 30
0.0
 10
-8.823475375182984
 20
51.30464941646516
 30
0.0
 10
-8.819099767479223
 20
51.23349368586103
 30
0.0
 11
-9.430318398472814
 21
53.3399024950282
 31
0.0
 11
-9.345023219307876
 21
53.1175508504611
 31
0.0
 11
-9.263179691136962
 21
52.89785665495463
 31
0.0
 11
-9.006752624481264
 21
52.14268447559999
 31
0.0
 11
-8.882263861061812
 21
51.68287092878538
 31
0.0
 11
-8.837081395091225
 21
51.44634332397215
 31
0.0
 11
-8.819099767479223
 21
51.23349368586103
 31
0.0
  0
ENDBLK
  5
49
330
47
100
AcDbEntity
  8
0
100
AcDbBlockEnd
  0
BLOCK
  5
4C
330
4A
100
AcDbEntity
  8
0
100
AcDbBlockBegin
  2
Allg1
 70
     0
 10
-1.50000000000194
 20
48.49999999996305
 30
0.0
  3
Allg1
  1

  0
INSERT
  5
4B
330
4A
100
AcDbEntity
  8
0
100
AcDbBlockReference
  2
ma_20x8-select__1
 10
-16.25833025202036
 20
39.49093109338307
 30
0.0
  0
MTEXT
  5
A8
330
4A
100
AcDbEntity
  8
1
 62
     6
100
AcDbMText
 10
-1.50000000000199
 20
33.7866370501464
 30
0.0
 40
2.5
 41
0.0
 71
     2
 72
     1
  1
 
  7
CONVERTER_11
 73
     1
 44
1.32052821128451
  0
ENDBLK
  5
4D
330
4A
100
AcDbEntity
  8
0
100
AcDbBlockEnd
  0
BLOCK
  5
4F
330
4E
100
AcDbEntity
  8
0
100
AcDbBlockBegin
  2
ma_20x8-select__2
 70
     0
 10
-70.99922576875508
 20
74.14760956764702
 30
0.0
  3
ma_20x8-select__2
  1

  0
LINE
  5
A9
330
4E
100
AcDbEntity
  8
0
  6
Continuous
 62
     7
100
AcDbLine
 10
-47.79975510111341
 20
80.37718035329273
 30
0.0
 11
-47.80159195663931
 21
85.06346431049695
 31
0.0
  0
LINE
  5
AA
330
4E
100
AcDbEntity
  8
0
  6
Continuous
 62
     7
100
AcDbLine
 10
-47.79946017870634
 20
79.62475855126273
 30
0.0
 11
-47.79975510111341
 21
80.37718035329273
 31
0.0
  0
LINE
  5
AB
330
4E
100
AcDbEntity
  8
0
  6
Continuous
 62
     7
100
AcDbLine
 10
-47.8015984165387
 20
85.0799451509302
 30
0.0
 11
-47.80228123118701
 21
86.82197836316318
 31
0.0
  0
LINE
  5
AC
330
4E
100
AcDbEntity
  8
0
  6
Continuous
 62
     7
100
AcDbLine
 10
-47.80159195663931
 20
85.06346431049695
 30
0.0
 11
-47.8015984165387
 21
85.0799451509302
 31
0.0
  0
LINE
  5
AD
330
4E
100
AcDbEntity
  8
0
  6
Continuous
 62
     7
100
AcDbLine
 10
-68.20159038955299
 20
85.05546824150237
 30
0.0
 11
-47.80159195663931
 21
85.06346431049695
 31
0.0
  0
LINE
  5
AE
330
4E
100
AcDbEntity
  8
0
  6
Continuous
 62
     7
100
AcDbLine
 10
-47.8015984165387
 20
85.0799451509302
 30
0.0
 11
-68.20159684945237
 21
85.07194908193561
 31
0.0
  0
LINE
  5
AF
330
4E
100
AcDbEntity
  8
0
  6
Continuous
 62
     7
100
AcDbLine
 10
-47.80228123118701
 20
86.82197836316318
 30
0.0
 11
-68.2022796641007
 21
86.81398229415414
 31
0.0
  0
LINE
  5
B0
330
4E
100
AcDbEntity
  8
0
  6
Continuous
 62
     7
100
AcDbLine
 10
-47.79975510111341
 20
80.37718035329273
 30
0.0
 11
-68.1997535340271
 21
80.36918428429816
 31
0.0
  0
LINE
  5
B1
330
4E
100
AcDbEntity
  8
0
  6
Continuous
 62
     7
100
AcDbLine
 10
-47.79946017870634
 20
79.62475855126273
 30
0.0
 11
-68.19945861162003
 21
79.61676248226816
 31
0.0
  0
LINE
  5
B2
330
4E
100
AcDbEntity
  8
0
  6
Continuous
 62
     7
100
AcDbLine
 10
-61.99790269125528
 20
80.37161518778488
 30
0.0
 11
-61.99790269125528
 21
85.0578998649657
 31
0.0
  0
LINE
  5
B3
330
4E
100
AcDbEntity
  8
0
  6
Continuous
 62
     7
100
AcDbLine
 10
-64.09975384843072
 20
80.37079133738487
 30
0.0
 11
-64.10159070395663
 21
85.0570752945841
 31
0.0
  0
LINE
  5
B4
330
4E
100
AcDbEntity
  8
0
  6
Continuous
 62
     7
100
AcDbLine
 10
-68.1997535340271
 20
80.36918428429816
 30
0.0
 11
-68.20159038955299
 21
85.05546824150237
 31
0.0
  0
LINE
  5
B5
330
4E
100
AcDbEntity
  8
0
  6
Continuous
 62
     7
100
AcDbLine
 10
-68.19945861162003
 20
79.61676248226816
 30
0.0
 11
-68.1997535340271
 21
80.36918428429816
 31
0.0
  0
LINE
  5
B6
330
4E
100
AcDbEntity
  8
0
  6
Continuous
 62
     7
100
AcDbLine
 10
-68.20159684945237
 20
85.07194908193561
 30
0.0
 11
-68.2022796641007
 21
86.81398229415414
 31
0.0
  0
LINE
  5
B7
330
4E
100
AcDbEntity
  8
0
  6
Continuous
 62
     7
100
AcDbLine
 10
-68.20159038955299
 20
85.05546824150237
 30
0.0
 11
-68.20159684945237
 21
85.07194908193561
 31
0.0
  0
LINE
  5
B8
330
4E
100
AcDbEntity
  8
0
  6
Continuous
 62
     7
100
AcDbLine
 10
-47.00268580720697
 20
87.85431110657069
 30
0.0
 11
-69.00268411721191
 21
87.84568789490987
 31
0.0
  0
LINE
  5
B9
330
4E
100
AcDbEntity
  8
0
  6
Continuous
 62
     7
100
AcDbLine
 10
-44.99876631917887
 20
77.85509580308249
 30
0.0
 11
-70.998764321912
 21
77.84490473475608
 31
0.0
  0
LINE
  5
BA
330
4E
100
AcDbEntity
  8
0
  6
Continuous
 62
     7
100
AcDbLine
 10
-64.64672538805718
 20
75.09835618148361
 30
0.0
 11
-64.0973145839886
 21
74.14760956764702
 31
0.0
  0
LINE
  5
BB
330
4E
100
AcDbEntity
  8
0
  6
Continuous
 62
     7
100
AcDbLine
 10
-64.64672538805718
 20
75.09835618148361
 30
0.0
 11
-64.09790300340005
 21
75.64760897229459
 31
0.0
  0
LINE
  5
BC
330
4E
100
AcDbEntity
  8
0
  6
Continuous
 62
     7
100
AcDbLine
 10
-51.8979029949192
 20
75.65239093549535
 30
0.0
 11
-51.34865020409822
 21
75.10356855083823
 31
0.0
  0
LINE
  5
BD
330
4E
100
AcDbEntity
  8
0
  6
Continuous
 62
     7
100
AcDbLine
 10
-51.89731552220768
 20
74.1523915304767
 30
0.0
 11
-51.34865020409822
 21
75.10356855083823
 31
0.0
  0
LINE
  5
BE
330
4E
100
AcDbEntity
  8
0
  6
Continuous
 62
     7
100
AcDbLine
 10
-53.99731536088997
 20
74.15156840572726
 30
0.0
 11
-51.89731552220768
 21
74.1523915304767
 31
0.0
  0
LINE
  5
BF
330
4E
100
AcDbEntity
  8
0
  6
Continuous
 62
     7
100
AcDbLine
 10
-51.89975431329984
 20
80.3755733004001
 30
0.0
 11
-51.90159116882574
 21
85.06185725759931
 31
0.0
  0
LINE
  5
C0
330
4E
100
AcDbEntity
  8
0
  6
Continuous
 62
     7
100
AcDbLine
 10
-53.99975462533209
 20
80.37475017546512
 30
0.0
 11
-54.00159148085799
 21
85.06103413266433
 31
0.0
  0
LINE
  5
C1
330
4E
100
AcDbEntity
  8
0
  6
Continuous
 62
     7
100
AcDbLine
 10
-61.99790269126115
 20
74.1484324619427
 30
0.0
 11
-61.99790269125528
 21
77.84843275025304
 31
0.0
  0
LINE
  5
C2
330
4E
100
AcDbEntity
  8
0
  6
Continuous
 62
     7
100
AcDbLine
 10
-64.09790300340005
 20
75.64760897229459
 30
0.0
 11
-64.09876485140589
 21
77.84760928750445
 31
0.0
  0
LINE
  5
C3
330
4E
100
AcDbEntity
  8
0
  6
Continuous
 62
     7
100
AcDbLine
 10
-51.8979029949192
 20
75.65239093549535
 30
0.0
 11
-51.898765316275
 21
77.85239125051967
 31
0.0
  0
LINE
  5
C4
330
4E
100
AcDbEntity
  8
0
  6
Continuous
 62
     7
100
AcDbLine
 10
-53.99731536088997
 20
74.15156840572726
 30
0.0
 11
-53.99876562830725
 21
77.85156812558469
 31
0.0
  0
LINE
  5
C5
330
4E
100
AcDbEntity
  8
0
  6
Continuous
 62
     7
100
AcDbLine
 10
-64.0973145839886
 20
74.14760956764702
 30
0.0
 11
-61.99790269126115
 21
74.1484324619427
 31
0.0
  0
SPLINE
  5
C6
330
4E
100
AcDbEntity
  8
0
  6
Continuous
 62
     7
100
AcDbSpline
210
0.0
220
0.0
230
1.0
 70
     8
 71
     3
 72
    18
 73
    14
 74
    12
 42
0.000000001
 43
0.0000000001
 44
0.00000001
 40
0.0
 40
0.0
 40
0.0
 40
0.0
 40
1.820089310891568
 40
3.684319659671212
 40
5.484965576020644
 40
7.104966687452274
 40
8.033471930237752
 40
8.813592210318294
 40
9.43817178653515
 40
9.869952284266672
 40
10.19054096791962
 40
10.35586338402798
 40
10.50039111499351
 40
10.50039111499351
 40
10.50039111499351
 40
10.50039111499351
 10
-44.99876631917887
 20
77.85509580308249
 30
0.0
 10
-45.00548380937042
 20
78.4618163114823
 30
0.0
 10
-45.01908169502664
 20
79.68997159151232
 30
0.0
 10
-45.12581879362318
 20
81.51595013656137
 30
0.0
 10
-45.30432427514604
 20
83.26901938563253
 30
0.0
 10
-45.5290321302745
 20
84.70243217530972
 30
0.0
 10
-45.77394952617105
 20
85.78525717890841
 30
0.0
 10
-45.99676184923874
 20
86.5312005720056
 30
0.0
 10
-46.22632658176649
 20
87.10006197698871
 30
0.0
 10
-46.45734037068137
 20
87.49936135891707
 30
0.0
 10
-46.66563842327179
 20
87.7274777612816
 30
0.0
 10
-46.85065944121289
 20
87.83753343852706
 30
0.0
 10
-46.95432952396825
 20
87.84897449031784
 30
0.0
 10
-47.00268580720697
 20
87.85431110657069
 30
0.0
 11
-44.99876631917887
 21
77.85509580308249
 31
0.0
 11
-45.03309752569331
 21
79.67486129279777
 31
0.0
 11
-45.14063250483621
 21
81.5359875705908
 31
0.0
 11
-45.32738360791396
 21
83.32692300810123
 31
0.0
 11
-45.58732431595229
 21
84.92593346109365
 31
0.0
 11
-45.7959263020257
 21
85.83070260121964
 31
0.0
 11
-46.02439904539396
 21
86.5766167091853
 31
0.0
 11
-46.26622123927034
 21
87.15248272917117
 31
0.0
 11
-46.49066685578359
 21
87.52134389931726
 31
0.0
 11
-46.71494637527601
 21
87.75041987028202
 31
0.0
 11
-46.86038778374167
 21
87.82902201636882
 31
0.0
 11
-47.00268580720697
 21
87.85431110657069
 31
0.0
  0
SPLINE
  5
C7
330
4E
100
AcDbEntity
  8
0
  6
Continuous
 62
     7
100
AcDbSpline
210
0.0
220
0.0
230
1.0
 70
     8
 71
     3
 72
    18
 73
    14
 74
    12
 42
0.000000001
 43
0.0000000001
 44
0.00000001
 40
0.0
 40
0.0
 40
0.0
 40
0.0
 40
0.1445277308755995
 40
0.3098501469474225
 40
0.6304388305039447
 40
1.062219328096948
 40
1.686798904000509
 40
2.466919183748728
 40
3.395424426202905
 40
5.015425536515663
 40
6.81607145282435
 40
8.68030180190695
 40
10.5003911149978
 40
10.5003911149978
 40
10.5003911149978
 40
10.5003911149978
 10
-69.00268411721191
 20
87.84568789490987
 30
0.0
 10
-69.05103620203981
 20
87.8403133724557
 30
0.0
 10
-69.15469728393853
 20
87.82879105430442
 30
0.0
 10
-69.33963196920762
 20
87.71859036770347
 30
0.0
 10
-69.54775113088395
 20
87.49031074482242
 30
0.0
 10
-69.77845182669023
 20
87.09083038752203
 30
0.0
 10
-70.00757054210173
 20
86.52178919531983
 30
0.0
 10
-70.22979803056083
 20
85.7756713628805
 30
0.0
 10
-70.47386649402938
 20
84.69265469493291
 30
0.0
 10
-70.6974505872666
 20
83.25906619136151
 30
0.0
 10
-70.87458173356896
 20
81.50585754577021
 30
0.0
 10
-70.9798873632246
 20
79.67979588674368
 30
0.0
 10
-70.99252245911293
 20
78.4516303234909
 30
0.0
 10
-70.998764321912
 20
77.84490473475608
 30
0.0
 11
-69.00268411721191
 21
87.84568789490987
 31
0.0
 11
-69.14496227203793
 21
87.8202872610855
 31
0.0
 11
-69.29034201734272
 21
87.74157112354715
 31
0.0
 11
-69.51444188875979
 21
87.51231940401985
 31
0.0
 11
-69.73859827557989
 21
87.14328239809537
 31
0.0
 11
-69.97996895743314
 21
86.56722698411518
 31
0.0
 11
-70.20785688741014
 21
85.82113399944322
 31
0.0
 11
-70.41574953527335
 21
84.91620160867178
 31
0.0
 11
-70.67443665385014
 21
83.31698787325936
 31
0.0
 11
-70.85978373477434
 21
81.52590658664015
 31
0.0
 11
-70.96585969145303
 21
79.66469658070977
 31
0.0
 11
-70.998764321912
 21
77.84490473475608
 31
0.0
  0
ENDBLK
  5
50
330
4E
100
AcDbEntity
  8
0
100
AcDbBlockEnd
  0
BLOCK
  5
53
330
51
100
AcDbEntity
  8
0
100
AcDbBlockBegin
  2
Vordans1
 70
     0
 10
-58.0
 20
80.99999999995998
 30
0.0
  3
Vordans1
  1

  0
INSERT
  5
52
330
51
100
AcDbEntity
  8
0
100
AcDbBlockReference
  2
ma_20x8-select__2
 10
-70.99922576875508
 20
74.14760956764702
 30
0.0
  0
MTEXT
  5
C8
330
51
100
AcDbEntity
  8
1
 62
     6
100
AcDbMText
 10
-58.0
 20
71.6449049681579
 30
0.0
 40
2.5
 41
0.0
 71
     2
 72
     1
  1
 
  7
CONVERTER_11
 73
     1
 44
1.32052821128451
  0
DIMENSION
  5
D3
330
51
100
AcDbEntity
  8
1
100
AcDbDimension
  2
*D17
 10
-75.99876393782223
 20
77.84294491392409
 30
0.0
 11
-77.62568122851738
 21
82.73412090149395
 31
0.0
 70
    32
  1
<>
 71
     5
 42
-1.0
 53
-89.9775421069698
  3
ME10_DIM_10
100
AcDbAlignedDimension
 13
-69.00268411721191
 23
87.84568789490987
 33
0.0
 14
-70.998764321912
 24
77.84490473475608
 34
0.0
 50
-89.9775421069698
100
AcDbRotatedDimension
  0
DIMENSION
  5
DE
330
51
100
AcDbEntity
  8
1
100
AcDbDimension
  2
*D18
 10
-40.4220670168865
 20
74.15688941703685
 30
0.0
 11
-42.13742393196735
 21
81.44526819122304
 31
0.0
 70
    32
  1
<>
 71
     5
 42
-1.0
 53
-89.9775421069698
  3
ME10_DIM_11
100
AcDbAlignedDimension
 13
-47.00268580720697
 23
87.85431110657069
 33
0.0
 14
-51.89731552220768
 24
74.1523915304767
 34
0.0
 50
-89.9775421069698
100
AcDbRotatedDimension
  0
DIMENSION
  5
E9
330
51
100
AcDbEntity
  8
1
100
AcDbDimension
  2
*D19
 10
-70.99475022860756
 20
67.60393543147903
 30
0.0
 11
-57.0763224266084
 21
69.23439108167831
 31
0.0
 70
    33
  1
<>
 71
     5
 42
-1.0
 53
0.02245789303015
  3
ME10_DIM_12
100
AcDbAlignedDimension
 13
-44.99876631917887
 23
77.85509580308249
 33
0.0
 14
-70.998764321912
 24
77.84490473475608
 34
0.0
  0
ENDBLK
  5
54
330
51
100
AcDbEntity
  8
0
100
AcDbBlockEnd
  0
BLOCK
  5
56
330
55
100
AcDbEntity
  8
0
100
AcDbBlockBegin
  2
ma_20x8-select__3
 70
     0
 10
-70.99876816281
 20
45.14490497581731
 30
0.0
  3
ma_20x8-select__3
  1

  0
LINE
  5
EA
330
55
100
AcDbEntity
  8
0
  6
Continuous
 62
     7
100
AcDbLine
 10
-44.99876631917464
 20
59.14490497581652
 30
0.0
 11
-70.99876432190777
 21
59.14490497581654
 31
0.0
  0
LINE
  5
EB
330
55
100
AcDbEntity
  8
0
  6
Continuous
 62
     2
100
AcDbLine
 10
-47.00268580720667
 20
52.14490497582547
 30
0.0
 11
-69.0026841172119
 21
52.14490497581735
 31
0.0
  0
LINE
  5
EC
330
55
100
AcDbEntity
  8
0
  6
Continuous
 62
     7
100
AcDbLine
 10
-44.99876631917759
 20
45.14490497581731
 30
0.0
 11
-44.99876631917464
 21
59.14490497581652
 31
0.0
  0
LINE
  5
ED
330
55
100
AcDbEntity
  8
0
  6
Continuous
 62
     7
100
AcDbLine
 10
-47.80159841653865
 20
50.44878164971691
 30
0.0
 11
-68.20159684945234
 21
50.44878164971692
 31
0.0
  0
LINE
  5
EE
330
55
100
AcDbEntity
  8
0
  6
Continuous
 62
     7
100
AcDbLine
 10
-47.80228123118698
 20
50.58303154236867
 30
0.0
 11
-68.20227966410067
 21
50.58303154238278
 31
0.0
  0
LINE
  5
EF
330
55
100
AcDbEntity
  8
0
  6
Continuous
 62
     7
100
AcDbLine
 10
-68.19945861161999
 20
45.6570087890686
 30
0.0
 11
-68.19975353402707
 21
47.22791222357898
 31
0.0
  0
LINE
  5
F0
330
55
100
AcDbEntity
  8
0
  6
Continuous
 62
     7
100
AcDbLine
 10
-68.20159684945234
 20
50.44878164971692
 30
0.0
 11
-68.20159038955296
 21
50.47284519215597
 31
0.0
  0
LINE
  5
F1
330
55
100
AcDbEntity
  8
0
  6
Continuous
 62
     7
100
AcDbLine
 10
-68.20159038955296
 20
50.47284519215597
 30
0.0
 11
-68.20227966410067
 21
50.58303154238278
 31
0.0
  0
LINE
  5
F2
330
55
100
AcDbEntity
  8
0
  6
Continuous
 62
     7
100
AcDbLine
 10
-68.19972266139442
 20
47.34291477424449
 30
0.0
 11
-47.79972422848074
 21
47.34291477424448
 31
0.0
  0
LINE
  5
F3
330
55
100
AcDbEntity
  8
0
  6
Continuous
 62
     7
100
AcDbLine
 10
-47.79975510111338
 20
47.22791222357895
 30
0.0
 11
-68.19975353402707
 21
47.22791222357898
 31
0.0
  0
LINE
  5
F4
330
55
100
AcDbEntity
  8
0
  6
Continuous
 62
     7
100
AcDbLine
 10
-44.99876631917759
 20
45.14490497581731
 30
0.0
 11
-70.99876816281
 21
45.1450519567674
 31
0.0
  0
LINE
  5
F5
330
55
100
AcDbEntity
  8
0
  6
Continuous
 62
     7
100
AcDbLine
 10
-47.79946017870631
 20
45.65700878906858
 30
0.0
 11
-68.19945861161999
 21
45.6570087890686
 31
0.0
  0
LINE
  5
F6
330
55
100
AcDbEntity
  8
0
  6
Continuous
 62
     7
100
AcDbLine
 10
-70.99876816281
 20
45.1450519567674
 30
0.0
 11
-70.99876432190777
 21
59.14490497581654
 31
0.0
  0
SPLINE
  5
F7
330
55
100
AcDbEntity
  8
0
  6
Continuous
 62
     7
100
AcDbSpline
210
0.0
220
0.0
230
1.0
 70
     8
 71
     3
 72
    32
 73
    28
 74
    26
 42
0.000000001
 43
0.0000000001
 44
0.00000001
 40
0.0
 40
0.0
 40
0.0
 40
0.0
 40
0.0259673919505839
 40
0.0613931728011919
 40
0.179465518847654
 40
0.3298040719227255
 40
0.5052526142964252
 40
0.6986601539436439
 40
0.9028864368209684
 40
1.490714441454235
 40
2.125454661998452
 40
2.796223542469458
 40
3.044152830692237
 40
3.335029360640919
 40
3.662374265186837
 40
4.01977293483706
 40
4.400893099873799
 40
4.799509242568186
 40
5.154089624119953
 40
5.547358548989879
 40
5.96306916671391
 40
6.225507541017218
 40
6.453982074783761
 40
6.650465418967043
 40
6.816824992123169
 40
7.095108992635592
 40
7.378127261147754
 40
7.378127261147754
 40
7.378127261147754
 40
7.378127261147754
 10
-44.99876631917759
 20
45.14490497581731
 30
0.0
 10
-44.99906922338426
 20
45.15355549741088
 30
0.0
 10
-44.99978534704307
 20
45.17400741580084
 30
0.0
 10
-45.00236371980208
 20
45.23377426730207
 30
0.0
 10
-45.00783021868929
 20
45.33490908122653
 30
0.0
 10
-45.01769075952287
 20
45.48253638573954
 30
0.0
 10
-45.03100316223617
 20
45.65509136088504
 30
0.0
 10
-45.04772525977316
 20
45.8453901390865
 30
0.0
 10
-45.08056093724197
 20
46.17223950696373
 30
0.0
 10
-45.13900101048237
 20
46.64431979234115
 30
0.0
 10
-45.2347811040317
 20
47.26820634141053
 30
0.0
 10
-45.32910208662489
 20
47.77745828852449
 30
0.0
 10
-45.41121855188405
 20
48.1722056851651
 30
0.0
 10
-45.47378071207359
 20
48.45407397822467
 30
0.0
 10
-45.54923974087791
 20
48.7704208777432
 30
0.0
 10
-45.63798853877439
 20
49.11446967812411
 30
0.0
 10
-45.74042099599506
 20
49.47944523359621
 30
0.0
 10
-45.85149829617013
 20
49.84091464622372
 30
0.0
 10
-45.97345355844735
 20
50.20313447506832
 30
0.0
 10
-46.10824378098811
 20
50.56688864490312
 30
0.0
 10
-46.24521638445545
 20
50.89685483909987
 30
0.0
 10
-46.37234636206003
 20
51.17108928578259
 30
0.0
 10
-46.47602394885272
 20
51.37546853328494
 30
0.0
 10
-46.57145473264974
 20
51.54801135078319
 30
0.0
 10
-46.68210207419676
 20
51.73081052042192
 30
0.0
 10
-46.816876932108
 20
51.93313844556114
 30
0.0
 10
-46.94040222273166
 20
52.07392033025604
 30
0.0
 10
-47.00268580720667
 20
52.14490497582547
 30
0.0
 11
-44.99876631917759
 21
45.14490497581731
 31
0.0
 11
-44.99970470991344
 21
45.17085540304237
 31
0.0
 11
-45.00120598468641
 21
45.20624936083469
 31
0.0
 11
-45.00746909454157
 21
45.32415547746074
 31
0.0
 11
-45.01737055262918
 21
45.47416761549785
 31
0.0
 11
-45.0308380128778
 21
45.64909851155588
 31
0.0
 11
-45.04779912921597
 21
45.84176090224469
 31
0.0
 11
-45.06818155557227
 21
46.04496752417411
 31
0.0
 11
-45.13980103798588
 21
46.62841624693557
 31
0.0
 11
-45.23608460068416
 21
47.25581135573547
 31
0.0
 11
-45.35828794222047
 21
47.91535455659636
 31
0.0
 11
-45.40879821015035
 21
48.15808412778195
 31
0.0
 11
-45.47184658156223
 21
48.44204549567016
 31
0.0
 11
-45.54784166240396
 21
48.76044686833919
 31
0.0
 11
-45.63719205862348
 21
49.1064964538672
 31
0.0
 11
-45.74030637616863
 21
49.47340246033238
 31
0.0
 11
-45.85759322098735
 21
49.85437309581293
 31
0.0
 11
-45.97092981058541
 21
50.19035235754423
 31
0.0
 11
-46.10793812012538
 21
50.55898384048374
 31
0.0
 11
-46.26796622519058
 21
50.94265860255466
 31
0.0
 11
-46.37859647044378
 21
51.18063937704444
 31
0.0
 11
-46.48214626040252
 21
51.38430099214207
 31
0.0
 11
-46.57750753231658
 21
51.55609136508238
 31
0.0
 11
-46.66357222343576
 21
51.69845841310023
 31
0.0
 11
-46.82080864115344
 21
51.92806392468484
 31
0.0
 11
-47.00268580720667
 21
52.14490497582547
 31
0.0
  0
SPLINE
  5
F8
330
55
100
AcDbEntity
  8
0
  6
Continuous
 62
     7
100
AcDbSpline
210
0.0
220
0.0
230
1.0
 70
     8
 71
     3
 72
    62
 73
    58
 74
    56
 42
0.000000001
 43
0.0000000001
 44
0.00000001
 40
0.0
 40
0.0
 40
0.0
 40
0.0
 40
0.1082359210953391
 40
0.2223327078151212
 40
0.3422702785534505
 40
0.4679755883267367
 40
0.5993314700864077
 40
0.7361838218042726
 40
0.8783474478803142
 40
1.025610854886374
 40
1.177740234655488
 40
1.334482815991135
 40
1.495569724742283
 40
1.660718459569126
 40
1.829635065800302
 40
2.002016070768045
 40
2.177550229545112
 40
2.355920119003807
 40
2.536803609726715
 40
2.719875238878596
 40
2.904807502212829
 40
3.091272079572052
 40
3.278941005278574
 40
3.467487792494083
 40
3.656588518805767
 40
3.845922878854038
 40
4.035175208668817
 40
4.224035485460758
 40
4.41220030587183
 40
4.63007908412765
 40
4.846240047675528
 40
5.06019583253101
 40
5.271338989801578
 40
5.478947696617225
 40
5.682191417409602
 40
5.88013650508323
 40
6.071751733289267
 40
6.186039279187153
 40
6.29722554663593
 40
6.405019608320141
 40
6.509119399637846
 40
6.609210783919668
 40
6.704966608188558
 40
6.79604574996704
 40
6.882092155620172
 40
6.962733870713051
 40
7.037582062861492
 40
7.106230037561836
 40
7.16825224750501
 40
7.223203295920696
 40
7.261202578460644
 40
7.294296445407487
 40
7.322224038955581
 40
7.344709060873325
 40
7.361478310555372
 40
7.372280240040189
 40
7.376903561866168
 40
7.376903561866168
 40
7.376903561866168
 40
7.376903561866168
 10
-69.0026841172119
 20
52.14490497581735
 30
0.0
 10
-69.02716267169922
 20
52.17141964723847
 30
0.0
 10
-69.07744527213663
 20
52.22588473029558
 30
0.0
 10
-69.14938002520432
 20
52.31452690496671
 30
0.0
 10
-69.22126141612927
 20
52.41053312018673
 30
0.0
 10
-69.29254459683672
 20
52.51406536072407
 30
0.0
 10
-69.36326446199004
 20
52.62472398277367
 30
0.0
 10
-69.43329055476144
 20
52.74225558792013
 30
0.0
 10
-69.50254200247775
 20
52.86635055535352
 30
0.0
 10
-69.57092645346759
 20
52.99670222068251
 30
0.0
 10
-69.63835788564606
 20
53.13299121331889
 30
0.0
 10
-69.70475188366018
 20
53.27489111270385
 30
0.0
 10
-69.77002726197146
 20
53.42206805050236
 30
0.0
 10
-69.8341058648238
 20
53.57418201295262
 30
0.0
 10
-69.89691285803644
 20
53.73088765502924
 30
0.0
 10
-69.9583768686161
 20
53.89183524236343
 30
0.0
 10
-70.01843015703236
 20
54.05667154970116
 30
0.0
 10
-70.07700877369648
 20
54.22504076491899
 30
0.0
 10
-70.13405271522538
 20
54.39658538612419
 30
0.0
 10
-70.18950607761943
 20
54.57094711628789
 30
0.0
 10
-70.24331720813643
 20
54.74776775500257
 30
0.0
 10
-70.2954388560392
 20
54.92669008818658
 30
0.0
 10
-70.34582832266238
 20
55.10735877593448
 30
0.0
 10
-70.39444761087424
 20
55.28942123936788
 30
0.0
 10
-70.4412635745748
 20
55.47252854484578
 30
0.0
 10
-70.48624806652798
 20
55.65633629286549
 30
0.0
 10
-70.52937809134693
 20
55.84050548519448
 30
0.0
 10
-70.57063593849962
 20
56.02470346972073
 30
0.0
 10
-70.61215220037346
 20
56.21861299745095
 30
0.0
 10
-70.6535537045242
 20
56.42184429941443
 30
0.0
 10
-70.69444530454655
 20
56.63394075090937
 30
0.0
 10
-70.73274763087886
 20
56.84423814749042
 30
0.0
 10
-70.7684400873498
 20
57.05210209827639
 30
0.0
 10
-70.80149777062334
 20
57.25678497223736
 30
0.0
 10
-70.83189556299506
 20
57.45743111423963
 30
0.0
 10
-70.85961218236345
 20
57.65308195172786
 30
0.0
 10
-70.8815871024361
 20
57.81959012110488
 30
0.0
 10
-70.89872063349516
 20
57.95756072133602
 30
0.0
 10
-70.91177448327521
 20
58.06788101935096
 30
0.0
 10
-70.92381453864783
 20
58.17489983119773
 30
0.0
 10
-70.93484902577163
 20
58.27830841334892
 30
0.0
 10
-70.9448896290599
 20
58.3777858570491
 30
0.0
 10
-70.95395183011215
 20
58.47299819868843
 30
0.0
 10
-70.96205527599666
 20
58.56359747073098
 30
0.0
 10
-70.96922413842935
 20
58.64922076767197
 30
0.0
 10
-70.97548747837351
 20
58.72948930845187
 30
0.0
 10
-70.98087959438601
 20
58.80400749892016
 30
0.0
 10
-70.98544041696931
 20
58.8723619972054
 30
0.0
 10
-70.98921573952909
 20
58.93412076910689
 30
0.0
 10
-70.9920837216658
 20
58.9856988811181
 30
0.0
 10
-70.99420953353479
 20
59.02765991694427
 30
0.0
 10
-70.9957395598406
 20
59.06063146629236
 30
0.0
 10
-70.99690977678097
 20
59.08844239952924
 30
0.0
 10
-70.9977620086039
 20
59.11082027852622
 30
0.0
 10
-70.99831125704337
 20
59.12749655448484
 30
0.0
 10
-70.99864173357724
 20
59.13822320751977
 30
0.0
 10
-70.998736047448
 20
59.14336411986206
 30
0.0
 10
-70.99876432190777
 20
59.14490497581654
 30
0.0
 11
-69.0026841172119
 21
52.14490497581735
 31
0.0
 11
-69.07527726093863
 21
52.22518730318242
 31
0.0
 11
-69.14757650390214
 21
52.31345334706536
 31
0.0
 11
-69.21948031727668
 21
52.40944742174747
 31
0.0
 11
-69.29088917412824
 21
52.51290079289124
 31
0.0
 11
-69.361705699226
 21
52.62353255774206
 31
0.0
 11
-69.43183481885333
 21
52.74105052532959
 31
0.0
 11
-69.50118391061909
 21
52.86515209666958
 31
0.0
 11
-69.56966295326862
 21
52.99552514496536
 31
0.0
 11
-69.63718467649508
 21
53.1318488958094
 31
0.0
 11
-69.70366471075056
 21
53.27379480738495
 31
0.0
 11
-69.7690217370572
 21
53.42102745066764
 31
0.0
 11
-69.83317763681846
 21
53.57320538962703
 31
0.0
 11
-69.89605764163015
 21
53.72998206142825
 31
0.0
 11
-69.95759048309179
 21
53.89100665663355
 31
0.0
 11
-70.01770854261756
 21
54.05592499940389
 31
0.0
 11
-70.07634800124767
 21
54.22438042770057
 31
0.0
 11
-70.13344898945942
 21
54.39601467348684
 31
0.0
 11
-70.18895573697841
 21
54.57046874292941
 31
0.0
 11
-70.24281672258962
 21
54.74738379660008
 31
0.0
 11
-70.2949848239487
 21
54.92640202967733
 31
0.0
 11
-70.3454174673931
 21
55.10716755214796
 31
0.0
 11
-70.39407677775323
 21
55.28932726900862
 31
0.0
 11
-70.44092972816364
 21
55.47253176046743
 31
0.0
 11
-70.48594828987413
 21
55.65643616214557
 31
0.0
 11
-70.52910958206098
 21
55.84070104527879
 31
0.0
 11
-70.5703960216382
 21
56.02499329691925
 31
0.0
 11
-70.60979547306849
 21
56.20898700013674
 31
0.0
 11
-70.6532922825797
 21
56.42247983260469
 31
0.0
 11
-70.69421781600131
 21
56.63473124676244
 31
0.0
 11
-70.73255836595926
 21
56.84522371701942
 31
0.0
 11
-70.76829192126671
 21
57.05332116010052
 31
0.0
 11
-70.80139227457713
 21
57.25827418321244
 31
0.0
 11
-70.83183313003765
 21
57.45922533220991
 31
0.0
 11
-70.85959221094252
 21
57.65521433976226
 31
0.0
 11
-70.884655367386
 21
57.84518337351943
 31
0.0
 11
-70.89873739886411
 21
57.9586000367778
 31
0.0
 11
-70.91179992430219
 21
58.0690163239177
 31
0.0
 11
-70.92384812978844
 21
58.17613495183078
 31
0.0
 11
-70.9348902688676
 21
58.27964745196368
 31
0.0
 11
-70.94493802568503
 21
58.37923323286203
 31
0.0
 11
-70.95400687813101
 21
58.47455864271473
 31
0.0
 11
-70.96211646098486
 21
58.56527603189794
 31
0.0
 11
-70.9692909290594
 21
58.65102281551935
 31
0.0
 11
-70.97555932034486
 21
58.73142053596221
 31
0.0
 11
-70.98095591915344
 21
58.80607392542957
 31
0.0
 11
-70.98552061926327
 21
58.87456996848831
 31
0.0
 11
-70.98929928706283
 21
58.93647696461341
 31
0.0
 11
-70.99234412469501
 21
58.99134359073189
 31
0.0
 11
-70.99426353654141
 21
59.0292943656702
 31
0.0
 11
-70.99579356637142
 21
59.06235284456204
 31
0.0
 11
-70.99696548964333
 21
59.09025583844509
 31
0.0
 11
-70.99781244557894
 21
59.11272490315545
 31
0.0
 11
-70.9983695068716
 21
59.12948489757666
 31
0.0
 11
-70.99867374939436
 21
59.14028254188865
 31
0.0
 11
-70.99876432190777
 21
59.14490497581654
 31
0.0
  0
SPLINE
  5
F9
330
55
100
AcDbEntity
  8
0
  6
Continuous
 62
     7
100
AcDbSpline
210
0.0
220
0.0
230
1.0
 70
     8
 71
     3
 72
    28
 73
    24
 74
    22
 42
0.000000001
 43
0.0000000001
 44
0.00000001
 40
0.0
 40
0.0
 40
0.0
 40
0.0
 40
0.276018167876129
 40
0.5870170217779139
 40
0.9311943737828063
 40
1.305579282540699
 40
1.706425553031455
 40
2.129470630635481
 40
2.570120993207121
 40
3.023596246690353
 40
3.485049119097335
 40
3.949670782532232
 40
4.412786818325523
 40
4.989853007022517
 40
5.548018938454862
 40
6.07263139553266
 40
6.363255636784967
 40
6.629688301265642
 40
6.866306330771184
 40
7.066839387009361
 40
7.22425479107169
 40
7.321808821301221
 40
7.377980702005623
 40
7.377980702005623
 40
7.377980702005623
 40
7.377980702005623
 10
-47.00268580720667
 20
52.14490497582547
 30
0.0
 10
-46.9419142530529
 20
52.21410553441562
 30
0.0
 10
-46.81266937913297
 20
52.36127667458752
 30
0.0
 10
-46.64102881517302
 20
52.62083978254982
 30
0.0
 10
-46.47083863403566
 20
52.91894175792668
 30
0.0
 10
-46.3066646943025
 20
53.25430337219434
 30
0.0
 10
-46.14871719552347
 20
53.62129470813938
 30
0.0
 10
-45.99843596369284
 20
54.01522905932089
 30
0.0
 10
-45.85674344671482
 20
54.43087865097915
 30
0.0
 10
-45.72453802853605
 20
54.8630362316996
 30
0.0
 10
-45.60252931569684
 20
55.30646270195552
 30
0.0
 10
-45.49126741095776
 20
55.75601060869437
 30
0.0
 10
-45.38244553183676
 20
56.24570898663144
 30
0.0
 10
-45.28009050055769
 20
56.76863990636808
 30
0.0
 10
-45.18844484861052
 20
57.31434091123482
 30
0.0
 10
-45.12418737277454
 20
57.76766293273597
 30
0.0
 10
-45.08081442683096
 20
58.12561286552132
 30
0.0
 10
-45.05285591236755
 20
58.38869973960168
 30
0.0
 10
-45.03147944863827
 20
58.62225920926312
 30
0.0
 10
-45.01621664803665
 20
58.81986719237493
 30
0.0
 10
-45.00672454763334
 20
58.97140778903798
 30
0.0
 10
-45.00136934723186
 20
59.07498694326141
 30
0.0
 10
-44.99946293358347
 20
59.12619383397777
 30
0.0
 10
-44.99876631917464
 20
59.14490497581652
 30
0.0
 11
-47.00268580720667
 21
52.14490497582547
 31
0.0
 11
-46.82502384312959
 21
52.35614479153086
 31
0.0
 11
-46.64995211951349
 21
52.61318598640879
 31
0.0
 11
-46.47890532164436
 21
52.91185142144906
 31
0.0
 11
-46.31323031511501
 21
53.24758323679486
 31
0.0
 11
-46.15417268892093
 21
53.61552128034256
 31
0.0
 11
-46.0028632985564
 21
54.01058153634169
 31
0.0
 11
-45.86030480911028
 21
54.42753455399461
 31
0.0
 11
-45.72735823836204
 21
54.86108387605638
 31
0.0
 11
-45.60472949987758
 21
55.30594446743457
 31
0.0
 11
-45.49295594610534
 21
55.75692114378917
 31
0.0
 11
-45.39239291147214
 21
56.20898700013232
 31
0.0
 11
-45.28146875863386
 21
56.77529188101106
 31
0.0
 11
-45.18901677500384
 21
57.32574790773131
 31
0.0
 11
-45.11549788911936
 21
57.84518337352579
 31
0.0
 11
-45.08058302791993
 21
58.13370270029
 31
0.0
 11
-45.05248925315095
 21
58.39865006179711
 31
0.0
 11
-45.03098657715104
 21
58.63428903707854
 31
0.0
 11
-45.01565262425544
 21
58.83423497082482
 31
0.0
 11
-45.00582964341003
 21
58.99134359073013
 31
0.0
 11
-45.00095488850365
 21
59.08877575222671
 31
0.0
 11
-44.99876631917464
 21
59.14490497581652
 31
0.0
  0
SPLINE
  5
FA
330
55
100
AcDbEntity
  8
0
  6
Continuous
 62
     7
100
AcDbSpline
210
0.0
220
0.0
230
1.0
 70
     8
 71
     3
 72
    11
 73
     7
 74
     5
 42
0.000000001
 43
0.0000000001
 44
0.00000001
 40
0.0
 40
0.0
 40
0.0
 40
0.0
 40
0.242739708391466
 40
0.493029889449908
 40
1.824542794383375
 40
3.105869095483829
 40
3.105869095483829
 40
3.105869095483829
 40
3.105869095483829
 10
-47.79972422848074
 20
47.34291477424448
 30
0.0
 10
-47.8001062762543
 20
47.42382721539531
 30
0.0
 10
-47.80088227005057
 20
47.58816889713324
 30
0.0
 10
-47.80104908727571
 20
48.19635073774801
 30
0.0
 10
-47.80177168686769
 20
49.150726220401
 30
0.0
 10
-47.80165542294641
 20
50.02167279704877
 30
0.0
 10
-47.80159841653865
 20
50.44878164971691
 30
0.0
 11
-47.79972422848074
 21
47.34291477424448
 31
0.0
 11
-47.80069320100723
 21
47.58565254864153
 31
0.0
 11
-47.80095659577479
 21
47.835942591101
 31
0.0
 11
-47.80158289806172
 21
49.16745534873768
 31
0.0
 11
-47.80159841653865
 21
50.44878164971691
 31
0.0
  0
SPLINE
  5
FB
330
55
100
AcDbEntity
  8
0
  6
Continuous
 62
     7
100
AcDbSpline
210
0.0
220
0.0
230
1.0
 70
     8
 71
     3
 72
     9
 73
     5
 74
     3
 42
0.000000001
 43
0.0000000001
 44
0.00000001
 40
0.0
 40
0.0
 40
0.0
 40
0.0
 40
0.6817613450537156
 40
1.570903585802518
 40
1.570903585802518
 40
1.570903585802518
 40
1.570903585802518
 10
-47.79946017870631
 20
45.65700878906858
 30
0.0
 10
-47.79964527283244
 20
45.88426251460049
 30
0.0
 10
-47.80007174340238
 20
46.40789691382531
 30
0.0
 10
-47.79986955350675
 20
46.93153146428775
 30
0.0
 10
-47.79975510111338
 20
47.22791222357895
 30
0.0
 11
-47.79946017870631
 21
45.65700878906858
 31
0.0
 11
-47.79989704520184
 21
46.33876999415623
 31
0.0
 11
-47.79975510111338
 21
47.22791222357895
 31
0.0
  0
SPLINE
  5
FC
330
55
100
AcDbEntity
  8
0
  6
Continuous
 62
     7
100
AcDbSpline
210
0.0
220
0.0
230
1.0
 70
     8
 71
     3
 72
     9
 73
     5
 74
     3
 42
0.000000001
 43
0.0000000001
 44
0.00000001
 40
0.0
 40
0.0
 40
0.0
 40
0.0
 40
0.057252888634132
 40
0.1150102969997007
 40
0.1150102969997007
 40
0.1150102969997007
 40
0.1150102969997007
 10
-47.79975510111338
 20
47.22791222357895
 30
0.0
 10
-47.80008262547653
 20
47.24699530672626
 30
0.0
 10
-47.80074054039143
 20
47.28532963568772
 30
0.0
 10
-47.80006399508783
 20
47.32366367433848
 30
0.0
 10
-47.79972422848074
 20
47.34291477424448
 30
0.0
 11
-47.79975510111338
 21
47.22791222357895
 31
0.0
 11
-47.80040696978018
 21
47.28516140119295
 31
0.0
 11
-47.79972422848074
 21
47.34291477424448
 31
0.0
  0
SPLINE
  5
FD
330
55
100
AcDbEntity
  8
0
  6
Continuous
 62
     7
100
AcDbSpline
210
0.0
220
0.0
230
1.0
 70
     8
 71
     3
 72
     9
 73
     5
 74
     3
 42
0.000000001
 43
0.0000000001
 44
0.00000001
 40
0.0
 40
0.0
 40
0.0
 40
0.0
 40
0.0674275524041941
 40
0.1342524540510006
 40
0.1342524540510006
 40
0.1342524540510006
 40
0.1342524540510006
 10
-47.80159841653865
 20
50.44878164971691
 30
0.0
 10
-47.80183074686732
 20
50.47125647329577
 30
0.0
 10
-47.80229331101398
 20
50.51600524618492
 30
0.0
 10
-47.80228525237452
 20
50.56075640532452
 30
0.0
 10
-47.80228123118698
 20
50.58303154236867
 30
0.0
 11
-47.80159841653865
 21
50.44878164971691
 31
0.0
 11
-47.8021766830697
 21
50.51620672247006
 31
0.0
 11
-47.80228123118698
 21
50.58303154236867
 31
0.0
  0
SPLINE
  5
FE
330
55
100
AcDbEntity
  8
0
  6
Continuous
 62
     7
100
AcDbSpline
210
0.0
220
0.0
230
1.0
 70
     8
 71
     3
 72
    93
 73
    89
 74
    87
 42
0.000000001
 43
0.0000000001
 44
0.00000001
 40
0.0
 40
0.0
 40
0.0
 40
0.0
 40
0.0935808568502276
 40
0.1879526004797069
 40
0.2824907009622317
 40
0.3765184165317538
 40
0.4693181990369036
 40
0.5601403553902344
 40
0.617207039224812
 40
0.6781041419773882
 40
0.742915983980813
 40
0.8117290423989839
 40
0.884631863049133
 40
0.9617149716362646
 40
1.043070785520053
 40
1.128793526819912
 40
1.218979137437943
 40
1.313725196414199
 40
1.413130839904774
 40
1.567178186621992
 40
1.725417851202495
 40
1.887725398684213
 40
2.053972251256304
 40
2.224026297432642
 40
2.397752405708265
 40
2.575012860332739
 40
2.636283459148623
 40
2.70279780725568
 40
2.774490939370899
 40
2.851298515097925
 40
2.933156842818583
 40
3.020002901330828
 40
3.11177436015989
 40
3.208409599106888
 40
3.309847727390491
 40
3.416028602611626
 40
3.526892849694851
 40
3.642381879910217
 40
3.762437910047557
 40
3.887003981793242
 40
4.016023981345087
 40
4.149442659289831
 40
4.287205650760492
 40
4.429259495885123
 40
4.575551660533634
 40
4.613086980947805
 40
4.655498909688278
 40
4.702638176585225
 40
4.754355667088029
 40
4.810502438212238
 40
4.870929732676545
 40
4.935488992471733
 40
5.004031872514219
 40
5.07641025476947
 40
5.152476263101406
 40
5.232082279041488
 40
5.315080958641284
 40
5.401325250560402
 40
5.490668415540841
 40
5.582964047423801
 40
5.67806609587577
 40
5.775828891004865
 40
5.876107170065759
 40
5.978756106472858
 40
6.083631341365435
 40
6.190589017997191
 40
6.299485819254226
 40
6.410179008643135
 40
6.522526475132279
 40
6.61404650137121
 40
6.701262119039134
 40
6.784095111939437
 40
6.862466837434455
 40
6.936298239838195
 40
7.005509863420027
 40
7.053143235971883
 40
7.099367055324993
 40
7.143746277443438
 40
7.185845666408766
 40
7.225229834752037
 40
7.261463278267969
 40
7.294110409736852
 40
7.322735598574666
 40
7.346903232088047
 40
7.359169738268566
 40
7.368294735669865
 40
7.374212638435691
 40
7.376857822885611
 40
7.376857822885611
 40
7.376857822885611
 40
7.376857822885611
 10
-69.0026841172119
 20
52.14490497581735
 30
0.0
 10
-69.02389896303997
 20
52.12202934129206
 30
0.0
 10
-69.06650795304152
 20
52.07608474524821
 30
0.0
 10
-69.12665870647481
 20
52.00358351628169
 30
0.0
 10
-69.18444843341494
 20
51.92903599248603
 30
0.0
 10
-69.23944494149127
 20
51.85304405078284
 30
0.0
 10
-69.2916022772245
 20
51.77657900543336
 30
0.0
 10
-69.3351598722231
 20
51.70919384179625
 30
0.0
 10
-69.37188562559557
 20
51.65007556565551
 30
0.0
 10
-69.40333384462713
 20
51.59789196541822
 30
0.0
 10
-69.4360480008126
 20
51.54190670175795
 30
0.0
 10
-69.46997459238254
 20
51.48200198591159
 30
0.0
 10
-69.50506010894591
 20
51.41806024049144
 30
0.0
 10
-69.54125103779329
 20
51.34996381772393
 30
0.0
 10
-69.57849386280412
 20
51.27759508441613
 30
0.0
 10
-69.61673507086469
 20
51.20083639339697
 30
0.0
 10
-69.65592113183959
 20
51.11957011119773
 30
0.0
 10
-69.69599858202486
 20
51.03367853532751
 30
0.0
 10
-69.74375508263977
 20
50.92788931005104
 30
0.0
 10
-69.79829519815172
 20
50.80195348403129
 30
0.0
 10
-69.85865212413752
 20
50.65571398262095
 30
0.0
 10
-69.91811196172614
 20
50.50472866539614
 30
0.0
 10
-69.97662822421775
 20
50.34916105436474
 30
0.0
 10
-70.03415409053292
 20
50.18917417693344
 30
0.0
 10
-70.09064427281943
 20
50.02493202803336
 30
0.0
 10
-70.13360627679401
 20
49.89439681470022
 30
0.0
 10
-70.16457902725233
 20
49.79754686282153
 30
0.0
 10
-70.18455328471839
 20
49.73412493077007
 30
0.0
 10
-70.20575833570841
 20
49.66566168388144
 30
0.0
 10
-70.22810970336332
 20
49.59220005503614
 30
0.0
 10
-70.25152216275826
 20
49.51378279287685
 30
0.0
 10
-70.27591068037363
 20
49.4304526903469
 30
0.0
 10
-70.30119014370766
 20
49.34225251957353
 30
0.0
 10
-70.32727544716552
 20
49.24922505304702
 30
0.0
 10
-70.3540814710296
 20
49.15141305877547
 30
0.0
 10
-70.38152309059161
 20
49.04885930268917
 30
0.0
 10
-70.40951517522993
 20
48.94160654857128
 30
0.0
 10
-70.43797259161232
 20
48.82969755891268
 30
0.0
 10
-70.4668101982279
 20
48.71317509380965
 30
0.0
 10
-70.49594287016228
 20
48.59208191650802
 30
0.0
 10
-70.52528540442192
 20
48.46646077260766
 30
0.0
 10
-70.55475289429478
 20
48.33635447261257
 30
0.0
 10
-70.58425926244232
 20
48.20180556872734
 30
0.0
 10
-70.61372300398286
 20
48.06285762045107
 30
0.0
 10
-70.63549800007426
 20
47.95643431716313
 30
0.0
 10
-70.65030114371281
 20
47.88248832484328
 30
0.0
 10
-70.65854414841098
 20
47.84093583874071
 30
0.0
 10
-70.66760584060832
 20
47.79472635350083
 30
0.0
 10
-70.67742506593493
 20
47.74400008193888
 30
0.0
 10
-70.68793899644852
 20
47.6888969101711
 30
0.0
 10
-70.69908526653717
 20
47.62955681394991
 30
0.0
 10
-70.71080133504246
 20
47.56611973414131
 30
0.0
 10
-70.72302469154378
 20
47.49872561690177
 30
0.0
 10
-70.73569280210535
 20
47.42751440305017
 30
0.0
 10
-70.74874313015894
 20
47.35262603209264
 30
0.0
 10
-70.76211313352348
 20
47.27420044158423
 30
0.0
 10
-70.77574026741235
 20
47.19237756764905
 30
0.0
 10
-70.7895619850614
 20
47.10729734502451
 30
0.0
 10
-70.80351573863328
 20
47.01909970714708
 30
0.0
 10
-70.81753897975399
 20
46.92792458615484
 30
0.0
 10
-70.83156916001877
 20
46.83391191286296
 30
0.0
 10
-70.84554373118154
 20
46.73720161668804
 30
0.0
 10
-70.85940014611184
 20
46.63793362560401
 30
0.0
 10
-70.87307585649788
 20
46.5362478658339
 30
0.0
 10
-70.88650832292143
 20
46.43228426242767
 30
0.0
 10
-70.89963497710687
 20
46.3261827362893
 30
0.0
 10
-70.9123933678919
 20
46.21808321471224
 30
0.0
 10
-70.92472060277261
 20
46.10812558997614
 30
0.0
 10
-70.93577069930208
 20
46.0038552183058
 30
0.0
 10
-70.94544328344294
 20
45.90731040947829
 30
0.0
 10
-70.95368026923217
 20
45.82051041765662
 30
0.0
 10
-70.96107661549988
 20
45.73803426082926
 30
0.0
 10
-70.96767552697061
 20
45.65996694073961
 30
0.0
 10
-70.97351637734428
 20
45.58639320985129
 30
0.0
 10
-70.97823495597514
 20
45.52300950874108
 30
0.0
 10
-70.98201251313384
 20
45.46878450905619
 30
0.0
 10
-70.98502379347332
 20
45.42280408045222
 30
0.0
 10
-70.98774921660006
 20
45.37865388127258
 30
0.0
 10
-70.99018299214629
 20
45.33677018348541
 30
0.0
 10
-70.99232162263279
 20
45.29758942746861
 30
0.0
 10
-70.99416144791229
 20
45.26154802906406
 30
0.0
 10
-70.99569823063464
 20
45.22908238459058
 30
0.0
 10
-70.99693098702488
 20
45.20062899393996
 30
0.0
 10
-70.99776138544006
 20
45.17895835778605
 30
0.0
 10
-70.99827107807047
 20
45.16378046589261
 30
0.0
 10
-70.99854040410156
 20
45.15468135857805
 30
0.0
 10
-70.99870611955541
 20
45.14878754957495
 30
0.0
 10
-70.99875351556605
 20
45.14593356736105
 30
0.0
 10
-70.99876816281
 20
45.1450519567674
 30
0.0
 11
-69.0026841172119
 21
52.14490497581735
 31
0.0
 11
-69.0656870354112
 21
52.0757095229818
 31
0.0
 11
-69.12621401873834
 21
52.00330435078512
 31
0.0
 11
-69.18413623071942
 21
51.9285884240305
 31
0.0
 11
-69.23932483488058
 21
51.85246070752116
 31
0.0
 11
-69.29165099474793
 21
51.77582016606028
 31
0.0
 11
-69.34098587384761
 21
51.69956576445111
 31
0.0
 11
-69.37110576793246
 21
51.65109517155409
 31
0.0
 11
-69.40254575043265
 21
51.59894169980731
 31
0.0
 11
-69.43525229992674
 21
51.54298764298541
 31
0.0
 11
-69.46917189499327
 21
51.48311529486305
 31
0.0
 11
-69.50425101421072
 21
51.41920694921489
 31
0.0
 11
-69.54043613615765
 21
51.35114489981557
 31
0.0
 11
-69.5776737394126
 21
51.27881144043975
 31
0.0
 11
-69.61591030255404
 21
51.20208886486206
 31
0.0
 11
-69.65509230416056
 21
51.1208594668572
 31
0.0
 11
-69.69516622281066
 21
51.03500554019978
 31
0.0
 11
-69.73607853708285
 21
50.94440937866446
 31
0.0
 11
-69.79733690574042
 21
50.80306583523664
 31
0.0
 11
-69.85774185861483
 21
50.6568090983542
 31
0.0
 11
-69.91724698917402
 21
50.5058028753857
 31
0.0
 11
-69.97580589088591
 21
50.35021087369973
 31
0.0
 11
-70.03337215721838
 21
50.19019680066479
 31
0.0
 11
-70.0898993816394
 21
50.02592436364945
 31
0.0
 11
-70.14534115761685
 21
49.85755727002228
 31
0.0
 11
-70.1640053988594
 21
49.79919861707256
 31
0.0
 11
-70.18398633151736
 21
49.73575635332403
 31
0.0
 11
-70.20519880335968
 21
49.66727324427227
 31
0.0
 11
-70.2275576621553
 21
49.59379205541293
 31
0.0
 11
-70.25097775567322
 21
49.5153555522416
 31
0.0
 11
-70.27537393168241
 21
49.43200650025391
 31
0.0
 11
-70.30066103795183
 21
49.34378766494546
 31
0.0
 11
-70.3267539222504
 21
49.25074181181188
 31
0.0
 11
-70.35356743234718
 21
49.15291170634878
 31
0.0
 11
-70.38101641601104
 21
49.05034011405175
 31
0.0
 11
-70.40901572101102
 21
48.94306980041645
 31
0.0
 11
-70.43748019511607
 21
48.83114353093847
 31
0.0
 11
-70.46632468609509
 21
48.7146040711134
 31
0.0
 11
-70.49546404171714
 21
48.5934941864369
 31
0.0
 11
-70.52481310975116
 21
48.46785664240457
 31
0.0
 11
-70.55428673796607
 21
48.33773420451199
 31
0.0
 11
-70.5837997741309
 21
48.20316963825483
 31
0.0
 11
-70.61326706601454
 21
48.06420570912866
 31
0.0
 11
-70.64260346138606
 21
47.92088518262912
 31
0.0
 11
-70.64997200776314
 21
47.88408022642754
 31
0.0
 11
-70.6582231305645
 21
47.84247865590932
 31
0.0
 11
-70.66729425325272
 21
47.79622041109039
 31
0.0
 11
-70.67712279929052
 21
47.74544543198662
 31
0.0
 11
-70.68764619214053
 21
47.69029365861388
 31
0.0
 11
-70.69880185526537
 21
47.63090503098809
 31
0.0
 11
-70.71052721212774
 21
47.56741948912509
 31
0.0
 11
-70.72275968619024
 21
47.4999769730408
 31
0.0
 11
-70.73543670091554
 21
47.42871742275109
 31
0.0
 11
-70.74849567976628
 21
47.35378077827185
 31
0.0
 11
-70.76187404620512
 21
47.27530697961896
 31
0.0
 11
-70.77550922369468
 21
47.19343596680831
 31
0.0
 11
-70.78933863569766
 21
47.1083076798558
 31
0.0
 11
-70.80329970567666
 21
47.02006205877728
 31
0.0
 11
-70.81732985709434
 21
46.92883904358865
 31
0.0
 11
-70.83136651341333
 21
46.83477857430579
 31
0.0
 11
-70.84534709809633
 21
46.73802059094461
 31
0.0
 11
-70.85920903460595
 21
46.63870503352101
 31
0.0
 11
-70.87288974640487
 21
46.53697184205082
 31
0.0
 11
-70.88632665695572
 21
46.43296095654996
 31
0.0
 11
-70.89945718972109
 21
46.32681231703427
 31
0.0
 11
-70.91221876816374
 21
46.21866586351972
 31
0.0
 11
-70.92454881574622
 21
46.10866153602211
 31
0.0
 11
-70.93638475593123
 21
45.99693927455738
 31
0.0
 11
-70.94550481910106
 21
45.90587479398449
 31
0.0
 11
-70.95374145788846
 21
45.81904898147089
 31
0.0
 11
-70.96113718947373
 21
45.73654681277398
 31
0.0
 11
-70.96773453103722
 21
45.65845326365117
 31
0.0
 11
-70.97357599975926
 21
45.58485330985987
 31
0.0
 11
-70.97870411282021
 21
45.51583192715749
 31
0.0
 11
-70.98201175052668
 21
45.46831353387331
 31
0.0
 11
-70.98503458886351
 21
45.42218866086166
 31
0.0
 11
-70.9877686746745
 21
45.37789373884058
 31
0.0
 11
-70.99021005480341
 21
45.33586519852814
 31
0.0
 11
-70.99235477609403
 21
45.29653947064239
 31
0.0
 11
-70.99419888539015
 21
45.26035298590139
 31
0.0
 11
-70.9957384295355
 21
45.2277421750232
 31
0.0
 11
-70.99696945537391
 21
45.19914346872586
 31
0.0
 11
-70.99788800974915
 21
45.17499329772743
 31
0.0
 11
-70.99829689037698
 21
45.16273360817743
 31
0.0
 11
-70.99856929224586
 21
45.15361267767869
 31
0.0
 11
-70.99872109113161
 21
45.14769672196432
 31
0.0
 11
-70.99876816281
 21
45.1450519567674
 31
0.0
  0
SPLINE
  5
FF
330
55
100
AcDbEntity
  8
0
  6
Continuous
 62
     7
100
AcDbSpline
210
0.0
220
0.0
230
1.0
 70
     8
 71
     3
 72
    11
 73
     7
 74
     5
 42
0.000000001
 43
0.0000000001
 44
0.00000001
 40
0.0
 40
0.0
 40
0.0
 40
0.0
 40
0.2427397083760615
 40
0.4930298894499152
 40
1.824542793980511
 40
3.105869095483822
 40
3.105869095483822
 40
3.105869095483822
 40
3.105869095483822
 10
-68.19972266139442
 20
47.34291477424449
 30
0.0
 10
-68.20010470916797
 20
47.4238272153902
 30
0.0
 10
-68.20088070296427
 20
47.58816889712813
 30
0.0
 10
-68.2010475201893
 20
48.1963507376086
 30
0.0
 10
-68.20177011978117
 20
49.15072622026671
 30
0.0
 10
-68.20165385586004
 20
50.02167279691449
 30
0.0
 10
-68.20159684945234
 20
50.44878164971692
 30
0.0
 11
-68.19972266139442
 21
47.34291477424449
 31
0.0
 11
-68.20069163392091
 21
47.58565254862614
 31
0.0
 11
-68.20095502868847
 21
47.83594259110102
 31
0.0
 11
-68.2015813309752
 21
49.16745534833483
 31
0.0
 11
-68.20159684945234
 21
50.44878164971692
 31
0.0
  0
SPLINE
  5
100
330
55
100
AcDbEntity
  8
0
  6
Continuous
 62
     7
100
AcDbSpline
210
0.0
220
0.0
230
1.0
 70
     8
 71
     3
 72
     9
 73
     5
 74
     3
 42
0.000000001
 43
0.0000000001
 44
0.00000001
 40
0.0
 40
0.0
 40
0.0
 40
0.0
 40
0.0572526910765554
 40
0.1150102969958664
 40
0.1150102969958664
 40
0.1150102969958664
 40
0.1150102969958664
 10
-68.19975353402707
 20
47.22791222357898
 30
0.0
 10
-68.20008105756354
 20
47.2469952408654
 30
0.0
 10
-68.20073897308808
 20
47.28532956980037
 30
0.0
 10
-68.20006242870257
 20
47.32366360847787
 30
0.0
 10
-68.19972266139442
 20
47.34291477424449
 30
0.0
 11
-68.19975353402707
 21
47.22791222357898
 31
0.0
 11
-68.20040540257253
 21
47.28516120362399
 31
0.0
 11
-68.19972266139442
 21
47.34291477424449
 31
0.0
  0
SPLINE
  5
101
330
55
100
AcDbEntity
  8
0
  6
Continuous
 62
     7
100
AcDbSpline
210
0.0
220
0.0
230
1.0
 70
     8
 71
     3
 72
     9
 73
     5
 74
     3
 42
0.000000001
 43
0.0000000001
 44
0.00000001
 40
0.0
 40
0.0
 40
0.0
 40
0.0
 40
0.0553004284411233
 40
0.1101895640811739
 40
0.1101895640811739
 40
0.1101895640811739
 40
0.1101895640811739
 10
-68.20159038955296
 20
50.47284519215597
 30
0.0
 10
-68.20182671652313
 20
50.49127737558721
 30
0.0
 10
-68.20229759280001
 20
50.52800465463204
 30
0.0
 10
-68.20228563209403
 20
50.56473494618275
 30
0.0
 10
-68.20227966410067
 20
50.58303154238278
 30
0.0
 11
-68.20159038955296
 21
50.47284519215597
 31
0.0
 11
-68.2021777483449
 21
50.52814250131535
 31
0.0
 11
-68.20227966410067
 21
50.58303154238278
 31
0.0
  0
ENDBLK
  5
57
330
55
100
AcDbEntity
  8
0
100
AcDbBlockEnd
  0
BLOCK
  5
5A
330
58
100
AcDbEntity
  8
0
100
AcDbBlockBegin
  2
Drfsicht1
 70
     0
 10
-57.99999999999996
 20
52.14490496819295
 30
0.0
  3
Drfsicht1
  1

  0
INSERT
  5
59
330
58
100
AcDbEntity
  8
0
100
AcDbBlockReference
  2
ma_20x8-select__3
 10
-70.99876816281
 20
45.14490497581731
 30
0.0
  0
MTEXT
  5
102
330
58
100
AcDbEntity
  8
1
 62
     6
100
AcDbMText
 10
-58.0
 20
42.64490496819292
 30
0.0
 40
2.5
 41
0.0
 71
     2
 72
     1
  1
 
  7
CONVERTER_11
 73
     1
 44
1.32052821128451
  0
ENDBLK
  5
5B
330
58
100
AcDbEntity
  8
0
100
AcDbBlockEnd
  0
BLOCK
  5
5D
330
5C
100
AcDbEntity
  8
0
100
AcDbBlockBegin
  2
ma_20x8-select__4
 70
     0
 10
-95.00268394829645
 20
74.1484324619427
 30
0.0
  3
ma_20x8-select__4
  1

  0
LINE
  5
103
330
5C
100
AcDbEntity
  8
0
  6
Continuous
 62
     7
100
AcDbLine
 10
-93.80268394829282
 20
77.84537508109327
 30
0.0
 11
-93.80268394829284
 21
77.85462543542032
 31
0.0
  0
LINE
  5
104
330
5C
100
AcDbEntity
  8
0
  6
Continuous
 62
     7
100
AcDbLine
 10
-95.00268394829645
 20
77.85509579989862
 30
0.0
 11
-95.00268394829644
 21
77.84490472407887
 31
0.0
  0
LINE
  5
105
330
5C
100
AcDbEntity
  8
0
  6
Continuous
 62
     7
100
AcDbLine
 10
-82.20268394830083
 20
77.8453750810956
 30
0.0
 11
-86.30268394829683
 21
77.84537509175576
 31
0.0
  0
LINE
  5
106
330
5C
100
AcDbEntity
  8
0
  6
Continuous
 62
     7
100
AcDbLine
 10
-88.10268394829683
 20
77.84537509175576
 30
0.0
 11
-93.80268394829282
 21
77.84537508109327
 31
0.0
  0
LINE
  5
107
330
5C
100
AcDbEntity
  8
0
  6
Continuous
 62
     7
100
AcDbLine
 10
-82.20268394830084
 20
77.85462543542265
 30
0.0
 11
-93.80268394829284
 21
77.85462543542032
 31
0.0
  0
LINE
  5
108
330
5C
100
AcDbEntity
  8
0
  6
Continuous
 62
     7
100
AcDbLine
 10
-82.20268394830084
 20
77.85462543542265
 30
0.0
 11
-81.00268394829685
 21
77.85509580308249
 31
0.0
  0
LINE
  5
109
330
5C
100
AcDbEntity
  8
0
  6
Continuous
 62
     7
100
AcDbLine
 10
-95.00268394829645
 20
77.85509579989862
 30
0.0
 11
-93.80268394829284
 21
77.85462543542032
 31
0.0
  0
LINE
  5
10A
330
5C
100
AcDbEntity
  8
0
  6
Continuous
 62
     7
100
AcDbLine
 10
-81.00268394829685
 20
77.85509580308249
 30
0.0
 11
-81.00268394829722
 21
77.84490472408385
 31
0.0
  0
LINE
  5
10B
330
5C
100
AcDbEntity
  8
0
  6
Continuous
 62
     7
100
AcDbLine
 10
-95.00268394829644
 20
77.84490472407887
 30
0.0
 11
-93.80268394829282
 21
77.84537508109327
 31
0.0
  0
LINE
  5
10C
330
5C
100
AcDbEntity
  8
0
  6
Continuous
 62
     7
100
AcDbLine
 10
-82.20268394830083
 20
77.8453750810956
 30
0.0
 11
-81.00268394829722
 21
77.84490472408385
 31
0.0
  0
LINE
  5
10D
330
5C
100
AcDbEntity
  8
0
  6
Continuous
 62
     7
100
AcDbLine
 10
-82.20268394830083
 20
77.8453750810956
 30
0.0
 11
-82.20268394830084
 21
77.85462543542265
 31
0.0
  0
LINE
  5
10E
330
5C
100
AcDbEntity
  8
0
  6
Continuous
 62
     7
100
AcDbLine
 10
-86.30268394829685
 20
75.65239093549535
 30
0.0
 11
-86.30268394829683
 21
77.8546254460828
 31
0.0
  0
LINE
  5
10F
330
5C
100
AcDbEntity
  8
0
  6
Continuous
 62
     7
100
AcDbLine
 10
-88.10268394829684
 20
75.65239093549535
 30
0.0
 11
-88.10268394829683
 21
77.8546254460828
 31
0.0
  0
LINE
  5
110
330
5C
100
AcDbEntity
  8
0
  6
Continuous
 62
     7
100
AcDbLine
 10
-88.10268394829684
 20
74.1523915304767
 30
0.0
 11
-88.10268394829684
 21
75.10356855083822
 31
0.0
  0
LINE
  5
111
330
5C
100
AcDbEntity
  8
0
  6
Continuous
 62
     7
100
AcDbLine
 10
-88.10268394829684
 20
75.10356855083822
 30
0.0
 11
-88.10268394829684
 21
75.65239093549535
 31
0.0
  0
LINE
  5
112
330
5C
100
AcDbEntity
  8
0
  6
Continuous
 62
     7
100
AcDbLine
 10
-88.10268394829683
 20
74.1484324619427
 30
0.0
 11
-88.10268394829684
 21
74.1523915304767
 31
0.0
  0
LINE
  5
113
330
5C
100
AcDbEntity
  8
0
  6
Continuous
 62
     7
100
AcDbLine
 10
-86.30268394829685
 20
74.1523915304767
 30
0.0
 11
-86.30268394829685
 21
75.10356855083822
 31
0.0
  0
LINE
  5
114
330
5C
100
AcDbEntity
  8
0
  6
Continuous
 62
     7
100
AcDbLine
 10
-86.30268394829685
 20
75.10356855083822
 30
0.0
 11
-86.30268394829685
 21
75.65239093549535
 31
0.0
  0
LINE
  5
115
330
5C
100
AcDbEntity
  8
0
  6
Continuous
 62
     7
100
AcDbLine
 10
-86.30268394829683
 20
74.1484324619427
 30
0.0
 11
-86.30268394829685
 21
74.1523915304767
 31
0.0
  0
LINE
  5
116
330
5C
100
AcDbEntity
  8
0
  6
Continuous
 62
     7
100
AcDbLine
 10
-88.10268394829684
 20
75.10356855083822
 30
0.0
 11
-86.30268394829685
 21
75.10356855083822
 31
0.0
  0
LINE
  5
117
330
5C
100
AcDbEntity
  8
0
  6
Continuous
 62
     7
100
AcDbLine
 10
-88.10268394829684
 20
75.65239093549535
 30
0.0
 11
-86.30268394829685
 21
75.65239093549535
 31
0.0
  0
LINE
  5
118
330
5C
100
AcDbEntity
  8
0
  6
Continuous
 62
     7
100
AcDbLine
 10
-88.10268394829683
 20
74.1484324619427
 30
0.0
 11
-86.30268394829683
 21
74.1484324619427
 31
0.0
  0
LINE
  5
119
330
5C
100
AcDbEntity
  8
0
  6
Continuous
 62
     7
100
AcDbLine
 10
-88.10268394829684
 20
74.1523915304767
 30
0.0
 11
-86.30268394829685
 21
74.1523915304767
 31
0.0
  0
SPLINE
  5
11A
330
5C
100
AcDbEntity
  8
0
  6
Continuous
 62
     7
100
AcDbSpline
210
0.0
220
0.0
230
1.0
 70
     8
 71
     3
 72
    18
 73
    14
 74
    12
 42
0.000000001
 43
0.0000000001
 44
0.00000001
 40
0.0
 40
0.0
 40
0.0
 40
0.0
 40
0.5579552540896019
 40
1.464355899166116
 40
2.689322039291419
 40
4.168008545791356
 40
5.826118833153472
 40
7.346550484512719
 40
8.895735844986714
 40
10.3817053502323
 40
11.67207229872346
 40
12.13365588943818
 40
12.50873541941246
 40
12.50873541941246
 40
12.50873541941246
 40
12.50873541941246
 10
-88.00268394829642
 20
87.85431110658625
 30
0.0
 10
-87.82288567583643
 20
87.80053853486012
 30
0.0
 10
-87.35100435159808
 20
87.65941221129539
 30
0.0
 10
-86.66869178595631
 20
87.04497626629748
 30
0.0
 10
-85.8173923618466
 20
86.20559172681538
 30
0.0
 10
-84.88236108374089
 20
85.08568433780717
 30
0.0
 10
-83.95378388884389
 20
83.84224906315693
 30
0.0
 10
-83.07820997182262
 20
82.53076768888762
 30
0.0
 10
-82.29943966952182
 20
81.2265028120506
 30
0.0
 10
-81.6353386475385
 20
79.94502603398678
 30
0.0
 10
-81.22682955237231
 20
78.9442711850752
 30
0.0
 10
-81.03452012957538
 20
78.25858925017104
 30
0.0
 10
-81.01253843769938
 20
77.97999206867155
 30
0.0
 10
-81.00268394829685
 20
77.85509580308249
 30
0.0
 11
-88.00268394829642
 21
87.85431110658625
 31
0.0
 11
-87.47785892385373
 21
87.66491006156137
 31
0.0
 11
-86.75641468368404
 21
87.11620217965111
 31
0.0
 11
-85.88912432272325
 21
86.25113023332172
 31
0.0
 11
-84.93127018135276
 21
85.1246182600845
 31
0.0
 11
-83.93860192398142
 21
83.79648443674722
 31
0.0
 11
-83.09426776401313
 21
82.53204296719336
 31
0.0
 11
-82.30240555058793
 21
81.20052897446894
 31
0.0
 11
-81.62707328369876
 21
79.8768856326107
 31
0.0
 11
-81.15624533338362
 21
78.67548316032665
 31
0.0
 11
-81.043032387858
 21
78.2279988117681
 31
0.0
 11
-81.00268394829685
 21
77.85509580308249
 31
0.0
  0
SPLINE
  5
11B
330
5C
100
AcDbEntity
  8
0
  6
Continuous
 62
     7
100
AcDbSpline
210
0.0
220
0.0
230
1.0
 70
     8
 71
     3
 72
    22
 73
    18
 74
    16
 42
0.000000001
 43
0.0000000001
 44
0.00000001
 40
0.0
 40
0.0
 40
0.0
 40
0.0
 40
0.2187733357830894
 40
0.4792212911983991
 40
1.468149692756971
 40
2.761212019123001
 40
4.506822560899166
 40
6.393318420759637
 40
7.120394325660812
 40
8.23123316872112
 40
9.556287808236391
 40
10.38538413647488
 40
11.10435926838566
 40
11.62392886086349
 40
12.04265486147159
 40
12.31050143920231
 40
12.51523541404799
 40
12.51523541404799
 40
12.51523541404799
 40
12.51523541404799
 10
-95.00268394829645
 20
77.85509579989862
 30
0.0
 10
-94.99917353873737
 20
77.92801953020663
 30
0.0
 10
-94.99148402756207
 20
78.0877583954593
 30
0.0
 10
-94.89680654157843
 20
78.56922254309269
 30
0.0
 10
-94.61835994323185
 20
79.37308997647304
 30
0.0
 10
-94.05123659424937
 20
80.59106794933719
 30
0.0
 10
-93.24729014778251
 20
82.02423776707835
 30
0.0
 10
-92.45771462983639
 20
83.24514908709675
 30
0.0
 10
-91.74078749309814
 20
84.25879465949691
 30
0.0
 10
-91.10538868349963
 20
85.10045571830582
 30
0.0
 10
-90.41028873979086
 20
85.93871003945036
 30
0.0
 10
-89.75812653217072
 20
86.64076031537024
 30
0.0
 10
-89.25995601253581
 20
87.11738313081497
 30
0.0
 10
-88.83293631419798
 20
87.46994453489074
 30
0.0
 10
-88.49723173028369
 20
87.69019481395745
 30
0.0
 10
-88.22784003821789
 20
87.82485923907981
 30
0.0
 10
-88.07074258103422
 20
87.84540859396608
 30
0.0
 10
-88.00268394829642
 20
87.85431110658625
 30
0.0
 11
-95.00268394829645
 21
77.85509579989862
 31
0.0
 11
-94.9873146467735
 21
78.07332860009434
 31
0.0
 11
-94.94133956327906
 21
78.32968661191953
 31
0.0
 11
-94.63825887808831
 21
79.27102686898803
 31
0.0
 11
-94.10262139993964
 21
80.4479307173472
 31
0.0
 11
-93.25527247320916
 21
81.97408796830804
 31
0.0
 11
-92.23223436751739
 21
83.55909890155772
 31
0.0
 11
-91.81224560763216
 21
84.15260443007978
 31
0.0
 11
-91.14233876096719
 21
85.03871263484888
 31
0.0
 11
-90.29321582830083
 21
86.05594419199507
 31
0.0
 11
-89.72693627950467
 21
86.66152506458221
 31
0.0
 11
-89.2049303215591
 21
87.15592876541585
 31
0.0
 11
-88.80100713981022
 21
87.48272935312951
 31
0.0
 11
-88.44913051101351
 21
87.70969697453714
 31
0.0
 11
-88.20418290138191
 21
87.81805959515897
 31
0.0
 11
-88.00268394829642
 21
87.85431110658625
 31
0.0
  0
ENDBLK
  5
5E
330
5C
100
AcDbEntity
  8
0
100
AcDbBlockEnd
  0
BLOCK
  5
61
330
5F
100
AcDbEntity
  8
0
100
AcDbBlockBegin
  2
SA_Rechts1
 70
     0
 10
-88.00268395592082
 20
80.99999999995998
 30
0.0
  3
SA_Rechts1
  1

  0
INSERT
  5
60
330
5F
100
AcDbEntity
  8
0
100
AcDbBlockReference
  2
ma_20x8-select__4
 10
-95.00268394829645
 20
74.1484324619427
 30
0.0
  0
MTEXT
  5
11C
330
5F
100
AcDbEntity
  8
1
 62
     6
100
AcDbMText
 10
-88.00268395592082
 20
71.6449049681579
 30
0.0
 40
2.5
 41
0.0
 71
     2
 72
     1
  1
 
  7
CONVERTER_11
 73
     1
 44
1.32052821128451
  0
ENDBLK
  5
62
330
5F
100
AcDbEntity
  8
0
100
AcDbBlockEnd
  0
BLOCK
  5
64
330
63
100
AcDbEntity
  8
0
100
AcDbBlockBegin
  2
ma_20x8-select__5
 70
     0
 10
-34.99731605170324
 20
74.14760956764702
 30
0.0
  3
ma_20x8-select__5
  1

  0
LINE
  5
11D
330
63
100
AcDbEntity
  8
0
  6
Continuous
 62
     7
100
AcDbLine
 10
-20.99731605170365
 20
77.84490472407887
 30
0.0
 11
-34.99731605170287
 21
77.84490472408386
 31
0.0
  0
LINE
  5
11E
330
63
100
AcDbEntity
  8
0
  6
Continuous
 62
     7
100
AcDbLine
 10
-34.99731605170324
 20
77.85509580308249
 30
0.0
 11
-34.99731605170287
 21
77.84490472408386
 31
0.0
  0
LINE
  5
11F
330
63
100
AcDbEntity
  8
0
  6
Continuous
 62
     2
100
AcDbLine
 10
-27.99731605170366
 20
87.85431110658625
 30
0.0
 11
-27.99731605170368
 21
87.84568789492543
 31
0.0
  0
LINE
  5
120
330
63
100
AcDbEntity
  8
0
  6
Continuous
 62
     7
100
AcDbLine
 10
-26.435442618255
 20
86.82197836316318
 30
0.0
 11
-26.43544261826911
 21
86.81398229415414
 31
0.0
  0
LINE
  5
121
330
63
100
AcDbEntity
  8
0
  6
Continuous
 62
     7
100
AcDbLine
 10
-21.50941986495481
 20
79.62475855126277
 30
0.0
 11
-21.50941986495492
 21
79.61676248226816
 31
0.0
  0
LINE
  5
122
330
63
100
AcDbEntity
  8
0
  6
Continuous
 62
     7
100
AcDbLine
 10
-21.50941986495481
 20
79.62475855126277
 30
0.0
 11
-21.51441183171482
 21
79.62714957323305
 31
0.0
  0
LINE
  5
123
330
63
100
AcDbEntity
  8
0
  6
Continuous
 62
     7
100
AcDbLine
 10
-20.99731605170362
 20
77.8550957924053
 30
0.0
 11
-20.99731605170365
 21
77.84490472407887
 31
0.0
  0
LINE
  5
124
330
63
100
AcDbEntity
  8
0
  6
Continuous
 62
     7
100
AcDbLine
 10
-27.89731605170324
 20
74.14760956764702
 30
0.0
 11
-29.69731605170325
 21
74.14760956764702
 31
0.0
  0
LINE
  5
125
330
63
100
AcDbEntity
  8
0
  6
Continuous
 62
     7
100
AcDbLine
 10
-29.69731605170325
 20
75.09835618148361
 30
0.0
 11
-29.69731605170325
 21
75.64760897229459
 31
0.0
  0
LINE
  5
126
330
63
100
AcDbEntity
  8
0
  6
Continuous
 62
     7
100
AcDbLine
 10
-27.89731605170324
 20
75.09835618148361
 30
0.0
 11
-29.69731605170325
 21
75.09835618148361
 31
0.0
  0
LINE
  5
127
330
63
100
AcDbEntity
  8
0
  6
Continuous
 62
     7
100
AcDbLine
 10
-27.89731605170324
 20
75.09835618148361
 30
0.0
 11
-27.89731605170324
 21
74.14760956764702
 31
0.0
  0
LINE
  5
128
330
63
100
AcDbEntity
  8
0
  6
Continuous
 62
     7
100
AcDbLine
 10
-29.69731605170325
 20
75.09835618148361
 30
0.0
 11
-29.69731605170325
 21
74.14760956764702
 31
0.0
  0
LINE
  5
129
330
63
100
AcDbEntity
  8
0
  6
Continuous
 62
     7
100
AcDbLine
 10
-27.89731605170324
 20
75.09835618148361
 30
0.0
 11
-27.89731605170324
 21
75.64760897229459
 31
0.0
  0
LINE
  5
12A
330
63
100
AcDbEntity
  8
0
  6
Continuous
 62
     7
100
AcDbLine
 10
-27.89731605170324
 20
75.64760897229459
 30
0.0
 11
-27.89731605170324
 21
77.84490473475608
 31
0.0
  0
LINE
  5
12B
330
63
100
AcDbEntity
  8
0
  6
Continuous
 62
     7
100
AcDbLine
 10
-27.89731605170324
 20
75.64760897229459
 30
0.0
 11
-29.69731605170325
 21
75.64760897229459
 31
0.0
  0
LINE
  5
12C
330
63
100
AcDbEntity
  8
0
  6
Continuous
 62
     7
100
AcDbLine
 10
-29.69731605170325
 20
75.64760897229459
 30
0.0
 11
-29.69731605170325
 21
77.84490473475608
 31
0.0
  0
SPLINE
  5
12D
330
63
100
AcDbEntity
  8
0
  6
Continuous
 62
     7
100
AcDbSpline
210
0.0
220
0.0
230
1.0
 70
     8
 71
     3
 72
    11
 73
     7
 74
     5
 42
0.000000001
 43
0.0000000001
 44
0.00000001
 40
0.0
 40
0.0
 40
0.0
 40
0.0
 40
2.046888675917997
 40
4.400182768157069
 40
6.755422842410611
 40
8.76012885876709
 40
8.76012885876709
 40
8.76012885876709
 40
8.76012885876709
 10
-21.50941986495481
 20
79.62475855126277
 30
0.0
 10
-21.80757082486054
 20
80.23912135661617
 30
0.0
 10
-22.44850394453685
 20
81.55981292452442
 30
0.0
 10
-23.67196413424968
 20
83.4543489039669
 30
0.0
 10
-24.98334383621847
 20
85.27252619712293
 30
0.0
 10
-25.97806786477688
 20
86.33393973889703
 30
0.0
 10
-26.435442618255
 20
86.82197836316318
 30
0.0
 11
-21.50941986495481
 21
79.62475855126277
 31
0.0
 11
-22.43762485090718
 21
81.44909096511215
 31
0.0
 11
-23.68835366698733
 21
83.44249772692994
 31
0.0
 11
-25.09355985704763
 21
85.33261713488493
 31
0.0
 11
-26.435442618255
 21
86.82197836316318
 31
0.0
  0
SPLINE
  5
12E
330
63
100
AcDbEntity
  8
0
  6
Continuous
 62
     7
100
AcDbSpline
210
0.0
220
0.0
230
1.0
 70
     8
 71
     3
 72
    18
 73
    14
 74
    12
 42
0.000000001
 43
0.0000000001
 44
0.00000001
 40
0.0
 40
0.0
 40
0.0
 40
0.0
 40
0.557955254089612
 40
1.464355899166121
 40
2.689322039291428
 40
4.168008545791363
 40
5.826118833153468
 40
7.346550484512716
 40
8.89573584498669
 40
10.3817053502323
 40
11.67207229872346
 40
12.13365588943819
 40
12.50873541941247
 40
12.50873541941247
 40
12.50873541941247
 40
12.50873541941247
 10
-27.99731605170366
 20
87.85431110658625
 30
0.0
 10
-28.17711432416364
 20
87.80053853486014
 30
0.0
 10
-28.64899564840202
 20
87.6594122112954
 30
0.0
 10
-29.33130821404373
 20
87.04497626629751
 30
0.0
 10
-30.18260763815352
 20
86.20559172681537
 30
0.0
 10
-31.1176389162592
 20
85.08568433780717
 30
0.0
 10
-32.04621611115616
 20
83.84224906315693
 30
0.0
 10
-32.92179002817748
 20
82.53076768888762
 30
0.0
 10
-33.7005603304782
 20
81.22650281205057
 30
0.0
 10
-34.36466135246165
 20
79.94502603398684
 30
0.0
 10
-34.77317044762768
 20
78.9442711850752
 30
0.0
 10
-34.96547987042476
 20
78.25858925017104
 30
0.0
 10
-34.98746156230069
 20
77.97999206867155
 30
0.0
 10
-34.99731605170324
 20
77.85509580308249
 30
0.0
 11
-27.99731605170366
 21
87.85431110658625
 31
0.0
 11
-28.52214107614636
 21
87.66491006156137
 31
0.0
 11
-29.24358531631604
 21
87.11620217965111
 31
0.0
 11
-30.11087567727684
 21
86.25113023332172
 31
0.0
 11
-31.06872981864733
 21
85.1246182600845
 31
0.0
 11
-32.06139807601865
 21
83.79648443674722
 31
0.0
 11
-32.90573223598695
 21
82.53204296719336
 31
0.0
 11
-33.69759444941212
 21
81.20052897446895
 31
0.0
 11
-34.37292671630134
 21
79.87688563261071
 31
0.0
 11
-34.84375466661645
 21
78.67548316032665
 31
0.0
 11
-34.95696761214209
 21
78.2279988117681
 31
0.0
 11
-34.99731605170324
 21
77.85509580308249
 31
0.0
  0
SPLINE
  5
12F
330
63
100
AcDbEntity
  8
0
  6
Continuous
 62
     7
100
AcDbSpline
210
0.0
220
0.0
230
1.0
 70
     8
 71
     3
 72
    18
 73
    14
 74
    12
 42
0.000000001
 43
0.0000000001
 44
0.00000001
 40
0.0
 40
0.0
 40
0.0
 40
0.0
 40
0.5580584946752336
 40
1.464632931104432
 40
2.689782715034033
 40
4.168640808375391
 40
5.826899328719163
 40
7.347434635087349
 40
8.89669875138613
 40
10.38271996100857
 40
11.67311218884383
 40
12.12815977098939
 40
12.4996420565596
 40
12.4996420565596
 40
12.4996420565596
 40
12.4996420565596
 10
-27.99731605170368
 20
87.84568789492543
 30
0.0
 10
-28.17711478161319
 20
87.79180586666267
 30
0.0
 10
-28.64899926424043
 20
87.65039168727327
 30
0.0
 10
-29.33128808300664
 20
87.03574869151325
 30
0.0
 10
-30.18259388071745
 20
86.19610152298662
 30
0.0
 10
-31.11762506520754
 20
85.07598510597072
 30
0.0
 10
-32.04620845928224
 20
83.83237471267388
 30
0.0
 10
-32.92177675638577
 20
82.52076412083301
 30
0.0
 10
-33.70057758452409
 20
81.21640700767477
 30
0.0
 10
-34.36457896445773
 20
79.93488080078248
 30
0.0
 10
-34.77252551614011
 20
78.93609951413443
 30
0.0
 10
-34.96382003912957
 20
78.25381050174887
 30
0.0
 10
-34.98692952899657
 20
77.9787301473348
 30
0.0
 10
-34.99731605170324
 20
77.85509580308249
 30
0.0
 11
-27.99731605170368
 21
87.84568789492543
 31
0.0
 11
-28.52214119820252
 21
87.65598326736566
 31
0.0
 11
-29.24358536888738
 21
87.10698825896432
 31
0.0
 11
-30.11087553027317
 21
86.24165608741016
 31
0.0
 11
-31.0687296102679
 21
85.1149188424489
 31
0.0
 11
-32.06139807602308
 21
83.78660011780372
 31
0.0
 11
-32.90573223598685
 21
82.52203400984
 31
0.0
 11
-33.69759444940576
 21
81.19042838737224
 31
0.0
 11
-34.37292671630096
 21
79.8667270005897
 31
0.0
 11
-34.8437546666182
 21
78.66529737704698
 31
0.0
 11
-34.95573725580509
 21
78.22424386130122
 31
0.0
 11
-34.99731605170324
 21
77.85509580308249
 31
0.0
  0
SPLINE
  5
130
330
63
100
AcDbEntity
  8
0
  6
Continuous
 62
     7
100
AcDbSpline
210
0.0
220
0.0
230
1.0
 70
     8
 71
     3
 72
    13
 73
     9
 74
     7
 42
0.000000001
 43
0.0000000001
 44
0.00000001
 40
0.0
 40
0.0
 40
0.0
 40
0.0
 40
0.2526545879824399
 40
0.490814942804967
 40
1.010384534914221
 40
1.429110536666329
 40
1.696957109240749
 40
1.901691080065349
 40
1.901691080065349
 40
1.901691080065349
 40
1.901691080065349
 10
-26.435442618255
 20
86.82197836316318
 30
0.0
 10
-26.49605746825014
 20
86.88046271239372
 30
0.0
 10
-26.61380982234814
 20
86.99407630015511
 30
0.0
 10
-26.86400951175294
 20
87.21945684203389
 30
0.0
 10
-27.16704222714469
 20
87.47000416116052
 30
0.0
 10
-27.50277144766657
 20
87.69018599314879
 30
0.0
 10
-27.77215950575747
 20
87.82486050443649
 30
0.0
 10
-27.92925727886382
 20
87.84540898708529
 30
0.0
 10
-27.99731605170366
 20
87.85431110658625
 30
0.0
 11
-26.435442618255
 21
86.82197836316318
 31
0.0
 11
-26.61829072228988
 21
86.99633692462831
 31
0.0
 11
-26.79506967844098
 21
87.15592876541587
 31
0.0
 11
-27.19899286018983
 21
87.48272935312951
 31
0.0
 11
-27.55086948898656
 21
87.70969697453714
 31
0.0
 11
-27.79581709861816
 21
87.81805959515897
 31
0.0
 11
-27.99731605170366
 21
87.85431110658625
 31
0.0
  0
SPLINE
  5
131
330
63
100
AcDbEntity
  8
0
  6
Continuous
 62
     7
100
AcDbSpline
210
0.0
220
0.0
230
1.0
 70
     8
 71
     3
 72
    13
 73
     9
 74
     7
 42
0.000000001
 43
0.0000000001
 44
0.00000001
 40
0.0
 40
0.0
 40
0.0
 40
0.0
 40
0.204757797920361
 40
0.4726577730878554
 40
0.9505213127721333
 40
1.411079176353398
 40
1.656349568390109
 40
1.901067068513204
 40
1.901067068513204
 40
1.901067068513204
 40
1.901067068513204
 10
-27.99731605170368
 20
87.84568789492543
 30
0.0
 10
-27.92925502960878
 20
87.83673613240178
 30
0.0
 10
-27.77214467525426
 20
87.81607208866187
 30
0.0
 10
-27.48495471832099
 20
87.67239662444439
 30
0.0
 10
-27.1515200542877
 20
87.4483704758654
 30
0.0
 10
-26.84753734616442
 20
87.19564347708825
 30
0.0
 10
-26.61234868519167
 20
86.98336966946285
 30
0.0
 10
-26.49436693341768
 20
86.87040226028246
 30
0.0
 10
-26.43544261826911
 20
86.81398229415414
 30
0.0
 11
-27.99731605170368
 21
87.84568789492543
 31
0.0
 11
-27.79581695833476
 21
87.80930283552453
 31
0.0
 11
-27.55086948899258
 21
87.70080796658948
 31
0.0
 11
-27.15150539256799
 21
87.43839249579621
 31
0.0
 11
-26.79506967865255
 21
87.14672980108105
 31
0.0
 11
-26.61302708174047
 21
86.98235809292801
 31
0.0
 11
-26.43544261826911
 21
86.81398229415414
 31
0.0
  0
SPLINE
  5
132
330
63
100
AcDbEntity
  8
0
  6
Continuous
 62
     7
100
AcDbSpline
210
0.0
220
0.0
230
1.0
 70
     8
 71
     3
 72
    15
 73
    11
 74
     9
 42
0.000000001
 43
0.0000000001
 44
0.00000001
 40
0.0
 40
0.0
 40
0.0
 40
0.0
 40
0.5709083976031631
 40
1.058501862908925
 40
2.166554930995353
 40
4.221503335995848
 40
6.108118089950955
 40
7.853802947620802
 40
8.340184980537439
 40
8.761966914899201
 40
8.761966914899201
 40
8.761966914899201
 40
8.761966914899201
 10
-26.43544261826911
 20
86.81398229415414
 30
0.0
 10
-26.30108206270657
 20
86.67917687646889
 30
0.0
 10
-26.05196873752408
 20
86.42923871650535
 30
0.0
 10
-25.56621427267062
 20
85.89459486976709
 30
0.0
 10
-24.78348038050675
 20
84.9623048269346
 30
0.0
 10
-23.78295454197835
 20
83.6067385073693
 30
0.0
 10
-22.75251479123434
 20
82.0143796728444
 30
0.0
 10
-22.08086652919147
 20
80.81544714416924
 30
0.0
 10
-21.69060690224222
 20
80.02139304584915
 30
0.0
 10
-21.56688190985262
 20
79.7450879015866
 30
0.0
 10
-21.50941986495492
 20
79.61676248226816
 30
0.0
 11
-26.43544261826911
 21
86.81398229415414
 31
0.0
 11
-26.03579098982689
 21
86.40628758744099
 31
0.0
 11
-25.7067841721224
 21
86.04642386294452
 31
0.0
 11
-24.9928237290675
 21
85.19905022048178
 31
0.0
 11
-23.7677656333521
 21
83.5491879209768
 31
0.0
 11
-22.7447272650837
 21
81.96403564915582
 31
0.0
 11
-21.89737859212605
 21
80.4377932531718
 31
0.0
 11
-21.68392510400376
 21
80.00075196278685
 31
0.0
 11
-21.50941986495492
 21
79.61676248226816
 31
0.0
  0
SPLINE
  5
133
330
63
100
AcDbEntity
  8
0
  6
Continuous
 62
     7
100
AcDbSpline
210
0.0
220
0.0
230
1.0
 70
     8
 71
     3
 72
    11
 73
     7
 74
     5
 42
0.000000001
 43
0.0000000001
 44
0.00000001
 40
0.0
 40
0.0
 40
0.0
 40
0.0
 40
0.9269544084543639
 40
1.374778751155774
 40
1.629111039679193
 40
1.843835318753743
 40
1.843835318753743
 40
1.843835318753743
 40
1.843835318753743
 10
-21.50941986495492
 20
79.61676248226816
 30
0.0
 10
-21.39082721191694
 20
79.33099927446013
 30
0.0
 10
-21.21494082082204
 20
78.90717995832705
 30
0.0
 10
-21.06886110009448
 20
78.38351818800093
 30
0.0
 10
-21.00959702972008
 20
78.08293788031666
 30
0.0
 10
-21.00117258081924
 20
77.92664390401801
 30
0.0
 10
-20.99731605170362
 20
77.8550957924053
 30
0.0
 11
-21.50941986495492
 21
79.61676248226816
 31
0.0
 11
-21.17756061690292
 21
78.75124882170496
 31
0.0
 11
-21.05866043096913
 21
78.31949728445377
 31
0.0
 11
-21.01347374021443
 21
78.06921128886025
 31
0.0
 11
-20.99731605170362
 21
77.8550957924053
 31
0.0
  0
SPLINE
  5
134
330
63
100
AcDbEntity
  8
0
  6
Continuous
 62
     7
100
AcDbSpline
210
0.0
220
0.0
230
1.0
 70
     8
 71
     3
 72
    11
 73
     7
 74
     5
 42
0.000000001
 43
0.0000000001
 44
0.00000001
 40
0.0
 40
0.0
 40
0.0
 40
0.0
 40
0.2187733363073292
 40
0.4792212871952986
 40
1.09595758523739
 40
1.851944496085425
 40
1.851944496085425
 40
1.851944496085425
 40
1.851944496085425
 10
-20.99731605170362
 20
77.8550957924053
 30
0.0
 10
-21.00082524667177
 20
77.92802088940837
 30
0.0
 10
-21.00851212690653
 20
78.08776274452708
 30
0.0
 10
-21.07922169927679
 20
78.44713229318933
 30
0.0
 10
-21.2358258386748
 20
78.96962395417538
 30
0.0
 10
-21.41225609529105
 20
79.39209503489664
 30
0.0
 10
-21.50941986495481
 20
79.62475855126277
 30
0.0
 11
-20.99731605170362
 21
77.8550957924053
 31
0.0
 11
-21.01268535322655
 21
78.07332859915748
 31
0.0
 11
-21.05866043672101
 21
78.32968661191954
 31
0.0
 11
-21.23151620188115
 21
78.92170396689902
 31
0.0
 11
-21.50941986495481
 21
79.62475855126277
 31
0.0
  0
ENDBLK
  5
65
330
63
100
AcDbEntity
  8
0
100
AcDbBlockEnd
  0
BLOCK
  5
68
330
66
100
AcDbEntity
  8
0
100
AcDbBlockBegin
  2
SA_Links1
 70
     0
 10
-27.99731604407926
 20
80.99999999995998
 30
0.0
  3
SA_Links1
  1

  0
INSERT
  5
67
330
66
100
AcDbEntity
  8
0
100
AcDbBlockReference
  2
ma_20x8-select__5
 10
-34.99731605170324
 20
74.14760956764702
 30
0.0
  0
MTEXT
  5
135
330
66
100
AcDbEntity
  8
1
 62
     6
100
AcDbMText
 10
-27.99731604407924
 20
71.6449049681579
 30
0.0
 40
2.5
 41
0.0
 71
     2
 72
     1
  1
 
  7
CONVERTER_11
 73
     1
 44
1.32052821128451
  0
ENDBLK
  5
69
330
66
100
AcDbEntity
  8
0
100
AcDbBlockEnd
  0
BLOCK
  5
6B
330
6A
100
AcDbEntity
  8
0
100
AcDbBlockBegin
  2
ma_20x8-select__6
 70
     0
 10
-10.99586576898953
 20
74.14760956764702
 30
0.0
  3
ma_20x8-select__6
  1

  0
LINE
  5
136
330
6A
100
AcDbEntity
  8
0
  6
Continuous
 62
     7
100
AcDbLine
 10
-1.99731672727841
 20
74.15156840572726
 30
0.0
 11
-4.09731656596071
 21
74.1523915304767
 31
0.0
  0
LINE
  5
137
330
6A
100
AcDbEntity
  8
0
  6
Continuous
 62
     7
100
AcDbLine
 10
-10.99586576898953
 20
77.85509580308249
 30
0.0
 11
15.00413223374235
 21
77.8449047315722
 31
0.0
  0
LINE
  5
138
330
6A
100
AcDbEntity
  8
0
  6
Continuous
 62
     7
100
AcDbLine
 10
8.65209329988878
 20
75.09835618148361
 30
0.0
 11
8.10268249582021
 21
74.14760956764702
 31
0.0
  0
LINE
  5
139
330
6A
100
AcDbEntity
  8
0
  6
Continuous
 62
     7
100
AcDbLine
 10
8.10268249582021
 20
74.14760956764702
 30
0.0
 11
6.00327060309277
 21
74.14843246194269
 31
0.0
  0
LINE
  5
13A
330
6A
100
AcDbEntity
  8
0
  6
Continuous
 62
     7
100
AcDbLine
 10
-4.09731656596071
 20
74.1523915304767
 30
0.0
 11
-4.64598188407017
 21
75.10356855083822
 31
0.0
  0
LINE
  5
13B
330
6A
100
AcDbEntity
  8
0
  6
Continuous
 62
     7
100
AcDbLine
 10
6.00327060309277
 20
74.14843246194269
 30
0.0
 11
6.00327060308769
 21
77.84843275025304
 31
0.0
  0
LINE
  5
13C
330
6A
100
AcDbEntity
  8
0
  6
Continuous
 62
     7
100
AcDbLine
 10
-1.99731672727841
 20
74.15156840572726
 30
0.0
 11
-1.99586645986113
 21
77.85156812558469
 31
0.0
  0
LINE
  5
13D
330
6A
100
AcDbEntity
  8
0
  6
Continuous
 62
     7
100
AcDbLine
 10
-4.09672909324919
 20
75.65239093549533
 30
0.0
 11
-4.09586677189339
 21
77.85239125051967
 31
0.0
  0
LINE
  5
13E
330
6A
100
AcDbEntity
  8
0
  6
Continuous
 62
     7
100
AcDbLine
 10
-8.99194628096142
 20
87.85431110657068
 30
0.0
 11
13.00805202904352
 21
87.84568789490986
 31
0.0
  0
LINE
  5
13F
330
6A
100
AcDbEntity
  8
0
  6
Continuous
 62
     7
100
AcDbLine
 10
8.10327091523167
 20
75.64760897229459
 30
0.0
 11
8.10413276323751
 21
77.84760928750445
 31
0.0
  0
LINE
  5
140
330
6A
100
AcDbEntity
  8
0
  6
Continuous
 62
     7
100
AcDbLine
 10
8.65209329988878
 20
75.09835618148361
 30
0.0
 11
8.10327091523167
 21
75.64760897229459
 31
0.0
  0
LINE
  5
141
330
6A
100
AcDbEntity
  8
0
  6
Continuous
 62
     7
100
AcDbLine
 10
-4.09672909324919
 20
75.65239093549533
 30
0.0
 11
-4.64598188407017
 21
75.10356855083822
 31
0.0
  0
SPLINE
  5
142
330
6A
100
AcDbEntity
  8
0
  6
Continuous
 62
     7
100
AcDbSpline
210
0.0
220
0.0
230
1.0
 70
     8
 71
     3
 72
    18
 73
    14
 74
    12
 42
0.000000001
 43
0.0000000001
 44
0.00000001
 40
0.0
 40
0.0
 40
0.0
 40
0.0
 40
0.1445277309231895
 40
0.3098501469431442
 40
0.6304388304997608
 40
1.062219328092903
 40
1.686798903996668
 40
2.466919183745152
 40
3.395424426199609
 40
5.015425536695301
 40
6.816071452827289
 40
8.680301802307206
 40
10.50039111818154
 40
10.50039111818154
 40
10.50039111818154
 40
10.50039111818154
 10
13.00805202904352
 20
87.84568789490986
 30
0.0
 10
13.05640411388588
 20
87.84031337244576
 30
0.0
 10
13.16006519578011
 20
87.82879105427715
 30
0.0
 10
13.34499988105553
 20
87.71859036770131
 30
0.0
 10
13.55311904271361
 20
87.49031074481722
 30
0.0
 10
13.78381973852306
 20
87.09083038752398
 30
0.0
 10
14.0129384539324
 20
86.52178919531829
 30
0.0
 10
14.23516594239662
 20
85.77567136288062
 30
0.0
 10
14.47923440585175
 20
84.6926546948688
 30
0.0
 10
14.70281849926936
 20
83.25906619132242
 30
0.0
 10
14.87994964537503
 20
81.50585754557237
 30
0.0
 10
14.98525527511291
 20
79.6797958855503
 30
0.0
 10
14.99789037095966
 20
78.45163032123567
 30
0.0
 10
15.00413223374235
 20
77.8449047315722
 30
0.0
 11
13.00805202904352
 21
87.84568789490986
 31
0.0
 11
13.15033018391259
 21
87.82028726105587
 31
0.0
 11
13.29570992917441
 21
87.74157112354708
 31
0.0
 11
13.51980980059153
 21
87.51231940401969
 31
0.0
 11
13.74396618741165
 21
87.14328239809507
 31
0.0
 11
13.98533686926493
 21
86.56722698411467
 31
0.0
 11
14.21322479924195
 21
85.82113399944244
 31
0.0
 11
14.42111744710517
 21
84.91620160867072
 31
0.0
 11
14.67980456579855
 21
83.31698787309185
 31
0.0
 11
14.86515164660609
 21
81.5259065866382
 31
0.0
 11
14.97122760328456
 21
79.66469658030985
 31
0.0
 11
15.00413223374235
 21
77.8449047315722
 31
0.0
  0
SPLINE
  5
143
330
6A
100
AcDbEntity
  8
0
  6
Continuous
 62
     7
100
AcDbSpline
210
0.0
220
0.0
230
1.0
 70
     8
 71
     3
 72
    18
 73
    14
 74
    12
 42
0.000000001
 43
0.0000000001
 44
0.00000001
 40
0.0
 40
0.0
 40
0.0
 40
0.0
 40
0.1445277309028321
 40
0.3098501469441548
 40
0.6304388304965964
 40
1.06221932809385
 40
1.686798904045598
 40
2.466919183795256
 40
3.395424426200756
 40
5.01542553653415
 40
6.816071452827454
 40
8.680301801696887
 40
10.50039111499905
 40
10.50039111499905
 40
10.50039111499905
 40
10.50039111499905
 10
-8.991946280961422
 20
87.85431110657068
 30
0.0
 10
-9.040302564180166
 20
87.8489744903273
 30
0.0
 10
-9.143972646894241
 20
87.83753343855669
 30
0.0
 10
-9.328993664776903
 20
87.72747776136684
 30
0.0
 10
-9.537291717342637
 20
87.49936135912016
 30
0.0
 10
-9.768305506218255
 20
87.10006197735842
 30
0.0
 10
-9.997870238710842
 20
86.53120057262551
 30
0.0
 10
-10.220682561749
 20
85.7852571798582
 30
0.0
 10
-10.46559995758084
 20
84.70243217686445
 30
0.0
 10
-10.6903078128267
 20
83.269019387724
 30
0.0
 10
-10.86881329434496
 20
81.51595013900605
 30
0.0
 10
-10.97555039305989
 20
79.68997159314918
 30
0.0
 10
-10.98914827876801
 20
78.46181631228578
 30
0.0
 10
-10.99586576898953
 20
77.85509580308249
 30
0.0
 11
-8.991946280961422
 21
87.85431110657068
 31
0.0
 11
-9.134244304368533
 21
87.82902201639972
 31
0.0
 11
-9.27968571278388
 21
87.7504198703608
 31
0.0
 11
-9.503965232243221
 21
87.52134389950432
 31
0.0
 11
-9.72841084873162
 21
87.15248272950028
 31
0.0
 11
-9.970233042561649
 21
86.57661670978248
 31
0.0
 11
-10.19870578589597
 21
85.83070260215248
 31
0.0
 11
-10.40730777195181
 21
84.92593346241239
 31
0.0
 11
-10.66724847998061
 21
83.32692301053108
 31
0.0
 11
-10.8539995831337
 21
81.53598757308494
 31
0.0
 11
-10.96153456235602
 21
79.67486129520655
 31
0.0
 11
-10.99586576898953
 21
77.85509580308249
 31
0.0
  0
ENDBLK
  5
6C
330
6A
100
AcDbEntity
  8
0
100
AcDbBlockEnd
  0
BLOCK
  5
6F
330
6D
100
AcDbEntity
  8
0
100
AcDbBlockBegin
  2
Rckans1
 70
     0
 10
2.00536791183161
 20
80.99999999995998
 30
0.0
  3
Rckans1
  1

  0
INSERT
  5
6E
330
6D
100
AcDbEntity
  8
0
100
AcDbBlockReference
  2
ma_20x8-select__6
 10
-10.99586576898953
 20
74.14760956764702
 30
0.0
  0
MTEXT
  5
144
330
6D
100
AcDbEntity
  8
1
 62
     6
100
AcDbMText
 10
2.00536791183157
 20
71.6449049681579
 30
0.0
 40
2.5
 41
0.0
 71
     2
 72
     1
  1
 
  7
CONVERTER_11
 73
     1
 44
1.32052821128451
  0
ENDBLK
  5
70
330
6D
100
AcDbEntity
  8
0
100
AcDbBlockEnd
  0
BLOCK
  5
72
330
71
100
AcDbEntity
  8
0
100
AcDbBlockBegin
  2
_rahmen
 70
     0
 10
66.16791837042582
 20
12.04365550946204
 30
0.0
  3
_rahmen
  1

  0
LINE
  5
145
330
71
100
AcDbEntity
  8
1
  6
DOT_CENTER
 62
     2
100
AcDbLine
 10
-59.39023126976159
 20
38.16865550946207
 30
0.0
 11
-53.89023126976159
 21
38.16865550946207
 31
0.0
  0
LINE
  5
146
330
71
100
AcDbEntity
  8
1
  6
PHANTOM
 62
     2
100
AcDbLine
 10
-50.64023126976159
 20
40.91865550946207
 30
0.0
 11
-50.64023126976159
 21
35.41865550946207
 31
0.0
  0
LINE
  5
147
330
71
100
AcDbEntity
  8
1
  6
PHANTOM
 62
     2
100
AcDbLine
 10
-47.89023126976159
 20
38.16865550946207
 30
0.0
 11
-53.39023126976159
 21
38.16865550946207
 31
0.0
  0
LINE
  5
148
330
71
100
AcDbEntity
  8
1
  6
Continuous
 62
     7
100
AcDbLine
 10
0.92311384367582
 20
25.54365550946207
 30
0.0
 11
0.92311384367582
 21
34.04365550946216
 31
0.0
  0
LINE
  5
149
330
71
100
AcDbEntity
  8
1
  6
Continuous
 62
     6
100
AcDbLine
 10
-26.97688615632427
 20
34.04365550946216
 30
0.0
 11
66.16791837042751
 21
34.04365550946216
 31
0.0
  0
LINE
  5
14A
330
71
100
AcDbEntity
  8
1
  6
Continuous
 62
     7
100
AcDbLine
 10
-63.37688615632419
 20
34.04365550946216
 30
0.0
 11
-63.37688615632419
 21
42.54365550946216
 31
0.0
  0
LINE
  5
14B
330
71
100
AcDbEntity
  8
1
  6
Continuous
 62
     7
100
AcDbLine
 10
-26.97688615632427
 20
34.04365550946216
 30
0.0
 11
-26.97688615632427
 21
42.54365550946216
 31
0.0
  0
LINE
  5
14C
330
71
100
AcDbEntity
  8
1
  6
Continuous
 62
     7
100
AcDbLine
 10
30.74951008874871
 20
42.54365550946216
 30
0.0
 11
30.74951008874871
 21
34.04365550946216
 31
0.0
  0
LINE
  5
14D
330
71
100
AcDbEntity
  8
1
  6
Continuous
 62
     7
100
AcDbLine
 10
57.24951008874831
 20
42.54365550946216
 30
0.0
 11
57.24951008874831
 21
34.04365550946216
 31
0.0
  0
LINE
  5
14E
330
71
100
AcDbEntity
  8
1
  6
Continuous
 62
     6
100
AcDbLine
 10
-132.3768861563242
 20
17.04365550946216
 30
0.0
 11
-177.3320816295742
 21
17.04365550946216
 31
0.0
  0
LINE
  5
14F
330
71
100
AcDbEntity
  8
1
  6
Continuous
 62
     7
100
AcDbLine
 10
66.16791837042712
 20
25.54365550946216
 30
0.0
 11
-26.97688615632427
 21
25.54365550946216
 31
0.0
  0
LINE
  5
150
102
{ACAD_REACTORS
330
262
330
263
102
}
330
71
100
AcDbEntity
  8
0
  6
Continuous
 62
     2
100
AcDbLine
 10
-49.66945721455679
 20
26.34394462512546
 30
0.0
 11
-49.66945721455679
 21
27.21646163192875
 31
0.0
  0
LINE
  5
151
102
{ACAD_REACTORS
330
262
330
263
102
}
330
71
100
AcDbEntity
  8
0
  6
Continuous
 62
     2
100
AcDbLine
 10
-49.66945721455679
 20
25.38417591764255
 30
0.0
 11
-49.66945721455679
 21
24.51165891083934
 31
0.0
  0
LINE
  5
152
102
{ACAD_REACTORS
330
264
330
265
102
}
330
71
100
AcDbEntity
  8
0
  6
Continuous
 62
     2
100
AcDbLine
 10
-34.33641307826628
 20
26.60569972716596
 30
0.0
 11
-33.23277377869817
 21
26.60569972716596
 31
0.0
  0
LINE
  5
153
102
{ACAD_REACTORS
330
264
330
265
102
}
330
71
100
AcDbEntity
  8
0
  6
Continuous
 62
     2
100
AcDbLine
 10
-33.56675573530487
 20
25.38417591764207
 30
0.0
 11
-33.56675573530487
 21
24.51165891083875
 31
0.0
  0
LINE
  5
154
102
{ACAD_REACTORS
330
26E
330
26F
102
}
330
71
100
AcDbEntity
  8
0
  6
Continuous
 62
     2
100
AcDbLine
 10
-35.42751235068479
 20
27.69634598565276
 30
0.0
 11
-34.02955930374449
 21
29.27720497942775
 31
0.0
  0
LINE
  5
155
102
{ACAD_REACTORS
330
26E
330
26F
102
}
330
71
100
AcDbEntity
  8
0
  6
Continuous
 62
     2
100
AcDbLine
 10
-35.33208893451197
 20
30.75015550946395
 30
0.0
 11
-34.02955930374449
 21
29.27720497942775
 31
0.0
  0
LINE
  5
156
102
{ACAD_REACTORS
330
26E
330
26F
102
}
330
71
100
AcDbEntity
  8
0
  6
Continuous
 62
     2
100
AcDbLine
 10
-32.72702967297809
 20
30.75015550946395
 30
0.0
 11
-31.32430545523087
 21
30.75015550946395
 31
0.0
  0
LINE
  5
157
102
{ACAD_REACTORS
330
26E
330
26F
102
}
330
71
100
AcDbEntity
  8
0
  6
Continuous
 62
     2
100
AcDbLine
 10
-34.02478813293658
 20
27.69634598565276
 30
0.0
 11
-33.32819719487088
 21
28.48407777094647
 31
0.0
  0
LINE
  5
158
102
{ACAD_REACTORS
330
26E
330
26F
102
}
330
71
100
AcDbEntity
  8
0
  6
Continuous
 62
     2
100
AcDbLine
 10
-34.02478813293658
 20
27.69634598565276
 30
0.0
 11
-35.42751235068479
 21
27.69634598565276
 31
0.0
  0
LINE
  5
159
102
{ACAD_REACTORS
330
270
330
271
102
}
330
71
100
AcDbEntity
  8
0
  6
Continuous
 62
     2
100
AcDbLine
 10
-35.54679162090167
 20
27.69634598565276
 30
0.0
 11
-36.78729603115457
 21
27.69634598565276
 31
0.0
  0
LINE
  5
15A
102
{ACAD_REACTORS
330
272
330
273
102
}
330
71
100
AcDbEntity
  8
0
  6
Continuous
 62
     2
100
AcDbLine
 10
-37.65527563930968
 20
25.55867931900295
 30
0.0
 11
-37.95544087649978
 21
26.32649428498965
 31
0.0
  0
LINE
  5
15B
102
{ACAD_REACTORS
330
272
330
273
102
}
330
71
100
AcDbEntity
  8
0
  6
Continuous
 62
     2
100
AcDbLine
 10
-38.25560611369218
 20
25.55867931900295
 30
0.0
 11
-37.65527563930968
 21
25.55867931900295
 31
0.0
  0
LINE
  5
15C
102
{ACAD_REACTORS
330
272
330
273
102
}
330
71
100
AcDbEntity
  8
0
  6
Continuous
 62
     2
100
AcDbLine
 10
-39.97364612856597
 20
24.33715550947846
 30
0.0
 11
-38.73314171831299
 21
24.33715550947846
 31
0.0
  0
LINE
  5
15D
102
{ACAD_REACTORS
330
272
330
273
102
}
330
71
100
AcDbEntity
  8
0
  6
Continuous
 62
     2
100
AcDbLine
 10
-38.57569308162667
 20
27.39096503328955
 30
0.0
 11
-37.33518867137397
 21
27.39096503328955
 31
0.0
  0
LINE
  5
15E
102
{ACAD_REACTORS
330
272
330
273
102
}
330
71
100
AcDbEntity
  8
0
  6
Continuous
 62
     2
100
AcDbLine
 10
-37.33518867137397
 20
27.39096503328955
 30
0.0
 11
-35.93723562443367
 21
24.33715550947846
 31
0.0
  0
LINE
  5
15F
102
{ACAD_REACTORS
330
272
330
273
102
}
330
71
100
AcDbEntity
  8
0
  6
Continuous
 62
     2
100
AcDbLine
 10
-37.17774003468759
 20
24.33715550947846
 30
0.0
 11
-37.38922008816337
 21
24.87811605369635
 31
0.0
  0
LINE
  5
160
102
{ACAD_REACTORS
330
274
330
275
102
}
330
71
100
AcDbEntity
  8
0
  6
Continuous
 62
     2
100
AcDbLine
 10
-41.32005923027359
 20
24.33715550947846
 30
0.0
 11
-40.12726652810707
 21
24.33715550947846
 31
0.0
  0
LINE
  5
161
102
{ACAD_REACTORS
330
274
330
275
102
}
330
71
100
AcDbEntity
  8
0
  6
Continuous
 62
     2
100
AcDbLine
 10
-41.32005923027359
 20
26.60569972716596
 30
0.0
 11
-41.32005923027359
 21
24.33715550947846
 31
0.0
  0
LINE
  5
162
102
{ACAD_REACTORS
330
274
330
275
102
}
330
71
100
AcDbEntity
  8
0
  6
Continuous
 62
     2
100
AcDbLine
 10
-42.13115826774819
 20
27.39096503328955
 30
0.0
 11
-42.13115826774819
 21
26.60569972716596
 31
0.0
  0
LINE
  5
163
102
{ACAD_REACTORS
330
276
330
277
102
}
330
71
100
AcDbEntity
  8
0
  6
Continuous
 62
     2
100
AcDbLine
 10
-40.65194438617559
 20
27.69634598565276
 30
0.0
 11
-39.45915168400907
 21
27.69634598565276
 31
0.0
  0
LINE
  5
164
102
{ACAD_REACTORS
330
276
330
277
102
}
330
71
100
AcDbEntity
  8
0
  6
Continuous
 62
     2
100
AcDbLine
 10
-38.21864727375507
 20
29.44137999925877
 30
0.0
 11
-39.45915168400907
 21
30.75015550946395
 31
0.0
  0
LINE
  5
165
102
{ACAD_REACTORS
330
276
330
277
102
}
330
71
100
AcDbEntity
  8
0
  6
Continuous
 62
     2
100
AcDbLine
 10
-37.02585457158847
 20
30.75015550946395
 30
0.0
 11
-38.21864727375507
 21
30.75015550946395
 31
0.0
  0
LINE
  5
166
102
{ACAD_REACTORS
330
276
330
277
102
}
330
71
100
AcDbEntity
  8
0
  6
Continuous
 62
     2
100
AcDbLine
 10
-37.02585457158847
 20
27.69634598565276
 30
0.0
 11
-37.02585457158847
 21
30.75015550946395
 31
0.0
  0
LINE
  5
167
102
{ACAD_REACTORS
330
276
330
277
102
}
330
71
100
AcDbEntity
  8
0
  6
Continuous
 62
     2
100
AcDbLine
 10
-38.21864727375507
 20
27.69634598565276
 30
0.0
 11
-37.02585457158847
 21
27.69634598565276
 31
0.0
  0
LINE
  5
168
102
{ACAD_REACTORS
330
276
330
277
102
}
330
71
100
AcDbEntity
  8
0
  6
Continuous
 62
     2
100
AcDbLine
 10
-39.45915168400907
 20
29.00512149585745
 30
0.0
 11
-38.21864727375507
 21
27.69634598565276
 31
0.0
  0
LINE
  5
169
102
{ACAD_REACTORS
330
278
330
279
102
}
330
71
100
AcDbEntity
  8
0
  6
Continuous
 62
     2
100
AcDbLine
 10
-43.46708609417479
 20
26.08218952308445
 30
0.0
 11
-44.70759050442769
 21
27.39096503328955
 31
0.0
  0
LINE
  5
16A
102
{ACAD_REACTORS
330
278
330
279
102
}
330
71
100
AcDbEntity
  8
0
  6
Continuous
 62
     2
100
AcDbLine
 10
-43.46708609417479
 20
27.39096503328955
 30
0.0
 11
-43.46708609417479
 21
26.08218952308445
 31
0.0
  0
LINE
  5
16B
102
{ACAD_REACTORS
330
278
330
279
102
}
330
71
100
AcDbEntity
  8
0
  6
Continuous
 62
     2
100
AcDbLine
 10
-42.27429339200839
 20
27.39096503328955
 30
0.0
 11
-43.46708609417479
 21
27.39096503328955
 31
0.0
  0
LINE
  5
16C
102
{ACAD_REACTORS
330
278
330
279
102
}
330
71
100
AcDbEntity
  8
0
  6
Continuous
 62
     2
100
AcDbLine
 10
-42.27429339200839
 20
24.33715550947846
 30
0.0
 11
-42.27429339200839
 21
27.39096503328955
 31
0.0
  0
LINE
  5
16D
102
{ACAD_REACTORS
330
278
330
279
102
}
330
71
100
AcDbEntity
  8
0
  6
Continuous
 62
     2
100
AcDbLine
 10
-44.70759050442769
 20
25.64593101968305
 30
0.0
 11
-43.46708609417479
 21
24.33715550947846
 31
0.0
  0
LINE
  5
16E
102
{ACAD_REACTORS
330
278
330
279
102
}
330
71
100
AcDbEntity
  8
0
  6
Continuous
 62
     2
100
AcDbLine
 10
-44.70759050442769
 20
24.33715550947846
 30
0.0
 11
-44.70759050442769
 21
25.64593101968305
 31
0.0
  0
LINE
  5
16F
102
{ACAD_REACTORS
330
268
330
269
102
}
330
71
100
AcDbEntity
  8
0
  6
Continuous
 62
     2
100
AcDbLine
 10
-42.22643075303617
 20
30.05214190402097
 30
0.0
 11
-40.89050292660849
 21
30.05214190402097
 31
0.0
  0
LINE
  5
170
102
{ACAD_REACTORS
330
268
330
269
102
}
330
71
100
AcDbEntity
  8
0
  6
Continuous
 62
     2
100
AcDbLine
 10
-42.22643075303617
 20
28.39435959109525
 30
0.0
 11
-42.22643075303617
 21
28.87424394483696
 31
0.0
  0
LINE
  5
171
102
{ACAD_REACTORS
330
268
330
269
102
}
330
71
100
AcDbEntity
  8
0
  6
Continuous
 62
     2
100
AcDbLine
 10
-40.89050292660849
 20
28.39435959109525
 30
0.0
 11
-42.22643075303617
 21
28.39435959109525
 31
0.0
  0
LINE
  5
172
102
{ACAD_REACTORS
330
268
330
269
102
}
330
71
100
AcDbEntity
  8
0
  6
Continuous
 62
     2
100
AcDbLine
 10
-40.89050292660849
 20
27.69634598565276
 30
0.0
 11
-40.89050292660849
 21
28.39435959109525
 31
0.0
  0
LINE
  5
173
102
{ACAD_REACTORS
330
268
330
269
102
}
330
71
100
AcDbEntity
  8
0
  6
Continuous
 62
     2
100
AcDbLine
 10
-44.04082265038949
 20
27.69634598565276
 30
0.0
 11
-40.89050292660849
 21
27.69634598565276
 31
0.0
  0
LINE
  5
174
102
{ACAD_REACTORS
330
268
330
269
102
}
330
71
100
AcDbEntity
  8
0
  6
Continuous
 62
     2
100
AcDbLine
 10
-44.04082265038949
 20
30.75015550946395
 30
0.0
 11
-40.89050292660849
 21
30.75015550946395
 31
0.0
  0
LINE
  5
175
102
{ACAD_REACTORS
330
268
330
269
102
}
330
71
100
AcDbEntity
  8
0
  6
Continuous
 62
     2
100
AcDbLine
 10
-40.89050292660849
 20
30.05214190402097
 30
0.0
 11
-40.89050292660849
 21
30.75015550946395
 31
0.0
  0
LINE
  5
176
102
{ACAD_REACTORS
330
27A
330
27B
102
}
330
71
100
AcDbEntity
  8
0
  6
Continuous
 62
     2
100
AcDbLine
 10
-46.90217814552949
 20
29.68132217612936
 30
0.0
 11
-46.90217814552949
 21
30.75015550946395
 31
0.0
  0
LINE
  5
177
102
{ACAD_REACTORS
330
27A
330
27B
102
}
330
71
100
AcDbEntity
  8
0
  6
Continuous
 62
     2
100
AcDbLine
 10
-46.90217814552949
 20
30.75015550946395
 30
0.0
 11
-45.70938544336309
 21
30.75015550946395
 31
0.0
  0
LINE
  5
178
102
{ACAD_REACTORS
330
27A
330
27B
102
}
330
71
100
AcDbEntity
  8
0
  6
Continuous
 62
     2
100
AcDbLine
 10
-46.90217814552949
 20
28.83061809449657
 30
0.0
 11
-47.95183572343697
 21
28.83061809449657
 31
0.0
  0
LINE
  5
179
102
{ACAD_REACTORS
330
27A
330
27B
102
}
330
71
100
AcDbEntity
  8
0
  6
Continuous
 62
     2
100
AcDbLine
 10
-47.95183572343697
 20
28.83061809449657
 30
0.0
 11
-47.95183572343697
 21
27.69634598565276
 31
0.0
  0
LINE
  5
17A
102
{ACAD_REACTORS
330
27A
330
27B
102
}
330
71
100
AcDbEntity
  8
0
  6
Continuous
 62
     2
100
AcDbLine
 10
-49.14462842560357
 20
30.75015550946395
 30
0.0
 11
-49.14462842560357
 21
27.69634598565276
 31
0.0
  0
LINE
  5
17B
102
{ACAD_REACTORS
330
26C
330
26D
102
}
330
71
100
AcDbEntity
  8
0
  6
Continuous
 62
     2
100
AcDbLine
 10
-51.10080845715717
 20
29.38132201468164
 30
0.0
 11
-51.10080845715717
 21
30.08704966402385
 31
0.0
  0
LINE
  5
17C
102
{ACAD_REACTORS
330
26C
330
26D
102
}
330
71
100
AcDbEntity
  8
0
  6
Continuous
 62
     2
100
AcDbLine
 10
-52.34131286741129
 20
27.69634598565276
 30
0.0
 11
-51.10080845715717
 21
27.69634598565276
 31
0.0
  0
LINE
  5
17D
102
{ACAD_REACTORS
330
26C
330
26D
102
}
330
71
100
AcDbEntity
  8
0
  6
Continuous
 62
     2
100
AcDbLine
 10
-51.10080845715717
 20
27.69634598565276
 30
0.0
 11
-51.10080845715717
 21
28.63942422679656
 31
0.0
  0
LINE
  5
17E
102
{ACAD_REACTORS
330
266
330
267
102
}
330
71
100
AcDbEntity
  8
0
  6
Continuous
 62
     2
100
AcDbLine
 10
-56.64625871662267
 20
25.04971106503535
 30
0.0
 11
-58.12209197763229
 21
25.04971106503535
 31
0.0
  0
LINE
  5
17F
102
{ACAD_REACTORS
330
266
330
267
102
}
330
71
100
AcDbEntity
  8
0
  6
Continuous
 62
     2
100
AcDbLine
 10
-59.14023126976159
 20
30.32591089406196
 30
0.0
 11
-59.14023126976159
 21
24.76140012486175
 31
0.0
  0
LINE
  5
180
102
{ACAD_REACTORS
330
266
330
267
102
}
330
71
100
AcDbEntity
  8
0
  6
Continuous
 62
     2
100
AcDbLine
 10
-58.71598665437878
 20
30.75015550944576
 30
0.0
 11
-53.24267456366198
 21
30.75015550944576
 31
0.0
  0
LINE
  5
181
102
{ACAD_REACTORS
330
266
330
267
102
}
330
71
100
AcDbEntity
  8
0
  6
Continuous
 62
     2
100
AcDbLine
 10
-52.81842994827809
 20
30.32591089406196
 30
0.0
 11
-52.81842994827809
 21
24.76140012486175
 31
0.0
  0
LINE
  5
182
102
{ACAD_REACTORS
330
266
330
267
102
}
330
71
100
AcDbEntity
  8
0
  6
Continuous
 62
     2
100
AcDbLine
 10
-53.24267456366198
 20
24.33715550947846
 30
0.0
 11
-58.71598665437878
 21
24.33715550947846
 31
0.0
  0
LINE
  5
183
102
{ACAD_REACTORS
330
266
330
267
102
}
330
71
100
AcDbEntity
  8
0
  6
Continuous
 62
     2
100
AcDbLine
 10
-56.33054179354608
 20
25.36542798811206
 30
0.0
 11
-56.33054179354608
 21
26.89619891964367
 31
0.0
  0
LINE
  5
184
102
{ACAD_REACTORS
330
266
330
267
102
}
330
71
100
AcDbEntity
  8
0
  6
Continuous
 62
     2
100
AcDbLine
 10
-56.33054179354608
 20
29.11785841176865
 30
0.0
 11
-56.33054179354608
 21
29.72188303082916
 31
0.0
  0
LINE
  5
185
102
{ACAD_REACTORS
330
266
330
267
102
}
330
71
100
AcDbEntity
  8
0
  6
Continuous
 62
     2
100
AcDbLine
 10
-58.12209197763229
 20
30.03759995390536
 30
0.0
 11
-56.64625871662267
 21
30.03759995390536
 31
0.0
  0
LINE
  5
186
102
{ACAD_REACTORS
330
266
330
267
102
}
330
71
100
AcDbEntity
  8
0
  6
Continuous
 62
     2
100
AcDbLine
 10
-58.43780890070798
 20
29.72188303082916
 30
0.0
 11
-58.43780890070798
 21
25.36542798811206
 31
0.0
  0
LINE
  5
187
102
{ACAD_REACTORS
330
26C
330
26D
102
}
330
71
100
AcDbEntity
  8
0
  6
Continuous
 62
     2
100
AcDbLine
 10
-51.10080845715717
 20
28.63942422679656
 30
0.0
 11
-50.34204086937689
 21
28.63942422679656
 31
0.0
  0
LINE
  5
188
102
{ACAD_REACTORS
330
26C
330
26D
102
}
330
71
100
AcDbEntity
  8
0
  6
Continuous
 62
     2
100
AcDbLine
 10
-52.34131286741129
 20
30.75015550946395
 30
0.0
 11
-50.34204086937689
 21
30.75015550946395
 31
0.0
  0
LINE
  5
189
102
{ACAD_REACTORS
330
26C
330
26D
102
}
330
71
100
AcDbEntity
  8
0
  6
Continuous
 62
     2
100
AcDbLine
 10
-52.34131286741129
 20
30.75015550946395
 30
0.0
 11
-52.34131286741129
 21
27.69634598565276
 31
0.0
  0
LINE
  5
18A
102
{ACAD_REACTORS
330
26C
330
26D
102
}
330
71
100
AcDbEntity
  8
0
  6
Continuous
 62
     2
100
AcDbLine
 10
-51.10080845715717
 20
29.38132201468164
 30
0.0
 11
-50.78351339561527
 21
29.38132201468164
 31
0.0
  0
LINE
  5
18B
102
{ACAD_REACTORS
330
26C
330
26D
102
}
330
71
100
AcDbEntity
  8
0
  6
Continuous
 62
     2
100
AcDbLine
 10
-51.10080845715717
 20
30.08704966402385
 30
0.0
 11
-50.78351339561527
 21
30.08704966402385
 31
0.0
  0
LINE
  5
18C
102
{ACAD_REACTORS
330
27A
330
27B
102
}
330
71
100
AcDbEntity
  8
0
  6
Continuous
 62
     2
100
AcDbLine
 10
-47.95183572343697
 20
29.68132217612936
 30
0.0
 11
-46.90217814552949
 21
29.68132217612936
 31
0.0
  0
LINE
  5
18D
102
{ACAD_REACTORS
330
27A
330
27B
102
}
330
71
100
AcDbEntity
  8
0
  6
Continuous
 62
     2
100
AcDbLine
 10
-47.95183572343697
 20
30.75015550946395
 30
0.0
 11
-47.95183572343697
 21
29.68132217612936
 31
0.0
  0
LINE
  5
18E
102
{ACAD_REACTORS
330
27A
330
27B
102
}
330
71
100
AcDbEntity
  8
0
  6
Continuous
 62
     2
100
AcDbLine
 10
-49.14462842560357
 20
30.75015550946395
 30
0.0
 11
-47.95183572343697
 21
30.75015550946395
 31
0.0
  0
LINE
  5
18F
102
{ACAD_REACTORS
330
27A
330
27B
102
}
330
71
100
AcDbEntity
  8
0
  6
Continuous
 62
     2
100
AcDbLine
 10
-47.95183572343697
 20
27.69634598565276
 30
0.0
 11
-49.14462842560357
 21
27.69634598565276
 31
0.0
  0
LINE
  5
190
102
{ACAD_REACTORS
330
27A
330
27B
102
}
330
71
100
AcDbEntity
  8
0
  6
Continuous
 62
     2
100
AcDbLine
 10
-46.90217814552949
 20
27.69634598565276
 30
0.0
 11
-46.90217814552949
 21
28.83061809449657
 31
0.0
  0
LINE
  5
191
102
{ACAD_REACTORS
330
27A
330
27B
102
}
330
71
100
AcDbEntity
  8
0
  6
Continuous
 62
     2
100
AcDbLine
 10
-45.70938544336309
 20
27.69634598565276
 30
0.0
 11
-46.90217814552949
 21
27.69634598565276
 31
0.0
  0
LINE
  5
192
102
{ACAD_REACTORS
330
27A
330
27B
102
}
330
71
100
AcDbEntity
  8
0
  6
Continuous
 62
     2
100
AcDbLine
 10
-45.70938544336309
 20
30.75015550946395
 30
0.0
 11
-45.70938544336309
 21
27.69634598565276
 31
0.0
  0
LINE
  5
193
102
{ACAD_REACTORS
330
268
330
269
102
}
330
71
100
AcDbEntity
  8
0
  6
Continuous
 62
     2
100
AcDbLine
 10
-42.22643075303617
 20
28.87424394483696
 30
0.0
 11
-40.89050292660849
 21
28.87424394483696
 31
0.0
  0
LINE
  5
194
102
{ACAD_REACTORS
330
268
330
269
102
}
330
71
100
AcDbEntity
  8
0
  6
Continuous
 62
     2
100
AcDbLine
 10
-40.89050292660849
 20
28.87424394483696
 30
0.0
 11
-40.89050292660849
 21
29.57225755027926
 31
0.0
  0
LINE
  5
195
102
{ACAD_REACTORS
330
268
330
269
102
}
330
71
100
AcDbEntity
  8
0
  6
Continuous
 62
     2
100
AcDbLine
 10
-40.89050292660849
 20
29.57225755027926
 30
0.0
 11
-42.22643075303617
 21
29.57225755027926
 31
0.0
  0
LINE
  5
196
102
{ACAD_REACTORS
330
268
330
269
102
}
330
71
100
AcDbEntity
  8
0
  6
Continuous
 62
     2
100
AcDbLine
 10
-42.22643075303617
 20
29.57225755027926
 30
0.0
 11
-42.22643075303617
 21
30.05214190402097
 31
0.0
  0
LINE
  5
197
102
{ACAD_REACTORS
330
278
330
279
102
}
330
71
100
AcDbEntity
  8
0
  6
Continuous
 62
     2
100
AcDbLine
 10
-45.90038320659528
 20
24.33715550947846
 30
0.0
 11
-44.70759050442769
 21
24.33715550947846
 31
0.0
  0
LINE
  5
198
102
{ACAD_REACTORS
330
278
330
279
102
}
330
71
100
AcDbEntity
  8
0
  6
Continuous
 62
     2
100
AcDbLine
 10
-43.46708609417479
 20
24.33715550947846
 30
0.0
 11
-42.27429339200839
 21
24.33715550947846
 31
0.0
  0
LINE
  5
199
102
{ACAD_REACTORS
330
278
330
279
102
}
330
71
100
AcDbEntity
  8
0
  6
Continuous
 62
     2
100
AcDbLine
 10
-44.70759050442769
 20
27.39096503328955
 30
0.0
 11
-45.90038320659528
 21
27.39096503328955
 31
0.0
  0
LINE
  5
19A
102
{ACAD_REACTORS
330
278
330
279
102
}
330
71
100
AcDbEntity
  8
0
  6
Continuous
 62
     2
100
AcDbLine
 10
-45.90038320659528
 20
27.39096503328955
 30
0.0
 11
-45.90038320659528
 21
24.33715550947846
 31
0.0
  0
LINE
  5
19B
102
{ACAD_REACTORS
330
276
330
277
102
}
330
71
100
AcDbEntity
  8
0
  6
Continuous
 62
     2
100
AcDbLine
 10
-38.21864727375507
 20
30.75015550946395
 30
0.0
 11
-38.21864727375507
 21
29.44137999925877
 31
0.0
  0
LINE
  5
19C
102
{ACAD_REACTORS
330
276
330
277
102
}
330
71
100
AcDbEntity
  8
0
  6
Continuous
 62
     2
100
AcDbLine
 10
-39.45915168400907
 20
30.75015550946395
 30
0.0
 11
-40.65194438617559
 21
30.75015550946395
 31
0.0
  0
LINE
  5
19D
102
{ACAD_REACTORS
330
276
330
277
102
}
330
71
100
AcDbEntity
  8
0
  6
Continuous
 62
     2
100
AcDbLine
 10
-40.65194438617559
 20
30.75015550946395
 30
0.0
 11
-40.65194438617559
 21
27.69634598565276
 31
0.0
  0
LINE
  5
19E
102
{ACAD_REACTORS
330
276
330
277
102
}
330
71
100
AcDbEntity
  8
0
  6
Continuous
 62
     2
100
AcDbLine
 10
-39.45915168400907
 20
27.69634598565276
 30
0.0
 11
-39.45915168400907
 21
29.00512149585745
 31
0.0
  0
LINE
  5
19F
102
{ACAD_REACTORS
330
274
330
275
102
}
330
71
100
AcDbEntity
  8
0
  6
Continuous
 62
     2
100
AcDbLine
 10
-40.12726652810707
 20
24.33715550947846
 30
0.0
 11
-40.12726652810707
 21
26.60569972716596
 31
0.0
  0
LINE
  5
1A0
102
{ACAD_REACTORS
330
274
330
275
102
}
330
71
100
AcDbEntity
  8
0
  6
Continuous
 62
     2
100
AcDbLine
 10
-40.12726652810707
 20
26.60569972716596
 30
0.0
 11
-39.31616749063457
 21
26.60569972716596
 31
0.0
  0
LINE
  5
1A1
102
{ACAD_REACTORS
330
274
330
275
102
}
330
71
100
AcDbEntity
  8
0
  6
Continuous
 62
     2
100
AcDbLine
 10
-39.31616749063457
 20
26.60569972716596
 30
0.0
 11
-39.31616749063457
 21
27.39096503328955
 31
0.0
  0
LINE
  5
1A2
102
{ACAD_REACTORS
330
274
330
275
102
}
330
71
100
AcDbEntity
  8
0
  6
Continuous
 62
     2
100
AcDbLine
 10
-39.31616749063457
 20
27.39096503328955
 30
0.0
 11
-42.13115826774819
 21
27.39096503328955
 31
0.0
  0
LINE
  5
1A3
102
{ACAD_REACTORS
330
274
330
275
102
}
330
71
100
AcDbEntity
  8
0
  6
Continuous
 62
     2
100
AcDbLine
 10
-42.13115826774819
 20
26.60569972716596
 30
0.0
 11
-41.32005923027359
 21
26.60569972716596
 31
0.0
  0
LINE
  5
1A4
102
{ACAD_REACTORS
330
272
330
273
102
}
330
71
100
AcDbEntity
  8
0
  6
Continuous
 62
     2
100
AcDbLine
 10
-38.52166166483718
 20
24.87811605369635
 30
0.0
 11
-37.38922008816337
 21
24.87811605369635
 31
0.0
  0
LINE
  5
1A5
102
{ACAD_REACTORS
330
272
330
273
102
}
330
71
100
AcDbEntity
  8
0
  6
Continuous
 62
     2
100
AcDbLine
 10
-35.93723562443367
 20
24.33715550947846
 30
0.0
 11
-37.17774003468759
 21
24.33715550947846
 31
0.0
  0
LINE
  5
1A6
102
{ACAD_REACTORS
330
272
330
273
102
}
330
71
100
AcDbEntity
  8
0
  6
Continuous
 62
     2
100
AcDbLine
 10
-38.57569308162667
 20
27.39096503328955
 30
0.0
 11
-39.97364612856597
 21
24.33715550947846
 31
0.0
  0
LINE
  5
1A7
102
{ACAD_REACTORS
330
272
330
273
102
}
330
71
100
AcDbEntity
  8
0
  6
Continuous
 62
     2
100
AcDbLine
 10
-38.73314171831299
 20
24.33715550947846
 30
0.0
 11
-38.52166166483718
 21
24.87811605369635
 31
0.0
  0
LINE
  5
1A8
102
{ACAD_REACTORS
330
272
330
273
102
}
330
71
100
AcDbEntity
  8
0
  6
Continuous
 62
     2
100
AcDbLine
 10
-38.25560611369218
 20
25.55867931900295
 30
0.0
 11
-37.95544087649978
 21
26.32649428498965
 31
0.0
  0
LINE
  5
1A9
102
{ACAD_REACTORS
330
270
330
271
102
}
330
71
100
AcDbEntity
  8
0
  6
Continuous
 62
     2
100
AcDbLine
 10
-36.78729603115457
 20
27.69634598565276
 30
0.0
 11
-36.78729603115457
 21
30.75015550946395
 31
0.0
  0
LINE
  5
1AA
102
{ACAD_REACTORS
330
270
330
271
102
}
330
71
100
AcDbEntity
  8
0
  6
Continuous
 62
     2
100
AcDbLine
 10
-35.54679162090167
 20
30.75015550946395
 30
0.0
 11
-35.54679162090167
 21
27.69634598565276
 31
0.0
  0
LINE
  5
1AB
102
{ACAD_REACTORS
330
270
330
271
102
}
330
71
100
AcDbEntity
  8
0
  6
Continuous
 62
     2
100
AcDbLine
 10
-36.78729603115457
 20
30.75015550946395
 30
0.0
 11
-35.54679162090167
 21
30.75015550946395
 31
0.0
  0
LINE
  5
1AC
102
{ACAD_REACTORS
330
26E
330
26F
102
}
330
71
100
AcDbEntity
  8
0
  6
Continuous
 62
     2
100
AcDbLine
 10
-33.32819719487088
 20
28.48407777094647
 30
0.0
 11
-32.63160625680538
 21
27.69634598565276
 31
0.0
  0
LINE
  5
1AD
102
{ACAD_REACTORS
330
26E
330
26F
102
}
330
71
100
AcDbEntity
  8
0
  6
Continuous
 62
     2
100
AcDbLine
 10
-32.63160625680538
 20
27.69634598565276
 30
0.0
 11
-31.22888203905708
 21
27.69634598565276
 31
0.0
  0
LINE
  5
1AE
102
{ACAD_REACTORS
330
26E
330
26F
102
}
330
71
100
AcDbEntity
  8
0
  6
Continuous
 62
     2
100
AcDbLine
 10
-32.62683508599739
 20
29.27720497942775
 30
0.0
 11
-31.22888203905708
 21
27.69634598565276
 31
0.0
  0
LINE
  5
1AF
102
{ACAD_REACTORS
330
26E
330
26F
102
}
330
71
100
AcDbEntity
  8
0
  6
Continuous
 62
     2
100
AcDbLine
 10
-32.62683508599739
 20
29.27720497942775
 30
0.0
 11
-31.32430545523087
 21
30.75015550946395
 31
0.0
  0
LINE
  5
1B0
102
{ACAD_REACTORS
330
26E
330
26F
102
}
330
71
100
AcDbEntity
  8
0
  6
Continuous
 62
     2
100
AcDbLine
 10
-33.32819719487088
 20
30.07033218790846
 30
0.0
 11
-32.72702967297809
 21
30.75015550946395
 31
0.0
  0
LINE
  5
1B1
102
{ACAD_REACTORS
330
26E
330
26F
102
}
330
71
100
AcDbEntity
  8
0
  6
Continuous
 62
     2
100
AcDbLine
 10
-33.92936471676268
 20
30.75015550946395
 30
0.0
 11
-33.32819719487088
 21
30.07033218790846
 31
0.0
  0
LINE
  5
1B2
102
{ACAD_REACTORS
330
26E
330
26F
102
}
330
71
100
AcDbEntity
  8
0
  6
Continuous
 62
     2
100
AcDbLine
 10
-33.92936471676268
 20
30.75015550946395
 30
0.0
 11
-35.33208893451197
 21
30.75015550946395
 31
0.0
  0
LINE
  5
1B3
102
{ACAD_REACTORS
330
264
330
265
102
}
330
71
100
AcDbEntity
  8
0
  6
Continuous
 62
     2
100
AcDbLine
 10
-33.23277377869817
 20
24.33715550947846
 30
0.0
 11
-32.03998107653047
 21
24.33715550947846
 31
0.0
  0
LINE
  5
1B4
102
{ACAD_REACTORS
330
264
330
265
102
}
330
71
100
AcDbEntity
  8
0
  6
Continuous
 62
     2
100
AcDbLine
 10
-32.03998107653047
 20
24.33715550947846
 30
0.0
 11
-32.03998107653047
 21
26.60569972716596
 31
0.0
  0
LINE
  5
1B5
102
{ACAD_REACTORS
330
264
330
265
102
}
330
71
100
AcDbEntity
  8
0
  6
Continuous
 62
     2
100
AcDbLine
 10
-32.03998107653047
 20
26.60569972716596
 30
0.0
 11
-31.22888203905708
 21
26.60569972716596
 31
0.0
  0
LINE
  5
1B6
102
{ACAD_REACTORS
330
264
330
265
102
}
330
71
100
AcDbEntity
  8
0
  6
Continuous
 62
     2
100
AcDbLine
 10
-31.22888203905708
 20
26.60569972716596
 30
0.0
 11
-31.22888203905708
 21
27.39096503328955
 31
0.0
  0
LINE
  5
1B7
102
{ACAD_REACTORS
330
264
330
265
102
}
330
71
100
AcDbEntity
  8
0
  6
Continuous
 62
     2
100
AcDbLine
 10
-34.61382755768577
 20
27.39096503328906
 30
0.0
 11
-31.22888203905708
 21
27.39096503328955
 31
0.0
  0
LINE
  5
1B8
102
{ACAD_REACTORS
330
264
330
265
102
}
330
71
100
AcDbEntity
  8
0
  6
Continuous
 62
     2
100
AcDbLine
 10
-33.23277377869817
 20
26.60569972716596
 30
0.0
 11
-33.23277377869817
 21
24.33715550947846
 31
0.0
  0
LINE
  5
1B9
102
{ACAD_REACTORS
330
266
330
267
102
}
330
71
100
AcDbEntity
  8
0
  6
Continuous
 62
     2
100
AcDbLine
 10
-55.86226021417738
 20
26.31603565904297
 30
0.0
 11
-55.86226021417738
 21
26.89788706573805
 31
0.0
  0
LINE
  5
1BA
102
{ACAD_REACTORS
330
266
330
267
102
}
330
71
100
AcDbEntity
  8
0
  6
Continuous
 62
     2
100
AcDbLine
 10
-55.86226021417738
 20
29.11617026567427
 30
0.0
 11
-55.86226021417738
 21
29.72170555418106
 31
0.0
  0
LINE
  5
1BB
330
71
100
AcDbEntity
  8
1
  6
Continuous
 62
     6
100
AcDbLine
 10
-77.33208162957416
 20
17.04365550946216
 30
0.0
 11
-63.37688615632419
 21
17.04365550946204
 31
0.0
  0
LINE
  5
1BC
330
71
100
AcDbEntity
  8
1
  6
Continuous
 62
     6
100
AcDbLine
 10
-127.3320816295744
 20
17.04365550946216
 30
0.0
 11
-132.3768861563242
 21
17.04365550946216
 31
0.0
  0
LINE
  5
1BD
330
71
100
AcDbEntity
  8
1
  6
Continuous
 62
     6
100
AcDbLine
 10
22.66791837042581
 20
17.04365550946216
 30
0.0
 11
66.16791837042582
 21
17.04365550946216
 31
0.0
  0
LINE
  5
1BE
330
71
100
AcDbEntity
  8
1
  6
Continuous
 62
     6
100
AcDbLine
 10
-27.33208162957419
 20
17.04365550946216
 30
0.0
 11
-45.17688615632417
 21
17.04365550946216
 31
0.0
  0
LINE
  5
1BF
330
71
100
AcDbEntity
  8
1
  6
Continuous
 62
     2
100
AcDbLine
 10
66.16791837042582
 20
17.04365550946216
 30
0.0
 11
71.16791837042481
 21
17.04365550946216
 31
0.0
  0
LINE
  5
1C0
330
71
100
AcDbEntity
  8
1
  6
Continuous
 62
     2
100
AcDbLine
 10
66.16791837042582
 20
17.04365550946216
 30
0.0
 11
66.16791837042582
 21
12.04365550946204
 31
0.0
  0
LINE
  5
1C1
330
71
100
AcDbEntity
  8
1
  6
Continuous
 62
     6
100
AcDbLine
 10
-63.37688615632419
 20
34.04365550946216
 30
0.0
 11
-26.97688615632427
 21
34.04365550946216
 31
0.0
  0
LINE
  5
1C2
330
71
100
AcDbEntity
  8
1
  6
Continuous
 62
     2
100
AcDbLine
 10
71.16791837042481
 20
12.04365550946204
 30
0.0
 11
71.16791837042481
 21
17.04365550946216
 31
0.0
  0
LINE
  5
1C3
330
71
100
AcDbEntity
  8
1
  6
Continuous
 62
     2
100
AcDbLine
 10
71.16791837042481
 20
12.04365550946204
 30
0.0
 11
66.16791837042582
 21
12.04365550946204
 31
0.0
  0
LINE
  5
1C4
330
71
100
AcDbEntity
  8
1
  6
Continuous
 62
     2
100
AcDbLine
 10
66.16791837042582
 20
12.04365550946204
 30
0.0
 11
22.66791837042581
 21
12.04365550946204
 31
0.0
  0
LINE
  5
1C5
330
71
100
AcDbEntity
  8
1
  6
Continuous
 62
     6
100
AcDbLine
 10
66.16791837042751
 20
34.04365550946216
 30
0.0
 11
66.16791837042672
 21
67.04365550946227
 31
0.0
  0
LINE
  5
1C6
330
71
100
AcDbEntity
  8
1
  6
Continuous
 62
     2
100
AcDbLine
 10
71.16791837042481
 20
222.0436555094622
 30
0.0
 11
-77.33208162957416
 21
222.0436555094622
 31
0.0
  0
LINE
  5
1C7
330
71
100
AcDbEntity
  8
1
  6
Continuous
 62
     6
100
AcDbLine
 10
66.16791837042481
 20
202.0436555094622
 30
0.0
 11
-220.8320816295733
 21
202.0436555094622
 31
0.0
  0
LINE
  5
1C8
330
71
100
AcDbEntity
  8
1
  6
Continuous
 62
     2
100
AcDbLine
 10
66.16791837042672
 20
67.04365550946227
 30
0.0
 11
71.16791837042481
 21
67.04365550946227
 31
0.0
  0
LINE
  5
1C9
330
71
100
AcDbEntity
  8
1
  6
Continuous
 62
     6
100
AcDbLine
 10
66.16791837042672
 20
67.04365550946227
 30
0.0
 11
66.16791837042622
 21
117.0436555094621
 31
0.0
  0
LINE
  5
1CA
330
71
100
AcDbEntity
  8
1
  6
Continuous
 62
     2
100
AcDbLine
 10
71.16791837042481
 20
67.04365550946227
 30
0.0
 11
71.16791837042481
 21
117.0436555094621
 31
0.0
  0
LINE
  5
1CB
330
71
100
AcDbEntity
  8
1
  6
Continuous
 62
     2
100
AcDbLine
 10
66.16791837042622
 20
117.0436555094621
 30
0.0
 11
71.16791837042481
 21
117.0436555094621
 31
0.0
  0
LINE
  5
1CC
330
71
100
AcDbEntity
  8
1
  6
Continuous
 62
     6
100
AcDbLine
 10
66.16791837042622
 20
117.0436555094621
 30
0.0
 11
66.16791837042501
 21
167.0436555094622
 31
0.0
  0
LINE
  5
1CD
330
71
100
AcDbEntity
  8
1
  6
Continuous
 62
     2
100
AcDbLine
 10
71.16791837042481
 20
117.0436555094621
 30
0.0
 11
71.16791837042481
 21
167.0436555094622
 31
0.0
  0
LINE
  5
1CE
330
71
100
AcDbEntity
  8
1
  6
Continuous
 62
     2
100
AcDbLine
 10
66.16791837042501
 20
167.0436555094622
 30
0.0
 11
71.16791837042481
 21
167.0436555094622
 31
0.0
  0
LINE
  5
1CF
330
71
100
AcDbEntity
  8
1
  6
Continuous
 62
     6
100
AcDbLine
 10
66.16791837042501
 20
167.0436555094622
 30
0.0
 11
66.16791837042481
 21
202.0436555094622
 31
0.0
  0
LINE
  5
1D0
330
71
100
AcDbEntity
  8
1
  6
Continuous
 62
     2
100
AcDbLine
 10
71.16791837042481
 20
167.0436555094622
 30
0.0
 11
71.16791837042481
 21
222.0436555094622
 31
0.0
  0
LINE
  5
1D1
330
71
100
AcDbEntity
  8
1
  6
Continuous
 62
     2
100
AcDbLine
 10
71.16791837042481
 20
17.04365550946216
 30
0.0
 11
71.16791837042481
 21
67.04365550946227
 31
0.0
  0
LINE
  5
1D2
330
71
100
AcDbEntity
  8
1
  6
Continuous
 62
     2
100
AcDbLine
 10
-77.33208162957416
 20
222.0436555094622
 30
0.0
 11
-225.8320816295733
 21
222.0436555094622
 31
0.0
  0
LINE
  5
1D3
330
71
100
AcDbEntity
  8
1
  6
Continuous
 62
     2
100
AcDbLine
 10
-77.33208162957416
 20
222.0436555094622
 30
0.0
 11
-77.33208162957416
 21
212.8349636647608
 31
0.0
  0
LINE
  5
1D4
330
71
100
AcDbEntity
  8
1
  6
Continuous
 62
     2
100
AcDbLine
 10
-225.8320816295733
 20
12.04365550946204
 30
0.0
 11
-220.8320816295723
 21
12.04365550946204
 31
0.0
  0
LINE
  5
1D5
330
71
100
AcDbEntity
  8
1
  6
Continuous
 62
     2
100
AcDbLine
 10
-225.8320816295733
 20
222.0436555094622
 30
0.0
 11
-225.8320816295733
 21
167.0436555094622
 31
0.0
  0
LINE
  5
1D6
330
71
100
AcDbEntity
  8
1
  6
Continuous
 62
     6
100
AcDbLine
 10
-220.8320816295733
 20
202.0436555094622
 30
0.0
 11
-220.8320816295732
 21
167.0436555094622
 31
0.0
  0
LINE
  5
1D7
330
71
100
AcDbEntity
  8
1
  6
Continuous
 62
     2
100
AcDbLine
 10
-225.8320816295733
 20
167.0436555094622
 30
0.0
 11
-220.8320816295732
 21
167.0436555094622
 31
0.0
  0
LINE
  5
1D8
330
71
100
AcDbEntity
  8
1
  6
Continuous
 62
     2
100
AcDbLine
 10
-225.8320816295733
 20
167.0436555094622
 30
0.0
 11
-225.8320816295733
 21
117.0436555094621
 31
0.0
  0
LINE
  5
1D9
330
71
100
AcDbEntity
  8
1
  6
Continuous
 62
     6
100
AcDbLine
 10
-220.8320816295732
 20
167.0436555094622
 30
0.0
 11
-220.8320816295727
 21
117.0436555094621
 31
0.0
  0
LINE
  5
1DA
330
71
100
AcDbEntity
  8
1
  6
Continuous
 62
     2
100
AcDbLine
 10
-225.8320816295733
 20
117.0436555094621
 30
0.0
 11
-220.8320816295727
 21
117.0436555094621
 31
0.0
  0
LINE
  5
1DB
330
71
100
AcDbEntity
  8
1
  6
Continuous
 62
     2
100
AcDbLine
 10
-225.8320816295733
 20
117.0436555094621
 30
0.0
 11
-225.8320816295733
 21
67.04365550946227
 31
0.0
  0
LINE
  5
1DC
330
71
100
AcDbEntity
  8
1
  6
Continuous
 62
     6
100
AcDbLine
 10
-220.8320816295727
 20
117.0436555094621
 30
0.0
 11
-220.8320816295725
 21
67.04365550946227
 31
0.0
  0
LINE
  5
1DD
330
71
100
AcDbEntity
  8
1
  6
Continuous
 62
     2
100
AcDbLine
 10
-225.8320816295733
 20
67.04365550946227
 30
0.0
 11
-220.8320816295725
 21
67.04365550946227
 31
0.0
  0
LINE
  5
1DE
330
71
100
AcDbEntity
  8
1
  6
Continuous
 62
     2
100
AcDbLine
 10
-225.8320816295733
 20
67.04365550946227
 30
0.0
 11
-225.8320816295733
 21
17.04365550946216
 31
0.0
  0
LINE
  5
1DF
330
71
100
AcDbEntity
  8
1
  6
Continuous
 62
     6
100
AcDbLine
 10
-220.8320816295725
 20
67.04365550946227
 30
0.0
 11
-220.8320816295723
 21
17.04365550946216
 31
0.0
  0
LINE
  5
1E0
330
71
100
AcDbEntity
  8
1
  6
Continuous
 62
     2
100
AcDbLine
 10
-177.3320816295742
 20
12.04365550946204
 30
0.0
 11
-177.3320816295742
 21
17.04365550946216
 31
0.0
  0
LINE
  5
1E1
330
71
100
AcDbEntity
  8
1
  6
Continuous
 62
     2
100
AcDbLine
 10
-177.3320816295742
 20
12.04365550946204
 30
0.0
 11
-127.3320816295744
 21
12.04365550946204
 31
0.0
  0
LINE
  5
1E2
330
71
100
AcDbEntity
  8
1
  6
Continuous
 62
     2
100
AcDbLine
 10
-127.3320816295744
 20
12.04365550946204
 30
0.0
 11
-127.3320816295744
 21
17.04365550946216
 31
0.0
  0
LINE
  5
1E3
330
71
100
AcDbEntity
  8
1
  6
Continuous
 62
     2
100
AcDbLine
 10
-127.3320816295744
 20
12.04365550946204
 30
0.0
 11
-77.33208162957416
 21
12.04365550946204
 31
0.0
  0
LINE
  5
1E4
330
71
100
AcDbEntity
  8
1
  6
Continuous
 62
     2
100
AcDbLine
 10
-77.33208162957416
 20
12.04365550946204
 30
0.0
 11
-77.33208162957416
 21
17.04365550946216
 31
0.0
  0
LINE
  5
1E5
330
71
100
AcDbEntity
  8
1
  6
Continuous
 62
     2
100
AcDbLine
 10
-77.33208162957416
 20
12.04365550946204
 30
0.0
 11
-27.33208162957419
 21
12.04365550946204
 31
0.0
  0
LINE
  5
1E6
330
71
100
AcDbEntity
  8
1
  6
Continuous
 62
     2
100
AcDbLine
 10
-27.33208162957419
 20
12.04365550946204
 30
0.0
 11
-27.33208162957419
 21
17.04365550946216
 31
0.0
  0
LINE
  5
1E7
330
71
100
AcDbEntity
  8
1
  6
Continuous
 62
     2
100
AcDbLine
 10
22.66791837042581
 20
12.04365550946204
 30
0.0
 11
22.66791837042581
 21
17.04365550946216
 31
0.0
  0
LINE
  5
1E8
330
71
100
AcDbEntity
  8
1
  6
Continuous
 62
     2
100
AcDbLine
 10
22.66791837042581
 20
12.04365550946204
 30
0.0
 11
-27.33208162957419
 21
12.04365550946204
 31
0.0
  0
LINE
  5
1E9
330
71
100
AcDbEntity
  8
1
  6
Continuous
 62
     2
100
AcDbLine
 10
-220.8320816295723
 20
17.04365550946216
 30
0.0
 11
-220.8320816295723
 21
12.04365550946204
 31
0.0
  0
LINE
  5
1EA
330
71
100
AcDbEntity
  8
1
  6
Continuous
 62
     2
100
AcDbLine
 10
-220.8320816295723
 20
12.04365550946204
 30
0.0
 11
-177.3320816295742
 21
12.04365550946204
 31
0.0
  0
LINE
  5
1EB
330
71
100
AcDbEntity
  8
1
  6
Continuous
 62
     2
100
AcDbLine
 10
-220.8320816295723
 20
17.04365550946216
 30
0.0
 11
-225.8320816295733
 21
17.04365550946216
 31
0.0
  0
LINE
  5
1EC
330
71
100
AcDbEntity
  8
1
  6
Continuous
 62
     2
100
AcDbLine
 10
-225.8320816295733
 20
17.04365550946216
 30
0.0
 11
-225.8320816295733
 21
12.04365550946204
 31
0.0
  0
LINE
  5
1ED
330
71
100
AcDbEntity
  8
1
  6
Continuous
 62
     6
100
AcDbLine
 10
66.16791837042582
 20
17.04365550946216
 30
0.0
 11
66.16791837042712
 21
25.54365550946216
 31
0.0
  0
LINE
  5
1EE
330
71
100
AcDbEntity
  8
1
  6
Continuous
 62
     6
100
AcDbLine
 10
-26.97688615632427
 20
17.04365550946204
 30
0.0
 11
22.66791837042581
 21
17.04365550946216
 31
0.0
  0
LINE
  5
1EF
330
71
100
AcDbEntity
  8
1
  6
Continuous
 62
     6
100
AcDbLine
 10
-179.6320816295744
 20
17.04365550946204
 30
0.0
 11
-177.3320816295742
 21
17.04365550946216
 31
0.0
  0
LINE
  5
1F0
330
71
100
AcDbEntity
  8
1
  6
Continuous
 62
     6
100
AcDbLine
 10
-77.33208162957416
 20
17.04365550946216
 30
0.0
 11
-127.3320816295744
 21
17.04365550946216
 31
0.0
  0
LINE
  5
1F1
330
71
100
AcDbEntity
  8
1
  6
Continuous
 62
     7
100
AcDbLine
 10
-63.37688615632419
 20
34.04365550946216
 30
0.0
 11
-63.37688615632419
 21
21.29365550946204
 31
0.0
  0
LINE
  5
1F2
330
71
100
AcDbEntity
  8
1
  6
Continuous
 62
     7
100
AcDbLine
 10
-26.97688615632427
 20
34.04365550946216
 30
0.0
 11
-26.97688615632427
 21
21.29365550946216
 31
0.0
  0
LINE
  5
1F3
330
71
100
AcDbEntity
  8
1
  6
Continuous
 62
     6
100
AcDbLine
 10
-179.6320816295744
 20
17.04365550946204
 30
0.0
 11
-185.8320816295724
 21
17.04365550946216
 31
0.0
  0
LINE
  5
1F4
330
71
100
AcDbEntity
  8
1
  6
Continuous
 62
     6
100
AcDbLine
 10
-26.97688615632427
 20
17.04365550946204
 30
0.0
 11
-27.33208162957419
 21
17.04365550946216
 31
0.0
  0
LINE
  5
1F5
330
71
100
AcDbEntity
  8
1
  6
Continuous
 62
     6
100
AcDbLine
 10
66.16791837042751
 20
34.04365550946216
 30
0.0
 11
66.16791837042712
 21
25.54365550946216
 31
0.0
  0
LINE
  5
1F6
330
71
100
AcDbEntity
  8
1
  6
Continuous
 62
     6
100
AcDbLine
 10
-185.8320816295724
 20
17.04365550946216
 30
0.0
 11
-220.8320816295723
 21
17.04365550946216
 31
0.0
  0
LINE
  5
1F7
330
71
100
AcDbEntity
  8
1
  6
Continuous
 62
     2
100
AcDbLine
 10
-59.14023126976159
 20
39.41865550946207
 30
0.0
 11
-54.14023126976159
 21
40.66865550946207
 31
0.0
  0
LINE
  5
1F8
330
71
100
AcDbEntity
  8
1
  6
Continuous
 62
     2
100
AcDbLine
 10
-59.14023126976159
 20
36.91865550946207
 30
0.0
 11
-59.14023126976159
 21
39.41865550946207
 31
0.0
  0
LINE
  5
1F9
330
71
100
AcDbEntity
  8
1
  6
Continuous
 62
     2
100
AcDbLine
 10
-54.14023126976159
 20
35.66865550946207
 30
0.0
 11
-59.14023126976159
 21
36.91865550946207
 31
0.0
  0
LINE
  5
1FA
330
71
100
AcDbEntity
  8
1
  6
Continuous
 62
     2
100
AcDbLine
 10
-54.14023126976159
 20
40.66865550946207
 30
0.0
 11
-54.14023126976159
 21
35.66865550946207
 31
0.0
  0
LINE
  5
1FB
330
71
100
AcDbEntity
  8
1
  6
Continuous
 62
     7
100
AcDbLine
 10
-63.37688615632419
 20
21.29365550946204
 30
0.0
 11
-45.17688615632417
 21
21.29365550946216
 31
0.0
  0
LINE
  5
1FC
330
71
100
AcDbEntity
  8
1
  6
Continuous
 62
     7
100
AcDbLine
 10
-63.37688615632419
 20
21.29365550946204
 30
0.0
 11
-63.37688615632419
 21
17.04365550946204
 31
0.0
  0
LINE
  5
1FD
330
71
100
AcDbEntity
  8
1
  6
Continuous
 62
     7
100
AcDbLine
 10
-26.97688615632427
 20
21.29365550946216
 30
0.0
 11
-26.97688615632427
 21
17.04365550946204
 31
0.0
  0
LINE
  5
1FE
330
71
100
AcDbEntity
  8
1
  6
Continuous
 62
     7
100
AcDbLine
 10
-45.17688615632417
 20
21.29365550946216
 30
0.0
 11
-45.17688615632417
 21
17.04365550946216
 31
0.0
  0
LINE
  5
1FF
330
71
100
AcDbEntity
  8
1
  6
Continuous
 62
     6
100
AcDbLine
 10
-45.17688615632417
 20
17.04365550946216
 30
0.0
 11
-63.37688615632419
 21
17.04365550946204
 31
0.0
  0
LINE
  5
200
330
71
100
AcDbEntity
  8
1
  6
Continuous
 62
     7
100
AcDbLine
 10
-45.17688615632417
 20
21.29365550946216
 30
0.0
 11
-26.97688615632427
 21
21.29365550946216
 31
0.0
  0
LINE
  5
201
330
71
100
AcDbEntity
  8
1
  6
Continuous
 62
     6
100
AcDbLine
 10
-63.37688615632419
 20
42.54365550946216
 30
0.0
 11
66.16791837042751
 21
42.54365550946216
 31
0.0
  0
ARC
  5
202
102
{ACAD_REACTORS
330
26A
330
26B
102
}
330
71
100
AcDbEntity
  8
0
  6
Continuous
 62
     2
100
AcDbCircle
 10
-47.98523815736419
 20
25.86406027138375
 30
0.0
 40
0.7717997786797003
100
AcDbArc
 50
321.879580202842
 51
38.12041979715276
  0
ARC
  5
203
102
{ACAD_REACTORS
330
26A
330
26B
102
}
330
71
100
AcDbEntity
  8
0
  6
Continuous
 62
     2
100
AcDbCircle
 10
-47.78549812101778
 20
25.70732909326375
 30
0.0
 40
0.5179085730137332
100
AcDbArc
 50
218.1204197971929
 51
321.8795802028018
  0
ARC
  5
204
102
{ACAD_REACTORS
330
26A
330
26B
102
}
330
71
100
AcDbEntity
  8
0
  6
Continuous
 62
     2
100
AcDbCircle
 10
-47.58575808467168
 20
25.86406027138375
 30
0.0
 40
0.771799778679461
100
AcDbArc
 50
141.8795802028365
 51
218.1204197971687
  0
ARC
  5
205
102
{ACAD_REACTORS
330
26A
330
26B
102
}
330
71
100
AcDbEntity
  8
0
  6
Continuous
 62
     2
100
AcDbCircle
 10
-47.78549812101778
 20
26.02079144950426
 30
0.0
 40
0.5179085730133033
100
AcDbArc
 50
38.12041979714624
 51
141.8795802028591
  0
ARC
  5
206
102
{ACAD_REACTORS
330
262
330
263
102
}
330
71
100
AcDbEntity
  8
0
  6
Continuous
 62
     2
100
AcDbCircle
 10
-50.84751225658167
 20
24.45359390597557
 30
0.0
 40
2.227384008973474
100
AcDbArc
 50
58.06909105004068
 51
71.55192388186705
  0
ARC
  5
207
102
{ACAD_REACTORS
330
262
330
263
102
}
330
71
100
AcDbEntity
  8
0
  6
Continuous
 62
     2
100
AcDbCircle
 10
-50.58578455562289
 20
26.06913170072275
 30
0.0
 40
0.5115800601948807
100
AcDbArc
 50
113.3722778881999
 51
151.4785267423048
  0
ARC
  5
208
102
{ACAD_REACTORS
330
262
330
263
102
}
330
71
100
AcDbEntity
  8
0
  6
Continuous
 62
     2
100
AcDbCircle
 10
-50.20842729754259
 20
25.86406027138375
 30
0.0
 40
0.9410597353332483
100
AcDbArc
 50
151.4785267422667
 51
208.5214732577059
  0
ARC
  5
209
102
{ACAD_REACTORS
330
262
330
263
102
}
330
71
100
AcDbEntity
  8
0
  6
Continuous
 62
     2
100
AcDbCircle
 10
-51.00538513167459
 20
29.17674121664015
 30
0.0
 40
4.852596863498136
100
AcDbArc
 50
275.1581447696251
 51
285.9799912583529
  0
ARC
  5
20A
102
{ACAD_REACTORS
330
262
330
263
102
}
330
71
100
AcDbEntity
  8
0
  6
Continuous
 62
     2
100
AcDbCircle
 10
-50.71652903693868
 20
25.97685063341856
 30
0.0
 40
1.639695123939387
100
AcDbArc
 50
195.0618917770896
 51
275.1581447696398
  0
ARC
  5
20B
102
{ACAD_REACTORS
330
262
330
263
102
}
330
71
100
AcDbEntity
  8
0
  6
Continuous
 62
     2
100
AcDbCircle
 10
-51.13565688040148
 20
25.86406027138375
 30
0.0
 40
1.205656168390951
100
AcDbArc
 50
164.9381082228765
 51
195.0618917770949
  0
ARC
  5
20C
102
{ACAD_REACTORS
330
262
330
263
102
}
330
71
100
AcDbEntity
  8
0
  6
Continuous
 62
     2
100
AcDbCircle
 10
-50.71652903693868
 20
25.75126990934885
 30
0.0
 40
1.639695123940507
100
AcDbArc
 50
84.84185523036211
 51
164.9381082228864
  0
ARC
  5
20D
102
{ACAD_REACTORS
330
266
330
267
102
}
330
71
100
AcDbEntity
  8
0
  6
Continuous
 62
     2
100
AcDbCircle
 10
-55.54654329110059
 20
26.89788706573805
 30
0.0
 40
0.3157169230765359
100
AcDbArc
 50
115.374008678353
 51
180.0
  0
ARC
  5
20E
102
{ACAD_REACTORS
330
266
330
267
102
}
330
71
100
AcDbEntity
  8
0
  6
Continuous
 62
     2
100
AcDbCircle
 10
-55.54654329110059
 20
29.11617026567427
 30
0.0
 40
0.315716923076792
100
AcDbArc
 50
180.0
 51
244.6259913216472
  0
ARC
  5
20F
102
{ACAD_REACTORS
330
266
330
267
102
}
330
71
100
AcDbEntity
  8
0
  6
Continuous
 62
     2
100
AcDbCircle
 10
-55.54092715579057
 20
28.01887060661196
 30
0.0
 40
2.018561131933266
100
AcDbArc
 50
269.8110329575858
 51
90.18896704241416
  0
ARC
  5
210
102
{ACAD_REACTORS
330
266
330
267
102
}
330
71
100
AcDbEntity
  8
0
  6
Continuous
 62
     2
100
AcDbCircle
 10
-55.54654329110059
 20
26.31603565904297
 30
0.0
 40
0.315716923076792
100
AcDbArc
 50
180.0
 51
269.8110329574542
  0
ARC
  5
211
102
{ACAD_REACTORS
330
264
330
265
102
}
330
71
100
AcDbEntity
  8
0
  6
Continuous
 62
     2
100
AcDbCircle
 10
-34.48308307636998
 20
26.06913170072275
 30
0.0
 40
0.5115800601944234
100
AcDbArc
 50
109.3371432194858
 51
151.4785267424232
  0
ARC
  5
212
102
{ACAD_REACTORS
330
264
330
265
102
}
330
71
100
AcDbEntity
  8
0
  6
Continuous
 62
     2
100
AcDbCircle
 10
-34.48308307636998
 20
25.65898884204526
 30
0.0
 40
0.5115800601960279
100
AcDbArc
 50
208.5214732576862
 51
246.6277221118447
  0
ARC
  5
213
102
{ACAD_REACTORS
330
264
330
265
102
}
330
71
100
AcDbEntity
  8
0
  6
Continuous
 62
     2
100
AcDbCircle
 10
-35.03295540114738
 20
25.86406027138375
 30
0.0
 40
1.205656168392996
100
AcDbArc
 50
164.9381082229027
 51
195.0618917770958
  0
ARC
  5
214
102
{ACAD_REACTORS
330
264
330
265
102
}
330
71
100
AcDbEntity
  8
0
  6
Continuous
 62
     2
100
AcDbCircle
 10
-34.61382755768577
 20
25.75126990934885
 30
0.0
 40
1.639695123940211
100
AcDbArc
 50
90.0
 51
164.938108222895
  0
ARC
  5
215
102
{ACAD_REACTORS
330
268
330
269
102
}
330
71
100
AcDbEntity
  8
0
  6
Continuous
 62
     2
100
AcDbCircle
 10
-44.04082265038949
 20
29.22325074755807
 30
0.0
 40
1.526904761905882
100
AcDbArc
 50
90.0
 51
270.0
  0
ARC
  5
216
102
{ACAD_REACTORS
330
26C
330
26D
102
}
330
71
100
AcDbEntity
  8
0
  6
Continuous
 62
     2
100
AcDbCircle
 10
-50.78351339561527
 20
29.73418583935276
 30
0.0
 40
0.3528638246711218
100
AcDbArc
 50
270.0
 51
90.0
  0
ARC
  5
217
102
{ACAD_REACTORS
330
266
330
267
102
}
330
71
100
AcDbEntity
  8
0
  6
Continuous
 62
     2
100
AcDbCircle
 10
-58.12209197763229
 20
29.72188303082916
 30
0.0
 40
0.3157169230761987
100
AcDbArc
 50
90.0
 51
180.0
  0
ARC
  5
218
102
{ACAD_REACTORS
330
266
330
267
102
}
330
71
100
AcDbEntity
  8
0
  6
Continuous
 62
     2
100
AcDbCircle
 10
-56.12367426904768
 20
28.00702866570646
 30
0.0
 40
0.9118975235576114
100
AcDbArc
 50
115.1944106485283
 51
244.8055893514878
  0
ARC
  5
219
102
{ACAD_REACTORS
330
266
330
267
102
}
330
71
100
AcDbEntity
  8
0
  6
Continuous
 62
     2
100
AcDbCircle
 10
-56.64625871662267
 20
26.89619891964367
 30
0.0
 40
0.3157169230765859
100
AcDbArc
 50
0.0
 51
64.80558935146027
  0
ARC
  5
21A
102
{ACAD_REACTORS
330
266
330
267
102
}
330
71
100
AcDbEntity
  8
0
  6
Continuous
 62
     2
100
AcDbCircle
 10
-58.71598665437878
 20
24.76140012486175
 30
0.0
 40
0.4242446153828112
100
AcDbArc
 50
180.0
 51
270.0
  0
ARC
  5
21B
102
{ACAD_REACTORS
330
268
330
269
102
}
330
71
100
AcDbEntity
  8
0
  6
Continuous
 62
     2
100
AcDbCircle
 10
-43.82455064022429
 20
29.37998192567855
 30
0.0
 40
0.5179085730135266
100
AcDbArc
 50
38.12041979714334
 51
141.8795802028489
  0
ARC
  5
21C
102
{ACAD_REACTORS
330
268
330
269
102
}
330
71
100
AcDbEntity
  8
0
  6
Continuous
 62
     2
100
AcDbCircle
 10
-43.62481060387799
 20
29.22325074755807
 30
0.0
 40
0.7717997786796724
100
AcDbArc
 50
141.8795802028404
 51
218.120419797156
  0
ARC
  5
21D
102
{ACAD_REACTORS
330
26A
330
26B
102
}
330
71
100
AcDbEntity
  8
0
  6
Continuous
 62
     2
100
AcDbCircle
 10
-47.78549812101778
 20
26.40263528168705
 30
0.0
 40
2.065479772208505
100
AcDbArc
 50
242.4518518243401
 51
297.5481481756869
  0
ARC
  5
21E
102
{ACAD_REACTORS
330
26A
330
26B
102
}
330
71
100
AcDbEntity
  8
0
  6
Continuous
 62
     2
100
AcDbCircle
 10
-47.78549812101778
 20
25.32548526108096
 30
0.0
 40
2.065479772208561
100
AcDbArc
 50
62.45185182430649
 51
117.5481481756664
  0
ARC
  5
21F
102
{ACAD_REACTORS
330
26A
330
26B
102
}
330
71
100
AcDbEntity
  8
0
  6
Continuous
 62
     2
100
AcDbCircle
 10
-48.06643801285108
 20
25.86406027138375
 30
0.0
 40
1.45803408365149
100
AcDbArc
 50
117.5481481756624
 51
242.4518518243375
  0
ARC
  5
220
102
{ACAD_REACTORS
330
26A
330
26B
102
}
330
71
100
AcDbEntity
  8
0
  6
Continuous
 62
     2
100
AcDbCircle
 10
-47.50455822918448
 20
25.86406027138375
 30
0.0
 40
1.458034083651999
100
AcDbArc
 50
297.5481481757009
 51
62.4518518242992
  0
ARC
  5
221
102
{ACAD_REACTORS
330
268
330
269
102
}
330
71
100
AcDbEntity
  8
0
  6
Continuous
 62
     2
100
AcDbCircle
 10
-43.82455064022429
 20
29.06651956943765
 30
0.0
 40
0.5179085730134372
100
AcDbArc
 50
218.1204197971511
 51
321.8795802028566
  0
ARC
  5
222
102
{ACAD_REACTORS
330
268
330
269
102
}
330
71
100
AcDbEntity
  8
0
  6
Continuous
 62
     2
100
AcDbCircle
 10
-44.02429067657047
 20
29.22325074755807
 30
0.0
 40
0.7717997786796351
100
AcDbArc
 50
321.879580202844
 51
38.12041979715956
  0
ARC
  5
223
102
{ACAD_REACTORS
330
266
330
267
102
}
330
71
100
AcDbEntity
  8
0
  6
Continuous
 62
     2
100
AcDbCircle
 10
-53.24267456366198
 20
24.76140012486175
 30
0.0
 40
0.4242446153832908
100
AcDbArc
 50
270.0
 51
0.0
  0
ARC
  5
224
102
{ACAD_REACTORS
330
266
330
267
102
}
330
71
100
AcDbEntity
  8
0
  6
Continuous
 62
     2
100
AcDbCircle
 10
-53.24267456366198
 20
30.32591089406196
 30
0.0
 40
0.4242446153838912
100
AcDbArc
 50
0.0
 51
90.0
  0
ARC
  5
225
102
{ACAD_REACTORS
330
266
330
267
102
}
330
71
100
AcDbEntity
  8
0
  6
Continuous
 62
     2
100
AcDbCircle
 10
-58.71598665437878
 20
30.32591089406196
 30
0.0
 40
0.4242446153838024
100
AcDbArc
 50
90.0
 51
180.0
  0
ARC
  5
226
102
{ACAD_REACTORS
330
266
330
267
102
}
330
71
100
AcDbEntity
  8
0
  6
Continuous
 62
     2
100
AcDbCircle
 10
-56.64625871662267
 20
25.36542798811206
 30
0.0
 40
0.3157169230767103
100
AcDbArc
 50
270.0
 51
0.0
  0
ARC
  5
227
102
{ACAD_REACTORS
330
266
330
267
102
}
330
71
100
AcDbEntity
  8
0
  6
Continuous
 62
     2
100
AcDbCircle
 10
-56.64625871662267
 20
29.11785841176865
 30
0.0
 40
0.3157169230761203
100
AcDbArc
 50
295.1944106485397
 51
0.0
  0
ARC
  5
228
102
{ACAD_REACTORS
330
266
330
267
102
}
330
71
100
AcDbEntity
  8
0
  6
Continuous
 62
     2
100
AcDbCircle
 10
-56.64625871662267
 20
29.72188303082916
 30
0.0
 40
0.3157169230765859
100
AcDbArc
 50
0.0
 51
90.0
  0
ARC
  5
229
102
{ACAD_REACTORS
330
266
330
267
102
}
330
71
100
AcDbEntity
  8
0
  6
Continuous
 62
     2
100
AcDbCircle
 10
-58.12209197763229
 20
25.36542798811206
 30
0.0
 40
0.3157169230756907
100
AcDbArc
 50
180.0
 51
270.0
  0
ARC
  5
22A
102
{ACAD_REACTORS
330
26C
330
26D
102
}
330
71
100
AcDbEntity
  8
0
  6
Continuous
 62
     2
100
AcDbCircle
 10
-50.34204086937689
 20
29.69478986813027
 30
0.0
 40
1.055365641333712
100
AcDbArc
 50
270.0
 51
90.0
  0
ARC
  5
22B
102
{ACAD_REACTORS
330
264
330
265
102
}
330
71
100
AcDbEntity
  8
0
  6
Continuous
 62
     2
100
AcDbCircle
 10
-34.61382755768577
 20
25.97685063341856
 30
0.0
 40
1.639695123940446
100
AcDbArc
 50
195.061891777101
 51
275.1581447696762
  0
ARC
  5
22C
102
{ACAD_REACTORS
330
264
330
265
102
}
330
71
100
AcDbEntity
  8
0
  6
Continuous
 62
     2
100
AcDbCircle
 10
-34.90268365242159
 20
29.17674121664015
 30
0.0
 40
4.852596863498825
100
AcDbArc
 50
275.1581447696364
 51
285.9799912583387
  0
ARC
  5
22D
102
{ACAD_REACTORS
330
264
330
265
102
}
330
71
100
AcDbEntity
  8
0
  6
Continuous
 62
     2
100
AcDbCircle
 10
-34.74481077732878
 20
27.27452663679185
 30
0.0
 40
2.227384008972746
100
AcDbArc
 50
288.4480761181335
 51
301.9309089499397
  0
ARC
  5
22E
102
{ACAD_REACTORS
330
264
330
265
102
}
330
71
100
AcDbEntity
  8
0
  6
Continuous
 62
     2
100
AcDbCircle
 10
-34.32664304366688
 20
26.02098086075526
 30
0.0
 40
0.9059297849852768
100
AcDbArc
 50
246.6277221118181
 51
288.4480761180818
  0
ARC
  5
22F
102
{ACAD_REACTORS
330
264
330
265
102
}
330
71
100
AcDbEntity
  8
0
  6
Continuous
 62
     2
100
AcDbCircle
 10
-34.10572581828859
 20
25.86406027138375
 30
0.0
 40
0.941059735334897
100
AcDbArc
 50
151.4785267423628
 51
208.5214732576693
  0
ARC
  5
230
102
{ACAD_REACTORS
330
264
330
265
102
}
330
71
100
AcDbEntity
  8
0
  6
Continuous
 62
     2
100
AcDbCircle
 10
-34.33641307826628
 20
25.65117672033986
 30
0.0
 40
0.9545230068261006
100
AcDbArc
 50
90.0
 51
109.3371432194318
  0
ARC
  5
231
102
{ACAD_REACTORS
330
266
330
267
102
}
330
71
100
AcDbEntity
  8
0
  6
Continuous
 62
     2
100
AcDbCircle
 10
-55.54654329110059
 20
29.72170555418106
 30
0.0
 40
0.315716923076064
100
AcDbArc
 50
90.18896704254594
 51
180.0
  0
ARC
  5
232
102
{ACAD_REACTORS
330
266
330
267
102
}
330
71
100
AcDbEntity
  8
0
  6
Continuous
 62
     2
100
AcDbCircle
 10
-56.07258598918847
 20
28.00702866570646
 30
0.0
 40
0.911848150144456
100
AcDbArc
 50
295.374008678176
 51
64.62599132180767
  0
ARC
  5
233
102
{ACAD_REACTORS
330
262
330
263
102
}
330
71
100
AcDbEntity
  8
0
  6
Continuous
 62
     2
100
AcDbCircle
 10
-50.84751225658167
 20
27.27452663679244
 30
0.0
 40
2.227384008972732
100
AcDbArc
 50
288.448076118133
 51
301.9309089499593
  0
ARC
  5
234
102
{ACAD_REACTORS
330
262
330
263
102
}
330
71
100
AcDbEntity
  8
0
  6
Continuous
 62
     2
100
AcDbCircle
 10
-50.42934452292087
 20
26.02098086075526
 30
0.0
 40
0.905929784984916
100
AcDbArc
 50
246.6277221118709
 51
288.4480761181586
  0
ARC
  5
235
102
{ACAD_REACTORS
330
262
330
263
102
}
330
71
100
AcDbEntity
  8
0
  6
Continuous
 62
     2
100
AcDbCircle
 10
-50.58578455562289
 20
25.65898884204526
 30
0.0
 40
0.5115800601948096
100
AcDbArc
 50
208.5214732576952
 51
246.6277221118265
  0
ARC
  5
236
102
{ACAD_REACTORS
330
262
330
263
102
}
330
71
100
AcDbEntity
  8
0
  6
Continuous
 62
     2
100
AcDbCircle
 10
-50.42934452292087
 20
25.70713968201216
 30
0.0
 40
0.9059297849853228
100
AcDbArc
 50
71.55192388185348
 51
113.372277888129
  0
ARC
  5
237
102
{ACAD_REACTORS
330
262
330
263
102
}
330
71
100
AcDbEntity
  8
0
  6
Continuous
 62
     2
100
AcDbCircle
 10
-51.00538513167459
 20
22.55137932612786
 30
0.0
 40
4.852596863498062
100
AcDbArc
 50
74.02000874164736
 51
84.84185523037489
  0
CIRCLE
  5
238
102
{ACAD_REACTORS
330
266
330
267
102
}
330
71
100
AcDbEntity
  8
0
  6
Continuous
 62
     2
100
AcDbCircle
 10
-56.09640100386127
 20
28.00702866570646
 30
0.0
 40
0.4709789327785003
  0
CIRCLE
  5
239
330
71
100
AcDbEntity
  8
1
  6
Continuous
 62
     2
100
AcDbCircle
 10
-50.64023126976159
 20
38.16865550946207
 30
0.0
 40
1.249999999999922
  0
CIRCLE
  5
23A
330
71
100
AcDbEntity
  8
1
  6
Continuous
 62
     2
100
AcDbCircle
 10
-50.64023126976159
 20
38.16865550946207
 30
0.0
 40
2.5
  0
TEXT
  5
23B
330
71
100
AcDbEntity
  8
1
 62
     7
100
AcDbText
 10
-8.00333843431039
 20
35.34365550946205
 30
0.0
 40
2.5
  1
/
 41
0.9
  7
CONVERTER_11
100
AcDbText
  0
TEXT
  5
23D
330
71
100
AcDbEntity
  8
1
 62
     7
100
AcDbText
 10
-5.84697393726839
 20
35.34365550946205
 30
0.0
 40
2.5
  1
00
 41
0.81
  7
CONVERTER_12
100
AcDbText
  0
TEXT
  5
23E
330
71
100
AcDbEntity
  8
1
 62
     3
100
AcDbText
 10
31.74951008874871
 20
35.34365550946205
 30
0.0
 40
2.5
  1
08.11.2018
 41
0.81
  7
CONVERTER_12
100
AcDbText
  0
MTEXT
  5
23F
330
71
100
AcDbEntity
  8
1
 62
     2
100
AcDbMText
 10
31.74951008874871
 20
41.54365550946207
 30
0.0
 40
1.8
 41
0.0
 71
     1
 72
     1
  1
date
  7
CONVERTER_11
 73
     1
 44
1.32052821128451
  0
MTEXT
  5
240
330
71
100
AcDbEntity
  8
1
 62
     2
100
AcDbMText
 10
1.92311384367582
 20
33.04365550946207
 30
0.0
 40
1.8
 41
0.0
 71
     1
 72
     1
  1
document-type
  7
CONVERTER_11
 73
     1
 44
1.20048019207683
  0
TEXT
  5
241
330
71
100
AcDbEntity
  8
1
 62
     3
100
AcDbText
 10
1.92311384367582
 20
26.84365550946205
 30
0.0
 40
2.5
  1
TECDOC 2D_Productdrawing
 41
0.81
  7
CONVERTER_12
100
AcDbText
  0
MTEXT
  5
243
330
71
100
AcDbEntity
  8
1
 62
     2
100
AcDbMText
 10
-25.87688615632419
 20
41.54365550946216
 30
0.0
 40
1.8
 41
0.0
 71
     1
 72
     1
  1
document-No. / RI
  7
CONVERTER_13
 73
     1
 44
1.32052821128451
  0
TEXT
  5
244
330
71
100
AcDbEntity
  8
1
 62
     7
100
AcDbText
 10
-25.87688615632419
 20
35.34365550946205
 30
0.0
 40
2.5
  1
01150660
 41
0.81
  7
CONVERTER_12
100
AcDbText
  0
MTEXT
  5
246
330
71
100
AcDbEntity
  8
1
 62
     3
100
AcDbMText
 10
61.70871422958813
 20
35.34365550946225
 30
0.0
 40
2.5
 41
0.0
 71
     8
 72
     1
  1
2:1
  7
CONVERTER_14
 73
     1
 44
1.32052821128451
  0
MTEXT
  5
247
330
71
100
AcDbEntity
  8
1
 62
     2
100
AcDbMText
 10
58.34951008874853
 20
41.54365550946216
 30
0.0
 40
1.8
 41
0.0
 71
     1
 72
     1
  1
scale
  7
CONVERTER_11
 73
     1
 44
1.20048019207683
  0
MTEXT
  5
248
330
71
100
AcDbEntity
  8
1
 62
     2
100
AcDbMText
 10
-25.87688615632419
 20
33.04365550946216
 30
0.0
 40
1.8
 41
0.0
 71
     1
 72
     1
  1
ident.-No.
  7
CONVERTER_11
 73
     1
 44
1.20048019207683
  0
TEXT
  5
249
330
71
100
AcDbEntity
  8
1
 62
     7
100
AcDbText
 10
-25.47688615632447
 20
26.84365550946205
 30
0.0
 40
2.5
  1
0814270
 41
0.81
  7
CONVERTER_12
100
AcDbText
  0
MTEXT
  5
24A
330
71
100
AcDbEntity
  8
1
 62
     2
100
AcDbMText
 10
-97.8149008813717
 20
29.79365550946207
 30
0.0
 40
2.0
 41
0.0
 71
     5
 72
     1
  1
General Information\P- Simplified representation\P- Document excluded from change process\P- Linear dimensions [mm]
  7
CONVERTER_11
 73
     1
 44
1.20048019207683
  0
MTEXT
  5
24B
330
71
100
AcDbEntity
  8
1
 62
     7
100
AcDbMText
 10
68.66791837042481
 20
92.04365550946406
 30
0.0
 40
3.5
 41
0.0
 71
     5
 72
     1
  1
C
  7
CONVERTER_11
 73
     1
 44
1.20048019207683
  0
MTEXT
  5
24C
330
71
100
AcDbEntity
  8
1
 62
     7
100
AcDbMText
 10
68.66791837042481
 20
194.5436555094622
 30
0.0
 40
3.5
 41
0.0
 71
     5
 72
     1
  1
A
  7
CONVERTER_11
 73
     1
 44
1.20048019207683
  0
MTEXT
  5
24D
330
71
100
AcDbEntity
  8
1
 62
     7
100
AcDbMText
 10
68.66791837042481
 20
142.0436555094641
 30
0.0
 40
3.5
 41
0.0
 71
     5
 72
     1
  1
B
  7
CONVERTER_11
 73
     1
 44
1.20048019207683
  0
MTEXT
  5
24E
330
71
100
AcDbEntity
  8
1
 62
     7
100
AcDbMText
 10
68.66791837042481
 20
39.54365550946216
 30
0.0
 40
3.5
 41
0.0
 71
     5
 72
     1
  1
D
  7
CONVERTER_11
 73
     1
 44
1.20048019207683
  0
MTEXT
  5
24F
330
71
100
AcDbEntity
  8
1
 62
     7
100
AcDbMText
 10
-201.5820816295738
 20
14.54365550946204
 30
0.0
 40
3.5
 41
0.0
 71
     5
 72
     1
  1
1
  7
CONVERTER_11
 73
     1
 44
1.20048019207683
  0
MTEXT
  5
250
330
71
100
AcDbEntity
  8
1
 62
     7
100
AcDbMText
 10
-152.3320816295742
 20
14.54365550946204
 30
0.0
 40
3.5
 41
0.0
 71
     5
 72
     1
  1
2
  7
CONVERTER_11
 73
     1
 44
1.20048019207683
  0
MTEXT
  5
251
330
71
100
AcDbEntity
  8
1
 62
     7
100
AcDbMText
 10
-102.3320816295742
 20
14.54365550946204
 30
0.0
 40
3.5
 41
0.0
 71
     5
 72
     1
  1
3
  7
CONVERTER_11
 73
     1
 44
1.20048019207683
  0
MTEXT
  5
252
330
71
100
AcDbEntity
  8
1
 62
     7
100
AcDbMText
 10
-52.33208162957428
 20
14.54365550946204
 30
0.0
 40
3.5
 41
0.0
 71
     5
 72
     1
  1
4
  7
CONVERTER_11
 73
     1
 44
1.20048019207683
  0
MTEXT
  5
253
330
71
100
AcDbEntity
  8
1
 62
     7
100
AcDbMText
 10
-2.33208162957419
 20
14.54365550946204
 30
0.0
 40
3.5
 41
0.0
 71
     5
 72
     1
  1
5
  7
CONVERTER_11
 73
     1
 44
1.20048019207683
  0
MTEXT
  5
254
330
71
100
AcDbEntity
  8
1
 62
     7
100
AcDbMText
 10
46.91791837042501
 20
14.54365550946204
 30
0.0
 40
3.5
 41
0.0
 71
     5
 72
     1
  1
6
  7
CONVERTER_11
 73
     1
 44
1.20048019207683
  0
MTEXT
  5
255
330
71
100
AcDbEntity
  8
1
 62
     7
100
AcDbMText
 10
-223.3320816295733
 20
194.5436555094622
 30
0.0
 40
3.5
 41
0.0
 71
     5
 72
     1
  1
A
  7
CONVERTER_11
 73
     1
 44
1.20048019207683
  0
MTEXT
  5
256
330
71
100
AcDbEntity
  8
1
 62
     7
100
AcDbMText
 10
-223.3320816295733
 20
142.0436555094622
 30
0.0
 40
3.5
 41
0.0
 71
     5
 72
     1
  1
B
  7
CONVERTER_11
 73
     1
 44
1.20048019207683
  0
MTEXT
  5
257
330
71
100
AcDbEntity
  8
1
 62
     7
100
AcDbMText
 10
-223.3320816295733
 20
92.04365550946216
 30
0.0
 40
3.5
 41
0.0
 71
     5
 72
     1
  1
C
  7
CONVERTER_11
 73
     1
 44
1.20048019207683
  0
MTEXT
  5
258
330
71
100
AcDbEntity
  8
1
 62
     7
100
AcDbMText
 10
-223.3320816295733
 20
39.54365550946216
 30
0.0
 40
3.5
 41
0.0
 71
     5
 72
     1
  1
D
  7
CONVERTER_11
 73
     1
 44
1.20048019207683
  0
MTEXT
  5
259
330
71
100
AcDbEntity
  8
1
 62
     3
100
AcDbMText
 10
-37.17688615632429
 20
38.16865550946216
 30
0.0
 40
2.5
 41
0.0
 71
     5
 72
     1
  1
DIN A4
  7
CONVERTER_11
 73
     1
 44
1.20048019207683
  0
MTEXT
  5
25A
330
71
100
AcDbEntity
  8
1
 62
     2
100
AcDbMText
 10
-25.97688615632427
 20
24.54365550946216
 30
0.0
 40
1.8
 41
0.0
 71
     1
 72
     1
  1
description
  7
CONVERTER_11
 73
     1
 44
1.20048019207683
  0
MTEXT
  5
25B
330
71
100
AcDbEntity
  8
1
 62
     7
100
AcDbMText
 10
19.59551610705131
 20
20.29365550946238
 30
0.0
 40
3.0
 41
0.0
 71
     5
 72
     1
  1
MA 20X 8 BK
  7
CONVERTER_12
 73
     1
 44
1.20048019207683
  0
TEXT
  5
25C
330
71
100
AcDbEntity
  8
1
 62
     2
100
AcDbText
 10
-38.94157734651068
 20
18.29365550946204
 30
0.0
 40
1.8
  1
1
 41
0.9
  7
CONVERTER_11
100
AcDbText
  0
TEXT
  5
25D
330
71
100
AcDbEntity
  8
1
 62
     2
100
AcDbText
 10
-53.73062118598219
 20
18.24440685566015
 30
0.0
 40
1.8
  1
1
 41
0.9
  7
CONVERTER_11
100
AcDbText
  0
TEXT
  5
25E
330
71
100
AcDbEntity
  8
1
 62
     2
100
AcDbText
 10
-62.37688615632419
 20
18.28463829447048
 30
0.0
 40
1.8
  1
page
 41
0.9
  7
CONVERTER_11
100
AcDbText
  0
TEXT
  5
25F
330
71
100
AcDbEntity
  8
1
 62
     2
100
AcDbText
 10
-44.17688615632437
 20
18.28463829447054
 30
0.0
 40
1.8
  1
of
 41
0.9
  7
CONVERTER_11
100
AcDbText
  0
MTEXT
  5
260
330
71
100
AcDbEntity
  8
1
 62
     3
100
AcDbMText
 10
-37.97390400471429
 20
203.834963664761
 30
0.0
 40
1.8
 41
0.0
 71
     7
 72
     1
  3
Transfer or duplication of this document as well as the utilisation or\Pcommunication of its content are not permitted unless express consent\Pis granted. Violations give rise to claims for damages. All rights reserved\Pin case of patent, utility mo
  1
del or design patent registrations.
  7
CONVERTER_11
 73
     1
 44
0.99639855942377
  0
MTEXT
  5
261
330
71
100
AcDbEntity
  8
1
 62
     3
100
AcDbMText
 10
-220.8270138435024
 20
203.834963664761
 30
0.0
 40
1.8
 41
0.0
 71
     7
 72
     1
  3
Weitergabe sowie Vervielf\U+00e4ltigung dieses Dokuments, Verwertung und \PMitteilung seines Inhalts sind verboten, soweit nicht ausdr\U+00fccklich gestattet. \PZuwiderhandlungen verpflichten zu Schadenersatz. Alle Rechte f\U+00fcr den Fall\Pder Pat
  1
ent-, Gebrauchsmuster- oder Designeintragung vorbehalten.
  7
CONVERTER_11
 73
     1
 44
0.99639855942377
  0
HATCH
  5
262
330
71
100
AcDbEntity
  8
1
  6
Continuous
 62
     2
100
AcDbHatch
 10
0.0
 20
0.0
 30
0.0
210
0.0
220
0.0
230
1.0
  2
_USER
 70
     0
 71
     1
 91
        1
 92
        1
 93
       14
 72
     2
 10
-51.13565688040148
 20
25.86406027138375
 40
1.205656168390951
 50
164.9381082228765
 51
195.0618917770949
 73
     1
 72
     2
 10
-50.71652903693868
 20
25.97685063341856
 40
1.639695123939387
 50
195.0618917770896
 51
275.1581447696398
 73
     1
 72
     2
 10
-51.00538513167459
 20
29.17674121664015
 40
4.852596863498136
 50
275.1581447696251
 51
285.9799912583529
 73
     1
 72
     1
 10
-49.66945721455679
 20
24.51165891083934
 11
-49.66945721455679
 21
25.38417591764255
 72
     2
 10
-50.84751225658167
 20
27.27452663679244
 40
2.227384008972732
 50
58.06909105004065
 51
71.55192388186698
 73
     0
 72
     2
 10
-50.42934452292087
 20
26.02098086075526
 40
0.905929784984916
 50
71.55192388184147
 51
113.3722778881291
 73
     0
 72
     2
 10
-50.58578455562289
 20
25.65898884204526
 40
0.5115800601948096
 50
113.3722778881735
 51
151.4785267423048
 73
     0
 72
     2
 10
-50.20842729754259
 20
25.86406027138375
 40
0.9410597353332483
 50
151.4785267422941
 51
208.5214732577333
 73
     0
 72
     2
 10
-50.58578455562289
 20
26.06913170072275
 40
0.5115800601948807
 50
208.5214732576952
 51
246.6277221118002
 73
     0
 72
     2
 10
-50.42934452292087
 20
25.70713968201216
 40
0.9059297849853228
 50
246.6277221118709
 51
288.4480761181465
 73
     0
 72
     2
 10
-50.84751225658167
 20
24.45359390597557
 40
2.227384008973474
 50
288.448076118133
 51
301.9309089499593
 73
     0
 72
     1
 10
-49.66945721455679
 20
26.34394462512546
 11
-49.66945721455679
 21
27.21646163192875
 72
     2
 10
-51.00538513167459
 20
22.55137932612786
 40
4.852596863498062
 50
74.02000874164736
 51
84.84185523037489
 73
     1
 72
     2
 10
-50.71652903693868
 20
25.75126990934885
 40
1.639695123940507
 50
84.84185523036211
 51
164.9381082228864
 73
     1
 97
       14
330
237
330
150
330
206
330
236
330
207
330
208
330
235
330
234
330
233
330
151
330
209
330
20A
330
20B
330
20C
 75
     1
 76
     0
 52
45.0
 41
0.1
 77
     0
 78
     1
 53
45.0
 43
0.0
 44
0.0
 45
-0.0707106781186548
 46
0.0707106781186548
 79
     0
 98
        1
 10
0.0
 20
0.0
  0
HATCH
  5
263
330
71
100
AcDbEntity
  8
1
  6
Continuous
 62
     2
100
AcDbHatch
 10
0.0
 20
0.0
 30
0.0
210
0.0
220
0.0
230
1.0
  2
_USER
 70
     0
 71
     1
 91
        1
 92
        1
 93
       14
 72
     2
 10
-51.13565688040148
 20
25.86406027138375
 40
1.205656168390951
 50
164.9381082228765
 51
195.0618917770949
 73
     1
 72
     2
 10
-50.71652903693868
 20
25.97685063341856
 40
1.639695123939387
 50
195.0618917770896
 51
275.1581447696398
 73
     1
 72
     2
 10
-51.00538513167459
 20
29.17674121664015
 40
4.852596863498136
 50
275.1581447696251
 51
285.9799912583529
 73
     1
 72
     1
 10
-49.66945721455679
 20
24.51165891083934
 11
-49.66945721455679
 21
25.38417591764255
 72
     2
 10
-50.84751225658167
 20
27.27452663679244
 40
2.227384008972732
 50
58.06909105004065
 51
71.55192388186698
 73
     0
 72
     2
 10
-50.42934452292087
 20
26.02098086075526
 40
0.905929784984916
 50
71.55192388184147
 51
113.3722778881291
 73
     0
 72
     2
 10
-50.58578455562289
 20
25.65898884204526
 40
0.5115800601948096
 50
113.3722778881735
 51
151.4785267423048
 73
     0
 72
     2
 10
-50.20842729754259
 20
25.86406027138375
 40
0.9410597353332483
 50
151.4785267422941
 51
208.5214732577333
 73
     0
 72
     2
 10
-50.58578455562289
 20
26.06913170072275
 40
0.5115800601948807
 50
208.5214732576952
 51
246.6277221118002
 73
     0
 72
     2
 10
-50.42934452292087
 20
25.70713968201216
 40
0.9059297849853228
 50
246.6277221118709
 51
288.4480761181465
 73
     0
 72
     2
 10
-50.84751225658167
 20
24.45359390597557
 40
2.227384008973474
 50
288.448076118133
 51
301.9309089499593
 73
     0
 72
     1
 10
-49.66945721455679
 20
26.34394462512546
 11
-49.66945721455679
 21
27.21646163192875
 72
     2
 10
-51.00538513167459
 20
22.55137932612786
 40
4.852596863498062
 50
74.02000874164736
 51
84.84185523037489
 73
     1
 72
     2
 10
-50.71652903693868
 20
25.75126990934885
 40
1.639695123940507
 50
84.84185523036211
 51
164.9381082228864
 73
     1
 97
       14
330
237
330
150
330
206
330
236
330
207
330
208
330
235
330
234
330
233
330
151
330
209
330
20A
330
20B
330
20C
 75
     1
 76
     0
 52
45.0
 41
0.1
 77
     0
 78
     1
 53
45.0
 43
0.0
 44
0.0
 45
-0.0707106781186548
 46
0.0707106781186548
 79
     0
 98
        1
 10
0.0
 20
0.0
  0
HATCH
  5
264
330
71
100
AcDbEntity
  8
1
  6
Continuous
 62
     2
100
AcDbHatch
 10
0.0
 20
0.0
 30
0.0
210
0.0
220
0.0
230
1.0
  2
_USER
 70
     0
 71
     1
 91
        1
 92
        1
 93
       18
 72
     2
 10
-34.61382755768577
 20
25.75126990934885
 40
1.639695123940211
 50
90.0
 51
164.938108222895
 73
     1
 72
     2
 10
-35.03295540114738
 20
25.86406027138375
 40
1.205656168392996
 50
164.9381082229027
 51
195.0618917770958
 73
     1
 72
     2
 10
-34.61382755768577
 20
25.97685063341856
 40
1.639695123940446
 50
195.061891777101
 51
275.1581447696762
 73
     1
 72
     2
 10
-34.90268365242159
 20
29.17674121664015
 40
4.852596863498825
 50
275.1581447696364
 51
285.9799912583387
 73
     1
 72
     1
 10
-33.56675573530487
 20
24.51165891083875
 11
-33.56675573530487
 21
25.38417591764207
 72
     2
 10
-34.74481077732878
 20
27.27452663679185
 40
2.227384008972746
 50
58.06909105006029
 51
71.55192388186651
 73
     0
 72
     2
 10
-34.32664304366688
 20
26.02098086075526
 40
0.9059297849852768
 50
71.55192388191821
 51
113.3722778881818
 73
     0
 72
     2
 10
-34.48308307636998
 20
25.65898884204526
 40
0.5115800601960279
 50
113.3722778881552
 51
151.4785267423138
 73
     0
 72
     2
 10
-34.10572581828859
 20
25.86406027138375
 40
0.941059735334897
 50
151.4785267423307
 51
208.5214732576372
 73
     0
 72
     2
 10
-34.48308307636998
 20
26.06913170072275
 40
0.5115800601944234
 50
208.5214732575768
 51
250.6628567805143
 73
     0
 72
     2
 10
-34.33641307826628
 20
25.65117672033986
 40
0.9545230068261006
 50
250.6628567805682
 51
270.0
 73
     0
 72
     1
 10
-34.33641307826628
 20
26.60569972716596
 11
-33.23277377869817
 21
26.60569972716596
 72
     1
 10
-33.23277377869817
 20
26.60569972716596
 11
-33.23277377869817
 21
24.33715550947846
 72
     1
 10
-33.23277377869817
 20
24.33715550947846
 11
-32.03998107653047
 21
24.33715550947846
 72
     1
 10
-32.03998107653047
 20
24.33715550947846
 11
-32.03998107653047
 21
26.60569972716596
 72
     1
 10
-32.03998107653047
 20
26.60569972716596
 11
-31.22888203905708
 21
26.60569972716596
 72
     1
 10
-31.22888203905708
 20
26.60569972716596
 11
-31.22888203905708
 21
27.39096503328955
 72
     1
 10
-31.22888203905708
 20
27.39096503328955
 11
-34.61382755768577
 21
27.39096503328906
 97
       18
330
1B6
330
1B5
330
1B4
330
1B3
330
1B8
330
152
330
230
330
211
330
22F
330
212
330
22E
330
22D
330
153
330
22C
330
22B
330
213
330
214
330
1B7
 75
     1
 76
     0
 52
45.0
 41
0.1
 77
     0
 78
     1
 53
45.0
 43
0.0
 44
0.0
 45
-0.0707106781186548
 46
0.0707106781186548
 79
     0
 98
        1
 10
0.0
 20
0.0
  0
HATCH
  5
265
330
71
100
AcDbEntity
  8
1
  6
Continuous
 62
     2
100
AcDbHatch
 10
0.0
 20
0.0
 30
0.0
210
0.0
220
0.0
230
1.0
  2
_USER
 70
     0
 71
     1
 91
        1
 92
        1
 93
       18
 72
     2
 10
-34.61382755768577
 20
25.75126990934885
 40
1.639695123940211
 50
90.0
 51
164.938108222895
 73
     1
 72
     2
 10
-35.03295540114738
 20
25.86406027138375
 40
1.205656168392996
 50
164.9381082229027
 51
195.0618917770958
 73
     1
 72
     2
 10
-34.61382755768577
 20
25.97685063341856
 40
1.639695123940446
 50
195.061891777101
 51
275.1581447696762
 73
     1
 72
     2
 10
-34.90268365242159
 20
29.17674121664015
 40
4.852596863498825
 50
275.1581447696364
 51
285.9799912583387
 73
     1
 72
     1
 10
-33.56675573530487
 20
24.51165891083875
 11
-33.56675573530487
 21
25.38417591764207
 72
     2
 10
-34.74481077732878
 20
27.27452663679185
 40
2.227384008972746
 50
58.06909105006029
 51
71.55192388186651
 73
     0
 72
     2
 10
-34.32664304366688
 20
26.02098086075526
 40
0.9059297849852768
 50
71.55192388191821
 51
113.3722778881818
 73
     0
 72
     2
 10
-34.48308307636998
 20
25.65898884204526
 40
0.5115800601960279
 50
113.3722778881552
 51
151.4785267423138
 73
     0
 72
     2
 10
-34.10572581828859
 20
25.86406027138375
 40
0.941059735334897
 50
151.4785267423307
 51
208.5214732576372
 73
     0
 72
     2
 10
-34.48308307636998
 20
26.06913170072275
 40
0.5115800601944234
 50
208.5214732575768
 51
250.6628567805143
 73
     0
 72
     2
 10
-34.33641307826628
 20
25.65117672033986
 40
0.9545230068261006
 50
250.6628567805682
 51
270.0
 73
     0
 72
     1
 10
-34.33641307826628
 20
26.60569972716596
 11
-33.23277377869817
 21
26.60569972716596
 72
     1
 10
-33.23277377869817
 20
26.60569972716596
 11
-33.23277377869817
 21
24.33715550947846
 72
     1
 10
-33.23277377869817
 20
24.33715550947846
 11
-32.03998107653047
 21
24.33715550947846
 72
     1
 10
-32.03998107653047
 20
24.33715550947846
 11
-32.03998107653047
 21
26.60569972716596
 72
     1
 10
-32.03998107653047
 20
26.60569972716596
 11
-31.22888203905708
 21
26.60569972716596
 72
     1
 10
-31.22888203905708
 20
26.60569972716596
 11
-31.22888203905708
 21
27.39096503328955
 72
     1
 10
-31.22888203905708
 20
27.39096503328955
 11
-34.61382755768577
 21
27.39096503328906
 97
       18
330
1B6
330
1B5
330
1B4
330
1B3
330
1B8
330
152
330
230
330
211
330
22F
330
212
330
22E
330
22D
330
153
330
22C
330
22B
330
213
330
214
330
1B7
 75
     1
 76
     0
 52
45.0
 41
0.1
 77
     0
 78
     1
 53
45.0
 43
0.0
 44
0.0
 45
-0.0707106781186548
 46
0.0707106781186548
 79
     0
 98
        1
 10
0.0
 20
0.0
  0
HATCH
  5
266
330
71
100
AcDbEntity
  8
1
  6
Continuous
 62
     2
100
AcDbHatch
 10
0.0
 20
0.0
 30
0.0
210
0.0
220
0.0
230
1.0
  2
_USER
 70
     0
 71
     1
 91
        4
 92
        1
 93
        8
 72
     2
 10
-58.71598665437878
 20
30.32591089406196
 40
0.4242446153838024
 50
90.0
 51
180.0
 73
     1
 72
     1
 10
-59.14023126976159
 20
30.32591089406196
 11
-59.14023126976159
 21
24.76140012486175
 72
     2
 10
-58.71598665437878
 20
24.76140012486175
 40
0.4242446153828112
 50
180.0
 51
270.0
 73
     1
 72
     1
 10
-58.71598665437878
 20
24.33715550947846
 11
-53.24267456366198
 21
24.33715550947846
 72
     2
 10
-53.24267456366198
 20
24.76140012486175
 40
0.4242446153832908
 50
270.0
 51
360.0
 73
     1
 72
     1
 10
-52.81842994827809
 20
24.76140012486175
 11
-52.81842994827809
 21
30.32591089406196
 72
     2
 10
-53.24267456366198
 20
30.32591089406196
 40
0.4242446153838912
 50
0.0
 51
90.0
 73
     1
 72
     1
 10
-53.24267456366198
 20
30.75015550944576
 11
-58.71598665437878
 21
30.75015550944576
 97
        8
330
224
330
181
330
223
330
182
330
21A
330
17F
330
225
330
180
 92
       16
 93
        1
 72
     2
 10
-56.09640100386127
 20
28.00702866570646
 40
0.4709789327785003
 50
0.0
 51
360.0
 73
     1
 97
        1
330
238
 92
       16
 93
        8
 72
     2
 10
-56.07258598918847
 20
28.00702866570646
 40
0.911848150144456
 50
295.374008678176
 51
424.6259913218076
 73
     1
 72
     2
 10
-55.54654329110059
 20
29.11617026567427
 40
0.315716923076792
 50
115.3740086783527
 51
180.0
 73
     0
 72
     1
 10
-55.86226021417738
 20
29.11617026567427
 11
-55.86226021417738
 21
29.72170555418106
 72
     2
 10
-55.54654329110059
 20
29.72170555418106
 40
0.315716923076064
 50
180.0
 51
269.8110329574541
 73
     0
 72
     2
 10
-55.54092715579057
 20
28.01887060661196
 40
2.018561131933266
 50
269.8110329575858
 51
450.1889670424142
 73
     0
 72
     2
 10
-55.54654329110059
 20
26.31603565904297
 40
0.315716923076792
 50
90.18896704254585
 51
180.0
 73
     0
 72
     1
 10
-55.86226021417738
 20
26.31603565904297
 11
-55.86226021417738
 21
26.89788706573805
 72
     2
 10
-55.54654329110059
 20
26.89788706573805
 40
0.3157169230765359
 50
180.0
 51
244.6259913216469
 73
     0
 97
        8
330
232
330
20E
330
1BA
330
231
330
20F
330
210
330
1B9
330
20D
 92
       16
 93
       12
 72
     1
 10
-58.12209197763229
 20
25.04971106503535
 11
-56.64625871662267
 21
25.04971106503535
 72
     2
 10
-56.64625871662267
 20
25.36542798811206
 40
0.3157169230767103
 50
270.0
 51
360.0
 73
     1
 72
     1
 10
-56.33054179354608
 20
25.36542798811206
 11
-56.33054179354608
 21
26.89619891964367
 72
     2
 10
-56.64625871662267
 20
26.89619891964367
 40
0.3157169230765859
 50
0.0
 51
64.80558935146027
 73
     1
 72
     2
 10
-56.12367426904768
 20
28.00702866570646
 40
0.9118975235576114
 50
115.1944106485122
 51
244.8055893514717
 73
     0
 72
     2
 10
-56.64625871662267
 20
29.11785841176865
 40
0.3157169230761203
 50
295.1944106485397
 51
360.0
 73
     1
 72
     1
 10
-56.33054179354608
 20
29.11785841176865
 11
-56.33054179354608
 21
29.72188303082916
 72
     2
 10
-56.64625871662267
 20
29.72188303082916
 40
0.3157169230765859
 50
0.0
 51
90.0
 73
     1
 72
     1
 10
-56.64625871662267
 20
30.03759995390536
 11
-58.12209197763229
 21
30.03759995390536
 72
     2
 10
-58.12209197763229
 20
29.72188303082916
 40
0.3157169230761987
 50
90.0
 51
180.0
 73
     1
 72
     1
 10
-58.43780890070798
 20
29.72188303082916
 11
-58.43780890070798
 21
25.36542798811206
 72
     2
 10
-58.12209197763229
 20
25.36542798811206
 40
0.3157169230756907
 50
180.0
 51
270.0
 73
     1
 97
       12
330
186
330
217
330
185
330
228
330
184
330
227
330
218
330
219
330
183
330
226
330
17E
330
229
 75
     1
 76
     0
 52
45.0
 41
0.1
 77
     0
 78
     1
 53
45.0
 43
0.0
 44
0.0
 45
-0.0707106781186548
 46
0.0707106781186548
 79
     0
 98
        1
 10
0.0
 20
0.0
  0
HATCH
  5
267
330
71
100
AcDbEntity
  8
1
  6
Continuous
 62
     2
100
AcDbHatch
 10
0.0
 20
0.0
 30
0.0
210
0.0
220
0.0
230
1.0
  2
_USER
 70
     0
 71
     1
 91
        4
 92
        1
 93
        8
 72
     2
 10
-58.71598665437878
 20
30.32591089406196
 40
0.4242446153838024
 50
90.0
 51
180.0
 73
     1
 72
     1
 10
-59.14023126976159
 20
30.32591089406196
 11
-59.14023126976159
 21
24.76140012486175
 72
     2
 10
-58.71598665437878
 20
24.76140012486175
 40
0.4242446153828112
 50
180.0
 51
270.0
 73
     1
 72
     1
 10
-58.71598665437878
 20
24.33715550947846
 11
-53.24267456366198
 21
24.33715550947846
 72
     2
 10
-53.24267456366198
 20
24.76140012486175
 40
0.4242446153832908
 50
270.0
 51
360.0
 73
     1
 72
     1
 10
-52.81842994827809
 20
24.76140012486175
 11
-52.81842994827809
 21
30.32591089406196
 72
     2
 10
-53.24267456366198
 20
30.32591089406196
 40
0.4242446153838912
 50
0.0
 51
90.0
 73
     1
 72
     1
 10
-53.24267456366198
 20
30.75015550944576
 11
-58.71598665437878
 21
30.75015550944576
 97
        8
330
224
330
181
330
223
330
182
330
21A
330
17F
330
225
330
180
 92
       16
 93
        1
 72
     2
 10
-56.09640100386127
 20
28.00702866570646
 40
0.4709789327785003
 50
0.0
 51
360.0
 73
     1
 97
        1
330
238
 92
       16
 93
        8
 72
     2
 10
-56.07258598918847
 20
28.00702866570646
 40
0.911848150144456
 50
295.374008678176
 51
424.6259913218076
 73
     1
 72
     2
 10
-55.54654329110059
 20
29.11617026567427
 40
0.315716923076792
 50
115.3740086783527
 51
180.0
 73
     0
 72
     1
 10
-55.86226021417738
 20
29.11617026567427
 11
-55.86226021417738
 21
29.72170555418106
 72
     2
 10
-55.54654329110059
 20
29.72170555418106
 40
0.315716923076064
 50
180.0
 51
269.8110329574541
 73
     0
 72
     2
 10
-55.54092715579057
 20
28.01887060661196
 40
2.018561131933266
 50
269.8110329575858
 51
450.1889670424142
 73
     0
 72
     2
 10
-55.54654329110059
 20
26.31603565904297
 40
0.315716923076792
 50
90.18896704254585
 51
180.0
 73
     0
 72
     1
 10
-55.86226021417738
 20
26.31603565904297
 11
-55.86226021417738
 21
26.89788706573805
 72
     2
 10
-55.54654329110059
 20
26.89788706573805
 40
0.3157169230765359
 50
180.0
 51
244.6259913216469
 73
     0
 97
        8
330
232
330
20E
330
1BA
330
231
330
20F
330
210
330
1B9
330
20D
 92
       16
 93
       12
 72
     1
 10
-58.12209197763229
 20
25.04971106503535
 11
-56.64625871662267
 21
25.04971106503535
 72
     2
 10
-56.64625871662267
 20
25.36542798811206
 40
0.3157169230767103
 50
270.0
 51
360.0
 73
     1
 72
     1
 10
-56.33054179354608
 20
25.36542798811206
 11
-56.33054179354608
 21
26.89619891964367
 72
     2
 10
-56.64625871662267
 20
26.89619891964367
 40
0.3157169230765859
 50
0.0
 51
64.80558935146027
 73
     1
 72
     2
 10
-56.12367426904768
 20
28.00702866570646
 40
0.9118975235576114
 50
115.1944106485122
 51
244.8055893514717
 73
     0
 72
     2
 10
-56.64625871662267
 20
29.11785841176865
 40
0.3157169230761203
 50
295.1944106485397
 51
360.0
 73
     1
 72
     1
 10
-56.33054179354608
 20
29.11785841176865
 11
-56.33054179354608
 21
29.72188303082916
 72
     2
 10
-56.64625871662267
 20
29.72188303082916
 40
0.3157169230765859
 50
0.0
 51
90.0
 73
     1
 72
     1
 10
-56.64625871662267
 20
30.03759995390536
 11
-58.12209197763229
 21
30.03759995390536
 72
     2
 10
-58.12209197763229
 20
29.72188303082916
 40
0.3157169230761987
 50
90.0
 51
180.0
 73
     1
 72
     1
 10
-58.43780890070798
 20
29.72188303082916
 11
-58.43780890070798
 21
25.36542798811206
 72
     2
 10
-58.12209197763229
 20
25.36542798811206
 40
0.3157169230756907
 50
180.0
 51
270.0
 73
     1
 97
       12
330
186
330
217
330
185
330
228
330
184
330
227
330
218
330
219
330
183
330
226
330
17E
330
229
 75
     1
 76
     0
 52
45.0
 41
0.1
 77
     0
 78
     1
 53
45.0
 43
0.0
 44
0.0
 45
-0.0707106781186548
 46
0.0707106781186548
 79
     0
 98
        1
 10
0.0
 20
0.0
  0
HATCH
  5
268
330
71
100
AcDbEntity
  8
1
  6
Continuous
 62
     2
100
AcDbHatch
 10
0.0
 20
0.0
 30
0.0
210
0.0
220
0.0
230
1.0
  2
_USER
 70
     0
 71
     1
 91
        2
 92
        1
 93
       12
 72
     2
 10
-44.04082265038949
 20
29.22325074755807
 40
1.526904761905882
 50
90.0
 51
270.0
 73
     1
 72
     1
 10
-44.04082265038949
 20
27.69634598565276
 11
-40.89050292660849
 21
27.69634598565276
 72
     1
 10
-40.89050292660849
 20
27.69634598565276
 11
-40.89050292660849
 21
28.39435959109525
 72
     1
 10
-40.89050292660849
 20
28.39435959109525
 11
-42.22643075303617
 21
28.39435959109525
 72
     1
 10
-42.22643075303617
 20
28.39435959109525
 11
-42.22643075303617
 21
28.87424394483696
 72
     1
 10
-42.22643075303617
 20
28.87424394483696
 11
-40.89050292660849
 21
28.87424394483696
 72
     1
 10
-40.89050292660849
 20
28.87424394483696
 11
-40.89050292660849
 21
29.57225755027926
 72
     1
 10
-40.89050292660849
 20
29.57225755027926
 11
-42.22643075303617
 21
29.57225755027926
 72
     1
 10
-42.22643075303617
 20
29.57225755027926
 11
-42.22643075303617
 21
30.05214190402097
 72
     1
 10
-42.22643075303617
 20
30.05214190402097
 11
-40.89050292660849
 21
30.05214190402097
 72
     1
 10
-40.89050292660849
 20
30.05214190402097
 11
-40.89050292660849
 21
30.75015550946395
 72
     1
 10
-40.89050292660849
 20
30.75015550946395
 11
-44.04082265038949
 21
30.75015550946395
 97
       12
330
175
330
16F
330
196
330
195
330
194
330
193
330
170
330
171
330
172
330
173
330
215
330
174
 92
       16
 93
        4
 72
     2
 10
-43.62481060387799
 20
29.22325074755807
 40
0.7717997786796724
 50
141.8795802028404
 51
218.120419797156
 73
     1
 72
     2
 10
-43.82455064022429
 20
29.06651956943765
 40
0.5179085730134372
 50
218.1204197971511
 51
321.8795802028566
 73
     1
 72
     2
 10
-44.02429067657047
 20
29.22325074755807
 40
0.7717997786796351
 50
321.879580202844
 51
398.1204197971596
 73
     1
 72
     2
 10
-43.82455064022429
 20
29.37998192567855
 40
0.5179085730135266
 50
38.12041979714334
 51
141.8795802028489
 73
     1
 97
        4
330
222
330
221
330
21C
330
21B
 75
     1
 76
     0
 52
45.0
 41
0.1
 77
     0
 78
     1
 53
45.0
 43
0.0
 44
0.0
 45
-0.0707106781186548
 46
0.0707106781186548
 79
     0
 98
        1
 10
0.0
 20
0.0
  0
HATCH
  5
269
330
71
100
AcDbEntity
  8
1
  6
Continuous
 62
     2
100
AcDbHatch
 10
0.0
 20
0.0
 30
0.0
210
0.0
220
0.0
230
1.0
  2
_USER
 70
     0
 71
     1
 91
        2
 92
        1
 93
       12
 72
     2
 10
-44.04082265038949
 20
29.22325074755807
 40
1.526904761905882
 50
90.0
 51
270.0
 73
     1
 72
     1
 10
-44.04082265038949
 20
27.69634598565276
 11
-40.89050292660849
 21
27.69634598565276
 72
     1
 10
-40.89050292660849
 20
27.69634598565276
 11
-40.89050292660849
 21
28.39435959109525
 72
     1
 10
-40.89050292660849
 20
28.39435959109525
 11
-42.22643075303617
 21
28.39435959109525
 72
     1
 10
-42.22643075303617
 20
28.39435959109525
 11
-42.22643075303617
 21
28.87424394483696
 72
     1
 10
-42.22643075303617
 20
28.87424394483696
 11
-40.89050292660849
 21
28.87424394483696
 72
     1
 10
-40.89050292660849
 20
28.87424394483696
 11
-40.89050292660849
 21
29.57225755027926
 72
     1
 10
-40.89050292660849
 20
29.57225755027926
 11
-42.22643075303617
 21
29.57225755027926
 72
     1
 10
-42.22643075303617
 20
29.57225755027926
 11
-42.22643075303617
 21
30.05214190402097
 72
     1
 10
-42.22643075303617
 20
30.05214190402097
 11
-40.89050292660849
 21
30.05214190402097
 72
     1
 10
-40.89050292660849
 20
30.05214190402097
 11
-40.89050292660849
 21
30.75015550946395
 72
     1
 10
-40.89050292660849
 20
30.75015550946395
 11
-44.04082265038949
 21
30.75015550946395
 97
       12
330
175
330
16F
330
196
330
195
330
194
330
193
330
170
330
171
330
172
330
173
330
215
330
174
 92
       16
 93
        4
 72
     2
 10
-43.62481060387799
 20
29.22325074755807
 40
0.7717997786796724
 50
141.8795802028404
 51
218.120419797156
 73
     1
 72
     2
 10
-43.82455064022429
 20
29.06651956943765
 40
0.5179085730134372
 50
218.1204197971511
 51
321.8795802028566
 73
     1
 72
     2
 10
-44.02429067657047
 20
29.22325074755807
 40
0.7717997786796351
 50
321.879580202844
 51
398.1204197971596
 73
     1
 72
     2
 10
-43.82455064022429
 20
29.37998192567855
 40
0.5179085730135266
 50
38.12041979714334
 51
141.8795802028489
 73
     1
 97
        4
330
222
330
221
330
21C
330
21B
 75
     1
 76
     0
 52
45.0
 41
0.1
 77
     0
 78
     1
 53
45.0
 43
0.0
 44
0.0
 45
-0.0707106781186548
 46
0.0707106781186548
 79
     0
 98
        1
 10
0.0
 20
0.0
  0
HATCH
  5
26A
330
71
100
AcDbEntity
  8
1
  6
Continuous
 62
     2
100
AcDbHatch
 10
0.0
 20
0.0
 30
0.0
210
0.0
220
0.0
230
1.0
  2
_USER
 70
     0
 71
     1
 91
        2
 92
        1
 93
        4
 72
     2
 10
-48.06643801285108
 20
25.86406027138375
 40
1.45803408365149
 50
117.5481481756624
 51
242.4518518243375
 73
     1
 72
     2
 10
-47.78549812101778
 20
26.40263528168705
 40
2.065479772208505
 50
242.4518518243401
 51
297.5481481756869
 73
     1
 72
     2
 10
-47.50455822918448
 20
25.86406027138375
 40
1.458034083651999
 50
297.5481481757009
 51
422.4518518242992
 73
     1
 72
     2
 10
-47.78549812101778
 20
25.32548526108096
 40
2.065479772208561
 50
62.45185182430649
 51
117.5481481756664
 73
     1
 97
        4
330
220
330
21D
330
21F
330
21E
 92
       16
 93
        4
 72
     2
 10
-47.78549812101778
 20
26.02079144950426
 40
0.5179085730133033
 50
38.12041979714624
 51
141.8795802028591
 73
     1
 72
     2
 10
-47.58575808467168
 20
25.86406027138375
 40
0.771799778679461
 50
141.8795802028365
 51
218.1204197971687
 73
     1
 72
     2
 10
-47.78549812101778
 20
25.70732909326375
 40
0.5179085730137332
 50
218.1204197971929
 51
321.8795802028018
 73
     1
 72
     2
 10
-47.98523815736419
 20
25.86406027138375
 40
0.7717997786797003
 50
321.879580202842
 51
398.1204197971528
 73
     1
 97
        4
330
203
330
204
330
205
330
202
 75
     1
 76
     0
 52
45.0
 41
0.1
 77
     0
 78
     1
 53
45.0
 43
0.0
 44
0.0
 45
-0.0707106781186548
 46
0.0707106781186548
 79
     0
 98
        1
 10
0.0
 20
0.0
  0
HATCH
  5
26B
330
71
100
AcDbEntity
  8
1
  6
Continuous
 62
     2
100
AcDbHatch
 10
0.0
 20
0.0
 30
0.0
210
0.0
220
0.0
230
1.0
  2
_USER
 70
     0
 71
     1
 91
        2
 92
        1
 93
        4
 72
     2
 10
-48.06643801285108
 20
25.86406027138375
 40
1.45803408365149
 50
117.5481481756624
 51
242.4518518243375
 73
     1
 72
     2
 10
-47.78549812101778
 20
26.40263528168705
 40
2.065479772208505
 50
242.4518518243401
 51
297.5481481756869
 73
     1
 72
     2
 10
-47.50455822918448
 20
25.86406027138375
 40
1.458034083651999
 50
297.5481481757009
 51
422.4518518242992
 73
     1
 72
     2
 10
-47.78549812101778
 20
25.32548526108096
 40
2.065479772208561
 50
62.45185182430649
 51
117.5481481756664
 73
     1
 97
        4
330
220
330
21D
330
21F
330
21E
 92
       16
 93
        4
 72
     2
 10
-47.78549812101778
 20
26.02079144950426
 40
0.5179085730133033
 50
38.12041979714624
 51
141.8795802028591
 73
     1
 72
     2
 10
-47.58575808467168
 20
25.86406027138375
 40
0.771799778679461
 50
141.8795802028365
 51
218.1204197971687
 73
     1
 72
     2
 10
-47.78549812101778
 20
25.70732909326375
 40
0.5179085730137332
 50
218.1204197971929
 51
321.8795802028018
 73
     1
 72
     2
 10
-47.98523815736419
 20
25.86406027138375
 40
0.7717997786797003
 50
321.879580202842
 51
398.1204197971528
 73
     1
 97
        4
330
203
330
204
330
205
330
202
 75
     1
 76
     0
 52
45.0
 41
0.1
 77
     0
 78
     1
 53
45.0
 43
0.0
 44
0.0
 45
-0.0707106781186548
 46
0.0707106781186548
 79
     0
 98
        1
 10
0.0
 20
0.0
  0
HATCH
  5
26C
330
71
100
AcDbEntity
  8
1
  6
Continuous
 62
     2
100
AcDbHatch
 10
0.0
 20
0.0
 30
0.0
210
0.0
220
0.0
230
1.0
  2
_USER
 70
     0
 71
     1
 91
        2
 92
        1
 93
        6
 72
     1
 10
-52.34131286741129
 20
30.75015550946395
 11
-52.34131286741129
 21
27.69634598565276
 72
     1
 10
-52.34131286741129
 20
27.69634598565276
 11
-51.10080845715717
 21
27.69634598565276
 72
     1
 10
-51.10080845715717
 20
27.69634598565276
 11
-51.10080845715717
 21
28.63942422679656
 72
     1
 10
-51.10080845715717
 20
28.63942422679656
 11
-50.34204086937689
 21
28.63942422679656
 72
     2
 10
-50.34204086937689
 20
29.69478986813027
 40
1.055365641333712
 50
270.0
 51
450.0
 73
     1
 72
     1
 10
-50.34204086937689
 20
30.75015550946395
 11
-52.34131286741129
 21
30.75015550946395
 97
        6
330
22A
330
187
330
17D
330
17C
330
189
330
188
 92
       16
 93
        4
 72
     1
 10
-50.78351339561527
 20
30.08704966402385
 11
-51.10080845715717
 21
30.08704966402385
 72
     1
 10
-51.10080845715717
 20
30.08704966402385
 11
-51.10080845715717
 21
29.38132201468164
 72
     1
 10
-51.10080845715717
 20
29.38132201468164
 11
-50.78351339561527
 21
29.38132201468164
 72
     2
 10
-50.78351339561527
 20
29.73418583935276
 40
0.3528638246711218
 50
270.0
 51
450.0
 73
     1
 97
        4
330
18A
330
17B
330
18B
330
216
 75
     1
 76
     0
 52
45.0
 41
0.1
 77
     0
 78
     1
 53
45.0
 43
0.0
 44
0.0
 45
-0.0707106781186548
 46
0.0707106781186548
 79
     0
 98
        1
 10
0.0
 20
0.0
  0
HATCH
  5
26D
330
71
100
AcDbEntity
  8
1
  6
Continuous
 62
     2
100
AcDbHatch
 10
0.0
 20
0.0
 30
0.0
210
0.0
220
0.0
230
1.0
  2
_USER
 70
     0
 71
     1
 91
        2
 92
        1
 93
        6
 72
     1
 10
-52.34131286741129
 20
30.75015550946395
 11
-52.34131286741129
 21
27.69634598565276
 72
     1
 10
-52.34131286741129
 20
27.69634598565276
 11
-51.10080845715717
 21
27.69634598565276
 72
     1
 10
-51.10080845715717
 20
27.69634598565276
 11
-51.10080845715717
 21
28.63942422679656
 72
     1
 10
-51.10080845715717
 20
28.63942422679656
 11
-50.34204086937689
 21
28.63942422679656
 72
     2
 10
-50.34204086937689
 20
29.69478986813027
 40
1.055365641333712
 50
270.0
 51
450.0
 73
     1
 72
     1
 10
-50.34204086937689
 20
30.75015550946395
 11
-52.34131286741129
 21
30.75015550946395
 97
        6
330
22A
330
187
330
17D
330
17C
330
189
330
188
 92
       16
 93
        4
 72
     1
 10
-50.78351339561527
 20
30.08704966402385
 11
-51.10080845715717
 21
30.08704966402385
 72
     1
 10
-51.10080845715717
 20
30.08704966402385
 11
-51.10080845715717
 21
29.38132201468164
 72
     1
 10
-51.10080845715717
 20
29.38132201468164
 11
-50.78351339561527
 21
29.38132201468164
 72
     2
 10
-50.78351339561527
 20
29.73418583935276
 40
0.3528638246711218
 50
270.0
 51
450.0
 73
     1
 97
        4
330
18A
330
17B
330
18B
330
216
 75
     1
 76
     0
 52
45.0
 41
0.1
 77
     0
 78
     1
 53
45.0
 43
0.0
 44
0.0
 45
-0.0707106781186548
 46
0.0707106781186548
 79
     0
 98
        1
 10
0.0
 20
0.0
  0
HATCH
  5
26E
330
71
100
AcDbEntity
  8
1
  6
Continuous
 62
     2
100
AcDbHatch
 10
0.0
 20
0.0
 30
0.0
210
0.0
220
0.0
230
1.0
  2
_USER
 70
     0
 71
     1
 91
        1
 92
        1
 93
       12
 72
     1
 10
-32.72702967297809
 20
30.75015550946395
 11
-31.32430545523087
 21
30.75015550946395
 72
     1
 10
-31.32430545523087
 20
30.75015550946395
 11
-32.62683508599739
 21
29.27720497942775
 72
     1
 10
-32.62683508599739
 20
29.27720497942775
 11
-31.22888203905708
 21
27.69634598565276
 72
     1
 10
-31.22888203905708
 20
27.69634598565276
 11
-32.63160625680538
 21
27.69634598565276
 72
     1
 10
-32.63160625680538
 20
27.69634598565276
 11
-33.32819719487088
 21
28.48407777094647
 72
     1
 10
-33.32819719487088
 20
28.48407777094647
 11
-34.02478813293658
 21
27.69634598565276
 72
     1
 10
-34.02478813293658
 20
27.69634598565276
 11
-35.42751235068479
 21
27.69634598565276
 72
     1
 10
-35.42751235068479
 20
27.69634598565276
 11
-34.02955930374449
 21
29.27720497942775
 72
     1
 10
-34.02955930374449
 20
29.27720497942775
 11
-35.33208893451197
 21
30.75015550946395
 72
     1
 10
-35.33208893451197
 20
30.75015550946395
 11
-33.92936471676268
 21
30.75015550946395
 72
     1
 10
-33.92936471676268
 20
30.75015550946395
 11
-33.32819719487088
 21
30.07033218790846
 72
     1
 10
-33.32819719487088
 20
30.07033218790846
 11
-32.72702967297809
 21
30.75015550946395
 97
       12
330
156
330
1AF
330
1AE
330
1AD
330
1AC
330
157
330
158
330
154
330
155
330
1B2
330
1B1
330
1B0
 75
     1
 76
     0
 52
45.0
 41
0.1
 77
     0
 78
     1
 53
45.0
 43
0.0
 44
0.0
 45
-0.0707106781186548
 46
0.0707106781186548
 79
     0
 98
        1
 10
0.0
 20
0.0
  0
HATCH
  5
26F
330
71
100
AcDbEntity
  8
1
  6
Continuous
 62
     2
100
AcDbHatch
 10
0.0
 20
0.0
 30
0.0
210
0.0
220
0.0
230
1.0
  2
_USER
 70
     0
 71
     1
 91
        1
 92
        1
 93
       12
 72
     1
 10
-32.72702967297809
 20
30.75015550946395
 11
-31.32430545523087
 21
30.75015550946395
 72
     1
 10
-31.32430545523087
 20
30.75015550946395
 11
-32.62683508599739
 21
29.27720497942775
 72
     1
 10
-32.62683508599739
 20
29.27720497942775
 11
-31.22888203905708
 21
27.69634598565276
 72
     1
 10
-31.22888203905708
 20
27.69634598565276
 11
-32.63160625680538
 21
27.69634598565276
 72
     1
 10
-32.63160625680538
 20
27.69634598565276
 11
-33.32819719487088
 21
28.48407777094647
 72
     1
 10
-33.32819719487088
 20
28.48407777094647
 11
-34.02478813293658
 21
27.69634598565276
 72
     1
 10
-34.02478813293658
 20
27.69634598565276
 11
-35.42751235068479
 21
27.69634598565276
 72
     1
 10
-35.42751235068479
 20
27.69634598565276
 11
-34.02955930374449
 21
29.27720497942775
 72
     1
 10
-34.02955930374449
 20
29.27720497942775
 11
-35.33208893451197
 21
30.75015550946395
 72
     1
 10
-35.33208893451197
 20
30.75015550946395
 11
-33.92936471676268
 21
30.75015550946395
 72
     1
 10
-33.92936471676268
 20
30.75015550946395
 11
-33.32819719487088
 21
30.07033218790846
 72
     1
 10
-33.32819719487088
 20
30.07033218790846
 11
-32.72702967297809
 21
30.75015550946395
 97
       12
330
156
330
1AF
330
1AE
330
1AD
330
1AC
330
157
330
158
330
154
330
155
330
1B2
330
1B1
330
1B0
 75
     1
 76
     0
 52
45.0
 41
0.1
 77
     0
 78
     1
 53
45.0
 43
0.0
 44
0.0
 45
-0.0707106781186548
 46
0.0707106781186548
 79
     0
 98
        1
 10
0.0
 20
0.0
  0
HATCH
  5
270
330
71
100
AcDbEntity
  8
1
  6
Continuous
 62
     2
100
AcDbHatch
 10
0.0
 20
0.0
 30
0.0
210
0.0
220
0.0
230
1.0
  2
_USER
 70
     0
 71
     1
 91
        1
 92
        1
 93
        4
 72
     1
 10
-35.54679162090167
 20
30.75015550946395
 11
-35.54679162090167
 21
27.69634598565276
 72
     1
 10
-35.54679162090167
 20
27.69634598565276
 11
-36.78729603115457
 21
27.69634598565276
 72
     1
 10
-36.78729603115457
 20
27.69634598565276
 11
-36.78729603115457
 21
30.75015550946395
 72
     1
 10
-36.78729603115457
 20
30.75015550946395
 11
-35.54679162090167
 21
30.75015550946395
 97
        4
330
1AA
330
159
330
1A9
330
1AB
 75
     1
 76
     0
 52
45.0
 41
0.1
 77
     0
 78
     1
 53
45.0
 43
0.0
 44
0.0
 45
-0.0707106781186548
 46
0.0707106781186548
 79
     0
 98
        1
 10
0.0
 20
0.0
  0
HATCH
  5
271
330
71
100
AcDbEntity
  8
1
  6
Continuous
 62
     2
100
AcDbHatch
 10
0.0
 20
0.0
 30
0.0
210
0.0
220
0.0
230
1.0
  2
_USER
 70
     0
 71
     1
 91
        1
 92
        1
 93
        4
 72
     1
 10
-35.54679162090167
 20
30.75015550946395
 11
-35.54679162090167
 21
27.69634598565276
 72
     1
 10
-35.54679162090167
 20
27.69634598565276
 11
-36.78729603115457
 21
27.69634598565276
 72
     1
 10
-36.78729603115457
 20
27.69634598565276
 11
-36.78729603115457
 21
30.75015550946395
 72
     1
 10
-36.78729603115457
 20
30.75015550946395
 11
-35.54679162090167
 21
30.75015550946395
 97
        4
330
1AA
330
159
330
1A9
330
1AB
 75
     1
 76
     0
 52
45.0
 41
0.1
 77
     0
 78
     1
 53
45.0
 43
0.0
 44
0.0
 45
-0.0707106781186548
 46
0.0707106781186548
 79
     0
 98
        1
 10
0.0
 20
0.0
  0
HATCH
  5
272
330
71
100
AcDbEntity
  8
1
  6
Continuous
 62
     2
100
AcDbHatch
 10
0.0
 20
0.0
 30
0.0
210
0.0
220
0.0
230
1.0
  2
_USER
 70
     0
 71
     1
 91
        2
 92
        1
 93
        8
 72
     1
 10
-35.93723562443367
 20
24.33715550947846
 11
-37.17774003468759
 21
24.33715550947846
 72
     1
 10
-37.17774003468759
 20
24.33715550947846
 11
-37.38922008816337
 21
24.87811605369635
 72
     1
 10
-37.38922008816337
 20
24.87811605369635
 11
-38.52166166483718
 21
24.87811605369635
 72
     1
 10
-38.52166166483718
 20
24.87811605369635
 11
-38.73314171831299
 21
24.33715550947846
 72
     1
 10
-38.73314171831299
 20
24.33715550947846
 11
-39.97364612856597
 21
24.33715550947846
 72
     1
 10
-39.97364612856597
 20
24.33715550947846
 11
-38.57569308162667
 21
27.39096503328955
 72
     1
 10
-38.57569308162667
 20
27.39096503328955
 11
-37.33518867137397
 21
27.39096503328955
 72
     1
 10
-37.33518867137397
 20
27.39096503328955
 11
-35.93723562443367
 21
24.33715550947846
 97
        8
330
1A5
330
15F
330
1A4
330
1A7
330
15C
330
1A6
330
15D
330
15E
 92
       16
 93
        3
 72
     1
 10
-38.25560611369218
 20
25.55867931900295
 11
-37.65527563930968
 21
25.55867931900295
 72
     1
 10
-37.65527563930968
 20
25.55867931900295
 11
-37.95544087649978
 21
26.32649428498965
 72
     1
 10
-37.95544087649978
 20
26.32649428498965
 11
-38.25560611369218
 21
25.55867931900295
 97
        3
330
15B
330
15A
330
1A8
 75
     1
 76
     0
 52
45.0
 41
0.1
 77
     0
 78
     1
 53
45.0
 43
0.0
 44
0.0
 45
-0.0707106781186548
 46
0.0707106781186548
 79
     0
 98
        1
 10
0.0
 20
0.0
  0
HATCH
  5
273
330
71
100
AcDbEntity
  8
1
  6
Continuous
 62
     2
100
AcDbHatch
 10
0.0
 20
0.0
 30
0.0
210
0.0
220
0.0
230
1.0
  2
_USER
 70
     0
 71
     1
 91
        2
 92
        1
 93
        8
 72
     1
 10
-35.93723562443367
 20
24.33715550947846
 11
-37.17774003468759
 21
24.33715550947846
 72
     1
 10
-37.17774003468759
 20
24.33715550947846
 11
-37.38922008816337
 21
24.87811605369635
 72
     1
 10
-37.38922008816337
 20
24.87811605369635
 11
-38.52166166483718
 21
24.87811605369635
 72
     1
 10
-38.52166166483718
 20
24.87811605369635
 11
-38.73314171831299
 21
24.33715550947846
 72
     1
 10
-38.73314171831299
 20
24.33715550947846
 11
-39.97364612856597
 21
24.33715550947846
 72
     1
 10
-39.97364612856597
 20
24.33715550947846
 11
-38.57569308162667
 21
27.39096503328955
 72
     1
 10
-38.57569308162667
 20
27.39096503328955
 11
-37.33518867137397
 21
27.39096503328955
 72
     1
 10
-37.33518867137397
 20
27.39096503328955
 11
-35.93723562443367
 21
24.33715550947846
 97
        8
330
1A5
330
15F
330
1A4
330
1A7
330
15C
330
1A6
330
15D
330
15E
 92
       16
 93
        3
 72
     1
 10
-38.25560611369218
 20
25.55867931900295
 11
-37.65527563930968
 21
25.55867931900295
 72
     1
 10
-37.65527563930968
 20
25.55867931900295
 11
-37.95544087649978
 21
26.32649428498965
 72
     1
 10
-37.95544087649978
 20
26.32649428498965
 11
-38.25560611369218
 21
25.55867931900295
 97
        3
330
15B
330
15A
330
1A8
 75
     1
 76
     0
 52
45.0
 41
0.1
 77
     0
 78
     1
 53
45.0
 43
0.0
 44
0.0
 45
-0.0707106781186548
 46
0.0707106781186548
 79
     0
 98
        1
 10
0.0
 20
0.0
  0
HATCH
  5
274
330
71
100
AcDbEntity
  8
1
  6
Continuous
 62
     2
100
AcDbHatch
 10
0.0
 20
0.0
 30
0.0
210
0.0
220
0.0
230
1.0
  2
_USER
 70
     0
 71
     1
 91
        1
 92
        1
 93
        8
 72
     1
 10
-42.13115826774819
 20
27.39096503328955
 11
-42.13115826774819
 21
26.60569972716596
 72
     1
 10
-42.13115826774819
 20
26.60569972716596
 11
-41.32005923027359
 21
26.60569972716596
 72
     1
 10
-41.32005923027359
 20
26.60569972716596
 11
-41.32005923027359
 21
24.33715550947846
 72
     1
 10
-41.32005923027359
 20
24.33715550947846
 11
-40.12726652810707
 21
24.33715550947846
 72
     1
 10
-40.12726652810707
 20
24.33715550947846
 11
-40.12726652810707
 21
26.60569972716596
 72
     1
 10
-40.12726652810707
 20
26.60569972716596
 11
-39.31616749063457
 21
26.60569972716596
 72
     1
 10
-39.31616749063457
 20
26.60569972716596
 11
-39.31616749063457
 21
27.39096503328955
 72
     1
 10
-39.31616749063457
 20
27.39096503328955
 11
-42.13115826774819
 21
27.39096503328955
 97
        8
330
1A1
330
1A0
330
19F
330
160
330
161
330
1A3
330
162
330
1A2
 75
     1
 76
     0
 52
45.0
 41
0.1
 77
     0
 78
     1
 53
45.0
 43
0.0
 44
0.0
 45
-0.0707106781186548
 46
0.0707106781186548
 79
     0
 98
        1
 10
0.0
 20
0.0
  0
HATCH
  5
275
330
71
100
AcDbEntity
  8
1
  6
Continuous
 62
     2
100
AcDbHatch
 10
0.0
 20
0.0
 30
0.0
210
0.0
220
0.0
230
1.0
  2
_USER
 70
     0
 71
     1
 91
        1
 92
        1
 93
        8
 72
     1
 10
-42.13115826774819
 20
27.39096503328955
 11
-42.13115826774819
 21
26.60569972716596
 72
     1
 10
-42.13115826774819
 20
26.60569972716596
 11
-41.32005923027359
 21
26.60569972716596
 72
     1
 10
-41.32005923027359
 20
26.60569972716596
 11
-41.32005923027359
 21
24.33715550947846
 72
     1
 10
-41.32005923027359
 20
24.33715550947846
 11
-40.12726652810707
 21
24.33715550947846
 72
     1
 10
-40.12726652810707
 20
24.33715550947846
 11
-40.12726652810707
 21
26.60569972716596
 72
     1
 10
-40.12726652810707
 20
26.60569972716596
 11
-39.31616749063457
 21
26.60569972716596
 72
     1
 10
-39.31616749063457
 20
26.60569972716596
 11
-39.31616749063457
 21
27.39096503328955
 72
     1
 10
-39.31616749063457
 20
27.39096503328955
 11
-42.13115826774819
 21
27.39096503328955
 97
        8
330
1A1
330
1A0
330
19F
330
160
330
161
330
1A3
330
162
330
1A2
 75
     1
 76
     0
 52
45.0
 41
0.1
 77
     0
 78
     1
 53
45.0
 43
0.0
 44
0.0
 45
-0.0707106781186548
 46
0.0707106781186548
 79
     0
 98
        1
 10
0.0
 20
0.0
  0
HATCH
  5
276
330
71
100
AcDbEntity
  8
1
  6
Continuous
 62
     2
100
AcDbHatch
 10
0.0
 20
0.0
 30
0.0
210
0.0
220
0.0
230
1.0
  2
_USER
 70
     0
 71
     1
 91
        1
 92
        1
 93
       10
 72
     1
 10
-39.45915168400907
 20
30.75015550946395
 11
-40.65194438617559
 21
30.75015550946395
 72
     1
 10
-40.65194438617559
 20
30.75015550946395
 11
-40.65194438617559
 21
27.69634598565276
 72
     1
 10
-40.65194438617559
 20
27.69634598565276
 11
-39.45915168400907
 21
27.69634598565276
 72
     1
 10
-39.45915168400907
 20
27.69634598565276
 11
-39.45915168400907
 21
29.00512149585745
 72
     1
 10
-39.45915168400907
 20
29.00512149585745
 11
-38.21864727375507
 21
27.69634598565276
 72
     1
 10
-38.21864727375507
 20
27.69634598565276
 11
-37.02585457158847
 21
27.69634598565276
 72
     1
 10
-37.02585457158847
 20
27.69634598565276
 11
-37.02585457158847
 21
30.75015550946395
 72
     1
 10
-37.02585457158847
 20
30.75015550946395
 11
-38.21864727375507
 21
30.75015550946395
 72
     1
 10
-38.21864727375507
 20
30.75015550946395
 11
-38.21864727375507
 21
29.44137999925877
 72
     1
 10
-38.21864727375507
 20
29.44137999925877
 11
-39.45915168400907
 21
30.75015550946395
 97
       10
330
19B
330
165
330
166
330
167
330
168
330
19E
330
163
330
19D
330
19C
330
164
 75
     1
 76
     0
 52
45.0
 41
0.1
 77
     0
 78
     1
 53
45.0
 43
0.0
 44
0.0
 45
-0.0707106781186548
 46
0.0707106781186548
 79
     0
 98
        1
 10
0.0
 20
0.0
  0
HATCH
  5
277
330
71
100
AcDbEntity
  8
1
  6
Continuous
 62
     2
100
AcDbHatch
 10
0.0
 20
0.0
 30
0.0
210
0.0
220
0.0
230
1.0
  2
_USER
 70
     0
 71
     1
 91
        1
 92
        1
 93
       10
 72
     1
 10
-39.45915168400907
 20
30.75015550946395
 11
-40.65194438617559
 21
30.75015550946395
 72
     1
 10
-40.65194438617559
 20
30.75015550946395
 11
-40.65194438617559
 21
27.69634598565276
 72
     1
 10
-40.65194438617559
 20
27.69634598565276
 11
-39.45915168400907
 21
27.69634598565276
 72
     1
 10
-39.45915168400907
 20
27.69634598565276
 11
-39.45915168400907
 21
29.00512149585745
 72
     1
 10
-39.45915168400907
 20
29.00512149585745
 11
-38.21864727375507
 21
27.69634598565276
 72
     1
 10
-38.21864727375507
 20
27.69634598565276
 11
-37.02585457158847
 21
27.69634598565276
 72
     1
 10
-37.02585457158847
 20
27.69634598565276
 11
-37.02585457158847
 21
30.75015550946395
 72
     1
 10
-37.02585457158847
 20
30.75015550946395
 11
-38.21864727375507
 21
30.75015550946395
 72
     1
 10
-38.21864727375507
 20
30.75015550946395
 11
-38.21864727375507
 21
29.44137999925877
 72
     1
 10
-38.21864727375507
 20
29.44137999925877
 11
-39.45915168400907
 21
30.75015550946395
 97
       10
330
19B
330
165
330
166
330
167
330
168
330
19E
330
163
330
19D
330
19C
330
164
 75
     1
 76
     0
 52
45.0
 41
0.1
 77
     0
 78
     1
 53
45.0
 43
0.0
 44
0.0
 45
-0.0707106781186548
 46
0.0707106781186548
 79
     0
 98
        1
 10
0.0
 20
0.0
  0
HATCH
  5
278
330
71
100
AcDbEntity
  8
1
  6
Continuous
 62
     2
100
AcDbHatch
 10
0.0
 20
0.0
 30
0.0
210
0.0
220
0.0
230
1.0
  2
_USER
 70
     0
 71
     1
 91
        1
 92
        1
 93
       10
 72
     1
 10
-44.70759050442769
 20
27.39096503328955
 11
-45.90038320659528
 21
27.39096503328955
 72
     1
 10
-45.90038320659528
 20
27.39096503328955
 11
-45.90038320659528
 21
24.33715550947846
 72
     1
 10
-45.90038320659528
 20
24.33715550947846
 11
-44.70759050442769
 21
24.33715550947846
 72
     1
 10
-44.70759050442769
 20
24.33715550947846
 11
-44.70759050442769
 21
25.64593101968305
 72
     1
 10
-44.70759050442769
 20
25.64593101968305
 11
-43.46708609417479
 21
24.33715550947846
 72
     1
 10
-43.46708609417479
 20
24.33715550947846
 11
-42.27429339200839
 21
24.33715550947846
 72
     1
 10
-42.27429339200839
 20
24.33715550947846
 11
-42.27429339200839
 21
27.39096503328955
 72
     1
 10
-42.27429339200839
 20
27.39096503328955
 11
-43.46708609417479
 21
27.39096503328955
 72
     1
 10
-43.46708609417479
 20
27.39096503328955
 11
-43.46708609417479
 21
26.08218952308445
 72
     1
 10
-43.46708609417479
 20
26.08218952308445
 11
-44.70759050442769
 21
27.39096503328955
 97
       10
330
16A
330
16B
330
16C
330
198
330
16D
330
16E
330
197
330
19A
330
199
330
169
 75
     1
 76
     0
 52
45.0
 41
0.1
 77
     0
 78
     1
 53
45.0
 43
0.0
 44
0.0
 45
-0.0707106781186548
 46
0.0707106781186548
 79
     0
 98
        1
 10
0.0
 20
0.0
  0
HATCH
  5
279
330
71
100
AcDbEntity
  8
1
  6
Continuous
 62
     2
100
AcDbHatch
 10
0.0
 20
0.0
 30
0.0
210
0.0
220
0.0
230
1.0
  2
_USER
 70
     0
 71
     1
 91
        1
 92
        1
 93
       10
 72
     1
 10
-44.70759050442769
 20
27.39096503328955
 11
-45.90038320659528
 21
27.39096503328955
 72
     1
 10
-45.90038320659528
 20
27.39096503328955
 11
-45.90038320659528
 21
24.33715550947846
 72
     1
 10
-45.90038320659528
 20
24.33715550947846
 11
-44.70759050442769
 21
24.33715550947846
 72
     1
 10
-44.70759050442769
 20
24.33715550947846
 11
-44.70759050442769
 21
25.64593101968305
 72
     1
 10
-44.70759050442769
 20
25.64593101968305
 11
-43.46708609417479
 21
24.33715550947846
 72
     1
 10
-43.46708609417479
 20
24.33715550947846
 11
-42.27429339200839
 21
24.33715550947846
 72
     1
 10
-42.27429339200839
 20
24.33715550947846
 11
-42.27429339200839
 21
27.39096503328955
 72
     1
 10
-42.27429339200839
 20
27.39096503328955
 11
-43.46708609417479
 21
27.39096503328955
 72
     1
 10
-43.46708609417479
 20
27.39096503328955
 11
-43.46708609417479
 21
26.08218952308445
 72
     1
 10
-43.46708609417479
 20
26.08218952308445
 11
-44.70759050442769
 21
27.39096503328955
 97
       10
330
16A
330
16B
330
16C
330
198
330
16D
330
16E
330
197
330
19A
330
199
330
169
 75
     1
 76
     0
 52
45.0
 41
0.1
 77
     0
 78
     1
 53
45.0
 43
0.0
 44
0.0
 45
-0.0707106781186548
 46
0.0707106781186548
 79
     0
 98
        1
 10
0.0
 20
0.0
  0
HATCH
  5
27A
330
71
100
AcDbEntity
  8
1
  6
Continuous
 62
     2
100
AcDbHatch
 10
0.0
 20
0.0
 30
0.0
210
0.0
220
0.0
230
1.0
  2
_USER
 70
     0
 71
     1
 91
        1
 92
        1
 93
       12
 72
     1
 10
-45.70938544336309
 20
30.75015550946395
 11
-45.70938544336309
 21
27.69634598565276
 72
     1
 10
-45.70938544336309
 20
27.69634598565276
 11
-46.90217814552949
 21
27.69634598565276
 72
     1
 10
-46.90217814552949
 20
27.69634598565276
 11
-46.90217814552949
 21
28.83061809449657
 72
     1
 10
-46.90217814552949
 20
28.83061809449657
 11
-47.95183572343697
 21
28.83061809449657
 72
     1
 10
-47.95183572343697
 20
28.83061809449657
 11
-47.95183572343697
 21
27.69634598565276
 72
     1
 10
-47.95183572343697
 20
27.69634598565276
 11
-49.14462842560357
 21
27.69634598565276
 72
     1
 10
-49.14462842560357
 20
27.69634598565276
 11
-49.14462842560357
 21
30.75015550946395
 72
     1
 10
-49.14462842560357
 20
30.75015550946395
 11
-47.95183572343697
 21
30.75015550946395
 72
     1
 10
-47.95183572343697
 20
30.75015550946395
 11
-47.95183572343697
 21
29.68132217612936
 72
     1
 10
-47.95183572343697
 20
29.68132217612936
 11
-46.90217814552949
 21
29.68132217612936
 72
     1
 10
-46.90217814552949
 20
29.68132217612936
 11
-46.90217814552949
 21
30.75015550946395
 72
     1
 10
-46.90217814552949
 20
30.75015550946395
 11
-45.70938544336309
 21
30.75015550946395
 97
       12
330
192
330
191
330
190
330
178
330
179
330
18F
330
17A
330
18E
330
18D
330
18C
330
176
330
177
 75
     1
 76
     0
 52
45.0
 41
0.1
 77
     0
 78
     1
 53
45.0
 43
0.0
 44
0.0
 45
-0.0707106781186548
 46
0.0707106781186548
 79
     0
 98
        1
 10
0.0
 20
0.0
  0
HATCH
  5
27B
330
71
100
AcDbEntity
  8
1
  6
Continuous
 62
     2
100
AcDbHatch
 10
0.0
 20
0.0
 30
0.0
210
0.0
220
0.0
230
1.0
  2
_USER
 70
     0
 71
     1
 91
        1
 92
        1
 93
       12
 72
     1
 10
-45.70938544336309
 20
30.75015550946395
 11
-45.70938544336309
 21
27.69634598565276
 72
     1
 10
-45.70938544336309
 20
27.69634598565276
 11
-46.90217814552949
 21
27.69634598565276
 72
     1
 10
-46.90217814552949
 20
27.69634598565276
 11
-46.90217814552949
 21
28.83061809449657
 72
     1
 10
-46.90217814552949
 20
28.83061809449657
 11
-47.95183572343697
 21
28.83061809449657
 72
     1
 10
-47.95183572343697
 20
28.83061809449657
 11
-47.95183572343697
 21
27.69634598565276
 72
     1
 10
-47.95183572343697
 20
27.69634598565276
 11
-49.14462842560357
 21
27.69634598565276
 72
     1
 10
-49.14462842560357
 20
27.69634598565276
 11
-49.14462842560357
 21
30.75015550946395
 72
     1
 10
-49.14462842560357
 20
30.75015550946395
 11
-47.95183572343697
 21
30.75015550946395
 72
     1
 10
-47.95183572343697
 20
30.75015550946395
 11
-47.95183572343697
 21
29.68132217612936
 72
     1
 10
-47.95183572343697
 20
29.68132217612936
 11
-46.90217814552949
 21
29.68132217612936
 72
     1
 10
-46.90217814552949
 20
29.68132217612936
 11
-46.90217814552949
 21
30.75015550946395
 72
     1
 10
-46.90217814552949
 20
30.75015550946395
 11
-45.70938544336309
 21
30.75015550946395
 97
       12
330
192
330
191
330
190
330
178
330
179
330
18F
330
17A
330
18E
330
18D
330
18C
330
176
330
177
 75
     1
 76
     0
 52
45.0
 41
0.1
 77
     0
 78
     1
 53
45.0
 43
0.0
 44
0.0
 45
-0.0707106781186548
 46
0.0707106781186548
 79
     0
 98
        1
 10
0.0
 20
0.0
  0
ENDBLK
  5
73
330
71
100
AcDbEntity
  8
0
100
AcDbBlockEnd
  0
BLOCK
  5
75
330
74
100
AcDbEntity
  8
0
100
AcDbBlockBegin
  2
_punkt
 70
     0
 10
66.16791837042582
 20
17.04365550946216
 30
0.0
  3
_punkt
  1

  0
LINE
  5
27C
330
74
100
AcDbEntity
  8
1
  6
Continuous
 62
     2
100
AcDbLine
 10
66.16791837042582
 20
17.04365550946216
 30
0.0
 11
66.16791837042582
 21
12.04365550946204
 31
0.0
  0
LINE
  5
27D
330
74
100
AcDbEntity
  8
1
  6
Continuous
 62
     2
100
AcDbLine
 10
66.16791837042582
 20
17.04365550946216
 30
0.0
 11
71.16791837042481
 21
17.04365550946216
 31
0.0
  0
ENDBLK
  5
76
330
74
100
AcDbEntity
  8
0
100
AcDbBlockEnd
  0
BLOCK
  5
7A
330
77
100
AcDbEntity
  8
0
100
AcDbBlockBegin
  2
A4I_CS
 70
     0
 10
66.16791837042582
 20
12.04365550946204
 30
0.0
  3
A4I_CS
  1

  0
INSERT
  5
78
330
77
100
AcDbEntity
  8
1
100
AcDbBlockReference
  2
_rahmen
 10
66.16791837042582
 20
12.04365550946204
 30
0.0
  0
INSERT
  5
79
330
77
100
AcDbEntity
  8
1
100
AcDbBlockReference
  2
_punkt
 10
66.16791837042582
 20
17.04365550946216
 30
0.0
  0
ENDBLK
  5
7B
330
77
100
AcDbEntity
  8
0
100
AcDbBlockEnd
  0
BLOCK
  5
84
330
7C
100
AcDbEntity
  8
0
100
AcDbBlockBegin
  2
1
 70
     0
 10
0.0
 20
0.0
 30
0.0
  3
1
  1

  0
INSERT
  5
7D
330
7C
100
AcDbEntity
  8
0
100
AcDbBlockReference
  2
Allg1
 10
-3.00000000000388
 20
96.9999999999261
 30
0.0
 41
2.0
 42
2.0
 43
2.0
  0
INSERT
  5
7E
330
7C
100
AcDbEntity
  8
0
100
AcDbBlockReference
  2
Vordans1
 10
-116.0
 20
161.99999999992
 30
0.0
 41
2.0
 42
2.0
 43
2.0
  0
INSERT
  5
7F
330
7C
100
AcDbEntity
  8
0
100
AcDbBlockReference
  2
Drfsicht1
 10
-115.9999999999999
 20
104.2898099363859
 30
0.0
 41
2.0
 42
2.0
 43
2.0
  0
INSERT
  5
80
330
7C
100
AcDbEntity
  8
0
100
AcDbBlockReference
  2
SA_Rechts1
 10
-176.0053679118416
 20
161.99999999992
 30
0.0
 41
2.0
 42
2.0
 43
2.0
  0
INSERT
  5
81
330
7C
100
AcDbEntity
  8
0
100
AcDbBlockReference
  2
SA_Links1
 10
-55.99463208815852
 20
161.99999999992
 30
0.0
 41
2.0
 42
2.0
 43
2.0
  0
INSERT
  5
82
330
7C
100
AcDbEntity
  8
0
100
AcDbBlockReference
  2
Rckans1
 10
4.01073582366321
 20
161.99999999992
 30
0.0
 41
2.0
 42
2.0
 43
2.0
  0
INSERT
  5
83
330
7C
100
AcDbEntity
  8
0
100
AcDbBlockReference
  2
A4I_CS
 10
66.16791837042582
 20
12.04365550946204
 30
0.0
  0
ENDBLK
  5
85
330
7C
100
AcDbEntity
  8
0
100
AcDbBlockEnd
  0
BLOCK
  5
D0
330
C9
100
AcDbEntity
  8
0
100
AcDbBlockBegin
  2
*D17
 70
     1
 10
0.0
 20
0.0
 30
0.0
  3
*D17
  1

  0
LINE
  5
CA
330
C9
100
AcDbEntity
  8
1
  6
Continuous
 62
     2
100
AcDbLine
 10
-75.99876393782223
 20
77.84294491392409
 30
0.0
 11
-76.00268357948624
 21
87.84294414574507
 31
0.0
  0
LINE
  5
CB
330
C9
100
AcDbEntity
  8
1
  6
Continuous
 62
     2
100
AcDbLine
 10
-70.998764321912
 20
77.84490473475608
 30
0.0
 11
-76.74876388020877
 21
77.84265094079929
 31
0.0
  0
LINE
  5
CC
330
C9
100
AcDbEntity
  8
1
  6
Continuous
 62
     2
100
AcDbLine
 10
-69.00268411721191
 20
87.84568789490987
 30
0.0
 11
-76.75268352187278
 21
87.84265017262027
 31
0.0
  0
SOLID
  5
CD
330
C9
100
AcDbEntity
  8
1
 62
     2
100
AcDbTrace
 10
-76.22984172819314
 20
79.5928544741351
 30
0.0
 11
-75.76905802203372
 21
79.59303508485024
 31
0.0
 12
-75.99876393782223
 22
77.84294491392409
 32
0.0
 13
-75.99876393782223
 23
77.84294491392409
 33
0.0
  0
SOLID
  5
CE
330
C9
100
AcDbEntity
  8
1
 62
     2
100
AcDbTrace
 10
-75.77160578911534
 20
86.09303458553407
 30
0.0
 11
-76.23238949527476
 21
86.09285397481892
 31
0.0
 12
-76.00268357948624
 22
87.84294414574507
 32
0.0
 13
-76.00268357948624
 23
87.84294414574507
 33
0.0
  0
MTEXT
  5
CF
330
C9
100
AcDbEntity
  8
1
 62
     3
100
AcDbMText
 10
-76.75026973335837
 20
81.6844639507984
 30
0.0
 40
1.75
 41
0.0
 71
     7
 72
     1
  1
10
  7
CONVERTER_11
 11
-0.0003919641664009188
 21
0.9999999231820432
 31
0.0
 73
     1
 44
0.60024009603842
  0
ENDBLK
  5
D1
330
C9
100
AcDbEntity
  8
0
100
AcDbBlockEnd
  0
BLOCK
  5
DB
330
D4
100
AcDbEntity
  8
0
100
AcDbBlockBegin
  2
*D18
 70
     1
 10
0.0
 20
0.0
 30
0.0
  3
*D18
  1

  0
LINE
  5
D5
330
D4
100
AcDbEntity
  8
1
  6
Continuous
 62
     2
100
AcDbLine
 10
-40.4220670168865
 20
74.15688941703685
 30
0.0
 11
-40.4274369259678
 21
87.85688836871529
 31
0.0
  0
LINE
  5
D6
330
D4
100
AcDbEntity
  8
1
  6
Continuous
 62
     2
100
AcDbLine
 10
-51.89731552220768
 20
74.1523915304767
 30
0.0
 11
-39.67206707449996
 21
74.15718339016165
 31
0.0
  0
LINE
  5
D7
330
D4
100
AcDbEntity
  8
1
  6
Continuous
 62
     2
100
AcDbLine
 10
-47.00268580720697
 20
87.85431110657069
 30
0.0
 11
-39.67743698358126
 21
87.85718234184009
 31
0.0
  0
SOLID
  5
D8
330
D4
100
AcDbEntity
  8
1
 62
     2
100
AcDbTrace
 10
-40.65314480725742
 20
75.90679897724785
 30
0.0
 11
-40.192361101098
 21
75.90697958796301
 31
0.0
 12
-40.4220670168865
 22
74.15688941703685
 32
0.0
 13
-40.4220670168865
 23
74.15688941703685
 33
0.0
  0
SOLID
  5
D9
330
D4
100
AcDbEntity
  8
1
 62
     2
100
AcDbTrace
 10
-40.19635913559689
 20
86.1069788085043
 30
0.0
 11
-40.65714284175631
 21
86.10679819778915
 31
0.0
 12
-40.4274369259678
 22
87.85688836871529
 32
0.0
 13
-40.4274369259678
 23
87.85688836871529
 33
0.0
  0
MTEXT
  5
DA
330
D4
100
AcDbEntity
  8
1
 62
     3
100
AcDbMText
 10
-41.34908371927977
 20
79.30182702768256
 30
0.0
 40
1.75
 41
0.0
 71
     7
 72
     1
  1
13,7
  7
CONVERTER_11
 11
-0.0003919641664009188
 21
0.9999999231820432
 31
0.0
 73
     1
 44
0.60024009603842
  0
ENDBLK
  5
DC
330
D4
100
AcDbEntity
  8
0
100
AcDbBlockEnd
  0
BLOCK
  5
E6
330
DF
100
AcDbEntity
  8
0
100
AcDbBlockBegin
  2
*D19
 70
     1
 10
0.0
 20
0.0
 30
0.0
  3
*D19
  1

  0
LINE
  5
E0
330
DF
100
AcDbEntity
  8
1
  6
Continuous
 62
     2
100
AcDbLine
 10
-70.99475022860756
 20
67.60393543147903
 30
0.0
 11
-44.99475222587442
 21
67.61412649980544
 31
0.0
  0
LINE
  5
E1
330
DF
100
AcDbEntity
  8
1
  6
Continuous
 62
     2
100
AcDbLine
 10
-70.998764321912
 20
77.84490473475608
 30
0.0
 11
-70.99445625548276
 21
66.85393548909249
 31
0.0
  0
LINE
  5
E2
330
DF
100
AcDbEntity
  8
1
  6
Continuous
 62
     2
100
AcDbLine
 10
-44.99876631917887
 20
77.85509580308249
 30
0.0
 11
-44.99445825274962
 21
66.8641265574189
 31
0.0
  0
SOLID
  5
E3
330
DF
100
AcDbEntity
  8
1
 62
     2
100
AcDbTrace
 10
-69.24484066839656
 20
67.83501322184993
 30
0.0
 11
-69.24466005768141
 21
67.37422951569052
 31
0.0
 12
-70.99475022860756
 22
67.60393543147903
 32
0.0
 13
-70.99475022860756
 23
67.60393543147903
 33
0.0
  0
SOLID
  5
E4
330
DF
100
AcDbEntity
  8
1
 62
     2
100
AcDbTrace
 10
-46.74466178608542
 20
67.38304870943453
 30
0.0
 11
-46.74484239680057
 21
67.84383241559395
 31
0.0
 12
-44.99475222587442
 22
67.61412649980544
 32
0.0
 13
-44.99475222587442
 23
67.61412649980544
 33
0.0
  0
MTEXT
  5
E5
330
DF
100
AcDbEntity
  8
1
 62
     3
100
AcDbMText
 10
-58.38847935713923
 20
68.35887669592562
 30
0.0
 40
1.75
 41
0.0
 71
     7
 72
     1
  1
26
  7
CONVERTER_11
 11
0.9999999231820432
 21
0.0003919641664002703
 31
0.0
 73
     1
 44
0.60024009603842
  0
ENDBLK
  5
E7
330
DF
100
AcDbEntity
  8
0
100
AcDbBlockEnd
  0
ENDSEC
  0
SECTION
  2
ENTITIES
  0
INSERT
  5
86
330
1F
100
AcDbEntity
  8
1
100
AcDbBlockReference
  2
1
 10
0.0
 20
0.0
 30
0.0
  0
ENDSEC
  0
SECTION
  2
OBJECTS
  0
DICTIONARY
  5
C
330
0
100
AcDbDictionary
281
     1
  3
ACAD_GROUP
350
D
  3
ACAD_LAYOUT
350
1A
  3
ACAD_MATERIAL
350
3B
  3
ACAD_MLEADERSTYLE
350
2A5
  3
ACAD_MLINESTYLE
350
17
  3
ACAD_PLOTSETTINGS
350
19
  3
ACAD_PLOTSTYLENAME
350
E
  3
ACAD_TABLESTYLE
350
2A4
  3
ACAD_VISUALSTYLE
350
2A
  0
DICTIONARY
  5
D
102
{ACAD_REACTORS
330
C
102
}
330
C
100
AcDbDictionary
281
     1
  0
DICTIONARY
  5
1A
102
{ACAD_REACTORS
330
C
102
}
330
C
100
AcDbDictionary
281
     1
  3
Layout1
350
1E
  3
Layout2
350
26
  3
Model
350
22
  0
DICTIONARY
  5
3B
102
{ACAD_REACTORS
330
C
102
}
330
C
100
AcDbDictionary
281
     1
  3
ByBlock
350
3D
  3
ByLayer
350
3C
  3
Global
350
3E
  0
DICTIONARY
  5
2A5
102
{ACAD_REACTORS
330
C
102
}
330
C
100
AcDbDictionary
281
     1
  0
DICTIONARY
  5
17
102
{ACAD_REACTORS
330
C
102
}
330
C
100
AcDbDictionary
281
     1
  3
Standard
350
18
  0
DICTIONARY
  5
19
102
{ACAD_REACTORS
330
C
102
}
330
C
100
AcDbDictionary
281
     1
  0
ACDBDICTIONARYWDFLT
  5
E
102
{ACAD_REACTORS
330
C
102
}
330
C
100
AcDbDictionary
281
     1
  3
Normal
350
F
100
AcDbDictionaryWithDefault
340
F
  0
DICTIONARY
  5
2A4
102
{ACAD_REACTORS
330
C
102
}
330
C
100
AcDbDictionary
281
     1
  0
DICTIONARY
  5
2A
102
{ACAD_REACTORS
330
C
102
}
330
C
100
AcDbDictionary
281
     1
  3
2dWireframe
350
2F
  3
3D Hidden
350
31
  3
3dWireframe
350
30
  3
Basic
350
32
  3
Brighten
350
36
  3
ColorChange
350
3A
  3
Conceptual
350
34
  3
Dim
350
35
  3
Facepattern
350
39
  3
Flat
350
2B
  3
FlatWithEdges
350
2C
  3
Gouraud
350
2D
  3
GouraudWithEdges
350
2E
  3
Linepattern
350
38
  3
Realistic
350
33
  3
Thicken
350
37
  0
LAYOUT
  5
1E
102
{ACAD_REACTORS
330
1A
102
}
330
1A
100
AcDbPlotSettings
  1

  2
none_device
  4

  6

 40
0.0
 41
0.0
 42
0.0
 43
0.0
 44
0.0
 45
0.0
 46
0.0
 47
0.0
 48
0.0
 49
0.0
140
0.0
141
0.0
142
1.0
143
1.0
 70
   688
 72
     0
 73
     0
 74
     5
  7

 75
    16
 76
     0
 77
     2
 78
   300
147
1.0
148
0.0
149
0.0
100
AcDbLayout
  1
Layout1
 70
     1
 71
     1
 10
0.0
 20
0.0
 11
12.0
 21
9.0
 12
0.0
 22
0.0
 32
0.0
 14
1.00000000000000E+20
 24
1.00000000000000E+20
 34
1.00000000000000E+20
 15
-1.00000000000000E+20
 25
-1.00000000000000E+20
 35
-1.00000000000000E+20
146
0.0
 13
0.0
 23
0.0
 33
0.0
 16
1.0
 26
0.0
 36
0.0
 17
0.0
 27
1.0
 37
0.0
 76
     0
330
1B
  0
LAYOUT
  5
26
102
{ACAD_REACTORS
330
1A
102
}
330
1A
100
AcDbPlotSettings
  1

  2
none_device
  4

  6

 40
0.0
 41
0.0
 42
0.0
 43
0.0
 44
0.0
 45
0.0
 46
0.0
 47
0.0
 48
0.0
 49
0.0
140
0.0
141
0.0
142
1.0
143
1.0
 70
   688
 72
     0
 73
     0
 74
     5
  7

 75
    16
 76
     0
 77
     2
 78
   300
147
1.0
148
0.0
149
0.0
100
AcDbLayout
  1
Layout2
 70
     1
 71
     2
 10
0.0
 20
0.0
 11
0.0
 21
0.0
 12
0.0
 22
0.0
 32
0.0
 14
0.0
 24
0.0
 34
0.0
 15
0.0
 25
0.0
 35
0.0
146
0.0
 13
0.0
 23
0.0
 33
0.0
 16
1.0
 26
0.0
 36
0.0
 17
0.0
 27
1.0
 37
0.0
 76
     0
330
23
  0
LAYOUT
  5
22
102
{ACAD_REACTORS
330
1A
102
}
330
1A
100
AcDbPlotSettings
  1

  2
none_device
  4

  6

 40
0.0
 41
0.0
 42
0.0
 43
0.0
 44
0.0
 45
0.0
 46
0.0
 47
0.0
 48
0.0
 49
0.0
140
0.0
141
0.0
142
1.0
143
1.0
 70
  1712
 72
     0
 73
     0
 74
     0
  7

 75
     0
 76
     0
 77
     2
 78
   300
147
1.0
148
0.0
149
0.0
100
AcDbLayout
  1
Model
 70
     1
 71
     0
 10
0.0
 20
0.0
 11
12.0
 21
9.0
 12
0.0
 22
0.0
 32
0.0
 14
-225.8320816295733
 24
12.04365550946204
 34
0.0
 15
71.16791837042481
 25
222.0436555094622
 35
0.0
146
0.0
 13
0.0
 23
0.0
 33
0.0
 16
1.0
 26
0.0
 36
0.0
 17
0.0
 27
1.0
 37
0.0
 76
     0
330
1F
331
29
  0
MATERIAL
  5
3D
102
{ACAD_REACTORS
330
3B
102
}
102
{ACAD_XDICTIONARY
360
2A0
102
}
330
3B
100
AcDbMaterial
  1
ByBlock
  0
MATERIAL
  5
3C
102
{ACAD_REACTORS
330
3B
102
}
102
{ACAD_XDICTIONARY
360
29E
102
}
330
3B
100
AcDbMaterial
  1
ByLayer
  0
MATERIAL
  5
3E
102
{ACAD_REACTORS
330
3B
102
}
102
{ACAD_XDICTIONARY
360
2A2
102
}
330
3B
100
AcDbMaterial
  1
Global
  0
MLINESTYLE
  5
18
102
{ACAD_REACTORS
330
17
102
}
330
17
100
AcDbMlineStyle
  2
Standard
 70
     0
  3

 62
   256
 51
90.0
 52
90.0
 71
     2
 49
0.5
 62
   256
  6
BYLAYER
 49
-0.5
 62
   256
  6
BYLAYER
  0
ACDBPLACEHOLDER
  5
F
102
{ACAD_REACTORS
330
E
102
}
330
E
  0
VISUALSTYLE
  5
2F
102
{ACAD_REACTORS
330
2A
102
}
102
{ACAD_XDICTIONARY
360
286
102
}
330
2A
100
AcDbVisualStyle
  2
2dWireframe
 70
     4
 71
     0
 72
     2
 73
     0
 90
        0
 40
-0.6
 41
-30.0
 62
     5
 63
     7
421
 16777215
 74
     1
 91
        4
 64
     7
 65
   257
 75
     1
175
     1
 42
1.0
 92
        0
 66
   257
 43
1.0
 76
     1
 77
     6
 78
     2
 67
     7
 79
     5
170
     0
171
     0
290
     0
174
     0
 93
        1
 44
0.0
173
     0
291
     0
 45
0.0
1001
ACAD
1000
AcDbSavedByObjectVersion
1070
     0
  0
VISUALSTYLE
  5
31
102
{ACAD_REACTORS
330
2A
102
}
102
{ACAD_XDICTIONARY
360
28A
102
}
330
2A
100
AcDbVisualStyle
  2
3D Hidden
 70
     6
 71
     1
 72
     2
 73
     2
 90
        0
 40
-0.6
 41
-30.0
 62
     5
 63
     7
421
 16777215
 74
     2
 91
        2
 64
     7
 65
   257
 75
     2
175
     1
 42
40.0
 92
        0
 66
   257
 43
1.0
 76
     1
 77
     6
 78
     2
 67
     7
 79
     3
170
     0
171
     0
290
     0
174
     0
 93
        1
 44
0.0
173
     0
291
     0
 45
0.0
1001
ACAD
1000
AcDbSavedByObjectVersion
1070
     0
  0
VISUALSTYLE
  5
30
102
{ACAD_REACTORS
330
2A
102
}
102
{ACAD_XDICTIONARY
360
288
102
}
330
2A
100
AcDbVisualStyle
  2
3dWireframe
 70
     5
 71
     0
 72
     2
 73
     0
 90
        0
 40
-0.6
 41
-30.0
 62
     5
 63
     7
421
 16777215
 74
     1
 91
        4
 64
     7
 65
   257
 75
     1
175
     1
 42
1.0
 92
        0
 66
   257
 43
1.0
 76
     1
 77
     6
 78
     2
 67
     7
 79
     5
170
     0
171
     0
290
     0
174
     0
 93
        1
 44
0.0
173
     0
291
     0
 45
0.0
1001
ACAD
1000
AcDbSavedByObjectVersion
1070
     0
  0
VISUALSTYLE
  5
32
102
{ACAD_REACTORS
330
2A
102
}
102
{ACAD_XDICTIONARY
360
28C
102
}
330
2A
100
AcDbVisualStyle
  2
Basic
 70
     7
 71
     1
 72
     0
 73
     1
 90
        0
 40
-0.6
 41
-30.0
 62
     5
 63
     7
421
 16777215
 74
     0
 91
        4
 64
     7
 65
   257
 75
     1
175
     1
 42
1.0
 92
        8
 66
     7
 43
1.0
 76
     1
 77
     6
 78
     2
 67
     7
 79
     5
170
     0
171
     0
290
     0
174
     0
 93
        1
 44
0.0
173
     0
291
     1
 45
0.0
1001
ACAD
1000
AcDbSavedByObjectVersion
1070
     0
  0
VISUALSTYLE
  5
36
102
{ACAD_REACTORS
330
2A
102
}
102
{ACAD_XDICTIONARY
360
294
102
}
330
2A
100
AcDbVisualStyle
  2
Brighten
 70
    12
 71
     2
 72
     2
 73
     0
 90
        0
 40
-0.6
 41
-30.0
 62
     5
 63
     7
421
 16777215
 74
     1
 91
        4
 64
     7
 65
   257
 75
     1
175
     1
 42
1.0
 92
        8
 66
     7
 43
1.0
 76
     1
 77
     6
 78
     2
 67
     7
 79
     5
170
     0
171
     0
290
     0
174
     0
 93
        1
 44
50.0
173
     0
291
     1
 45
0.0
1001
ACAD
1000
AcDbSavedByObjectVersion
1070
     0
  0
VISUALSTYLE
  5
3A
102
{ACAD_REACTORS
330
2A
102
}
102
{ACAD_XDICTIONARY
360
29C
102
}
330
2A
100
AcDbVisualStyle
  2
ColorChange
 70
    16
 71
     2
 72
     2
 73
     3
 90
        0
 40
-0.6
 41
-30.0
 62
     5
 63
     8
421
  8421504
 74
     1
 91
        4
 64
     7
 65
   257
 75
     1
175
     1
 42
1.0
 92
        8
 66
     8
424
  8421504
 43
1.0
 76
     1
 77
     6
 78
     2
 67
     7
 79
     5
170
     0
171
     0
290
     0
174
     0
 93
        1
 44
0.0
173
     0
291
     1
 45
0.0
1001
ACAD
1000
AcDbSavedByObjectVersion
1070
     0
  0
VISUALSTYLE
  5
34
102
{ACAD_REACTORS
330
2A
102
}
102
{ACAD_XDICTIONARY
360
290
102
}
330
2A
100
AcDbVisualStyle
  2
Conceptual
 70
     9
 71
     3
 72
     2
 73
     0
 90
        0
 40
-0.6
 41
-30.0
 62
     5
 63
     7
421
 16777215
 74
     2
 91
        2
 64
     7
 65
   257
 75
     1
175
     1
 42
40.0
 92
        8
 66
     7
 43
1.0
 76
     1
 77
     6
 78
     2
 67
     7
 79
     3
170
     0
171
     0
290
     0
174
     0
 93
        1
 44
0.0
173
     0
291
     0
 45
0.0
1001
ACAD
1000
AcDbSavedByObjectVersion
1070
     0
  0
VISUALSTYLE
  5
35
102
{ACAD_REACTORS
330
2A
102
}
102
{ACAD_XDICTIONARY
360
292
102
}
330
2A
100
AcDbVisualStyle
  2
Dim
 70
    11
 71
     2
 72
     2
 73
     0
 90
        0
 40
-0.6
 41
-30.0
 62
     5
 63
     7
421
 16777215
 74
     1
 91
        4
 64
     7
 65
   257
 75
     1
175
     1
 42
1.0
 92
        8
 66
     7
 43
1.0
 76
     1
 77
     6
 78
     2
 67
     7
 79
     5
170
     0
171
     0
290
     0
174
     0
 93
        1
 44
-50.0
173
     0
291
     1
 45
0.0
1001
ACAD
1000
AcDbSavedByObjectVersion
1070
     0
  0
VISUALSTYLE
  5
39
102
{ACAD_REACTORS
330
2A
102
}
102
{ACAD_XDICTIONARY
360
29A
102
}
330
2A
100
AcDbVisualStyle
  2
Facepattern
 70
    15
 71
     2
 72
     2
 73
     0
 90
        0
 40
-0.6
 41
-30.0
 62
     5
 63
     7
421
 16777215
 74
     1
 91
        4
 64
     7
 65
   257
 75
     1
175
     1
 42
1.0
 92
        8
 66
     7
 43
1.0
 76
     1
 77
     6
 78
     2
 67
     7
 79
     5
170
     0
171
     0
290
     0
174
     0
 93
        1
 44
0.0
173
     0
291
     1
 45
0.0
1001
ACAD
1000
AcDbSavedByObjectVersion
1070
     0
  0
VISUALSTYLE
  5
2B
102
{ACAD_REACTORS
330
2A
102
}
102
{ACAD_XDICTIONARY
360
27E
102
}
330
2A
100
AcDbVisualStyle
  2
Flat
 70
     0
 71
     2
 72
     1
 73
     1
 90
        2
 40
-0.6
 41
30.0
 62
     5
 63
     7
421
 16777215
 74
     0
 91
        4
 64
     7
 65
   257
 75
     1
175
     1
 42
1.0
 92
        8
 66
     7
 43
1.0
 76
     1
 77
     6
 78
     2
 67
     7
 79
     5
170
     0
171
     0
290
     0
174
     0
 93
       13
 44
0.0
173
     0
291
     1
 45
0.0
1001
ACAD
1000
AcDbSavedByObjectVersion
1070
     0
  0
VISUALSTYLE
  5
2C
102
{ACAD_REACTORS
330
2A
102
}
102
{ACAD_XDICTIONARY
360
280
102
}
330
2A
100
AcDbVisualStyle
  2
FlatWithEdges
 70
     1
 71
     2
 72
     1
 73
     1
 90
        2
 40
-0.6
 41
30.0
 62
     5
 63
     7
421
 16777215
 74
     1
 91
        4
 64
     7
 65
   257
 75
     1
175
     1
 42
1.0
 92
        0
 66
   257
 43
1.0
 76
     1
 77
     6
 78
     2
 67
     7
 79
     5
170
     0
171
     0
290
     0
174
     0
 93
       13
 44
0.0
173
     0
291
     1
 45
0.0
1001
ACAD
1000
AcDbSavedByObjectVersion
1070
     0
  0
VISUALSTYLE
  5
2D
102
{ACAD_REACTORS
330
2A
102
}
102
{ACAD_XDICTIONARY
360
282
102
}
330
2A
100
AcDbVisualStyle
  2
Gouraud
 70
     2
 71
     2
 72
     2
 73
     1
 90
        2
 40
-0.6
 41
30.0
 62
     5
 63
     7
421
 16777215
 74
     0
 91
        4
 64
     7
 65
   257
 75
     1
175
     1
 42
1.0
 92
        0
 66
     7
 43
1.0
 76
     1
 77
     6
 78
     2
 67
     7
 79
     5
170
     0
171
     0
290
     0
174
     0
 93
       13
 44
0.0
173
     0
291
     1
 45
0.0
1001
ACAD
1000
AcDbSavedByObjectVersion
1070
     0
  0
VISUALSTYLE
  5
2E
102
{ACAD_REACTORS
330
2A
102
}
102
{ACAD_XDICTIONARY
360
284
102
}
330
2A
100
AcDbVisualStyle
  2
GouraudWithEdges
 70
     3
 71
     2
 72
     2
 73
     1
 90
        2
 40
-0.6
 41
30.0
 62
     5
 63
     7
421
 16777215
 74
     1
 91
        4
 64
     7
 65
   257
 75
     1
175
     1
 42
1.0
 92
        0
 66
   257
 43
1.0
 76
     1
 77
     6
 78
     2
 67
     7
 79
     5
170
     0
171
     0
290
     0
174
     0
 93
       13
 44
0.0
173
     0
291
     1
 45
0.0
1001
ACAD
1000
AcDbSavedByObjectVersion
1070
     0
  0
VISUALSTYLE
  5
38
102
{ACAD_REACTORS
330
2A
102
}
102
{ACAD_XDICTIONARY
360
298
102
}
330
2A
100
AcDbVisualStyle
  2
Linepattern
 70
    14
 71
     2
 72
     2
 73
     0
 90
        0
 40
-0.6
 41
-30.0
 62
     5
 63
     7
421
 16777215
 74
     1
 91
        4
 64
     7
 65
   257
 75
     7
175
     7
 42
1.0
 92
        8
 66
     7
 43
1.0
 76
     1
 77
     6
 78
     2
 67
     7
 79
     5
170
     0
171
     0
290
     0
174
     0
 93
        1
 44
0.0
173
     0
291
     1
 45
0.0
1001
ACAD
1000
AcDbSavedByObjectVersion
1070
     0
  0
VISUALSTYLE
  5
33
102
{ACAD_REACTORS
330
2A
102
}
102
{ACAD_XDICTIONARY
360
28E
102
}
330
2A
100
AcDbVisualStyle
  2
Realistic
 70
     8
 71
     2
 72
     2
 73
     0
 90
        0
 40
-0.6
 41
-30.0
 62
     5
 63
     7
421
 16777215
 74
     1
 91
        0
 64
     7
 65
   257
 75
     1
175
     1
 42
1.0
 92
        8
 66
     8
424
  7895160
 43
1.0
 76
     1
 77
     6
 78
     2
 67
     7
 79
     5
170
     0
171
     0
290
     0
174
     0
 93
       13
 44
0.0
173
     0
291
     0
 45
0.0
1001
ACAD
1000
AcDbSavedByObjectVersion
1070
     0
  0
VISUALSTYLE
  5
37
102
{ACAD_REACTORS
330
2A
102
}
102
{ACAD_XDICTIONARY
360
296
102
}
330
2A
100
AcDbVisualStyle
  2
Thicken
 70
    13
 71
     2
 72
     2
 73
     0
 90
        0
 40
-0.6
 41
-30.0
 62
     5
 63
     7
421
 16777215
 74
     1
 91
        4
 64
     7
 65
   257
 75
     1
175
     1
 42
1.0
 92
       12
 66
     7
 43
1.0
 76
     1
 77
     6
 78
     2
 67
     7
 79
     5
170
     0
171
     0
290
     0
174
     0
 93
        1
 44
0.0
173
     0
291
     1
 45
0.0
1001
ACAD
1000
AcDbSavedByObjectVersion
1070
     0
  0
DICTIONARY
  5
2A0
330
3D
100
AcDbDictionary
280
     1
281
     1
  3
ACAD_XREC_ROUNDTRIP
360
2A1
  0
DICTIONARY
  5
29E
330
3C
100
AcDbDictionary
280
     1
281
     1
  3
ACAD_XREC_ROUNDTRIP
360
29F
  0
DICTIONARY
  5
2A2
330
3E
100
AcDbDictionary
280
     1
281
     1
  3
ACAD_XREC_ROUNDTRIP
360
2A3
  0
DICTIONARY
  5
286
330
2F
100
AcDbDictionary
280
     1
281
     1
  3
ACAD_XREC_ROUNDTRIP
360
287
  0
DICTIONARY
  5
28A
330
31
100
AcDbDictionary
280
     1
281
     1
  3
ACAD_XREC_ROUNDTRIP
360
28B
  0
DICTIONARY
  5
288
330
30
100
AcDbDictionary
280
     1
281
     1
  3
ACAD_XREC_ROUNDTRIP
360
289
  0
DICTIONARY
  5
28C
330
32
100
AcDbDictionary
280
     1
281
     1
  3
ACAD_XREC_ROUNDTRIP
360
28D
  0
DICTIONARY
  5
294
330
36
100
AcDbDictionary
280
     1
281
     1
  3
ACAD_XREC_ROUNDTRIP
360
295
  0
DICTIONARY
  5
29C
330
3A
100
AcDbDictionary
280
     1
281
     1
  3
ACAD_XREC_ROUNDTRIP
360
29D
  0
DICTIONARY
  5
290
330
34
100
AcDbDictionary
280
     1
281
     1
  3
ACAD_XREC_ROUNDTRIP
360
291
  0
DICTIONARY
  5
292
330
35
100
AcDbDictionary
280
     1
281
     1
  3
ACAD_XREC_ROUNDTRIP
360
293
  0
DICTIONARY
  5
29A
330
39
100
AcDbDictionary
280
     1
281
     1
  3
ACAD_XREC_ROUNDTRIP
360
29B
  0
DICTIONARY
  5
27E
330
2B
100
AcDbDictionary
280
     1
281
     1
  3
ACAD_XREC_ROUNDTRIP
360
27F
  0
DICTIONARY
  5
280
330
2C
100
AcDbDictionary
280
     1
281
     1
  3
ACAD_XREC_ROUNDTRIP
360
281
  0
DICTIONARY
  5
282
330
2D
100
AcDbDictionary
280
     1
281
     1
  3
ACAD_XREC_ROUNDTRIP
360
283
  0
DICTIONARY
  5
284
330
2E
100
AcDbDictionary
280
     1
281
     1
  3
ACAD_XREC_ROUNDTRIP
360
285
  0
DICTIONARY
  5
298
330
38
100
AcDbDictionary
280
     1
281
     1
  3
ACAD_XREC_ROUNDTRIP
360
299
  0
DICTIONARY
  5
28E
330
33
100
AcDbDictionary
280
     1
281
     1
  3
ACAD_XREC_ROUNDTRIP
360
28F
  0
DICTIONARY
  5
296
330
37
100
AcDbDictionary
280
     1
281
     1
  3
ACAD_XREC_ROUNDTRIP
360
297
  0
XRECORD
  5
2A1
102
{ACAD_REACTORS
330
2A0
102
}
330
2A0
100
AcDbXrecord
280
     1
102
MATERIAL
148
0.0
149
0.0
149
0.0
 93
        0
 94
      127
282
     0
 72
     1
 77
     1
171
     1
175
     1
179
     1
273
     0
  0
XRECORD
  5
29F
102
{ACAD_REACTORS
330
29E
102
}
330
29E
100
AcDbXrecord
280
     1
102
MATERIAL
148
0.0
149
0.0
149
0.0
 93
        0
 94
      127
282
     0
 72
     1
 77
     1
171
     1
175
     1
179
     1
273
     0
  0
XRECORD
  5
2A3
102
{ACAD_REACTORS
330
2A2
102
}
330
2A2
100
AcDbXrecord
280
     1
102
MATERIAL
148
0.0
149
0.0
149
0.0
 93
        0
 94
      127
282
     0
 72
     1
 77
     1
171
     1
175
     1
179
     1
273
     0
  0
XRECORD
  5
287
102
{ACAD_REACTORS
330
286
102
}
330
286
100
AcDbXrecord
280
     1
102
RTVSPropertyOp0
 70
     1
102
RTVSPropertyOp1
 70
     1
102
RTVSPropertyOp2
 70
     1
102
RTVSPropertyOp3
 70
     1
102
RTVSPropertyOp4
 70
     1
102
RTVSPropertyOp5
 70
     1
102
RTVSPropertyOp6
 70
     1
102
RTVSPropertyOp7
 70
     1
102
RTVSPropertyOp8
 70
     1
102
RTVSPropertyOp9
 70
     1
102
RTVSPropertyOp10
 70
     1
102
RTVSPropertyOp11
 70
     1
102
RTVSPropertyOp12
 70
     1
102
RTVSPropertyOp13
 70
     1
102
RTVSPropertyOp14
 70
     1
102
RTVSPropertyOp15
 70
     1
102
RTVSPropertyOp16
 70
     1
102
RTVSPropertyOp17
 70
     1
102
RTVSPropertyOp18
 70
     1
102
RTVSPropertyOp19
 70
     1
102
RTVSPropertyOp20
 70
     1
102
RTVSPropertyOp21
 70
     1
102
RTVSPropertyOp22
 70
     1
102
RTVSPropertyOp23
 70
     1
102
RTVSPropertyOp24
 70
     1
102
RTVSPropertyOp25
 70
     1
102
RTVSPropertyOp26
 70
     1
102
RTVSPropertyOp27
 70
     1
102
RTVSPropertyOp28
 70
     1
102
RTVSPropertyOp29
 70
     1
102
RTVSPropertyOp30
 70
     1
102
RTVSPropertyOp31
 70
     1
102
RTVSPropertyOp32
 70
     1
  0
XRECORD
  5
28B
102
{ACAD_REACTORS
330
28A
102
}
330
28A
100
AcDbXrecord
280
     1
102
RTVSPropertyOp0
 70
     1
102
RTVSPropertyOp1
 70
     1
102
RTVSPropertyOp2
 70
     1
102
RTVSPropertyOp3
 70
     1
102
RTVSPropertyOp4
 70
     1
102
RTVSPropertyOp5
 70
     1
102
RTVSPropertyOp6
 70
     1
102
RTVSPropertyOp7
 70
     1
102
RTVSPropertyOp8
 70
     1
102
RTVSPropertyOp9
 70
     1
102
RTVSPropertyOp10
 70
     1
102
RTVSPropertyOp11
 70
     1
102
RTVSPropertyOp12
 70
     1
102
RTVSPropertyOp13
 70
     1
102
RTVSPropertyOp14
 70
     1
102
RTVSPropertyOp15
 70
     1
102
RTVSPropertyOp16
 70
     1
102
RTVSPropertyOp17
 70
     1
102
RTVSPropertyOp18
 70
     1
102
RTVSPropertyOp19
 70
     1
102
RTVSPropertyOp20
 70
     1
102
RTVSPropertyOp21
 70
     1
102
RTVSPropertyOp22
 70
     1
102
RTVSPropertyOp23
 70
     1
102
RTVSPropertyOp24
 70
     1
102
RTVSPropertyOp25
 70
     1
102
RTVSPropertyOp26
 70
     1
102
RTVSPropertyOp27
 70
     1
102
RTVSPropertyOp28
 70
     1
102
RTVSPropertyOp29
 70
     1
102
RTVSPropertyOp30
 70
     1
102
RTVSPropertyOp31
 70
     1
102
RTVSPropertyOp32
 70
     1
  0
XRECORD
  5
289
102
{ACAD_REACTORS
330
288
102
}
330
288
100
AcDbXrecord
280
     1
102
RTVSPropertyOp0
 70
     1
102
RTVSPropertyOp1
 70
     1
102
RTVSPropertyOp2
 70
     1
102
RTVSPropertyOp3
 70
     1
102
RTVSPropertyOp4
 70
     1
102
RTVSPropertyOp5
 70
     1
102
RTVSPropertyOp6
 70
     1
102
RTVSPropertyOp7
 70
     1
102
RTVSPropertyOp8
 70
     1
102
RTVSPropertyOp9
 70
     1
102
RTVSPropertyOp10
 70
     1
102
RTVSPropertyOp11
 70
     1
102
RTVSPropertyOp12
 70
     1
102
RTVSPropertyOp13
 70
     1
102
RTVSPropertyOp14
 70
     1
102
RTVSPropertyOp15
 70
     1
102
RTVSPropertyOp16
 70
     1
102
RTVSPropertyOp17
 70
     1
102
RTVSPropertyOp18
 70
     1
102
RTVSPropertyOp19
 70
     1
102
RTVSPropertyOp20
 70
     1
102
RTVSPropertyOp21
 70
     1
102
RTVSPropertyOp22
 70
     1
102
RTVSPropertyOp23
 70
     1
102
RTVSPropertyOp24
 70
     1
102
RTVSPropertyOp25
 70
     1
102
RTVSPropertyOp26
 70
     1
102
RTVSPropertyOp27
 70
     1
102
RTVSPropertyOp28
 70
     1
102
RTVSPropertyOp29
 70
     1
102
RTVSPropertyOp30
 70
     1
102
RTVSPropertyOp31
 70
     1
102
RTVSPropertyOp32
 70
     1
  0
XRECORD
  5
28D
102
{ACAD_REACTORS
330
28C
102
}
330
28C
100
AcDbXrecord
280
     1
102
RTVSPropertyOp0
 70
     1
102
RTVSPropertyOp1
 70
     1
102
RTVSPropertyOp2
 70
     1
102
RTVSPropertyOp3
 70
     1
102
RTVSPropertyOp4
 70
     1
102
RTVSPropertyOp5
 70
     1
102
RTVSPropertyOp6
 70
     1
102
RTVSPropertyOp7
 70
     1
102
RTVSPropertyOp8
 70
     1
102
RTVSPropertyOp9
 70
     1
102
RTVSPropertyOp10
 70
     1
102
RTVSPropertyOp11
 70
     1
102
RTVSPropertyOp12
 70
     1
102
RTVSPropertyOp13
 70
     1
102
RTVSPropertyOp14
 70
     1
102
RTVSPropertyOp15
 70
     1
102
RTVSPropertyOp16
 70
     1
102
RTVSPropertyOp17
 70
     1
102
RTVSPropertyOp18
 70
     1
102
RTVSPropertyOp19
 70
     1
102
RTVSPropertyOp20
 70
     1
102
RTVSPropertyOp21
 70
     1
102
RTVSPropertyOp22
 70
     1
102
RTVSPropertyOp23
 70
     1
102
RTVSPropertyOp24
 70
     1
102
RTVSPropertyOp25
 70
     1
102
RTVSPropertyOp26
 70
     1
102
RTVSPropertyOp27
 70
     1
102
RTVSPropertyOp28
 70
     1
102
RTVSPropertyOp29
 70
     1
102
RTVSPropertyOp30
 70
     1
102
RTVSPropertyOp31
 70
     1
102
RTVSPropertyOp32
 70
     1
  0
XRECORD
  5
295
102
{ACAD_REACTORS
330
294
102
}
330
294
100
AcDbXrecord
280
     1
102
RTVSPropertyOp0
 70
     1
102
RTVSPropertyOp1
 70
     1
102
RTVSPropertyOp2
 70
     1
102
RTVSPropertyOp3
 70
     1
102
RTVSPropertyOp4
 70
     1
102
RTVSPropertyOp5
 70
     1
102
RTVSPropertyOp6
 70
     1
102
RTVSPropertyOp7
 70
     1
102
RTVSPropertyOp8
 70
     1
102
RTVSPropertyOp9
 70
     1
102
RTVSPropertyOp10
 70
     1
102
RTVSPropertyOp11
 70
     1
102
RTVSPropertyOp12
 70
     1
102
RTVSPropertyOp13
 70
     1
102
RTVSPropertyOp14
 70
     1
102
RTVSPropertyOp15
 70
     1
102
RTVSPropertyOp16
 70
     1
102
RTVSPropertyOp17
 70
     1
102
RTVSPropertyOp18
 70
     1
102
RTVSPropertyOp19
 70
     1
102
RTVSPropertyOp20
 70
     1
102
RTVSPropertyOp21
 70
     1
102
RTVSPropertyOp22
 70
     1
102
RTVSPropertyOp23
 70
     1
102
RTVSPropertyOp24
 70
     1
102
RTVSPropertyOp25
 70
     1
102
RTVSPropertyOp26
 70
     1
102
RTVSPropertyOp27
 70
     1
102
RTVSPropertyOp28
 70
     1
102
RTVSPropertyOp29
 70
     1
102
RTVSPropertyOp30
 70
     1
102
RTVSPropertyOp31
 70
     1
102
RTVSPropertyOp32
 70
     1
  0
XRECORD
  5
29D
102
{ACAD_REACTORS
330
29C
102
}
330
29C
100
AcDbXrecord
280
     1
102
RTVSPropertyOp0
 70
     1
102
RTVSPropertyOp1
 70
     1
102
RTVSPropertyOp2
 70
     1
102
RTVSPropertyOp3
 70
     1
102
RTVSPropertyOp4
 70
     1
102
RTVSPropertyOp5
 70
     1
102
RTVSPropertyOp6
 70
     1
102
RTVSPropertyOp7
 70
     1
102
RTVSPropertyOp8
 70
     1
102
RTVSPropertyOp9
 70
     1
102
RTVSPropertyOp10
 70
     1
102
RTVSPropertyOp11
 70
     1
102
RTVSPropertyOp12
 70
     1
102
RTVSPropertyOp13
 70
     1
102
RTVSPropertyOp14
 70
     1
102
RTVSPropertyOp15
 70
     1
102
RTVSPropertyOp16
 70
     1
102
RTVSPropertyOp17
 70
     1
102
RTVSPropertyOp18
 70
     1
102
RTVSPropertyOp19
 70
     1
102
RTVSPropertyOp20
 70
     1
102
RTVSPropertyOp21
 70
     1
102
RTVSPropertyOp22
 70
     1
102
RTVSPropertyOp23
 70
     1
102
RTVSPropertyOp24
 70
     1
102
RTVSPropertyOp25
 70
     1
102
RTVSPropertyOp26
 70
     1
102
RTVSPropertyOp27
 70
     1
102
RTVSPropertyOp28
 70
     1
102
RTVSPropertyOp29
 70
     1
102
RTVSPropertyOp30
 70
     1
102
RTVSPropertyOp31
 70
     1
102
RTVSPropertyOp32
 70
     1
  0
XRECORD
  5
291
102
{ACAD_REACTORS
330
290
102
}
330
290
100
AcDbXrecord
280
     1
102
RTVSPropertyOp0
 70
     1
102
RTVSPropertyOp1
 70
     1
102
RTVSPropertyOp2
 70
     1
102
RTVSPropertyOp3
 70
     1
102
RTVSPropertyOp4
 70
     1
102
RTVSPropertyOp5
 70
     1
102
RTVSPropertyOp6
 70
     1
102
RTVSPropertyOp7
 70
     1
102
RTVSPropertyOp8
 70
     1
102
RTVSPropertyOp9
 70
     1
102
RTVSPropertyOp10
 70
     1
102
RTVSPropertyOp11
 70
     1
102
RTVSPropertyOp12
 70
     1
102
RTVSPropertyOp13
 70
     1
102
RTVSPropertyOp14
 70
     1
102
RTVSPropertyOp15
 70
     1
102
RTVSPropertyOp16
 70
     1
102
RTVSPropertyOp17
 70
     1
102
RTVSPropertyOp18
 70
     1
102
RTVSPropertyOp19
 70
     1
102
RTVSPropertyOp20
 70
     1
102
RTVSPropertyOp21
 70
     1
102
RTVSPropertyOp22
 70
     1
102
RTVSPropertyOp23
 70
     1
102
RTVSPropertyOp24
 70
     1
102
RTVSPropertyOp25
 70
     1
102
RTVSPropertyOp26
 70
     1
102
RTVSPropertyOp27
 70
     1
102
RTVSPropertyOp28
 70
     1
102
RTVSPropertyOp29
 70
     1
102
RTVSPropertyOp30
 70
     1
102
RTVSPropertyOp31
 70
     1
102
RTVSPropertyOp32
 70
     1
  0
XRECORD
  5
293
102
{ACAD_REACTORS
330
292
102
}
330
292
100
AcDbXrecord
280
     1
102
RTVSPropertyOp0
 70
     1
102
RTVSPropertyOp1
 70
     1
102
RTVSPropertyOp2
 70
     1
102
RTVSPropertyOp3
 70
     1
102
RTVSPropertyOp4
 70
     1
102
RTVSPropertyOp5
 70
     1
102
RTVSPropertyOp6
 70
     1
102
RTVSPropertyOp7
 70
     1
102
RTVSPropertyOp8
 70
     1
102
RTVSPropertyOp9
 70
     1
102
RTVSPropertyOp10
 70
     1
102
RTVSPropertyOp11
 70
     1
102
RTVSPropertyOp12
 70
     1
102
RTVSPropertyOp13
 70
     1
102
RTVSPropertyOp14
 70
     1
102
RTVSPropertyOp15
 70
     1
102
RTVSPropertyOp16
 70
     1
102
RTVSPropertyOp17
 70
     1
102
RTVSPropertyOp18
 70
     1
102
RTVSPropertyOp19
 70
     1
102
RTVSPropertyOp20
 70
     1
102
RTVSPropertyOp21
 70
     1
102
RTVSPropertyOp22
 70
     1
102
RTVSPropertyOp23
 70
     1
102
RTVSPropertyOp24
 70
     1
102
RTVSPropertyOp25
 70
     1
102
RTVSPropertyOp26
 70
     1
102
RTVSPropertyOp27
 70
     1
102
RTVSPropertyOp28
 70
     1
102
RTVSPropertyOp29
 70
     1
102
RTVSPropertyOp30
 70
     1
102
RTVSPropertyOp31
 70
     1
102
RTVSPropertyOp32
 70
     1
  0
XRECORD
  5
29B
102
{ACAD_REACTORS
330
29A
102
}
330
29A
100
AcDbXrecord
280
     1
102
RTVSPropertyOp0
 70
     1
102
RTVSPropertyOp1
 70
     1
102
RTVSPropertyOp2
 70
     1
102
RTVSPropertyOp3
 70
     1
102
RTVSPropertyOp4
 70
     1
102
RTVSPropertyOp5
 70
     1
102
RTVSPropertyOp6
 70
     1
102
RTVSPropertyOp7
 70
     1
102
RTVSPropertyOp8
 70
     1
102
RTVSPropertyOp9
 70
     1
102
RTVSPropertyOp10
 70
     1
102
RTVSPropertyOp11
 70
     1
102
RTVSPropertyOp12
 70
     1
102
RTVSPropertyOp13
 70
     1
102
RTVSPropertyOp14
 70
     1
102
RTVSPropertyOp15
 70
     1
102
RTVSPropertyOp16
 70
     1
102
RTVSPropertyOp17
 70
     1
102
RTVSPropertyOp18
 70
     1
102
RTVSPropertyOp19
 70
     1
102
RTVSPropertyOp20
 70
     1
102
RTVSPropertyOp21
 70
     1
102
RTVSPropertyOp22
 70
     1
102
RTVSPropertyOp23
 70
     1
102
RTVSPropertyOp24
 70
     1
102
RTVSPropertyOp25
 70
     1
102
RTVSPropertyOp26
 70
     1
102
RTVSPropertyOp27
 70
     1
102
RTVSPropertyOp28
 70
     1
102
RTVSPropertyOp29
 70
     1
102
RTVSPropertyOp30
 70
     1
102
RTVSPropertyOp31
 70
     1
102
RTVSPropertyOp32
 70
     1
  0
XRECORD
  5
27F
102
{ACAD_REACTORS
330
27E
102
}
330
27E
100
AcDbXrecord
280
     1
102
RTVSPropertyOp0
 70
     1
102
RTVSPropertyOp1
 70
     1
102
RTVSPropertyOp2
 70
     1
102
RTVSPropertyOp3
 70
     1
102
RTVSPropertyOp4
 70
     1
102
RTVSPropertyOp5
 70
     1
102
RTVSPropertyOp6
 70
     1
102
RTVSPropertyOp7
 70
     1
102
RTVSPropertyOp8
 70
     1
102
RTVSPropertyOp9
 70
     1
102
RTVSPropertyOp10
 70
     1
102
RTVSPropertyOp11
 70
     1
102
RTVSPropertyOp12
 70
     1
102
RTVSPropertyOp13
 70
     1
102
RTVSPropertyOp14
 70
     1
102
RTVSPropertyOp15
 70
     1
102
RTVSPropertyOp16
 70
     1
102
RTVSPropertyOp17
 70
     1
102
RTVSPropertyOp18
 70
     1
102
RTVSPropertyOp19
 70
     1
102
RTVSPropertyOp20
 70
     1
102
RTVSPropertyOp21
 70
     1
102
RTVSPropertyOp22
 70
     1
102
RTVSPropertyOp23
 70
     1
102
RTVSPropertyOp24
 70
     1
102
RTVSPropertyOp25
 70
     1
102
RTVSPropertyOp26
 70
     1
102
RTVSPropertyOp27
 70
     1
102
RTVSPropertyOp28
 70
     1
102
RTVSPropertyOp29
 70
     1
102
RTVSPropertyOp30
 70
     1
102
RTVSPropertyOp31
 70
     1
102
RTVSPropertyOp32
 70
     1
  0
XRECORD
  5
281
102
{ACAD_REACTORS
330
280
102
}
330
280
100
AcDbXrecord
280
     1
102
RTVSPropertyOp0
 70
     1
102
RTVSPropertyOp1
 70
     1
102
RTVSPropertyOp2
 70
     1
102
RTVSPropertyOp3
 70
     1
102
RTVSPropertyOp4
 70
     1
102
RTVSPropertyOp5
 70
     1
102
RTVSPropertyOp6
 70
     1
102
RTVSPropertyOp7
 70
     1
102
RTVSPropertyOp8
 70
     1
102
RTVSPropertyOp9
 70
     1
102
RTVSPropertyOp10
 70
     1
102
RTVSPropertyOp11
 70
     1
102
RTVSPropertyOp12
 70
     1
102
RTVSPropertyOp13
 70
     1
102
RTVSPropertyOp14
 70
     1
102
RTVSPropertyOp15
 70
     1
102
RTVSPropertyOp16
 70
     1
102
RTVSPropertyOp17
 70
     1
102
RTVSPropertyOp18
 70
     1
102
RTVSPropertyOp19
 70
     1
102
RTVSPropertyOp20
 70
     1
102
RTVSPropertyOp21
 70
     1
102
RTVSPropertyOp22
 70
     1
102
RTVSPropertyOp23
 70
     1
102
RTVSPropertyOp24
 70
     1
102
RTVSPropertyOp25
 70
     1
102
RTVSPropertyOp26
 70
     1
102
RTVSPropertyOp27
 70
     1
102
RTVSPropertyOp28
 70
     1
102
RTVSPropertyOp29
 70
     1
102
RTVSPropertyOp30
 70
     1
102
RTVSPropertyOp31
 70
     1
102
RTVSPropertyOp32
 70
     1
  0
XRECORD
  5
283
102
{ACAD_REACTORS
330
282
102
}
330
282
100
AcDbXrecord
280
     1
102
RTVSPropertyOp0
 70
     1
102
RTVSPropertyOp1
 70
     1
102
RTVSPropertyOp2
 70
     1
102
RTVSPropertyOp3
 70
     1
102
RTVSPropertyOp4
 70
     1
102
RTVSPropertyOp5
 70
     1
102
RTVSPropertyOp6
 70
     1
102
RTVSPropertyOp7
 70
     1
102
RTVSPropertyOp8
 70
     1
102
RTVSPropertyOp9
 70
     1
102
RTVSPropertyOp10
 70
     1
102
RTVSPropertyOp11
 70
     1
102
RTVSPropertyOp12
 70
     1
102
RTVSPropertyOp13
 70
     1
102
RTVSPropertyOp14
 70
     1
102
RTVSPropertyOp15
 70
     1
102
RTVSPropertyOp16
 70
     1
102
RTVSPropertyOp17
 70
     1
102
RTVSPropertyOp18
 70
     1
102
RTVSPropertyOp19
 70
     1
102
RTVSPropertyOp20
 70
     1
102
RTVSPropertyOp21
 70
     1
102
RTVSPropertyOp22
 70
     1
102
RTVSPropertyOp23
 70
     1
102
RTVSPropertyOp24
 70
     1
102
RTVSPropertyOp25
 70
     1
102
RTVSPropertyOp26
 70
     1
102
RTVSPropertyOp27
 70
     1
102
RTVSPropertyOp28
 70
     1
102
RTVSPropertyOp29
 70
     1
102
RTVSPropertyOp30
 70
     1
102
RTVSPropertyOp31
 70
     1
102
RTVSPropertyOp32
 70
     1
  0
XRECORD
  5
285
102
{ACAD_REACTORS
330
284
102
}
330
284
100
AcDbXrecord
280
     1
102
RTVSPropertyOp0
 70
     1
102
RTVSPropertyOp1
 70
     1
102
RTVSPropertyOp2
 70
     1
102
RTVSPropertyOp3
 70
     1
102
RTVSPropertyOp4
 70
     1
102
RTVSPropertyOp5
 70
     1
102
RTVSPropertyOp6
 70
     1
102
RTVSPropertyOp7
 70
     1
102
RTVSPropertyOp8
 70
     1
102
RTVSPropertyOp9
 70
     1
102
RTVSPropertyOp10
 70
     1
102
RTVSPropertyOp11
 70
     1
102
RTVSPropertyOp12
 70
     1
102
RTVSPropertyOp13
 70
     1
102
RTVSPropertyOp14
 70
     1
102
RTVSPropertyOp15
 70
     1
102
RTVSPropertyOp16
 70
     1
102
RTVSPropertyOp17
 70
     1
102
RTVSPropertyOp18
 70
     1
102
RTVSPropertyOp19
 70
     1
102
RTVSPropertyOp20
 70
     1
102
RTVSPropertyOp21
 70
     1
102
RTVSPropertyOp22
 70
     1
102
RTVSPropertyOp23
 70
     1
102
RTVSPropertyOp24
 70
     1
102
RTVSPropertyOp25
 70
     1
102
RTVSPropertyOp26
 70
     1
102
RTVSPropertyOp27
 70
     1
102
RTVSPropertyOp28
 70
     1
102
RTVSPropertyOp29
 70
     1
102
RTVSPropertyOp30
 70
     1
102
RTVSPropertyOp31
 70
     1
102
RTVSPropertyOp32
 70
     1
  0
XRECORD
  5
299
102
{ACAD_REACTORS
330
298
102
}
330
298
100
AcDbXrecord
280
     1
102
RTVSPropertyOp0
 70
     1
102
RTVSPropertyOp1
 70
     1
102
RTVSPropertyOp2
 70
     1
102
RTVSPropertyOp3
 70
     1
102
RTVSPropertyOp4
 70
     1
102
RTVSPropertyOp5
 70
     1
102
RTVSPropertyOp6
 70
     1
102
RTVSPropertyOp7
 70
     1
102
RTVSPropertyOp8
 70
     1
102
RTVSPropertyOp9
 70
     1
102
RTVSPropertyOp10
 70
     1
102
RTVSPropertyOp11
 70
     1
102
RTVSPropertyOp12
 70
     1
102
RTVSPropertyOp13
 70
     1
102
RTVSPropertyOp14
 70
     1
102
RTVSPropertyOp15
 70
     1
102
RTVSPropertyOp16
 70
     1
102
RTVSPropertyOp17
 70
     1
102
RTVSPropertyOp18
 70
     1
102
RTVSPropertyOp19
 70
     1
102
RTVSPropertyOp20
 70
     1
102
RTVSPropertyOp21
 70
     1
102
RTVSPropertyOp22
 70
     1
102
RTVSPropertyOp23
 70
     1
102
RTVSPropertyOp24
 70
     1
102
RTVSPropertyOp25
 70
     1
102
RTVSPropertyOp26
 70
     1
102
RTVSPropertyOp27
 70
     1
102
RTVSPropertyOp28
 70
     1
102
RTVSPropertyOp29
 70
     1
102
RTVSPropertyOp30
 70
     1
102
RTVSPropertyOp31
 70
     1
102
RTVSPropertyOp32
 70
     1
  0
XRECORD
  5
28F
102
{ACAD_REACTORS
330
28E
102
}
330
28E
100
AcDbXrecord
280
     1
102
RTVSPropertyOp0
 70
     1
102
RTVSPropertyOp1
 70
     1
102
RTVSPropertyOp2
 70
     1
102
RTVSPropertyOp3
 70
     1
102
RTVSPropertyOp4
 70
     1
102
RTVSPropertyOp5
 70
     1
102
RTVSPropertyOp6
 70
     1
102
RTVSPropertyOp7
 70
     1
102
RTVSPropertyOp8
 70
     1
102
RTVSPropertyOp9
 70
     1
102
RTVSPropertyOp10
 70
     1
102
RTVSPropertyOp11
 70
     1
102
RTVSPropertyOp12
 70
     1
102
RTVSPropertyOp13
 70
     1
102
RTVSPropertyOp14
 70
     1
102
RTVSPropertyOp15
 70
     1
102
RTVSPropertyOp16
 70
     1
102
RTVSPropertyOp17
 70
     1
102
RTVSPropertyOp18
 70
     1
102
RTVSPropertyOp19
 70
     1
102
RTVSPropertyOp20
 70
     1
102
RTVSPropertyOp21
 70
     1
102
RTVSPropertyOp22
 70
     1
102
RTVSPropertyOp23
 70
     1
102
RTVSPropertyOp24
 70
     1
102
RTVSPropertyOp25
 70
     1
102
RTVSPropertyOp26
 70
     1
102
RTVSPropertyOp27
 70
     1
102
RTVSPropertyOp28
 70
     1
102
RTVSPropertyOp29
 70
     1
102
RTVSPropertyOp30
 70
     1
102
RTVSPropertyOp31
 70
     1
102
RTVSPropertyOp32
 70
     1
  0
XRECORD
  5
297
102
{ACAD_REACTORS
330
296
102
}
330
296
100
AcDbXrecord
280
     1
102
RTVSPropertyOp0
 70
     1
102
RTVSPropertyOp1
 70
     1
102
RTVSPropertyOp2
 70
     1
102
RTVSPropertyOp3
 70
     1
102
RTVSPropertyOp4
 70
     1
102
RTVSPropertyOp5
 70
     1
102
RTVSPropertyOp6
 70
     1
102
RTVSPropertyOp7
 70
     1
102
RTVSPropertyOp8
 70
     1
102
RTVSPropertyOp9
 70
     1
102
RTVSPropertyOp10
 70
     1
102
RTVSPropertyOp11
 70
     1
102
RTVSPropertyOp12
 70
     1
102
RTVSPropertyOp13
 70
     1
102
RTVSPropertyOp14
 70
     1
102
RTVSPropertyOp15
 70
     1
102
RTVSPropertyOp16
 70
     1
102
RTVSPropertyOp17
 70
     1
102
RTVSPropertyOp18
 70
     1
102
RTVSPropertyOp19
 70
     1
102
RTVSPropertyOp20
 70
     1
102
RTVSPropertyOp21
 70
     1
102
RTVSPropertyOp22
 70
     1
102
RTVSPropertyOp23
 70
     1
102
RTVSPropertyOp24
 70
     1
102
RTVSPropertyOp25
 70
     1
102
RTVSPropertyOp26
 70
     1
102
RTVSPropertyOp27
 70
     1
102
RTVSPropertyOp28
 70
     1
102
RTVSPropertyOp29
 70
     1
102
RTVSPropertyOp30
 70
     1
102
RTVSPropertyOp31
 70
     1
102
RTVSPropertyOp32
 70
     1
  0
ENDSEC
  0
EOF
