  0
SECTION
  2
HEADER
  9
$ACADVER
  1
AC1018
  9
$ACADMAINTVER
 70
     0
  9
$DWGCODEPAGE
  3
ANSI_1252
  9
$INSBASE
 10
0.0
 20
0.0
 30
0.0
  9
$EXTMIN
 10
-417.8128189986861
 20
-282.2260573413081
 30
0.0
  9
$EXTMAX
 10
-120.812818998688
 20
-72.22605734130792
 30
0.0
  9
$LIMMIN
 10
0.0
 20
0.0
  9
$LIMMAX
 10
12.0
 20
9.0
  9
$ORTHOMODE
 70
     0
  9
$REGENMODE
 70
     1
  9
$FILLMODE
 70
     1
  9
$QTEXTMODE
 70
     0
  9
$MIRRTEXT
 70
     1
  9
$LTSCALE
 40
1.0
  9
$ATTMODE
 70
     1
  9
$TEXTSIZE
 40
0.2
  9
$TRACEWID
 40
0.05
  9
$TEXTSTYLE
  7
Standard
  9
$CLAYER
  8
0
  9
$CELTYPE
  6
ByLayer
  9
$CECOLOR
 62
   256
  9
$CELTSCALE
 40
1.0
  9
$DISPSILH
 70
     0
  9
$DIMSCALE
 40
1.0
  9
$DIMASZ
 40
0.18
  9
$DIMEXO
 40
0.0625
  9
$DIMDLI
 40
0.38
  9
$DIMRND
 40
0.0
  9
$DIMDLE
 40
0.0
  9
$DIMEXE
 40
0.18
  9
$DIMTP
 40
0.0
  9
$DIMTM
 40
0.0
  9
$DIMTXT
 40
0.18
  9
$DIMCEN
 40
0.09
  9
$DIMTSZ
 40
0.0
  9
$DIMTOL
 70
     0
  9
$DIMLIM
 70
     0
  9
$DIMTIH
 70
     1
  9
$DIMTOH
 70
     1
  9
$DIMSE1
 70
     0
  9
$DIMSE2
 70
     0
  9
$DIMTAD
 70
     0
  9
$DIMZIN
 70
     0
  9
$DIMBLK
  1

  9
$DIMASO
 70
     1
  9
$DIMSHO
 70
     1
  9
$DIMPOST
  1

  9
$DIMAPOST
  1

  9
$DIMALT
 70
     0
  9
$DIMALTD
 70
     2
  9
$DIMALTF
 40
25.4
  9
$DIMLFAC
 40
1.0
  9
$DIMTOFL
 70
     0
  9
$DIMTVP
 40
0.0
  9
$DIMTIX
 70
     0
  9
$DIMSOXD
 70
     0
  9
$DIMSAH
 70
     0
  9
$DIMBLK1
  1

  9
$DIMBLK2
  1

  9
$DIMSTYLE
  2
Standard
  9
$DIMCLRD
 70
     0
  9
$DIMCLRE
 70
     0
  9
$DIMCLRT
 70
     0
  9
$DIMTFAC
 40
1.0
  9
$DIMGAP
 40
0.09
  9
$DIMJUST
 70
     0
  9
$DIMSD1
 70
     0
  9
$DIMSD2
 70
     0
  9
$DIMTOLJ
 70
     1
  9
$DIMTZIN
 70
     0
  9
$DIMALTZ
 70
     0
  9
$DIMALTTZ
 70
     0
  9
$DIMUPT
 70
     0
  9
$DIMDEC
 70
     4
  9
$DIMTDEC
 70
     4
  9
$DIMALTU
 70
     2
  9
$DIMALTTD
 70
     2
  9
$DIMTXSTY
  7
Standard
  9
$DIMAUNIT
 70
     0
  9
$DIMADEC
 70
     0
  9
$DIMALTRND
 40
0.0
  9
$DIMAZIN
 70
     0
  9
$DIMDSEP
 70
    46
  9
$DIMATFIT
 70
     3
  9
$DIMFRAC
 70
     0
  9
$DIMLDRBLK
  1

  9
$DIMLUNIT
 70
     2
  9
$DIMLWD
 70
    -2
  9
$DIMLWE
 70
    -2
  9
$DIMTMOVE
 70
     0
  9
$LUNITS
 70
     2
  9
$LUPREC
 70
     4
  9
$SKETCHINC
 40
0.1
  9
$FILLETRAD
 40
0.5
  9
$AUNITS
 70
     0
  9
$AUPREC
 70
     0
  9
$MENU
  1
.
  9
$ELEVATION
 40
0.0
  9
$PELEVATION
 40
0.0
  9
$THICKNESS
 40
0.0
  9
$LIMCHECK
 70
     0
  9
$CHAMFERA
 40
0.5
  9
$CHAMFERB
 40
0.5
  9
$CHAMFERC
 40
1.0
  9
$CHAMFERD
 40
0.0
  9
$SKPOLY
 70
     0
  9
$TDCREATE
 40
2458207.447831736
  9
$TDUCREATE
 40
2458207.364498403
  9
$TDUPDATE
 40
2458207.447832107
  9
$TDUUPDATE
 40
2458207.364498773
  9
$TDINDWG
 40
0.0000000116
  9
$TDUSRTIMER
 40
0.0000000116
  9
$USRTIMER
 70
     1
  9
$ANGBASE
 50
0.0
  9
$ANGDIR
 70
     0
  9
$PDMODE
 70
     0
  9
$PDSIZE
 40
0.0
  9
$PLINEWID
 40
0.0
  9
$SPLFRAME
 70
     0
  9
$SPLINETYPE
 70
     6
  9
$SPLINESEGS
 70
     8
  9
$HANDSEED
  5
266
  9
$SURFTAB1
 70
     6
  9
$SURFTAB2
 70
     6
  9
$SURFTYPE
 70
     6
  9
$SURFU
 70
     6
  9
$SURFV
 70
     6
  9
$UCSBASE
  2

  9
$UCSNAME
  2

  9
$UCSORG
 10
0.0
 20
0.0
 30
0.0
  9
$UCSXDIR
 10
1.0
 20
0.0
 30
0.0
  9
$UCSYDIR
 10
0.0
 20
1.0
 30
0.0
  9
$UCSORTHOREF
  2

  9
$UCSORTHOVIEW
 70
     0
  9
$UCSORGTOP
 10
0.0
 20
0.0
 30
0.0
  9
$UCSORGBOTTOM
 10
0.0
 20
0.0
 30
0.0
  9
$UCSORGLEFT
 10
0.0
 20
0.0
 30
0.0
  9
$UCSORGRIGHT
 10
0.0
 20
0.0
 30
0.0
  9
$UCSORGFRONT
 10
0.0
 20
0.0
 30
0.0
  9
$UCSORGBACK
 10
0.0
 20
0.0
 30
0.0
  9
$PUCSBASE
  2

  9
$PUCSNAME
  2

  9
$PUCSORG
 10
0.0
 20
0.0
 30
0.0
  9
$PUCSXDIR
 10
1.0
 20
0.0
 30
0.0
  9
$PUCSYDIR
 10
0.0
 20
1.0
 30
0.0
  9
$PUCSORTHOREF
  2

  9
$PUCSORTHOVIEW
 70
     0
  9
$PUCSORGTOP
 10
0.0
 20
0.0
 30
0.0
  9
$PUCSORGBOTTOM
 10
0.0
 20
0.0
 30
0.0
  9
$PUCSORGLEFT
 10
0.0
 20
0.0
 30
0.0
  9
$PUCSORGRIGHT
 10
0.0
 20
0.0
 30
0.0
  9
$PUCSORGFRONT
 10
0.0
 20
0.0
 30
0.0
  9
$PUCSORGBACK
 10
0.0
 20
0.0
 30
0.0
  9
$USERI1
 70
     0
  9
$USERI2
 70
     0
  9
$USERI3
 70
     0
  9
$USERI4
 70
     0
  9
$USERI5
 70
     0
  9
$USERR1
 40
18.1
  9
$USERR2
 40
0.0
  9
$USERR3
 40
0.0
  9
$USERR4
 40
0.0
  9
$USERR5
 40
0.0
  9
$WORLDVIEW
 70
     1
  9
$SHADEDGE
 70
     3
  9
$SHADEDIF
 70
    70
  9
$TILEMODE
 70
     1
  9
$MAXACTVP
 70
    64
  9
$PINSBASE
 10
0.0
 20
0.0
 30
0.0
  9
$PLIMCHECK
 70
     0
  9
$PEXTMIN
 10
1.00000000000000E+20
 20
1.00000000000000E+20
 30
1.00000000000000E+20
  9
$PEXTMAX
 10
-1.00000000000000E+20
 20
-1.00000000000000E+20
 30
-1.00000000000000E+20
  9
$PLIMMIN
 10
0.0
 20
0.0
  9
$PLIMMAX
 10
12.0
 20
9.0
  9
$UNITMODE
 70
     0
  9
$VISRETAIN
 70
     1
  9
$PLINEGEN
 70
     0
  9
$PSLTSCALE
 70
     1
  9
$TREEDEPTH
 70
  3020
  9
$CMLSTYLE
  2
Standard
  9
$CMLJUST
 70
     0
  9
$CMLSCALE
 40
1.0
  9
$PROXYGRAPHICS
 70
     1
  9
$MEASUREMENT
 70
     1
  9
$CELWEIGHT
370
    -1
  9
$ENDCAPS
280
     0
  9
$JOINSTYLE
280
     0
  9
$LWDISPLAY
290
     0
  9
$INSUNITS
 70
     4
  9
$HYPERLINKBASE
  1

  9
$STYLESHEET
  1

  9
$XEDIT
290
     1
  9
$CEPSNTYPE
380
     0
  9
$PSTYLEMODE
290
     1
  9
$FINGERPRINTGUID
  2
{A7FCEC84-6AFB-4CF0-B97F-3875F5AF4A2F}
  9
$VERSIONGUID
  2
{FAEB1C32-E019-11D5-929B-00C0DF256EC4}
  9
$EXTNAMES
290
     1
  9
$PSVPSCALE
 40
0.0
  9
$OLESTARTUP
290
     0
  9
$SORTENTS
280
   127
  9
$INDEXCTL
280
     0
  9
$HIDETEXT
280
     1
  9
$XCLIPFRAME
290
     0
  9
$HALOGAP
280
     0
  9
$OBSCOLOR
 70
   257
  9
$OBSLTYPE
280
     0
  9
$INTERSECTIONDISPLAY
280
     0
  9
$INTERSECTIONCOLOR
 70
   257
  9
$DIMASSOC
280
     2
  9
$PROJECTNAME
  1

  0
ENDSEC
  0
SECTION
  2
CLASSES
  0
CLASS
  1
ACDBDICTIONARYWDFLT
  2
AcDbDictionaryWithDefault
  3
ObjectDBX Classes
 90
        0
 91
        4
280
     0
281
     0
  0
CLASS
  1
VISUALSTYLE
  2
AcDbVisualStyle
  3
ObjectDBX Classes
 90
     4095
 91
        4
280
     0
281
     0
  0
CLASS
  1
MATERIAL
  2
AcDbMaterial
  3
ObjectDBX Classes
 90
     1153
 91
        4
280
     0
281
     0
  0
ENDSEC
  0
SECTION
  2
TABLES
  0
TABLE
  2
VPORT
  5
8
330
0
100
AcDbSymbolTable
 70
     1
  0
VPORT
  5
29
330
8
100
AcDbSymbolTableRecord
100
AcDbViewportTableRecord
  2
*Active
 70
     0
 10
0.0
 20
0.0
 11
1.0
 21
1.0
 12
-269.3128189986871
 22
-177.226057341308
 13
0.0
 23
0.0
 14
0.5
 24
0.5
 15
0.5
 25
0.5
 16
0.0
 26
0.0
 36
1.0
 17
0.0
 27
0.0
 37
0.0
 40
231.0000000000002
 41
1.60267857142857
 42
50.0
 43
0.0
 44
0.0
 50
0.0
 51
0.0
 71
     0
 72
   100
 73
     1
 74
     3
 75
     0
 76
     0
 77
     0
 78
     0
281
     0
 65
     1
110
0.0
120
0.0
130
0.0
111
1.0
121
0.0
131
0.0
112
0.0
122
1.0
132
0.0
 79
     0
146
0.0
  0
ENDTAB
  0
TABLE
  2
LTYPE
  5
5
330
0
100
AcDbSymbolTable
 70
     8
  0
LTYPE
  5
14
330
5
100
AcDbSymbolTableRecord
100
AcDbLinetypeTableRecord
  2
ByBlock
 70
     0
  3

 72
    65
 73
     0
 40
0.0
  0
LTYPE
  5
15
330
5
100
AcDbSymbolTableRecord
100
AcDbLinetypeTableRecord
  2
ByLayer
 70
     0
  3

 72
    65
 73
     0
 40
0.0
  0
LTYPE
  5
16
330
5
100
AcDbSymbolTableRecord
100
AcDbLinetypeTableRecord
  2
Continuous
 70
     0
  3
Solid line
 72
    65
 73
     0
 40
0.0
  0
LTYPE
  5
3F
330
5
100
AcDbSymbolTableRecord
100
AcDbLinetypeTableRecord
  2
DASHED
 70
     0
  3
Dashed
 72
    65
 73
     2
 40
15.0
 49
7.0
 74
     0
 49
-8.0
 74
     0
  0
LTYPE
  5
40
330
5
100
AcDbSymbolTableRecord
100
AcDbLinetypeTableRecord
  2
DOTTED
 70
     0
  3
Dotted
 72
    65
 73
     2
 40
1.0
 49
0.0
 74
     0
 49
-1.0
 74
     0
  0
LTYPE
  5
41
330
5
100
AcDbSymbolTableRecord
100
AcDbLinetypeTableRecord
  2
DOT_CENTER
 70
     0
  3
Dot_Center
 72
    65
 73
     4
 40
14.0
 49
12.0
 74
     0
 49
-1.0
 74
     0
 49
0.0
 74
     0
 49
-1.0
 74
     0
  0
LTYPE
  5
42
330
5
100
AcDbSymbolTableRecord
100
AcDbLinetypeTableRecord
  2
LONG_DASHED
 70
     0
  3
Long_Dashed
 72
    65
 73
     2
 40
15.0
 49
10.0
 74
     0
 49
-5.0
 74
     0
  0
LTYPE
  5
43
330
5
100
AcDbSymbolTableRecord
100
AcDbLinetypeTableRecord
  2
DASH_CENTER
 70
     0
  3
Dash_Center
 72
    65
 73
     4
 40
14.0
 49
11.0
 74
     0
 49
-1.0
 74
     0
 49
1.0
 74
     0
 49
-1.0
 74
     0
  0
LTYPE
  5
44
330
5
100
AcDbSymbolTableRecord
100
AcDbLinetypeTableRecord
  2
PHANTOM
 70
     0
  3
Phantom
 72
    65
 73
     6
 40
13.0
 49
10.0
 74
     0
 49
-1.0
 74
     0
 49
0.0
 74
     0
 49
-1.0
 74
     0
 49
0.0
 74
     0
 49
-1.0
 74
     0
  0
LTYPE
  5
45
330
5
100
AcDbSymbolTableRecord
100
AcDbLinetypeTableRecord
  2
CENTER_DASH_DASH
 70
     0
  3
Center_Dash_Dash
 72
    65
 73
     6
 40
14.0
 49
9.0
 74
     0
 49
-1.0
 74
     0
 49
1.0
 74
     0
 49
-1.0
 74
     0
 49
1.0
 74
     0
 49
-1.0
 74
     0
  0
ENDTAB
  0
TABLE
  2
LAYER
  5
2
330
0
100
AcDbSymbolTable
 70
     2
  0
LAYER
  5
10
330
2
100
AcDbSymbolTableRecord
100
AcDbLayerTableRecord
  2
0
 70
     0
 62
     7
  6
Continuous
370
    -3
390
F
  0
LAYER
  5
46
330
2
100
AcDbSymbolTableRecord
100
AcDbLayerTableRecord
  2
1
 70
     0
 62
     7
  6
Continuous
370
    -3
390
F
  0
ENDTAB
  0
TABLE
  2
STYLE
  5
3
330
0
100
AcDbSymbolTable
 70
     5
  0
STYLE
  5
11
330
3
100
AcDbSymbolTableRecord
100
AcDbTextStyleTableRecord
  2
Standard
 70
     0
 40
0.0
 41
1.0
 50
0.0
 71
     0
 42
0.2
  3
txt
  4

  0
STYLE
  5
A5
330
3
100
AcDbSymbolTableRecord
100
AcDbTextStyleTableRecord
  2
CONVERTER_11
 70
     0
 40
0.0
 41
0.9
 50
0.0
 71
     0
 42
0.2
  3
txt.shx
  4

  0
STYLE
  5
1FC
330
3
100
AcDbSymbolTableRecord
100
AcDbTextStyleTableRecord
  2
CONVERTER_12
 70
     0
 40
0.0
 41
0.81
 50
0.0
 71
     0
 42
0.2
  3
txt.shx
  4

  0
STYLE
  5
202
330
3
100
AcDbSymbolTableRecord
100
AcDbTextStyleTableRecord
  2
CONVERTER_13
 70
     0
 40
0.0
 41
0.855
 50
0.0
 71
     0
 42
0.2
  3
txt.shx
  4

  0
STYLE
  5
205
330
3
100
AcDbSymbolTableRecord
100
AcDbTextStyleTableRecord
  2
CONVERTER_14
 70
     0
 40
0.0
 41
0.72
 50
0.0
 71
     0
 42
0.2
  3
txt.shx
  4

  0
ENDTAB
  0
TABLE
  2
VIEW
  5
6
330
0
100
AcDbSymbolTable
 70
     0
  0
ENDTAB
  0
TABLE
  2
UCS
  5
7
330
0
100
AcDbSymbolTable
 70
     0
  0
ENDTAB
  0
TABLE
  2
APPID
  5
9
330
0
100
AcDbSymbolTable
 70
     1
  0
APPID
  5
12
330
9
100
AcDbSymbolTableRecord
100
AcDbRegAppTableRecord
  2
ACAD
 70
     0
  0
ENDTAB
  0
TABLE
  2
DIMSTYLE
  5
A
330
0
100
AcDbSymbolTable
 70
     4
100
AcDbDimStyleTable
  0
DIMSTYLE
105
27
330
A
100
AcDbSymbolTableRecord
100
AcDbDimStyleTableRecord
  2
Standard
 70
     0
178
     0
340
11
  0
DIMSTYLE
105
B5
102
{ACAD_REACTORS
330
B6
102
}
330
A
100
AcDbSymbolTableRecord
100
AcDbDimStyleTableRecord
  2
ME10_DIM_10
 70
     0
 41
0.7
 42
0.0
 44
0.3
 73
     0
 74
     0
 77
     1
 78
     8
140
0.7
147
0.3
172
     1
173
     1
174
     1
175
     1
176
     2
177
     2
178
     3
340
A5
  0
DIMSTYLE
105
D1
102
{ACAD_REACTORS
330
D2
102
}
330
A
100
AcDbSymbolTableRecord
100
AcDbDimStyleTableRecord
  2
ME10_DIM_11
 70
     0
 41
0.7
 42
0.0
 44
0.3
 73
     0
 74
     0
 77
     1
 78
     8
140
0.7
147
0.3
172
     1
173
     1
174
     1
175
     1
176
     2
177
     2
178
     3
340
A5
  0
DIMSTYLE
105
DC
102
{ACAD_REACTORS
330
DD
102
}
330
A
100
AcDbSymbolTableRecord
100
AcDbDimStyleTableRecord
  2
ME10_DIM_12
 70
     0
 41
0.7
 42
0.0
 44
0.3
 73
     0
 74
     0
 77
     1
 78
     8
140
0.7
147
0.3
172
     1
173
     1
174
     1
175
     1
176
     2
177
     2
178
     3
340
A5
  0
ENDTAB
  0
TABLE
  2
BLOCK_RECORD
  5
1
330
0
100
AcDbSymbolTable
 70
    20
  0
BLOCK_RECORD
  5
1F
330
1
100
AcDbSymbolTableRecord
100
AcDbBlockTableRecord
  2
*Model_Space
340
22
  0
BLOCK_RECORD
  5
1B
330
1
100
AcDbSymbolTableRecord
100
AcDbBlockTableRecord
  2
*Paper_Space
340
1E
  0
BLOCK_RECORD
  5
23
330
1
100
AcDbSymbolTableRecord
100
AcDbBlockTableRecord
  2
*Paper_Space0
340
26
  0
BLOCK_RECORD
  5
47
330
1
100
AcDbSymbolTableRecord
100
AcDbBlockTableRecord
  2
ZB_5_OG-select__1
340
0
102
{BLKREFS
331
4B
102
}
  0
BLOCK_RECORD
  5
4A
330
1
100
AcDbSymbolTableRecord
100
AcDbBlockTableRecord
  2
Allg1
340
0
102
{BLKREFS
331
7D
102
}
  0
BLOCK_RECORD
  5
4E
330
1
100
AcDbSymbolTableRecord
100
AcDbBlockTableRecord
  2
ZB_5_OG-select__2
340
0
102
{BLKREFS
331
52
102
}
  0
BLOCK_RECORD
  5
51
330
1
100
AcDbSymbolTableRecord
100
AcDbBlockTableRecord
  2
Drfsicht2
340
0
102
{BLKREFS
331
7E
102
}
  0
BLOCK_RECORD
  5
55
330
1
100
AcDbSymbolTableRecord
100
AcDbBlockTableRecord
  2
ZB_5_OG-select__3
340
0
102
{BLKREFS
331
59
102
}
  0
BLOCK_RECORD
  5
58
330
1
100
AcDbSymbolTableRecord
100
AcDbBlockTableRecord
  2
Vordans2
340
0
102
{BLKREFS
331
7F
102
}
  0
BLOCK_RECORD
  5
5C
330
1
100
AcDbSymbolTableRecord
100
AcDbBlockTableRecord
  2
ZB_5_OG-select__4
340
0
102
{BLKREFS
331
60
102
}
  0
BLOCK_RECORD
  5
5F
330
1
100
AcDbSymbolTableRecord
100
AcDbBlockTableRecord
  2
SA_Rechts2
340
0
102
{BLKREFS
331
80
102
}
  0
BLOCK_RECORD
  5
63
330
1
100
AcDbSymbolTableRecord
100
AcDbBlockTableRecord
  2
ZB_5_OG-select__5
340
0
102
{BLKREFS
331
67
102
}
  0
BLOCK_RECORD
  5
66
330
1
100
AcDbSymbolTableRecord
100
AcDbBlockTableRecord
  2
Rckans2
340
0
102
{BLKREFS
331
81
102
}
  0
BLOCK_RECORD
  5
6A
330
1
100
AcDbSymbolTableRecord
100
AcDbBlockTableRecord
  2
ZB_5_OG-select__6
340
0
102
{BLKREFS
331
6E
102
}
  0
BLOCK_RECORD
  5
6D
330
1
100
AcDbSymbolTableRecord
100
AcDbBlockTableRecord
  2
SA_Links2
340
0
102
{BLKREFS
331
82
102
}
  0
BLOCK_RECORD
  5
71
330
1
100
AcDbSymbolTableRecord
100
AcDbBlockTableRecord
  2
_rahmen
340
0
102
{BLKREFS
331
78
102
}
  0
BLOCK_RECORD
  5
74
330
1
100
AcDbSymbolTableRecord
100
AcDbBlockTableRecord
  2
_punkt
340
0
102
{BLKREFS
331
79
102
}
  0
BLOCK_RECORD
  5
77
330
1
100
AcDbSymbolTableRecord
100
AcDbBlockTableRecord
  2
A4I_CS
340
0
102
{BLKREFS
331
83
102
}
  0
BLOCK_RECORD
  5
7C
330
1
100
AcDbSymbolTableRecord
100
AcDbBlockTableRecord
  2
1
340
0
102
{BLKREFS
331
86
102
}
  0
BLOCK_RECORD
  5
AC
330
1
100
AcDbSymbolTableRecord
100
AcDbBlockTableRecord
  2
*D17
340
0
  0
BLOCK_RECORD
  5
C8
330
1
100
AcDbSymbolTableRecord
100
AcDbBlockTableRecord
  2
*D18
340
0
  0
BLOCK_RECORD
  5
D3
330
1
100
AcDbSymbolTableRecord
100
AcDbBlockTableRecord
  2
*D19
340
0
  0
ENDTAB
  0
ENDSEC
  0
SECTION
  2
BLOCKS
  0
BLOCK
  5
20
330
1F
100
AcDbEntity
  8
0
100
AcDbBlockBegin
  2
*Model_Space
 70
     0
 10
0.0
 20
0.0
 30
0.0
  3
*Model_Space
  1

  0
ENDBLK
  5
21
330
1F
100
AcDbEntity
  8
0
100
AcDbBlockEnd
  0
BLOCK
  5
1C
330
1B
100
AcDbEntity
 67
     1
  8
0
100
AcDbBlockBegin
  2
*Paper_Space
 70
     0
 10
0.0
 20
0.0
 30
0.0
  3
*Paper_Space
  1

  0
ENDBLK
  5
1D
330
1B
100
AcDbEntity
 67
     1
  8
0
100
AcDbBlockEnd
  0
BLOCK
  5
24
330
23
100
AcDbEntity
  8
0
100
AcDbBlockBegin
  2
*Paper_Space0
 70
     0
 10
0.0
 20
0.0
 30
0.0
  3
*Paper_Space0
  1

  0
ENDBLK
  5
25
330
23
100
AcDbEntity
  8
0
100
AcDbBlockEnd
  0
BLOCK
  5
48
330
47
100
AcDbEntity
  8
0
100
AcDbBlockBegin
  2
ZB_5_OG-select__1
 70
     0
 10
-45.40663316598166
 20
-42.78478988061049
 30
0.0
  3
ZB_5_OG-select__1
  1

  0
LINE
  5
87
330
47
100
AcDbEntity
  8
0
  6
Continuous
 62
     7
100
AcDbLine
 10
-38.08615119506849
 20
-42.70745635284339
 30
0.0
 11
-35.51115119506848
 21
-40.47744093809846
 31
0.0
  0
LINE
  5
88
330
47
100
AcDbEntity
  8
0
  6
Continuous
 62
     7
100
AcDbLine
 10
-43.02683712439096
 20
-40.56471712055627
 30
0.0
 11
-43.30652156180447
 21
-40.48397917794184
 31
0.0
  0
LINE
  5
89
330
47
100
AcDbEntity
  8
0
  6
Continuous
 62
     7
100
AcDbLine
 10
-45.40663316598165
 20
-38.05907582999429
 30
0.0
 11
-45.40663316598166
 21
-37.10644788583149
 31
0.0
  0
LINE
  5
8A
330
47
100
AcDbEntity
  8
0
  6
Continuous
 62
     7
100
AcDbLine
 10
-39.8080719942544
 20
-39.67524122977994
 30
0.0
 11
-41.91192759797407
 21
-39.06791043020812
 31
0.0
  0
LINE
  5
8B
330
47
100
AcDbEntity
  8
0
  6
Continuous
 62
     7
100
AcDbLine
 10
-42.53953042849165
 20
-38.88673709863637
 30
0.0
 11
-45.40663316598165
 21
-38.05907582999429
 31
0.0
  0
LINE
  5
8C
330
47
100
AcDbEntity
  8
0
  6
Continuous
 62
     7
100
AcDbLine
 10
-45.40663316598166
 20
-37.10644788583149
 30
0.0
 11
-36.31336642624505
 21
-39.73144788583149
 31
0.0
  0
LINE
  5
8D
330
47
100
AcDbEntity
  8
0
  6
Continuous
 62
     7
100
AcDbLine
 10
-42.83163316598166
 20
-34.87643247108655
 30
0.0
 11
-45.40663316598166
 21
-37.10644788583149
 31
0.0
  0
LINE
  5
8E
330
47
100
AcDbEntity
  8
0
  6
Continuous
 62
     7
100
AcDbLine
 10
-41.91192759797407
 20
-39.06791043020812
 30
0.0
 11
-42.63128510144061
 21
-41.54492855780515
 31
0.0
  0
LINE
  5
8F
330
47
100
AcDbEntity
  8
0
  6
Continuous
 62
     7
100
AcDbLine
 10
-42.63128510144061
 20
-41.54492855780515
 30
0.0
 11
-40.30628510144039
 21
-39.53141949400614
 31
0.0
  0
LINE
  5
90
330
47
100
AcDbEntity
  8
0
  6
Continuous
 62
     7
100
AcDbLine
 10
-38.41347803042259
 20
-42.76250458172623
 30
0.0
 11
-39.08871449078635
 21
-42.5675806056474
 31
0.0
  0
LINE
  5
91
330
47
100
AcDbEntity
  8
0
  6
Continuous
 62
     7
100
AcDbLine
 10
-36.31336642624504
 20
-40.68407582999429
 30
0.0
 11
-36.31336642624505
 21
-39.73144788583149
 31
0.0
  0
LINE
  5
92
330
47
100
AcDbEntity
  8
0
  6
Continuous
 62
     7
100
AcDbLine
 10
-38.4134780304226
 20
-41.89647917794162
 30
0.0
 11
-38.69316246783668
 21
-41.8157412353272
 31
0.0
  0
LINE
  5
93
330
47
100
AcDbEntity
  8
0
  6
Continuous
 62
     2
100
AcDbLine
 10
-36.83847803042239
 20
-40.5324891669811
 30
0.0
 11
-38.4134780304226
 21
-41.89647917794162
 31
0.0
  0
LINE
  5
94
330
47
100
AcDbEntity
  8
0
  6
Continuous
 62
     7
100
AcDbLine
 10
-36.31336642624504
 20
-40.68407582999429
 30
0.0
 11
-39.18046916373642
 21
-39.85641456135181
 31
0.0
  0
LINE
  5
95
330
47
100
AcDbEntity
  8
0
  6
Continuous
 62
     7
100
AcDbLine
 10
-36.31336642624504
 20
-40.68407582999429
 30
0.0
 11
-33.73836642624505
 21
-38.45406041524935
 31
0.0
  0
LINE
  5
96
330
47
100
AcDbEntity
  8
0
  6
Continuous
 62
     2
100
AcDbLine
 10
-42.90153332912385
 20
-40.13324908020665
 30
0.0
 11
-43.30652156180447
 21
-40.48397917794184
 31
0.0
  0
LINE
  5
97
330
47
100
AcDbEntity
  8
0
  6
Continuous
 62
     7
100
AcDbLine
 10
-42.63128510144061
 20
-41.54492855780515
 30
0.0
 11
-43.30652156180448
 21
-41.35000458172627
 31
0.0
  0
LINE
  5
98
330
47
100
AcDbEntity
  8
0
  6
Continuous
 62
     7
100
AcDbLine
 10
-42.53953042849165
 20
-38.88673709863637
 30
0.0
 11
-43.02683712439096
 21
-40.56471712055627
 31
0.0
  0
LINE
  5
99
330
47
100
AcDbEntity
  8
0
  6
Continuous
 62
     7
100
AcDbLine
 10
-43.63384839715847
 20
-40.53902740682484
 30
0.0
 11
-42.8129054353495
 21
-39.82806994684024
 31
0.0
  0
LINE
  5
9A
330
47
100
AcDbEntity
  8
0
  6
Continuous
 62
     7
100
AcDbLine
 10
-39.08871449078635
 20
-42.5675806056474
 30
0.0
 11
-39.8080719942544
 21
-39.67524122977994
 31
0.0
  0
LINE
  5
9B
330
47
100
AcDbEntity
  8
0
  6
Continuous
 62
     7
100
AcDbLine
 10
-33.73836642624505
 20
-38.45406041524935
 30
0.0
 11
-33.73836642624504
 21
-37.50143247108655
 31
0.0
  0
LINE
  5
9C
330
47
100
AcDbEntity
  8
0
  6
Continuous
 62
     7
100
AcDbLine
 10
-38.69316246783668
 20
-41.8157412353272
 30
0.0
 11
-39.18046916373642
 21
-39.85641456135181
 31
0.0
  0
LINE
  5
9D
330
47
100
AcDbEntity
  8
0
  6
Continuous
 62
     7
100
AcDbLine
 10
-38.69316246783668
 20
-41.8157412353272
 30
0.0
 11
-37.11816246783644
 21
-40.45175122436653
 31
0.0
  0
LINE
  5
9E
330
47
100
AcDbEntity
  8
0
  6
Continuous
 62
     7
100
AcDbLine
 10
-36.31336642624505
 20
-39.73144788583149
 30
0.0
 11
-33.73836642624504
 21
-37.50143247108655
 31
0.0
  0
LINE
  5
9F
330
47
100
AcDbEntity
  8
0
  6
Continuous
 62
     7
100
AcDbLine
 10
-42.83163316598166
 20
-34.87643247108655
 30
0.0
 11
-33.73836642624504
 21
-37.50143247108655
 31
0.0
  0
SPLINE
  5
A0
330
47
100
AcDbEntity
  8
0
  6
Continuous
 62
     7
100
AcDbSpline
210
0.0
220
0.0
230
1.0
 70
     8
 71
     3
 72
    11
 73
     7
 74
     5
 42
0.000000001
 43
0.0000000001
 44
0.00000001
 40
0.0
 40
0.0
 40
0.0
 40
0.0
 40
0.0805526799810451
 40
0.1638036380531027
 40
0.2517511792398155
 40
0.3453217744507826
 40
0.3453217744507826
 40
0.3453217744507826
 40
0.3453217744507826
 10
-38.08615119506849
 20
-42.70745635284339
 30
0.0
 10
-38.10800751689143
 20
-42.72338128565627
 30
0.0
 10
-38.15245229089543
 20
-42.75576457722519
 30
0.0
 10
-38.23468952641216
 20
-42.77872919168854
 30
0.0
 10
-38.3237218020187
 20
-42.78320268076304
 30
0.0
 10
-38.38294772316622
 20
-42.7695449820428
 30
0.0
 10
-38.41347803042259
 20
-42.76250458172623
 30
0.0
 11
-38.08615119506849
 21
-42.70745635284339
 31
0.0
 11
-38.15391199231431
 21
-42.7510133147149
 31
0.0
 11
-38.23354410262922
 21
-42.77529189581189
 31
0.0
 11
-38.32140558928052
 21
-42.77918157000707
 31
0.0
 11
-38.41347803042259
 21
-42.76250458172623
 31
0.0
  0
SPLINE
  5
A1
330
47
100
AcDbEntity
  8
0
  6
Continuous
 62
     7
100
AcDbSpline
210
0.0
220
0.0
230
1.0
 70
     8
 71
     3
 72
    15
 73
    11
 74
     9
 42
0.000000001
 43
0.0000000001
 44
0.00000001
 40
0.0
 40
0.0
 40
0.0
 40
0.0
 40
0.1328962109757213
 40
0.2727053220926474
 40
0.4150031796287926
 40
0.5548058914526053
 40
0.6876905845377559
 40
0.8109308977219236
 40
0.9245895382850978
 40
1.03215005440117
 40
1.03215005440117
 40
1.03215005440117
 40
1.03215005440117
 10
-38.4134780304226
 20
-41.89647917794162
 30
0.0
 10
-38.37181594459018
 20
-41.91214047821833
 30
0.0
 10
-38.28632463018272
 20
-41.94427775061265
 30
0.0
 10
-38.17549108304638
 20
-42.03012366341432
 30
0.0
 10
-38.08255977304323
 20
-42.13667941360006
 30
0.0
 10
-38.01571322219101
 20
-42.25909708184408
 30
0.0
 10
-37.97967563122505
 20
-42.38758711381632
 30
0.0
 10
-37.97865863856144
 20
-42.51189407629819
 30
0.0
 10
-38.01117186078153
 20
-42.62577653223188
 30
0.0
 10
-38.06162164612459
 20
-42.68073474107349
 30
0.0
 10
-38.08615119506849
 20
-42.70745635284339
 30
0.0
 11
-38.4134780304226
 21
-41.89647917794162
 31
0.0
 11
-38.29149853704412
 21
-41.94922769084975
 31
0.0
 11
-38.17939863815982
 21
-42.03277528222397
 31
0.0
 11
-38.08625814490048
 21
-42.14035561853728
 31
0.0
 11
-38.01962046526866
 21
-42.26325483767263
 31
0.0
 11
-37.98488352351909
 21
-42.39151896713859
 31
0.0
 11
-37.98486012101583
 21
-42.51475928109877
 31
0.0
 11
-38.01955289204673
 21
-42.6229937469332
 31
0.0
 11
-38.08615119506849
 21
-42.70745635284339
 31
0.0
  0
SPLINE
  5
A2
330
47
100
AcDbEntity
  8
0
  6
Continuous
 62
     7
100
AcDbSpline
210
0.0
220
0.0
230
1.0
 70
     8
 71
     3
 72
    11
 73
     7
 74
     5
 42
0.000000001
 43
0.0000000001
 44
0.00000001
 40
0.0
 40
0.0
 40
0.0
 40
0.0
 40
0.0805526799810391
 40
0.163803638053043
 40
0.2517511792397212
 40
0.3453217744506465
 40
0.3453217744506465
 40
0.3453217744506465
 40
0.3453217744506465
 10
-43.63384839715847
 20
-40.53902740682484
 30
0.0
 10
-43.61199207533555
 20
-40.52310247401198
 30
0.0
 10
-43.56754730133155
 20
-40.49071918244304
 30
0.0
 10
-43.48531006581483
 20
-40.46775456797971
 30
0.0
 10
-43.39627779020839
 20
-40.46328107890522
 30
0.0
 10
-43.33705186906082
 20
-40.47693877762533
 30
0.0
 10
-43.30652156180447
 20
-40.48397917794184
 30
0.0
 11
-43.63384839715847
 21
-40.53902740682484
 31
0.0
 11
-43.56608759991265
 21
-40.49547044495333
 31
0.0
 11
-43.48645548959779
 21
-40.47119186385636
 31
0.0
 11
-43.39859400294653
 21
-40.46730218966116
 31
0.0
 11
-43.30652156180447
 21
-40.48397917794184
 31
0.0
  0
SPLINE
  5
A3
330
47
100
AcDbEntity
  8
0
  6
Continuous
 62
     7
100
AcDbSpline
210
0.0
220
0.0
230
1.0
 70
     8
 71
     3
 72
    15
 73
    11
 74
     9
 42
0.000000001
 43
0.0000000001
 44
0.00000001
 40
0.0
 40
0.0
 40
0.0
 40
0.0
 40
0.1328962109756644
 40
0.2727053220925236
 40
0.4150031796286126
 40
0.5548058914523714
 40
0.6876905845374839
 40
0.8109308977215948
 40
0.9245895382847218
 40
1.032150054400748
 40
1.032150054400748
 40
1.032150054400748
 40
1.032150054400748
 10
-43.30652156180448
 20
-41.35000458172627
 30
0.0
 10
-43.34818364763687
 20
-41.33434328144956
 30
0.0
 10
-43.43367496204432
 20
-41.30220600905528
 30
0.0
 10
-43.54450850918059
 20
-41.21636009625363
 30
0.0
 10
-43.63743981918372
 20
-41.10980434606792
 30
0.0
 10
-43.70428637003592
 20
-40.98738667782397
 30
0.0
 10
-43.74032396100185
 20
-40.85889664585176
 30
0.0
 10
-43.74134095366547
 20
-40.73458968336996
 30
0.0
 10
-43.7088277314454
 20
-40.6207072274363
 30
0.0
 10
-43.65837794610237
 20
-40.56574901859472
 30
0.0
 10
-43.63384839715847
 20
-40.53902740682484
 30
0.0
 11
-43.30652156180448
 21
-41.35000458172627
 31
0.0
 11
-43.42850105518291
 21
-41.29725606881817
 31
0.0
 11
-43.54060095406716
 21
-41.21370847744399
 31
0.0
 11
-43.63374144732647
 21
-41.10612814113072
 31
0.0
 11
-43.70037912695827
 21
-40.98322892199542
 31
0.0
 11
-43.73511606870782
 21
-40.85496479252949
 31
0.0
 11
-43.73513947121108
 21
-40.73172447856938
 31
0.0
 11
-43.7004467001802
 21
-40.62349001273499
 31
0.0
 11
-43.63384839715847
 21
-40.53902740682484
 31
0.0
  0
SPLINE
  5
A4
330
47
100
AcDbEntity
  8
0
  6
Continuous
 62
     7
100
AcDbSpline
210
0.0
220
0.0
230
1.0
 70
     8
 71
     3
 72
    11
 73
     7
 74
     5
 42
0.000000001
 43
0.0000000001
 44
0.00000001
 40
0.0
 40
0.0
 40
0.0
 40
0.0
 40
0.1562289347118053
 40
0.3010697518521126
 40
0.4329966995945151
 40
0.556102904324594
 40
0.556102904324594
 40
0.556102904324594
 40
0.556102904324594
 10
-35.47913327658459
 20
-39.96160872970923
 30
0.0
 10
-35.45663049583796
 20
-40.00899743698974
 30
0.0
 10
-35.41326526047769
 20
-40.10032051455125
 30
0.0
 10
-35.39904174344566
 20
-40.24607602268053
 30
0.0
 10
-35.42626636642456
 20
-40.3816146238897
 30
0.0
 10
-35.48351627597731
 20
-40.44624393997644
 30
0.0
 10
-35.51115119506848
 20
-40.47744093809846
 30
0.0
 11
-35.47913327658459
 21
-39.96160872970923
 31
0.0
 11
-35.42063887221825
 21
-40.10647378605662
 31
0.0
 11
-35.40626812435574
 21
-40.25059992796587
 31
0.0
 11
-35.43754021938279
 21
-40.37876691582475
 31
0.0
 11
-35.51115119506848
 21
-40.47744093809846
 31
0.0
  0
ENDBLK
  5
49
330
47
100
AcDbEntity
  8
0
100
AcDbBlockEnd
  0
BLOCK
  5
4C
330
4A
100
AcDbEntity
  8
0
100
AcDbBlockBegin
  2
Allg1
 70
     0
 10
-39.20000000000004
 20
-38.8
 30
0.0
  3
Allg1
  1

  0
INSERT
  5
4B
330
4A
100
AcDbEntity
  8
0
100
AcDbBlockReference
  2
ZB_5_OG-select__1
 10
-45.40663316598166
 20
-42.78478988061049
 30
0.0
  0
MTEXT
  5
A6
330
4A
100
AcDbEntity
  8
1
 62
     6
100
AcDbMText
 10
-39.57250004709002
 20
-45.67743322027553
 30
0.0
 40
1.0
 41
0.0
 71
     2
 72
     1
  1
 
  7
CONVERTER_11
 73
     1
 44
1.32052821128451
  0
ENDBLK
  5
4D
330
4A
100
AcDbEntity
  8
0
100
AcDbBlockEnd
  0
BLOCK
  5
4F
330
4E
100
AcDbEntity
  8
0
100
AcDbBlockBegin
  2
ZB_5_OG-select__2
 70
     0
 10
-66.64999976456897
 20
-39.320000000005
 30
0.0
  3
ZB_5_OG-select__2
  1

  0
LINE
  5
A7
330
4E
100
AcDbEntity
  8
0
  6
Continuous
 62
     7
100
AcDbLine
 10
-56.14999976456898
 20
-39.320000000005
 30
0.0
 11
-56.14999976456897
 21
-34.170000000005
 31
0.0
  0
LINE
  5
A8
330
4E
100
AcDbEntity
  8
0
  6
Continuous
 62
     7
100
AcDbLine
 10
-56.14999976456898
 20
-39.320000000005
 30
0.0
 11
-66.64999976456897
 21
-39.320000000005
 31
0.0
  0
LINE
  5
A9
330
4E
100
AcDbEntity
  8
0
  6
Continuous
 62
     7
100
AcDbLine
 10
-56.14999976456897
 20
-34.170000000005
 30
0.0
 11
-66.64999976456897
 21
-34.170000000005
 31
0.0
  0
LINE
  5
AA
330
4E
100
AcDbEntity
  8
0
  6
Continuous
 62
     7
100
AcDbLine
 10
-66.64999976456897
 20
-34.170000000005
 30
0.0
 11
-66.64999976456897
 21
-39.320000000005
 31
0.0
  0
ENDBLK
  5
50
330
4E
100
AcDbEntity
  8
0
100
AcDbBlockEnd
  0
BLOCK
  5
53
330
51
100
AcDbEntity
  8
0
100
AcDbBlockBegin
  2
Drfsicht2
 70
     0
 10
-61.39999999999995
 20
-36.0
 30
0.0
  3
Drfsicht2
  1

  0
INSERT
  5
52
330
51
100
AcDbEntity
  8
0
100
AcDbBlockReference
  2
ZB_5_OG-select__2
 10
-66.64999976456897
 20
-39.320000000005
 30
0.0
  0
MTEXT
  5
AB
330
51
100
AcDbEntity
  8
1
 62
     6
100
AcDbMText
 10
-61.40000000000001
 20
-40.32000017166604
 30
0.0
 40
1.0
 41
0.0
 71
     2
 72
     1
  1
 
  7
CONVERTER_11
 73
     1
 44
1.32052821128451
  0
DIMENSION
  5
B6
330
51
100
AcDbEntity
  8
1
100
AcDbDimension
  2
*D17
 10
-68.64999976456897
 20
-34.17000000000501
 30
0.0
 11
-69.33499976456898
 21
-36.88859333544701
 31
0.0
 70
    32
  1
<>
 71
     5
 42
-1.0
 53
90.0
  3
ME10_DIM_10
100
AcDbAlignedDimension
 13
-66.64999976456897
 23
-39.320000000005
 33
0.0
 14
-66.64999976456897
 24
-34.170000000005
 34
0.0
 50
90.0
100
AcDbRotatedDimension
  0
ENDBLK
  5
54
330
51
100
AcDbEntity
  8
0
100
AcDbBlockEnd
  0
BLOCK
  5
56
330
55
100
AcDbEntity
  8
0
100
AcDbBlockBegin
  2
ZB_5_OG-select__3
 70
     0
 10
-66.64999976456905
 20
-25.14332485065373
 30
0.0
  3
ZB_5_OG-select__3
  1

  0
LINE
  5
B7
330
55
100
AcDbEntity
  8
0
  6
Continuous
 62
     7
100
AcDbLine
 10
-63.44530386025369
 20
-25.14332485065372
 30
0.0
 11
-64.22499976456915
 21
-25.14332485065372
 31
0.0
  0
LINE
  5
B8
330
55
100
AcDbEntity
  8
0
  6
Continuous
 62
     7
100
AcDbLine
 10
-63.90204799411145
 20
-24.14332485065372
 30
0.0
 11
-64.22499976456915
 21
-24.14332485065372
 31
0.0
  0
LINE
  5
B9
330
55
100
AcDbEntity
  8
0
  6
Continuous
 62
     7
100
AcDbLine
 10
-62.61466136371372
 20
-22.04332485065342
 30
0.0
 11
-63.44530386025369
 21
-25.14332485065372
 31
0.0
  0
LINE
  5
BA
330
55
100
AcDbEntity
  8
0
  6
Continuous
 62
     7
100
AcDbLine
 10
-63.33935469000071
 20
-22.04332485065341
 30
0.0
 11
-63.90204799411145
 21
-24.14332485065372
 31
0.0
  0
LINE
  5
BB
330
55
100
AcDbEntity
  8
0
  6
Continuous
 62
     7
100
AcDbLine
 10
-56.14999976456903
 20
-22.04332485065342
 30
0.0
 11
-56.14999976456905
 21
-20.94332485065351
 31
0.0
  0
LINE
  5
BC
330
55
100
AcDbEntity
  8
0
  6
Continuous
 62
     7
100
AcDbLine
 10
-56.14999976456903
 20
-22.04332485065342
 30
0.0
 11
-59.46064483913895
 21
-22.04332485065342
 31
0.0
  0
LINE
  5
BD
330
55
100
AcDbEntity
  8
0
  6
Continuous
 62
     7
100
AcDbLine
 10
-66.64999976456903
 20
-22.04332485065342
 30
0.0
 11
-66.64999976456905
 21
-20.94332485065351
 31
0.0
  0
LINE
  5
BE
330
55
100
AcDbEntity
  8
0
  6
Continuous
 62
     7
100
AcDbLine
 10
-63.33935469000071
 20
-22.04332485065341
 30
0.0
 11
-66.64999976456903
 21
-22.04332485065342
 31
0.0
  0
LINE
  5
BF
330
55
100
AcDbEntity
  8
0
  6
Continuous
 62
     7
100
AcDbLine
 10
-60.18533816542641
 20
-22.04332485065341
 30
0.0
 11
-62.61466136371372
 21
-22.04332485065342
 31
0.0
  0
LINE
  5
C0
330
55
100
AcDbEntity
  8
0
  6
Continuous
 62
     7
100
AcDbLine
 10
-58.57499976456937
 20
-25.14332485065372
 30
0.0
 11
-59.3546956688847
 21
-25.14332485065373
 31
0.0
  0
LINE
  5
C1
330
55
100
AcDbEntity
  8
0
  6
Continuous
 62
     7
100
AcDbLine
 10
-58.57499976456938
 20
-24.14332485065353
 30
0.0
 11
-58.89795153502772
 21
-24.14332485065372
 31
0.0
  0
LINE
  5
C2
330
55
100
AcDbEntity
  8
0
  6
Continuous
 62
     7
100
AcDbLine
 10
-59.3546956688847
 20
-25.14332485065373
 30
0.0
 11
-60.18533816542641
 21
-22.04332485065341
 31
0.0
  0
LINE
  5
C3
330
55
100
AcDbEntity
  8
0
  6
Continuous
 62
     7
100
AcDbLine
 10
-58.89795153502772
 20
-24.14332485065372
 30
0.0
 11
-59.46064483913895
 21
-22.04332485065342
 31
0.0
  0
LINE
  5
C4
330
55
100
AcDbEntity
  8
0
  6
Continuous
 62
     7
100
AcDbLine
 10
-66.64999976456905
 20
-20.94332485065351
 30
0.0
 11
-56.14999976456905
 21
-20.94332485065351
 31
0.0
  0
ARC
  5
C5
330
55
100
AcDbEntity
  8
0
  6
Continuous
 62
     7
100
AcDbCircle
 10
-64.22499976456915
 20
-24.64332485065372
 30
0.0
 40
0.5
100
AcDbArc
 50
90.0
 51
270.0
  0
ARC
  5
C6
330
55
100
AcDbEntity
  8
0
  6
Continuous
 62
     7
100
AcDbCircle
 10
-58.57499976456938
 20
-24.64332485065373
 30
0.0
 40
0.4999999999999893
100
AcDbArc
 50
270.0000000000008
 51
90.0
  0
ENDBLK
  5
57
330
55
100
AcDbEntity
  8
0
100
AcDbBlockEnd
  0
BLOCK
  5
5A
330
58
100
AcDbEntity
  8
0
100
AcDbBlockBegin
  2
Vordans2
 70
     0
 10
-61.4
 20
-23.043326
 30
0.0
  3
Vordans2
  1

  0
INSERT
  5
59
330
58
100
AcDbEntity
  8
0
100
AcDbBlockReference
  2
ZB_5_OG-select__3
 10
-66.64999976456905
 20
-25.14332485065373
 30
0.0
  0
MTEXT
  5
C7
330
58
100
AcDbEntity
  8
1
 62
     6
100
AcDbMText
 10
-61.40000000000001
 20
-29.17000034358895
 30
0.0
 40
1.0
 41
0.0
 71
     2
 72
     1
  1
 
  7
CONVERTER_11
 73
     1
 44
1.32052821128451
  0
DIMENSION
  5
D2
330
58
100
AcDbEntity
  8
1
100
AcDbDimension
  2
*D18
 10
-69.332484451941
 20
-20.94332485065351
 30
0.0
 11
-70.017484451941
 21
-22.89712221775081
 31
0.0
 70
    32
  1
<>
 71
     5
 42
-1.0
 53
90.0
  3
ME10_DIM_11
100
AcDbAlignedDimension
 13
-63.44530386025369
 23
-25.14332485065372
 33
0.0
 14
-66.64999976456905
 24
-20.94332485065351
 34
0.0
 50
90.0
100
AcDbRotatedDimension
  0
DIMENSION
  5
DD
330
58
100
AcDbEntity
  8
1
100
AcDbDimension
  2
*D19
 10
-66.64999976456903
 20
-27.66877999777441
 30
0.0
 11
-61.244928892579
 21
-26.98377999777441
 31
0.0
 70
    32
  1
<>
 71
     5
 42
-1.0
 53
0.00013888888889
  3
ME10_DIM_12
100
AcDbAlignedDimension
 13
-56.14999976456903
 23
-22.04332485065342
 33
0.0
 14
-66.64999976456903
 24
-22.04332485065342
 34
0.0
100
AcDbRotatedDimension
  0
ENDBLK
  5
5B
330
58
100
AcDbEntity
  8
0
100
AcDbBlockEnd
  0
BLOCK
  5
5D
330
5C
100
AcDbEntity
  8
0
100
AcDbBlockBegin
  2
ZB_5_OG-select__4
 70
     0
 10
-76.78833800000504
 20
-25.14332485065393
 30
0.0
  3
ZB_5_OG-select__4
  1

  0
LINE
  5
DE
330
5C
100
AcDbEntity
  8
0
  6
Continuous
 62
     7
100
AcDbLine
 10
-76.78833800000504
 20
-24.14332485065353
 30
0.0
 11
-76.78833800000504
 21
-22.04332485065342
 31
0.0
  0
LINE
  5
DF
330
5C
100
AcDbEntity
  8
0
  6
Continuous
 62
     7
100
AcDbLine
 10
-71.63833800000505
 20
-24.14332485065353
 30
0.0
 11
-71.63833800000505
 21
-22.04332485065342
 31
0.0
  0
LINE
  5
E0
330
5C
100
AcDbEntity
  8
0
  6
Continuous
 62
     7
100
AcDbLine
 10
-76.78833800000504
 20
-22.04332485065342
 30
0.0
 11
-71.63833800000505
 21
-22.04332485065342
 31
0.0
  0
LINE
  5
E1
330
5C
100
AcDbEntity
  8
0
  6
Continuous
 62
     7
100
AcDbLine
 10
-76.78833800000504
 20
-22.04332485065342
 30
0.0
 11
-76.78833800000504
 21
-20.94332485065352
 31
0.0
  0
LINE
  5
E2
330
5C
100
AcDbEntity
  8
0
  6
Continuous
 62
     7
100
AcDbLine
 10
-76.78833800000504
 20
-20.94332485065352
 30
0.0
 11
-71.63833800000505
 21
-20.94332485065351
 31
0.0
  0
LINE
  5
E3
330
5C
100
AcDbEntity
  8
0
  6
Continuous
 62
     7
100
AcDbLine
 10
-71.63833800000505
 20
-22.04332485065342
 30
0.0
 11
-71.63833800000505
 21
-20.94332485065351
 31
0.0
  0
LINE
  5
E4
330
5C
100
AcDbEntity
  8
0
  6
Continuous
 62
     7
100
AcDbLine
 10
-76.78833800000504
 20
-24.14332485065353
 30
0.0
 11
-71.63833800000505
 21
-24.14332485065353
 31
0.0
  0
LINE
  5
E5
330
5C
100
AcDbEntity
  8
0
  6
Continuous
 62
     7
100
AcDbLine
 10
-76.78833800000504
 20
-24.14332485065353
 30
0.0
 11
-76.78833800000504
 21
-25.14332485065393
 31
0.0
  0
LINE
  5
E6
330
5C
100
AcDbEntity
  8
0
  6
Continuous
 62
     7
100
AcDbLine
 10
-71.63833800000505
 20
-24.14332485065353
 30
0.0
 11
-71.63833800000505
 21
-25.14332485065393
 31
0.0
  0
LINE
  5
E7
330
5C
100
AcDbEntity
  8
0
  6
Continuous
 62
     7
100
AcDbLine
 10
-76.78833800000504
 20
-25.14332485065393
 30
0.0
 11
-71.63833800000505
 21
-25.14332485065393
 31
0.0
  0
ENDBLK
  5
5E
330
5C
100
AcDbEntity
  8
0
100
AcDbBlockEnd
  0
BLOCK
  5
61
330
5F
100
AcDbEntity
  8
0
100
AcDbBlockBegin
  2
SA_Rechts2
 70
     0
 10
-73.46833800000005
 20
-23.043326
 30
0.0
  3
SA_Rechts2
  1

  0
INSERT
  5
60
330
5F
100
AcDbEntity
  8
0
100
AcDbBlockReference
  2
ZB_5_OG-select__4
 10
-76.78833800000504
 20
-25.14332485065393
 30
0.0
  0
MTEXT
  5
E8
330
5F
100
AcDbEntity
  8
1
 62
     6
100
AcDbMText
 10
-74.21333796849865
 20
-29.17000034358895
 30
0.0
 40
1.0
 41
0.0
 71
     2
 72
     1
  1
 
  7
CONVERTER_11
 73
     1
 44
1.32052821128451
  0
ENDBLK
  5
62
330
5F
100
AcDbEntity
  8
0
100
AcDbBlockEnd
  0
BLOCK
  5
64
330
63
100
AcDbEntity
  8
0
100
AcDbBlockBegin
  2
ZB_5_OG-select__5
 70
     0
 10
-41.02332423543103
 20
-25.14332485065395
 30
0.0
  3
ZB_5_OG-select__5
  1

  0
LINE
  5
E9
330
63
100
AcDbEntity
  8
0
  6
Continuous
 62
     7
100
AcDbLine
 10
-33.72802013974637
 20
-25.14332485065375
 30
0.0
 11
-32.9483242354309
 21
-25.14332485065375
 31
0.0
  0
LINE
  5
EA
330
63
100
AcDbEntity
  8
0
  6
Continuous
 62
     7
100
AcDbLine
 10
-33.27127600588861
 20
-24.14332485065375
 30
0.0
 11
-32.94832423543091
 21
-24.14332485065375
 31
0.0
  0
LINE
  5
EB
330
63
100
AcDbEntity
  8
0
  6
Continuous
 62
     7
100
AcDbLine
 10
-33.83396930999935
 20
-22.04332485065344
 30
0.0
 11
-33.27127600588861
 21
-24.14332485065375
 31
0.0
  0
LINE
  5
EC
330
63
100
AcDbEntity
  8
0
  6
Continuous
 62
     7
100
AcDbLine
 10
-34.55866263628634
 20
-22.04332485065345
 30
0.0
 11
-33.72802013974637
 21
-25.14332485065375
 31
0.0
  0
LINE
  5
ED
330
63
100
AcDbEntity
  8
0
  6
Continuous
 62
     7
100
AcDbLine
 10
-38.59832423543068
 20
-24.14332485065355
 30
0.0
 11
-38.27537246497235
 21
-24.14332485065375
 31
0.0
  0
LINE
  5
EE
330
63
100
AcDbEntity
  8
0
  6
Continuous
 62
     7
100
AcDbLine
 10
-38.59832423543069
 20
-25.14332485065375
 30
0.0
 11
-37.81862833111537
 21
-25.14332485065376
 31
0.0
  0
LINE
  5
EF
330
63
100
AcDbEntity
  8
0
  6
Continuous
 62
     7
100
AcDbLine
 10
-38.27537246497235
 20
-24.14332485065375
 30
0.0
 11
-37.71267916086111
 21
-22.04332485065343
 31
0.0
  0
LINE
  5
F0
330
63
100
AcDbEntity
  8
0
  6
Continuous
 62
     7
100
AcDbLine
 10
-37.81862833111537
 20
-25.14332485065376
 30
0.0
 11
-36.98798583457364
 21
-22.04332485065345
 31
0.0
  0
LINE
  5
F1
330
63
100
AcDbEntity
  8
0
  6
Continuous
 62
     7
100
AcDbLine
 10
-41.02332423543102
 20
-22.04332485065344
 30
0.0
 11
-41.02332423543103
 21
-20.94332485065353
 31
0.0
  0
LINE
  5
F2
330
63
100
AcDbEntity
  8
0
  6
Continuous
 62
     7
100
AcDbLine
 10
-41.02332423543102
 20
-22.04332485065344
 30
0.0
 11
-37.71267916086111
 21
-22.04332485065343
 31
0.0
  0
LINE
  5
F3
330
63
100
AcDbEntity
  8
0
  6
Continuous
 62
     7
100
AcDbLine
 10
-33.83396930999935
 20
-22.04332485065344
 30
0.0
 11
-30.52332423543102
 21
-22.04332485065344
 31
0.0
  0
LINE
  5
F4
330
63
100
AcDbEntity
  8
0
  6
Continuous
 62
     7
100
AcDbLine
 10
-30.52332423543102
 20
-22.04332485065344
 30
0.0
 11
-30.52332423543102
 21
-20.94332485065353
 31
0.0
  0
LINE
  5
F5
330
63
100
AcDbEntity
  8
0
  6
Continuous
 62
     7
100
AcDbLine
 10
-36.98798583457364
 20
-22.04332485065345
 30
0.0
 11
-34.55866263628634
 21
-22.04332485065345
 31
0.0
  0
LINE
  5
F6
330
63
100
AcDbEntity
  8
0
  6
Continuous
 62
     7
100
AcDbLine
 10
-30.52332423543102
 20
-20.94332485065353
 30
0.0
 11
-41.02332423543103
 21
-20.94332485065353
 31
0.0
  0
ARC
  5
F7
330
63
100
AcDbEntity
  8
0
  6
Continuous
 62
     7
100
AcDbCircle
 10
-32.94832423543091
 20
-24.64332485065375
 30
0.0
 40
0.5
100
AcDbArc
 50
270.0000000000008
 51
90.0
  0
ARC
  5
F8
330
63
100
AcDbEntity
  8
0
  6
Continuous
 62
     7
100
AcDbCircle
 10
-38.59832423543067
 20
-24.64332485065375
 30
0.0
 40
0.5000000000002025
100
AcDbArc
 50
90.00000000000162
 51
269.9999999999976
  0
ENDBLK
  5
65
330
63
100
AcDbEntity
  8
0
100
AcDbBlockEnd
  0
BLOCK
  5
68
330
66
100
AcDbEntity
  8
0
100
AcDbBlockBegin
  2
Rckans2
 70
     0
 10
-35.77332400000006
 20
-23.04332600000002
 30
0.0
  3
Rckans2
  1

  0
INSERT
  5
67
330
66
100
AcDbEntity
  8
0
100
AcDbBlockReference
  2
ZB_5_OG-select__5
 10
-41.02332423543103
 20
-25.14332485065395
 30
0.0
  0
MTEXT
  5
F9
330
66
100
AcDbEntity
  8
1
 62
     6
100
AcDbMText
 10
-35.77332425136274
 20
-29.17000034358895
 30
0.0
 40
1.0
 41
0.0
 71
     2
 72
     1
  1
 
  7
CONVERTER_11
 73
     1
 44
1.32052821128451
  0
ENDBLK
  5
69
330
66
100
AcDbEntity
  8
0
100
AcDbBlockEnd
  0
BLOCK
  5
6B
330
6A
100
AcDbEntity
  8
0
100
AcDbBlockBegin
  2
ZB_5_OG-select__6
 70
     0
 10
-51.16166199999503
 20
-25.14332485065373
 30
0.0
  3
ZB_5_OG-select__6
  1

  0
LINE
  5
FA
330
6A
100
AcDbEntity
  8
0
  6
Continuous
 62
     7
100
AcDbLine
 10
-46.01166199999503
 20
-24.14332485065372
 30
0.0
 11
-51.16166199999503
 21
-24.14332485065372
 31
0.0
  0
LINE
  5
FB
330
6A
100
AcDbEntity
  8
0
  6
Continuous
 62
     7
100
AcDbLine
 10
-46.01166199999503
 20
-25.14332485065373
 30
0.0
 11
-46.01166199999503
 21
-24.14332485065372
 31
0.0
  0
LINE
  5
FC
330
6A
100
AcDbEntity
  8
0
  6
Continuous
 62
     7
100
AcDbLine
 10
-46.01166199999503
 20
-25.14332485065373
 30
0.0
 11
-51.16166199999503
 21
-25.14332485065373
 31
0.0
  0
LINE
  5
FD
330
6A
100
AcDbEntity
  8
0
  6
Continuous
 62
     7
100
AcDbLine
 10
-51.16166199999503
 20
-25.14332485065373
 30
0.0
 11
-51.16166199999503
 21
-24.14332485065372
 31
0.0
  0
LINE
  5
FE
330
6A
100
AcDbEntity
  8
0
  6
Continuous
 62
     7
100
AcDbLine
 10
-51.16166199999503
 20
-22.04332485065341
 30
0.0
 11
-51.16166199999503
 21
-24.14332485065372
 31
0.0
  0
LINE
  5
FF
330
6A
100
AcDbEntity
  8
0
  6
Continuous
 62
     7
100
AcDbLine
 10
-46.01166199999503
 20
-22.04332485065342
 30
0.0
 11
-46.01166199999503
 21
-24.14332485065372
 31
0.0
  0
LINE
  5
100
330
6A
100
AcDbEntity
  8
0
  6
Continuous
 62
     7
100
AcDbLine
 10
-46.01166199999503
 20
-22.04332485065342
 30
0.0
 11
-51.16166199999503
 21
-22.04332485065341
 31
0.0
  0
LINE
  5
101
330
6A
100
AcDbEntity
  8
0
  6
Continuous
 62
     7
100
AcDbLine
 10
-46.01166199999503
 20
-22.04332485065342
 30
0.0
 11
-46.01166199999503
 21
-20.94332485065351
 31
0.0
  0
LINE
  5
102
330
6A
100
AcDbEntity
  8
0
  6
Continuous
 62
     7
100
AcDbLine
 10
-51.16166199999503
 20
-22.04332485065341
 30
0.0
 11
-51.16166199999503
 21
-20.94332485065351
 31
0.0
  0
LINE
  5
103
330
6A
100
AcDbEntity
  8
0
  6
Continuous
 62
     7
100
AcDbLine
 10
-51.16166199999503
 20
-20.94332485065351
 30
0.0
 11
-46.01166199999503
 21
-20.94332485065351
 31
0.0
  0
ENDBLK
  5
6C
330
6A
100
AcDbEntity
  8
0
100
AcDbBlockEnd
  0
BLOCK
  5
6F
330
6D
100
AcDbEntity
  8
0
100
AcDbBlockBegin
  2
SA_Links2
 70
     0
 10
-49.33166200000004
 20
-23.04332600000001
 30
0.0
  3
SA_Links2
  1

  0
INSERT
  5
6E
330
6D
100
AcDbEntity
  8
0
100
AcDbBlockReference
  2
ZB_5_OG-select__6
 10
-51.16166199999503
 20
-25.14332485065373
 30
0.0
  0
MTEXT
  5
104
330
6D
100
AcDbEntity
  8
1
 62
     6
100
AcDbMText
 10
-48.58666203150139
 20
-29.17000034358895
 30
0.0
 40
1.0
 41
0.0
 71
     2
 72
     1
  1
 
  7
CONVERTER_11
 73
     1
 44
1.32052821128451
  0
ENDBLK
  5
70
330
6D
100
AcDbEntity
  8
0
100
AcDbBlockEnd
  0
BLOCK
  5
72
330
71
100
AcDbEntity
  8
0
100
AcDbBlockBegin
  2
_rahmen
 70
     0
 10
-125.812818998687
 20
-282.2260573413081
 30
0.0
  3
_rahmen
  1

  0
LINE
  5
105
330
71
100
AcDbEntity
  8
1
  6
DOT_CENTER
 62
     2
100
AcDbLine
 10
-251.3709686388744
 20
-256.101057341308
 30
0.0
 11
-245.8709686388744
 21
-256.101057341308
 31
0.0
  0
LINE
  5
106
330
71
100
AcDbEntity
  8
1
  6
PHANTOM
 62
     2
100
AcDbLine
 10
-242.6209686388744
 20
-253.351057341308
 30
0.0
 11
-242.6209686388744
 21
-258.851057341308
 31
0.0
  0
LINE
  5
107
330
71
100
AcDbEntity
  8
1
  6
PHANTOM
 62
     2
100
AcDbLine
 10
-239.8709686388744
 20
-256.101057341308
 30
0.0
 11
-245.3709686388744
 21
-256.101057341308
 31
0.0
  0
LINE
  5
108
330
71
100
AcDbEntity
  8
1
  6
Continuous
 62
     7
100
AcDbLine
 10
-191.057623525437
 20
-268.726057341308
 30
0.0
 11
-191.057623525437
 21
-260.226057341308
 31
0.0
  0
LINE
  5
109
330
71
100
AcDbEntity
  8
1
  6
Continuous
 62
     6
100
AcDbLine
 10
-218.9576235254371
 20
-260.226057341308
 30
0.0
 11
-125.8128189986853
 21
-260.226057341308
 31
0.0
  0
LINE
  5
10A
330
71
100
AcDbEntity
  8
1
  6
Continuous
 62
     7
100
AcDbLine
 10
-255.357623525437
 20
-260.226057341308
 30
0.0
 11
-255.357623525437
 21
-251.7260573413079
 31
0.0
  0
LINE
  5
10B
330
71
100
AcDbEntity
  8
1
  6
Continuous
 62
     7
100
AcDbLine
 10
-218.9576235254371
 20
-260.226057341308
 30
0.0
 11
-218.9576235254371
 21
-251.7260573413079
 31
0.0
  0
LINE
  5
10C
330
71
100
AcDbEntity
  8
1
  6
Continuous
 62
     7
100
AcDbLine
 10
-161.2312272803641
 20
-251.7260573413079
 30
0.0
 11
-161.2312272803641
 21
-260.226057341308
 31
0.0
  0
LINE
  5
10D
330
71
100
AcDbEntity
  8
1
  6
Continuous
 62
     7
100
AcDbLine
 10
-134.7312272803645
 20
-251.7260573413079
 30
0.0
 11
-134.7312272803645
 21
-260.226057341308
 31
0.0
  0
LINE
  5
10E
330
71
100
AcDbEntity
  8
1
  6
Continuous
 62
     6
100
AcDbLine
 10
-324.357623525437
 20
-277.226057341308
 30
0.0
 11
-369.312818998687
 21
-277.226057341308
 31
0.0
  0
LINE
  5
10F
330
71
100
AcDbEntity
  8
1
  6
Continuous
 62
     7
100
AcDbLine
 10
-125.8128189986857
 20
-268.726057341308
 30
0.0
 11
-218.9576235254371
 21
-268.726057341308
 31
0.0
  0
LINE
  5
110
102
{ACAD_REACTORS
330
222
330
223
102
}
330
71
100
AcDbEntity
  8
0
  6
Continuous
 62
     2
100
AcDbLine
 10
-241.6501945836696
 20
-267.9257682256447
 30
0.0
 11
-241.6501945836696
 21
-267.0532512188413
 31
0.0
  0
LINE
  5
111
102
{ACAD_REACTORS
330
222
330
223
102
}
330
71
100
AcDbEntity
  8
0
  6
Continuous
 62
     2
100
AcDbLine
 10
-241.6501945836696
 20
-268.8855369331276
 30
0.0
 11
-241.6501945836696
 21
-269.7580539399307
 31
0.0
  0
LINE
  5
112
102
{ACAD_REACTORS
330
224
330
225
102
}
330
71
100
AcDbEntity
  8
0
  6
Continuous
 62
     2
100
AcDbLine
 10
-226.3171504473791
 20
-267.6640131236042
 30
0.0
 11
-225.213511147811
 21
-267.6640131236042
 31
0.0
  0
LINE
  5
113
102
{ACAD_REACTORS
330
224
330
225
102
}
330
71
100
AcDbEntity
  8
0
  6
Continuous
 62
     2
100
AcDbLine
 10
-225.5474931044177
 20
-268.885536933128
 30
0.0
 11
-225.5474931044177
 21
-269.7580539399313
 31
0.0
  0
LINE
  5
114
102
{ACAD_REACTORS
330
22E
330
22F
102
}
330
71
100
AcDbEntity
  8
0
  6
Continuous
 62
     2
100
AcDbLine
 10
-227.4082497197976
 20
-266.5733668651174
 30
0.0
 11
-226.0102966728573
 21
-264.9925078713424
 31
0.0
  0
LINE
  5
115
102
{ACAD_REACTORS
330
22E
330
22F
102
}
330
71
100
AcDbEntity
  8
0
  6
Continuous
 62
     2
100
AcDbLine
 10
-227.3128263036248
 20
-263.5195573413062
 30
0.0
 11
-226.0102966728573
 21
-264.9925078713424
 31
0.0
  0
LINE
  5
116
102
{ACAD_REACTORS
330
22E
330
22F
102
}
330
71
100
AcDbEntity
  8
0
  6
Continuous
 62
     2
100
AcDbLine
 10
-224.7077670420909
 20
-263.5195573413062
 30
0.0
 11
-223.3050428243437
 21
-263.5195573413062
 31
0.0
  0
LINE
  5
117
102
{ACAD_REACTORS
330
22E
330
22F
102
}
330
71
100
AcDbEntity
  8
0
  6
Continuous
 62
     2
100
AcDbLine
 10
-226.0055255020494
 20
-266.5733668651174
 30
0.0
 11
-225.3089345639837
 21
-265.7856350798236
 31
0.0
  0
LINE
  5
118
102
{ACAD_REACTORS
330
22E
330
22F
102
}
330
71
100
AcDbEntity
  8
0
  6
Continuous
 62
     2
100
AcDbLine
 10
-226.0055255020494
 20
-266.5733668651174
 30
0.0
 11
-227.4082497197976
 21
-266.5733668651174
 31
0.0
  0
LINE
  5
119
102
{ACAD_REACTORS
330
230
330
231
102
}
330
71
100
AcDbEntity
  8
0
  6
Continuous
 62
     2
100
AcDbLine
 10
-227.5275289900145
 20
-266.5733668651174
 30
0.0
 11
-228.7680334002674
 21
-266.5733668651174
 31
0.0
  0
LINE
  5
11A
102
{ACAD_REACTORS
330
232
330
233
102
}
330
71
100
AcDbEntity
  8
0
  6
Continuous
 62
     2
100
AcDbLine
 10
-229.6360130084225
 20
-268.7110335317672
 30
0.0
 11
-229.9361782456126
 21
-267.9432185657804
 31
0.0
  0
LINE
  5
11B
102
{ACAD_REACTORS
330
232
330
233
102
}
330
71
100
AcDbEntity
  8
0
  6
Continuous
 62
     2
100
AcDbLine
 10
-230.236343482805
 20
-268.7110335317672
 30
0.0
 11
-229.6360130084225
 21
-268.7110335317672
 31
0.0
  0
LINE
  5
11C
102
{ACAD_REACTORS
330
232
330
233
102
}
330
71
100
AcDbEntity
  8
0
  6
Continuous
 62
     2
100
AcDbLine
 10
-231.9543834976788
 20
-269.9325573412916
 30
0.0
 11
-230.7138790874258
 21
-269.9325573412916
 31
0.0
  0
LINE
  5
11D
102
{ACAD_REACTORS
330
232
330
233
102
}
330
71
100
AcDbEntity
  8
0
  6
Continuous
 62
     2
100
AcDbLine
 10
-230.5564304507395
 20
-266.8787478174805
 30
0.0
 11
-229.3159260404868
 21
-266.8787478174805
 31
0.0
  0
LINE
  5
11E
102
{ACAD_REACTORS
330
232
330
233
102
}
330
71
100
AcDbEntity
  8
0
  6
Continuous
 62
     2
100
AcDbLine
 10
-229.3159260404868
 20
-266.8787478174805
 30
0.0
 11
-227.9179729935465
 21
-269.9325573412916
 31
0.0
  0
LINE
  5
11F
102
{ACAD_REACTORS
330
232
330
233
102
}
330
71
100
AcDbEntity
  8
0
  6
Continuous
 62
     2
100
AcDbLine
 10
-229.1584774038004
 20
-269.9325573412916
 30
0.0
 11
-229.3699574572762
 21
-269.3915967970737
 31
0.0
  0
LINE
  5
120
102
{ACAD_REACTORS
330
234
330
235
102
}
330
71
100
AcDbEntity
  8
0
  6
Continuous
 62
     2
100
AcDbLine
 10
-233.3007965993864
 20
-269.9325573412916
 30
0.0
 11
-232.1080038972199
 21
-269.9325573412916
 31
0.0
  0
LINE
  5
121
102
{ACAD_REACTORS
330
234
330
235
102
}
330
71
100
AcDbEntity
  8
0
  6
Continuous
 62
     2
100
AcDbLine
 10
-233.3007965993864
 20
-267.6640131236042
 30
0.0
 11
-233.3007965993864
 21
-269.9325573412916
 31
0.0
  0
LINE
  5
122
102
{ACAD_REACTORS
330
234
330
235
102
}
330
71
100
AcDbEntity
  8
0
  6
Continuous
 62
     2
100
AcDbLine
 10
-234.111895636861
 20
-266.8787478174805
 30
0.0
 11
-234.111895636861
 21
-267.6640131236042
 31
0.0
  0
LINE
  5
123
102
{ACAD_REACTORS
330
236
330
237
102
}
330
71
100
AcDbEntity
  8
0
  6
Continuous
 62
     2
100
AcDbLine
 10
-232.6326817552884
 20
-266.5733668651174
 30
0.0
 11
-231.4398890531219
 21
-266.5733668651174
 31
0.0
  0
LINE
  5
124
102
{ACAD_REACTORS
330
236
330
237
102
}
330
71
100
AcDbEntity
  8
0
  6
Continuous
 62
     2
100
AcDbLine
 10
-230.1993846428679
 20
-264.8283328515113
 30
0.0
 11
-231.4398890531219
 21
-263.5195573413062
 31
0.0
  0
LINE
  5
125
102
{ACAD_REACTORS
330
236
330
237
102
}
330
71
100
AcDbEntity
  8
0
  6
Continuous
 62
     2
100
AcDbLine
 10
-229.0065919407013
 20
-263.5195573413062
 30
0.0
 11
-230.1993846428679
 21
-263.5195573413062
 31
0.0
  0
LINE
  5
126
102
{ACAD_REACTORS
330
236
330
237
102
}
330
71
100
AcDbEntity
  8
0
  6
Continuous
 62
     2
100
AcDbLine
 10
-229.0065919407013
 20
-266.5733668651174
 30
0.0
 11
-229.0065919407013
 21
-263.5195573413062
 31
0.0
  0
LINE
  5
127
102
{ACAD_REACTORS
330
236
330
237
102
}
330
71
100
AcDbEntity
  8
0
  6
Continuous
 62
     2
100
AcDbLine
 10
-230.1993846428679
 20
-266.5733668651174
 30
0.0
 11
-229.0065919407013
 21
-266.5733668651174
 31
0.0
  0
LINE
  5
128
102
{ACAD_REACTORS
330
236
330
237
102
}
330
71
100
AcDbEntity
  8
0
  6
Continuous
 62
     2
100
AcDbLine
 10
-231.4398890531219
 20
-265.2645913549127
 30
0.0
 11
-230.1993846428679
 21
-266.5733668651174
 31
0.0
  0
LINE
  5
129
102
{ACAD_REACTORS
330
238
330
239
102
}
330
71
100
AcDbEntity
  8
0
  6
Continuous
 62
     2
100
AcDbLine
 10
-235.4478234632876
 20
-268.1875233276857
 30
0.0
 11
-236.6883278735405
 21
-266.8787478174805
 31
0.0
  0
LINE
  5
12A
102
{ACAD_REACTORS
330
238
330
239
102
}
330
71
100
AcDbEntity
  8
0
  6
Continuous
 62
     2
100
AcDbLine
 10
-235.4478234632876
 20
-266.8787478174805
 30
0.0
 11
-235.4478234632876
 21
-268.1875233276857
 31
0.0
  0
LINE
  5
12B
102
{ACAD_REACTORS
330
238
330
239
102
}
330
71
100
AcDbEntity
  8
0
  6
Continuous
 62
     2
100
AcDbLine
 10
-234.2550307611212
 20
-266.8787478174805
 30
0.0
 11
-235.4478234632876
 21
-266.8787478174805
 31
0.0
  0
LINE
  5
12C
102
{ACAD_REACTORS
330
238
330
239
102
}
330
71
100
AcDbEntity
  8
0
  6
Continuous
 62
     2
100
AcDbLine
 10
-234.2550307611212
 20
-269.9325573412916
 30
0.0
 11
-234.2550307611212
 21
-266.8787478174805
 31
0.0
  0
LINE
  5
12D
102
{ACAD_REACTORS
330
238
330
239
102
}
330
71
100
AcDbEntity
  8
0
  6
Continuous
 62
     2
100
AcDbLine
 10
-236.6883278735405
 20
-268.6237818310871
 30
0.0
 11
-235.4478234632876
 21
-269.9325573412916
 31
0.0
  0
LINE
  5
12E
102
{ACAD_REACTORS
330
238
330
239
102
}
330
71
100
AcDbEntity
  8
0
  6
Continuous
 62
     2
100
AcDbLine
 10
-236.6883278735405
 20
-269.9325573412916
 30
0.0
 11
-236.6883278735405
 21
-268.6237818310871
 31
0.0
  0
LINE
  5
12F
102
{ACAD_REACTORS
330
228
330
229
102
}
330
71
100
AcDbEntity
  8
0
  6
Continuous
 62
     2
100
AcDbLine
 10
-234.207168122149
 20
-264.2175709467491
 30
0.0
 11
-232.8712402957213
 21
-264.2175709467491
 31
0.0
  0
LINE
  5
130
102
{ACAD_REACTORS
330
228
330
229
102
}
330
71
100
AcDbEntity
  8
0
  6
Continuous
 62
     2
100
AcDbLine
 10
-234.207168122149
 20
-265.8753532596749
 30
0.0
 11
-234.207168122149
 21
-265.3954689059332
 31
0.0
  0
LINE
  5
131
102
{ACAD_REACTORS
330
228
330
229
102
}
330
71
100
AcDbEntity
  8
0
  6
Continuous
 62
     2
100
AcDbLine
 10
-232.8712402957213
 20
-265.8753532596749
 30
0.0
 11
-234.207168122149
 21
-265.8753532596749
 31
0.0
  0
LINE
  5
132
102
{ACAD_REACTORS
330
228
330
229
102
}
330
71
100
AcDbEntity
  8
0
  6
Continuous
 62
     2
100
AcDbLine
 10
-232.8712402957213
 20
-266.5733668651174
 30
0.0
 11
-232.8712402957213
 21
-265.8753532596749
 31
0.0
  0
LINE
  5
133
102
{ACAD_REACTORS
330
228
330
229
102
}
330
71
100
AcDbEntity
  8
0
  6
Continuous
 62
     2
100
AcDbLine
 10
-236.0215600195023
 20
-266.5733668651174
 30
0.0
 11
-232.8712402957213
 21
-266.5733668651174
 31
0.0
  0
LINE
  5
134
102
{ACAD_REACTORS
330
228
330
229
102
}
330
71
100
AcDbEntity
  8
0
  6
Continuous
 62
     2
100
AcDbLine
 10
-236.0215600195023
 20
-263.5195573413062
 30
0.0
 11
-232.8712402957213
 21
-263.5195573413062
 31
0.0
  0
LINE
  5
135
102
{ACAD_REACTORS
330
228
330
229
102
}
330
71
100
AcDbEntity
  8
0
  6
Continuous
 62
     2
100
AcDbLine
 10
-232.8712402957213
 20
-264.2175709467491
 30
0.0
 11
-232.8712402957213
 21
-263.5195573413062
 31
0.0
  0
LINE
  5
136
102
{ACAD_REACTORS
330
23A
330
23B
102
}
330
71
100
AcDbEntity
  8
0
  6
Continuous
 62
     2
100
AcDbLine
 10
-238.8829155146423
 20
-264.5883906746408
 30
0.0
 11
-238.8829155146423
 21
-263.5195573413062
 31
0.0
  0
LINE
  5
137
102
{ACAD_REACTORS
330
23A
330
23B
102
}
330
71
100
AcDbEntity
  8
0
  6
Continuous
 62
     2
100
AcDbLine
 10
-238.8829155146423
 20
-263.5195573413062
 30
0.0
 11
-237.6901228124759
 21
-263.5195573413062
 31
0.0
  0
LINE
  5
138
102
{ACAD_REACTORS
330
23A
330
23B
102
}
330
71
100
AcDbEntity
  8
0
  6
Continuous
 62
     2
100
AcDbLine
 10
-238.8829155146423
 20
-265.4390947562736
 30
0.0
 11
-239.9325730925498
 21
-265.4390947562736
 31
0.0
  0
LINE
  5
139
102
{ACAD_REACTORS
330
23A
330
23B
102
}
330
71
100
AcDbEntity
  8
0
  6
Continuous
 62
     2
100
AcDbLine
 10
-239.9325730925498
 20
-265.4390947562736
 30
0.0
 11
-239.9325730925498
 21
-266.5733668651174
 31
0.0
  0
LINE
  5
13A
102
{ACAD_REACTORS
330
23A
330
23B
102
}
330
71
100
AcDbEntity
  8
0
  6
Continuous
 62
     2
100
AcDbLine
 10
-241.1253657947164
 20
-263.5195573413062
 30
0.0
 11
-241.1253657947164
 21
-266.5733668651174
 31
0.0
  0
LINE
  5
13B
102
{ACAD_REACTORS
330
22C
330
22D
102
}
330
71
100
AcDbEntity
  8
0
  6
Continuous
 62
     2
100
AcDbLine
 10
-243.08154582627
 20
-264.8883908360884
 30
0.0
 11
-243.08154582627
 21
-264.1826631867463
 31
0.0
  0
LINE
  5
13C
102
{ACAD_REACTORS
330
22C
330
22D
102
}
330
71
100
AcDbEntity
  8
0
  6
Continuous
 62
     2
100
AcDbLine
 10
-244.3220502365241
 20
-266.5733668651174
 30
0.0
 11
-243.08154582627
 21
-266.5733668651174
 31
0.0
  0
LINE
  5
13D
102
{ACAD_REACTORS
330
22C
330
22D
102
}
330
71
100
AcDbEntity
  8
0
  6
Continuous
 62
     2
100
AcDbLine
 10
-243.08154582627
 20
-266.5733668651174
 30
0.0
 11
-243.08154582627
 21
-265.6302886239736
 31
0.0
  0
LINE
  5
13E
102
{ACAD_REACTORS
330
226
330
227
102
}
330
71
100
AcDbEntity
  8
0
  6
Continuous
 62
     2
100
AcDbLine
 10
-248.6269960857355
 20
-269.2200017857348
 30
0.0
 11
-250.1028293467451
 21
-269.2200017857348
 31
0.0
  0
LINE
  5
13F
102
{ACAD_REACTORS
330
226
330
227
102
}
330
71
100
AcDbEntity
  8
0
  6
Continuous
 62
     2
100
AcDbLine
 10
-251.1209686388744
 20
-263.9438019567082
 30
0.0
 11
-251.1209686388744
 21
-269.5083127259084
 31
0.0
  0
LINE
  5
140
102
{ACAD_REACTORS
330
226
330
227
102
}
330
71
100
AcDbEntity
  8
0
  6
Continuous
 62
     2
100
AcDbLine
 10
-250.6967240234916
 20
-263.5195573413243
 30
0.0
 11
-245.2234119327748
 21
-263.5195573413243
 31
0.0
  0
LINE
  5
141
102
{ACAD_REACTORS
330
226
330
227
102
}
330
71
100
AcDbEntity
  8
0
  6
Continuous
 62
     2
100
AcDbLine
 10
-244.7991673173909
 20
-263.9438019567082
 30
0.0
 11
-244.7991673173909
 21
-269.5083127259084
 31
0.0
  0
LINE
  5
142
102
{ACAD_REACTORS
330
226
330
227
102
}
330
71
100
AcDbEntity
  8
0
  6
Continuous
 62
     2
100
AcDbLine
 10
-245.2234119327748
 20
-269.9325573412916
 30
0.0
 11
-250.6967240234916
 21
-269.9325573412916
 31
0.0
  0
LINE
  5
143
102
{ACAD_REACTORS
330
226
330
227
102
}
330
71
100
AcDbEntity
  8
0
  6
Continuous
 62
     2
100
AcDbLine
 10
-248.3112791626589
 20
-268.9042848626581
 30
0.0
 11
-248.3112791626589
 21
-267.3735139311265
 31
0.0
  0
LINE
  5
144
102
{ACAD_REACTORS
330
226
330
227
102
}
330
71
100
AcDbEntity
  8
0
  6
Continuous
 62
     2
100
AcDbLine
 10
-248.3112791626589
 20
-265.1518544390015
 30
0.0
 11
-248.3112791626589
 21
-264.5478298199409
 31
0.0
  0
LINE
  5
145
102
{ACAD_REACTORS
330
226
330
227
102
}
330
71
100
AcDbEntity
  8
0
  6
Continuous
 62
     2
100
AcDbLine
 10
-250.1028293467451
 20
-264.2321128968647
 30
0.0
 11
-248.6269960857355
 21
-264.2321128968647
 31
0.0
  0
LINE
  5
146
102
{ACAD_REACTORS
330
226
330
227
102
}
330
71
100
AcDbEntity
  8
0
  6
Continuous
 62
     2
100
AcDbLine
 10
-250.4185462698208
 20
-264.5478298199409
 30
0.0
 11
-250.4185462698208
 21
-268.9042848626581
 31
0.0
  0
LINE
  5
147
102
{ACAD_REACTORS
330
22C
330
22D
102
}
330
71
100
AcDbEntity
  8
0
  6
Continuous
 62
     2
100
AcDbLine
 10
-243.08154582627
 20
-265.6302886239736
 30
0.0
 11
-242.3227782384897
 21
-265.6302886239736
 31
0.0
  0
LINE
  5
148
102
{ACAD_REACTORS
330
22C
330
22D
102
}
330
71
100
AcDbEntity
  8
0
  6
Continuous
 62
     2
100
AcDbLine
 10
-244.3220502365241
 20
-263.5195573413062
 30
0.0
 11
-242.3227782384897
 21
-263.5195573413062
 31
0.0
  0
LINE
  5
149
102
{ACAD_REACTORS
330
22C
330
22D
102
}
330
71
100
AcDbEntity
  8
0
  6
Continuous
 62
     2
100
AcDbLine
 10
-244.3220502365241
 20
-263.5195573413062
 30
0.0
 11
-244.3220502365241
 21
-266.5733668651174
 31
0.0
  0
LINE
  5
14A
102
{ACAD_REACTORS
330
22C
330
22D
102
}
330
71
100
AcDbEntity
  8
0
  6
Continuous
 62
     2
100
AcDbLine
 10
-243.08154582627
 20
-264.8883908360884
 30
0.0
 11
-242.7642507647281
 21
-264.8883908360884
 31
0.0
  0
LINE
  5
14B
102
{ACAD_REACTORS
330
22C
330
22D
102
}
330
71
100
AcDbEntity
  8
0
  6
Continuous
 62
     2
100
AcDbLine
 10
-243.08154582627
 20
-264.1826631867463
 30
0.0
 11
-242.7642507647281
 21
-264.1826631867463
 31
0.0
  0
LINE
  5
14C
102
{ACAD_REACTORS
330
23A
330
23B
102
}
330
71
100
AcDbEntity
  8
0
  6
Continuous
 62
     2
100
AcDbLine
 10
-239.9325730925498
 20
-264.5883906746408
 30
0.0
 11
-238.8829155146423
 21
-264.5883906746408
 31
0.0
  0
LINE
  5
14D
102
{ACAD_REACTORS
330
23A
330
23B
102
}
330
71
100
AcDbEntity
  8
0
  6
Continuous
 62
     2
100
AcDbLine
 10
-239.9325730925498
 20
-263.5195573413062
 30
0.0
 11
-239.9325730925498
 21
-264.5883906746408
 31
0.0
  0
LINE
  5
14E
102
{ACAD_REACTORS
330
23A
330
23B
102
}
330
71
100
AcDbEntity
  8
0
  6
Continuous
 62
     2
100
AcDbLine
 10
-241.1253657947164
 20
-263.5195573413062
 30
0.0
 11
-239.9325730925498
 21
-263.5195573413062
 31
0.0
  0
LINE
  5
14F
102
{ACAD_REACTORS
330
23A
330
23B
102
}
330
71
100
AcDbEntity
  8
0
  6
Continuous
 62
     2
100
AcDbLine
 10
-239.9325730925498
 20
-266.5733668651174
 30
0.0
 11
-241.1253657947164
 21
-266.5733668651174
 31
0.0
  0
LINE
  5
150
102
{ACAD_REACTORS
330
23A
330
23B
102
}
330
71
100
AcDbEntity
  8
0
  6
Continuous
 62
     2
100
AcDbLine
 10
-238.8829155146423
 20
-266.5733668651174
 30
0.0
 11
-238.8829155146423
 21
-265.4390947562736
 31
0.0
  0
LINE
  5
151
102
{ACAD_REACTORS
330
23A
330
23B
102
}
330
71
100
AcDbEntity
  8
0
  6
Continuous
 62
     2
100
AcDbLine
 10
-237.6901228124759
 20
-266.5733668651174
 30
0.0
 11
-238.8829155146423
 21
-266.5733668651174
 31
0.0
  0
LINE
  5
152
102
{ACAD_REACTORS
330
23A
330
23B
102
}
330
71
100
AcDbEntity
  8
0
  6
Continuous
 62
     2
100
AcDbLine
 10
-237.6901228124759
 20
-263.5195573413062
 30
0.0
 11
-237.6901228124759
 21
-266.5733668651174
 31
0.0
  0
LINE
  5
153
102
{ACAD_REACTORS
330
228
330
229
102
}
330
71
100
AcDbEntity
  8
0
  6
Continuous
 62
     2
100
AcDbLine
 10
-234.207168122149
 20
-265.3954689059332
 30
0.0
 11
-232.8712402957213
 21
-265.3954689059332
 31
0.0
  0
LINE
  5
154
102
{ACAD_REACTORS
330
228
330
229
102
}
330
71
100
AcDbEntity
  8
0
  6
Continuous
 62
     2
100
AcDbLine
 10
-232.8712402957213
 20
-265.3954689059332
 30
0.0
 11
-232.8712402957213
 21
-264.6974553004908
 31
0.0
  0
LINE
  5
155
102
{ACAD_REACTORS
330
228
330
229
102
}
330
71
100
AcDbEntity
  8
0
  6
Continuous
 62
     2
100
AcDbLine
 10
-232.8712402957213
 20
-264.6974553004908
 30
0.0
 11
-234.207168122149
 21
-264.6974553004908
 31
0.0
  0
LINE
  5
156
102
{ACAD_REACTORS
330
228
330
229
102
}
330
71
100
AcDbEntity
  8
0
  6
Continuous
 62
     2
100
AcDbLine
 10
-234.207168122149
 20
-264.6974553004908
 30
0.0
 11
-234.207168122149
 21
-264.2175709467491
 31
0.0
  0
LINE
  5
157
102
{ACAD_REACTORS
330
238
330
239
102
}
330
71
100
AcDbEntity
  8
0
  6
Continuous
 62
     2
100
AcDbLine
 10
-237.8811205757081
 20
-269.9325573412916
 30
0.0
 11
-236.6883278735405
 21
-269.9325573412916
 31
0.0
  0
LINE
  5
158
102
{ACAD_REACTORS
330
238
330
239
102
}
330
71
100
AcDbEntity
  8
0
  6
Continuous
 62
     2
100
AcDbLine
 10
-235.4478234632876
 20
-269.9325573412916
 30
0.0
 11
-234.2550307611212
 21
-269.9325573412916
 31
0.0
  0
LINE
  5
159
102
{ACAD_REACTORS
330
238
330
239
102
}
330
71
100
AcDbEntity
  8
0
  6
Continuous
 62
     2
100
AcDbLine
 10
-236.6883278735405
 20
-266.8787478174805
 30
0.0
 11
-237.8811205757081
 21
-266.8787478174805
 31
0.0
  0
LINE
  5
15A
102
{ACAD_REACTORS
330
238
330
239
102
}
330
71
100
AcDbEntity
  8
0
  6
Continuous
 62
     2
100
AcDbLine
 10
-237.8811205757081
 20
-266.8787478174805
 30
0.0
 11
-237.8811205757081
 21
-269.9325573412916
 31
0.0
  0
LINE
  5
15B
102
{ACAD_REACTORS
330
236
330
237
102
}
330
71
100
AcDbEntity
  8
0
  6
Continuous
 62
     2
100
AcDbLine
 10
-230.1993846428679
 20
-263.5195573413062
 30
0.0
 11
-230.1993846428679
 21
-264.8283328515113
 31
0.0
  0
LINE
  5
15C
102
{ACAD_REACTORS
330
236
330
237
102
}
330
71
100
AcDbEntity
  8
0
  6
Continuous
 62
     2
100
AcDbLine
 10
-231.4398890531219
 20
-263.5195573413062
 30
0.0
 11
-232.6326817552884
 21
-263.5195573413062
 31
0.0
  0
LINE
  5
15D
102
{ACAD_REACTORS
330
236
330
237
102
}
330
71
100
AcDbEntity
  8
0
  6
Continuous
 62
     2
100
AcDbLine
 10
-232.6326817552884
 20
-263.5195573413062
 30
0.0
 11
-232.6326817552884
 21
-266.5733668651174
 31
0.0
  0
LINE
  5
15E
102
{ACAD_REACTORS
330
236
330
237
102
}
330
71
100
AcDbEntity
  8
0
  6
Continuous
 62
     2
100
AcDbLine
 10
-231.4398890531219
 20
-266.5733668651174
 30
0.0
 11
-231.4398890531219
 21
-265.2645913549127
 31
0.0
  0
LINE
  5
15F
102
{ACAD_REACTORS
330
234
330
235
102
}
330
71
100
AcDbEntity
  8
0
  6
Continuous
 62
     2
100
AcDbLine
 10
-232.1080038972199
 20
-269.9325573412916
 30
0.0
 11
-232.1080038972199
 21
-267.6640131236042
 31
0.0
  0
LINE
  5
160
102
{ACAD_REACTORS
330
234
330
235
102
}
330
71
100
AcDbEntity
  8
0
  6
Continuous
 62
     2
100
AcDbLine
 10
-232.1080038972199
 20
-267.6640131236042
 30
0.0
 11
-231.2969048597474
 21
-267.6640131236042
 31
0.0
  0
LINE
  5
161
102
{ACAD_REACTORS
330
234
330
235
102
}
330
71
100
AcDbEntity
  8
0
  6
Continuous
 62
     2
100
AcDbLine
 10
-231.2969048597474
 20
-267.6640131236042
 30
0.0
 11
-231.2969048597474
 21
-266.8787478174805
 31
0.0
  0
LINE
  5
162
102
{ACAD_REACTORS
330
234
330
235
102
}
330
71
100
AcDbEntity
  8
0
  6
Continuous
 62
     2
100
AcDbLine
 10
-231.2969048597474
 20
-266.8787478174805
 30
0.0
 11
-234.111895636861
 21
-266.8787478174805
 31
0.0
  0
LINE
  5
163
102
{ACAD_REACTORS
330
234
330
235
102
}
330
71
100
AcDbEntity
  8
0
  6
Continuous
 62
     2
100
AcDbLine
 10
-234.111895636861
 20
-267.6640131236042
 30
0.0
 11
-233.3007965993864
 21
-267.6640131236042
 31
0.0
  0
LINE
  5
164
102
{ACAD_REACTORS
330
232
330
233
102
}
330
71
100
AcDbEntity
  8
0
  6
Continuous
 62
     2
100
AcDbLine
 10
-230.50239903395
 20
-269.3915967970737
 30
0.0
 11
-229.3699574572762
 21
-269.3915967970737
 31
0.0
  0
LINE
  5
165
102
{ACAD_REACTORS
330
232
330
233
102
}
330
71
100
AcDbEntity
  8
0
  6
Continuous
 62
     2
100
AcDbLine
 10
-227.9179729935465
 20
-269.9325573412916
 30
0.0
 11
-229.1584774038004
 21
-269.9325573412916
 31
0.0
  0
LINE
  5
166
102
{ACAD_REACTORS
330
232
330
233
102
}
330
71
100
AcDbEntity
  8
0
  6
Continuous
 62
     2
100
AcDbLine
 10
-230.5564304507395
 20
-266.8787478174805
 30
0.0
 11
-231.9543834976788
 21
-269.9325573412916
 31
0.0
  0
LINE
  5
167
102
{ACAD_REACTORS
330
232
330
233
102
}
330
71
100
AcDbEntity
  8
0
  6
Continuous
 62
     2
100
AcDbLine
 10
-230.7138790874258
 20
-269.9325573412916
 30
0.0
 11
-230.50239903395
 21
-269.3915967970737
 31
0.0
  0
LINE
  5
168
102
{ACAD_REACTORS
330
232
330
233
102
}
330
71
100
AcDbEntity
  8
0
  6
Continuous
 62
     2
100
AcDbLine
 10
-230.236343482805
 20
-268.7110335317672
 30
0.0
 11
-229.9361782456126
 21
-267.9432185657804
 31
0.0
  0
LINE
  5
169
102
{ACAD_REACTORS
330
230
330
231
102
}
330
71
100
AcDbEntity
  8
0
  6
Continuous
 62
     2
100
AcDbLine
 10
-228.7680334002674
 20
-266.5733668651174
 30
0.0
 11
-228.7680334002674
 21
-263.5195573413062
 31
0.0
  0
LINE
  5
16A
102
{ACAD_REACTORS
330
230
330
231
102
}
330
71
100
AcDbEntity
  8
0
  6
Continuous
 62
     2
100
AcDbLine
 10
-227.5275289900145
 20
-263.5195573413062
 30
0.0
 11
-227.5275289900145
 21
-266.5733668651174
 31
0.0
  0
LINE
  5
16B
102
{ACAD_REACTORS
330
230
330
231
102
}
330
71
100
AcDbEntity
  8
0
  6
Continuous
 62
     2
100
AcDbLine
 10
-228.7680334002674
 20
-263.5195573413062
 30
0.0
 11
-227.5275289900145
 21
-263.5195573413062
 31
0.0
  0
LINE
  5
16C
102
{ACAD_REACTORS
330
22E
330
22F
102
}
330
71
100
AcDbEntity
  8
0
  6
Continuous
 62
     2
100
AcDbLine
 10
-225.3089345639837
 20
-265.7856350798236
 30
0.0
 11
-224.6123436259182
 21
-266.5733668651174
 31
0.0
  0
LINE
  5
16D
102
{ACAD_REACTORS
330
22E
330
22F
102
}
330
71
100
AcDbEntity
  8
0
  6
Continuous
 62
     2
100
AcDbLine
 10
-224.6123436259182
 20
-266.5733668651174
 30
0.0
 11
-223.2096194081699
 21
-266.5733668651174
 31
0.0
  0
LINE
  5
16E
102
{ACAD_REACTORS
330
22E
330
22F
102
}
330
71
100
AcDbEntity
  8
0
  6
Continuous
 62
     2
100
AcDbLine
 10
-224.6075724551102
 20
-264.9925078713424
 30
0.0
 11
-223.2096194081699
 21
-266.5733668651174
 31
0.0
  0
LINE
  5
16F
102
{ACAD_REACTORS
330
22E
330
22F
102
}
330
71
100
AcDbEntity
  8
0
  6
Continuous
 62
     2
100
AcDbLine
 10
-224.6075724551102
 20
-264.9925078713424
 30
0.0
 11
-223.3050428243437
 21
-263.5195573413062
 31
0.0
  0
LINE
  5
170
102
{ACAD_REACTORS
330
22E
330
22F
102
}
330
71
100
AcDbEntity
  8
0
  6
Continuous
 62
     2
100
AcDbLine
 10
-225.3089345639837
 20
-264.1993806628616
 30
0.0
 11
-224.7077670420909
 21
-263.5195573413062
 31
0.0
  0
LINE
  5
171
102
{ACAD_REACTORS
330
22E
330
22F
102
}
330
71
100
AcDbEntity
  8
0
  6
Continuous
 62
     2
100
AcDbLine
 10
-225.9101020858755
 20
-263.5195573413062
 30
0.0
 11
-225.3089345639837
 21
-264.1993806628616
 31
0.0
  0
LINE
  5
172
102
{ACAD_REACTORS
330
22E
330
22F
102
}
330
71
100
AcDbEntity
  8
0
  6
Continuous
 62
     2
100
AcDbLine
 10
-225.9101020858755
 20
-263.5195573413062
 30
0.0
 11
-227.3128263036248
 21
-263.5195573413062
 31
0.0
  0
LINE
  5
173
102
{ACAD_REACTORS
330
224
330
225
102
}
330
71
100
AcDbEntity
  8
0
  6
Continuous
 62
     2
100
AcDbLine
 10
-225.213511147811
 20
-269.9325573412916
 30
0.0
 11
-224.0207184456433
 21
-269.9325573412916
 31
0.0
  0
LINE
  5
174
102
{ACAD_REACTORS
330
224
330
225
102
}
330
71
100
AcDbEntity
  8
0
  6
Continuous
 62
     2
100
AcDbLine
 10
-224.0207184456433
 20
-269.9325573412916
 30
0.0
 11
-224.0207184456433
 21
-267.6640131236042
 31
0.0
  0
LINE
  5
175
102
{ACAD_REACTORS
330
224
330
225
102
}
330
71
100
AcDbEntity
  8
0
  6
Continuous
 62
     2
100
AcDbLine
 10
-224.0207184456433
 20
-267.6640131236042
 30
0.0
 11
-223.2096194081699
 21
-267.6640131236042
 31
0.0
  0
LINE
  5
176
102
{ACAD_REACTORS
330
224
330
225
102
}
330
71
100
AcDbEntity
  8
0
  6
Continuous
 62
     2
100
AcDbLine
 10
-223.2096194081699
 20
-267.6640131236042
 30
0.0
 11
-223.2096194081699
 21
-266.8787478174805
 31
0.0
  0
LINE
  5
177
102
{ACAD_REACTORS
330
224
330
225
102
}
330
71
100
AcDbEntity
  8
0
  6
Continuous
 62
     2
100
AcDbLine
 10
-226.5945649267986
 20
-266.878747817481
 30
0.0
 11
-223.2096194081699
 21
-266.8787478174805
 31
0.0
  0
LINE
  5
178
102
{ACAD_REACTORS
330
224
330
225
102
}
330
71
100
AcDbEntity
  8
0
  6
Continuous
 62
     2
100
AcDbLine
 10
-225.213511147811
 20
-267.6640131236042
 30
0.0
 11
-225.213511147811
 21
-269.9325573412916
 31
0.0
  0
LINE
  5
179
102
{ACAD_REACTORS
330
226
330
227
102
}
330
71
100
AcDbEntity
  8
0
  6
Continuous
 62
     2
100
AcDbLine
 10
-247.8429975832902
 20
-267.9536771917271
 30
0.0
 11
-247.8429975832902
 21
-267.371825785032
 31
0.0
  0
LINE
  5
17A
102
{ACAD_REACTORS
330
226
330
227
102
}
330
71
100
AcDbEntity
  8
0
  6
Continuous
 62
     2
100
AcDbLine
 10
-247.8429975832902
 20
-265.1535425850958
 30
0.0
 11
-247.8429975832902
 21
-264.5480072965891
 31
0.0
  0
LINE
  5
17B
330
71
100
AcDbEntity
  8
1
  6
Continuous
 62
     6
100
AcDbLine
 10
-269.312818998687
 20
-277.226057341308
 30
0.0
 11
-255.357623525437
 21
-277.2260573413081
 31
0.0
  0
LINE
  5
17C
330
71
100
AcDbEntity
  8
1
  6
Continuous
 62
     6
100
AcDbLine
 10
-319.3128189986872
 20
-277.226057341308
 30
0.0
 11
-324.357623525437
 21
-277.226057341308
 31
0.0
  0
LINE
  5
17D
330
71
100
AcDbEntity
  8
1
  6
Continuous
 62
     6
100
AcDbLine
 10
-169.312818998687
 20
-277.226057341308
 30
0.0
 11
-125.812818998687
 21
-277.226057341308
 31
0.0
  0
LINE
  5
17E
330
71
100
AcDbEntity
  8
1
  6
Continuous
 62
     6
100
AcDbLine
 10
-219.312818998687
 20
-277.226057341308
 30
0.0
 11
-237.157623525437
 21
-277.226057341308
 31
0.0
  0
LINE
  5
17F
330
71
100
AcDbEntity
  8
1
  6
Continuous
 62
     2
100
AcDbLine
 10
-125.812818998687
 20
-277.226057341308
 30
0.0
 11
-120.812818998688
 21
-277.226057341308
 31
0.0
  0
LINE
  5
180
330
71
100
AcDbEntity
  8
1
  6
Continuous
 62
     2
100
AcDbLine
 10
-125.812818998687
 20
-277.226057341308
 30
0.0
 11
-125.812818998687
 21
-282.2260573413081
 31
0.0
  0
LINE
  5
181
330
71
100
AcDbEntity
  8
1
  6
Continuous
 62
     6
100
AcDbLine
 10
-255.357623525437
 20
-260.226057341308
 30
0.0
 11
-218.9576235254371
 21
-260.226057341308
 31
0.0
  0
LINE
  5
182
330
71
100
AcDbEntity
  8
1
  6
Continuous
 62
     2
100
AcDbLine
 10
-120.812818998688
 20
-282.2260573413081
 30
0.0
 11
-120.812818998688
 21
-277.226057341308
 31
0.0
  0
LINE
  5
183
330
71
100
AcDbEntity
  8
1
  6
Continuous
 62
     2
100
AcDbLine
 10
-120.812818998688
 20
-282.2260573413081
 30
0.0
 11
-125.812818998687
 21
-282.2260573413081
 31
0.0
  0
LINE
  5
184
330
71
100
AcDbEntity
  8
1
  6
Continuous
 62
     2
100
AcDbLine
 10
-125.812818998687
 20
-282.2260573413081
 30
0.0
 11
-169.312818998687
 21
-282.2260573413081
 31
0.0
  0
LINE
  5
185
330
71
100
AcDbEntity
  8
1
  6
Continuous
 62
     6
100
AcDbLine
 10
-125.8128189986853
 20
-260.226057341308
 30
0.0
 11
-125.8128189986861
 21
-227.2260573413078
 31
0.0
  0
LINE
  5
186
330
71
100
AcDbEntity
  8
1
  6
Continuous
 62
     2
100
AcDbLine
 10
-120.812818998688
 20
-72.22605734130792
 30
0.0
 11
-269.312818998687
 21
-72.22605734130792
 31
0.0
  0
LINE
  5
187
330
71
100
AcDbEntity
  8
1
  6
Continuous
 62
     6
100
AcDbLine
 10
-125.812818998688
 20
-92.22605734130792
 30
0.0
 11
-412.8128189986861
 21
-92.22605734130792
 31
0.0
  0
LINE
  5
188
330
71
100
AcDbEntity
  8
1
  6
Continuous
 62
     2
100
AcDbLine
 10
-125.8128189986861
 20
-227.2260573413078
 30
0.0
 11
-120.812818998688
 21
-227.2260573413078
 31
0.0
  0
LINE
  5
189
330
71
100
AcDbEntity
  8
1
  6
Continuous
 62
     6
100
AcDbLine
 10
-125.8128189986861
 20
-227.2260573413078
 30
0.0
 11
-125.8128189986866
 21
-177.226057341308
 31
0.0
  0
LINE
  5
18A
330
71
100
AcDbEntity
  8
1
  6
Continuous
 62
     2
100
AcDbLine
 10
-120.812818998688
 20
-227.2260573413078
 30
0.0
 11
-120.812818998688
 21
-177.226057341308
 31
0.0
  0
LINE
  5
18B
330
71
100
AcDbEntity
  8
1
  6
Continuous
 62
     2
100
AcDbLine
 10
-125.8128189986866
 20
-177.226057341308
 30
0.0
 11
-120.812818998688
 21
-177.226057341308
 31
0.0
  0
LINE
  5
18C
330
71
100
AcDbEntity
  8
1
  6
Continuous
 62
     6
100
AcDbLine
 10
-125.8128189986866
 20
-177.226057341308
 30
0.0
 11
-125.8128189986878
 21
-127.2260573413079
 31
0.0
  0
LINE
  5
18D
330
71
100
AcDbEntity
  8
1
  6
Continuous
 62
     2
100
AcDbLine
 10
-120.812818998688
 20
-177.226057341308
 30
0.0
 11
-120.812818998688
 21
-127.2260573413079
 31
0.0
  0
LINE
  5
18E
330
71
100
AcDbEntity
  8
1
  6
Continuous
 62
     2
100
AcDbLine
 10
-125.8128189986878
 20
-127.2260573413079
 30
0.0
 11
-120.812818998688
 21
-127.2260573413079
 31
0.0
  0
LINE
  5
18F
330
71
100
AcDbEntity
  8
1
  6
Continuous
 62
     6
100
AcDbLine
 10
-125.8128189986878
 20
-127.2260573413079
 30
0.0
 11
-125.812818998688
 21
-92.22605734130792
 31
0.0
  0
LINE
  5
190
330
71
100
AcDbEntity
  8
1
  6
Continuous
 62
     2
100
AcDbLine
 10
-120.812818998688
 20
-127.2260573413079
 30
0.0
 11
-120.812818998688
 21
-72.22605734130792
 31
0.0
  0
LINE
  5
191
330
71
100
AcDbEntity
  8
1
  6
Continuous
 62
     2
100
AcDbLine
 10
-120.812818998688
 20
-277.226057341308
 30
0.0
 11
-120.812818998688
 21
-227.2260573413078
 31
0.0
  0
LINE
  5
192
330
71
100
AcDbEntity
  8
1
  6
Continuous
 62
     2
100
AcDbLine
 10
-269.312818998687
 20
-72.22605734130792
 30
0.0
 11
-417.8128189986861
 21
-72.22605734130792
 31
0.0
  0
LINE
  5
193
330
71
100
AcDbEntity
  8
1
  6
Continuous
 62
     2
100
AcDbLine
 10
-269.312818998687
 20
-72.22605734130792
 30
0.0
 11
-269.312818998687
 21
-81.43474918600924
 31
0.0
  0
LINE
  5
194
330
71
100
AcDbEntity
  8
1
  6
Continuous
 62
     2
100
AcDbLine
 10
-417.8128189986861
 20
-282.2260573413081
 30
0.0
 11
-412.8128189986851
 21
-282.2260573413081
 31
0.0
  0
LINE
  5
195
330
71
100
AcDbEntity
  8
1
  6
Continuous
 62
     2
100
AcDbLine
 10
-417.8128189986861
 20
-72.22605734130792
 30
0.0
 11
-417.8128189986861
 21
-127.2260573413079
 31
0.0
  0
LINE
  5
196
330
71
100
AcDbEntity
  8
1
  6
Continuous
 62
     6
100
AcDbLine
 10
-412.8128189986861
 20
-92.22605734130792
 30
0.0
 11
-412.812818998686
 21
-127.2260573413079
 31
0.0
  0
LINE
  5
197
330
71
100
AcDbEntity
  8
1
  6
Continuous
 62
     2
100
AcDbLine
 10
-417.8128189986861
 20
-127.2260573413079
 30
0.0
 11
-412.812818998686
 21
-127.2260573413079
 31
0.0
  0
LINE
  5
198
330
71
100
AcDbEntity
  8
1
  6
Continuous
 62
     2
100
AcDbLine
 10
-417.8128189986861
 20
-127.2260573413079
 30
0.0
 11
-417.8128189986861
 21
-177.226057341308
 31
0.0
  0
LINE
  5
199
330
71
100
AcDbEntity
  8
1
  6
Continuous
 62
     6
100
AcDbLine
 10
-412.812818998686
 20
-127.2260573413079
 30
0.0
 11
-412.8128189986855
 21
-177.226057341308
 31
0.0
  0
LINE
  5
19A
330
71
100
AcDbEntity
  8
1
  6
Continuous
 62
     2
100
AcDbLine
 10
-417.8128189986861
 20
-177.226057341308
 30
0.0
 11
-412.8128189986855
 21
-177.226057341308
 31
0.0
  0
LINE
  5
19B
330
71
100
AcDbEntity
  8
1
  6
Continuous
 62
     2
100
AcDbLine
 10
-417.8128189986861
 20
-177.226057341308
 30
0.0
 11
-417.8128189986861
 21
-227.2260573413078
 31
0.0
  0
LINE
  5
19C
330
71
100
AcDbEntity
  8
1
  6
Continuous
 62
     6
100
AcDbLine
 10
-412.8128189986855
 20
-177.226057341308
 30
0.0
 11
-412.8128189986853
 21
-227.2260573413078
 31
0.0
  0
LINE
  5
19D
330
71
100
AcDbEntity
  8
1
  6
Continuous
 62
     2
100
AcDbLine
 10
-417.8128189986861
 20
-227.2260573413078
 30
0.0
 11
-412.8128189986853
 21
-227.2260573413078
 31
0.0
  0
LINE
  5
19E
330
71
100
AcDbEntity
  8
1
  6
Continuous
 62
     2
100
AcDbLine
 10
-417.8128189986861
 20
-227.2260573413078
 30
0.0
 11
-417.8128189986861
 21
-277.226057341308
 31
0.0
  0
LINE
  5
19F
330
71
100
AcDbEntity
  8
1
  6
Continuous
 62
     6
100
AcDbLine
 10
-412.8128189986853
 20
-227.2260573413078
 30
0.0
 11
-412.8128189986851
 21
-277.226057341308
 31
0.0
  0
LINE
  5
1A0
330
71
100
AcDbEntity
  8
1
  6
Continuous
 62
     2
100
AcDbLine
 10
-369.312818998687
 20
-282.2260573413081
 30
0.0
 11
-369.312818998687
 21
-277.226057341308
 31
0.0
  0
LINE
  5
1A1
330
71
100
AcDbEntity
  8
1
  6
Continuous
 62
     2
100
AcDbLine
 10
-369.312818998687
 20
-282.2260573413081
 30
0.0
 11
-319.3128189986872
 21
-282.2260573413081
 31
0.0
  0
LINE
  5
1A2
330
71
100
AcDbEntity
  8
1
  6
Continuous
 62
     2
100
AcDbLine
 10
-319.3128189986872
 20
-282.2260573413081
 30
0.0
 11
-319.3128189986872
 21
-277.226057341308
 31
0.0
  0
LINE
  5
1A3
330
71
100
AcDbEntity
  8
1
  6
Continuous
 62
     2
100
AcDbLine
 10
-319.3128189986872
 20
-282.2260573413081
 30
0.0
 11
-269.312818998687
 21
-282.2260573413081
 31
0.0
  0
LINE
  5
1A4
330
71
100
AcDbEntity
  8
1
  6
Continuous
 62
     2
100
AcDbLine
 10
-269.312818998687
 20
-282.2260573413081
 30
0.0
 11
-269.312818998687
 21
-277.226057341308
 31
0.0
  0
LINE
  5
1A5
330
71
100
AcDbEntity
  8
1
  6
Continuous
 62
     2
100
AcDbLine
 10
-269.312818998687
 20
-282.2260573413081
 30
0.0
 11
-219.312818998687
 21
-282.2260573413081
 31
0.0
  0
LINE
  5
1A6
330
71
100
AcDbEntity
  8
1
  6
Continuous
 62
     2
100
AcDbLine
 10
-219.312818998687
 20
-282.2260573413081
 30
0.0
 11
-219.312818998687
 21
-277.226057341308
 31
0.0
  0
LINE
  5
1A7
330
71
100
AcDbEntity
  8
1
  6
Continuous
 62
     2
100
AcDbLine
 10
-169.312818998687
 20
-282.2260573413081
 30
0.0
 11
-169.312818998687
 21
-277.226057341308
 31
0.0
  0
LINE
  5
1A8
330
71
100
AcDbEntity
  8
1
  6
Continuous
 62
     2
100
AcDbLine
 10
-169.312818998687
 20
-282.2260573413081
 30
0.0
 11
-219.312818998687
 21
-282.2260573413081
 31
0.0
  0
LINE
  5
1A9
330
71
100
AcDbEntity
  8
1
  6
Continuous
 62
     2
100
AcDbLine
 10
-412.8128189986851
 20
-277.226057341308
 30
0.0
 11
-412.8128189986851
 21
-282.2260573413081
 31
0.0
  0
LINE
  5
1AA
330
71
100
AcDbEntity
  8
1
  6
Continuous
 62
     2
100
AcDbLine
 10
-412.8128189986851
 20
-282.2260573413081
 30
0.0
 11
-369.312818998687
 21
-282.2260573413081
 31
0.0
  0
LINE
  5
1AB
330
71
100
AcDbEntity
  8
1
  6
Continuous
 62
     2
100
AcDbLine
 10
-412.8128189986851
 20
-277.226057341308
 30
0.0
 11
-417.8128189986861
 21
-277.226057341308
 31
0.0
  0
LINE
  5
1AC
330
71
100
AcDbEntity
  8
1
  6
Continuous
 62
     2
100
AcDbLine
 10
-417.8128189986861
 20
-277.226057341308
 30
0.0
 11
-417.8128189986861
 21
-282.2260573413081
 31
0.0
  0
LINE
  5
1AD
330
71
100
AcDbEntity
  8
1
  6
Continuous
 62
     6
100
AcDbLine
 10
-125.812818998687
 20
-277.226057341308
 30
0.0
 11
-125.8128189986857
 21
-268.726057341308
 31
0.0
  0
LINE
  5
1AE
330
71
100
AcDbEntity
  8
1
  6
Continuous
 62
     6
100
AcDbLine
 10
-218.9576235254371
 20
-277.2260573413081
 30
0.0
 11
-169.312818998687
 21
-277.226057341308
 31
0.0
  0
LINE
  5
1AF
330
71
100
AcDbEntity
  8
1
  6
Continuous
 62
     6
100
AcDbLine
 10
-371.6128189986872
 20
-277.2260573413081
 30
0.0
 11
-369.312818998687
 21
-277.226057341308
 31
0.0
  0
LINE
  5
1B0
330
71
100
AcDbEntity
  8
1
  6
Continuous
 62
     6
100
AcDbLine
 10
-269.312818998687
 20
-277.226057341308
 30
0.0
 11
-319.3128189986872
 21
-277.226057341308
 31
0.0
  0
LINE
  5
1B1
330
71
100
AcDbEntity
  8
1
  6
Continuous
 62
     7
100
AcDbLine
 10
-255.357623525437
 20
-260.226057341308
 30
0.0
 11
-255.357623525437
 21
-272.9760573413081
 31
0.0
  0
LINE
  5
1B2
330
71
100
AcDbEntity
  8
1
  6
Continuous
 62
     7
100
AcDbLine
 10
-218.9576235254371
 20
-260.226057341308
 30
0.0
 11
-218.9576235254371
 21
-272.976057341308
 31
0.0
  0
LINE
  5
1B3
330
71
100
AcDbEntity
  8
1
  6
Continuous
 62
     6
100
AcDbLine
 10
-371.6128189986872
 20
-277.2260573413081
 30
0.0
 11
-377.8128189986852
 21
-277.226057341308
 31
0.0
  0
LINE
  5
1B4
330
71
100
AcDbEntity
  8
1
  6
Continuous
 62
     6
100
AcDbLine
 10
-218.9576235254371
 20
-277.2260573413081
 30
0.0
 11
-219.312818998687
 21
-277.226057341308
 31
0.0
  0
LINE
  5
1B5
330
71
100
AcDbEntity
  8
1
  6
Continuous
 62
     6
100
AcDbLine
 10
-125.8128189986853
 20
-260.226057341308
 30
0.0
 11
-125.8128189986857
 21
-268.726057341308
 31
0.0
  0
LINE
  5
1B6
330
71
100
AcDbEntity
  8
1
  6
Continuous
 62
     6
100
AcDbLine
 10
-377.8128189986852
 20
-277.226057341308
 30
0.0
 11
-412.8128189986851
 21
-277.226057341308
 31
0.0
  0
LINE
  5
1B7
330
71
100
AcDbEntity
  8
1
  6
Continuous
 62
     2
100
AcDbLine
 10
-251.1209686388744
 20
-254.851057341308
 30
0.0
 11
-246.1209686388744
 21
-253.601057341308
 31
0.0
  0
LINE
  5
1B8
330
71
100
AcDbEntity
  8
1
  6
Continuous
 62
     2
100
AcDbLine
 10
-251.1209686388744
 20
-257.351057341308
 30
0.0
 11
-251.1209686388744
 21
-254.851057341308
 31
0.0
  0
LINE
  5
1B9
330
71
100
AcDbEntity
  8
1
  6
Continuous
 62
     2
100
AcDbLine
 10
-246.1209686388744
 20
-258.601057341308
 30
0.0
 11
-251.1209686388744
 21
-257.351057341308
 31
0.0
  0
LINE
  5
1BA
330
71
100
AcDbEntity
  8
1
  6
Continuous
 62
     2
100
AcDbLine
 10
-246.1209686388744
 20
-253.601057341308
 30
0.0
 11
-246.1209686388744
 21
-258.601057341308
 31
0.0
  0
LINE
  5
1BB
330
71
100
AcDbEntity
  8
1
  6
Continuous
 62
     7
100
AcDbLine
 10
-255.357623525437
 20
-272.9760573413081
 30
0.0
 11
-237.157623525437
 21
-272.976057341308
 31
0.0
  0
LINE
  5
1BC
330
71
100
AcDbEntity
  8
1
  6
Continuous
 62
     7
100
AcDbLine
 10
-255.357623525437
 20
-272.9760573413081
 30
0.0
 11
-255.357623525437
 21
-277.2260573413081
 31
0.0
  0
LINE
  5
1BD
330
71
100
AcDbEntity
  8
1
  6
Continuous
 62
     7
100
AcDbLine
 10
-218.9576235254371
 20
-272.976057341308
 30
0.0
 11
-218.9576235254371
 21
-277.2260573413081
 31
0.0
  0
LINE
  5
1BE
330
71
100
AcDbEntity
  8
1
  6
Continuous
 62
     7
100
AcDbLine
 10
-237.157623525437
 20
-272.976057341308
 30
0.0
 11
-237.157623525437
 21
-277.226057341308
 31
0.0
  0
LINE
  5
1BF
330
71
100
AcDbEntity
  8
1
  6
Continuous
 62
     6
100
AcDbLine
 10
-237.157623525437
 20
-277.226057341308
 30
0.0
 11
-255.357623525437
 21
-277.2260573413081
 31
0.0
  0
LINE
  5
1C0
330
71
100
AcDbEntity
  8
1
  6
Continuous
 62
     7
100
AcDbLine
 10
-237.157623525437
 20
-272.976057341308
 30
0.0
 11
-218.9576235254371
 21
-272.976057341308
 31
0.0
  0
LINE
  5
1C1
330
71
100
AcDbEntity
  8
1
  6
Continuous
 62
     6
100
AcDbLine
 10
-255.357623525437
 20
-251.7260573413079
 30
0.0
 11
-125.8128189986853
 21
-251.7260573413079
 31
0.0
  0
ARC
  5
1C2
102
{ACAD_REACTORS
330
22A
330
22B
102
}
330
71
100
AcDbEntity
  8
0
  6
Continuous
 62
     2
100
AcDbCircle
 10
-239.965975526477
 20
-268.4056525793864
 30
0.0
 40
0.7717997786796023
100
AcDbArc
 50
321.8795802028471
 51
38.12041979716289
  0
ARC
  5
1C3
102
{ACAD_REACTORS
330
22A
330
22B
102
}
330
71
100
AcDbEntity
  8
0
  6
Continuous
 62
     2
100
AcDbCircle
 10
-239.7662354901306
 20
-268.5623837575064
 30
0.0
 40
0.5179085730136828
100
AcDbArc
 50
218.1204197971857
 51
321.8795802028085
  0
ARC
  5
1C4
102
{ACAD_REACTORS
330
22A
330
22B
102
}
330
71
100
AcDbEntity
  8
0
  6
Continuous
 62
     2
100
AcDbCircle
 10
-239.5664954537845
 20
-268.4056525793864
 30
0.0
 40
0.771799778679551
100
AcDbArc
 50
141.879580202828
 51
218.120419797162
  0
ARC
  5
1C5
102
{ACAD_REACTORS
330
22A
330
22B
102
}
330
71
100
AcDbEntity
  8
0
  6
Continuous
 62
     2
100
AcDbCircle
 10
-239.7662354901306
 20
-268.2489214012659
 30
0.0
 40
0.51790857301337
100
AcDbArc
 50
38.12041979715693
 51
141.8795802028489
  0
ARC
  5
1C6
102
{ACAD_REACTORS
330
222
330
223
102
}
330
71
100
AcDbEntity
  8
0
  6
Continuous
 62
     2
100
AcDbCircle
 10
-242.8282496256945
 20
-269.8161189447945
 30
0.0
 40
2.22738400897342
100
AcDbArc
 50
58.06909105003894
 51
71.55192388186583
  0
ARC
  5
1C7
102
{ACAD_REACTORS
330
222
330
223
102
}
330
71
100
AcDbEntity
  8
0
  6
Continuous
 62
     2
100
AcDbCircle
 10
-242.5665219247357
 20
-268.2005811500474
 30
0.0
 40
0.5115800601949152
100
AcDbArc
 50
113.3722778882008
 51
151.4785267423044
  0
ARC
  5
1C8
102
{ACAD_REACTORS
330
222
330
223
102
}
330
71
100
AcDbEntity
  8
0
  6
Continuous
 62
     2
100
AcDbCircle
 10
-242.1891646666554
 20
-268.4056525793864
 30
0.0
 40
0.9410597353332545
100
AcDbArc
 50
151.4785267422669
 51
208.5214732576997
  0
ARC
  5
1C9
102
{ACAD_REACTORS
330
222
330
223
102
}
330
71
100
AcDbEntity
  8
0
  6
Continuous
 62
     2
100
AcDbCircle
 10
-242.9861225007874
 20
-265.09297163413
 30
0.0
 40
4.852596863498053
100
AcDbArc
 50
275.158144769625
 51
285.9799912583533
  0
ARC
  5
1CA
102
{ACAD_REACTORS
330
222
330
223
102
}
330
71
100
AcDbEntity
  8
0
  6
Continuous
 62
     2
100
AcDbCircle
 10
-242.6972664060515
 20
-268.2928622173515
 30
0.0
 40
1.63969512393941
100
AcDbArc
 50
195.0618917770925
 51
275.1581447696406
  0
ARC
  5
1CB
102
{ACAD_REACTORS
330
222
330
223
102
}
330
71
100
AcDbEntity
  8
0
  6
Continuous
 62
     2
100
AcDbCircle
 10
-243.1163942495143
 20
-268.4056525793864
 30
0.0
 40
1.205656168391001
100
AcDbArc
 50
164.9381082228716
 51
195.0618917770945
  0
ARC
  5
1CC
102
{ACAD_REACTORS
330
222
330
223
102
}
330
71
100
AcDbEntity
  8
0
  6
Continuous
 62
     2
100
AcDbCircle
 10
-242.6972664060515
 20
-268.5184429414212
 30
0.0
 40
1.639695123940396
100
AcDbArc
 50
84.841855230361
 51
164.9381082228864
  0
ARC
  5
1CD
102
{ACAD_REACTORS
330
226
330
227
102
}
330
71
100
AcDbEntity
  8
0
  6
Continuous
 62
     2
100
AcDbCircle
 10
-247.5272806602134
 20
-267.371825785032
 30
0.0
 40
0.315716923076545
100
AcDbArc
 50
115.3740086783565
 51
180.0
  0
ARC
  5
1CE
102
{ACAD_REACTORS
330
226
330
227
102
}
330
71
100
AcDbEntity
  8
0
  6
Continuous
 62
     2
100
AcDbCircle
 10
-247.5272806602134
 20
-265.1535425850958
 30
0.0
 40
0.3157169230768204
100
AcDbArc
 50
180.0
 51
244.6259913216479
  0
ARC
  5
1CF
102
{ACAD_REACTORS
330
226
330
227
102
}
330
71
100
AcDbEntity
  8
0
  6
Continuous
 62
     2
100
AcDbCircle
 10
-247.5216645249034
 20
-266.2508422441581
 30
0.0
 40
2.018561131933266
100
AcDbArc
 50
269.8110329575858
 51
90.18896704241416
  0
ARC
  5
1D0
102
{ACAD_REACTORS
330
226
330
227
102
}
330
71
100
AcDbEntity
  8
0
  6
Continuous
 62
     2
100
AcDbCircle
 10
-247.5272806602134
 20
-267.9536771917271
 30
0.0
 40
0.3157169230768204
100
AcDbArc
 50
180.0
 51
269.811032957449
  0
ARC
  5
1D1
102
{ACAD_REACTORS
330
224
330
225
102
}
330
71
100
AcDbEntity
  8
0
  6
Continuous
 62
     2
100
AcDbCircle
 10
-226.4638204454828
 20
-268.2005811500474
 30
0.0
 40
0.5115800601944048
100
AcDbArc
 50
109.3371432194823
 51
151.4785267424126
  0
ARC
  5
1D2
102
{ACAD_REACTORS
330
224
330
225
102
}
330
71
100
AcDbEntity
  8
0
  6
Continuous
 62
     2
100
AcDbCircle
 10
-226.4638204454828
 20
-268.6107240087248
 30
0.0
 40
0.511580060196051
100
AcDbArc
 50
208.5214732576993
 51
246.6277221118499
  0
ARC
  5
1D3
102
{ACAD_REACTORS
330
224
330
225
102
}
330
71
100
AcDbEntity
  8
0
  6
Continuous
 62
     2
100
AcDbCircle
 10
-227.0136927702602
 20
-268.4056525793864
 30
0.0
 40
1.205656168393004
100
AcDbArc
 50
164.9381082228972
 51
195.0618917770924
  0
ARC
  5
1D4
102
{ACAD_REACTORS
330
224
330
225
102
}
330
71
100
AcDbEntity
  8
0
  6
Continuous
 62
     2
100
AcDbCircle
 10
-226.5945649267986
 20
-268.5184429414212
 30
0.0
 40
1.639695123940214
100
AcDbArc
 50
90.0
 51
164.9381082228947
  0
ARC
  5
1D5
102
{ACAD_REACTORS
330
228
330
229
102
}
330
71
100
AcDbEntity
  8
0
  6
Continuous
 62
     2
100
AcDbCircle
 10
-236.0215600195023
 20
-265.046462103212
 30
0.0
 40
1.526904761905769
100
AcDbArc
 50
90.0
 51
270.0
  0
ARC
  5
1D6
102
{ACAD_REACTORS
330
22C
330
22D
102
}
330
71
100
AcDbEntity
  8
0
  6
Continuous
 62
     2
100
AcDbCircle
 10
-242.7642507647281
 20
-264.5355270114173
 30
0.0
 40
0.3528638246710898
100
AcDbArc
 50
270.0
 51
90.0
  0
ARC
  5
1D7
102
{ACAD_REACTORS
330
226
330
227
102
}
330
71
100
AcDbEntity
  8
0
  6
Continuous
 62
     2
100
AcDbCircle
 10
-250.1028293467451
 20
-264.5478298199409
 30
0.0
 40
0.3157169230761951
100
AcDbArc
 50
90.0
 51
180.0
  0
ARC
  5
1D8
102
{ACAD_REACTORS
330
226
330
227
102
}
330
71
100
AcDbEntity
  8
0
  6
Continuous
 62
     2
100
AcDbCircle
 10
-248.1044116381605
 20
-266.2626841850637
 30
0.0
 40
0.9118975235576917
100
AcDbArc
 50
115.194410648526
 51
244.8055893514847
  0
ARC
  5
1D9
102
{ACAD_REACTORS
330
226
330
227
102
}
330
71
100
AcDbEntity
  8
0
  6
Continuous
 62
     2
100
AcDbCircle
 10
-248.6269960857355
 20
-267.3735139311265
 30
0.0
 40
0.315716923076593
100
AcDbArc
 50
0.0
 51
64.80558935147346
  0
ARC
  5
1DA
102
{ACAD_REACTORS
330
226
330
227
102
}
330
71
100
AcDbEntity
  8
0
  6
Continuous
 62
     2
100
AcDbCircle
 10
-250.6967240234916
 20
-269.5083127259084
 30
0.0
 40
0.4242446153827757
100
AcDbArc
 50
180.0
 51
270.0
  0
ARC
  5
1DB
102
{ACAD_REACTORS
330
228
330
229
102
}
330
71
100
AcDbEntity
  8
0
  6
Continuous
 62
     2
100
AcDbCircle
 10
-235.8052880093371
 20
-264.8897309250915
 30
0.0
 40
0.5179085730134341
100
AcDbArc
 50
38.12041979713539
 51
141.8795802028608
  0
ARC
  5
1DC
102
{ACAD_REACTORS
330
228
330
229
102
}
330
71
100
AcDbEntity
  8
0
  6
Continuous
 62
     2
100
AcDbCircle
 10
-235.6055479729908
 20
-265.046462103212
 30
0.0
 40
0.7717997786796245
100
AcDbArc
 50
141.8795802028484
 51
218.1204197971549
  0
ARC
  5
1DD
102
{ACAD_REACTORS
330
22A
330
22B
102
}
330
71
100
AcDbEntity
  8
0
  6
Continuous
 62
     2
100
AcDbCircle
 10
-239.7662354901306
 20
-267.867077569083
 30
0.0
 40
2.065479772208534
100
AcDbArc
 50
242.4518518243405
 51
297.5481481756874
  0
ARC
  5
1DE
102
{ACAD_REACTORS
330
22A
330
22B
102
}
330
71
100
AcDbEntity
  8
0
  6
Continuous
 62
     2
100
AcDbCircle
 10
-239.7662354901306
 20
-268.9442275896892
 30
0.0
 40
2.065479772208606
100
AcDbArc
 50
62.45185182430604
 51
117.548148175666
  0
ARC
  5
1DF
102
{ACAD_REACTORS
330
22A
330
22B
102
}
330
71
100
AcDbEntity
  8
0
  6
Continuous
 62
     2
100
AcDbCircle
 10
-240.0471753819639
 20
-268.4056525793864
 30
0.0
 40
1.458034083651515
100
AcDbArc
 50
117.5481481756619
 51
242.451851824336
  0
ARC
  5
1E0
102
{ACAD_REACTORS
330
22A
330
22B
102
}
330
71
100
AcDbEntity
  8
0
  6
Continuous
 62
     2
100
AcDbCircle
 10
-239.4852955982973
 20
-268.4056525793864
 30
0.0
 40
1.45803408365194
100
AcDbArc
 50
297.5481481757035
 51
62.45185182429847
  0
ARC
  5
1E1
102
{ACAD_REACTORS
330
228
330
229
102
}
330
71
100
AcDbEntity
  8
0
  6
Continuous
 62
     2
100
AcDbCircle
 10
-235.8052880093371
 20
-265.2031932813325
 30
0.0
 40
0.5179085730133893
100
AcDbArc
 50
218.1204197971392
 51
321.8795802028646
  0
ARC
  5
1E2
102
{ACAD_REACTORS
330
228
330
229
102
}
330
71
100
AcDbEntity
  8
0
  6
Continuous
 62
     2
100
AcDbCircle
 10
-236.0050280456833
 20
-265.046462103212
 30
0.0
 40
0.7717997786796373
100
AcDbArc
 50
321.8795802028437
 51
38.12041979715293
  0
ARC
  5
1E3
102
{ACAD_REACTORS
330
226
330
227
102
}
330
71
100
AcDbEntity
  8
0
  6
Continuous
 62
     2
100
AcDbCircle
 10
-245.2234119327748
 20
-269.5083127259084
 30
0.0
 40
0.424244615383202
100
AcDbArc
 50
270.0
 51
0.0
  0
ARC
  5
1E4
102
{ACAD_REACTORS
330
226
330
227
102
}
330
71
100
AcDbEntity
  8
0
  6
Continuous
 62
     2
100
AcDbCircle
 10
-245.2234119327748
 20
-263.9438019567082
 30
0.0
 40
0.4242446153839126
100
AcDbArc
 50
0.0
 51
90.0
  0
ARC
  5
1E5
102
{ACAD_REACTORS
330
226
330
227
102
}
330
71
100
AcDbEntity
  8
0
  6
Continuous
 62
     2
100
AcDbCircle
 10
-250.6967240234916
 20
-263.9438019567082
 30
0.0
 40
0.424244615383941
100
AcDbArc
 50
90.0
 51
180.0
  0
ARC
  5
1E6
102
{ACAD_REACTORS
330
226
330
227
102
}
330
71
100
AcDbEntity
  8
0
  6
Continuous
 62
     2
100
AcDbCircle
 10
-248.6269960857355
 20
-268.9042848626581
 30
0.0
 40
0.3157169230767067
100
AcDbArc
 50
270.0
 51
0.0
  0
ARC
  5
1E7
102
{ACAD_REACTORS
330
226
330
227
102
}
330
71
100
AcDbEntity
  8
0
  6
Continuous
 62
     2
100
AcDbCircle
 10
-248.6269960857355
 20
-265.1518544390015
 30
0.0
 40
0.3157169230760174
100
AcDbArc
 50
295.1944106485485
 51
0.0
  0
ARC
  5
1E8
102
{ACAD_REACTORS
330
226
330
227
102
}
330
71
100
AcDbEntity
  8
0
  6
Continuous
 62
     2
100
AcDbCircle
 10
-248.6269960857355
 20
-264.5478298199409
 30
0.0
 40
0.315716923076593
100
AcDbArc
 50
0.0
 51
90.0
  0
ARC
  5
1E9
102
{ACAD_REACTORS
330
226
330
227
102
}
330
71
100
AcDbEntity
  8
0
  6
Continuous
 62
     2
100
AcDbCircle
 10
-250.1028293467451
 20
-268.9042848626581
 30
0.0
 40
0.315716923075712
100
AcDbArc
 50
180.0
 51
270.0
  0
ARC
  5
1EA
102
{ACAD_REACTORS
330
22C
330
22D
102
}
330
71
100
AcDbEntity
  8
0
  6
Continuous
 62
     2
100
AcDbCircle
 10
-242.3227782384897
 20
-264.5749229826398
 30
0.0
 40
1.055365641333822
100
AcDbArc
 50
270.0
 51
90.0
  0
ARC
  5
1EB
102
{ACAD_REACTORS
330
224
330
225
102
}
330
71
100
AcDbEntity
  8
0
  6
Continuous
 62
     2
100
AcDbCircle
 10
-226.5945649267986
 20
-268.2928622173515
 30
0.0
 40
1.639695123940421
100
AcDbArc
 50
195.0618917771015
 51
275.1581447696759
  0
ARC
  5
1EC
102
{ACAD_REACTORS
330
224
330
225
102
}
330
71
100
AcDbEntity
  8
0
  6
Continuous
 62
     2
100
AcDbCircle
 10
-226.8834210215344
 20
-265.09297163413
 30
0.0
 40
4.852596863498879
100
AcDbArc
 50
275.158144769636
 51
285.9799912583387
  0
ARC
  5
1ED
102
{ACAD_REACTORS
330
224
330
225
102
}
330
71
100
AcDbEntity
  8
0
  6
Continuous
 62
     2
100
AcDbCircle
 10
-226.7255481464416
 20
-266.9951862139783
 30
0.0
 40
2.227384008972665
100
AcDbArc
 50
288.4480761181342
 51
301.9309089499409
  0
ARC
  5
1EE
102
{ACAD_REACTORS
330
224
330
225
102
}
330
71
100
AcDbEntity
  8
0
  6
Continuous
 62
     2
100
AcDbCircle
 10
-226.3073804127797
 20
-268.2487319900148
 30
0.0
 40
0.9059297849853845
100
AcDbArc
 50
246.6277221118211
 51
288.4480761180817
  0
ARC
  5
1EF
102
{ACAD_REACTORS
330
224
330
225
102
}
330
71
100
AcDbEntity
  8
0
  6
Continuous
 62
     2
100
AcDbCircle
 10
-226.0864631874014
 20
-268.4056525793864
 30
0.0
 40
0.9410597353349331
100
AcDbArc
 50
151.4785267423579
 51
208.5214732576695
  0
ARC
  5
1F0
102
{ACAD_REACTORS
330
224
330
225
102
}
330
71
100
AcDbEntity
  8
0
  6
Continuous
 62
     2
100
AcDbCircle
 10
-226.3171504473791
 20
-268.6185361304302
 30
0.0
 40
0.9545230068259798
100
AcDbArc
 50
90.0
 51
109.3371432194327
  0
ARC
  5
1F1
102
{ACAD_REACTORS
330
226
330
227
102
}
330
71
100
AcDbEntity
  8
0
  6
Continuous
 62
     2
100
AcDbCircle
 10
-247.5272806602134
 20
-264.5480072965891
 30
0.0
 40
0.3157169230761848
100
AcDbArc
 50
90.18896704255101
 51
180.0
  0
ARC
  5
1F2
102
{ACAD_REACTORS
330
226
330
227
102
}
330
71
100
AcDbEntity
  8
0
  6
Continuous
 62
     2
100
AcDbCircle
 10
-248.0533233583013
 20
-266.2626841850637
 30
0.0
 40
0.9118481501443819
100
AcDbArc
 50
295.3740086781787
 51
64.62599132180748
  0
ARC
  5
1F3
102
{ACAD_REACTORS
330
222
330
223
102
}
330
71
100
AcDbEntity
  8
0
  6
Continuous
 62
     2
100
AcDbCircle
 10
-242.8282496256945
 20
-266.9951862139776
 30
0.0
 40
2.22738400897288
100
AcDbArc
 50
288.4480761181323
 51
301.9309089499587
  0
ARC
  5
1F4
102
{ACAD_REACTORS
330
222
330
223
102
}
330
71
100
AcDbEntity
  8
0
  6
Continuous
 62
     2
100
AcDbCircle
 10
-242.4100818920337
 20
-268.2487319900148
 30
0.0
 40
0.9059297849850236
100
AcDbArc
 50
246.6277221118739
 51
288.4480761181573
  0
ARC
  5
1F5
102
{ACAD_REACTORS
330
222
330
223
102
}
330
71
100
AcDbEntity
  8
0
  6
Continuous
 62
     2
100
AcDbCircle
 10
-242.5665219247357
 20
-268.6107240087248
 30
0.0
 40
0.5115800601948034
100
AcDbArc
 50
208.5214732576956
 51
246.6277221118295
  0
ARC
  5
1F6
102
{ACAD_REACTORS
330
222
330
223
102
}
330
71
100
AcDbEntity
  8
0
  6
Continuous
 62
     2
100
AcDbCircle
 10
-242.4100818920337
 20
-268.5625731687579
 30
0.0
 40
0.9059297849852779
100
AcDbArc
 50
71.55192388185064
 51
113.3722778881304
  0
ARC
  5
1F7
102
{ACAD_REACTORS
330
222
330
223
102
}
330
71
100
AcDbEntity
  8
0
  6
Continuous
 62
     2
100
AcDbCircle
 10
-242.9861225007874
 20
-271.7183335246423
 30
0.0
 40
4.85259686349815
100
AcDbArc
 50
74.02000874164766
 51
84.84185523037502
  0
CIRCLE
  5
1F8
102
{ACAD_REACTORS
330
226
330
227
102
}
330
71
100
AcDbEntity
  8
0
  6
Continuous
 62
     2
100
AcDbCircle
 10
-248.0771383729741
 20
-266.2626841850637
 30
0.0
 40
0.4709789327785074
  0
CIRCLE
  5
1F9
330
71
100
AcDbEntity
  8
1
  6
Continuous
 62
     2
100
AcDbCircle
 10
-242.6209686388744
 20
-256.101057341308
 30
0.0
 40
1.249999999999886
  0
CIRCLE
  5
1FA
330
71
100
AcDbEntity
  8
1
  6
Continuous
 62
     2
100
AcDbCircle
 10
-242.6209686388744
 20
-256.101057341308
 30
0.0
 40
2.5
  0
TEXT
  5
1FB
330
71
100
AcDbEntity
  8
1
 62
     7
100
AcDbText
 10
-199.9840758034232
 20
-258.926057341308
 30
0.0
 40
2.5
  1
/
 41
0.9
  7
CONVERTER_11
100
AcDbText
  0
TEXT
  5
1FD
330
71
100
AcDbEntity
  8
1
 62
     7
100
AcDbText
 10
-197.8277113063812
 20
-258.926057341308
 30
0.0
 40
2.5
  1
00
 41
0.81
  7
CONVERTER_12
100
AcDbText
  0
TEXT
  5
1FE
330
71
100
AcDbEntity
  8
1
 62
     3
100
AcDbText
 10
-160.2312272803641
 20
-258.926057341308
 30
0.0
 40
2.5
  1
29.03.2018
 41
0.81
  7
CONVERTER_12
100
AcDbText
  0
MTEXT
  5
1FF
330
71
100
AcDbEntity
  8
1
 62
     2
100
AcDbMText
 10
-160.2312272803641
 20
-252.726057341308
 30
0.0
 40
1.8
 41
0.0
 71
     1
 72
     1
  1
date
  7
CONVERTER_11
 73
     1
 44
1.32052821128451
  0
MTEXT
  5
200
330
71
100
AcDbEntity
  8
1
 62
     2
100
AcDbMText
 10
-190.057623525437
 20
-261.226057341308
 30
0.0
 40
1.8
 41
0.0
 71
     1
 72
     1
  1
document-type
  7
CONVERTER_11
 73
     1
 44
1.20048019207683
  0
TEXT
  5
201
330
71
100
AcDbEntity
  8
1
 62
     3
100
AcDbText
 10
-190.057623525437
 20
-267.426057341308
 30
0.0
 40
2.5
  1
TECDOC 2D_Productdrawing
 41
0.81
  7
CONVERTER_12
100
AcDbText
  0
MTEXT
  5
203
330
71
100
AcDbEntity
  8
1
 62
     2
100
AcDbMText
 10
-217.857623525437
 20
-252.7260573413079
 30
0.0
 40
1.8
 41
0.0
 71
     1
 72
     1
  1
document-No. / RI
  7
CONVERTER_13
 73
     1
 44
1.32052821128451
  0
TEXT
  5
204
330
71
100
AcDbEntity
  8
1
 62
     7
100
AcDbText
 10
-217.857623525437
 20
-258.926057341308
 30
0.0
 40
2.5
  1
01098078
 41
0.81
  7
CONVERTER_12
100
AcDbText
  0
MTEXT
  5
206
330
71
100
AcDbEntity
  8
1
 62
     3
100
AcDbMText
 10
-130.2720231395247
 20
-258.9260573413078
 30
0.0
 40
2.5
 41
0.0
 71
     8
 72
     1
  1
5:1
  7
CONVERTER_14
 73
     1
 44
1.32052821128451
  0
MTEXT
  5
207
330
71
100
AcDbEntity
  8
1
 62
     2
100
AcDbMText
 10
-133.6312272803643
 20
-252.7260573413079
 30
0.0
 40
1.8
 41
0.0
 71
     1
 72
     1
  1
scale
  7
CONVERTER_11
 73
     1
 44
1.20048019207683
  0
MTEXT
  5
208
330
71
100
AcDbEntity
  8
1
 62
     2
100
AcDbMText
 10
-217.857623525437
 20
-261.226057341308
 30
0.0
 40
1.8
 41
0.0
 71
     1
 72
     1
  1
ident.-No.
  7
CONVERTER_11
 73
     1
 44
1.20048019207683
  0
TEXT
  5
209
330
71
100
AcDbEntity
  8
1
 62
     7
100
AcDbText
 10
-217.4576235254373
 20
-267.426057341308
 30
0.0
 40
2.5
  1
0812638
 41
0.81
  7
CONVERTER_12
100
AcDbText
  0
MTEXT
  5
20A
330
71
100
AcDbEntity
  8
1
 62
     2
100
AcDbMText
 10
-289.7956382504845
 20
-264.476057341308
 30
0.0
 40
2.0
 41
0.0
 71
     5
 72
     1
  1
General Information\P- Simplified representation\P- Document excluded from change process\P- Linear dimensions [mm]
  7
CONVERTER_11
 73
     1
 44
1.20048019207683
  0
MTEXT
  5
20B
330
71
100
AcDbEntity
  8
1
 62
     7
100
AcDbMText
 10
-123.312818998688
 20
-202.226057341306
 30
0.0
 40
3.5
 41
0.0
 71
     5
 72
     1
  1
C
  7
CONVERTER_11
 73
     1
 44
1.20048019207683
  0
MTEXT
  5
20C
330
71
100
AcDbEntity
  8
1
 62
     7
100
AcDbMText
 10
-123.312818998688
 20
-99.72605734130792
 30
0.0
 40
3.5
 41
0.0
 71
     5
 72
     1
  1
A
  7
CONVERTER_11
 73
     1
 44
1.20048019207683
  0
MTEXT
  5
20D
330
71
100
AcDbEntity
  8
1
 62
     7
100
AcDbMText
 10
-123.312818998688
 20
-152.226057341306
 30
0.0
 40
3.5
 41
0.0
 71
     5
 72
     1
  1
B
  7
CONVERTER_11
 73
     1
 44
1.20048019207683
  0
MTEXT
  5
20E
330
71
100
AcDbEntity
  8
1
 62
     7
100
AcDbMText
 10
-123.312818998688
 20
-254.726057341308
 30
0.0
 40
3.5
 41
0.0
 71
     5
 72
     1
  1
D
  7
CONVERTER_11
 73
     1
 44
1.20048019207683
  0
MTEXT
  5
20F
330
71
100
AcDbEntity
  8
1
 62
     7
100
AcDbMText
 10
-393.5628189986866
 20
-279.7260573413081
 30
0.0
 40
3.5
 41
0.0
 71
     5
 72
     1
  1
1
  7
CONVERTER_11
 73
     1
 44
1.20048019207683
  0
MTEXT
  5
210
330
71
100
AcDbEntity
  8
1
 62
     7
100
AcDbMText
 10
-344.312818998687
 20
-279.7260573413081
 30
0.0
 40
3.5
 41
0.0
 71
     5
 72
     1
  1
2
  7
CONVERTER_11
 73
     1
 44
1.20048019207683
  0
MTEXT
  5
211
330
71
100
AcDbEntity
  8
1
 62
     7
100
AcDbMText
 10
-294.312818998687
 20
-279.7260573413081
 30
0.0
 40
3.5
 41
0.0
 71
     5
 72
     1
  1
3
  7
CONVERTER_11
 73
     1
 44
1.20048019207683
  0
MTEXT
  5
212
330
71
100
AcDbEntity
  8
1
 62
     7
100
AcDbMText
 10
-244.3128189986871
 20
-279.7260573413081
 30
0.0
 40
3.5
 41
0.0
 71
     5
 72
     1
  1
4
  7
CONVERTER_11
 73
     1
 44
1.20048019207683
  0
MTEXT
  5
213
330
71
100
AcDbEntity
  8
1
 62
     7
100
AcDbMText
 10
-194.312818998687
 20
-279.7260573413081
 30
0.0
 40
3.5
 41
0.0
 71
     5
 72
     1
  1
5
  7
CONVERTER_11
 73
     1
 44
1.20048019207683
  0
MTEXT
  5
214
330
71
100
AcDbEntity
  8
1
 62
     7
100
AcDbMText
 10
-145.0628189986878
 20
-279.7260573413081
 30
0.0
 40
3.5
 41
0.0
 71
     5
 72
     1
  1
6
  7
CONVERTER_11
 73
     1
 44
1.20048019207683
  0
MTEXT
  5
215
330
71
100
AcDbEntity
  8
1
 62
     7
100
AcDbMText
 10
-415.3128189986861
 20
-99.72605734130792
 30
0.0
 40
3.5
 41
0.0
 71
     5
 72
     1
  1
A
  7
CONVERTER_11
 73
     1
 44
1.20048019207683
  0
MTEXT
  5
216
330
71
100
AcDbEntity
  8
1
 62
     7
100
AcDbMText
 10
-415.3128189986861
 20
-152.2260573413079
 30
0.0
 40
3.5
 41
0.0
 71
     5
 72
     1
  1
B
  7
CONVERTER_11
 73
     1
 44
1.20048019207683
  0
MTEXT
  5
217
330
71
100
AcDbEntity
  8
1
 62
     7
100
AcDbMText
 10
-415.3128189986861
 20
-202.2260573413079
 30
0.0
 40
3.5
 41
0.0
 71
     5
 72
     1
  1
C
  7
CONVERTER_11
 73
     1
 44
1.20048019207683
  0
MTEXT
  5
218
330
71
100
AcDbEntity
  8
1
 62
     7
100
AcDbMText
 10
-415.3128189986861
 20
-254.726057341308
 30
0.0
 40
3.5
 41
0.0
 71
     5
 72
     1
  1
D
  7
CONVERTER_11
 73
     1
 44
1.20048019207683
  0
MTEXT
  5
219
330
71
100
AcDbEntity
  8
1
 62
     3
100
AcDbMText
 10
-229.1576235254371
 20
-256.101057341308
 30
0.0
 40
2.5
 41
0.0
 71
     5
 72
     1
  1
DIN A4
  7
CONVERTER_11
 73
     1
 44
1.20048019207683
  0
MTEXT
  5
21A
330
71
100
AcDbEntity
  8
1
 62
     2
100
AcDbMText
 10
-217.9576235254371
 20
-269.726057341308
 30
0.0
 40
1.8
 41
0.0
 71
     1
 72
     1
  1
description
  7
CONVERTER_11
 73
     1
 44
1.20048019207683
  0
MTEXT
  5
21B
330
71
100
AcDbEntity
  8
1
 62
     7
100
AcDbMText
 10
-172.3852212620615
 20
-273.9760573413078
 30
0.0
 40
3.0
 41
0.0
 71
     5
 72
     1
  1
ZB 5/OG:UNPRINTED
  7
CONVERTER_12
 73
     1
 44
1.20048019207683
  0
TEXT
  5
21C
330
71
100
AcDbEntity
  8
1
 62
     2
100
AcDbText
 10
-230.9223147156235
 20
-275.9760573413081
 30
0.0
 40
1.8
  1
1
 41
0.9
  7
CONVERTER_11
100
AcDbText
  0
TEXT
  5
21D
330
71
100
AcDbEntity
  8
1
 62
     2
100
AcDbText
 10
-245.711358555095
 20
-276.02530599511
 30
0.0
 40
1.8
  1
1
 41
0.9
  7
CONVERTER_11
100
AcDbText
  0
TEXT
  5
21E
330
71
100
AcDbEntity
  8
1
 62
     2
100
AcDbText
 10
-254.357623525437
 20
-275.9850745562997
 30
0.0
 40
1.8
  1
page
 41
0.9
  7
CONVERTER_11
100
AcDbText
  0
TEXT
  5
21F
330
71
100
AcDbEntity
  8
1
 62
     2
100
AcDbText
 10
-236.1576235254372
 20
-275.9850745562995
 30
0.0
 40
1.8
  1
of
 41
0.9
  7
CONVERTER_11
100
AcDbText
  0
MTEXT
  5
220
330
71
100
AcDbEntity
  8
1
 62
     3
100
AcDbMText
 10
-229.9546413738271
 20
-90.43474918600913
 30
0.0
 40
1.8
 41
0.0
 71
     7
 72
     1
  3
Transfer or duplication of this document as well as the utilisation or\Pcommunication of its content are not permitted unless express consent\Pis granted. Violations give rise to claims for damages. All rights reserved\Pin case of patent, utility mo
  1
del or design patent registrations.
  7
CONVERTER_11
 73
     1
 44
0.99639855942377
  0
MTEXT
  5
221
330
71
100
AcDbEntity
  8
1
 62
     3
100
AcDbMText
 10
-412.8077512126152
 20
-90.43474918600913
 30
0.0
 40
1.8
 41
0.0
 71
     7
 72
     1
  3
Weitergabe sowie Vervielf\U+00e4ltigung dieses Dokuments, Verwertung und \PMitteilung seines Inhalts sind verboten, soweit nicht ausdr\U+00fccklich gestattet. \PZuwiderhandlungen verpflichten zu Schadenersatz. Alle Rechte f\U+00fcr den Fall\Pder Pat
  1
ent-, Gebrauchsmuster- oder Designeintragung vorbehalten.
  7
CONVERTER_11
 73
     1
 44
0.99639855942377
  0
HATCH
  5
222
330
71
100
AcDbEntity
  8
1
  6
Continuous
 62
     2
100
AcDbHatch
 10
0.0
 20
0.0
 30
0.0
210
0.0
220
0.0
230
1.0
  2
_USER
 70
     0
 71
     1
 91
        1
 92
        1
 93
       14
 72
     2
 10
-243.1163942495143
 20
-268.4056525793864
 40
1.205656168391001
 50
164.9381082228716
 51
195.0618917770945
 73
     1
 72
     2
 10
-242.6972664060515
 20
-268.2928622173515
 40
1.63969512393941
 50
195.0618917770925
 51
275.1581447696406
 73
     1
 72
     2
 10
-242.9861225007874
 20
-265.09297163413
 40
4.852596863498053
 50
275.158144769625
 51
285.9799912583533
 73
     1
 72
     1
 10
-241.6501945836696
 20
-269.7580539399307
 11
-241.6501945836696
 21
-268.8855369331276
 72
     2
 10
-242.8282496256945
 20
-266.9951862139776
 40
2.22738400897288
 50
58.06909105004127
 51
71.5519238818677
 73
     0
 72
     2
 10
-242.4100818920337
 20
-268.2487319900148
 40
0.9059297849850236
 50
71.5519238818427
 51
113.3722778881261
 73
     0
 72
     2
 10
-242.5665219247357
 20
-268.6107240087248
 40
0.5115800601948034
 50
113.3722778881705
 51
151.4785267423044
 73
     0
 72
     2
 10
-242.1891646666554
 20
-268.4056525793864
 40
0.9410597353332545
 50
151.4785267423003
 51
208.5214732577331
 73
     0
 72
     2
 10
-242.5665219247357
 20
-268.2005811500474
 40
0.5115800601949152
 50
208.5214732576956
 51
246.6277221117992
 73
     0
 72
     2
 10
-242.4100818920337
 20
-268.5625731687579
 40
0.9059297849852779
 50
246.6277221118696
 51
288.4480761181494
 73
     0
 72
     2
 10
-242.8282496256945
 20
-269.8161189447945
 40
2.22738400897342
 50
288.4480761181342
 51
301.9309089499611
 73
     0
 72
     1
 10
-241.6501945836696
 20
-267.9257682256447
 11
-241.6501945836696
 21
-267.0532512188413
 72
     2
 10
-242.9861225007874
 20
-271.7183335246423
 40
4.85259686349815
 50
74.02000874164766
 51
84.84185523037502
 73
     1
 72
     2
 10
-242.6972664060515
 20
-268.5184429414212
 40
1.639695123940396
 50
84.841855230361
 51
164.9381082228864
 73
     1
 97
       14
330
1F7
330
110
330
1C6
330
1F6
330
1C7
330
1C8
330
1F5
330
1F4
330
1F3
330
111
330
1C9
330
1CA
330
1CB
330
1CC
 75
     1
 76
     0
 52
45.0
 41
0.1
 77
     0
 78
     1
 53
45.0
 43
0.0
 44
0.0
 45
-0.0707106781186548
 46
0.0707106781186548
 79
     0
 98
        1
 10
0.0
 20
0.0
  0
HATCH
  5
223
330
71
100
AcDbEntity
  8
1
  6
Continuous
 62
     2
100
AcDbHatch
 10
0.0
 20
0.0
 30
0.0
210
0.0
220
0.0
230
1.0
  2
_USER
 70
     0
 71
     1
 91
        1
 92
        1
 93
       14
 72
     2
 10
-243.1163942495143
 20
-268.4056525793864
 40
1.205656168391001
 50
164.9381082228716
 51
195.0618917770945
 73
     1
 72
     2
 10
-242.6972664060515
 20
-268.2928622173515
 40
1.63969512393941
 50
195.0618917770925
 51
275.1581447696406
 73
     1
 72
     2
 10
-242.9861225007874
 20
-265.09297163413
 40
4.852596863498053
 50
275.158144769625
 51
285.9799912583533
 73
     1
 72
     1
 10
-241.6501945836696
 20
-269.7580539399307
 11
-241.6501945836696
 21
-268.8855369331276
 72
     2
 10
-242.8282496256945
 20
-266.9951862139776
 40
2.22738400897288
 50
58.06909105004127
 51
71.5519238818677
 73
     0
 72
     2
 10
-242.4100818920337
 20
-268.2487319900148
 40
0.9059297849850236
 50
71.5519238818427
 51
113.3722778881261
 73
     0
 72
     2
 10
-242.5665219247357
 20
-268.6107240087248
 40
0.5115800601948034
 50
113.3722778881705
 51
151.4785267423044
 73
     0
 72
     2
 10
-242.1891646666554
 20
-268.4056525793864
 40
0.9410597353332545
 50
151.4785267423003
 51
208.5214732577331
 73
     0
 72
     2
 10
-242.5665219247357
 20
-268.2005811500474
 40
0.5115800601949152
 50
208.5214732576956
 51
246.6277221117992
 73
     0
 72
     2
 10
-242.4100818920337
 20
-268.5625731687579
 40
0.9059297849852779
 50
246.6277221118696
 51
288.4480761181494
 73
     0
 72
     2
 10
-242.8282496256945
 20
-269.8161189447945
 40
2.22738400897342
 50
288.4480761181342
 51
301.9309089499611
 73
     0
 72
     1
 10
-241.6501945836696
 20
-267.9257682256447
 11
-241.6501945836696
 21
-267.0532512188413
 72
     2
 10
-242.9861225007874
 20
-271.7183335246423
 40
4.85259686349815
 50
74.02000874164766
 51
84.84185523037502
 73
     1
 72
     2
 10
-242.6972664060515
 20
-268.5184429414212
 40
1.639695123940396
 50
84.841855230361
 51
164.9381082228864
 73
     1
 97
       14
330
1F7
330
110
330
1C6
330
1F6
330
1C7
330
1C8
330
1F5
330
1F4
330
1F3
330
111
330
1C9
330
1CA
330
1CB
330
1CC
 75
     1
 76
     0
 52
45.0
 41
0.1
 77
     0
 78
     1
 53
45.0
 43
0.0
 44
0.0
 45
-0.0707106781186548
 46
0.0707106781186548
 79
     0
 98
        1
 10
0.0
 20
0.0
  0
HATCH
  5
224
330
71
100
AcDbEntity
  8
1
  6
Continuous
 62
     2
100
AcDbHatch
 10
0.0
 20
0.0
 30
0.0
210
0.0
220
0.0
230
1.0
  2
_USER
 70
     0
 71
     1
 91
        1
 92
        1
 93
       18
 72
     2
 10
-226.5945649267986
 20
-268.5184429414212
 40
1.639695123940214
 50
90.0
 51
164.9381082228947
 73
     1
 72
     2
 10
-227.0136927702602
 20
-268.4056525793864
 40
1.205656168393004
 50
164.9381082228972
 51
195.0618917770924
 73
     1
 72
     2
 10
-226.5945649267986
 20
-268.2928622173515
 40
1.639695123940421
 50
195.0618917771015
 51
275.1581447696759
 73
     1
 72
     2
 10
-226.8834210215344
 20
-265.09297163413
 40
4.852596863498879
 50
275.158144769636
 51
285.9799912583387
 73
     1
 72
     1
 10
-225.5474931044177
 20
-269.7580539399313
 11
-225.5474931044177
 21
-268.885536933128
 72
     2
 10
-226.7255481464416
 20
-266.9951862139783
 40
2.227384008972665
 50
58.06909105005913
 51
71.5519238818658
 73
     0
 72
     2
 10
-226.3073804127797
 20
-268.2487319900148
 40
0.9059297849853845
 50
71.55192388191827
 51
113.3722778881789
 73
     0
 72
     2
 10
-226.4638204454828
 20
-268.6107240087248
 40
0.511580060196051
 50
113.3722778881501
 51
151.4785267423007
 73
     0
 72
     2
 10
-226.0864631874014
 20
-268.4056525793864
 40
0.9410597353349331
 50
151.4785267423305
 51
208.5214732576422
 73
     0
 72
     2
 10
-226.4638204454828
 20
-268.2005811500474
 40
0.5115800601944048
 50
208.5214732575874
 51
250.6628567805177
 73
     0
 72
     2
 10
-226.3171504473791
 20
-268.6185361304302
 40
0.9545230068259798
 50
250.6628567805674
 51
270.0
 73
     0
 72
     1
 10
-226.3171504473791
 20
-267.6640131236042
 11
-225.213511147811
 21
-267.6640131236042
 72
     1
 10
-225.213511147811
 20
-267.6640131236042
 11
-225.213511147811
 21
-269.9325573412916
 72
     1
 10
-225.213511147811
 20
-269.9325573412916
 11
-224.0207184456433
 21
-269.9325573412916
 72
     1
 10
-224.0207184456433
 20
-269.9325573412916
 11
-224.0207184456433
 21
-267.6640131236042
 72
     1
 10
-224.0207184456433
 20
-267.6640131236042
 11
-223.2096194081699
 21
-267.6640131236042
 72
     1
 10
-223.2096194081699
 20
-267.6640131236042
 11
-223.2096194081699
 21
-266.8787478174805
 72
     1
 10
-223.2096194081699
 20
-266.8787478174805
 11
-226.5945649267986
 21
-266.878747817481
 97
       18
330
176
330
175
330
174
330
173
330
178
330
112
330
1F0
330
1D1
330
1EF
330
1D2
330
1EE
330
1ED
330
113
330
1EC
330
1EB
330
1D3
330
1D4
330
177
 75
     1
 76
     0
 52
45.0
 41
0.1
 77
     0
 78
     1
 53
45.0
 43
0.0
 44
0.0
 45
-0.0707106781186548
 46
0.0707106781186548
 79
     0
 98
        1
 10
0.0
 20
0.0
  0
HATCH
  5
225
330
71
100
AcDbEntity
  8
1
  6
Continuous
 62
     2
100
AcDbHatch
 10
0.0
 20
0.0
 30
0.0
210
0.0
220
0.0
230
1.0
  2
_USER
 70
     0
 71
     1
 91
        1
 92
        1
 93
       18
 72
     2
 10
-226.5945649267986
 20
-268.5184429414212
 40
1.639695123940214
 50
90.0
 51
164.9381082228947
 73
     1
 72
     2
 10
-227.0136927702602
 20
-268.4056525793864
 40
1.205656168393004
 50
164.9381082228972
 51
195.0618917770924
 73
     1
 72
     2
 10
-226.5945649267986
 20
-268.2928622173515
 40
1.639695123940421
 50
195.0618917771015
 51
275.1581447696759
 73
     1
 72
     2
 10
-226.8834210215344
 20
-265.09297163413
 40
4.852596863498879
 50
275.158144769636
 51
285.9799912583387
 73
     1
 72
     1
 10
-225.5474931044177
 20
-269.7580539399313
 11
-225.5474931044177
 21
-268.885536933128
 72
     2
 10
-226.7255481464416
 20
-266.9951862139783
 40
2.227384008972665
 50
58.06909105005913
 51
71.5519238818658
 73
     0
 72
     2
 10
-226.3073804127797
 20
-268.2487319900148
 40
0.9059297849853845
 50
71.55192388191827
 51
113.3722778881789
 73
     0
 72
     2
 10
-226.4638204454828
 20
-268.6107240087248
 40
0.511580060196051
 50
113.3722778881501
 51
151.4785267423007
 73
     0
 72
     2
 10
-226.0864631874014
 20
-268.4056525793864
 40
0.9410597353349331
 50
151.4785267423305
 51
208.5214732576422
 73
     0
 72
     2
 10
-226.4638204454828
 20
-268.2005811500474
 40
0.5115800601944048
 50
208.5214732575874
 51
250.6628567805177
 73
     0
 72
     2
 10
-226.3171504473791
 20
-268.6185361304302
 40
0.9545230068259798
 50
250.6628567805674
 51
270.0
 73
     0
 72
     1
 10
-226.3171504473791
 20
-267.6640131236042
 11
-225.213511147811
 21
-267.6640131236042
 72
     1
 10
-225.213511147811
 20
-267.6640131236042
 11
-225.213511147811
 21
-269.9325573412916
 72
     1
 10
-225.213511147811
 20
-269.9325573412916
 11
-224.0207184456433
 21
-269.9325573412916
 72
     1
 10
-224.0207184456433
 20
-269.9325573412916
 11
-224.0207184456433
 21
-267.6640131236042
 72
     1
 10
-224.0207184456433
 20
-267.6640131236042
 11
-223.2096194081699
 21
-267.6640131236042
 72
     1
 10
-223.2096194081699
 20
-267.6640131236042
 11
-223.2096194081699
 21
-266.8787478174805
 72
     1
 10
-223.2096194081699
 20
-266.8787478174805
 11
-226.5945649267986
 21
-266.878747817481
 97
       18
330
176
330
175
330
174
330
173
330
178
330
112
330
1F0
330
1D1
330
1EF
330
1D2
330
1EE
330
1ED
330
113
330
1EC
330
1EB
330
1D3
330
1D4
330
177
 75
     1
 76
     0
 52
45.0
 41
0.1
 77
     0
 78
     1
 53
45.0
 43
0.0
 44
0.0
 45
-0.0707106781186548
 46
0.0707106781186548
 79
     0
 98
        1
 10
0.0
 20
0.0
  0
HATCH
  5
226
330
71
100
AcDbEntity
  8
1
  6
Continuous
 62
     2
100
AcDbHatch
 10
0.0
 20
0.0
 30
0.0
210
0.0
220
0.0
230
1.0
  2
_USER
 70
     0
 71
     1
 91
        4
 92
        1
 93
        8
 72
     2
 10
-250.6967240234916
 20
-263.9438019567082
 40
0.424244615383941
 50
90.0
 51
180.0
 73
     1
 72
     1
 10
-251.1209686388744
 20
-263.9438019567082
 11
-251.1209686388744
 21
-269.5083127259084
 72
     2
 10
-250.6967240234916
 20
-269.5083127259084
 40
0.4242446153827757
 50
180.0
 51
270.0
 73
     1
 72
     1
 10
-250.6967240234916
 20
-269.9325573412916
 11
-245.2234119327748
 21
-269.9325573412916
 72
     2
 10
-245.2234119327748
 20
-269.5083127259084
 40
0.424244615383202
 50
270.0
 51
360.0
 73
     1
 72
     1
 10
-244.7991673173909
 20
-269.5083127259084
 11
-244.7991673173909
 21
-263.9438019567082
 72
     2
 10
-245.2234119327748
 20
-263.9438019567082
 40
0.4242446153839126
 50
0.0
 51
90.0
 73
     1
 72
     1
 10
-245.2234119327748
 20
-263.5195573413243
 11
-250.6967240234916
 21
-263.5195573413243
 97
        8
330
1E4
330
141
330
1E3
330
142
330
1DA
330
13F
330
1E5
330
140
 92
       16
 93
        1
 72
     2
 10
-248.0771383729741
 20
-266.2626841850637
 40
0.4709789327785074
 50
0.0
 51
360.0
 73
     1
 97
        1
330
1F8
 92
       16
 93
        8
 72
     2
 10
-248.0533233583013
 20
-266.2626841850637
 40
0.9118481501443819
 50
295.3740086781787
 51
424.6259913218075
 73
     1
 72
     2
 10
-247.5272806602134
 20
-265.1535425850958
 40
0.3157169230768204
 50
115.3740086783521
 51
180.0
 73
     0
 72
     1
 10
-247.8429975832902
 20
-265.1535425850958
 11
-247.8429975832902
 21
-264.5480072965891
 72
     2
 10
-247.5272806602134
 20
-264.5480072965891
 40
0.3157169230761848
 50
180.0
 51
269.811032957449
 73
     0
 72
     2
 10
-247.5216645249034
 20
-266.2508422441581
 40
2.018561131933266
 50
269.8110329575858
 51
450.1889670424142
 73
     0
 72
     2
 10
-247.5272806602134
 20
-267.9536771917271
 40
0.3157169230768204
 50
90.18896704255098
 51
180.0
 73
     0
 72
     1
 10
-247.8429975832902
 20
-267.9536771917271
 11
-247.8429975832902
 21
-267.371825785032
 72
     2
 10
-247.5272806602134
 20
-267.371825785032
 40
0.315716923076545
 50
180.0
 51
244.6259913216435
 73
     0
 97
        8
330
1F2
330
1CE
330
17A
330
1F1
330
1CF
330
1D0
330
179
330
1CD
 92
       16
 93
       12
 72
     1
 10
-250.1028293467451
 20
-269.2200017857348
 11
-248.6269960857355
 21
-269.2200017857348
 72
     2
 10
-248.6269960857355
 20
-268.9042848626581
 40
0.3157169230767067
 50
270.0
 51
360.0
 73
     1
 72
     1
 10
-248.3112791626589
 20
-268.9042848626581
 11
-248.3112791626589
 21
-267.3735139311265
 72
     2
 10
-248.6269960857355
 20
-267.3735139311265
 40
0.315716923076593
 50
0.0
 51
64.80558935147346
 73
     1
 72
     2
 10
-248.1044116381605
 20
-266.2626841850637
 40
0.9118975235576917
 50
115.1944106485153
 51
244.805589351474
 73
     0
 72
     2
 10
-248.6269960857355
 20
-265.1518544390015
 40
0.3157169230760174
 50
295.1944106485485
 51
360.0
 73
     1
 72
     1
 10
-248.3112791626589
 20
-265.1518544390015
 11
-248.3112791626589
 21
-264.5478298199409
 72
     2
 10
-248.6269960857355
 20
-264.5478298199409
 40
0.315716923076593
 50
0.0
 51
90.0
 73
     1
 72
     1
 10
-248.6269960857355
 20
-264.2321128968647
 11
-250.1028293467451
 21
-264.2321128968647
 72
     2
 10
-250.1028293467451
 20
-264.5478298199409
 40
0.3157169230761951
 50
90.0
 51
180.0
 73
     1
 72
     1
 10
-250.4185462698208
 20
-264.5478298199409
 11
-250.4185462698208
 21
-268.9042848626581
 72
     2
 10
-250.1028293467451
 20
-268.9042848626581
 40
0.315716923075712
 50
180.0
 51
270.0
 73
     1
 97
       12
330
146
330
1D7
330
145
330
1E8
330
144
330
1E7
330
1D8
330
1D9
330
143
330
1E6
330
13E
330
1E9
 75
     1
 76
     0
 52
45.0
 41
0.1
 77
     0
 78
     1
 53
45.0
 43
0.0
 44
0.0
 45
-0.0707106781186548
 46
0.0707106781186548
 79
     0
 98
        1
 10
0.0
 20
0.0
  0
HATCH
  5
227
330
71
100
AcDbEntity
  8
1
  6
Continuous
 62
     2
100
AcDbHatch
 10
0.0
 20
0.0
 30
0.0
210
0.0
220
0.0
230
1.0
  2
_USER
 70
     0
 71
     1
 91
        4
 92
        1
 93
        8
 72
     2
 10
-250.6967240234916
 20
-263.9438019567082
 40
0.424244615383941
 50
90.0
 51
180.0
 73
     1
 72
     1
 10
-251.1209686388744
 20
-263.9438019567082
 11
-251.1209686388744
 21
-269.5083127259084
 72
     2
 10
-250.6967240234916
 20
-269.5083127259084
 40
0.4242446153827757
 50
180.0
 51
270.0
 73
     1
 72
     1
 10
-250.6967240234916
 20
-269.9325573412916
 11
-245.2234119327748
 21
-269.9325573412916
 72
     2
 10
-245.2234119327748
 20
-269.5083127259084
 40
0.424244615383202
 50
270.0
 51
360.0
 73
     1
 72
     1
 10
-244.7991673173909
 20
-269.5083127259084
 11
-244.7991673173909
 21
-263.9438019567082
 72
     2
 10
-245.2234119327748
 20
-263.9438019567082
 40
0.4242446153839126
 50
0.0
 51
90.0
 73
     1
 72
     1
 10
-245.2234119327748
 20
-263.5195573413243
 11
-250.6967240234916
 21
-263.5195573413243
 97
        8
330
1E4
330
141
330
1E3
330
142
330
1DA
330
13F
330
1E5
330
140
 92
       16
 93
        1
 72
     2
 10
-248.0771383729741
 20
-266.2626841850637
 40
0.4709789327785074
 50
0.0
 51
360.0
 73
     1
 97
        1
330
1F8
 92
       16
 93
        8
 72
     2
 10
-248.0533233583013
 20
-266.2626841850637
 40
0.9118481501443819
 50
295.3740086781787
 51
424.6259913218075
 73
     1
 72
     2
 10
-247.5272806602134
 20
-265.1535425850958
 40
0.3157169230768204
 50
115.3740086783521
 51
180.0
 73
     0
 72
     1
 10
-247.8429975832902
 20
-265.1535425850958
 11
-247.8429975832902
 21
-264.5480072965891
 72
     2
 10
-247.5272806602134
 20
-264.5480072965891
 40
0.3157169230761848
 50
180.0
 51
269.811032957449
 73
     0
 72
     2
 10
-247.5216645249034
 20
-266.2508422441581
 40
2.018561131933266
 50
269.8110329575858
 51
450.1889670424142
 73
     0
 72
     2
 10
-247.5272806602134
 20
-267.9536771917271
 40
0.3157169230768204
 50
90.18896704255098
 51
180.0
 73
     0
 72
     1
 10
-247.8429975832902
 20
-267.9536771917271
 11
-247.8429975832902
 21
-267.371825785032
 72
     2
 10
-247.5272806602134
 20
-267.371825785032
 40
0.315716923076545
 50
180.0
 51
244.6259913216435
 73
     0
 97
        8
330
1F2
330
1CE
330
17A
330
1F1
330
1CF
330
1D0
330
179
330
1CD
 92
       16
 93
       12
 72
     1
 10
-250.1028293467451
 20
-269.2200017857348
 11
-248.6269960857355
 21
-269.2200017857348
 72
     2
 10
-248.6269960857355
 20
-268.9042848626581
 40
0.3157169230767067
 50
270.0
 51
360.0
 73
     1
 72
     1
 10
-248.3112791626589
 20
-268.9042848626581
 11
-248.3112791626589
 21
-267.3735139311265
 72
     2
 10
-248.6269960857355
 20
-267.3735139311265
 40
0.315716923076593
 50
0.0
 51
64.80558935147346
 73
     1
 72
     2
 10
-248.1044116381605
 20
-266.2626841850637
 40
0.9118975235576917
 50
115.1944106485153
 51
244.805589351474
 73
     0
 72
     2
 10
-248.6269960857355
 20
-265.1518544390015
 40
0.3157169230760174
 50
295.1944106485485
 51
360.0
 73
     1
 72
     1
 10
-248.3112791626589
 20
-265.1518544390015
 11
-248.3112791626589
 21
-264.5478298199409
 72
     2
 10
-248.6269960857355
 20
-264.5478298199409
 40
0.315716923076593
 50
0.0
 51
90.0
 73
     1
 72
     1
 10
-248.6269960857355
 20
-264.2321128968647
 11
-250.1028293467451
 21
-264.2321128968647
 72
     2
 10
-250.1028293467451
 20
-264.5478298199409
 40
0.3157169230761951
 50
90.0
 51
180.0
 73
     1
 72
     1
 10
-250.4185462698208
 20
-264.5478298199409
 11
-250.4185462698208
 21
-268.9042848626581
 72
     2
 10
-250.1028293467451
 20
-268.9042848626581
 40
0.315716923075712
 50
180.0
 51
270.0
 73
     1
 97
       12
330
146
330
1D7
330
145
330
1E8
330
144
330
1E7
330
1D8
330
1D9
330
143
330
1E6
330
13E
330
1E9
 75
     1
 76
     0
 52
45.0
 41
0.1
 77
     0
 78
     1
 53
45.0
 43
0.0
 44
0.0
 45
-0.0707106781186548
 46
0.0707106781186548
 79
     0
 98
        1
 10
0.0
 20
0.0
  0
HATCH
  5
228
330
71
100
AcDbEntity
  8
1
  6
Continuous
 62
     2
100
AcDbHatch
 10
0.0
 20
0.0
 30
0.0
210
0.0
220
0.0
230
1.0
  2
_USER
 70
     0
 71
     1
 91
        2
 92
        1
 93
       12
 72
     2
 10
-236.0215600195023
 20
-265.046462103212
 40
1.526904761905769
 50
90.0
 51
270.0
 73
     1
 72
     1
 10
-236.0215600195023
 20
-266.5733668651174
 11
-232.8712402957213
 21
-266.5733668651174
 72
     1
 10
-232.8712402957213
 20
-266.5733668651174
 11
-232.8712402957213
 21
-265.8753532596749
 72
     1
 10
-232.8712402957213
 20
-265.8753532596749
 11
-234.207168122149
 21
-265.8753532596749
 72
     1
 10
-234.207168122149
 20
-265.8753532596749
 11
-234.207168122149
 21
-265.3954689059332
 72
     1
 10
-234.207168122149
 20
-265.3954689059332
 11
-232.8712402957213
 21
-265.3954689059332
 72
     1
 10
-232.8712402957213
 20
-265.3954689059332
 11
-232.8712402957213
 21
-264.6974553004908
 72
     1
 10
-232.8712402957213
 20
-264.6974553004908
 11
-234.207168122149
 21
-264.6974553004908
 72
     1
 10
-234.207168122149
 20
-264.6974553004908
 11
-234.207168122149
 21
-264.2175709467491
 72
     1
 10
-234.207168122149
 20
-264.2175709467491
 11
-232.8712402957213
 21
-264.2175709467491
 72
     1
 10
-232.8712402957213
 20
-264.2175709467491
 11
-232.8712402957213
 21
-263.5195573413062
 72
     1
 10
-232.8712402957213
 20
-263.5195573413062
 11
-236.0215600195023
 21
-263.5195573413062
 97
       12
330
135
330
12F
330
156
330
155
330
154
330
153
330
130
330
131
330
132
330
133
330
1D5
330
134
 92
       16
 93
        4
 72
     2
 10
-235.6055479729908
 20
-265.046462103212
 40
0.7717997786796245
 50
141.8795802028484
 51
218.1204197971549
 73
     1
 72
     2
 10
-235.8052880093371
 20
-265.2031932813325
 40
0.5179085730133893
 50
218.1204197971392
 51
321.8795802028646
 73
     1
 72
     2
 10
-236.0050280456833
 20
-265.046462103212
 40
0.7717997786796373
 50
321.8795802028437
 51
398.1204197971529
 73
     1
 72
     2
 10
-235.8052880093371
 20
-264.8897309250915
 40
0.5179085730134341
 50
38.12041979713539
 51
141.8795802028608
 73
     1
 97
        4
330
1E2
330
1E1
330
1DC
330
1DB
 75
     1
 76
     0
 52
45.0
 41
0.1
 77
     0
 78
     1
 53
45.0
 43
0.0
 44
0.0
 45
-0.0707106781186548
 46
0.0707106781186548
 79
     0
 98
        1
 10
0.0
 20
0.0
  0
HATCH
  5
229
330
71
100
AcDbEntity
  8
1
  6
Continuous
 62
     2
100
AcDbHatch
 10
0.0
 20
0.0
 30
0.0
210
0.0
220
0.0
230
1.0
  2
_USER
 70
     0
 71
     1
 91
        2
 92
        1
 93
       12
 72
     2
 10
-236.0215600195023
 20
-265.046462103212
 40
1.526904761905769
 50
90.0
 51
270.0
 73
     1
 72
     1
 10
-236.0215600195023
 20
-266.5733668651174
 11
-232.8712402957213
 21
-266.5733668651174
 72
     1
 10
-232.8712402957213
 20
-266.5733668651174
 11
-232.8712402957213
 21
-265.8753532596749
 72
     1
 10
-232.8712402957213
 20
-265.8753532596749
 11
-234.207168122149
 21
-265.8753532596749
 72
     1
 10
-234.207168122149
 20
-265.8753532596749
 11
-234.207168122149
 21
-265.3954689059332
 72
     1
 10
-234.207168122149
 20
-265.3954689059332
 11
-232.8712402957213
 21
-265.3954689059332
 72
     1
 10
-232.8712402957213
 20
-265.3954689059332
 11
-232.8712402957213
 21
-264.6974553004908
 72
     1
 10
-232.8712402957213
 20
-264.6974553004908
 11
-234.207168122149
 21
-264.6974553004908
 72
     1
 10
-234.207168122149
 20
-264.6974553004908
 11
-234.207168122149
 21
-264.2175709467491
 72
     1
 10
-234.207168122149
 20
-264.2175709467491
 11
-232.8712402957213
 21
-264.2175709467491
 72
     1
 10
-232.8712402957213
 20
-264.2175709467491
 11
-232.8712402957213
 21
-263.5195573413062
 72
     1
 10
-232.8712402957213
 20
-263.5195573413062
 11
-236.0215600195023
 21
-263.5195573413062
 97
       12
330
135
330
12F
330
156
330
155
330
154
330
153
330
130
330
131
330
132
330
133
330
1D5
330
134
 92
       16
 93
        4
 72
     2
 10
-235.6055479729908
 20
-265.046462103212
 40
0.7717997786796245
 50
141.8795802028484
 51
218.1204197971549
 73
     1
 72
     2
 10
-235.8052880093371
 20
-265.2031932813325
 40
0.5179085730133893
 50
218.1204197971392
 51
321.8795802028646
 73
     1
 72
     2
 10
-236.0050280456833
 20
-265.046462103212
 40
0.7717997786796373
 50
321.8795802028437
 51
398.1204197971529
 73
     1
 72
     2
 10
-235.8052880093371
 20
-264.8897309250915
 40
0.5179085730134341
 50
38.12041979713539
 51
141.8795802028608
 73
     1
 97
        4
330
1E2
330
1E1
330
1DC
330
1DB
 75
     1
 76
     0
 52
45.0
 41
0.1
 77
     0
 78
     1
 53
45.0
 43
0.0
 44
0.0
 45
-0.0707106781186548
 46
0.0707106781186548
 79
     0
 98
        1
 10
0.0
 20
0.0
  0
HATCH
  5
22A
330
71
100
AcDbEntity
  8
1
  6
Continuous
 62
     2
100
AcDbHatch
 10
0.0
 20
0.0
 30
0.0
210
0.0
220
0.0
230
1.0
  2
_USER
 70
     0
 71
     1
 91
        2
 92
        1
 93
        4
 72
     2
 10
-240.0471753819639
 20
-268.4056525793864
 40
1.458034083651515
 50
117.5481481756619
 51
242.451851824336
 73
     1
 72
     2
 10
-239.7662354901306
 20
-267.867077569083
 40
2.065479772208534
 50
242.4518518243405
 51
297.5481481756874
 73
     1
 72
     2
 10
-239.4852955982973
 20
-268.4056525793864
 40
1.45803408365194
 50
297.5481481757035
 51
422.4518518242985
 73
     1
 72
     2
 10
-239.7662354901306
 20
-268.9442275896892
 40
2.065479772208606
 50
62.45185182430604
 51
117.548148175666
 73
     1
 97
        4
330
1E0
330
1DD
330
1DF
330
1DE
 92
       16
 93
        4
 72
     2
 10
-239.7662354901306
 20
-268.2489214012659
 40
0.51790857301337
 50
38.12041979715693
 51
141.8795802028489
 73
     1
 72
     2
 10
-239.5664954537845
 20
-268.4056525793864
 40
0.771799778679551
 50
141.879580202828
 51
218.120419797162
 73
     1
 72
     2
 10
-239.7662354901306
 20
-268.5623837575064
 40
0.5179085730136828
 50
218.1204197971857
 51
321.8795802028085
 73
     1
 72
     2
 10
-239.965975526477
 20
-268.4056525793864
 40
0.7717997786796023
 50
321.8795802028471
 51
398.1204197971629
 73
     1
 97
        4
330
1C3
330
1C4
330
1C5
330
1C2
 75
     1
 76
     0
 52
45.0
 41
0.1
 77
     0
 78
     1
 53
45.0
 43
0.0
 44
0.0
 45
-0.0707106781186548
 46
0.0707106781186548
 79
     0
 98
        1
 10
0.0
 20
0.0
  0
HATCH
  5
22B
330
71
100
AcDbEntity
  8
1
  6
Continuous
 62
     2
100
AcDbHatch
 10
0.0
 20
0.0
 30
0.0
210
0.0
220
0.0
230
1.0
  2
_USER
 70
     0
 71
     1
 91
        2
 92
        1
 93
        4
 72
     2
 10
-240.0471753819639
 20
-268.4056525793864
 40
1.458034083651515
 50
117.5481481756619
 51
242.451851824336
 73
     1
 72
     2
 10
-239.7662354901306
 20
-267.867077569083
 40
2.065479772208534
 50
242.4518518243405
 51
297.5481481756874
 73
     1
 72
     2
 10
-239.4852955982973
 20
-268.4056525793864
 40
1.45803408365194
 50
297.5481481757035
 51
422.4518518242985
 73
     1
 72
     2
 10
-239.7662354901306
 20
-268.9442275896892
 40
2.065479772208606
 50
62.45185182430604
 51
117.548148175666
 73
     1
 97
        4
330
1E0
330
1DD
330
1DF
330
1DE
 92
       16
 93
        4
 72
     2
 10
-239.7662354901306
 20
-268.2489214012659
 40
0.51790857301337
 50
38.12041979715693
 51
141.8795802028489
 73
     1
 72
     2
 10
-239.5664954537845
 20
-268.4056525793864
 40
0.771799778679551
 50
141.879580202828
 51
218.120419797162
 73
     1
 72
     2
 10
-239.7662354901306
 20
-268.5623837575064
 40
0.5179085730136828
 50
218.1204197971857
 51
321.8795802028085
 73
     1
 72
     2
 10
-239.965975526477
 20
-268.4056525793864
 40
0.7717997786796023
 50
321.8795802028471
 51
398.1204197971629
 73
     1
 97
        4
330
1C3
330
1C4
330
1C5
330
1C2
 75
     1
 76
     0
 52
45.0
 41
0.1
 77
     0
 78
     1
 53
45.0
 43
0.0
 44
0.0
 45
-0.0707106781186548
 46
0.0707106781186548
 79
     0
 98
        1
 10
0.0
 20
0.0
  0
HATCH
  5
22C
330
71
100
AcDbEntity
  8
1
  6
Continuous
 62
     2
100
AcDbHatch
 10
0.0
 20
0.0
 30
0.0
210
0.0
220
0.0
230
1.0
  2
_USER
 70
     0
 71
     1
 91
        2
 92
        1
 93
        6
 72
     1
 10
-244.3220502365241
 20
-263.5195573413062
 11
-244.3220502365241
 21
-266.5733668651174
 72
     1
 10
-244.3220502365241
 20
-266.5733668651174
 11
-243.08154582627
 21
-266.5733668651174
 72
     1
 10
-243.08154582627
 20
-266.5733668651174
 11
-243.08154582627
 21
-265.6302886239736
 72
     1
 10
-243.08154582627
 20
-265.6302886239736
 11
-242.3227782384897
 21
-265.6302886239736
 72
     2
 10
-242.3227782384897
 20
-264.5749229826398
 40
1.055365641333822
 50
270.0
 51
450.0
 73
     1
 72
     1
 10
-242.3227782384897
 20
-263.5195573413062
 11
-244.3220502365241
 21
-263.5195573413062
 97
        6
330
1EA
330
147
330
13D
330
13C
330
149
330
148
 92
       16
 93
        4
 72
     1
 10
-242.7642507647281
 20
-264.1826631867463
 11
-243.08154582627
 21
-264.1826631867463
 72
     1
 10
-243.08154582627
 20
-264.1826631867463
 11
-243.08154582627
 21
-264.8883908360884
 72
     1
 10
-243.08154582627
 20
-264.8883908360884
 11
-242.7642507647281
 21
-264.8883908360884
 72
     2
 10
-242.7642507647281
 20
-264.5355270114173
 40
0.3528638246710898
 50
270.0
 51
450.0
 73
     1
 97
        4
330
14A
330
13B
330
14B
330
1D6
 75
     1
 76
     0
 52
45.0
 41
0.1
 77
     0
 78
     1
 53
45.0
 43
0.0
 44
0.0
 45
-0.0707106781186548
 46
0.0707106781186548
 79
     0
 98
        1
 10
0.0
 20
0.0
  0
HATCH
  5
22D
330
71
100
AcDbEntity
  8
1
  6
Continuous
 62
     2
100
AcDbHatch
 10
0.0
 20
0.0
 30
0.0
210
0.0
220
0.0
230
1.0
  2
_USER
 70
     0
 71
     1
 91
        2
 92
        1
 93
        6
 72
     1
 10
-244.3220502365241
 20
-263.5195573413062
 11
-244.3220502365241
 21
-266.5733668651174
 72
     1
 10
-244.3220502365241
 20
-266.5733668651174
 11
-243.08154582627
 21
-266.5733668651174
 72
     1
 10
-243.08154582627
 20
-266.5733668651174
 11
-243.08154582627
 21
-265.6302886239736
 72
     1
 10
-243.08154582627
 20
-265.6302886239736
 11
-242.3227782384897
 21
-265.6302886239736
 72
     2
 10
-242.3227782384897
 20
-264.5749229826398
 40
1.055365641333822
 50
270.0
 51
450.0
 73
     1
 72
     1
 10
-242.3227782384897
 20
-263.5195573413062
 11
-244.3220502365241
 21
-263.5195573413062
 97
        6
330
1EA
330
147
330
13D
330
13C
330
149
330
148
 92
       16
 93
        4
 72
     1
 10
-242.7642507647281
 20
-264.1826631867463
 11
-243.08154582627
 21
-264.1826631867463
 72
     1
 10
-243.08154582627
 20
-264.1826631867463
 11
-243.08154582627
 21
-264.8883908360884
 72
     1
 10
-243.08154582627
 20
-264.8883908360884
 11
-242.7642507647281
 21
-264.8883908360884
 72
     2
 10
-242.7642507647281
 20
-264.5355270114173
 40
0.3528638246710898
 50
270.0
 51
450.0
 73
     1
 97
        4
330
14A
330
13B
330
14B
330
1D6
 75
     1
 76
     0
 52
45.0
 41
0.1
 77
     0
 78
     1
 53
45.0
 43
0.0
 44
0.0
 45
-0.0707106781186548
 46
0.0707106781186548
 79
     0
 98
        1
 10
0.0
 20
0.0
  0
HATCH
  5
22E
330
71
100
AcDbEntity
  8
1
  6
Continuous
 62
     2
100
AcDbHatch
 10
0.0
 20
0.0
 30
0.0
210
0.0
220
0.0
230
1.0
  2
_USER
 70
     0
 71
     1
 91
        1
 92
        1
 93
       12
 72
     1
 10
-224.7077670420909
 20
-263.5195573413062
 11
-223.3050428243437
 21
-263.5195573413062
 72
     1
 10
-223.3050428243437
 20
-263.5195573413062
 11
-224.6075724551102
 21
-264.9925078713424
 72
     1
 10
-224.6075724551102
 20
-264.9925078713424
 11
-223.2096194081699
 21
-266.5733668651174
 72
     1
 10
-223.2096194081699
 20
-266.5733668651174
 11
-224.6123436259182
 21
-266.5733668651174
 72
     1
 10
-224.6123436259182
 20
-266.5733668651174
 11
-225.3089345639837
 21
-265.7856350798236
 72
     1
 10
-225.3089345639837
 20
-265.7856350798236
 11
-226.0055255020494
 21
-266.5733668651174
 72
     1
 10
-226.0055255020494
 20
-266.5733668651174
 11
-227.4082497197976
 21
-266.5733668651174
 72
     1
 10
-227.4082497197976
 20
-266.5733668651174
 11
-226.0102966728573
 21
-264.9925078713424
 72
     1
 10
-226.0102966728573
 20
-264.9925078713424
 11
-227.3128263036248
 21
-263.5195573413062
 72
     1
 10
-227.3128263036248
 20
-263.5195573413062
 11
-225.9101020858755
 21
-263.5195573413062
 72
     1
 10
-225.9101020858755
 20
-263.5195573413062
 11
-225.3089345639837
 21
-264.1993806628616
 72
     1
 10
-225.3089345639837
 20
-264.1993806628616
 11
-224.7077670420909
 21
-263.5195573413062
 97
       12
330
116
330
16F
330
16E
330
16D
330
16C
330
117
330
118
330
114
330
115
330
172
330
171
330
170
 75
     1
 76
     0
 52
45.0
 41
0.1
 77
     0
 78
     1
 53
45.0
 43
0.0
 44
0.0
 45
-0.0707106781186548
 46
0.0707106781186548
 79
     0
 98
        1
 10
0.0
 20
0.0
  0
HATCH
  5
22F
330
71
100
AcDbEntity
  8
1
  6
Continuous
 62
     2
100
AcDbHatch
 10
0.0
 20
0.0
 30
0.0
210
0.0
220
0.0
230
1.0
  2
_USER
 70
     0
 71
     1
 91
        1
 92
        1
 93
       12
 72
     1
 10
-224.7077670420909
 20
-263.5195573413062
 11
-223.3050428243437
 21
-263.5195573413062
 72
     1
 10
-223.3050428243437
 20
-263.5195573413062
 11
-224.6075724551102
 21
-264.9925078713424
 72
     1
 10
-224.6075724551102
 20
-264.9925078713424
 11
-223.2096194081699
 21
-266.5733668651174
 72
     1
 10
-223.2096194081699
 20
-266.5733668651174
 11
-224.6123436259182
 21
-266.5733668651174
 72
     1
 10
-224.6123436259182
 20
-266.5733668651174
 11
-225.3089345639837
 21
-265.7856350798236
 72
     1
 10
-225.3089345639837
 20
-265.7856350798236
 11
-226.0055255020494
 21
-266.5733668651174
 72
     1
 10
-226.0055255020494
 20
-266.5733668651174
 11
-227.4082497197976
 21
-266.5733668651174
 72
     1
 10
-227.4082497197976
 20
-266.5733668651174
 11
-226.0102966728573
 21
-264.9925078713424
 72
     1
 10
-226.0102966728573
 20
-264.9925078713424
 11
-227.3128263036248
 21
-263.5195573413062
 72
     1
 10
-227.3128263036248
 20
-263.5195573413062
 11
-225.9101020858755
 21
-263.5195573413062
 72
     1
 10
-225.9101020858755
 20
-263.5195573413062
 11
-225.3089345639837
 21
-264.1993806628616
 72
     1
 10
-225.3089345639837
 20
-264.1993806628616
 11
-224.7077670420909
 21
-263.5195573413062
 97
       12
330
116
330
16F
330
16E
330
16D
330
16C
330
117
330
118
330
114
330
115
330
172
330
171
330
170
 75
     1
 76
     0
 52
45.0
 41
0.1
 77
     0
 78
     1
 53
45.0
 43
0.0
 44
0.0
 45
-0.0707106781186548
 46
0.0707106781186548
 79
     0
 98
        1
 10
0.0
 20
0.0
  0
HATCH
  5
230
330
71
100
AcDbEntity
  8
1
  6
Continuous
 62
     2
100
AcDbHatch
 10
0.0
 20
0.0
 30
0.0
210
0.0
220
0.0
230
1.0
  2
_USER
 70
     0
 71
     1
 91
        1
 92
        1
 93
        4
 72
     1
 10
-227.5275289900145
 20
-263.5195573413062
 11
-227.5275289900145
 21
-266.5733668651174
 72
     1
 10
-227.5275289900145
 20
-266.5733668651174
 11
-228.7680334002674
 21
-266.5733668651174
 72
     1
 10
-228.7680334002674
 20
-266.5733668651174
 11
-228.7680334002674
 21
-263.5195573413062
 72
     1
 10
-228.7680334002674
 20
-263.5195573413062
 11
-227.5275289900145
 21
-263.5195573413062
 97
        4
330
16A
330
119
330
169
330
16B
 75
     1
 76
     0
 52
45.0
 41
0.1
 77
     0
 78
     1
 53
45.0
 43
0.0
 44
0.0
 45
-0.0707106781186548
 46
0.0707106781186548
 79
     0
 98
        1
 10
0.0
 20
0.0
  0
HATCH
  5
231
330
71
100
AcDbEntity
  8
1
  6
Continuous
 62
     2
100
AcDbHatch
 10
0.0
 20
0.0
 30
0.0
210
0.0
220
0.0
230
1.0
  2
_USER
 70
     0
 71
     1
 91
        1
 92
        1
 93
        4
 72
     1
 10
-227.5275289900145
 20
-263.5195573413062
 11
-227.5275289900145
 21
-266.5733668651174
 72
     1
 10
-227.5275289900145
 20
-266.5733668651174
 11
-228.7680334002674
 21
-266.5733668651174
 72
     1
 10
-228.7680334002674
 20
-266.5733668651174
 11
-228.7680334002674
 21
-263.5195573413062
 72
     1
 10
-228.7680334002674
 20
-263.5195573413062
 11
-227.5275289900145
 21
-263.5195573413062
 97
        4
330
16A
330
119
330
169
330
16B
 75
     1
 76
     0
 52
45.0
 41
0.1
 77
     0
 78
     1
 53
45.0
 43
0.0
 44
0.0
 45
-0.0707106781186548
 46
0.0707106781186548
 79
     0
 98
        1
 10
0.0
 20
0.0
  0
HATCH
  5
232
330
71
100
AcDbEntity
  8
1
  6
Continuous
 62
     2
100
AcDbHatch
 10
0.0
 20
0.0
 30
0.0
210
0.0
220
0.0
230
1.0
  2
_USER
 70
     0
 71
     1
 91
        2
 92
        1
 93
        8
 72
     1
 10
-227.9179729935465
 20
-269.9325573412916
 11
-229.1584774038004
 21
-269.9325573412916
 72
     1
 10
-229.1584774038004
 20
-269.9325573412916
 11
-229.3699574572762
 21
-269.3915967970737
 72
     1
 10
-229.3699574572762
 20
-269.3915967970737
 11
-230.50239903395
 21
-269.3915967970737
 72
     1
 10
-230.50239903395
 20
-269.3915967970737
 11
-230.7138790874258
 21
-269.9325573412916
 72
     1
 10
-230.7138790874258
 20
-269.9325573412916
 11
-231.9543834976788
 21
-269.9325573412916
 72
     1
 10
-231.9543834976788
 20
-269.9325573412916
 11
-230.5564304507395
 21
-266.8787478174805
 72
     1
 10
-230.5564304507395
 20
-266.8787478174805
 11
-229.3159260404868
 21
-266.8787478174805
 72
     1
 10
-229.3159260404868
 20
-266.8787478174805
 11
-227.9179729935465
 21
-269.9325573412916
 97
        8
330
165
330
11F
330
164
330
167
330
11C
330
166
330
11D
330
11E
 92
       16
 93
        3
 72
     1
 10
-230.236343482805
 20
-268.7110335317672
 11
-229.6360130084225
 21
-268.7110335317672
 72
     1
 10
-229.6360130084225
 20
-268.7110335317672
 11
-229.9361782456126
 21
-267.9432185657804
 72
     1
 10
-229.9361782456126
 20
-267.9432185657804
 11
-230.236343482805
 21
-268.7110335317672
 97
        3
330
11B
330
11A
330
168
 75
     1
 76
     0
 52
45.0
 41
0.1
 77
     0
 78
     1
 53
45.0
 43
0.0
 44
0.0
 45
-0.0707106781186548
 46
0.0707106781186548
 79
     0
 98
        1
 10
0.0
 20
0.0
  0
HATCH
  5
233
330
71
100
AcDbEntity
  8
1
  6
Continuous
 62
     2
100
AcDbHatch
 10
0.0
 20
0.0
 30
0.0
210
0.0
220
0.0
230
1.0
  2
_USER
 70
     0
 71
     1
 91
        2
 92
        1
 93
        8
 72
     1
 10
-227.9179729935465
 20
-269.9325573412916
 11
-229.1584774038004
 21
-269.9325573412916
 72
     1
 10
-229.1584774038004
 20
-269.9325573412916
 11
-229.3699574572762
 21
-269.3915967970737
 72
     1
 10
-229.3699574572762
 20
-269.3915967970737
 11
-230.50239903395
 21
-269.3915967970737
 72
     1
 10
-230.50239903395
 20
-269.3915967970737
 11
-230.7138790874258
 21
-269.9325573412916
 72
     1
 10
-230.7138790874258
 20
-269.9325573412916
 11
-231.9543834976788
 21
-269.9325573412916
 72
     1
 10
-231.9543834976788
 20
-269.9325573412916
 11
-230.5564304507395
 21
-266.8787478174805
 72
     1
 10
-230.5564304507395
 20
-266.8787478174805
 11
-229.3159260404868
 21
-266.8787478174805
 72
     1
 10
-229.3159260404868
 20
-266.8787478174805
 11
-227.9179729935465
 21
-269.9325573412916
 97
        8
330
165
330
11F
330
164
330
167
330
11C
330
166
330
11D
330
11E
 92
       16
 93
        3
 72
     1
 10
-230.236343482805
 20
-268.7110335317672
 11
-229.6360130084225
 21
-268.7110335317672
 72
     1
 10
-229.6360130084225
 20
-268.7110335317672
 11
-229.9361782456126
 21
-267.9432185657804
 72
     1
 10
-229.9361782456126
 20
-267.9432185657804
 11
-230.236343482805
 21
-268.7110335317672
 97
        3
330
11B
330
11A
330
168
 75
     1
 76
     0
 52
45.0
 41
0.1
 77
     0
 78
     1
 53
45.0
 43
0.0
 44
0.0
 45
-0.0707106781186548
 46
0.0707106781186548
 79
     0
 98
        1
 10
0.0
 20
0.0
  0
HATCH
  5
234
330
71
100
AcDbEntity
  8
1
  6
Continuous
 62
     2
100
AcDbHatch
 10
0.0
 20
0.0
 30
0.0
210
0.0
220
0.0
230
1.0
  2
_USER
 70
     0
 71
     1
 91
        1
 92
        1
 93
        8
 72
     1
 10
-234.111895636861
 20
-266.8787478174805
 11
-234.111895636861
 21
-267.6640131236042
 72
     1
 10
-234.111895636861
 20
-267.6640131236042
 11
-233.3007965993864
 21
-267.6640131236042
 72
     1
 10
-233.3007965993864
 20
-267.6640131236042
 11
-233.3007965993864
 21
-269.9325573412916
 72
     1
 10
-233.3007965993864
 20
-269.9325573412916
 11
-232.1080038972199
 21
-269.9325573412916
 72
     1
 10
-232.1080038972199
 20
-269.9325573412916
 11
-232.1080038972199
 21
-267.6640131236042
 72
     1
 10
-232.1080038972199
 20
-267.6640131236042
 11
-231.2969048597474
 21
-267.6640131236042
 72
     1
 10
-231.2969048597474
 20
-267.6640131236042
 11
-231.2969048597474
 21
-266.8787478174805
 72
     1
 10
-231.2969048597474
 20
-266.8787478174805
 11
-234.111895636861
 21
-266.8787478174805
 97
        8
330
161
330
160
330
15F
330
120
330
121
330
163
330
122
330
162
 75
     1
 76
     0
 52
45.0
 41
0.1
 77
     0
 78
     1
 53
45.0
 43
0.0
 44
0.0
 45
-0.0707106781186548
 46
0.0707106781186548
 79
     0
 98
        1
 10
0.0
 20
0.0
  0
HATCH
  5
235
330
71
100
AcDbEntity
  8
1
  6
Continuous
 62
     2
100
AcDbHatch
 10
0.0
 20
0.0
 30
0.0
210
0.0
220
0.0
230
1.0
  2
_USER
 70
     0
 71
     1
 91
        1
 92
        1
 93
        8
 72
     1
 10
-234.111895636861
 20
-266.8787478174805
 11
-234.111895636861
 21
-267.6640131236042
 72
     1
 10
-234.111895636861
 20
-267.6640131236042
 11
-233.3007965993864
 21
-267.6640131236042
 72
     1
 10
-233.3007965993864
 20
-267.6640131236042
 11
-233.3007965993864
 21
-269.9325573412916
 72
     1
 10
-233.3007965993864
 20
-269.9325573412916
 11
-232.1080038972199
 21
-269.9325573412916
 72
     1
 10
-232.1080038972199
 20
-269.9325573412916
 11
-232.1080038972199
 21
-267.6640131236042
 72
     1
 10
-232.1080038972199
 20
-267.6640131236042
 11
-231.2969048597474
 21
-267.6640131236042
 72
     1
 10
-231.2969048597474
 20
-267.6640131236042
 11
-231.2969048597474
 21
-266.8787478174805
 72
     1
 10
-231.2969048597474
 20
-266.8787478174805
 11
-234.111895636861
 21
-266.8787478174805
 97
        8
330
161
330
160
330
15F
330
120
330
121
330
163
330
122
330
162
 75
     1
 76
     0
 52
45.0
 41
0.1
 77
     0
 78
     1
 53
45.0
 43
0.0
 44
0.0
 45
-0.0707106781186548
 46
0.0707106781186548
 79
     0
 98
        1
 10
0.0
 20
0.0
  0
HATCH
  5
236
330
71
100
AcDbEntity
  8
1
  6
Continuous
 62
     2
100
AcDbHatch
 10
0.0
 20
0.0
 30
0.0
210
0.0
220
0.0
230
1.0
  2
_USER
 70
     0
 71
     1
 91
        1
 92
        1
 93
       10
 72
     1
 10
-231.4398890531219
 20
-263.5195573413062
 11
-232.6326817552884
 21
-263.5195573413062
 72
     1
 10
-232.6326817552884
 20
-263.5195573413062
 11
-232.6326817552884
 21
-266.5733668651174
 72
     1
 10
-232.6326817552884
 20
-266.5733668651174
 11
-231.4398890531219
 21
-266.5733668651174
 72
     1
 10
-231.4398890531219
 20
-266.5733668651174
 11
-231.4398890531219
 21
-265.2645913549127
 72
     1
 10
-231.4398890531219
 20
-265.2645913549127
 11
-230.1993846428679
 21
-266.5733668651174
 72
     1
 10
-230.1993846428679
 20
-266.5733668651174
 11
-229.0065919407013
 21
-266.5733668651174
 72
     1
 10
-229.0065919407013
 20
-266.5733668651174
 11
-229.0065919407013
 21
-263.5195573413062
 72
     1
 10
-229.0065919407013
 20
-263.5195573413062
 11
-230.1993846428679
 21
-263.5195573413062
 72
     1
 10
-230.1993846428679
 20
-263.5195573413062
 11
-230.1993846428679
 21
-264.8283328515113
 72
     1
 10
-230.1993846428679
 20
-264.8283328515113
 11
-231.4398890531219
 21
-263.5195573413062
 97
       10
330
15B
330
125
330
126
330
127
330
128
330
15E
330
123
330
15D
330
15C
330
124
 75
     1
 76
     0
 52
45.0
 41
0.1
 77
     0
 78
     1
 53
45.0
 43
0.0
 44
0.0
 45
-0.0707106781186548
 46
0.0707106781186548
 79
     0
 98
        1
 10
0.0
 20
0.0
  0
HATCH
  5
237
330
71
100
AcDbEntity
  8
1
  6
Continuous
 62
     2
100
AcDbHatch
 10
0.0
 20
0.0
 30
0.0
210
0.0
220
0.0
230
1.0
  2
_USER
 70
     0
 71
     1
 91
        1
 92
        1
 93
       10
 72
     1
 10
-231.4398890531219
 20
-263.5195573413062
 11
-232.6326817552884
 21
-263.5195573413062
 72
     1
 10
-232.6326817552884
 20
-263.5195573413062
 11
-232.6326817552884
 21
-266.5733668651174
 72
     1
 10
-232.6326817552884
 20
-266.5733668651174
 11
-231.4398890531219
 21
-266.5733668651174
 72
     1
 10
-231.4398890531219
 20
-266.5733668651174
 11
-231.4398890531219
 21
-265.2645913549127
 72
     1
 10
-231.4398890531219
 20
-265.2645913549127
 11
-230.1993846428679
 21
-266.5733668651174
 72
     1
 10
-230.1993846428679
 20
-266.5733668651174
 11
-229.0065919407013
 21
-266.5733668651174
 72
     1
 10
-229.0065919407013
 20
-266.5733668651174
 11
-229.0065919407013
 21
-263.5195573413062
 72
     1
 10
-229.0065919407013
 20
-263.5195573413062
 11
-230.1993846428679
 21
-263.5195573413062
 72
     1
 10
-230.1993846428679
 20
-263.5195573413062
 11
-230.1993846428679
 21
-264.8283328515113
 72
     1
 10
-230.1993846428679
 20
-264.8283328515113
 11
-231.4398890531219
 21
-263.5195573413062
 97
       10
330
15B
330
125
330
126
330
127
330
128
330
15E
330
123
330
15D
330
15C
330
124
 75
     1
 76
     0
 52
45.0
 41
0.1
 77
     0
 78
     1
 53
45.0
 43
0.0
 44
0.0
 45
-0.0707106781186548
 46
0.0707106781186548
 79
     0
 98
        1
 10
0.0
 20
0.0
  0
HATCH
  5
238
330
71
100
AcDbEntity
  8
1
  6
Continuous
 62
     2
100
AcDbHatch
 10
0.0
 20
0.0
 30
0.0
210
0.0
220
0.0
230
1.0
  2
_USER
 70
     0
 71
     1
 91
        1
 92
        1
 93
       10
 72
     1
 10
-236.6883278735405
 20
-266.8787478174805
 11
-237.8811205757081
 21
-266.8787478174805
 72
     1
 10
-237.8811205757081
 20
-266.8787478174805
 11
-237.8811205757081
 21
-269.9325573412916
 72
     1
 10
-237.8811205757081
 20
-269.9325573412916
 11
-236.6883278735405
 21
-269.9325573412916
 72
     1
 10
-236.6883278735405
 20
-269.9325573412916
 11
-236.6883278735405
 21
-268.6237818310871
 72
     1
 10
-236.6883278735405
 20
-268.6237818310871
 11
-235.4478234632876
 21
-269.9325573412916
 72
     1
 10
-235.4478234632876
 20
-269.9325573412916
 11
-234.2550307611212
 21
-269.9325573412916
 72
     1
 10
-234.2550307611212
 20
-269.9325573412916
 11
-234.2550307611212
 21
-266.8787478174805
 72
     1
 10
-234.2550307611212
 20
-266.8787478174805
 11
-235.4478234632876
 21
-266.8787478174805
 72
     1
 10
-235.4478234632876
 20
-266.8787478174805
 11
-235.4478234632876
 21
-268.1875233276857
 72
     1
 10
-235.4478234632876
 20
-268.1875233276857
 11
-236.6883278735405
 21
-266.8787478174805
 97
       10
330
12A
330
12B
330
12C
330
158
330
12D
330
12E
330
157
330
15A
330
159
330
129
 75
     1
 76
     0
 52
45.0
 41
0.1
 77
     0
 78
     1
 53
45.0
 43
0.0
 44
0.0
 45
-0.0707106781186548
 46
0.0707106781186548
 79
     0
 98
        1
 10
0.0
 20
0.0
  0
HATCH
  5
239
330
71
100
AcDbEntity
  8
1
  6
Continuous
 62
     2
100
AcDbHatch
 10
0.0
 20
0.0
 30
0.0
210
0.0
220
0.0
230
1.0
  2
_USER
 70
     0
 71
     1
 91
        1
 92
        1
 93
       10
 72
     1
 10
-236.6883278735405
 20
-266.8787478174805
 11
-237.8811205757081
 21
-266.8787478174805
 72
     1
 10
-237.8811205757081
 20
-266.8787478174805
 11
-237.8811205757081
 21
-269.9325573412916
 72
     1
 10
-237.8811205757081
 20
-269.9325573412916
 11
-236.6883278735405
 21
-269.9325573412916
 72
     1
 10
-236.6883278735405
 20
-269.9325573412916
 11
-236.6883278735405
 21
-268.6237818310871
 72
     1
 10
-236.6883278735405
 20
-268.6237818310871
 11
-235.4478234632876
 21
-269.9325573412916
 72
     1
 10
-235.4478234632876
 20
-269.9325573412916
 11
-234.2550307611212
 21
-269.9325573412916
 72
     1
 10
-234.2550307611212
 20
-269.9325573412916
 11
-234.2550307611212
 21
-266.8787478174805
 72
     1
 10
-234.2550307611212
 20
-266.8787478174805
 11
-235.4478234632876
 21
-266.8787478174805
 72
     1
 10
-235.4478234632876
 20
-266.8787478174805
 11
-235.4478234632876
 21
-268.1875233276857
 72
     1
 10
-235.4478234632876
 20
-268.1875233276857
 11
-236.6883278735405
 21
-266.8787478174805
 97
       10
330
12A
330
12B
330
12C
330
158
330
12D
330
12E
330
157
330
15A
330
159
330
129
 75
     1
 76
     0
 52
45.0
 41
0.1
 77
     0
 78
     1
 53
45.0
 43
0.0
 44
0.0
 45
-0.0707106781186548
 46
0.0707106781186548
 79
     0
 98
        1
 10
0.0
 20
0.0
  0
HATCH
  5
23A
330
71
100
AcDbEntity
  8
1
  6
Continuous
 62
     2
100
AcDbHatch
 10
0.0
 20
0.0
 30
0.0
210
0.0
220
0.0
230
1.0
  2
_USER
 70
     0
 71
     1
 91
        1
 92
        1
 93
       12
 72
     1
 10
-237.6901228124759
 20
-263.5195573413062
 11
-237.6901228124759
 21
-266.5733668651174
 72
     1
 10
-237.6901228124759
 20
-266.5733668651174
 11
-238.8829155146423
 21
-266.5733668651174
 72
     1
 10
-238.8829155146423
 20
-266.5733668651174
 11
-238.8829155146423
 21
-265.4390947562736
 72
     1
 10
-238.8829155146423
 20
-265.4390947562736
 11
-239.9325730925498
 21
-265.4390947562736
 72
     1
 10
-239.9325730925498
 20
-265.4390947562736
 11
-239.9325730925498
 21
-266.5733668651174
 72
     1
 10
-239.9325730925498
 20
-266.5733668651174
 11
-241.1253657947164
 21
-266.5733668651174
 72
     1
 10
-241.1253657947164
 20
-266.5733668651174
 11
-241.1253657947164
 21
-263.5195573413062
 72
     1
 10
-241.1253657947164
 20
-263.5195573413062
 11
-239.9325730925498
 21
-263.5195573413062
 72
     1
 10
-239.9325730925498
 20
-263.5195573413062
 11
-239.9325730925498
 21
-264.5883906746408
 72
     1
 10
-239.9325730925498
 20
-264.5883906746408
 11
-238.8829155146423
 21
-264.5883906746408
 72
     1
 10
-238.8829155146423
 20
-264.5883906746408
 11
-238.8829155146423
 21
-263.5195573413062
 72
     1
 10
-238.8829155146423
 20
-263.5195573413062
 11
-237.6901228124759
 21
-263.5195573413062
 97
       12
330
152
330
151
330
150
330
138
330
139
330
14F
330
13A
330
14E
330
14D
330
14C
330
136
330
137
 75
     1
 76
     0
 52
45.0
 41
0.1
 77
     0
 78
     1
 53
45.0
 43
0.0
 44
0.0
 45
-0.0707106781186548
 46
0.0707106781186548
 79
     0
 98
        1
 10
0.0
 20
0.0
  0
HATCH
  5
23B
330
71
100
AcDbEntity
  8
1
  6
Continuous
 62
     2
100
AcDbHatch
 10
0.0
 20
0.0
 30
0.0
210
0.0
220
0.0
230
1.0
  2
_USER
 70
     0
 71
     1
 91
        1
 92
        1
 93
       12
 72
     1
 10
-237.6901228124759
 20
-263.5195573413062
 11
-237.6901228124759
 21
-266.5733668651174
 72
     1
 10
-237.6901228124759
 20
-266.5733668651174
 11
-238.8829155146423
 21
-266.5733668651174
 72
     1
 10
-238.8829155146423
 20
-266.5733668651174
 11
-238.8829155146423
 21
-265.4390947562736
 72
     1
 10
-238.8829155146423
 20
-265.4390947562736
 11
-239.9325730925498
 21
-265.4390947562736
 72
     1
 10
-239.9325730925498
 20
-265.4390947562736
 11
-239.9325730925498
 21
-266.5733668651174
 72
     1
 10
-239.9325730925498
 20
-266.5733668651174
 11
-241.1253657947164
 21
-266.5733668651174
 72
     1
 10
-241.1253657947164
 20
-266.5733668651174
 11
-241.1253657947164
 21
-263.5195573413062
 72
     1
 10
-241.1253657947164
 20
-263.5195573413062
 11
-239.9325730925498
 21
-263.5195573413062
 72
     1
 10
-239.9325730925498
 20
-263.5195573413062
 11
-239.9325730925498
 21
-264.5883906746408
 72
     1
 10
-239.9325730925498
 20
-264.5883906746408
 11
-238.8829155146423
 21
-264.5883906746408
 72
     1
 10
-238.8829155146423
 20
-264.5883906746408
 11
-238.8829155146423
 21
-263.5195573413062
 72
     1
 10
-238.8829155146423
 20
-263.5195573413062
 11
-237.6901228124759
 21
-263.5195573413062
 97
       12
330
152
330
151
330
150
330
138
330
139
330
14F
330
13A
330
14E
330
14D
330
14C
330
136
330
137
 75
     1
 76
     0
 52
45.0
 41
0.1
 77
     0
 78
     1
 53
45.0
 43
0.0
 44
0.0
 45
-0.0707106781186548
 46
0.0707106781186548
 79
     0
 98
        1
 10
0.0
 20
0.0
  0
ENDBLK
  5
73
330
71
100
AcDbEntity
  8
0
100
AcDbBlockEnd
  0
BLOCK
  5
75
330
74
100
AcDbEntity
  8
0
100
AcDbBlockBegin
  2
_punkt
 70
     0
 10
-125.812818998687
 20
-277.226057341308
 30
0.0
  3
_punkt
  1

  0
LINE
  5
23C
330
74
100
AcDbEntity
  8
1
  6
Continuous
 62
     2
100
AcDbLine
 10
-125.812818998687
 20
-277.226057341308
 30
0.0
 11
-125.812818998687
 21
-282.2260573413081
 31
0.0
  0
LINE
  5
23D
330
74
100
AcDbEntity
  8
1
  6
Continuous
 62
     2
100
AcDbLine
 10
-125.812818998687
 20
-277.226057341308
 30
0.0
 11
-120.812818998688
 21
-277.226057341308
 31
0.0
  0
ENDBLK
  5
76
330
74
100
AcDbEntity
  8
0
100
AcDbBlockEnd
  0
BLOCK
  5
7A
330
77
100
AcDbEntity
  8
0
100
AcDbBlockBegin
  2
A4I_CS
 70
     0
 10
-125.812818998687
 20
-282.2260573413081
 30
0.0
  3
A4I_CS
  1

  0
INSERT
  5
78
330
77
100
AcDbEntity
  8
1
100
AcDbBlockReference
  2
_rahmen
 10
-125.812818998687
 20
-282.2260573413081
 30
0.0
  0
INSERT
  5
79
330
77
100
AcDbEntity
  8
1
100
AcDbBlockReference
  2
_punkt
 10
-125.812818998687
 20
-277.226057341308
 30
0.0
  0
ENDBLK
  5
7B
330
77
100
AcDbEntity
  8
0
100
AcDbBlockEnd
  0
BLOCK
  5
84
330
7C
100
AcDbEntity
  8
0
100
AcDbBlockBegin
  2
1
 70
     0
 10
0.0
 20
0.0
 30
0.0
  3
1
  1

  0
INSERT
  5
7D
330
7C
100
AcDbEntity
  8
0
100
AcDbBlockReference
  2
Allg1
 10
-196.0000000000002
 20
-194.0
 30
0.0
 41
5.0
 42
5.0
 43
5.0
  0
INSERT
  5
7E
330
7C
100
AcDbEntity
  8
0
100
AcDbBlockReference
  2
Drfsicht2
 10
-306.9999999999998
 20
-180.0
 30
0.0
 41
5.0
 42
5.0
 43
5.0
  0
INSERT
  5
7F
330
7C
100
AcDbEntity
  8
0
100
AcDbBlockReference
  2
Vordans2
 10
-307.0
 20
-115.21663
 30
0.0
 41
5.0
 42
5.0
 43
5.0
  0
INSERT
  5
80
330
7C
100
AcDbEntity
  8
0
100
AcDbBlockReference
  2
SA_Rechts2
 10
-367.3416900000002
 20
-115.21663
 30
0.0
 41
5.0
 42
5.0
 43
5.0
  0
INSERT
  5
81
330
7C
100
AcDbEntity
  8
0
100
AcDbBlockReference
  2
Rckans2
 10
-178.8666200000003
 20
-115.2166300000001
 30
0.0
 41
5.0
 42
5.0
 43
5.0
  0
INSERT
  5
82
330
7C
100
AcDbEntity
  8
0
100
AcDbBlockReference
  2
SA_Links2
 10
-246.6583100000002
 20
-115.2166300000001
 30
0.0
 41
5.0
 42
5.0
 43
5.0
  0
INSERT
  5
83
330
7C
100
AcDbEntity
  8
0
100
AcDbBlockReference
  2
A4I_CS
 10
-125.812818998687
 20
-282.2260573413081
 30
0.0
  0
ENDBLK
  5
85
330
7C
100
AcDbEntity
  8
0
100
AcDbBlockEnd
  0
BLOCK
  5
B3
330
AC
100
AcDbEntity
  8
0
100
AcDbBlockBegin
  2
*D17
 70
     1
 10
0.0
 20
0.0
 30
0.0
  3
*D17
  1

  0
LINE
  5
AD
330
AC
100
AcDbEntity
  8
1
  6
Continuous
 62
     2
100
AcDbLine
 10
-68.64999976456897
 20
-34.17000000000501
 30
0.0
 11
-68.64999976456897
 21
-39.32000000000501
 31
0.0
  0
LINE
  5
AE
330
AC
100
AcDbEntity
  8
1
  6
Continuous
 62
     2
100
AcDbLine
 10
-66.64999976456897
 20
-34.17000000000501
 30
0.0
 11
-68.94999976456897
 21
-34.17000000000501
 31
0.0
  0
LINE
  5
AF
330
AC
100
AcDbEntity
  8
1
  6
Continuous
 62
     2
100
AcDbLine
 10
-66.64999976456897
 20
-39.32000000000501
 30
0.0
 11
-68.94999976456897
 21
-39.32000000000501
 31
0.0
  0
SOLID
  5
B0
330
AC
100
AcDbEntity
  8
1
 62
     2
100
AcDbTrace
 10
-68.55784301625779
 20
-34.87000000000501
 30
0.0
 11
-68.74215651288016
 21
-34.87000000000501
 31
0.0
 12
-68.64999976456897
 22
-34.17000000000501
 32
0.0
 13
-68.64999976456897
 23
-34.17000000000501
 33
0.0
  0
SOLID
  5
B1
330
AC
100
AcDbEntity
  8
1
 62
     2
100
AcDbTrace
 10
-68.74215651288016
 20
-38.62000000000501
 30
0.0
 11
-68.55784301625779
 21
-38.62000000000501
 31
0.0
 12
-68.64999976456897
 22
-39.32000000000501
 32
0.0
 13
-68.64999976456897
 23
-39.32000000000501
 33
0.0
  0
MTEXT
  5
B2
330
AC
100
AcDbEntity
  8
1
 62
     3
100
AcDbMText
 10
-69.01999976456898
 20
-37.74609333544701
 30
0.0
 40
0.7
 41
0.0
 71
     7
 72
     1
  1
5,15
  7
CONVERTER_11
 11
0.0
 21
1.0
 31
0.0
 73
     1
 44
0.60024009603842
  0
ENDBLK
  5
B4
330
AC
100
AcDbEntity
  8
0
100
AcDbBlockEnd
  0
BLOCK
  5
CF
330
C8
100
AcDbEntity
  8
0
100
AcDbBlockBegin
  2
*D18
 70
     1
 10
0.0
 20
0.0
 30
0.0
  3
*D18
  1

  0
LINE
  5
C9
330
C8
100
AcDbEntity
  8
1
  6
Continuous
 62
     2
100
AcDbLine
 10
-69.332484451941
 20
-20.94332485065351
 30
0.0
 11
-69.332484451941
 21
-25.14332485065372
 31
0.0
  0
LINE
  5
CA
330
C8
100
AcDbEntity
  8
1
  6
Continuous
 62
     2
100
AcDbLine
 10
-66.64999976456905
 20
-20.94332485065351
 30
0.0
 11
-69.632484451941
 21
-20.94332485065351
 31
0.0
  0
LINE
  5
CB
330
C8
100
AcDbEntity
  8
1
  6
Continuous
 62
     2
100
AcDbLine
 10
-63.44530386025369
 20
-25.14332485065372
 30
0.0
 11
-69.632484451941
 21
-25.14332485065372
 31
0.0
  0
SOLID
  5
CC
330
C8
100
AcDbEntity
  8
1
 62
     2
100
AcDbTrace
 10
-69.24032770362982
 20
-21.64332485065351
 30
0.0
 11
-69.42464120025218
 21
-21.64332485065351
 31
0.0
 12
-69.332484451941
 22
-20.94332485065351
 32
0.0
 13
-69.332484451941
 23
-20.94332485065351
 33
0.0
  0
SOLID
  5
CD
330
C8
100
AcDbEntity
  8
1
 62
     2
100
AcDbTrace
 10
-69.42464120025218
 20
-24.44332485065372
 30
0.0
 11
-69.24032770362982
 21
-24.44332485065372
 31
0.0
 12
-69.332484451941
 22
-25.14332485065372
 32
0.0
 13
-69.332484451941
 23
-25.14332485065372
 33
0.0
  0
MTEXT
  5
CE
330
C8
100
AcDbEntity
  8
1
 62
     3
100
AcDbMText
 10
-69.702484451941
 20
-23.54462221775081
 30
0.0
 40
0.7
 41
0.0
 71
     7
 72
     1
  1
4,2
  7
CONVERTER_11
 11
0.0
 21
1.0
 31
0.0
 73
     1
 44
0.60024009603842
  0
ENDBLK
  5
D0
330
C8
100
AcDbEntity
  8
0
100
AcDbBlockEnd
  0
BLOCK
  5
DA
330
D3
100
AcDbEntity
  8
0
100
AcDbBlockBegin
  2
*D19
 70
     1
 10
0.0
 20
0.0
 30
0.0
  3
*D19
  1

  0
LINE
  5
D4
330
D3
100
AcDbEntity
  8
1
  6
Continuous
 62
     2
100
AcDbLine
 10
-66.64999976456903
 20
-27.66877999777441
 30
0.0
 11
-56.14999976456902
 21
-27.66877999777441
 31
0.0
  0
LINE
  5
D5
330
D3
100
AcDbEntity
  8
1
  6
Continuous
 62
     2
100
AcDbLine
 10
-66.64999976456903
 20
-22.04332485065342
 30
0.0
 11
-66.64999976456903
 21
-27.96877999777441
 31
0.0
  0
LINE
  5
D6
330
D3
100
AcDbEntity
  8
1
  6
Continuous
 62
     2
100
AcDbLine
 10
-56.14999976456902
 20
-22.04332485065342
 30
0.0
 11
-56.14999976456902
 21
-27.96877999777441
 31
0.0
  0
SOLID
  5
D7
330
D3
100
AcDbEntity
  8
1
 62
     2
100
AcDbTrace
 10
-65.94999976456903
 20
-27.57662324946323
 30
0.0
 11
-65.94999976456903
 21
-27.76093674608558
 31
0.0
 12
-66.64999976456903
 22
-27.66877999777441
 32
0.0
 13
-66.64999976456903
 23
-27.66877999777441
 33
0.0
  0
SOLID
  5
D8
330
D3
100
AcDbEntity
  8
1
 62
     2
100
AcDbTrace
 10
-56.84999976456903
 20
-27.76093674608558
 30
0.0
 11
-56.84999976456903
 21
-27.57662324946323
 31
0.0
 12
-56.14999976456902
 22
-27.66877999777441
 32
0.0
 13
-56.14999976456902
 23
-27.66877999777441
 33
0.0
  0
MTEXT
  5
D9
330
D3
100
AcDbEntity
  8
1
 62
     3
100
AcDbMText
 10
-62.102428892579
 20
-27.29877999777441
 30
0.0
 40
0.7
 41
0.0
 71
     7
 72
     1
  1
10,5
  7
CONVERTER_11
 11
0.9999999999970619
 21
2.424068405545306E-6
 31
0.0
 73
     1
 44
0.60024009603842
  0
ENDBLK
  5
DB
330
D3
100
AcDbEntity
  8
0
100
AcDbBlockEnd
  0
ENDSEC
  0
SECTION
  2
ENTITIES
  0
INSERT
  5
86
330
1F
100
AcDbEntity
  8
1
100
AcDbBlockReference
  2
1
 10
0.0
 20
0.0
 30
0.0
  0
ENDSEC
  0
SECTION
  2
OBJECTS
  0
DICTIONARY
  5
C
330
0
100
AcDbDictionary
281
     1
  3
ACAD_GROUP
350
D
  3
ACAD_LAYOUT
350
1A
  3
ACAD_MATERIAL
350
3B
  3
ACAD_MLEADERSTYLE
350
265
  3
ACAD_MLINESTYLE
350
17
  3
ACAD_PLOTSETTINGS
350
19
  3
ACAD_PLOTSTYLENAME
350
E
  3
ACAD_TABLESTYLE
350
264
  3
ACAD_VISUALSTYLE
350
2A
  0
DICTIONARY
  5
D
102
{ACAD_REACTORS
330
C
102
}
330
C
100
AcDbDictionary
281
     1
  0
DICTIONARY
  5
1A
102
{ACAD_REACTORS
330
C
102
}
330
C
100
AcDbDictionary
281
     1
  3
Layout1
350
1E
  3
Layout2
350
26
  3
Model
350
22
  0
DICTIONARY
  5
3B
102
{ACAD_REACTORS
330
C
102
}
330
C
100
AcDbDictionary
281
     1
  3
ByBlock
350
3D
  3
ByLayer
350
3C
  3
Global
350
3E
  0
DICTIONARY
  5
265
102
{ACAD_REACTORS
330
C
102
}
330
C
100
AcDbDictionary
281
     1
  0
DICTIONARY
  5
17
102
{ACAD_REACTORS
330
C
102
}
330
C
100
AcDbDictionary
281
     1
  3
Standard
350
18
  0
DICTIONARY
  5
19
102
{ACAD_REACTORS
330
C
102
}
330
C
100
AcDbDictionary
281
     1
  0
ACDBDICTIONARYWDFLT
  5
E
102
{ACAD_REACTORS
330
C
102
}
330
C
100
AcDbDictionary
281
     1
  3
Normal
350
F
100
AcDbDictionaryWithDefault
340
F
  0
DICTIONARY
  5
264
102
{ACAD_REACTORS
330
C
102
}
330
C
100
AcDbDictionary
281
     1
  0
DICTIONARY
  5
2A
102
{ACAD_REACTORS
330
C
102
}
330
C
100
AcDbDictionary
281
     1
  3
2dWireframe
350
2F
  3
3D Hidden
350
31
  3
3dWireframe
350
30
  3
Basic
350
32
  3
Brighten
350
36
  3
ColorChange
350
3A
  3
Conceptual
350
34
  3
Dim
350
35
  3
Facepattern
350
39
  3
Flat
350
2B
  3
FlatWithEdges
350
2C
  3
Gouraud
350
2D
  3
GouraudWithEdges
350
2E
  3
Linepattern
350
38
  3
Realistic
350
33
  3
Thicken
350
37
  0
LAYOUT
  5
1E
102
{ACAD_REACTORS
330
1A
102
}
330
1A
100
AcDbPlotSettings
  1

  2
none_device
  4

  6

 40
0.0
 41
0.0
 42
0.0
 43
0.0
 44
0.0
 45
0.0
 46
0.0
 47
0.0
 48
0.0
 49
0.0
140
0.0
141
0.0
142
1.0
143
1.0
 70
   688
 72
     0
 73
     0
 74
     5
  7

 75
    16
 76
     0
 77
     2
 78
   300
147
1.0
148
0.0
149
0.0
100
AcDbLayout
  1
Layout1
 70
     1
 71
     1
 10
0.0
 20
0.0
 11
12.0
 21
9.0
 12
0.0
 22
0.0
 32
0.0
 14
1.00000000000000E+20
 24
1.00000000000000E+20
 34
1.00000000000000E+20
 15
-1.00000000000000E+20
 25
-1.00000000000000E+20
 35
-1.00000000000000E+20
146
0.0
 13
0.0
 23
0.0
 33
0.0
 16
1.0
 26
0.0
 36
0.0
 17
0.0
 27
1.0
 37
0.0
 76
     0
330
1B
  0
LAYOUT
  5
26
102
{ACAD_REACTORS
330
1A
102
}
330
1A
100
AcDbPlotSettings
  1

  2
none_device
  4

  6

 40
0.0
 41
0.0
 42
0.0
 43
0.0
 44
0.0
 45
0.0
 46
0.0
 47
0.0
 48
0.0
 49
0.0
140
0.0
141
0.0
142
1.0
143
1.0
 70
   688
 72
     0
 73
     0
 74
     5
  7

 75
    16
 76
     0
 77
     2
 78
   300
147
1.0
148
0.0
149
0.0
100
AcDbLayout
  1
Layout2
 70
     1
 71
     2
 10
0.0
 20
0.0
 11
0.0
 21
0.0
 12
0.0
 22
0.0
 32
0.0
 14
0.0
 24
0.0
 34
0.0
 15
0.0
 25
0.0
 35
0.0
146
0.0
 13
0.0
 23
0.0
 33
0.0
 16
1.0
 26
0.0
 36
0.0
 17
0.0
 27
1.0
 37
0.0
 76
     0
330
23
  0
LAYOUT
  5
22
102
{ACAD_REACTORS
330
1A
102
}
330
1A
100
AcDbPlotSettings
  1

  2
none_device
  4

  6

 40
0.0
 41
0.0
 42
0.0
 43
0.0
 44
0.0
 45
0.0
 46
0.0
 47
0.0
 48
0.0
 49
0.0
140
0.0
141
0.0
142
1.0
143
1.0
 70
  1712
 72
     0
 73
     0
 74
     0
  7

 75
     0
 76
     0
 77
     2
 78
   300
147
1.0
148
0.0
149
0.0
100
AcDbLayout
  1
Model
 70
     1
 71
     0
 10
0.0
 20
0.0
 11
12.0
 21
9.0
 12
0.0
 22
0.0
 32
0.0
 14
-417.8128189986861
 24
-282.2260573413081
 34
0.0
 15
-120.812818998688
 25
-72.22605734130792
 35
0.0
146
0.0
 13
0.0
 23
0.0
 33
0.0
 16
1.0
 26
0.0
 36
0.0
 17
0.0
 27
1.0
 37
0.0
 76
     0
330
1F
331
29
  0
MATERIAL
  5
3D
102
{ACAD_REACTORS
330
3B
102
}
102
{ACAD_XDICTIONARY
360
260
102
}
330
3B
100
AcDbMaterial
  1
ByBlock
  0
MATERIAL
  5
3C
102
{ACAD_REACTORS
330
3B
102
}
102
{ACAD_XDICTIONARY
360
25E
102
}
330
3B
100
AcDbMaterial
  1
ByLayer
  0
MATERIAL
  5
3E
102
{ACAD_REACTORS
330
3B
102
}
102
{ACAD_XDICTIONARY
360
262
102
}
330
3B
100
AcDbMaterial
  1
Global
  0
MLINESTYLE
  5
18
102
{ACAD_REACTORS
330
17
102
}
330
17
100
AcDbMlineStyle
  2
Standard
 70
     0
  3

 62
   256
 51
90.0
 52
90.0
 71
     2
 49
0.5
 62
   256
  6
BYLAYER
 49
-0.5
 62
   256
  6
BYLAYER
  0
ACDBPLACEHOLDER
  5
F
102
{ACAD_REACTORS
330
E
102
}
330
E
  0
VISUALSTYLE
  5
2F
102
{ACAD_REACTORS
330
2A
102
}
102
{ACAD_XDICTIONARY
360
246
102
}
330
2A
100
AcDbVisualStyle
  2
2dWireframe
 70
     4
 71
     0
 72
     2
 73
     0
 90
        0
 40
-0.6
 41
-30.0
 62
     5
 63
     7
421
 16777215
 74
     1
 91
        4
 64
     7
 65
   257
 75
     1
175
     1
 42
1.0
 92
        0
 66
   257
 43
1.0
 76
     1
 77
     6
 78
     2
 67
     7
 79
     5
170
     0
171
     0
290
     0
174
     0
 93
        1
 44
0.0
173
     0
291
     0
 45
0.0
1001
ACAD
1000
AcDbSavedByObjectVersion
1070
     0
  0
VISUALSTYLE
  5
31
102
{ACAD_REACTORS
330
2A
102
}
102
{ACAD_XDICTIONARY
360
24A
102
}
330
2A
100
AcDbVisualStyle
  2
3D Hidden
 70
     6
 71
     1
 72
     2
 73
     2
 90
        0
 40
-0.6
 41
-30.0
 62
     5
 63
     7
421
 16777215
 74
     2
 91
        2
 64
     7
 65
   257
 75
     2
175
     1
 42
40.0
 92
        0
 66
   257
 43
1.0
 76
     1
 77
     6
 78
     2
 67
     7
 79
     3
170
     0
171
     0
290
     0
174
     0
 93
        1
 44
0.0
173
     0
291
     0
 45
0.0
1001
ACAD
1000
AcDbSavedByObjectVersion
1070
     0
  0
VISUALSTYLE
  5
30
102
{ACAD_REACTORS
330
2A
102
}
102
{ACAD_XDICTIONARY
360
248
102
}
330
2A
100
AcDbVisualStyle
  2
3dWireframe
 70
     5
 71
     0
 72
     2
 73
     0
 90
        0
 40
-0.6
 41
-30.0
 62
     5
 63
     7
421
 16777215
 74
     1
 91
        4
 64
     7
 65
   257
 75
     1
175
     1
 42
1.0
 92
        0
 66
   257
 43
1.0
 76
     1
 77
     6
 78
     2
 67
     7
 79
     5
170
     0
171
     0
290
     0
174
     0
 93
        1
 44
0.0
173
     0
291
     0
 45
0.0
1001
ACAD
1000
AcDbSavedByObjectVersion
1070
     0
  0
VISUALSTYLE
  5
32
102
{ACAD_REACTORS
330
2A
102
}
102
{ACAD_XDICTIONARY
360
24C
102
}
330
2A
100
AcDbVisualStyle
  2
Basic
 70
     7
 71
     1
 72
     0
 73
     1
 90
        0
 40
-0.6
 41
-30.0
 62
     5
 63
     7
421
 16777215
 74
     0
 91
        4
 64
     7
 65
   257
 75
     1
175
     1
 42
1.0
 92
        8
 66
     7
 43
1.0
 76
     1
 77
     6
 78
     2
 67
     7
 79
     5
170
     0
171
     0
290
     0
174
     0
 93
        1
 44
0.0
173
     0
291
     1
 45
0.0
1001
ACAD
1000
AcDbSavedByObjectVersion
1070
     0
  0
VISUALSTYLE
  5
36
102
{ACAD_REACTORS
330
2A
102
}
102
{ACAD_XDICTIONARY
360
254
102
}
330
2A
100
AcDbVisualStyle
  2
Brighten
 70
    12
 71
     2
 72
     2
 73
     0
 90
        0
 40
-0.6
 41
-30.0
 62
     5
 63
     7
421
 16777215
 74
     1
 91
        4
 64
     7
 65
   257
 75
     1
175
     1
 42
1.0
 92
        8
 66
     7
 43
1.0
 76
     1
 77
     6
 78
     2
 67
     7
 79
     5
170
     0
171
     0
290
     0
174
     0
 93
        1
 44
50.0
173
     0
291
     1
 45
0.0
1001
ACAD
1000
AcDbSavedByObjectVersion
1070
     0
  0
VISUALSTYLE
  5
3A
102
{ACAD_REACTORS
330
2A
102
}
102
{ACAD_XDICTIONARY
360
25C
102
}
330
2A
100
AcDbVisualStyle
  2
ColorChange
 70
    16
 71
     2
 72
     2
 73
     3
 90
        0
 40
-0.6
 41
-30.0
 62
     5
 63
     8
421
  8421504
 74
     1
 91
        4
 64
     7
 65
   257
 75
     1
175
     1
 42
1.0
 92
        8
 66
     8
424
  8421504
 43
1.0
 76
     1
 77
     6
 78
     2
 67
     7
 79
     5
170
     0
171
     0
290
     0
174
     0
 93
        1
 44
0.0
173
     0
291
     1
 45
0.0
1001
ACAD
1000
AcDbSavedByObjectVersion
1070
     0
  0
VISUALSTYLE
  5
34
102
{ACAD_REACTORS
330
2A
102
}
102
{ACAD_XDICTIONARY
360
250
102
}
330
2A
100
AcDbVisualStyle
  2
Conceptual
 70
     9
 71
     3
 72
     2
 73
     0
 90
        0
 40
-0.6
 41
-30.0
 62
     5
 63
     7
421
 16777215
 74
     2
 91
        2
 64
     7
 65
   257
 75
     1
175
     1
 42
40.0
 92
        8
 66
     7
 43
1.0
 76
     1
 77
     6
 78
     2
 67
     7
 79
     3
170
     0
171
     0
290
     0
174
     0
 93
        1
 44
0.0
173
     0
291
     0
 45
0.0
1001
ACAD
1000
AcDbSavedByObjectVersion
1070
     0
  0
VISUALSTYLE
  5
35
102
{ACAD_REACTORS
330
2A
102
}
102
{ACAD_XDICTIONARY
360
252
102
}
330
2A
100
AcDbVisualStyle
  2
Dim
 70
    11
 71
     2
 72
     2
 73
     0
 90
        0
 40
-0.6
 41
-30.0
 62
     5
 63
     7
421
 16777215
 74
     1
 91
        4
 64
     7
 65
   257
 75
     1
175
     1
 42
1.0
 92
        8
 66
     7
 43
1.0
 76
     1
 77
     6
 78
     2
 67
     7
 79
     5
170
     0
171
     0
290
     0
174
     0
 93
        1
 44
-50.0
173
     0
291
     1
 45
0.0
1001
ACAD
1000
AcDbSavedByObjectVersion
1070
     0
  0
VISUALSTYLE
  5
39
102
{ACAD_REACTORS
330
2A
102
}
102
{ACAD_XDICTIONARY
360
25A
102
}
330
2A
100
AcDbVisualStyle
  2
Facepattern
 70
    15
 71
     2
 72
     2
 73
     0
 90
        0
 40
-0.6
 41
-30.0
 62
     5
 63
     7
421
 16777215
 74
     1
 91
        4
 64
     7
 65
   257
 75
     1
175
     1
 42
1.0
 92
        8
 66
     7
 43
1.0
 76
     1
 77
     6
 78
     2
 67
     7
 79
     5
170
     0
171
     0
290
     0
174
     0
 93
        1
 44
0.0
173
     0
291
     1
 45
0.0
1001
ACAD
1000
AcDbSavedByObjectVersion
1070
     0
  0
VISUALSTYLE
  5
2B
102
{ACAD_REACTORS
330
2A
102
}
102
{ACAD_XDICTIONARY
360
23E
102
}
330
2A
100
AcDbVisualStyle
  2
Flat
 70
     0
 71
     2
 72
     1
 73
     1
 90
        2
 40
-0.6
 41
30.0
 62
     5
 63
     7
421
 16777215
 74
     0
 91
        4
 64
     7
 65
   257
 75
     1
175
     1
 42
1.0
 92
        8
 66
     7
 43
1.0
 76
     1
 77
     6
 78
     2
 67
     7
 79
     5
170
     0
171
     0
290
     0
174
     0
 93
       13
 44
0.0
173
     0
291
     1
 45
0.0
1001
ACAD
1000
AcDbSavedByObjectVersion
1070
     0
  0
VISUALSTYLE
  5
2C
102
{ACAD_REACTORS
330
2A
102
}
102
{ACAD_XDICTIONARY
360
240
102
}
330
2A
100
AcDbVisualStyle
  2
FlatWithEdges
 70
     1
 71
     2
 72
     1
 73
     1
 90
        2
 40
-0.6
 41
30.0
 62
     5
 63
     7
421
 16777215
 74
     1
 91
        4
 64
     7
 65
   257
 75
     1
175
     1
 42
1.0
 92
        0
 66
   257
 43
1.0
 76
     1
 77
     6
 78
     2
 67
     7
 79
     5
170
     0
171
     0
290
     0
174
     0
 93
       13
 44
0.0
173
     0
291
     1
 45
0.0
1001
ACAD
1000
AcDbSavedByObjectVersion
1070
     0
  0
VISUALSTYLE
  5
2D
102
{ACAD_REACTORS
330
2A
102
}
102
{ACAD_XDICTIONARY
360
242
102
}
330
2A
100
AcDbVisualStyle
  2
Gouraud
 70
     2
 71
     2
 72
     2
 73
     1
 90
        2
 40
-0.6
 41
30.0
 62
     5
 63
     7
421
 16777215
 74
     0
 91
        4
 64
     7
 65
   257
 75
     1
175
     1
 42
1.0
 92
        0
 66
     7
 43
1.0
 76
     1
 77
     6
 78
     2
 67
     7
 79
     5
170
     0
171
     0
290
     0
174
     0
 93
       13
 44
0.0
173
     0
291
     1
 45
0.0
1001
ACAD
1000
AcDbSavedByObjectVersion
1070
     0
  0
VISUALSTYLE
  5
2E
102
{ACAD_REACTORS
330
2A
102
}
102
{ACAD_XDICTIONARY
360
244
102
}
330
2A
100
AcDbVisualStyle
  2
GouraudWithEdges
 70
     3
 71
     2
 72
     2
 73
     1
 90
        2
 40
-0.6
 41
30.0
 62
     5
 63
     7
421
 16777215
 74
     1
 91
        4
 64
     7
 65
   257
 75
     1
175
     1
 42
1.0
 92
        0
 66
   257
 43
1.0
 76
     1
 77
     6
 78
     2
 67
     7
 79
     5
170
     0
171
     0
290
     0
174
     0
 93
       13
 44
0.0
173
     0
291
     1
 45
0.0
1001
ACAD
1000
AcDbSavedByObjectVersion
1070
     0
  0
VISUALSTYLE
  5
38
102
{ACAD_REACTORS
330
2A
102
}
102
{ACAD_XDICTIONARY
360
258
102
}
330
2A
100
AcDbVisualStyle
  2
Linepattern
 70
    14
 71
     2
 72
     2
 73
     0
 90
        0
 40
-0.6
 41
-30.0
 62
     5
 63
     7
421
 16777215
 74
     1
 91
        4
 64
     7
 65
   257
 75
     7
175
     7
 42
1.0
 92
        8
 66
     7
 43
1.0
 76
     1
 77
     6
 78
     2
 67
     7
 79
     5
170
     0
171
     0
290
     0
174
     0
 93
        1
 44
0.0
173
     0
291
     1
 45
0.0
1001
ACAD
1000
AcDbSavedByObjectVersion
1070
     0
  0
VISUALSTYLE
  5
33
102
{ACAD_REACTORS
330
2A
102
}
102
{ACAD_XDICTIONARY
360
24E
102
}
330
2A
100
AcDbVisualStyle
  2
Realistic
 70
     8
 71
     2
 72
     2
 73
     0
 90
        0
 40
-0.6
 41
-30.0
 62
     5
 63
     7
421
 16777215
 74
     1
 91
        0
 64
     7
 65
   257
 75
     1
175
     1
 42
1.0
 92
        8
 66
     8
424
  7895160
 43
1.0
 76
     1
 77
     6
 78
     2
 67
     7
 79
     5
170
     0
171
     0
290
     0
174
     0
 93
       13
 44
0.0
173
     0
291
     0
 45
0.0
1001
ACAD
1000
AcDbSavedByObjectVersion
1070
     0
  0
VISUALSTYLE
  5
37
102
{ACAD_REACTORS
330
2A
102
}
102
{ACAD_XDICTIONARY
360
256
102
}
330
2A
100
AcDbVisualStyle
  2
Thicken
 70
    13
 71
     2
 72
     2
 73
     0
 90
        0
 40
-0.6
 41
-30.0
 62
     5
 63
     7
421
 16777215
 74
     1
 91
        4
 64
     7
 65
   257
 75
     1
175
     1
 42
1.0
 92
       12
 66
     7
 43
1.0
 76
     1
 77
     6
 78
     2
 67
     7
 79
     5
170
     0
171
     0
290
     0
174
     0
 93
        1
 44
0.0
173
     0
291
     1
 45
0.0
1001
ACAD
1000
AcDbSavedByObjectVersion
1070
     0
  0
DICTIONARY
  5
260
330
3D
100
AcDbDictionary
280
     1
281
     1
  3
ACAD_XREC_ROUNDTRIP
360
261
  0
DICTIONARY
  5
25E
330
3C
100
AcDbDictionary
280
     1
281
     1
  3
ACAD_XREC_ROUNDTRIP
360
25F
  0
DICTIONARY
  5
262
330
3E
100
AcDbDictionary
280
     1
281
     1
  3
ACAD_XREC_ROUNDTRIP
360
263
  0
DICTIONARY
  5
246
330
2F
100
AcDbDictionary
280
     1
281
     1
  3
ACAD_XREC_ROUNDTRIP
360
247
  0
DICTIONARY
  5
24A
330
31
100
AcDbDictionary
280
     1
281
     1
  3
ACAD_XREC_ROUNDTRIP
360
24B
  0
DICTIONARY
  5
248
330
30
100
AcDbDictionary
280
     1
281
     1
  3
ACAD_XREC_ROUNDTRIP
360
249
  0
DICTIONARY
  5
24C
330
32
100
AcDbDictionary
280
     1
281
     1
  3
ACAD_XREC_ROUNDTRIP
360
24D
  0
DICTIONARY
  5
254
330
36
100
AcDbDictionary
280
     1
281
     1
  3
ACAD_XREC_ROUNDTRIP
360
255
  0
DICTIONARY
  5
25C
330
3A
100
AcDbDictionary
280
     1
281
     1
  3
ACAD_XREC_ROUNDTRIP
360
25D
  0
DICTIONARY
  5
250
330
34
100
AcDbDictionary
280
     1
281
     1
  3
ACAD_XREC_ROUNDTRIP
360
251
  0
DICTIONARY
  5
252
330
35
100
AcDbDictionary
280
     1
281
     1
  3
ACAD_XREC_ROUNDTRIP
360
253
  0
DICTIONARY
  5
25A
330
39
100
AcDbDictionary
280
     1
281
     1
  3
ACAD_XREC_ROUNDTRIP
360
25B
  0
DICTIONARY
  5
23E
330
2B
100
AcDbDictionary
280
     1
281
     1
  3
ACAD_XREC_ROUNDTRIP
360
23F
  0
DICTIONARY
  5
240
330
2C
100
AcDbDictionary
280
     1
281
     1
  3
ACAD_XREC_ROUNDTRIP
360
241
  0
DICTIONARY
  5
242
330
2D
100
AcDbDictionary
280
     1
281
     1
  3
ACAD_XREC_ROUNDTRIP
360
243
  0
DICTIONARY
  5
244
330
2E
100
AcDbDictionary
280
     1
281
     1
  3
ACAD_XREC_ROUNDTRIP
360
245
  0
DICTIONARY
  5
258
330
38
100
AcDbDictionary
280
     1
281
     1
  3
ACAD_XREC_ROUNDTRIP
360
259
  0
DICTIONARY
  5
24E
330
33
100
AcDbDictionary
280
     1
281
     1
  3
ACAD_XREC_ROUNDTRIP
360
24F
  0
DICTIONARY
  5
256
330
37
100
AcDbDictionary
280
     1
281
     1
  3
ACAD_XREC_ROUNDTRIP
360
257
  0
XRECORD
  5
261
102
{ACAD_REACTORS
330
260
102
}
330
260
100
AcDbXrecord
280
     1
102
MATERIAL
148
0.0
149
0.0
149
0.0
 93
        0
 94
      127
282
     0
 72
     1
 77
     1
171
     1
175
     1
179
     1
273
     0
  0
XRECORD
  5
25F
102
{ACAD_REACTORS
330
25E
102
}
330
25E
100
AcDbXrecord
280
     1
102
MATERIAL
148
0.0
149
0.0
149
0.0
 93
        0
 94
      127
282
     0
 72
     1
 77
     1
171
     1
175
     1
179
     1
273
     0
  0
XRECORD
  5
263
102
{ACAD_REACTORS
330
262
102
}
330
262
100
AcDbXrecord
280
     1
102
MATERIAL
148
0.0
149
0.0
149
0.0
 93
        0
 94
      127
282
     0
 72
     1
 77
     1
171
     1
175
     1
179
     1
273
     0
  0
XRECORD
  5
247
102
{ACAD_REACTORS
330
246
102
}
330
246
100
AcDbXrecord
280
     1
102
RTVSPropertyOp0
 70
     1
102
RTVSPropertyOp1
 70
     1
102
RTVSPropertyOp2
 70
     1
102
RTVSPropertyOp3
 70
     1
102
RTVSPropertyOp4
 70
     1
102
RTVSPropertyOp5
 70
     1
102
RTVSPropertyOp6
 70
     1
102
RTVSPropertyOp7
 70
     1
102
RTVSPropertyOp8
 70
     1
102
RTVSPropertyOp9
 70
     1
102
RTVSPropertyOp10
 70
     1
102
RTVSPropertyOp11
 70
     1
102
RTVSPropertyOp12
 70
     1
102
RTVSPropertyOp13
 70
     1
102
RTVSPropertyOp14
 70
     1
102
RTVSPropertyOp15
 70
     1
102
RTVSPropertyOp16
 70
     1
102
RTVSPropertyOp17
 70
     1
102
RTVSPropertyOp18
 70
     1
102
RTVSPropertyOp19
 70
     1
102
RTVSPropertyOp20
 70
     1
102
RTVSPropertyOp21
 70
     1
102
RTVSPropertyOp22
 70
     1
102
RTVSPropertyOp23
 70
     1
102
RTVSPropertyOp24
 70
     1
102
RTVSPropertyOp25
 70
     1
102
RTVSPropertyOp26
 70
     1
102
RTVSPropertyOp27
 70
     1
102
RTVSPropertyOp28
 70
     1
102
RTVSPropertyOp29
 70
     1
102
RTVSPropertyOp30
 70
     1
102
RTVSPropertyOp31
 70
     1
102
RTVSPropertyOp32
 70
     1
  0
XRECORD
  5
24B
102
{ACAD_REACTORS
330
24A
102
}
330
24A
100
AcDbXrecord
280
     1
102
RTVSPropertyOp0
 70
     1
102
RTVSPropertyOp1
 70
     1
102
RTVSPropertyOp2
 70
     1
102
RTVSPropertyOp3
 70
     1
102
RTVSPropertyOp4
 70
     1
102
RTVSPropertyOp5
 70
     1
102
RTVSPropertyOp6
 70
     1
102
RTVSPropertyOp7
 70
     1
102
RTVSPropertyOp8
 70
     1
102
RTVSPropertyOp9
 70
     1
102
RTVSPropertyOp10
 70
     1
102
RTVSPropertyOp11
 70
     1
102
RTVSPropertyOp12
 70
     1
102
RTVSPropertyOp13
 70
     1
102
RTVSPropertyOp14
 70
     1
102
RTVSPropertyOp15
 70
     1
102
RTVSPropertyOp16
 70
     1
102
RTVSPropertyOp17
 70
     1
102
RTVSPropertyOp18
 70
     1
102
RTVSPropertyOp19
 70
     1
102
RTVSPropertyOp20
 70
     1
102
RTVSPropertyOp21
 70
     1
102
RTVSPropertyOp22
 70
     1
102
RTVSPropertyOp23
 70
     1
102
RTVSPropertyOp24
 70
     1
102
RTVSPropertyOp25
 70
     1
102
RTVSPropertyOp26
 70
     1
102
RTVSPropertyOp27
 70
     1
102
RTVSPropertyOp28
 70
     1
102
RTVSPropertyOp29
 70
     1
102
RTVSPropertyOp30
 70
     1
102
RTVSPropertyOp31
 70
     1
102
RTVSPropertyOp32
 70
     1
  0
XRECORD
  5
249
102
{ACAD_REACTORS
330
248
102
}
330
248
100
AcDbXrecord
280
     1
102
RTVSPropertyOp0
 70
     1
102
RTVSPropertyOp1
 70
     1
102
RTVSPropertyOp2
 70
     1
102
RTVSPropertyOp3
 70
     1
102
RTVSPropertyOp4
 70
     1
102
RTVSPropertyOp5
 70
     1
102
RTVSPropertyOp6
 70
     1
102
RTVSPropertyOp7
 70
     1
102
RTVSPropertyOp8
 70
     1
102
RTVSPropertyOp9
 70
     1
102
RTVSPropertyOp10
 70
     1
102
RTVSPropertyOp11
 70
     1
102
RTVSPropertyOp12
 70
     1
102
RTVSPropertyOp13
 70
     1
102
RTVSPropertyOp14
 70
     1
102
RTVSPropertyOp15
 70
     1
102
RTVSPropertyOp16
 70
     1
102
RTVSPropertyOp17
 70
     1
102
RTVSPropertyOp18
 70
     1
102
RTVSPropertyOp19
 70
     1
102
RTVSPropertyOp20
 70
     1
102
RTVSPropertyOp21
 70
     1
102
RTVSPropertyOp22
 70
     1
102
RTVSPropertyOp23
 70
     1
102
RTVSPropertyOp24
 70
     1
102
RTVSPropertyOp25
 70
     1
102
RTVSPropertyOp26
 70
     1
102
RTVSPropertyOp27
 70
     1
102
RTVSPropertyOp28
 70
     1
102
RTVSPropertyOp29
 70
     1
102
RTVSPropertyOp30
 70
     1
102
RTVSPropertyOp31
 70
     1
102
RTVSPropertyOp32
 70
     1
  0
XRECORD
  5
24D
102
{ACAD_REACTORS
330
24C
102
}
330
24C
100
AcDbXrecord
280
     1
102
RTVSPropertyOp0
 70
     1
102
RTVSPropertyOp1
 70
     1
102
RTVSPropertyOp2
 70
     1
102
RTVSPropertyOp3
 70
     1
102
RTVSPropertyOp4
 70
     1
102
RTVSPropertyOp5
 70
     1
102
RTVSPropertyOp6
 70
     1
102
RTVSPropertyOp7
 70
     1
102
RTVSPropertyOp8
 70
     1
102
RTVSPropertyOp9
 70
     1
102
RTVSPropertyOp10
 70
     1
102
RTVSPropertyOp11
 70
     1
102
RTVSPropertyOp12
 70
     1
102
RTVSPropertyOp13
 70
     1
102
RTVSPropertyOp14
 70
     1
102
RTVSPropertyOp15
 70
     1
102
RTVSPropertyOp16
 70
     1
102
RTVSPropertyOp17
 70
     1
102
RTVSPropertyOp18
 70
     1
102
RTVSPropertyOp19
 70
     1
102
RTVSPropertyOp20
 70
     1
102
RTVSPropertyOp21
 70
     1
102
RTVSPropertyOp22
 70
     1
102
RTVSPropertyOp23
 70
     1
102
RTVSPropertyOp24
 70
     1
102
RTVSPropertyOp25
 70
     1
102
RTVSPropertyOp26
 70
     1
102
RTVSPropertyOp27
 70
     1
102
RTVSPropertyOp28
 70
     1
102
RTVSPropertyOp29
 70
     1
102
RTVSPropertyOp30
 70
     1
102
RTVSPropertyOp31
 70
     1
102
RTVSPropertyOp32
 70
     1
  0
XRECORD
  5
255
102
{ACAD_REACTORS
330
254
102
}
330
254
100
AcDbXrecord
280
     1
102
RTVSPropertyOp0
 70
     1
102
RTVSPropertyOp1
 70
     1
102
RTVSPropertyOp2
 70
     1
102
RTVSPropertyOp3
 70
     1
102
RTVSPropertyOp4
 70
     1
102
RTVSPropertyOp5
 70
     1
102
RTVSPropertyOp6
 70
     1
102
RTVSPropertyOp7
 70
     1
102
RTVSPropertyOp8
 70
     1
102
RTVSPropertyOp9
 70
     1
102
RTVSPropertyOp10
 70
     1
102
RTVSPropertyOp11
 70
     1
102
RTVSPropertyOp12
 70
     1
102
RTVSPropertyOp13
 70
     1
102
RTVSPropertyOp14
 70
     1
102
RTVSPropertyOp15
 70
     1
102
RTVSPropertyOp16
 70
     1
102
RTVSPropertyOp17
 70
     1
102
RTVSPropertyOp18
 70
     1
102
RTVSPropertyOp19
 70
     1
102
RTVSPropertyOp20
 70
     1
102
RTVSPropertyOp21
 70
     1
102
RTVSPropertyOp22
 70
     1
102
RTVSPropertyOp23
 70
     1
102
RTVSPropertyOp24
 70
     1
102
RTVSPropertyOp25
 70
     1
102
RTVSPropertyOp26
 70
     1
102
RTVSPropertyOp27
 70
     1
102
RTVSPropertyOp28
 70
     1
102
RTVSPropertyOp29
 70
     1
102
RTVSPropertyOp30
 70
     1
102
RTVSPropertyOp31
 70
     1
102
RTVSPropertyOp32
 70
     1
  0
XRECORD
  5
25D
102
{ACAD_REACTORS
330
25C
102
}
330
25C
100
AcDbXrecord
280
     1
102
RTVSPropertyOp0
 70
     1
102
RTVSPropertyOp1
 70
     1
102
RTVSPropertyOp2
 70
     1
102
RTVSPropertyOp3
 70
     1
102
RTVSPropertyOp4
 70
     1
102
RTVSPropertyOp5
 70
     1
102
RTVSPropertyOp6
 70
     1
102
RTVSPropertyOp7
 70
     1
102
RTVSPropertyOp8
 70
     1
102
RTVSPropertyOp9
 70
     1
102
RTVSPropertyOp10
 70
     1
102
RTVSPropertyOp11
 70
     1
102
RTVSPropertyOp12
 70
     1
102
RTVSPropertyOp13
 70
     1
102
RTVSPropertyOp14
 70
     1
102
RTVSPropertyOp15
 70
     1
102
RTVSPropertyOp16
 70
     1
102
RTVSPropertyOp17
 70
     1
102
RTVSPropertyOp18
 70
     1
102
RTVSPropertyOp19
 70
     1
102
RTVSPropertyOp20
 70
     1
102
RTVSPropertyOp21
 70
     1
102
RTVSPropertyOp22
 70
     1
102
RTVSPropertyOp23
 70
     1
102
RTVSPropertyOp24
 70
     1
102
RTVSPropertyOp25
 70
     1
102
RTVSPropertyOp26
 70
     1
102
RTVSPropertyOp27
 70
     1
102
RTVSPropertyOp28
 70
     1
102
RTVSPropertyOp29
 70
     1
102
RTVSPropertyOp30
 70
     1
102
RTVSPropertyOp31
 70
     1
102
RTVSPropertyOp32
 70
     1
  0
XRECORD
  5
251
102
{ACAD_REACTORS
330
250
102
}
330
250
100
AcDbXrecord
280
     1
102
RTVSPropertyOp0
 70
     1
102
RTVSPropertyOp1
 70
     1
102
RTVSPropertyOp2
 70
     1
102
RTVSPropertyOp3
 70
     1
102
RTVSPropertyOp4
 70
     1
102
RTVSPropertyOp5
 70
     1
102
RTVSPropertyOp6
 70
     1
102
RTVSPropertyOp7
 70
     1
102
RTVSPropertyOp8
 70
     1
102
RTVSPropertyOp9
 70
     1
102
RTVSPropertyOp10
 70
     1
102
RTVSPropertyOp11
 70
     1
102
RTVSPropertyOp12
 70
     1
102
RTVSPropertyOp13
 70
     1
102
RTVSPropertyOp14
 70
     1
102
RTVSPropertyOp15
 70
     1
102
RTVSPropertyOp16
 70
     1
102
RTVSPropertyOp17
 70
     1
102
RTVSPropertyOp18
 70
     1
102
RTVSPropertyOp19
 70
     1
102
RTVSPropertyOp20
 70
     1
102
RTVSPropertyOp21
 70
     1
102
RTVSPropertyOp22
 70
     1
102
RTVSPropertyOp23
 70
     1
102
RTVSPropertyOp24
 70
     1
102
RTVSPropertyOp25
 70
     1
102
RTVSPropertyOp26
 70
     1
102
RTVSPropertyOp27
 70
     1
102
RTVSPropertyOp28
 70
     1
102
RTVSPropertyOp29
 70
     1
102
RTVSPropertyOp30
 70
     1
102
RTVSPropertyOp31
 70
     1
102
RTVSPropertyOp32
 70
     1
  0
XRECORD
  5
253
102
{ACAD_REACTORS
330
252
102
}
330
252
100
AcDbXrecord
280
     1
102
RTVSPropertyOp0
 70
     1
102
RTVSPropertyOp1
 70
     1
102
RTVSPropertyOp2
 70
     1
102
RTVSPropertyOp3
 70
     1
102
RTVSPropertyOp4
 70
     1
102
RTVSPropertyOp5
 70
     1
102
RTVSPropertyOp6
 70
     1
102
RTVSPropertyOp7
 70
     1
102
RTVSPropertyOp8
 70
     1
102
RTVSPropertyOp9
 70
     1
102
RTVSPropertyOp10
 70
     1
102
RTVSPropertyOp11
 70
     1
102
RTVSPropertyOp12
 70
     1
102
RTVSPropertyOp13
 70
     1
102
RTVSPropertyOp14
 70
     1
102
RTVSPropertyOp15
 70
     1
102
RTVSPropertyOp16
 70
     1
102
RTVSPropertyOp17
 70
     1
102
RTVSPropertyOp18
 70
     1
102
RTVSPropertyOp19
 70
     1
102
RTVSPropertyOp20
 70
     1
102
RTVSPropertyOp21
 70
     1
102
RTVSPropertyOp22
 70
     1
102
RTVSPropertyOp23
 70
     1
102
RTVSPropertyOp24
 70
     1
102
RTVSPropertyOp25
 70
     1
102
RTVSPropertyOp26
 70
     1
102
RTVSPropertyOp27
 70
     1
102
RTVSPropertyOp28
 70
     1
102
RTVSPropertyOp29
 70
     1
102
RTVSPropertyOp30
 70
     1
102
RTVSPropertyOp31
 70
     1
102
RTVSPropertyOp32
 70
     1
  0
XRECORD
  5
25B
102
{ACAD_REACTORS
330
25A
102
}
330
25A
100
AcDbXrecord
280
     1
102
RTVSPropertyOp0
 70
     1
102
RTVSPropertyOp1
 70
     1
102
RTVSPropertyOp2
 70
     1
102
RTVSPropertyOp3
 70
     1
102
RTVSPropertyOp4
 70
     1
102
RTVSPropertyOp5
 70
     1
102
RTVSPropertyOp6
 70
     1
102
RTVSPropertyOp7
 70
     1
102
RTVSPropertyOp8
 70
     1
102
RTVSPropertyOp9
 70
     1
102
RTVSPropertyOp10
 70
     1
102
RTVSPropertyOp11
 70
     1
102
RTVSPropertyOp12
 70
     1
102
RTVSPropertyOp13
 70
     1
102
RTVSPropertyOp14
 70
     1
102
RTVSPropertyOp15
 70
     1
102
RTVSPropertyOp16
 70
     1
102
RTVSPropertyOp17
 70
     1
102
RTVSPropertyOp18
 70
     1
102
RTVSPropertyOp19
 70
     1
102
RTVSPropertyOp20
 70
     1
102
RTVSPropertyOp21
 70
     1
102
RTVSPropertyOp22
 70
     1
102
RTVSPropertyOp23
 70
     1
102
RTVSPropertyOp24
 70
     1
102
RTVSPropertyOp25
 70
     1
102
RTVSPropertyOp26
 70
     1
102
RTVSPropertyOp27
 70
     1
102
RTVSPropertyOp28
 70
     1
102
RTVSPropertyOp29
 70
     1
102
RTVSPropertyOp30
 70
     1
102
RTVSPropertyOp31
 70
     1
102
RTVSPropertyOp32
 70
     1
  0
XRECORD
  5
23F
102
{ACAD_REACTORS
330
23E
102
}
330
23E
100
AcDbXrecord
280
     1
102
RTVSPropertyOp0
 70
     1
102
RTVSPropertyOp1
 70
     1
102
RTVSPropertyOp2
 70
     1
102
RTVSPropertyOp3
 70
     1
102
RTVSPropertyOp4
 70
     1
102
RTVSPropertyOp5
 70
     1
102
RTVSPropertyOp6
 70
     1
102
RTVSPropertyOp7
 70
     1
102
RTVSPropertyOp8
 70
     1
102
RTVSPropertyOp9
 70
     1
102
RTVSPropertyOp10
 70
     1
102
RTVSPropertyOp11
 70
     1
102
RTVSPropertyOp12
 70
     1
102
RTVSPropertyOp13
 70
     1
102
RTVSPropertyOp14
 70
     1
102
RTVSPropertyOp15
 70
     1
102
RTVSPropertyOp16
 70
     1
102
RTVSPropertyOp17
 70
     1
102
RTVSPropertyOp18
 70
     1
102
RTVSPropertyOp19
 70
     1
102
RTVSPropertyOp20
 70
     1
102
RTVSPropertyOp21
 70
     1
102
RTVSPropertyOp22
 70
     1
102
RTVSPropertyOp23
 70
     1
102
RTVSPropertyOp24
 70
     1
102
RTVSPropertyOp25
 70
     1
102
RTVSPropertyOp26
 70
     1
102
RTVSPropertyOp27
 70
     1
102
RTVSPropertyOp28
 70
     1
102
RTVSPropertyOp29
 70
     1
102
RTVSPropertyOp30
 70
     1
102
RTVSPropertyOp31
 70
     1
102
RTVSPropertyOp32
 70
     1
  0
XRECORD
  5
241
102
{ACAD_REACTORS
330
240
102
}
330
240
100
AcDbXrecord
280
     1
102
RTVSPropertyOp0
 70
     1
102
RTVSPropertyOp1
 70
     1
102
RTVSPropertyOp2
 70
     1
102
RTVSPropertyOp3
 70
     1
102
RTVSPropertyOp4
 70
     1
102
RTVSPropertyOp5
 70
     1
102
RTVSPropertyOp6
 70
     1
102
RTVSPropertyOp7
 70
     1
102
RTVSPropertyOp8
 70
     1
102
RTVSPropertyOp9
 70
     1
102
RTVSPropertyOp10
 70
     1
102
RTVSPropertyOp11
 70
     1
102
RTVSPropertyOp12
 70
     1
102
RTVSPropertyOp13
 70
     1
102
RTVSPropertyOp14
 70
     1
102
RTVSPropertyOp15
 70
     1
102
RTVSPropertyOp16
 70
     1
102
RTVSPropertyOp17
 70
     1
102
RTVSPropertyOp18
 70
     1
102
RTVSPropertyOp19
 70
     1
102
RTVSPropertyOp20
 70
     1
102
RTVSPropertyOp21
 70
     1
102
RTVSPropertyOp22
 70
     1
102
RTVSPropertyOp23
 70
     1
102
RTVSPropertyOp24
 70
     1
102
RTVSPropertyOp25
 70
     1
102
RTVSPropertyOp26
 70
     1
102
RTVSPropertyOp27
 70
     1
102
RTVSPropertyOp28
 70
     1
102
RTVSPropertyOp29
 70
     1
102
RTVSPropertyOp30
 70
     1
102
RTVSPropertyOp31
 70
     1
102
RTVSPropertyOp32
 70
     1
  0
XRECORD
  5
243
102
{ACAD_REACTORS
330
242
102
}
330
242
100
AcDbXrecord
280
     1
102
RTVSPropertyOp0
 70
     1
102
RTVSPropertyOp1
 70
     1
102
RTVSPropertyOp2
 70
     1
102
RTVSPropertyOp3
 70
     1
102
RTVSPropertyOp4
 70
     1
102
RTVSPropertyOp5
 70
     1
102
RTVSPropertyOp6
 70
     1
102
RTVSPropertyOp7
 70
     1
102
RTVSPropertyOp8
 70
     1
102
RTVSPropertyOp9
 70
     1
102
RTVSPropertyOp10
 70
     1
102
RTVSPropertyOp11
 70
     1
102
RTVSPropertyOp12
 70
     1
102
RTVSPropertyOp13
 70
     1
102
RTVSPropertyOp14
 70
     1
102
RTVSPropertyOp15
 70
     1
102
RTVSPropertyOp16
 70
     1
102
RTVSPropertyOp17
 70
     1
102
RTVSPropertyOp18
 70
     1
102
RTVSPropertyOp19
 70
     1
102
RTVSPropertyOp20
 70
     1
102
RTVSPropertyOp21
 70
     1
102
RTVSPropertyOp22
 70
     1
102
RTVSPropertyOp23
 70
     1
102
RTVSPropertyOp24
 70
     1
102
RTVSPropertyOp25
 70
     1
102
RTVSPropertyOp26
 70
     1
102
RTVSPropertyOp27
 70
     1
102
RTVSPropertyOp28
 70
     1
102
RTVSPropertyOp29
 70
     1
102
RTVSPropertyOp30
 70
     1
102
RTVSPropertyOp31
 70
     1
102
RTVSPropertyOp32
 70
     1
  0
XRECORD
  5
245
102
{ACAD_REACTORS
330
244
102
}
330
244
100
AcDbXrecord
280
     1
102
RTVSPropertyOp0
 70
     1
102
RTVSPropertyOp1
 70
     1
102
RTVSPropertyOp2
 70
     1
102
RTVSPropertyOp3
 70
     1
102
RTVSPropertyOp4
 70
     1
102
RTVSPropertyOp5
 70
     1
102
RTVSPropertyOp6
 70
     1
102
RTVSPropertyOp7
 70
     1
102
RTVSPropertyOp8
 70
     1
102
RTVSPropertyOp9
 70
     1
102
RTVSPropertyOp10
 70
     1
102
RTVSPropertyOp11
 70
     1
102
RTVSPropertyOp12
 70
     1
102
RTVSPropertyOp13
 70
     1
102
RTVSPropertyOp14
 70
     1
102
RTVSPropertyOp15
 70
     1
102
RTVSPropertyOp16
 70
     1
102
RTVSPropertyOp17
 70
     1
102
RTVSPropertyOp18
 70
     1
102
RTVSPropertyOp19
 70
     1
102
RTVSPropertyOp20
 70
     1
102
RTVSPropertyOp21
 70
     1
102
RTVSPropertyOp22
 70
     1
102
RTVSPropertyOp23
 70
     1
102
RTVSPropertyOp24
 70
     1
102
RTVSPropertyOp25
 70
     1
102
RTVSPropertyOp26
 70
     1
102
RTVSPropertyOp27
 70
     1
102
RTVSPropertyOp28
 70
     1
102
RTVSPropertyOp29
 70
     1
102
RTVSPropertyOp30
 70
     1
102
RTVSPropertyOp31
 70
     1
102
RTVSPropertyOp32
 70
     1
  0
XRECORD
  5
259
102
{ACAD_REACTORS
330
258
102
}
330
258
100
AcDbXrecord
280
     1
102
RTVSPropertyOp0
 70
     1
102
RTVSPropertyOp1
 70
     1
102
RTVSPropertyOp2
 70
     1
102
RTVSPropertyOp3
 70
     1
102
RTVSPropertyOp4
 70
     1
102
RTVSPropertyOp5
 70
     1
102
RTVSPropertyOp6
 70
     1
102
RTVSPropertyOp7
 70
     1
102
RTVSPropertyOp8
 70
     1
102
RTVSPropertyOp9
 70
     1
102
RTVSPropertyOp10
 70
     1
102
RTVSPropertyOp11
 70
     1
102
RTVSPropertyOp12
 70
     1
102
RTVSPropertyOp13
 70
     1
102
RTVSPropertyOp14
 70
     1
102
RTVSPropertyOp15
 70
     1
102
RTVSPropertyOp16
 70
     1
102
RTVSPropertyOp17
 70
     1
102
RTVSPropertyOp18
 70
     1
102
RTVSPropertyOp19
 70
     1
102
RTVSPropertyOp20
 70
     1
102
RTVSPropertyOp21
 70
     1
102
RTVSPropertyOp22
 70
     1
102
RTVSPropertyOp23
 70
     1
102
RTVSPropertyOp24
 70
     1
102
RTVSPropertyOp25
 70
     1
102
RTVSPropertyOp26
 70
     1
102
RTVSPropertyOp27
 70
     1
102
RTVSPropertyOp28
 70
     1
102
RTVSPropertyOp29
 70
     1
102
RTVSPropertyOp30
 70
     1
102
RTVSPropertyOp31
 70
     1
102
RTVSPropertyOp32
 70
     1
  0
XRECORD
  5
24F
102
{ACAD_REACTORS
330
24E
102
}
330
24E
100
AcDbXrecord
280
     1
102
RTVSPropertyOp0
 70
     1
102
RTVSPropertyOp1
 70
     1
102
RTVSPropertyOp2
 70
     1
102
RTVSPropertyOp3
 70
     1
102
RTVSPropertyOp4
 70
     1
102
RTVSPropertyOp5
 70
     1
102
RTVSPropertyOp6
 70
     1
102
RTVSPropertyOp7
 70
     1
102
RTVSPropertyOp8
 70
     1
102
RTVSPropertyOp9
 70
     1
102
RTVSPropertyOp10
 70
     1
102
RTVSPropertyOp11
 70
     1
102
RTVSPropertyOp12
 70
     1
102
RTVSPropertyOp13
 70
     1
102
RTVSPropertyOp14
 70
     1
102
RTVSPropertyOp15
 70
     1
102
RTVSPropertyOp16
 70
     1
102
RTVSPropertyOp17
 70
     1
102
RTVSPropertyOp18
 70
     1
102
RTVSPropertyOp19
 70
     1
102
RTVSPropertyOp20
 70
     1
102
RTVSPropertyOp21
 70
     1
102
RTVSPropertyOp22
 70
     1
102
RTVSPropertyOp23
 70
     1
102
RTVSPropertyOp24
 70
     1
102
RTVSPropertyOp25
 70
     1
102
RTVSPropertyOp26
 70
     1
102
RTVSPropertyOp27
 70
     1
102
RTVSPropertyOp28
 70
     1
102
RTVSPropertyOp29
 70
     1
102
RTVSPropertyOp30
 70
     1
102
RTVSPropertyOp31
 70
     1
102
RTVSPropertyOp32
 70
     1
  0
XRECORD
  5
257
102
{ACAD_REACTORS
330
256
102
}
330
256
100
AcDbXrecord
280
     1
102
RTVSPropertyOp0
 70
     1
102
RTVSPropertyOp1
 70
     1
102
RTVSPropertyOp2
 70
     1
102
RTVSPropertyOp3
 70
     1
102
RTVSPropertyOp4
 70
     1
102
RTVSPropertyOp5
 70
     1
102
RTVSPropertyOp6
 70
     1
102
RTVSPropertyOp7
 70
     1
102
RTVSPropertyOp8
 70
     1
102
RTVSPropertyOp9
 70
     1
102
RTVSPropertyOp10
 70
     1
102
RTVSPropertyOp11
 70
     1
102
RTVSPropertyOp12
 70
     1
102
RTVSPropertyOp13
 70
     1
102
RTVSPropertyOp14
 70
     1
102
RTVSPropertyOp15
 70
     1
102
RTVSPropertyOp16
 70
     1
102
RTVSPropertyOp17
 70
     1
102
RTVSPropertyOp18
 70
     1
102
RTVSPropertyOp19
 70
     1
102
RTVSPropertyOp20
 70
     1
102
RTVSPropertyOp21
 70
     1
102
RTVSPropertyOp22
 70
     1
102
RTVSPropertyOp23
 70
     1
102
RTVSPropertyOp24
 70
     1
102
RTVSPropertyOp25
 70
     1
102
RTVSPropertyOp26
 70
     1
102
RTVSPropertyOp27
 70
     1
102
RTVSPropertyOp28
 70
     1
102
RTVSPropertyOp29
 70
     1
102
RTVSPropertyOp30
 70
     1
102
RTVSPropertyOp31
 70
     1
102
RTVSPropertyOp32
 70
     1
  0
ENDSEC
  0
EOF
