  0
SECTION
  2
HEADER
  9
$ACADVER
  1
AC1018
  9
$ACADMAINTVER
 70
     0
  9
$DWGCODEPAGE
  3
ANSI_1252
  9
$INSBASE
 10
0.0
 20
0.0
 30
0.0
  9
$EXTMIN
 10
-252.8734624875025
 20
17.6896563039619
 30
0.0
  9
$EXTMAX
 10
44.12653751249562
 20
227.689656303962
 30
0.0
  9
$LIMMIN
 10
0.0
 20
0.0
  9
$LIMMAX
 10
12.0
 20
9.0
  9
$ORTHOMODE
 70
     0
  9
$REGENMODE
 70
     1
  9
$FILLMODE
 70
     1
  9
$QTEXTMODE
 70
     0
  9
$MIRRTEXT
 70
     1
  9
$LTSCALE
 40
1.0
  9
$ATTMODE
 70
     1
  9
$TEXTSIZE
 40
0.2
  9
$TRACEWID
 40
0.05
  9
$TEXTSTYLE
  7
Standard
  9
$CLAYER
  8
0
  9
$CELTYPE
  6
ByLayer
  9
$CECOLOR
 62
   256
  9
$CELTSCALE
 40
1.0
  9
$DISPSILH
 70
     0
  9
$DIMSCALE
 40
1.0
  9
$DIMASZ
 40
0.18
  9
$DIMEXO
 40
0.0625
  9
$DIMDLI
 40
0.38
  9
$DIMRND
 40
0.0
  9
$DIMDLE
 40
0.0
  9
$DIMEXE
 40
0.18
  9
$DIMTP
 40
0.0
  9
$DIMTM
 40
0.0
  9
$DIMTXT
 40
0.18
  9
$DIMCEN
 40
0.09
  9
$DIMTSZ
 40
0.0
  9
$DIMTOL
 70
     0
  9
$DIMLIM
 70
     0
  9
$DIMTIH
 70
     1
  9
$DIMTOH
 70
     1
  9
$DIMSE1
 70
     0
  9
$DIMSE2
 70
     0
  9
$DIMTAD
 70
     0
  9
$DIMZIN
 70
     0
  9
$DIMBLK
  1

  9
$DIMASO
 70
     1
  9
$DIMSHO
 70
     1
  9
$DIMPOST
  1

  9
$DIMAPOST
  1

  9
$DIMALT
 70
     0
  9
$DIMALTD
 70
     2
  9
$DIMALTF
 40
25.4
  9
$DIMLFAC
 40
1.0
  9
$DIMTOFL
 70
     0
  9
$DIMTVP
 40
0.0
  9
$DIMTIX
 70
     0
  9
$DIMSOXD
 70
     0
  9
$DIMSAH
 70
     0
  9
$DIMBLK1
  1

  9
$DIMBLK2
  1

  9
$DIMSTYLE
  2
Standard
  9
$DIMCLRD
 70
     0
  9
$DIMCLRE
 70
     0
  9
$DIMCLRT
 70
     0
  9
$DIMTFAC
 40
1.0
  9
$DIMGAP
 40
0.09
  9
$DIMJUST
 70
     0
  9
$DIMSD1
 70
     0
  9
$DIMSD2
 70
     0
  9
$DIMTOLJ
 70
     1
  9
$DIMTZIN
 70
     0
  9
$DIMALTZ
 70
     0
  9
$DIMALTTZ
 70
     0
  9
$DIMUPT
 70
     0
  9
$DIMDEC
 70
     4
  9
$DIMTDEC
 70
     4
  9
$DIMALTU
 70
     2
  9
$DIMALTTD
 70
     2
  9
$DIMTXSTY
  7
Standard
  9
$DIMAUNIT
 70
     0
  9
$DIMADEC
 70
     0
  9
$DIMALTRND
 40
0.0
  9
$DIMAZIN
 70
     0
  9
$DIMDSEP
 70
    46
  9
$DIMATFIT
 70
     3
  9
$DIMFRAC
 70
     0
  9
$DIMLDRBLK
  1

  9
$DIMLUNIT
 70
     2
  9
$DIMLWD
 70
    -2
  9
$DIMLWE
 70
    -2
  9
$DIMTMOVE
 70
     0
  9
$LUNITS
 70
     2
  9
$LUPREC
 70
     4
  9
$SKETCHINC
 40
0.1
  9
$FILLETRAD
 40
0.5
  9
$AUNITS
 70
     0
  9
$AUPREC
 70
     0
  9
$MENU
  1
.
  9
$ELEVATION
 40
0.0
  9
$PELEVATION
 40
0.0
  9
$THICKNESS
 40
0.0
  9
$LIMCHECK
 70
     0
  9
$CHAMFERA
 40
0.5
  9
$CHAMFERB
 40
0.5
  9
$CHAMFERC
 40
1.0
  9
$CHAMFERD
 40
0.0
  9
$SKPOLY
 70
     0
  9
$TDCREATE
 40
2458347.531589757
  9
$TDUCREATE
 40
2458347.448256424
  9
$TDUPDATE
 40
2458347.531590301
  9
$TDUUPDATE
 40
2458347.448256968
  9
$TDINDWG
 40
0.0000000116
  9
$TDUSRTIMER
 40
0.0000000116
  9
$USRTIMER
 70
     1
  9
$ANGBASE
 50
0.0
  9
$ANGDIR
 70
     0
  9
$PDMODE
 70
     0
  9
$PDSIZE
 40
0.0
  9
$PLINEWID
 40
0.0
  9
$SPLFRAME
 70
     0
  9
$SPLINETYPE
 70
     6
  9
$SPLINESEGS
 70
     8
  9
$HANDSEED
  5
334
  9
$SURFTAB1
 70
     6
  9
$SURFTAB2
 70
     6
  9
$SURFTYPE
 70
     6
  9
$SURFU
 70
     6
  9
$SURFV
 70
     6
  9
$UCSBASE
  2

  9
$UCSNAME
  2

  9
$UCSORG
 10
0.0
 20
0.0
 30
0.0
  9
$UCSXDIR
 10
1.0
 20
0.0
 30
0.0
  9
$UCSYDIR
 10
0.0
 20
1.0
 30
0.0
  9
$UCSORTHOREF
  2

  9
$UCSORTHOVIEW
 70
     0
  9
$UCSORGTOP
 10
0.0
 20
0.0
 30
0.0
  9
$UCSORGBOTTOM
 10
0.0
 20
0.0
 30
0.0
  9
$UCSORGLEFT
 10
0.0
 20
0.0
 30
0.0
  9
$UCSORGRIGHT
 10
0.0
 20
0.0
 30
0.0
  9
$UCSORGFRONT
 10
0.0
 20
0.0
 30
0.0
  9
$UCSORGBACK
 10
0.0
 20
0.0
 30
0.0
  9
$PUCSBASE
  2

  9
$PUCSNAME
  2

  9
$PUCSORG
 10
0.0
 20
0.0
 30
0.0
  9
$PUCSXDIR
 10
1.0
 20
0.0
 30
0.0
  9
$PUCSYDIR
 10
0.0
 20
1.0
 30
0.0
  9
$PUCSORTHOREF
  2

  9
$PUCSORTHOVIEW
 70
     0
  9
$PUCSORGTOP
 10
0.0
 20
0.0
 30
0.0
  9
$PUCSORGBOTTOM
 10
0.0
 20
0.0
 30
0.0
  9
$PUCSORGLEFT
 10
0.0
 20
0.0
 30
0.0
  9
$PUCSORGRIGHT
 10
0.0
 20
0.0
 30
0.0
  9
$PUCSORGFRONT
 10
0.0
 20
0.0
 30
0.0
  9
$PUCSORGBACK
 10
0.0
 20
0.0
 30
0.0
  9
$USERI1
 70
     0
  9
$USERI2
 70
     0
  9
$USERI3
 70
     0
  9
$USERI4
 70
     0
  9
$USERI5
 70
     0
  9
$USERR1
 40
18.1
  9
$USERR2
 40
0.0
  9
$USERR3
 40
0.0
  9
$USERR4
 40
0.0
  9
$USERR5
 40
0.0
  9
$WORLDVIEW
 70
     1
  9
$SHADEDGE
 70
     3
  9
$SHADEDIF
 70
    70
  9
$TILEMODE
 70
     1
  9
$MAXACTVP
 70
    64
  9
$PINSBASE
 10
0.0
 20
0.0
 30
0.0
  9
$PLIMCHECK
 70
     0
  9
$PEXTMIN
 10
1.00000000000000E+20
 20
1.00000000000000E+20
 30
1.00000000000000E+20
  9
$PEXTMAX
 10
-1.00000000000000E+20
 20
-1.00000000000000E+20
 30
-1.00000000000000E+20
  9
$PLIMMIN
 10
0.0
 20
0.0
  9
$PLIMMAX
 10
12.0
 20
9.0
  9
$UNITMODE
 70
     0
  9
$VISRETAIN
 70
     1
  9
$PLINEGEN
 70
     0
  9
$PSLTSCALE
 70
     1
  9
$TREEDEPTH
 70
  3020
  9
$CMLSTYLE
  2
Standard
  9
$CMLJUST
 70
     0
  9
$CMLSCALE
 40
1.0
  9
$PROXYGRAPHICS
 70
     1
  9
$MEASUREMENT
 70
     1
  9
$CELWEIGHT
370
    -1
  9
$ENDCAPS
280
     0
  9
$JOINSTYLE
280
     0
  9
$LWDISPLAY
290
     0
  9
$INSUNITS
 70
     4
  9
$HYPERLINKBASE
  1

  9
$STYLESHEET
  1

  9
$XEDIT
290
     1
  9
$CEPSNTYPE
380
     0
  9
$PSTYLEMODE
290
     1
  9
$FINGERPRINTGUID
  2
{57897CD5-A4C4-466F-9DB2-FFDFB3890BD0}
  9
$VERSIONGUID
  2
{FAEB1C32-E019-11D5-929B-00C0DF256EC4}
  9
$EXTNAMES
290
     1
  9
$PSVPSCALE
 40
0.0
  9
$OLESTARTUP
290
     0
  9
$SORTENTS
280
   127
  9
$INDEXCTL
280
     0
  9
$HIDETEXT
280
     1
  9
$XCLIPFRAME
290
     0
  9
$HALOGAP
280
     0
  9
$OBSCOLOR
 70
   257
  9
$OBSLTYPE
280
     0
  9
$INTERSECTIONDISPLAY
280
     0
  9
$INTERSECTIONCOLOR
 70
   257
  9
$DIMASSOC
280
     2
  9
$PROJECTNAME
  1

  0
ENDSEC
  0
SECTION
  2
CLASSES
  0
CLASS
  1
ACDBDICTIONARYWDFLT
  2
AcDbDictionaryWithDefault
  3
ObjectDBX Classes
 90
        0
 91
        4
280
     0
281
     0
  0
CLASS
  1
VISUALSTYLE
  2
AcDbVisualStyle
  3
ObjectDBX Classes
 90
     4095
 91
        4
280
     0
281
     0
  0
CLASS
  1
MATERIAL
  2
AcDbMaterial
  3
ObjectDBX Classes
 90
     1153
 91
        4
280
     0
281
     0
  0
ENDSEC
  0
SECTION
  2
TABLES
  0
TABLE
  2
VPORT
  5
8
330
0
100
AcDbSymbolTable
 70
     1
  0
VPORT
  5
29
330
8
100
AcDbSymbolTableRecord
100
AcDbViewportTableRecord
  2
*Active
 70
     0
 10
0.0
 20
0.0
 11
1.0
 21
1.0
 12
-104.3734624875034
 22
122.689656303962
 13
0.0
 23
0.0
 14
0.5
 24
0.5
 15
0.5
 25
0.5
 16
0.0
 26
0.0
 36
1.0
 17
0.0
 27
0.0
 37
0.0
 40
231.0000000000001
 41
1.60267857142857
 42
50.0
 43
0.0
 44
0.0
 50
0.0
 51
0.0
 71
     0
 72
   100
 73
     1
 74
     3
 75
     0
 76
     0
 77
     0
 78
     0
281
     0
 65
     1
110
0.0
120
0.0
130
0.0
111
1.0
121
0.0
131
0.0
112
0.0
122
1.0
132
0.0
 79
     0
146
0.0
  0
ENDTAB
  0
TABLE
  2
LTYPE
  5
5
330
0
100
AcDbSymbolTable
 70
     8
  0
LTYPE
  5
14
330
5
100
AcDbSymbolTableRecord
100
AcDbLinetypeTableRecord
  2
ByBlock
 70
     0
  3

 72
    65
 73
     0
 40
0.0
  0
LTYPE
  5
15
330
5
100
AcDbSymbolTableRecord
100
AcDbLinetypeTableRecord
  2
ByLayer
 70
     0
  3

 72
    65
 73
     0
 40
0.0
  0
LTYPE
  5
16
330
5
100
AcDbSymbolTableRecord
100
AcDbLinetypeTableRecord
  2
Continuous
 70
     0
  3
Solid line
 72
    65
 73
     0
 40
0.0
  0
LTYPE
  5
3F
330
5
100
AcDbSymbolTableRecord
100
AcDbLinetypeTableRecord
  2
DASHED
 70
     0
  3
Dashed
 72
    65
 73
     2
 40
15.0
 49
7.0
 74
     0
 49
-8.0
 74
     0
  0
LTYPE
  5
40
330
5
100
AcDbSymbolTableRecord
100
AcDbLinetypeTableRecord
  2
DOTTED
 70
     0
  3
Dotted
 72
    65
 73
     2
 40
1.0
 49
0.0
 74
     0
 49
-1.0
 74
     0
  0
LTYPE
  5
41
330
5
100
AcDbSymbolTableRecord
100
AcDbLinetypeTableRecord
  2
DOT_CENTER
 70
     0
  3
Dot_Center
 72
    65
 73
     4
 40
14.0
 49
12.0
 74
     0
 49
-1.0
 74
     0
 49
0.0
 74
     0
 49
-1.0
 74
     0
  0
LTYPE
  5
42
330
5
100
AcDbSymbolTableRecord
100
AcDbLinetypeTableRecord
  2
LONG_DASHED
 70
     0
  3
Long_Dashed
 72
    65
 73
     2
 40
15.0
 49
10.0
 74
     0
 49
-5.0
 74
     0
  0
LTYPE
  5
43
330
5
100
AcDbSymbolTableRecord
100
AcDbLinetypeTableRecord
  2
DASH_CENTER
 70
     0
  3
Dash_Center
 72
    65
 73
     4
 40
14.0
 49
11.0
 74
     0
 49
-1.0
 74
     0
 49
1.0
 74
     0
 49
-1.0
 74
     0
  0
LTYPE
  5
44
330
5
100
AcDbSymbolTableRecord
100
AcDbLinetypeTableRecord
  2
PHANTOM
 70
     0
  3
Phantom
 72
    65
 73
     6
 40
13.0
 49
10.0
 74
     0
 49
-1.0
 74
     0
 49
0.0
 74
     0
 49
-1.0
 74
     0
 49
0.0
 74
     0
 49
-1.0
 74
     0
  0
LTYPE
  5
45
330
5
100
AcDbSymbolTableRecord
100
AcDbLinetypeTableRecord
  2
CENTER_DASH_DASH
 70
     0
  3
Center_Dash_Dash
 72
    65
 73
     6
 40
14.0
 49
9.0
 74
     0
 49
-1.0
 74
     0
 49
1.0
 74
     0
 49
-1.0
 74
     0
 49
1.0
 74
     0
 49
-1.0
 74
     0
  0
ENDTAB
  0
TABLE
  2
LAYER
  5
2
330
0
100
AcDbSymbolTable
 70
     2
  0
LAYER
  5
10
330
2
100
AcDbSymbolTableRecord
100
AcDbLayerTableRecord
  2
0
 70
     0
 62
     7
  6
Continuous
370
    -3
390
F
  0
LAYER
  5
46
330
2
100
AcDbSymbolTableRecord
100
AcDbLayerTableRecord
  2
1
 70
     0
 62
     7
  6
Continuous
370
    -3
390
F
  0
ENDTAB
  0
TABLE
  2
STYLE
  5
3
330
0
100
AcDbSymbolTable
 70
     5
  0
STYLE
  5
11
330
3
100
AcDbSymbolTableRecord
100
AcDbTextStyleTableRecord
  2
Standard
 70
     0
 40
0.0
 41
1.0
 50
0.0
 71
     0
 42
0.2
  3
txt
  4

  0
STYLE
  5
C3
330
3
100
AcDbSymbolTableRecord
100
AcDbTextStyleTableRecord
  2
CONVERTER_11
 70
     0
 40
0.0
 41
0.9
 50
0.0
 71
     0
 42
0.2
  3
txt.shx
  4

  0
STYLE
  5
2CA
330
3
100
AcDbSymbolTableRecord
100
AcDbTextStyleTableRecord
  2
CONVERTER_12
 70
     0
 40
0.0
 41
0.81
 50
0.0
 71
     0
 42
0.2
  3
txt.shx
  4

  0
STYLE
  5
2D0
330
3
100
AcDbSymbolTableRecord
100
AcDbTextStyleTableRecord
  2
CONVERTER_13
 70
     0
 40
0.0
 41
0.855
 50
0.0
 71
     0
 42
0.2
  3
txt.shx
  4

  0
STYLE
  5
2D3
330
3
100
AcDbSymbolTableRecord
100
AcDbTextStyleTableRecord
  2
CONVERTER_14
 70
     0
 40
0.0
 41
0.72
 50
0.0
 71
     0
 42
0.2
  3
txt.shx
  4

  0
ENDTAB
  0
TABLE
  2
VIEW
  5
6
330
0
100
AcDbSymbolTable
 70
     0
  0
ENDTAB
  0
TABLE
  2
UCS
  5
7
330
0
100
AcDbSymbolTable
 70
     0
  0
ENDTAB
  0
TABLE
  2
APPID
  5
9
330
0
100
AcDbSymbolTable
 70
     1
  0
APPID
  5
12
330
9
100
AcDbSymbolTableRecord
100
AcDbRegAppTableRecord
  2
ACAD
 70
     0
  0
ENDTAB
  0
TABLE
  2
DIMSTYLE
  5
A
330
0
100
AcDbSymbolTable
 70
     5
100
AcDbDimStyleTable
  0
DIMSTYLE
105
27
330
A
100
AcDbSymbolTableRecord
100
AcDbDimStyleTableRecord
  2
Standard
 70
     0
178
     0
340
11
  0
DIMSTYLE
105
D8
102
{ACAD_REACTORS
330
D9
102
}
330
A
100
AcDbSymbolTableRecord
100
AcDbDimStyleTableRecord
  2
ME10_DIM_10
 70
     0
 41
1.75
 42
0.0
 44
0.75
 73
     0
 74
     0
 77
     1
 78
     8
140
1.75
147
0.75
172
     1
173
     1
174
     1
175
     1
176
     2
177
     2
178
     3
340
C3
  0
DIMSTYLE
105
1BB
102
{ACAD_REACTORS
330
1BC
102
}
330
A
100
AcDbSymbolTableRecord
100
AcDbDimStyleTableRecord
  2
ME10_DIM_11
 70
     0
 41
1.75
 42
0.0
 44
1.0
 73
     0
 74
     0
 77
     1
 78
     8
140
1.75
147
1.0
172
     1
173
     1
174
     1
175
     1
176
     2
177
     2
271
     0
178
     3
271
     0
340
C3
  0
DIMSTYLE
105
1C6
102
{ACAD_REACTORS
330
1C7
102
}
330
A
100
AcDbSymbolTableRecord
100
AcDbDimStyleTableRecord
  2
ME10_DIM_12
 70
     0
 41
1.75
 42
0.0
 44
0.75
 73
     0
 74
     0
 77
     1
 78
     8
140
1.75
147
0.75
172
     1
173
     1
174
     1
175
     1
176
     2
177
     2
271
     1
178
     3
271
     1
340
C3
  0
DIMSTYLE
105
1D1
102
{ACAD_REACTORS
330
1D2
102
}
330
A
100
AcDbSymbolTableRecord
100
AcDbDimStyleTableRecord
  2
ME10_DIM_13
 70
     0
 41
1.75
 42
0.0
 44
0.75
 73
     0
 74
     0
 77
     1
 78
     8
140
1.75
147
0.75
172
     1
173
     1
174
     1
175
     1
176
     2
177
     2
271
     1
178
     3
271
     1
340
C3
  0
ENDTAB
  0
TABLE
  2
BLOCK_RECORD
  5
1
330
0
100
AcDbSymbolTable
 70
    21
  0
BLOCK_RECORD
  5
1F
330
1
100
AcDbSymbolTableRecord
100
AcDbBlockTableRecord
  2
*Model_Space
340
22
  0
BLOCK_RECORD
  5
1B
330
1
100
AcDbSymbolTableRecord
100
AcDbBlockTableRecord
  2
*Paper_Space
340
1E
  0
BLOCK_RECORD
  5
23
330
1
100
AcDbSymbolTableRecord
100
AcDbBlockTableRecord
  2
*Paper_Space0
340
26
  0
BLOCK_RECORD
  5
47
330
1
100
AcDbSymbolTableRecord
100
AcDbBlockTableRecord
  2
KLM_3-select__1
340
0
102
{BLKREFS
331
4B
102
}
  0
BLOCK_RECORD
  5
4A
330
1
100
AcDbSymbolTableRecord
100
AcDbBlockTableRecord
  2
AllgSicht1
340
0
102
{BLKREFS
331
7D
102
}
  0
BLOCK_RECORD
  5
4E
330
1
100
AcDbSymbolTableRecord
100
AcDbBlockTableRecord
  2
KLM_3-select__2
340
0
102
{BLKREFS
331
52
102
}
  0
BLOCK_RECORD
  5
51
330
1
100
AcDbSymbolTableRecord
100
AcDbBlockTableRecord
  2
Drfsicht1
340
0
102
{BLKREFS
331
7E
102
}
  0
BLOCK_RECORD
  5
55
330
1
100
AcDbSymbolTableRecord
100
AcDbBlockTableRecord
  2
KLM_3-select__3
340
0
102
{BLKREFS
331
59
102
}
  0
BLOCK_RECORD
  5
58
330
1
100
AcDbSymbolTableRecord
100
AcDbBlockTableRecord
  2
Rckans1
340
0
102
{BLKREFS
331
7F
102
}
  0
BLOCK_RECORD
  5
5C
330
1
100
AcDbSymbolTableRecord
100
AcDbBlockTableRecord
  2
KLM_3-select__4
340
0
102
{BLKREFS
331
60
102
}
  0
BLOCK_RECORD
  5
5F
330
1
100
AcDbSymbolTableRecord
100
AcDbBlockTableRecord
  2
SA_Links1
340
0
102
{BLKREFS
331
80
102
}
  0
BLOCK_RECORD
  5
63
330
1
100
AcDbSymbolTableRecord
100
AcDbBlockTableRecord
  2
KLM_3-select__5
340
0
102
{BLKREFS
331
67
102
}
  0
BLOCK_RECORD
  5
66
330
1
100
AcDbSymbolTableRecord
100
AcDbBlockTableRecord
  2
SA_Rechts1
340
0
102
{BLKREFS
331
81
102
}
  0
BLOCK_RECORD
  5
6A
330
1
100
AcDbSymbolTableRecord
100
AcDbBlockTableRecord
  2
KLM_3-select__6
340
0
102
{BLKREFS
331
6E
102
}
  0
BLOCK_RECORD
  5
6D
330
1
100
AcDbSymbolTableRecord
100
AcDbBlockTableRecord
  2
Vordans1
340
0
102
{BLKREFS
331
82
102
}
  0
BLOCK_RECORD
  5
71
330
1
100
AcDbSymbolTableRecord
100
AcDbBlockTableRecord
  2
_rahmen
340
0
102
{BLKREFS
331
78
102
}
  0
BLOCK_RECORD
  5
74
330
1
100
AcDbSymbolTableRecord
100
AcDbBlockTableRecord
  2
_punkt
340
0
102
{BLKREFS
331
79
102
}
  0
BLOCK_RECORD
  5
77
330
1
100
AcDbSymbolTableRecord
100
AcDbBlockTableRecord
  2
A4I_CS
340
0
102
{BLKREFS
331
83
102
}
  0
BLOCK_RECORD
  5
7C
330
1
100
AcDbSymbolTableRecord
100
AcDbBlockTableRecord
  2
1
340
0
102
{BLKREFS
331
86
102
}
  0
BLOCK_RECORD
  5
CF
330
1
100
AcDbSymbolTableRecord
100
AcDbBlockTableRecord
  2
*D17
340
0
  0
BLOCK_RECORD
  5
1B2
330
1
100
AcDbSymbolTableRecord
100
AcDbBlockTableRecord
  2
*D18
340
0
  0
BLOCK_RECORD
  5
1BD
330
1
100
AcDbSymbolTableRecord
100
AcDbBlockTableRecord
  2
*D19
340
0
  0
BLOCK_RECORD
  5
1C8
330
1
100
AcDbSymbolTableRecord
100
AcDbBlockTableRecord
  2
*D20
340
0
  0
ENDTAB
  0
ENDSEC
  0
SECTION
  2
BLOCKS
  0
BLOCK
  5
20
330
1F
100
AcDbEntity
  8
0
100
AcDbBlockBegin
  2
*Model_Space
 70
     0
 10
0.0
 20
0.0
 30
0.0
  3
*Model_Space
  1

  0
ENDBLK
  5
21
330
1F
100
AcDbEntity
  8
0
100
AcDbBlockEnd
  0
BLOCK
  5
1C
330
1B
100
AcDbEntity
 67
     1
  8
0
100
AcDbBlockBegin
  2
*Paper_Space
 70
     0
 10
0.0
 20
0.0
 30
0.0
  3
*Paper_Space
  1

  0
ENDBLK
  5
1D
330
1B
100
AcDbEntity
 67
     1
  8
0
100
AcDbBlockEnd
  0
BLOCK
  5
24
330
23
100
AcDbEntity
  8
0
100
AcDbBlockBegin
  2
*Paper_Space0
 70
     0
 10
0.0
 20
0.0
 30
0.0
  3
*Paper_Space0
  1

  0
ENDBLK
  5
25
330
23
100
AcDbEntity
  8
0
100
AcDbBlockEnd
  0
BLOCK
  5
48
330
47
100
AcDbEntity
  8
0
100
AcDbBlockBegin
  2
KLM_3-select__1
 70
     0
 10
-25.85307538741567
 20
30.82694327930164
 30
0.0
  3
KLM_3-select__1
  1

  0
LINE
  5
87
330
47
100
AcDbEntity
  8
0
  6
Continuous
 62
     7
100
AcDbLine
 10
-24.60307538741567
 20
54.8932955033678
 30
0.0
 11
-24.60307538741567
 21
55.15310312450313
 31
0.0
  0
LINE
  5
88
330
47
100
AcDbEntity
  8
0
  6
Continuous
 62
     7
100
AcDbLine
 10
-24.60307538741567
 20
55.15310312450313
 30
0.0
 11
-24.08346014514501
 21
55.00310312450314
 31
0.0
  0
LINE
  5
89
330
47
100
AcDbEntity
  8
0
  6
Continuous
 62
     7
100
AcDbLine
 10
-21.58346014514501
 20
56.9083590128289
 30
0.0
 11
-21.58346014514501
 21
57.16816663396423
 31
0.0
  0
LINE
  5
8A
330
47
100
AcDbEntity
  8
0
  6
Continuous
 62
     7
100
AcDbLine
 10
-21.58346014514501
 20
57.16816663396423
 30
0.0
 11
-22.10307538741567
 21
57.31816663396424
 31
0.0
  0
LINE
  5
8B
330
47
100
AcDbEntity
  8
0
  6
Continuous
 62
     7
100
AcDbLine
 10
-20.85307538741569
 20
58.14089076755944
 30
0.0
 11
-21.87807538741568
 21
57.2532147286804
 31
0.0
  0
LINE
  5
8C
330
47
100
AcDbEntity
  8
0
  6
Continuous
 62
     7
100
AcDbLine
 10
-21.58346014514501
 20
57.16816663396423
 30
0.0
 11
-24.08346014514501
 21
55.00310312450314
 31
0.0
  0
LINE
  5
8D
330
47
100
AcDbEntity
  8
0
  6
Continuous
 62
     7
100
AcDbLine
 10
-24.60307538741567
 20
55.15310312450313
 30
0.0
 11
-22.10307538741567
 21
57.31816663396424
 31
0.0
  0
LINE
  5
8E
330
47
100
AcDbEntity
  8
0
  6
Continuous
 62
     7
100
AcDbLine
 10
-13.43338566398545
 20
40.73845317921244
 30
0.0
 11
-13.69684089938225
 21
33.36884437875351
 31
0.0
  0
LINE
  5
8F
330
47
100
AcDbEntity
  8
0
  6
Continuous
 62
     7
100
AcDbLine
 10
-12.58338566398545
 20
41.47457477242921
 30
0.0
 11
-13.43338566398545
 21
40.73845317921244
 31
0.0
  0
LINE
  5
90
330
47
100
AcDbEntity
  8
0
  6
Continuous
 62
     7
100
AcDbLine
 10
-17.61479208157645
 20
34.53846460400699
 30
0.0
 11
-17.792746192758
 21
41.85590722189433
 31
0.0
  0
LINE
  5
91
330
47
100
AcDbEntity
  8
0
  6
Continuous
 62
     7
100
AcDbLine
 10
-15.21944111359166
 20
40.63674405973107
 30
0.0
 11
-15.63599419521803
 21
32.49738110202455
 31
0.0
  0
LINE
  5
92
330
47
100
AcDbEntity
  8
0
  6
Continuous
 62
     7
100
AcDbLine
 10
-16.44926950895371
 20
32.73215346267984
 30
0.0
 11
-16.86582259057941
 21
41.11201345419504
 31
0.0
  0
LINE
  5
93
330
47
100
AcDbEntity
  8
0
  6
Continuous
 62
     7
100
AcDbLine
 10
-14.52662008536837
 20
40.43674385615865
 30
0.0
 11
-14.11412008536838
 21
40.79397933521971
 31
0.0
  0
LINE
  5
94
330
47
100
AcDbEntity
  8
0
  6
Continuous
 62
     7
100
AcDbLine
 10
-13.69684089938225
 20
33.36884437875351
 30
0.0
 11
-14.05498778638282
 21
33.20307722334359
 31
0.0
  0
LINE
  5
95
330
47
100
AcDbEntity
  8
0
  6
Continuous
 62
     7
100
AcDbLine
 10
-14.95561871219211
 20
32.30097361788703
 30
0.0
 11
-14.52662008536837
 21
40.43674385615865
 31
0.0
  0
LINE
  5
96
330
47
100
AcDbEntity
  8
0
  6
Continuous
 62
     7
100
AcDbLine
 10
-14.63308025824305
 20
30.95212795079386
 30
0.0
 11
-14.11412008536838
 21
40.79397933521971
 31
0.0
  0
LINE
  5
97
330
47
100
AcDbEntity
  8
0
  6
Continuous
 62
     7
100
AcDbLine
 10
-17.55864361880297
 20
41.31201365776752
 30
0.0
 11
-17.12964499197923
 21
32.92856094681724
 31
0.0
  0
LINE
  5
98
330
47
100
AcDbEntity
  8
0
  6
Continuous
 62
     7
100
AcDbLine
 10
-15.30490598288508
 20
42.46380688964735
 30
0.0
 11
-16.86582259057941
 21
41.11201345419504
 31
0.0
  0
LINE
  5
99
330
47
100
AcDbEntity
  8
0
  6
Continuous
 62
     7
100
AcDbLine
 10
-16.86582259057941
 20
41.11201345419504
 30
0.0
 11
-16.42776424047396
 21
50.22388538091143
 31
0.0
  0
LINE
  5
9A
330
47
100
AcDbEntity
  8
0
  6
Continuous
 62
     7
100
AcDbLine
 10
-17.12366692416465
 20
50.42477518179072
 30
0.0
 11
-17.55864361880297
 21
41.31201365776752
 31
0.0
  0
LINE
  5
9B
330
47
100
AcDbEntity
  8
0
  6
Continuous
 62
     7
100
AcDbLine
 10
-17.62585495034691
 20
50.56974437784078
 30
0.0
 11
-17.792746192758
 21
41.85590722189433
 31
0.0
  0
LINE
  5
9C
330
47
100
AcDbEntity
  8
0
  6
Continuous
 62
     7
100
AcDbLine
 10
-13.73842978783455
 20
49.44754139582527
 30
0.0
 11
-13.43338566398545
 21
40.73845317921244
 31
0.0
  0
LINE
  5
9D
330
47
100
AcDbEntity
  8
0
  6
Continuous
 62
     7
100
AcDbLine
 10
-14.11412008536838
 20
40.79397933521971
 30
0.0
 11
-14.52667005231057
 21
49.67508676026594
 31
0.0
  0
LINE
  5
9E
330
47
100
AcDbEntity
  8
0
  6
Continuous
 62
     7
100
AcDbLine
 10
-14.52662008536837
 20
40.43674385615865
 30
0.0
 11
-14.96159678000672
 21
49.8006392919225
 31
0.0
  0
LINE
  5
9F
330
47
100
AcDbEntity
  8
0
  6
Continuous
 62
     7
100
AcDbLine
 10
-15.65749946369734
 20
50.00152909280179
 30
0.0
 11
-15.21944111359166
 21
40.63674405973107
 31
0.0
  0
LINE
  5
A0
330
47
100
AcDbEntity
  8
0
  6
Continuous
 62
     7
100
AcDbLine
 10
-7.1469266656718
 20
47.54473834485281
 30
0.0
 11
-2.1469266656718
 21
51.874865363775
 31
0.0
  0
LINE
  5
A1
330
47
100
AcDbEntity
  8
0
  6
Continuous
 62
     7
100
AcDbLine
 10
-7.1469266656718
 20
48.41076374863725
 30
0.0
 11
-7.1469266656718
 21
47.54473834485281
 31
0.0
  0
LINE
  5
A2
330
47
100
AcDbEntity
  8
0
  6
Continuous
 62
     7
100
AcDbLine
 10
-24.60307538741567
 20
54.8932955033678
 30
0.0
 11
-24.08346014514501
 21
54.7432955033678
 31
0.0
  0
LINE
  5
A3
330
47
100
AcDbEntity
  8
0
  6
Continuous
 62
     7
100
AcDbLine
 10
-24.60307538741567
 20
54.8932955033678
 30
0.0
 11
-25.85307538741567
 21
53.81076374863725
 31
0.0
  0
LINE
  5
A4
330
47
100
AcDbEntity
  8
0
  6
Continuous
 62
     7
100
AcDbLine
 10
-25.85307538741567
 20
52.94473834485281
 30
0.0
 11
-25.85307538741567
 21
53.81076374863725
 31
0.0
  0
LINE
  5
A5
330
47
100
AcDbEntity
  8
0
  6
Continuous
 62
     7
100
AcDbLine
 10
-2.1469266656718
 20
52.74089076755945
 30
0.0
 11
-7.1469266656718
 21
48.41076374863725
 31
0.0
  0
LINE
  5
A6
330
47
100
AcDbEntity
  8
0
  6
Continuous
 62
     7
100
AcDbLine
 10
-7.1469266656718
 20
48.41076374863725
 30
0.0
 11
-25.85307538741567
 21
53.81076374863725
 31
0.0
  0
LINE
  5
A7
330
47
100
AcDbEntity
  8
0
  6
Continuous
 62
     7
100
AcDbLine
 10
-7.1469266656718
 20
47.54473834485281
 30
0.0
 11
-25.85307538741567
 21
52.94473834485281
 31
0.0
  0
LINE
  5
A8
330
47
100
AcDbEntity
  8
0
  6
Continuous
 62
     7
100
AcDbLine
 10
-13.22740603602976
 20
33.77538689583883
 30
0.0
 11
-13.52330117025392
 21
31.61325778082045
 31
0.0
  0
LINE
  5
A9
330
47
100
AcDbEntity
  8
0
  6
Continuous
 62
     7
100
AcDbLine
 10
-12.84684089938224
 20
34.10496597197028
 30
0.0
 11
-13.69684089938225
 21
33.36884437875351
 31
0.0
  0
LINE
  5
AA
330
47
100
AcDbEntity
  8
0
  6
Continuous
 62
     7
100
AcDbLine
 10
-24.08346014514501
 20
54.7432955033678
 30
0.0
 11
-24.08346014514501
 21
55.00310312450314
 31
0.0
  0
LINE
  5
AB
330
47
100
AcDbEntity
  8
0
  6
Continuous
 62
     7
100
AcDbLine
 10
-21.58346014514501
 20
56.9083590128289
 30
0.0
 11
-24.08346014514501
 21
54.7432955033678
 31
0.0
  0
LINE
  5
AC
330
47
100
AcDbEntity
  8
0
  6
Continuous
 62
     7
100
AcDbLine
 10
-2.1469266656718
 20
51.874865363775
 30
0.0
 11
-2.1469266656718
 21
52.74089076755945
 31
0.0
  0
LINE
  5
AD
330
47
100
AcDbEntity
  8
0
  6
Continuous
 62
     7
100
AcDbLine
 10
-15.63599419521803
 20
32.49738110202455
 30
0.0
 11
-14.95561871219211
 21
32.30097361788703
 31
0.0
  0
LINE
  5
AE
330
47
100
AcDbEntity
  8
0
  6
Continuous
 62
     7
100
AcDbLine
 10
-15.63599419521803
 20
32.49738110202455
 30
0.0
 11
-15.54743982074079
 21
31.77423401229039
 31
0.0
  0
LINE
  5
AF
330
47
100
AcDbEntity
  8
0
  6
Continuous
 62
     7
100
AcDbLine
 10
-15.63383418977693
 20
32.53958717143352
 30
0.0
 11
-16.27505087620194
 21
31.984277231659
 31
0.0
  0
LINE
  5
B0
330
47
100
AcDbEntity
  8
0
  6
Continuous
 62
     7
100
AcDbLine
 10
-16.27505087620194
 20
31.984277231659
 30
0.0
 11
-16.44926950895371
 21
32.73215346267984
 31
0.0
  0
LINE
  5
B1
330
47
100
AcDbEntity
  8
0
  6
Continuous
 62
     7
100
AcDbLine
 10
-15.54743982074079
 20
31.77423401229039
 30
0.0
 11
-15.85496443746568
 21
31.56419079292275
 31
0.0
  0
LINE
  5
B2
330
47
100
AcDbEntity
  8
0
  6
Continuous
 62
     7
100
AcDbLine
 10
-16.81372626061844
 20
31.58162622903322
 30
0.0
 11
-16.88696253391697
 21
31.6027677200849
 31
0.0
  0
LINE
  5
B3
330
47
100
AcDbEntity
  8
0
  6
Continuous
 62
     7
100
AcDbLine
 10
-15.85496443746568
 20
31.56419079292275
 30
0.0
 11
-16.27505087620194
 21
31.984277231659
 31
0.0
  0
LINE
  5
B4
330
47
100
AcDbEntity
  8
0
  6
Continuous
 62
     7
100
AcDbLine
 10
-15.55367098809654
 20
31.82511857407025
 30
0.0
 11
-15.85496443746568
 21
31.56419079292275
 31
0.0
  0
LINE
  5
B5
330
47
100
AcDbEntity
  8
0
  6
Continuous
 62
     7
100
AcDbLine
 10
-16.77173425349719
 20
31.40259128540263
 30
0.0
 11
-14.77763106581192
 21
30.82694327930164
 31
0.0
  0
LINE
  5
B6
330
47
100
AcDbEntity
  8
0
  6
Continuous
 62
     7
100
AcDbLine
 10
-17.12964499197923
 20
32.92856094681724
 30
0.0
 11
-16.44926950895371
 21
32.73215346267984
 31
0.0
  0
LINE
  5
B7
330
47
100
AcDbEntity
  8
0
  6
Continuous
 62
     7
100
AcDbLine
 10
-16.88696253391697
 20
31.6027677200849
 30
0.0
 11
-16.96735867957784
 21
32.23664544230438
 31
0.0
  0
LINE
  5
B8
330
47
100
AcDbEntity
  8
0
  6
Continuous
 62
     7
100
AcDbLine
 10
-17.18005205999211
 20
33.91361135155258
 30
0.0
 11
-17.20527591778807
 21
34.11248707368948
 31
0.0
  0
LINE
  5
B9
330
47
100
AcDbEntity
  8
0
  6
Continuous
 62
     7
100
AcDbLine
 10
-16.77173425349719
 20
31.40259128540263
 30
0.0
 11
-17.12964499197923
 21
32.92856094681724
 31
0.0
  0
LINE
  5
BA
330
47
100
AcDbEntity
  8
0
  6
Continuous
 62
     7
100
AcDbLine
 10
-17.20527591778807
 20
34.11248707368948
 30
0.0
 11
-17.61479208157645
 21
34.53846460400699
 31
0.0
  0
LINE
  5
BB
330
47
100
AcDbEntity
  8
0
  6
Continuous
 62
     7
100
AcDbLine
 10
-14.77763106581192
 20
30.82694327930164
 30
0.0
 11
-14.63308025824305
 21
30.95212795079386
 31
0.0
  0
LINE
  5
BC
330
47
100
AcDbEntity
  8
0
  6
Continuous
 62
     7
100
AcDbLine
 10
-14.37330117025392
 20
30.87713618760368
 30
0.0
 11
-14.63308025824305
 21
30.95212795079386
 31
0.0
  0
LINE
  5
BD
330
47
100
AcDbEntity
  8
0
  6
Continuous
 62
     7
100
AcDbLine
 10
-13.52330117025392
 20
31.61325778082045
 30
0.0
 11
-14.37330117025392
 21
30.87713618760368
 31
0.0
  0
LINE
  5
BE
330
47
100
AcDbEntity
  8
0
  6
Continuous
 62
     7
100
AcDbLine
 10
-14.95561871219211
 20
32.30097361788703
 30
0.0
 11
-14.77763106581192
 21
30.82694327930164
 31
0.0
  0
LINE
  5
BF
330
47
100
AcDbEntity
  8
0
  6
Continuous
 62
     7
100
AcDbLine
 10
-14.05498778638282
 20
33.20307722334359
 30
0.0
 11
-14.37330117025392
 21
30.87713618760368
 31
0.0
  0
LINE
  5
C0
330
47
100
AcDbEntity
  8
0
  6
Continuous
 62
     7
100
AcDbLine
 10
-12.85370082422983
 20
49.19214214317675
 30
0.0
 11
-12.58338566398545
 21
41.47457477242921
 31
0.0
  0
LINE
  5
C1
330
47
100
AcDbEntity
  8
0
  6
Continuous
 62
     7
100
AcDbLine
 10
-12.58338566398545
 20
41.47457477242921
 30
0.0
 11
-12.84684089938224
 21
34.10496597197028
 31
0.0
  0
LINE
  5
C2
330
47
100
AcDbEntity
  8
0
  6
Continuous
 62
     7
100
AcDbLine
 10
-20.85307538741569
 20
58.14089076755944
 30
0.0
 11
-2.1469266656718
 21
52.74089076755945
 31
0.0
  0
ENDBLK
  5
49
330
47
100
AcDbEntity
  8
0
100
AcDbBlockEnd
  0
BLOCK
  5
4C
330
4A
100
AcDbEntity
  8
0
100
AcDbBlockBegin
  2
AllgSicht1
 70
     0
 10
-13.99999999999997
 20
42.00000000001
 30
0.0
  3
AllgSicht1
  1

  0
INSERT
  5
4B
330
4A
100
AcDbEntity
  8
0
100
AcDbBlockReference
  2
KLM_3-select__1
 10
-25.85307538741567
 20
30.82694327930164
 30
0.0
  0
MTEXT
  5
C4
330
4A
100
AcDbEntity
  8
1
 62
     6
100
AcDbMText
 10
-14.00000102654376
 20
28.31965886650805
 30
0.0
 40
2.5
 41
0.0
 71
     2
 72
     1
  1
 
  7
CONVERTER_11
 73
     1
 44
1.32052821128451
  0
ENDBLK
  5
4D
330
4A
100
AcDbEntity
  8
0
100
AcDbBlockEnd
  0
BLOCK
  5
4F
330
4E
100
AcDbEntity
  8
0
100
AcDbBlockBegin
  2
KLM_3-select__2
 70
     0
 10
-77.70000063226001
 20
35.4898976207184
 30
0.0
  3
KLM_3-select__2
  1

  0
LINE
  5
C5
330
4E
100
AcDbEntity
  8
0
  6
Continuous
 62
     7
100
AcDbLine
 10
-77.70000063226001
 20
45.4898976207184
 30
0.0
 11
-77.70000063226001
 21
42.9898976207184
 31
0.0
  0
LINE
  5
C6
330
4E
100
AcDbEntity
  8
0
  6
Continuous
 62
     7
100
AcDbLine
 10
-77.10000063226002
 20
42.9898976207184
 30
0.0
 11
-77.10000063226002
 21
37.9898976207184
 31
0.0
  0
LINE
  5
C7
330
4E
100
AcDbEntity
  8
0
  6
Continuous
 62
     7
100
AcDbLine
 10
-77.10000063226002
 20
42.9898976207184
 30
0.0
 11
-77.70000063226001
 21
42.9898976207184
 31
0.0
  0
LINE
  5
C8
330
4E
100
AcDbEntity
  8
0
  6
Continuous
 62
     7
100
AcDbLine
 10
-77.70000063226001
 20
37.9898976207184
 30
0.0
 11
-77.70000063226001
 21
42.9898976207184
 31
0.0
  0
LINE
  5
C9
330
4E
100
AcDbEntity
  8
0
  6
Continuous
 62
     7
100
AcDbLine
 10
-56.10000063226001
 20
35.4898976207184
 30
0.0
 11
-77.70000063226001
 21
35.4898976207184
 31
0.0
  0
LINE
  5
CA
330
4E
100
AcDbEntity
  8
0
  6
Continuous
 62
     7
100
AcDbLine
 10
-77.70000063226001
 20
45.4898976207184
 30
0.0
 11
-56.10000063226001
 21
45.4898976207184
 31
0.0
  0
LINE
  5
CB
330
4E
100
AcDbEntity
  8
0
  6
Continuous
 62
     7
100
AcDbLine
 10
-77.70000063226001
 20
37.9898976207184
 30
0.0
 11
-77.70000063226001
 21
35.4898976207184
 31
0.0
  0
LINE
  5
CC
330
4E
100
AcDbEntity
  8
0
  6
Continuous
 62
     7
100
AcDbLine
 10
-77.70000063226001
 20
37.9898976207184
 30
0.0
 11
-77.10000063226002
 21
37.9898976207184
 31
0.0
  0
LINE
  5
CD
330
4E
100
AcDbEntity
  8
0
  6
Continuous
 62
     7
100
AcDbLine
 10
-56.10000063226001
 20
45.4898976207184
 30
0.0
 11
-56.10000063226001
 21
35.4898976207184
 31
0.0
  0
ENDBLK
  5
50
330
4E
100
AcDbEntity
  8
0
100
AcDbBlockEnd
  0
BLOCK
  5
53
330
51
100
AcDbEntity
  8
0
100
AcDbBlockBegin
  2
Drfsicht1
 70
     0
 10
-66.89999955824666
 20
40.48989781356025
 30
0.0
  3
Drfsicht1
  1

  0
INSERT
  5
52
330
51
100
AcDbEntity
  8
0
100
AcDbBlockReference
  2
KLM_3-select__2
 10
-77.70000063226001
 20
35.4898976207184
 30
0.0
  0
MTEXT
  5
CE
330
51
100
AcDbEntity
  8
1
 62
     6
100
AcDbMText
 10
-66.90000063225997
 20
32.98989762071844
 30
0.0
 40
2.5
 41
0.0
 71
     2
 72
     1
  1
 
  7
CONVERTER_11
 73
     1
 44
1.32052821128451
  0
DIMENSION
  5
D9
330
51
100
AcDbEntity
  8
1
100
AcDbDimension
  2
*D17
 10
-88.30171461424801
 20
45.48989762071839
 30
0.0
 11
-89.92671461424801
 21
40.39408682554935
 31
0.0
 70
    32
  1
<>
 71
     5
 42
-1.0
 53
90.0
  3
ME10_DIM_10
100
AcDbAlignedDimension
 13
-77.70000063226001
 23
35.4898976207184
 33
0.0
 14
-77.70000063226001
 24
45.4898976207184
 34
0.0
 50
90.0
100
AcDbRotatedDimension
  0
ENDBLK
  5
54
330
51
100
AcDbEntity
  8
0
100
AcDbBlockEnd
  0
BLOCK
  5
56
330
55
100
AcDbEntity
  8
0
100
AcDbBlockBegin
  2
KLM_3-select__3
 70
     0
 10
-19.39999936774004
 20
62.00120382785843
 30
0.0
  3
KLM_3-select__3
  1

  0
LINE
  5
DA
330
55
100
AcDbEntity
  8
0
  6
Continuous
 62
     7
100
AcDbLine
 10
1.60000063225997
 20
89.02020359198605
 30
0.0
 11
1.60000063225997
 21
89.32020359198604
 31
0.0
  0
LINE
  5
DB
330
55
100
AcDbEntity
  8
0
  6
Continuous
 62
     7
100
AcDbLine
 10
2.20000063225996
 20
89.02020359198605
 30
0.0
 11
2.20000063225996
 21
89.32020359198604
 31
0.0
  0
LINE
  5
DC
330
55
100
AcDbEntity
  8
0
  6
Continuous
 62
     7
100
AcDbLine
 10
-4.59999936774003
 20
85.6778642161216
 30
0.0
 11
-4.59999936774003
 21
85.20155024404018
 31
0.0
  0
LINE
  5
DD
330
55
100
AcDbEntity
  8
0
  6
Continuous
 62
     7
100
AcDbLine
 10
-4.59999936774003
 20
85.20155024404018
 30
0.0
 11
-3.54997393795393
 21
85.20155024404018
 31
0.0
  0
LINE
  5
DE
330
55
100
AcDbEntity
  8
0
  6
Continuous
 62
     7
100
AcDbLine
 10
-7.04999978500229
 20
85.20155024404018
 30
0.0
 11
-7.95466484541824
 21
85.20155024404018
 31
0.0
  0
LINE
  5
DF
330
55
100
AcDbEntity
  8
0
  6
Continuous
 62
     7
100
AcDbLine
 10
-6.24999978500239
 20
84.62180825078049
 30
0.0
 11
-5.39999978500236
 21
84.6218082507805
 31
0.0
  0
LINE
  5
E0
330
55
100
AcDbEntity
  8
0
  6
Continuous
 62
     7
100
AcDbLine
 10
-3.5592013468742
 20
85.68600161285188
 30
0.0
 11
-3.54997393795393
 21
85.20155024404018
 31
0.0
  0
LINE
  5
E1
330
55
100
AcDbEntity
  8
0
  6
Continuous
 62
     7
100
AcDbLine
 10
-7.94315582723458
 20
85.5268133068117
 30
0.0
 11
-7.95466484541824
 21
85.20155024404018
 31
0.0
  0
LINE
  5
E2
330
55
100
AcDbEntity
  8
0
  6
Continuous
 62
     7
100
AcDbLine
 10
1.60000063225997
 20
89.32020359198604
 30
0.0
 11
2.20000063225996
 21
89.32020359198604
 31
0.0
  0
LINE
  5
E3
330
55
100
AcDbEntity
  8
0
  6
Continuous
 62
     7
100
AcDbLine
 10
-6.97629579720434
 20
62.00120382785843
 30
0.0
 11
-7.08017444286278
 21
64.00120382785845
 31
0.0
  0
LINE
  5
E4
330
55
100
AcDbEntity
  8
0
  6
Continuous
 62
     7
100
AcDbLine
 10
-7.27626284996504
 20
62.00120382785843
 30
0.0
 11
-6.97629579720434
 21
62.00120382785843
 31
0.0
  0
LINE
  5
E5
330
55
100
AcDbEntity
  8
0
  6
Continuous
 62
     7
100
AcDbLine
 10
-6.77553857393023
 20
73.53858164439512
 30
0.0
 11
-6.29454450631273
 21
64.00120382785845
 31
0.0
  0
LINE
  5
E6
330
55
100
AcDbEntity
  8
0
  6
Continuous
 62
     7
100
AcDbLine
 10
-8.36158379108426
 20
73.70137703595368
 30
0.0
 11
-8.05737188893276
 21
65.10386737462036
 31
0.0
  0
LINE
  5
E7
330
55
100
AcDbEntity
  8
0
  6
Continuous
 62
     7
100
AcDbLine
 10
-3.53331154950947
 20
65.14844475102176
 30
0.0
 11
-3.32782784152131
 21
73.538581644396
 31
0.0
  0
LINE
  5
E8
330
55
100
AcDbEntity
  8
0
  6
Continuous
 62
     7
100
AcDbLine
 10
-7.95466484541824
 20
85.20155024404018
 30
0.0
 11
-8.36158379108426
 21
73.70137703595368
 31
0.0
  0
LINE
  5
E9
330
55
100
AcDbEntity
  8
0
  6
Continuous
 62
     7
100
AcDbLine
 10
-7.91883637543445
 20
86.21411949151015
 30
0.0
 11
-7.94315582723458
 21
85.5268133068117
 31
0.0
  0
LINE
  5
EA
330
55
100
AcDbEntity
  8
0
  6
Continuous
 62
     7
100
AcDbLine
 10
-7.85493039552859
 20
88.02020359198603
 30
0.0
 11
-7.91883637543445
 21
86.21411949151015
 31
0.0
  0
LINE
  5
EB
330
55
100
AcDbEntity
  8
0
  6
Continuous
 62
     7
100
AcDbLine
 10
-3.56926047754901
 20
86.21411949151015
 30
0.0
 11
-7.91883637543445
 21
86.21411949151015
 31
0.0
  0
LINE
  5
EC
330
55
100
AcDbEntity
  8
0
  6
Continuous
 62
     7
100
AcDbLine
 10
1.60000063225997
 20
89.02020359198605
 30
0.0
 11
-19.39999936774004
 21
89.02020359198605
 31
0.0
  0
LINE
  5
ED
330
55
100
AcDbEntity
  8
0
  6
Continuous
 62
     7
100
AcDbLine
 10
-7.85493039552859
 20
88.02020359198603
 30
0.0
 11
-14.79368933363855
 21
88.02020359198603
 31
0.0
  0
LINE
  5
EE
330
55
100
AcDbEntity
  8
0
  6
Continuous
 62
     7
100
AcDbLine
 10
-14.79368933363855
 20
88.02020359198603
 30
0.0
 11
-19.39999936774004
 21
88.02020359198603
 31
0.0
  0
LINE
  5
EF
330
55
100
AcDbEntity
  8
0
  6
Continuous
 62
     7
100
AcDbLine
 10
-19.39999936774004
 20
88.02020359198603
 30
0.0
 11
-19.39999936774004
 21
89.02020359198605
 31
0.0
  0
LINE
  5
F0
330
55
100
AcDbEntity
  8
0
  6
Continuous
 62
     7
100
AcDbLine
 10
2.20000063225996
 20
89.02020359198605
 30
0.0
 11
1.60000063225997
 21
89.02020359198605
 31
0.0
  0
LINE
  5
F1
330
55
100
AcDbEntity
  8
0
  6
Continuous
 62
     7
100
AcDbLine
 10
2.20000063225996
 20
89.02020359198605
 30
0.0
 11
2.20000063225996
 21
88.02020359198603
 31
0.0
  0
LINE
  5
F2
330
55
100
AcDbEntity
  8
0
  6
Continuous
 62
     7
100
AcDbLine
 10
-1.22499936774002
 20
88.02020359198603
 30
0.0
 11
-3.60366119888524
 21
88.02020359198605
 31
0.0
  0
LINE
  5
F3
330
55
100
AcDbEntity
  8
0
  6
Continuous
 62
     7
100
AcDbLine
 10
-4.59999936774003
 20
85.6778642161216
 30
0.0
 11
-7.04999978500229
 21
85.6778642161216
 31
0.0
  0
LINE
  5
F4
330
55
100
AcDbEntity
  8
0
  6
Continuous
 62
     7
100
AcDbLine
 10
-3.60366119888524
 20
88.02020359198605
 30
0.0
 11
-3.56926047754901
 21
86.21411949151015
 31
0.0
  0
LINE
  5
F5
330
55
100
AcDbEntity
  8
0
  6
Continuous
 62
     7
100
AcDbLine
 10
2.20000063225996
 20
88.02020359198603
 30
0.0
 11
-1.22499936774002
 21
88.02020359198603
 31
0.0
  0
LINE
  5
F6
330
55
100
AcDbEntity
  8
0
  6
Continuous
 62
     7
100
AcDbLine
 10
-3.56926047754901
 20
86.21411949151015
 30
0.0
 11
-3.5592013468742
 21
85.68600161285188
 31
0.0
  0
LINE
  5
F7
330
55
100
AcDbEntity
  8
0
  6
Continuous
 62
     7
100
AcDbLine
 10
-3.5592013468742
 20
85.68600161285188
 30
0.0
 11
-1.22499936774002
 21
88.02020359198603
 31
0.0
  0
LINE
  5
F8
330
55
100
AcDbEntity
  8
0
  6
Continuous
 62
     7
100
AcDbLine
 10
-7.04999978500229
 20
85.20155024404018
 30
0.0
 11
-7.04999978500229
 21
84.70034627124663
 31
0.0
  0
LINE
  5
F9
330
55
100
AcDbEntity
  8
0
  6
Continuous
 62
     7
100
AcDbLine
 10
-7.57553938822009
 20
73.53858164439507
 30
0.0
 11
-7.04999978500229
 21
84.70034627124663
 31
0.0
  0
LINE
  5
FA
330
55
100
AcDbEntity
  8
0
  6
Continuous
 62
     7
100
AcDbLine
 10
-7.64381948569434
 20
64.79307365535608
 30
0.0
 11
-7.27626284996504
 21
62.00120382785843
 31
0.0
  0
LINE
  5
FB
330
55
100
AcDbEntity
  8
0
  6
Continuous
 62
     7
100
AcDbLine
 10
-7.08017444286278
 20
64.00120382785845
 30
0.0
 11
-7.57553938822009
 21
73.53858164439507
 31
0.0
  0
LINE
  5
FC
330
55
100
AcDbEntity
  8
0
  6
Continuous
 62
     7
100
AcDbLine
 10
-6.24508622373785
 20
63.02052161402127
 30
0.0
 11
-6.29454450631273
 21
64.00120382785845
 31
0.0
  0
LINE
  5
FD
330
55
100
AcDbEntity
  8
0
  6
Continuous
 62
     7
100
AcDbLine
 10
-5.82499978500257
 20
62.60043517528598
 30
0.0
 11
-6.24508622373785
 21
63.02052161402127
 31
0.0
  0
LINE
  5
FE
330
55
100
AcDbEntity
  8
0
  6
Continuous
 62
     7
100
AcDbLine
 10
-5.40491334626633
 20
63.02052161402223
 30
0.0
 11
-5.82499978500257
 21
62.60043517528598
 31
0.0
  0
LINE
  5
FF
330
55
100
AcDbEntity
  8
0
  6
Continuous
 62
     7
100
AcDbLine
 10
-5.35545506369156
 20
64.00120382785845
 30
0.0
 11
-5.40491334626633
 21
63.02052161402223
 31
0.0
  0
LINE
  5
100
330
55
100
AcDbEntity
  8
0
  6
Continuous
 62
     7
100
AcDbLine
 10
-8.05737188893276
 20
65.10386737462036
 30
0.0
 11
-7.64381948569434
 21
64.79307365535608
 31
0.0
  0
LINE
  5
101
330
55
100
AcDbEntity
  8
0
  6
Continuous
 62
     7
100
AcDbLine
 10
-6.29454450631273
 20
64.00120382785845
 30
0.0
 11
-7.08017444286278
 21
64.00120382785845
 31
0.0
  0
LINE
  5
102
330
55
100
AcDbEntity
  8
0
  6
Continuous
 62
     7
100
AcDbLine
 10
-4.56982512714195
 20
64.00120382785845
 30
0.0
 11
-5.35545506369156
 21
64.00120382785845
 31
0.0
  0
LINE
  5
103
330
55
100
AcDbEntity
  8
0
  6
Continuous
 62
     7
100
AcDbLine
 10
-4.56982512714195
 20
64.00120382785845
 30
0.0
 11
-4.67370377280038
 21
62.00120382785844
 31
0.0
  0
LINE
  5
104
330
55
100
AcDbEntity
  8
0
  6
Continuous
 62
     7
100
AcDbLine
 10
-6.97629579720434
 20
62.00120382785843
 30
0.0
 11
-4.67370377280038
 21
62.00120382785844
 31
0.0
  0
LINE
  5
105
330
55
100
AcDbEntity
  8
0
  6
Continuous
 62
     7
100
AcDbLine
 10
-4.67370377280038
 20
62.00120382785844
 30
0.0
 11
-4.37373672004014
 21
62.00120382785843
 31
0.0
  0
LINE
  5
106
330
55
100
AcDbEntity
  8
0
  6
Continuous
 62
     7
100
AcDbLine
 10
-4.37373672004014
 20
62.00120382785843
 30
0.0
 11
-4.00618008431086
 21
64.79307365535614
 31
0.0
  0
LINE
  5
107
330
55
100
AcDbEntity
  8
0
  6
Continuous
 62
     7
100
AcDbLine
 10
-4.00618008431086
 20
64.79307365535614
 30
0.0
 11
-3.53331154950947
 21
65.14844475102176
 31
0.0
  0
LINE
  5
108
330
55
100
AcDbEntity
  8
0
  6
Continuous
 62
     7
100
AcDbLine
 10
-4.07446018178464
 20
73.53858164439515
 30
0.0
 11
-4.56982512714195
 21
64.00120382785845
 31
0.0
  0
LINE
  5
109
330
55
100
AcDbEntity
  8
0
  6
Continuous
 62
     7
100
AcDbLine
 10
-4.59999936774003
 20
85.20155024404018
 30
0.0
 11
-4.59999936774004
 21
84.70033740914657
 31
0.0
  0
LINE
  5
10A
330
55
100
AcDbEntity
  8
0
  6
Continuous
 62
     7
100
AcDbLine
 10
-4.87446099607482
 20
73.5385816443951
 30
0.0
 11
-5.39999978500236
 21
84.6218082507805
 31
0.0
  0
LINE
  5
10B
330
55
100
AcDbEntity
  8
0
  6
Continuous
 62
     7
100
AcDbLine
 10
-5.35545506369156
 20
64.00120382785845
 30
0.0
 11
-4.87446099607482
 21
73.5385816443951
 31
0.0
  0
LINE
  5
10C
330
55
100
AcDbEntity
  8
0
  6
Continuous
 62
     7
100
AcDbLine
 10
-4.59999936774004
 20
84.70033740914657
 30
0.0
 11
-4.07446018178464
 21
73.53858164439515
 31
0.0
  0
LINE
  5
10D
330
55
100
AcDbEntity
  8
0
  6
Continuous
 62
     7
100
AcDbLine
 10
-3.32782784152131
 20
73.538581644396
 30
0.0
 11
-3.54997393795393
 21
85.20155024404018
 31
0.0
  0
LINE
  5
10E
330
55
100
AcDbEntity
  8
0
  6
Continuous
 62
     7
100
AcDbLine
 10
-7.04999978500229
 20
85.6778642161216
 30
0.0
 11
-7.04999978500229
 21
85.20155024404018
 31
0.0
  0
LINE
  5
10F
330
55
100
AcDbEntity
  8
0
  6
Continuous
 62
     7
100
AcDbLine
 10
-6.24999978500239
 20
84.62180825078049
 30
0.0
 11
-6.77553857393023
 21
73.53858164439512
 31
0.0
  0
LINE
  5
110
330
55
100
AcDbEntity
  8
0
  6
Continuous
 62
     7
100
AcDbLine
 10
-7.94315582723458
 20
85.5268133068117
 30
0.0
 11
-14.79368933363855
 21
88.02020359198603
 31
0.0
  0
ENDBLK
  5
57
330
55
100
AcDbEntity
  8
0
100
AcDbBlockEnd
  0
BLOCK
  5
5A
330
58
100
AcDbEntity
  8
0
100
AcDbBlockBegin
  2
Rckans1
 70
     0
 10
-8.60000044175339
 20
76.00000000002001
 30
0.0
  3
Rckans1
  1

  0
INSERT
  5
59
330
58
100
AcDbEntity
  8
0
100
AcDbBlockReference
  2
KLM_3-select__3
 10
-19.39999936774004
 20
62.00120382785843
 30
0.0
  0
MTEXT
  5
111
330
58
100
AcDbEntity
  8
1
 62
     6
100
AcDbMText
 10
-8.59999936774004
 20
59.50120382785849
 30
0.0
 40
2.5
 41
0.0
 71
     2
 72
     1
  1
 
  7
CONVERTER_11
 73
     1
 44
1.32052821128451
  0
ENDBLK
  5
5B
330
58
100
AcDbEntity
  8
0
100
AcDbBlockEnd
  0
BLOCK
  5
5D
330
5C
100
AcDbEntity
  8
0
100
AcDbBlockBegin
  2
KLM_3-select__4
 70
     0
 10
-38.49999980715815
 20
62.0012038278584
 30
0.0
  3
KLM_3-select__4
  1

  0
LINE
  5
112
330
5C
100
AcDbEntity
  8
0
  6
Continuous
 62
     7
100
AcDbLine
 10
-34.22117842435836
 20
84.7003462712515
 30
0.0
 11
-34.22117842435836
 21
85.8938074397613
 31
0.0
  0
LINE
  5
113
330
5C
100
AcDbEntity
  8
0
  6
Continuous
 62
     7
100
AcDbLine
 10
-30.99999980715815
 20
89.320203591986
 30
0.0
 11
-35.99999980715815
 21
89.320203591986
 31
0.0
  0
LINE
  5
114
330
5C
100
AcDbEntity
  8
0
  6
Continuous
 62
     7
100
AcDbLine
 10
-38.49999980715815
 20
89.020203591986
 30
0.0
 11
-35.99999980715815
 21
89.020203591986
 31
0.0
  0
LINE
  5
115
330
5C
100
AcDbEntity
  8
0
  6
Continuous
 62
     7
100
AcDbLine
 10
-35.99999980715815
 20
89.020203591986
 30
0.0
 11
-35.99999980715815
 21
89.320203591986
 31
0.0
  0
LINE
  5
116
330
5C
100
AcDbEntity
  8
0
  6
Continuous
 62
     7
100
AcDbLine
 10
-30.99999980715815
 20
89.020203591986
 30
0.0
 11
-30.99999980715815
 21
89.320203591986
 31
0.0
  0
LINE
  5
117
330
5C
100
AcDbEntity
  8
0
  6
Continuous
 62
     7
100
AcDbLine
 10
-38.49999980715815
 20
88.020203591986
 30
0.0
 11
-38.49999980715815
 21
86.2141194915101
 31
0.0
  0
LINE
  5
118
330
5C
100
AcDbEntity
  8
0
  6
Continuous
 62
     7
100
AcDbLine
 10
-37.57117842435836
 20
85.67786421612158
 30
0.0
 11
-37.57117842435836
 21
84.70033740914653
 31
0.0
  0
LINE
  5
119
330
5C
100
AcDbEntity
  8
0
  6
Continuous
 62
     7
100
AcDbLine
 10
-37.57117842435836
 20
85.67786421612158
 30
0.0
 11
-36.74617842435837
 21
85.20155024404013
 31
0.0
  0
LINE
  5
11A
330
5C
100
AcDbEntity
  8
0
  6
Continuous
 62
     7
100
AcDbLine
 10
-38.49999980715815
 20
89.020203591986
 30
0.0
 11
-38.49999980715815
 21
88.020203591986
 31
0.0
  0
LINE
  5
11B
330
5C
100
AcDbEntity
  8
0
  6
Continuous
 62
     7
100
AcDbLine
 10
-36.39617842435837
 20
88.020203591986
 30
0.0
 11
-38.49999980715815
 21
88.020203591986
 31
0.0
  0
LINE
  5
11C
330
5C
100
AcDbEntity
  8
0
  6
Continuous
 62
     7
100
AcDbLine
 10
-38.49999980715815
 20
86.2141194915101
 30
0.0
 11
-37.57117842435836
 21
85.67786421612158
 31
0.0
  0
LINE
  5
11D
330
5C
100
AcDbEntity
  8
0
  6
Continuous
 62
     7
100
AcDbLine
 10
-37.57117842435836
 20
84.70033740914653
 30
0.0
 11
-37.57117842435836
 21
73.53858164439508
 31
0.0
  0
LINE
  5
11E
330
5C
100
AcDbEntity
  8
0
  6
Continuous
 62
     7
100
AcDbLine
 10
-36.74617842435837
 20
84.70033740914647
 30
0.0
 11
-37.57117842435836
 21
84.70033740914653
 31
0.0
  0
LINE
  5
11F
330
5C
100
AcDbEntity
  8
0
  6
Continuous
 62
     7
100
AcDbLine
 10
-37.57117842435836
 20
73.53858164439508
 30
0.0
 11
-37.57117842435836
 21
64.00120382785842
 31
0.0
  0
LINE
  5
120
330
5C
100
AcDbEntity
  8
0
  6
Continuous
 62
     7
100
AcDbLine
 10
-36.74617842435837
 20
64.79307365535611
 30
0.0
 11
-36.74617842435837
 21
65.14844475102171
 31
0.0
  0
LINE
  5
121
330
5C
100
AcDbEntity
  8
0
  6
Continuous
 62
     7
100
AcDbLine
 10
-36.74617842435837
 20
62.0012038278584
 30
0.0
 11
-36.74617842435837
 21
64.79307365535611
 31
0.0
  0
LINE
  5
122
330
5C
100
AcDbEntity
  8
0
  6
Continuous
 62
     7
100
AcDbLine
 10
-36.74617842435837
 20
65.14844475102171
 30
0.0
 11
-36.74617842435837
 21
73.53858164439596
 31
0.0
  0
LINE
  5
123
330
5C
100
AcDbEntity
  8
0
  6
Continuous
 62
     7
100
AcDbLine
 10
-36.74617842435837
 20
84.70033740914647
 30
0.0
 11
-36.74617842435837
 21
85.20155024404013
 31
0.0
  0
LINE
  5
124
330
5C
100
AcDbEntity
  8
0
  6
Continuous
 62
     7
100
AcDbLine
 10
-36.74617842435837
 20
73.53858164439596
 30
0.0
 11
-36.74617842435837
 21
84.70033740914647
 31
0.0
  0
LINE
  5
125
330
5C
100
AcDbEntity
  8
0
  6
Continuous
 62
     7
100
AcDbLine
 10
-37.57117842435836
 20
73.53858164439508
 30
0.0
 11
-36.74617842435837
 21
73.53858164439596
 31
0.0
  0
LINE
  5
126
330
5C
100
AcDbEntity
  8
0
  6
Continuous
 62
     7
100
AcDbLine
 10
-34.22117842435836
 20
73.53858164439511
 30
0.0
 11
-35.04617842435839
 21
73.53858164439498
 31
0.0
  0
LINE
  5
127
330
5C
100
AcDbEntity
  8
0
  6
Continuous
 62
     7
100
AcDbLine
 10
-36.74617842435837
 20
73.53858164439596
 30
0.0
 11
-35.04617842435839
 21
73.53858164439498
 31
0.0
  0
LINE
  5
128
330
5C
100
AcDbEntity
  8
0
  6
Continuous
 62
     7
100
AcDbLine
 10
-30.99999980715815
 20
89.020203591986
 30
0.0
 11
-28.49999980715815
 21
89.020203591986
 31
0.0
  0
LINE
  5
129
330
5C
100
AcDbEntity
  8
0
  6
Continuous
 62
     7
100
AcDbLine
 10
-28.49999980715815
 20
88.020203591986
 30
0.0
 11
-28.49999980715815
 21
89.020203591986
 31
0.0
  0
LINE
  5
12A
330
5C
100
AcDbEntity
  8
0
  6
Continuous
 62
     7
100
AcDbLine
 10
-28.49999980715815
 20
88.020203591986
 30
0.0
 11
-31.68703817066609
 21
88.020203591986
 31
0.0
  0
LINE
  5
12B
330
5C
100
AcDbEntity
  8
0
  6
Continuous
 62
     7
100
AcDbLine
 10
-35.04617842435839
 20
88.020203591986
 30
0.0
 11
-35.39617842435837
 21
88.020203591986
 31
0.0
  0
LINE
  5
12C
330
5C
100
AcDbEntity
  8
0
  6
Continuous
 62
     7
100
AcDbLine
 10
-34.22117842435836
 20
84.7003462712515
 30
0.0
 11
-35.04617842435839
 21
84.70034627125153
 31
0.0
  0
LINE
  5
12D
330
5C
100
AcDbEntity
  8
0
  6
Continuous
 62
     7
100
AcDbLine
 10
-35.39617842435837
 20
88.020203591986
 30
0.0
 11
-35.39617842435837
 21
85.68600161285185
 31
0.0
  0
LINE
  5
12E
330
5C
100
AcDbEntity
  8
0
  6
Continuous
 62
     7
100
AcDbLine
 10
-36.39617842435837
 20
85.68600161285184
 30
0.0
 11
-35.39617842435837
 21
85.68600161285185
 31
0.0
  0
LINE
  5
12F
330
5C
100
AcDbEntity
  8
0
  6
Continuous
 62
     7
100
AcDbLine
 10
-36.39617842435837
 20
85.68600161285184
 30
0.0
 11
-36.39617842435837
 21
88.020203591986
 31
0.0
  0
LINE
  5
130
330
5C
100
AcDbEntity
  8
0
  6
Continuous
 62
     7
100
AcDbLine
 10
-35.39617842435837
 20
88.020203591986
 30
0.0
 11
-36.39617842435837
 21
88.020203591986
 31
0.0
  0
LINE
  5
131
330
5C
100
AcDbEntity
  8
0
  6
Continuous
 62
     7
100
AcDbLine
 10
-31.68703817066609
 20
88.020203591986
 30
0.0
 11
-35.04617842435839
 21
88.020203591986
 31
0.0
  0
LINE
  5
132
330
5C
100
AcDbEntity
  8
0
  6
Continuous
 62
     7
100
AcDbLine
 10
-34.22117842435836
 20
85.8938074397613
 30
0.0
 11
-35.04617842435839
 21
85.20155024404002
 31
0.0
  0
LINE
  5
133
330
5C
100
AcDbEntity
  8
0
  6
Continuous
 62
     7
100
AcDbLine
 10
-34.22117842435836
 20
84.7003462712515
 30
0.0
 11
-34.22117842435836
 21
73.53858164439511
 31
0.0
  0
LINE
  5
134
330
5C
100
AcDbEntity
  8
0
  6
Continuous
 62
     7
100
AcDbLine
 10
-35.04617842435839
 20
85.20155024404002
 30
0.0
 11
-35.04617842435839
 21
84.70034627125153
 31
0.0
  0
LINE
  5
135
330
5C
100
AcDbEntity
  8
0
  6
Continuous
 62
     7
100
AcDbLine
 10
-35.04617842435839
 20
88.020203591986
 30
0.0
 11
-35.04617842435839
 21
85.20155024404002
 31
0.0
  0
LINE
  5
136
330
5C
100
AcDbEntity
  8
0
  6
Continuous
 62
     7
100
AcDbLine
 10
-35.04617842435839
 20
84.70034627125153
 30
0.0
 11
-35.04617842435839
 21
73.53858164439498
 31
0.0
  0
LINE
  5
137
330
5C
100
AcDbEntity
  8
0
  6
Continuous
 62
     7
100
AcDbLine
 10
-36.74617842435837
 20
64.79307365535611
 30
0.0
 11
-35.04617842435839
 21
64.79307365535607
 31
0.0
  0
LINE
  5
138
330
5C
100
AcDbEntity
  8
0
  6
Continuous
 62
     7
100
AcDbLine
 10
-37.03528003949626
 20
62.00120382785841
 30
0.0
 11
-37.57117842435836
 21
64.00120382785842
 31
0.0
  0
LINE
  5
139
330
5C
100
AcDbEntity
  8
0
  6
Continuous
 62
     7
100
AcDbLine
 10
-36.74617842435837
 20
62.0012038278584
 30
0.0
 11
-35.04617842435839
 21
62.0012038278584
 31
0.0
  0
LINE
  5
13A
330
5C
100
AcDbEntity
  8
0
  6
Continuous
 62
     7
100
AcDbLine
 10
-37.03528003949626
 20
62.00120382785841
 30
0.0
 11
-36.74617842435837
 21
62.0012038278584
 31
0.0
  0
LINE
  5
13B
330
5C
100
AcDbEntity
  8
0
  6
Continuous
 62
     7
100
AcDbLine
 10
-36.74617842435837
 20
65.14844475102171
 30
0.0
 11
-35.04617842435839
 21
65.14844475102171
 31
0.0
  0
LINE
  5
13C
330
5C
100
AcDbEntity
  8
0
  6
Continuous
 62
     7
100
AcDbLine
 10
-34.7570768092206
 20
62.0012038278584
 30
0.0
 11
-34.22117842435836
 21
64.0012038278584
 31
0.0
  0
LINE
  5
13D
330
5C
100
AcDbEntity
  8
0
  6
Continuous
 62
     7
100
AcDbLine
 10
-35.04617842435839
 20
62.0012038278584
 30
0.0
 11
-34.7570768092206
 21
62.0012038278584
 31
0.0
  0
LINE
  5
13E
330
5C
100
AcDbEntity
  8
0
  6
Continuous
 62
     7
100
AcDbLine
 10
-35.04617842435839
 20
64.79307365535607
 30
0.0
 11
-35.04617842435839
 21
65.14844475102171
 31
0.0
  0
LINE
  5
13F
330
5C
100
AcDbEntity
  8
0
  6
Continuous
 62
     7
100
AcDbLine
 10
-35.04617842435839
 20
62.0012038278584
 30
0.0
 11
-35.04617842435839
 21
64.79307365535607
 31
0.0
  0
LINE
  5
140
330
5C
100
AcDbEntity
  8
0
  6
Continuous
 62
     7
100
AcDbLine
 10
-35.04617842435839
 20
65.14844475102171
 30
0.0
 11
-35.04617842435839
 21
73.53858164439498
 31
0.0
  0
LINE
  5
141
330
5C
100
AcDbEntity
  8
0
  6
Continuous
 62
     7
100
AcDbLine
 10
-34.22117842435836
 20
73.53858164439511
 30
0.0
 11
-34.22117842435836
 21
64.0012038278584
 31
0.0
  0
LINE
  5
142
330
5C
100
AcDbEntity
  8
0
  6
Continuous
 62
     7
100
AcDbLine
 10
-31.68703817066609
 20
88.020203591986
 30
0.0
 11
-34.22117842435836
 21
85.8938074397613
 31
0.0
  0
ENDBLK
  5
5E
330
5C
100
AcDbEntity
  8
0
100
AcDbBlockEnd
  0
BLOCK
  5
61
330
5F
100
AcDbEntity
  8
0
100
AcDbBlockBegin
  2
SA_Links1
 70
     0
 10
-33.5
 20
76.00000000001997
 30
0.0
  3
SA_Links1
  1

  0
INSERT
  5
60
330
5F
100
AcDbEntity
  8
0
100
AcDbBlockReference
  2
KLM_3-select__4
 10
-38.49999980715815
 20
62.0012038278584
 30
0.0
  0
MTEXT
  5
143
330
5F
100
AcDbEntity
  8
1
 62
     6
100
AcDbMText
 10
-33.49999980715815
 20
59.5012038278584
 30
0.0
 40
2.5
 41
0.0
 71
     2
 72
     1
  1
 
  7
CONVERTER_11
 73
     1
 44
1.32052821128451
  0
ENDBLK
  5
62
330
5F
100
AcDbEntity
  8
0
100
AcDbBlockEnd
  0
BLOCK
  5
64
330
63
100
AcDbEntity
  8
0
100
AcDbBlockBegin
  2
KLM_3-select__5
 70
     0
 10
-112.2999993093351
 20
62.0012038278584
 30
0.0
  3
KLM_3-select__5
  1

  0
LINE
  5
144
330
63
100
AcDbEntity
  8
0
  6
Continuous
 62
     7
100
AcDbLine
 10
-109.7999993093351
 20
89.020203591986
 30
0.0
 11
-109.7999993093351
 21
89.320203591986
 31
0.0
  0
LINE
  5
145
330
63
100
AcDbEntity
  8
0
  6
Continuous
 62
     7
100
AcDbLine
 10
-104.4038206921348
 20
85.52681330681168
 30
0.0
 11
-104.4038206921348
 21
88.020203591986
 31
0.0
  0
LINE
  5
146
330
63
100
AcDbEntity
  8
0
  6
Continuous
 62
     7
100
AcDbLine
 10
-104.7999993093351
 20
89.020203591986
 30
0.0
 11
-104.7999993093351
 21
89.320203591986
 31
0.0
  0
LINE
  5
147
330
63
100
AcDbEntity
  8
0
  6
Continuous
 62
     7
100
AcDbLine
 10
-104.7999993093351
 20
89.320203591986
 30
0.0
 11
-109.7999993093351
 21
89.320203591986
 31
0.0
  0
LINE
  5
148
330
63
100
AcDbEntity
  8
0
  6
Continuous
 62
     7
100
AcDbLine
 10
-104.0538206921348
 20
62.0012038278584
 30
0.0
 11
-103.7647190769969
 21
62.0012038278584
 31
0.0
  0
LINE
  5
149
330
63
100
AcDbEntity
  8
0
  6
Continuous
 62
     7
100
AcDbLine
 10
-104.0538206921348
 20
85.20155024404013
 30
0.0
 11
-104.0538206921348
 21
84.7003462712466
 31
0.0
  0
LINE
  5
14A
330
63
100
AcDbEntity
  8
0
  6
Continuous
 62
     7
100
AcDbLine
 10
-104.0538206921348
 20
84.7003462712466
 30
0.0
 11
-104.0538206921348
 21
73.70137703595364
 31
0.0
  0
LINE
  5
14B
330
63
100
AcDbEntity
  8
0
  6
Continuous
 62
     7
100
AcDbLine
 10
-104.0538206921348
 20
64.79307365535604
 30
0.0
 11
-104.0538206921348
 21
62.0012038278584
 31
0.0
  0
LINE
  5
14C
330
63
100
AcDbEntity
  8
0
  6
Continuous
 62
     7
100
AcDbLine
 10
-105.7538206921348
 20
73.70137703595364
 30
0.0
 11
-105.7538206921348
 21
73.53858164439507
 31
0.0
  0
LINE
  5
14D
330
63
100
AcDbEntity
  8
0
  6
Continuous
 62
     7
100
AcDbLine
 10
-106.0429223072726
 20
62.0012038278584
 30
0.0
 11
-105.7538206921348
 21
62.0012038278584
 31
0.0
  0
LINE
  5
14E
330
63
100
AcDbEntity
  8
0
  6
Continuous
 62
     7
100
AcDbLine
 10
-105.4038206921348
 20
86.03994357822486
 30
0.0
 11
-105.7538206921348
 21
86.03994357822488
 31
0.0
  0
LINE
  5
14F
330
63
100
AcDbEntity
  8
0
  6
Continuous
 62
     7
100
AcDbLine
 10
-105.7538206921348
 20
64.79307365535604
 30
0.0
 11
-105.7538206921348
 21
62.0012038278584
 31
0.0
  0
LINE
  5
150
330
63
100
AcDbEntity
  8
0
  6
Continuous
 62
     7
100
AcDbLine
 10
-104.0538206921348
 20
73.70137703595364
 30
0.0
 11
-104.0538206921348
 21
73.53858164439507
 31
0.0
  0
LINE
  5
151
330
63
100
AcDbEntity
  8
0
  6
Continuous
 62
     7
100
AcDbLine
 10
-103.2288206921348
 20
73.53858164439504
 30
0.0
 11
-103.2288206921348
 21
84.7003462712466
 31
0.0
  0
LINE
  5
152
330
63
100
AcDbEntity
  8
0
  6
Continuous
 62
     7
100
AcDbLine
 10
-103.2288206921348
 20
73.53858164439504
 30
0.0
 11
-104.0538206921348
 21
73.53858164439507
 31
0.0
  0
LINE
  5
153
330
63
100
AcDbEntity
  8
0
  6
Continuous
 62
     7
100
AcDbLine
 10
-106.5788206921348
 20
64.00120382785839
 30
0.0
 11
-106.0429223072726
 21
62.0012038278584
 31
0.0
  0
LINE
  5
154
330
63
100
AcDbEntity
  8
0
  6
Continuous
 62
     7
100
AcDbLine
 10
-106.5788206921348
 20
85.8938074397613
 30
0.0
 11
-105.7538206921348
 21
85.20155024404004
 31
0.0
  0
LINE
  5
155
330
63
100
AcDbEntity
  8
0
  6
Continuous
 62
     7
100
AcDbLine
 10
-106.5788206921348
 20
84.70034627124672
 30
0.0
 11
-106.5788206921348
 21
85.8938074397613
 31
0.0
  0
LINE
  5
156
330
63
100
AcDbEntity
  8
0
  6
Continuous
 62
     7
100
AcDbLine
 10
-105.7538206921348
 20
84.70034627124683
 30
0.0
 11
-106.5788206921348
 21
84.70034627124672
 31
0.0
  0
LINE
  5
157
330
63
100
AcDbEntity
  8
0
  6
Continuous
 62
     7
100
AcDbLine
 10
-106.5788206921348
 20
73.5385816443951
 30
0.0
 11
-106.5788206921348
 21
84.70034627124672
 31
0.0
  0
LINE
  5
158
330
63
100
AcDbEntity
  8
0
  6
Continuous
 62
     7
100
AcDbLine
 10
-106.5788206921348
 20
64.00120382785839
 30
0.0
 11
-106.5788206921348
 21
73.5385816443951
 31
0.0
  0
LINE
  5
159
330
63
100
AcDbEntity
  8
0
  6
Continuous
 62
     7
100
AcDbLine
 10
-105.7538206921348
 20
85.20155024404004
 30
0.0
 11
-105.7538206921348
 21
84.70034627124683
 31
0.0
  0
LINE
  5
15A
330
63
100
AcDbEntity
  8
0
  6
Continuous
 62
     7
100
AcDbLine
 10
-105.7538206921348
 20
86.03994357822488
 30
0.0
 11
-105.7538206921348
 21
85.20155024404004
 31
0.0
  0
LINE
  5
15B
330
63
100
AcDbEntity
  8
0
  6
Continuous
 62
     7
100
AcDbLine
 10
-105.7538206921348
 20
84.70034627124683
 30
0.0
 11
-105.7538206921348
 21
73.70137703595364
 31
0.0
  0
LINE
  5
15C
330
63
100
AcDbEntity
  8
0
  6
Continuous
 62
     7
100
AcDbLine
 10
-103.7647190769969
 20
62.0012038278584
 30
0.0
 11
-103.2288206921348
 21
64.00120382785842
 31
0.0
  0
LINE
  5
15D
330
63
100
AcDbEntity
  8
0
  6
Continuous
 62
     7
100
AcDbLine
 10
-103.2288206921348
 20
64.00120382785842
 30
0.0
 11
-103.2288206921348
 21
73.53858164439504
 31
0.0
  0
LINE
  5
15E
330
63
100
AcDbEntity
  8
0
  6
Continuous
 62
     7
100
AcDbLine
 10
-104.0538206921348
 20
62.0012038278584
 30
0.0
 11
-105.7538206921348
 21
62.0012038278584
 31
0.0
  0
LINE
  5
15F
330
63
100
AcDbEntity
  8
0
  6
Continuous
 62
     7
100
AcDbLine
 10
-103.2288206921348
 20
85.67786421612158
 30
0.0
 11
-104.0538206921348
 21
85.20155024404013
 31
0.0
  0
LINE
  5
160
330
63
100
AcDbEntity
  8
0
  6
Continuous
 62
     7
100
AcDbLine
 10
-103.2288206921348
 20
85.67786421612158
 30
0.0
 11
-103.2288206921348
 21
84.7003462712466
 31
0.0
  0
LINE
  5
161
330
63
100
AcDbEntity
  8
0
  6
Continuous
 62
     7
100
AcDbLine
 10
-105.4038206921348
 20
85.52681330681168
 30
0.0
 11
-104.4038206921348
 21
85.52681330681168
 31
0.0
  0
LINE
  5
162
330
63
100
AcDbEntity
  8
0
  6
Continuous
 62
     7
100
AcDbLine
 10
-103.2288206921348
 20
84.7003462712466
 30
0.0
 11
-104.0538206921348
 21
84.7003462712466
 31
0.0
  0
LINE
  5
163
330
63
100
AcDbEntity
  8
0
  6
Continuous
 62
     7
100
AcDbLine
 10
-102.2999993093351
 20
86.2141194915101
 30
0.0
 11
-103.2288206921348
 21
85.67786421612158
 31
0.0
  0
LINE
  5
164
330
63
100
AcDbEntity
  8
0
  6
Continuous
 62
     7
100
AcDbLine
 10
-105.4038206921348
 20
86.03994357822486
 30
0.0
 11
-105.4038206921348
 21
85.52681330681168
 31
0.0
  0
LINE
  5
165
330
63
100
AcDbEntity
  8
0
  6
Continuous
 62
     7
100
AcDbLine
 10
-105.4038206921348
 20
88.020203591986
 30
0.0
 11
-105.4038206921348
 21
86.03994357822486
 31
0.0
  0
LINE
  5
166
330
63
100
AcDbEntity
  8
0
  6
Continuous
 62
     7
100
AcDbLine
 10
-112.2999993093351
 20
89.020203591986
 30
0.0
 11
-112.2999993093351
 21
88.020203591986
 31
0.0
  0
LINE
  5
167
330
63
100
AcDbEntity
  8
0
  6
Continuous
 62
     7
100
AcDbLine
 10
-105.7538206921348
 20
65.10386737462032
 30
0.0
 11
-105.7538206921348
 21
64.79307365535604
 31
0.0
  0
LINE
  5
168
330
63
100
AcDbEntity
  8
0
  6
Continuous
 62
     7
100
AcDbLine
 10
-105.7538206921348
 20
73.53858164439507
 30
0.0
 11
-105.7538206921348
 21
65.10386737462032
 31
0.0
  0
LINE
  5
169
330
63
100
AcDbEntity
  8
0
  6
Continuous
 62
     7
100
AcDbLine
 10
-104.0538206921348
 20
65.10386737462034
 30
0.0
 11
-105.7538206921348
 21
65.10386737462032
 31
0.0
  0
LINE
  5
16A
330
63
100
AcDbEntity
  8
0
  6
Continuous
 62
     7
100
AcDbLine
 10
-104.0538206921348
 20
65.10386737462034
 30
0.0
 11
-104.0538206921348
 21
64.79307365535604
 31
0.0
  0
LINE
  5
16B
330
63
100
AcDbEntity
  8
0
  6
Continuous
 62
     7
100
AcDbLine
 10
-104.0538206921348
 20
64.79307365535604
 30
0.0
 11
-105.7538206921348
 21
64.79307365535604
 31
0.0
  0
LINE
  5
16C
330
63
100
AcDbEntity
  8
0
  6
Continuous
 62
     7
100
AcDbLine
 10
-106.5788206921348
 20
73.5385816443951
 30
0.0
 11
-105.7538206921348
 21
73.53858164439507
 31
0.0
  0
LINE
  5
16D
330
63
100
AcDbEntity
  8
0
  6
Continuous
 62
     7
100
AcDbLine
 10
-104.0538206921348
 20
73.70137703595364
 30
0.0
 11
-105.7538206921348
 21
73.70137703595364
 31
0.0
  0
LINE
  5
16E
330
63
100
AcDbEntity
  8
0
  6
Continuous
 62
     7
100
AcDbLine
 10
-104.0538206921348
 20
73.53858164439507
 30
0.0
 11
-104.0538206921348
 21
65.10386737462034
 31
0.0
  0
LINE
  5
16F
330
63
100
AcDbEntity
  8
0
  6
Continuous
 62
     7
100
AcDbLine
 10
-109.7999993093351
 20
89.020203591986
 30
0.0
 11
-112.2999993093351
 21
89.020203591986
 31
0.0
  0
LINE
  5
170
330
63
100
AcDbEntity
  8
0
  6
Continuous
 62
     7
100
AcDbLine
 10
-102.2999993093351
 20
89.020203591986
 30
0.0
 11
-104.7999993093351
 21
89.020203591986
 31
0.0
  0
LINE
  5
171
330
63
100
AcDbEntity
  8
0
  6
Continuous
 62
     7
100
AcDbLine
 10
-102.2999993093351
 20
88.020203591986
 30
0.0
 11
-102.2999993093351
 21
89.020203591986
 31
0.0
  0
LINE
  5
172
330
63
100
AcDbEntity
  8
0
  6
Continuous
 62
     7
100
AcDbLine
 10
-105.4038206921348
 20
88.020203591986
 30
0.0
 11
-104.4038206921348
 21
88.020203591986
 31
0.0
  0
LINE
  5
173
330
63
100
AcDbEntity
  8
0
  6
Continuous
 62
     7
100
AcDbLine
 10
-109.1129609458271
 20
88.02020359198599
 30
0.0
 11
-105.4038206921348
 21
88.020203591986
 31
0.0
  0
LINE
  5
174
330
63
100
AcDbEntity
  8
0
  6
Continuous
 62
     7
100
AcDbLine
 10
-112.2999993093351
 20
88.020203591986
 30
0.0
 11
-109.1129609458271
 21
88.02020359198599
 31
0.0
  0
LINE
  5
175
330
63
100
AcDbEntity
  8
0
  6
Continuous
 62
     7
100
AcDbLine
 10
-104.4038206921348
 20
88.020203591986
 30
0.0
 11
-102.2999993093351
 21
88.020203591986
 31
0.0
  0
LINE
  5
176
330
63
100
AcDbEntity
  8
0
  6
Continuous
 62
     7
100
AcDbLine
 10
-102.2999993093351
 20
88.020203591986
 30
0.0
 11
-102.2999993093351
 21
86.2141194915101
 31
0.0
  0
LINE
  5
177
330
63
100
AcDbEntity
  8
0
  6
Continuous
 62
     7
100
AcDbLine
 10
-104.7999993093351
 20
89.020203591986
 30
0.0
 11
-109.7999993093351
 21
89.020203591986
 31
0.0
  0
LINE
  5
178
330
63
100
AcDbEntity
  8
0
  6
Continuous
 62
     7
100
AcDbLine
 10
-109.1129609458271
 20
88.02020359198599
 30
0.0
 11
-106.5788206921348
 21
85.8938074397613
 31
0.0
  0
ENDBLK
  5
65
330
63
100
AcDbEntity
  8
0
100
AcDbBlockEnd
  0
BLOCK
  5
68
330
66
100
AcDbEntity
  8
0
100
AcDbBlockBegin
  2
SA_Rechts1
 70
     0
 10
-107.2999991164932
 20
76.00000000001997
 30
0.0
  3
SA_Rechts1
  1

  0
INSERT
  5
67
330
66
100
AcDbEntity
  8
0
100
AcDbBlockReference
  2
KLM_3-select__5
 10
-112.2999993093351
 20
62.0012038278584
 30
0.0
  0
MTEXT
  5
179
330
66
100
AcDbEntity
  8
1
 62
     6
100
AcDbMText
 10
-107.299999309335
 20
59.5012038278584
 30
0.0
 40
2.5
 41
0.0
 71
     2
 72
     1
  1
 
  7
CONVERTER_11
 73
     1
 44
1.32052821128451
  0
ENDBLK
  5
69
330
66
100
AcDbEntity
  8
0
100
AcDbBlockEnd
  0
BLOCK
  5
6B
330
6A
100
AcDbEntity
  8
0
100
AcDbBlockBegin
  2
KLM_3-select__6
 70
     0
 10
-83.20000063226001
 20
62.00120382785844
 30
0.0
  3
KLM_3-select__6
  1

  0
LINE
  5
17A
330
6A
100
AcDbEntity
  8
0
  6
Continuous
 62
     7
100
AcDbLine
 10
-83.20000063226001
 20
89.02020359198605
 30
0.0
 11
-83.20000063226001
 21
89.32020359198604
 31
0.0
  0
LINE
  5
17B
330
6A
100
AcDbEntity
  8
0
  6
Continuous
 62
     7
100
AcDbLine
 10
-82.60000063226002
 20
89.02020359198605
 30
0.0
 11
-82.60000063226002
 21
89.32020359198604
 31
0.0
  0
LINE
  5
17C
330
6A
100
AcDbEntity
  8
0
  6
Continuous
 62
     7
100
AcDbLine
 10
-73.07500063226001
 20
86.03994357822492
 30
0.0
 11
-73.07500063226001
 21
85.20155024404008
 31
0.0
  0
LINE
  5
17D
330
6A
100
AcDbEntity
  8
0
  6
Continuous
 62
     7
100
AcDbLine
 10
-73.07500063226001
 20
88.02020359198603
 30
0.0
 11
-73.07500063226001
 21
86.03994357822492
 31
0.0
  0
LINE
  5
17E
330
6A
100
AcDbEntity
  8
0
  6
Continuous
 62
     7
100
AcDbLine
 10
-73.07500063226001
 20
88.02020359198603
 30
0.0
 11
-77.27499979773481
 21
88.02020359198605
 31
0.0
  0
LINE
  5
17F
330
6A
100
AcDbEntity
  8
0
  6
Continuous
 62
     7
100
AcDbLine
 10
-83.20000063226001
 20
88.02020359198605
 30
0.0
 11
-83.20000063226001
 21
89.02020359198605
 31
0.0
  0
LINE
  5
180
330
6A
100
AcDbEntity
  8
0
  6
Continuous
 62
     7
100
AcDbLine
 10
-83.20000063226001
 20
89.32020359198604
 30
0.0
 11
-82.60000063226002
 21
89.32020359198604
 31
0.0
  0
LINE
  5
181
330
6A
100
AcDbEntity
  8
0
  6
Continuous
 62
     7
100
AcDbLine
 10
-73.91982555713727
 20
64.00120382785843
 30
0.0
 11
-74.02370420279571
 21
62.00120382785844
 31
0.0
  0
LINE
  5
182
330
6A
100
AcDbEntity
  8
0
  6
Continuous
 62
     7
100
AcDbLine
 10
-76.32629622719966
 20
62.00120382785844
 30
0.0
 11
-76.62626327995986
 21
62.00120382785844
 31
0.0
  0
LINE
  5
183
330
6A
100
AcDbEntity
  8
0
  6
Continuous
 62
     7
100
AcDbLine
 10
-73.723737150035
 20
62.00120382785844
 30
0.0
 11
-74.02370420279571
 21
62.00120382785844
 31
0.0
  0
LINE
  5
184
330
6A
100
AcDbEntity
  8
0
  6
Continuous
 62
     7
100
AcDbLine
 10
-76.32629622719966
 20
62.00120382785844
 30
0.0
 11
-74.02370420279571
 21
62.00120382785844
 31
0.0
  0
LINE
  5
185
330
6A
100
AcDbEntity
  8
0
  6
Continuous
 62
     7
100
AcDbLine
 10
-76.4301748728581
 20
64.00120382785845
 30
0.0
 11
-75.64454493630848
 21
64.00120382785845
 31
0.0
  0
LINE
  5
186
330
6A
100
AcDbEntity
  8
0
  6
Continuous
 62
     7
100
AcDbLine
 10
-76.32629622719966
 20
62.00120382785844
 30
0.0
 11
-76.4301748728581
 21
64.00120382785845
 31
0.0
  0
LINE
  5
187
330
6A
100
AcDbEntity
  8
0
  6
Continuous
 62
     7
100
AcDbLine
 10
-76.62626327995986
 20
62.00120382785844
 30
0.0
 11
-76.99381991568914
 21
64.79307365535611
 31
0.0
  0
LINE
  5
188
330
6A
100
AcDbEntity
  8
0
  6
Continuous
 62
     7
100
AcDbLine
 10
-82.60000063226002
 20
89.02020359198605
 30
0.0
 11
-83.20000063226001
 21
89.02020359198605
 31
0.0
  0
LINE
  5
189
330
6A
100
AcDbEntity
  8
0
  6
Continuous
 62
     7
100
AcDbLine
 10
-77.39633880111481
 20
88.02020359198605
 30
0.0
 11
-79.77500063226003
 21
88.02020359198605
 31
0.0
  0
LINE
  5
18A
330
6A
100
AcDbEntity
  8
0
  6
Continuous
 62
     7
100
AcDbLine
 10
-76.40000021499745
 20
85.89380743976135
 30
0.0
 11
-73.95000021499774
 21
85.89380743976135
 31
0.0
  0
LINE
  5
18B
330
6A
100
AcDbEntity
  8
0
  6
Continuous
 62
     7
100
AcDbLine
 10
-79.77500063226003
 20
88.02020359198605
 30
0.0
 11
-77.44079865312588
 21
85.6860016128519
 31
0.0
  0
LINE
  5
18C
330
6A
100
AcDbEntity
  8
0
  6
Continuous
 62
     7
100
AcDbLine
 10
-79.77500063226003
 20
88.02020359198605
 30
0.0
 11
-83.20000063226001
 21
88.02020359198605
 31
0.0
  0
LINE
  5
18D
330
6A
100
AcDbEntity
  8
0
  6
Continuous
 62
     7
100
AcDbLine
 10
-61.60000063226001
 20
89.02020359198605
 30
0.0
 11
-82.60000063226002
 21
89.02020359198605
 31
0.0
  0
LINE
  5
18E
330
6A
100
AcDbEntity
  8
0
  6
Continuous
 62
     7
100
AcDbLine
 10
-61.60000063226001
 20
88.02020359198605
 30
0.0
 11
-66.2063106663615
 21
88.02020359198605
 31
0.0
  0
LINE
  5
18F
330
6A
100
AcDbEntity
  8
0
  6
Continuous
 62
     7
100
AcDbLine
 10
-73.07500063226001
 20
86.03994357822492
 30
0.0
 11
-73.05684417276547
 21
85.52681330681172
 31
0.0
  0
LINE
  5
190
330
6A
100
AcDbEntity
  8
0
  6
Continuous
 62
     7
100
AcDbLine
 10
-66.2063106663615
 20
88.02020359198605
 30
0.0
 11
-73.07500063226001
 21
88.02020359198603
 31
0.0
  0
LINE
  5
191
330
6A
100
AcDbEntity
  8
0
  6
Continuous
 62
     7
100
AcDbLine
 10
-61.60000063226001
 20
89.02020359198605
 30
0.0
 11
-61.60000063226001
 21
88.02020359198605
 31
0.0
  0
LINE
  5
192
330
6A
100
AcDbEntity
  8
0
  6
Continuous
 62
     7
100
AcDbLine
 10
-73.95000021499774
 20
84.70034627124676
 30
0.0
 11
-73.95000021499774
 21
85.20155024404008
 31
0.0
  0
LINE
  5
193
330
6A
100
AcDbEntity
  8
0
  6
Continuous
 62
     7
100
AcDbLine
 10
-75.60000021499769
 20
84.6218082507805
 30
0.0
 11
-74.75000021499766
 21
84.62180825078049
 31
0.0
  0
LINE
  5
194
330
6A
100
AcDbEntity
  8
0
  6
Continuous
 62
     7
100
AcDbLine
 10
-73.95000021499774
 20
85.20155024404008
 30
0.0
 11
-73.07500063226001
 21
85.20155024404008
 31
0.0
  0
LINE
  5
195
330
6A
100
AcDbEntity
  8
0
  6
Continuous
 62
     7
100
AcDbLine
 10
-76.12553900392521
 20
73.53858164439522
 30
0.0
 11
-75.60000021499769
 21
84.6218082507805
 31
0.0
  0
LINE
  5
196
330
6A
100
AcDbEntity
  8
0
  6
Continuous
 62
     7
100
AcDbLine
 10
-75.17500021499747
 20
62.600435175286
 30
0.0
 11
-75.59508665373372
 21
63.02052161402224
 31
0.0
  0
LINE
  5
197
330
6A
100
AcDbEntity
  8
0
  6
Continuous
 62
     7
100
AcDbLine
 10
-74.7549137762622
 20
63.02052161402127
 30
0.0
 11
-75.17500021499747
 21
62.600435175286
 31
0.0
  0
LINE
  5
198
330
6A
100
AcDbEntity
  8
0
  6
Continuous
 62
     7
100
AcDbLine
 10
-74.70545549368732
 20
64.00120382785845
 30
0.0
 11
-74.7549137762622
 21
63.02052161402127
 31
0.0
  0
LINE
  5
199
330
6A
100
AcDbEntity
  8
0
  6
Continuous
 62
     7
100
AcDbLine
 10
-75.59508665373372
 20
63.02052161402224
 30
0.0
 11
-75.64454493630848
 21
64.00120382785845
 31
0.0
  0
LINE
  5
19A
330
6A
100
AcDbEntity
  8
0
  6
Continuous
 62
     7
100
AcDbLine
 10
-74.22446142606982
 20
73.53858164439508
 30
0.0
 11
-74.70545549368732
 21
64.00120382785845
 31
0.0
  0
LINE
  5
19B
330
6A
100
AcDbEntity
  8
0
  6
Continuous
 62
     7
100
AcDbLine
 10
-74.70545549368732
 20
64.00120382785845
 30
0.0
 11
-73.91982555713727
 21
64.00120382785843
 31
0.0
  0
LINE
  5
19C
330
6A
100
AcDbEntity
  8
0
  6
Continuous
 62
     7
100
AcDbLine
 10
-75.64454493630848
 20
64.00120382785845
 30
0.0
 11
-76.12553900392521
 21
73.53858164439522
 31
0.0
  0
LINE
  5
19D
330
6A
100
AcDbEntity
  8
0
  6
Continuous
 62
     7
100
AcDbLine
 10
-73.3561805143057
 20
64.79307365535608
 30
0.0
 11
-73.723737150035
 21
62.00120382785844
 31
0.0
  0
LINE
  5
19E
330
6A
100
AcDbEntity
  8
0
  6
Continuous
 62
     7
100
AcDbLine
 10
-73.91982555713727
 20
64.00120382785843
 30
0.0
 11
-73.42446061177993
 21
73.53858164439514
 31
0.0
  0
LINE
  5
19F
330
6A
100
AcDbEntity
  8
0
  6
Continuous
 62
     7
100
AcDbLine
 10
-72.63841620891579
 20
73.70137703595368
 30
0.0
 11
-72.94262811106731
 21
65.10386737462036
 31
0.0
  0
LINE
  5
1A0
330
6A
100
AcDbEntity
  8
0
  6
Continuous
 62
     7
100
AcDbLine
 10
-74.75000021499766
 20
84.62180825078049
 30
0.0
 11
-74.22446142606982
 21
73.53858164439508
 31
0.0
  0
LINE
  5
1A1
330
6A
100
AcDbEntity
  8
0
  6
Continuous
 62
     7
100
AcDbLine
 10
-73.05684417276547
 20
85.52681330681172
 30
0.0
 11
-72.63841620891579
 21
73.70137703595368
 31
0.0
  0
LINE
  5
1A2
330
6A
100
AcDbEntity
  8
0
  6
Continuous
 62
     7
100
AcDbLine
 10
-73.42446061177993
 20
73.53858164439514
 30
0.0
 11
-73.95000021499774
 21
84.70034627124676
 31
0.0
  0
LINE
  5
1A3
330
6A
100
AcDbEntity
  8
0
  6
Continuous
 62
     7
100
AcDbLine
 10
-73.95000021499774
 20
85.20155024404008
 30
0.0
 11
-73.95000021499774
 21
85.89380743976135
 31
0.0
  0
LINE
  5
1A4
330
6A
100
AcDbEntity
  8
0
  6
Continuous
 62
     7
100
AcDbLine
 10
-76.40000021499742
 20
85.20155024404006
 30
0.0
 11
-76.40000021499745
 21
85.89380743976135
 31
0.0
  0
LINE
  5
1A5
330
6A
100
AcDbEntity
  8
0
  6
Continuous
 62
     7
100
AcDbLine
 10
-77.27499979773481
 20
88.02020359198605
 30
0.0
 11
-77.39633880111481
 21
88.02020359198605
 31
0.0
  0
LINE
  5
1A6
330
6A
100
AcDbEntity
  8
0
  6
Continuous
 62
     7
100
AcDbLine
 10
-77.39633880111481
 20
88.02020359198605
 30
0.0
 11
-77.44079865312588
 21
85.6860016128519
 31
0.0
  0
LINE
  5
1A7
330
6A
100
AcDbEntity
  8
0
  6
Continuous
 62
     7
100
AcDbLine
 10
-76.40000021499742
 20
85.20155024404006
 30
0.0
 11
-77.27499979773482
 21
85.20155024404006
 31
0.0
  0
LINE
  5
1A8
330
6A
100
AcDbEntity
  8
0
  6
Continuous
 62
     7
100
AcDbLine
 10
-77.27499979773481
 20
88.02020359198605
 30
0.0
 11
-77.27499979773482
 21
85.20155024404006
 31
0.0
  0
LINE
  5
1A9
330
6A
100
AcDbEntity
  8
0
  6
Continuous
 62
     7
100
AcDbLine
 10
-77.44079865312588
 20
85.6860016128519
 30
0.0
 11
-77.67217215847872
 21
73.53858164439502
 31
0.0
  0
LINE
  5
1AA
330
6A
100
AcDbEntity
  8
0
  6
Continuous
 62
     7
100
AcDbLine
 10
-77.46668845049058
 20
65.14844475102176
 30
0.0
 11
-77.67217215847872
 21
73.53858164439502
 31
0.0
  0
LINE
  5
1AB
330
6A
100
AcDbEntity
  8
0
  6
Continuous
 62
     7
100
AcDbLine
 10
-76.4000002149974
 20
84.70034627125155
 30
0.0
 11
-76.92553981821541
 21
73.53858164439515
 31
0.0
  0
LINE
  5
1AC
330
6A
100
AcDbEntity
  8
0
  6
Continuous
 62
     7
100
AcDbLine
 10
-76.92553981821541
 20
73.53858164439515
 30
0.0
 11
-76.4301748728581
 21
64.00120382785845
 31
0.0
  0
LINE
  5
1AD
330
6A
100
AcDbEntity
  8
0
  6
Continuous
 62
     7
100
AcDbLine
 10
-76.4000002149974
 20
84.70034627125155
 30
0.0
 11
-76.40000021499742
 21
85.20155024404006
 31
0.0
  0
LINE
  5
1AE
330
6A
100
AcDbEntity
  8
0
  6
Continuous
 62
     7
100
AcDbLine
 10
-72.94262811106731
 20
65.10386737462036
 30
0.0
 11
-73.3561805143057
 21
64.79307365535608
 31
0.0
  0
LINE
  5
1AF
330
6A
100
AcDbEntity
  8
0
  6
Continuous
 62
     7
100
AcDbLine
 10
-76.99381991568914
 20
64.79307365535611
 30
0.0
 11
-77.46668845049058
 21
65.14844475102176
 31
0.0
  0
LINE
  5
1B0
330
6A
100
AcDbEntity
  8
0
  6
Continuous
 62
     7
100
AcDbLine
 10
-66.2063106663615
 20
88.02020359198605
 30
0.0
 11
-73.05684417276547
 21
85.52681330681172
 31
0.0
  0
ENDBLK
  5
6C
330
6A
100
AcDbEntity
  8
0
100
AcDbBlockEnd
  0
BLOCK
  5
6F
330
6D
100
AcDbEntity
  8
0
100
AcDbBlockBegin
  2
Vordans1
 70
     0
 10
-72.39999955824666
 20
76.00000000002001
 30
0.0
  3
Vordans1
  1

  0
INSERT
  5
6E
330
6D
100
AcDbEntity
  8
0
100
AcDbBlockReference
  2
KLM_3-select__6
 10
-83.20000063226001
 20
62.00120382785844
 30
0.0
  0
MTEXT
  5
1B1
330
6D
100
AcDbEntity
  8
1
 62
     6
100
AcDbMText
 10
-66.875857623254
 20
59.50120382785838
 30
0.0
 40
2.5
 41
0.0
 71
     2
 72
     1
  1
 
  7
CONVERTER_11
 73
     1
 44
1.32052821128451
  0
DIMENSION
  5
1BC
330
6D
100
AcDbEntity
  8
1
100
AcDbDimension
  2
*D18
 10
-83.20000063225999
 20
94.02020359198605
 30
0.0
 11
-71.17349069107001
 21
95.89520359198605
 31
0.0
 70
    33
  1
<>
 71
     5
 42
-1.0
 53
0.00013888888889
  3
ME10_DIM_11
100
AcDbAlignedDimension
 13
-61.60000063226001
 23
89.02020359198605
 33
0.0
 14
-83.20000063226001
 24
89.02020359198605
 34
0.0
  0
DIMENSION
  5
1C7
330
6D
100
AcDbEntity
  8
1
100
AcDbDimension
  2
*D19
 10
-88.30171461424801
 20
89.02020359198605
 30
0.0
 11
-89.92671461424801
 21
75.81539855588801
 31
0.0
 70
    32
  1
<>
 71
     5
 42
-1.0
 53
90.0
  3
ME10_DIM_12
100
AcDbAlignedDimension
 13
-74.02370420279571
 23
62.00120382785844
 33
0.0
 14
-61.60000063226001
 24
89.02020359198605
 34
0.0
 50
90.0
100
AcDbRotatedDimension
  0
DIMENSION
  5
1D2
330
6D
100
AcDbEntity
  8
1
100
AcDbDimension
  2
*D20
 10
-92.30171461424801
 20
89.32020359198604
 30
0.0
 11
-94.01421461424802
 21
75.798362940146
 31
0.0
 70
    32
  1
<>
 71
     5
 42
-1.0
 53
90.0
  3
ME10_DIM_13
100
AcDbAlignedDimension
 13
-74.02370420279571
 23
62.00120382785844
 33
0.0
 14
-82.60000063226002
 24
89.32020359198604
 34
0.0
 50
90.0
100
AcDbRotatedDimension
  0
ENDBLK
  5
70
330
6D
100
AcDbEntity
  8
0
100
AcDbBlockEnd
  0
BLOCK
  5
72
330
71
100
AcDbEntity
  8
0
100
AcDbBlockBegin
  2
_rahmen
 70
     0
 10
39.12653751249663
 20
17.6896563039619
 30
0.0
  3
_rahmen
  1

  0
LINE
  5
1D3
330
71
100
AcDbEntity
  8
1
  6
DOT_CENTER
 62
     2
100
AcDbLine
 10
-86.43161212769078
 20
43.81465630396193
 30
0.0
 11
-80.93161212769078
 21
43.81465630396193
 31
0.0
  0
LINE
  5
1D4
330
71
100
AcDbEntity
  8
1
  6
PHANTOM
 62
     2
100
AcDbLine
 10
-77.68161212769078
 20
46.56465630396193
 30
0.0
 11
-77.68161212769078
 21
41.06465630396193
 31
0.0
  0
LINE
  5
1D5
330
71
100
AcDbEntity
  8
1
  6
PHANTOM
 62
     2
100
AcDbLine
 10
-74.93161212769078
 20
43.81465630396193
 30
0.0
 11
-80.43161212769078
 21
43.81465630396193
 31
0.0
  0
LINE
  5
1D6
330
71
100
AcDbEntity
  8
1
  6
Continuous
 62
     7
100
AcDbLine
 10
-26.11826701425338
 20
31.18965630396193
 30
0.0
 11
-26.11826701425338
 21
39.68965630396201
 31
0.0
  0
LINE
  5
1D7
330
71
100
AcDbEntity
  8
1
  6
Continuous
 62
     6
100
AcDbLine
 10
-54.01826701425347
 20
39.68965630396201
 30
0.0
 11
39.12653751249832
 21
39.68965630396201
 31
0.0
  0
LINE
  5
1D8
330
71
100
AcDbEntity
  8
1
  6
Continuous
 62
     7
100
AcDbLine
 10
-90.41826701425339
 20
39.68965630396201
 30
0.0
 11
-90.41826701425339
 21
48.18965630396201
 31
0.0
  0
LINE
  5
1D9
330
71
100
AcDbEntity
  8
1
  6
Continuous
 62
     7
100
AcDbLine
 10
-54.01826701425347
 20
39.68965630396201
 30
0.0
 11
-54.01826701425347
 21
48.18965630396201
 31
0.0
  0
LINE
  5
1DA
330
71
100
AcDbEntity
  8
1
  6
Continuous
 62
     7
100
AcDbLine
 10
3.70812923081951
 20
48.18965630396201
 30
0.0
 11
3.70812923081951
 21
39.68965630396201
 31
0.0
  0
LINE
  5
1DB
330
71
100
AcDbEntity
  8
1
  6
Continuous
 62
     7
100
AcDbLine
 10
30.20812923081911
 20
48.18965630396201
 30
0.0
 11
30.20812923081911
 21
39.68965630396201
 31
0.0
  0
LINE
  5
1DC
330
71
100
AcDbEntity
  8
1
  6
Continuous
 62
     6
100
AcDbLine
 10
-159.4182670142534
 20
22.68965630396201
 30
0.0
 11
-204.3734624875034
 21
22.68965630396201
 31
0.0
  0
LINE
  5
1DD
330
71
100
AcDbEntity
  8
1
  6
Continuous
 62
     7
100
AcDbLine
 10
39.12653751249792
 20
31.18965630396201
 30
0.0
 11
-54.01826701425347
 21
31.18965630396201
 31
0.0
  0
LINE
  5
1DE
102
{ACAD_REACTORS
330
2F0
330
2F1
102
}
330
71
100
AcDbEntity
  8
0
  6
Continuous
 62
     2
100
AcDbLine
 10
-76.71083807248598
 20
31.98994541962532
 30
0.0
 11
-76.71083807248598
 21
32.86246242642861
 31
0.0
  0
LINE
  5
1DF
102
{ACAD_REACTORS
330
2F0
330
2F1
102
}
330
71
100
AcDbEntity
  8
0
  6
Continuous
 62
     2
100
AcDbLine
 10
-76.71083807248598
 20
31.03017671214241
 30
0.0
 11
-76.71083807248598
 21
30.1576597053392
 31
0.0
  0
LINE
  5
1E0
102
{ACAD_REACTORS
330
2F2
330
2F3
102
}
330
71
100
AcDbEntity
  8
0
  6
Continuous
 62
     2
100
AcDbLine
 10
-61.37779393619547
 20
32.25170052166581
 30
0.0
 11
-60.27415463662737
 21
32.25170052166581
 31
0.0
  0
LINE
  5
1E1
102
{ACAD_REACTORS
330
2F2
330
2F3
102
}
330
71
100
AcDbEntity
  8
0
  6
Continuous
 62
     2
100
AcDbLine
 10
-60.60813659323407
 20
31.03017671214192
 30
0.0
 11
-60.60813659323407
 21
30.1576597053386
 31
0.0
  0
LINE
  5
1E2
102
{ACAD_REACTORS
330
2FC
330
2FD
102
}
330
71
100
AcDbEntity
  8
0
  6
Continuous
 62
     2
100
AcDbLine
 10
-62.46889320861399
 20
33.34234678015261
 30
0.0
 11
-61.07094016167369
 21
34.92320577392761
 31
0.0
  0
LINE
  5
1E3
102
{ACAD_REACTORS
330
2FC
330
2FD
102
}
330
71
100
AcDbEntity
  8
0
  6
Continuous
 62
     2
100
AcDbLine
 10
-62.37346979244117
 20
36.39615630396381
 30
0.0
 11
-61.07094016167369
 21
34.92320577392761
 31
0.0
  0
LINE
  5
1E4
102
{ACAD_REACTORS
330
2FC
330
2FD
102
}
330
71
100
AcDbEntity
  8
0
  6
Continuous
 62
     2
100
AcDbLine
 10
-59.76841053090729
 20
36.39615630396381
 30
0.0
 11
-58.36568631316007
 21
36.39615630396381
 31
0.0
  0
LINE
  5
1E5
102
{ACAD_REACTORS
330
2FC
330
2FD
102
}
330
71
100
AcDbEntity
  8
0
  6
Continuous
 62
     2
100
AcDbLine
 10
-61.06616899086578
 20
33.34234678015261
 30
0.0
 11
-60.36957805280008
 21
34.13007856544633
 31
0.0
  0
LINE
  5
1E6
102
{ACAD_REACTORS
330
2FC
330
2FD
102
}
330
71
100
AcDbEntity
  8
0
  6
Continuous
 62
     2
100
AcDbLine
 10
-61.06616899086578
 20
33.34234678015261
 30
0.0
 11
-62.46889320861399
 21
33.34234678015261
 31
0.0
  0
LINE
  5
1E7
102
{ACAD_REACTORS
330
2FE
330
2FF
102
}
330
71
100
AcDbEntity
  8
0
  6
Continuous
 62
     2
100
AcDbLine
 10
-62.58817247883087
 20
33.34234678015261
 30
0.0
 11
-63.82867688908377
 21
33.34234678015261
 31
0.0
  0
LINE
  5
1E8
102
{ACAD_REACTORS
330
300
330
301
102
}
330
71
100
AcDbEntity
  8
0
  6
Continuous
 62
     2
100
AcDbLine
 10
-64.69665649723888
 20
31.2046801135028
 30
0.0
 11
-64.99682173442898
 21
31.97249507948951
 31
0.0
  0
LINE
  5
1E9
102
{ACAD_REACTORS
330
300
330
301
102
}
330
71
100
AcDbEntity
  8
0
  6
Continuous
 62
     2
100
AcDbLine
 10
-65.29698697162138
 20
31.2046801135028
 30
0.0
 11
-64.69665649723888
 21
31.2046801135028
 31
0.0
  0
LINE
  5
1EA
102
{ACAD_REACTORS
330
300
330
301
102
}
330
71
100
AcDbEntity
  8
0
  6
Continuous
 62
     2
100
AcDbLine
 10
-67.01502698649517
 20
29.98315630397832
 30
0.0
 11
-65.77452257624219
 21
29.98315630397832
 31
0.0
  0
LINE
  5
1EB
102
{ACAD_REACTORS
330
300
330
301
102
}
330
71
100
AcDbEntity
  8
0
  6
Continuous
 62
     2
100
AcDbLine
 10
-65.61707393955587
 20
33.0369658277894
 30
0.0
 11
-64.37656952930317
 21
33.0369658277894
 31
0.0
  0
LINE
  5
1EC
102
{ACAD_REACTORS
330
300
330
301
102
}
330
71
100
AcDbEntity
  8
0
  6
Continuous
 62
     2
100
AcDbLine
 10
-64.37656952930317
 20
33.0369658277894
 30
0.0
 11
-62.97861648236287
 21
29.98315630397832
 31
0.0
  0
LINE
  5
1ED
102
{ACAD_REACTORS
330
300
330
301
102
}
330
71
100
AcDbEntity
  8
0
  6
Continuous
 62
     2
100
AcDbLine
 10
-64.21912089261679
 20
29.98315630397832
 30
0.0
 11
-64.43060094609257
 21
30.5241168481962
 31
0.0
  0
LINE
  5
1EE
102
{ACAD_REACTORS
330
302
330
303
102
}
330
71
100
AcDbEntity
  8
0
  6
Continuous
 62
     2
100
AcDbLine
 10
-68.36144008820278
 20
29.98315630397832
 30
0.0
 11
-67.16864738603627
 21
29.98315630397832
 31
0.0
  0
LINE
  5
1EF
102
{ACAD_REACTORS
330
302
330
303
102
}
330
71
100
AcDbEntity
  8
0
  6
Continuous
 62
     2
100
AcDbLine
 10
-68.36144008820278
 20
32.25170052166581
 30
0.0
 11
-68.36144008820278
 21
29.98315630397832
 31
0.0
  0
LINE
  5
1F0
102
{ACAD_REACTORS
330
302
330
303
102
}
330
71
100
AcDbEntity
  8
0
  6
Continuous
 62
     2
100
AcDbLine
 10
-69.17253912567739
 20
33.0369658277894
 30
0.0
 11
-69.17253912567739
 21
32.25170052166581
 31
0.0
  0
LINE
  5
1F1
102
{ACAD_REACTORS
330
304
330
305
102
}
330
71
100
AcDbEntity
  8
0
  6
Continuous
 62
     2
100
AcDbLine
 10
-67.69332524410478
 20
33.34234678015261
 30
0.0
 11
-66.50053254193827
 21
33.34234678015261
 31
0.0
  0
LINE
  5
1F2
102
{ACAD_REACTORS
330
304
330
305
102
}
330
71
100
AcDbEntity
  8
0
  6
Continuous
 62
     2
100
AcDbLine
 10
-65.26002813168427
 20
35.08738079375863
 30
0.0
 11
-66.50053254193827
 21
36.39615630396381
 31
0.0
  0
LINE
  5
1F3
102
{ACAD_REACTORS
330
304
330
305
102
}
330
71
100
AcDbEntity
  8
0
  6
Continuous
 62
     2
100
AcDbLine
 10
-64.06723542951767
 20
36.39615630396381
 30
0.0
 11
-65.26002813168427
 21
36.39615630396381
 31
0.0
  0
LINE
  5
1F4
102
{ACAD_REACTORS
330
304
330
305
102
}
330
71
100
AcDbEntity
  8
0
  6
Continuous
 62
     2
100
AcDbLine
 10
-64.06723542951767
 20
33.34234678015261
 30
0.0
 11
-64.06723542951767
 21
36.39615630396381
 31
0.0
  0
LINE
  5
1F5
102
{ACAD_REACTORS
330
304
330
305
102
}
330
71
100
AcDbEntity
  8
0
  6
Continuous
 62
     2
100
AcDbLine
 10
-65.26002813168427
 20
33.34234678015261
 30
0.0
 11
-64.06723542951767
 21
33.34234678015261
 31
0.0
  0
LINE
  5
1F6
102
{ACAD_REACTORS
330
304
330
305
102
}
330
71
100
AcDbEntity
  8
0
  6
Continuous
 62
     2
100
AcDbLine
 10
-66.50053254193827
 20
34.65112229035731
 30
0.0
 11
-65.26002813168427
 21
33.34234678015261
 31
0.0
  0
LINE
  5
1F7
102
{ACAD_REACTORS
330
306
330
307
102
}
330
71
100
AcDbEntity
  8
0
  6
Continuous
 62
     2
100
AcDbLine
 10
-70.50846695210399
 20
31.72819031758431
 30
0.0
 11
-71.74897136235688
 21
33.0369658277894
 31
0.0
  0
LINE
  5
1F8
102
{ACAD_REACTORS
330
306
330
307
102
}
330
71
100
AcDbEntity
  8
0
  6
Continuous
 62
     2
100
AcDbLine
 10
-70.50846695210399
 20
33.0369658277894
 30
0.0
 11
-70.50846695210399
 21
31.72819031758431
 31
0.0
  0
LINE
  5
1F9
102
{ACAD_REACTORS
330
306
330
307
102
}
330
71
100
AcDbEntity
  8
0
  6
Continuous
 62
     2
100
AcDbLine
 10
-69.31567424993759
 20
33.0369658277894
 30
0.0
 11
-70.50846695210399
 21
33.0369658277894
 31
0.0
  0
LINE
  5
1FA
102
{ACAD_REACTORS
330
306
330
307
102
}
330
71
100
AcDbEntity
  8
0
  6
Continuous
 62
     2
100
AcDbLine
 10
-69.31567424993759
 20
29.98315630397832
 30
0.0
 11
-69.31567424993759
 21
33.0369658277894
 31
0.0
  0
LINE
  5
1FB
102
{ACAD_REACTORS
330
306
330
307
102
}
330
71
100
AcDbEntity
  8
0
  6
Continuous
 62
     2
100
AcDbLine
 10
-71.74897136235688
 20
31.2919318141829
 30
0.0
 11
-70.50846695210399
 21
29.98315630397832
 31
0.0
  0
LINE
  5
1FC
102
{ACAD_REACTORS
330
306
330
307
102
}
330
71
100
AcDbEntity
  8
0
  6
Continuous
 62
     2
100
AcDbLine
 10
-71.74897136235688
 20
29.98315630397832
 30
0.0
 11
-71.74897136235688
 21
31.2919318141829
 31
0.0
  0
LINE
  5
1FD
102
{ACAD_REACTORS
330
2F6
330
2F7
102
}
330
71
100
AcDbEntity
  8
0
  6
Continuous
 62
     2
100
AcDbLine
 10
-69.26781161096537
 20
35.69814269852083
 30
0.0
 11
-67.93188378453769
 21
35.69814269852083
 31
0.0
  0
LINE
  5
1FE
102
{ACAD_REACTORS
330
2F6
330
2F7
102
}
330
71
100
AcDbEntity
  8
0
  6
Continuous
 62
     2
100
AcDbLine
 10
-69.26781161096537
 20
34.04036038559511
 30
0.0
 11
-69.26781161096537
 21
34.52024473933682
 31
0.0
  0
LINE
  5
1FF
102
{ACAD_REACTORS
330
2F6
330
2F7
102
}
330
71
100
AcDbEntity
  8
0
  6
Continuous
 62
     2
100
AcDbLine
 10
-67.93188378453769
 20
34.04036038559511
 30
0.0
 11
-69.26781161096537
 21
34.04036038559511
 31
0.0
  0
LINE
  5
200
102
{ACAD_REACTORS
330
2F6
330
2F7
102
}
330
71
100
AcDbEntity
  8
0
  6
Continuous
 62
     2
100
AcDbLine
 10
-67.93188378453769
 20
33.34234678015261
 30
0.0
 11
-67.93188378453769
 21
34.04036038559511
 31
0.0
  0
LINE
  5
201
102
{ACAD_REACTORS
330
2F6
330
2F7
102
}
330
71
100
AcDbEntity
  8
0
  6
Continuous
 62
     2
100
AcDbLine
 10
-71.08220350831868
 20
33.34234678015261
 30
0.0
 11
-67.93188378453769
 21
33.34234678015261
 31
0.0
  0
LINE
  5
202
102
{ACAD_REACTORS
330
2F6
330
2F7
102
}
330
71
100
AcDbEntity
  8
0
  6
Continuous
 62
     2
100
AcDbLine
 10
-71.08220350831868
 20
36.39615630396381
 30
0.0
 11
-67.93188378453769
 21
36.39615630396381
 31
0.0
  0
LINE
  5
203
102
{ACAD_REACTORS
330
2F6
330
2F7
102
}
330
71
100
AcDbEntity
  8
0
  6
Continuous
 62
     2
100
AcDbLine
 10
-67.93188378453769
 20
35.69814269852083
 30
0.0
 11
-67.93188378453769
 21
36.39615630396381
 31
0.0
  0
LINE
  5
204
102
{ACAD_REACTORS
330
308
330
309
102
}
330
71
100
AcDbEntity
  8
0
  6
Continuous
 62
     2
100
AcDbLine
 10
-73.94355900345869
 20
35.32732297062921
 30
0.0
 11
-73.94355900345869
 21
36.39615630396381
 31
0.0
  0
LINE
  5
205
102
{ACAD_REACTORS
330
308
330
309
102
}
330
71
100
AcDbEntity
  8
0
  6
Continuous
 62
     2
100
AcDbLine
 10
-73.94355900345869
 20
36.39615630396381
 30
0.0
 11
-72.75076630129229
 21
36.39615630396381
 31
0.0
  0
LINE
  5
206
102
{ACAD_REACTORS
330
308
330
309
102
}
330
71
100
AcDbEntity
  8
0
  6
Continuous
 62
     2
100
AcDbLine
 10
-73.94355900345869
 20
34.47661888899643
 30
0.0
 11
-74.99321658136617
 21
34.47661888899643
 31
0.0
  0
LINE
  5
207
102
{ACAD_REACTORS
330
308
330
309
102
}
330
71
100
AcDbEntity
  8
0
  6
Continuous
 62
     2
100
AcDbLine
 10
-74.99321658136617
 20
34.47661888899643
 30
0.0
 11
-74.99321658136617
 21
33.34234678015261
 31
0.0
  0
LINE
  5
208
102
{ACAD_REACTORS
330
308
330
309
102
}
330
71
100
AcDbEntity
  8
0
  6
Continuous
 62
     2
100
AcDbLine
 10
-76.18600928353277
 20
36.39615630396381
 30
0.0
 11
-76.18600928353277
 21
33.34234678015261
 31
0.0
  0
LINE
  5
209
102
{ACAD_REACTORS
330
2FA
330
2FB
102
}
330
71
100
AcDbEntity
  8
0
  6
Continuous
 62
     2
100
AcDbLine
 10
-78.14218931508637
 20
35.0273228091815
 30
0.0
 11
-78.14218931508637
 21
35.73305045852371
 31
0.0
  0
LINE
  5
20A
102
{ACAD_REACTORS
330
2FA
330
2FB
102
}
330
71
100
AcDbEntity
  8
0
  6
Continuous
 62
     2
100
AcDbLine
 10
-79.38269372534049
 20
33.34234678015261
 30
0.0
 11
-78.14218931508637
 21
33.34234678015261
 31
0.0
  0
LINE
  5
20B
102
{ACAD_REACTORS
330
2FA
330
2FB
102
}
330
71
100
AcDbEntity
  8
0
  6
Continuous
 62
     2
100
AcDbLine
 10
-78.14218931508637
 20
33.34234678015261
 30
0.0
 11
-78.14218931508637
 21
34.28542502129642
 31
0.0
  0
LINE
  5
20C
102
{ACAD_REACTORS
330
2F4
330
2F5
102
}
330
71
100
AcDbEntity
  8
0
  6
Continuous
 62
     2
100
AcDbLine
 10
-83.68763957455187
 20
30.69571185953521
 30
0.0
 11
-85.16347283556149
 21
30.69571185953521
 31
0.0
  0
LINE
  5
20D
102
{ACAD_REACTORS
330
2F4
330
2F5
102
}
330
71
100
AcDbEntity
  8
0
  6
Continuous
 62
     2
100
AcDbLine
 10
-86.18161212769078
 20
35.97191168856182
 30
0.0
 11
-86.18161212769078
 21
30.40740091936161
 31
0.0
  0
LINE
  5
20E
102
{ACAD_REACTORS
330
2F4
330
2F5
102
}
330
71
100
AcDbEntity
  8
0
  6
Continuous
 62
     2
100
AcDbLine
 10
-85.75736751230798
 20
36.39615630394562
 30
0.0
 11
-80.28405542159118
 21
36.39615630394562
 31
0.0
  0
LINE
  5
20F
102
{ACAD_REACTORS
330
2F4
330
2F5
102
}
330
71
100
AcDbEntity
  8
0
  6
Continuous
 62
     2
100
AcDbLine
 10
-79.85981080620729
 20
35.97191168856182
 30
0.0
 11
-79.85981080620729
 21
30.40740091936161
 31
0.0
  0
LINE
  5
210
102
{ACAD_REACTORS
330
2F4
330
2F5
102
}
330
71
100
AcDbEntity
  8
0
  6
Continuous
 62
     2
100
AcDbLine
 10
-80.28405542159118
 20
29.98315630397832
 30
0.0
 11
-85.75736751230798
 21
29.98315630397832
 31
0.0
  0
LINE
  5
211
102
{ACAD_REACTORS
330
2F4
330
2F5
102
}
330
71
100
AcDbEntity
  8
0
  6
Continuous
 62
     2
100
AcDbLine
 10
-83.37192265147527
 20
31.01142878261192
 30
0.0
 11
-83.37192265147527
 21
32.54219971414352
 31
0.0
  0
LINE
  5
212
102
{ACAD_REACTORS
330
2F4
330
2F5
102
}
330
71
100
AcDbEntity
  8
0
  6
Continuous
 62
     2
100
AcDbLine
 10
-83.37192265147527
 20
34.76385920626851
 30
0.0
 11
-83.37192265147527
 21
35.36788382532902
 31
0.0
  0
LINE
  5
213
102
{ACAD_REACTORS
330
2F4
330
2F5
102
}
330
71
100
AcDbEntity
  8
0
  6
Continuous
 62
     2
100
AcDbLine
 10
-85.16347283556149
 20
35.68360074840521
 30
0.0
 11
-83.68763957455187
 21
35.68360074840521
 31
0.0
  0
LINE
  5
214
102
{ACAD_REACTORS
330
2F4
330
2F5
102
}
330
71
100
AcDbEntity
  8
0
  6
Continuous
 62
     2
100
AcDbLine
 10
-85.47918975863718
 20
35.36788382532902
 30
0.0
 11
-85.47918975863718
 21
31.01142878261192
 31
0.0
  0
LINE
  5
215
102
{ACAD_REACTORS
330
2FA
330
2FB
102
}
330
71
100
AcDbEntity
  8
0
  6
Continuous
 62
     2
100
AcDbLine
 10
-78.14218931508637
 20
34.28542502129642
 30
0.0
 11
-77.38342172730609
 21
34.28542502129642
 31
0.0
  0
LINE
  5
216
102
{ACAD_REACTORS
330
2FA
330
2FB
102
}
330
71
100
AcDbEntity
  8
0
  6
Continuous
 62
     2
100
AcDbLine
 10
-79.38269372534049
 20
36.39615630396381
 30
0.0
 11
-77.38342172730609
 21
36.39615630396381
 31
0.0
  0
LINE
  5
217
102
{ACAD_REACTORS
330
2FA
330
2FB
102
}
330
71
100
AcDbEntity
  8
0
  6
Continuous
 62
     2
100
AcDbLine
 10
-79.38269372534049
 20
36.39615630396381
 30
0.0
 11
-79.38269372534049
 21
33.34234678015261
 31
0.0
  0
LINE
  5
218
102
{ACAD_REACTORS
330
2FA
330
2FB
102
}
330
71
100
AcDbEntity
  8
0
  6
Continuous
 62
     2
100
AcDbLine
 10
-78.14218931508637
 20
35.0273228091815
 30
0.0
 11
-77.82489425354447
 21
35.0273228091815
 31
0.0
  0
LINE
  5
219
102
{ACAD_REACTORS
330
2FA
330
2FB
102
}
330
71
100
AcDbEntity
  8
0
  6
Continuous
 62
     2
100
AcDbLine
 10
-78.14218931508637
 20
35.73305045852371
 30
0.0
 11
-77.82489425354447
 21
35.73305045852371
 31
0.0
  0
LINE
  5
21A
102
{ACAD_REACTORS
330
308
330
309
102
}
330
71
100
AcDbEntity
  8
0
  6
Continuous
 62
     2
100
AcDbLine
 10
-74.99321658136617
 20
35.32732297062921
 30
0.0
 11
-73.94355900345869
 21
35.32732297062921
 31
0.0
  0
LINE
  5
21B
102
{ACAD_REACTORS
330
308
330
309
102
}
330
71
100
AcDbEntity
  8
0
  6
Continuous
 62
     2
100
AcDbLine
 10
-74.99321658136617
 20
36.39615630396381
 30
0.0
 11
-74.99321658136617
 21
35.32732297062921
 31
0.0
  0
LINE
  5
21C
102
{ACAD_REACTORS
330
308
330
309
102
}
330
71
100
AcDbEntity
  8
0
  6
Continuous
 62
     2
100
AcDbLine
 10
-76.18600928353277
 20
36.39615630396381
 30
0.0
 11
-74.99321658136617
 21
36.39615630396381
 31
0.0
  0
LINE
  5
21D
102
{ACAD_REACTORS
330
308
330
309
102
}
330
71
100
AcDbEntity
  8
0
  6
Continuous
 62
     2
100
AcDbLine
 10
-74.99321658136617
 20
33.34234678015261
 30
0.0
 11
-76.18600928353277
 21
33.34234678015261
 31
0.0
  0
LINE
  5
21E
102
{ACAD_REACTORS
330
308
330
309
102
}
330
71
100
AcDbEntity
  8
0
  6
Continuous
 62
     2
100
AcDbLine
 10
-73.94355900345869
 20
33.34234678015261
 30
0.0
 11
-73.94355900345869
 21
34.47661888899643
 31
0.0
  0
LINE
  5
21F
102
{ACAD_REACTORS
330
308
330
309
102
}
330
71
100
AcDbEntity
  8
0
  6
Continuous
 62
     2
100
AcDbLine
 10
-72.75076630129229
 20
33.34234678015261
 30
0.0
 11
-73.94355900345869
 21
33.34234678015261
 31
0.0
  0
LINE
  5
220
102
{ACAD_REACTORS
330
308
330
309
102
}
330
71
100
AcDbEntity
  8
0
  6
Continuous
 62
     2
100
AcDbLine
 10
-72.75076630129229
 20
36.39615630396381
 30
0.0
 11
-72.75076630129229
 21
33.34234678015261
 31
0.0
  0
LINE
  5
221
102
{ACAD_REACTORS
330
2F6
330
2F7
102
}
330
71
100
AcDbEntity
  8
0
  6
Continuous
 62
     2
100
AcDbLine
 10
-69.26781161096537
 20
34.52024473933682
 30
0.0
 11
-67.93188378453769
 21
34.52024473933682
 31
0.0
  0
LINE
  5
222
102
{ACAD_REACTORS
330
2F6
330
2F7
102
}
330
71
100
AcDbEntity
  8
0
  6
Continuous
 62
     2
100
AcDbLine
 10
-67.93188378453769
 20
34.52024473933682
 30
0.0
 11
-67.93188378453769
 21
35.21825834477912
 31
0.0
  0
LINE
  5
223
102
{ACAD_REACTORS
330
2F6
330
2F7
102
}
330
71
100
AcDbEntity
  8
0
  6
Continuous
 62
     2
100
AcDbLine
 10
-67.93188378453769
 20
35.21825834477912
 30
0.0
 11
-69.26781161096537
 21
35.21825834477912
 31
0.0
  0
LINE
  5
224
102
{ACAD_REACTORS
330
2F6
330
2F7
102
}
330
71
100
AcDbEntity
  8
0
  6
Continuous
 62
     2
100
AcDbLine
 10
-69.26781161096537
 20
35.21825834477912
 30
0.0
 11
-69.26781161096537
 21
35.69814269852083
 31
0.0
  0
LINE
  5
225
102
{ACAD_REACTORS
330
306
330
307
102
}
330
71
100
AcDbEntity
  8
0
  6
Continuous
 62
     2
100
AcDbLine
 10
-72.94176406452448
 20
29.98315630397832
 30
0.0
 11
-71.74897136235688
 21
29.98315630397832
 31
0.0
  0
LINE
  5
226
102
{ACAD_REACTORS
330
306
330
307
102
}
330
71
100
AcDbEntity
  8
0
  6
Continuous
 62
     2
100
AcDbLine
 10
-70.50846695210399
 20
29.98315630397832
 30
0.0
 11
-69.31567424993759
 21
29.98315630397832
 31
0.0
  0
LINE
  5
227
102
{ACAD_REACTORS
330
306
330
307
102
}
330
71
100
AcDbEntity
  8
0
  6
Continuous
 62
     2
100
AcDbLine
 10
-71.74897136235688
 20
33.0369658277894
 30
0.0
 11
-72.94176406452448
 21
33.0369658277894
 31
0.0
  0
LINE
  5
228
102
{ACAD_REACTORS
330
306
330
307
102
}
330
71
100
AcDbEntity
  8
0
  6
Continuous
 62
     2
100
AcDbLine
 10
-72.94176406452448
 20
33.0369658277894
 30
0.0
 11
-72.94176406452448
 21
29.98315630397832
 31
0.0
  0
LINE
  5
229
102
{ACAD_REACTORS
330
304
330
305
102
}
330
71
100
AcDbEntity
  8
0
  6
Continuous
 62
     2
100
AcDbLine
 10
-65.26002813168427
 20
36.39615630396381
 30
0.0
 11
-65.26002813168427
 21
35.08738079375863
 31
0.0
  0
LINE
  5
22A
102
{ACAD_REACTORS
330
304
330
305
102
}
330
71
100
AcDbEntity
  8
0
  6
Continuous
 62
     2
100
AcDbLine
 10
-66.50053254193827
 20
36.39615630396381
 30
0.0
 11
-67.69332524410478
 21
36.39615630396381
 31
0.0
  0
LINE
  5
22B
102
{ACAD_REACTORS
330
304
330
305
102
}
330
71
100
AcDbEntity
  8
0
  6
Continuous
 62
     2
100
AcDbLine
 10
-67.69332524410478
 20
36.39615630396381
 30
0.0
 11
-67.69332524410478
 21
33.34234678015261
 31
0.0
  0
LINE
  5
22C
102
{ACAD_REACTORS
330
304
330
305
102
}
330
71
100
AcDbEntity
  8
0
  6
Continuous
 62
     2
100
AcDbLine
 10
-66.50053254193827
 20
33.34234678015261
 30
0.0
 11
-66.50053254193827
 21
34.65112229035731
 31
0.0
  0
LINE
  5
22D
102
{ACAD_REACTORS
330
302
330
303
102
}
330
71
100
AcDbEntity
  8
0
  6
Continuous
 62
     2
100
AcDbLine
 10
-67.16864738603627
 20
29.98315630397832
 30
0.0
 11
-67.16864738603627
 21
32.25170052166581
 31
0.0
  0
LINE
  5
22E
102
{ACAD_REACTORS
330
302
330
303
102
}
330
71
100
AcDbEntity
  8
0
  6
Continuous
 62
     2
100
AcDbLine
 10
-67.16864738603627
 20
32.25170052166581
 30
0.0
 11
-66.35754834856377
 21
32.25170052166581
 31
0.0
  0
LINE
  5
22F
102
{ACAD_REACTORS
330
302
330
303
102
}
330
71
100
AcDbEntity
  8
0
  6
Continuous
 62
     2
100
AcDbLine
 10
-66.35754834856377
 20
32.25170052166581
 30
0.0
 11
-66.35754834856377
 21
33.0369658277894
 31
0.0
  0
LINE
  5
230
102
{ACAD_REACTORS
330
302
330
303
102
}
330
71
100
AcDbEntity
  8
0
  6
Continuous
 62
     2
100
AcDbLine
 10
-66.35754834856377
 20
33.0369658277894
 30
0.0
 11
-69.17253912567739
 21
33.0369658277894
 31
0.0
  0
LINE
  5
231
102
{ACAD_REACTORS
330
302
330
303
102
}
330
71
100
AcDbEntity
  8
0
  6
Continuous
 62
     2
100
AcDbLine
 10
-69.17253912567739
 20
32.25170052166581
 30
0.0
 11
-68.36144008820278
 21
32.25170052166581
 31
0.0
  0
LINE
  5
232
102
{ACAD_REACTORS
330
300
330
301
102
}
330
71
100
AcDbEntity
  8
0
  6
Continuous
 62
     2
100
AcDbLine
 10
-65.56304252276638
 20
30.5241168481962
 30
0.0
 11
-64.43060094609257
 21
30.5241168481962
 31
0.0
  0
LINE
  5
233
102
{ACAD_REACTORS
330
300
330
301
102
}
330
71
100
AcDbEntity
  8
0
  6
Continuous
 62
     2
100
AcDbLine
 10
-62.97861648236287
 20
29.98315630397832
 30
0.0
 11
-64.21912089261679
 21
29.98315630397832
 31
0.0
  0
LINE
  5
234
102
{ACAD_REACTORS
330
300
330
301
102
}
330
71
100
AcDbEntity
  8
0
  6
Continuous
 62
     2
100
AcDbLine
 10
-65.61707393955587
 20
33.0369658277894
 30
0.0
 11
-67.01502698649517
 21
29.98315630397832
 31
0.0
  0
LINE
  5
235
102
{ACAD_REACTORS
330
300
330
301
102
}
330
71
100
AcDbEntity
  8
0
  6
Continuous
 62
     2
100
AcDbLine
 10
-65.77452257624219
 20
29.98315630397832
 30
0.0
 11
-65.56304252276638
 21
30.5241168481962
 31
0.0
  0
LINE
  5
236
102
{ACAD_REACTORS
330
300
330
301
102
}
330
71
100
AcDbEntity
  8
0
  6
Continuous
 62
     2
100
AcDbLine
 10
-65.29698697162138
 20
31.2046801135028
 30
0.0
 11
-64.99682173442898
 21
31.97249507948951
 31
0.0
  0
LINE
  5
237
102
{ACAD_REACTORS
330
2FE
330
2FF
102
}
330
71
100
AcDbEntity
  8
0
  6
Continuous
 62
     2
100
AcDbLine
 10
-63.82867688908377
 20
33.34234678015261
 30
0.0
 11
-63.82867688908377
 21
36.39615630396381
 31
0.0
  0
LINE
  5
238
102
{ACAD_REACTORS
330
2FE
330
2FF
102
}
330
71
100
AcDbEntity
  8
0
  6
Continuous
 62
     2
100
AcDbLine
 10
-62.58817247883087
 20
36.39615630396381
 30
0.0
 11
-62.58817247883087
 21
33.34234678015261
 31
0.0
  0
LINE
  5
239
102
{ACAD_REACTORS
330
2FE
330
2FF
102
}
330
71
100
AcDbEntity
  8
0
  6
Continuous
 62
     2
100
AcDbLine
 10
-63.82867688908377
 20
36.39615630396381
 30
0.0
 11
-62.58817247883087
 21
36.39615630396381
 31
0.0
  0
LINE
  5
23A
102
{ACAD_REACTORS
330
2FC
330
2FD
102
}
330
71
100
AcDbEntity
  8
0
  6
Continuous
 62
     2
100
AcDbLine
 10
-60.36957805280008
 20
34.13007856544633
 30
0.0
 11
-59.67298711473458
 21
33.34234678015261
 31
0.0
  0
LINE
  5
23B
102
{ACAD_REACTORS
330
2FC
330
2FD
102
}
330
71
100
AcDbEntity
  8
0
  6
Continuous
 62
     2
100
AcDbLine
 10
-59.67298711473458
 20
33.34234678015261
 30
0.0
 11
-58.27026289698628
 21
33.34234678015261
 31
0.0
  0
LINE
  5
23C
102
{ACAD_REACTORS
330
2FC
330
2FD
102
}
330
71
100
AcDbEntity
  8
0
  6
Continuous
 62
     2
100
AcDbLine
 10
-59.66821594392658
 20
34.92320577392761
 30
0.0
 11
-58.27026289698628
 21
33.34234678015261
 31
0.0
  0
LINE
  5
23D
102
{ACAD_REACTORS
330
2FC
330
2FD
102
}
330
71
100
AcDbEntity
  8
0
  6
Continuous
 62
     2
100
AcDbLine
 10
-59.66821594392658
 20
34.92320577392761
 30
0.0
 11
-58.36568631316007
 21
36.39615630396381
 31
0.0
  0
LINE
  5
23E
102
{ACAD_REACTORS
330
2FC
330
2FD
102
}
330
71
100
AcDbEntity
  8
0
  6
Continuous
 62
     2
100
AcDbLine
 10
-60.36957805280008
 20
35.71633298240832
 30
0.0
 11
-59.76841053090729
 21
36.39615630396381
 31
0.0
  0
LINE
  5
23F
102
{ACAD_REACTORS
330
2FC
330
2FD
102
}
330
71
100
AcDbEntity
  8
0
  6
Continuous
 62
     2
100
AcDbLine
 10
-60.97074557469188
 20
36.39615630396381
 30
0.0
 11
-60.36957805280008
 21
35.71633298240832
 31
0.0
  0
LINE
  5
240
102
{ACAD_REACTORS
330
2FC
330
2FD
102
}
330
71
100
AcDbEntity
  8
0
  6
Continuous
 62
     2
100
AcDbLine
 10
-60.97074557469188
 20
36.39615630396381
 30
0.0
 11
-62.37346979244117
 21
36.39615630396381
 31
0.0
  0
LINE
  5
241
102
{ACAD_REACTORS
330
2F2
330
2F3
102
}
330
71
100
AcDbEntity
  8
0
  6
Continuous
 62
     2
100
AcDbLine
 10
-60.27415463662737
 20
29.98315630397832
 30
0.0
 11
-59.08136193445967
 21
29.98315630397832
 31
0.0
  0
LINE
  5
242
102
{ACAD_REACTORS
330
2F2
330
2F3
102
}
330
71
100
AcDbEntity
  8
0
  6
Continuous
 62
     2
100
AcDbLine
 10
-59.08136193445967
 20
29.98315630397832
 30
0.0
 11
-59.08136193445967
 21
32.25170052166581
 31
0.0
  0
LINE
  5
243
102
{ACAD_REACTORS
330
2F2
330
2F3
102
}
330
71
100
AcDbEntity
  8
0
  6
Continuous
 62
     2
100
AcDbLine
 10
-59.08136193445967
 20
32.25170052166581
 30
0.0
 11
-58.27026289698628
 21
32.25170052166581
 31
0.0
  0
LINE
  5
244
102
{ACAD_REACTORS
330
2F2
330
2F3
102
}
330
71
100
AcDbEntity
  8
0
  6
Continuous
 62
     2
100
AcDbLine
 10
-58.27026289698628
 20
32.25170052166581
 30
0.0
 11
-58.27026289698628
 21
33.0369658277894
 31
0.0
  0
LINE
  5
245
102
{ACAD_REACTORS
330
2F2
330
2F3
102
}
330
71
100
AcDbEntity
  8
0
  6
Continuous
 62
     2
100
AcDbLine
 10
-61.65520841561497
 20
33.03696582778892
 30
0.0
 11
-58.27026289698628
 21
33.0369658277894
 31
0.0
  0
LINE
  5
246
102
{ACAD_REACTORS
330
2F2
330
2F3
102
}
330
71
100
AcDbEntity
  8
0
  6
Continuous
 62
     2
100
AcDbLine
 10
-60.27415463662737
 20
32.25170052166581
 30
0.0
 11
-60.27415463662737
 21
29.98315630397832
 31
0.0
  0
LINE
  5
247
102
{ACAD_REACTORS
330
2F4
330
2F5
102
}
330
71
100
AcDbEntity
  8
0
  6
Continuous
 62
     2
100
AcDbLine
 10
-82.90364107210658
 20
31.96203645354282
 30
0.0
 11
-82.90364107210658
 21
32.5438878602379
 31
0.0
  0
LINE
  5
248
102
{ACAD_REACTORS
330
2F4
330
2F5
102
}
330
71
100
AcDbEntity
  8
0
  6
Continuous
 62
     2
100
AcDbLine
 10
-82.90364107210658
 20
34.76217106017413
 30
0.0
 11
-82.90364107210658
 21
35.36770634868091
 31
0.0
  0
LINE
  5
249
330
71
100
AcDbEntity
  8
1
  6
Continuous
 62
     6
100
AcDbLine
 10
-104.3734624875034
 20
22.68965630396201
 30
0.0
 11
-90.41826701425339
 21
22.6896563039619
 31
0.0
  0
LINE
  5
24A
330
71
100
AcDbEntity
  8
1
  6
Continuous
 62
     6
100
AcDbLine
 10
-154.3734624875036
 20
22.68965630396201
 30
0.0
 11
-159.4182670142534
 21
22.68965630396201
 31
0.0
  0
LINE
  5
24B
330
71
100
AcDbEntity
  8
1
  6
Continuous
 62
     6
100
AcDbLine
 10
-4.37346248750339
 20
22.68965630396201
 30
0.0
 11
39.12653751249663
 21
22.68965630396201
 31
0.0
  0
LINE
  5
24C
330
71
100
AcDbEntity
  8
1
  6
Continuous
 62
     6
100
AcDbLine
 10
-54.37346248750339
 20
22.68965630396201
 30
0.0
 11
-72.21826701425337
 21
22.68965630396201
 31
0.0
  0
LINE
  5
24D
330
71
100
AcDbEntity
  8
1
  6
Continuous
 62
     2
100
AcDbLine
 10
39.12653751249663
 20
22.68965630396201
 30
0.0
 11
44.12653751249562
 21
22.68965630396201
 31
0.0
  0
LINE
  5
24E
330
71
100
AcDbEntity
  8
1
  6
Continuous
 62
     2
100
AcDbLine
 10
39.12653751249663
 20
22.68965630396201
 30
0.0
 11
39.12653751249663
 21
17.6896563039619
 31
0.0
  0
LINE
  5
24F
330
71
100
AcDbEntity
  8
1
  6
Continuous
 62
     6
100
AcDbLine
 10
-90.41826701425339
 20
39.68965630396201
 30
0.0
 11
-54.01826701425347
 21
39.68965630396201
 31
0.0
  0
LINE
  5
250
330
71
100
AcDbEntity
  8
1
  6
Continuous
 62
     2
100
AcDbLine
 10
44.12653751249562
 20
17.6896563039619
 30
0.0
 11
44.12653751249562
 21
22.68965630396201
 31
0.0
  0
LINE
  5
251
330
71
100
AcDbEntity
  8
1
  6
Continuous
 62
     2
100
AcDbLine
 10
44.12653751249562
 20
17.6896563039619
 30
0.0
 11
39.12653751249663
 21
17.6896563039619
 31
0.0
  0
LINE
  5
252
330
71
100
AcDbEntity
  8
1
  6
Continuous
 62
     2
100
AcDbLine
 10
39.12653751249663
 20
17.6896563039619
 30
0.0
 11
-4.37346248750339
 21
17.6896563039619
 31
0.0
  0
LINE
  5
253
330
71
100
AcDbEntity
  8
1
  6
Continuous
 62
     6
100
AcDbLine
 10
39.12653751249832
 20
39.68965630396201
 30
0.0
 11
39.12653751249752
 21
72.68965630396212
 31
0.0
  0
LINE
  5
254
330
71
100
AcDbEntity
  8
1
  6
Continuous
 62
     2
100
AcDbLine
 10
44.12653751249562
 20
227.689656303962
 30
0.0
 11
-104.3734624875034
 21
227.689656303962
 31
0.0
  0
LINE
  5
255
330
71
100
AcDbEntity
  8
1
  6
Continuous
 62
     6
100
AcDbLine
 10
39.12653751249562
 20
207.689656303962
 30
0.0
 11
-247.8734624875025
 21
207.689656303962
 31
0.0
  0
LINE
  5
256
330
71
100
AcDbEntity
  8
1
  6
Continuous
 62
     2
100
AcDbLine
 10
39.12653751249752
 20
72.68965630396212
 30
0.0
 11
44.12653751249562
 21
72.68965630396212
 31
0.0
  0
LINE
  5
257
330
71
100
AcDbEntity
  8
1
  6
Continuous
 62
     6
100
AcDbLine
 10
39.12653751249752
 20
72.68965630396212
 30
0.0
 11
39.12653751249702
 21
122.6896563039619
 31
0.0
  0
LINE
  5
258
330
71
100
AcDbEntity
  8
1
  6
Continuous
 62
     2
100
AcDbLine
 10
44.12653751249562
 20
72.68965630396212
 30
0.0
 11
44.12653751249562
 21
122.6896563039619
 31
0.0
  0
LINE
  5
259
330
71
100
AcDbEntity
  8
1
  6
Continuous
 62
     2
100
AcDbLine
 10
39.12653751249702
 20
122.6896563039619
 30
0.0
 11
44.12653751249562
 21
122.6896563039619
 31
0.0
  0
LINE
  5
25A
330
71
100
AcDbEntity
  8
1
  6
Continuous
 62
     6
100
AcDbLine
 10
39.12653751249702
 20
122.6896563039619
 30
0.0
 11
39.12653751249582
 21
172.689656303962
 31
0.0
  0
LINE
  5
25B
330
71
100
AcDbEntity
  8
1
  6
Continuous
 62
     2
100
AcDbLine
 10
44.12653751249562
 20
122.6896563039619
 30
0.0
 11
44.12653751249562
 21
172.689656303962
 31
0.0
  0
LINE
  5
25C
330
71
100
AcDbEntity
  8
1
  6
Continuous
 62
     2
100
AcDbLine
 10
39.12653751249582
 20
172.689656303962
 30
0.0
 11
44.12653751249562
 21
172.689656303962
 31
0.0
  0
LINE
  5
25D
330
71
100
AcDbEntity
  8
1
  6
Continuous
 62
     6
100
AcDbLine
 10
39.12653751249582
 20
172.689656303962
 30
0.0
 11
39.12653751249562
 21
207.689656303962
 31
0.0
  0
LINE
  5
25E
330
71
100
AcDbEntity
  8
1
  6
Continuous
 62
     2
100
AcDbLine
 10
44.12653751249562
 20
172.689656303962
 30
0.0
 11
44.12653751249562
 21
227.689656303962
 31
0.0
  0
LINE
  5
25F
330
71
100
AcDbEntity
  8
1
  6
Continuous
 62
     2
100
AcDbLine
 10
44.12653751249562
 20
22.68965630396201
 30
0.0
 11
44.12653751249562
 21
72.68965630396212
 31
0.0
  0
LINE
  5
260
330
71
100
AcDbEntity
  8
1
  6
Continuous
 62
     2
100
AcDbLine
 10
-104.3734624875034
 20
227.689656303962
 30
0.0
 11
-252.8734624875025
 21
227.689656303962
 31
0.0
  0
LINE
  5
261
330
71
100
AcDbEntity
  8
1
  6
Continuous
 62
     2
100
AcDbLine
 10
-104.3734624875034
 20
227.689656303962
 30
0.0
 11
-104.3734624875034
 21
218.4809644592607
 31
0.0
  0
LINE
  5
262
330
71
100
AcDbEntity
  8
1
  6
Continuous
 62
     2
100
AcDbLine
 10
-252.8734624875025
 20
17.6896563039619
 30
0.0
 11
-247.8734624875015
 21
17.6896563039619
 31
0.0
  0
LINE
  5
263
330
71
100
AcDbEntity
  8
1
  6
Continuous
 62
     2
100
AcDbLine
 10
-252.8734624875025
 20
227.689656303962
 30
0.0
 11
-252.8734624875025
 21
172.689656303962
 31
0.0
  0
LINE
  5
264
330
71
100
AcDbEntity
  8
1
  6
Continuous
 62
     6
100
AcDbLine
 10
-247.8734624875025
 20
207.689656303962
 30
0.0
 11
-247.8734624875024
 21
172.689656303962
 31
0.0
  0
LINE
  5
265
330
71
100
AcDbEntity
  8
1
  6
Continuous
 62
     2
100
AcDbLine
 10
-252.8734624875025
 20
172.689656303962
 30
0.0
 11
-247.8734624875024
 21
172.689656303962
 31
0.0
  0
LINE
  5
266
330
71
100
AcDbEntity
  8
1
  6
Continuous
 62
     2
100
AcDbLine
 10
-252.8734624875025
 20
172.689656303962
 30
0.0
 11
-252.8734624875025
 21
122.6896563039619
 31
0.0
  0
LINE
  5
267
330
71
100
AcDbEntity
  8
1
  6
Continuous
 62
     6
100
AcDbLine
 10
-247.8734624875024
 20
172.689656303962
 30
0.0
 11
-247.8734624875019
 21
122.6896563039619
 31
0.0
  0
LINE
  5
268
330
71
100
AcDbEntity
  8
1
  6
Continuous
 62
     2
100
AcDbLine
 10
-252.8734624875025
 20
122.6896563039619
 30
0.0
 11
-247.8734624875019
 21
122.6896563039619
 31
0.0
  0
LINE
  5
269
330
71
100
AcDbEntity
  8
1
  6
Continuous
 62
     2
100
AcDbLine
 10
-252.8734624875025
 20
122.6896563039619
 30
0.0
 11
-252.8734624875025
 21
72.68965630396212
 31
0.0
  0
LINE
  5
26A
330
71
100
AcDbEntity
  8
1
  6
Continuous
 62
     6
100
AcDbLine
 10
-247.8734624875019
 20
122.6896563039619
 30
0.0
 11
-247.8734624875017
 21
72.68965630396212
 31
0.0
  0
LINE
  5
26B
330
71
100
AcDbEntity
  8
1
  6
Continuous
 62
     2
100
AcDbLine
 10
-252.8734624875025
 20
72.68965630396212
 30
0.0
 11
-247.8734624875017
 21
72.68965630396212
 31
0.0
  0
LINE
  5
26C
330
71
100
AcDbEntity
  8
1
  6
Continuous
 62
     2
100
AcDbLine
 10
-252.8734624875025
 20
72.68965630396212
 30
0.0
 11
-252.8734624875025
 21
22.68965630396201
 31
0.0
  0
LINE
  5
26D
330
71
100
AcDbEntity
  8
1
  6
Continuous
 62
     6
100
AcDbLine
 10
-247.8734624875017
 20
72.68965630396212
 30
0.0
 11
-247.8734624875015
 21
22.68965630396201
 31
0.0
  0
LINE
  5
26E
330
71
100
AcDbEntity
  8
1
  6
Continuous
 62
     2
100
AcDbLine
 10
-204.3734624875034
 20
17.6896563039619
 30
0.0
 11
-204.3734624875034
 21
22.68965630396201
 31
0.0
  0
LINE
  5
26F
330
71
100
AcDbEntity
  8
1
  6
Continuous
 62
     2
100
AcDbLine
 10
-204.3734624875034
 20
17.6896563039619
 30
0.0
 11
-154.3734624875036
 21
17.6896563039619
 31
0.0
  0
LINE
  5
270
330
71
100
AcDbEntity
  8
1
  6
Continuous
 62
     2
100
AcDbLine
 10
-154.3734624875036
 20
17.6896563039619
 30
0.0
 11
-154.3734624875036
 21
22.68965630396201
 31
0.0
  0
LINE
  5
271
330
71
100
AcDbEntity
  8
1
  6
Continuous
 62
     2
100
AcDbLine
 10
-154.3734624875036
 20
17.6896563039619
 30
0.0
 11
-104.3734624875034
 21
17.6896563039619
 31
0.0
  0
LINE
  5
272
330
71
100
AcDbEntity
  8
1
  6
Continuous
 62
     2
100
AcDbLine
 10
-104.3734624875034
 20
17.6896563039619
 30
0.0
 11
-104.3734624875034
 21
22.68965630396201
 31
0.0
  0
LINE
  5
273
330
71
100
AcDbEntity
  8
1
  6
Continuous
 62
     2
100
AcDbLine
 10
-104.3734624875034
 20
17.6896563039619
 30
0.0
 11
-54.37346248750339
 21
17.6896563039619
 31
0.0
  0
LINE
  5
274
330
71
100
AcDbEntity
  8
1
  6
Continuous
 62
     2
100
AcDbLine
 10
-54.37346248750339
 20
17.6896563039619
 30
0.0
 11
-54.37346248750339
 21
22.68965630396201
 31
0.0
  0
LINE
  5
275
330
71
100
AcDbEntity
  8
1
  6
Continuous
 62
     2
100
AcDbLine
 10
-4.37346248750339
 20
17.6896563039619
 30
0.0
 11
-4.37346248750339
 21
22.68965630396201
 31
0.0
  0
LINE
  5
276
330
71
100
AcDbEntity
  8
1
  6
Continuous
 62
     2
100
AcDbLine
 10
-4.37346248750339
 20
17.6896563039619
 30
0.0
 11
-54.37346248750339
 21
17.6896563039619
 31
0.0
  0
LINE
  5
277
330
71
100
AcDbEntity
  8
1
  6
Continuous
 62
     2
100
AcDbLine
 10
-247.8734624875015
 20
22.68965630396201
 30
0.0
 11
-247.8734624875015
 21
17.6896563039619
 31
0.0
  0
LINE
  5
278
330
71
100
AcDbEntity
  8
1
  6
Continuous
 62
     2
100
AcDbLine
 10
-247.8734624875015
 20
17.6896563039619
 30
0.0
 11
-204.3734624875034
 21
17.6896563039619
 31
0.0
  0
LINE
  5
279
330
71
100
AcDbEntity
  8
1
  6
Continuous
 62
     2
100
AcDbLine
 10
-247.8734624875015
 20
22.68965630396201
 30
0.0
 11
-252.8734624875025
 21
22.68965630396201
 31
0.0
  0
LINE
  5
27A
330
71
100
AcDbEntity
  8
1
  6
Continuous
 62
     2
100
AcDbLine
 10
-252.8734624875025
 20
22.68965630396201
 30
0.0
 11
-252.8734624875025
 21
17.6896563039619
 31
0.0
  0
LINE
  5
27B
330
71
100
AcDbEntity
  8
1
  6
Continuous
 62
     6
100
AcDbLine
 10
39.12653751249663
 20
22.68965630396201
 30
0.0
 11
39.12653751249792
 21
31.18965630396201
 31
0.0
  0
LINE
  5
27C
330
71
100
AcDbEntity
  8
1
  6
Continuous
 62
     6
100
AcDbLine
 10
-54.01826701425347
 20
22.6896563039619
 30
0.0
 11
-4.37346248750339
 21
22.68965630396201
 31
0.0
  0
LINE
  5
27D
330
71
100
AcDbEntity
  8
1
  6
Continuous
 62
     6
100
AcDbLine
 10
-206.6734624875036
 20
22.6896563039619
 30
0.0
 11
-204.3734624875034
 21
22.68965630396201
 31
0.0
  0
LINE
  5
27E
330
71
100
AcDbEntity
  8
1
  6
Continuous
 62
     6
100
AcDbLine
 10
-104.3734624875034
 20
22.68965630396201
 30
0.0
 11
-154.3734624875036
 21
22.68965630396201
 31
0.0
  0
LINE
  5
27F
330
71
100
AcDbEntity
  8
1
  6
Continuous
 62
     7
100
AcDbLine
 10
-90.41826701425339
 20
39.68965630396201
 30
0.0
 11
-90.41826701425339
 21
26.9396563039619
 31
0.0
  0
LINE
  5
280
330
71
100
AcDbEntity
  8
1
  6
Continuous
 62
     7
100
AcDbLine
 10
-54.01826701425347
 20
39.68965630396201
 30
0.0
 11
-54.01826701425347
 21
26.93965630396201
 31
0.0
  0
LINE
  5
281
330
71
100
AcDbEntity
  8
1
  6
Continuous
 62
     6
100
AcDbLine
 10
-206.6734624875036
 20
22.6896563039619
 30
0.0
 11
-212.8734624875016
 21
22.68965630396201
 31
0.0
  0
LINE
  5
282
330
71
100
AcDbEntity
  8
1
  6
Continuous
 62
     6
100
AcDbLine
 10
-54.01826701425347
 20
22.6896563039619
 30
0.0
 11
-54.37346248750339
 21
22.68965630396201
 31
0.0
  0
LINE
  5
283
330
71
100
AcDbEntity
  8
1
  6
Continuous
 62
     6
100
AcDbLine
 10
39.12653751249832
 20
39.68965630396201
 30
0.0
 11
39.12653751249792
 21
31.18965630396201
 31
0.0
  0
LINE
  5
284
330
71
100
AcDbEntity
  8
1
  6
Continuous
 62
     6
100
AcDbLine
 10
-212.8734624875016
 20
22.68965630396201
 30
0.0
 11
-247.8734624875015
 21
22.68965630396201
 31
0.0
  0
LINE
  5
285
330
71
100
AcDbEntity
  8
1
  6
Continuous
 62
     2
100
AcDbLine
 10
-86.18161212769078
 20
45.06465630396193
 30
0.0
 11
-81.18161212769078
 21
46.31465630396193
 31
0.0
  0
LINE
  5
286
330
71
100
AcDbEntity
  8
1
  6
Continuous
 62
     2
100
AcDbLine
 10
-86.18161212769078
 20
42.56465630396193
 30
0.0
 11
-86.18161212769078
 21
45.06465630396193
 31
0.0
  0
LINE
  5
287
330
71
100
AcDbEntity
  8
1
  6
Continuous
 62
     2
100
AcDbLine
 10
-81.18161212769078
 20
41.31465630396193
 30
0.0
 11
-86.18161212769078
 21
42.56465630396193
 31
0.0
  0
LINE
  5
288
330
71
100
AcDbEntity
  8
1
  6
Continuous
 62
     2
100
AcDbLine
 10
-81.18161212769078
 20
46.31465630396193
 30
0.0
 11
-81.18161212769078
 21
41.31465630396193
 31
0.0
  0
LINE
  5
289
330
71
100
AcDbEntity
  8
1
  6
Continuous
 62
     7
100
AcDbLine
 10
-90.41826701425339
 20
26.9396563039619
 30
0.0
 11
-72.21826701425337
 21
26.93965630396201
 31
0.0
  0
LINE
  5
28A
330
71
100
AcDbEntity
  8
1
  6
Continuous
 62
     7
100
AcDbLine
 10
-90.41826701425339
 20
26.9396563039619
 30
0.0
 11
-90.41826701425339
 21
22.6896563039619
 31
0.0
  0
LINE
  5
28B
330
71
100
AcDbEntity
  8
1
  6
Continuous
 62
     7
100
AcDbLine
 10
-54.01826701425347
 20
26.93965630396201
 30
0.0
 11
-54.01826701425347
 21
22.6896563039619
 31
0.0
  0
LINE
  5
28C
330
71
100
AcDbEntity
  8
1
  6
Continuous
 62
     7
100
AcDbLine
 10
-72.21826701425337
 20
26.93965630396201
 30
0.0
 11
-72.21826701425337
 21
22.68965630396201
 31
0.0
  0
LINE
  5
28D
330
71
100
AcDbEntity
  8
1
  6
Continuous
 62
     6
100
AcDbLine
 10
-72.21826701425337
 20
22.68965630396201
 30
0.0
 11
-90.41826701425339
 21
22.6896563039619
 31
0.0
  0
LINE
  5
28E
330
71
100
AcDbEntity
  8
1
  6
Continuous
 62
     7
100
AcDbLine
 10
-72.21826701425337
 20
26.93965630396201
 30
0.0
 11
-54.01826701425347
 21
26.93965630396201
 31
0.0
  0
LINE
  5
28F
330
71
100
AcDbEntity
  8
1
  6
Continuous
 62
     6
100
AcDbLine
 10
-90.41826701425339
 20
48.18965630396201
 30
0.0
 11
39.12653751249832
 21
48.18965630396201
 31
0.0
  0
ARC
  5
290
102
{ACAD_REACTORS
330
2F8
330
2F9
102
}
330
71
100
AcDbEntity
  8
0
  6
Continuous
 62
     2
100
AcDbCircle
 10
-75.02661901529339
 20
31.51006106588361
 30
0.0
 40
0.771799778679697
100
AcDbArc
 50
321.8795802028415
 51
38.12041979715287
  0
ARC
  5
291
102
{ACAD_REACTORS
330
2F8
330
2F9
102
}
330
71
100
AcDbEntity
  8
0
  6
Continuous
 62
     2
100
AcDbCircle
 10
-74.82687897894698
 20
31.35332988776361
 30
0.0
 40
0.5179085730137354
100
AcDbArc
 50
218.1204197971931
 51
321.879580202801
  0
ARC
  5
292
102
{ACAD_REACTORS
330
2F8
330
2F9
102
}
330
71
100
AcDbEntity
  8
0
  6
Continuous
 62
     2
100
AcDbCircle
 10
-74.62713894260088
 20
31.51006106588361
 30
0.0
 40
0.7717997786794588
100
AcDbArc
 50
141.8795802028367
 51
218.1204197971689
  0
ARC
  5
293
102
{ACAD_REACTORS
330
2F8
330
2F9
102
}
330
71
100
AcDbEntity
  8
0
  6
Continuous
 62
     2
100
AcDbCircle
 10
-74.82687897894698
 20
31.66679224400411
 30
0.0
 40
0.5179085730133021
100
AcDbArc
 50
38.12041979714734
 51
141.8795802028585
  0
ARC
  5
294
102
{ACAD_REACTORS
330
2F0
330
2F1
102
}
330
71
100
AcDbEntity
  8
0
  6
Continuous
 62
     2
100
AcDbCircle
 10
-77.88889311451086
 20
30.09959470047542
 30
0.0
 40
2.227384008973484
100
AcDbArc
 50
58.06909105004083
 51
71.55192388186722
  0
ARC
  5
295
102
{ACAD_REACTORS
330
2F0
330
2F1
102
}
330
71
100
AcDbEntity
  8
0
  6
Continuous
 62
     2
100
AcDbCircle
 10
-77.62716541355209
 20
31.71513249522261
 30
0.0
 40
0.5115800601948747
100
AcDbArc
 50
113.3722778881993
 51
151.4785267423041
  0
ARC
  5
296
102
{ACAD_REACTORS
330
2F0
330
2F1
102
}
330
71
100
AcDbEntity
  8
0
  6
Continuous
 62
     2
100
AcDbCircle
 10
-77.24980815547178
 20
31.51006106588361
 30
0.0
 40
0.9410597353332545
100
AcDbArc
 50
151.4785267422669
 51
208.5214732577059
  0
ARC
  5
297
102
{ACAD_REACTORS
330
2F0
330
2F1
102
}
330
71
100
AcDbEntity
  8
0
  6
Continuous
 62
     2
100
AcDbCircle
 10
-78.04676598960378
 20
34.82274201114001
 30
0.0
 40
4.852596863498134
100
AcDbArc
 50
275.1581447696249
 51
285.9799912583529
  0
ARC
  5
298
102
{ACAD_REACTORS
330
2F0
330
2F1
102
}
330
71
100
AcDbEntity
  8
0
  6
Continuous
 62
     2
100
AcDbCircle
 10
-77.75790989486788
 20
31.62285142791842
 30
0.0
 40
1.639695123939386
100
AcDbArc
 50
195.0618917770894
 51
275.1581447696395
  0
ARC
  5
299
102
{ACAD_REACTORS
330
2F0
330
2F1
102
}
330
71
100
AcDbEntity
  8
0
  6
Continuous
 62
     2
100
AcDbCircle
 10
-78.17703773833068
 20
31.51006106588361
 30
0.0
 40
1.205656168390943
100
AcDbArc
 50
164.9381082228766
 51
195.061891777095
  0
ARC
  5
29A
102
{ACAD_REACTORS
330
2F0
330
2F1
102
}
330
71
100
AcDbEntity
  8
0
  6
Continuous
 62
     2
100
AcDbCircle
 10
-77.75790989486788
 20
31.3972707038487
 30
0.0
 40
1.639695123940517
100
AcDbArc
 50
84.8418552303624
 51
164.9381082228862
  0
ARC
  5
29B
102
{ACAD_REACTORS
330
2F4
330
2F5
102
}
330
71
100
AcDbEntity
  8
0
  6
Continuous
 62
     2
100
AcDbCircle
 10
-82.58792414902979
 20
32.5438878602379
 30
0.0
 40
0.3157169230765328
100
AcDbArc
 50
115.3740086783519
 51
180.0
  0
ARC
  5
29C
102
{ACAD_REACTORS
330
2F4
330
2F5
102
}
330
71
100
AcDbEntity
  8
0
  6
Continuous
 62
     2
100
AcDbCircle
 10
-82.58792414902979
 20
34.76217106017413
 30
0.0
 40
0.315716923076792
100
AcDbArc
 50
180.0
 51
244.6259913216487
  0
ARC
  5
29D
102
{ACAD_REACTORS
330
2F4
330
2F5
102
}
330
71
100
AcDbEntity
  8
0
  6
Continuous
 62
     2
100
AcDbCircle
 10
-82.58230801371977
 20
33.66487140111181
 30
0.0
 40
2.018561131933266
100
AcDbArc
 50
269.8110329575858
 51
90.18896704241416
  0
ARC
  5
29E
102
{ACAD_REACTORS
330
2F4
330
2F5
102
}
330
71
100
AcDbEntity
  8
0
  6
Continuous
 62
     2
100
AcDbCircle
 10
-82.58792414902979
 20
31.96203645354282
 30
0.0
 40
0.315716923076792
100
AcDbArc
 50
180.0
 51
269.8110329574542
  0
ARC
  5
29F
102
{ACAD_REACTORS
330
2F2
330
2F3
102
}
330
71
100
AcDbEntity
  8
0
  6
Continuous
 62
     2
100
AcDbCircle
 10
-61.52446393429918
 20
31.71513249522261
 30
0.0
 40
0.5115800601944086
100
AcDbArc
 50
109.3371432194847
 51
151.4785267424221
  0
ARC
  5
2A0
102
{ACAD_REACTORS
330
2F2
330
2F3
102
}
330
71
100
AcDbEntity
  8
0
  6
Continuous
 62
     2
100
AcDbCircle
 10
-61.52446393429918
 20
31.30498963654512
 30
0.0
 40
0.5115800601960153
100
AcDbArc
 50
208.521473257687
 51
246.6277221118451
  0
ARC
  5
2A1
102
{ACAD_REACTORS
330
2F2
330
2F3
102
}
330
71
100
AcDbEntity
  8
0
  6
Continuous
 62
     2
100
AcDbCircle
 10
-62.07433625907657
 20
31.51006106588361
 30
0.0
 40
1.205656168393008
100
AcDbArc
 50
164.9381082229031
 51
195.0618917770962
  0
ARC
  5
2A2
102
{ACAD_REACTORS
330
2F2
330
2F3
102
}
330
71
100
AcDbEntity
  8
0
  6
Continuous
 62
     2
100
AcDbCircle
 10
-61.65520841561497
 20
31.3972707038487
 30
0.0
 40
1.639695123940218
100
AcDbArc
 50
90.0
 51
164.9381082228947
  0
ARC
  5
2A3
102
{ACAD_REACTORS
330
2F6
330
2F7
102
}
330
71
100
AcDbEntity
  8
0
  6
Continuous
 62
     2
100
AcDbCircle
 10
-71.08220350831868
 20
34.86925154205792
 30
0.0
 40
1.52690476190589
100
AcDbArc
 50
90.0
 51
270.0
  0
ARC
  5
2A4
102
{ACAD_REACTORS
330
2FA
330
2FB
102
}
330
71
100
AcDbEntity
  8
0
  6
Continuous
 62
     2
100
AcDbCircle
 10
-77.82489425354447
 20
35.38018663385262
 30
0.0
 40
0.3528638246711182
100
AcDbArc
 50
270.0
 51
90.0
  0
ARC
  5
2A5
102
{ACAD_REACTORS
330
2F4
330
2F5
102
}
330
71
100
AcDbEntity
  8
0
  6
Continuous
 62
     2
100
AcDbCircle
 10
-85.16347283556149
 20
35.36788382532902
 30
0.0
 40
0.3157169230761951
100
AcDbArc
 50
90.0
 51
180.0
  0
ARC
  5
2A6
102
{ACAD_REACTORS
330
2F4
330
2F5
102
}
330
71
100
AcDbEntity
  8
0
  6
Continuous
 62
     2
100
AcDbCircle
 10
-83.16505512697688
 20
33.65302946020631
 30
0.0
 40
0.911897523557621
100
AcDbArc
 50
115.194410648528
 51
244.8055893514878
  0
ARC
  5
2A7
102
{ACAD_REACTORS
330
2F4
330
2F5
102
}
330
71
100
AcDbEntity
  8
0
  6
Continuous
 62
     2
100
AcDbCircle
 10
-83.68763957455187
 20
32.54219971414352
 30
0.0
 40
0.315716923076593
100
AcDbArc
 50
0.0
 51
64.80558935146027
  0
ARC
  5
2A8
102
{ACAD_REACTORS
330
2F4
330
2F5
102
}
330
71
100
AcDbEntity
  8
0
  6
Continuous
 62
     2
100
AcDbCircle
 10
-85.75736751230798
 20
30.40740091936161
 30
0.0
 40
0.4242446153828041
100
AcDbArc
 50
180.0
 51
270.0
  0
ARC
  5
2A9
102
{ACAD_REACTORS
330
2F6
330
2F7
102
}
330
71
100
AcDbEntity
  8
0
  6
Continuous
 62
     2
100
AcDbCircle
 10
-70.86593149815349
 20
35.02598272017841
 30
0.0
 40
0.5179085730135178
100
AcDbArc
 50
38.12041979714211
 51
141.8795802028501
  0
ARC
  5
2AA
102
{ACAD_REACTORS
330
2F6
330
2F7
102
}
330
71
100
AcDbEntity
  8
0
  6
Continuous
 62
     2
100
AcDbCircle
 10
-70.66619146180719
 20
34.86925154205792
 30
0.0
 40
0.7717997786796724
100
AcDbArc
 50
141.8795802028404
 51
218.1204197971558
  0
ARC
  5
2AB
102
{ACAD_REACTORS
330
2F8
330
2F9
102
}
330
71
100
AcDbEntity
  8
0
  6
Continuous
 62
     2
100
AcDbCircle
 10
-74.82687897894698
 20
32.04863607618691
 30
0.0
 40
2.065479772208505
100
AcDbArc
 50
242.4518518243401
 51
297.5481481756871
  0
ARC
  5
2AC
102
{ACAD_REACTORS
330
2F8
330
2F9
102
}
330
71
100
AcDbEntity
  8
0
  6
Continuous
 62
     2
100
AcDbCircle
 10
-74.82687897894698
 20
30.97148605558081
 30
0.0
 40
2.065479772208561
100
AcDbArc
 50
62.45185182430628
 51
117.5481481756665
  0
ARC
  5
2AD
102
{ACAD_REACTORS
330
2F8
330
2F9
102
}
330
71
100
AcDbEntity
  8
0
  6
Continuous
 62
     2
100
AcDbCircle
 10
-75.10781887078028
 20
31.51006106588361
 30
0.0
 40
1.458034083651478
100
AcDbArc
 50
117.5481481756627
 51
242.4518518243376
  0
ARC
  5
2AE
102
{ACAD_REACTORS
330
2F8
330
2F9
102
}
330
71
100
AcDbEntity
  8
0
  6
Continuous
 62
     2
100
AcDbCircle
 10
-74.54593908711368
 20
31.51006106588361
 30
0.0
 40
1.458034083652006
100
AcDbArc
 50
297.548148175701
 51
62.45185182429869
  0
ARC
  5
2AF
102
{ACAD_REACTORS
330
2F6
330
2F7
102
}
330
71
100
AcDbEntity
  8
0
  6
Continuous
 62
     2
100
AcDbCircle
 10
-70.86593149815349
 20
34.7125203639375
 30
0.0
 40
0.5179085730134372
100
AcDbArc
 50
218.1204197971511
 51
321.8795802028566
  0
ARC
  5
2B0
102
{ACAD_REACTORS
330
2F6
330
2F7
102
}
330
71
100
AcDbEntity
  8
0
  6
Continuous
 62
     2
100
AcDbCircle
 10
-71.06567153449967
 20
34.86925154205792
 30
0.0
 40
0.7717997786796329
100
AcDbArc
 50
321.8795802028442
 51
38.12041979715956
  0
ARC
  5
2B1
102
{ACAD_REACTORS
330
2F4
330
2F5
102
}
330
71
100
AcDbEntity
  8
0
  6
Continuous
 62
     2
100
AcDbCircle
 10
-80.28405542159118
 20
30.40740091936161
 30
0.0
 40
0.4242446153832908
100
AcDbArc
 50
270.0
 51
0.0
  0
ARC
  5
2B2
102
{ACAD_REACTORS
330
2F4
330
2F5
102
}
330
71
100
AcDbEntity
  8
0
  6
Continuous
 62
     2
100
AcDbCircle
 10
-80.28405542159118
 20
35.97191168856182
 30
0.0
 40
0.4242446153838841
100
AcDbArc
 50
0.0
 51
90.0
  0
ARC
  5
2B3
102
{ACAD_REACTORS
330
2F4
330
2F5
102
}
330
71
100
AcDbEntity
  8
0
  6
Continuous
 62
     2
100
AcDbCircle
 10
-85.75736751230798
 20
35.97191168856182
 30
0.0
 40
0.4242446153837989
100
AcDbArc
 50
90.0
 51
180.0
  0
ARC
  5
2B4
102
{ACAD_REACTORS
330
2F4
330
2F5
102
}
330
71
100
AcDbEntity
  8
0
  6
Continuous
 62
     2
100
AcDbCircle
 10
-83.68763957455187
 20
31.01142878261192
 30
0.0
 40
0.3157169230767103
100
AcDbArc
 50
270.0
 51
0.0
  0
ARC
  5
2B5
102
{ACAD_REACTORS
330
2F4
330
2F5
102
}
330
71
100
AcDbEntity
  8
0
  6
Continuous
 62
     2
100
AcDbCircle
 10
-83.68763957455187
 20
34.76385920626851
 30
0.0
 40
0.3157169230761203
100
AcDbArc
 50
295.1944106485397
 51
0.0
  0
ARC
  5
2B6
102
{ACAD_REACTORS
330
2F4
330
2F5
102
}
330
71
100
AcDbEntity
  8
0
  6
Continuous
 62
     2
100
AcDbCircle
 10
-83.68763957455187
 20
35.36788382532902
 30
0.0
 40
0.315716923076593
100
AcDbArc
 50
0.0
 51
90.0
  0
ARC
  5
2B7
102
{ACAD_REACTORS
330
2F4
330
2F5
102
}
330
71
100
AcDbEntity
  8
0
  6
Continuous
 62
     2
100
AcDbCircle
 10
-85.16347283556149
 20
31.01142878261192
 30
0.0
 40
0.3157169230756836
100
AcDbArc
 50
180.0
 51
270.0
  0
ARC
  5
2B8
102
{ACAD_REACTORS
330
2FA
330
2FB
102
}
330
71
100
AcDbEntity
  8
0
  6
Continuous
 62
     2
100
AcDbCircle
 10
-77.38342172730609
 20
35.34079066263013
 30
0.0
 40
1.055365641333708
100
AcDbArc
 50
270.0
 51
90.0
  0
ARC
  5
2B9
102
{ACAD_REACTORS
330
2F2
330
2F3
102
}
330
71
100
AcDbEntity
  8
0
  6
Continuous
 62
     2
100
AcDbCircle
 10
-61.65520841561497
 20
31.62285142791842
 30
0.0
 40
1.639695123940442
100
AcDbArc
 50
195.0618917771013
 51
275.1581447696765
  0
ARC
  5
2BA
102
{ACAD_REACTORS
330
2F2
330
2F3
102
}
330
71
100
AcDbEntity
  8
0
  6
Continuous
 62
     2
100
AcDbCircle
 10
-61.94406451035079
 20
34.82274201114001
 30
0.0
 40
4.852596863498822
100
AcDbArc
 50
275.1581447696365
 51
285.9799912583387
  0
ARC
  5
2BB
102
{ACAD_REACTORS
330
2F2
330
2F3
102
}
330
71
100
AcDbEntity
  8
0
  6
Continuous
 62
     2
100
AcDbCircle
 10
-61.78619163525798
 20
32.9205274312917
 30
0.0
 40
2.227384008972749
100
AcDbArc
 50
288.4480761181334
 51
301.9309089499395
  0
ARC
  5
2BC
102
{ACAD_REACTORS
330
2F2
330
2F3
102
}
330
71
100
AcDbEntity
  8
0
  6
Continuous
 62
     2
100
AcDbCircle
 10
-61.36802390159608
 20
31.66698165525511
 30
0.0
 40
0.905929784985274
100
AcDbArc
 50
246.6277221118186
 51
288.4480761180822
  0
ARC
  5
2BD
102
{ACAD_REACTORS
330
2F2
330
2F3
102
}
330
71
100
AcDbEntity
  8
0
  6
Continuous
 62
     2
100
AcDbCircle
 10
-61.14710667621779
 20
31.51006106588361
 30
0.0
 40
0.9410597353348844
100
AcDbArc
 50
151.4785267423624
 51
208.5214732576699
  0
ARC
  5
2BE
102
{ACAD_REACTORS
330
2F2
330
2F3
102
}
330
71
100
AcDbEntity
  8
0
  6
Continuous
 62
     2
100
AcDbCircle
 10
-61.37779393619547
 20
31.29717751483972
 30
0.0
 40
0.9545230068260899
100
AcDbArc
 50
90.0
 51
109.3371432194321
  0
ARC
  5
2BF
102
{ACAD_REACTORS
330
2F4
330
2F5
102
}
330
71
100
AcDbEntity
  8
0
  6
Continuous
 62
     2
100
AcDbCircle
 10
-82.58792414902979
 20
35.36770634868091
 30
0.0
 40
0.3157169230760711
100
AcDbArc
 50
90.18896704254594
 51
180.0
  0
ARC
  5
2C0
102
{ACAD_REACTORS
330
2F4
330
2F5
102
}
330
71
100
AcDbEntity
  8
0
  6
Continuous
 62
     2
100
AcDbCircle
 10
-83.11396684711767
 20
33.65302946020631
 30
0.0
 40
0.911848150144459
100
AcDbArc
 50
295.3740086781764
 51
64.62599132180748
  0
ARC
  5
2C1
102
{ACAD_REACTORS
330
2F0
330
2F1
102
}
330
71
100
AcDbEntity
  8
0
  6
Continuous
 62
     2
100
AcDbCircle
 10
-77.88889311451086
 20
32.9205274312923
 30
0.0
 40
2.227384008972737
100
AcDbArc
 50
288.4480761181328
 51
301.9309089499593
  0
ARC
  5
2C2
102
{ACAD_REACTORS
330
2F0
330
2F1
102
}
330
71
100
AcDbEntity
  8
0
  6
Continuous
 62
     2
100
AcDbCircle
 10
-77.47072538085007
 20
31.66698165525511
 30
0.0
 40
0.905929784984916
100
AcDbArc
 50
246.6277221118709
 51
288.4480761181586
  0
ARC
  5
2C3
102
{ACAD_REACTORS
330
2F0
330
2F1
102
}
330
71
100
AcDbEntity
  8
0
  6
Continuous
 62
     2
100
AcDbCircle
 10
-77.62716541355209
 20
31.30498963654512
 30
0.0
 40
0.5115800601948034
100
AcDbArc
 50
208.5214732576956
 51
246.6277221118275
  0
ARC
  5
2C4
102
{ACAD_REACTORS
330
2F0
330
2F1
102
}
330
71
100
AcDbEntity
  8
0
  6
Continuous
 62
     2
100
AcDbCircle
 10
-77.47072538085007
 20
31.35314047651201
 30
0.0
 40
0.9059297849853228
100
AcDbArc
 50
71.55192388185348
 51
113.372277888129
  0
ARC
  5
2C5
102
{ACAD_REACTORS
330
2F0
330
2F1
102
}
330
71
100
AcDbEntity
  8
0
  6
Continuous
 62
     2
100
AcDbCircle
 10
-78.04676598960378
 20
28.19738012062771
 30
0.0
 40
4.852596863498071
100
AcDbArc
 50
74.02000874164739
 51
84.84185523037506
  0
CIRCLE
  5
2C6
102
{ACAD_REACTORS
330
2F4
330
2F5
102
}
330
71
100
AcDbEntity
  8
0
  6
Continuous
 62
     2
100
AcDbCircle
 10
-83.13778186179047
 20
33.65302946020631
 30
0.0
 40
0.4709789327785074
  0
CIRCLE
  5
2C7
330
71
100
AcDbEntity
  8
1
  6
Continuous
 62
     2
100
AcDbCircle
 10
-77.68161212769078
 20
43.81465630396193
 30
0.0
 40
1.249999999999915
  0
CIRCLE
  5
2C8
330
71
100
AcDbEntity
  8
1
  6
Continuous
 62
     2
100
AcDbCircle
 10
-77.68161212769078
 20
43.81465630396193
 30
0.0
 40
2.5
  0
TEXT
  5
2C9
330
71
100
AcDbEntity
  8
1
 62
     7
100
AcDbText
 10
-35.04471929223959
 20
40.98965630396191
 30
0.0
 40
2.5
  1
/
 41
0.9
  7
CONVERTER_11
100
AcDbText
  0
TEXT
  5
2CB
330
71
100
AcDbEntity
  8
1
 62
     7
100
AcDbText
 10
-32.88835479519759
 20
40.98965630396191
 30
0.0
 40
2.5
  1
01
 41
0.81
  7
CONVERTER_12
100
AcDbText
  0
TEXT
  5
2CC
330
71
100
AcDbEntity
  8
1
 62
     3
100
AcDbText
 10
4.70812923081951
 20
40.98965630396191
 30
0.0
 40
2.5
  1
16.08.2018
 41
0.81
  7
CONVERTER_12
100
AcDbText
  0
MTEXT
  5
2CD
330
71
100
AcDbEntity
  8
1
 62
     2
100
AcDbMText
 10
4.70812923081951
 20
47.18965630396193
 30
0.0
 40
1.8
 41
0.0
 71
     1
 72
     1
  1
date
  7
CONVERTER_11
 73
     1
 44
1.32052821128451
  0
MTEXT
  5
2CE
330
71
100
AcDbEntity
  8
1
 62
     2
100
AcDbMText
 10
-25.11826701425338
 20
38.68965630396193
 30
0.0
 40
1.8
 41
0.0
 71
     1
 72
     1
  1
document-type
  7
CONVERTER_11
 73
     1
 44
1.20048019207683
  0
TEXT
  5
2CF
330
71
100
AcDbEntity
  8
1
 62
     3
100
AcDbText
 10
-25.11826701425338
 20
32.48965630396191
 30
0.0
 40
2.5
  1
TECDOC 2D_Productdrawing
 41
0.81
  7
CONVERTER_12
100
AcDbText
  0
MTEXT
  5
2D1
330
71
100
AcDbEntity
  8
1
 62
     2
100
AcDbMText
 10
-52.91826701425339
 20
47.18965630396201
 30
0.0
 40
1.8
 41
0.0
 71
     1
 72
     1
  1
document-No. / RI
  7
CONVERTER_13
 73
     1
 44
1.32052821128451
  0
TEXT
  5
2D2
330
71
100
AcDbEntity
  8
1
 62
     7
100
AcDbText
 10
-52.91826701425339
 20
40.98965630396191
 30
0.0
 40
2.5
  1
40204113
 41
0.81
  7
CONVERTER_12
100
AcDbText
  0
MTEXT
  5
2D4
330
71
100
AcDbEntity
  8
1
 62
     3
100
AcDbMText
 10
34.66733337165893
 20
40.98965630396211
 30
0.0
 40
2.5
 41
0.0
 71
     8
 72
     1
  1
2:1
  7
CONVERTER_14
 73
     1
 44
1.32052821128451
  0
MTEXT
  5
2D5
330
71
100
AcDbEntity
  8
1
 62
     2
100
AcDbMText
 10
31.30812923081933
 20
47.18965630396201
 30
0.0
 40
1.8
 41
0.0
 71
     1
 72
     1
  1
scale
  7
CONVERTER_11
 73
     1
 44
1.20048019207683
  0
MTEXT
  5
2D6
330
71
100
AcDbEntity
  8
1
 62
     2
100
AcDbMText
 10
-52.91826701425339
 20
38.68965630396201
 30
0.0
 40
1.8
 41
0.0
 71
     1
 72
     1
  1
ident.-No.
  7
CONVERTER_11
 73
     1
 44
1.20048019207683
  0
TEXT
  5
2D7
330
71
100
AcDbEntity
  8
1
 62
     7
100
AcDbText
 10
-52.51826701425367
 20
32.48965630396191
 30
0.0
 40
2.5
  1
0811969
 41
0.81
  7
CONVERTER_12
100
AcDbText
  0
MTEXT
  5
2D8
330
71
100
AcDbEntity
  8
1
 62
     2
100
AcDbMText
 10
-124.8562817393009
 20
35.43965630396193
 30
0.0
 40
2.0
 41
0.0
 71
     5
 72
     1
  1
General Information\P- Simplified representation\P- Document excluded from change process\P- Linear dimensions [mm]
  7
CONVERTER_11
 73
     1
 44
1.20048019207683
  0
MTEXT
  5
2D9
330
71
100
AcDbEntity
  8
1
 62
     7
100
AcDbMText
 10
41.62653751249562
 20
97.68965630396391
 30
0.0
 40
3.5
 41
0.0
 71
     5
 72
     1
  1
C
  7
CONVERTER_11
 73
     1
 44
1.20048019207683
  0
MTEXT
  5
2DA
330
71
100
AcDbEntity
  8
1
 62
     7
100
AcDbMText
 10
41.62653751249562
 20
200.189656303962
 30
0.0
 40
3.5
 41
0.0
 71
     5
 72
     1
  1
A
  7
CONVERTER_11
 73
     1
 44
1.20048019207683
  0
MTEXT
  5
2DB
330
71
100
AcDbEntity
  8
1
 62
     7
100
AcDbMText
 10
41.62653751249562
 20
147.6896563039639
 30
0.0
 40
3.5
 41
0.0
 71
     5
 72
     1
  1
B
  7
CONVERTER_11
 73
     1
 44
1.20048019207683
  0
MTEXT
  5
2DC
330
71
100
AcDbEntity
  8
1
 62
     7
100
AcDbMText
 10
41.62653751249562
 20
45.18965630396201
 30
0.0
 40
3.5
 41
0.0
 71
     5
 72
     1
  1
D
  7
CONVERTER_11
 73
     1
 44
1.20048019207683
  0
MTEXT
  5
2DD
330
71
100
AcDbEntity
  8
1
 62
     7
100
AcDbMText
 10
-228.623462487503
 20
20.1896563039619
 30
0.0
 40
3.5
 41
0.0
 71
     5
 72
     1
  1
1
  7
CONVERTER_11
 73
     1
 44
1.20048019207683
  0
MTEXT
  5
2DE
330
71
100
AcDbEntity
  8
1
 62
     7
100
AcDbMText
 10
-179.3734624875034
 20
20.1896563039619
 30
0.0
 40
3.5
 41
0.0
 71
     5
 72
     1
  1
2
  7
CONVERTER_11
 73
     1
 44
1.20048019207683
  0
MTEXT
  5
2DF
330
71
100
AcDbEntity
  8
1
 62
     7
100
AcDbMText
 10
-129.3734624875034
 20
20.1896563039619
 30
0.0
 40
3.5
 41
0.0
 71
     5
 72
     1
  1
3
  7
CONVERTER_11
 73
     1
 44
1.20048019207683
  0
MTEXT
  5
2E0
330
71
100
AcDbEntity
  8
1
 62
     7
100
AcDbMText
 10
-79.37346248750347
 20
20.1896563039619
 30
0.0
 40
3.5
 41
0.0
 71
     5
 72
     1
  1
4
  7
CONVERTER_11
 73
     1
 44
1.20048019207683
  0
MTEXT
  5
2E1
330
71
100
AcDbEntity
  8
1
 62
     7
100
AcDbMText
 10
-29.37346248750339
 20
20.1896563039619
 30
0.0
 40
3.5
 41
0.0
 71
     5
 72
     1
  1
5
  7
CONVERTER_11
 73
     1
 44
1.20048019207683
  0
MTEXT
  5
2E2
330
71
100
AcDbEntity
  8
1
 62
     7
100
AcDbMText
 10
19.87653751249582
 20
20.1896563039619
 30
0.0
 40
3.5
 41
0.0
 71
     5
 72
     1
  1
6
  7
CONVERTER_11
 73
     1
 44
1.20048019207683
  0
MTEXT
  5
2E3
330
71
100
AcDbEntity
  8
1
 62
     7
100
AcDbMText
 10
-250.3734624875025
 20
200.189656303962
 30
0.0
 40
3.5
 41
0.0
 71
     5
 72
     1
  1
A
  7
CONVERTER_11
 73
     1
 44
1.20048019207683
  0
MTEXT
  5
2E4
330
71
100
AcDbEntity
  8
1
 62
     7
100
AcDbMText
 10
-250.3734624875025
 20
147.689656303962
 30
0.0
 40
3.5
 41
0.0
 71
     5
 72
     1
  1
B
  7
CONVERTER_11
 73
     1
 44
1.20048019207683
  0
MTEXT
  5
2E5
330
71
100
AcDbEntity
  8
1
 62
     7
100
AcDbMText
 10
-250.3734624875025
 20
97.68965630396201
 30
0.0
 40
3.5
 41
0.0
 71
     5
 72
     1
  1
C
  7
CONVERTER_11
 73
     1
 44
1.20048019207683
  0
MTEXT
  5
2E6
330
71
100
AcDbEntity
  8
1
 62
     7
100
AcDbMText
 10
-250.3734624875025
 20
45.18965630396201
 30
0.0
 40
3.5
 41
0.0
 71
     5
 72
     1
  1
D
  7
CONVERTER_11
 73
     1
 44
1.20048019207683
  0
MTEXT
  5
2E7
330
71
100
AcDbEntity
  8
1
 62
     3
100
AcDbMText
 10
-64.21826701425348
 20
43.81465630396201
 30
0.0
 40
2.5
 41
0.0
 71
     5
 72
     1
  1
DIN A4
  7
CONVERTER_11
 73
     1
 44
1.20048019207683
  0
MTEXT
  5
2E8
330
71
100
AcDbEntity
  8
1
 62
     2
100
AcDbMText
 10
-53.01826701425347
 20
30.18965630396201
 30
0.0
 40
1.8
 41
0.0
 71
     1
 72
     1
  1
description
  7
CONVERTER_11
 73
     1
 44
1.20048019207683
  0
MTEXT
  5
2E9
330
71
100
AcDbEntity
  8
1
 62
     7
100
AcDbMText
 10
-7.44586475087789
 20
25.93965630396224
 30
0.0
 40
3.0
 41
0.0
 71
     5
 72
     1
  1
KLM 3
  7
CONVERTER_12
 73
     1
 44
1.20048019207683
  0
TEXT
  5
2EA
330
71
100
AcDbEntity
  8
1
 62
     2
100
AcDbText
 10
-65.98295820443988
 20
23.9396563039619
 30
0.0
 40
1.8
  1
1
 41
0.9
  7
CONVERTER_11
100
AcDbText
  0
TEXT
  5
2EB
330
71
100
AcDbEntity
  8
1
 62
     2
100
AcDbText
 10
-80.77200204391139
 20
23.89040765016
 30
0.0
 40
1.8
  1
1
 41
0.9
  7
CONVERTER_11
100
AcDbText
  0
TEXT
  5
2EC
330
71
100
AcDbEntity
  8
1
 62
     2
100
AcDbText
 10
-89.41826701425339
 20
23.93063908897034
 30
0.0
 40
1.8
  1
page
 41
0.9
  7
CONVERTER_11
100
AcDbText
  0
TEXT
  5
2ED
330
71
100
AcDbEntity
  8
1
 62
     2
100
AcDbText
 10
-71.21826701425357
 20
23.9306390889704
 30
0.0
 40
1.8
  1
of
 41
0.9
  7
CONVERTER_11
100
AcDbText
  0
MTEXT
  5
2EE
330
71
100
AcDbEntity
  8
1
 62
     3
100
AcDbMText
 10
-65.01528486264348
 20
209.4809644592608
 30
0.0
 40
1.8
 41
0.0
 71
     7
 72
     1
  3
Transfer or duplication of this document as well as the utilisation or\Pcommunication of its content are not permitted unless express consent\Pis granted. Violations give rise to claims for damages. All rights reserved\Pin case of patent, utility mo
  1
del or design patent registrations.
  7
CONVERTER_11
 73
     1
 44
0.99639855942377
  0
MTEXT
  5
2EF
330
71
100
AcDbEntity
  8
1
 62
     3
100
AcDbMText
 10
-247.8683947014316
 20
209.4809644592608
 30
0.0
 40
1.8
 41
0.0
 71
     7
 72
     1
  3
Weitergabe sowie Vervielf\U+00e4ltigung dieses Dokuments, Verwertung und \PMitteilung seines Inhalts sind verboten, soweit nicht ausdr\U+00fccklich gestattet. \PZuwiderhandlungen verpflichten zu Schadenersatz. Alle Rechte f\U+00fcr den Fall\Pder Pat
  1
ent-, Gebrauchsmuster- oder Designeintragung vorbehalten.
  7
CONVERTER_11
 73
     1
 44
0.99639855942377
  0
HATCH
  5
2F0
330
71
100
AcDbEntity
  8
1
  6
Continuous
 62
     2
100
AcDbHatch
 10
0.0
 20
0.0
 30
0.0
210
0.0
220
0.0
230
1.0
  2
_USER
 70
     0
 71
     1
 91
        1
 92
        1
 93
       14
 72
     2
 10
-78.17703773833068
 20
31.51006106588361
 40
1.205656168390943
 50
164.9381082228766
 51
195.061891777095
 73
     1
 72
     2
 10
-77.75790989486788
 20
31.62285142791842
 40
1.639695123939386
 50
195.0618917770894
 51
275.1581447696395
 73
     1
 72
     2
 10
-78.04676598960378
 20
34.82274201114001
 40
4.852596863498134
 50
275.1581447696249
 51
285.9799912583529
 73
     1
 72
     1
 10
-76.71083807248598
 20
30.1576597053392
 11
-76.71083807248598
 21
31.03017671214241
 72
     2
 10
-77.88889311451086
 20
32.9205274312923
 40
2.227384008972737
 50
58.06909105004065
 51
71.55192388186722
 73
     0
 72
     2
 10
-77.47072538085007
 20
31.66698165525511
 40
0.905929784984916
 50
71.55192388184147
 51
113.3722778881291
 73
     0
 72
     2
 10
-77.62716541355209
 20
31.30498963654512
 40
0.5115800601948034
 50
113.3722778881725
 51
151.4785267423044
 73
     0
 72
     2
 10
-77.24980815547178
 20
31.51006106588361
 40
0.9410597353332545
 50
151.4785267422941
 51
208.5214732577331
 73
     0
 72
     2
 10
-77.62716541355209
 20
31.71513249522261
 40
0.5115800601948747
 50
208.5214732576959
 51
246.6277221118007
 73
     0
 72
     2
 10
-77.47072538085007
 20
31.35314047651201
 40
0.9059297849853228
 50
246.627722111871
 51
288.4480761181465
 73
     0
 72
     2
 10
-77.88889311451086
 20
30.09959470047542
 40
2.227384008973484
 50
288.4480761181328
 51
301.9309089499591
 73
     0
 72
     1
 10
-76.71083807248598
 20
31.98994541962532
 11
-76.71083807248598
 21
32.86246242642861
 72
     2
 10
-78.04676598960378
 20
28.19738012062771
 40
4.852596863498071
 50
74.02000874164739
 51
84.84185523037506
 73
     1
 72
     2
 10
-77.75790989486788
 20
31.3972707038487
 40
1.639695123940517
 50
84.8418552303624
 51
164.9381082228862
 73
     1
 97
       14
330
2C5
330
1DE
330
294
330
2C4
330
295
330
296
330
2C3
330
2C2
330
2C1
330
1DF
330
297
330
298
330
299
330
29A
 75
     1
 76
     0
 52
45.0
 41
0.1
 77
     0
 78
     1
 53
45.0
 43
0.0
 44
0.0
 45
-0.0707106781186548
 46
0.0707106781186548
 79
     0
 98
        1
 10
0.0
 20
0.0
  0
HATCH
  5
2F1
330
71
100
AcDbEntity
  8
1
  6
Continuous
 62
     2
100
AcDbHatch
 10
0.0
 20
0.0
 30
0.0
210
0.0
220
0.0
230
1.0
  2
_USER
 70
     0
 71
     1
 91
        1
 92
        1
 93
       14
 72
     2
 10
-78.17703773833068
 20
31.51006106588361
 40
1.205656168390943
 50
164.9381082228766
 51
195.061891777095
 73
     1
 72
     2
 10
-77.75790989486788
 20
31.62285142791842
 40
1.639695123939386
 50
195.0618917770894
 51
275.1581447696395
 73
     1
 72
     2
 10
-78.04676598960378
 20
34.82274201114001
 40
4.852596863498134
 50
275.1581447696249
 51
285.9799912583529
 73
     1
 72
     1
 10
-76.71083807248598
 20
30.1576597053392
 11
-76.71083807248598
 21
31.03017671214241
 72
     2
 10
-77.88889311451086
 20
32.9205274312923
 40
2.227384008972737
 50
58.06909105004065
 51
71.55192388186722
 73
     0
 72
     2
 10
-77.47072538085007
 20
31.66698165525511
 40
0.905929784984916
 50
71.55192388184147
 51
113.3722778881291
 73
     0
 72
     2
 10
-77.62716541355209
 20
31.30498963654512
 40
0.5115800601948034
 50
113.3722778881725
 51
151.4785267423044
 73
     0
 72
     2
 10
-77.24980815547178
 20
31.51006106588361
 40
0.9410597353332545
 50
151.4785267422941
 51
208.5214732577331
 73
     0
 72
     2
 10
-77.62716541355209
 20
31.71513249522261
 40
0.5115800601948747
 50
208.5214732576959
 51
246.6277221118007
 73
     0
 72
     2
 10
-77.47072538085007
 20
31.35314047651201
 40
0.9059297849853228
 50
246.627722111871
 51
288.4480761181465
 73
     0
 72
     2
 10
-77.88889311451086
 20
30.09959470047542
 40
2.227384008973484
 50
288.4480761181328
 51
301.9309089499591
 73
     0
 72
     1
 10
-76.71083807248598
 20
31.98994541962532
 11
-76.71083807248598
 21
32.86246242642861
 72
     2
 10
-78.04676598960378
 20
28.19738012062771
 40
4.852596863498071
 50
74.02000874164739
 51
84.84185523037506
 73
     1
 72
     2
 10
-77.75790989486788
 20
31.3972707038487
 40
1.639695123940517
 50
84.8418552303624
 51
164.9381082228862
 73
     1
 97
       14
330
2C5
330
1DE
330
294
330
2C4
330
295
330
296
330
2C3
330
2C2
330
2C1
330
1DF
330
297
330
298
330
299
330
29A
 75
     1
 76
     0
 52
45.0
 41
0.1
 77
     0
 78
     1
 53
45.0
 43
0.0
 44
0.0
 45
-0.0707106781186548
 46
0.0707106781186548
 79
     0
 98
        1
 10
0.0
 20
0.0
  0
HATCH
  5
2F2
330
71
100
AcDbEntity
  8
1
  6
Continuous
 62
     2
100
AcDbHatch
 10
0.0
 20
0.0
 30
0.0
210
0.0
220
0.0
230
1.0
  2
_USER
 70
     0
 71
     1
 91
        1
 92
        1
 93
       18
 72
     2
 10
-61.65520841561497
 20
31.3972707038487
 40
1.639695123940218
 50
90.0
 51
164.9381082228947
 73
     1
 72
     2
 10
-62.07433625907657
 20
31.51006106588361
 40
1.205656168393008
 50
164.9381082229031
 51
195.0618917770962
 73
     1
 72
     2
 10
-61.65520841561497
 20
31.62285142791842
 40
1.639695123940442
 50
195.0618917771013
 51
275.1581447696765
 73
     1
 72
     2
 10
-61.94406451035079
 20
34.82274201114001
 40
4.852596863498822
 50
275.1581447696365
 51
285.9799912583387
 73
     1
 72
     1
 10
-60.60813659323407
 20
30.1576597053386
 11
-60.60813659323407
 21
31.03017671214192
 72
     2
 10
-61.78619163525798
 20
32.9205274312917
 40
2.227384008972749
 50
58.0690910500605
 51
71.55192388186657
 73
     0
 72
     2
 10
-61.36802390159608
 20
31.66698165525511
 40
0.905929784985274
 50
71.55192388191786
 51
113.3722778881814
 73
     0
 72
     2
 10
-61.52446393429918
 20
31.30498963654512
 40
0.5115800601960153
 50
113.3722778881549
 51
151.478526742313
 73
     0
 72
     2
 10
-61.14710667621779
 20
31.51006106588361
 40
0.9410597353348844
 50
151.4785267423301
 51
208.5214732576376
 73
     0
 72
     2
 10
-61.52446393429918
 20
31.71513249522261
 40
0.5115800601944086
 50
208.5214732575779
 51
250.6628567805153
 73
     0
 72
     2
 10
-61.37779393619547
 20
31.29717751483972
 40
0.9545230068260899
 50
250.6628567805679
 51
270.0
 73
     0
 72
     1
 10
-61.37779393619547
 20
32.25170052166581
 11
-60.27415463662737
 21
32.25170052166581
 72
     1
 10
-60.27415463662737
 20
32.25170052166581
 11
-60.27415463662737
 21
29.98315630397832
 72
     1
 10
-60.27415463662737
 20
29.98315630397832
 11
-59.08136193445967
 21
29.98315630397832
 72
     1
 10
-59.08136193445967
 20
29.98315630397832
 11
-59.08136193445967
 21
32.25170052166581
 72
     1
 10
-59.08136193445967
 20
32.25170052166581
 11
-58.27026289698628
 21
32.25170052166581
 72
     1
 10
-58.27026289698628
 20
32.25170052166581
 11
-58.27026289698628
 21
33.0369658277894
 72
     1
 10
-58.27026289698628
 20
33.0369658277894
 11
-61.65520841561497
 21
33.03696582778892
 97
       18
330
244
330
243
330
242
330
241
330
246
330
1E0
330
2BE
330
29F
330
2BD
330
2A0
330
2BC
330
2BB
330
1E1
330
2BA
330
2B9
330
2A1
330
2A2
330
245
 75
     1
 76
     0
 52
45.0
 41
0.1
 77
     0
 78
     1
 53
45.0
 43
0.0
 44
0.0
 45
-0.0707106781186548
 46
0.0707106781186548
 79
     0
 98
        1
 10
0.0
 20
0.0
  0
HATCH
  5
2F3
330
71
100
AcDbEntity
  8
1
  6
Continuous
 62
     2
100
AcDbHatch
 10
0.0
 20
0.0
 30
0.0
210
0.0
220
0.0
230
1.0
  2
_USER
 70
     0
 71
     1
 91
        1
 92
        1
 93
       18
 72
     2
 10
-61.65520841561497
 20
31.3972707038487
 40
1.639695123940218
 50
90.0
 51
164.9381082228947
 73
     1
 72
     2
 10
-62.07433625907657
 20
31.51006106588361
 40
1.205656168393008
 50
164.9381082229031
 51
195.0618917770962
 73
     1
 72
     2
 10
-61.65520841561497
 20
31.62285142791842
 40
1.639695123940442
 50
195.0618917771013
 51
275.1581447696765
 73
     1
 72
     2
 10
-61.94406451035079
 20
34.82274201114001
 40
4.852596863498822
 50
275.1581447696365
 51
285.9799912583387
 73
     1
 72
     1
 10
-60.60813659323407
 20
30.1576597053386
 11
-60.60813659323407
 21
31.03017671214192
 72
     2
 10
-61.78619163525798
 20
32.9205274312917
 40
2.227384008972749
 50
58.0690910500605
 51
71.55192388186657
 73
     0
 72
     2
 10
-61.36802390159608
 20
31.66698165525511
 40
0.905929784985274
 50
71.55192388191786
 51
113.3722778881814
 73
     0
 72
     2
 10
-61.52446393429918
 20
31.30498963654512
 40
0.5115800601960153
 50
113.3722778881549
 51
151.478526742313
 73
     0
 72
     2
 10
-61.14710667621779
 20
31.51006106588361
 40
0.9410597353348844
 50
151.4785267423301
 51
208.5214732576376
 73
     0
 72
     2
 10
-61.52446393429918
 20
31.71513249522261
 40
0.5115800601944086
 50
208.5214732575779
 51
250.6628567805153
 73
     0
 72
     2
 10
-61.37779393619547
 20
31.29717751483972
 40
0.9545230068260899
 50
250.6628567805679
 51
270.0
 73
     0
 72
     1
 10
-61.37779393619547
 20
32.25170052166581
 11
-60.27415463662737
 21
32.25170052166581
 72
     1
 10
-60.27415463662737
 20
32.25170052166581
 11
-60.27415463662737
 21
29.98315630397832
 72
     1
 10
-60.27415463662737
 20
29.98315630397832
 11
-59.08136193445967
 21
29.98315630397832
 72
     1
 10
-59.08136193445967
 20
29.98315630397832
 11
-59.08136193445967
 21
32.25170052166581
 72
     1
 10
-59.08136193445967
 20
32.25170052166581
 11
-58.27026289698628
 21
32.25170052166581
 72
     1
 10
-58.27026289698628
 20
32.25170052166581
 11
-58.27026289698628
 21
33.0369658277894
 72
     1
 10
-58.27026289698628
 20
33.0369658277894
 11
-61.65520841561497
 21
33.03696582778892
 97
       18
330
244
330
243
330
242
330
241
330
246
330
1E0
330
2BE
330
29F
330
2BD
330
2A0
330
2BC
330
2BB
330
1E1
330
2BA
330
2B9
330
2A1
330
2A2
330
245
 75
     1
 76
     0
 52
45.0
 41
0.1
 77
     0
 78
     1
 53
45.0
 43
0.0
 44
0.0
 45
-0.0707106781186548
 46
0.0707106781186548
 79
     0
 98
        1
 10
0.0
 20
0.0
  0
HATCH
  5
2F4
330
71
100
AcDbEntity
  8
1
  6
Continuous
 62
     2
100
AcDbHatch
 10
0.0
 20
0.0
 30
0.0
210
0.0
220
0.0
230
1.0
  2
_USER
 70
     0
 71
     1
 91
        4
 92
        1
 93
        8
 72
     2
 10
-85.75736751230798
 20
35.97191168856182
 40
0.4242446153837989
 50
90.0
 51
180.0
 73
     1
 72
     1
 10
-86.18161212769078
 20
35.97191168856182
 11
-86.18161212769078
 21
30.40740091936161
 72
     2
 10
-85.75736751230798
 20
30.40740091936161
 40
0.4242446153828041
 50
180.0
 51
270.0
 73
     1
 72
     1
 10
-85.75736751230798
 20
29.98315630397832
 11
-80.28405542159118
 21
29.98315630397832
 72
     2
 10
-80.28405542159118
 20
30.40740091936161
 40
0.4242446153832908
 50
270.0
 51
360.0
 73
     1
 72
     1
 10
-79.85981080620729
 20
30.40740091936161
 11
-79.85981080620729
 21
35.97191168856182
 72
     2
 10
-80.28405542159118
 20
35.97191168856182
 40
0.4242446153838841
 50
0.0
 51
90.0
 73
     1
 72
     1
 10
-80.28405542159118
 20
36.39615630394562
 11
-85.75736751230798
 21
36.39615630394562
 97
        8
330
2B2
330
20F
330
2B1
330
210
330
2A8
330
20D
330
2B3
330
20E
 92
       16
 93
        1
 72
     2
 10
-83.13778186179047
 20
33.65302946020631
 40
0.4709789327785074
 50
0.0
 51
360.0
 73
     1
 97
        1
330
2C6
 92
       16
 93
        8
 72
     2
 10
-83.11396684711767
 20
33.65302946020631
 40
0.911848150144459
 50
295.3740086781764
 51
424.6259913218075
 73
     1
 72
     2
 10
-82.58792414902979
 20
34.76217106017413
 40
0.315716923076792
 50
115.3740086783513
 51
180.0
 73
     0
 72
     1
 10
-82.90364107210658
 20
34.76217106017413
 11
-82.90364107210658
 21
35.36770634868091
 72
     2
 10
-82.58792414902979
 20
35.36770634868091
 40
0.3157169230760711
 50
180.0
 51
269.8110329574541
 73
     0
 72
     2
 10
-82.58230801371977
 20
33.66487140111181
 40
2.018561131933266
 50
269.8110329575858
 51
450.1889670424142
 73
     0
 72
     2
 10
-82.58792414902979
 20
31.96203645354282
 40
0.315716923076792
 50
90.18896704254585
 51
180.0
 73
     0
 72
     1
 10
-82.90364107210658
 20
31.96203645354282
 11
-82.90364107210658
 21
32.5438878602379
 72
     2
 10
-82.58792414902979
 20
32.5438878602379
 40
0.3157169230765328
 50
180.0
 51
244.6259913216482
 73
     0
 97
        8
330
2C0
330
29C
330
248
330
2BF
330
29D
330
29E
330
247
330
29B
 92
       16
 93
       12
 72
     1
 10
-85.16347283556149
 20
30.69571185953521
 11
-83.68763957455187
 21
30.69571185953521
 72
     2
 10
-83.68763957455187
 20
31.01142878261192
 40
0.3157169230767103
 50
270.0
 51
360.0
 73
     1
 72
     1
 10
-83.37192265147527
 20
31.01142878261192
 11
-83.37192265147527
 21
32.54219971414352
 72
     2
 10
-83.68763957455187
 20
32.54219971414352
 40
0.315716923076593
 50
0.0
 51
64.80558935146027
 73
     1
 72
     2
 10
-83.16505512697688
 20
33.65302946020631
 40
0.911897523557621
 50
115.1944106485122
 51
244.805589351472
 73
     0
 72
     2
 10
-83.68763957455187
 20
34.76385920626851
 40
0.3157169230761203
 50
295.1944106485397
 51
360.0
 73
     1
 72
     1
 10
-83.37192265147527
 20
34.76385920626851
 11
-83.37192265147527
 21
35.36788382532902
 72
     2
 10
-83.68763957455187
 20
35.36788382532902
 40
0.315716923076593
 50
0.0
 51
90.0
 73
     1
 72
     1
 10
-83.68763957455187
 20
35.68360074840521
 11
-85.16347283556149
 21
35.68360074840521
 72
     2
 10
-85.16347283556149
 20
35.36788382532902
 40
0.3157169230761951
 50
90.0
 51
180.0
 73
     1
 72
     1
 10
-85.47918975863718
 20
35.36788382532902
 11
-85.47918975863718
 21
31.01142878261192
 72
     2
 10
-85.16347283556149
 20
31.01142878261192
 40
0.3157169230756836
 50
180.0
 51
270.0
 73
     1
 97
       12
330
214
330
2A5
330
213
330
2B6
330
212
330
2B5
330
2A6
330
2A7
330
211
330
2B4
330
20C
330
2B7
 75
     1
 76
     0
 52
45.0
 41
0.1
 77
     0
 78
     1
 53
45.0
 43
0.0
 44
0.0
 45
-0.0707106781186548
 46
0.0707106781186548
 79
     0
 98
        1
 10
0.0
 20
0.0
  0
HATCH
  5
2F5
330
71
100
AcDbEntity
  8
1
  6
Continuous
 62
     2
100
AcDbHatch
 10
0.0
 20
0.0
 30
0.0
210
0.0
220
0.0
230
1.0
  2
_USER
 70
     0
 71
     1
 91
        4
 92
        1
 93
        8
 72
     2
 10
-85.75736751230798
 20
35.97191168856182
 40
0.4242446153837989
 50
90.0
 51
180.0
 73
     1
 72
     1
 10
-86.18161212769078
 20
35.97191168856182
 11
-86.18161212769078
 21
30.40740091936161
 72
     2
 10
-85.75736751230798
 20
30.40740091936161
 40
0.4242446153828041
 50
180.0
 51
270.0
 73
     1
 72
     1
 10
-85.75736751230798
 20
29.98315630397832
 11
-80.28405542159118
 21
29.98315630397832
 72
     2
 10
-80.28405542159118
 20
30.40740091936161
 40
0.4242446153832908
 50
270.0
 51
360.0
 73
     1
 72
     1
 10
-79.85981080620729
 20
30.40740091936161
 11
-79.85981080620729
 21
35.97191168856182
 72
     2
 10
-80.28405542159118
 20
35.97191168856182
 40
0.4242446153838841
 50
0.0
 51
90.0
 73
     1
 72
     1
 10
-80.28405542159118
 20
36.39615630394562
 11
-85.75736751230798
 21
36.39615630394562
 97
        8
330
2B2
330
20F
330
2B1
330
210
330
2A8
330
20D
330
2B3
330
20E
 92
       16
 93
        1
 72
     2
 10
-83.13778186179047
 20
33.65302946020631
 40
0.4709789327785074
 50
0.0
 51
360.0
 73
     1
 97
        1
330
2C6
 92
       16
 93
        8
 72
     2
 10
-83.11396684711767
 20
33.65302946020631
 40
0.911848150144459
 50
295.3740086781764
 51
424.6259913218075
 73
     1
 72
     2
 10
-82.58792414902979
 20
34.76217106017413
 40
0.315716923076792
 50
115.3740086783513
 51
180.0
 73
     0
 72
     1
 10
-82.90364107210658
 20
34.76217106017413
 11
-82.90364107210658
 21
35.36770634868091
 72
     2
 10
-82.58792414902979
 20
35.36770634868091
 40
0.3157169230760711
 50
180.0
 51
269.8110329574541
 73
     0
 72
     2
 10
-82.58230801371977
 20
33.66487140111181
 40
2.018561131933266
 50
269.8110329575858
 51
450.1889670424142
 73
     0
 72
     2
 10
-82.58792414902979
 20
31.96203645354282
 40
0.315716923076792
 50
90.18896704254585
 51
180.0
 73
     0
 72
     1
 10
-82.90364107210658
 20
31.96203645354282
 11
-82.90364107210658
 21
32.5438878602379
 72
     2
 10
-82.58792414902979
 20
32.5438878602379
 40
0.3157169230765328
 50
180.0
 51
244.6259913216482
 73
     0
 97
        8
330
2C0
330
29C
330
248
330
2BF
330
29D
330
29E
330
247
330
29B
 92
       16
 93
       12
 72
     1
 10
-85.16347283556149
 20
30.69571185953521
 11
-83.68763957455187
 21
30.69571185953521
 72
     2
 10
-83.68763957455187
 20
31.01142878261192
 40
0.3157169230767103
 50
270.0
 51
360.0
 73
     1
 72
     1
 10
-83.37192265147527
 20
31.01142878261192
 11
-83.37192265147527
 21
32.54219971414352
 72
     2
 10
-83.68763957455187
 20
32.54219971414352
 40
0.315716923076593
 50
0.0
 51
64.80558935146027
 73
     1
 72
     2
 10
-83.16505512697688
 20
33.65302946020631
 40
0.911897523557621
 50
115.1944106485122
 51
244.805589351472
 73
     0
 72
     2
 10
-83.68763957455187
 20
34.76385920626851
 40
0.3157169230761203
 50
295.1944106485397
 51
360.0
 73
     1
 72
     1
 10
-83.37192265147527
 20
34.76385920626851
 11
-83.37192265147527
 21
35.36788382532902
 72
     2
 10
-83.68763957455187
 20
35.36788382532902
 40
0.315716923076593
 50
0.0
 51
90.0
 73
     1
 72
     1
 10
-83.68763957455187
 20
35.68360074840521
 11
-85.16347283556149
 21
35.68360074840521
 72
     2
 10
-85.16347283556149
 20
35.36788382532902
 40
0.3157169230761951
 50
90.0
 51
180.0
 73
     1
 72
     1
 10
-85.47918975863718
 20
35.36788382532902
 11
-85.47918975863718
 21
31.01142878261192
 72
     2
 10
-85.16347283556149
 20
31.01142878261192
 40
0.3157169230756836
 50
180.0
 51
270.0
 73
     1
 97
       12
330
214
330
2A5
330
213
330
2B6
330
212
330
2B5
330
2A6
330
2A7
330
211
330
2B4
330
20C
330
2B7
 75
     1
 76
     0
 52
45.0
 41
0.1
 77
     0
 78
     1
 53
45.0
 43
0.0
 44
0.0
 45
-0.0707106781186548
 46
0.0707106781186548
 79
     0
 98
        1
 10
0.0
 20
0.0
  0
HATCH
  5
2F6
330
71
100
AcDbEntity
  8
1
  6
Continuous
 62
     2
100
AcDbHatch
 10
0.0
 20
0.0
 30
0.0
210
0.0
220
0.0
230
1.0
  2
_USER
 70
     0
 71
     1
 91
        2
 92
        1
 93
       12
 72
     2
 10
-71.08220350831868
 20
34.86925154205792
 40
1.52690476190589
 50
90.0
 51
270.0
 73
     1
 72
     1
 10
-71.08220350831868
 20
33.34234678015261
 11
-67.93188378453769
 21
33.34234678015261
 72
     1
 10
-67.93188378453769
 20
33.34234678015261
 11
-67.93188378453769
 21
34.04036038559511
 72
     1
 10
-67.93188378453769
 20
34.04036038559511
 11
-69.26781161096537
 21
34.04036038559511
 72
     1
 10
-69.26781161096537
 20
34.04036038559511
 11
-69.26781161096537
 21
34.52024473933682
 72
     1
 10
-69.26781161096537
 20
34.52024473933682
 11
-67.93188378453769
 21
34.52024473933682
 72
     1
 10
-67.93188378453769
 20
34.52024473933682
 11
-67.93188378453769
 21
35.21825834477912
 72
     1
 10
-67.93188378453769
 20
35.21825834477912
 11
-69.26781161096537
 21
35.21825834477912
 72
     1
 10
-69.26781161096537
 20
35.21825834477912
 11
-69.26781161096537
 21
35.69814269852083
 72
     1
 10
-69.26781161096537
 20
35.69814269852083
 11
-67.93188378453769
 21
35.69814269852083
 72
     1
 10
-67.93188378453769
 20
35.69814269852083
 11
-67.93188378453769
 21
36.39615630396381
 72
     1
 10
-67.93188378453769
 20
36.39615630396381
 11
-71.08220350831868
 21
36.39615630396381
 97
       12
330
203
330
1FD
330
224
330
223
330
222
330
221
330
1FE
330
1FF
330
200
330
201
330
2A3
330
202
 92
       16
 93
        4
 72
     2
 10
-70.66619146180719
 20
34.86925154205792
 40
0.7717997786796724
 50
141.8795802028404
 51
218.1204197971558
 73
     1
 72
     2
 10
-70.86593149815349
 20
34.7125203639375
 40
0.5179085730134372
 50
218.1204197971511
 51
321.8795802028566
 73
     1
 72
     2
 10
-71.06567153449967
 20
34.86925154205792
 40
0.7717997786796329
 50
321.8795802028442
 51
398.1204197971596
 73
     1
 72
     2
 10
-70.86593149815349
 20
35.02598272017841
 40
0.5179085730135178
 50
38.12041979714211
 51
141.8795802028501
 73
     1
 97
        4
330
2B0
330
2AF
330
2AA
330
2A9
 75
     1
 76
     0
 52
45.0
 41
0.1
 77
     0
 78
     1
 53
45.0
 43
0.0
 44
0.0
 45
-0.0707106781186548
 46
0.0707106781186548
 79
     0
 98
        1
 10
0.0
 20
0.0
  0
HATCH
  5
2F7
330
71
100
AcDbEntity
  8
1
  6
Continuous
 62
     2
100
AcDbHatch
 10
0.0
 20
0.0
 30
0.0
210
0.0
220
0.0
230
1.0
  2
_USER
 70
     0
 71
     1
 91
        2
 92
        1
 93
       12
 72
     2
 10
-71.08220350831868
 20
34.86925154205792
 40
1.52690476190589
 50
90.0
 51
270.0
 73
     1
 72
     1
 10
-71.08220350831868
 20
33.34234678015261
 11
-67.93188378453769
 21
33.34234678015261
 72
     1
 10
-67.93188378453769
 20
33.34234678015261
 11
-67.93188378453769
 21
34.04036038559511
 72
     1
 10
-67.93188378453769
 20
34.04036038559511
 11
-69.26781161096537
 21
34.04036038559511
 72
     1
 10
-69.26781161096537
 20
34.04036038559511
 11
-69.26781161096537
 21
34.52024473933682
 72
     1
 10
-69.26781161096537
 20
34.52024473933682
 11
-67.93188378453769
 21
34.52024473933682
 72
     1
 10
-67.93188378453769
 20
34.52024473933682
 11
-67.93188378453769
 21
35.21825834477912
 72
     1
 10
-67.93188378453769
 20
35.21825834477912
 11
-69.26781161096537
 21
35.21825834477912
 72
     1
 10
-69.26781161096537
 20
35.21825834477912
 11
-69.26781161096537
 21
35.69814269852083
 72
     1
 10
-69.26781161096537
 20
35.69814269852083
 11
-67.93188378453769
 21
35.69814269852083
 72
     1
 10
-67.93188378453769
 20
35.69814269852083
 11
-67.93188378453769
 21
36.39615630396381
 72
     1
 10
-67.93188378453769
 20
36.39615630396381
 11
-71.08220350831868
 21
36.39615630396381
 97
       12
330
203
330
1FD
330
224
330
223
330
222
330
221
330
1FE
330
1FF
330
200
330
201
330
2A3
330
202
 92
       16
 93
        4
 72
     2
 10
-70.66619146180719
 20
34.86925154205792
 40
0.7717997786796724
 50
141.8795802028404
 51
218.1204197971558
 73
     1
 72
     2
 10
-70.86593149815349
 20
34.7125203639375
 40
0.5179085730134372
 50
218.1204197971511
 51
321.8795802028566
 73
     1
 72
     2
 10
-71.06567153449967
 20
34.86925154205792
 40
0.7717997786796329
 50
321.8795802028442
 51
398.1204197971596
 73
     1
 72
     2
 10
-70.86593149815349
 20
35.02598272017841
 40
0.5179085730135178
 50
38.12041979714211
 51
141.8795802028501
 73
     1
 97
        4
330
2B0
330
2AF
330
2AA
330
2A9
 75
     1
 76
     0
 52
45.0
 41
0.1
 77
     0
 78
     1
 53
45.0
 43
0.0
 44
0.0
 45
-0.0707106781186548
 46
0.0707106781186548
 79
     0
 98
        1
 10
0.0
 20
0.0
  0
HATCH
  5
2F8
330
71
100
AcDbEntity
  8
1
  6
Continuous
 62
     2
100
AcDbHatch
 10
0.0
 20
0.0
 30
0.0
210
0.0
220
0.0
230
1.0
  2
_USER
 70
     0
 71
     1
 91
        2
 92
        1
 93
        4
 72
     2
 10
-75.10781887078028
 20
31.51006106588361
 40
1.458034083651478
 50
117.5481481756627
 51
242.4518518243376
 73
     1
 72
     2
 10
-74.82687897894698
 20
32.04863607618691
 40
2.065479772208505
 50
242.4518518243401
 51
297.5481481756871
 73
     1
 72
     2
 10
-74.54593908711368
 20
31.51006106588361
 40
1.458034083652006
 50
297.548148175701
 51
422.4518518242987
 73
     1
 72
     2
 10
-74.82687897894698
 20
30.97148605558081
 40
2.065479772208561
 50
62.45185182430628
 51
117.5481481756665
 73
     1
 97
        4
330
2AE
330
2AB
330
2AD
330
2AC
 92
       16
 93
        4
 72
     2
 10
-74.82687897894698
 20
31.66679224400411
 40
0.5179085730133021
 50
38.12041979714734
 51
141.8795802028585
 73
     1
 72
     2
 10
-74.62713894260088
 20
31.51006106588361
 40
0.7717997786794588
 50
141.8795802028367
 51
218.1204197971689
 73
     1
 72
     2
 10
-74.82687897894698
 20
31.35332988776361
 40
0.5179085730137354
 50
218.1204197971931
 51
321.879580202801
 73
     1
 72
     2
 10
-75.02661901529339
 20
31.51006106588361
 40
0.771799778679697
 50
321.8795802028415
 51
398.1204197971529
 73
     1
 97
        4
330
291
330
292
330
293
330
290
 75
     1
 76
     0
 52
45.0
 41
0.1
 77
     0
 78
     1
 53
45.0
 43
0.0
 44
0.0
 45
-0.0707106781186548
 46
0.0707106781186548
 79
     0
 98
        1
 10
0.0
 20
0.0
  0
HATCH
  5
2F9
330
71
100
AcDbEntity
  8
1
  6
Continuous
 62
     2
100
AcDbHatch
 10
0.0
 20
0.0
 30
0.0
210
0.0
220
0.0
230
1.0
  2
_USER
 70
     0
 71
     1
 91
        2
 92
        1
 93
        4
 72
     2
 10
-75.10781887078028
 20
31.51006106588361
 40
1.458034083651478
 50
117.5481481756627
 51
242.4518518243376
 73
     1
 72
     2
 10
-74.82687897894698
 20
32.04863607618691
 40
2.065479772208505
 50
242.4518518243401
 51
297.5481481756871
 73
     1
 72
     2
 10
-74.54593908711368
 20
31.51006106588361
 40
1.458034083652006
 50
297.548148175701
 51
422.4518518242987
 73
     1
 72
     2
 10
-74.82687897894698
 20
30.97148605558081
 40
2.065479772208561
 50
62.45185182430628
 51
117.5481481756665
 73
     1
 97
        4
330
2AE
330
2AB
330
2AD
330
2AC
 92
       16
 93
        4
 72
     2
 10
-74.82687897894698
 20
31.66679224400411
 40
0.5179085730133021
 50
38.12041979714734
 51
141.8795802028585
 73
     1
 72
     2
 10
-74.62713894260088
 20
31.51006106588361
 40
0.7717997786794588
 50
141.8795802028367
 51
218.1204197971689
 73
     1
 72
     2
 10
-74.82687897894698
 20
31.35332988776361
 40
0.5179085730137354
 50
218.1204197971931
 51
321.879580202801
 73
     1
 72
     2
 10
-75.02661901529339
 20
31.51006106588361
 40
0.771799778679697
 50
321.8795802028415
 51
398.1204197971529
 73
     1
 97
        4
330
291
330
292
330
293
330
290
 75
     1
 76
     0
 52
45.0
 41
0.1
 77
     0
 78
     1
 53
45.0
 43
0.0
 44
0.0
 45
-0.0707106781186548
 46
0.0707106781186548
 79
     0
 98
        1
 10
0.0
 20
0.0
  0
HATCH
  5
2FA
330
71
100
AcDbEntity
  8
1
  6
Continuous
 62
     2
100
AcDbHatch
 10
0.0
 20
0.0
 30
0.0
210
0.0
220
0.0
230
1.0
  2
_USER
 70
     0
 71
     1
 91
        2
 92
        1
 93
        6
 72
     1
 10
-79.38269372534049
 20
36.39615630396381
 11
-79.38269372534049
 21
33.34234678015261
 72
     1
 10
-79.38269372534049
 20
33.34234678015261
 11
-78.14218931508637
 21
33.34234678015261
 72
     1
 10
-78.14218931508637
 20
33.34234678015261
 11
-78.14218931508637
 21
34.28542502129642
 72
     1
 10
-78.14218931508637
 20
34.28542502129642
 11
-77.38342172730609
 21
34.28542502129642
 72
     2
 10
-77.38342172730609
 20
35.34079066263013
 40
1.055365641333708
 50
270.0
 51
450.0
 73
     1
 72
     1
 10
-77.38342172730609
 20
36.39615630396381
 11
-79.38269372534049
 21
36.39615630396381
 97
        6
330
2B8
330
215
330
20B
330
20A
330
217
330
216
 92
       16
 93
        4
 72
     1
 10
-77.82489425354447
 20
35.73305045852371
 11
-78.14218931508637
 21
35.73305045852371
 72
     1
 10
-78.14218931508637
 20
35.73305045852371
 11
-78.14218931508637
 21
35.0273228091815
 72
     1
 10
-78.14218931508637
 20
35.0273228091815
 11
-77.82489425354447
 21
35.0273228091815
 72
     2
 10
-77.82489425354447
 20
35.38018663385262
 40
0.3528638246711182
 50
270.0
 51
450.0
 73
     1
 97
        4
330
218
330
209
330
219
330
2A4
 75
     1
 76
     0
 52
45.0
 41
0.1
 77
     0
 78
     1
 53
45.0
 43
0.0
 44
0.0
 45
-0.0707106781186548
 46
0.0707106781186548
 79
     0
 98
        1
 10
0.0
 20
0.0
  0
HATCH
  5
2FB
330
71
100
AcDbEntity
  8
1
  6
Continuous
 62
     2
100
AcDbHatch
 10
0.0
 20
0.0
 30
0.0
210
0.0
220
0.0
230
1.0
  2
_USER
 70
     0
 71
     1
 91
        2
 92
        1
 93
        6
 72
     1
 10
-79.38269372534049
 20
36.39615630396381
 11
-79.38269372534049
 21
33.34234678015261
 72
     1
 10
-79.38269372534049
 20
33.34234678015261
 11
-78.14218931508637
 21
33.34234678015261
 72
     1
 10
-78.14218931508637
 20
33.34234678015261
 11
-78.14218931508637
 21
34.28542502129642
 72
     1
 10
-78.14218931508637
 20
34.28542502129642
 11
-77.38342172730609
 21
34.28542502129642
 72
     2
 10
-77.38342172730609
 20
35.34079066263013
 40
1.055365641333708
 50
270.0
 51
450.0
 73
     1
 72
     1
 10
-77.38342172730609
 20
36.39615630396381
 11
-79.38269372534049
 21
36.39615630396381
 97
        6
330
2B8
330
215
330
20B
330
20A
330
217
330
216
 92
       16
 93
        4
 72
     1
 10
-77.82489425354447
 20
35.73305045852371
 11
-78.14218931508637
 21
35.73305045852371
 72
     1
 10
-78.14218931508637
 20
35.73305045852371
 11
-78.14218931508637
 21
35.0273228091815
 72
     1
 10
-78.14218931508637
 20
35.0273228091815
 11
-77.82489425354447
 21
35.0273228091815
 72
     2
 10
-77.82489425354447
 20
35.38018663385262
 40
0.3528638246711182
 50
270.0
 51
450.0
 73
     1
 97
        4
330
218
330
209
330
219
330
2A4
 75
     1
 76
     0
 52
45.0
 41
0.1
 77
     0
 78
     1
 53
45.0
 43
0.0
 44
0.0
 45
-0.0707106781186548
 46
0.0707106781186548
 79
     0
 98
        1
 10
0.0
 20
0.0
  0
HATCH
  5
2FC
330
71
100
AcDbEntity
  8
1
  6
Continuous
 62
     2
100
AcDbHatch
 10
0.0
 20
0.0
 30
0.0
210
0.0
220
0.0
230
1.0
  2
_USER
 70
     0
 71
     1
 91
        1
 92
        1
 93
       12
 72
     1
 10
-59.76841053090729
 20
36.39615630396381
 11
-58.36568631316007
 21
36.39615630396381
 72
     1
 10
-58.36568631316007
 20
36.39615630396381
 11
-59.66821594392658
 21
34.92320577392761
 72
     1
 10
-59.66821594392658
 20
34.92320577392761
 11
-58.27026289698628
 21
33.34234678015261
 72
     1
 10
-58.27026289698628
 20
33.34234678015261
 11
-59.67298711473458
 21
33.34234678015261
 72
     1
 10
-59.67298711473458
 20
33.34234678015261
 11
-60.36957805280008
 21
34.13007856544633
 72
     1
 10
-60.36957805280008
 20
34.13007856544633
 11
-61.06616899086578
 21
33.34234678015261
 72
     1
 10
-61.06616899086578
 20
33.34234678015261
 11
-62.46889320861399
 21
33.34234678015261
 72
     1
 10
-62.46889320861399
 20
33.34234678015261
 11
-61.07094016167369
 21
34.92320577392761
 72
     1
 10
-61.07094016167369
 20
34.92320577392761
 11
-62.37346979244117
 21
36.39615630396381
 72
     1
 10
-62.37346979244117
 20
36.39615630396381
 11
-60.97074557469188
 21
36.39615630396381
 72
     1
 10
-60.97074557469188
 20
36.39615630396381
 11
-60.36957805280008
 21
35.71633298240832
 72
     1
 10
-60.36957805280008
 20
35.71633298240832
 11
-59.76841053090729
 21
36.39615630396381
 97
       12
330
1E4
330
23D
330
23C
330
23B
330
23A
330
1E5
330
1E6
330
1E2
330
1E3
330
240
330
23F
330
23E
 75
     1
 76
     0
 52
45.0
 41
0.1
 77
     0
 78
     1
 53
45.0
 43
0.0
 44
0.0
 45
-0.0707106781186548
 46
0.0707106781186548
 79
     0
 98
        1
 10
0.0
 20
0.0
  0
HATCH
  5
2FD
330
71
100
AcDbEntity
  8
1
  6
Continuous
 62
     2
100
AcDbHatch
 10
0.0
 20
0.0
 30
0.0
210
0.0
220
0.0
230
1.0
  2
_USER
 70
     0
 71
     1
 91
        1
 92
        1
 93
       12
 72
     1
 10
-59.76841053090729
 20
36.39615630396381
 11
-58.36568631316007
 21
36.39615630396381
 72
     1
 10
-58.36568631316007
 20
36.39615630396381
 11
-59.66821594392658
 21
34.92320577392761
 72
     1
 10
-59.66821594392658
 20
34.92320577392761
 11
-58.27026289698628
 21
33.34234678015261
 72
     1
 10
-58.27026289698628
 20
33.34234678015261
 11
-59.67298711473458
 21
33.34234678015261
 72
     1
 10
-59.67298711473458
 20
33.34234678015261
 11
-60.36957805280008
 21
34.13007856544633
 72
     1
 10
-60.36957805280008
 20
34.13007856544633
 11
-61.06616899086578
 21
33.34234678015261
 72
     1
 10
-61.06616899086578
 20
33.34234678015261
 11
-62.46889320861399
 21
33.34234678015261
 72
     1
 10
-62.46889320861399
 20
33.34234678015261
 11
-61.07094016167369
 21
34.92320577392761
 72
     1
 10
-61.07094016167369
 20
34.92320577392761
 11
-62.37346979244117
 21
36.39615630396381
 72
     1
 10
-62.37346979244117
 20
36.39615630396381
 11
-60.97074557469188
 21
36.39615630396381
 72
     1
 10
-60.97074557469188
 20
36.39615630396381
 11
-60.36957805280008
 21
35.71633298240832
 72
     1
 10
-60.36957805280008
 20
35.71633298240832
 11
-59.76841053090729
 21
36.39615630396381
 97
       12
330
1E4
330
23D
330
23C
330
23B
330
23A
330
1E5
330
1E6
330
1E2
330
1E3
330
240
330
23F
330
23E
 75
     1
 76
     0
 52
45.0
 41
0.1
 77
     0
 78
     1
 53
45.0
 43
0.0
 44
0.0
 45
-0.0707106781186548
 46
0.0707106781186548
 79
     0
 98
        1
 10
0.0
 20
0.0
  0
HATCH
  5
2FE
330
71
100
AcDbEntity
  8
1
  6
Continuous
 62
     2
100
AcDbHatch
 10
0.0
 20
0.0
 30
0.0
210
0.0
220
0.0
230
1.0
  2
_USER
 70
     0
 71
     1
 91
        1
 92
        1
 93
        4
 72
     1
 10
-62.58817247883087
 20
36.39615630396381
 11
-62.58817247883087
 21
33.34234678015261
 72
     1
 10
-62.58817247883087
 20
33.34234678015261
 11
-63.82867688908377
 21
33.34234678015261
 72
     1
 10
-63.82867688908377
 20
33.34234678015261
 11
-63.82867688908377
 21
36.39615630396381
 72
     1
 10
-63.82867688908377
 20
36.39615630396381
 11
-62.58817247883087
 21
36.39615630396381
 97
        4
330
238
330
1E7
330
237
330
239
 75
     1
 76
     0
 52
45.0
 41
0.1
 77
     0
 78
     1
 53
45.0
 43
0.0
 44
0.0
 45
-0.0707106781186548
 46
0.0707106781186548
 79
     0
 98
        1
 10
0.0
 20
0.0
  0
HATCH
  5
2FF
330
71
100
AcDbEntity
  8
1
  6
Continuous
 62
     2
100
AcDbHatch
 10
0.0
 20
0.0
 30
0.0
210
0.0
220
0.0
230
1.0
  2
_USER
 70
     0
 71
     1
 91
        1
 92
        1
 93
        4
 72
     1
 10
-62.58817247883087
 20
36.39615630396381
 11
-62.58817247883087
 21
33.34234678015261
 72
     1
 10
-62.58817247883087
 20
33.34234678015261
 11
-63.82867688908377
 21
33.34234678015261
 72
     1
 10
-63.82867688908377
 20
33.34234678015261
 11
-63.82867688908377
 21
36.39615630396381
 72
     1
 10
-63.82867688908377
 20
36.39615630396381
 11
-62.58817247883087
 21
36.39615630396381
 97
        4
330
238
330
1E7
330
237
330
239
 75
     1
 76
     0
 52
45.0
 41
0.1
 77
     0
 78
     1
 53
45.0
 43
0.0
 44
0.0
 45
-0.0707106781186548
 46
0.0707106781186548
 79
     0
 98
        1
 10
0.0
 20
0.0
  0
HATCH
  5
300
330
71
100
AcDbEntity
  8
1
  6
Continuous
 62
     2
100
AcDbHatch
 10
0.0
 20
0.0
 30
0.0
210
0.0
220
0.0
230
1.0
  2
_USER
 70
     0
 71
     1
 91
        2
 92
        1
 93
        8
 72
     1
 10
-62.97861648236287
 20
29.98315630397832
 11
-64.21912089261679
 21
29.98315630397832
 72
     1
 10
-64.21912089261679
 20
29.98315630397832
 11
-64.43060094609257
 21
30.5241168481962
 72
     1
 10
-64.43060094609257
 20
30.5241168481962
 11
-65.56304252276638
 21
30.5241168481962
 72
     1
 10
-65.56304252276638
 20
30.5241168481962
 11
-65.77452257624219
 21
29.98315630397832
 72
     1
 10
-65.77452257624219
 20
29.98315630397832
 11
-67.01502698649517
 21
29.98315630397832
 72
     1
 10
-67.01502698649517
 20
29.98315630397832
 11
-65.61707393955587
 21
33.0369658277894
 72
     1
 10
-65.61707393955587
 20
33.0369658277894
 11
-64.37656952930317
 21
33.0369658277894
 72
     1
 10
-64.37656952930317
 20
33.0369658277894
 11
-62.97861648236287
 21
29.98315630397832
 97
        8
330
233
330
1ED
330
232
330
235
330
1EA
330
234
330
1EB
330
1EC
 92
       16
 93
        3
 72
     1
 10
-65.29698697162138
 20
31.2046801135028
 11
-64.69665649723888
 21
31.2046801135028
 72
     1
 10
-64.69665649723888
 20
31.2046801135028
 11
-64.99682173442898
 21
31.97249507948951
 72
     1
 10
-64.99682173442898
 20
31.97249507948951
 11
-65.29698697162138
 21
31.2046801135028
 97
        3
330
1E9
330
1E8
330
236
 75
     1
 76
     0
 52
45.0
 41
0.1
 77
     0
 78
     1
 53
45.0
 43
0.0
 44
0.0
 45
-0.0707106781186548
 46
0.0707106781186548
 79
     0
 98
        1
 10
0.0
 20
0.0
  0
HATCH
  5
301
330
71
100
AcDbEntity
  8
1
  6
Continuous
 62
     2
100
AcDbHatch
 10
0.0
 20
0.0
 30
0.0
210
0.0
220
0.0
230
1.0
  2
_USER
 70
     0
 71
     1
 91
        2
 92
        1
 93
        8
 72
     1
 10
-62.97861648236287
 20
29.98315630397832
 11
-64.21912089261679
 21
29.98315630397832
 72
     1
 10
-64.21912089261679
 20
29.98315630397832
 11
-64.43060094609257
 21
30.5241168481962
 72
     1
 10
-64.43060094609257
 20
30.5241168481962
 11
-65.56304252276638
 21
30.5241168481962
 72
     1
 10
-65.56304252276638
 20
30.5241168481962
 11
-65.77452257624219
 21
29.98315630397832
 72
     1
 10
-65.77452257624219
 20
29.98315630397832
 11
-67.01502698649517
 21
29.98315630397832
 72
     1
 10
-67.01502698649517
 20
29.98315630397832
 11
-65.61707393955587
 21
33.0369658277894
 72
     1
 10
-65.61707393955587
 20
33.0369658277894
 11
-64.37656952930317
 21
33.0369658277894
 72
     1
 10
-64.37656952930317
 20
33.0369658277894
 11
-62.97861648236287
 21
29.98315630397832
 97
        8
330
233
330
1ED
330
232
330
235
330
1EA
330
234
330
1EB
330
1EC
 92
       16
 93
        3
 72
     1
 10
-65.29698697162138
 20
31.2046801135028
 11
-64.69665649723888
 21
31.2046801135028
 72
     1
 10
-64.69665649723888
 20
31.2046801135028
 11
-64.99682173442898
 21
31.97249507948951
 72
     1
 10
-64.99682173442898
 20
31.97249507948951
 11
-65.29698697162138
 21
31.2046801135028
 97
        3
330
1E9
330
1E8
330
236
 75
     1
 76
     0
 52
45.0
 41
0.1
 77
     0
 78
     1
 53
45.0
 43
0.0
 44
0.0
 45
-0.0707106781186548
 46
0.0707106781186548
 79
     0
 98
        1
 10
0.0
 20
0.0
  0
HATCH
  5
302
330
71
100
AcDbEntity
  8
1
  6
Continuous
 62
     2
100
AcDbHatch
 10
0.0
 20
0.0
 30
0.0
210
0.0
220
0.0
230
1.0
  2
_USER
 70
     0
 71
     1
 91
        1
 92
        1
 93
        8
 72
     1
 10
-69.17253912567739
 20
33.0369658277894
 11
-69.17253912567739
 21
32.25170052166581
 72
     1
 10
-69.17253912567739
 20
32.25170052166581
 11
-68.36144008820278
 21
32.25170052166581
 72
     1
 10
-68.36144008820278
 20
32.25170052166581
 11
-68.36144008820278
 21
29.98315630397832
 72
     1
 10
-68.36144008820278
 20
29.98315630397832
 11
-67.16864738603627
 21
29.98315630397832
 72
     1
 10
-67.16864738603627
 20
29.98315630397832
 11
-67.16864738603627
 21
32.25170052166581
 72
     1
 10
-67.16864738603627
 20
32.25170052166581
 11
-66.35754834856377
 21
32.25170052166581
 72
     1
 10
-66.35754834856377
 20
32.25170052166581
 11
-66.35754834856377
 21
33.0369658277894
 72
     1
 10
-66.35754834856377
 20
33.0369658277894
 11
-69.17253912567739
 21
33.0369658277894
 97
        8
330
22F
330
22E
330
22D
330
1EE
330
1EF
330
231
330
1F0
330
230
 75
     1
 76
     0
 52
45.0
 41
0.1
 77
     0
 78
     1
 53
45.0
 43
0.0
 44
0.0
 45
-0.0707106781186548
 46
0.0707106781186548
 79
     0
 98
        1
 10
0.0
 20
0.0
  0
HATCH
  5
303
330
71
100
AcDbEntity
  8
1
  6
Continuous
 62
     2
100
AcDbHatch
 10
0.0
 20
0.0
 30
0.0
210
0.0
220
0.0
230
1.0
  2
_USER
 70
     0
 71
     1
 91
        1
 92
        1
 93
        8
 72
     1
 10
-69.17253912567739
 20
33.0369658277894
 11
-69.17253912567739
 21
32.25170052166581
 72
     1
 10
-69.17253912567739
 20
32.25170052166581
 11
-68.36144008820278
 21
32.25170052166581
 72
     1
 10
-68.36144008820278
 20
32.25170052166581
 11
-68.36144008820278
 21
29.98315630397832
 72
     1
 10
-68.36144008820278
 20
29.98315630397832
 11
-67.16864738603627
 21
29.98315630397832
 72
     1
 10
-67.16864738603627
 20
29.98315630397832
 11
-67.16864738603627
 21
32.25170052166581
 72
     1
 10
-67.16864738603627
 20
32.25170052166581
 11
-66.35754834856377
 21
32.25170052166581
 72
     1
 10
-66.35754834856377
 20
32.25170052166581
 11
-66.35754834856377
 21
33.0369658277894
 72
     1
 10
-66.35754834856377
 20
33.0369658277894
 11
-69.17253912567739
 21
33.0369658277894
 97
        8
330
22F
330
22E
330
22D
330
1EE
330
1EF
330
231
330
1F0
330
230
 75
     1
 76
     0
 52
45.0
 41
0.1
 77
     0
 78
     1
 53
45.0
 43
0.0
 44
0.0
 45
-0.0707106781186548
 46
0.0707106781186548
 79
     0
 98
        1
 10
0.0
 20
0.0
  0
HATCH
  5
304
330
71
100
AcDbEntity
  8
1
  6
Continuous
 62
     2
100
AcDbHatch
 10
0.0
 20
0.0
 30
0.0
210
0.0
220
0.0
230
1.0
  2
_USER
 70
     0
 71
     1
 91
        1
 92
        1
 93
       10
 72
     1
 10
-66.50053254193827
 20
36.39615630396381
 11
-67.69332524410478
 21
36.39615630396381
 72
     1
 10
-67.69332524410478
 20
36.39615630396381
 11
-67.69332524410478
 21
33.34234678015261
 72
     1
 10
-67.69332524410478
 20
33.34234678015261
 11
-66.50053254193827
 21
33.34234678015261
 72
     1
 10
-66.50053254193827
 20
33.34234678015261
 11
-66.50053254193827
 21
34.65112229035731
 72
     1
 10
-66.50053254193827
 20
34.65112229035731
 11
-65.26002813168427
 21
33.34234678015261
 72
     1
 10
-65.26002813168427
 20
33.34234678015261
 11
-64.06723542951767
 21
33.34234678015261
 72
     1
 10
-64.06723542951767
 20
33.34234678015261
 11
-64.06723542951767
 21
36.39615630396381
 72
     1
 10
-64.06723542951767
 20
36.39615630396381
 11
-65.26002813168427
 21
36.39615630396381
 72
     1
 10
-65.26002813168427
 20
36.39615630396381
 11
-65.26002813168427
 21
35.08738079375863
 72
     1
 10
-65.26002813168427
 20
35.08738079375863
 11
-66.50053254193827
 21
36.39615630396381
 97
       10
330
229
330
1F3
330
1F4
330
1F5
330
1F6
330
22C
330
1F1
330
22B
330
22A
330
1F2
 75
     1
 76
     0
 52
45.0
 41
0.1
 77
     0
 78
     1
 53
45.0
 43
0.0
 44
0.0
 45
-0.0707106781186548
 46
0.0707106781186548
 79
     0
 98
        1
 10
0.0
 20
0.0
  0
HATCH
  5
305
330
71
100
AcDbEntity
  8
1
  6
Continuous
 62
     2
100
AcDbHatch
 10
0.0
 20
0.0
 30
0.0
210
0.0
220
0.0
230
1.0
  2
_USER
 70
     0
 71
     1
 91
        1
 92
        1
 93
       10
 72
     1
 10
-66.50053254193827
 20
36.39615630396381
 11
-67.69332524410478
 21
36.39615630396381
 72
     1
 10
-67.69332524410478
 20
36.39615630396381
 11
-67.69332524410478
 21
33.34234678015261
 72
     1
 10
-67.69332524410478
 20
33.34234678015261
 11
-66.50053254193827
 21
33.34234678015261
 72
     1
 10
-66.50053254193827
 20
33.34234678015261
 11
-66.50053254193827
 21
34.65112229035731
 72
     1
 10
-66.50053254193827
 20
34.65112229035731
 11
-65.26002813168427
 21
33.34234678015261
 72
     1
 10
-65.26002813168427
 20
33.34234678015261
 11
-64.06723542951767
 21
33.34234678015261
 72
     1
 10
-64.06723542951767
 20
33.34234678015261
 11
-64.06723542951767
 21
36.39615630396381
 72
     1
 10
-64.06723542951767
 20
36.39615630396381
 11
-65.26002813168427
 21
36.39615630396381
 72
     1
 10
-65.26002813168427
 20
36.39615630396381
 11
-65.26002813168427
 21
35.08738079375863
 72
     1
 10
-65.26002813168427
 20
35.08738079375863
 11
-66.50053254193827
 21
36.39615630396381
 97
       10
330
229
330
1F3
330
1F4
330
1F5
330
1F6
330
22C
330
1F1
330
22B
330
22A
330
1F2
 75
     1
 76
     0
 52
45.0
 41
0.1
 77
     0
 78
     1
 53
45.0
 43
0.0
 44
0.0
 45
-0.0707106781186548
 46
0.0707106781186548
 79
     0
 98
        1
 10
0.0
 20
0.0
  0
HATCH
  5
306
330
71
100
AcDbEntity
  8
1
  6
Continuous
 62
     2
100
AcDbHatch
 10
0.0
 20
0.0
 30
0.0
210
0.0
220
0.0
230
1.0
  2
_USER
 70
     0
 71
     1
 91
        1
 92
        1
 93
       10
 72
     1
 10
-71.74897136235688
 20
33.0369658277894
 11
-72.94176406452448
 21
33.0369658277894
 72
     1
 10
-72.94176406452448
 20
33.0369658277894
 11
-72.94176406452448
 21
29.98315630397832
 72
     1
 10
-72.94176406452448
 20
29.98315630397832
 11
-71.74897136235688
 21
29.98315630397832
 72
     1
 10
-71.74897136235688
 20
29.98315630397832
 11
-71.74897136235688
 21
31.2919318141829
 72
     1
 10
-71.74897136235688
 20
31.2919318141829
 11
-70.50846695210399
 21
29.98315630397832
 72
     1
 10
-70.50846695210399
 20
29.98315630397832
 11
-69.31567424993759
 21
29.98315630397832
 72
     1
 10
-69.31567424993759
 20
29.98315630397832
 11
-69.31567424993759
 21
33.0369658277894
 72
     1
 10
-69.31567424993759
 20
33.0369658277894
 11
-70.50846695210399
 21
33.0369658277894
 72
     1
 10
-70.50846695210399
 20
33.0369658277894
 11
-70.50846695210399
 21
31.72819031758431
 72
     1
 10
-70.50846695210399
 20
31.72819031758431
 11
-71.74897136235688
 21
33.0369658277894
 97
       10
330
1F8
330
1F9
330
1FA
330
226
330
1FB
330
1FC
330
225
330
228
330
227
330
1F7
 75
     1
 76
     0
 52
45.0
 41
0.1
 77
     0
 78
     1
 53
45.0
 43
0.0
 44
0.0
 45
-0.0707106781186548
 46
0.0707106781186548
 79
     0
 98
        1
 10
0.0
 20
0.0
  0
HATCH
  5
307
330
71
100
AcDbEntity
  8
1
  6
Continuous
 62
     2
100
AcDbHatch
 10
0.0
 20
0.0
 30
0.0
210
0.0
220
0.0
230
1.0
  2
_USER
 70
     0
 71
     1
 91
        1
 92
        1
 93
       10
 72
     1
 10
-71.74897136235688
 20
33.0369658277894
 11
-72.94176406452448
 21
33.0369658277894
 72
     1
 10
-72.94176406452448
 20
33.0369658277894
 11
-72.94176406452448
 21
29.98315630397832
 72
     1
 10
-72.94176406452448
 20
29.98315630397832
 11
-71.74897136235688
 21
29.98315630397832
 72
     1
 10
-71.74897136235688
 20
29.98315630397832
 11
-71.74897136235688
 21
31.2919318141829
 72
     1
 10
-71.74897136235688
 20
31.2919318141829
 11
-70.50846695210399
 21
29.98315630397832
 72
     1
 10
-70.50846695210399
 20
29.98315630397832
 11
-69.31567424993759
 21
29.98315630397832
 72
     1
 10
-69.31567424993759
 20
29.98315630397832
 11
-69.31567424993759
 21
33.0369658277894
 72
     1
 10
-69.31567424993759
 20
33.0369658277894
 11
-70.50846695210399
 21
33.0369658277894
 72
     1
 10
-70.50846695210399
 20
33.0369658277894
 11
-70.50846695210399
 21
31.72819031758431
 72
     1
 10
-70.50846695210399
 20
31.72819031758431
 11
-71.74897136235688
 21
33.0369658277894
 97
       10
330
1F8
330
1F9
330
1FA
330
226
330
1FB
330
1FC
330
225
330
228
330
227
330
1F7
 75
     1
 76
     0
 52
45.0
 41
0.1
 77
     0
 78
     1
 53
45.0
 43
0.0
 44
0.0
 45
-0.0707106781186548
 46
0.0707106781186548
 79
     0
 98
        1
 10
0.0
 20
0.0
  0
HATCH
  5
308
330
71
100
AcDbEntity
  8
1
  6
Continuous
 62
     2
100
AcDbHatch
 10
0.0
 20
0.0
 30
0.0
210
0.0
220
0.0
230
1.0
  2
_USER
 70
     0
 71
     1
 91
        1
 92
        1
 93
       12
 72
     1
 10
-72.75076630129229
 20
36.39615630396381
 11
-72.75076630129229
 21
33.34234678015261
 72
     1
 10
-72.75076630129229
 20
33.34234678015261
 11
-73.94355900345869
 21
33.34234678015261
 72
     1
 10
-73.94355900345869
 20
33.34234678015261
 11
-73.94355900345869
 21
34.47661888899643
 72
     1
 10
-73.94355900345869
 20
34.47661888899643
 11
-74.99321658136617
 21
34.47661888899643
 72
     1
 10
-74.99321658136617
 20
34.47661888899643
 11
-74.99321658136617
 21
33.34234678015261
 72
     1
 10
-74.99321658136617
 20
33.34234678015261
 11
-76.18600928353277
 21
33.34234678015261
 72
     1
 10
-76.18600928353277
 20
33.34234678015261
 11
-76.18600928353277
 21
36.39615630396381
 72
     1
 10
-76.18600928353277
 20
36.39615630396381
 11
-74.99321658136617
 21
36.39615630396381
 72
     1
 10
-74.99321658136617
 20
36.39615630396381
 11
-74.99321658136617
 21
35.32732297062921
 72
     1
 10
-74.99321658136617
 20
35.32732297062921
 11
-73.94355900345869
 21
35.32732297062921
 72
     1
 10
-73.94355900345869
 20
35.32732297062921
 11
-73.94355900345869
 21
36.39615630396381
 72
     1
 10
-73.94355900345869
 20
36.39615630396381
 11
-72.75076630129229
 21
36.39615630396381
 97
       12
330
220
330
21F
330
21E
330
206
330
207
330
21D
330
208
330
21C
330
21B
330
21A
330
204
330
205
 75
     1
 76
     0
 52
45.0
 41
0.1
 77
     0
 78
     1
 53
45.0
 43
0.0
 44
0.0
 45
-0.0707106781186548
 46
0.0707106781186548
 79
     0
 98
        1
 10
0.0
 20
0.0
  0
HATCH
  5
309
330
71
100
AcDbEntity
  8
1
  6
Continuous
 62
     2
100
AcDbHatch
 10
0.0
 20
0.0
 30
0.0
210
0.0
220
0.0
230
1.0
  2
_USER
 70
     0
 71
     1
 91
        1
 92
        1
 93
       12
 72
     1
 10
-72.75076630129229
 20
36.39615630396381
 11
-72.75076630129229
 21
33.34234678015261
 72
     1
 10
-72.75076630129229
 20
33.34234678015261
 11
-73.94355900345869
 21
33.34234678015261
 72
     1
 10
-73.94355900345869
 20
33.34234678015261
 11
-73.94355900345869
 21
34.47661888899643
 72
     1
 10
-73.94355900345869
 20
34.47661888899643
 11
-74.99321658136617
 21
34.47661888899643
 72
     1
 10
-74.99321658136617
 20
34.47661888899643
 11
-74.99321658136617
 21
33.34234678015261
 72
     1
 10
-74.99321658136617
 20
33.34234678015261
 11
-76.18600928353277
 21
33.34234678015261
 72
     1
 10
-76.18600928353277
 20
33.34234678015261
 11
-76.18600928353277
 21
36.39615630396381
 72
     1
 10
-76.18600928353277
 20
36.39615630396381
 11
-74.99321658136617
 21
36.39615630396381
 72
     1
 10
-74.99321658136617
 20
36.39615630396381
 11
-74.99321658136617
 21
35.32732297062921
 72
     1
 10
-74.99321658136617
 20
35.32732297062921
 11
-73.94355900345869
 21
35.32732297062921
 72
     1
 10
-73.94355900345869
 20
35.32732297062921
 11
-73.94355900345869
 21
36.39615630396381
 72
     1
 10
-73.94355900345869
 20
36.39615630396381
 11
-72.75076630129229
 21
36.39615630396381
 97
       12
330
220
330
21F
330
21E
330
206
330
207
330
21D
330
208
330
21C
330
21B
330
21A
330
204
330
205
 75
     1
 76
     0
 52
45.0
 41
0.1
 77
     0
 78
     1
 53
45.0
 43
0.0
 44
0.0
 45
-0.0707106781186548
 46
0.0707106781186548
 79
     0
 98
        1
 10
0.0
 20
0.0
  0
ENDBLK
  5
73
330
71
100
AcDbEntity
  8
0
100
AcDbBlockEnd
  0
BLOCK
  5
75
330
74
100
AcDbEntity
  8
0
100
AcDbBlockBegin
  2
_punkt
 70
     0
 10
39.12653751249663
 20
22.68965630396201
 30
0.0
  3
_punkt
  1

  0
LINE
  5
30A
330
74
100
AcDbEntity
  8
1
  6
Continuous
 62
     2
100
AcDbLine
 10
39.12653751249663
 20
22.68965630396201
 30
0.0
 11
39.12653751249663
 21
17.6896563039619
 31
0.0
  0
LINE
  5
30B
330
74
100
AcDbEntity
  8
1
  6
Continuous
 62
     2
100
AcDbLine
 10
39.12653751249663
 20
22.68965630396201
 30
0.0
 11
44.12653751249562
 21
22.68965630396201
 31
0.0
  0
ENDBLK
  5
76
330
74
100
AcDbEntity
  8
0
100
AcDbBlockEnd
  0
BLOCK
  5
7A
330
77
100
AcDbEntity
  8
0
100
AcDbBlockBegin
  2
A4I_CS
 70
     0
 10
39.12653751249663
 20
17.6896563039619
 30
0.0
  3
A4I_CS
  1

  0
INSERT
  5
78
330
77
100
AcDbEntity
  8
1
100
AcDbBlockReference
  2
_rahmen
 10
39.12653751249663
 20
17.6896563039619
 30
0.0
  0
INSERT
  5
79
330
77
100
AcDbEntity
  8
1
100
AcDbBlockReference
  2
_punkt
 10
39.12653751249663
 20
22.68965630396201
 30
0.0
  0
ENDBLK
  5
7B
330
77
100
AcDbEntity
  8
0
100
AcDbBlockEnd
  0
BLOCK
  5
84
330
7C
100
AcDbEntity
  8
0
100
AcDbBlockBegin
  2
1
 70
     0
 10
0.0
 20
0.0
 30
0.0
  3
1
  1

  0
INSERT
  5
7D
330
7C
100
AcDbEntity
  8
0
100
AcDbBlockReference
  2
AllgSicht1
 10
-27.99999999999994
 20
84.00000000002
 30
0.0
 41
2.0
 42
2.0
 43
2.0
  0
INSERT
  5
7E
330
7C
100
AcDbEntity
  8
0
100
AcDbBlockReference
  2
Drfsicht1
 10
-133.7999991164933
 20
80.9797956271205
 30
0.0
 41
2.0
 42
2.0
 43
2.0
  0
INSERT
  5
7F
330
7C
100
AcDbEntity
  8
0
100
AcDbBlockReference
  2
Rckans1
 10
-17.20000088350677
 20
152.00000000004
 30
0.0
 41
2.0
 42
2.0
 43
2.0
  0
INSERT
  5
80
330
7C
100
AcDbEntity
  8
0
100
AcDbBlockReference
  2
SA_Links1
 10
-67.0
 20
152.0000000000399
 30
0.0
 41
2.0
 42
2.0
 43
2.0
  0
INSERT
  5
81
330
7C
100
AcDbEntity
  8
0
100
AcDbBlockReference
  2
SA_Rechts1
 10
-214.5999982329864
 20
152.0000000000399
 30
0.0
 41
2.0
 42
2.0
 43
2.0
  0
INSERT
  5
82
330
7C
100
AcDbEntity
  8
0
100
AcDbBlockReference
  2
Vordans1
 10
-144.7999991164933
 20
152.00000000004
 30
0.0
 41
2.0
 42
2.0
 43
2.0
  0
INSERT
  5
83
330
7C
100
AcDbEntity
  8
0
100
AcDbBlockReference
  2
A4I_CS
 10
39.12653751249663
 20
17.6896563039619
 30
0.0
  0
ENDBLK
  5
85
330
7C
100
AcDbEntity
  8
0
100
AcDbBlockEnd
  0
BLOCK
  5
D6
330
CF
100
AcDbEntity
  8
0
100
AcDbBlockBegin
  2
*D17
 70
     1
 10
0.0
 20
0.0
 30
0.0
  3
*D17
  1

  0
LINE
  5
D0
330
CF
100
AcDbEntity
  8
1
  6
Continuous
 62
     2
100
AcDbLine
 10
-88.30171461424801
 20
45.48989762071839
 30
0.0
 11
-88.30171461424801
 21
35.48989762071839
 31
0.0
  0
LINE
  5
D1
330
CF
100
AcDbEntity
  8
1
  6
Continuous
 62
     2
100
AcDbLine
 10
-77.70000063226001
 20
45.48989762071839
 30
0.0
 11
-89.05171461424801
 21
45.48989762071839
 31
0.0
  0
LINE
  5
D2
330
CF
100
AcDbEntity
  8
1
  6
Continuous
 62
     2
100
AcDbLine
 10
-77.70000063226001
 20
35.48989762071839
 30
0.0
 11
-89.05171461424801
 21
35.48989762071839
 31
0.0
  0
SOLID
  5
D3
330
CF
100
AcDbEntity
  8
1
 62
     2
100
AcDbTrace
 10
-88.07132274347008
 20
43.73989762071839
 30
0.0
 11
-88.53210648502595
 21
43.73989762071839
 31
0.0
 12
-88.30171461424801
 22
45.48989762071839
 32
0.0
 13
-88.30171461424801
 23
45.48989762071839
 33
0.0
  0
SOLID
  5
D4
330
CF
100
AcDbEntity
  8
1
 62
     2
100
AcDbTrace
 10
-88.53210648502595
 20
37.23989762071839
 30
0.0
 11
-88.07132274347008
 21
37.23989762071839
 31
0.0
 12
-88.30171461424801
 22
35.48989762071839
 32
0.0
 13
-88.30171461424801
 23
35.48989762071839
 33
0.0
  0
MTEXT
  5
D5
330
CF
100
AcDbEntity
  8
1
 62
     3
100
AcDbMText
 10
-89.05171461424801
 20
39.34408682554935
 30
0.0
 40
1.75
 41
0.0
 71
     7
 72
     1
  1
10
  7
CONVERTER_11
 11
0.0
 21
1.0
 31
0.0
 73
     1
 44
0.60024009603842
  0
ENDBLK
  5
D7
330
CF
100
AcDbEntity
  8
0
100
AcDbBlockEnd
  0
BLOCK
  5
1B9
330
1B2
100
AcDbEntity
  8
0
100
AcDbBlockBegin
  2
*D18
 70
     1
 10
0.0
 20
0.0
 30
0.0
  3
*D18
  1

  0
LINE
  5
1B3
330
1B2
100
AcDbEntity
  8
1
  6
Continuous
 62
     2
100
AcDbLine
 10
-83.20000063225999
 20
94.02020359198605
 30
0.0
 11
-61.60000063226005
 21
94.02020359198605
 31
0.0
  0
LINE
  5
1B4
330
1B2
100
AcDbEntity
  8
1
  6
Continuous
 62
     2
100
AcDbLine
 10
-83.20000063225999
 20
89.02020359198585
 30
0.0
 11
-83.20000063225999
 21
95.02020359198605
 31
0.0
  0
LINE
  5
1B5
330
1B2
100
AcDbEntity
  8
1
  6
Continuous
 62
     2
100
AcDbLine
 10
-61.60000063226005
 20
89.02020359198585
 30
0.0
 11
-61.60000063226005
 21
95.02020359198605
 31
0.0
  0
SOLID
  5
1B6
330
1B2
100
AcDbEntity
  8
1
 62
     2
100
AcDbTrace
 10
-81.45000063225999
 20
94.25059546276398
 30
0.0
 11
-81.45000063225999
 21
93.78981172120811
 31
0.0
 12
-83.20000063225999
 22
94.02020359198605
 32
0.0
 13
-83.20000063225999
 23
94.02020359198605
 33
0.0
  0
SOLID
  5
1B7
330
1B2
100
AcDbEntity
  8
1
 62
     2
100
AcDbTrace
 10
-63.35000063226005
 20
93.78981172120811
 30
0.0
 11
-63.35000063226005
 21
94.25059546276398
 31
0.0
 12
-61.60000063226005
 22
94.02020359198605
 32
0.0
 13
-61.60000063226005
 23
94.02020359198605
 33
0.0
  0
MTEXT
  5
1B8
330
1B2
100
AcDbEntity
  8
1
 62
     3
100
AcDbMText
 10
-72.48599069107001
 20
95.02020359198605
 30
0.0
 40
1.75
 41
0.0
 71
     7
 72
     1
  1
22
  7
CONVERTER_11
 11
0.9999999999970619
 21
2.424068405545306E-6
 31
0.0
 73
     1
 44
0.60024009603842
  0
ENDBLK
  5
1BA
330
1B2
100
AcDbEntity
  8
0
100
AcDbBlockEnd
  0
BLOCK
  5
1C4
330
1BD
100
AcDbEntity
  8
0
100
AcDbBlockBegin
  2
*D19
 70
     1
 10
0.0
 20
0.0
 30
0.0
  3
*D19
  1

  0
LINE
  5
1BE
330
1BD
100
AcDbEntity
  8
1
  6
Continuous
 62
     2
100
AcDbLine
 10
-88.30171461424801
 20
89.02020359198605
 30
0.0
 11
-88.30171461424801
 21
62.00120382785841
 31
0.0
  0
LINE
  5
1BF
330
1BD
100
AcDbEntity
  8
1
  6
Continuous
 62
     2
100
AcDbLine
 10
-61.60000063226001
 20
89.02020359198605
 30
0.0
 11
-89.05171461424801
 21
89.02020359198605
 31
0.0
  0
LINE
  5
1C0
330
1BD
100
AcDbEntity
  8
1
  6
Continuous
 62
     2
100
AcDbLine
 10
-74.02370420279574
 20
62.00120382785841
 30
0.0
 11
-89.05171461424801
 21
62.00120382785841
 31
0.0
  0
SOLID
  5
1C1
330
1BD
100
AcDbEntity
  8
1
 62
     2
100
AcDbTrace
 10
-88.07132274347008
 20
87.27020359198605
 30
0.0
 11
-88.53210648502595
 21
87.27020359198605
 31
0.0
 12
-88.30171461424801
 22
89.02020359198605
 32
0.0
 13
-88.30171461424801
 23
89.02020359198605
 33
0.0
  0
SOLID
  5
1C2
330
1BD
100
AcDbEntity
  8
1
 62
     2
100
AcDbTrace
 10
-88.53210648502595
 20
63.75120382785841
 30
0.0
 11
-88.07132274347008
 21
63.75120382785841
 31
0.0
 12
-88.30171461424801
 22
62.00120382785841
 32
0.0
 13
-88.30171461424801
 23
62.00120382785841
 33
0.0
  0
MTEXT
  5
1C3
330
1BD
100
AcDbEntity
  8
1
 62
     3
100
AcDbMText
 10
-89.05171461424801
 20
74.50289855588801
 30
0.0
 40
1.75
 41
0.0
 71
     7
 72
     1
  1
27
  7
CONVERTER_11
 11
0.0
 21
1.0
 31
0.0
 73
     1
 44
0.60024009603842
  0
ENDBLK
  5
1C5
330
1BD
100
AcDbEntity
  8
0
100
AcDbBlockEnd
  0
BLOCK
  5
1CF
330
1C8
100
AcDbEntity
  8
0
100
AcDbBlockBegin
  2
*D20
 70
     1
 10
0.0
 20
0.0
 30
0.0
  3
*D20
  1

  0
LINE
  5
1C9
330
1C8
100
AcDbEntity
  8
1
  6
Continuous
 62
     2
100
AcDbLine
 10
-92.30171461424801
 20
89.32020359198604
 30
0.0
 11
-92.30171461424801
 21
62.00120382785843
 31
0.0
  0
LINE
  5
1CA
330
1C8
100
AcDbEntity
  8
1
  6
Continuous
 62
     2
100
AcDbLine
 10
-82.60000063226002
 20
89.32020359198604
 30
0.0
 11
-93.05171461424801
 21
89.32020359198604
 31
0.0
  0
LINE
  5
1CB
330
1C8
100
AcDbEntity
  8
1
  6
Continuous
 62
     2
100
AcDbLine
 10
-74.02370420279571
 20
62.00120382785843
 30
0.0
 11
-93.05171461424801
 21
62.00120382785843
 31
0.0
  0
SOLID
  5
1CC
330
1C8
100
AcDbEntity
  8
1
 62
     2
100
AcDbTrace
 10
-92.07132274347008
 20
87.57020359198604
 30
0.0
 11
-92.53210648502595
 21
87.57020359198604
 31
0.0
 12
-92.30171461424801
 22
89.32020359198604
 32
0.0
 13
-92.30171461424801
 23
89.32020359198604
 33
0.0
  0
SOLID
  5
1CD
330
1C8
100
AcDbEntity
  8
1
 62
     2
100
AcDbTrace
 10
-92.53210648502595
 20
63.75120382785843
 30
0.0
 11
-92.07132274347008
 21
63.75120382785843
 31
0.0
 12
-92.30171461424801
 22
62.00120382785843
 32
0.0
 13
-92.30171461424801
 23
62.00120382785843
 33
0.0
  0
MTEXT
  5
1CE
330
1C8
100
AcDbEntity
  8
1
 62
     3
100
AcDbMText
 10
-93.22671461424802
 20
73.392112940146
 30
0.0
 40
1.75
 41
0.0
 71
     7
 72
     1
  1
27,3
  7
CONVERTER_11
 11
0.0
 21
1.0
 31
0.0
 73
     1
 44
0.60024009603842
  0
ENDBLK
  5
1D0
330
1C8
100
AcDbEntity
  8
0
100
AcDbBlockEnd
  0
ENDSEC
  0
SECTION
  2
ENTITIES
  0
INSERT
  5
86
330
1F
100
AcDbEntity
  8
1
100
AcDbBlockReference
  2
1
 10
0.0
 20
0.0
 30
0.0
  0
ENDSEC
  0
SECTION
  2
OBJECTS
  0
DICTIONARY
  5
C
330
0
100
AcDbDictionary
281
     1
  3
ACAD_GROUP
350
D
  3
ACAD_LAYOUT
350
1A
  3
ACAD_MATERIAL
350
3B
  3
ACAD_MLEADERSTYLE
350
333
  3
ACAD_MLINESTYLE
350
17
  3
ACAD_PLOTSETTINGS
350
19
  3
ACAD_PLOTSTYLENAME
350
E
  3
ACAD_TABLESTYLE
350
332
  3
ACAD_VISUALSTYLE
350
2A
  0
DICTIONARY
  5
D
102
{ACAD_REACTORS
330
C
102
}
330
C
100
AcDbDictionary
281
     1
  0
DICTIONARY
  5
1A
102
{ACAD_REACTORS
330
C
102
}
330
C
100
AcDbDictionary
281
     1
  3
Layout1
350
1E
  3
Layout2
350
26
  3
Model
350
22
  0
DICTIONARY
  5
3B
102
{ACAD_REACTORS
330
C
102
}
330
C
100
AcDbDictionary
281
     1
  3
ByBlock
350
3D
  3
ByLayer
350
3C
  3
Global
350
3E
  0
DICTIONARY
  5
333
102
{ACAD_REACTORS
330
C
102
}
330
C
100
AcDbDictionary
281
     1
  0
DICTIONARY
  5
17
102
{ACAD_REACTORS
330
C
102
}
330
C
100
AcDbDictionary
281
     1
  3
Standard
350
18
  0
DICTIONARY
  5
19
102
{ACAD_REACTORS
330
C
102
}
330
C
100
AcDbDictionary
281
     1
  0
ACDBDICTIONARYWDFLT
  5
E
102
{ACAD_REACTORS
330
C
102
}
330
C
100
AcDbDictionary
281
     1
  3
Normal
350
F
100
AcDbDictionaryWithDefault
340
F
  0
DICTIONARY
  5
332
102
{ACAD_REACTORS
330
C
102
}
330
C
100
AcDbDictionary
281
     1
  0
DICTIONARY
  5
2A
102
{ACAD_REACTORS
330
C
102
}
330
C
100
AcDbDictionary
281
     1
  3
2dWireframe
350
2F
  3
3D Hidden
350
31
  3
3dWireframe
350
30
  3
Basic
350
32
  3
Brighten
350
36
  3
ColorChange
350
3A
  3
Conceptual
350
34
  3
Dim
350
35
  3
Facepattern
350
39
  3
Flat
350
2B
  3
FlatWithEdges
350
2C
  3
Gouraud
350
2D
  3
GouraudWithEdges
350
2E
  3
Linepattern
350
38
  3
Realistic
350
33
  3
Thicken
350
37
  0
LAYOUT
  5
1E
102
{ACAD_REACTORS
330
1A
102
}
330
1A
100
AcDbPlotSettings
  1

  2
none_device
  4

  6

 40
0.0
 41
0.0
 42
0.0
 43
0.0
 44
0.0
 45
0.0
 46
0.0
 47
0.0
 48
0.0
 49
0.0
140
0.0
141
0.0
142
1.0
143
1.0
 70
   688
 72
     0
 73
     0
 74
     5
  7

 75
    16
 76
     0
 77
     2
 78
   300
147
1.0
148
0.0
149
0.0
100
AcDbLayout
  1
Layout1
 70
     1
 71
     1
 10
0.0
 20
0.0
 11
12.0
 21
9.0
 12
0.0
 22
0.0
 32
0.0
 14
1.00000000000000E+20
 24
1.00000000000000E+20
 34
1.00000000000000E+20
 15
-1.00000000000000E+20
 25
-1.00000000000000E+20
 35
-1.00000000000000E+20
146
0.0
 13
0.0
 23
0.0
 33
0.0
 16
1.0
 26
0.0
 36
0.0
 17
0.0
 27
1.0
 37
0.0
 76
     0
330
1B
  0
LAYOUT
  5
26
102
{ACAD_REACTORS
330
1A
102
}
330
1A
100
AcDbPlotSettings
  1

  2
none_device
  4

  6

 40
0.0
 41
0.0
 42
0.0
 43
0.0
 44
0.0
 45
0.0
 46
0.0
 47
0.0
 48
0.0
 49
0.0
140
0.0
141
0.0
142
1.0
143
1.0
 70
   688
 72
     0
 73
     0
 74
     5
  7

 75
    16
 76
     0
 77
     2
 78
   300
147
1.0
148
0.0
149
0.0
100
AcDbLayout
  1
Layout2
 70
     1
 71
     2
 10
0.0
 20
0.0
 11
0.0
 21
0.0
 12
0.0
 22
0.0
 32
0.0
 14
0.0
 24
0.0
 34
0.0
 15
0.0
 25
0.0
 35
0.0
146
0.0
 13
0.0
 23
0.0
 33
0.0
 16
1.0
 26
0.0
 36
0.0
 17
0.0
 27
1.0
 37
0.0
 76
     0
330
23
  0
LAYOUT
  5
22
102
{ACAD_REACTORS
330
1A
102
}
330
1A
100
AcDbPlotSettings
  1

  2
none_device
  4

  6

 40
0.0
 41
0.0
 42
0.0
 43
0.0
 44
0.0
 45
0.0
 46
0.0
 47
0.0
 48
0.0
 49
0.0
140
0.0
141
0.0
142
1.0
143
1.0
 70
  1712
 72
     0
 73
     0
 74
     0
  7

 75
     0
 76
     0
 77
     2
 78
   300
147
1.0
148
0.0
149
0.0
100
AcDbLayout
  1
Model
 70
     1
 71
     0
 10
0.0
 20
0.0
 11
12.0
 21
9.0
 12
0.0
 22
0.0
 32
0.0
 14
-252.8734624875025
 24
17.6896563039619
 34
0.0
 15
44.12653751249562
 25
227.689656303962
 35
0.0
146
0.0
 13
0.0
 23
0.0
 33
0.0
 16
1.0
 26
0.0
 36
0.0
 17
0.0
 27
1.0
 37
0.0
 76
     0
330
1F
331
29
  0
MATERIAL
  5
3D
102
{ACAD_REACTORS
330
3B
102
}
102
{ACAD_XDICTIONARY
360
32E
102
}
330
3B
100
AcDbMaterial
  1
ByBlock
  0
MATERIAL
  5
3C
102
{ACAD_REACTORS
330
3B
102
}
102
{ACAD_XDICTIONARY
360
32C
102
}
330
3B
100
AcDbMaterial
  1
ByLayer
  0
MATERIAL
  5
3E
102
{ACAD_REACTORS
330
3B
102
}
102
{ACAD_XDICTIONARY
360
330
102
}
330
3B
100
AcDbMaterial
  1
Global
  0
MLINESTYLE
  5
18
102
{ACAD_REACTORS
330
17
102
}
330
17
100
AcDbMlineStyle
  2
Standard
 70
     0
  3

 62
   256
 51
90.0
 52
90.0
 71
     2
 49
0.5
 62
   256
  6
BYLAYER
 49
-0.5
 62
   256
  6
BYLAYER
  0
ACDBPLACEHOLDER
  5
F
102
{ACAD_REACTORS
330
E
102
}
330
E
  0
VISUALSTYLE
  5
2F
102
{ACAD_REACTORS
330
2A
102
}
102
{ACAD_XDICTIONARY
360
314
102
}
330
2A
100
AcDbVisualStyle
  2
2dWireframe
 70
     4
 71
     0
 72
     2
 73
     0
 90
        0
 40
-0.6
 41
-30.0
 62
     5
 63
     7
421
 16777215
 74
     1
 91
        4
 64
     7
 65
   257
 75
     1
175
     1
 42
1.0
 92
        0
 66
   257
 43
1.0
 76
     1
 77
     6
 78
     2
 67
     7
 79
     5
170
     0
171
     0
290
     0
174
     0
 93
        1
 44
0.0
173
     0
291
     0
 45
0.0
1001
ACAD
1000
AcDbSavedByObjectVersion
1070
     0
  0
VISUALSTYLE
  5
31
102
{ACAD_REACTORS
330
2A
102
}
102
{ACAD_XDICTIONARY
360
318
102
}
330
2A
100
AcDbVisualStyle
  2
3D Hidden
 70
     6
 71
     1
 72
     2
 73
     2
 90
        0
 40
-0.6
 41
-30.0
 62
     5
 63
     7
421
 16777215
 74
     2
 91
        2
 64
     7
 65
   257
 75
     2
175
     1
 42
40.0
 92
        0
 66
   257
 43
1.0
 76
     1
 77
     6
 78
     2
 67
     7
 79
     3
170
     0
171
     0
290
     0
174
     0
 93
        1
 44
0.0
173
     0
291
     0
 45
0.0
1001
ACAD
1000
AcDbSavedByObjectVersion
1070
     0
  0
VISUALSTYLE
  5
30
102
{ACAD_REACTORS
330
2A
102
}
102
{ACAD_XDICTIONARY
360
316
102
}
330
2A
100
AcDbVisualStyle
  2
3dWireframe
 70
     5
 71
     0
 72
     2
 73
     0
 90
        0
 40
-0.6
 41
-30.0
 62
     5
 63
     7
421
 16777215
 74
     1
 91
        4
 64
     7
 65
   257
 75
     1
175
     1
 42
1.0
 92
        0
 66
   257
 43
1.0
 76
     1
 77
     6
 78
     2
 67
     7
 79
     5
170
     0
171
     0
290
     0
174
     0
 93
        1
 44
0.0
173
     0
291
     0
 45
0.0
1001
ACAD
1000
AcDbSavedByObjectVersion
1070
     0
  0
VISUALSTYLE
  5
32
102
{ACAD_REACTORS
330
2A
102
}
102
{ACAD_XDICTIONARY
360
31A
102
}
330
2A
100
AcDbVisualStyle
  2
Basic
 70
     7
 71
     1
 72
     0
 73
     1
 90
        0
 40
-0.6
 41
-30.0
 62
     5
 63
     7
421
 16777215
 74
     0
 91
        4
 64
     7
 65
   257
 75
     1
175
     1
 42
1.0
 92
        8
 66
     7
 43
1.0
 76
     1
 77
     6
 78
     2
 67
     7
 79
     5
170
     0
171
     0
290
     0
174
     0
 93
        1
 44
0.0
173
     0
291
     1
 45
0.0
1001
ACAD
1000
AcDbSavedByObjectVersion
1070
     0
  0
VISUALSTYLE
  5
36
102
{ACAD_REACTORS
330
2A
102
}
102
{ACAD_XDICTIONARY
360
322
102
}
330
2A
100
AcDbVisualStyle
  2
Brighten
 70
    12
 71
     2
 72
     2
 73
     0
 90
        0
 40
-0.6
 41
-30.0
 62
     5
 63
     7
421
 16777215
 74
     1
 91
        4
 64
     7
 65
   257
 75
     1
175
     1
 42
1.0
 92
        8
 66
     7
 43
1.0
 76
     1
 77
     6
 78
     2
 67
     7
 79
     5
170
     0
171
     0
290
     0
174
     0
 93
        1
 44
50.0
173
     0
291
     1
 45
0.0
1001
ACAD
1000
AcDbSavedByObjectVersion
1070
     0
  0
VISUALSTYLE
  5
3A
102
{ACAD_REACTORS
330
2A
102
}
102
{ACAD_XDICTIONARY
360
32A
102
}
330
2A
100
AcDbVisualStyle
  2
ColorChange
 70
    16
 71
     2
 72
     2
 73
     3
 90
        0
 40
-0.6
 41
-30.0
 62
     5
 63
     8
421
  8421504
 74
     1
 91
        4
 64
     7
 65
   257
 75
     1
175
     1
 42
1.0
 92
        8
 66
     8
424
  8421504
 43
1.0
 76
     1
 77
     6
 78
     2
 67
     7
 79
     5
170
     0
171
     0
290
     0
174
     0
 93
        1
 44
0.0
173
     0
291
     1
 45
0.0
1001
ACAD
1000
AcDbSavedByObjectVersion
1070
     0
  0
VISUALSTYLE
  5
34
102
{ACAD_REACTORS
330
2A
102
}
102
{ACAD_XDICTIONARY
360
31E
102
}
330
2A
100
AcDbVisualStyle
  2
Conceptual
 70
     9
 71
     3
 72
     2
 73
     0
 90
        0
 40
-0.6
 41
-30.0
 62
     5
 63
     7
421
 16777215
 74
     2
 91
        2
 64
     7
 65
   257
 75
     1
175
     1
 42
40.0
 92
        8
 66
     7
 43
1.0
 76
     1
 77
     6
 78
     2
 67
     7
 79
     3
170
     0
171
     0
290
     0
174
     0
 93
        1
 44
0.0
173
     0
291
     0
 45
0.0
1001
ACAD
1000
AcDbSavedByObjectVersion
1070
     0
  0
VISUALSTYLE
  5
35
102
{ACAD_REACTORS
330
2A
102
}
102
{ACAD_XDICTIONARY
360
320
102
}
330
2A
100
AcDbVisualStyle
  2
Dim
 70
    11
 71
     2
 72
     2
 73
     0
 90
        0
 40
-0.6
 41
-30.0
 62
     5
 63
     7
421
 16777215
 74
     1
 91
        4
 64
     7
 65
   257
 75
     1
175
     1
 42
1.0
 92
        8
 66
     7
 43
1.0
 76
     1
 77
     6
 78
     2
 67
     7
 79
     5
170
     0
171
     0
290
     0
174
     0
 93
        1
 44
-50.0
173
     0
291
     1
 45
0.0
1001
ACAD
1000
AcDbSavedByObjectVersion
1070
     0
  0
VISUALSTYLE
  5
39
102
{ACAD_REACTORS
330
2A
102
}
102
{ACAD_XDICTIONARY
360
328
102
}
330
2A
100
AcDbVisualStyle
  2
Facepattern
 70
    15
 71
     2
 72
     2
 73
     0
 90
        0
 40
-0.6
 41
-30.0
 62
     5
 63
     7
421
 16777215
 74
     1
 91
        4
 64
     7
 65
   257
 75
     1
175
     1
 42
1.0
 92
        8
 66
     7
 43
1.0
 76
     1
 77
     6
 78
     2
 67
     7
 79
     5
170
     0
171
     0
290
     0
174
     0
 93
        1
 44
0.0
173
     0
291
     1
 45
0.0
1001
ACAD
1000
AcDbSavedByObjectVersion
1070
     0
  0
VISUALSTYLE
  5
2B
102
{ACAD_REACTORS
330
2A
102
}
102
{ACAD_XDICTIONARY
360
30C
102
}
330
2A
100
AcDbVisualStyle
  2
Flat
 70
     0
 71
     2
 72
     1
 73
     1
 90
        2
 40
-0.6
 41
30.0
 62
     5
 63
     7
421
 16777215
 74
     0
 91
        4
 64
     7
 65
   257
 75
     1
175
     1
 42
1.0
 92
        8
 66
     7
 43
1.0
 76
     1
 77
     6
 78
     2
 67
     7
 79
     5
170
     0
171
     0
290
     0
174
     0
 93
       13
 44
0.0
173
     0
291
     1
 45
0.0
1001
ACAD
1000
AcDbSavedByObjectVersion
1070
     0
  0
VISUALSTYLE
  5
2C
102
{ACAD_REACTORS
330
2A
102
}
102
{ACAD_XDICTIONARY
360
30E
102
}
330
2A
100
AcDbVisualStyle
  2
FlatWithEdges
 70
     1
 71
     2
 72
     1
 73
     1
 90
        2
 40
-0.6
 41
30.0
 62
     5
 63
     7
421
 16777215
 74
     1
 91
        4
 64
     7
 65
   257
 75
     1
175
     1
 42
1.0
 92
        0
 66
   257
 43
1.0
 76
     1
 77
     6
 78
     2
 67
     7
 79
     5
170
     0
171
     0
290
     0
174
     0
 93
       13
 44
0.0
173
     0
291
     1
 45
0.0
1001
ACAD
1000
AcDbSavedByObjectVersion
1070
     0
  0
VISUALSTYLE
  5
2D
102
{ACAD_REACTORS
330
2A
102
}
102
{ACAD_XDICTIONARY
360
310
102
}
330
2A
100
AcDbVisualStyle
  2
Gouraud
 70
     2
 71
     2
 72
     2
 73
     1
 90
        2
 40
-0.6
 41
30.0
 62
     5
 63
     7
421
 16777215
 74
     0
 91
        4
 64
     7
 65
   257
 75
     1
175
     1
 42
1.0
 92
        0
 66
     7
 43
1.0
 76
     1
 77
     6
 78
     2
 67
     7
 79
     5
170
     0
171
     0
290
     0
174
     0
 93
       13
 44
0.0
173
     0
291
     1
 45
0.0
1001
ACAD
1000
AcDbSavedByObjectVersion
1070
     0
  0
VISUALSTYLE
  5
2E
102
{ACAD_REACTORS
330
2A
102
}
102
{ACAD_XDICTIONARY
360
312
102
}
330
2A
100
AcDbVisualStyle
  2
GouraudWithEdges
 70
     3
 71
     2
 72
     2
 73
     1
 90
        2
 40
-0.6
 41
30.0
 62
     5
 63
     7
421
 16777215
 74
     1
 91
        4
 64
     7
 65
   257
 75
     1
175
     1
 42
1.0
 92
        0
 66
   257
 43
1.0
 76
     1
 77
     6
 78
     2
 67
     7
 79
     5
170
     0
171
     0
290
     0
174
     0
 93
       13
 44
0.0
173
     0
291
     1
 45
0.0
1001
ACAD
1000
AcDbSavedByObjectVersion
1070
     0
  0
VISUALSTYLE
  5
38
102
{ACAD_REACTORS
330
2A
102
}
102
{ACAD_XDICTIONARY
360
326
102
}
330
2A
100
AcDbVisualStyle
  2
Linepattern
 70
    14
 71
     2
 72
     2
 73
     0
 90
        0
 40
-0.6
 41
-30.0
 62
     5
 63
     7
421
 16777215
 74
     1
 91
        4
 64
     7
 65
   257
 75
     7
175
     7
 42
1.0
 92
        8
 66
     7
 43
1.0
 76
     1
 77
     6
 78
     2
 67
     7
 79
     5
170
     0
171
     0
290
     0
174
     0
 93
        1
 44
0.0
173
     0
291
     1
 45
0.0
1001
ACAD
1000
AcDbSavedByObjectVersion
1070
     0
  0
VISUALSTYLE
  5
33
102
{ACAD_REACTORS
330
2A
102
}
102
{ACAD_XDICTIONARY
360
31C
102
}
330
2A
100
AcDbVisualStyle
  2
Realistic
 70
     8
 71
     2
 72
     2
 73
     0
 90
        0
 40
-0.6
 41
-30.0
 62
     5
 63
     7
421
 16777215
 74
     1
 91
        0
 64
     7
 65
   257
 75
     1
175
     1
 42
1.0
 92
        8
 66
     8
424
  7895160
 43
1.0
 76
     1
 77
     6
 78
     2
 67
     7
 79
     5
170
     0
171
     0
290
     0
174
     0
 93
       13
 44
0.0
173
     0
291
     0
 45
0.0
1001
ACAD
1000
AcDbSavedByObjectVersion
1070
     0
  0
VISUALSTYLE
  5
37
102
{ACAD_REACTORS
330
2A
102
}
102
{ACAD_XDICTIONARY
360
324
102
}
330
2A
100
AcDbVisualStyle
  2
Thicken
 70
    13
 71
     2
 72
     2
 73
     0
 90
        0
 40
-0.6
 41
-30.0
 62
     5
 63
     7
421
 16777215
 74
     1
 91
        4
 64
     7
 65
   257
 75
     1
175
     1
 42
1.0
 92
       12
 66
     7
 43
1.0
 76
     1
 77
     6
 78
     2
 67
     7
 79
     5
170
     0
171
     0
290
     0
174
     0
 93
        1
 44
0.0
173
     0
291
     1
 45
0.0
1001
ACAD
1000
AcDbSavedByObjectVersion
1070
     0
  0
DICTIONARY
  5
32E
330
3D
100
AcDbDictionary
280
     1
281
     1
  3
ACAD_XREC_ROUNDTRIP
360
32F
  0
DICTIONARY
  5
32C
330
3C
100
AcDbDictionary
280
     1
281
     1
  3
ACAD_XREC_ROUNDTRIP
360
32D
  0
DICTIONARY
  5
330
330
3E
100
AcDbDictionary
280
     1
281
     1
  3
ACAD_XREC_ROUNDTRIP
360
331
  0
DICTIONARY
  5
314
330
2F
100
AcDbDictionary
280
     1
281
     1
  3
ACAD_XREC_ROUNDTRIP
360
315
  0
DICTIONARY
  5
318
330
31
100
AcDbDictionary
280
     1
281
     1
  3
ACAD_XREC_ROUNDTRIP
360
319
  0
DICTIONARY
  5
316
330
30
100
AcDbDictionary
280
     1
281
     1
  3
ACAD_XREC_ROUNDTRIP
360
317
  0
DICTIONARY
  5
31A
330
32
100
AcDbDictionary
280
     1
281
     1
  3
ACAD_XREC_ROUNDTRIP
360
31B
  0
DICTIONARY
  5
322
330
36
100
AcDbDictionary
280
     1
281
     1
  3
ACAD_XREC_ROUNDTRIP
360
323
  0
DICTIONARY
  5
32A
330
3A
100
AcDbDictionary
280
     1
281
     1
  3
ACAD_XREC_ROUNDTRIP
360
32B
  0
DICTIONARY
  5
31E
330
34
100
AcDbDictionary
280
     1
281
     1
  3
ACAD_XREC_ROUNDTRIP
360
31F
  0
DICTIONARY
  5
320
330
35
100
AcDbDictionary
280
     1
281
     1
  3
ACAD_XREC_ROUNDTRIP
360
321
  0
DICTIONARY
  5
328
330
39
100
AcDbDictionary
280
     1
281
     1
  3
ACAD_XREC_ROUNDTRIP
360
329
  0
DICTIONARY
  5
30C
330
2B
100
AcDbDictionary
280
     1
281
     1
  3
ACAD_XREC_ROUNDTRIP
360
30D
  0
DICTIONARY
  5
30E
330
2C
100
AcDbDictionary
280
     1
281
     1
  3
ACAD_XREC_ROUNDTRIP
360
30F
  0
DICTIONARY
  5
310
330
2D
100
AcDbDictionary
280
     1
281
     1
  3
ACAD_XREC_ROUNDTRIP
360
311
  0
DICTIONARY
  5
312
330
2E
100
AcDbDictionary
280
     1
281
     1
  3
ACAD_XREC_ROUNDTRIP
360
313
  0
DICTIONARY
  5
326
330
38
100
AcDbDictionary
280
     1
281
     1
  3
ACAD_XREC_ROUNDTRIP
360
327
  0
DICTIONARY
  5
31C
330
33
100
AcDbDictionary
280
     1
281
     1
  3
ACAD_XREC_ROUNDTRIP
360
31D
  0
DICTIONARY
  5
324
330
37
100
AcDbDictionary
280
     1
281
     1
  3
ACAD_XREC_ROUNDTRIP
360
325
  0
XRECORD
  5
32F
102
{ACAD_REACTORS
330
32E
102
}
330
32E
100
AcDbXrecord
280
     1
102
MATERIAL
148
0.0
149
0.0
149
0.0
 93
        0
 94
      127
282
     0
 72
     1
 77
     1
171
     1
175
     1
179
     1
273
     0
  0
XRECORD
  5
32D
102
{ACAD_REACTORS
330
32C
102
}
330
32C
100
AcDbXrecord
280
     1
102
MATERIAL
148
0.0
149
0.0
149
0.0
 93
        0
 94
      127
282
     0
 72
     1
 77
     1
171
     1
175
     1
179
     1
273
     0
  0
XRECORD
  5
331
102
{ACAD_REACTORS
330
330
102
}
330
330
100
AcDbXrecord
280
     1
102
MATERIAL
148
0.0
149
0.0
149
0.0
 93
        0
 94
      127
282
     0
 72
     1
 77
     1
171
     1
175
     1
179
     1
273
     0
  0
XRECORD
  5
315
102
{ACAD_REACTORS
330
314
102
}
330
314
100
AcDbXrecord
280
     1
102
RTVSPropertyOp0
 70
     1
102
RTVSPropertyOp1
 70
     1
102
RTVSPropertyOp2
 70
     1
102
RTVSPropertyOp3
 70
     1
102
RTVSPropertyOp4
 70
     1
102
RTVSPropertyOp5
 70
     1
102
RTVSPropertyOp6
 70
     1
102
RTVSPropertyOp7
 70
     1
102
RTVSPropertyOp8
 70
     1
102
RTVSPropertyOp9
 70
     1
102
RTVSPropertyOp10
 70
     1
102
RTVSPropertyOp11
 70
     1
102
RTVSPropertyOp12
 70
     1
102
RTVSPropertyOp13
 70
     1
102
RTVSPropertyOp14
 70
     1
102
RTVSPropertyOp15
 70
     1
102
RTVSPropertyOp16
 70
     1
102
RTVSPropertyOp17
 70
     1
102
RTVSPropertyOp18
 70
     1
102
RTVSPropertyOp19
 70
     1
102
RTVSPropertyOp20
 70
     1
102
RTVSPropertyOp21
 70
     1
102
RTVSPropertyOp22
 70
     1
102
RTVSPropertyOp23
 70
     1
102
RTVSPropertyOp24
 70
     1
102
RTVSPropertyOp25
 70
     1
102
RTVSPropertyOp26
 70
     1
102
RTVSPropertyOp27
 70
     1
102
RTVSPropertyOp28
 70
     1
102
RTVSPropertyOp29
 70
     1
102
RTVSPropertyOp30
 70
     1
102
RTVSPropertyOp31
 70
     1
102
RTVSPropertyOp32
 70
     1
  0
XRECORD
  5
319
102
{ACAD_REACTORS
330
318
102
}
330
318
100
AcDbXrecord
280
     1
102
RTVSPropertyOp0
 70
     1
102
RTVSPropertyOp1
 70
     1
102
RTVSPropertyOp2
 70
     1
102
RTVSPropertyOp3
 70
     1
102
RTVSPropertyOp4
 70
     1
102
RTVSPropertyOp5
 70
     1
102
RTVSPropertyOp6
 70
     1
102
RTVSPropertyOp7
 70
     1
102
RTVSPropertyOp8
 70
     1
102
RTVSPropertyOp9
 70
     1
102
RTVSPropertyOp10
 70
     1
102
RTVSPropertyOp11
 70
     1
102
RTVSPropertyOp12
 70
     1
102
RTVSPropertyOp13
 70
     1
102
RTVSPropertyOp14
 70
     1
102
RTVSPropertyOp15
 70
     1
102
RTVSPropertyOp16
 70
     1
102
RTVSPropertyOp17
 70
     1
102
RTVSPropertyOp18
 70
     1
102
RTVSPropertyOp19
 70
     1
102
RTVSPropertyOp20
 70
     1
102
RTVSPropertyOp21
 70
     1
102
RTVSPropertyOp22
 70
     1
102
RTVSPropertyOp23
 70
     1
102
RTVSPropertyOp24
 70
     1
102
RTVSPropertyOp25
 70
     1
102
RTVSPropertyOp26
 70
     1
102
RTVSPropertyOp27
 70
     1
102
RTVSPropertyOp28
 70
     1
102
RTVSPropertyOp29
 70
     1
102
RTVSPropertyOp30
 70
     1
102
RTVSPropertyOp31
 70
     1
102
RTVSPropertyOp32
 70
     1
  0
XRECORD
  5
317
102
{ACAD_REACTORS
330
316
102
}
330
316
100
AcDbXrecord
280
     1
102
RTVSPropertyOp0
 70
     1
102
RTVSPropertyOp1
 70
     1
102
RTVSPropertyOp2
 70
     1
102
RTVSPropertyOp3
 70
     1
102
RTVSPropertyOp4
 70
     1
102
RTVSPropertyOp5
 70
     1
102
RTVSPropertyOp6
 70
     1
102
RTVSPropertyOp7
 70
     1
102
RTVSPropertyOp8
 70
     1
102
RTVSPropertyOp9
 70
     1
102
RTVSPropertyOp10
 70
     1
102
RTVSPropertyOp11
 70
     1
102
RTVSPropertyOp12
 70
     1
102
RTVSPropertyOp13
 70
     1
102
RTVSPropertyOp14
 70
     1
102
RTVSPropertyOp15
 70
     1
102
RTVSPropertyOp16
 70
     1
102
RTVSPropertyOp17
 70
     1
102
RTVSPropertyOp18
 70
     1
102
RTVSPropertyOp19
 70
     1
102
RTVSPropertyOp20
 70
     1
102
RTVSPropertyOp21
 70
     1
102
RTVSPropertyOp22
 70
     1
102
RTVSPropertyOp23
 70
     1
102
RTVSPropertyOp24
 70
     1
102
RTVSPropertyOp25
 70
     1
102
RTVSPropertyOp26
 70
     1
102
RTVSPropertyOp27
 70
     1
102
RTVSPropertyOp28
 70
     1
102
RTVSPropertyOp29
 70
     1
102
RTVSPropertyOp30
 70
     1
102
RTVSPropertyOp31
 70
     1
102
RTVSPropertyOp32
 70
     1
  0
XRECORD
  5
31B
102
{ACAD_REACTORS
330
31A
102
}
330
31A
100
AcDbXrecord
280
     1
102
RTVSPropertyOp0
 70
     1
102
RTVSPropertyOp1
 70
     1
102
RTVSPropertyOp2
 70
     1
102
RTVSPropertyOp3
 70
     1
102
RTVSPropertyOp4
 70
     1
102
RTVSPropertyOp5
 70
     1
102
RTVSPropertyOp6
 70
     1
102
RTVSPropertyOp7
 70
     1
102
RTVSPropertyOp8
 70
     1
102
RTVSPropertyOp9
 70
     1
102
RTVSPropertyOp10
 70
     1
102
RTVSPropertyOp11
 70
     1
102
RTVSPropertyOp12
 70
     1
102
RTVSPropertyOp13
 70
     1
102
RTVSPropertyOp14
 70
     1
102
RTVSPropertyOp15
 70
     1
102
RTVSPropertyOp16
 70
     1
102
RTVSPropertyOp17
 70
     1
102
RTVSPropertyOp18
 70
     1
102
RTVSPropertyOp19
 70
     1
102
RTVSPropertyOp20
 70
     1
102
RTVSPropertyOp21
 70
     1
102
RTVSPropertyOp22
 70
     1
102
RTVSPropertyOp23
 70
     1
102
RTVSPropertyOp24
 70
     1
102
RTVSPropertyOp25
 70
     1
102
RTVSPropertyOp26
 70
     1
102
RTVSPropertyOp27
 70
     1
102
RTVSPropertyOp28
 70
     1
102
RTVSPropertyOp29
 70
     1
102
RTVSPropertyOp30
 70
     1
102
RTVSPropertyOp31
 70
     1
102
RTVSPropertyOp32
 70
     1
  0
XRECORD
  5
323
102
{ACAD_REACTORS
330
322
102
}
330
322
100
AcDbXrecord
280
     1
102
RTVSPropertyOp0
 70
     1
102
RTVSPropertyOp1
 70
     1
102
RTVSPropertyOp2
 70
     1
102
RTVSPropertyOp3
 70
     1
102
RTVSPropertyOp4
 70
     1
102
RTVSPropertyOp5
 70
     1
102
RTVSPropertyOp6
 70
     1
102
RTVSPropertyOp7
 70
     1
102
RTVSPropertyOp8
 70
     1
102
RTVSPropertyOp9
 70
     1
102
RTVSPropertyOp10
 70
     1
102
RTVSPropertyOp11
 70
     1
102
RTVSPropertyOp12
 70
     1
102
RTVSPropertyOp13
 70
     1
102
RTVSPropertyOp14
 70
     1
102
RTVSPropertyOp15
 70
     1
102
RTVSPropertyOp16
 70
     1
102
RTVSPropertyOp17
 70
     1
102
RTVSPropertyOp18
 70
     1
102
RTVSPropertyOp19
 70
     1
102
RTVSPropertyOp20
 70
     1
102
RTVSPropertyOp21
 70
     1
102
RTVSPropertyOp22
 70
     1
102
RTVSPropertyOp23
 70
     1
102
RTVSPropertyOp24
 70
     1
102
RTVSPropertyOp25
 70
     1
102
RTVSPropertyOp26
 70
     1
102
RTVSPropertyOp27
 70
     1
102
RTVSPropertyOp28
 70
     1
102
RTVSPropertyOp29
 70
     1
102
RTVSPropertyOp30
 70
     1
102
RTVSPropertyOp31
 70
     1
102
RTVSPropertyOp32
 70
     1
  0
XRECORD
  5
32B
102
{ACAD_REACTORS
330
32A
102
}
330
32A
100
AcDbXrecord
280
     1
102
RTVSPropertyOp0
 70
     1
102
RTVSPropertyOp1
 70
     1
102
RTVSPropertyOp2
 70
     1
102
RTVSPropertyOp3
 70
     1
102
RTVSPropertyOp4
 70
     1
102
RTVSPropertyOp5
 70
     1
102
RTVSPropertyOp6
 70
     1
102
RTVSPropertyOp7
 70
     1
102
RTVSPropertyOp8
 70
     1
102
RTVSPropertyOp9
 70
     1
102
RTVSPropertyOp10
 70
     1
102
RTVSPropertyOp11
 70
     1
102
RTVSPropertyOp12
 70
     1
102
RTVSPropertyOp13
 70
     1
102
RTVSPropertyOp14
 70
     1
102
RTVSPropertyOp15
 70
     1
102
RTVSPropertyOp16
 70
     1
102
RTVSPropertyOp17
 70
     1
102
RTVSPropertyOp18
 70
     1
102
RTVSPropertyOp19
 70
     1
102
RTVSPropertyOp20
 70
     1
102
RTVSPropertyOp21
 70
     1
102
RTVSPropertyOp22
 70
     1
102
RTVSPropertyOp23
 70
     1
102
RTVSPropertyOp24
 70
     1
102
RTVSPropertyOp25
 70
     1
102
RTVSPropertyOp26
 70
     1
102
RTVSPropertyOp27
 70
     1
102
RTVSPropertyOp28
 70
     1
102
RTVSPropertyOp29
 70
     1
102
RTVSPropertyOp30
 70
     1
102
RTVSPropertyOp31
 70
     1
102
RTVSPropertyOp32
 70
     1
  0
XRECORD
  5
31F
102
{ACAD_REACTORS
330
31E
102
}
330
31E
100
AcDbXrecord
280
     1
102
RTVSPropertyOp0
 70
     1
102
RTVSPropertyOp1
 70
     1
102
RTVSPropertyOp2
 70
     1
102
RTVSPropertyOp3
 70
     1
102
RTVSPropertyOp4
 70
     1
102
RTVSPropertyOp5
 70
     1
102
RTVSPropertyOp6
 70
     1
102
RTVSPropertyOp7
 70
     1
102
RTVSPropertyOp8
 70
     1
102
RTVSPropertyOp9
 70
     1
102
RTVSPropertyOp10
 70
     1
102
RTVSPropertyOp11
 70
     1
102
RTVSPropertyOp12
 70
     1
102
RTVSPropertyOp13
 70
     1
102
RTVSPropertyOp14
 70
     1
102
RTVSPropertyOp15
 70
     1
102
RTVSPropertyOp16
 70
     1
102
RTVSPropertyOp17
 70
     1
102
RTVSPropertyOp18
 70
     1
102
RTVSPropertyOp19
 70
     1
102
RTVSPropertyOp20
 70
     1
102
RTVSPropertyOp21
 70
     1
102
RTVSPropertyOp22
 70
     1
102
RTVSPropertyOp23
 70
     1
102
RTVSPropertyOp24
 70
     1
102
RTVSPropertyOp25
 70
     1
102
RTVSPropertyOp26
 70
     1
102
RTVSPropertyOp27
 70
     1
102
RTVSPropertyOp28
 70
     1
102
RTVSPropertyOp29
 70
     1
102
RTVSPropertyOp30
 70
     1
102
RTVSPropertyOp31
 70
     1
102
RTVSPropertyOp32
 70
     1
  0
XRECORD
  5
321
102
{ACAD_REACTORS
330
320
102
}
330
320
100
AcDbXrecord
280
     1
102
RTVSPropertyOp0
 70
     1
102
RTVSPropertyOp1
 70
     1
102
RTVSPropertyOp2
 70
     1
102
RTVSPropertyOp3
 70
     1
102
RTVSPropertyOp4
 70
     1
102
RTVSPropertyOp5
 70
     1
102
RTVSPropertyOp6
 70
     1
102
RTVSPropertyOp7
 70
     1
102
RTVSPropertyOp8
 70
     1
102
RTVSPropertyOp9
 70
     1
102
RTVSPropertyOp10
 70
     1
102
RTVSPropertyOp11
 70
     1
102
RTVSPropertyOp12
 70
     1
102
RTVSPropertyOp13
 70
     1
102
RTVSPropertyOp14
 70
     1
102
RTVSPropertyOp15
 70
     1
102
RTVSPropertyOp16
 70
     1
102
RTVSPropertyOp17
 70
     1
102
RTVSPropertyOp18
 70
     1
102
RTVSPropertyOp19
 70
     1
102
RTVSPropertyOp20
 70
     1
102
RTVSPropertyOp21
 70
     1
102
RTVSPropertyOp22
 70
     1
102
RTVSPropertyOp23
 70
     1
102
RTVSPropertyOp24
 70
     1
102
RTVSPropertyOp25
 70
     1
102
RTVSPropertyOp26
 70
     1
102
RTVSPropertyOp27
 70
     1
102
RTVSPropertyOp28
 70
     1
102
RTVSPropertyOp29
 70
     1
102
RTVSPropertyOp30
 70
     1
102
RTVSPropertyOp31
 70
     1
102
RTVSPropertyOp32
 70
     1
  0
XRECORD
  5
329
102
{ACAD_REACTORS
330
328
102
}
330
328
100
AcDbXrecord
280
     1
102
RTVSPropertyOp0
 70
     1
102
RTVSPropertyOp1
 70
     1
102
RTVSPropertyOp2
 70
     1
102
RTVSPropertyOp3
 70
     1
102
RTVSPropertyOp4
 70
     1
102
RTVSPropertyOp5
 70
     1
102
RTVSPropertyOp6
 70
     1
102
RTVSPropertyOp7
 70
     1
102
RTVSPropertyOp8
 70
     1
102
RTVSPropertyOp9
 70
     1
102
RTVSPropertyOp10
 70
     1
102
RTVSPropertyOp11
 70
     1
102
RTVSPropertyOp12
 70
     1
102
RTVSPropertyOp13
 70
     1
102
RTVSPropertyOp14
 70
     1
102
RTVSPropertyOp15
 70
     1
102
RTVSPropertyOp16
 70
     1
102
RTVSPropertyOp17
 70
     1
102
RTVSPropertyOp18
 70
     1
102
RTVSPropertyOp19
 70
     1
102
RTVSPropertyOp20
 70
     1
102
RTVSPropertyOp21
 70
     1
102
RTVSPropertyOp22
 70
     1
102
RTVSPropertyOp23
 70
     1
102
RTVSPropertyOp24
 70
     1
102
RTVSPropertyOp25
 70
     1
102
RTVSPropertyOp26
 70
     1
102
RTVSPropertyOp27
 70
     1
102
RTVSPropertyOp28
 70
     1
102
RTVSPropertyOp29
 70
     1
102
RTVSPropertyOp30
 70
     1
102
RTVSPropertyOp31
 70
     1
102
RTVSPropertyOp32
 70
     1
  0
XRECORD
  5
30D
102
{ACAD_REACTORS
330
30C
102
}
330
30C
100
AcDbXrecord
280
     1
102
RTVSPropertyOp0
 70
     1
102
RTVSPropertyOp1
 70
     1
102
RTVSPropertyOp2
 70
     1
102
RTVSPropertyOp3
 70
     1
102
RTVSPropertyOp4
 70
     1
102
RTVSPropertyOp5
 70
     1
102
RTVSPropertyOp6
 70
     1
102
RTVSPropertyOp7
 70
     1
102
RTVSPropertyOp8
 70
     1
102
RTVSPropertyOp9
 70
     1
102
RTVSPropertyOp10
 70
     1
102
RTVSPropertyOp11
 70
     1
102
RTVSPropertyOp12
 70
     1
102
RTVSPropertyOp13
 70
     1
102
RTVSPropertyOp14
 70
     1
102
RTVSPropertyOp15
 70
     1
102
RTVSPropertyOp16
 70
     1
102
RTVSPropertyOp17
 70
     1
102
RTVSPropertyOp18
 70
     1
102
RTVSPropertyOp19
 70
     1
102
RTVSPropertyOp20
 70
     1
102
RTVSPropertyOp21
 70
     1
102
RTVSPropertyOp22
 70
     1
102
RTVSPropertyOp23
 70
     1
102
RTVSPropertyOp24
 70
     1
102
RTVSPropertyOp25
 70
     1
102
RTVSPropertyOp26
 70
     1
102
RTVSPropertyOp27
 70
     1
102
RTVSPropertyOp28
 70
     1
102
RTVSPropertyOp29
 70
     1
102
RTVSPropertyOp30
 70
     1
102
RTVSPropertyOp31
 70
     1
102
RTVSPropertyOp32
 70
     1
  0
XRECORD
  5
30F
102
{ACAD_REACTORS
330
30E
102
}
330
30E
100
AcDbXrecord
280
     1
102
RTVSPropertyOp0
 70
     1
102
RTVSPropertyOp1
 70
     1
102
RTVSPropertyOp2
 70
     1
102
RTVSPropertyOp3
 70
     1
102
RTVSPropertyOp4
 70
     1
102
RTVSPropertyOp5
 70
     1
102
RTVSPropertyOp6
 70
     1
102
RTVSPropertyOp7
 70
     1
102
RTVSPropertyOp8
 70
     1
102
RTVSPropertyOp9
 70
     1
102
RTVSPropertyOp10
 70
     1
102
RTVSPropertyOp11
 70
     1
102
RTVSPropertyOp12
 70
     1
102
RTVSPropertyOp13
 70
     1
102
RTVSPropertyOp14
 70
     1
102
RTVSPropertyOp15
 70
     1
102
RTVSPropertyOp16
 70
     1
102
RTVSPropertyOp17
 70
     1
102
RTVSPropertyOp18
 70
     1
102
RTVSPropertyOp19
 70
     1
102
RTVSPropertyOp20
 70
     1
102
RTVSPropertyOp21
 70
     1
102
RTVSPropertyOp22
 70
     1
102
RTVSPropertyOp23
 70
     1
102
RTVSPropertyOp24
 70
     1
102
RTVSPropertyOp25
 70
     1
102
RTVSPropertyOp26
 70
     1
102
RTVSPropertyOp27
 70
     1
102
RTVSPropertyOp28
 70
     1
102
RTVSPropertyOp29
 70
     1
102
RTVSPropertyOp30
 70
     1
102
RTVSPropertyOp31
 70
     1
102
RTVSPropertyOp32
 70
     1
  0
XRECORD
  5
311
102
{ACAD_REACTORS
330
310
102
}
330
310
100
AcDbXrecord
280
     1
102
RTVSPropertyOp0
 70
     1
102
RTVSPropertyOp1
 70
     1
102
RTVSPropertyOp2
 70
     1
102
RTVSPropertyOp3
 70
     1
102
RTVSPropertyOp4
 70
     1
102
RTVSPropertyOp5
 70
     1
102
RTVSPropertyOp6
 70
     1
102
RTVSPropertyOp7
 70
     1
102
RTVSPropertyOp8
 70
     1
102
RTVSPropertyOp9
 70
     1
102
RTVSPropertyOp10
 70
     1
102
RTVSPropertyOp11
 70
     1
102
RTVSPropertyOp12
 70
     1
102
RTVSPropertyOp13
 70
     1
102
RTVSPropertyOp14
 70
     1
102
RTVSPropertyOp15
 70
     1
102
RTVSPropertyOp16
 70
     1
102
RTVSPropertyOp17
 70
     1
102
RTVSPropertyOp18
 70
     1
102
RTVSPropertyOp19
 70
     1
102
RTVSPropertyOp20
 70
     1
102
RTVSPropertyOp21
 70
     1
102
RTVSPropertyOp22
 70
     1
102
RTVSPropertyOp23
 70
     1
102
RTVSPropertyOp24
 70
     1
102
RTVSPropertyOp25
 70
     1
102
RTVSPropertyOp26
 70
     1
102
RTVSPropertyOp27
 70
     1
102
RTVSPropertyOp28
 70
     1
102
RTVSPropertyOp29
 70
     1
102
RTVSPropertyOp30
 70
     1
102
RTVSPropertyOp31
 70
     1
102
RTVSPropertyOp32
 70
     1
  0
XRECORD
  5
313
102
{ACAD_REACTORS
330
312
102
}
330
312
100
AcDbXrecord
280
     1
102
RTVSPropertyOp0
 70
     1
102
RTVSPropertyOp1
 70
     1
102
RTVSPropertyOp2
 70
     1
102
RTVSPropertyOp3
 70
     1
102
RTVSPropertyOp4
 70
     1
102
RTVSPropertyOp5
 70
     1
102
RTVSPropertyOp6
 70
     1
102
RTVSPropertyOp7
 70
     1
102
RTVSPropertyOp8
 70
     1
102
RTVSPropertyOp9
 70
     1
102
RTVSPropertyOp10
 70
     1
102
RTVSPropertyOp11
 70
     1
102
RTVSPropertyOp12
 70
     1
102
RTVSPropertyOp13
 70
     1
102
RTVSPropertyOp14
 70
     1
102
RTVSPropertyOp15
 70
     1
102
RTVSPropertyOp16
 70
     1
102
RTVSPropertyOp17
 70
     1
102
RTVSPropertyOp18
 70
     1
102
RTVSPropertyOp19
 70
     1
102
RTVSPropertyOp20
 70
     1
102
RTVSPropertyOp21
 70
     1
102
RTVSPropertyOp22
 70
     1
102
RTVSPropertyOp23
 70
     1
102
RTVSPropertyOp24
 70
     1
102
RTVSPropertyOp25
 70
     1
102
RTVSPropertyOp26
 70
     1
102
RTVSPropertyOp27
 70
     1
102
RTVSPropertyOp28
 70
     1
102
RTVSPropertyOp29
 70
     1
102
RTVSPropertyOp30
 70
     1
102
RTVSPropertyOp31
 70
     1
102
RTVSPropertyOp32
 70
     1
  0
XRECORD
  5
327
102
{ACAD_REACTORS
330
326
102
}
330
326
100
AcDbXrecord
280
     1
102
RTVSPropertyOp0
 70
     1
102
RTVSPropertyOp1
 70
     1
102
RTVSPropertyOp2
 70
     1
102
RTVSPropertyOp3
 70
     1
102
RTVSPropertyOp4
 70
     1
102
RTVSPropertyOp5
 70
     1
102
RTVSPropertyOp6
 70
     1
102
RTVSPropertyOp7
 70
     1
102
RTVSPropertyOp8
 70
     1
102
RTVSPropertyOp9
 70
     1
102
RTVSPropertyOp10
 70
     1
102
RTVSPropertyOp11
 70
     1
102
RTVSPropertyOp12
 70
     1
102
RTVSPropertyOp13
 70
     1
102
RTVSPropertyOp14
 70
     1
102
RTVSPropertyOp15
 70
     1
102
RTVSPropertyOp16
 70
     1
102
RTVSPropertyOp17
 70
     1
102
RTVSPropertyOp18
 70
     1
102
RTVSPropertyOp19
 70
     1
102
RTVSPropertyOp20
 70
     1
102
RTVSPropertyOp21
 70
     1
102
RTVSPropertyOp22
 70
     1
102
RTVSPropertyOp23
 70
     1
102
RTVSPropertyOp24
 70
     1
102
RTVSPropertyOp25
 70
     1
102
RTVSPropertyOp26
 70
     1
102
RTVSPropertyOp27
 70
     1
102
RTVSPropertyOp28
 70
     1
102
RTVSPropertyOp29
 70
     1
102
RTVSPropertyOp30
 70
     1
102
RTVSPropertyOp31
 70
     1
102
RTVSPropertyOp32
 70
     1
  0
XRECORD
  5
31D
102
{ACAD_REACTORS
330
31C
102
}
330
31C
100
AcDbXrecord
280
     1
102
RTVSPropertyOp0
 70
     1
102
RTVSPropertyOp1
 70
     1
102
RTVSPropertyOp2
 70
     1
102
RTVSPropertyOp3
 70
     1
102
RTVSPropertyOp4
 70
     1
102
RTVSPropertyOp5
 70
     1
102
RTVSPropertyOp6
 70
     1
102
RTVSPropertyOp7
 70
     1
102
RTVSPropertyOp8
 70
     1
102
RTVSPropertyOp9
 70
     1
102
RTVSPropertyOp10
 70
     1
102
RTVSPropertyOp11
 70
     1
102
RTVSPropertyOp12
 70
     1
102
RTVSPropertyOp13
 70
     1
102
RTVSPropertyOp14
 70
     1
102
RTVSPropertyOp15
 70
     1
102
RTVSPropertyOp16
 70
     1
102
RTVSPropertyOp17
 70
     1
102
RTVSPropertyOp18
 70
     1
102
RTVSPropertyOp19
 70
     1
102
RTVSPropertyOp20
 70
     1
102
RTVSPropertyOp21
 70
     1
102
RTVSPropertyOp22
 70
     1
102
RTVSPropertyOp23
 70
     1
102
RTVSPropertyOp24
 70
     1
102
RTVSPropertyOp25
 70
     1
102
RTVSPropertyOp26
 70
     1
102
RTVSPropertyOp27
 70
     1
102
RTVSPropertyOp28
 70
     1
102
RTVSPropertyOp29
 70
     1
102
RTVSPropertyOp30
 70
     1
102
RTVSPropertyOp31
 70
     1
102
RTVSPropertyOp32
 70
     1
  0
XRECORD
  5
325
102
{ACAD_REACTORS
330
324
102
}
330
324
100
AcDbXrecord
280
     1
102
RTVSPropertyOp0
 70
     1
102
RTVSPropertyOp1
 70
     1
102
RTVSPropertyOp2
 70
     1
102
RTVSPropertyOp3
 70
     1
102
RTVSPropertyOp4
 70
     1
102
RTVSPropertyOp5
 70
     1
102
RTVSPropertyOp6
 70
     1
102
RTVSPropertyOp7
 70
     1
102
RTVSPropertyOp8
 70
     1
102
RTVSPropertyOp9
 70
     1
102
RTVSPropertyOp10
 70
     1
102
RTVSPropertyOp11
 70
     1
102
RTVSPropertyOp12
 70
     1
102
RTVSPropertyOp13
 70
     1
102
RTVSPropertyOp14
 70
     1
102
RTVSPropertyOp15
 70
     1
102
RTVSPropertyOp16
 70
     1
102
RTVSPropertyOp17
 70
     1
102
RTVSPropertyOp18
 70
     1
102
RTVSPropertyOp19
 70
     1
102
RTVSPropertyOp20
 70
     1
102
RTVSPropertyOp21
 70
     1
102
RTVSPropertyOp22
 70
     1
102
RTVSPropertyOp23
 70
     1
102
RTVSPropertyOp24
 70
     1
102
RTVSPropertyOp25
 70
     1
102
RTVSPropertyOp26
 70
     1
102
RTVSPropertyOp27
 70
     1
102
RTVSPropertyOp28
 70
     1
102
RTVSPropertyOp29
 70
     1
102
RTVSPropertyOp30
 70
     1
102
RTVSPropertyOp31
 70
     1
102
RTVSPropertyOp32
 70
     1
  0
ENDSEC
  0
EOF
