  0
SECTION
  2
HEADER
  9
$ACADVER
  1
AC1018
  9
$ACADMAINTVER
 70
     0
  9
$DWGCODEPAGE
  3
ANSI_1252
  9
$INSBASE
 10
0.0
 20
0.0
 30
0.0
  9
$EXTMIN
 10
-1239.249983245514
 20
-1152.74998654694
 30
0.0
  9
$EXTMAX
 10
-819.2499832455151
 20
-855.7499865469402
 30
0.0
  9
$LIMMIN
 10
0.0
 20
0.0
  9
$LIMMAX
 10
12.0
 20
9.0
  9
$ORTHOMODE
 70
     0
  9
$REGENMODE
 70
     1
  9
$FILLMODE
 70
     1
  9
$QTEXTMODE
 70
     0
  9
$MIRRTEXT
 70
     1
  9
$LTSCALE
 40
1.0
  9
$ATTMODE
 70
     1
  9
$TEXTSIZE
 40
0.2
  9
$TRACEWID
 40
0.05
  9
$TEXTSTYLE
  7
Standard
  9
$CLAYER
  8
0
  9
$CELTYPE
  6
ByLayer
  9
$CECOLOR
 62
   256
  9
$CELTSCALE
 40
1.0
  9
$DISPSILH
 70
     0
  9
$DIMSCALE
 40
1.0
  9
$DIMASZ
 40
0.18
  9
$DIMEXO
 40
0.0625
  9
$DIMDLI
 40
0.38
  9
$DIMRND
 40
0.0
  9
$DIMDLE
 40
0.0
  9
$DIMEXE
 40
0.18
  9
$DIMTP
 40
0.0
  9
$DIMTM
 40
0.0
  9
$DIMTXT
 40
0.18
  9
$DIMCEN
 40
0.09
  9
$DIMTSZ
 40
0.0
  9
$DIMTOL
 70
     0
  9
$DIMLIM
 70
     0
  9
$DIMTIH
 70
     1
  9
$DIMTOH
 70
     1
  9
$DIMSE1
 70
     0
  9
$DIMSE2
 70
     0
  9
$DIMTAD
 70
     0
  9
$DIMZIN
 70
     0
  9
$DIMBLK
  1

  9
$DIMASO
 70
     1
  9
$DIMSHO
 70
     1
  9
$DIMPOST
  1

  9
$DIMAPOST
  1

  9
$DIMALT
 70
     0
  9
$DIMALTD
 70
     2
  9
$DIMALTF
 40
25.4
  9
$DIMLFAC
 40
1.0
  9
$DIMTOFL
 70
     0
  9
$DIMTVP
 40
0.0
  9
$DIMTIX
 70
     0
  9
$DIMSOXD
 70
     0
  9
$DIMSAH
 70
     0
  9
$DIMBLK1
  1

  9
$DIMBLK2
  1

  9
$DIMSTYLE
  2
Standard
  9
$DIMCLRD
 70
     0
  9
$DIMCLRE
 70
     0
  9
$DIMCLRT
 70
     0
  9
$DIMTFAC
 40
1.0
  9
$DIMGAP
 40
0.09
  9
$DIMJUST
 70
     0
  9
$DIMSD1
 70
     0
  9
$DIMSD2
 70
     0
  9
$DIMTOLJ
 70
     1
  9
$DIMTZIN
 70
     0
  9
$DIMALTZ
 70
     0
  9
$DIMALTTZ
 70
     0
  9
$DIMUPT
 70
     0
  9
$DIMDEC
 70
     4
  9
$DIMTDEC
 70
     4
  9
$DIMALTU
 70
     2
  9
$DIMALTTD
 70
     2
  9
$DIMTXSTY
  7
Standard
  9
$DIMAUNIT
 70
     0
  9
$DIMADEC
 70
     0
  9
$DIMALTRND
 40
0.0
  9
$DIMAZIN
 70
     0
  9
$DIMDSEP
 70
    46
  9
$DIMATFIT
 70
     3
  9
$DIMFRAC
 70
     0
  9
$DIMLDRBLK
  1

  9
$DIMLUNIT
 70
     2
  9
$DIMLWD
 70
    -2
  9
$DIMLWE
 70
    -2
  9
$DIMTMOVE
 70
     0
  9
$LUNITS
 70
     2
  9
$LUPREC
 70
     4
  9
$SKETCHINC
 40
0.1
  9
$FILLETRAD
 40
0.5
  9
$AUNITS
 70
     0
  9
$AUPREC
 70
     0
  9
$MENU
  1
.
  9
$ELEVATION
 40
0.0
  9
$PELEVATION
 40
0.0
  9
$THICKNESS
 40
0.0
  9
$LIMCHECK
 70
     0
  9
$CHAMFERA
 40
0.5
  9
$CHAMFERB
 40
0.5
  9
$CHAMFERC
 40
1.0
  9
$CHAMFERD
 40
0.0
  9
$SKPOLY
 70
     0
  9
$TDCREATE
 40
2458212.517934039
  9
$TDUCREATE
 40
2458212.434600706
  9
$TDUPDATE
 40
2458212.517934583
  9
$TDUUPDATE
 40
2458212.43460125
  9
$TDINDWG
 40
0.0000000116
  9
$TDUSRTIMER
 40
0.0000000116
  9
$USRTIMER
 70
     1
  9
$ANGBASE
 50
0.0
  9
$ANGDIR
 70
     0
  9
$PDMODE
 70
     0
  9
$PDSIZE
 40
0.0
  9
$PLINEWID
 40
0.0
  9
$SPLFRAME
 70
     0
  9
$SPLINETYPE
 70
     6
  9
$SPLINESEGS
 70
     8
  9
$HANDSEED
  5
27A
  9
$SURFTAB1
 70
     6
  9
$SURFTAB2
 70
     6
  9
$SURFTYPE
 70
     6
  9
$SURFU
 70
     6
  9
$SURFV
 70
     6
  9
$UCSBASE
  2

  9
$UCSNAME
  2

  9
$UCSORG
 10
0.0
 20
0.0
 30
0.0
  9
$UCSXDIR
 10
1.0
 20
0.0
 30
0.0
  9
$UCSYDIR
 10
0.0
 20
1.0
 30
0.0
  9
$UCSORTHOREF
  2

  9
$UCSORTHOVIEW
 70
     0
  9
$UCSORGTOP
 10
0.0
 20
0.0
 30
0.0
  9
$UCSORGBOTTOM
 10
0.0
 20
0.0
 30
0.0
  9
$UCSORGLEFT
 10
0.0
 20
0.0
 30
0.0
  9
$UCSORGRIGHT
 10
0.0
 20
0.0
 30
0.0
  9
$UCSORGFRONT
 10
0.0
 20
0.0
 30
0.0
  9
$UCSORGBACK
 10
0.0
 20
0.0
 30
0.0
  9
$PUCSBASE
  2

  9
$PUCSNAME
  2

  9
$PUCSORG
 10
0.0
 20
0.0
 30
0.0
  9
$PUCSXDIR
 10
1.0
 20
0.0
 30
0.0
  9
$PUCSYDIR
 10
0.0
 20
1.0
 30
0.0
  9
$PUCSORTHOREF
  2

  9
$PUCSORTHOVIEW
 70
     0
  9
$PUCSORGTOP
 10
0.0
 20
0.0
 30
0.0
  9
$PUCSORGBOTTOM
 10
0.0
 20
0.0
 30
0.0
  9
$PUCSORGLEFT
 10
0.0
 20
0.0
 30
0.0
  9
$PUCSORGRIGHT
 10
0.0
 20
0.0
 30
0.0
  9
$PUCSORGFRONT
 10
0.0
 20
0.0
 30
0.0
  9
$PUCSORGBACK
 10
0.0
 20
0.0
 30
0.0
  9
$USERI1
 70
     0
  9
$USERI2
 70
     0
  9
$USERI3
 70
     0
  9
$USERI4
 70
     0
  9
$USERI5
 70
     0
  9
$USERR1
 40
18.1
  9
$USERR2
 40
0.0
  9
$USERR3
 40
0.0
  9
$USERR4
 40
0.0
  9
$USERR5
 40
0.0
  9
$WORLDVIEW
 70
     1
  9
$SHADEDGE
 70
     3
  9
$SHADEDIF
 70
    70
  9
$TILEMODE
 70
     1
  9
$MAXACTVP
 70
    64
  9
$PINSBASE
 10
0.0
 20
0.0
 30
0.0
  9
$PLIMCHECK
 70
     0
  9
$PEXTMIN
 10
1.00000000000000E+20
 20
1.00000000000000E+20
 30
1.00000000000000E+20
  9
$PEXTMAX
 10
-1.00000000000000E+20
 20
-1.00000000000000E+20
 30
-1.00000000000000E+20
  9
$PLIMMIN
 10
0.0
 20
0.0
  9
$PLIMMAX
 10
12.0
 20
9.0
  9
$UNITMODE
 70
     0
  9
$VISRETAIN
 70
     1
  9
$PLINEGEN
 70
     0
  9
$PSLTSCALE
 70
     1
  9
$TREEDEPTH
 70
  3020
  9
$CMLSTYLE
  2
Standard
  9
$CMLJUST
 70
     0
  9
$CMLSCALE
 40
1.0
  9
$PROXYGRAPHICS
 70
     1
  9
$MEASUREMENT
 70
     1
  9
$CELWEIGHT
370
    -1
  9
$ENDCAPS
280
     0
  9
$JOINSTYLE
280
     0
  9
$LWDISPLAY
290
     0
  9
$INSUNITS
 70
     4
  9
$HYPERLINKBASE
  1

  9
$STYLESHEET
  1

  9
$XEDIT
290
     1
  9
$CEPSNTYPE
380
     0
  9
$PSTYLEMODE
290
     1
  9
$FINGERPRINTGUID
  2
{71716388-0D9E-4613-9435-F9D13384DC3B}
  9
$VERSIONGUID
  2
{FAEB1C32-E019-11D5-929B-00C0DF256EC4}
  9
$EXTNAMES
290
     1
  9
$PSVPSCALE
 40
0.0
  9
$OLESTARTUP
290
     0
  9
$SORTENTS
280
   127
  9
$INDEXCTL
280
     0
  9
$HIDETEXT
280
     1
  9
$XCLIPFRAME
290
     0
  9
$HALOGAP
280
     0
  9
$OBSCOLOR
 70
   257
  9
$OBSLTYPE
280
     0
  9
$INTERSECTIONDISPLAY
280
     0
  9
$INTERSECTIONCOLOR
 70
   257
  9
$DIMASSOC
280
     2
  9
$PROJECTNAME
  1

  0
ENDSEC
  0
SECTION
  2
CLASSES
  0
CLASS
  1
ACDBDICTIONARYWDFLT
  2
AcDbDictionaryWithDefault
  3
ObjectDBX Classes
 90
        0
 91
        4
280
     0
281
     0
  0
CLASS
  1
VISUALSTYLE
  2
AcDbVisualStyle
  3
ObjectDBX Classes
 90
     4095
 91
        4
280
     0
281
     0
  0
CLASS
  1
MATERIAL
  2
AcDbMaterial
  3
ObjectDBX Classes
 90
     1153
 91
        4
280
     0
281
     0
  0
ENDSEC
  0
SECTION
  2
TABLES
  0
TABLE
  2
VPORT
  5
8
330
0
100
AcDbSymbolTable
 70
     1
  0
VPORT
  5
29
330
8
100
AcDbSymbolTableRecord
100
AcDbViewportTableRecord
  2
*Active
 70
     0
 10
0.0
 20
0.0
 11
1.0
 21
1.0
 12
-1029.249983245515
 22
-1004.24998654694
 13
0.0
 23
0.0
 14
0.5
 24
0.5
 15
0.5
 25
0.5
 16
0.0
 26
0.0
 36
1.0
 17
0.0
 27
0.0
 37
0.0
 40
326.6999999999996
 41
1.60267857142857
 42
50.0
 43
0.0
 44
0.0
 50
0.0
 51
0.0
 71
     0
 72
   100
 73
     1
 74
     3
 75
     0
 76
     0
 77
     0
 78
     0
281
     0
 65
     1
110
0.0
120
0.0
130
0.0
111
1.0
121
0.0
131
0.0
112
0.0
122
1.0
132
0.0
 79
     0
146
0.0
  0
ENDTAB
  0
TABLE
  2
LTYPE
  5
5
330
0
100
AcDbSymbolTable
 70
     8
  0
LTYPE
  5
14
330
5
100
AcDbSymbolTableRecord
100
AcDbLinetypeTableRecord
  2
ByBlock
 70
     0
  3

 72
    65
 73
     0
 40
0.0
  0
LTYPE
  5
15
330
5
100
AcDbSymbolTableRecord
100
AcDbLinetypeTableRecord
  2
ByLayer
 70
     0
  3

 72
    65
 73
     0
 40
0.0
  0
LTYPE
  5
16
330
5
100
AcDbSymbolTableRecord
100
AcDbLinetypeTableRecord
  2
Continuous
 70
     0
  3
Solid line
 72
    65
 73
     0
 40
0.0
  0
LTYPE
  5
3F
330
5
100
AcDbSymbolTableRecord
100
AcDbLinetypeTableRecord
  2
DASHED
 70
     0
  3
Dashed
 72
    65
 73
     2
 40
15.0
 49
7.0
 74
     0
 49
-8.0
 74
     0
  0
LTYPE
  5
40
330
5
100
AcDbSymbolTableRecord
100
AcDbLinetypeTableRecord
  2
DOTTED
 70
     0
  3
Dotted
 72
    65
 73
     2
 40
1.0
 49
0.0
 74
     0
 49
-1.0
 74
     0
  0
LTYPE
  5
41
330
5
100
AcDbSymbolTableRecord
100
AcDbLinetypeTableRecord
  2
DOT_CENTER
 70
     0
  3
Dot_Center
 72
    65
 73
     4
 40
14.0
 49
12.0
 74
     0
 49
-1.0
 74
     0
 49
0.0
 74
     0
 49
-1.0
 74
     0
  0
LTYPE
  5
42
330
5
100
AcDbSymbolTableRecord
100
AcDbLinetypeTableRecord
  2
LONG_DASHED
 70
     0
  3
Long_Dashed
 72
    65
 73
     2
 40
15.0
 49
10.0
 74
     0
 49
-5.0
 74
     0
  0
LTYPE
  5
43
330
5
100
AcDbSymbolTableRecord
100
AcDbLinetypeTableRecord
  2
DASH_CENTER
 70
     0
  3
Dash_Center
 72
    65
 73
     4
 40
14.0
 49
11.0
 74
     0
 49
-1.0
 74
     0
 49
1.0
 74
     0
 49
-1.0
 74
     0
  0
LTYPE
  5
44
330
5
100
AcDbSymbolTableRecord
100
AcDbLinetypeTableRecord
  2
PHANTOM
 70
     0
  3
Phantom
 72
    65
 73
     6
 40
13.0
 49
10.0
 74
     0
 49
-1.0
 74
     0
 49
0.0
 74
     0
 49
-1.0
 74
     0
 49
0.0
 74
     0
 49
-1.0
 74
     0
  0
LTYPE
  5
45
330
5
100
AcDbSymbolTableRecord
100
AcDbLinetypeTableRecord
  2
CENTER_DASH_DASH
 70
     0
  3
Center_Dash_Dash
 72
    65
 73
     6
 40
14.0
 49
9.0
 74
     0
 49
-1.0
 74
     0
 49
1.0
 74
     0
 49
-1.0
 74
     0
 49
1.0
 74
     0
 49
-1.0
 74
     0
  0
ENDTAB
  0
TABLE
  2
LAYER
  5
2
330
0
100
AcDbSymbolTable
 70
     2
  0
LAYER
  5
10
330
2
100
AcDbSymbolTableRecord
100
AcDbLayerTableRecord
  2
0
 70
     0
 62
     7
  6
Continuous
370
    -3
390
F
  0
LAYER
  5
46
330
2
100
AcDbSymbolTableRecord
100
AcDbLayerTableRecord
  2
1
 70
     0
 62
     7
  6
Continuous
370
    -3
390
F
  0
ENDTAB
  0
TABLE
  2
STYLE
  5
3
330
0
100
AcDbSymbolTable
 70
     5
  0
STYLE
  5
11
330
3
100
AcDbSymbolTableRecord
100
AcDbTextStyleTableRecord
  2
Standard
 70
     0
 40
0.0
 41
1.0
 50
0.0
 71
     0
 42
0.2
  3
txt
  4

  0
STYLE
  5
A5
330
3
100
AcDbSymbolTableRecord
100
AcDbTextStyleTableRecord
  2
CONVERTER_11
 70
     0
 40
0.0
 41
0.9
 50
0.0
 71
     0
 42
0.2
  3
txt.shx
  4

  0
STYLE
  5
212
330
3
100
AcDbSymbolTableRecord
100
AcDbTextStyleTableRecord
  2
CONVERTER_12
 70
     0
 40
0.0
 41
0.81
 50
0.0
 71
     0
 42
0.2
  3
txt.shx
  4

  0
STYLE
  5
21A
330
3
100
AcDbSymbolTableRecord
100
AcDbTextStyleTableRecord
  2
CONVERTER_13
 70
     0
 40
0.0
 41
0.72
 50
0.0
 71
     0
 42
0.2
  3
txt.shx
  4

  0
STYLE
  5
21D
330
3
100
AcDbSymbolTableRecord
100
AcDbTextStyleTableRecord
  2
CONVERTER_14
 70
     0
 40
0.0
 41
0.855
 50
0.0
 71
     0
 42
0.2
  3
txt.shx
  4

  0
ENDTAB
  0
TABLE
  2
VIEW
  5
6
330
0
100
AcDbSymbolTable
 70
     0
  0
ENDTAB
  0
TABLE
  2
UCS
  5
7
330
0
100
AcDbSymbolTable
 70
     0
  0
ENDTAB
  0
TABLE
  2
APPID
  5
9
330
0
100
AcDbSymbolTable
 70
     1
  0
APPID
  5
12
330
9
100
AcDbSymbolTableRecord
100
AcDbRegAppTableRecord
  2
ACAD
 70
     0
  0
ENDTAB
  0
TABLE
  2
DIMSTYLE
  5
A
330
0
100
AcDbSymbolTable
 70
     4
100
AcDbDimStyleTable
  0
DIMSTYLE
105
27
330
A
100
AcDbSymbolTableRecord
100
AcDbDimStyleTableRecord
  2
Standard
 70
     0
178
     0
340
11
  0
DIMSTYLE
105
B5
102
{ACAD_REACTORS
330
B6
102
}
330
A
100
AcDbSymbolTableRecord
100
AcDbDimStyleTableRecord
  2
ME10_DIM_10
 70
     0
 41
0.7
 42
0.0
 44
0.3
 73
     0
 74
     0
 77
     1
 78
     8
140
0.7
147
0.3
172
     1
173
     1
174
     1
175
     1
176
     2
177
     2
178
     3
340
A5
  0
DIMSTYLE
105
D1
102
{ACAD_REACTORS
330
D2
102
}
330
A
100
AcDbSymbolTableRecord
100
AcDbDimStyleTableRecord
  2
ME10_DIM_11
 70
     0
 41
0.7
 42
0.0
 44
0.3
 73
     0
 74
     0
 77
     1
 78
     8
140
0.7
147
0.3
172
     1
173
     1
174
     1
175
     1
176
     2
177
     2
178
     3
340
A5
  0
DIMSTYLE
105
DC
102
{ACAD_REACTORS
330
DD
102
}
330
A
100
AcDbSymbolTableRecord
100
AcDbDimStyleTableRecord
  2
ME10_DIM_12
 70
     0
 41
0.7
 42
0.0
 44
0.3
 73
     0
 74
     0
 77
     1
 78
     8
140
0.7
147
0.3
172
     1
173
     1
174
     1
175
     1
176
     2
177
     2
178
     3
340
A5
  0
ENDTAB
  0
TABLE
  2
BLOCK_RECORD
  5
1
330
0
100
AcDbSymbolTable
 70
    20
  0
BLOCK_RECORD
  5
1F
330
1
100
AcDbSymbolTableRecord
100
AcDbBlockTableRecord
  2
*Model_Space
340
22
  0
BLOCK_RECORD
  5
1B
330
1
100
AcDbSymbolTableRecord
100
AcDbBlockTableRecord
  2
*Paper_Space
340
1E
  0
BLOCK_RECORD
  5
23
330
1
100
AcDbSymbolTableRecord
100
AcDbBlockTableRecord
  2
*Paper_Space0
340
26
  0
BLOCK_RECORD
  5
47
330
1
100
AcDbSymbolTableRecord
100
AcDbBlockTableRecord
  2
ZB_22-PROFIL-SELECT__1
340
0
102
{BLKREFS
331
4B
102
}
  0
BLOCK_RECORD
  5
4A
330
1
100
AcDbSymbolTableRecord
100
AcDbBlockTableRecord
  2
Allg1
340
0
102
{BLKREFS
331
7D
102
}
  0
BLOCK_RECORD
  5
4E
330
1
100
AcDbSymbolTableRecord
100
AcDbBlockTableRecord
  2
ZB_22-PROFIL-SELECT__2
340
0
102
{BLKREFS
331
52
102
}
  0
BLOCK_RECORD
  5
51
330
1
100
AcDbSymbolTableRecord
100
AcDbBlockTableRecord
  2
Drfsicht1
340
0
102
{BLKREFS
331
7E
102
}
  0
BLOCK_RECORD
  5
55
330
1
100
AcDbSymbolTableRecord
100
AcDbBlockTableRecord
  2
ZB_22-PROFIL-SELECT__3
340
0
102
{BLKREFS
331
59
102
}
  0
BLOCK_RECORD
  5
58
330
1
100
AcDbSymbolTableRecord
100
AcDbBlockTableRecord
  2
Vordans1
340
0
102
{BLKREFS
331
7F
102
}
  0
BLOCK_RECORD
  5
5C
330
1
100
AcDbSymbolTableRecord
100
AcDbBlockTableRecord
  2
ZB_22-PROFIL-SELECT__4
340
0
102
{BLKREFS
331
60
102
}
  0
BLOCK_RECORD
  5
5F
330
1
100
AcDbSymbolTableRecord
100
AcDbBlockTableRecord
  2
SA_Rechts1
340
0
102
{BLKREFS
331
80
102
}
  0
BLOCK_RECORD
  5
63
330
1
100
AcDbSymbolTableRecord
100
AcDbBlockTableRecord
  2
ZB_22-PROFIL-SELECT__5
340
0
102
{BLKREFS
331
67
102
}
  0
BLOCK_RECORD
  5
66
330
1
100
AcDbSymbolTableRecord
100
AcDbBlockTableRecord
  2
Rckans1
340
0
102
{BLKREFS
331
81
102
}
  0
BLOCK_RECORD
  5
6A
330
1
100
AcDbSymbolTableRecord
100
AcDbBlockTableRecord
  2
ZB_22-PROFIL-SELECT__6
340
0
102
{BLKREFS
331
6E
102
}
  0
BLOCK_RECORD
  5
6D
330
1
100
AcDbSymbolTableRecord
100
AcDbBlockTableRecord
  2
SA_Links1
340
0
102
{BLKREFS
331
82
102
}
  0
BLOCK_RECORD
  5
71
330
1
100
AcDbSymbolTableRecord
100
AcDbBlockTableRecord
  2
_rahmen
340
0
102
{BLKREFS
331
78
102
}
  0
BLOCK_RECORD
  5
74
330
1
100
AcDbSymbolTableRecord
100
AcDbBlockTableRecord
  2
_punkt
340
0
102
{BLKREFS
331
79
102
}
  0
BLOCK_RECORD
  5
77
330
1
100
AcDbSymbolTableRecord
100
AcDbBlockTableRecord
  2
A3I_CS
340
0
102
{BLKREFS
331
83
102
}
  0
BLOCK_RECORD
  5
7C
330
1
100
AcDbSymbolTableRecord
100
AcDbBlockTableRecord
  2
1
340
0
102
{BLKREFS
331
86
102
}
  0
BLOCK_RECORD
  5
AC
330
1
100
AcDbSymbolTableRecord
100
AcDbBlockTableRecord
  2
*D17
340
0
  0
BLOCK_RECORD
  5
C8
330
1
100
AcDbSymbolTableRecord
100
AcDbBlockTableRecord
  2
*D18
340
0
  0
BLOCK_RECORD
  5
D3
330
1
100
AcDbSymbolTableRecord
100
AcDbBlockTableRecord
  2
*D19
340
0
  0
ENDTAB
  0
ENDSEC
  0
SECTION
  2
BLOCKS
  0
BLOCK
  5
20
330
1F
100
AcDbEntity
  8
0
100
AcDbBlockBegin
  2
*Model_Space
 70
     0
 10
0.0
 20
0.0
 30
0.0
  3
*Model_Space
  1

  0
ENDBLK
  5
21
330
1F
100
AcDbEntity
  8
0
100
AcDbBlockEnd
  0
BLOCK
  5
1C
330
1B
100
AcDbEntity
 67
     1
  8
0
100
AcDbBlockBegin
  2
*Paper_Space
 70
     0
 10
0.0
 20
0.0
 30
0.0
  3
*Paper_Space
  1

  0
ENDBLK
  5
1D
330
1B
100
AcDbEntity
 67
     1
  8
0
100
AcDbBlockEnd
  0
BLOCK
  5
24
330
23
100
AcDbEntity
  8
0
100
AcDbBlockBegin
  2
*Paper_Space0
 70
     0
 10
0.0
 20
0.0
 30
0.0
  3
*Paper_Space0
  1

  0
ENDBLK
  5
25
330
23
100
AcDbEntity
  8
0
100
AcDbBlockEnd
  0
BLOCK
  5
48
330
47
100
AcDbEntity
  8
0
100
AcDbBlockBegin
  2
ZB_22-PROFIL-SELECT__1
 70
     0
 10
-195.1966269520662
 20
-209.667027158539
 30
0.0
  3
ZB_22-PROFIL-SELECT__1
  1

  0
LINE
  5
87
330
47
100
AcDbEntity
  8
0
  6
Continuous
 62
     7
100
AcDbLine
 10
-188.4831562539211
 20
-208.6979785132557
 30
0.0
 11
-186.9081562539209
 21
-207.3339885022951
 31
0.0
  0
LINE
  5
88
330
47
100
AcDbEntity
  8
0
  6
Continuous
 62
     2
100
AcDbLine
 10
-186.6284718165069
 20
-207.4147264449096
 30
0.0
 11
-188.203471816507
 21
-208.7787164558701
 31
0.0
  0
LINE
  5
89
330
47
100
AcDbEntity
  8
0
  6
Continuous
 62
     7
100
AcDbLine
 10
-175.2033602123296
 20
-198.1266362066724
 30
0.0
 11
-175.2033602123296
 21
-197.1740082625096
 31
0.0
  0
LINE
  5
8A
330
47
100
AcDbEntity
  8
0
  6
Continuous
 62
     7
100
AcDbLine
 10
-175.2033602123296
 20
-197.1740082625096
 30
0.0
 11
-184.2966269520662
 21
-194.5490082625096
 31
0.0
  0
LINE
  5
8B
330
47
100
AcDbEntity
  8
0
  6
Continuous
 62
     7
100
AcDbLine
 10
-175.2033602123296
 20
-198.1266362066724
 30
0.0
 11
-186.1033602123296
 21
-207.5663131079228
 31
0.0
  0
LINE
  5
8C
330
47
100
AcDbEntity
  8
0
  6
Continuous
 62
     7
100
AcDbLine
 10
-195.1966269520662
 20
-203.98868516376
 30
0.0
 11
-195.1966269520662
 21
-204.9413131079228
 31
0.0
  0
LINE
  5
8D
330
47
100
AcDbEntity
  8
0
  6
Continuous
 62
     7
100
AcDbLine
 10
-195.1966269520662
 20
-204.9413131079228
 30
0.0
 11
-192.3295242145762
 21
-205.7689743765649
 31
0.0
  0
LINE
  5
8E
330
47
100
AcDbEntity
  8
0
  6
Continuous
 62
     7
100
AcDbLine
 10
-186.1033602123296
 20
-207.5663131079228
 30
0.0
 11
-186.1033602123296
 21
-206.61368516376
 31
0.0
  0
LINE
  5
8F
330
47
100
AcDbEntity
  8
0
  6
Continuous
 62
     7
100
AcDbLine
 10
-188.970462949821
 20
-206.7386518392804
 30
0.0
 11
-186.1033602123296
 21
-207.5663131079228
 31
0.0
  0
LINE
  5
90
330
47
100
AcDbEntity
  8
0
  6
Continuous
 62
     7
100
AcDbLine
 10
-191.7019213840586
 20
-205.9501477081367
 30
0.0
 11
-189.5980657803388
 21
-206.5574785077085
 31
0.0
  0
LINE
  5
91
330
47
100
AcDbEntity
  8
0
  6
Continuous
 62
     7
100
AcDbLine
 10
-186.1033602123296
 20
-206.61368516376
 30
0.0
 11
-195.1966269520662
 21
-203.98868516376
 31
0.0
  0
LINE
  5
92
330
47
100
AcDbEntity
  8
0
  6
Continuous
 62
     7
100
AcDbLine
 10
-184.2966269520662
 20
-194.5490082625096
 30
0.0
 11
-195.1966269520662
 21
-203.98868516376
 31
0.0
  0
LINE
  5
93
330
47
100
AcDbEntity
  8
0
  6
Continuous
 62
     7
100
AcDbLine
 10
-188.970462949821
 20
-206.7386518392804
 30
0.0
 11
-188.4831562539211
 21
-208.6979785132557
 31
0.0
  0
LINE
  5
94
330
47
100
AcDbEntity
  8
0
  6
Continuous
 62
     7
100
AcDbLine
 10
-190.0962788875249
 20
-206.4136567719347
 30
0.0
 11
-192.4212788875251
 21
-208.4271658357336
 31
0.0
  0
LINE
  5
95
330
47
100
AcDbEntity
  8
0
  6
Continuous
 62
     7
100
AcDbLine
 10
-192.3295242145762
 20
-205.7689743765649
 30
0.0
 11
-192.8168309104755
 21
-207.4469543984847
 31
0.0
  0
LINE
  5
96
330
47
100
AcDbEntity
  8
0
  6
Continuous
 62
     7
100
AcDbLine
 10
-193.096515347889
 20
-207.3662164558703
 30
0.0
 11
-192.8168309104755
 21
-207.4469543984847
 31
0.0
  0
LINE
  5
97
330
47
100
AcDbEntity
  8
0
  6
Continuous
 62
     2
100
AcDbLine
 10
-192.6915271152084
 20
-207.0154863581352
 30
0.0
 11
-193.096515347889
 21
-207.3662164558703
 31
0.0
  0
LINE
  5
98
330
47
100
AcDbEntity
  8
0
  6
Continuous
 62
     7
100
AcDbLine
 10
-192.602899221434
 20
-206.7103072247687
 30
0.0
 11
-193.4238421832429
 21
-207.4212646847533
 31
0.0
  0
LINE
  5
99
330
47
100
AcDbEntity
  8
0
  6
Continuous
 62
     7
100
AcDbLine
 10
-192.4212788875251
 20
-208.4271658357336
 30
0.0
 11
-191.7019213840586
 21
-205.9501477081367
 31
0.0
  0
LINE
  5
9A
330
47
100
AcDbEntity
  8
0
  6
Continuous
 62
     7
100
AcDbLine
 10
-186.1033602123296
 20
-206.61368516376
 30
0.0
 11
-175.2033602123296
 21
-197.1740082625096
 31
0.0
  0
LINE
  5
9B
330
47
100
AcDbEntity
  8
0
  6
Continuous
 62
     7
100
AcDbLine
 10
-188.4831562539211
 20
-208.6979785132557
 30
0.0
 11
-188.203471816507
 21
-208.7787164558701
 31
0.0
  0
LINE
  5
9C
330
47
100
AcDbEntity
  8
0
  6
Continuous
 62
     7
100
AcDbLine
 10
-193.096515347889
 20
-208.2322418596548
 30
0.0
 11
-192.4212788875251
 21
-208.4271658357336
 31
0.0
  0
LINE
  5
9D
330
47
100
AcDbEntity
  8
0
  6
Continuous
 62
     7
100
AcDbLine
 10
-188.8787082768709
 20
-209.4498178835758
 30
0.0
 11
-188.203471816507
 21
-209.6447418596547
 31
0.0
  0
LINE
  5
9E
330
47
100
AcDbEntity
  8
0
  6
Continuous
 62
     7
100
AcDbLine
 10
-189.5980657803388
 20
-206.5574785077085
 30
0.0
 11
-188.8787082768709
 21
-209.4498178835758
 31
0.0
  0
LINE
  5
9F
330
47
100
AcDbEntity
  8
0
  6
Continuous
 62
     7
100
AcDbLine
 10
-176.9761449811531
 20
-200.1500167295213
 30
0.0
 11
-187.8761449811531
 21
-209.5896936307717
 31
0.0
  0
SPLINE
  5
A0
330
47
100
AcDbEntity
  8
0
  6
Continuous
 62
     7
100
AcDbSpline
210
0.0
220
0.0
230
1.0
 70
     8
 71
     3
 72
    11
 73
     7
 74
     5
 42
0.000000001
 43
0.0000000001
 44
0.00000001
 40
0.0
 40
0.0
 40
0.0
 40
0.0
 40
0.1231062047300584
 40
0.2550331524724812
 40
0.3998739696127814
 40
0.5561029043245063
 40
0.5561029043245063
 40
0.5561029043245063
 40
0.5561029043245063
 10
-176.9761449811531
 20
-200.1500167295213
 30
0.0
 10
-176.9485100620619
 20
-200.1188197313993
 30
0.0
 10
-176.8912601525091
 20
-200.0541904153128
 30
0.0
 10
-176.86403552953
 20
-199.9186518141035
 30
0.0
 10
-176.8782590465621
 20
-199.7728963059743
 30
0.0
 10
-176.9216242819224
 20
-199.6815732284128
 30
0.0
 10
-176.944127062669
 20
-199.6341845211323
 30
0.0
 11
-176.9761449811531
 21
-200.1500167295213
 31
0.0
 11
-176.9025340054673
 21
-200.0513427072477
 31
0.0
 11
-176.8712619104401
 21
-199.9231757193888
 31
0.0
 11
-176.8856326583027
 21
-199.7790495774796
 31
0.0
 11
-176.944127062669
 21
-199.6341845211323
 31
0.0
  0
SPLINE
  5
A1
330
47
100
AcDbEntity
  8
0
  6
Continuous
 62
     7
100
AcDbSpline
210
0.0
220
0.0
230
1.0
 70
     8
 71
     3
 72
    15
 73
    11
 74
     9
 42
0.000000001
 43
0.0000000001
 44
0.00000001
 40
0.0
 40
0.0
 40
0.0
 40
0.0
 40
0.1075605161160857
 40
0.2212191566792038
 40
0.344459469863265
 40
0.4773441629484088
 40
0.6171468747721925
 40
0.7594447323082432
 40
0.8992538434251336
 40
1.032150054400743
 40
1.032150054400743
 40
1.032150054400743
 40
1.032150054400743
 10
-193.4238421832429
 20
-207.4212646847533
 30
0.0
 10
-193.4483717321868
 20
-207.4479862965232
 30
0.0
 10
-193.4988215175299
 20
-207.5029445053648
 30
0.0
 10
-193.5313347397499
 20
-207.6168269612984
 30
0.0
 10
-193.5303177470864
 20
-207.7411339237803
 30
0.0
 10
-193.4942801561203
 20
-207.8696239557525
 30
0.0
 10
-193.4274336052682
 20
-207.9920416239964
 30
0.0
 10
-193.334502295265
 20
-208.0985973741821
 30
0.0
 10
-193.2236687481288
 20
-208.1844432869838
 30
0.0
 10
-193.1381774337214
 20
-208.2165805593781
 30
0.0
 10
-193.096515347889
 20
-208.2322418596548
 30
0.0
 11
-193.4238421832429
 21
-207.4212646847533
 31
0.0
 11
-193.4904404862647
 21
-207.5057272906635
 31
0.0
 11
-193.5251332572956
 21
-207.6139617564979
 31
0.0
 11
-193.5251098547923
 21
-207.737202070458
 31
0.0
 11
-193.4903729130427
 21
-207.8654661999239
 31
0.0
 11
-193.4237352334109
 21
-207.9883654190592
 31
0.0
 11
-193.3305947401516
 21
-208.0959457553724
 31
0.0
 11
-193.2184948412674
 21
-208.1794933467467
 31
0.0
 11
-193.096515347889
 21
-208.2322418596548
 31
0.0
  0
SPLINE
  5
A2
330
47
100
AcDbEntity
  8
0
  6
Continuous
 62
     7
100
AcDbSpline
210
0.0
220
0.0
230
1.0
 70
     8
 71
     3
 72
    11
 73
     7
 74
     5
 42
0.000000001
 43
0.0000000001
 44
0.00000001
 40
0.0
 40
0.0
 40
0.0
 40
0.0
 40
0.0935705952108541
 40
0.1815181363975091
 40
0.264769094469575
 40
0.3453217744505566
 40
0.3453217744505566
 40
0.3453217744505566
 40
0.3453217744505566
 10
-193.096515347889
 20
-207.3662164558703
 30
0.0
 10
-193.1270456551453
 20
-207.3591760555538
 30
0.0
 10
-193.1862715762928
 20
-207.3455183568337
 30
0.0
 10
-193.2753038518994
 20
-207.3499918459082
 30
0.0
 10
-193.357541087416
 20
-207.3729564603715
 30
0.0
 10
-193.40198586142
 20
-207.4053397519405
 30
0.0
 10
-193.4238421832429
 20
-207.4212646847533
 30
0.0
 11
-193.096515347889
 21
-207.3662164558703
 31
0.0
 11
-193.188587789031
 21
-207.3495394675896
 31
0.0
 11
-193.2764492756822
 21
-207.3534291417848
 31
0.0
 11
-193.3560813859971
 21
-207.3777077228818
 31
0.0
 11
-193.4238421832429
 21
-207.4212646847533
 31
0.0
  0
SPLINE
  5
A3
330
47
100
AcDbEntity
  8
0
  6
Continuous
 62
     7
100
AcDbSpline
210
0.0
220
0.0
230
1.0
 70
     8
 71
     3
 72
    11
 73
     7
 74
     5
 42
0.000000001
 43
0.0000000001
 44
0.00000001
 40
0.0
 40
0.0
 40
0.0
 40
0.0
 40
0.0935705952109785
 40
0.1815181363976916
 40
0.2647690944697492
 40
0.3453217744507427
 40
0.3453217744507427
 40
0.3453217744507427
 40
0.3453217744507427
 10
-188.203471816507
 20
-209.6447418596547
 30
0.0
 10
-188.1729415092506
 20
-209.6517822599713
 30
0.0
 10
-188.1137155881031
 20
-209.6654399586916
 30
0.0
 10
-188.0246833124965
 20
-209.660966469617
 30
0.0
 10
-187.9424460769798
 20
-209.6380018551538
 30
0.0
 10
-187.898001302976
 20
-209.6056185635846
 30
0.0
 10
-187.8761449811531
 20
-209.5896936307717
 30
0.0
 11
-188.203471816507
 21
-209.6447418596547
 31
0.0
 11
-188.1113993753649
 21
-209.6614188479356
 31
0.0
 11
-188.0235378887136
 21
-209.6575291737404
 31
0.0
 11
-187.9439057783987
 21
-209.6332505926434
 31
0.0
 11
-187.8761449811531
 21
-209.5896936307717
 31
0.0
  0
SPLINE
  5
A4
330
47
100
AcDbEntity
  8
0
  6
Continuous
 62
     7
100
AcDbSpline
210
0.0
220
0.0
230
1.0
 70
     8
 71
     3
 72
    15
 73
    11
 74
     9
 42
0.000000001
 43
0.0000000001
 44
0.00000001
 40
0.0
 40
0.0
 40
0.0
 40
0.0
 40
0.1075605161160398
 40
0.2212191566792294
 40
0.3444594698634043
 40
0.4773441629485754
 40
0.6171468747723706
 40
0.7594447323085043
 40
0.8992538434254461
 40
1.032150054401134
 40
1.032150054401134
 40
1.032150054401134
 40
1.032150054401134
 10
-187.8761449811531
 20
-209.5896936307717
 30
0.0
 10
-187.8516154322092
 20
-209.562972019002
 30
0.0
 10
-187.8011656468659
 20
-209.5080138101603
 30
0.0
 10
-187.7686524246458
 20
-209.3941313542266
 30
0.0
 10
-187.7696694173096
 20
-209.2698243917448
 30
0.0
 10
-187.8057070082754
 20
-209.1413343597725
 30
0.0
 10
-187.8725535591277
 20
-209.0189166915285
 30
0.0
 10
-187.9654848691308
 20
-208.9123609413428
 30
0.0
 10
-188.0763184162672
 20
-208.8265150285411
 30
0.0
 10
-188.1618097306747
 20
-208.7943777561469
 30
0.0
 10
-188.203471816507
 20
-208.7787164558701
 30
0.0
 11
-187.8761449811531
 21
-209.5896936307717
 31
0.0
 11
-187.8095466781312
 21
-209.5052310248617
 31
0.0
 11
-187.7748539071002
 21
-209.3969965590273
 31
0.0
 11
-187.7748773096035
 21
-209.2737562450671
 31
0.0
 11
-187.8096142513531
 21
-209.1454921156011
 31
0.0
 11
-187.8762519309849
 21
-209.0225928964657
 31
0.0
 11
-187.9693924242442
 21
-208.9150125601524
 31
0.0
 11
-188.0814923231286
 21
-208.8314649687782
 31
0.0
 11
-188.203471816507
 21
-208.7787164558701
 31
0.0
  0
ENDBLK
  5
49
330
47
100
AcDbEntity
  8
0
100
AcDbBlockEnd
  0
BLOCK
  5
4C
330
4A
100
AcDbEntity
  8
0
100
AcDbBlockBegin
  2
Allg1
 70
     0
 10
-185.199998422189
 20
-202.400000455478
 30
0.0
  3
Allg1
  1

  0
INSERT
  5
4B
330
4A
100
AcDbEntity
  8
0
100
AcDbBlockReference
  2
ZB_22-PROFIL-SELECT__1
 10
-195.1966269520662
 20
-209.667027158539
 30
0.0
  0
MTEXT
  5
A6
330
4A
100
AcDbEntity
  8
1
 62
     6
100
AcDbMText
 10
-185.199998422189
 20
-211.2509905184205
 30
0.0
 40
1.0
 41
0.0
 71
     2
 72
     1
  1
 
  7
CONVERTER_11
 73
     1
 44
1.32052821128451
  0
ENDBLK
  5
4D
330
4A
100
AcDbEntity
  8
0
100
AcDbBlockEnd
  0
BLOCK
  5
4F
330
4E
100
AcDbEntity
  8
0
100
AcDbBlockBegin
  2
ZB_22-PROFIL-SELECT__2
 70
     0
 10
-216.0499925342945
 20
-215.5000000953774
 30
0.0
  3
ZB_22-PROFIL-SELECT__2
  1

  0
LINE
  5
A7
330
4E
100
AcDbEntity
  8
0
  6
Continuous
 62
     7
100
AcDbLine
 10
-205.5499925342945
 20
-215.5000000953774
 30
0.0
 11
-205.5499925342945
 21
-193.7000000953774
 31
0.0
  0
LINE
  5
A8
330
4E
100
AcDbEntity
  8
0
  6
Continuous
 62
     7
100
AcDbLine
 10
-205.5499925342945
 20
-215.5000000953774
 30
0.0
 11
-216.0499925342945
 21
-215.5000000953774
 31
0.0
  0
LINE
  5
A9
330
4E
100
AcDbEntity
  8
0
  6
Continuous
 62
     7
100
AcDbLine
 10
-205.5499925342945
 20
-193.7000000953774
 30
0.0
 11
-216.0499925342945
 21
-193.7000000953774
 31
0.0
  0
LINE
  5
AA
330
4E
100
AcDbEntity
  8
0
  6
Continuous
 62
     7
100
AcDbLine
 10
-216.0499925342945
 20
-193.7000000953774
 30
0.0
 11
-216.0499925342945
 21
-215.5000000953774
 31
0.0
  0
ENDBLK
  5
50
330
4E
100
AcDbEntity
  8
0
100
AcDbBlockEnd
  0
BLOCK
  5
53
330
51
100
AcDbEntity
  8
0
100
AcDbBlockBegin
  2
Drfsicht1
 70
     0
 10
-210.799998178098
 20
-204.600000000005
 30
0.0
  3
Drfsicht1
  1

  0
INSERT
  5
52
330
51
100
AcDbEntity
  8
0
100
AcDbBlockReference
  2
ZB_22-PROFIL-SELECT__2
 10
-216.0499925342945
 20
-215.5000000953774
 30
0.0
  0
MTEXT
  5
AB
330
51
100
AcDbEntity
  8
1
 62
     6
100
AcDbMText
 10
-210.799998178098
 20
-216.5000000953724
 30
0.0
 40
1.0
 41
0.0
 71
     2
 72
     1
  1
 
  7
CONVERTER_11
 73
     1
 44
1.32052821128451
  0
DIMENSION
  5
B6
330
51
100
AcDbEntity
  8
1
100
AcDbDimension
  2
*D17
 10
-218.730454168394
 20
-193.7000000953775
 30
0.0
 11
-219.415454168394
 21
-204.3469222820361
 31
0.0
 70
    32
  1
<>
 71
     5
 42
-1.0
 53
90.0
  3
ME10_DIM_10
100
AcDbAlignedDimension
 13
-216.0499925342945
 23
-215.5000000953774
 33
0.0
 14
-216.0499925342945
 24
-193.7000000953774
 34
0.0
 50
90.0
100
AcDbRotatedDimension
  0
ENDBLK
  5
54
330
51
100
AcDbEntity
  8
0
100
AcDbBlockEnd
  0
BLOCK
  5
56
330
55
100
AcDbEntity
  8
0
100
AcDbBlockBegin
  2
ZB_22-PROFIL-SELECT__3
 70
     0
 10
-216.0499925342945
 20
-181.0999992981905
 30
0.0
  3
ZB_22-PROFIL-SELECT__3
  1

  0
LINE
  5
B7
330
55
100
AcDbEntity
  8
0
  6
Continuous
 62
     7
100
AcDbLine
 10
-212.8452966299791
 20
-181.0999992981905
 30
0.0
 11
-212.0146541334391
 21
-177.9999992981903
 31
0.0
  0
LINE
  5
B8
330
55
100
AcDbEntity
  8
0
  6
Continuous
 62
     7
100
AcDbLine
 10
-213.6249925342945
 20
-181.0999992981905
 30
0.0
 11
-212.8452966299791
 21
-181.0999992981905
 31
0.0
  0
LINE
  5
B9
330
55
100
AcDbEntity
  8
0
  6
Continuous
 62
     7
100
AcDbLine
 10
-208.2979443047531
 20
-180.0999992981905
 30
0.0
 11
-207.9749925342947
 21
-180.0999992981905
 31
0.0
  0
LINE
  5
BA
330
55
100
AcDbEntity
  8
0
  6
Continuous
 62
     7
100
AcDbLine
 10
-208.7546884386102
 20
-181.0999992981905
 30
0.0
 11
-207.9749925342947
 21
-181.0999992981905
 31
0.0
  0
LINE
  5
BB
330
55
100
AcDbEntity
  8
0
  6
Continuous
 62
     7
100
AcDbLine
 10
-205.5499925342945
 20
-176.8999992981903
 30
0.0
 11
-216.0499925342945
 21
-176.8999992981903
 31
0.0
  0
LINE
  5
BC
330
55
100
AcDbEntity
  8
0
  6
Continuous
 62
     7
100
AcDbLine
 10
-205.5499925342945
 20
-177.9999992981903
 30
0.0
 11
-205.5499925342945
 21
-176.8999992981903
 31
0.0
  0
LINE
  5
BD
330
55
100
AcDbEntity
  8
0
  6
Continuous
 62
     7
100
AcDbLine
 10
-208.8606376088644
 20
-177.9999992981903
 30
0.0
 11
-205.5499925342945
 21
-177.9999992981903
 31
0.0
  0
LINE
  5
BE
330
55
100
AcDbEntity
  8
0
  6
Continuous
 62
     7
100
AcDbLine
 10
-208.8606376088644
 20
-177.9999992981903
 30
0.0
 11
-208.2979443047531
 21
-180.0999992981905
 31
0.0
  0
LINE
  5
BF
330
55
100
AcDbEntity
  8
0
  6
Continuous
 62
     7
100
AcDbLine
 10
-216.0499925342945
 20
-176.8999992981903
 30
0.0
 11
-216.0499925342945
 21
-177.9999992981903
 31
0.0
  0
LINE
  5
C0
330
55
100
AcDbEntity
  8
0
  6
Continuous
 62
     7
100
AcDbLine
 10
-213.6249925342945
 20
-180.0999992981905
 30
0.0
 11
-213.3020407638369
 21
-180.0999992981905
 31
0.0
  0
LINE
  5
C1
330
55
100
AcDbEntity
  8
0
  6
Continuous
 62
     7
100
AcDbLine
 10
-216.0499925342945
 20
-177.9999992981903
 30
0.0
 11
-212.7393474597262
 21
-177.9999992981903
 31
0.0
  0
LINE
  5
C2
330
55
100
AcDbEntity
  8
0
  6
Continuous
 62
     7
100
AcDbLine
 10
-212.7393474597262
 20
-177.9999992981903
 30
0.0
 11
-213.3020407638369
 21
-180.0999992981905
 31
0.0
  0
LINE
  5
C3
330
55
100
AcDbEntity
  8
0
  6
Continuous
 62
     7
100
AcDbLine
 10
-212.0146541334391
 20
-177.9999992981903
 30
0.0
 11
-209.5853309351517
 21
-177.9999992981903
 31
0.0
  0
LINE
  5
C4
330
55
100
AcDbEntity
  8
0
  6
Continuous
 62
     7
100
AcDbLine
 10
-209.5853309351517
 20
-177.9999992981903
 30
0.0
 11
-208.7546884386102
 21
-181.0999992981905
 31
0.0
  0
ARC
  5
C5
330
55
100
AcDbEntity
  8
0
  6
Continuous
 62
     7
100
AcDbCircle
 10
-213.6249925342945
 20
-180.5999992981905
 30
0.0
 40
0.5
100
AcDbArc
 50
90.0
 51
270.0
  0
ARC
  5
C6
330
55
100
AcDbEntity
  8
0
  6
Continuous
 62
     7
100
AcDbCircle
 10
-207.9749925342947
 20
-180.5999992981905
 30
0.0
 40
0.5
100
AcDbArc
 50
270.0
 51
90.0
  0
ENDBLK
  5
57
330
55
100
AcDbEntity
  8
0
100
AcDbBlockEnd
  0
BLOCK
  5
5A
330
58
100
AcDbEntity
  8
0
100
AcDbBlockBegin
  2
Vordans1
 70
     0
 10
-210.7999981780981
 20
-179.0000014305114
 30
0.0
  3
Vordans1
  1

  0
INSERT
  5
59
330
58
100
AcDbEntity
  8
0
100
AcDbBlockReference
  2
ZB_22-PROFIL-SELECT__3
 10
-216.0499925342945
 20
-181.0999992981905
 30
0.0
  0
MTEXT
  5
C7
330
58
100
AcDbEntity
  8
1
 62
     6
100
AcDbMText
 10
-210.799998178098
 20
-182.0999999046325
 30
0.0
 40
1.0
 41
0.0
 71
     2
 72
     1
  1
 
  7
CONVERTER_11
 73
     1
 44
1.32052821128451
  0
DIMENSION
  5
D2
330
58
100
AcDbEntity
  8
1
100
AcDbDimension
  2
*D18
 10
-216.0499925342945
 20
-184.0501715278688
 30
0.0
 11
-209.989965277986
 21
-183.3651715278688
 31
0.0
 70
    33
  1
<>
 71
     5
 42
-1.0
 53
0.00013888888889
  3
ME10_DIM_11
100
AcDbAlignedDimension
 13
-205.5499925342945
 23
-177.9999992981903
 33
0.0
 14
-216.0499925342945
 24
-177.9999992981903
 34
0.0
  0
DIMENSION
  5
DD
330
58
100
AcDbEntity
  8
1
100
AcDbDimension
  2
*D19
 10
-218.0499925342945
 20
-176.8999992981903
 30
0.0
 11
-218.7349925342945
 21
-179.5452798309881
 31
0.0
 70
    32
  1
<>
 71
     5
 42
-1.0
 53
90.0
  3
ME10_DIM_12
100
AcDbAlignedDimension
 13
-212.8452966299791
 23
-181.0999992981905
 33
0.0
 14
-216.0499925342945
 24
-176.8999992981903
 34
0.0
 50
90.0
100
AcDbRotatedDimension
  0
ENDBLK
  5
5B
330
58
100
AcDbEntity
  8
0
100
AcDbBlockEnd
  0
BLOCK
  5
5D
330
5C
100
AcDbEntity
  8
0
100
AcDbBlockBegin
  2
ZB_22-PROFIL-SELECT__4
 70
     0
 10
-241.8499963688431
 20
-181.0999992981905
 30
0.0
  3
ZB_22-PROFIL-SELECT__4
  1

  0
LINE
  5
DE
330
5C
100
AcDbEntity
  8
0
  6
Continuous
 62
     7
100
AcDbLine
 10
-220.0499963688431
 20
-180.0999992981905
 30
0.0
 11
-241.8499963688431
 21
-180.0999992981905
 31
0.0
  0
LINE
  5
DF
330
5C
100
AcDbEntity
  8
0
  6
Continuous
 62
     7
100
AcDbLine
 10
-220.0499963688431
 20
-181.0999992981905
 30
0.0
 11
-241.8499963688431
 21
-181.0999992981905
 31
0.0
  0
LINE
  5
E0
330
5C
100
AcDbEntity
  8
0
  6
Continuous
 62
     7
100
AcDbLine
 10
-241.8499963688431
 20
-181.0999992981905
 30
0.0
 11
-241.8499963688431
 21
-180.0999992981905
 31
0.0
  0
LINE
  5
E1
330
5C
100
AcDbEntity
  8
0
  6
Continuous
 62
     7
100
AcDbLine
 10
-220.0499963688431
 20
-181.0999992981905
 30
0.0
 11
-220.0499963688431
 21
-180.0999992981905
 31
0.0
  0
LINE
  5
E2
330
5C
100
AcDbEntity
  8
0
  6
Continuous
 62
     7
100
AcDbLine
 10
-220.0499963688431
 20
-177.9999992981903
 30
0.0
 11
-241.8499963688431
 21
-177.9999992981903
 31
0.0
  0
LINE
  5
E3
330
5C
100
AcDbEntity
  8
0
  6
Continuous
 62
     7
100
AcDbLine
 10
-241.8499963688431
 20
-177.9999992981903
 30
0.0
 11
-241.8499963688431
 21
-176.8999992981903
 31
0.0
  0
LINE
  5
E4
330
5C
100
AcDbEntity
  8
0
  6
Continuous
 62
     7
100
AcDbLine
 10
-220.0499963688431
 20
-177.9999992981903
 30
0.0
 11
-220.0499963688431
 21
-180.0999992981905
 31
0.0
  0
LINE
  5
E5
330
5C
100
AcDbEntity
  8
0
  6
Continuous
 62
     7
100
AcDbLine
 10
-220.0499963688431
 20
-177.9999992981903
 30
0.0
 11
-220.0499963688431
 21
-176.8999992981903
 31
0.0
  0
LINE
  5
E6
330
5C
100
AcDbEntity
  8
0
  6
Continuous
 62
     7
100
AcDbLine
 10
-241.8499963688431
 20
-177.9999992981903
 30
0.0
 11
-241.8499963688431
 21
-180.0999992981905
 31
0.0
  0
LINE
  5
E7
330
5C
100
AcDbEntity
  8
0
  6
Continuous
 62
     7
100
AcDbLine
 10
-241.8499963688431
 20
-176.8999992981903
 30
0.0
 11
-220.0499963688431
 21
-176.8999992981903
 31
0.0
  0
ENDBLK
  5
5E
330
5C
100
AcDbEntity
  8
0
100
AcDbBlockEnd
  0
BLOCK
  5
61
330
5F
100
AcDbEntity
  8
0
100
AcDbBlockBegin
  2
SA_Rechts1
 70
     0
 10
-230.9499962734707
 20
-179.0000014305114
 30
0.0
  3
SA_Rechts1
  1

  0
INSERT
  5
60
330
5F
100
AcDbEntity
  8
0
100
AcDbBlockReference
  2
ZB_22-PROFIL-SELECT__4
 10
-241.8499963688431
 20
-181.0999992981905
 30
0.0
  0
MTEXT
  5
E8
330
5F
100
AcDbEntity
  8
1
 62
     6
100
AcDbMText
 10
-230.9499962734707
 20
-182.0999999046325
 30
0.0
 40
1.0
 41
0.0
 71
     2
 72
     1
  1
 
  7
CONVERTER_11
 73
     1
 44
1.32052821128451
  0
ENDBLK
  5
62
330
5F
100
AcDbEntity
  8
0
100
AcDbBlockEnd
  0
BLOCK
  5
64
330
63
100
AcDbEntity
  8
0
100
AcDbBlockBegin
  2
ZB_22-PROFIL-SELECT__5
 70
     0
 10
-176.7500069187743
 20
-181.0999992981905
 30
0.0
  3
ZB_22-PROFIL-SELECT__5
  1

  0
LINE
  5
E9
330
63
100
AcDbEntity
  8
0
  6
Continuous
 62
     7
100
AcDbLine
 10
-166.2500069187743
 20
-177.9999992981903
 30
0.0
 11
-169.5606519933427
 21
-177.9999992981903
 31
0.0
  0
LINE
  5
EA
330
63
100
AcDbEntity
  8
0
  6
Continuous
 62
     7
100
AcDbLine
 10
-170.2853453196297
 20
-177.9999992981903
 30
0.0
 11
-172.7146685179172
 21
-177.9999992981903
 31
0.0
  0
LINE
  5
EB
330
63
100
AcDbEntity
  8
0
  6
Continuous
 62
     7
100
AcDbLine
 10
-173.4393618442044
 20
-177.9999992981903
 30
0.0
 11
-176.7500069187743
 21
-177.9999992981903
 31
0.0
  0
LINE
  5
EC
330
63
100
AcDbEntity
  8
0
  6
Continuous
 62
     7
100
AcDbLine
 10
-176.7500069187743
 20
-177.9999992981903
 30
0.0
 11
-176.7500069187743
 21
-176.8999992981903
 31
0.0
  0
LINE
  5
ED
330
63
100
AcDbEntity
  8
0
  6
Continuous
 62
     7
100
AcDbLine
 10
-176.7500069187743
 20
-176.8999992981903
 30
0.0
 11
-166.2500069187743
 21
-176.8999992981903
 31
0.0
  0
LINE
  5
EE
330
63
100
AcDbEntity
  8
0
  6
Continuous
 62
     7
100
AcDbLine
 10
-166.2500069187743
 20
-176.8999992981903
 30
0.0
 11
-166.2500069187743
 21
-177.9999992981903
 31
0.0
  0
LINE
  5
EF
330
63
100
AcDbEntity
  8
0
  6
Continuous
 62
     7
100
AcDbLine
 10
-169.5606519933427
 20
-177.9999992981903
 30
0.0
 11
-168.9979586892319
 21
-180.0999992981905
 31
0.0
  0
LINE
  5
F0
330
63
100
AcDbEntity
  8
0
  6
Continuous
 62
     7
100
AcDbLine
 10
-169.4547028230898
 20
-181.0999992981905
 30
0.0
 11
-170.2853453196297
 21
-177.9999992981903
 31
0.0
  0
LINE
  5
F1
330
63
100
AcDbEntity
  8
0
  6
Continuous
 62
     7
100
AcDbLine
 10
-173.5453110144587
 20
-181.0999992981905
 30
0.0
 11
-174.3250069187741
 21
-181.0999992981905
 31
0.0
  0
LINE
  5
F2
330
63
100
AcDbEntity
  8
0
  6
Continuous
 62
     7
100
AcDbLine
 10
-173.4393618442044
 20
-177.9999992981903
 30
0.0
 11
-174.0020551483158
 21
-180.0999992981905
 31
0.0
  0
LINE
  5
F3
330
63
100
AcDbEntity
  8
0
  6
Continuous
 62
     7
100
AcDbLine
 10
-168.6750069187743
 20
-180.0999992981905
 30
0.0
 11
-168.9979586892319
 21
-180.0999992981905
 31
0.0
  0
LINE
  5
F4
330
63
100
AcDbEntity
  8
0
  6
Continuous
 62
     7
100
AcDbLine
 10
-174.0020551483158
 20
-180.0999992981905
 30
0.0
 11
-174.3250069187741
 21
-180.0999992981905
 31
0.0
  0
LINE
  5
F5
330
63
100
AcDbEntity
  8
0
  6
Continuous
 62
     7
100
AcDbLine
 10
-168.6750069187743
 20
-181.0999992981905
 30
0.0
 11
-169.4547028230898
 21
-181.0999992981905
 31
0.0
  0
LINE
  5
F6
330
63
100
AcDbEntity
  8
0
  6
Continuous
 62
     7
100
AcDbLine
 10
-172.7146685179172
 20
-177.9999992981903
 30
0.0
 11
-173.5453110144587
 21
-181.0999992981905
 31
0.0
  0
ARC
  5
F7
330
63
100
AcDbEntity
  8
0
  6
Continuous
 62
     7
100
AcDbCircle
 10
-174.3250069187741
 20
-180.5999992981905
 30
0.0
 40
0.5
100
AcDbArc
 50
90.0
 51
270.0
  0
ARC
  5
F8
330
63
100
AcDbEntity
  8
0
  6
Continuous
 62
     7
100
AcDbCircle
 10
-168.6750069187743
 20
-180.5999992981905
 30
0.0
 40
0.5
100
AcDbArc
 50
270.0
 51
90.0
  0
ENDBLK
  5
65
330
63
100
AcDbEntity
  8
0
100
AcDbBlockEnd
  0
BLOCK
  5
68
330
66
100
AcDbEntity
  8
0
100
AcDbBlockBegin
  2
Rckans1
 70
     0
 10
-171.5000012749707
 20
-179.0000014305114
 30
0.0
  3
Rckans1
  1

  0
INSERT
  5
67
330
66
100
AcDbEntity
  8
0
100
AcDbBlockReference
  2
ZB_22-PROFIL-SELECT__5
 10
-176.7500069187743
 20
-181.0999992981905
 30
0.0
  0
MTEXT
  5
F9
330
66
100
AcDbEntity
  8
1
 62
     6
100
AcDbMText
 10
-171.5000012749707
 20
-182.0999999046325
 30
0.0
 40
1.0
 41
0.0
 71
     2
 72
     1
  1
 
  7
CONVERTER_11
 73
     1
 44
1.32052821128451
  0
ENDBLK
  5
69
330
66
100
AcDbEntity
  8
0
100
AcDbBlockEnd
  0
BLOCK
  5
6B
330
6A
100
AcDbEntity
  8
0
100
AcDbBlockBegin
  2
ZB_22-PROFIL-SELECT__6
 70
     0
 10
-201.549999631157
 20
-181.0999992981905
 30
0.0
  3
ZB_22-PROFIL-SELECT__6
  1

  0
LINE
  5
FA
330
6A
100
AcDbEntity
  8
0
  6
Continuous
 62
     7
100
AcDbLine
 10
-201.549999631157
 20
-180.0999992981905
 30
0.0
 11
-179.749999631157
 21
-180.0999992981905
 31
0.0
  0
LINE
  5
FB
330
6A
100
AcDbEntity
  8
0
  6
Continuous
 62
     7
100
AcDbLine
 10
-201.549999631157
 20
-176.8999992981903
 30
0.0
 11
-179.749999631157
 21
-176.8999992981903
 31
0.0
  0
LINE
  5
FC
330
6A
100
AcDbEntity
  8
0
  6
Continuous
 62
     7
100
AcDbLine
 10
-179.749999631157
 20
-176.8999992981903
 30
0.0
 11
-179.749999631157
 21
-177.9999992981903
 31
0.0
  0
LINE
  5
FD
330
6A
100
AcDbEntity
  8
0
  6
Continuous
 62
     7
100
AcDbLine
 10
-179.749999631157
 20
-177.9999992981903
 30
0.0
 11
-201.549999631157
 21
-177.9999992981903
 31
0.0
  0
LINE
  5
FE
330
6A
100
AcDbEntity
  8
0
  6
Continuous
 62
     7
100
AcDbLine
 10
-201.549999631157
 20
-176.8999992981903
 30
0.0
 11
-201.549999631157
 21
-177.9999992981903
 31
0.0
  0
LINE
  5
FF
330
6A
100
AcDbEntity
  8
0
  6
Continuous
 62
     7
100
AcDbLine
 10
-179.749999631157
 20
-180.0999992981905
 30
0.0
 11
-179.749999631157
 21
-181.0999992981905
 31
0.0
  0
LINE
  5
100
330
6A
100
AcDbEntity
  8
0
  6
Continuous
 62
     7
100
AcDbLine
 10
-179.749999631157
 20
-177.9999992981903
 30
0.0
 11
-179.749999631157
 21
-180.0999992981905
 31
0.0
  0
LINE
  5
101
330
6A
100
AcDbEntity
  8
0
  6
Continuous
 62
     7
100
AcDbLine
 10
-201.549999631157
 20
-180.0999992981905
 30
0.0
 11
-201.549999631157
 21
-181.0999992981905
 31
0.0
  0
LINE
  5
102
330
6A
100
AcDbEntity
  8
0
  6
Continuous
 62
     7
100
AcDbLine
 10
-201.549999631157
 20
-177.9999992981903
 30
0.0
 11
-201.549999631157
 21
-180.0999992981905
 31
0.0
  0
LINE
  5
103
330
6A
100
AcDbEntity
  8
0
  6
Continuous
 62
     7
100
AcDbLine
 10
-179.749999631157
 20
-181.0999992981905
 30
0.0
 11
-201.549999631157
 21
-181.0999992981905
 31
0.0
  0
ENDBLK
  5
6C
330
6A
100
AcDbEntity
  8
0
100
AcDbBlockEnd
  0
BLOCK
  5
6F
330
6D
100
AcDbEntity
  8
0
100
AcDbBlockBegin
  2
SA_Links1
 70
     0
 10
-190.6499997265294
 20
-179.0000014305114
 30
0.0
  3
SA_Links1
  1

  0
INSERT
  5
6E
330
6D
100
AcDbEntity
  8
0
100
AcDbBlockReference
  2
ZB_22-PROFIL-SELECT__6
 10
-201.549999631157
 20
-181.0999992981905
 30
0.0
  0
MTEXT
  5
104
330
6D
100
AcDbEntity
  8
1
 62
     6
100
AcDbMText
 10
-190.6499997265294
 20
-182.0999999046325
 30
0.0
 40
1.0
 41
0.0
 71
     2
 72
     1
  1
 
  7
CONVERTER_11
 73
     1
 44
1.32052821128451
  0
ENDBLK
  5
70
330
6D
100
AcDbEntity
  8
0
100
AcDbBlockEnd
  0
BLOCK
  5
72
330
71
100
AcDbEntity
  8
0
100
AcDbBlockBegin
  2
_rahmen
 70
     0
 10
-824.2499832455126
 20
-1152.74998654694
 30
0.0
  3
_rahmen
  1

  0
LINE
  5
105
330
71
100
AcDbEntity
  8
1
  6
DOT_CENTER
 62
     2
100
AcDbLine
 10
-949.8081328857
 20
-1126.624986546941
 30
0.0
 11
-944.3081328857
 21
-1126.624986546941
 31
0.0
  0
LINE
  5
106
330
71
100
AcDbEntity
  8
1
  6
PHANTOM
 62
     2
100
AcDbLine
 10
-941.0581328857
 20
-1123.874986546941
 30
0.0
 11
-941.0581328857
 21
-1129.374986546941
 31
0.0
  0
LINE
  5
107
330
71
100
AcDbEntity
  8
1
  6
PHANTOM
 62
     2
100
AcDbLine
 10
-938.3081328857
 20
-1126.624986546941
 30
0.0
 11
-943.8081328857
 21
-1126.624986546941
 31
0.0
  0
LINE
  5
108
330
71
100
AcDbEntity
  8
1
  6
Continuous
 62
     6
100
AcDbLine
 10
-953.7947877722626
 20
-1122.249986546941
 30
0.0
 11
-824.2499832455109
 21
-1122.249986546941
 31
0.0
  0
LINE
  5
109
330
71
100
AcDbEntity
  8
1
  6
Continuous
 62
     7
100
AcDbLine
 10
-935.5947877722626
 20
-1143.499986546941
 30
0.0
 11
-917.3947877722626
 21
-1143.499986546941
 31
0.0
  0
LINE
  5
10A
330
71
100
AcDbEntity
  8
1
  6
Continuous
 62
     6
100
AcDbLine
 10
-935.5947877722626
 20
-1147.749986546941
 30
0.0
 11
-953.7947877722626
 21
-1147.749986546941
 31
0.0
  0
LINE
  5
10B
330
71
100
AcDbEntity
  8
1
  6
Continuous
 62
     7
100
AcDbLine
 10
-935.5947877722626
 20
-1143.499986546941
 30
0.0
 11
-935.5947877722626
 21
-1147.749986546941
 31
0.0
  0
LINE
  5
10C
330
71
100
AcDbEntity
  8
1
  6
Continuous
 62
     7
100
AcDbLine
 10
-917.3947877722626
 20
-1143.499986546941
 30
0.0
 11
-917.3947877722626
 21
-1147.749986546941
 31
0.0
  0
LINE
  5
10D
330
71
100
AcDbEntity
  8
1
  6
Continuous
 62
     7
100
AcDbLine
 10
-953.7947877722626
 20
-1143.499986546941
 30
0.0
 11
-953.7947877722626
 21
-1147.749986546941
 31
0.0
  0
LINE
  5
10E
330
71
100
AcDbEntity
  8
1
  6
Continuous
 62
     7
100
AcDbLine
 10
-953.7947877722626
 20
-1143.499986546941
 30
0.0
 11
-935.5947877722626
 21
-1143.499986546941
 31
0.0
  0
LINE
  5
10F
330
71
100
AcDbEntity
  8
1
  6
Continuous
 62
     2
100
AcDbLine
 10
-944.5581328857
 20
-1124.124986546941
 30
0.0
 11
-944.5581328857
 21
-1129.124986546941
 31
0.0
  0
LINE
  5
110
330
71
100
AcDbEntity
  8
1
  6
Continuous
 62
     2
100
AcDbLine
 10
-944.5581328857
 20
-1129.124986546941
 30
0.0
 11
-949.5581328857
 21
-1127.874986546941
 31
0.0
  0
LINE
  5
111
330
71
100
AcDbEntity
  8
1
  6
Continuous
 62
     2
100
AcDbLine
 10
-949.5581328857
 20
-1127.874986546941
 30
0.0
 11
-949.5581328857
 21
-1125.374986546941
 31
0.0
  0
LINE
  5
112
330
71
100
AcDbEntity
  8
1
  6
Continuous
 62
     2
100
AcDbLine
 10
-949.5581328857
 20
-1125.374986546941
 30
0.0
 11
-944.5581328857
 21
-1124.124986546941
 31
0.0
  0
LINE
  5
113
330
71
100
AcDbEntity
  8
1
  6
Continuous
 62
     6
100
AcDbLine
 10
-824.2499832455109
 20
-1130.749986546941
 30
0.0
 11
-824.2499832455113
 21
-1139.249986546941
 31
0.0
  0
LINE
  5
114
330
71
100
AcDbEntity
  8
1
  6
Continuous
 62
     6
100
AcDbLine
 10
-917.3947877722626
 20
-1147.749986546941
 30
0.0
 11
-917.7499832455126
 21
-1147.749986546941
 31
0.0
  0
LINE
  5
115
330
71
100
AcDbEntity
  8
1
  6
Continuous
 62
     7
100
AcDbLine
 10
-917.3947877722626
 20
-1130.749986546941
 30
0.0
 11
-917.3947877722626
 21
-1143.499986546941
 31
0.0
  0
LINE
  5
116
330
71
100
AcDbEntity
  8
1
  6
Continuous
 62
     7
100
AcDbLine
 10
-953.7947877722626
 20
-1130.749986546941
 30
0.0
 11
-953.7947877722626
 21
-1143.499986546941
 31
0.0
  0
LINE
  5
117
330
71
100
AcDbEntity
  8
1
  6
Continuous
 62
     6
100
AcDbLine
 10
-917.3947877722626
 20
-1147.749986546941
 30
0.0
 11
-867.7499832455126
 21
-1147.749986546941
 31
0.0
  0
LINE
  5
118
330
71
100
AcDbEntity
  8
1
  6
Continuous
 62
     6
100
AcDbLine
 10
-824.2499832455127
 20
-1147.749986546941
 30
0.0
 11
-824.2499832455113
 21
-1139.249986546941
 31
0.0
  0
LINE
  5
119
330
71
100
AcDbEntity
  8
1
  6
Continuous
 62
     6
100
AcDbLine
 10
-953.7947877722626
 20
-1130.749986546941
 30
0.0
 11
-917.3947877722626
 21
-1130.749986546941
 31
0.0
  0
LINE
  5
11A
330
71
100
AcDbEntity
  8
1
  6
Continuous
 62
     6
100
AcDbLine
 10
-917.7499832455126
 20
-1147.749986546941
 30
0.0
 11
-935.5947877722626
 21
-1147.749986546941
 31
0.0
  0
LINE
  5
11B
330
71
100
AcDbEntity
  8
1
  6
Continuous
 62
     6
100
AcDbLine
 10
-867.7499832455126
 20
-1147.749986546941
 30
0.0
 11
-824.2499832455127
 21
-1147.749986546941
 31
0.0
  0
LINE
  5
11C
102
{ACAD_REACTORS
330
24A
330
24B
102
}
330
71
100
AcDbEntity
  8
0
  6
Continuous
 62
     2
100
AcDbLine
 10
-946.2801618301157
 20
-1135.677471790729
 30
0.0
 11
-946.2801618301157
 21
-1135.071936502222
 31
0.0
  0
LINE
  5
11D
102
{ACAD_REACTORS
330
24A
330
24B
102
}
330
71
100
AcDbEntity
  8
0
  6
Continuous
 62
     2
100
AcDbLine
 10
-946.2801618301157
 20
-1138.47760639736
 30
0.0
 11
-946.2801618301157
 21
-1137.895754990665
 31
0.0
  0
LINE
  5
11E
102
{ACAD_REACTORS
330
24C
330
24D
102
}
330
71
100
AcDbEntity
  8
0
  6
Continuous
 62
     2
100
AcDbLine
 10
-923.6506753946367
 20
-1138.187942329237
 30
0.0
 11
-923.6506753946367
 21
-1140.456486546925
 31
0.0
  0
LINE
  5
11F
102
{ACAD_REACTORS
330
24C
330
24D
102
}
330
71
100
AcDbEntity
  8
0
  6
Continuous
 62
     2
100
AcDbLine
 10
-925.0317291736242
 20
-1137.402677023114
 30
0.0
 11
-921.6467836549955
 21
-1137.402677023113
 31
0.0
  0
LINE
  5
120
102
{ACAD_REACTORS
330
24C
330
24D
102
}
330
71
100
AcDbEntity
  8
0
  6
Continuous
 62
     2
100
AcDbLine
 10
-921.6467836549955
 20
-1138.187942329237
 30
0.0
 11
-921.6467836549955
 21
-1137.402677023113
 31
0.0
  0
LINE
  5
121
102
{ACAD_REACTORS
330
24C
330
24D
102
}
330
71
100
AcDbEntity
  8
0
  6
Continuous
 62
     2
100
AcDbLine
 10
-922.457882692469
 20
-1138.187942329237
 30
0.0
 11
-921.6467836549955
 21
-1138.187942329237
 31
0.0
  0
LINE
  5
122
102
{ACAD_REACTORS
330
24C
330
24D
102
}
330
71
100
AcDbEntity
  8
0
  6
Continuous
 62
     2
100
AcDbLine
 10
-922.457882692469
 20
-1140.456486546925
 30
0.0
 11
-922.457882692469
 21
-1138.187942329237
 31
0.0
  0
LINE
  5
123
102
{ACAD_REACTORS
330
24C
330
24D
102
}
330
71
100
AcDbEntity
  8
0
  6
Continuous
 62
     2
100
AcDbLine
 10
-923.6506753946367
 20
-1140.456486546925
 30
0.0
 11
-922.457882692469
 21
-1140.456486546925
 31
0.0
  0
LINE
  5
124
102
{ACAD_REACTORS
330
242
330
243
102
}
330
71
100
AcDbEntity
  8
0
  6
Continuous
 62
     2
100
AcDbLine
 10
-924.3472663327011
 20
-1134.043486546939
 30
0.0
 11
-925.7499905504503
 21
-1134.043486546939
 31
0.0
  0
LINE
  5
125
102
{ACAD_REACTORS
330
242
330
243
102
}
330
71
100
AcDbEntity
  8
0
  6
Continuous
 62
     2
100
AcDbLine
 10
-924.3472663327011
 20
-1134.043486546939
 30
0.0
 11
-923.7460988108093
 21
-1134.723309868495
 31
0.0
  0
LINE
  5
126
102
{ACAD_REACTORS
330
242
330
243
102
}
330
71
100
AcDbEntity
  8
0
  6
Continuous
 62
     2
100
AcDbLine
 10
-923.7460988108093
 20
-1134.723309868495
 30
0.0
 11
-923.1449312889165
 21
-1134.043486546939
 31
0.0
  0
LINE
  5
127
102
{ACAD_REACTORS
330
242
330
243
102
}
330
71
100
AcDbEntity
  8
0
  6
Continuous
 62
     2
100
AcDbLine
 10
-923.0447367019358
 20
-1135.516437076975
 30
0.0
 11
-921.7422070711692
 21
-1134.043486546939
 31
0.0
  0
LINE
  5
128
102
{ACAD_REACTORS
330
242
330
243
102
}
330
71
100
AcDbEntity
  8
0
  6
Continuous
 62
     2
100
AcDbLine
 10
-923.0447367019358
 20
-1135.516437076975
 30
0.0
 11
-921.6467836549955
 21
-1137.09729607075
 31
0.0
  0
LINE
  5
129
102
{ACAD_REACTORS
330
242
330
243
102
}
330
71
100
AcDbEntity
  8
0
  6
Continuous
 62
     2
100
AcDbLine
 10
-923.0495078727438
 20
-1137.09729607075
 30
0.0
 11
-921.6467836549955
 21
-1137.09729607075
 31
0.0
  0
LINE
  5
12A
102
{ACAD_REACTORS
330
242
330
243
102
}
330
71
100
AcDbEntity
  8
0
  6
Continuous
 62
     2
100
AcDbLine
 10
-923.7460988108093
 20
-1136.309564285456
 30
0.0
 11
-923.0495078727438
 21
-1137.09729607075
 31
0.0
  0
LINE
  5
12B
102
{ACAD_REACTORS
330
240
330
241
102
}
330
71
100
AcDbEntity
  8
0
  6
Continuous
 62
     2
100
AcDbLine
 10
-927.205197647093
 20
-1134.043486546939
 30
0.0
 11
-925.96469323684
 21
-1134.043486546939
 31
0.0
  0
LINE
  5
12C
102
{ACAD_REACTORS
330
240
330
241
102
}
330
71
100
AcDbEntity
  8
0
  6
Continuous
 62
     2
100
AcDbLine
 10
-925.96469323684
 20
-1134.043486546939
 30
0.0
 11
-925.96469323684
 21
-1137.09729607075
 31
0.0
  0
LINE
  5
12D
102
{ACAD_REACTORS
330
240
330
241
102
}
330
71
100
AcDbEntity
  8
0
  6
Continuous
 62
     2
100
AcDbLine
 10
-927.205197647093
 20
-1137.09729607075
 30
0.0
 11
-927.205197647093
 21
-1134.043486546939
 31
0.0
  0
LINE
  5
12E
102
{ACAD_REACTORS
330
23E
330
23F
102
}
330
71
100
AcDbEntity
  8
0
  6
Continuous
 62
     2
100
AcDbLine
 10
-928.6735077296305
 20
-1139.2349627374
 30
0.0
 11
-928.3733424924383
 21
-1138.467147771413
 31
0.0
  0
LINE
  5
12F
102
{ACAD_REACTORS
330
23E
330
23F
102
}
330
71
100
AcDbEntity
  8
0
  6
Continuous
 62
     2
100
AcDbLine
 10
-929.1510433342514
 20
-1140.456486546925
 30
0.0
 11
-928.9395632807757
 21
-1139.915526002707
 31
0.0
  0
LINE
  5
130
102
{ACAD_REACTORS
330
23E
330
23F
102
}
330
71
100
AcDbEntity
  8
0
  6
Continuous
 62
     2
100
AcDbLine
 10
-928.9935946975652
 20
-1137.402677023113
 30
0.0
 11
-930.3915477445044
 21
-1140.456486546925
 31
0.0
  0
LINE
  5
131
102
{ACAD_REACTORS
330
23E
330
23F
102
}
330
71
100
AcDbEntity
  8
0
  6
Continuous
 62
     2
100
AcDbLine
 10
-926.3551372403721
 20
-1140.456486546925
 30
0.0
 11
-927.5956416506259
 21
-1140.456486546925
 31
0.0
  0
LINE
  5
132
102
{ACAD_REACTORS
330
23E
330
23F
102
}
330
71
100
AcDbEntity
  8
0
  6
Continuous
 62
     2
100
AcDbLine
 10
-928.9395632807757
 20
-1139.915526002707
 30
0.0
 11
-927.8071217041017
 21
-1139.915526002707
 31
0.0
  0
LINE
  5
133
102
{ACAD_REACTORS
330
23C
330
23D
102
}
330
71
100
AcDbEntity
  8
0
  6
Continuous
 62
     2
100
AcDbLine
 10
-932.5490598836866
 20
-1138.187942329237
 30
0.0
 11
-931.737960846212
 21
-1138.187942329237
 31
0.0
  0
LINE
  5
134
102
{ACAD_REACTORS
330
23C
330
23D
102
}
330
71
100
AcDbEntity
  8
0
  6
Continuous
 62
     2
100
AcDbLine
 10
-929.7340691065729
 20
-1137.402677023113
 30
0.0
 11
-932.5490598836866
 21
-1137.402677023113
 31
0.0
  0
LINE
  5
135
102
{ACAD_REACTORS
330
23C
330
23D
102
}
330
71
100
AcDbEntity
  8
0
  6
Continuous
 62
     2
100
AcDbLine
 10
-929.7340691065729
 20
-1138.187942329237
 30
0.0
 11
-929.7340691065729
 21
-1137.402677023113
 31
0.0
  0
LINE
  5
136
102
{ACAD_REACTORS
330
23C
330
23D
102
}
330
71
100
AcDbEntity
  8
0
  6
Continuous
 62
     2
100
AcDbLine
 10
-930.5451681440455
 20
-1138.187942329237
 30
0.0
 11
-929.7340691065729
 21
-1138.187942329237
 31
0.0
  0
LINE
  5
137
102
{ACAD_REACTORS
330
23C
330
23D
102
}
330
71
100
AcDbEntity
  8
0
  6
Continuous
 62
     2
100
AcDbLine
 10
-930.5451681440455
 20
-1140.456486546925
 30
0.0
 11
-930.5451681440455
 21
-1138.187942329237
 31
0.0
  0
LINE
  5
138
102
{ACAD_REACTORS
330
23A
330
23B
102
}
330
71
100
AcDbEntity
  8
0
  6
Continuous
 62
     2
100
AcDbLine
 10
-929.8770532999475
 20
-1137.09729607075
 30
0.0
 11
-929.8770532999475
 21
-1135.788520560545
 31
0.0
  0
LINE
  5
139
102
{ACAD_REACTORS
330
23A
330
23B
102
}
330
71
100
AcDbEntity
  8
0
  6
Continuous
 62
     2
100
AcDbLine
 10
-931.069846002114
 20
-1134.043486546939
 30
0.0
 11
-931.069846002114
 21
-1137.09729607075
 31
0.0
  0
LINE
  5
13A
102
{ACAD_REACTORS
330
23A
330
23B
102
}
330
71
100
AcDbEntity
  8
0
  6
Continuous
 62
     2
100
AcDbLine
 10
-929.8770532999475
 20
-1134.043486546939
 30
0.0
 11
-931.069846002114
 21
-1134.043486546939
 31
0.0
  0
LINE
  5
13B
102
{ACAD_REACTORS
330
23A
330
23B
102
}
330
71
100
AcDbEntity
  8
0
  6
Continuous
 62
     2
100
AcDbLine
 10
-928.6365488896935
 20
-1134.043486546939
 30
0.0
 11
-928.6365488896935
 21
-1135.352262057144
 31
0.0
  0
LINE
  5
13C
102
{ACAD_REACTORS
330
238
330
239
102
}
330
71
100
AcDbEntity
  8
0
  6
Continuous
 62
     2
100
AcDbLine
 10
-936.3182848225337
 20
-1137.402677023113
 30
0.0
 11
-936.3182848225337
 21
-1140.456486546925
 31
0.0
  0
LINE
  5
13D
102
{ACAD_REACTORS
330
238
330
239
102
}
330
71
100
AcDbEntity
  8
0
  6
Continuous
 62
     2
100
AcDbLine
 10
-935.1254921203661
 20
-1137.402677023113
 30
0.0
 11
-936.3182848225337
 21
-1137.402677023113
 31
0.0
  0
LINE
  5
13E
102
{ACAD_REACTORS
330
238
330
239
102
}
330
71
100
AcDbEntity
  8
0
  6
Continuous
 62
     2
100
AcDbLine
 10
-933.8849877101131
 20
-1140.456486546925
 30
0.0
 11
-932.6921950079468
 21
-1140.456486546925
 31
0.0
  0
LINE
  5
13F
102
{ACAD_REACTORS
330
238
330
239
102
}
330
71
100
AcDbEntity
  8
0
  6
Continuous
 62
     2
100
AcDbLine
 10
-936.3182848225337
 20
-1140.456486546925
 30
0.0
 11
-935.1254921203661
 21
-1140.456486546925
 31
0.0
  0
LINE
  5
140
102
{ACAD_REACTORS
330
248
330
249
102
}
330
71
100
AcDbEntity
  8
0
  6
Continuous
 62
     2
100
AcDbLine
 10
-932.6443323689746
 20
-1135.221384506124
 30
0.0
 11
-932.6443323689746
 21
-1134.741500152382
 31
0.0
  0
LINE
  5
141
102
{ACAD_REACTORS
330
248
330
249
102
}
330
71
100
AcDbEntity
  8
0
  6
Continuous
 62
     2
100
AcDbLine
 10
-931.3084045425469
 20
-1135.221384506124
 30
0.0
 11
-932.6443323689746
 21
-1135.221384506124
 31
0.0
  0
LINE
  5
142
102
{ACAD_REACTORS
330
248
330
249
102
}
330
71
100
AcDbEntity
  8
0
  6
Continuous
 62
     2
100
AcDbLine
 10
-931.3084045425469
 20
-1135.919398111566
 30
0.0
 11
-931.3084045425469
 21
-1135.221384506124
 31
0.0
  0
LINE
  5
143
102
{ACAD_REACTORS
330
248
330
249
102
}
330
71
100
AcDbEntity
  8
0
  6
Continuous
 62
     2
100
AcDbLine
 10
-932.6443323689746
 20
-1135.919398111566
 30
0.0
 11
-931.3084045425469
 21
-1135.919398111566
 31
0.0
  0
LINE
  5
144
102
{ACAD_REACTORS
330
236
330
237
102
}
330
71
100
AcDbEntity
  8
0
  6
Continuous
 62
     2
100
AcDbLine
 10
-936.1272870593015
 20
-1134.043486546939
 30
0.0
 11
-936.1272870593015
 21
-1137.09729607075
 31
0.0
  0
LINE
  5
145
102
{ACAD_REACTORS
330
236
330
237
102
}
330
71
100
AcDbEntity
  8
0
  6
Continuous
 62
     2
100
AcDbLine
 10
-936.1272870593015
 20
-1137.09729607075
 30
0.0
 11
-937.3200797614679
 21
-1137.09729607075
 31
0.0
  0
LINE
  5
146
102
{ACAD_REACTORS
330
236
330
237
102
}
330
71
100
AcDbEntity
  8
0
  6
Continuous
 62
     2
100
AcDbLine
 10
-937.3200797614679
 20
-1137.09729607075
 30
0.0
 11
-937.3200797614679
 21
-1135.963023961906
 31
0.0
  0
LINE
  5
147
102
{ACAD_REACTORS
330
236
330
237
102
}
330
71
100
AcDbEntity
  8
0
  6
Continuous
 62
     2
100
AcDbLine
 10
-938.3697373393753
 20
-1137.09729607075
 30
0.0
 11
-939.5625300415419
 21
-1137.09729607075
 31
0.0
  0
LINE
  5
148
102
{ACAD_REACTORS
330
236
330
237
102
}
330
71
100
AcDbEntity
  8
0
  6
Continuous
 62
     2
100
AcDbLine
 10
-939.5625300415419
 20
-1134.043486546939
 30
0.0
 11
-938.3697373393753
 21
-1134.043486546939
 31
0.0
  0
LINE
  5
149
102
{ACAD_REACTORS
330
236
330
237
102
}
330
71
100
AcDbEntity
  8
0
  6
Continuous
 62
     2
100
AcDbLine
 10
-938.3697373393753
 20
-1134.043486546939
 30
0.0
 11
-938.3697373393753
 21
-1135.112319880274
 31
0.0
  0
LINE
  5
14A
102
{ACAD_REACTORS
330
236
330
237
102
}
330
71
100
AcDbEntity
  8
0
  6
Continuous
 62
     2
100
AcDbLine
 10
-938.3697373393753
 20
-1135.112319880274
 30
0.0
 11
-937.3200797614679
 21
-1135.112319880274
 31
0.0
  0
LINE
  5
14B
102
{ACAD_REACTORS
330
244
330
245
102
}
330
71
100
AcDbEntity
  8
0
  6
Continuous
 62
     2
100
AcDbLine
 10
-941.5187100730957
 20
-1134.706592392379
 30
0.0
 11
-941.2014150115536
 21
-1134.706592392379
 31
0.0
  0
LINE
  5
14C
102
{ACAD_REACTORS
330
244
330
245
102
}
330
71
100
AcDbEntity
  8
0
  6
Continuous
 62
     2
100
AcDbLine
 10
-941.5187100730957
 20
-1135.412320041721
 30
0.0
 11
-941.2014150115536
 21
-1135.412320041721
 31
0.0
  0
LINE
  5
14D
102
{ACAD_REACTORS
330
244
330
245
102
}
330
71
100
AcDbEntity
  8
0
  6
Continuous
 62
     2
100
AcDbLine
 10
-942.7592144833496
 20
-1134.043486546939
 30
0.0
 11
-942.7592144833496
 21
-1137.09729607075
 31
0.0
  0
LINE
  5
14E
102
{ACAD_REACTORS
330
244
330
245
102
}
330
71
100
AcDbEntity
  8
0
  6
Continuous
 62
     2
100
AcDbLine
 10
-942.7592144833496
 20
-1134.043486546939
 30
0.0
 11
-940.7599424853153
 21
-1134.043486546939
 31
0.0
  0
LINE
  5
14F
102
{ACAD_REACTORS
330
244
330
245
102
}
330
71
100
AcDbEntity
  8
0
  6
Continuous
 62
     2
100
AcDbLine
 10
-941.5187100730957
 20
-1136.154217829606
 30
0.0
 11
-940.7599424853153
 21
-1136.154217829606
 31
0.0
  0
LINE
  5
150
102
{ACAD_REACTORS
330
24A
330
24B
102
}
330
71
100
AcDbEntity
  8
0
  6
Continuous
 62
     2
100
AcDbLine
 10
-948.8557105166464
 20
-1135.071759025574
 30
0.0
 11
-948.8557105166464
 21
-1139.428214068291
 31
0.0
  0
LINE
  5
151
102
{ACAD_REACTORS
330
24A
330
24B
102
}
330
71
100
AcDbEntity
  8
0
  6
Continuous
 62
     2
100
AcDbLine
 10
-948.5399935935707
 20
-1134.756042102498
 30
0.0
 11
-947.0641603325612
 21
-1134.756042102498
 31
0.0
  0
LINE
  5
152
102
{ACAD_REACTORS
330
24A
330
24B
102
}
330
71
100
AcDbEntity
  8
0
  6
Continuous
 62
     2
100
AcDbLine
 10
-946.7484434094845
 20
-1135.675783644634
 30
0.0
 11
-946.7484434094845
 21
-1135.071759025574
 31
0.0
  0
LINE
  5
153
102
{ACAD_REACTORS
330
24A
330
24B
102
}
330
71
100
AcDbEntity
  8
0
  6
Continuous
 62
     2
100
AcDbLine
 10
-946.7484434094845
 20
-1139.428214068291
 30
0.0
 11
-946.7484434094845
 21
-1137.897443136759
 31
0.0
  0
LINE
  5
154
102
{ACAD_REACTORS
330
24A
330
24B
102
}
330
71
100
AcDbEntity
  8
0
  6
Continuous
 62
     2
100
AcDbLine
 10
-943.6605761796003
 20
-1140.456486546925
 30
0.0
 11
-949.1338882703172
 21
-1140.456486546925
 31
0.0
  0
LINE
  5
155
102
{ACAD_REACTORS
330
24A
330
24B
102
}
330
71
100
AcDbEntity
  8
0
  6
Continuous
 62
     2
100
AcDbLine
 10
-943.2363315642165
 20
-1134.467731162341
 30
0.0
 11
-943.2363315642165
 21
-1140.032241931541
 31
0.0
  0
LINE
  5
156
102
{ACAD_REACTORS
330
24A
330
24B
102
}
330
71
100
AcDbEntity
  8
0
  6
Continuous
 62
     2
100
AcDbLine
 10
-949.1338882703172
 20
-1134.043486546957
 30
0.0
 11
-943.6605761796003
 21
-1134.043486546957
 31
0.0
  0
LINE
  5
157
102
{ACAD_REACTORS
330
24A
330
24B
102
}
330
71
100
AcDbEntity
  8
0
  6
Continuous
 62
     2
100
AcDbLine
 10
-949.5581328857
 20
-1134.467731162341
 30
0.0
 11
-949.5581328857
 21
-1140.032241931541
 31
0.0
  0
LINE
  5
158
102
{ACAD_REACTORS
330
24A
330
24B
102
}
330
71
100
AcDbEntity
  8
0
  6
Continuous
 62
     2
100
AcDbLine
 10
-947.0641603325612
 20
-1139.743930991368
 30
0.0
 11
-948.5399935935707
 21
-1139.743930991368
 31
0.0
  0
LINE
  5
159
102
{ACAD_REACTORS
330
244
330
245
102
}
330
71
100
AcDbEntity
  8
0
  6
Continuous
 62
     2
100
AcDbLine
 10
-941.5187100730957
 20
-1137.09729607075
 30
0.0
 11
-941.5187100730957
 21
-1136.154217829606
 31
0.0
  0
LINE
  5
15A
102
{ACAD_REACTORS
330
244
330
245
102
}
330
71
100
AcDbEntity
  8
0
  6
Continuous
 62
     2
100
AcDbLine
 10
-942.7592144833496
 20
-1137.09729607075
 30
0.0
 11
-941.5187100730957
 21
-1137.09729607075
 31
0.0
  0
LINE
  5
15B
102
{ACAD_REACTORS
330
244
330
245
102
}
330
71
100
AcDbEntity
  8
0
  6
Continuous
 62
     2
100
AcDbLine
 10
-941.5187100730957
 20
-1135.412320041721
 30
0.0
 11
-941.5187100730957
 21
-1134.706592392379
 31
0.0
  0
LINE
  5
15C
102
{ACAD_REACTORS
330
236
330
237
102
}
330
71
100
AcDbEntity
  8
0
  6
Continuous
 62
     2
100
AcDbLine
 10
-939.5625300415419
 20
-1134.043486546939
 30
0.0
 11
-939.5625300415419
 21
-1137.09729607075
 31
0.0
  0
LINE
  5
15D
102
{ACAD_REACTORS
330
236
330
237
102
}
330
71
100
AcDbEntity
  8
0
  6
Continuous
 62
     2
100
AcDbLine
 10
-938.3697373393753
 20
-1135.963023961906
 30
0.0
 11
-938.3697373393753
 21
-1137.09729607075
 31
0.0
  0
LINE
  5
15E
102
{ACAD_REACTORS
330
236
330
237
102
}
330
71
100
AcDbEntity
  8
0
  6
Continuous
 62
     2
100
AcDbLine
 10
-937.3200797614679
 20
-1135.963023961906
 30
0.0
 11
-938.3697373393753
 21
-1135.963023961906
 31
0.0
  0
LINE
  5
15F
102
{ACAD_REACTORS
330
236
330
237
102
}
330
71
100
AcDbEntity
  8
0
  6
Continuous
 62
     2
100
AcDbLine
 10
-937.3200797614679
 20
-1134.043486546939
 30
0.0
 11
-936.1272870593015
 21
-1134.043486546939
 31
0.0
  0
LINE
  5
160
102
{ACAD_REACTORS
330
236
330
237
102
}
330
71
100
AcDbEntity
  8
0
  6
Continuous
 62
     2
100
AcDbLine
 10
-937.3200797614679
 20
-1135.112319880274
 30
0.0
 11
-937.3200797614679
 21
-1134.043486546939
 31
0.0
  0
LINE
  5
161
102
{ACAD_REACTORS
330
248
330
249
102
}
330
71
100
AcDbEntity
  8
0
  6
Continuous
 62
     2
100
AcDbLine
 10
-931.3084045425469
 20
-1134.741500152382
 30
0.0
 11
-931.3084045425469
 21
-1134.043486546939
 31
0.0
  0
LINE
  5
162
102
{ACAD_REACTORS
330
248
330
249
102
}
330
71
100
AcDbEntity
  8
0
  6
Continuous
 62
     2
100
AcDbLine
 10
-934.4587242663279
 20
-1134.043486546939
 30
0.0
 11
-931.3084045425469
 21
-1134.043486546939
 31
0.0
  0
LINE
  5
163
102
{ACAD_REACTORS
330
248
330
249
102
}
330
71
100
AcDbEntity
  8
0
  6
Continuous
 62
     2
100
AcDbLine
 10
-934.4587242663279
 20
-1137.09729607075
 30
0.0
 11
-931.3084045425469
 21
-1137.09729607075
 31
0.0
  0
LINE
  5
164
102
{ACAD_REACTORS
330
248
330
249
102
}
330
71
100
AcDbEntity
  8
0
  6
Continuous
 62
     2
100
AcDbLine
 10
-931.3084045425469
 20
-1137.09729607075
 30
0.0
 11
-931.3084045425469
 21
-1136.399282465308
 31
0.0
  0
LINE
  5
165
102
{ACAD_REACTORS
330
248
330
249
102
}
330
71
100
AcDbEntity
  8
0
  6
Continuous
 62
     2
100
AcDbLine
 10
-931.3084045425469
 20
-1136.399282465308
 30
0.0
 11
-932.6443323689746
 21
-1136.399282465308
 31
0.0
  0
LINE
  5
166
102
{ACAD_REACTORS
330
248
330
249
102
}
330
71
100
AcDbEntity
  8
0
  6
Continuous
 62
     2
100
AcDbLine
 10
-932.6443323689746
 20
-1136.399282465308
 30
0.0
 11
-932.6443323689746
 21
-1135.919398111566
 31
0.0
  0
LINE
  5
167
102
{ACAD_REACTORS
330
248
330
249
102
}
330
71
100
AcDbEntity
  8
0
  6
Continuous
 62
     2
100
AcDbLine
 10
-932.6443323689746
 20
-1134.741500152382
 30
0.0
 11
-931.3084045425469
 21
-1134.741500152382
 31
0.0
  0
LINE
  5
168
102
{ACAD_REACTORS
330
238
330
239
102
}
330
71
100
AcDbEntity
  8
0
  6
Continuous
 62
     2
100
AcDbLine
 10
-935.1254921203661
 20
-1140.456486546925
 30
0.0
 11
-935.1254921203661
 21
-1139.14771103672
 31
0.0
  0
LINE
  5
169
102
{ACAD_REACTORS
330
238
330
239
102
}
330
71
100
AcDbEntity
  8
0
  6
Continuous
 62
     2
100
AcDbLine
 10
-935.1254921203661
 20
-1139.14771103672
 30
0.0
 11
-933.8849877101131
 21
-1140.456486546925
 31
0.0
  0
LINE
  5
16A
102
{ACAD_REACTORS
330
238
330
239
102
}
330
71
100
AcDbEntity
  8
0
  6
Continuous
 62
     2
100
AcDbLine
 10
-932.6921950079468
 20
-1140.456486546925
 30
0.0
 11
-932.6921950079468
 21
-1137.402677023113
 31
0.0
  0
LINE
  5
16B
102
{ACAD_REACTORS
330
238
330
239
102
}
330
71
100
AcDbEntity
  8
0
  6
Continuous
 62
     2
100
AcDbLine
 10
-932.6921950079468
 20
-1137.402677023113
 30
0.0
 11
-933.8849877101131
 21
-1137.402677023113
 31
0.0
  0
LINE
  5
16C
102
{ACAD_REACTORS
330
238
330
239
102
}
330
71
100
AcDbEntity
  8
0
  6
Continuous
 62
     2
100
AcDbLine
 10
-933.8849877101131
 20
-1137.402677023113
 30
0.0
 11
-933.8849877101131
 21
-1138.711452533319
 31
0.0
  0
LINE
  5
16D
102
{ACAD_REACTORS
330
238
330
239
102
}
330
71
100
AcDbEntity
  8
0
  6
Continuous
 62
     2
100
AcDbLine
 10
-933.8849877101131
 20
-1138.711452533319
 30
0.0
 11
-935.1254921203661
 21
-1137.402677023113
 31
0.0
  0
LINE
  5
16E
102
{ACAD_REACTORS
330
23A
330
23B
102
}
330
71
100
AcDbEntity
  8
0
  6
Continuous
 62
     2
100
AcDbLine
 10
-929.8770532999475
 20
-1135.788520560545
 30
0.0
 11
-928.6365488896935
 21
-1137.09729607075
 31
0.0
  0
LINE
  5
16F
102
{ACAD_REACTORS
330
23A
330
23B
102
}
330
71
100
AcDbEntity
  8
0
  6
Continuous
 62
     2
100
AcDbLine
 10
-928.6365488896935
 20
-1137.09729607075
 30
0.0
 11
-927.4437561875268
 21
-1137.09729607075
 31
0.0
  0
LINE
  5
170
102
{ACAD_REACTORS
330
23A
330
23B
102
}
330
71
100
AcDbEntity
  8
0
  6
Continuous
 62
     2
100
AcDbLine
 10
-927.4437561875268
 20
-1137.09729607075
 30
0.0
 11
-927.4437561875268
 21
-1134.043486546939
 31
0.0
  0
LINE
  5
171
102
{ACAD_REACTORS
330
23A
330
23B
102
}
330
71
100
AcDbEntity
  8
0
  6
Continuous
 62
     2
100
AcDbLine
 10
-927.4437561875268
 20
-1134.043486546939
 30
0.0
 11
-928.6365488896935
 21
-1134.043486546939
 31
0.0
  0
LINE
  5
172
102
{ACAD_REACTORS
330
23A
330
23B
102
}
330
71
100
AcDbEntity
  8
0
  6
Continuous
 62
     2
100
AcDbLine
 10
-928.6365488896935
 20
-1135.352262057144
 30
0.0
 11
-929.8770532999475
 21
-1134.043486546939
 31
0.0
  0
LINE
  5
173
102
{ACAD_REACTORS
330
23A
330
23B
102
}
330
71
100
AcDbEntity
  8
0
  6
Continuous
 62
     2
100
AcDbLine
 10
-931.069846002114
 20
-1137.09729607075
 30
0.0
 11
-929.8770532999475
 21
-1137.09729607075
 31
0.0
  0
LINE
  5
174
102
{ACAD_REACTORS
330
23C
330
23D
102
}
330
71
100
AcDbEntity
  8
0
  6
Continuous
 62
     2
100
AcDbLine
 10
-932.5490598836866
 20
-1137.402677023113
 30
0.0
 11
-932.5490598836866
 21
-1138.187942329237
 31
0.0
  0
LINE
  5
175
102
{ACAD_REACTORS
330
23C
330
23D
102
}
330
71
100
AcDbEntity
  8
0
  6
Continuous
 62
     2
100
AcDbLine
 10
-931.737960846212
 20
-1138.187942329237
 30
0.0
 11
-931.737960846212
 21
-1140.456486546925
 31
0.0
  0
LINE
  5
176
102
{ACAD_REACTORS
330
23C
330
23D
102
}
330
71
100
AcDbEntity
  8
0
  6
Continuous
 62
     2
100
AcDbLine
 10
-931.737960846212
 20
-1140.456486546925
 30
0.0
 11
-930.5451681440455
 21
-1140.456486546925
 31
0.0
  0
LINE
  5
177
102
{ACAD_REACTORS
330
23E
330
23F
102
}
330
71
100
AcDbEntity
  8
0
  6
Continuous
 62
     2
100
AcDbLine
 10
-927.5956416506259
 20
-1140.456486546925
 30
0.0
 11
-927.8071217041017
 21
-1139.915526002707
 31
0.0
  0
LINE
  5
178
102
{ACAD_REACTORS
330
23E
330
23F
102
}
330
71
100
AcDbEntity
  8
0
  6
Continuous
 62
     2
100
AcDbLine
 10
-927.7530902873123
 20
-1137.402677023113
 30
0.0
 11
-926.3551372403721
 21
-1140.456486546925
 31
0.0
  0
LINE
  5
179
102
{ACAD_REACTORS
330
23E
330
23F
102
}
330
71
100
AcDbEntity
  8
0
  6
Continuous
 62
     2
100
AcDbLine
 10
-928.9935946975652
 20
-1137.402677023113
 30
0.0
 11
-927.7530902873123
 21
-1137.402677023113
 31
0.0
  0
LINE
  5
17A
102
{ACAD_REACTORS
330
23E
330
23F
102
}
330
71
100
AcDbEntity
  8
0
  6
Continuous
 62
     2
100
AcDbLine
 10
-930.3915477445044
 20
-1140.456486546925
 30
0.0
 11
-929.1510433342514
 21
-1140.456486546925
 31
0.0
  0
LINE
  5
17B
102
{ACAD_REACTORS
330
23E
330
23F
102
}
330
71
100
AcDbEntity
  8
0
  6
Continuous
 62
     2
100
AcDbLine
 10
-928.6735077296305
 20
-1139.2349627374
 30
0.0
 11
-928.0731772552481
 21
-1139.2349627374
 31
0.0
  0
LINE
  5
17C
102
{ACAD_REACTORS
330
23E
330
23F
102
}
330
71
100
AcDbEntity
  8
0
  6
Continuous
 62
     2
100
AcDbLine
 10
-928.0731772552481
 20
-1139.2349627374
 30
0.0
 11
-928.3733424924383
 21
-1138.467147771413
 31
0.0
  0
LINE
  5
17D
102
{ACAD_REACTORS
330
240
330
241
102
}
330
71
100
AcDbEntity
  8
0
  6
Continuous
 62
     2
100
AcDbLine
 10
-925.96469323684
 20
-1137.09729607075
 30
0.0
 11
-927.205197647093
 21
-1137.09729607075
 31
0.0
  0
LINE
  5
17E
102
{ACAD_REACTORS
330
242
330
243
102
}
330
71
100
AcDbEntity
  8
0
  6
Continuous
 62
     2
100
AcDbLine
 10
-924.4426897488751
 20
-1137.09729607075
 30
0.0
 11
-925.8454139666231
 21
-1137.09729607075
 31
0.0
  0
LINE
  5
17F
102
{ACAD_REACTORS
330
242
330
243
102
}
330
71
100
AcDbEntity
  8
0
  6
Continuous
 62
     2
100
AcDbLine
 10
-924.4426897488751
 20
-1137.09729607075
 30
0.0
 11
-923.7460988108093
 21
-1136.309564285456
 31
0.0
  0
LINE
  5
180
102
{ACAD_REACTORS
330
242
330
243
102
}
330
71
100
AcDbEntity
  8
0
  6
Continuous
 62
     2
100
AcDbLine
 10
-923.1449312889165
 20
-1134.043486546939
 30
0.0
 11
-921.7422070711692
 21
-1134.043486546939
 31
0.0
  0
LINE
  5
181
102
{ACAD_REACTORS
330
242
330
243
102
}
330
71
100
AcDbEntity
  8
0
  6
Continuous
 62
     2
100
AcDbLine
 10
-925.7499905504503
 20
-1134.043486546939
 30
0.0
 11
-924.4474609196828
 21
-1135.516437076975
 31
0.0
  0
LINE
  5
182
102
{ACAD_REACTORS
330
242
330
243
102
}
330
71
100
AcDbEntity
  8
0
  6
Continuous
 62
     2
100
AcDbLine
 10
-925.8454139666231
 20
-1137.09729607075
 30
0.0
 11
-924.4474609196828
 21
-1135.516437076975
 31
0.0
  0
LINE
  5
183
102
{ACAD_REACTORS
330
24C
330
24D
102
}
330
71
100
AcDbEntity
  8
0
  6
Continuous
 62
     2
100
AcDbLine
 10
-923.9846573512433
 20
-1139.409466138761
 30
0.0
 11
-923.9846573512433
 21
-1140.281983145564
 31
0.0
  0
LINE
  5
184
102
{ACAD_REACTORS
330
24C
330
24D
102
}
330
71
100
AcDbEntity
  8
0
  6
Continuous
 62
     2
100
AcDbLine
 10
-924.7543146942047
 20
-1138.187942329237
 30
0.0
 11
-923.6506753946367
 21
-1138.187942329237
 31
0.0
  0
LINE
  5
185
102
{ACAD_REACTORS
330
24E
330
24F
102
}
330
71
100
AcDbEntity
  8
0
  6
Continuous
 62
     2
100
AcDbLine
 10
-940.0873588304951
 20
-1139.40946613876
 30
0.0
 11
-940.0873588304951
 21
-1140.281983145564
 31
0.0
  0
LINE
  5
186
102
{ACAD_REACTORS
330
24E
330
24F
102
}
330
71
100
AcDbEntity
  8
0
  6
Continuous
 62
     2
100
AcDbLine
 10
-940.0873588304951
 20
-1138.449697431277
 30
0.0
 11
-940.0873588304951
 21
-1137.577180424474
 31
0.0
  0
LINE
  5
187
330
71
100
AcDbEntity
  8
1
  6
Continuous
 62
     7
100
AcDbLine
 10
-824.2499832455113
 20
-1139.249986546941
 30
0.0
 11
-917.3947877722626
 21
-1139.249986546941
 31
0.0
  0
LINE
  5
188
330
71
100
AcDbEntity
  8
1
  6
Continuous
 62
     7
100
AcDbLine
 10
-833.16839152719
 20
-1122.249986546941
 30
0.0
 11
-833.16839152719
 21
-1130.749986546941
 31
0.0
  0
LINE
  5
189
330
71
100
AcDbEntity
  8
1
  6
Continuous
 62
     7
100
AcDbLine
 10
-859.6683915271897
 20
-1122.249986546941
 30
0.0
 11
-859.6683915271897
 21
-1130.749986546941
 31
0.0
  0
LINE
  5
18A
330
71
100
AcDbEntity
  8
1
  6
Continuous
 62
     7
100
AcDbLine
 10
-917.3947877722626
 20
-1130.749986546941
 30
0.0
 11
-917.3947877722626
 21
-1122.249986546941
 31
0.0
  0
LINE
  5
18B
330
71
100
AcDbEntity
  8
1
  6
Continuous
 62
     7
100
AcDbLine
 10
-953.7947877722626
 20
-1130.749986546941
 30
0.0
 11
-953.7947877722626
 21
-1122.249986546941
 31
0.0
  0
LINE
  5
18C
330
71
100
AcDbEntity
  8
1
  6
Continuous
 62
     6
100
AcDbLine
 10
-917.3947877722626
 20
-1130.749986546941
 30
0.0
 11
-824.2499832455109
 21
-1130.749986546941
 31
0.0
  0
LINE
  5
18D
330
71
100
AcDbEntity
  8
1
  6
Continuous
 62
     7
100
AcDbLine
 10
-889.4947877722626
 20
-1139.249986546941
 30
0.0
 11
-889.4947877722626
 21
-1130.749986546941
 31
0.0
  0
LINE
  5
18E
330
71
100
AcDbEntity
  8
1
  6
Continuous
 62
     6
100
AcDbLine
 10
-824.2499832455109
 20
-1130.749986546941
 30
0.0
 11
-824.2499832455109
 21
-1122.249986546941
 31
0.0
  0
LINE
  5
18F
330
71
100
AcDbEntity
  8
1
  6
Continuous
 62
     2
100
AcDbLine
 10
-960.9166499121792
 20
-1147.749986546943
 30
0.0
 11
-960.9166499121792
 21
-1147.74998654694
 31
0.0
  0
LINE
  5
190
330
71
100
AcDbEntity
  8
1
  6
Continuous
 62
     6
100
AcDbLine
 10
-1097.583316578846
 20
-1147.74998654694
 30
0.0
 11
-953.7947877722626
 21
-1147.749986546943
 31
0.0
  0
LINE
  5
191
330
71
100
AcDbEntity
  8
1
  6
Continuous
 62
     6
100
AcDbLine
 10
-824.2499832455127
 20
-1147.749986546941
 30
0.0
 11
-824.249983245513
 21
-1139.249986546941
 31
0.0
  0
LINE
  5
192
330
71
100
AcDbEntity
  8
1
  6
Continuous
 62
     6
100
AcDbLine
 10
-1219.249983245512
 20
-1147.74998654694
 30
0.0
 11
-1219.249983245513
 21
-860.74998654694
 31
0.0
  0
LINE
  5
193
330
71
100
AcDbEntity
  8
1
  6
Continuous
 62
     2
100
AcDbLine
 10
-1239.249983245514
 20
-1004.24998654694
 30
0.0
 11
-1239.249983245514
 21
-1152.74998654694
 31
0.0
  0
LINE
  5
194
330
71
100
AcDbEntity
  8
1
  6
Continuous
 62
     2
100
AcDbLine
 10
-1239.249983245514
 20
-1004.24998654694
 30
0.0
 11
-1229.249983245513
 21
-1004.24998654694
 31
0.0
  0
LINE
  5
195
330
71
100
AcDbEntity
  8
1
  6
Continuous
 62
     2
100
AcDbLine
 10
-1239.249983245514
 20
-855.7499865469402
 30
0.0
 11
-1239.249983245514
 21
-1004.24998654694
 31
0.0
  0
LINE
  5
196
330
71
100
AcDbEntity
  8
1
  6
Continuous
 62
     2
100
AcDbLine
 10
-1009.249983245515
 20
-855.7499865469402
 30
0.0
 11
-1029.249983245513
 21
-855.7499865469402
 31
0.0
  0
LINE
  5
197
330
71
100
AcDbEntity
  8
1
  6
Continuous
 62
     2
100
AcDbLine
 10
-1009.249983245515
 20
-855.7499865469402
 30
0.0
 11
-1009.249983245515
 21
-859.74998654694
 31
0.0
  0
LINE
  5
198
330
71
100
AcDbEntity
  8
1
  6
Continuous
 62
     2
100
AcDbLine
 10
-1219.249983245513
 20
-855.7499865469402
 30
0.0
 11
-1239.249983245514
 21
-855.7499865469402
 31
0.0
  0
LINE
  5
199
330
71
100
AcDbEntity
  8
1
  6
Continuous
 62
     2
100
AcDbLine
 10
-1219.249983245513
 20
-855.7499865469402
 30
0.0
 11
-1219.249983245513
 21
-859.74998654694
 31
0.0
  0
LINE
  5
19A
330
71
100
AcDbEntity
  8
1
  6
Continuous
 62
     2
100
AcDbLine
 10
-1165.916649912179
 20
-855.7499865469402
 30
0.0
 11
-1219.249983245513
 21
-855.7499865469402
 31
0.0
  0
LINE
  5
19B
330
71
100
AcDbEntity
  8
1
  6
Continuous
 62
     6
100
AcDbLine
 10
-1165.916649912179
 20
-860.74998654694
 30
0.0
 11
-1097.583316578846
 21
-860.7499865469402
 31
0.0
  0
LINE
  5
19C
330
71
100
AcDbEntity
  8
1
  6
Continuous
 62
     2
100
AcDbLine
 10
-1165.916649912179
 20
-860.74998654694
 30
0.0
 11
-1165.916649912179
 21
-855.7499865469402
 31
0.0
  0
LINE
  5
19D
330
71
100
AcDbEntity
  8
1
  6
Continuous
 62
     2
100
AcDbLine
 10
-1097.583316578846
 20
-855.7499865469402
 30
0.0
 11
-1165.916649912179
 21
-855.7499865469402
 31
0.0
  0
LINE
  5
19E
330
71
100
AcDbEntity
  8
1
  6
Continuous
 62
     6
100
AcDbLine
 10
-1097.583316578846
 20
-860.7499865469402
 30
0.0
 11
-1029.249983245513
 21
-860.7499865469402
 31
0.0
  0
LINE
  5
19F
330
71
100
AcDbEntity
  8
1
  6
Continuous
 62
     2
100
AcDbLine
 10
-1097.583316578846
 20
-860.7499865469402
 30
0.0
 11
-1097.583316578846
 21
-855.7499865469402
 31
0.0
  0
LINE
  5
1A0
330
71
100
AcDbEntity
  8
1
  6
Continuous
 62
     2
100
AcDbLine
 10
-1029.249983245513
 20
-855.7499865469402
 30
0.0
 11
-1097.583316578846
 21
-855.7499865469402
 31
0.0
  0
LINE
  5
1A1
330
71
100
AcDbEntity
  8
1
  6
Continuous
 62
     6
100
AcDbLine
 10
-1029.249983245513
 20
-860.7499865469402
 30
0.0
 11
-960.9166499121792
 21
-860.7499865469402
 31
0.0
  0
LINE
  5
1A2
330
71
100
AcDbEntity
  8
1
  6
Continuous
 62
     2
100
AcDbLine
 10
-1029.249983245513
 20
-860.7499865469402
 30
0.0
 11
-1029.249983245513
 21
-855.7499865469402
 31
0.0
  0
LINE
  5
1A3
330
71
100
AcDbEntity
  8
1
  6
Continuous
 62
     2
100
AcDbLine
 10
-960.9166499121792
 20
-855.7499865469402
 30
0.0
 11
-1009.249983245515
 21
-855.7499865469402
 31
0.0
  0
LINE
  5
1A4
330
71
100
AcDbEntity
  8
1
  6
Continuous
 62
     6
100
AcDbLine
 10
-960.9166499121792
 20
-860.7499865469402
 30
0.0
 11
-892.583316578846
 21
-860.7499865469402
 31
0.0
  0
LINE
  5
1A5
330
71
100
AcDbEntity
  8
1
  6
Continuous
 62
     2
100
AcDbLine
 10
-960.9166499121792
 20
-860.7499865469402
 30
0.0
 11
-960.9166499121792
 21
-855.7499865469402
 31
0.0
  0
LINE
  5
1A6
330
71
100
AcDbEntity
  8
1
  6
Continuous
 62
     2
100
AcDbLine
 10
-892.583316578846
 20
-855.7499865469402
 30
0.0
 11
-960.9166499121792
 21
-855.7499865469402
 31
0.0
  0
LINE
  5
1A7
330
71
100
AcDbEntity
  8
1
  6
Continuous
 62
     6
100
AcDbLine
 10
-892.583316578846
 20
-860.7499865469402
 30
0.0
 11
-824.2499832455151
 21
-860.7499865469402
 31
0.0
  0
LINE
  5
1A8
330
71
100
AcDbEntity
  8
1
  6
Continuous
 62
     2
100
AcDbLine
 10
-892.583316578846
 20
-860.7499865469402
 30
0.0
 11
-892.583316578846
 21
-855.7499865469402
 31
0.0
  0
LINE
  5
1A9
330
71
100
AcDbEntity
  8
1
  6
Continuous
 62
     2
100
AcDbLine
 10
-824.2499832455151
 20
-855.7499865469402
 30
0.0
 11
-892.583316578846
 21
-855.7499865469402
 31
0.0
  0
LINE
  5
1AA
330
71
100
AcDbEntity
  8
1
  6
Continuous
 62
     6
100
AcDbLine
 10
-1219.249983245513
 20
-860.74998654694
 30
0.0
 11
-1165.916649912179
 21
-860.74998654694
 31
0.0
  0
LINE
  5
1AB
330
71
100
AcDbEntity
  8
1
  6
Continuous
 62
     6
100
AcDbLine
 10
-824.2499832455126
 20
-1032.94998654694
 30
0.0
 11
-824.2499832455127
 21
-1090.34998654694
 31
0.0
  0
LINE
  5
1AC
330
71
100
AcDbEntity
  8
1
  6
Continuous
 62
     2
100
AcDbLine
 10
-824.2499832455126
 20
-1032.94998654694
 30
0.0
 11
-819.2499832455151
 21
-1032.94998654694
 31
0.0
  0
LINE
  5
1AD
330
71
100
AcDbEntity
  8
1
  6
Continuous
 62
     2
100
AcDbLine
 10
-819.2499832455151
 20
-975.5499865469402
 30
0.0
 11
-819.2499832455151
 21
-1032.94998654694
 31
0.0
  0
LINE
  5
1AE
330
71
100
AcDbEntity
  8
1
  6
Continuous
 62
     6
100
AcDbLine
 10
-824.2499832455126
 20
-975.5499865469402
 30
0.0
 11
-824.2499832455126
 21
-1032.94998654694
 31
0.0
  0
LINE
  5
1AF
330
71
100
AcDbEntity
  8
1
  6
Continuous
 62
     2
100
AcDbLine
 10
-824.2499832455126
 20
-975.5499865469402
 30
0.0
 11
-819.2499832455151
 21
-975.5499865469402
 31
0.0
  0
LINE
  5
1B0
330
71
100
AcDbEntity
  8
1
  6
Continuous
 62
     2
100
AcDbLine
 10
-819.2499832455151
 20
-918.1499865469403
 30
0.0
 11
-819.2499832455151
 21
-975.5499865469402
 31
0.0
  0
LINE
  5
1B1
330
71
100
AcDbEntity
  8
1
  6
Continuous
 62
     6
100
AcDbLine
 10
-824.2499832455146
 20
-918.1499865469403
 30
0.0
 11
-824.2499832455126
 21
-975.5499865469402
 31
0.0
  0
LINE
  5
1B2
330
71
100
AcDbEntity
  8
1
  6
Continuous
 62
     2
100
AcDbLine
 10
-824.2499832455146
 20
-918.1499865469403
 30
0.0
 11
-819.2499832455151
 21
-918.1499865469403
 31
0.0
  0
LINE
  5
1B3
330
71
100
AcDbEntity
  8
1
  6
Continuous
 62
     2
100
AcDbLine
 10
-819.2499832455151
 20
-860.7499865469402
 30
0.0
 11
-819.2499832455151
 21
-918.1499865469403
 31
0.0
  0
LINE
  5
1B4
330
71
100
AcDbEntity
  8
1
  6
Continuous
 62
     2
100
AcDbLine
 10
-824.2499832455151
 20
-860.7499865469402
 30
0.0
 11
-819.2499832455151
 21
-860.7499865469402
 31
0.0
  0
LINE
  5
1B5
330
71
100
AcDbEntity
  8
1
  6
Continuous
 62
     2
100
AcDbLine
 10
-824.2499832455151
 20
-860.7499865469402
 30
0.0
 11
-824.2499832455151
 21
-855.7499865469402
 31
0.0
  0
LINE
  5
1B6
330
71
100
AcDbEntity
  8
1
  6
Continuous
 62
     2
100
AcDbLine
 10
-819.2499832455151
 20
-855.7499865469402
 30
0.0
 11
-819.2499832455151
 21
-860.7499865469402
 31
0.0
  0
LINE
  5
1B7
330
71
100
AcDbEntity
  8
1
  6
Continuous
 62
     6
100
AcDbLine
 10
-824.2499832455151
 20
-860.7499865469402
 30
0.0
 11
-824.2499832455146
 21
-918.1499865469403
 31
0.0
  0
LINE
  5
1B8
330
71
100
AcDbEntity
  8
1
  6
Continuous
 62
     2
100
AcDbLine
 10
-819.2499832455151
 20
-855.7499865469402
 30
0.0
 11
-824.2499832455151
 21
-855.7499865469402
 31
0.0
  0
LINE
  5
1B9
330
71
100
AcDbEntity
  8
1
  6
Continuous
 62
     2
100
AcDbLine
 10
-819.2499832455151
 20
-1147.74998654694
 30
0.0
 11
-819.2499832455151
 21
-1090.34998654694
 31
0.0
  0
LINE
  5
1BA
330
71
100
AcDbEntity
  8
1
  6
Continuous
 62
     2
100
AcDbLine
 10
-819.2499832455151
 20
-1147.74998654694
 30
0.0
 11
-819.2499832455151
 21
-1152.74998654694
 31
0.0
  0
LINE
  5
1BB
330
71
100
AcDbEntity
  8
1
  6
Continuous
 62
     2
100
AcDbLine
 10
-819.2499832455151
 20
-1152.74998654694
 30
0.0
 11
-824.2499832455126
 21
-1152.74998654694
 31
0.0
  0
LINE
  5
1BC
330
71
100
AcDbEntity
  8
1
  6
Continuous
 62
     2
100
AcDbLine
 10
-960.9166499121792
 20
-1152.74998654694
 30
0.0
 11
-892.583316578846
 21
-1152.74998654694
 31
0.0
  0
LINE
  5
1BD
330
71
100
AcDbEntity
  8
1
  6
Continuous
 62
     2
100
AcDbLine
 10
-1009.249983245515
 20
-1152.74998654694
 30
0.0
 11
-960.9166499121792
 21
-1152.74998654694
 31
0.0
  0
LINE
  5
1BE
330
71
100
AcDbEntity
  8
1
  6
Continuous
 62
     2
100
AcDbLine
 10
-1009.249983245515
 20
-1152.74998654694
 30
0.0
 11
-1009.249983245515
 21
-1148.74998654694
 31
0.0
  0
LINE
  5
1BF
330
71
100
AcDbEntity
  8
1
  6
Continuous
 62
     2
100
AcDbLine
 10
-1009.249983245515
 20
-1152.74998654694
 30
0.0
 11
-1029.249983245513
 21
-1152.74998654694
 31
0.0
  0
LINE
  5
1C0
330
71
100
AcDbEntity
  8
1
  6
Continuous
 62
     2
100
AcDbLine
 10
-1219.249983245513
 20
-1152.74998654694
 30
0.0
 11
-1165.916649912179
 21
-1152.74998654694
 31
0.0
  0
LINE
  5
1C1
330
71
100
AcDbEntity
  8
1
  6
Continuous
 62
     2
100
AcDbLine
 10
-1219.249983245513
 20
-1152.74998654694
 30
0.0
 11
-1219.249983245513
 21
-1148.74998654694
 31
0.0
  0
LINE
  5
1C2
330
71
100
AcDbEntity
  8
1
  6
Continuous
 62
     2
100
AcDbLine
 10
-1097.583316578846
 20
-1152.74998654694
 30
0.0
 11
-1097.583316578846
 21
-1147.74998654694
 31
0.0
  0
LINE
  5
1C3
330
71
100
AcDbEntity
  8
1
  6
Continuous
 62
     6
100
AcDbLine
 10
-1165.916649912179
 20
-1147.74998654694
 30
0.0
 11
-1219.249983245512
 21
-1147.74998654694
 31
0.0
  0
LINE
  5
1C4
330
71
100
AcDbEntity
  8
1
  6
Continuous
 62
     6
100
AcDbLine
 10
-1165.916649912179
 20
-1147.74998654694
 30
0.0
 11
-1097.583316578846
 21
-1147.74998654694
 31
0.0
  0
LINE
  5
1C5
330
71
100
AcDbEntity
  8
1
  6
Continuous
 62
     2
100
AcDbLine
 10
-1165.916649912179
 20
-1152.74998654694
 30
0.0
 11
-1097.583316578846
 21
-1152.74998654694
 31
0.0
  0
LINE
  5
1C6
330
71
100
AcDbEntity
  8
1
  6
Continuous
 62
     2
100
AcDbLine
 10
-1165.916649912179
 20
-1152.74998654694
 30
0.0
 11
-1165.916649912179
 21
-1147.74998654694
 31
0.0
  0
LINE
  5
1C7
330
71
100
AcDbEntity
  8
1
  6
Continuous
 62
     2
100
AcDbLine
 10
-1219.249983245513
 20
-1152.74998654694
 30
0.0
 11
-1239.249983245514
 21
-1152.74998654694
 31
0.0
  0
LINE
  5
1C8
330
71
100
AcDbEntity
  8
1
  6
Continuous
 62
     2
100
AcDbLine
 10
-819.2499832455151
 20
-1090.34998654694
 30
0.0
 11
-824.2499832455127
 21
-1090.34998654694
 31
0.0
  0
LINE
  5
1C9
330
71
100
AcDbEntity
  8
1
  6
Continuous
 62
     2
100
AcDbLine
 10
-819.2499832455151
 20
-1090.34998654694
 30
0.0
 11
-819.2499832455151
 21
-1032.94998654694
 31
0.0
  0
LINE
  5
1CA
330
71
100
AcDbEntity
  8
1
  6
Continuous
 62
     2
100
AcDbLine
 10
-1029.249983245513
 20
-1152.74998654694
 30
0.0
 11
-1029.249983245513
 21
-1147.74998654694
 31
0.0
  0
LINE
  5
1CB
330
71
100
AcDbEntity
  8
1
  6
Continuous
 62
     2
100
AcDbLine
 10
-960.9166499121792
 20
-1152.74998654694
 30
0.0
 11
-960.9166499121792
 21
-1147.749986546943
 31
0.0
  0
LINE
  5
1CC
330
71
100
AcDbEntity
  8
1
  6
Continuous
 62
     2
100
AcDbLine
 10
-892.583316578846
 20
-1152.74998654694
 30
0.0
 11
-892.583316578846
 21
-1147.74998654694
 31
0.0
  0
LINE
  5
1CD
330
71
100
AcDbEntity
  8
1
  6
Continuous
 62
     2
100
AcDbLine
 10
-892.583316578846
 20
-1152.74998654694
 30
0.0
 11
-824.2499832455126
 21
-1152.74998654694
 31
0.0
  0
LINE
  5
1CE
330
71
100
AcDbEntity
  8
1
  6
Continuous
 62
     2
100
AcDbLine
 10
-1029.249983245513
 20
-1152.74998654694
 30
0.0
 11
-1097.583316578846
 21
-1152.74998654694
 31
0.0
  0
LINE
  5
1CF
330
71
100
AcDbEntity
  8
1
  6
Continuous
 62
     6
100
AcDbLine
 10
-824.2499832455136
 20
-1126.499986546941
 30
0.0
 11
-824.2499832455127
 21
-1090.34998654694
 31
0.0
  0
LINE
  5
1D0
330
71
100
AcDbEntity
  8
1
  6
Continuous
 62
     6
100
AcDbLine
 10
-824.2499832455126
 20
-1130.749986546941
 30
0.0
 11
-824.2499832455136
 21
-1126.499986546941
 31
0.0
  0
LINE
  5
1D1
330
71
100
AcDbEntity
  8
1
  6
Continuous
 62
     6
100
AcDbLine
 10
-824.249983245513
 20
-1139.249986546941
 30
0.0
 11
-824.2499832455126
 21
-1130.749986546941
 31
0.0
  0
LINE
  5
1D2
330
71
100
AcDbEntity
  8
1
  6
Continuous
 62
     6
100
AcDbLine
 10
-892.583316578846
 20
-1147.74998654694
 30
0.0
 11
-824.2499832455127
 21
-1147.749986546941
 31
0.0
  0
ARC
  5
1D3
102
{ACAD_REACTORS
330
24E
330
24F
102
}
330
71
100
AcDbEntity
  8
0
  6
Continuous
 62
     2
100
AcDbCircle
 10
-941.4232867476129
 20
-1142.242262730275
 30
0.0
 40
4.852596863498158
100
AcDbArc
 50
74.02000874164733
 51
84.84185523037584
  0
ARC
  5
1D4
102
{ACAD_REACTORS
330
24E
330
24F
102
}
330
71
100
AcDbEntity
  8
0
  6
Continuous
 62
     2
100
AcDbCircle
 10
-940.8472461388592
 20
-1139.086502374391
 30
0.0
 40
0.9059297849857901
100
AcDbArc
 50
71.55192388186713
 51
113.3722778881337
  0
ARC
  5
1D5
102
{ACAD_REACTORS
330
24E
330
24F
102
}
330
71
100
AcDbEntity
  8
0
  6
Continuous
 62
     2
100
AcDbCircle
 10
-941.0036861715613
 20
-1139.134653214358
 30
0.0
 40
0.5115800601945569
100
AcDbArc
 50
208.5214732576381
 51
246.6277221118177
  0
ARC
  5
1D6
102
{ACAD_REACTORS
330
24E
330
24F
102
}
330
71
100
AcDbEntity
  8
0
  6
Continuous
 62
     2
100
AcDbCircle
 10
-940.8472461388592
 20
-1138.772661195648
 30
0.0
 40
0.9059297849846808
100
AcDbArc
 50
246.6277221118606
 51
288.4480761181556
  0
ARC
  5
1D7
102
{ACAD_REACTORS
330
24E
330
24F
102
}
330
71
100
AcDbEntity
  8
0
  6
Continuous
 62
     2
100
AcDbCircle
 10
-941.2654138725202
 20
-1137.51911541961
 30
0.0
 40
2.22738400897351
100
AcDbArc
 50
288.44807611813
 51
301.9309089499615
  0
ARC
  5
1D8
102
{ACAD_REACTORS
330
24A
330
24B
102
}
330
71
100
AcDbEntity
  8
0
  6
Continuous
 62
     2
100
AcDbCircle
 10
-946.4904876051269
 20
-1136.786613390696
 30
0.0
 40
0.9118481501445603
100
AcDbArc
 50
295.3740086781774
 51
64.625991321792
  0
ARC
  5
1D9
102
{ACAD_REACTORS
330
24A
330
24B
102
}
330
71
100
AcDbEntity
  8
0
  6
Continuous
 62
     2
100
AcDbCircle
 10
-945.9644449070389
 20
-1135.071936502222
 30
0.0
 40
0.3157169230760149
100
AcDbArc
 50
90.18896704258206
 51
180.0
  0
ARC
  5
1DA
102
{ACAD_REACTORS
330
24C
330
24D
102
}
330
71
100
AcDbEntity
  8
0
  6
Continuous
 62
     2
100
AcDbCircle
 10
-924.7543146942047
 20
-1139.142465336063
 30
0.0
 40
0.9545230068258661
100
AcDbArc
 50
90.0
 51
109.3371432194401
  0
ARC
  5
1DB
102
{ACAD_REACTORS
330
24C
330
24D
102
}
330
71
100
AcDbEntity
  8
0
  6
Continuous
 62
     2
100
AcDbCircle
 10
-924.5236274342269
 20
-1138.929581785019
 30
0.0
 40
0.9410597353349766
100
AcDbArc
 50
151.4785267423711
 51
208.5214732576775
  0
ARC
  5
1DC
102
{ACAD_REACTORS
330
24C
330
24D
102
}
330
71
100
AcDbEntity
  8
0
  6
Continuous
 62
     2
100
AcDbCircle
 10
-924.7445446596053
 20
-1138.772661195648
 30
0.0
 40
0.9059297849850417
100
AcDbArc
 50
246.6277221118078
 51
288.4480761180874
  0
ARC
  5
1DD
102
{ACAD_REACTORS
330
24C
330
24D
102
}
330
71
100
AcDbEntity
  8
0
  6
Continuous
 62
     2
100
AcDbCircle
 10
-925.1627123932673
 20
-1137.519115419611
 30
0.0
 40
2.227384008972611
100
AcDbArc
 50
288.4480761181346
 51
301.9309089499367
  0
ARC
  5
1DE
102
{ACAD_REACTORS
330
24C
330
24D
102
}
330
71
100
AcDbEntity
  8
0
  6
Continuous
 62
     2
100
AcDbCircle
 10
-925.32058526836
 20
-1135.616900839763
 30
0.0
 40
4.852596863498941
100
AcDbArc
 50
275.1581447696365
 51
285.9799912583397
  0
ARC
  5
1DF
102
{ACAD_REACTORS
330
24C
330
24D
102
}
330
71
100
AcDbEntity
  8
0
  6
Continuous
 62
     2
100
AcDbCircle
 10
-925.0317291736242
 20
-1138.816791422984
 30
0.0
 40
1.639695123940421
100
AcDbArc
 50
195.0618917771015
 51
275.1581447696745
  0
ARC
  5
1E0
102
{ACAD_REACTORS
330
244
330
245
102
}
330
71
100
AcDbEntity
  8
0
  6
Continuous
 62
     2
100
AcDbCircle
 10
-940.7599424853153
 20
-1135.098852188273
 30
0.0
 40
1.055365641333083
100
AcDbArc
 50
270.0
 51
90.0
  0
ARC
  5
1E1
102
{ACAD_REACTORS
330
24A
330
24B
102
}
330
71
100
AcDbEntity
  8
0
  6
Continuous
 62
     2
100
AcDbCircle
 10
-948.5399935935707
 20
-1139.428214068291
 30
0.0
 40
0.3157169230756836
100
AcDbArc
 50
180.0
 51
270.0
  0
ARC
  5
1E2
102
{ACAD_REACTORS
330
24A
330
24B
102
}
330
71
100
AcDbEntity
  8
0
  6
Continuous
 62
     2
100
AcDbCircle
 10
-947.0641603325612
 20
-1135.071759025574
 30
0.0
 40
0.3157169230767067
100
AcDbArc
 50
0.0
 51
90.0
  0
ARC
  5
1E3
102
{ACAD_REACTORS
330
24A
330
24B
102
}
330
71
100
AcDbEntity
  8
0
  6
Continuous
 62
     2
100
AcDbCircle
 10
-947.0641603325612
 20
-1135.675783644634
 30
0.0
 40
0.315716923076323
100
AcDbArc
 50
295.1944106485452
 51
0.0
  0
ARC
  5
1E4
102
{ACAD_REACTORS
330
24A
330
24B
102
}
330
71
100
AcDbEntity
  8
0
  6
Continuous
 62
     2
100
AcDbCircle
 10
-947.0641603325612
 20
-1139.428214068291
 30
0.0
 40
0.3157169230769341
100
AcDbArc
 50
270.0
 51
0.0
  0
ARC
  5
1E5
102
{ACAD_REACTORS
330
24A
330
24B
102
}
330
71
100
AcDbEntity
  8
0
  6
Continuous
 62
     2
100
AcDbCircle
 10
-949.1338882703172
 20
-1134.467731162341
 30
0.0
 40
0.424244615383941
100
AcDbArc
 50
90.0
 51
180.0
  0
ARC
  5
1E6
102
{ACAD_REACTORS
330
24A
330
24B
102
}
330
71
100
AcDbEntity
  8
0
  6
Continuous
 62
     2
100
AcDbCircle
 10
-943.6605761796003
 20
-1134.467731162341
 30
0.0
 40
0.4242446153838273
100
AcDbArc
 50
0.0
 51
90.0
  0
ARC
  5
1E7
102
{ACAD_REACTORS
330
24A
330
24B
102
}
330
71
100
AcDbEntity
  8
0
  6
Continuous
 62
     2
100
AcDbCircle
 10
-943.6605761796003
 20
-1140.032241931541
 30
0.0
 40
0.424244615383941
100
AcDbArc
 50
270.0
 51
0.0
  0
ARC
  5
1E8
102
{ACAD_REACTORS
330
248
330
249
102
}
330
71
100
AcDbEntity
  8
0
  6
Continuous
 62
     2
100
AcDbCircle
 10
-934.4421922925088
 20
-1135.570391308845
 30
0.0
 40
0.7717997786795957
100
AcDbArc
 50
321.8795802028306
 51
38.1204197971694
  0
ARC
  5
1E9
102
{ACAD_REACTORS
330
248
330
249
102
}
330
71
100
AcDbEntity
  8
0
  6
Continuous
 62
     2
100
AcDbCircle
 10
-934.2424522561627
 20
-1135.727122486965
 30
0.0
 40
0.5179085730138424
100
AcDbArc
 50
218.1204197971879
 51
321.8795802028044
  0
ARC
  5
1EA
102
{ACAD_REACTORS
330
246
330
247
102
}
330
71
100
AcDbEntity
  8
0
  6
Continuous
 62
     2
100
AcDbCircle
 10
-937.922459845123
 20
-1138.929581785019
 30
0.0
 40
1.458034083652319
100
AcDbArc
 50
297.5481481756983
 51
62.45185182428927
  0
ARC
  5
1EB
102
{ACAD_REACTORS
330
246
330
247
102
}
330
71
100
AcDbEntity
  8
0
  6
Continuous
 62
     2
100
AcDbCircle
 10
-938.4843396287895
 20
-1138.929581785019
 30
0.0
 40
1.458034083651189
100
AcDbArc
 50
117.5481481756711
 51
242.4518518243412
  0
ARC
  5
1EC
102
{ACAD_REACTORS
330
246
330
247
102
}
330
71
100
AcDbEntity
  8
0
  6
Continuous
 62
     2
100
AcDbCircle
 10
-938.2033997369562
 20
-1139.468156795322
 30
0.0
 40
2.065479772208441
100
AcDbArc
 50
62.45185182430455
 51
117.5481481756703
  0
ARC
  5
1ED
102
{ACAD_REACTORS
330
246
330
247
102
}
330
71
100
AcDbEntity
  8
0
  6
Continuous
 62
     2
100
AcDbCircle
 10
-938.2033997369562
 20
-1138.391006774716
 30
0.0
 40
2.065479772208573
100
AcDbArc
 50
242.4518518243384
 51
297.5481481756867
  0
ARC
  5
1EE
102
{ACAD_REACTORS
330
248
330
249
102
}
330
71
100
AcDbEntity
  8
0
  6
Continuous
 62
     2
100
AcDbCircle
 10
-934.0427122198164
 20
-1135.570391308845
 30
0.0
 40
0.7717997786797746
100
AcDbArc
 50
141.879580202841
 51
218.120419797159
  0
ARC
  5
1EF
102
{ACAD_REACTORS
330
248
330
249
102
}
330
71
100
AcDbEntity
  8
0
  6
Continuous
 62
     2
100
AcDbCircle
 10
-934.2424522561627
 20
-1135.413660130724
 30
0.0
 40
0.5179085730131915
100
AcDbArc
 50
38.12041979711647
 51
141.8795802028913
  0
ARC
  5
1F0
102
{ACAD_REACTORS
330
24A
330
24B
102
}
330
71
100
AcDbEntity
  8
0
  6
Continuous
 62
     2
100
AcDbCircle
 10
-949.1338882703172
 20
-1140.032241931541
 30
0.0
 40
0.4242446153828041
100
AcDbArc
 50
180.0
 51
270.0
  0
ARC
  5
1F1
102
{ACAD_REACTORS
330
24A
330
24B
102
}
330
71
100
AcDbEntity
  8
0
  6
Continuous
 62
     2
100
AcDbCircle
 10
-947.0641603325612
 20
-1137.897443136759
 30
0.0
 40
0.3157169230767067
100
AcDbArc
 50
0.0
 51
64.80558935138451
  0
ARC
  5
1F2
102
{ACAD_REACTORS
330
24A
330
24B
102
}
330
71
100
AcDbEntity
  8
0
  6
Continuous
 62
     2
100
AcDbCircle
 10
-946.5415758849862
 20
-1136.786613390696
 30
0.0
 40
0.9118975235571412
100
AcDbArc
 50
115.1944106485363
 51
244.8055893515184
  0
ARC
  5
1F3
102
{ACAD_REACTORS
330
24A
330
24B
102
}
330
71
100
AcDbEntity
  8
0
  6
Continuous
 62
     2
100
AcDbCircle
 10
-948.5399935935707
 20
-1135.071759025574
 30
0.0
 40
0.3157169230760246
100
AcDbArc
 50
90.0
 51
180.0
  0
ARC
  5
1F4
102
{ACAD_REACTORS
330
244
330
245
102
}
330
71
100
AcDbEntity
  8
0
  6
Continuous
 62
     2
100
AcDbCircle
 10
-941.2014150115536
 20
-1135.05945621705
 30
0.0
 40
0.3528638246709761
100
AcDbArc
 50
270.0
 51
90.0
  0
ARC
  5
1F5
102
{ACAD_REACTORS
330
248
330
249
102
}
330
71
100
AcDbEntity
  8
0
  6
Continuous
 62
     2
100
AcDbCircle
 10
-934.4587242663279
 20
-1135.570391308845
 30
0.0
 40
1.526904761906053
100
AcDbArc
 50
90.0
 51
270.0
  0
ARC
  5
1F6
102
{ACAD_REACTORS
330
24C
330
24D
102
}
330
71
100
AcDbEntity
  8
0
  6
Continuous
 62
     2
100
AcDbCircle
 10
-925.0317291736242
 20
-1139.042372147054
 30
0.0
 40
1.639695123940101
100
AcDbArc
 50
90.0
 51
164.9381082228985
  0
ARC
  5
1F7
102
{ACAD_REACTORS
330
24C
330
24D
102
}
330
71
100
AcDbEntity
  8
0
  6
Continuous
 62
     2
100
AcDbCircle
 10
-925.4508570170858
 20
-1138.929581785019
 30
0.0
 40
1.205656168392903
100
AcDbArc
 50
164.9381082229099
 51
195.0618917770796
  0
ARC
  5
1F8
102
{ACAD_REACTORS
330
24C
330
24D
102
}
330
71
100
AcDbEntity
  8
0
  6
Continuous
 62
     2
100
AcDbCircle
 10
-924.9009846923084
 20
-1139.134653214358
 30
0.0
 40
0.5115800601959901
100
AcDbArc
 50
208.5214732576668
 51
246.6277221118294
  0
ARC
  5
1F9
102
{ACAD_REACTORS
330
24C
330
24D
102
}
330
71
100
AcDbEntity
  8
0
  6
Continuous
 62
     2
100
AcDbCircle
 10
-924.9009846923084
 20
-1138.72451035568
 30
0.0
 40
0.5115800601937612
100
AcDbArc
 50
109.3371432195076
 51
151.4785267424451
  0
ARC
  5
1FA
102
{ACAD_REACTORS
330
24A
330
24B
102
}
330
71
100
AcDbEntity
  8
0
  6
Continuous
 62
     2
100
AcDbCircle
 10
-945.9644449070389
 20
-1138.47760639736
 30
0.0
 40
0.3157169230768204
100
AcDbArc
 50
180.0
 51
269.8110329574179
  0
ARC
  5
1FB
102
{ACAD_REACTORS
330
24A
330
24B
102
}
330
71
100
AcDbEntity
  8
0
  6
Continuous
 62
     2
100
AcDbCircle
 10
-945.9588287717289
 20
-1136.774771449791
 30
0.0
 40
2.018561131933152
100
AcDbArc
 50
269.811032957581
 51
90.18896704241901
  0
ARC
  5
1FC
102
{ACAD_REACTORS
330
24A
330
24B
102
}
330
71
100
AcDbEntity
  8
0
  6
Continuous
 62
     2
100
AcDbCircle
 10
-945.9644449070389
 20
-1135.677471790729
 30
0.0
 40
0.3157169230768204
100
AcDbArc
 50
180.0
 51
244.6259913216126
  0
ARC
  5
1FD
102
{ACAD_REACTORS
330
24A
330
24B
102
}
330
71
100
AcDbEntity
  8
0
  6
Continuous
 62
     2
100
AcDbCircle
 10
-945.9644449070389
 20
-1137.895754990665
 30
0.0
 40
0.3157169230770072
100
AcDbArc
 50
115.3740086783167
 51
180.0
  0
ARC
  5
1FE
102
{ACAD_REACTORS
330
24E
330
24F
102
}
330
71
100
AcDbEntity
  8
0
  6
Continuous
 62
     2
100
AcDbCircle
 10
-941.134430652877
 20
-1139.042372147054
 30
0.0
 40
1.63969512394044
100
AcDbArc
 50
84.84185523036614
 51
164.9381082228913
  0
ARC
  5
1FF
102
{ACAD_REACTORS
330
24E
330
24F
102
}
330
71
100
AcDbEntity
  8
0
  6
Continuous
 62
     2
100
AcDbCircle
 10
-941.5535584963399
 20
-1138.929581785019
 30
0.0
 40
1.205656168390927
100
AcDbArc
 50
164.9381082228846
 51
195.0618917771049
  0
ARC
  5
200
102
{ACAD_REACTORS
330
24E
330
24F
102
}
330
71
100
AcDbEntity
  8
0
  6
Continuous
 62
     2
100
AcDbCircle
 10
-941.134430652877
 20
-1138.816791422984
 30
0.0
 40
1.639695123939652
100
AcDbArc
 50
195.0618917771087
 51
275.1581447696339
  0
ARC
  5
201
102
{ACAD_REACTORS
330
24E
330
24F
102
}
330
71
100
AcDbEntity
  8
0
  6
Continuous
 62
     2
100
AcDbCircle
 10
-941.4232867476129
 20
-1135.616900839763
 30
0.0
 40
4.852596863497932
100
AcDbArc
 50
275.1581447696242
 51
285.9799912583526
  0
ARC
  5
202
102
{ACAD_REACTORS
330
24E
330
24F
102
}
330
71
100
AcDbEntity
  8
0
  6
Continuous
 62
     2
100
AcDbCircle
 10
-940.626328913481
 20
-1138.929581785019
 30
0.0
 40
0.9410597353329787
100
AcDbArc
 50
151.478526742305
 51
208.521473257695
  0
ARC
  5
203
102
{ACAD_REACTORS
330
24E
330
24F
102
}
330
71
100
AcDbEntity
  8
0
  6
Continuous
 62
     2
100
AcDbCircle
 10
-941.0036861715613
 20
-1138.72451035568
 30
0.0
 40
0.5115800601943187
100
AcDbArc
 50
113.3722778882227
 51
151.4785267423843
  0
ARC
  5
204
102
{ACAD_REACTORS
330
24E
330
24F
102
}
330
71
100
AcDbEntity
  8
0
  6
Continuous
 62
     2
100
AcDbCircle
 10
-941.2654138725202
 20
-1140.340048150427
 30
0.0
 40
2.227384008973766
100
AcDbArc
 50
58.06909105003847
 51
71.5519238818626
  0
ARC
  5
205
102
{ACAD_REACTORS
330
246
330
247
102
}
330
71
100
AcDbEntity
  8
0
  6
Continuous
 62
     2
100
AcDbCircle
 10
-938.2033997369562
 20
-1138.772850606899
 30
0.0
 40
0.517908573013574
100
AcDbArc
 50
38.12041979721116
 51
141.8795802028121
  0
ARC
  5
206
102
{ACAD_REACTORS
330
246
330
247
102
}
330
71
100
AcDbEntity
  8
0
  6
Continuous
 62
     2
100
AcDbCircle
 10
-938.0036597006101
 20
-1138.929581785019
 30
0.0
 40
0.7717997786795957
100
AcDbArc
 50
141.8795802028306
 51
218.1204197971561
  0
ARC
  5
207
102
{ACAD_REACTORS
330
246
330
247
102
}
330
71
100
AcDbEntity
  8
0
  6
Continuous
 62
     2
100
AcDbCircle
 10
-938.2033997369562
 20
-1139.086312963139
 30
0.0
 40
0.517908573013702
100
AcDbArc
 50
218.1204197971681
 51
321.8795802028087
  0
ARC
  5
208
102
{ACAD_REACTORS
330
246
330
247
102
}
330
71
100
AcDbEntity
  8
0
  6
Continuous
 62
     2
100
AcDbCircle
 10
-938.4031397733025
 20
-1138.929581785019
 30
0.0
 40
0.7717997786794554
100
AcDbArc
 50
321.8795802028439
 51
38.1204197971694
  0
CIRCLE
  5
209
330
71
100
AcDbEntity
  8
1
  6
Continuous
 62
     2
100
AcDbCircle
 10
-941.0581328857
 20
-1126.624986546941
 30
0.0
 40
2.5
  0
CIRCLE
  5
20A
330
71
100
AcDbEntity
  8
1
  6
Continuous
 62
     2
100
AcDbCircle
 10
-941.0581328857
 20
-1126.624986546941
 30
0.0
 40
1.25
  0
CIRCLE
  5
20B
102
{ACAD_REACTORS
330
24A
330
24B
102
}
330
71
100
AcDbEntity
  8
0
  6
Continuous
 62
     2
100
AcDbCircle
 10
-946.5143026197997
 20
-1136.786613390696
 30
0.0
 40
0.4709789327785074
  0
MTEXT
  5
20C
330
71
100
AcDbEntity
  8
1
 62
     3
100
AcDbMText
 10
-1220.82730993416
 20
-1147.72307244744
 30
0.0
 40
1.8
 41
0.0
 71
     7
 72
     1
  3
Weitergabe sowie Vervielf\U+00e4ltigung dieses Dokuments, Verwertung und \PMitteilung seines Inhalts sind verboten, soweit nicht ausdr\U+00fccklich gestattet. \PZuwiderhandlungen verpflichten zu Schadenersatz. Alle Rechte f\U+00fcr den Fall\Pder Pat
  1
ent-, Gebrauchsmuster- oder Designeintragung vorbehalten.
  7
CONVERTER_11
 11
0.0
 21
1.0
 31
0.0
 73
     1
 44
0.99639855942377
  0
MTEXT
  5
20D
330
71
100
AcDbEntity
  8
1
 62
     3
100
AcDbMText
 10
-1220.981516245253
 20
-974.7637024332865
 30
0.0
 40
1.8
 41
0.0
 71
     7
 72
     1
  3
Transfer or duplication of this document as well as the utilisation or\Pcommunication of its content are not permitted unless express consent\Pis granted. Violations give rise to claims for damages. All rights reserved\Pin case of patent, utility mo
  1
del or design patent registrations.
  7
CONVERTER_11
 11
0.0
 21
1.0
 31
0.0
 73
     1
 44
0.99639855942377
  0
TEXT
  5
20E
330
71
100
AcDbEntity
  8
1
 62
     2
100
AcDbText
 10
-934.5947877722627
 20
-1146.509003761932
 30
0.0
 40
1.8
  1
of
 41
0.9
  7
CONVERTER_11
100
AcDbText
  0
TEXT
  5
20F
330
71
100
AcDbEntity
  8
1
 62
     2
100
AcDbText
 10
-952.7947877722626
 20
-1146.509003761933
 30
0.0
 40
1.8
  1
page
 41
0.9
  7
CONVERTER_11
100
AcDbText
  0
TEXT
  5
210
330
71
100
AcDbEntity
  8
1
 62
     2
100
AcDbText
 10
-944.1485228019205
 20
-1146.549235200743
 30
0.0
 40
1.8
  1
1
 41
0.9
  7
CONVERTER_11
100
AcDbText
  0
TEXT
  5
211
330
71
100
AcDbEntity
  8
1
 62
     2
100
AcDbText
 10
-929.359478962449
 20
-1146.499986546941
 30
0.0
 40
1.8
  1
1
 41
0.9
  7
CONVERTER_11
100
AcDbText
  0
MTEXT
  5
213
330
71
100
AcDbEntity
  8
1
 62
     7
100
AcDbMText
 10
-870.8223855088871
 20
-1144.499986546941
 30
0.0
 40
3.0
 41
0.0
 71
     5
 72
     1
  1
ZB 22:UNBEDRUCKT
  7
CONVERTER_12
 73
     1
 44
1.20048019207683
  0
MTEXT
  5
214
330
71
100
AcDbEntity
  8
1
 62
     2
100
AcDbMText
 10
-916.3947877722626
 20
-1140.249986546941
 30
0.0
 40
1.8
 41
0.0
 71
     1
 72
     1
  1
description
  7
CONVERTER_11
 73
     1
 44
1.20048019207683
  0
MTEXT
  5
215
330
71
100
AcDbEntity
  8
1
 62
     3
100
AcDbMText
 10
-927.5947877722626
 20
-1126.624986546941
 30
0.0
 40
2.5
 41
0.0
 71
     5
 72
     1
  1
DIN A3
  7
CONVERTER_11
 73
     1
 44
1.20048019207683
  0
MTEXT
  5
216
330
71
100
AcDbEntity
  8
1
 62
     2
100
AcDbMText
 10
-988.2058110414721
 20
-1134.999986546942
 30
0.0
 40
2.0
 41
0.0
 71
     5
 72
     1
  1
General Information\P- Simplified representation\P- Document excluded from change process\P- Linear dimensions [mm]
  7
CONVERTER_11
 73
     1
 44
1.20048019207683
  0
TEXT
  5
217
330
71
100
AcDbEntity
  8
1
 62
     7
100
AcDbText
 10
-915.8947877722628
 20
-1137.949986546941
 30
0.0
 40
2.5
  1
0811862
 41
0.81
  7
CONVERTER_12
100
AcDbText
  0
MTEXT
  5
218
330
71
100
AcDbEntity
  8
1
 62
     2
100
AcDbMText
 10
-916.2947877722627
 20
-1131.749986546941
 30
0.0
 40
1.8
 41
0.0
 71
     1
 72
     1
  1
ident.-No.
  7
CONVERTER_11
 73
     1
 44
1.20048019207683
  0
MTEXT
  5
219
330
71
100
AcDbEntity
  8
1
 62
     2
100
AcDbMText
 10
-832.0683915271899
 20
-1123.249986546941
 30
0.0
 40
1.8
 41
0.0
 71
     1
 72
     1
  1
scale
  7
CONVERTER_11
 73
     1
 44
1.20048019207683
  0
MTEXT
  5
21B
330
71
100
AcDbEntity
  8
1
 62
     3
100
AcDbMText
 10
-828.7091873863503
 20
-1129.449986546941
 30
0.0
 40
2.5
 41
0.0
 71
     8
 72
     1
  1
5:1
  7
CONVERTER_13
 73
     1
 44
1.32052821128451
  0
TEXT
  5
21C
330
71
100
AcDbEntity
  8
1
 62
     7
100
AcDbText
 10
-916.2947877722627
 20
-1129.449986546941
 30
0.0
 40
2.5
  1
01097894
 41
0.81
  7
CONVERTER_12
100
AcDbText
  0
MTEXT
  5
21E
330
71
100
AcDbEntity
  8
1
 62
     2
100
AcDbMText
 10
-916.2947877722627
 20
-1123.249986546941
 30
0.0
 40
1.8
 41
0.0
 71
     1
 72
     1
  1
document-No. / RI
  7
CONVERTER_14
 73
     1
 44
1.32052821128451
  0
TEXT
  5
21F
330
71
100
AcDbEntity
  8
1
 62
     3
100
AcDbText
 10
-888.4947877722626
 20
-1137.949986546941
 30
0.0
 40
2.5
  1
TECDOC 2D_Productdrawing
 41
0.81
  7
CONVERTER_12
100
AcDbText
  0
MTEXT
  5
220
330
71
100
AcDbEntity
  8
1
 62
     2
100
AcDbMText
 10
-888.4947877722626
 20
-1131.749986546941
 30
0.0
 40
1.8
 41
0.0
 71
     1
 72
     1
  1
document-type
  7
CONVERTER_11
 73
     1
 44
1.20048019207683
  0
MTEXT
  5
221
330
71
100
AcDbEntity
  8
1
 62
     2
100
AcDbMText
 10
-858.6683915271897
 20
-1123.249986546941
 30
0.0
 40
1.8
 41
0.0
 71
     1
 72
     1
  1
date
  7
CONVERTER_11
 73
     1
 44
1.32052821128451
  0
TEXT
  5
222
330
71
100
AcDbEntity
  8
1
 62
     3
100
AcDbText
 10
-858.6683915271897
 20
-1129.449986546941
 30
0.0
 40
2.5
  1
03.04.2018
 41
0.81
  7
CONVERTER_12
100
AcDbText
  0
TEXT
  5
223
330
71
100
AcDbEntity
  8
1
 62
     7
100
AcDbText
 10
-896.2648755532068
 20
-1129.449986546941
 30
0.0
 40
2.5
  1
00
 41
0.81
  7
CONVERTER_12
100
AcDbText
  0
TEXT
  5
224
330
71
100
AcDbEntity
  8
1
 62
     7
100
AcDbText
 10
-898.4212400502488
 20
-1129.449986546941
 30
0.0
 40
2.5
  1
/
 41
0.9
  7
CONVERTER_11
100
AcDbText
  0
TEXT
  5
225
330
71
100
AcDbEntity
  8
1
 62
     7
100
AcDbText
 10
-1201.249983245512
 20
-859.74998654694
 30
0.0
 40
2.5
  1
1
 41
0.9
  7
CONVERTER_11
100
AcDbText
  0
TEXT
  5
226
330
71
100
AcDbEntity
  8
1
 62
     7
100
AcDbText
 10
-1132.916649912179
 20
-859.74998654694
 30
0.0
 40
2.5
  1
2
 41
0.9
  7
CONVERTER_11
100
AcDbText
  0
TEXT
  5
227
330
71
100
AcDbEntity
  8
1
 62
     7
100
AcDbText
 10
-1064.583316578846
 20
-859.74998654694
 30
0.0
 40
2.5
  1
3
 41
0.9
  7
CONVERTER_11
100
AcDbText
  0
TEXT
  5
228
330
71
100
AcDbEntity
  8
1
 62
     7
100
AcDbText
 10
-996.2499832455126
 20
-859.74998654694
 30
0.0
 40
2.5
  1
4
 41
0.9
  7
CONVERTER_11
100
AcDbText
  0
TEXT
  5
229
330
71
100
AcDbEntity
  8
1
 62
     7
100
AcDbText
 10
-927.9166499121792
 20
-859.74998654694
 30
0.0
 40
2.5
  1
5
 41
0.9
  7
CONVERTER_11
100
AcDbText
  0
TEXT
  5
22A
330
71
100
AcDbEntity
  8
1
 62
     7
100
AcDbText
 10
-859.583316578846
 20
-859.74998654694
 30
0.0
 40
2.5
  1
6
 41
0.9
  7
CONVERTER_11
100
AcDbText
  0
TEXT
  5
22B
330
71
100
AcDbEntity
  8
1
 62
     7
100
AcDbText
 10
-823.2499832455126
 20
-890.6499865469403
 30
0.0
 40
2.5
  1
A
 41
0.9
  7
CONVERTER_11
100
AcDbText
  0
TEXT
  5
22C
330
71
100
AcDbEntity
  8
1
 62
     7
100
AcDbText
 10
-823.2499832455126
 20
-948.0499865469402
 30
0.0
 40
2.5
  1
B
 41
0.9
  7
CONVERTER_11
100
AcDbText
  0
TEXT
  5
22D
330
71
100
AcDbEntity
  8
1
 62
     7
100
AcDbText
 10
-823.2499832455126
 20
-1005.44998654694
 30
0.0
 40
2.5
  1
C
 41
0.9
  7
CONVERTER_11
100
AcDbText
  0
TEXT
  5
22E
330
71
100
AcDbEntity
  8
1
 62
     7
100
AcDbText
 10
-823.2499832455126
 20
-1062.84998654694
 30
0.0
 40
2.5
  1
D
 41
0.9
  7
CONVERTER_11
100
AcDbText
  0
TEXT
  5
22F
330
71
100
AcDbEntity
  8
1
 62
     7
100
AcDbText
 10
-1132.916649912179
 20
-1151.74998654694
 30
0.0
 40
2.5
  1
2
 41
0.9
  7
CONVERTER_11
100
AcDbText
  0
TEXT
  5
230
330
71
100
AcDbEntity
  8
1
 62
     7
100
AcDbText
 10
-1201.249983245512
 20
-1151.74998654694
 30
0.0
 40
2.5
  1
1
 41
0.9
  7
CONVERTER_11
100
AcDbText
  0
TEXT
  5
231
330
71
100
AcDbEntity
  8
1
 62
     7
100
AcDbText
 10
-823.2499832455126
 20
-1120.24998654694
 30
0.0
 40
2.5
  1
E
 41
0.9
  7
CONVERTER_11
100
AcDbText
  0
TEXT
  5
232
330
71
100
AcDbEntity
  8
1
 62
     7
100
AcDbText
 10
-1064.583316578846
 20
-1151.74998654694
 30
0.0
 40
2.5
  1
3
 41
0.9
  7
CONVERTER_11
100
AcDbText
  0
TEXT
  5
233
330
71
100
AcDbEntity
  8
1
 62
     7
100
AcDbText
 10
-996.2499832455126
 20
-1151.74998654694
 30
0.0
 40
2.5
  1
4
 41
0.9
  7
CONVERTER_11
100
AcDbText
  0
TEXT
  5
234
330
71
100
AcDbEntity
  8
1
 62
     7
100
AcDbText
 10
-927.9166499121794
 20
-1151.74998654694
 30
0.0
 40
2.5
  1
5
 41
0.9
  7
CONVERTER_11
100
AcDbText
  0
TEXT
  5
235
330
71
100
AcDbEntity
  8
1
 62
     7
100
AcDbText
 10
-859.583316578846
 20
-1151.74998654694
 30
0.0
 40
2.5
  1
6
 41
0.9
  7
CONVERTER_11
100
AcDbText
  0
HATCH
  5
236
330
71
100
AcDbEntity
  8
1
  6
Continuous
 62
     2
100
AcDbHatch
 10
0.0
 20
0.0
 30
0.0
210
0.0
220
0.0
230
1.0
  2
CUSTOM0
 70
     0
 71
     1
 91
        1
 92
        1
 93
       12
 72
     1
 10
-936.1272870593015
 20
-1137.09729607075
 11
-937.3200797614679
 21
-1137.09729607075
 72
     1
 10
-937.3200797614679
 20
-1137.09729607075
 11
-937.3200797614679
 21
-1135.963023961906
 72
     1
 10
-937.3200797614679
 20
-1135.963023961906
 11
-938.3697373393753
 21
-1135.963023961906
 72
     1
 10
-938.3697373393753
 20
-1135.963023961906
 11
-938.3697373393753
 21
-1137.09729607075
 72
     1
 10
-938.3697373393753
 20
-1137.09729607075
 11
-939.5625300415419
 21
-1137.09729607075
 72
     1
 10
-939.5625300415419
 20
-1137.09729607075
 11
-939.5625300415419
 21
-1134.043486546939
 72
     1
 10
-939.5625300415419
 20
-1134.043486546939
 11
-938.3697373393753
 21
-1134.043486546939
 72
     1
 10
-938.3697373393753
 20
-1134.043486546939
 11
-938.3697373393753
 21
-1135.112319880274
 72
     1
 10
-938.3697373393753
 20
-1135.112319880274
 11
-937.3200797614679
 21
-1135.112319880274
 72
     1
 10
-937.3200797614679
 20
-1135.112319880274
 11
-937.3200797614679
 21
-1134.043486546939
 72
     1
 10
-937.3200797614679
 20
-1134.043486546939
 11
-936.1272870593015
 21
-1134.043486546939
 72
     1
 10
-936.1272870593015
 20
-1134.043486546939
 11
-936.1272870593015
 21
-1137.09729607075
 97
       12
330
15F
330
160
330
14A
330
149
330
148
330
15C
330
147
330
15D
330
15E
330
146
330
145
330
144
 75
     1
 76
     2
 52
45.0
 41
0.1
 77
     0
 78
     1
 53
45.0
 43
62.7811309658083
 44
-72.3161373035813
 45
-0.1414213562373095
 46
0.0
 79
     0
 98
        1
 10
0.0
 20
0.0
  0
HATCH
  5
237
330
71
100
AcDbEntity
  8
1
  6
Continuous
 62
     2
100
AcDbHatch
 10
0.0
 20
0.0
 30
0.0
210
0.0
220
0.0
230
1.0
  2
CUSTOM1
 70
     0
 71
     1
 91
        1
 92
        1
 93
       12
 72
     1
 10
-936.1272870593015
 20
-1137.09729607075
 11
-937.3200797614679
 21
-1137.09729607075
 72
     1
 10
-937.3200797614679
 20
-1137.09729607075
 11
-937.3200797614679
 21
-1135.963023961906
 72
     1
 10
-937.3200797614679
 20
-1135.963023961906
 11
-938.3697373393753
 21
-1135.963023961906
 72
     1
 10
-938.3697373393753
 20
-1135.963023961906
 11
-938.3697373393753
 21
-1137.09729607075
 72
     1
 10
-938.3697373393753
 20
-1137.09729607075
 11
-939.5625300415419
 21
-1137.09729607075
 72
     1
 10
-939.5625300415419
 20
-1137.09729607075
 11
-939.5625300415419
 21
-1134.043486546939
 72
     1
 10
-939.5625300415419
 20
-1134.043486546939
 11
-938.3697373393753
 21
-1134.043486546939
 72
     1
 10
-938.3697373393753
 20
-1134.043486546939
 11
-938.3697373393753
 21
-1135.112319880274
 72
     1
 10
-938.3697373393753
 20
-1135.112319880274
 11
-937.3200797614679
 21
-1135.112319880274
 72
     1
 10
-937.3200797614679
 20
-1135.112319880274
 11
-937.3200797614679
 21
-1134.043486546939
 72
     1
 10
-937.3200797614679
 20
-1134.043486546939
 11
-936.1272870593015
 21
-1134.043486546939
 72
     1
 10
-936.1272870593015
 20
-1134.043486546939
 11
-936.1272870593015
 21
-1137.09729607075
 97
       12
330
15F
330
160
330
14A
330
149
330
148
330
15C
330
147
330
15D
330
15E
330
146
330
145
330
144
 75
     1
 76
     2
 52
45.0
 41
0.1
 77
     0
 78
     1
 53
45.0
 43
62.7811309658083
 44
-72.3161373035813
 45
-0.1414213562373095
 46
0.0
 79
     0
 98
        1
 10
0.0
 20
0.0
  0
HATCH
  5
238
330
71
100
AcDbEntity
  8
1
  6
Continuous
 62
     2
100
AcDbHatch
 10
0.0
 20
0.0
 30
0.0
210
0.0
220
0.0
230
1.0
  2
CUSTOM2
 70
     0
 71
     1
 91
        1
 92
        1
 93
       10
 72
     1
 10
-933.8849877101131
 20
-1138.711452533319
 11
-935.1254921203661
 21
-1137.402677023113
 72
     1
 10
-935.1254921203661
 20
-1137.402677023113
 11
-936.3182848225337
 21
-1137.402677023113
 72
     1
 10
-936.3182848225337
 20
-1137.402677023113
 11
-936.3182848225337
 21
-1140.456486546925
 72
     1
 10
-936.3182848225337
 20
-1140.456486546925
 11
-935.1254921203661
 21
-1140.456486546925
 72
     1
 10
-935.1254921203661
 20
-1140.456486546925
 11
-935.1254921203661
 21
-1139.14771103672
 72
     1
 10
-935.1254921203661
 20
-1139.14771103672
 11
-933.8849877101131
 21
-1140.456486546925
 72
     1
 10
-933.8849877101131
 20
-1140.456486546925
 11
-932.6921950079468
 21
-1140.456486546925
 72
     1
 10
-932.6921950079468
 20
-1140.456486546925
 11
-932.6921950079468
 21
-1137.402677023113
 72
     1
 10
-932.6921950079468
 20
-1137.402677023113
 11
-933.8849877101131
 21
-1137.402677023113
 72
     1
 10
-933.8849877101131
 20
-1137.402677023113
 11
-933.8849877101131
 21
-1138.711452533319
 97
       10
330
16D
330
13D
330
13C
330
13F
330
168
330
169
330
13E
330
16A
330
16B
330
16C
 75
     1
 76
     2
 52
45.0
 41
0.1
 77
     0
 78
     1
 53
45.0
 43
62.7811309658083
 44
-72.3161373035813
 45
-0.1414213562373095
 46
0.0
 79
     0
 98
        1
 10
0.0
 20
0.0
  0
HATCH
  5
239
330
71
100
AcDbEntity
  8
1
  6
Continuous
 62
     2
100
AcDbHatch
 10
0.0
 20
0.0
 30
0.0
210
0.0
220
0.0
230
1.0
  2
CUSTOM3
 70
     0
 71
     1
 91
        1
 92
        1
 93
       10
 72
     1
 10
-933.8849877101131
 20
-1138.711452533319
 11
-935.1254921203661
 21
-1137.402677023113
 72
     1
 10
-935.1254921203661
 20
-1137.402677023113
 11
-936.3182848225337
 21
-1137.402677023113
 72
     1
 10
-936.3182848225337
 20
-1137.402677023113
 11
-936.3182848225337
 21
-1140.456486546925
 72
     1
 10
-936.3182848225337
 20
-1140.456486546925
 11
-935.1254921203661
 21
-1140.456486546925
 72
     1
 10
-935.1254921203661
 20
-1140.456486546925
 11
-935.1254921203661
 21
-1139.14771103672
 72
     1
 10
-935.1254921203661
 20
-1139.14771103672
 11
-933.8849877101131
 21
-1140.456486546925
 72
     1
 10
-933.8849877101131
 20
-1140.456486546925
 11
-932.6921950079468
 21
-1140.456486546925
 72
     1
 10
-932.6921950079468
 20
-1140.456486546925
 11
-932.6921950079468
 21
-1137.402677023113
 72
     1
 10
-932.6921950079468
 20
-1137.402677023113
 11
-933.8849877101131
 21
-1137.402677023113
 72
     1
 10
-933.8849877101131
 20
-1137.402677023113
 11
-933.8849877101131
 21
-1138.711452533319
 97
       10
330
16D
330
13D
330
13C
330
13F
330
168
330
169
330
13E
330
16A
330
16B
330
16C
 75
     1
 76
     2
 52
45.0
 41
0.1
 77
     0
 78
     1
 53
45.0
 43
62.7811309658083
 44
-72.3161373035813
 45
-0.1414213562373095
 46
0.0
 79
     0
 98
        1
 10
0.0
 20
0.0
  0
HATCH
  5
23A
330
71
100
AcDbEntity
  8
1
  6
Continuous
 62
     2
100
AcDbHatch
 10
0.0
 20
0.0
 30
0.0
210
0.0
220
0.0
230
1.0
  2
CUSTOM4
 70
     0
 71
     1
 91
        1
 92
        1
 93
       10
 72
     1
 10
-928.6365488896935
 20
-1135.352262057144
 11
-929.8770532999475
 21
-1134.043486546939
 72
     1
 10
-929.8770532999475
 20
-1134.043486546939
 11
-931.069846002114
 21
-1134.043486546939
 72
     1
 10
-931.069846002114
 20
-1134.043486546939
 11
-931.069846002114
 21
-1137.09729607075
 72
     1
 10
-931.069846002114
 20
-1137.09729607075
 11
-929.8770532999475
 21
-1137.09729607075
 72
     1
 10
-929.8770532999475
 20
-1137.09729607075
 11
-929.8770532999475
 21
-1135.788520560545
 72
     1
 10
-929.8770532999475
 20
-1135.788520560545
 11
-928.6365488896935
 21
-1137.09729607075
 72
     1
 10
-928.6365488896935
 20
-1137.09729607075
 11
-927.4437561875268
 21
-1137.09729607075
 72
     1
 10
-927.4437561875268
 20
-1137.09729607075
 11
-927.4437561875268
 21
-1134.043486546939
 72
     1
 10
-927.4437561875268
 20
-1134.043486546939
 11
-928.6365488896935
 21
-1134.043486546939
 72
     1
 10
-928.6365488896935
 20
-1134.043486546939
 11
-928.6365488896935
 21
-1135.352262057144
 97
       10
330
172
330
13A
330
139
330
173
330
138
330
16E
330
16F
330
170
330
171
330
13B
 75
     1
 76
     2
 52
45.0
 41
0.1
 77
     0
 78
     1
 53
45.0
 43
62.7811309658083
 44
-72.3161373035813
 45
-0.1414213562373095
 46
0.0
 79
     0
 98
        1
 10
0.0
 20
0.0
  0
HATCH
  5
23B
330
71
100
AcDbEntity
  8
1
  6
Continuous
 62
     2
100
AcDbHatch
 10
0.0
 20
0.0
 30
0.0
210
0.0
220
0.0
230
1.0
  2
CUSTOM5
 70
     0
 71
     1
 91
        1
 92
        1
 93
       10
 72
     1
 10
-928.6365488896935
 20
-1135.352262057144
 11
-929.8770532999475
 21
-1134.043486546939
 72
     1
 10
-929.8770532999475
 20
-1134.043486546939
 11
-931.069846002114
 21
-1134.043486546939
 72
     1
 10
-931.069846002114
 20
-1134.043486546939
 11
-931.069846002114
 21
-1137.09729607075
 72
     1
 10
-931.069846002114
 20
-1137.09729607075
 11
-929.8770532999475
 21
-1137.09729607075
 72
     1
 10
-929.8770532999475
 20
-1137.09729607075
 11
-929.8770532999475
 21
-1135.788520560545
 72
     1
 10
-929.8770532999475
 20
-1135.788520560545
 11
-928.6365488896935
 21
-1137.09729607075
 72
     1
 10
-928.6365488896935
 20
-1137.09729607075
 11
-927.4437561875268
 21
-1137.09729607075
 72
     1
 10
-927.4437561875268
 20
-1137.09729607075
 11
-927.4437561875268
 21
-1134.043486546939
 72
     1
 10
-927.4437561875268
 20
-1134.043486546939
 11
-928.6365488896935
 21
-1134.043486546939
 72
     1
 10
-928.6365488896935
 20
-1134.043486546939
 11
-928.6365488896935
 21
-1135.352262057144
 97
       10
330
172
330
13A
330
139
330
173
330
138
330
16E
330
16F
330
170
330
171
330
13B
 75
     1
 76
     2
 52
45.0
 41
0.1
 77
     0
 78
     1
 53
45.0
 43
62.7811309658083
 44
-72.3161373035813
 45
-0.1414213562373095
 46
0.0
 79
     0
 98
        1
 10
0.0
 20
0.0
  0
HATCH
  5
23C
330
71
100
AcDbEntity
  8
1
  6
Continuous
 62
     2
100
AcDbHatch
 10
0.0
 20
0.0
 30
0.0
210
0.0
220
0.0
230
1.0
  2
CUSTOM6
 70
     0
 71
     1
 91
        1
 92
        1
 93
        8
 72
     1
 10
-929.7340691065729
 20
-1137.402677023113
 11
-932.5490598836866
 21
-1137.402677023113
 72
     1
 10
-932.5490598836866
 20
-1137.402677023113
 11
-932.5490598836866
 21
-1138.187942329237
 72
     1
 10
-932.5490598836866
 20
-1138.187942329237
 11
-931.737960846212
 21
-1138.187942329237
 72
     1
 10
-931.737960846212
 20
-1138.187942329237
 11
-931.737960846212
 21
-1140.456486546925
 72
     1
 10
-931.737960846212
 20
-1140.456486546925
 11
-930.5451681440455
 21
-1140.456486546925
 72
     1
 10
-930.5451681440455
 20
-1140.456486546925
 11
-930.5451681440455
 21
-1138.187942329237
 72
     1
 10
-930.5451681440455
 20
-1138.187942329237
 11
-929.7340691065729
 21
-1138.187942329237
 72
     1
 10
-929.7340691065729
 20
-1138.187942329237
 11
-929.7340691065729
 21
-1137.402677023113
 97
        8
330
134
330
174
330
133
330
175
330
176
330
137
330
136
330
135
 75
     1
 76
     2
 52
45.0
 41
0.1
 77
     0
 78
     1
 53
45.0
 43
62.7811309658083
 44
-72.3161373035813
 45
-0.1414213562373095
 46
0.0
 79
     0
 98
        1
 10
0.0
 20
0.0
  0
HATCH
  5
23D
330
71
100
AcDbEntity
  8
1
  6
Continuous
 62
     2
100
AcDbHatch
 10
0.0
 20
0.0
 30
0.0
210
0.0
220
0.0
230
1.0
  2
CUSTOM7
 70
     0
 71
     1
 91
        1
 92
        1
 93
        8
 72
     1
 10
-929.7340691065729
 20
-1137.402677023113
 11
-932.5490598836866
 21
-1137.402677023113
 72
     1
 10
-932.5490598836866
 20
-1137.402677023113
 11
-932.5490598836866
 21
-1138.187942329237
 72
     1
 10
-932.5490598836866
 20
-1138.187942329237
 11
-931.737960846212
 21
-1138.187942329237
 72
     1
 10
-931.737960846212
 20
-1138.187942329237
 11
-931.737960846212
 21
-1140.456486546925
 72
     1
 10
-931.737960846212
 20
-1140.456486546925
 11
-930.5451681440455
 21
-1140.456486546925
 72
     1
 10
-930.5451681440455
 20
-1140.456486546925
 11
-930.5451681440455
 21
-1138.187942329237
 72
     1
 10
-930.5451681440455
 20
-1138.187942329237
 11
-929.7340691065729
 21
-1138.187942329237
 72
     1
 10
-929.7340691065729
 20
-1138.187942329237
 11
-929.7340691065729
 21
-1137.402677023113
 97
        8
330
134
330
174
330
133
330
175
330
176
330
137
330
136
330
135
 75
     1
 76
     2
 52
45.0
 41
0.1
 77
     0
 78
     1
 53
45.0
 43
62.7811309658083
 44
-72.3161373035813
 45
-0.1414213562373095
 46
0.0
 79
     0
 98
        1
 10
0.0
 20
0.0
  0
HATCH
  5
23E
330
71
100
AcDbEntity
  8
1
  6
Continuous
 62
     2
100
AcDbHatch
 10
0.0
 20
0.0
 30
0.0
210
0.0
220
0.0
230
1.0
  2
CUSTOM8
 70
     0
 71
     1
 91
        2
 92
        1
 93
        8
 72
     1
 10
-927.5956416506259
 20
-1140.456486546925
 11
-927.8071217041017
 21
-1139.915526002707
 72
     1
 10
-927.8071217041017
 20
-1139.915526002707
 11
-928.9395632807757
 21
-1139.915526002707
 72
     1
 10
-928.9395632807757
 20
-1139.915526002707
 11
-929.1510433342514
 21
-1140.456486546925
 72
     1
 10
-929.1510433342514
 20
-1140.456486546925
 11
-930.3915477445044
 21
-1140.456486546925
 72
     1
 10
-930.3915477445044
 20
-1140.456486546925
 11
-928.9935946975652
 21
-1137.402677023113
 72
     1
 10
-928.9935946975652
 20
-1137.402677023113
 11
-927.7530902873123
 21
-1137.402677023113
 72
     1
 10
-927.7530902873123
 20
-1137.402677023113
 11
-926.3551372403721
 21
-1140.456486546925
 72
     1
 10
-926.3551372403721
 20
-1140.456486546925
 11
-927.5956416506259
 21
-1140.456486546925
 97
        8
330
178
330
179
330
130
330
17A
330
12F
330
132
330
177
330
131
 92
       16
 93
        3
 72
     1
 10
-928.6735077296305
 20
-1139.2349627374
 11
-928.3733424924383
 21
-1138.467147771413
 72
     1
 10
-928.3733424924383
 20
-1138.467147771413
 11
-928.0731772552481
 21
-1139.2349627374
 72
     1
 10
-928.0731772552481
 20
-1139.2349627374
 11
-928.6735077296305
 21
-1139.2349627374
 97
        3
330
12E
330
17C
330
17B
 75
     1
 76
     2
 52
45.0
 41
0.1
 77
     0
 78
     1
 53
45.0
 43
62.7811309658083
 44
-72.3161373035813
 45
-0.1414213562373095
 46
0.0
 79
     0
 98
        1
 10
0.0
 20
0.0
  0
HATCH
  5
23F
330
71
100
AcDbEntity
  8
1
  6
Continuous
 62
     2
100
AcDbHatch
 10
0.0
 20
0.0
 30
0.0
210
0.0
220
0.0
230
1.0
  2
CUSTOM9
 70
     0
 71
     1
 91
        2
 92
        1
 93
        8
 72
     1
 10
-927.5956416506259
 20
-1140.456486546925
 11
-927.8071217041017
 21
-1139.915526002707
 72
     1
 10
-927.8071217041017
 20
-1139.915526002707
 11
-928.9395632807757
 21
-1139.915526002707
 72
     1
 10
-928.9395632807757
 20
-1139.915526002707
 11
-929.1510433342514
 21
-1140.456486546925
 72
     1
 10
-929.1510433342514
 20
-1140.456486546925
 11
-930.3915477445044
 21
-1140.456486546925
 72
     1
 10
-930.3915477445044
 20
-1140.456486546925
 11
-928.9935946975652
 21
-1137.402677023113
 72
     1
 10
-928.9935946975652
 20
-1137.402677023113
 11
-927.7530902873123
 21
-1137.402677023113
 72
     1
 10
-927.7530902873123
 20
-1137.402677023113
 11
-926.3551372403721
 21
-1140.456486546925
 72
     1
 10
-926.3551372403721
 20
-1140.456486546925
 11
-927.5956416506259
 21
-1140.456486546925
 97
        8
330
178
330
179
330
130
330
17A
330
12F
330
132
330
177
330
131
 92
       16
 93
        3
 72
     1
 10
-928.6735077296305
 20
-1139.2349627374
 11
-928.3733424924383
 21
-1138.467147771413
 72
     1
 10
-928.3733424924383
 20
-1138.467147771413
 11
-928.0731772552481
 21
-1139.2349627374
 72
     1
 10
-928.0731772552481
 20
-1139.2349627374
 11
-928.6735077296305
 21
-1139.2349627374
 97
        3
330
12E
330
17C
330
17B
 75
     1
 76
     2
 52
45.0
 41
0.1
 77
     0
 78
     1
 53
45.0
 43
62.7811309658083
 44
-72.3161373035813
 45
-0.1414213562373095
 46
0.0
 79
     0
 98
        1
 10
0.0
 20
0.0
  0
HATCH
  5
240
330
71
100
AcDbEntity
  8
1
  6
Continuous
 62
     2
100
AcDbHatch
 10
0.0
 20
0.0
 30
0.0
210
0.0
220
0.0
230
1.0
  2
CUSTOM10
 70
     0
 71
     1
 91
        1
 92
        1
 93
        4
 72
     1
 10
-925.96469323684
 20
-1137.09729607075
 11
-927.205197647093
 21
-1137.09729607075
 72
     1
 10
-927.205197647093
 20
-1137.09729607075
 11
-927.205197647093
 21
-1134.043486546939
 72
     1
 10
-927.205197647093
 20
-1134.043486546939
 11
-925.96469323684
 21
-1134.043486546939
 72
     1
 10
-925.96469323684
 20
-1134.043486546939
 11
-925.96469323684
 21
-1137.09729607075
 97
        4
330
12B
330
12D
330
17D
330
12C
 75
     1
 76
     2
 52
45.0
 41
0.1
 77
     0
 78
     1
 53
45.0
 43
62.7811309658083
 44
-72.3161373035813
 45
-0.1414213562373095
 46
0.0
 79
     0
 98
        1
 10
0.0
 20
0.0
  0
HATCH
  5
241
330
71
100
AcDbEntity
  8
1
  6
Continuous
 62
     2
100
AcDbHatch
 10
0.0
 20
0.0
 30
0.0
210
0.0
220
0.0
230
1.0
  2
CUSTOM11
 70
     0
 71
     1
 91
        1
 92
        1
 93
        4
 72
     1
 10
-925.96469323684
 20
-1137.09729607075
 11
-927.205197647093
 21
-1137.09729607075
 72
     1
 10
-927.205197647093
 20
-1137.09729607075
 11
-927.205197647093
 21
-1134.043486546939
 72
     1
 10
-927.205197647093
 20
-1134.043486546939
 11
-925.96469323684
 21
-1134.043486546939
 72
     1
 10
-925.96469323684
 20
-1134.043486546939
 11
-925.96469323684
 21
-1137.09729607075
 97
        4
330
12B
330
12D
330
17D
330
12C
 75
     1
 76
     2
 52
45.0
 41
0.1
 77
     0
 78
     1
 53
45.0
 43
62.7811309658083
 44
-72.3161373035813
 45
-0.1414213562373095
 46
0.0
 79
     0
 98
        1
 10
0.0
 20
0.0
  0
HATCH
  5
242
330
71
100
AcDbEntity
  8
1
  6
Continuous
 62
     2
100
AcDbHatch
 10
0.0
 20
0.0
 30
0.0
210
0.0
220
0.0
230
1.0
  2
CUSTOM12
 70
     0
 71
     1
 91
        1
 92
        1
 93
       12
 72
     1
 10
-921.7422070711692
 20
-1134.043486546939
 11
-923.0447367019358
 21
-1135.516437076975
 72
     1
 10
-923.0447367019358
 20
-1135.516437076975
 11
-921.6467836549955
 21
-1137.09729607075
 72
     1
 10
-921.6467836549955
 20
-1137.09729607075
 11
-923.0495078727438
 21
-1137.09729607075
 72
     1
 10
-923.0495078727438
 20
-1137.09729607075
 11
-923.7460988108093
 21
-1136.309564285456
 72
     1
 10
-923.7460988108093
 20
-1136.309564285456
 11
-924.4426897488751
 21
-1137.09729607075
 72
     1
 10
-924.4426897488751
 20
-1137.09729607075
 11
-925.8454139666231
 21
-1137.09729607075
 72
     1
 10
-925.8454139666231
 20
-1137.09729607075
 11
-924.4474609196828
 21
-1135.516437076975
 72
     1
 10
-924.4474609196828
 20
-1135.516437076975
 11
-925.7499905504503
 21
-1134.043486546939
 72
     1
 10
-925.7499905504503
 20
-1134.043486546939
 11
-924.3472663327011
 21
-1134.043486546939
 72
     1
 10
-924.3472663327011
 20
-1134.043486546939
 11
-923.7460988108093
 21
-1134.723309868495
 72
     1
 10
-923.7460988108093
 20
-1134.723309868495
 11
-923.1449312889165
 21
-1134.043486546939
 72
     1
 10
-923.1449312889165
 20
-1134.043486546939
 11
-921.7422070711692
 21
-1134.043486546939
 97
       12
330
126
330
125
330
124
330
181
330
182
330
17E
330
17F
330
12A
330
129
330
128
330
127
330
180
 75
     1
 76
     2
 52
45.0
 41
0.1
 77
     0
 78
     1
 53
45.0
 43
62.7811309658083
 44
-72.3161373035813
 45
-0.1414213562373095
 46
0.0
 79
     0
 98
        1
 10
0.0
 20
0.0
  0
HATCH
  5
243
330
71
100
AcDbEntity
  8
1
  6
Continuous
 62
     2
100
AcDbHatch
 10
0.0
 20
0.0
 30
0.0
210
0.0
220
0.0
230
1.0
  2
CUSTOM13
 70
     0
 71
     1
 91
        1
 92
        1
 93
       12
 72
     1
 10
-921.7422070711692
 20
-1134.043486546939
 11
-923.0447367019358
 21
-1135.516437076975
 72
     1
 10
-923.0447367019358
 20
-1135.516437076975
 11
-921.6467836549955
 21
-1137.09729607075
 72
     1
 10
-921.6467836549955
 20
-1137.09729607075
 11
-923.0495078727438
 21
-1137.09729607075
 72
     1
 10
-923.0495078727438
 20
-1137.09729607075
 11
-923.7460988108093
 21
-1136.309564285456
 72
     1
 10
-923.7460988108093
 20
-1136.309564285456
 11
-924.4426897488751
 21
-1137.09729607075
 72
     1
 10
-924.4426897488751
 20
-1137.09729607075
 11
-925.8454139666231
 21
-1137.09729607075
 72
     1
 10
-925.8454139666231
 20
-1137.09729607075
 11
-924.4474609196828
 21
-1135.516437076975
 72
     1
 10
-924.4474609196828
 20
-1135.516437076975
 11
-925.7499905504503
 21
-1134.043486546939
 72
     1
 10
-925.7499905504503
 20
-1134.043486546939
 11
-924.3472663327011
 21
-1134.043486546939
 72
     1
 10
-924.3472663327011
 20
-1134.043486546939
 11
-923.7460988108093
 21
-1134.723309868495
 72
     1
 10
-923.7460988108093
 20
-1134.723309868495
 11
-923.1449312889165
 21
-1134.043486546939
 72
     1
 10
-923.1449312889165
 20
-1134.043486546939
 11
-921.7422070711692
 21
-1134.043486546939
 97
       12
330
126
330
125
330
124
330
181
330
182
330
17E
330
17F
330
12A
330
129
330
128
330
127
330
180
 75
     1
 76
     2
 52
45.0
 41
0.1
 77
     0
 78
     1
 53
45.0
 43
62.7811309658083
 44
-72.3161373035813
 45
-0.1414213562373095
 46
0.0
 79
     0
 98
        1
 10
0.0
 20
0.0
  0
HATCH
  5
244
330
71
100
AcDbEntity
  8
1
  6
Continuous
 62
     2
100
AcDbHatch
 10
0.0
 20
0.0
 30
0.0
210
0.0
220
0.0
230
1.0
  2
CUSTOM14
 70
     0
 71
     1
 91
        2
 92
        1
 93
        6
 72
     1
 10
-940.7599424853153
 20
-1136.154217829606
 11
-941.5187100730957
 21
-1136.154217829606
 72
     1
 10
-941.5187100730957
 20
-1136.154217829606
 11
-941.5187100730957
 21
-1137.09729607075
 72
     1
 10
-941.5187100730957
 20
-1137.09729607075
 11
-942.7592144833496
 21
-1137.09729607075
 72
     1
 10
-942.7592144833496
 20
-1137.09729607075
 11
-942.7592144833496
 21
-1134.043486546939
 72
     1
 10
-942.7592144833496
 20
-1134.043486546939
 11
-940.7599424853153
 21
-1134.043486546939
 72
     2
 10
-940.7599424853153
 20
-1135.098852188273
 40
1.055365641333083
 50
270.0
 51
450.0
 73
     0
 97
        6
330
14E
330
14D
330
15A
330
159
330
14F
330
1E0
 92
       16
 93
        4
 72
     2
 10
-941.2014150115536
 20
-1135.05945621705
 40
0.3528638246709761
 50
270.0
 51
450.0
 73
     1
 72
     1
 10
-941.2014150115536
 20
-1134.706592392379
 11
-941.5187100730957
 21
-1134.706592392379
 72
     1
 10
-941.5187100730957
 20
-1134.706592392379
 11
-941.5187100730957
 21
-1135.412320041721
 72
     1
 10
-941.5187100730957
 20
-1135.412320041721
 11
-941.2014150115536
 21
-1135.412320041721
 97
        4
330
1F4
330
14B
330
15B
330
14C
 75
     1
 76
     2
 52
45.0
 41
0.1
 77
     0
 78
     1
 53
45.0
 43
62.7811309658083
 44
-72.3161373035813
 45
-0.1414213562373095
 46
0.0
 79
     0
 98
        1
 10
0.0
 20
0.0
  0
HATCH
  5
245
330
71
100
AcDbEntity
  8
1
  6
Continuous
 62
     2
100
AcDbHatch
 10
0.0
 20
0.0
 30
0.0
210
0.0
220
0.0
230
1.0
  2
CUSTOM15
 70
     0
 71
     1
 91
        2
 92
        1
 93
        6
 72
     1
 10
-940.7599424853153
 20
-1136.154217829606
 11
-941.5187100730957
 21
-1136.154217829606
 72
     1
 10
-941.5187100730957
 20
-1136.154217829606
 11
-941.5187100730957
 21
-1137.09729607075
 72
     1
 10
-941.5187100730957
 20
-1137.09729607075
 11
-942.7592144833496
 21
-1137.09729607075
 72
     1
 10
-942.7592144833496
 20
-1137.09729607075
 11
-942.7592144833496
 21
-1134.043486546939
 72
     1
 10
-942.7592144833496
 20
-1134.043486546939
 11
-940.7599424853153
 21
-1134.043486546939
 72
     2
 10
-940.7599424853153
 20
-1135.098852188273
 40
1.055365641333083
 50
270.0
 51
450.0
 73
     0
 97
        6
330
14E
330
14D
330
15A
330
159
330
14F
330
1E0
 92
       16
 93
        4
 72
     2
 10
-941.2014150115536
 20
-1135.05945621705
 40
0.3528638246709761
 50
270.0
 51
450.0
 73
     1
 72
     1
 10
-941.2014150115536
 20
-1134.706592392379
 11
-941.5187100730957
 21
-1134.706592392379
 72
     1
 10
-941.5187100730957
 20
-1134.706592392379
 11
-941.5187100730957
 21
-1135.412320041721
 72
     1
 10
-941.5187100730957
 20
-1135.412320041721
 11
-941.2014150115536
 21
-1135.412320041721
 97
        4
330
1F4
330
14B
330
15B
330
14C
 75
     1
 76
     2
 52
45.0
 41
0.1
 77
     0
 78
     1
 53
45.0
 43
62.7811309658083
 44
-72.3161373035813
 45
-0.1414213562373095
 46
0.0
 79
     0
 98
        1
 10
0.0
 20
0.0
  0
HATCH
  5
246
330
71
100
AcDbEntity
  8
1
  6
Continuous
 62
     2
100
AcDbHatch
 10
0.0
 20
0.0
 30
0.0
210
0.0
220
0.0
230
1.0
  2
CUSTOM16
 70
     0
 71
     1
 91
        2
 92
        1
 93
        4
 72
     2
 10
-938.2033997369562
 20
-1139.468156795322
 40
2.065479772208441
 50
62.45185182430455
 51
117.5481481756703
 73
     1
 72
     2
 10
-938.4843396287895
 20
-1138.929581785019
 40
1.458034083651189
 50
117.5481481756711
 51
242.4518518243412
 73
     1
 72
     2
 10
-938.2033997369562
 20
-1138.391006774716
 40
2.065479772208573
 50
242.4518518243384
 51
297.5481481756867
 73
     1
 72
     2
 10
-937.922459845123
 20
-1138.929581785019
 40
1.458034083652319
 50
297.5481481756983
 51
422.4518518242893
 73
     1
 97
        4
330
1EC
330
1EB
330
1ED
330
1EA
 92
       16
 93
        4
 72
     2
 10
-938.4031397733025
 20
-1138.929581785019
 40
0.7717997786794554
 50
321.8795802028439
 51
398.1204197971695
 73
     1
 72
     2
 10
-938.2033997369562
 20
-1138.772850606899
 40
0.517908573013574
 50
38.12041979721116
 51
141.8795802028121
 73
     1
 72
     2
 10
-938.0036597006101
 20
-1138.929581785019
 40
0.7717997786795957
 50
141.8795802028306
 51
218.1204197971561
 73
     1
 72
     2
 10
-938.2033997369562
 20
-1139.086312963139
 40
0.517908573013702
 50
218.1204197971681
 51
321.8795802028087
 73
     1
 97
        4
330
208
330
205
330
206
330
207
 75
     1
 76
     2
 52
45.0
 41
0.1
 77
     0
 78
     1
 53
45.0
 43
62.7811309658083
 44
-72.3161373035813
 45
-0.1414213562373095
 46
0.0
 79
     0
 98
        1
 10
0.0
 20
0.0
  0
HATCH
  5
247
330
71
100
AcDbEntity
  8
1
  6
Continuous
 62
     2
100
AcDbHatch
 10
0.0
 20
0.0
 30
0.0
210
0.0
220
0.0
230
1.0
  2
CUSTOM17
 70
     0
 71
     1
 91
        2
 92
        1
 93
        4
 72
     2
 10
-938.2033997369562
 20
-1139.468156795322
 40
2.065479772208441
 50
62.45185182430455
 51
117.5481481756703
 73
     1
 72
     2
 10
-938.4843396287895
 20
-1138.929581785019
 40
1.458034083651189
 50
117.5481481756711
 51
242.4518518243412
 73
     1
 72
     2
 10
-938.2033997369562
 20
-1138.391006774716
 40
2.065479772208573
 50
242.4518518243384
 51
297.5481481756867
 73
     1
 72
     2
 10
-937.922459845123
 20
-1138.929581785019
 40
1.458034083652319
 50
297.5481481756983
 51
422.4518518242893
 73
     1
 97
        4
330
1EC
330
1EB
330
1ED
330
1EA
 92
       16
 93
        4
 72
     2
 10
-938.4031397733025
 20
-1138.929581785019
 40
0.7717997786794554
 50
321.8795802028439
 51
398.1204197971695
 73
     1
 72
     2
 10
-938.2033997369562
 20
-1138.772850606899
 40
0.517908573013574
 50
38.12041979721116
 51
141.8795802028121
 73
     1
 72
     2
 10
-938.0036597006101
 20
-1138.929581785019
 40
0.7717997786795957
 50
141.8795802028306
 51
218.1204197971561
 73
     1
 72
     2
 10
-938.2033997369562
 20
-1139.086312963139
 40
0.517908573013702
 50
218.1204197971681
 51
321.8795802028087
 73
     1
 97
        4
330
208
330
205
330
206
330
207
 75
     1
 76
     2
 52
45.0
 41
0.1
 77
     0
 78
     1
 53
45.0
 43
62.7811309658083
 44
-72.3161373035813
 45
-0.1414213562373095
 46
0.0
 79
     0
 98
        1
 10
0.0
 20
0.0
  0
HATCH
  5
248
330
71
100
AcDbEntity
  8
1
  6
Continuous
 62
     2
100
AcDbHatch
 10
0.0
 20
0.0
 30
0.0
210
0.0
220
0.0
230
1.0
  2
CUSTOM18
 70
     0
 71
     1
 91
        2
 92
        1
 93
       12
 72
     1
 10
-931.3084045425469
 20
-1134.741500152382
 11
-932.6443323689746
 21
-1134.741500152382
 72
     1
 10
-932.6443323689746
 20
-1134.741500152382
 11
-932.6443323689746
 21
-1135.221384506124
 72
     1
 10
-932.6443323689746
 20
-1135.221384506124
 11
-931.3084045425469
 21
-1135.221384506124
 72
     1
 10
-931.3084045425469
 20
-1135.221384506124
 11
-931.3084045425469
 21
-1135.919398111566
 72
     1
 10
-931.3084045425469
 20
-1135.919398111566
 11
-932.6443323689746
 21
-1135.919398111566
 72
     1
 10
-932.6443323689746
 20
-1135.919398111566
 11
-932.6443323689746
 21
-1136.399282465308
 72
     1
 10
-932.6443323689746
 20
-1136.399282465308
 11
-931.3084045425469
 21
-1136.399282465308
 72
     1
 10
-931.3084045425469
 20
-1136.399282465308
 11
-931.3084045425469
 21
-1137.09729607075
 72
     1
 10
-931.3084045425469
 20
-1137.09729607075
 11
-934.4587242663279
 21
-1137.09729607075
 72
     2
 10
-934.4587242663279
 20
-1135.570391308845
 40
1.526904761906053
 50
90.0
 51
270.0
 73
     0
 72
     1
 10
-934.4587242663279
 20
-1134.043486546939
 11
-931.3084045425469
 21
-1134.043486546939
 72
     1
 10
-931.3084045425469
 20
-1134.043486546939
 11
-931.3084045425469
 21
-1134.741500152382
 97
       12
330
162
330
1F5
330
163
330
164
330
165
330
166
330
143
330
142
330
141
330
140
330
167
330
161
 92
       16
 93
        4
 72
     2
 10
-934.2424522561627
 20
-1135.413660130724
 40
0.5179085730131915
 50
38.12041979711647
 51
141.8795802028913
 73
     1
 72
     2
 10
-934.0427122198164
 20
-1135.570391308845
 40
0.7717997786797746
 50
141.879580202841
 51
218.120419797159
 73
     1
 72
     2
 10
-934.2424522561627
 20
-1135.727122486965
 40
0.5179085730138424
 50
218.1204197971879
 51
321.8795802028044
 73
     1
 72
     2
 10
-934.4421922925088
 20
-1135.570391308845
 40
0.7717997786795957
 50
321.8795802028306
 51
398.1204197971695
 73
     1
 97
        4
330
1EF
330
1EE
330
1E9
330
1E8
 75
     1
 76
     2
 52
45.0
 41
0.1
 77
     0
 78
     1
 53
45.0
 43
62.7811309658083
 44
-72.3161373035813
 45
-0.1414213562373095
 46
0.0
 79
     0
 98
        1
 10
0.0
 20
0.0
  0
HATCH
  5
249
330
71
100
AcDbEntity
  8
1
  6
Continuous
 62
     2
100
AcDbHatch
 10
0.0
 20
0.0
 30
0.0
210
0.0
220
0.0
230
1.0
  2
CUSTOM19
 70
     0
 71
     1
 91
        2
 92
        1
 93
       12
 72
     1
 10
-931.3084045425469
 20
-1134.741500152382
 11
-932.6443323689746
 21
-1134.741500152382
 72
     1
 10
-932.6443323689746
 20
-1134.741500152382
 11
-932.6443323689746
 21
-1135.221384506124
 72
     1
 10
-932.6443323689746
 20
-1135.221384506124
 11
-931.3084045425469
 21
-1135.221384506124
 72
     1
 10
-931.3084045425469
 20
-1135.221384506124
 11
-931.3084045425469
 21
-1135.919398111566
 72
     1
 10
-931.3084045425469
 20
-1135.919398111566
 11
-932.6443323689746
 21
-1135.919398111566
 72
     1
 10
-932.6443323689746
 20
-1135.919398111566
 11
-932.6443323689746
 21
-1136.399282465308
 72
     1
 10
-932.6443323689746
 20
-1136.399282465308
 11
-931.3084045425469
 21
-1136.399282465308
 72
     1
 10
-931.3084045425469
 20
-1136.399282465308
 11
-931.3084045425469
 21
-1137.09729607075
 72
     1
 10
-931.3084045425469
 20
-1137.09729607075
 11
-934.4587242663279
 21
-1137.09729607075
 72
     2
 10
-934.4587242663279
 20
-1135.570391308845
 40
1.526904761906053
 50
90.0
 51
270.0
 73
     0
 72
     1
 10
-934.4587242663279
 20
-1134.043486546939
 11
-931.3084045425469
 21
-1134.043486546939
 72
     1
 10
-931.3084045425469
 20
-1134.043486546939
 11
-931.3084045425469
 21
-1134.741500152382
 97
       12
330
162
330
1F5
330
163
330
164
330
165
330
166
330
143
330
142
330
141
330
140
330
167
330
161
 92
       16
 93
        4
 72
     2
 10
-934.2424522561627
 20
-1135.413660130724
 40
0.5179085730131915
 50
38.12041979711647
 51
141.8795802028913
 73
     1
 72
     2
 10
-934.0427122198164
 20
-1135.570391308845
 40
0.7717997786797746
 50
141.879580202841
 51
218.120419797159
 73
     1
 72
     2
 10
-934.2424522561627
 20
-1135.727122486965
 40
0.5179085730138424
 50
218.1204197971879
 51
321.8795802028044
 73
     1
 72
     2
 10
-934.4421922925088
 20
-1135.570391308845
 40
0.7717997786795957
 50
321.8795802028306
 51
398.1204197971695
 73
     1
 97
        4
330
1EF
330
1EE
330
1E9
330
1E8
 75
     1
 76
     2
 52
45.0
 41
0.1
 77
     0
 78
     1
 53
45.0
 43
62.7811309658083
 44
-72.3161373035813
 45
-0.1414213562373095
 46
0.0
 79
     0
 98
        1
 10
0.0
 20
0.0
  0
HATCH
  5
24A
330
71
100
AcDbEntity
  8
1
  6
Continuous
 62
     2
100
AcDbHatch
 10
0.0
 20
0.0
 30
0.0
210
0.0
220
0.0
230
1.0
  2
CUSTOM20
 70
     0
 71
     1
 91
        4
 92
        1
 93
        8
 72
     1
 10
-943.2363315642165
 20
-1134.467731162341
 11
-943.2363315642165
 21
-1140.032241931541
 72
     2
 10
-943.6605761796003
 20
-1140.032241931541
 40
0.424244615383941
 50
0.0
 51
90.0
 73
     0
 72
     1
 10
-943.6605761796003
 20
-1140.456486546925
 11
-949.1338882703172
 21
-1140.456486546925
 72
     2
 10
-949.1338882703172
 20
-1140.032241931541
 40
0.4242446153828041
 50
90.0
 51
180.0
 73
     0
 72
     1
 10
-949.5581328857
 20
-1140.032241931541
 11
-949.5581328857
 21
-1134.467731162341
 72
     2
 10
-949.1338882703172
 20
-1134.467731162341
 40
0.424244615383941
 50
180.0
 51
270.0
 73
     0
 72
     1
 10
-949.1338882703172
 20
-1134.043486546957
 11
-943.6605761796003
 21
-1134.043486546957
 72
     2
 10
-943.6605761796003
 20
-1134.467731162341
 40
0.4242446153838273
 50
270.0
 51
360.0
 73
     0
 97
        8
330
156
330
1E5
330
157
330
1F0
330
154
330
1E7
330
155
330
1E6
 92
       16
 93
       12
 72
     2
 10
-948.5399935935707
 20
-1139.428214068291
 40
0.3157169230756836
 50
180.0
 51
270.0
 73
     1
 72
     1
 10
-948.5399935935707
 20
-1139.743930991368
 11
-947.0641603325612
 21
-1139.743930991368
 72
     2
 10
-947.0641603325612
 20
-1139.428214068291
 40
0.3157169230769341
 50
270.0
 51
360.0
 73
     1
 72
     1
 10
-946.7484434094845
 20
-1139.428214068291
 11
-946.7484434094845
 21
-1137.897443136759
 72
     2
 10
-947.0641603325612
 20
-1137.897443136759
 40
0.3157169230767067
 50
0.0
 51
64.80558935138451
 73
     1
 72
     2
 10
-946.5415758849862
 20
-1136.786613390696
 40
0.9118975235571412
 50
115.1944106484816
 51
244.8055893514637
 73
     0
 72
     2
 10
-947.0641603325612
 20
-1135.675783644634
 40
0.315716923076323
 50
295.1944106485452
 51
360.0
 73
     1
 72
     1
 10
-946.7484434094845
 20
-1135.675783644634
 11
-946.7484434094845
 21
-1135.071759025574
 72
     2
 10
-947.0641603325612
 20
-1135.071759025574
 40
0.3157169230767067
 50
0.0
 51
90.0
 73
     1
 72
     1
 10
-947.0641603325612
 20
-1134.756042102498
 11
-948.5399935935707
 21
-1134.756042102498
 72
     2
 10
-948.5399935935707
 20
-1135.071759025574
 40
0.3157169230760246
 50
90.0
 51
180.0
 73
     1
 72
     1
 10
-948.8557105166464
 20
-1135.071759025574
 11
-948.8557105166464
 21
-1139.428214068291
 97
       12
330
1E1
330
158
330
1E4
330
153
330
1F1
330
1F2
330
1E3
330
152
330
1E2
330
151
330
1F3
330
150
 92
       16
 93
        8
 72
     2
 10
-945.9644449070389
 20
-1137.895754990665
 40
0.3157169230770072
 50
115.3740086783167
 51
180.0
 73
     1
 72
     1
 10
-946.2801618301157
 20
-1137.895754990665
 11
-946.2801618301157
 21
-1138.47760639736
 72
     2
 10
-945.9644449070389
 20
-1138.47760639736
 40
0.3157169230768204
 50
180.0
 51
269.8110329574179
 73
     1
 72
     2
 10
-945.9588287717289
 20
-1136.774771449791
 40
2.018561131933152
 50
269.811032957581
 51
450.188967042419
 73
     1
 72
     2
 10
-945.9644449070389
 20
-1135.071936502222
 40
0.3157169230760149
 50
90.18896704258206
 51
180.0
 73
     1
 72
     1
 10
-946.2801618301157
 20
-1135.071936502222
 11
-946.2801618301157
 21
-1135.677471790729
 72
     2
 10
-945.9644449070389
 20
-1135.677471790729
 40
0.3157169230768204
 50
180.0
 51
244.6259913216126
 73
     1
 72
     2
 10
-946.4904876051269
 20
-1136.786613390696
 40
0.9118481501445603
 50
295.374008678208
 51
424.6259913218226
 73
     0
 97
        8
330
1FD
330
11D
330
1FA
330
1FB
330
1D9
330
11C
330
1FC
330
1D8
 92
       16
 93
        1
 72
     2
 10
-946.5143026197997
 20
-1136.786613390696
 40
0.4709789327785074
 50
0.0
 51
360.0
 73
     1
 97
        1
330
20B
 75
     1
 76
     2
 52
45.0
 41
0.1
 77
     0
 78
     1
 53
45.0
 43
62.7811309658083
 44
-72.3161373035813
 45
-0.1414213562373095
 46
0.0
 79
     0
 98
        1
 10
0.0
 20
0.0
  0
HATCH
  5
24B
330
71
100
AcDbEntity
  8
1
  6
Continuous
 62
     2
100
AcDbHatch
 10
0.0
 20
0.0
 30
0.0
210
0.0
220
0.0
230
1.0
  2
CUSTOM21
 70
     0
 71
     1
 91
        4
 92
        1
 93
        8
 72
     1
 10
-943.2363315642165
 20
-1134.467731162341
 11
-943.2363315642165
 21
-1140.032241931541
 72
     2
 10
-943.6605761796003
 20
-1140.032241931541
 40
0.424244615383941
 50
0.0
 51
90.0
 73
     0
 72
     1
 10
-943.6605761796003
 20
-1140.456486546925
 11
-949.1338882703172
 21
-1140.456486546925
 72
     2
 10
-949.1338882703172
 20
-1140.032241931541
 40
0.4242446153828041
 50
90.0
 51
180.0
 73
     0
 72
     1
 10
-949.5581328857
 20
-1140.032241931541
 11
-949.5581328857
 21
-1134.467731162341
 72
     2
 10
-949.1338882703172
 20
-1134.467731162341
 40
0.424244615383941
 50
180.0
 51
270.0
 73
     0
 72
     1
 10
-949.1338882703172
 20
-1134.043486546957
 11
-943.6605761796003
 21
-1134.043486546957
 72
     2
 10
-943.6605761796003
 20
-1134.467731162341
 40
0.4242446153838273
 50
270.0
 51
360.0
 73
     0
 97
        8
330
156
330
1E5
330
157
330
1F0
330
154
330
1E7
330
155
330
1E6
 92
       16
 93
       12
 72
     2
 10
-948.5399935935707
 20
-1139.428214068291
 40
0.3157169230756836
 50
180.0
 51
270.0
 73
     1
 72
     1
 10
-948.5399935935707
 20
-1139.743930991368
 11
-947.0641603325612
 21
-1139.743930991368
 72
     2
 10
-947.0641603325612
 20
-1139.428214068291
 40
0.3157169230769341
 50
270.0
 51
360.0
 73
     1
 72
     1
 10
-946.7484434094845
 20
-1139.428214068291
 11
-946.7484434094845
 21
-1137.897443136759
 72
     2
 10
-947.0641603325612
 20
-1137.897443136759
 40
0.3157169230767067
 50
0.0
 51
64.80558935138451
 73
     1
 72
     2
 10
-946.5415758849862
 20
-1136.786613390696
 40
0.9118975235571412
 50
115.1944106484816
 51
244.8055893514637
 73
     0
 72
     2
 10
-947.0641603325612
 20
-1135.675783644634
 40
0.315716923076323
 50
295.1944106485452
 51
360.0
 73
     1
 72
     1
 10
-946.7484434094845
 20
-1135.675783644634
 11
-946.7484434094845
 21
-1135.071759025574
 72
     2
 10
-947.0641603325612
 20
-1135.071759025574
 40
0.3157169230767067
 50
0.0
 51
90.0
 73
     1
 72
     1
 10
-947.0641603325612
 20
-1134.756042102498
 11
-948.5399935935707
 21
-1134.756042102498
 72
     2
 10
-948.5399935935707
 20
-1135.071759025574
 40
0.3157169230760246
 50
90.0
 51
180.0
 73
     1
 72
     1
 10
-948.8557105166464
 20
-1135.071759025574
 11
-948.8557105166464
 21
-1139.428214068291
 97
       12
330
1E1
330
158
330
1E4
330
153
330
1F1
330
1F2
330
1E3
330
152
330
1E2
330
151
330
1F3
330
150
 92
       16
 93
        8
 72
     2
 10
-945.9644449070389
 20
-1137.895754990665
 40
0.3157169230770072
 50
115.3740086783167
 51
180.0
 73
     1
 72
     1
 10
-946.2801618301157
 20
-1137.895754990665
 11
-946.2801618301157
 21
-1138.47760639736
 72
     2
 10
-945.9644449070389
 20
-1138.47760639736
 40
0.3157169230768204
 50
180.0
 51
269.8110329574179
 73
     1
 72
     2
 10
-945.9588287717289
 20
-1136.774771449791
 40
2.018561131933152
 50
269.811032957581
 51
450.188967042419
 73
     1
 72
     2
 10
-945.9644449070389
 20
-1135.071936502222
 40
0.3157169230760149
 50
90.18896704258206
 51
180.0
 73
     1
 72
     1
 10
-946.2801618301157
 20
-1135.071936502222
 11
-946.2801618301157
 21
-1135.677471790729
 72
     2
 10
-945.9644449070389
 20
-1135.677471790729
 40
0.3157169230768204
 50
180.0
 51
244.6259913216126
 73
     1
 72
     2
 10
-946.4904876051269
 20
-1136.786613390696
 40
0.9118481501445603
 50
295.374008678208
 51
424.6259913218226
 73
     0
 97
        8
330
1FD
330
11D
330
1FA
330
1FB
330
1D9
330
11C
330
1FC
330
1D8
 92
       16
 93
        1
 72
     2
 10
-946.5143026197997
 20
-1136.786613390696
 40
0.4709789327785074
 50
0.0
 51
360.0
 73
     1
 97
        1
330
20B
 75
     1
 76
     2
 52
45.0
 41
0.1
 77
     0
 78
     1
 53
45.0
 43
62.7811309658083
 44
-72.3161373035813
 45
-0.1414213562373095
 46
0.0
 79
     0
 98
        1
 10
0.0
 20
0.0
  0
HATCH
  5
24C
330
71
100
AcDbEntity
  8
1
  6
Continuous
 62
     2
100
AcDbHatch
 10
0.0
 20
0.0
 30
0.0
210
0.0
220
0.0
230
1.0
  2
CUSTOM22
 70
     0
 71
     1
 91
        1
 92
        1
 93
       18
 72
     1
 10
-921.6467836549955
 20
-1138.187942329237
 11
-922.457882692469
 21
-1138.187942329237
 72
     1
 10
-922.457882692469
 20
-1138.187942329237
 11
-922.457882692469
 21
-1140.456486546925
 72
     1
 10
-922.457882692469
 20
-1140.456486546925
 11
-923.6506753946367
 21
-1140.456486546925
 72
     1
 10
-923.6506753946367
 20
-1140.456486546925
 11
-923.6506753946367
 21
-1138.187942329237
 72
     1
 10
-923.6506753946367
 20
-1138.187942329237
 11
-924.7543146942047
 21
-1138.187942329237
 72
     2
 10
-924.7543146942047
 20
-1139.142465336063
 40
0.9545230068258661
 50
90.0
 51
109.3371432194401
 73
     1
 72
     2
 10
-924.9009846923084
 20
-1138.72451035568
 40
0.5115800601937612
 50
109.3371432195076
 51
151.4785267424451
 73
     1
 72
     2
 10
-924.5236274342269
 20
-1138.929581785019
 40
0.9410597353349766
 50
151.4785267423711
 51
208.5214732576775
 73
     1
 72
     2
 10
-924.9009846923084
 20
-1139.134653214358
 40
0.5115800601959901
 50
208.5214732576668
 51
246.6277221118294
 73
     1
 72
     2
 10
-924.7445446596053
 20
-1138.772661195648
 40
0.9059297849850417
 50
246.6277221118078
 51
288.4480761180874
 73
     1
 72
     2
 10
-925.1627123932673
 20
-1137.519115419611
 40
2.227384008972611
 50
288.4480761181346
 51
301.9309089499367
 73
     1
 72
     1
 10
-923.9846573512433
 20
-1139.409466138761
 11
-923.9846573512433
 21
-1140.281983145564
 72
     2
 10
-925.32058526836
 20
-1135.616900839763
 40
4.852596863498941
 50
74.02000874166028
 51
84.84185523036345
 73
     0
 72
     2
 10
-925.0317291736242
 20
-1138.816791422984
 40
1.639695123940421
 50
84.84185523032548
 51
164.9381082228985
 73
     0
 72
     2
 10
-925.4508570170858
 20
-1138.929581785019
 40
1.205656168392903
 50
164.9381082229203
 51
195.0618917770901
 73
     0
 72
     2
 10
-925.0317291736242
 20
-1139.042372147054
 40
1.639695123940101
 50
195.0618917771015
 51
270.0
 73
     0
 72
     1
 10
-925.0317291736242
 20
-1137.402677023114
 11
-921.6467836549955
 21
-1137.402677023113
 72
     1
 10
-921.6467836549955
 20
-1137.402677023113
 11
-921.6467836549955
 21
-1138.187942329237
 97
       18
330
11F
330
1F6
330
1F7
330
1DF
330
1DE
330
183
330
1DD
330
1DC
330
1F8
330
1DB
330
1F9
330
1DA
330
184
330
11E
330
123
330
122
330
121
330
120
 75
     1
 76
     2
 52
45.0
 41
0.1
 77
     0
 78
     1
 53
45.0
 43
62.7811309658083
 44
-72.3161373035813
 45
-0.1414213562373095
 46
0.0
 79
     0
 98
        1
 10
0.0
 20
0.0
  0
HATCH
  5
24D
330
71
100
AcDbEntity
  8
1
  6
Continuous
 62
     2
100
AcDbHatch
 10
0.0
 20
0.0
 30
0.0
210
0.0
220
0.0
230
1.0
  2
CUSTOM23
 70
     0
 71
     1
 91
        1
 92
        1
 93
       18
 72
     1
 10
-921.6467836549955
 20
-1138.187942329237
 11
-922.457882692469
 21
-1138.187942329237
 72
     1
 10
-922.457882692469
 20
-1138.187942329237
 11
-922.457882692469
 21
-1140.456486546925
 72
     1
 10
-922.457882692469
 20
-1140.456486546925
 11
-923.6506753946367
 21
-1140.456486546925
 72
     1
 10
-923.6506753946367
 20
-1140.456486546925
 11
-923.6506753946367
 21
-1138.187942329237
 72
     1
 10
-923.6506753946367
 20
-1138.187942329237
 11
-924.7543146942047
 21
-1138.187942329237
 72
     2
 10
-924.7543146942047
 20
-1139.142465336063
 40
0.9545230068258661
 50
90.0
 51
109.3371432194401
 73
     1
 72
     2
 10
-924.9009846923084
 20
-1138.72451035568
 40
0.5115800601937612
 50
109.3371432195076
 51
151.4785267424451
 73
     1
 72
     2
 10
-924.5236274342269
 20
-1138.929581785019
 40
0.9410597353349766
 50
151.4785267423711
 51
208.5214732576775
 73
     1
 72
     2
 10
-924.9009846923084
 20
-1139.134653214358
 40
0.5115800601959901
 50
208.5214732576668
 51
246.6277221118294
 73
     1
 72
     2
 10
-924.7445446596053
 20
-1138.772661195648
 40
0.9059297849850417
 50
246.6277221118078
 51
288.4480761180874
 73
     1
 72
     2
 10
-925.1627123932673
 20
-1137.519115419611
 40
2.227384008972611
 50
288.4480761181346
 51
301.9309089499367
 73
     1
 72
     1
 10
-923.9846573512433
 20
-1139.409466138761
 11
-923.9846573512433
 21
-1140.281983145564
 72
     2
 10
-925.32058526836
 20
-1135.616900839763
 40
4.852596863498941
 50
74.02000874166028
 51
84.84185523036345
 73
     0
 72
     2
 10
-925.0317291736242
 20
-1138.816791422984
 40
1.639695123940421
 50
84.84185523032548
 51
164.9381082228985
 73
     0
 72
     2
 10
-925.4508570170858
 20
-1138.929581785019
 40
1.205656168392903
 50
164.9381082229203
 51
195.0618917770901
 73
     0
 72
     2
 10
-925.0317291736242
 20
-1139.042372147054
 40
1.639695123940101
 50
195.0618917771015
 51
270.0
 73
     0
 72
     1
 10
-925.0317291736242
 20
-1137.402677023114
 11
-921.6467836549955
 21
-1137.402677023113
 72
     1
 10
-921.6467836549955
 20
-1137.402677023113
 11
-921.6467836549955
 21
-1138.187942329237
 97
       18
330
11F
330
1F6
330
1F7
330
1DF
330
1DE
330
183
330
1DD
330
1DC
330
1F8
330
1DB
330
1F9
330
1DA
330
184
330
11E
330
123
330
122
330
121
330
120
 75
     1
 76
     2
 52
45.0
 41
0.1
 77
     0
 78
     1
 53
45.0
 43
62.7811309658083
 44
-72.3161373035813
 45
-0.1414213562373095
 46
0.0
 79
     0
 98
        1
 10
0.0
 20
0.0
  0
HATCH
  5
24E
330
71
100
AcDbEntity
  8
1
  6
Continuous
 62
     2
100
AcDbHatch
 10
0.0
 20
0.0
 30
0.0
210
0.0
220
0.0
230
1.0
  2
CUSTOM24
 70
     0
 71
     1
 91
        1
 92
        1
 93
       14
 72
     2
 10
-941.134430652877
 20
-1139.042372147054
 40
1.63969512394044
 50
84.84185523036614
 51
164.9381082228913
 73
     1
 72
     2
 10
-941.5535584963399
 20
-1138.929581785019
 40
1.205656168390927
 50
164.9381082228846
 51
195.0618917771049
 73
     1
 72
     2
 10
-941.134430652877
 20
-1138.816791422984
 40
1.639695123939652
 50
195.0618917771087
 51
275.1581447696339
 73
     1
 72
     2
 10
-941.4232867476129
 20
-1135.616900839763
 40
4.852596863497932
 50
275.1581447696242
 51
285.9799912583526
 73
     1
 72
     1
 10
-940.0873588304951
 20
-1140.281983145564
 11
-940.0873588304951
 21
-1139.40946613876
 72
     2
 10
-941.2654138725202
 20
-1137.51911541961
 40
2.22738400897351
 50
58.06909105003847
 51
71.55192388186998
 73
     0
 72
     2
 10
-940.8472461388592
 20
-1138.772661195648
 40
0.9059297849846808
 50
71.55192388184437
 51
113.3722778881394
 73
     0
 72
     2
 10
-941.0036861715613
 20
-1139.134653214358
 40
0.5115800601945569
 50
113.3722778881823
 51
151.4785267423619
 73
     0
 72
     2
 10
-940.626328913481
 20
-1138.929581785019
 40
0.9410597353329787
 50
151.478526742305
 51
208.521473257695
 73
     0
 72
     2
 10
-941.0036861715613
 20
-1138.72451035568
 40
0.5115800601943187
 50
208.5214732576157
 51
246.6277221117773
 73
     0
 72
     2
 10
-940.8472461388592
 20
-1139.086502374391
 40
0.9059297849857901
 50
246.6277221118663
 51
288.4480761181329
 73
     0
 72
     2
 10
-941.2654138725202
 20
-1140.340048150427
 40
2.227384008973766
 50
288.4480761181374
 51
301.9309089499615
 73
     0
 72
     1
 10
-940.0873588304951
 20
-1138.449697431277
 11
-940.0873588304951
 21
-1137.577180424474
 72
     2
 10
-941.4232867476129
 20
-1142.242262730275
 40
4.852596863498158
 50
74.02000874164733
 51
84.84185523037584
 73
     1
 97
       14
330
1FE
330
1FF
330
200
330
201
330
185
330
1D7
330
1D6
330
1D5
330
202
330
203
330
1D4
330
204
330
186
330
1D3
 75
     1
 76
     2
 52
45.0
 41
0.1
 77
     0
 78
     1
 53
45.0
 43
62.7811309658083
 44
-72.3161373035813
 45
-0.1414213562373095
 46
0.0
 79
     0
 98
        1
 10
0.0
 20
0.0
  0
HATCH
  5
24F
330
71
100
AcDbEntity
  8
1
  6
Continuous
 62
     2
100
AcDbHatch
 10
0.0
 20
0.0
 30
0.0
210
0.0
220
0.0
230
1.0
  2
CUSTOM25
 70
     0
 71
     1
 91
        1
 92
        1
 93
       14
 72
     2
 10
-941.134430652877
 20
-1139.042372147054
 40
1.63969512394044
 50
84.84185523036614
 51
164.9381082228913
 73
     1
 72
     2
 10
-941.5535584963399
 20
-1138.929581785019
 40
1.205656168390927
 50
164.9381082228846
 51
195.0618917771049
 73
     1
 72
     2
 10
-941.134430652877
 20
-1138.816791422984
 40
1.639695123939652
 50
195.0618917771087
 51
275.1581447696339
 73
     1
 72
     2
 10
-941.4232867476129
 20
-1135.616900839763
 40
4.852596863497932
 50
275.1581447696242
 51
285.9799912583526
 73
     1
 72
     1
 10
-940.0873588304951
 20
-1140.281983145564
 11
-940.0873588304951
 21
-1139.40946613876
 72
     2
 10
-941.2654138725202
 20
-1137.51911541961
 40
2.22738400897351
 50
58.06909105003847
 51
71.55192388186998
 73
     0
 72
     2
 10
-940.8472461388592
 20
-1138.772661195648
 40
0.9059297849846808
 50
71.55192388184437
 51
113.3722778881394
 73
     0
 72
     2
 10
-941.0036861715613
 20
-1139.134653214358
 40
0.5115800601945569
 50
113.3722778881823
 51
151.4785267423619
 73
     0
 72
     2
 10
-940.626328913481
 20
-1138.929581785019
 40
0.9410597353329787
 50
151.478526742305
 51
208.521473257695
 73
     0
 72
     2
 10
-941.0036861715613
 20
-1138.72451035568
 40
0.5115800601943187
 50
208.5214732576157
 51
246.6277221117773
 73
     0
 72
     2
 10
-940.8472461388592
 20
-1139.086502374391
 40
0.9059297849857901
 50
246.6277221118663
 51
288.4480761181329
 73
     0
 72
     2
 10
-941.2654138725202
 20
-1140.340048150427
 40
2.227384008973766
 50
288.4480761181374
 51
301.9309089499615
 73
     0
 72
     1
 10
-940.0873588304951
 20
-1138.449697431277
 11
-940.0873588304951
 21
-1137.577180424474
 72
     2
 10
-941.4232867476129
 20
-1142.242262730275
 40
4.852596863498158
 50
74.02000874164733
 51
84.84185523037584
 73
     1
 97
       14
330
1FE
330
1FF
330
200
330
201
330
185
330
1D7
330
1D6
330
1D5
330
202
330
203
330
1D4
330
204
330
186
330
1D3
 75
     1
 76
     2
 52
45.0
 41
0.1
 77
     0
 78
     1
 53
45.0
 43
62.7811309658083
 44
-72.3161373035813
 45
-0.1414213562373095
 46
0.0
 79
     0
 98
        1
 10
0.0
 20
0.0
  0
ENDBLK
  5
73
330
71
100
AcDbEntity
  8
0
100
AcDbBlockEnd
  0
BLOCK
  5
75
330
74
100
AcDbEntity
  8
0
100
AcDbBlockBegin
  2
_punkt
 70
     0
 10
-824.2499832455127
 20
-1147.749986546941
 30
0.0
  3
_punkt
  1

  0
LINE
  5
250
330
74
100
AcDbEntity
  8
1
  6
Continuous
 62
     2
100
AcDbLine
 10
-824.2499832455126
 20
-1147.749986546941
 30
0.0
 11
-819.2499832455151
 21
-1147.749986546941
 31
0.0
  0
LINE
  5
251
330
74
100
AcDbEntity
  8
1
  6
Continuous
 62
     2
100
AcDbLine
 10
-824.2499832455126
 20
-1147.749986546941
 30
0.0
 11
-824.2499832455126
 21
-1152.74998654694
 31
0.0
  0
ENDBLK
  5
76
330
74
100
AcDbEntity
  8
0
100
AcDbBlockEnd
  0
BLOCK
  5
7A
330
77
100
AcDbEntity
  8
0
100
AcDbBlockBegin
  2
A3I_CS
 70
     0
 10
-824.2499832455126
 20
-1152.74998654694
 30
0.0
  3
A3I_CS
  1

  0
INSERT
  5
78
330
77
100
AcDbEntity
  8
1
100
AcDbBlockReference
  2
_rahmen
 10
-824.2499832455126
 20
-1152.74998654694
 30
0.0
  0
INSERT
  5
79
330
77
100
AcDbEntity
  8
1
100
AcDbBlockReference
  2
_punkt
 10
-824.2499832455127
 20
-1147.749986546941
 30
0.0
  0
ENDBLK
  5
7B
330
77
100
AcDbEntity
  8
0
100
AcDbBlockEnd
  0
BLOCK
  5
84
330
7C
100
AcDbEntity
  8
0
100
AcDbBlockBegin
  2
1
 70
     0
 10
0.0
 20
0.0
 30
0.0
  3
1
  1

  0
INSERT
  5
7D
330
7C
100
AcDbEntity
  8
0
100
AcDbBlockReference
  2
Allg1
 10
-925.999992110945
 20
-1012.00000227739
 30
0.0
 41
5.0
 42
5.0
 43
5.0
  0
INSERT
  5
7E
330
7C
100
AcDbEntity
  8
0
100
AcDbBlockReference
  2
Drfsicht1
 10
-1053.99999089049
 20
-1023.000000000025
 30
0.0
 41
5.0
 42
5.0
 43
5.0
  0
INSERT
  5
7F
330
7C
100
AcDbEntity
  8
0
100
AcDbBlockReference
  2
Vordans1
 10
-1053.99999089049
 20
-895.0000071525569
 30
0.0
 41
5.0
 42
5.0
 43
5.0
  0
INSERT
  5
80
330
7C
100
AcDbEntity
  8
0
100
AcDbBlockReference
  2
SA_Rechts1
 10
-1154.749981367353
 20
-895.0000071525569
 30
0.0
 41
5.0
 42
5.0
 43
5.0
  0
INSERT
  5
81
330
7C
100
AcDbEntity
  8
0
100
AcDbBlockReference
  2
Rckans1
 10
-857.5000063748536
 20
-895.0000071525569
 30
0.0
 41
5.0
 42
5.0
 43
5.0
  0
INSERT
  5
82
330
7C
100
AcDbEntity
  8
0
100
AcDbBlockReference
  2
SA_Links1
 10
-953.2499986326469
 20
-895.0000071525569
 30
0.0
 41
5.0
 42
5.0
 43
5.0
  0
INSERT
  5
83
330
7C
100
AcDbEntity
  8
0
100
AcDbBlockReference
  2
A3I_CS
 10
-824.2499832455126
 20
-1152.74998654694
 30
0.0
  0
ENDBLK
  5
85
330
7C
100
AcDbEntity
  8
0
100
AcDbBlockEnd
  0
BLOCK
  5
B3
330
AC
100
AcDbEntity
  8
0
100
AcDbBlockBegin
  2
*D17
 70
     1
 10
0.0
 20
0.0
 30
0.0
  3
*D17
  1

  0
LINE
  5
AD
330
AC
100
AcDbEntity
  8
1
  6
Continuous
 62
     2
100
AcDbLine
 10
-218.730454168394
 20
-193.7000000953775
 30
0.0
 11
-218.730454168394
 21
-215.5000000953775
 31
0.0
  0
LINE
  5
AE
330
AC
100
AcDbEntity
  8
1
  6
Continuous
 62
     2
100
AcDbLine
 10
-216.0499925342945
 20
-193.7000000953775
 30
0.0
 11
-219.030454168394
 21
-193.7000000953775
 31
0.0
  0
LINE
  5
AF
330
AC
100
AcDbEntity
  8
1
  6
Continuous
 62
     2
100
AcDbLine
 10
-216.0499925342945
 20
-215.5000000953775
 30
0.0
 11
-219.030454168394
 21
-215.5000000953775
 31
0.0
  0
SOLID
  5
B0
330
AC
100
AcDbEntity
  8
1
 62
     2
100
AcDbTrace
 10
-218.6382974200828
 20
-194.4000000953775
 30
0.0
 11
-218.8226109167052
 21
-194.4000000953775
 31
0.0
 12
-218.730454168394
 22
-193.7000000953775
 32
0.0
 13
-218.730454168394
 23
-193.7000000953775
 33
0.0
  0
SOLID
  5
B1
330
AC
100
AcDbEntity
  8
1
 62
     2
100
AcDbTrace
 10
-218.8226109167052
 20
-214.8000000953775
 30
0.0
 11
-218.6382974200828
 21
-214.8000000953775
 31
0.0
 12
-218.730454168394
 22
-215.5000000953775
 32
0.0
 13
-218.730454168394
 23
-215.5000000953775
 33
0.0
  0
MTEXT
  5
B2
330
AC
100
AcDbEntity
  8
1
 62
     3
100
AcDbMText
 10
-219.100454168394
 20
-205.2044222820361
 30
0.0
 40
0.7
 41
0.0
 71
     7
 72
     1
  1
21,8
  7
CONVERTER_11
 11
0.0
 21
1.0
 31
0.0
 73
     1
 44
0.60024009603842
  0
ENDBLK
  5
B4
330
AC
100
AcDbEntity
  8
0
100
AcDbBlockEnd
  0
BLOCK
  5
CF
330
C8
100
AcDbEntity
  8
0
100
AcDbBlockBegin
  2
*D18
 70
     1
 10
0.0
 20
0.0
 30
0.0
  3
*D18
  1

  0
LINE
  5
C9
330
C8
100
AcDbEntity
  8
1
  6
Continuous
 62
     2
100
AcDbLine
 10
-216.0499925342945
 20
-184.0501715278688
 30
0.0
 11
-205.5499925342945
 21
-184.0501715278688
 31
0.0
  0
LINE
  5
CA
330
C8
100
AcDbEntity
  8
1
  6
Continuous
 62
     2
100
AcDbLine
 10
-216.0499925342945
 20
-177.9999992981903
 30
0.0
 11
-216.0499925342945
 21
-184.3501715278688
 31
0.0
  0
LINE
  5
CB
330
C8
100
AcDbEntity
  8
1
  6
Continuous
 62
     2
100
AcDbLine
 10
-205.5499925342945
 20
-177.9999992981903
 30
0.0
 11
-205.5499925342945
 21
-184.3501715278688
 31
0.0
  0
SOLID
  5
CC
330
C8
100
AcDbEntity
  8
1
 62
     2
100
AcDbTrace
 10
-215.3499925342945
 20
-183.9580147795576
 30
0.0
 11
-215.3499925342945
 21
-184.14232827618
 31
0.0
 12
-216.0499925342945
 22
-184.0501715278688
 32
0.0
 13
-216.0499925342945
 23
-184.0501715278688
 33
0.0
  0
SOLID
  5
CD
330
C8
100
AcDbEntity
  8
1
 62
     2
100
AcDbTrace
 10
-206.2499925342945
 20
-184.14232827618
 30
0.0
 11
-206.2499925342945
 21
-183.9580147795576
 31
0.0
 12
-205.5499925342945
 22
-184.0501715278688
 32
0.0
 13
-205.5499925342945
 23
-184.0501715278688
 33
0.0
  0
MTEXT
  5
CE
330
C8
100
AcDbEntity
  8
1
 62
     3
100
AcDbMText
 10
-210.847465277986
 20
-183.6801715278688
 30
0.0
 40
0.7
 41
0.0
 71
     7
 72
     1
  1
10,5
  7
CONVERTER_11
 11
0.9999999999970619
 21
2.424068405545306E-6
 31
0.0
 73
     1
 44
0.60024009603842
  0
ENDBLK
  5
D0
330
C8
100
AcDbEntity
  8
0
100
AcDbBlockEnd
  0
BLOCK
  5
DA
330
D3
100
AcDbEntity
  8
0
100
AcDbBlockBegin
  2
*D19
 70
     1
 10
0.0
 20
0.0
 30
0.0
  3
*D19
  1

  0
LINE
  5
D4
330
D3
100
AcDbEntity
  8
1
  6
Continuous
 62
     2
100
AcDbLine
 10
-218.0499925342945
 20
-176.8999992981903
 30
0.0
 11
-218.0499925342945
 21
-181.0999992981905
 31
0.0
  0
LINE
  5
D5
330
D3
100
AcDbEntity
  8
1
  6
Continuous
 62
     2
100
AcDbLine
 10
-216.0499925342945
 20
-176.8999992981903
 30
0.0
 11
-218.3499925342945
 21
-176.8999992981903
 31
0.0
  0
LINE
  5
D6
330
D3
100
AcDbEntity
  8
1
  6
Continuous
 62
     2
100
AcDbLine
 10
-212.8452966299791
 20
-181.0999992981905
 30
0.0
 11
-218.3499925342945
 21
-181.0999992981905
 31
0.0
  0
SOLID
  5
D7
330
D3
100
AcDbEntity
  8
1
 62
     2
100
AcDbTrace
 10
-217.9578357859833
 20
-177.5999992981903
 30
0.0
 11
-218.1421492826057
 21
-177.5999992981903
 31
0.0
 12
-218.0499925342945
 22
-176.8999992981903
 32
0.0
 13
-218.0499925342945
 23
-176.8999992981903
 33
0.0
  0
SOLID
  5
D8
330
D3
100
AcDbEntity
  8
1
 62
     2
100
AcDbTrace
 10
-218.1421492826057
 20
-180.3999992981905
 30
0.0
 11
-217.9578357859833
 21
-180.3999992981905
 31
0.0
 12
-218.0499925342945
 22
-181.0999992981905
 32
0.0
 13
-218.0499925342945
 23
-181.0999992981905
 33
0.0
  0
MTEXT
  5
D9
330
D3
100
AcDbEntity
  8
1
 62
     3
100
AcDbMText
 10
-218.4199925342945
 20
-180.1927798309881
 30
0.0
 40
0.7
 41
0.0
 71
     7
 72
     1
  1
4,2
  7
CONVERTER_11
 11
0.0
 21
1.0
 31
0.0
 73
     1
 44
0.60024009603842
  0
ENDBLK
  5
DB
330
D3
100
AcDbEntity
  8
0
100
AcDbBlockEnd
  0
ENDSEC
  0
SECTION
  2
ENTITIES
  0
INSERT
  5
86
330
1F
100
AcDbEntity
  8
1
100
AcDbBlockReference
  2
1
 10
0.0
 20
0.0
 30
0.0
  0
ENDSEC
  0
SECTION
  2
OBJECTS
  0
DICTIONARY
  5
C
330
0
100
AcDbDictionary
281
     1
  3
ACAD_GROUP
350
D
  3
ACAD_LAYOUT
350
1A
  3
ACAD_MATERIAL
350
3B
  3
ACAD_MLEADERSTYLE
350
279
  3
ACAD_MLINESTYLE
350
17
  3
ACAD_PLOTSETTINGS
350
19
  3
ACAD_PLOTSTYLENAME
350
E
  3
ACAD_TABLESTYLE
350
278
  3
ACAD_VISUALSTYLE
350
2A
  0
DICTIONARY
  5
D
102
{ACAD_REACTORS
330
C
102
}
330
C
100
AcDbDictionary
281
     1
  0
DICTIONARY
  5
1A
102
{ACAD_REACTORS
330
C
102
}
330
C
100
AcDbDictionary
281
     1
  3
Layout1
350
1E
  3
Layout2
350
26
  3
Model
350
22
  0
DICTIONARY
  5
3B
102
{ACAD_REACTORS
330
C
102
}
330
C
100
AcDbDictionary
281
     1
  3
ByBlock
350
3D
  3
ByLayer
350
3C
  3
Global
350
3E
  0
DICTIONARY
  5
279
102
{ACAD_REACTORS
330
C
102
}
330
C
100
AcDbDictionary
281
     1
  0
DICTIONARY
  5
17
102
{ACAD_REACTORS
330
C
102
}
330
C
100
AcDbDictionary
281
     1
  3
Standard
350
18
  0
DICTIONARY
  5
19
102
{ACAD_REACTORS
330
C
102
}
330
C
100
AcDbDictionary
281
     1
  0
ACDBDICTIONARYWDFLT
  5
E
102
{ACAD_REACTORS
330
C
102
}
330
C
100
AcDbDictionary
281
     1
  3
Normal
350
F
100
AcDbDictionaryWithDefault
340
F
  0
DICTIONARY
  5
278
102
{ACAD_REACTORS
330
C
102
}
330
C
100
AcDbDictionary
281
     1
  0
DICTIONARY
  5
2A
102
{ACAD_REACTORS
330
C
102
}
330
C
100
AcDbDictionary
281
     1
  3
2dWireframe
350
2F
  3
3D Hidden
350
31
  3
3dWireframe
350
30
  3
Basic
350
32
  3
Brighten
350
36
  3
ColorChange
350
3A
  3
Conceptual
350
34
  3
Dim
350
35
  3
Facepattern
350
39
  3
Flat
350
2B
  3
FlatWithEdges
350
2C
  3
Gouraud
350
2D
  3
GouraudWithEdges
350
2E
  3
Linepattern
350
38
  3
Realistic
350
33
  3
Thicken
350
37
  0
LAYOUT
  5
1E
102
{ACAD_REACTORS
330
1A
102
}
330
1A
100
AcDbPlotSettings
  1

  2
none_device
  4

  6

 40
0.0
 41
0.0
 42
0.0
 43
0.0
 44
0.0
 45
0.0
 46
0.0
 47
0.0
 48
0.0
 49
0.0
140
0.0
141
0.0
142
1.0
143
1.0
 70
   688
 72
     0
 73
     0
 74
     5
  7

 75
    16
 76
     0
 77
     2
 78
   300
147
1.0
148
0.0
149
0.0
100
AcDbLayout
  1
Layout1
 70
     1
 71
     1
 10
0.0
 20
0.0
 11
12.0
 21
9.0
 12
0.0
 22
0.0
 32
0.0
 14
1.00000000000000E+20
 24
1.00000000000000E+20
 34
1.00000000000000E+20
 15
-1.00000000000000E+20
 25
-1.00000000000000E+20
 35
-1.00000000000000E+20
146
0.0
 13
0.0
 23
0.0
 33
0.0
 16
1.0
 26
0.0
 36
0.0
 17
0.0
 27
1.0
 37
0.0
 76
     0
330
1B
  0
LAYOUT
  5
26
102
{ACAD_REACTORS
330
1A
102
}
330
1A
100
AcDbPlotSettings
  1

  2
none_device
  4

  6

 40
0.0
 41
0.0
 42
0.0
 43
0.0
 44
0.0
 45
0.0
 46
0.0
 47
0.0
 48
0.0
 49
0.0
140
0.0
141
0.0
142
1.0
143
1.0
 70
   688
 72
     0
 73
     0
 74
     5
  7

 75
    16
 76
     0
 77
     2
 78
   300
147
1.0
148
0.0
149
0.0
100
AcDbLayout
  1
Layout2
 70
     1
 71
     2
 10
0.0
 20
0.0
 11
0.0
 21
0.0
 12
0.0
 22
0.0
 32
0.0
 14
0.0
 24
0.0
 34
0.0
 15
0.0
 25
0.0
 35
0.0
146
0.0
 13
0.0
 23
0.0
 33
0.0
 16
1.0
 26
0.0
 36
0.0
 17
0.0
 27
1.0
 37
0.0
 76
     0
330
23
  0
LAYOUT
  5
22
102
{ACAD_REACTORS
330
1A
102
}
330
1A
100
AcDbPlotSettings
  1

  2
none_device
  4

  6

 40
0.0
 41
0.0
 42
0.0
 43
0.0
 44
0.0
 45
0.0
 46
0.0
 47
0.0
 48
0.0
 49
0.0
140
0.0
141
0.0
142
1.0
143
1.0
 70
  1712
 72
     0
 73
     0
 74
     0
  7

 75
     0
 76
     0
 77
     2
 78
   300
147
1.0
148
0.0
149
0.0
100
AcDbLayout
  1
Model
 70
     1
 71
     0
 10
0.0
 20
0.0
 11
12.0
 21
9.0
 12
0.0
 22
0.0
 32
0.0
 14
-1239.249983245514
 24
-1152.74998654694
 34
0.0
 15
-819.2499832455151
 25
-855.7499865469402
 35
0.0
146
0.0
 13
0.0
 23
0.0
 33
0.0
 16
1.0
 26
0.0
 36
0.0
 17
0.0
 27
1.0
 37
0.0
 76
     0
330
1F
331
29
  0
MATERIAL
  5
3D
102
{ACAD_REACTORS
330
3B
102
}
102
{ACAD_XDICTIONARY
360
274
102
}
330
3B
100
AcDbMaterial
  1
ByBlock
  0
MATERIAL
  5
3C
102
{ACAD_REACTORS
330
3B
102
}
102
{ACAD_XDICTIONARY
360
272
102
}
330
3B
100
AcDbMaterial
  1
ByLayer
  0
MATERIAL
  5
3E
102
{ACAD_REACTORS
330
3B
102
}
102
{ACAD_XDICTIONARY
360
276
102
}
330
3B
100
AcDbMaterial
  1
Global
  0
MLINESTYLE
  5
18
102
{ACAD_REACTORS
330
17
102
}
330
17
100
AcDbMlineStyle
  2
Standard
 70
     0
  3

 62
   256
 51
90.0
 52
90.0
 71
     2
 49
0.5
 62
   256
  6
BYLAYER
 49
-0.5
 62
   256
  6
BYLAYER
  0
ACDBPLACEHOLDER
  5
F
102
{ACAD_REACTORS
330
E
102
}
330
E
  0
VISUALSTYLE
  5
2F
102
{ACAD_REACTORS
330
2A
102
}
102
{ACAD_XDICTIONARY
360
25A
102
}
330
2A
100
AcDbVisualStyle
  2
2dWireframe
 70
     4
 71
     0
 72
     2
 73
     0
 90
        0
 40
-0.6
 41
-30.0
 62
     5
 63
     7
421
 16777215
 74
     1
 91
        4
 64
     7
 65
   257
 75
     1
175
     1
 42
1.0
 92
        0
 66
   257
 43
1.0
 76
     1
 77
     6
 78
     2
 67
     7
 79
     5
170
     0
171
     0
290
     0
174
     0
 93
        1
 44
0.0
173
     0
291
     0
 45
0.0
1001
ACAD
1000
AcDbSavedByObjectVersion
1070
     0
  0
VISUALSTYLE
  5
31
102
{ACAD_REACTORS
330
2A
102
}
102
{ACAD_XDICTIONARY
360
25E
102
}
330
2A
100
AcDbVisualStyle
  2
3D Hidden
 70
     6
 71
     1
 72
     2
 73
     2
 90
        0
 40
-0.6
 41
-30.0
 62
     5
 63
     7
421
 16777215
 74
     2
 91
        2
 64
     7
 65
   257
 75
     2
175
     1
 42
40.0
 92
        0
 66
   257
 43
1.0
 76
     1
 77
     6
 78
     2
 67
     7
 79
     3
170
     0
171
     0
290
     0
174
     0
 93
        1
 44
0.0
173
     0
291
     0
 45
0.0
1001
ACAD
1000
AcDbSavedByObjectVersion
1070
     0
  0
VISUALSTYLE
  5
30
102
{ACAD_REACTORS
330
2A
102
}
102
{ACAD_XDICTIONARY
360
25C
102
}
330
2A
100
AcDbVisualStyle
  2
3dWireframe
 70
     5
 71
     0
 72
     2
 73
     0
 90
        0
 40
-0.6
 41
-30.0
 62
     5
 63
     7
421
 16777215
 74
     1
 91
        4
 64
     7
 65
   257
 75
     1
175
     1
 42
1.0
 92
        0
 66
   257
 43
1.0
 76
     1
 77
     6
 78
     2
 67
     7
 79
     5
170
     0
171
     0
290
     0
174
     0
 93
        1
 44
0.0
173
     0
291
     0
 45
0.0
1001
ACAD
1000
AcDbSavedByObjectVersion
1070
     0
  0
VISUALSTYLE
  5
32
102
{ACAD_REACTORS
330
2A
102
}
102
{ACAD_XDICTIONARY
360
260
102
}
330
2A
100
AcDbVisualStyle
  2
Basic
 70
     7
 71
     1
 72
     0
 73
     1
 90
        0
 40
-0.6
 41
-30.0
 62
     5
 63
     7
421
 16777215
 74
     0
 91
        4
 64
     7
 65
   257
 75
     1
175
     1
 42
1.0
 92
        8
 66
     7
 43
1.0
 76
     1
 77
     6
 78
     2
 67
     7
 79
     5
170
     0
171
     0
290
     0
174
     0
 93
        1
 44
0.0
173
     0
291
     1
 45
0.0
1001
ACAD
1000
AcDbSavedByObjectVersion
1070
     0
  0
VISUALSTYLE
  5
36
102
{ACAD_REACTORS
330
2A
102
}
102
{ACAD_XDICTIONARY
360
268
102
}
330
2A
100
AcDbVisualStyle
  2
Brighten
 70
    12
 71
     2
 72
     2
 73
     0
 90
        0
 40
-0.6
 41
-30.0
 62
     5
 63
     7
421
 16777215
 74
     1
 91
        4
 64
     7
 65
   257
 75
     1
175
     1
 42
1.0
 92
        8
 66
     7
 43
1.0
 76
     1
 77
     6
 78
     2
 67
     7
 79
     5
170
     0
171
     0
290
     0
174
     0
 93
        1
 44
50.0
173
     0
291
     1
 45
0.0
1001
ACAD
1000
AcDbSavedByObjectVersion
1070
     0
  0
VISUALSTYLE
  5
3A
102
{ACAD_REACTORS
330
2A
102
}
102
{ACAD_XDICTIONARY
360
270
102
}
330
2A
100
AcDbVisualStyle
  2
ColorChange
 70
    16
 71
     2
 72
     2
 73
     3
 90
        0
 40
-0.6
 41
-30.0
 62
     5
 63
     8
421
  8421504
 74
     1
 91
        4
 64
     7
 65
   257
 75
     1
175
     1
 42
1.0
 92
        8
 66
     8
424
  8421504
 43
1.0
 76
     1
 77
     6
 78
     2
 67
     7
 79
     5
170
     0
171
     0
290
     0
174
     0
 93
        1
 44
0.0
173
     0
291
     1
 45
0.0
1001
ACAD
1000
AcDbSavedByObjectVersion
1070
     0
  0
VISUALSTYLE
  5
34
102
{ACAD_REACTORS
330
2A
102
}
102
{ACAD_XDICTIONARY
360
264
102
}
330
2A
100
AcDbVisualStyle
  2
Conceptual
 70
     9
 71
     3
 72
     2
 73
     0
 90
        0
 40
-0.6
 41
-30.0
 62
     5
 63
     7
421
 16777215
 74
     2
 91
        2
 64
     7
 65
   257
 75
     1
175
     1
 42
40.0
 92
        8
 66
     7
 43
1.0
 76
     1
 77
     6
 78
     2
 67
     7
 79
     3
170
     0
171
     0
290
     0
174
     0
 93
        1
 44
0.0
173
     0
291
     0
 45
0.0
1001
ACAD
1000
AcDbSavedByObjectVersion
1070
     0
  0
VISUALSTYLE
  5
35
102
{ACAD_REACTORS
330
2A
102
}
102
{ACAD_XDICTIONARY
360
266
102
}
330
2A
100
AcDbVisualStyle
  2
Dim
 70
    11
 71
     2
 72
     2
 73
     0
 90
        0
 40
-0.6
 41
-30.0
 62
     5
 63
     7
421
 16777215
 74
     1
 91
        4
 64
     7
 65
   257
 75
     1
175
     1
 42
1.0
 92
        8
 66
     7
 43
1.0
 76
     1
 77
     6
 78
     2
 67
     7
 79
     5
170
     0
171
     0
290
     0
174
     0
 93
        1
 44
-50.0
173
     0
291
     1
 45
0.0
1001
ACAD
1000
AcDbSavedByObjectVersion
1070
     0
  0
VISUALSTYLE
  5
39
102
{ACAD_REACTORS
330
2A
102
}
102
{ACAD_XDICTIONARY
360
26E
102
}
330
2A
100
AcDbVisualStyle
  2
Facepattern
 70
    15
 71
     2
 72
     2
 73
     0
 90
        0
 40
-0.6
 41
-30.0
 62
     5
 63
     7
421
 16777215
 74
     1
 91
        4
 64
     7
 65
   257
 75
     1
175
     1
 42
1.0
 92
        8
 66
     7
 43
1.0
 76
     1
 77
     6
 78
     2
 67
     7
 79
     5
170
     0
171
     0
290
     0
174
     0
 93
        1
 44
0.0
173
     0
291
     1
 45
0.0
1001
ACAD
1000
AcDbSavedByObjectVersion
1070
     0
  0
VISUALSTYLE
  5
2B
102
{ACAD_REACTORS
330
2A
102
}
102
{ACAD_XDICTIONARY
360
252
102
}
330
2A
100
AcDbVisualStyle
  2
Flat
 70
     0
 71
     2
 72
     1
 73
     1
 90
        2
 40
-0.6
 41
30.0
 62
     5
 63
     7
421
 16777215
 74
     0
 91
        4
 64
     7
 65
   257
 75
     1
175
     1
 42
1.0
 92
        8
 66
     7
 43
1.0
 76
     1
 77
     6
 78
     2
 67
     7
 79
     5
170
     0
171
     0
290
     0
174
     0
 93
       13
 44
0.0
173
     0
291
     1
 45
0.0
1001
ACAD
1000
AcDbSavedByObjectVersion
1070
     0
  0
VISUALSTYLE
  5
2C
102
{ACAD_REACTORS
330
2A
102
}
102
{ACAD_XDICTIONARY
360
254
102
}
330
2A
100
AcDbVisualStyle
  2
FlatWithEdges
 70
     1
 71
     2
 72
     1
 73
     1
 90
        2
 40
-0.6
 41
30.0
 62
     5
 63
     7
421
 16777215
 74
     1
 91
        4
 64
     7
 65
   257
 75
     1
175
     1
 42
1.0
 92
        0
 66
   257
 43
1.0
 76
     1
 77
     6
 78
     2
 67
     7
 79
     5
170
     0
171
     0
290
     0
174
     0
 93
       13
 44
0.0
173
     0
291
     1
 45
0.0
1001
ACAD
1000
AcDbSavedByObjectVersion
1070
     0
  0
VISUALSTYLE
  5
2D
102
{ACAD_REACTORS
330
2A
102
}
102
{ACAD_XDICTIONARY
360
256
102
}
330
2A
100
AcDbVisualStyle
  2
Gouraud
 70
     2
 71
     2
 72
     2
 73
     1
 90
        2
 40
-0.6
 41
30.0
 62
     5
 63
     7
421
 16777215
 74
     0
 91
        4
 64
     7
 65
   257
 75
     1
175
     1
 42
1.0
 92
        0
 66
     7
 43
1.0
 76
     1
 77
     6
 78
     2
 67
     7
 79
     5
170
     0
171
     0
290
     0
174
     0
 93
       13
 44
0.0
173
     0
291
     1
 45
0.0
1001
ACAD
1000
AcDbSavedByObjectVersion
1070
     0
  0
VISUALSTYLE
  5
2E
102
{ACAD_REACTORS
330
2A
102
}
102
{ACAD_XDICTIONARY
360
258
102
}
330
2A
100
AcDbVisualStyle
  2
GouraudWithEdges
 70
     3
 71
     2
 72
     2
 73
     1
 90
        2
 40
-0.6
 41
30.0
 62
     5
 63
     7
421
 16777215
 74
     1
 91
        4
 64
     7
 65
   257
 75
     1
175
     1
 42
1.0
 92
        0
 66
   257
 43
1.0
 76
     1
 77
     6
 78
     2
 67
     7
 79
     5
170
     0
171
     0
290
     0
174
     0
 93
       13
 44
0.0
173
     0
291
     1
 45
0.0
1001
ACAD
1000
AcDbSavedByObjectVersion
1070
     0
  0
VISUALSTYLE
  5
38
102
{ACAD_REACTORS
330
2A
102
}
102
{ACAD_XDICTIONARY
360
26C
102
}
330
2A
100
AcDbVisualStyle
  2
Linepattern
 70
    14
 71
     2
 72
     2
 73
     0
 90
        0
 40
-0.6
 41
-30.0
 62
     5
 63
     7
421
 16777215
 74
     1
 91
        4
 64
     7
 65
   257
 75
     7
175
     7
 42
1.0
 92
        8
 66
     7
 43
1.0
 76
     1
 77
     6
 78
     2
 67
     7
 79
     5
170
     0
171
     0
290
     0
174
     0
 93
        1
 44
0.0
173
     0
291
     1
 45
0.0
1001
ACAD
1000
AcDbSavedByObjectVersion
1070
     0
  0
VISUALSTYLE
  5
33
102
{ACAD_REACTORS
330
2A
102
}
102
{ACAD_XDICTIONARY
360
262
102
}
330
2A
100
AcDbVisualStyle
  2
Realistic
 70
     8
 71
     2
 72
     2
 73
     0
 90
        0
 40
-0.6
 41
-30.0
 62
     5
 63
     7
421
 16777215
 74
     1
 91
        0
 64
     7
 65
   257
 75
     1
175
     1
 42
1.0
 92
        8
 66
     8
424
  7895160
 43
1.0
 76
     1
 77
     6
 78
     2
 67
     7
 79
     5
170
     0
171
     0
290
     0
174
     0
 93
       13
 44
0.0
173
     0
291
     0
 45
0.0
1001
ACAD
1000
AcDbSavedByObjectVersion
1070
     0
  0
VISUALSTYLE
  5
37
102
{ACAD_REACTORS
330
2A
102
}
102
{ACAD_XDICTIONARY
360
26A
102
}
330
2A
100
AcDbVisualStyle
  2
Thicken
 70
    13
 71
     2
 72
     2
 73
     0
 90
        0
 40
-0.6
 41
-30.0
 62
     5
 63
     7
421
 16777215
 74
     1
 91
        4
 64
     7
 65
   257
 75
     1
175
     1
 42
1.0
 92
       12
 66
     7
 43
1.0
 76
     1
 77
     6
 78
     2
 67
     7
 79
     5
170
     0
171
     0
290
     0
174
     0
 93
        1
 44
0.0
173
     0
291
     1
 45
0.0
1001
ACAD
1000
AcDbSavedByObjectVersion
1070
     0
  0
DICTIONARY
  5
274
330
3D
100
AcDbDictionary
280
     1
281
     1
  3
ACAD_XREC_ROUNDTRIP
360
275
  0
DICTIONARY
  5
272
330
3C
100
AcDbDictionary
280
     1
281
     1
  3
ACAD_XREC_ROUNDTRIP
360
273
  0
DICTIONARY
  5
276
330
3E
100
AcDbDictionary
280
     1
281
     1
  3
ACAD_XREC_ROUNDTRIP
360
277
  0
DICTIONARY
  5
25A
330
2F
100
AcDbDictionary
280
     1
281
     1
  3
ACAD_XREC_ROUNDTRIP
360
25B
  0
DICTIONARY
  5
25E
330
31
100
AcDbDictionary
280
     1
281
     1
  3
ACAD_XREC_ROUNDTRIP
360
25F
  0
DICTIONARY
  5
25C
330
30
100
AcDbDictionary
280
     1
281
     1
  3
ACAD_XREC_ROUNDTRIP
360
25D
  0
DICTIONARY
  5
260
330
32
100
AcDbDictionary
280
     1
281
     1
  3
ACAD_XREC_ROUNDTRIP
360
261
  0
DICTIONARY
  5
268
330
36
100
AcDbDictionary
280
     1
281
     1
  3
ACAD_XREC_ROUNDTRIP
360
269
  0
DICTIONARY
  5
270
330
3A
100
AcDbDictionary
280
     1
281
     1
  3
ACAD_XREC_ROUNDTRIP
360
271
  0
DICTIONARY
  5
264
330
34
100
AcDbDictionary
280
     1
281
     1
  3
ACAD_XREC_ROUNDTRIP
360
265
  0
DICTIONARY
  5
266
330
35
100
AcDbDictionary
280
     1
281
     1
  3
ACAD_XREC_ROUNDTRIP
360
267
  0
DICTIONARY
  5
26E
330
39
100
AcDbDictionary
280
     1
281
     1
  3
ACAD_XREC_ROUNDTRIP
360
26F
  0
DICTIONARY
  5
252
330
2B
100
AcDbDictionary
280
     1
281
     1
  3
ACAD_XREC_ROUNDTRIP
360
253
  0
DICTIONARY
  5
254
330
2C
100
AcDbDictionary
280
     1
281
     1
  3
ACAD_XREC_ROUNDTRIP
360
255
  0
DICTIONARY
  5
256
330
2D
100
AcDbDictionary
280
     1
281
     1
  3
ACAD_XREC_ROUNDTRIP
360
257
  0
DICTIONARY
  5
258
330
2E
100
AcDbDictionary
280
     1
281
     1
  3
ACAD_XREC_ROUNDTRIP
360
259
  0
DICTIONARY
  5
26C
330
38
100
AcDbDictionary
280
     1
281
     1
  3
ACAD_XREC_ROUNDTRIP
360
26D
  0
DICTIONARY
  5
262
330
33
100
AcDbDictionary
280
     1
281
     1
  3
ACAD_XREC_ROUNDTRIP
360
263
  0
DICTIONARY
  5
26A
330
37
100
AcDbDictionary
280
     1
281
     1
  3
ACAD_XREC_ROUNDTRIP
360
26B
  0
XRECORD
  5
275
102
{ACAD_REACTORS
330
274
102
}
330
274
100
AcDbXrecord
280
     1
102
MATERIAL
148
0.0
149
0.0
149
0.0
 93
        0
 94
      127
282
     0
 72
     1
 77
     1
171
     1
175
     1
179
     1
273
     0
  0
XRECORD
  5
273
102
{ACAD_REACTORS
330
272
102
}
330
272
100
AcDbXrecord
280
     1
102
MATERIAL
148
0.0
149
0.0
149
0.0
 93
        0
 94
      127
282
     0
 72
     1
 77
     1
171
     1
175
     1
179
     1
273
     0
  0
XRECORD
  5
277
102
{ACAD_REACTORS
330
276
102
}
330
276
100
AcDbXrecord
280
     1
102
MATERIAL
148
0.0
149
0.0
149
0.0
 93
        0
 94
      127
282
     0
 72
     1
 77
     1
171
     1
175
     1
179
     1
273
     0
  0
XRECORD
  5
25B
102
{ACAD_REACTORS
330
25A
102
}
330
25A
100
AcDbXrecord
280
     1
102
RTVSPropertyOp0
 70
     1
102
RTVSPropertyOp1
 70
     1
102
RTVSPropertyOp2
 70
     1
102
RTVSPropertyOp3
 70
     1
102
RTVSPropertyOp4
 70
     1
102
RTVSPropertyOp5
 70
     1
102
RTVSPropertyOp6
 70
     1
102
RTVSPropertyOp7
 70
     1
102
RTVSPropertyOp8
 70
     1
102
RTVSPropertyOp9
 70
     1
102
RTVSPropertyOp10
 70
     1
102
RTVSPropertyOp11
 70
     1
102
RTVSPropertyOp12
 70
     1
102
RTVSPropertyOp13
 70
     1
102
RTVSPropertyOp14
 70
     1
102
RTVSPropertyOp15
 70
     1
102
RTVSPropertyOp16
 70
     1
102
RTVSPropertyOp17
 70
     1
102
RTVSPropertyOp18
 70
     1
102
RTVSPropertyOp19
 70
     1
102
RTVSPropertyOp20
 70
     1
102
RTVSPropertyOp21
 70
     1
102
RTVSPropertyOp22
 70
     1
102
RTVSPropertyOp23
 70
     1
102
RTVSPropertyOp24
 70
     1
102
RTVSPropertyOp25
 70
     1
102
RTVSPropertyOp26
 70
     1
102
RTVSPropertyOp27
 70
     1
102
RTVSPropertyOp28
 70
     1
102
RTVSPropertyOp29
 70
     1
102
RTVSPropertyOp30
 70
     1
102
RTVSPropertyOp31
 70
     1
102
RTVSPropertyOp32
 70
     1
  0
XRECORD
  5
25F
102
{ACAD_REACTORS
330
25E
102
}
330
25E
100
AcDbXrecord
280
     1
102
RTVSPropertyOp0
 70
     1
102
RTVSPropertyOp1
 70
     1
102
RTVSPropertyOp2
 70
     1
102
RTVSPropertyOp3
 70
     1
102
RTVSPropertyOp4
 70
     1
102
RTVSPropertyOp5
 70
     1
102
RTVSPropertyOp6
 70
     1
102
RTVSPropertyOp7
 70
     1
102
RTVSPropertyOp8
 70
     1
102
RTVSPropertyOp9
 70
     1
102
RTVSPropertyOp10
 70
     1
102
RTVSPropertyOp11
 70
     1
102
RTVSPropertyOp12
 70
     1
102
RTVSPropertyOp13
 70
     1
102
RTVSPropertyOp14
 70
     1
102
RTVSPropertyOp15
 70
     1
102
RTVSPropertyOp16
 70
     1
102
RTVSPropertyOp17
 70
     1
102
RTVSPropertyOp18
 70
     1
102
RTVSPropertyOp19
 70
     1
102
RTVSPropertyOp20
 70
     1
102
RTVSPropertyOp21
 70
     1
102
RTVSPropertyOp22
 70
     1
102
RTVSPropertyOp23
 70
     1
102
RTVSPropertyOp24
 70
     1
102
RTVSPropertyOp25
 70
     1
102
RTVSPropertyOp26
 70
     1
102
RTVSPropertyOp27
 70
     1
102
RTVSPropertyOp28
 70
     1
102
RTVSPropertyOp29
 70
     1
102
RTVSPropertyOp30
 70
     1
102
RTVSPropertyOp31
 70
     1
102
RTVSPropertyOp32
 70
     1
  0
XRECORD
  5
25D
102
{ACAD_REACTORS
330
25C
102
}
330
25C
100
AcDbXrecord
280
     1
102
RTVSPropertyOp0
 70
     1
102
RTVSPropertyOp1
 70
     1
102
RTVSPropertyOp2
 70
     1
102
RTVSPropertyOp3
 70
     1
102
RTVSPropertyOp4
 70
     1
102
RTVSPropertyOp5
 70
     1
102
RTVSPropertyOp6
 70
     1
102
RTVSPropertyOp7
 70
     1
102
RTVSPropertyOp8
 70
     1
102
RTVSPropertyOp9
 70
     1
102
RTVSPropertyOp10
 70
     1
102
RTVSPropertyOp11
 70
     1
102
RTVSPropertyOp12
 70
     1
102
RTVSPropertyOp13
 70
     1
102
RTVSPropertyOp14
 70
     1
102
RTVSPropertyOp15
 70
     1
102
RTVSPropertyOp16
 70
     1
102
RTVSPropertyOp17
 70
     1
102
RTVSPropertyOp18
 70
     1
102
RTVSPropertyOp19
 70
     1
102
RTVSPropertyOp20
 70
     1
102
RTVSPropertyOp21
 70
     1
102
RTVSPropertyOp22
 70
     1
102
RTVSPropertyOp23
 70
     1
102
RTVSPropertyOp24
 70
     1
102
RTVSPropertyOp25
 70
     1
102
RTVSPropertyOp26
 70
     1
102
RTVSPropertyOp27
 70
     1
102
RTVSPropertyOp28
 70
     1
102
RTVSPropertyOp29
 70
     1
102
RTVSPropertyOp30
 70
     1
102
RTVSPropertyOp31
 70
     1
102
RTVSPropertyOp32
 70
     1
  0
XRECORD
  5
261
102
{ACAD_REACTORS
330
260
102
}
330
260
100
AcDbXrecord
280
     1
102
RTVSPropertyOp0
 70
     1
102
RTVSPropertyOp1
 70
     1
102
RTVSPropertyOp2
 70
     1
102
RTVSPropertyOp3
 70
     1
102
RTVSPropertyOp4
 70
     1
102
RTVSPropertyOp5
 70
     1
102
RTVSPropertyOp6
 70
     1
102
RTVSPropertyOp7
 70
     1
102
RTVSPropertyOp8
 70
     1
102
RTVSPropertyOp9
 70
     1
102
RTVSPropertyOp10
 70
     1
102
RTVSPropertyOp11
 70
     1
102
RTVSPropertyOp12
 70
     1
102
RTVSPropertyOp13
 70
     1
102
RTVSPropertyOp14
 70
     1
102
RTVSPropertyOp15
 70
     1
102
RTVSPropertyOp16
 70
     1
102
RTVSPropertyOp17
 70
     1
102
RTVSPropertyOp18
 70
     1
102
RTVSPropertyOp19
 70
     1
102
RTVSPropertyOp20
 70
     1
102
RTVSPropertyOp21
 70
     1
102
RTVSPropertyOp22
 70
     1
102
RTVSPropertyOp23
 70
     1
102
RTVSPropertyOp24
 70
     1
102
RTVSPropertyOp25
 70
     1
102
RTVSPropertyOp26
 70
     1
102
RTVSPropertyOp27
 70
     1
102
RTVSPropertyOp28
 70
     1
102
RTVSPropertyOp29
 70
     1
102
RTVSPropertyOp30
 70
     1
102
RTVSPropertyOp31
 70
     1
102
RTVSPropertyOp32
 70
     1
  0
XRECORD
  5
269
102
{ACAD_REACTORS
330
268
102
}
330
268
100
AcDbXrecord
280
     1
102
RTVSPropertyOp0
 70
     1
102
RTVSPropertyOp1
 70
     1
102
RTVSPropertyOp2
 70
     1
102
RTVSPropertyOp3
 70
     1
102
RTVSPropertyOp4
 70
     1
102
RTVSPropertyOp5
 70
     1
102
RTVSPropertyOp6
 70
     1
102
RTVSPropertyOp7
 70
     1
102
RTVSPropertyOp8
 70
     1
102
RTVSPropertyOp9
 70
     1
102
RTVSPropertyOp10
 70
     1
102
RTVSPropertyOp11
 70
     1
102
RTVSPropertyOp12
 70
     1
102
RTVSPropertyOp13
 70
     1
102
RTVSPropertyOp14
 70
     1
102
RTVSPropertyOp15
 70
     1
102
RTVSPropertyOp16
 70
     1
102
RTVSPropertyOp17
 70
     1
102
RTVSPropertyOp18
 70
     1
102
RTVSPropertyOp19
 70
     1
102
RTVSPropertyOp20
 70
     1
102
RTVSPropertyOp21
 70
     1
102
RTVSPropertyOp22
 70
     1
102
RTVSPropertyOp23
 70
     1
102
RTVSPropertyOp24
 70
     1
102
RTVSPropertyOp25
 70
     1
102
RTVSPropertyOp26
 70
     1
102
RTVSPropertyOp27
 70
     1
102
RTVSPropertyOp28
 70
     1
102
RTVSPropertyOp29
 70
     1
102
RTVSPropertyOp30
 70
     1
102
RTVSPropertyOp31
 70
     1
102
RTVSPropertyOp32
 70
     1
  0
XRECORD
  5
271
102
{ACAD_REACTORS
330
270
102
}
330
270
100
AcDbXrecord
280
     1
102
RTVSPropertyOp0
 70
     1
102
RTVSPropertyOp1
 70
     1
102
RTVSPropertyOp2
 70
     1
102
RTVSPropertyOp3
 70
     1
102
RTVSPropertyOp4
 70
     1
102
RTVSPropertyOp5
 70
     1
102
RTVSPropertyOp6
 70
     1
102
RTVSPropertyOp7
 70
     1
102
RTVSPropertyOp8
 70
     1
102
RTVSPropertyOp9
 70
     1
102
RTVSPropertyOp10
 70
     1
102
RTVSPropertyOp11
 70
     1
102
RTVSPropertyOp12
 70
     1
102
RTVSPropertyOp13
 70
     1
102
RTVSPropertyOp14
 70
     1
102
RTVSPropertyOp15
 70
     1
102
RTVSPropertyOp16
 70
     1
102
RTVSPropertyOp17
 70
     1
102
RTVSPropertyOp18
 70
     1
102
RTVSPropertyOp19
 70
     1
102
RTVSPropertyOp20
 70
     1
102
RTVSPropertyOp21
 70
     1
102
RTVSPropertyOp22
 70
     1
102
RTVSPropertyOp23
 70
     1
102
RTVSPropertyOp24
 70
     1
102
RTVSPropertyOp25
 70
     1
102
RTVSPropertyOp26
 70
     1
102
RTVSPropertyOp27
 70
     1
102
RTVSPropertyOp28
 70
     1
102
RTVSPropertyOp29
 70
     1
102
RTVSPropertyOp30
 70
     1
102
RTVSPropertyOp31
 70
     1
102
RTVSPropertyOp32
 70
     1
  0
XRECORD
  5
265
102
{ACAD_REACTORS
330
264
102
}
330
264
100
AcDbXrecord
280
     1
102
RTVSPropertyOp0
 70
     1
102
RTVSPropertyOp1
 70
     1
102
RTVSPropertyOp2
 70
     1
102
RTVSPropertyOp3
 70
     1
102
RTVSPropertyOp4
 70
     1
102
RTVSPropertyOp5
 70
     1
102
RTVSPropertyOp6
 70
     1
102
RTVSPropertyOp7
 70
     1
102
RTVSPropertyOp8
 70
     1
102
RTVSPropertyOp9
 70
     1
102
RTVSPropertyOp10
 70
     1
102
RTVSPropertyOp11
 70
     1
102
RTVSPropertyOp12
 70
     1
102
RTVSPropertyOp13
 70
     1
102
RTVSPropertyOp14
 70
     1
102
RTVSPropertyOp15
 70
     1
102
RTVSPropertyOp16
 70
     1
102
RTVSPropertyOp17
 70
     1
102
RTVSPropertyOp18
 70
     1
102
RTVSPropertyOp19
 70
     1
102
RTVSPropertyOp20
 70
     1
102
RTVSPropertyOp21
 70
     1
102
RTVSPropertyOp22
 70
     1
102
RTVSPropertyOp23
 70
     1
102
RTVSPropertyOp24
 70
     1
102
RTVSPropertyOp25
 70
     1
102
RTVSPropertyOp26
 70
     1
102
RTVSPropertyOp27
 70
     1
102
RTVSPropertyOp28
 70
     1
102
RTVSPropertyOp29
 70
     1
102
RTVSPropertyOp30
 70
     1
102
RTVSPropertyOp31
 70
     1
102
RTVSPropertyOp32
 70
     1
  0
XRECORD
  5
267
102
{ACAD_REACTORS
330
266
102
}
330
266
100
AcDbXrecord
280
     1
102
RTVSPropertyOp0
 70
     1
102
RTVSPropertyOp1
 70
     1
102
RTVSPropertyOp2
 70
     1
102
RTVSPropertyOp3
 70
     1
102
RTVSPropertyOp4
 70
     1
102
RTVSPropertyOp5
 70
     1
102
RTVSPropertyOp6
 70
     1
102
RTVSPropertyOp7
 70
     1
102
RTVSPropertyOp8
 70
     1
102
RTVSPropertyOp9
 70
     1
102
RTVSPropertyOp10
 70
     1
102
RTVSPropertyOp11
 70
     1
102
RTVSPropertyOp12
 70
     1
102
RTVSPropertyOp13
 70
     1
102
RTVSPropertyOp14
 70
     1
102
RTVSPropertyOp15
 70
     1
102
RTVSPropertyOp16
 70
     1
102
RTVSPropertyOp17
 70
     1
102
RTVSPropertyOp18
 70
     1
102
RTVSPropertyOp19
 70
     1
102
RTVSPropertyOp20
 70
     1
102
RTVSPropertyOp21
 70
     1
102
RTVSPropertyOp22
 70
     1
102
RTVSPropertyOp23
 70
     1
102
RTVSPropertyOp24
 70
     1
102
RTVSPropertyOp25
 70
     1
102
RTVSPropertyOp26
 70
     1
102
RTVSPropertyOp27
 70
     1
102
RTVSPropertyOp28
 70
     1
102
RTVSPropertyOp29
 70
     1
102
RTVSPropertyOp30
 70
     1
102
RTVSPropertyOp31
 70
     1
102
RTVSPropertyOp32
 70
     1
  0
XRECORD
  5
26F
102
{ACAD_REACTORS
330
26E
102
}
330
26E
100
AcDbXrecord
280
     1
102
RTVSPropertyOp0
 70
     1
102
RTVSPropertyOp1
 70
     1
102
RTVSPropertyOp2
 70
     1
102
RTVSPropertyOp3
 70
     1
102
RTVSPropertyOp4
 70
     1
102
RTVSPropertyOp5
 70
     1
102
RTVSPropertyOp6
 70
     1
102
RTVSPropertyOp7
 70
     1
102
RTVSPropertyOp8
 70
     1
102
RTVSPropertyOp9
 70
     1
102
RTVSPropertyOp10
 70
     1
102
RTVSPropertyOp11
 70
     1
102
RTVSPropertyOp12
 70
     1
102
RTVSPropertyOp13
 70
     1
102
RTVSPropertyOp14
 70
     1
102
RTVSPropertyOp15
 70
     1
102
RTVSPropertyOp16
 70
     1
102
RTVSPropertyOp17
 70
     1
102
RTVSPropertyOp18
 70
     1
102
RTVSPropertyOp19
 70
     1
102
RTVSPropertyOp20
 70
     1
102
RTVSPropertyOp21
 70
     1
102
RTVSPropertyOp22
 70
     1
102
RTVSPropertyOp23
 70
     1
102
RTVSPropertyOp24
 70
     1
102
RTVSPropertyOp25
 70
     1
102
RTVSPropertyOp26
 70
     1
102
RTVSPropertyOp27
 70
     1
102
RTVSPropertyOp28
 70
     1
102
RTVSPropertyOp29
 70
     1
102
RTVSPropertyOp30
 70
     1
102
RTVSPropertyOp31
 70
     1
102
RTVSPropertyOp32
 70
     1
  0
XRECORD
  5
253
102
{ACAD_REACTORS
330
252
102
}
330
252
100
AcDbXrecord
280
     1
102
RTVSPropertyOp0
 70
     1
102
RTVSPropertyOp1
 70
     1
102
RTVSPropertyOp2
 70
     1
102
RTVSPropertyOp3
 70
     1
102
RTVSPropertyOp4
 70
     1
102
RTVSPropertyOp5
 70
     1
102
RTVSPropertyOp6
 70
     1
102
RTVSPropertyOp7
 70
     1
102
RTVSPropertyOp8
 70
     1
102
RTVSPropertyOp9
 70
     1
102
RTVSPropertyOp10
 70
     1
102
RTVSPropertyOp11
 70
     1
102
RTVSPropertyOp12
 70
     1
102
RTVSPropertyOp13
 70
     1
102
RTVSPropertyOp14
 70
     1
102
RTVSPropertyOp15
 70
     1
102
RTVSPropertyOp16
 70
     1
102
RTVSPropertyOp17
 70
     1
102
RTVSPropertyOp18
 70
     1
102
RTVSPropertyOp19
 70
     1
102
RTVSPropertyOp20
 70
     1
102
RTVSPropertyOp21
 70
     1
102
RTVSPropertyOp22
 70
     1
102
RTVSPropertyOp23
 70
     1
102
RTVSPropertyOp24
 70
     1
102
RTVSPropertyOp25
 70
     1
102
RTVSPropertyOp26
 70
     1
102
RTVSPropertyOp27
 70
     1
102
RTVSPropertyOp28
 70
     1
102
RTVSPropertyOp29
 70
     1
102
RTVSPropertyOp30
 70
     1
102
RTVSPropertyOp31
 70
     1
102
RTVSPropertyOp32
 70
     1
  0
XRECORD
  5
255
102
{ACAD_REACTORS
330
254
102
}
330
254
100
AcDbXrecord
280
     1
102
RTVSPropertyOp0
 70
     1
102
RTVSPropertyOp1
 70
     1
102
RTVSPropertyOp2
 70
     1
102
RTVSPropertyOp3
 70
     1
102
RTVSPropertyOp4
 70
     1
102
RTVSPropertyOp5
 70
     1
102
RTVSPropertyOp6
 70
     1
102
RTVSPropertyOp7
 70
     1
102
RTVSPropertyOp8
 70
     1
102
RTVSPropertyOp9
 70
     1
102
RTVSPropertyOp10
 70
     1
102
RTVSPropertyOp11
 70
     1
102
RTVSPropertyOp12
 70
     1
102
RTVSPropertyOp13
 70
     1
102
RTVSPropertyOp14
 70
     1
102
RTVSPropertyOp15
 70
     1
102
RTVSPropertyOp16
 70
     1
102
RTVSPropertyOp17
 70
     1
102
RTVSPropertyOp18
 70
     1
102
RTVSPropertyOp19
 70
     1
102
RTVSPropertyOp20
 70
     1
102
RTVSPropertyOp21
 70
     1
102
RTVSPropertyOp22
 70
     1
102
RTVSPropertyOp23
 70
     1
102
RTVSPropertyOp24
 70
     1
102
RTVSPropertyOp25
 70
     1
102
RTVSPropertyOp26
 70
     1
102
RTVSPropertyOp27
 70
     1
102
RTVSPropertyOp28
 70
     1
102
RTVSPropertyOp29
 70
     1
102
RTVSPropertyOp30
 70
     1
102
RTVSPropertyOp31
 70
     1
102
RTVSPropertyOp32
 70
     1
  0
XRECORD
  5
257
102
{ACAD_REACTORS
330
256
102
}
330
256
100
AcDbXrecord
280
     1
102
RTVSPropertyOp0
 70
     1
102
RTVSPropertyOp1
 70
     1
102
RTVSPropertyOp2
 70
     1
102
RTVSPropertyOp3
 70
     1
102
RTVSPropertyOp4
 70
     1
102
RTVSPropertyOp5
 70
     1
102
RTVSPropertyOp6
 70
     1
102
RTVSPropertyOp7
 70
     1
102
RTVSPropertyOp8
 70
     1
102
RTVSPropertyOp9
 70
     1
102
RTVSPropertyOp10
 70
     1
102
RTVSPropertyOp11
 70
     1
102
RTVSPropertyOp12
 70
     1
102
RTVSPropertyOp13
 70
     1
102
RTVSPropertyOp14
 70
     1
102
RTVSPropertyOp15
 70
     1
102
RTVSPropertyOp16
 70
     1
102
RTVSPropertyOp17
 70
     1
102
RTVSPropertyOp18
 70
     1
102
RTVSPropertyOp19
 70
     1
102
RTVSPropertyOp20
 70
     1
102
RTVSPropertyOp21
 70
     1
102
RTVSPropertyOp22
 70
     1
102
RTVSPropertyOp23
 70
     1
102
RTVSPropertyOp24
 70
     1
102
RTVSPropertyOp25
 70
     1
102
RTVSPropertyOp26
 70
     1
102
RTVSPropertyOp27
 70
     1
102
RTVSPropertyOp28
 70
     1
102
RTVSPropertyOp29
 70
     1
102
RTVSPropertyOp30
 70
     1
102
RTVSPropertyOp31
 70
     1
102
RTVSPropertyOp32
 70
     1
  0
XRECORD
  5
259
102
{ACAD_REACTORS
330
258
102
}
330
258
100
AcDbXrecord
280
     1
102
RTVSPropertyOp0
 70
     1
102
RTVSPropertyOp1
 70
     1
102
RTVSPropertyOp2
 70
     1
102
RTVSPropertyOp3
 70
     1
102
RTVSPropertyOp4
 70
     1
102
RTVSPropertyOp5
 70
     1
102
RTVSPropertyOp6
 70
     1
102
RTVSPropertyOp7
 70
     1
102
RTVSPropertyOp8
 70
     1
102
RTVSPropertyOp9
 70
     1
102
RTVSPropertyOp10
 70
     1
102
RTVSPropertyOp11
 70
     1
102
RTVSPropertyOp12
 70
     1
102
RTVSPropertyOp13
 70
     1
102
RTVSPropertyOp14
 70
     1
102
RTVSPropertyOp15
 70
     1
102
RTVSPropertyOp16
 70
     1
102
RTVSPropertyOp17
 70
     1
102
RTVSPropertyOp18
 70
     1
102
RTVSPropertyOp19
 70
     1
102
RTVSPropertyOp20
 70
     1
102
RTVSPropertyOp21
 70
     1
102
RTVSPropertyOp22
 70
     1
102
RTVSPropertyOp23
 70
     1
102
RTVSPropertyOp24
 70
     1
102
RTVSPropertyOp25
 70
     1
102
RTVSPropertyOp26
 70
     1
102
RTVSPropertyOp27
 70
     1
102
RTVSPropertyOp28
 70
     1
102
RTVSPropertyOp29
 70
     1
102
RTVSPropertyOp30
 70
     1
102
RTVSPropertyOp31
 70
     1
102
RTVSPropertyOp32
 70
     1
  0
XRECORD
  5
26D
102
{ACAD_REACTORS
330
26C
102
}
330
26C
100
AcDbXrecord
280
     1
102
RTVSPropertyOp0
 70
     1
102
RTVSPropertyOp1
 70
     1
102
RTVSPropertyOp2
 70
     1
102
RTVSPropertyOp3
 70
     1
102
RTVSPropertyOp4
 70
     1
102
RTVSPropertyOp5
 70
     1
102
RTVSPropertyOp6
 70
     1
102
RTVSPropertyOp7
 70
     1
102
RTVSPropertyOp8
 70
     1
102
RTVSPropertyOp9
 70
     1
102
RTVSPropertyOp10
 70
     1
102
RTVSPropertyOp11
 70
     1
102
RTVSPropertyOp12
 70
     1
102
RTVSPropertyOp13
 70
     1
102
RTVSPropertyOp14
 70
     1
102
RTVSPropertyOp15
 70
     1
102
RTVSPropertyOp16
 70
     1
102
RTVSPropertyOp17
 70
     1
102
RTVSPropertyOp18
 70
     1
102
RTVSPropertyOp19
 70
     1
102
RTVSPropertyOp20
 70
     1
102
RTVSPropertyOp21
 70
     1
102
RTVSPropertyOp22
 70
     1
102
RTVSPropertyOp23
 70
     1
102
RTVSPropertyOp24
 70
     1
102
RTVSPropertyOp25
 70
     1
102
RTVSPropertyOp26
 70
     1
102
RTVSPropertyOp27
 70
     1
102
RTVSPropertyOp28
 70
     1
102
RTVSPropertyOp29
 70
     1
102
RTVSPropertyOp30
 70
     1
102
RTVSPropertyOp31
 70
     1
102
RTVSPropertyOp32
 70
     1
  0
XRECORD
  5
263
102
{ACAD_REACTORS
330
262
102
}
330
262
100
AcDbXrecord
280
     1
102
RTVSPropertyOp0
 70
     1
102
RTVSPropertyOp1
 70
     1
102
RTVSPropertyOp2
 70
     1
102
RTVSPropertyOp3
 70
     1
102
RTVSPropertyOp4
 70
     1
102
RTVSPropertyOp5
 70
     1
102
RTVSPropertyOp6
 70
     1
102
RTVSPropertyOp7
 70
     1
102
RTVSPropertyOp8
 70
     1
102
RTVSPropertyOp9
 70
     1
102
RTVSPropertyOp10
 70
     1
102
RTVSPropertyOp11
 70
     1
102
RTVSPropertyOp12
 70
     1
102
RTVSPropertyOp13
 70
     1
102
RTVSPropertyOp14
 70
     1
102
RTVSPropertyOp15
 70
     1
102
RTVSPropertyOp16
 70
     1
102
RTVSPropertyOp17
 70
     1
102
RTVSPropertyOp18
 70
     1
102
RTVSPropertyOp19
 70
     1
102
RTVSPropertyOp20
 70
     1
102
RTVSPropertyOp21
 70
     1
102
RTVSPropertyOp22
 70
     1
102
RTVSPropertyOp23
 70
     1
102
RTVSPropertyOp24
 70
     1
102
RTVSPropertyOp25
 70
     1
102
RTVSPropertyOp26
 70
     1
102
RTVSPropertyOp27
 70
     1
102
RTVSPropertyOp28
 70
     1
102
RTVSPropertyOp29
 70
     1
102
RTVSPropertyOp30
 70
     1
102
RTVSPropertyOp31
 70
     1
102
RTVSPropertyOp32
 70
     1
  0
XRECORD
  5
26B
102
{ACAD_REACTORS
330
26A
102
}
330
26A
100
AcDbXrecord
280
     1
102
RTVSPropertyOp0
 70
     1
102
RTVSPropertyOp1
 70
     1
102
RTVSPropertyOp2
 70
     1
102
RTVSPropertyOp3
 70
     1
102
RTVSPropertyOp4
 70
     1
102
RTVSPropertyOp5
 70
     1
102
RTVSPropertyOp6
 70
     1
102
RTVSPropertyOp7
 70
     1
102
RTVSPropertyOp8
 70
     1
102
RTVSPropertyOp9
 70
     1
102
RTVSPropertyOp10
 70
     1
102
RTVSPropertyOp11
 70
     1
102
RTVSPropertyOp12
 70
     1
102
RTVSPropertyOp13
 70
     1
102
RTVSPropertyOp14
 70
     1
102
RTVSPropertyOp15
 70
     1
102
RTVSPropertyOp16
 70
     1
102
RTVSPropertyOp17
 70
     1
102
RTVSPropertyOp18
 70
     1
102
RTVSPropertyOp19
 70
     1
102
RTVSPropertyOp20
 70
     1
102
RTVSPropertyOp21
 70
     1
102
RTVSPropertyOp22
 70
     1
102
RTVSPropertyOp23
 70
     1
102
RTVSPropertyOp24
 70
     1
102
RTVSPropertyOp25
 70
     1
102
RTVSPropertyOp26
 70
     1
102
RTVSPropertyOp27
 70
     1
102
RTVSPropertyOp28
 70
     1
102
RTVSPropertyOp29
 70
     1
102
RTVSPropertyOp30
 70
     1
102
RTVSPropertyOp31
 70
     1
102
RTVSPropertyOp32
 70
     1
  0
ENDSEC
  0
EOF
