  0
SECTION
  2
HEADER
  9
$ACADVER
  1
AC1018
  9
$ACADMAINTVER
 70
     0
  9
$DWGCODEPAGE
  3
ANSI_1252
  9
$INSBASE
 10
0.0
 20
0.0
 30
0.0
  9
$EXTMIN
 10
-425.679727995883
 20
-248.8880164228951
 30
0.0
  9
$EXTMAX
 10
-128.679727995885
 20
-38.88801642289494
 30
0.0
  9
$LIMMIN
 10
0.0
 20
0.0
  9
$LIMMAX
 10
12.0
 20
9.0
  9
$ORTHOMODE
 70
     0
  9
$REGENMODE
 70
     1
  9
$FILLMODE
 70
     1
  9
$QTEXTMODE
 70
     0
  9
$MIRRTEXT
 70
     1
  9
$LTSCALE
 40
1.0
  9
$ATTMODE
 70
     1
  9
$TEXTSIZE
 40
0.2
  9
$TRACEWID
 40
0.05
  9
$TEXTSTYLE
  7
Standard
  9
$CLAYER
  8
0
  9
$CELTYPE
  6
ByLayer
  9
$CECOLOR
 62
   256
  9
$CELTSCALE
 40
1.0
  9
$DISPSILH
 70
     0
  9
$DIMSCALE
 40
1.0
  9
$DIMASZ
 40
0.18
  9
$DIMEXO
 40
0.0625
  9
$DIMDLI
 40
0.38
  9
$DIMRND
 40
0.0
  9
$DIMDLE
 40
0.0
  9
$DIMEXE
 40
0.18
  9
$DIMTP
 40
0.0
  9
$DIMTM
 40
0.0
  9
$DIMTXT
 40
0.18
  9
$DIMCEN
 40
0.09
  9
$DIMTSZ
 40
0.0
  9
$DIMTOL
 70
     0
  9
$DIMLIM
 70
     0
  9
$DIMTIH
 70
     1
  9
$DIMTOH
 70
     1
  9
$DIMSE1
 70
     0
  9
$DIMSE2
 70
     0
  9
$DIMTAD
 70
     0
  9
$DIMZIN
 70
     0
  9
$DIMBLK
  1

  9
$DIMASO
 70
     1
  9
$DIMSHO
 70
     1
  9
$DIMPOST
  1

  9
$DIMAPOST
  1

  9
$DIMALT
 70
     0
  9
$DIMALTD
 70
     2
  9
$DIMALTF
 40
25.4
  9
$DIMLFAC
 40
1.0
  9
$DIMTOFL
 70
     0
  9
$DIMTVP
 40
0.0
  9
$DIMTIX
 70
     0
  9
$DIMSOXD
 70
     0
  9
$DIMSAH
 70
     0
  9
$DIMBLK1
  1

  9
$DIMBLK2
  1

  9
$DIMSTYLE
  2
Standard
  9
$DIMCLRD
 70
     0
  9
$DIMCLRE
 70
     0
  9
$DIMCLRT
 70
     0
  9
$DIMTFAC
 40
1.0
  9
$DIMGAP
 40
0.09
  9
$DIMJUST
 70
     0
  9
$DIMSD1
 70
     0
  9
$DIMSD2
 70
     0
  9
$DIMTOLJ
 70
     1
  9
$DIMTZIN
 70
     0
  9
$DIMALTZ
 70
     0
  9
$DIMALTTZ
 70
     0
  9
$DIMUPT
 70
     0
  9
$DIMDEC
 70
     4
  9
$DIMTDEC
 70
     4
  9
$DIMALTU
 70
     2
  9
$DIMALTTD
 70
     2
  9
$DIMTXSTY
  7
Standard
  9
$DIMAUNIT
 70
     0
  9
$DIMADEC
 70
     0
  9
$DIMALTRND
 40
0.0
  9
$DIMAZIN
 70
     0
  9
$DIMDSEP
 70
    46
  9
$DIMATFIT
 70
     3
  9
$DIMFRAC
 70
     0
  9
$DIMLDRBLK
  1

  9
$DIMLUNIT
 70
     2
  9
$DIMLWD
 70
    -2
  9
$DIMLWE
 70
    -2
  9
$DIMTMOVE
 70
     0
  9
$LUNITS
 70
     2
  9
$LUPREC
 70
     4
  9
$SKETCHINC
 40
0.1
  9
$FILLETRAD
 40
0.5
  9
$AUNITS
 70
     0
  9
$AUPREC
 70
     0
  9
$MENU
  1
.
  9
$ELEVATION
 40
0.0
  9
$PELEVATION
 40
0.0
  9
$THICKNESS
 40
0.0
  9
$LIMCHECK
 70
     0
  9
$CHAMFERA
 40
0.5
  9
$CHAMFERB
 40
0.5
  9
$CHAMFERC
 40
1.0
  9
$CHAMFERD
 40
0.0
  9
$SKPOLY
 70
     0
  9
$TDCREATE
 40
2458411.508638761
  9
$TDUCREATE
 40
2458411.425305428
  9
$TDUPDATE
 40
2458411.508639305
  9
$TDUUPDATE
 40
2458411.425305972
  9
$TDINDWG
 40
0.0000000116
  9
$TDUSRTIMER
 40
0.0000000116
  9
$USRTIMER
 70
     1
  9
$ANGBASE
 50
0.0
  9
$ANGDIR
 70
     0
  9
$PDMODE
 70
     0
  9
$PDSIZE
 40
0.0
  9
$PLINEWID
 40
0.0
  9
$SPLFRAME
 70
     0
  9
$SPLINETYPE
 70
     6
  9
$SPLINESEGS
 70
     8
  9
$HANDSEED
  5
27A
  9
$SURFTAB1
 70
     6
  9
$SURFTAB2
 70
     6
  9
$SURFTYPE
 70
     6
  9
$SURFU
 70
     6
  9
$SURFV
 70
     6
  9
$UCSBASE
  2

  9
$UCSNAME
  2

  9
$UCSORG
 10
0.0
 20
0.0
 30
0.0
  9
$UCSXDIR
 10
1.0
 20
0.0
 30
0.0
  9
$UCSYDIR
 10
0.0
 20
1.0
 30
0.0
  9
$UCSORTHOREF
  2

  9
$UCSORTHOVIEW
 70
     0
  9
$UCSORGTOP
 10
0.0
 20
0.0
 30
0.0
  9
$UCSORGBOTTOM
 10
0.0
 20
0.0
 30
0.0
  9
$UCSORGLEFT
 10
0.0
 20
0.0
 30
0.0
  9
$UCSORGRIGHT
 10
0.0
 20
0.0
 30
0.0
  9
$UCSORGFRONT
 10
0.0
 20
0.0
 30
0.0
  9
$UCSORGBACK
 10
0.0
 20
0.0
 30
0.0
  9
$PUCSBASE
  2

  9
$PUCSNAME
  2

  9
$PUCSORG
 10
0.0
 20
0.0
 30
0.0
  9
$PUCSXDIR
 10
1.0
 20
0.0
 30
0.0
  9
$PUCSYDIR
 10
0.0
 20
1.0
 30
0.0
  9
$PUCSORTHOREF
  2

  9
$PUCSORTHOVIEW
 70
     0
  9
$PUCSORGTOP
 10
0.0
 20
0.0
 30
0.0
  9
$PUCSORGBOTTOM
 10
0.0
 20
0.0
 30
0.0
  9
$PUCSORGLEFT
 10
0.0
 20
0.0
 30
0.0
  9
$PUCSORGRIGHT
 10
0.0
 20
0.0
 30
0.0
  9
$PUCSORGFRONT
 10
0.0
 20
0.0
 30
0.0
  9
$PUCSORGBACK
 10
0.0
 20
0.0
 30
0.0
  9
$USERI1
 70
     0
  9
$USERI2
 70
     0
  9
$USERI3
 70
     0
  9
$USERI4
 70
     0
  9
$USERI5
 70
     0
  9
$USERR1
 40
18.1
  9
$USERR2
 40
0.0
  9
$USERR3
 40
0.0
  9
$USERR4
 40
0.0
  9
$USERR5
 40
0.0
  9
$WORLDVIEW
 70
     1
  9
$SHADEDGE
 70
     3
  9
$SHADEDIF
 70
    70
  9
$TILEMODE
 70
     1
  9
$MAXACTVP
 70
    64
  9
$PINSBASE
 10
0.0
 20
0.0
 30
0.0
  9
$PLIMCHECK
 70
     0
  9
$PEXTMIN
 10
1.00000000000000E+20
 20
1.00000000000000E+20
 30
1.00000000000000E+20
  9
$PEXTMAX
 10
-1.00000000000000E+20
 20
-1.00000000000000E+20
 30
-1.00000000000000E+20
  9
$PLIMMIN
 10
0.0
 20
0.0
  9
$PLIMMAX
 10
12.0
 20
9.0
  9
$UNITMODE
 70
     0
  9
$VISRETAIN
 70
     1
  9
$PLINEGEN
 70
     0
  9
$PSLTSCALE
 70
     1
  9
$TREEDEPTH
 70
  3020
  9
$CMLSTYLE
  2
Standard
  9
$CMLJUST
 70
     0
  9
$CMLSCALE
 40
1.0
  9
$PROXYGRAPHICS
 70
     1
  9
$MEASUREMENT
 70
     1
  9
$CELWEIGHT
370
    -1
  9
$ENDCAPS
280
     0
  9
$JOINSTYLE
280
     0
  9
$LWDISPLAY
290
     0
  9
$INSUNITS
 70
     4
  9
$HYPERLINKBASE
  1

  9
$STYLESHEET
  1

  9
$XEDIT
290
     1
  9
$CEPSNTYPE
380
     0
  9
$PSTYLEMODE
290
     1
  9
$FINGERPRINTGUID
  2
{7195BE80-B3FC-420A-A609-8C6C12A542A7}
  9
$VERSIONGUID
  2
{FAEB1C32-E019-11D5-929B-00C0DF256EC4}
  9
$EXTNAMES
290
     1
  9
$PSVPSCALE
 40
0.0
  9
$OLESTARTUP
290
     0
  9
$SORTENTS
280
   127
  9
$INDEXCTL
280
     0
  9
$HIDETEXT
280
     1
  9
$XCLIPFRAME
290
     0
  9
$HALOGAP
280
     0
  9
$OBSCOLOR
 70
   257
  9
$OBSLTYPE
280
     0
  9
$INTERSECTIONDISPLAY
280
     0
  9
$INTERSECTIONCOLOR
 70
   257
  9
$DIMASSOC
280
     2
  9
$PROJECTNAME
  1

  0
ENDSEC
  0
SECTION
  2
CLASSES
  0
CLASS
  1
ACDBDICTIONARYWDFLT
  2
AcDbDictionaryWithDefault
  3
ObjectDBX Classes
 90
        0
 91
        4
280
     0
281
     0
  0
CLASS
  1
VISUALSTYLE
  2
AcDbVisualStyle
  3
ObjectDBX Classes
 90
     4095
 91
        4
280
     0
281
     0
  0
CLASS
  1
MATERIAL
  2
AcDbMaterial
  3
ObjectDBX Classes
 90
     1153
 91
        4
280
     0
281
     0
  0
ENDSEC
  0
SECTION
  2
TABLES
  0
TABLE
  2
VPORT
  5
8
330
0
100
AcDbSymbolTable
 70
     1
  0
VPORT
  5
29
330
8
100
AcDbSymbolTableRecord
100
AcDbViewportTableRecord
  2
*Active
 70
     0
 10
0.0
 20
0.0
 11
1.0
 21
1.0
 12
-277.179727995884
 22
-143.888016422895
 13
0.0
 23
0.0
 14
0.5
 24
0.5
 15
0.5
 25
0.5
 16
0.0
 26
0.0
 36
1.0
 17
0.0
 27
0.0
 37
0.0
 40
231.0000000000002
 41
1.60267857142857
 42
50.0
 43
0.0
 44
0.0
 50
0.0
 51
0.0
 71
     0
 72
   100
 73
     1
 74
     3
 75
     0
 76
     0
 77
     0
 78
     0
281
     0
 65
     1
110
0.0
120
0.0
130
0.0
111
1.0
121
0.0
131
0.0
112
0.0
122
1.0
132
0.0
 79
     0
146
0.0
  0
ENDTAB
  0
TABLE
  2
LTYPE
  5
5
330
0
100
AcDbSymbolTable
 70
     8
  0
LTYPE
  5
14
330
5
100
AcDbSymbolTableRecord
100
AcDbLinetypeTableRecord
  2
ByBlock
 70
     0
  3

 72
    65
 73
     0
 40
0.0
  0
LTYPE
  5
15
330
5
100
AcDbSymbolTableRecord
100
AcDbLinetypeTableRecord
  2
ByLayer
 70
     0
  3

 72
    65
 73
     0
 40
0.0
  0
LTYPE
  5
16
330
5
100
AcDbSymbolTableRecord
100
AcDbLinetypeTableRecord
  2
Continuous
 70
     0
  3
Solid line
 72
    65
 73
     0
 40
0.0
  0
LTYPE
  5
3F
330
5
100
AcDbSymbolTableRecord
100
AcDbLinetypeTableRecord
  2
DASHED
 70
     0
  3
Dashed
 72
    65
 73
     2
 40
15.0
 49
7.0
 74
     0
 49
-8.0
 74
     0
  0
LTYPE
  5
40
330
5
100
AcDbSymbolTableRecord
100
AcDbLinetypeTableRecord
  2
DOTTED
 70
     0
  3
Dotted
 72
    65
 73
     2
 40
1.0
 49
0.0
 74
     0
 49
-1.0
 74
     0
  0
LTYPE
  5
41
330
5
100
AcDbSymbolTableRecord
100
AcDbLinetypeTableRecord
  2
DOT_CENTER
 70
     0
  3
Dot_Center
 72
    65
 73
     4
 40
14.0
 49
12.0
 74
     0
 49
-1.0
 74
     0
 49
0.0
 74
     0
 49
-1.0
 74
     0
  0
LTYPE
  5
42
330
5
100
AcDbSymbolTableRecord
100
AcDbLinetypeTableRecord
  2
LONG_DASHED
 70
     0
  3
Long_Dashed
 72
    65
 73
     2
 40
15.0
 49
10.0
 74
     0
 49
-5.0
 74
     0
  0
LTYPE
  5
43
330
5
100
AcDbSymbolTableRecord
100
AcDbLinetypeTableRecord
  2
DASH_CENTER
 70
     0
  3
Dash_Center
 72
    65
 73
     4
 40
14.0
 49
11.0
 74
     0
 49
-1.0
 74
     0
 49
1.0
 74
     0
 49
-1.0
 74
     0
  0
LTYPE
  5
44
330
5
100
AcDbSymbolTableRecord
100
AcDbLinetypeTableRecord
  2
PHANTOM
 70
     0
  3
Phantom
 72
    65
 73
     6
 40
13.0
 49
10.0
 74
     0
 49
-1.0
 74
     0
 49
0.0
 74
     0
 49
-1.0
 74
     0
 49
0.0
 74
     0
 49
-1.0
 74
     0
  0
LTYPE
  5
45
330
5
100
AcDbSymbolTableRecord
100
AcDbLinetypeTableRecord
  2
CENTER_DASH_DASH
 70
     0
  3
Center_Dash_Dash
 72
    65
 73
     6
 40
14.0
 49
9.0
 74
     0
 49
-1.0
 74
     0
 49
1.0
 74
     0
 49
-1.0
 74
     0
 49
1.0
 74
     0
 49
-1.0
 74
     0
  0
ENDTAB
  0
TABLE
  2
LAYER
  5
2
330
0
100
AcDbSymbolTable
 70
     2
  0
LAYER
  5
10
330
2
100
AcDbSymbolTableRecord
100
AcDbLayerTableRecord
  2
0
 70
     0
 62
     7
  6
Continuous
370
    -3
390
F
  0
LAYER
  5
46
330
2
100
AcDbSymbolTableRecord
100
AcDbLayerTableRecord
  2
1
 70
     0
 62
     7
  6
Continuous
370
    -3
390
F
  0
ENDTAB
  0
TABLE
  2
STYLE
  5
3
330
0
100
AcDbSymbolTable
 70
     5
  0
STYLE
  5
11
330
3
100
AcDbSymbolTableRecord
100
AcDbTextStyleTableRecord
  2
Standard
 70
     0
 40
0.0
 41
1.0
 50
0.0
 71
     0
 42
0.2
  3
txt
  4

  0
STYLE
  5
9B
330
3
100
AcDbSymbolTableRecord
100
AcDbTextStyleTableRecord
  2
CONVERTER_11
 70
     0
 40
0.0
 41
0.9
 50
0.0
 71
     0
 42
0.2
  3
txt.shx
  4

  0
STYLE
  5
215
330
3
100
AcDbSymbolTableRecord
100
AcDbTextStyleTableRecord
  2
CONVERTER_12
 70
     0
 40
0.0
 41
0.81
 50
0.0
 71
     0
 42
0.2
  3
txt.shx
  4

  0
STYLE
  5
22B
330
3
100
AcDbSymbolTableRecord
100
AcDbTextStyleTableRecord
  2
CONVERTER_13
 70
     0
 40
0.0
 41
0.72
 50
0.0
 71
     0
 42
0.2
  3
txt.shx
  4

  0
STYLE
  5
22E
330
3
100
AcDbSymbolTableRecord
100
AcDbTextStyleTableRecord
  2
CONVERTER_14
 70
     0
 40
0.0
 41
0.855
 50
0.0
 71
     0
 42
0.2
  3
txt.shx
  4

  0
ENDTAB
  0
TABLE
  2
VIEW
  5
6
330
0
100
AcDbSymbolTable
 70
     0
  0
ENDTAB
  0
TABLE
  2
UCS
  5
7
330
0
100
AcDbSymbolTable
 70
     0
  0
ENDTAB
  0
TABLE
  2
APPID
  5
9
330
0
100
AcDbSymbolTable
 70
     1
  0
APPID
  5
12
330
9
100
AcDbSymbolTableRecord
100
AcDbRegAppTableRecord
  2
ACAD
 70
     0
  0
ENDTAB
  0
TABLE
  2
DIMSTYLE
  5
A
330
0
100
AcDbSymbolTable
 70
     4
100
AcDbDimStyleTable
  0
DIMSTYLE
105
27
330
A
100
AcDbSymbolTableRecord
100
AcDbDimStyleTableRecord
  2
Standard
 70
     0
178
     0
340
11
  0
DIMSTYLE
105
A8
102
{ACAD_REACTORS
330
A9
102
}
330
A
100
AcDbSymbolTableRecord
100
AcDbDimStyleTableRecord
  2
ME10_DIM_10
 70
     0
 41
3.5
 42
0.0
 44
1.5
 73
     0
 74
     0
 77
     1
 78
     8
140
3.5
147
1.5
172
     1
173
     1
174
     1
175
     1
176
     2
177
     2
178
     3
340
9B
  0
DIMSTYLE
105
10C
102
{ACAD_REACTORS
330
10D
102
}
330
A
100
AcDbSymbolTableRecord
100
AcDbDimStyleTableRecord
  2
ME10_DIM_11
 70
     0
 41
3.5
 42
0.0
 44
1.5
 73
     0
 74
     0
 77
     1
 78
     8
140
3.5
147
1.5
172
     1
173
     1
174
     1
175
     1
176
     2
177
     2
178
     3
340
9B
  0
DIMSTYLE
105
117
102
{ACAD_REACTORS
330
118
102
}
330
A
100
AcDbSymbolTableRecord
100
AcDbDimStyleTableRecord
  2
ME10_DIM_12
 70
     0
 41
3.5
 42
0.0
 44
1.5
 73
     0
 74
     0
 77
     1
 78
     8
140
3.5
147
1.5
172
     1
173
     1
174
     1
175
     1
176
     2
177
     2
178
     3
340
9B
  0
ENDTAB
  0
TABLE
  2
BLOCK_RECORD
  5
1
330
0
100
AcDbSymbolTable
 70
    24
  0
BLOCK_RECORD
  5
1F
330
1
100
AcDbSymbolTableRecord
100
AcDbBlockTableRecord
  2
*Model_Space
340
22
  0
BLOCK_RECORD
  5
1B
330
1
100
AcDbSymbolTableRecord
100
AcDbBlockTableRecord
  2
*Paper_Space
340
1E
  0
BLOCK_RECORD
  5
23
330
1
100
AcDbSymbolTableRecord
100
AcDbBlockTableRecord
  2
*Paper_Space0
340
26
  0
BLOCK_RECORD
  5
47
330
1
100
AcDbSymbolTableRecord
100
AcDbBlockTableRecord
  2
KLM_A-select__1
340
0
102
{BLKREFS
331
4B
102
}
  0
BLOCK_RECORD
  5
4A
330
1
100
AcDbSymbolTableRecord
100
AcDbBlockTableRecord
  2
KLM-A_ESL_44x7-Select__2
340
0
102
{BLKREFS
331
4F
102
}
  0
BLOCK_RECORD
  5
4E
330
1
100
AcDbSymbolTableRecord
100
AcDbBlockTableRecord
  2
Drfsicht1
340
0
102
{BLKREFS
331
8E
102
}
  0
BLOCK_RECORD
  5
52
330
1
100
AcDbSymbolTableRecord
100
AcDbBlockTableRecord
  2
KLM_A-select__3
340
0
102
{BLKREFS
331
56
102
}
  0
BLOCK_RECORD
  5
55
330
1
100
AcDbSymbolTableRecord
100
AcDbBlockTableRecord
  2
KLM-A_ESL_44x7-Select__4
340
0
102
{BLKREFS
331
5A
102
}
  0
BLOCK_RECORD
  5
59
330
1
100
AcDbSymbolTableRecord
100
AcDbBlockTableRecord
  2
Rckans1
340
0
102
{BLKREFS
331
8F
102
}
  0
BLOCK_RECORD
  5
5D
330
1
100
AcDbSymbolTableRecord
100
AcDbBlockTableRecord
  2
ESL_44X7-select
340
0
102
{BLKREFS
331
64
102
}
  0
BLOCK_RECORD
  5
60
330
1
100
AcDbSymbolTableRecord
100
AcDbBlockTableRecord
  2
KLM_A-select__5
340
0
102
{BLKREFS
331
65
102
}
  0
BLOCK_RECORD
  5
63
330
1
100
AcDbSymbolTableRecord
100
AcDbBlockTableRecord
  2
KLM-A_ESL_44x7-Select__6
340
0
102
{BLKREFS
331
69
102
}
  0
BLOCK_RECORD
  5
68
330
1
100
AcDbSymbolTableRecord
100
AcDbBlockTableRecord
  2
SA_Links1
340
0
102
{BLKREFS
331
90
102
}
  0
BLOCK_RECORD
  5
6C
330
1
100
AcDbSymbolTableRecord
100
AcDbBlockTableRecord
  2
KLM_A-select__7
340
0
102
{BLKREFS
331
70
102
}
  0
BLOCK_RECORD
  5
6F
330
1
100
AcDbSymbolTableRecord
100
AcDbBlockTableRecord
  2
KLM-A_ESL_44x7-Select__8
340
0
102
{BLKREFS
331
74
102
}
  0
BLOCK_RECORD
  5
73
330
1
100
AcDbSymbolTableRecord
100
AcDbBlockTableRecord
  2
SA_Rechts1
340
0
102
{BLKREFS
331
91
102
}
  0
BLOCK_RECORD
  5
77
330
1
100
AcDbSymbolTableRecord
100
AcDbBlockTableRecord
  2
KLM_A-select__9
340
0
102
{BLKREFS
331
7B
102
}
  0
BLOCK_RECORD
  5
7A
330
1
100
AcDbSymbolTableRecord
100
AcDbBlockTableRecord
  2
KLM-A_ESL_44x7-Select__10
340
0
102
{BLKREFS
331
7F
102
}
  0
BLOCK_RECORD
  5
7E
330
1
100
AcDbSymbolTableRecord
100
AcDbBlockTableRecord
  2
Vordans1
340
0
102
{BLKREFS
331
92
102
}
  0
BLOCK_RECORD
  5
82
330
1
100
AcDbSymbolTableRecord
100
AcDbBlockTableRecord
  2
_rahmen
340
0
102
{BLKREFS
331
89
102
}
  0
BLOCK_RECORD
  5
85
330
1
100
AcDbSymbolTableRecord
100
AcDbBlockTableRecord
  2
_punkt
340
0
102
{BLKREFS
331
8A
102
}
  0
BLOCK_RECORD
  5
88
330
1
100
AcDbSymbolTableRecord
100
AcDbBlockTableRecord
  2
A4I_CS
340
0
102
{BLKREFS
331
93
102
}
  0
BLOCK_RECORD
  5
8D
330
1
100
AcDbSymbolTableRecord
100
AcDbBlockTableRecord
  2
1
340
0
102
{BLKREFS
331
96
102
}
  0
BLOCK_RECORD
  5
9D
330
1
100
AcDbSymbolTableRecord
100
AcDbBlockTableRecord
  2
*D21
340
0
  0
BLOCK_RECORD
  5
103
330
1
100
AcDbSymbolTableRecord
100
AcDbBlockTableRecord
  2
*D22
340
0
  0
BLOCK_RECORD
  5
10E
330
1
100
AcDbSymbolTableRecord
100
AcDbBlockTableRecord
  2
*D23
340
0
  0
ENDTAB
  0
ENDSEC
  0
SECTION
  2
BLOCKS
  0
BLOCK
  5
20
330
1F
100
AcDbEntity
  8
0
100
AcDbBlockBegin
  2
*Model_Space
 70
     0
 10
0.0
 20
0.0
 30
0.0
  3
*Model_Space
  1

  0
ENDBLK
  5
21
330
1F
100
AcDbEntity
  8
0
100
AcDbBlockEnd
  0
BLOCK
  5
1C
330
1B
100
AcDbEntity
 67
     1
  8
0
100
AcDbBlockBegin
  2
*Paper_Space
 70
     0
 10
0.0
 20
0.0
 30
0.0
  3
*Paper_Space
  1

  0
ENDBLK
  5
1D
330
1B
100
AcDbEntity
 67
     1
  8
0
100
AcDbBlockEnd
  0
BLOCK
  5
24
330
23
100
AcDbEntity
  8
0
100
AcDbBlockBegin
  2
*Paper_Space0
 70
     0
 10
0.0
 20
0.0
 30
0.0
  3
*Paper_Space0
  1

  0
ENDBLK
  5
25
330
23
100
AcDbEntity
  8
0
100
AcDbBlockEnd
  0
BLOCK
  5
48
330
47
100
AcDbEntity
  8
0
100
AcDbBlockBegin
  2
KLM_A-select__1
 70
     0
 10
-340.0000007334295
 20
-172.9000000953674
 30
0.0
  3
KLM_A-select__1
  1

  0
LINE
  5
97
330
47
100
AcDbEntity
  8
0
  6
Continuous
 62
     7
100
AcDbLine
 10
-340.0000007334295
 20
-163.4000000953674
 30
0.0
 11
-340.0000007334295
 21
-172.9000000953674
 31
0.0
  0
LINE
  5
98
330
47
100
AcDbEntity
  8
0
  6
Continuous
 62
     7
100
AcDbLine
 10
-294.0000007334295
 20
-163.4000000953674
 30
0.0
 11
-294.0000007334295
 21
-172.9000000953674
 31
0.0
  0
LINE
  5
99
330
47
100
AcDbEntity
  8
0
  6
Continuous
 62
     7
100
AcDbLine
 10
-340.0000007334295
 20
-172.9000000953674
 30
0.0
 11
-294.0000007334295
 21
-172.9000000953674
 31
0.0
  0
LINE
  5
9A
330
47
100
AcDbEntity
  8
0
  6
Continuous
 62
     7
100
AcDbLine
 10
-294.0000007334295
 20
-163.4000000953674
 30
0.0
 11
-340.0000007334295
 21
-163.4000000953674
 31
0.0
  0
ENDBLK
  5
49
330
47
100
AcDbEntity
  8
0
100
AcDbBlockEnd
  0
BLOCK
  5
4C
330
4A
100
AcDbEntity
  8
0
100
AcDbBlockBegin
  2
KLM-A_ESL_44x7-Select__2
 70
     0
 10
-340.0000007334295
 20
-172.9000000953674
 30
0.0
  3
KLM-A_ESL_44x7-Select__2
  1

  0
INSERT
  5
4B
330
4A
100
AcDbEntity
  8
0
100
AcDbBlockReference
  2
KLM_A-select__1
 10
-340.0000007334295
 20
-172.9000000953674
 30
0.0
  0
ENDBLK
  5
4D
330
4A
100
AcDbEntity
  8
0
100
AcDbBlockEnd
  0
BLOCK
  5
50
330
4E
100
AcDbEntity
  8
0
100
AcDbBlockBegin
  2
Drfsicht1
 70
     0
 10
-317.0
 20
-168.1500000953674
 30
0.0
  3
Drfsicht1
  1

  0
INSERT
  5
4F
330
4E
100
AcDbEntity
  8
0
100
AcDbBlockReference
  2
KLM-A_ESL_44x7-Select__2
 10
-340.0000007334295
 20
-172.9000000953674
 30
0.0
  0
MTEXT
  5
9C
330
4E
100
AcDbEntity
  8
1
 62
     6
100
AcDbMText
 10
-317.0
 20
-177.9000000953674
 30
0.0
 40
5.0
 41
0.0
 71
     2
 72
     1
  1
 
  7
CONVERTER_11
 73
     1
 44
1.32052821128451
  0
DIMENSION
  5
A9
330
4E
100
AcDbEntity
  8
1
100
AcDbDimension
  2
*D21
 10
-350.0000007334296
 20
-163.4000000953674
 30
0.0
 11
-353.4250007334296
 21
-168.851291129947
 31
0.0
 70
    32
  1
<>
 71
     5
 42
-1.0
 53
90.0
  3
ME10_DIM_10
100
AcDbAlignedDimension
 13
-340.0000007334295
 23
-172.9000000953674
 33
0.0
 14
-340.0000007334295
 24
-163.4000000953674
 34
0.0
 50
90.0
100
AcDbRotatedDimension
  0
ENDBLK
  5
51
330
4E
100
AcDbEntity
  8
0
100
AcDbBlockEnd
  0
BLOCK
  5
53
330
52
100
AcDbEntity
  8
0
100
AcDbBlockBegin
  2
KLM_A-select__3
 70
     0
 10
-204.4999992665703
 20
-133.3999999046525
 30
0.0
  3
KLM_A-select__3
  1

  0
LINE
  5
AA
330
52
100
AcDbEntity
  8
0
  6
Continuous
 62
     7
100
AcDbLine
 10
-204.4999992665703
 20
-100.0999999046525
 30
0.0
 11
-186.9499992665704
 21
-100.0999999046525
 31
0.0
  0
LINE
  5
AB
330
52
100
AcDbEntity
  8
0
  6
Continuous
 62
     7
100
AcDbLine
 10
-204.4999992665703
 20
-100.0999999046525
 30
0.0
 11
-204.4999992665703
 21
-96.59999990465249
 31
0.0
  0
LINE
  5
AC
330
52
100
AcDbEntity
  8
0
  6
Continuous
 62
     7
100
AcDbLine
 10
-158.4999992665704
 20
-100.0999999046525
 30
0.0
 11
-158.4999992665704
 21
-96.59999990465249
 31
0.0
  0
LINE
  5
AD
330
52
100
AcDbEntity
  8
0
  6
Continuous
 62
     7
100
AcDbLine
 10
-178.6499992665704
 20
-102.6999999046525
 30
0.0
 11
-176.0499992665704
 21
-100.0999999046525
 31
0.0
  0
LINE
  5
AE
330
52
100
AcDbEntity
  8
0
  6
Continuous
 62
     7
100
AcDbLine
 10
-184.3499992665704
 20
-102.6999999046525
 30
0.0
 11
-184.3499992665704
 21
-133.3999999046525
 31
0.0
  0
LINE
  5
AF
330
52
100
AcDbEntity
  8
0
  6
Continuous
 62
     7
100
AcDbLine
 10
-178.6499992665704
 20
-133.3999999046525
 30
0.0
 11
-178.6499992665704
 21
-102.6999999046525
 31
0.0
  0
LINE
  5
B0
330
52
100
AcDbEntity
  8
0
  6
Continuous
 62
     7
100
AcDbLine
 10
-178.6499992665704
 20
-133.3999999046525
 30
0.0
 11
-184.3499992665704
 21
-133.3999999046525
 31
0.0
  0
LINE
  5
B1
330
52
100
AcDbEntity
  8
0
  6
Continuous
 62
     7
100
AcDbLine
 10
-186.9499992665704
 20
-100.0999999046525
 30
0.0
 11
-184.3499992665704
 21
-102.6999999046525
 31
0.0
  0
LINE
  5
B2
330
52
100
AcDbEntity
  8
0
  6
Continuous
 62
     7
100
AcDbLine
 10
-158.4999992665704
 20
-100.0999999046525
 30
0.0
 11
-176.0499992665704
 21
-100.0999999046525
 31
0.0
  0
LINE
  5
B3
330
52
100
AcDbEntity
  8
0
  6
Continuous
 62
     7
100
AcDbLine
 10
-204.4999992665703
 20
-96.59999990465249
 30
0.0
 11
-158.4999992665704
 21
-96.59999990465249
 31
0.0
  0
ENDBLK
  5
54
330
52
100
AcDbEntity
  8
0
100
AcDbBlockEnd
  0
BLOCK
  5
57
330
55
100
AcDbEntity
  8
0
100
AcDbBlockBegin
  2
KLM-A_ESL_44x7-Select__4
 70
     0
 10
-204.4999992665703
 20
-133.3999999046525
 30
0.0
  3
KLM-A_ESL_44x7-Select__4
  1

  0
INSERT
  5
56
330
55
100
AcDbEntity
  8
0
100
AcDbBlockReference
  2
KLM_A-select__3
 10
-204.4999992665703
 20
-133.3999999046525
 30
0.0
  0
ENDBLK
  5
58
330
55
100
AcDbEntity
  8
0
100
AcDbBlockEnd
  0
BLOCK
  5
5B
330
59
100
AcDbEntity
  8
0
100
AcDbBlockBegin
  2
Rckans1
 70
     0
 10
-181.4999999999999
 20
-115.00000000001
 30
0.0
  3
Rckans1
  1

  0
INSERT
  5
5A
330
59
100
AcDbEntity
  8
0
100
AcDbBlockReference
  2
KLM-A_ESL_44x7-Select__4
 10
-204.4999992665703
 20
-133.3999999046525
 30
0.0
  0
MTEXT
  5
B4
330
59
100
AcDbEntity
  8
1
 62
     6
100
AcDbMText
 10
-181.5
 20
-138.4000000953774
 30
0.0
 40
5.0
 41
0.0
 71
     2
 72
     1
  1
 
  7
CONVERTER_11
 73
     1
 44
1.32052821128451
  0
ENDBLK
  5
5C
330
59
100
AcDbEntity
  8
0
100
AcDbBlockEnd
  0
BLOCK
  5
5E
330
5D
100
AcDbEntity
  8
0
100
AcDbBlockBegin
  2
ESL_44X7-select
 70
     0
 10
-255.775
 20
-98.79999990465251
 30
0.0
  3
ESL_44X7-select
  1

  0
LINE
  5
B5
330
5D
100
AcDbEntity
  8
0
  6
Continuous
 62
     7
100
AcDbLine
 10
-248.8
 20
-98.79999990465251
 30
0.0
 11
-248.8
 21
-98.6499999046525
 31
0.0
  0
LINE
  5
B6
330
5D
100
AcDbEntity
  8
0
  6
Continuous
 62
     7
100
AcDbLine
 10
-248.8
 20
-98.79999990465251
 30
0.0
 11
-255.775
 21
-98.79999990465251
 31
0.0
  0
LINE
  5
B7
330
5D
100
AcDbEntity
  8
0
  6
Continuous
 62
     7
100
AcDbLine
 10
-248.8
 20
-98.6499999046525
 30
0.0
 11
-255.775
 21
-98.6499999046525
 31
0.0
  0
ENDBLK
  5
5F
330
5D
100
AcDbEntity
  8
0
100
AcDbBlockEnd
  0
BLOCK
  5
61
330
60
100
AcDbEntity
  8
0
100
AcDbBlockBegin
  2
KLM_A-select__5
 70
     0
 10
-257.0
 20
-133.3999999046525
 30
0.0
  3
KLM_A-select__5
  1

  0
LINE
  5
B8
330
60
100
AcDbEntity
  8
0
  6
Continuous
 62
     7
100
AcDbLine
 10
-253.75
 20
-99.39999990465252
 30
0.0
 11
-253.75
 21
-100.0999999046525
 31
0.0
  0
LINE
  5
B9
330
60
100
AcDbEntity
  8
0
  6
Continuous
 62
     7
100
AcDbLine
 10
-253.75
 20
-100.0999999046525
 30
0.0
 11
-250.75
 21
-100.0999999046525
 31
0.0
  0
LINE
  5
BA
330
60
100
AcDbEntity
  8
0
  6
Continuous
 62
     7
100
AcDbLine
 10
-253.75
 20
-102.6999999046525
 30
0.0
 11
-250.75
 21
-102.6999999046525
 31
0.0
  0
LINE
  5
BB
330
60
100
AcDbEntity
  8
0
  6
Continuous
 62
     7
100
AcDbLine
 10
-255.3
 20
-104.6002101193443
 30
0.0
 11
-249.2
 21
-104.6002101193443
 31
0.0
  0
LINE
  5
BC
330
60
100
AcDbEntity
  8
0
  6
Continuous
 62
     7
100
AcDbLine
 10
-248.725
 20
-97.9977271773798
 30
0.0
 11
-248.725
 21
-98.19999990465253
 31
0.0
  0
LINE
  5
BD
330
60
100
AcDbEntity
  8
0
  6
Continuous
 62
     7
100
AcDbLine
 10
-249.2
 20
-104.6002101193443
 30
0.0
 11
-249.2
 21
-133.3999999046525
 31
0.0
  0
LINE
  5
BE
330
60
100
AcDbEntity
  8
0
  6
Continuous
 62
     7
100
AcDbLine
 10
-253.0347355681962
 20
-98.17727255533248
 30
0.0
 11
-251.4652644318106
 21
-98.17727255533248
 31
0.0
  0
LINE
  5
BF
330
60
100
AcDbEntity
  8
0
  6
Continuous
 62
     7
100
AcDbLine
 10
-250.75
 20
-102.6999999046525
 30
0.0
 11
-250.75
 21
-100.0999999046525
 31
0.0
  0
LINE
  5
C0
330
60
100
AcDbEntity
  8
0
  6
Continuous
 62
     7
100
AcDbLine
 10
-247.5
 20
-102.6999999046525
 30
0.0
 11
-247.5
 21
-100.0999999046525
 31
0.0
  0
LINE
  5
C1
330
60
100
AcDbEntity
  8
0
  6
Continuous
 62
     7
100
AcDbLine
 10
-250.75
 20
-102.6999999046525
 30
0.0
 11
-247.5
 21
-102.6999999046525
 31
0.0
  0
LINE
  5
C2
330
60
100
AcDbEntity
  8
0
  6
Continuous
 62
     7
100
AcDbLine
 10
-249.2
 20
-133.3999999046525
 30
0.0
 11
-247.5
 21
-133.3999999046525
 31
0.0
  0
LINE
  5
C3
330
60
100
AcDbEntity
  8
0
  6
Continuous
 62
     7
100
AcDbLine
 10
-249.8839745962156
 20
-99.39999990465252
 30
0.0
 11
-250.75
 21
-99.39999990465252
 31
0.0
  0
LINE
  5
C4
330
60
100
AcDbEntity
  8
0
  6
Continuous
 62
     7
100
AcDbLine
 10
-248.725
 20
-98.19999990465253
 30
0.0
 11
-248.725
 21
-99.39999990465252
 31
0.0
  0
LINE
  5
C5
330
60
100
AcDbEntity
  8
0
  6
Continuous
 62
     7
100
AcDbLine
 10
-248.725
 20
-99.39999990465252
 30
0.0
 11
-249.8839745962156
 21
-99.39999990465252
 31
0.0
  0
LINE
  5
C6
330
60
100
AcDbEntity
  8
0
  6
Continuous
 62
     7
100
AcDbLine
 10
-250.75
 20
-100.0999999046525
 30
0.0
 11
-250.75
 21
-99.39999990465252
 31
0.0
  0
LINE
  5
C7
330
60
100
AcDbEntity
  8
0
  6
Continuous
 62
     7
100
AcDbLine
 10
-250.75
 20
-100.0999999046525
 30
0.0
 11
-247.5
 21
-100.0999999046525
 31
0.0
  0
LINE
  5
C8
330
60
100
AcDbEntity
  8
0
  6
Continuous
 62
     7
100
AcDbLine
 10
-247.5
 20
-96.59999990465253
 30
0.0
 11
-247.5
 21
-100.0999999046525
 31
0.0
  0
LINE
  5
C9
330
60
100
AcDbEntity
  8
0
  6
Continuous
 62
     7
100
AcDbLine
 10
-247.5
 20
-102.6999999046525
 30
0.0
 11
-247.5
 21
-133.3999999046525
 31
0.0
  0
LINE
  5
CA
330
60
100
AcDbEntity
  8
0
  6
Continuous
 62
     7
100
AcDbLine
 10
-248.725
 20
-97.9977271773798
 30
0.0
 11
-255.775
 21
-97.99772717737979
 31
0.0
  0
LINE
  5
CB
330
60
100
AcDbEntity
  8
0
  6
Continuous
 62
     7
100
AcDbLine
 10
-257.0
 20
-96.59999990465253
 30
0.0
 11
-247.5
 21
-96.59999990465253
 31
0.0
  0
LINE
  5
CC
330
60
100
AcDbEntity
  8
0
  6
Continuous
 62
     7
100
AcDbLine
 10
-255.3
 20
-133.3999999046525
 30
0.0
 11
-255.3
 21
-104.6002101193443
 31
0.0
  0
LINE
  5
CD
330
60
100
AcDbEntity
  8
0
  6
Continuous
 62
     7
100
AcDbLine
 10
-257.0
 20
-133.3999999046525
 30
0.0
 11
-255.3
 21
-133.3999999046525
 31
0.0
  0
LINE
  5
CE
330
60
100
AcDbEntity
  8
0
  6
Continuous
 62
     7
100
AcDbLine
 10
-253.75
 20
-102.6999999046525
 30
0.0
 11
-253.75
 21
-100.0999999046525
 31
0.0
  0
LINE
  5
CF
330
60
100
AcDbEntity
  8
0
  6
Continuous
 62
     7
100
AcDbLine
 10
-255.775
 20
-98.19999990465253
 30
0.0
 11
-255.775
 21
-97.99772717737979
 31
0.0
  0
LINE
  5
D0
330
60
100
AcDbEntity
  8
0
  6
Continuous
 62
     7
100
AcDbLine
 10
-255.775
 20
-99.39999990465252
 30
0.0
 11
-255.775
 21
-98.19999990465253
 31
0.0
  0
LINE
  5
D1
330
60
100
AcDbEntity
  8
0
  6
Continuous
 62
     7
100
AcDbLine
 10
-257.0
 20
-100.0999999046525
 30
0.0
 11
-253.75
 21
-100.0999999046525
 31
0.0
  0
LINE
  5
D2
330
60
100
AcDbEntity
  8
0
  6
Continuous
 62
     7
100
AcDbLine
 10
-253.75
 20
-99.39999990465252
 30
0.0
 11
-254.6160254037844
 21
-99.39999990465252
 31
0.0
  0
LINE
  5
D3
330
60
100
AcDbEntity
  8
0
  6
Continuous
 62
     7
100
AcDbLine
 10
-254.6160254037844
 20
-99.39999990465252
 30
0.0
 11
-255.775
 21
-99.39999990465252
 31
0.0
  0
LINE
  5
D4
330
60
100
AcDbEntity
  8
0
  6
Continuous
 62
     7
100
AcDbLine
 10
-257.0
 20
-100.0999999046525
 30
0.0
 11
-257.0
 21
-96.59999990465253
 31
0.0
  0
LINE
  5
D5
330
60
100
AcDbEntity
  8
0
  6
Continuous
 62
     7
100
AcDbLine
 10
-257.0
 20
-100.0999999046525
 30
0.0
 11
-257.0
 21
-102.6999999046525
 31
0.0
  0
LINE
  5
D6
330
60
100
AcDbEntity
  8
0
  6
Continuous
 62
     7
100
AcDbLine
 10
-257.0
 20
-102.6999999046525
 30
0.0
 11
-253.75
 21
-102.6999999046525
 31
0.0
  0
LINE
  5
D7
330
60
100
AcDbEntity
  8
0
  6
Continuous
 62
     7
100
AcDbLine
 10
-257.0
 20
-133.3999999046525
 30
0.0
 11
-257.0
 21
-102.6999999046525
 31
0.0
  0
LINE
  5
D8
330
60
100
AcDbEntity
  8
0
  6
Continuous
 62
     7
100
AcDbLine
 10
-253.0851646544245
 20
-98.19999990465254
 30
0.0
 11
-255.775
 21
-98.19999990465253
 31
0.0
  0
LINE
  5
D9
330
60
100
AcDbEntity
  8
0
  6
Continuous
 62
     7
100
AcDbLine
 10
-248.725
 20
-98.19999990465253
 30
0.0
 11
-251.4148353455755
 21
-98.19999990465253
 31
0.0
  0
ARC
  5
DA
330
60
100
AcDbEntity
  8
0
  6
Continuous
 62
     7
100
AcDbCircle
 10
-252.2499990387664
 20
-97.64999840224979
 30
0.0
 40
1.000000023534747
100
AcDbArc
 50
326.6328848476351
 51
328.1449833868429
  0
ARC
  5
DB
330
60
100
AcDbEntity
  8
0
  6
Continuous
 62
     7
100
AcDbCircle
 10
-252.25
 20
-97.64999990465252
 30
0.0
 40
1.000000000000002
100
AcDbArc
 50
213.3670129692334
 51
326.6329870307672
  0
ARC
  5
DC
330
60
100
AcDbEntity
  8
0
  6
Continuous
 62
     7
100
AcDbCircle
 10
-252.2500000000296
 20
-97.64999990460632
 30
0.0
 40
1.000000000000652
100
AcDbArc
 50
211.8549161087296
 51
213.3670129723765
  0
ARC
  5
DD
330
60
100
AcDbEntity
  8
0
  6
Continuous
 62
     7
100
AcDbCircle
 10
-250.3169872981078
 20
-99.64999990465252
 30
0.0
 40
0.4999999999999672
100
AcDbArc
 50
30.00000000000217
 51
149.9999999999995
  0
ARC
  5
DE
330
60
100
AcDbEntity
  8
0
  6
Continuous
 62
     7
100
AcDbCircle
 10
-254.1830127018922
 20
-99.64999990465252
 30
0.0
 40
0.4999999999999918
100
AcDbArc
 50
30.00000000000054
 51
149.9999999999978
  0
ARC
  5
DF
330
60
100
AcDbEntity
  8
0
  6
Continuous
 62
     2
100
AcDbCircle
 10
-252.2500000000034
 20
-97.73660397285923
 30
0.0
 40
0.8999992842029596
100
AcDbArc
 50
209.3164065810777
 51
330.6835934189231
  0
SPLINE
  5
E0
330
60
100
AcDbEntity
  8
0
  6
Continuous
 62
     7
100
AcDbSpline
210
0.0
220
0.0
230
1.0
 70
     8
 71
     3
 72
    81
 73
    77
 74
    75
 42
0.000000001
 43
0.0000000001
 44
0.00000001
 40
0.0
 40
0.0
 40
0.0
 40
0.0
 40
0.0000105473540472
 40
0.0000353563962517
 40
0.0000788203791944
 40
0.000142298980861
 40
0.0002269524965312
 40
0.0003320367572404
 40
0.0004575738697841
 40
0.0006035687384115
 40
0.0008031653200487
 40
0.0010320180650955
 40
0.0012902869790992
 40
0.0015781288963829
 40
0.0018956986372003
 40
0.0022431496807179
 40
0.0026206345796135
 40
0.0030986469868888
 40
0.0036048964306784
 40
0.0041366760024952
 40
0.0046912780688916
 40
0.0052659944671515
 40
0.0058581166393513
 40
0.0064649357264846
 40
0.0070837426358621
 40
0.0077118280911523
 40
0.008346482669261
 40
0.0089849968287164
 40
0.0096246609312455
 40
0.0102627652589046
 40
0.0108966000275859
 40
0.0115234553974327
 40
0.0121406214817524
 40
0.0130258302588584
 40
0.0139397911721832
 40
0.0148822621928545
 40
0.015853001269381
 40
0.0168517663309174
 40
0.0178783152897169
 40
0.0189324060429983
 40
0.0200137964746818
 40
0.0211222444572481
 40
0.0222575078526509
 40
0.0234193445136224
 40
0.0246075122847487
 40
0.0258217690032481
 40
0.0270618724996439
 40
0.0283275805986035
 40
0.029618651119299
 40
0.0309348418763001
 40
0.0322759106795829
 40
0.0330220632979458
 40
0.033794121659617
 40
0.0345922376256254
 40
0.0354165630590366
 40
0.0362672498243128
 40
0.0371444497874387
 40
0.0380483148159911
 40
0.0389789967792356
 40
0.0399366475479399
 40
0.0409214189940729
 40
0.0419334629914979
 40
0.0429729314154168
 40
0.0440399761423528
 40
0.045134749050617
 40
0.046257402019496
 40
0.0474080869300315
 40
0.0492243703057591
 40
0.0510670191678775
 40
0.0529356104301102
 40
0.0548297210040187
 40
0.056748927799413
 40
0.058692807724204
 40
0.0606609376843831
 40
0.0626528945839571
 40
0.0646682614088081
 40
0.0646682614088081
 40
0.0646682614088081
 40
0.0646682614088081
 10
-251.4006127115661
 20
-98.17777005195697
 30
0.0
 10
-251.4006135144751
 20
-98.17776643411877
 30
0.0
 10
-251.4006161870349
 20
-98.17775429990299
 30
0.0
 10
-251.4006468693638
 20
-98.17774898962806
 30
0.0
 10
-251.400686470845
 20
-98.17773767680879
 30
0.0
 10
-251.4007512018878
 20
-98.17772898821886
 30
0.0
 10
-251.4008344035542
 20
-98.17771880501877
 30
0.0
 10
-251.4009392776466
 20
-98.17770910183603
 30
0.0
 10
-251.4010643511236
 20
-98.1776992227398
 30
0.0
 10
-251.4012210725252
 20
-98.17768871185557
 30
0.0
 10
-251.4014122270422
 20
-98.17767767245996
 30
0.0
 10
-251.4016408520507
 20
-98.17766622396668
 30
0.0
 10
-251.4018989223023
 20
-98.17765484013948
 30
0.0
 10
-251.402186594942
 20
-98.1776435324422
 30
0.0
 10
-251.4025040179647
 20
-98.17763230670425
 30
0.0
 10
-251.4028513418841
 20
-98.17762116872127
 30
0.0
 10
-251.4032521534623
 20
-98.17760943782528
 30
0.0
 10
-251.4037059084737
 20
-98.17759734544688
 30
0.0
 10
-251.4042111068488
 20
-98.1775850687685
 30
0.0
 10
-251.4047418520332
 20
-98.17757322461908
 30
0.0
 10
-251.4052954339365
 20
-98.17756181003138
 30
0.0
 10
-251.4058691424426
 20
-98.17755082185855
 30
0.0
 10
-251.4064602673916
 20
-98.17754025650555
 30
0.0
 10
-251.4070660986017
 20
-98.1775301101508
 30
0.0
 10
-251.4076839258753
 20
-98.17752037878108
 30
0.0
 10
-251.4083110390034
 20
-98.17751105824803
 30
0.0
 10
-251.4089447277688
 20
-98.17750214429961
 30
0.0
 10
-251.4095822819493
 20
-98.17749363260515
 30
0.0
 10
-251.4102209913179
 20
-98.17748551877288
 30
0.0
 10
-251.4108581456449
 20
-98.17747779836452
 30
0.0
 10
-251.411491034698
 20
-98.17747046690084
 30
0.0
 10
-251.4121169482437
 20
-98.17746351988906
 30
0.0
 10
-251.412826651374
 20
-98.17745595659164
 30
0.0
 10
-251.413632055097
 20
-98.17744777256698
 30
0.0
 10
-251.4145458930601
 20
-98.17743897832699
 30
0.0
 10
-251.4154882442592
 20
-98.17743038554426
 30
0.0
 10
-251.4164588664258
 20
-98.17742199631432
 30
0.0
 10
-251.4174575172927
 20
-98.1774138127038
 30
0.0
 10
-251.4184839545917
 20
-98.17740583678005
 30
0.0
 10
-251.4195379360548
 20
-98.17739807060357
 30
0.0
 10
-251.4206192194133
 20
-98.17739051623126
 30
0.0
 10
-251.4217275623986
 20
-98.17738317571623
 30
0.0
 10
-251.4228627227423
 20
-98.17737605110845
 30
0.0
 10
-251.4240244581747
 20
-98.1773691444553
 30
0.0
 10
-251.4252125264273
 20
-98.17736245780168
 30
0.0
 10
-251.4264266852308
 20
-98.17735599319037
 30
0.0
 10
-251.4276666923158
 20
-98.17734975266256
 30
0.0
 10
-251.4289323054132
 20
-98.17734373825743
 30
0.0
 10
-251.4302232822535
 20
-98.17733795201335
 30
0.0
 10
-251.4315393805669
 20
-98.17733239596615
 30
0.0
 10
-251.4326738423651
 20
-98.17732789204217
 30
0.0
 10
-251.4336269288101
 20
-98.17732428690637
 30
0.0
 10
-251.4343990326516
 20
-98.17732146879679
 30
0.0
 10
-251.4351971943061
 20
-98.17731866209422
 30
0.0
 10
-251.436021565648
 20
-98.17731587375354
 30
0.0
 10
-251.4368722985509
 20
-98.17731311072976
 30
0.0
 10
-251.437749544889
 20
-98.1773103799782
 30
0.0
 10
-251.4386534565363
 20
-98.17730768845428
 30
0.0
 10
-251.4395841853665
 20
-98.17730504311331
 30
0.0
 10
-251.4405418832541
 20
-98.17730245091106
 30
0.0
 10
-251.4415267020727
 20
-98.1772999188031
 30
0.0
 10
-251.4425387936963
 20
-98.17729745374523
 30
0.0
 10
-251.4435783099991
 20
-98.1772950626933
 30
0.0
 10
-251.4446454028547
 20
-98.17729275260301
 30
0.0
 10
-251.4457402241376
 20
-98.17729053043064
 30
0.0
 10
-251.4468629257215
 20
-98.17728840313161
 30
0.0
 10
-251.4482261306987
 20
-98.17728600368142
 30
0.0
 10
-251.4498293344028
 20
-98.17728345612622
 30
0.0
 10
-251.4516718404777
 20
-98.17728090186453
 30
0.0
 10
-251.4535402894031
 20
-98.1772786814604
 30
0.0
 10
-251.4554342580209
 20
-98.17727679687867
 30
0.0
 10
-251.4573533231738
 20
-98.17727525095736
 30
0.0
 10
-251.459297061704
 20
-98.17727404321424
 30
0.0
 10
-251.4612650504533
 20
-98.17727318579185
 30
0.0
 10
-251.4632568682905
 20
-98.17727264284068
 30
0.0
 10
-251.4645926428681
 20
-98.1772725884914
 30
0.0
 10
-251.4652644318106
 20
-98.17727255533248
 30
0.0
 11
-251.4006127115661
 21
-98.17777005195697
 31
0.0
 11
-251.4006161034893
 21
-98.17776006894503
 31
0.0
 11
-251.4006388154019
 21
-98.17775008645951
 31
0.0
 11
-251.4006811203871
 21
-98.17774011819078
 31
0.0
 11
-251.4007438024822
 21
-98.17773009543328
 31
0.0
 11
-251.4008278505815
 21
-98.17771999059848
 31
0.0
 11
-251.4009324545798
 21
-98.1777099565235
 31
0.0
 11
-251.4010575957262
 21
-98.17769999457124
 31
0.0
 11
-251.4012032552699
 21
-98.17769010610454
 31
0.0
 11
-251.4014025128621
 21
-98.17767847915346
 31
0.0
 11
-251.4016310742255
 21
-98.17766693518892
 31
0.0
 11
-251.401889088825
 21
-98.1776554773828
 31
0.0
 11
-251.4021767061256
 21
-98.17764410890689
 31
0.0
 11
-251.4024940755925
 21
-98.17763283293303
 31
0.0
 11
-251.4028413466904
 21
-98.17762165263298
 31
0.0
 11
-251.4032186688845
 21
-98.17761057117863
 31
0.0
 11
-251.4036965102555
 21
-98.17759778562298
 31
0.0
 11
-251.4042026092908
 21
-98.17758544656309
 31
0.0
 11
-251.404734255749
 21
-98.1775735493145
 31
0.0
 11
-251.4052887393891
 21
-98.17756208919286
 31
0.0
 11
-251.4058633499696
 21
-98.17755106151368
 31
0.0
 11
-251.4064553772494
 21
-98.17754046159256
 31
0.0
 11
-251.4070621109873
 21
-98.17753028474505
 31
0.0
 11
-251.4076808409419
 21
-98.17752052628673
 31
0.0
 11
-251.4083088568722
 21
-98.17751118153319
 31
0.0
 11
-251.4089434485367
 21
-98.1775022458
 31
0.0
 11
-251.4095819056943
 21
-98.17749371440271
 31
0.0
 11
-251.4102215181038
 21
-98.17748558265694
 31
0.0
 11
-251.4108595755238
 21
-98.1774778458782
 31
0.0
 11
-251.4114933677133
 21
-98.17747049938211
 31
0.0
 11
-251.4121201844309
 21
-98.1774635384842
 31
0.0
 11
-251.4127373154353
 21
-98.17745695850009
 31
0.0
 11
-251.4136224784304
 21
-98.17744795595378
 31
0.0
 11
-251.4145363969506
 21
-98.17743915342122
 31
0.0
 11
-251.4154788287261
 21
-98.17743055292668
 31
0.0
 11
-251.416449531487
 21
-98.17742215649437
 31
0.0
 11
-251.4174482629634
 21
-98.1774139661485
 31
0.0
 11
-251.4184747808856
 21
-98.17740598391336
 31
0.0
 11
-251.4195288429836
 21
-98.17739821181311
 31
0.0
 11
-251.4206102069876
 21
-98.17739065187205
 31
0.0
 11
-251.4217186306279
 21
-98.1773833061144
 31
0.0
 11
-251.4228538716343
 21
-98.17737617656432
 31
0.0
 11
-251.4240156877373
 21
-98.17736926524614
 31
0.0
 11
-251.4252038366668
 21
-98.17736257418403
 31
0.0
 11
-251.4264180761531
 21
-98.17735610540223
 31
0.0
 11
-251.4276581639263
 21
-98.17734986092502
 31
0.0
 11
-251.4289238577165
 21
-98.17734384277657
 31
0.0
 11
-251.4302149152539
 21
-98.17733805298114
 31
0.0
 11
-251.4315310942687
 21
-98.17733249356296
 31
0.0
 11
-251.4328721524909
 21
-98.17732716654626
 31
0.0
 11
-251.4336182997691
 21
-98.17732434372367
 31
0.0
 11
-251.4343903529859
 21
-98.17732152532214
 31
0.0
 11
-251.4351884640152
 21
-98.17731871829821
 31
0.0
 11
-251.436012784731
 21
-98.17731592960851
 31
0.0
 11
-251.4368634670074
 21
-98.17731316620959
 31
0.0
 11
-251.4377406627183
 21
-98.17731043505802
 31
0.0
 11
-251.4386445237377
 21
-98.17730774311042
 31
0.0
 11
-251.4395752019397
 21
-98.17730509732331
 31
0.0
 11
-251.4405328491983
 21
-98.17730250465333
 31
0.0
 11
-251.4415176173873
 21
-98.177299972057
 31
0.0
 11
-251.4425296583809
 21
-98.17729750649096
 31
0.0
 11
-251.4435691240532
 21
-98.17729511491174
 31
0.0
 11
-251.4446361662779
 21
-98.17729280427594
 31
0.0
 11
-251.4457309369293
 21
-98.17729058154015
 31
0.0
 11
-251.4468535878812
 21
-98.17728845366092
 31
0.0
 11
-251.4480042710076
 21
-98.17728642759484
 31
0.0
 11
-251.4498205520857
 21
-98.17728353896372
 31
0.0
 11
-251.4516631991734
 21
-98.17728098215541
 31
0.0
 11
-251.453531789113
 21
-98.17727875931034
 31
0.0
 11
-251.4554258987469
 21
-98.17727687256892
 31
0.0
 11
-251.4573451049173
 21
-98.17727532407164
 31
0.0
 11
-251.4592889844666
 21
-98.17727411595894
 31
0.0
 11
-251.461257114237
 21
-98.17727325037117
 31
0.0
 11
-251.4632490710709
 21
-98.17727272944892
 31
0.0
 11
-251.4652644318106
 21
-98.17727255533248
 31
0.0
  0
SPLINE
  5
E1
330
60
100
AcDbEntity
  8
0
  6
Continuous
 62
     7
100
AcDbSpline
210
0.0
220
0.0
230
1.0
 70
     8
 71
     3
 72
    92
 73
    88
 74
    86
 42
0.000000001
 43
0.0000000001
 44
0.00000001
 40
0.0
 40
0.0
 40
0.0
 40
0.0
 40
0.0013632769642685
 40
0.0026961105936508
 40
0.0039985224105212
 40
0.0052705278342699
 40
0.0065121422843127
 40
0.0077233811786129
 40
0.0089042599339648
 40
0.0100547939655961
 40
0.0111749986874518
 40
0.0122648895118821
 40
0.0133244818500404
 40
0.01435379111143
 40
0.0153528327043309
 40
0.0163216220354606
 40
0.0172601745102319
 40
0.0184021044953158
 40
0.0195727267078802
 40
0.0207699289946531
 40
0.02199159920762
 40
0.0232356252049613
 40
0.0244998948511327
 40
0.0257822960176884
 40
0.0270807165841154
 40
0.0283930444380355
 40
0.0297171674768348
 40
0.0310509736075767
 40
0.0323923507491107
 40
0.0334834432156828
 40
0.0345436366231628
 40
0.0355733169889327
 40
0.0365728703284454
 40
0.0375426826551248
 40
0.0384831399802915
 40
0.0393946283131123
 40
0.040277533660434
 40
0.041132242026783
 40
0.0419591394142765
 40
0.0427586118224161
 40
0.0435310452481895
 40
0.0442768256857989
 40
0.0449963391265843
 40
0.0456899715589979
 40
0.0463581089683765
 40
0.0470011373369355
 40
0.0476194426433593
 40
0.0482134108635571
 40
0.0487834279689607
 40
0.0493298799279822
 40
0.0498531527049035
 40
0.050353632260013
 40
0.0508317045496859
 40
0.051287755525574
 40
0.0517221711353952
 40
0.0521353373218394
 40
0.0525276400230459
 40
0.0533674842815364
 40
0.0541788309761608
 40
0.0549614921678345
 40
0.0557152799537701
 40
0.0564400064737618
 40
0.0571354839178626
 40
0.0578015245361254
 40
0.058437940650486
 40
0.0590445446694262
 40
0.059621149108159
 40
0.0601675666123616
 40
0.0606836099912581
 40
0.0611690922608074
 40
0.0616238267025296
 40
0.0620476269436387
 40
0.0624251113273198
 40
0.0627725620961911
 40
0.0630901317616223
 40
0.0633779737619066
 40
0.0636362428760354
 40
0.0638650958969724
 40
0.0640646927893451
 40
0.064210687659087
 40
0.0643362247724647
 40
0.0644413090339865
 40
0.0645259625503182
 40
0.0645889718254616
 40
0.0646329049125865
 40
0.0646577076901625
 40
0.0646682395357001
 40
0.0646682395357001
 40
0.0646682395357001
 40
0.0646682395357001
 10
-253.0347355681962
 20
-98.17727255533248
 30
0.0
 10
-253.0351899938513
 20
-98.17727257049233
 30
0.0
 10
-253.0360886973836
 20
-98.17727258894922
 30
0.0
 10
-253.0374215381696
 20
-98.17727283481754
 30
0.0
 10
-253.0387239550741
 20
-98.17727321024674
 30
0.0
 10
-253.0399959655353
 20
-98.17727372851742
 30
0.0
 10
-253.0412375849581
 20
-98.17727437660962
 30
0.0
 10
-253.0424488287482
 20
-98.17727514830757
 30
0.0
 10
-253.0436297123111
 20
-98.17727603563681
 30
0.0
 10
-253.0447802510527
 20
-98.17727703107738
 30
0.0
 10
-253.0459004603782
 20
-98.1772781269918
 30
0.0
 10
-253.0469903556937
 20
-98.17727931577336
 30
0.0
 10
-253.0480499524047
 20
-98.17728058980744
 30
0.0
 10
-253.0490792659166
 20
-98.17728194148137
 30
0.0
 10
-253.0500783116355
 20
-98.17728336318274
 30
0.0
 10
-253.0510471049669
 20
-98.17728484729793
 30
0.0
 10
-253.0520635275328
 20
-98.17728651389277
 30
0.0
 10
-253.0531472274159
 20
-98.17728842080632
 30
0.0
 10
-253.054317143477
 20
-98.17729063964418
 30
0.0
 10
-253.0555136392272
 20
-98.17729308143926
 30
0.0
 10
-253.0567346024632
 20
-98.17729575844054
 30
0.0
 10
-253.0579779209816
 20
-98.17729868289786
 30
0.0
 10
-253.059241482579
 20
-98.17730186705947
 30
0.0
 10
-253.0605231750527
 20
-98.17730532317266
 30
0.0
 10
-253.0618208861994
 20
-98.17730906348328
 30
0.0
 10
-253.0631325038159
 20
-98.17731310023426
 30
0.0
 10
-253.0644559156996
 20
-98.17731744566994
 30
0.0
 10
-253.065789009647
 20
-98.17732211202025
 30
0.0
 10
-253.0670444261762
 20
-98.17732679365508
 30
0.0
 10
-253.0682086381177
 20
-98.17733138946755
 30
0.0
 10
-253.0692689510784
 20
-98.17733578882027
 30
0.0
 10
-253.070298750364
 20
-98.17734027212433
 30
0.0
 10
-253.0712984219843
 20
-98.17734483158608
 30
0.0
 10
-253.0722683519483
 20
-98.17734945942051
 30
0.0
 10
-253.0732089262655
 20
-98.17735414784099
 30
0.0
 10
-253.0741205309451
 20
-98.17735888906094
 30
0.0
 10
-253.0750035519964
 20
-98.17736367529423
 30
0.0
 10
-253.0758583754289
 20
-98.17736849875459
 30
0.0
 10
-253.0766853872518
 20
-98.17737335165593
 30
0.0
 10
-253.0774849734742
 20
-98.1773782262123
 30
0.0
 10
-253.0782575201056
 20
-98.17738311463788
 30
0.0
 10
-253.0790034131554
 20
-98.17738800914702
 30
0.0
 10
-253.0797230386327
 20
-98.17739290195416
 30
0.0
 10
-253.0804167825467
 20
-98.17739778527415
 30
0.0
 10
-253.0810850309069
 20
-98.17740265132178
 30
0.0
 10
-253.0817281697225
 20
-98.17740749231243
 30
0.0
 10
-253.0823465850025
 20
-98.17741230046103
 30
0.0
 10
-253.0829406627567
 20
-98.17741706798402
 30
0.0
 10
-253.0835107889938
 20
-98.17742178709702
 30
0.0
 10
-253.0840573497233
 20
-98.17742645001658
 30
0.0
 10
-253.0845807309544
 20
-98.17743104895986
 30
0.0
 10
-253.0850813186962
 20
-98.17743557614432
 30
0.0
 10
-253.0855594989579
 20
-98.17744002378721
 30
0.0
 10
-253.086015657749
 20
-98.17744438411174
 30
0.0
 10
-253.0864501810782
 20
-98.17744864932098
 30
0.0
 10
-253.0868634549549
 20
-98.17745281169417
 30
0.0
 10
-253.0874118634447
 20
-98.17745847389797
 30
0.0
 10
-253.0880929888269
 20
-98.17746578257132
 30
0.0
 10
-253.0889042208275
 20
-98.17747497669814
 30
0.0
 10
-253.0896867632889
 20
-98.17748435167161
 30
0.0
 10
-253.0904404279705
 20
-98.17749390531705
 30
0.0
 10
-253.0911650266363
 20
-98.17750363530595
 30
0.0
 10
-253.0918603710511
 20
-98.17751353932255
 30
0.0
 10
-253.0925262729826
 20
-98.17752361501637
 30
0.0
 10
-253.0931625442008
 20
-98.17753386000555
 30
0.0
 10
-253.09376899648
 20
-98.17754427186543
 30
0.0
 10
-253.0943454416
 20
-98.17755484811829
 30
0.0
 10
-253.0948916913476
 20
-98.17756558621475
 30
0.0
 10
-253.0954075575193
 20
-98.17757648351821
 30
0.0
 10
-253.0958928519284
 20
-98.1775875372537
 30
0.0
 10
-253.096347386402
 20
-98.1775987445308
 30
0.0
 10
-253.0967659093893
 20
-98.17760996628743
 30
0.0
 10
-253.0971486576948
 20
-98.17762116877145
 30
0.0
 10
-253.097495981327
 20
-98.17763230668226
 30
0.0
 10
-253.0978134042598
 20
-98.17764353242828
 30
0.0
 10
-253.0981010769716
 20
-98.1776548401221
 30
0.0
 10
-253.098359147401
 20
-98.17766622395264
 30
0.0
 10
-253.0985877726981
 20
-98.17767767246201
 30
0.0
 10
-253.0987789273332
 20
-98.1776887118491
 30
0.0
 10
-253.0989356490399
 20
-98.17769922278796
 30
0.0
 10
-253.0990607219477
 20
-98.1777091017492
 30
0.0
 10
-253.0991655976742
 20
-98.1777188053195
 30
0.0
 10
-253.0992486407387
 20
-98.17772896860427
 30
0.0
 10
-253.099313376806
 20
-98.17773765661273
 30
0.0
 10
-253.0993529336642
 20
-98.17774895937222
 30
0.0
 10
-253.0993838320022
 20
-98.17775428960502
 30
0.0
 10
-253.0993864477299
 20
-98.1777664341178
 30
0.0
 10
-253.0993872330208
 20
-98.17777005195538
 30
0.0
 11
-253.0347355681962
 21
-98.17727255533248
 31
0.0
 11
-253.0360988390629
 21
-98.17727263475304
 31
0.0
 11
-253.0374316726746
 21
-98.1772728679387
 31
0.0
 11
-253.0387340844368
 21
-98.17727324727544
 31
0.0
 11
-253.0400060897553
 21
-98.17727376514924
 31
0.0
 11
-253.0412477040358
 21
-98.17727441394605
 31
0.0
 11
-253.0424589426839
 21
-98.17727518605186
 31
0.0
 11
-253.0436398211054
 21
-98.17727607385262
 31
0.0
 11
-253.0447903547058
 21
-98.17727706973436
 31
0.0
 11
-253.0459105588909
 21
-98.177278166083
 31
0.0
 11
-253.0470004490662
 21
-98.17727935528455
 31
0.0
 11
-253.0480600406376
 21
-98.17728062972498
 31
0.0
 11
-253.0490893490107
 21
-98.17728198179023
 31
0.0
 11
-253.0500883895912
 21
-98.17728340386633
 31
0.0
 11
-253.0510571777847
 21
-98.1772848883392
 31
0.0
 11
-253.0519957289969
 21
-98.17728642759484
 31
0.0
 11
-253.0531376572125
 21
-98.17728843764506
 31
0.0
 11
-253.0543082773178
 21
-98.17729065858772
 31
0.0
 11
-253.0555054771093
 21
-98.1772931026931
 31
0.0
 11
-253.0567271443831
 21
-98.17729578223133
 31
0.0
 11
-253.0579711669359
 21
-98.17729870947265
 31
0.0
 11
-253.059235432564
 21
-98.17730189668725
 31
0.0
 11
-253.0605178290638
 21
-98.17730535614538
 31
0.0
 11
-253.0618162442316
 21
-98.17730910011727
 31
0.0
 11
-253.0631285658639
 21
-98.17731314087305
 31
0.0
 11
-253.0644526817572
 21
-98.17731749068304
 31
0.0
 11
-253.0657864797077
 21
-98.17732216181736
 31
0.0
 11
-253.0671278475118
 21
-98.17732716654625
 31
0.0
 11
-253.0682189314702
 21
-98.17733147522164
 31
0.0
 11
-253.0692791157448
 21
-98.17733587559623
 31
0.0
 11
-253.0703087863451
 21
-98.17734035988212
 31
0.0
 11
-253.0713083292804
 21
-98.17734492029136
 31
0.0
 11
-253.07227813056
 21
-98.17734954903601
 31
0.0
 11
-253.0732185761933
 21
-98.17735423832815
 31
0.0
 11
-253.0741300521897
 21
-98.17735898037985
 31
0.0
 11
-253.0750129445586
 21
-98.17736376740316
 31
0.0
 11
-253.0758676393093
 21
-98.1773685916102
 31
0.0
 11
-253.0766945224511
 21
-98.17737344521301
 31
0.0
 11
-253.0774939799934
 21
-98.17737832042366
 31
0.0
 11
-253.0782663979457
 21
-98.1773832094542
 31
0.0
 11
-253.0790121623172
 21
-98.17738810451674
 31
0.0
 11
-253.0797316591173
 21
-98.17739299782332
 31
0.0
 11
-253.0804252743554
 21
-98.17739788158602
 31
0.0
 11
-253.0810933940409
 21
-98.17740274801693
 31
0.0
 11
-253.081736404183
 21
-98.17740758932811
 31
0.0
 11
-253.0823546907911
 21
-98.17741239773154
 31
0.0
 11
-253.0829486398748
 21
-98.17741716543948
 31
0.0
 11
-253.0835186374431
 21
-98.17742188466383
 31
0.0
 11
-253.0840650695057
 21
-98.17742654761672
 31
0.0
 11
-253.0845883220717
 21
-98.17743114651023
 31
0.0
 11
-253.0850887811506
 21
-98.1774356735564
 31
0.0
 11
-253.0855668327518
 21
-98.17744012096739
 31
0.0
 11
-253.0860228628844
 21
-98.17744448095513
 31
0.0
 11
-253.0864572575582
 21
-98.17744874573178
 31
0.0
 11
-253.0868704027822
 21
-98.1774529075094
 31
0.0
 11
-253.0872626845658
 21
-98.17745695850004
 31
0.0
 11
-253.0881024803844
 21
-98.17746597827008
 31
0.0
 11
-253.0889137748721
 21
-98.17747518194622
 31
0.0
 11
-253.0896963797848
 21
-98.1774845673438
 31
0.0
 11
-253.0904501068787
 21
-98.17749413227816
 31
0.0
 11
-253.09117476791
 21
-98.1775038745647
 31
0.0
 11
-253.0918701746345
 21
-98.17751379201876
 31
0.0
 11
-253.0925361388086
 21
-98.1775238824557
 31
0.0
 11
-253.0931724721882
 21
-98.17753414369092
 31
0.0
 11
-253.0937789865294
 21
-98.17754457353969
 31
0.0
 11
-253.0943554935884
 21
-98.17755516981748
 31
0.0
 11
-253.0949018051213
 21
-98.1775659303396
 31
0.0
 11
-253.095417732884
 21
-98.17757685292139
 31
0.0
 11
-253.0959030886327
 21
-98.17758793537823
 31
0.0
 11
-253.0963576841236
 21
-98.17759917552551
 31
0.0
 11
-253.0967813311127
 21
-98.17761057117855
 31
0.0
 11
-253.0971586527918
 21
-98.17762165261706
 31
0.0
 11
-253.0975059236154
 21
-98.17763283290624
 31
0.0
 11
-253.0978232930071
 21
-98.17764410887439
 31
0.0
 11
-253.0981109103908
 21
-98.17765547734994
 31
0.0
 11
-253.0983689251904
 21
-98.17766693516126
 31
0.0
 11
-253.0985974868295
 21
-98.17767847913662
 31
0.0
 11
-253.0987967447321
 21
-98.17769010610445
 31
0.0
 11
-253.0989424042771
 21
-98.17769999457116
 31
0.0
 11
-253.0990675454244
 21
-98.1777099565234
 31
0.0
 11
-253.0991721494237
 21
-98.17771999059838
 31
0.0
 11
-253.0992561975239
 21
-98.17773009543319
 31
0.0
 11
-253.0993184183836
 21
-98.17774003031374
 31
0.0
 11
-253.0993611846062
 21
-98.1777500864594
 31
0.0
 11
-253.0993838896764
 21
-98.17776006894475
 31
0.0
 11
-253.0993872330208
 21
-98.17777005195538
 31
0.0
  0
ENDBLK
  5
62
330
60
100
AcDbEntity
  8
0
100
AcDbBlockEnd
  0
BLOCK
  5
66
330
63
100
AcDbEntity
  8
0
100
AcDbBlockBegin
  2
KLM-A_ESL_44x7-Select__6
 70
     0
 10
-257.0
 20
-133.3999999046525
 30
0.0
  3
KLM-A_ESL_44x7-Select__6
  1

  0
INSERT
  5
64
330
63
100
AcDbEntity
  8
0
100
AcDbBlockReference
  2
ESL_44X7-select
 10
-255.775
 20
-98.79999990465251
 30
0.0
  0
INSERT
  5
65
330
63
100
AcDbEntity
  8
0
100
AcDbBlockReference
  2
KLM_A-select__5
 10
-257.0
 20
-133.3999999046525
 30
0.0
  0
ENDBLK
  5
67
330
63
100
AcDbEntity
  8
0
100
AcDbBlockEnd
  0
BLOCK
  5
6A
330
68
100
AcDbEntity
  8
0
100
AcDbBlockBegin
  2
SA_Links1
 70
     0
 10
-252.25
 20
-115.00000000001
 30
0.0
  3
SA_Links1
  1

  0
INSERT
  5
69
330
68
100
AcDbEntity
  8
0
100
AcDbBlockReference
  2
KLM-A_ESL_44x7-Select__6
 10
-257.0
 20
-133.3999999046525
 30
0.0
  0
MTEXT
  5
E2
330
68
100
AcDbEntity
  8
1
 62
     6
100
AcDbMText
 10
-252.25
 20
-138.4000000953774
 30
0.0
 40
5.0
 41
0.0
 71
     2
 72
     1
  1
 
  7
CONVERTER_11
 73
     1
 44
1.32052821128451
  0
ENDBLK
  5
6B
330
68
100
AcDbEntity
  8
0
100
AcDbBlockEnd
  0
BLOCK
  5
6D
330
6C
100
AcDbEntity
  8
0
100
AcDbBlockBegin
  2
KLM_A-select__7
 70
     0
 10
-379.5
 20
-133.3999999046525
 30
0.0
  3
KLM_A-select__7
  1

  0
LINE
  5
E3
330
6C
100
AcDbEntity
  8
0
  6
Continuous
 62
     7
100
AcDbLine
 10
-379.5
 20
-100.0999999046525
 30
0.0
 11
-379.5
 21
-102.6999999046525
 31
0.0
  0
LINE
  5
E4
330
6C
100
AcDbEntity
  8
0
  6
Continuous
 62
     7
100
AcDbLine
 10
-376.25
 20
-100.0999999046525
 30
0.0
 11
-376.25
 21
-102.6999999046525
 31
0.0
  0
LINE
  5
E5
330
6C
100
AcDbEntity
  8
0
  6
Continuous
 62
     7
100
AcDbLine
 10
-373.25
 20
-100.0999999046525
 30
0.0
 11
-373.25
 21
-102.6999999046525
 31
0.0
  0
LINE
  5
E6
330
6C
100
AcDbEntity
  8
0
  6
Continuous
 62
     7
100
AcDbLine
 10
-373.25
 20
-100.0999999046525
 30
0.0
 11
-376.25
 21
-100.0999999046525
 31
0.0
  0
LINE
  5
E7
330
6C
100
AcDbEntity
  8
0
  6
Continuous
 62
     7
100
AcDbLine
 10
-376.25
 20
-100.0999999046525
 30
0.0
 11
-379.5
 21
-100.0999999046525
 31
0.0
  0
LINE
  5
E8
330
6C
100
AcDbEntity
  8
0
  6
Continuous
 62
     7
100
AcDbLine
 10
-370.0
 20
-100.0999999046525
 30
0.0
 11
-373.25
 21
-100.0999999046525
 31
0.0
  0
LINE
  5
E9
330
6C
100
AcDbEntity
  8
0
  6
Continuous
 62
     7
100
AcDbLine
 10
-370.0
 20
-96.59999990465253
 30
0.0
 11
-379.5
 21
-96.59999990465253
 31
0.0
  0
LINE
  5
EA
330
6C
100
AcDbEntity
  8
0
  6
Continuous
 62
     7
100
AcDbLine
 10
-377.8
 20
-133.3999999046525
 30
0.0
 11
-377.8
 21
-104.6002101193443
 31
0.0
  0
LINE
  5
EB
330
6C
100
AcDbEntity
  8
0
  6
Continuous
 62
     7
100
AcDbLine
 10
-377.8
 20
-133.3999999046525
 30
0.0
 11
-379.5
 21
-133.3999999046525
 31
0.0
  0
LINE
  5
EC
330
6C
100
AcDbEntity
  8
0
  6
Continuous
 62
     7
100
AcDbLine
 10
-371.7
 20
-133.3999999046525
 30
0.0
 11
-370.0
 21
-133.3999999046525
 31
0.0
  0
LINE
  5
ED
330
6C
100
AcDbEntity
  8
0
  6
Continuous
 62
     7
100
AcDbLine
 10
-373.25
 20
-102.6999999046525
 30
0.0
 11
-376.25
 21
-102.6999999046525
 31
0.0
  0
LINE
  5
EE
330
6C
100
AcDbEntity
  8
0
  6
Continuous
 62
     7
100
AcDbLine
 10
-377.8
 20
-104.6002101193443
 30
0.0
 11
-371.7
 21
-104.6002101193443
 31
0.0
  0
LINE
  5
EF
330
6C
100
AcDbEntity
  8
0
  6
Continuous
 62
     7
100
AcDbLine
 10
-370.0
 20
-102.6999999046525
 30
0.0
 11
-373.25
 21
-102.6999999046525
 31
0.0
  0
LINE
  5
F0
330
6C
100
AcDbEntity
  8
0
  6
Continuous
 62
     7
100
AcDbLine
 10
-376.25
 20
-102.6999999046525
 30
0.0
 11
-379.5
 21
-102.6999999046525
 31
0.0
  0
LINE
  5
F1
330
6C
100
AcDbEntity
  8
0
  6
Continuous
 62
     7
100
AcDbLine
 10
-379.5
 20
-96.59999990465253
 30
0.0
 11
-379.5
 21
-100.0999999046525
 31
0.0
  0
LINE
  5
F2
330
6C
100
AcDbEntity
  8
0
  6
Continuous
 62
     7
100
AcDbLine
 10
-371.7
 20
-104.6002101193443
 30
0.0
 11
-371.7
 21
-133.3999999046525
 31
0.0
  0
LINE
  5
F3
330
6C
100
AcDbEntity
  8
0
  6
Continuous
 62
     7
100
AcDbLine
 10
-370.0
 20
-102.6999999046525
 30
0.0
 11
-370.0
 21
-100.0999999046525
 31
0.0
  0
LINE
  5
F4
330
6C
100
AcDbEntity
  8
0
  6
Continuous
 62
     7
100
AcDbLine
 10
-370.0
 20
-100.0999999046525
 30
0.0
 11
-370.0
 21
-96.59999990465253
 31
0.0
  0
LINE
  5
F5
330
6C
100
AcDbEntity
  8
0
  6
Continuous
 62
     7
100
AcDbLine
 10
-370.0
 20
-102.6999999046525
 30
0.0
 11
-370.0
 21
-133.3999999046525
 31
0.0
  0
LINE
  5
F6
330
6C
100
AcDbEntity
  8
0
  6
Continuous
 62
     7
100
AcDbLine
 10
-379.5
 20
-133.3999999046525
 30
0.0
 11
-379.5
 21
-102.6999999046525
 31
0.0
  0
ENDBLK
  5
6E
330
6C
100
AcDbEntity
  8
0
100
AcDbBlockEnd
  0
BLOCK
  5
71
330
6F
100
AcDbEntity
  8
0
100
AcDbBlockBegin
  2
KLM-A_ESL_44x7-Select__8
 70
     0
 10
-379.5
 20
-133.3999999046525
 30
0.0
  3
KLM-A_ESL_44x7-Select__8
  1

  0
INSERT
  5
70
330
6F
100
AcDbEntity
  8
0
100
AcDbBlockReference
  2
KLM_A-select__7
 10
-379.5
 20
-133.3999999046525
 30
0.0
  0
ENDBLK
  5
72
330
6F
100
AcDbEntity
  8
0
100
AcDbBlockEnd
  0
BLOCK
  5
75
330
73
100
AcDbEntity
  8
0
100
AcDbBlockBegin
  2
SA_Rechts1
 70
     0
 10
-374.75
 20
-115.00000000001
 30
0.0
  3
SA_Rechts1
  1

  0
INSERT
  5
74
330
73
100
AcDbEntity
  8
0
100
AcDbBlockReference
  2
KLM-A_ESL_44x7-Select__8
 10
-379.5
 20
-133.3999999046525
 30
0.0
  0
MTEXT
  5
F7
330
73
100
AcDbEntity
  8
1
 62
     6
100
AcDbMText
 10
-374.75
 20
-138.4000000953774
 30
0.0
 40
5.0
 41
0.0
 71
     2
 72
     1
  1
 
  7
CONVERTER_11
 73
     1
 44
1.32052821128451
  0
ENDBLK
  5
76
330
73
100
AcDbEntity
  8
0
100
AcDbBlockEnd
  0
BLOCK
  5
78
330
77
100
AcDbEntity
  8
0
100
AcDbBlockBegin
  2
KLM_A-select__9
 70
     0
 10
-340.0000007334295
 20
-133.3999999046525
 30
0.0
  3
KLM_A-select__9
  1

  0
LINE
  5
F8
330
77
100
AcDbEntity
  8
0
  6
Continuous
 62
     7
100
AcDbLine
 10
-340.0000007334295
 20
-96.59999990465255
 30
0.0
 11
-340.0000007334295
 21
-100.0999999046526
 31
0.0
  0
LINE
  5
F9
330
77
100
AcDbEntity
  8
0
  6
Continuous
 62
     7
100
AcDbLine
 10
-319.8500007334295
 20
-102.6999999046526
 30
0.0
 11
-322.4500007334295
 21
-100.0999999046526
 31
0.0
  0
LINE
  5
FA
330
77
100
AcDbEntity
  8
0
  6
Continuous
 62
     7
100
AcDbLine
 10
-314.1500007334295
 20
-133.3999999046525
 30
0.0
 11
-314.1500007334295
 21
-102.6999999046526
 31
0.0
  0
LINE
  5
FB
330
77
100
AcDbEntity
  8
0
  6
Continuous
 62
     7
100
AcDbLine
 10
-314.1500007334295
 20
-133.3999999046525
 30
0.0
 11
-319.8500007334295
 21
-133.3999999046525
 31
0.0
  0
LINE
  5
FC
330
77
100
AcDbEntity
  8
0
  6
Continuous
 62
     7
100
AcDbLine
 10
-319.8500007334295
 20
-102.6999999046526
 30
0.0
 11
-319.8500007334295
 21
-133.3999999046525
 31
0.0
  0
LINE
  5
FD
330
77
100
AcDbEntity
  8
0
  6
Continuous
 62
     7
100
AcDbLine
 10
-340.0000007334295
 20
-96.59999990465255
 30
0.0
 11
-294.0000007334295
 21
-96.59999990465255
 31
0.0
  0
LINE
  5
FE
330
77
100
AcDbEntity
  8
0
  6
Continuous
 62
     7
100
AcDbLine
 10
-311.5500007334295
 20
-100.0999999046526
 30
0.0
 11
-294.0000007334295
 21
-100.0999999046526
 31
0.0
  0
LINE
  5
FF
330
77
100
AcDbEntity
  8
0
  6
Continuous
 62
     7
100
AcDbLine
 10
-340.0000007334295
 20
-100.0999999046526
 30
0.0
 11
-322.4500007334295
 21
-100.0999999046526
 31
0.0
  0
LINE
  5
100
330
77
100
AcDbEntity
  8
0
  6
Continuous
 62
     7
100
AcDbLine
 10
-294.0000007334295
 20
-96.59999990465255
 30
0.0
 11
-294.0000007334295
 21
-100.0999999046526
 31
0.0
  0
LINE
  5
101
330
77
100
AcDbEntity
  8
0
  6
Continuous
 62
     7
100
AcDbLine
 10
-311.5500007334295
 20
-100.0999999046526
 30
0.0
 11
-314.1500007334295
 21
-102.6999999046526
 31
0.0
  0
ENDBLK
  5
79
330
77
100
AcDbEntity
  8
0
100
AcDbBlockEnd
  0
BLOCK
  5
7C
330
7A
100
AcDbEntity
  8
0
100
AcDbBlockBegin
  2
KLM-A_ESL_44x7-Select__10
 70
     0
 10
-340.0000007334295
 20
-133.3999999046525
 30
0.0
  3
KLM-A_ESL_44x7-Select__10
  1

  0
INSERT
  5
7B
330
7A
100
AcDbEntity
  8
0
100
AcDbBlockReference
  2
KLM_A-select__9
 10
-340.0000007334295
 20
-133.3999999046525
 30
0.0
  0
ENDBLK
  5
7D
330
7A
100
AcDbEntity
  8
0
100
AcDbBlockEnd
  0
BLOCK
  5
80
330
7E
100
AcDbEntity
  8
0
100
AcDbBlockBegin
  2
Vordans1
 70
     0
 10
-317.0
 20
-115.00000000001
 30
0.0
  3
Vordans1
  1

  0
INSERT
  5
7F
330
7E
100
AcDbEntity
  8
0
100
AcDbBlockReference
  2
KLM-A_ESL_44x7-Select__10
 10
-340.0000007334295
 20
-133.3999999046525
 30
0.0
  0
MTEXT
  5
102
330
7E
100
AcDbEntity
  8
1
 62
     6
100
AcDbMText
 10
-317.0
 20
-138.4000000953774
 30
0.0
 40
5.0
 41
0.0
 71
     2
 72
     1
  1
 
  7
CONVERTER_11
 73
     1
 44
1.32052821128451
  0
DIMENSION
  5
10D
330
7E
100
AcDbEntity
  8
1
100
AcDbDimension
  2
*D22
 10
-340.0000007334295
 20
-84.8732838042721
 30
0.0
 11
-315.162044500895
 21
-81.6232838042721
 31
0.0
 70
    32
  1
<>
 71
     5
 42
-1.0
 53
0.00013888888889
  3
ME10_DIM_11
100
AcDbAlignedDimension
 13
-294.0000007334295
 23
-96.59999990465255
 33
0.0
 14
-340.0000007334295
 24
-96.59999990465255
 34
0.0
100
AcDbRotatedDimension
  0
DIMENSION
  5
118
330
7E
100
AcDbEntity
  8
1
100
AcDbDimension
  2
*D23
 10
-350.0000007334295
 20
-96.59999990465255
 30
0.0
 11
-353.4250007334295
 21
-116.314948530301
 31
0.0
 70
    32
  1
<>
 71
     5
 42
-1.0
 53
90.0
  3
ME10_DIM_12
100
AcDbAlignedDimension
 13
-319.8500007334295
 23
-133.3999999046525
 33
0.0
 14
-340.0000007334295
 24
-96.59999990465255
 34
0.0
 50
90.0
100
AcDbRotatedDimension
  0
ENDBLK
  5
81
330
7E
100
AcDbEntity
  8
0
100
AcDbBlockEnd
  0
BLOCK
  5
83
330
82
100
AcDbEntity
  8
0
100
AcDbBlockBegin
  2
_rahmen
 70
     0
 10
-133.6797279958839
 20
-248.8880164228951
 30
0.0
  3
_rahmen
  1

  0
LINE
  5
119
330
82
100
AcDbEntity
  8
1
  6
Continuous
 62
     6
100
AcDbLine
 10
-263.2245325226339
 20
-218.3880164228949
 30
0.0
 11
-133.6797279958823
 21
-218.3880164228949
 31
0.0
  0
LINE
  5
11A
330
82
100
AcDbEntity
  8
1
  6
Continuous
 62
     7
100
AcDbLine
 10
-245.0245325226339
 20
-239.6380164228949
 30
0.0
 11
-226.824532522634
 21
-239.6380164228949
 31
0.0
  0
LINE
  5
11B
330
82
100
AcDbEntity
  8
1
  6
Continuous
 62
     6
100
AcDbLine
 10
-245.0245325226339
 20
-243.8880164228949
 30
0.0
 11
-263.2245325226339
 21
-243.8880164228951
 31
0.0
  0
LINE
  5
11C
330
82
100
AcDbEntity
  8
1
  6
Continuous
 62
     7
100
AcDbLine
 10
-245.0245325226339
 20
-239.6380164228949
 30
0.0
 11
-245.0245325226339
 21
-243.8880164228949
 31
0.0
  0
LINE
  5
11D
330
82
100
AcDbEntity
  8
1
  6
Continuous
 62
     7
100
AcDbLine
 10
-226.824532522634
 20
-239.6380164228949
 30
0.0
 11
-226.824532522634
 21
-243.8880164228951
 31
0.0
  0
LINE
  5
11E
330
82
100
AcDbEntity
  8
1
  6
Continuous
 62
     7
100
AcDbLine
 10
-263.2245325226339
 20
-239.6380164228951
 30
0.0
 11
-263.2245325226339
 21
-243.8880164228951
 31
0.0
  0
LINE
  5
11F
330
82
100
AcDbEntity
  8
1
  6
Continuous
 62
     7
100
AcDbLine
 10
-263.2245325226339
 20
-239.6380164228951
 30
0.0
 11
-245.0245325226339
 21
-239.6380164228949
 31
0.0
  0
LINE
  5
120
330
82
100
AcDbEntity
  8
1
  6
Continuous
 62
     2
100
AcDbLine
 10
-253.9878776360714
 20
-220.263016422895
 30
0.0
 11
-253.9878776360714
 21
-225.263016422895
 31
0.0
  0
LINE
  5
121
330
82
100
AcDbEntity
  8
1
  6
Continuous
 62
     2
100
AcDbLine
 10
-253.9878776360714
 20
-225.263016422895
 30
0.0
 11
-258.9878776360714
 21
-224.013016422895
 31
0.0
  0
LINE
  5
122
330
82
100
AcDbEntity
  8
1
  6
Continuous
 62
     2
100
AcDbLine
 10
-258.9878776360714
 20
-224.013016422895
 30
0.0
 11
-258.9878776360714
 21
-221.513016422895
 31
0.0
  0
LINE
  5
123
330
82
100
AcDbEntity
  8
1
  6
Continuous
 62
     2
100
AcDbLine
 10
-258.9878776360714
 20
-221.513016422895
 30
0.0
 11
-253.9878776360714
 21
-220.263016422895
 31
0.0
  0
LINE
  5
124
330
82
100
AcDbEntity
  8
1
  6
Continuous
 62
     6
100
AcDbLine
 10
-385.6797279958822
 20
-243.8880164228949
 30
0.0
 11
-420.6797279958821
 21
-243.8880164228949
 31
0.0
  0
LINE
  5
125
330
82
100
AcDbEntity
  8
1
  6
Continuous
 62
     6
100
AcDbLine
 10
-133.6797279958823
 20
-226.8880164228949
 30
0.0
 11
-133.6797279958826
 21
-235.3880164228949
 31
0.0
  0
LINE
  5
126
330
82
100
AcDbEntity
  8
1
  6
Continuous
 62
     6
100
AcDbLine
 10
-226.824532522634
 20
-243.8880164228951
 30
0.0
 11
-227.179727995884
 21
-243.8880164228949
 31
0.0
  0
LINE
  5
127
330
82
100
AcDbEntity
  8
1
  6
Continuous
 62
     6
100
AcDbLine
 10
-379.4797279958842
 20
-243.8880164228951
 30
0.0
 11
-385.6797279958822
 21
-243.8880164228949
 31
0.0
  0
LINE
  5
128
330
82
100
AcDbEntity
  8
1
  6
Continuous
 62
     7
100
AcDbLine
 10
-226.824532522634
 20
-226.8880164228949
 30
0.0
 11
-226.824532522634
 21
-239.6380164228949
 31
0.0
  0
LINE
  5
129
330
82
100
AcDbEntity
  8
1
  6
Continuous
 62
     7
100
AcDbLine
 10
-263.2245325226339
 20
-226.8880164228949
 30
0.0
 11
-263.2245325226339
 21
-239.6380164228951
 31
0.0
  0
LINE
  5
12A
330
82
100
AcDbEntity
  8
1
  6
Continuous
 62
     6
100
AcDbLine
 10
-277.1797279958839
 20
-243.8880164228949
 30
0.0
 11
-327.1797279958842
 21
-243.8880164228949
 31
0.0
  0
LINE
  5
12B
330
82
100
AcDbEntity
  8
1
  6
Continuous
 62
     6
100
AcDbLine
 10
-379.4797279958842
 20
-243.8880164228951
 30
0.0
 11
-377.1797279958839
 21
-243.8880164228949
 31
0.0
  0
LINE
  5
12C
330
82
100
AcDbEntity
  8
1
  6
Continuous
 62
     6
100
AcDbLine
 10
-226.824532522634
 20
-243.8880164228951
 30
0.0
 11
-177.179727995884
 21
-243.8880164228949
 31
0.0
  0
LINE
  5
12D
330
82
100
AcDbEntity
  8
1
  6
Continuous
 62
     6
100
AcDbLine
 10
-133.6797279958839
 20
-243.8880164228949
 30
0.0
 11
-133.6797279958826
 21
-235.3880164228949
 31
0.0
  0
LINE
  5
12E
330
82
100
AcDbEntity
  8
1
  6
Continuous
 62
     2
100
AcDbLine
 10
-425.679727995883
 20
-243.8880164228949
 30
0.0
 11
-425.679727995883
 21
-248.8880164228951
 31
0.0
  0
LINE
  5
12F
330
82
100
AcDbEntity
  8
1
  6
Continuous
 62
     2
100
AcDbLine
 10
-420.6797279958821
 20
-243.8880164228949
 30
0.0
 11
-425.679727995883
 21
-243.8880164228949
 31
0.0
  0
LINE
  5
130
330
82
100
AcDbEntity
  8
1
  6
Continuous
 62
     2
100
AcDbLine
 10
-420.6797279958821
 20
-248.8880164228951
 30
0.0
 11
-377.1797279958839
 21
-248.8880164228951
 31
0.0
  0
LINE
  5
131
330
82
100
AcDbEntity
  8
1
  6
Continuous
 62
     2
100
AcDbLine
 10
-420.6797279958821
 20
-243.8880164228949
 30
0.0
 11
-420.6797279958821
 21
-248.8880164228951
 31
0.0
  0
LINE
  5
132
330
82
100
AcDbEntity
  8
1
  6
Continuous
 62
     2
100
AcDbLine
 10
-177.179727995884
 20
-248.8880164228951
 30
0.0
 11
-227.179727995884
 21
-248.8880164228951
 31
0.0
  0
LINE
  5
133
330
82
100
AcDbEntity
  8
1
  6
Continuous
 62
     2
100
AcDbLine
 10
-177.179727995884
 20
-248.8880164228951
 30
0.0
 11
-177.179727995884
 21
-243.8880164228949
 31
0.0
  0
LINE
  5
134
330
82
100
AcDbEntity
  8
1
  6
Continuous
 62
     2
100
AcDbLine
 10
-227.179727995884
 20
-248.8880164228951
 30
0.0
 11
-227.179727995884
 21
-243.8880164228949
 31
0.0
  0
LINE
  5
135
330
82
100
AcDbEntity
  8
1
  6
Continuous
 62
     2
100
AcDbLine
 10
-277.1797279958839
 20
-248.8880164228951
 30
0.0
 11
-227.179727995884
 21
-248.8880164228951
 31
0.0
  0
LINE
  5
136
330
82
100
AcDbEntity
  8
1
  6
Continuous
 62
     2
100
AcDbLine
 10
-277.1797279958839
 20
-248.8880164228951
 30
0.0
 11
-277.1797279958839
 21
-243.8880164228949
 31
0.0
  0
LINE
  5
137
330
82
100
AcDbEntity
  8
1
  6
Continuous
 62
     2
100
AcDbLine
 10
-327.1797279958842
 20
-248.8880164228951
 30
0.0
 11
-277.1797279958839
 21
-248.8880164228951
 31
0.0
  0
LINE
  5
138
330
82
100
AcDbEntity
  8
1
  6
Continuous
 62
     2
100
AcDbLine
 10
-327.1797279958842
 20
-248.8880164228951
 30
0.0
 11
-327.1797279958842
 21
-243.8880164228949
 31
0.0
  0
LINE
  5
139
330
82
100
AcDbEntity
  8
1
  6
Continuous
 62
     2
100
AcDbLine
 10
-377.1797279958839
 20
-248.8880164228951
 30
0.0
 11
-327.1797279958842
 21
-248.8880164228951
 31
0.0
  0
LINE
  5
13A
330
82
100
AcDbEntity
  8
1
  6
Continuous
 62
     2
100
AcDbLine
 10
-377.1797279958839
 20
-248.8880164228951
 30
0.0
 11
-377.1797279958839
 21
-243.8880164228949
 31
0.0
  0
LINE
  5
13B
330
82
100
AcDbEntity
  8
1
  6
Continuous
 62
     6
100
AcDbLine
 10
-420.6797279958822
 20
-193.8880164228948
 30
0.0
 11
-420.6797279958821
 21
-243.8880164228949
 31
0.0
  0
LINE
  5
13C
330
82
100
AcDbEntity
  8
1
  6
Continuous
 62
     2
100
AcDbLine
 10
-425.679727995883
 20
-193.8880164228948
 30
0.0
 11
-425.679727995883
 21
-243.8880164228949
 31
0.0
  0
LINE
  5
13D
330
82
100
AcDbEntity
  8
1
  6
Continuous
 62
     2
100
AcDbLine
 10
-425.679727995883
 20
-193.8880164228948
 30
0.0
 11
-420.6797279958822
 21
-193.8880164228948
 31
0.0
  0
LINE
  5
13E
330
82
100
AcDbEntity
  8
1
  6
Continuous
 62
     6
100
AcDbLine
 10
-420.6797279958824
 20
-143.888016422895
 30
0.0
 11
-420.6797279958822
 21
-193.8880164228948
 31
0.0
  0
LINE
  5
13F
330
82
100
AcDbEntity
  8
1
  6
Continuous
 62
     2
100
AcDbLine
 10
-425.679727995883
 20
-143.888016422895
 30
0.0
 11
-425.679727995883
 21
-193.8880164228948
 31
0.0
  0
LINE
  5
140
330
82
100
AcDbEntity
  8
1
  6
Continuous
 62
     2
100
AcDbLine
 10
-425.679727995883
 20
-143.888016422895
 30
0.0
 11
-420.6797279958824
 21
-143.888016422895
 31
0.0
  0
LINE
  5
141
330
82
100
AcDbEntity
  8
1
  6
Continuous
 62
     6
100
AcDbLine
 10
-420.679727995883
 20
-93.88801642289494
 30
0.0
 11
-420.6797279958824
 21
-143.888016422895
 31
0.0
  0
LINE
  5
142
330
82
100
AcDbEntity
  8
1
  6
Continuous
 62
     2
100
AcDbLine
 10
-425.679727995883
 20
-93.88801642289494
 30
0.0
 11
-425.679727995883
 21
-143.888016422895
 31
0.0
  0
LINE
  5
143
330
82
100
AcDbEntity
  8
1
  6
Continuous
 62
     2
100
AcDbLine
 10
-425.679727995883
 20
-93.88801642289494
 30
0.0
 11
-420.679727995883
 21
-93.88801642289494
 31
0.0
  0
LINE
  5
144
330
82
100
AcDbEntity
  8
1
  6
Continuous
 62
     6
100
AcDbLine
 10
-420.679727995883
 20
-58.88801642289494
 30
0.0
 11
-420.679727995883
 21
-93.88801642289494
 31
0.0
  0
LINE
  5
145
330
82
100
AcDbEntity
  8
1
  6
Continuous
 62
     2
100
AcDbLine
 10
-425.679727995883
 20
-38.88801642289494
 30
0.0
 11
-425.679727995883
 21
-93.88801642289494
 31
0.0
  0
LINE
  5
146
330
82
100
AcDbEntity
  8
1
  6
Continuous
 62
     2
100
AcDbLine
 10
-425.679727995883
 20
-248.8880164228951
 30
0.0
 11
-420.6797279958821
 21
-248.8880164228951
 31
0.0
  0
LINE
  5
147
330
82
100
AcDbEntity
  8
1
  6
Continuous
 62
     2
100
AcDbLine
 10
-277.1797279958839
 20
-38.88801642289494
 30
0.0
 11
-277.1797279958839
 21
-48.09670826759626
 31
0.0
  0
LINE
  5
148
330
82
100
AcDbEntity
  8
1
  6
Continuous
 62
     2
100
AcDbLine
 10
-277.1797279958839
 20
-38.88801642289494
 30
0.0
 11
-425.679727995883
 21
-38.88801642289494
 31
0.0
  0
LINE
  5
149
330
82
100
AcDbEntity
  8
1
  6
Continuous
 62
     2
100
AcDbLine
 10
-128.679727995885
 20
-243.8880164228949
 30
0.0
 11
-128.679727995885
 21
-193.8880164228948
 31
0.0
  0
LINE
  5
14A
330
82
100
AcDbEntity
  8
1
  6
Continuous
 62
     2
100
AcDbLine
 10
-128.679727995885
 20
-93.88801642289494
 30
0.0
 11
-128.679727995885
 21
-38.88801642289494
 31
0.0
  0
LINE
  5
14B
330
82
100
AcDbEntity
  8
1
  6
Continuous
 62
     6
100
AcDbLine
 10
-133.6797279958848
 20
-93.88801642289494
 30
0.0
 11
-133.679727995885
 21
-58.88801642289494
 31
0.0
  0
LINE
  5
14C
330
82
100
AcDbEntity
  8
1
  6
Continuous
 62
     2
100
AcDbLine
 10
-133.6797279958848
 20
-93.88801642289494
 30
0.0
 11
-128.679727995885
 21
-93.88801642289494
 31
0.0
  0
LINE
  5
14D
330
82
100
AcDbEntity
  8
1
  6
Continuous
 62
     2
100
AcDbLine
 10
-128.679727995885
 20
-143.888016422895
 30
0.0
 11
-128.679727995885
 21
-93.88801642289494
 31
0.0
  0
LINE
  5
14E
330
82
100
AcDbEntity
  8
1
  6
Continuous
 62
     6
100
AcDbLine
 10
-133.6797279958835
 20
-143.888016422895
 30
0.0
 11
-133.6797279958848
 21
-93.88801642289494
 31
0.0
  0
LINE
  5
14F
330
82
100
AcDbEntity
  8
1
  6
Continuous
 62
     2
100
AcDbLine
 10
-133.6797279958835
 20
-143.888016422895
 30
0.0
 11
-128.679727995885
 21
-143.888016422895
 31
0.0
  0
LINE
  5
150
330
82
100
AcDbEntity
  8
1
  6
Continuous
 62
     2
100
AcDbLine
 10
-128.679727995885
 20
-193.8880164228948
 30
0.0
 11
-128.679727995885
 21
-143.888016422895
 31
0.0
  0
LINE
  5
151
330
82
100
AcDbEntity
  8
1
  6
Continuous
 62
     6
100
AcDbLine
 10
-133.679727995883
 20
-193.8880164228948
 30
0.0
 11
-133.6797279958835
 21
-143.888016422895
 31
0.0
  0
LINE
  5
152
330
82
100
AcDbEntity
  8
1
  6
Continuous
 62
     2
100
AcDbLine
 10
-133.679727995883
 20
-193.8880164228948
 30
0.0
 11
-128.679727995885
 21
-193.8880164228948
 31
0.0
  0
LINE
  5
153
330
82
100
AcDbEntity
  8
1
  6
Continuous
 62
     6
100
AcDbLine
 10
-133.679727995885
 20
-58.88801642289494
 30
0.0
 11
-420.679727995883
 21
-58.88801642289494
 31
0.0
  0
LINE
  5
154
330
82
100
AcDbEntity
  8
1
  6
Continuous
 62
     2
100
AcDbLine
 10
-128.679727995885
 20
-38.88801642289494
 30
0.0
 11
-277.1797279958839
 21
-38.88801642289494
 31
0.0
  0
LINE
  5
155
330
82
100
AcDbEntity
  8
1
  6
Continuous
 62
     6
100
AcDbLine
 10
-133.6797279958823
 20
-226.8880164228949
 30
0.0
 11
-133.679727995883
 21
-193.8880164228948
 31
0.0
  0
LINE
  5
156
330
82
100
AcDbEntity
  8
1
  6
Continuous
 62
     2
100
AcDbLine
 10
-133.6797279958839
 20
-248.8880164228951
 30
0.0
 11
-177.179727995884
 21
-248.8880164228951
 31
0.0
  0
LINE
  5
157
330
82
100
AcDbEntity
  8
1
  6
Continuous
 62
     2
100
AcDbLine
 10
-128.679727995885
 20
-248.8880164228951
 30
0.0
 11
-133.6797279958839
 21
-248.8880164228951
 31
0.0
  0
LINE
  5
158
330
82
100
AcDbEntity
  8
1
  6
Continuous
 62
     2
100
AcDbLine
 10
-128.679727995885
 20
-248.8880164228951
 30
0.0
 11
-128.679727995885
 21
-243.8880164228949
 31
0.0
  0
LINE
  5
159
330
82
100
AcDbEntity
  8
1
  6
Continuous
 62
     6
100
AcDbLine
 10
-263.2245325226339
 20
-226.8880164228949
 30
0.0
 11
-226.824532522634
 21
-226.8880164228949
 31
0.0
  0
LINE
  5
15A
330
82
100
AcDbEntity
  8
1
  6
Continuous
 62
     2
100
AcDbLine
 10
-133.6797279958839
 20
-243.8880164228949
 30
0.0
 11
-133.6797279958839
 21
-248.8880164228951
 31
0.0
  0
LINE
  5
15B
330
82
100
AcDbEntity
  8
1
  6
Continuous
 62
     2
100
AcDbLine
 10
-133.6797279958839
 20
-243.8880164228949
 30
0.0
 11
-128.679727995885
 21
-243.8880164228949
 31
0.0
  0
LINE
  5
15C
330
82
100
AcDbEntity
  8
1
  6
Continuous
 62
     6
100
AcDbLine
 10
-227.179727995884
 20
-243.8880164228949
 30
0.0
 11
-245.0245325226339
 21
-243.8880164228949
 31
0.0
  0
LINE
  5
15D
330
82
100
AcDbEntity
  8
1
  6
Continuous
 62
     6
100
AcDbLine
 10
-177.179727995884
 20
-243.8880164228949
 30
0.0
 11
-133.6797279958839
 21
-243.8880164228949
 31
0.0
  0
LINE
  5
15E
330
82
100
AcDbEntity
  8
1
  6
Continuous
 62
     6
100
AcDbLine
 10
-327.1797279958842
 20
-243.8880164228949
 30
0.0
 11
-332.2245325226339
 21
-243.8880164228949
 31
0.0
  0
LINE
  5
15F
330
82
100
AcDbEntity
  8
1
  6
Continuous
 62
     6
100
AcDbLine
 10
-277.1797279958839
 20
-243.8880164228949
 30
0.0
 11
-263.2245325226339
 21
-243.8880164228951
 31
0.0
  0
LINE
  5
160
102
{ACAD_REACTORS
330
24A
330
24B
102
}
330
82
100
AcDbEntity
  8
0
  6
Continuous
 62
     2
100
AcDbLine
 10
-255.7099065804871
 20
-231.8155016666828
 30
0.0
 11
-255.7099065804871
 21
-231.209966378176
 31
0.0
  0
LINE
  5
161
102
{ACAD_REACTORS
330
24A
330
24B
102
}
330
82
100
AcDbEntity
  8
0
  6
Continuous
 62
     2
100
AcDbLine
 10
-255.7099065804871
 20
-234.6156362733141
 30
0.0
 11
-255.7099065804871
 21
-234.033784866619
 31
0.0
  0
LINE
  5
162
102
{ACAD_REACTORS
330
24C
330
24D
102
}
330
82
100
AcDbEntity
  8
0
  6
Continuous
 62
     2
100
AcDbLine
 10
-233.0804201450079
 20
-234.3259722051911
 30
0.0
 11
-233.0804201450079
 21
-236.5945164228786
 31
0.0
  0
LINE
  5
163
102
{ACAD_REACTORS
330
24C
330
24D
102
}
330
82
100
AcDbEntity
  8
0
  6
Continuous
 62
     2
100
AcDbLine
 10
-234.4614739239955
 20
-233.540706899068
 30
0.0
 11
-231.0765284053668
 21
-233.5407068990675
 31
0.0
  0
LINE
  5
164
102
{ACAD_REACTORS
330
24C
330
24D
102
}
330
82
100
AcDbEntity
  8
0
  6
Continuous
 62
     2
100
AcDbLine
 10
-231.0765284053668
 20
-234.3259722051911
 30
0.0
 11
-231.0765284053668
 21
-233.5407068990675
 31
0.0
  0
LINE
  5
165
102
{ACAD_REACTORS
330
24C
330
24D
102
}
330
82
100
AcDbEntity
  8
0
  6
Continuous
 62
     2
100
AcDbLine
 10
-231.8876274428402
 20
-234.3259722051911
 30
0.0
 11
-231.0765284053668
 21
-234.3259722051911
 31
0.0
  0
LINE
  5
166
102
{ACAD_REACTORS
330
24C
330
24D
102
}
330
82
100
AcDbEntity
  8
0
  6
Continuous
 62
     2
100
AcDbLine
 10
-231.8876274428402
 20
-236.5945164228786
 30
0.0
 11
-231.8876274428402
 21
-234.3259722051911
 31
0.0
  0
LINE
  5
167
102
{ACAD_REACTORS
330
24C
330
24D
102
}
330
82
100
AcDbEntity
  8
0
  6
Continuous
 62
     2
100
AcDbLine
 10
-233.0804201450079
 20
-236.5945164228786
 30
0.0
 11
-231.8876274428402
 21
-236.5945164228786
 31
0.0
  0
LINE
  5
168
102
{ACAD_REACTORS
330
242
330
243
102
}
330
82
100
AcDbEntity
  8
0
  6
Continuous
 62
     2
100
AcDbLine
 10
-233.7770110830724
 20
-230.1815164228931
 30
0.0
 11
-235.1797353008217
 21
-230.1815164228931
 31
0.0
  0
LINE
  5
169
102
{ACAD_REACTORS
330
242
330
243
102
}
330
82
100
AcDbEntity
  8
0
  6
Continuous
 62
     2
100
AcDbLine
 10
-233.7770110830724
 20
-230.1815164228931
 30
0.0
 11
-233.1758435611806
 21
-230.8613397444486
 31
0.0
  0
LINE
  5
16A
102
{ACAD_REACTORS
330
242
330
243
102
}
330
82
100
AcDbEntity
  8
0
  6
Continuous
 62
     2
100
AcDbLine
 10
-233.1758435611806
 20
-230.8613397444486
 30
0.0
 11
-232.5746760392879
 21
-230.1815164228931
 31
0.0
  0
LINE
  5
16B
102
{ACAD_REACTORS
330
242
330
243
102
}
330
82
100
AcDbEntity
  8
0
  6
Continuous
 62
     2
100
AcDbLine
 10
-232.4744814523072
 20
-231.6544669529293
 30
0.0
 11
-231.1719518215406
 21
-230.1815164228931
 31
0.0
  0
LINE
  5
16C
102
{ACAD_REACTORS
330
242
330
243
102
}
330
82
100
AcDbEntity
  8
0
  6
Continuous
 62
     2
100
AcDbLine
 10
-232.4744814523072
 20
-231.6544669529293
 30
0.0
 11
-231.0765284053668
 21
-233.2353259467043
 31
0.0
  0
LINE
  5
16D
102
{ACAD_REACTORS
330
242
330
243
102
}
330
82
100
AcDbEntity
  8
0
  6
Continuous
 62
     2
100
AcDbLine
 10
-232.4792526231151
 20
-233.2353259467043
 30
0.0
 11
-231.0765284053668
 21
-233.2353259467043
 31
0.0
  0
LINE
  5
16E
102
{ACAD_REACTORS
330
242
330
243
102
}
330
82
100
AcDbEntity
  8
0
  6
Continuous
 62
     2
100
AcDbLine
 10
-233.1758435611806
 20
-232.4475941614106
 30
0.0
 11
-232.4792526231151
 21
-233.2353259467043
 31
0.0
  0
LINE
  5
16F
102
{ACAD_REACTORS
330
240
330
241
102
}
330
82
100
AcDbEntity
  8
0
  6
Continuous
 62
     2
100
AcDbLine
 10
-236.6349423974643
 20
-230.1815164228931
 30
0.0
 11
-235.3944379872114
 21
-230.1815164228931
 31
0.0
  0
LINE
  5
170
102
{ACAD_REACTORS
330
240
330
241
102
}
330
82
100
AcDbEntity
  8
0
  6
Continuous
 62
     2
100
AcDbLine
 10
-235.3944379872114
 20
-230.1815164228931
 30
0.0
 11
-235.3944379872114
 21
-233.2353259467043
 31
0.0
  0
LINE
  5
171
102
{ACAD_REACTORS
330
240
330
241
102
}
330
82
100
AcDbEntity
  8
0
  6
Continuous
 62
     2
100
AcDbLine
 10
-236.6349423974643
 20
-233.2353259467043
 30
0.0
 11
-236.6349423974643
 21
-230.1815164228931
 31
0.0
  0
LINE
  5
172
102
{ACAD_REACTORS
330
23E
330
23F
102
}
330
82
100
AcDbEntity
  8
0
  6
Continuous
 62
     2
100
AcDbLine
 10
-238.1032524800019
 20
-235.3729926133541
 30
0.0
 11
-237.8030872428095
 21
-234.6051776473674
 31
0.0
  0
LINE
  5
173
102
{ACAD_REACTORS
330
23E
330
23F
102
}
330
82
100
AcDbEntity
  8
0
  6
Continuous
 62
     2
100
AcDbLine
 10
-238.5807880846228
 20
-236.5945164228786
 30
0.0
 11
-238.3693080311469
 21
-236.0535558786608
 31
0.0
  0
LINE
  5
174
102
{ACAD_REACTORS
330
23E
330
23F
102
}
330
82
100
AcDbEntity
  8
0
  6
Continuous
 62
     2
100
AcDbLine
 10
-238.4233394479364
 20
-233.5407068990675
 30
0.0
 11
-239.8212924948757
 21
-236.5945164228786
 31
0.0
  0
LINE
  5
175
102
{ACAD_REACTORS
330
23E
330
23F
102
}
330
82
100
AcDbEntity
  8
0
  6
Continuous
 62
     2
100
AcDbLine
 10
-235.7848819907434
 20
-236.5945164228786
 30
0.0
 11
-237.0253864009974
 21
-236.5945164228786
 31
0.0
  0
LINE
  5
176
102
{ACAD_REACTORS
330
23E
330
23F
102
}
330
82
100
AcDbEntity
  8
0
  6
Continuous
 62
     2
100
AcDbLine
 10
-238.3693080311469
 20
-236.0535558786608
 30
0.0
 11
-237.2368664544731
 21
-236.0535558786608
 31
0.0
  0
LINE
  5
177
102
{ACAD_REACTORS
330
23C
330
23D
102
}
330
82
100
AcDbEntity
  8
0
  6
Continuous
 62
     2
100
AcDbLine
 10
-241.978804634058
 20
-234.3259722051911
 30
0.0
 11
-241.1677055965834
 21
-234.3259722051911
 31
0.0
  0
LINE
  5
178
102
{ACAD_REACTORS
330
23C
330
23D
102
}
330
82
100
AcDbEntity
  8
0
  6
Continuous
 62
     2
100
AcDbLine
 10
-239.1638138569443
 20
-233.5407068990675
 30
0.0
 11
-241.978804634058
 21
-233.5407068990675
 31
0.0
  0
LINE
  5
179
102
{ACAD_REACTORS
330
23C
330
23D
102
}
330
82
100
AcDbEntity
  8
0
  6
Continuous
 62
     2
100
AcDbLine
 10
-239.1638138569443
 20
-234.3259722051911
 30
0.0
 11
-239.1638138569443
 21
-233.5407068990675
 31
0.0
  0
LINE
  5
17A
102
{ACAD_REACTORS
330
23C
330
23D
102
}
330
82
100
AcDbEntity
  8
0
  6
Continuous
 62
     2
100
AcDbLine
 10
-239.9749128944168
 20
-234.3259722051911
 30
0.0
 11
-239.1638138569443
 21
-234.3259722051911
 31
0.0
  0
LINE
  5
17B
102
{ACAD_REACTORS
330
23C
330
23D
102
}
330
82
100
AcDbEntity
  8
0
  6
Continuous
 62
     2
100
AcDbLine
 10
-239.9749128944168
 20
-236.5945164228786
 30
0.0
 11
-239.9749128944168
 21
-234.3259722051911
 31
0.0
  0
LINE
  5
17C
102
{ACAD_REACTORS
330
23A
330
23B
102
}
330
82
100
AcDbEntity
  8
0
  6
Continuous
 62
     2
100
AcDbLine
 10
-239.3067980503188
 20
-233.2353259467043
 30
0.0
 11
-239.3067980503188
 21
-231.9265504364996
 31
0.0
  0
LINE
  5
17D
102
{ACAD_REACTORS
330
23A
330
23B
102
}
330
82
100
AcDbEntity
  8
0
  6
Continuous
 62
     2
100
AcDbLine
 10
-240.4995907524854
 20
-230.1815164228931
 30
0.0
 11
-240.4995907524854
 21
-233.2353259467043
 31
0.0
  0
LINE
  5
17E
102
{ACAD_REACTORS
330
23A
330
23B
102
}
330
82
100
AcDbEntity
  8
0
  6
Continuous
 62
     2
100
AcDbLine
 10
-239.3067980503188
 20
-230.1815164228931
 30
0.0
 11
-240.4995907524854
 21
-230.1815164228931
 31
0.0
  0
LINE
  5
17F
102
{ACAD_REACTORS
330
23A
330
23B
102
}
330
82
100
AcDbEntity
  8
0
  6
Continuous
 62
     2
100
AcDbLine
 10
-238.0662936400648
 20
-230.1815164228931
 30
0.0
 11
-238.0662936400648
 21
-231.4902919330983
 31
0.0
  0
LINE
  5
180
102
{ACAD_REACTORS
330
238
330
239
102
}
330
82
100
AcDbEntity
  8
0
  6
Continuous
 62
     2
100
AcDbLine
 10
-245.748029572905
 20
-233.5407068990675
 30
0.0
 11
-245.748029572905
 21
-236.5945164228786
 31
0.0
  0
LINE
  5
181
102
{ACAD_REACTORS
330
238
330
239
102
}
330
82
100
AcDbEntity
  8
0
  6
Continuous
 62
     2
100
AcDbLine
 10
-244.5552368707375
 20
-233.5407068990675
 30
0.0
 11
-245.748029572905
 21
-233.5407068990675
 31
0.0
  0
LINE
  5
182
102
{ACAD_REACTORS
330
238
330
239
102
}
330
82
100
AcDbEntity
  8
0
  6
Continuous
 62
     2
100
AcDbLine
 10
-243.3147324604846
 20
-236.5945164228786
 30
0.0
 11
-242.1219397583182
 21
-236.5945164228786
 31
0.0
  0
LINE
  5
183
102
{ACAD_REACTORS
330
238
330
239
102
}
330
82
100
AcDbEntity
  8
0
  6
Continuous
 62
     2
100
AcDbLine
 10
-245.748029572905
 20
-236.5945164228786
 30
0.0
 11
-244.5552368707375
 21
-236.5945164228786
 31
0.0
  0
LINE
  5
184
102
{ACAD_REACTORS
330
248
330
249
102
}
330
82
100
AcDbEntity
  8
0
  6
Continuous
 62
     2
100
AcDbLine
 10
-242.0740771193459
 20
-231.3594143820778
 30
0.0
 11
-242.0740771193459
 21
-230.8795300283361
 31
0.0
  0
LINE
  5
185
102
{ACAD_REACTORS
330
248
330
249
102
}
330
82
100
AcDbEntity
  8
0
  6
Continuous
 62
     2
100
AcDbLine
 10
-240.7381492929183
 20
-231.3594143820778
 30
0.0
 11
-242.0740771193459
 21
-231.3594143820778
 31
0.0
  0
LINE
  5
186
102
{ACAD_REACTORS
330
248
330
249
102
}
330
82
100
AcDbEntity
  8
0
  6
Continuous
 62
     2
100
AcDbLine
 10
-240.7381492929183
 20
-232.0574279875201
 30
0.0
 11
-240.7381492929183
 21
-231.3594143820778
 31
0.0
  0
LINE
  5
187
102
{ACAD_REACTORS
330
248
330
249
102
}
330
82
100
AcDbEntity
  8
0
  6
Continuous
 62
     2
100
AcDbLine
 10
-242.0740771193459
 20
-232.0574279875201
 30
0.0
 11
-240.7381492929183
 21
-232.0574279875201
 31
0.0
  0
LINE
  5
188
102
{ACAD_REACTORS
330
236
330
237
102
}
330
82
100
AcDbEntity
  8
0
  6
Continuous
 62
     2
100
AcDbLine
 10
-245.5570318096729
 20
-230.1815164228931
 30
0.0
 11
-245.5570318096729
 21
-233.2353259467043
 31
0.0
  0
LINE
  5
189
102
{ACAD_REACTORS
330
236
330
237
102
}
330
82
100
AcDbEntity
  8
0
  6
Continuous
 62
     2
100
AcDbLine
 10
-245.5570318096729
 20
-233.2353259467043
 30
0.0
 11
-246.7498245118393
 21
-233.2353259467043
 31
0.0
  0
LINE
  5
18A
102
{ACAD_REACTORS
330
236
330
237
102
}
330
82
100
AcDbEntity
  8
0
  6
Continuous
 62
     2
100
AcDbLine
 10
-246.7498245118393
 20
-233.2353259467043
 30
0.0
 11
-246.7498245118393
 21
-232.1010538378605
 31
0.0
  0
LINE
  5
18B
102
{ACAD_REACTORS
330
236
330
237
102
}
330
82
100
AcDbEntity
  8
0
  6
Continuous
 62
     2
100
AcDbLine
 10
-247.7994820897467
 20
-233.2353259467043
 30
0.0
 11
-248.9922747919133
 21
-233.2353259467043
 31
0.0
  0
LINE
  5
18C
102
{ACAD_REACTORS
330
236
330
237
102
}
330
82
100
AcDbEntity
  8
0
  6
Continuous
 62
     2
100
AcDbLine
 10
-248.9922747919133
 20
-230.1815164228931
 30
0.0
 11
-247.7994820897467
 21
-230.1815164228931
 31
0.0
  0
LINE
  5
18D
102
{ACAD_REACTORS
330
236
330
237
102
}
330
82
100
AcDbEntity
  8
0
  6
Continuous
 62
     2
100
AcDbLine
 10
-247.7994820897467
 20
-230.1815164228931
 30
0.0
 11
-247.7994820897467
 21
-231.2503497562277
 31
0.0
  0
LINE
  5
18E
102
{ACAD_REACTORS
330
236
330
237
102
}
330
82
100
AcDbEntity
  8
0
  6
Continuous
 62
     2
100
AcDbLine
 10
-247.7994820897467
 20
-231.2503497562277
 30
0.0
 11
-246.7498245118393
 21
-231.2503497562277
 31
0.0
  0
LINE
  5
18F
102
{ACAD_REACTORS
330
244
330
245
102
}
330
82
100
AcDbEntity
  8
0
  6
Continuous
 62
     2
100
AcDbLine
 10
-250.9484548234669
 20
-230.8446222683332
 30
0.0
 11
-250.631159761925
 21
-230.8446222683332
 31
0.0
  0
LINE
  5
190
102
{ACAD_REACTORS
330
244
330
245
102
}
330
82
100
AcDbEntity
  8
0
  6
Continuous
 62
     2
100
AcDbLine
 10
-250.9484548234669
 20
-231.5503499176755
 30
0.0
 11
-250.631159761925
 21
-231.5503499176755
 31
0.0
  0
LINE
  5
191
102
{ACAD_REACTORS
330
244
330
245
102
}
330
82
100
AcDbEntity
  8
0
  6
Continuous
 62
     2
100
AcDbLine
 10
-252.1889592337211
 20
-230.1815164228931
 30
0.0
 11
-252.1889592337211
 21
-233.2353259467043
 31
0.0
  0
LINE
  5
192
102
{ACAD_REACTORS
330
244
330
245
102
}
330
82
100
AcDbEntity
  8
0
  6
Continuous
 62
     2
100
AcDbLine
 10
-252.1889592337211
 20
-230.1815164228931
 30
0.0
 11
-250.1896872356867
 21
-230.1815164228931
 31
0.0
  0
LINE
  5
193
102
{ACAD_REACTORS
330
244
330
245
102
}
330
82
100
AcDbEntity
  8
0
  6
Continuous
 62
     2
100
AcDbLine
 10
-250.9484548234669
 20
-232.2922477055605
 30
0.0
 11
-250.1896872356867
 21
-232.2922477055605
 31
0.0
  0
LINE
  5
194
102
{ACAD_REACTORS
330
24A
330
24B
102
}
330
82
100
AcDbEntity
  8
0
  6
Continuous
 62
     2
100
AcDbLine
 10
-258.2854552670177
 20
-231.2097889015279
 30
0.0
 11
-258.2854552670177
 21
-235.566243944245
 31
0.0
  0
LINE
  5
195
102
{ACAD_REACTORS
330
24A
330
24B
102
}
330
82
100
AcDbEntity
  8
0
  6
Continuous
 62
     2
100
AcDbLine
 10
-257.969738343942
 20
-230.8940719784517
 30
0.0
 11
-256.4939050829324
 21
-230.8940719784517
 31
0.0
  0
LINE
  5
196
102
{ACAD_REACTORS
330
24A
330
24B
102
}
330
82
100
AcDbEntity
  8
0
  6
Continuous
 62
     2
100
AcDbLine
 10
-256.1781881598558
 20
-231.8138135205884
 30
0.0
 11
-256.1781881598558
 21
-231.2097889015279
 31
0.0
  0
LINE
  5
197
102
{ACAD_REACTORS
330
24A
330
24B
102
}
330
82
100
AcDbEntity
  8
0
  6
Continuous
 62
     2
100
AcDbLine
 10
-256.1781881598558
 20
-235.566243944245
 30
0.0
 11
-256.1781881598558
 21
-234.0354730127134
 31
0.0
  0
LINE
  5
198
102
{ACAD_REACTORS
330
24A
330
24B
102
}
330
82
100
AcDbEntity
  8
0
  6
Continuous
 62
     2
100
AcDbLine
 10
-253.0903209299717
 20
-236.5945164228786
 30
0.0
 11
-258.5636330206885
 21
-236.5945164228786
 31
0.0
  0
LINE
  5
199
102
{ACAD_REACTORS
330
24A
330
24B
102
}
330
82
100
AcDbEntity
  8
0
  6
Continuous
 62
     2
100
AcDbLine
 10
-252.6660763145879
 20
-230.6057610382951
 30
0.0
 11
-252.6660763145879
 21
-236.1702718074953
 31
0.0
  0
LINE
  5
19A
102
{ACAD_REACTORS
330
24A
330
24B
102
}
330
82
100
AcDbEntity
  8
0
  6
Continuous
 62
     2
100
AcDbLine
 10
-258.5636330206885
 20
-230.1815164229113
 30
0.0
 11
-253.0903209299717
 21
-230.1815164229113
 31
0.0
  0
LINE
  5
19B
102
{ACAD_REACTORS
330
24A
330
24B
102
}
330
82
100
AcDbEntity
  8
0
  6
Continuous
 62
     2
100
AcDbLine
 10
-258.9878776360714
 20
-230.6057610382951
 30
0.0
 11
-258.9878776360714
 21
-236.1702718074953
 31
0.0
  0
LINE
  5
19C
102
{ACAD_REACTORS
330
24A
330
24B
102
}
330
82
100
AcDbEntity
  8
0
  6
Continuous
 62
     2
100
AcDbLine
 10
-256.4939050829324
 20
-235.8819608673217
 30
0.0
 11
-257.969738343942
 21
-235.8819608673217
 31
0.0
  0
LINE
  5
19D
102
{ACAD_REACTORS
330
244
330
245
102
}
330
82
100
AcDbEntity
  8
0
  6
Continuous
 62
     2
100
AcDbLine
 10
-250.9484548234669
 20
-233.2353259467043
 30
0.0
 11
-250.9484548234669
 21
-232.2922477055605
 31
0.0
  0
LINE
  5
19E
102
{ACAD_REACTORS
330
244
330
245
102
}
330
82
100
AcDbEntity
  8
0
  6
Continuous
 62
     2
100
AcDbLine
 10
-252.1889592337211
 20
-233.2353259467043
 30
0.0
 11
-250.9484548234669
 21
-233.2353259467043
 31
0.0
  0
LINE
  5
19F
102
{ACAD_REACTORS
330
244
330
245
102
}
330
82
100
AcDbEntity
  8
0
  6
Continuous
 62
     2
100
AcDbLine
 10
-250.9484548234669
 20
-231.5503499176755
 30
0.0
 11
-250.9484548234669
 21
-230.8446222683332
 31
0.0
  0
LINE
  5
1A0
102
{ACAD_REACTORS
330
236
330
237
102
}
330
82
100
AcDbEntity
  8
0
  6
Continuous
 62
     2
100
AcDbLine
 10
-248.9922747919133
 20
-230.1815164228931
 30
0.0
 11
-248.9922747919133
 21
-233.2353259467043
 31
0.0
  0
LINE
  5
1A1
102
{ACAD_REACTORS
330
236
330
237
102
}
330
82
100
AcDbEntity
  8
0
  6
Continuous
 62
     2
100
AcDbLine
 10
-247.7994820897467
 20
-232.1010538378605
 30
0.0
 11
-247.7994820897467
 21
-233.2353259467043
 31
0.0
  0
LINE
  5
1A2
102
{ACAD_REACTORS
330
236
330
237
102
}
330
82
100
AcDbEntity
  8
0
  6
Continuous
 62
     2
100
AcDbLine
 10
-246.7498245118393
 20
-232.1010538378605
 30
0.0
 11
-247.7994820897467
 21
-232.1010538378605
 31
0.0
  0
LINE
  5
1A3
102
{ACAD_REACTORS
330
236
330
237
102
}
330
82
100
AcDbEntity
  8
0
  6
Continuous
 62
     2
100
AcDbLine
 10
-246.7498245118393
 20
-230.1815164228931
 30
0.0
 11
-245.5570318096729
 21
-230.1815164228931
 31
0.0
  0
LINE
  5
1A4
102
{ACAD_REACTORS
330
236
330
237
102
}
330
82
100
AcDbEntity
  8
0
  6
Continuous
 62
     2
100
AcDbLine
 10
-246.7498245118393
 20
-231.2503497562277
 30
0.0
 11
-246.7498245118393
 21
-230.1815164228931
 31
0.0
  0
LINE
  5
1A5
102
{ACAD_REACTORS
330
248
330
249
102
}
330
82
100
AcDbEntity
  8
0
  6
Continuous
 62
     2
100
AcDbLine
 10
-240.7381492929183
 20
-230.8795300283361
 30
0.0
 11
-240.7381492929183
 21
-230.1815164228931
 31
0.0
  0
LINE
  5
1A6
102
{ACAD_REACTORS
330
248
330
249
102
}
330
82
100
AcDbEntity
  8
0
  6
Continuous
 62
     2
100
AcDbLine
 10
-243.8884690166993
 20
-230.1815164228931
 30
0.0
 11
-240.7381492929183
 21
-230.1815164228931
 31
0.0
  0
LINE
  5
1A7
102
{ACAD_REACTORS
330
248
330
249
102
}
330
82
100
AcDbEntity
  8
0
  6
Continuous
 62
     2
100
AcDbLine
 10
-243.8884690166993
 20
-233.2353259467043
 30
0.0
 11
-240.7381492929183
 21
-233.2353259467043
 31
0.0
  0
LINE
  5
1A8
102
{ACAD_REACTORS
330
248
330
249
102
}
330
82
100
AcDbEntity
  8
0
  6
Continuous
 62
     2
100
AcDbLine
 10
-240.7381492929183
 20
-233.2353259467043
 30
0.0
 11
-240.7381492929183
 21
-232.5373123412618
 31
0.0
  0
LINE
  5
1A9
102
{ACAD_REACTORS
330
248
330
249
102
}
330
82
100
AcDbEntity
  8
0
  6
Continuous
 62
     2
100
AcDbLine
 10
-240.7381492929183
 20
-232.5373123412618
 30
0.0
 11
-242.0740771193459
 21
-232.5373123412618
 31
0.0
  0
LINE
  5
1AA
102
{ACAD_REACTORS
330
248
330
249
102
}
330
82
100
AcDbEntity
  8
0
  6
Continuous
 62
     2
100
AcDbLine
 10
-242.0740771193459
 20
-232.5373123412618
 30
0.0
 11
-242.0740771193459
 21
-232.0574279875201
 31
0.0
  0
LINE
  5
1AB
102
{ACAD_REACTORS
330
248
330
249
102
}
330
82
100
AcDbEntity
  8
0
  6
Continuous
 62
     2
100
AcDbLine
 10
-242.0740771193459
 20
-230.8795300283361
 30
0.0
 11
-240.7381492929183
 21
-230.8795300283361
 31
0.0
  0
LINE
  5
1AC
102
{ACAD_REACTORS
330
238
330
239
102
}
330
82
100
AcDbEntity
  8
0
  6
Continuous
 62
     2
100
AcDbLine
 10
-244.5552368707375
 20
-236.5945164228786
 30
0.0
 11
-244.5552368707375
 21
-235.285740912674
 31
0.0
  0
LINE
  5
1AD
102
{ACAD_REACTORS
330
238
330
239
102
}
330
82
100
AcDbEntity
  8
0
  6
Continuous
 62
     2
100
AcDbLine
 10
-244.5552368707375
 20
-235.285740912674
 30
0.0
 11
-243.3147324604846
 21
-236.5945164228786
 31
0.0
  0
LINE
  5
1AE
102
{ACAD_REACTORS
330
238
330
239
102
}
330
82
100
AcDbEntity
  8
0
  6
Continuous
 62
     2
100
AcDbLine
 10
-242.1219397583182
 20
-236.5945164228786
 30
0.0
 11
-242.1219397583182
 21
-233.5407068990675
 31
0.0
  0
LINE
  5
1AF
102
{ACAD_REACTORS
330
238
330
239
102
}
330
82
100
AcDbEntity
  8
0
  6
Continuous
 62
     2
100
AcDbLine
 10
-242.1219397583182
 20
-233.5407068990675
 30
0.0
 11
-243.3147324604846
 21
-233.5407068990675
 31
0.0
  0
LINE
  5
1B0
102
{ACAD_REACTORS
330
238
330
239
102
}
330
82
100
AcDbEntity
  8
0
  6
Continuous
 62
     2
100
AcDbLine
 10
-243.3147324604846
 20
-233.5407068990675
 30
0.0
 11
-243.3147324604846
 21
-234.8494824092726
 31
0.0
  0
LINE
  5
1B1
102
{ACAD_REACTORS
330
238
330
239
102
}
330
82
100
AcDbEntity
  8
0
  6
Continuous
 62
     2
100
AcDbLine
 10
-243.3147324604846
 20
-234.8494824092726
 30
0.0
 11
-244.5552368707375
 21
-233.5407068990675
 31
0.0
  0
LINE
  5
1B2
102
{ACAD_REACTORS
330
23A
330
23B
102
}
330
82
100
AcDbEntity
  8
0
  6
Continuous
 62
     2
100
AcDbLine
 10
-239.3067980503188
 20
-231.9265504364996
 30
0.0
 11
-238.0662936400648
 21
-233.2353259467043
 31
0.0
  0
LINE
  5
1B3
102
{ACAD_REACTORS
330
23A
330
23B
102
}
330
82
100
AcDbEntity
  8
0
  6
Continuous
 62
     2
100
AcDbLine
 10
-238.0662936400648
 20
-233.2353259467043
 30
0.0
 11
-236.8735009378982
 21
-233.2353259467043
 31
0.0
  0
LINE
  5
1B4
102
{ACAD_REACTORS
330
23A
330
23B
102
}
330
82
100
AcDbEntity
  8
0
  6
Continuous
 62
     2
100
AcDbLine
 10
-236.8735009378982
 20
-233.2353259467043
 30
0.0
 11
-236.8735009378982
 21
-230.1815164228931
 31
0.0
  0
LINE
  5
1B5
102
{ACAD_REACTORS
330
23A
330
23B
102
}
330
82
100
AcDbEntity
  8
0
  6
Continuous
 62
     2
100
AcDbLine
 10
-236.8735009378982
 20
-230.1815164228931
 30
0.0
 11
-238.0662936400648
 21
-230.1815164228931
 31
0.0
  0
LINE
  5
1B6
102
{ACAD_REACTORS
330
23A
330
23B
102
}
330
82
100
AcDbEntity
  8
0
  6
Continuous
 62
     2
100
AcDbLine
 10
-238.0662936400648
 20
-231.4902919330983
 30
0.0
 11
-239.3067980503188
 21
-230.1815164228931
 31
0.0
  0
LINE
  5
1B7
102
{ACAD_REACTORS
330
23A
330
23B
102
}
330
82
100
AcDbEntity
  8
0
  6
Continuous
 62
     2
100
AcDbLine
 10
-240.4995907524854
 20
-233.2353259467043
 30
0.0
 11
-239.3067980503188
 21
-233.2353259467043
 31
0.0
  0
LINE
  5
1B8
102
{ACAD_REACTORS
330
23C
330
23D
102
}
330
82
100
AcDbEntity
  8
0
  6
Continuous
 62
     2
100
AcDbLine
 10
-241.978804634058
 20
-233.5407068990675
 30
0.0
 11
-241.978804634058
 21
-234.3259722051911
 31
0.0
  0
LINE
  5
1B9
102
{ACAD_REACTORS
330
23C
330
23D
102
}
330
82
100
AcDbEntity
  8
0
  6
Continuous
 62
     2
100
AcDbLine
 10
-241.1677055965834
 20
-234.3259722051911
 30
0.0
 11
-241.1677055965834
 21
-236.5945164228786
 31
0.0
  0
LINE
  5
1BA
102
{ACAD_REACTORS
330
23C
330
23D
102
}
330
82
100
AcDbEntity
  8
0
  6
Continuous
 62
     2
100
AcDbLine
 10
-241.1677055965834
 20
-236.5945164228786
 30
0.0
 11
-239.9749128944168
 21
-236.5945164228786
 31
0.0
  0
LINE
  5
1BB
102
{ACAD_REACTORS
330
23E
330
23F
102
}
330
82
100
AcDbEntity
  8
0
  6
Continuous
 62
     2
100
AcDbLine
 10
-237.0253864009974
 20
-236.5945164228786
 30
0.0
 11
-237.2368664544731
 21
-236.0535558786608
 31
0.0
  0
LINE
  5
1BC
102
{ACAD_REACTORS
330
23E
330
23F
102
}
330
82
100
AcDbEntity
  8
0
  6
Continuous
 62
     2
100
AcDbLine
 10
-237.1828350376837
 20
-233.5407068990675
 30
0.0
 11
-235.7848819907434
 21
-236.5945164228786
 31
0.0
  0
LINE
  5
1BD
102
{ACAD_REACTORS
330
23E
330
23F
102
}
330
82
100
AcDbEntity
  8
0
  6
Continuous
 62
     2
100
AcDbLine
 10
-238.4233394479364
 20
-233.5407068990675
 30
0.0
 11
-237.1828350376837
 21
-233.5407068990675
 31
0.0
  0
LINE
  5
1BE
102
{ACAD_REACTORS
330
23E
330
23F
102
}
330
82
100
AcDbEntity
  8
0
  6
Continuous
 62
     2
100
AcDbLine
 10
-239.8212924948757
 20
-236.5945164228786
 30
0.0
 11
-238.5807880846228
 21
-236.5945164228786
 31
0.0
  0
LINE
  5
1BF
102
{ACAD_REACTORS
330
23E
330
23F
102
}
330
82
100
AcDbEntity
  8
0
  6
Continuous
 62
     2
100
AcDbLine
 10
-238.1032524800019
 20
-235.3729926133541
 30
0.0
 11
-237.5029220056194
 21
-235.3729926133541
 31
0.0
  0
LINE
  5
1C0
102
{ACAD_REACTORS
330
23E
330
23F
102
}
330
82
100
AcDbEntity
  8
0
  6
Continuous
 62
     2
100
AcDbLine
 10
-237.5029220056194
 20
-235.3729926133541
 30
0.0
 11
-237.8030872428095
 21
-234.6051776473674
 31
0.0
  0
LINE
  5
1C1
102
{ACAD_REACTORS
330
240
330
241
102
}
330
82
100
AcDbEntity
  8
0
  6
Continuous
 62
     2
100
AcDbLine
 10
-235.3944379872114
 20
-233.2353259467043
 30
0.0
 11
-236.6349423974643
 21
-233.2353259467043
 31
0.0
  0
LINE
  5
1C2
102
{ACAD_REACTORS
330
242
330
243
102
}
330
82
100
AcDbEntity
  8
0
  6
Continuous
 62
     2
100
AcDbLine
 10
-233.8724344992463
 20
-233.2353259467043
 30
0.0
 11
-235.2751587169946
 21
-233.2353259467043
 31
0.0
  0
LINE
  5
1C3
102
{ACAD_REACTORS
330
242
330
243
102
}
330
82
100
AcDbEntity
  8
0
  6
Continuous
 62
     2
100
AcDbLine
 10
-233.8724344992463
 20
-233.2353259467043
 30
0.0
 11
-233.1758435611806
 21
-232.4475941614106
 31
0.0
  0
LINE
  5
1C4
102
{ACAD_REACTORS
330
242
330
243
102
}
330
82
100
AcDbEntity
  8
0
  6
Continuous
 62
     2
100
AcDbLine
 10
-232.5746760392879
 20
-230.1815164228931
 30
0.0
 11
-231.1719518215406
 21
-230.1815164228931
 31
0.0
  0
LINE
  5
1C5
102
{ACAD_REACTORS
330
242
330
243
102
}
330
82
100
AcDbEntity
  8
0
  6
Continuous
 62
     2
100
AcDbLine
 10
-235.1797353008217
 20
-230.1815164228931
 30
0.0
 11
-233.8772056700543
 21
-231.6544669529293
 31
0.0
  0
LINE
  5
1C6
102
{ACAD_REACTORS
330
242
330
243
102
}
330
82
100
AcDbEntity
  8
0
  6
Continuous
 62
     2
100
AcDbLine
 10
-235.2751587169946
 20
-233.2353259467043
 30
0.0
 11
-233.8772056700543
 21
-231.6544669529293
 31
0.0
  0
LINE
  5
1C7
102
{ACAD_REACTORS
330
24C
330
24D
102
}
330
82
100
AcDbEntity
  8
0
  6
Continuous
 62
     2
100
AcDbLine
 10
-233.4144021016146
 20
-235.547496014715
 30
0.0
 11
-233.4144021016146
 21
-236.4200130215183
 31
0.0
  0
LINE
  5
1C8
102
{ACAD_REACTORS
330
24C
330
24D
102
}
330
82
100
AcDbEntity
  8
0
  6
Continuous
 62
     2
100
AcDbLine
 10
-234.184059444576
 20
-234.3259722051911
 30
0.0
 11
-233.0804201450079
 21
-234.3259722051911
 31
0.0
  0
LINE
  5
1C9
102
{ACAD_REACTORS
330
24E
330
24F
102
}
330
82
100
AcDbEntity
  8
0
  6
Continuous
 62
     2
100
AcDbLine
 10
-249.5171035808666
 20
-235.5474960147145
 30
0.0
 11
-249.5171035808666
 21
-236.4200130215178
 31
0.0
  0
LINE
  5
1CA
102
{ACAD_REACTORS
330
24E
330
24F
102
}
330
82
100
AcDbEntity
  8
0
  6
Continuous
 62
     2
100
AcDbLine
 10
-249.5171035808666
 20
-234.5877273072316
 30
0.0
 11
-249.5171035808666
 21
-233.7152103004283
 31
0.0
  0
LINE
  5
1CB
330
82
100
AcDbEntity
  8
1
  6
Continuous
 62
     7
100
AcDbLine
 10
-133.6797279958826
 20
-235.3880164228949
 30
0.0
 11
-226.824532522634
 21
-235.3880164228949
 31
0.0
  0
LINE
  5
1CC
330
82
100
AcDbEntity
  8
1
  6
Continuous
 62
     6
100
AcDbLine
 10
-332.2245325226339
 20
-243.8880164228949
 30
0.0
 11
-377.1797279958839
 21
-243.8880164228949
 31
0.0
  0
LINE
  5
1CD
330
82
100
AcDbEntity
  8
1
  6
Continuous
 62
     7
100
AcDbLine
 10
-142.5981362775615
 20
-218.3880164228949
 30
0.0
 11
-142.5981362775615
 21
-226.8880164228949
 31
0.0
  0
LINE
  5
1CE
330
82
100
AcDbEntity
  8
1
  6
Continuous
 62
     7
100
AcDbLine
 10
-169.0981362775611
 20
-218.3880164228949
 30
0.0
 11
-169.0981362775611
 21
-226.8880164228949
 31
0.0
  0
LINE
  5
1CF
330
82
100
AcDbEntity
  8
1
  6
Continuous
 62
     7
100
AcDbLine
 10
-226.824532522634
 20
-226.8880164228949
 30
0.0
 11
-226.824532522634
 21
-218.3880164228949
 31
0.0
  0
LINE
  5
1D0
330
82
100
AcDbEntity
  8
1
  6
Continuous
 62
     7
100
AcDbLine
 10
-263.2245325226339
 20
-226.8880164228949
 30
0.0
 11
-263.2245325226339
 21
-218.3880164228949
 31
0.0
  0
LINE
  5
1D1
330
82
100
AcDbEntity
  8
1
  6
Continuous
 62
     6
100
AcDbLine
 10
-226.824532522634
 20
-226.8880164228949
 30
0.0
 11
-133.6797279958823
 21
-226.8880164228949
 31
0.0
  0
LINE
  5
1D2
330
82
100
AcDbEntity
  8
1
  6
Continuous
 62
     7
100
AcDbLine
 10
-198.9245325226339
 20
-235.388016422895
 30
0.0
 11
-198.9245325226339
 21
-226.8880164228949
 31
0.0
  0
LINE
  5
1D3
330
82
100
AcDbEntity
  8
1
  6
PHANTOM
 62
     2
100
AcDbLine
 10
-247.7378776360714
 20
-222.763016422895
 30
0.0
 11
-253.2378776360714
 21
-222.763016422895
 31
0.0
  0
LINE
  5
1D4
330
82
100
AcDbEntity
  8
1
  6
PHANTOM
 62
     2
100
AcDbLine
 10
-250.4878776360714
 20
-220.013016422895
 30
0.0
 11
-250.4878776360714
 21
-225.513016422895
 31
0.0
  0
LINE
  5
1D5
330
82
100
AcDbEntity
  8
1
  6
DOT_CENTER
 62
     2
100
AcDbLine
 10
-259.2378776360714
 20
-222.763016422895
 30
0.0
 11
-253.7378776360714
 21
-222.763016422895
 31
0.0
  0
ARC
  5
1D6
102
{ACAD_REACTORS
330
24E
330
24F
102
}
330
82
100
AcDbEntity
  8
0
  6
Continuous
 62
     2
100
AcDbCircle
 10
-250.8530314979844
 20
-238.3802926062292
 30
0.0
 40
4.852596863498068
100
AcDbArc
 50
74.02000874164739
 51
84.84185523037506
  0
ARC
  5
1D7
102
{ACAD_REACTORS
330
24E
330
24F
102
}
330
82
100
AcDbEntity
  8
0
  6
Continuous
 62
     2
100
AcDbCircle
 10
-250.2769908892306
 20
-235.2245322503449
 30
0.0
 40
0.9059297849852149
100
AcDbArc
 50
71.5519238818569
 51
113.372277888129
  0
ARC
  5
1D8
102
{ACAD_REACTORS
330
24E
330
24F
102
}
330
82
100
AcDbEntity
  8
0
  6
Continuous
 62
     2
100
AcDbCircle
 10
-250.4334309219327
 20
-235.2726830903118
 30
0.0
 40
0.5115800601948034
100
AcDbArc
 50
208.5214732576956
 51
246.6277221118361
  0
ARC
  5
1D9
102
{ACAD_REACTORS
330
24E
330
24F
102
}
330
82
100
AcDbEntity
  8
0
  6
Continuous
 62
     2
100
AcDbCircle
 10
-250.2769908892306
 20
-234.9106910716018
 30
0.0
 40
0.9059297849849192
100
AcDbArc
 50
246.627722111871
 51
288.4480761181533
  0
ARC
  5
1DA
102
{ACAD_REACTORS
330
24E
330
24F
102
}
330
82
100
AcDbEntity
  8
0
  6
Continuous
 62
     2
100
AcDbCircle
 10
-250.6951586228914
 20
-233.6571452955647
 30
0.0
 40
2.227384008972629
100
AcDbArc
 50
288.4480761181314
 51
301.9309089499586
  0
ARC
  5
1DB
102
{ACAD_REACTORS
330
24A
330
24B
102
}
330
82
100
AcDbEntity
  8
0
  6
Continuous
 62
     2
100
AcDbCircle
 10
-255.9202323554982
 20
-232.9246432666506
 30
0.0
 40
0.911848150144459
100
AcDbArc
 50
295.3740086781764
 51
64.62599132180748
  0
ARC
  5
1DC
102
{ACAD_REACTORS
330
24A
330
24B
102
}
330
82
100
AcDbEntity
  8
0
  6
Continuous
 62
     2
100
AcDbCircle
 10
-255.3941896574104
 20
-231.209966378176
 30
0.0
 40
0.3157169230760707
100
AcDbArc
 50
90.18896704253045
 51
180.0
  0
ARC
  5
1DD
102
{ACAD_REACTORS
330
24C
330
24D
102
}
330
82
100
AcDbEntity
  8
0
  6
Continuous
 62
     2
100
AcDbCircle
 10
-234.184059444576
 20
-235.2804952120172
 30
0.0
 40
0.9545230068260935
100
AcDbArc
 50
90.0
 51
109.3371432194385
  0
ARC
  5
1DE
102
{ACAD_REACTORS
330
24C
330
24D
102
}
330
82
100
AcDbEntity
  8
0
  6
Continuous
 62
     2
100
AcDbCircle
 10
-233.9533721845984
 20
-235.0676116609733
 30
0.0
 40
0.9410597353348924
100
AcDbArc
 50
151.4785267423624
 51
208.5214732576695
  0
ARC
  5
1DF
102
{ACAD_REACTORS
330
24C
330
24D
102
}
330
82
100
AcDbEntity
  8
0
  6
Continuous
 62
     2
100
AcDbCircle
 10
-234.1742894099766
 20
-234.9106910716018
 30
0.0
 40
0.9059297849852688
100
AcDbArc
 50
246.6277221118199
 51
288.4480761180817
  0
ARC
  5
1E0
102
{ACAD_REACTORS
330
24C
330
24D
102
}
330
82
100
AcDbEntity
  8
0
  6
Continuous
 62
     2
100
AcDbCircle
 10
-234.5924571436385
 20
-233.6571452955652
 30
0.0
 40
2.227384008972773
100
AcDbArc
 50
288.4480761181333
 51
301.9309089499394
  0
ARC
  5
1E1
102
{ACAD_REACTORS
330
24C
330
24D
102
}
330
82
100
AcDbEntity
  8
0
  6
Continuous
 62
     2
100
AcDbCircle
 10
-234.7503300187314
 20
-231.7549307157169
 30
0.0
 40
4.852596863498833
100
AcDbArc
 50
275.1581447696374
 51
285.9799912583397
  0
ARC
  5
1E2
102
{ACAD_REACTORS
330
24C
330
24D
102
}
330
82
100
AcDbEntity
  8
0
  6
Continuous
 62
     2
100
AcDbCircle
 10
-234.4614739239955
 20
-234.9548212989385
 30
0.0
 40
1.639695123940531
100
AcDbArc
 50
195.0618917771004
 51
275.1581447696762
  0
ARC
  5
1E3
102
{ACAD_REACTORS
330
244
330
245
102
}
330
82
100
AcDbEntity
  8
0
  6
Continuous
 62
     2
100
AcDbCircle
 10
-250.1896872356867
 20
-231.2368820642268
 30
0.0
 40
1.055365641333708
100
AcDbArc
 50
270.0
 51
90.0
  0
ARC
  5
1E4
102
{ACAD_REACTORS
330
24A
330
24B
102
}
330
82
100
AcDbEntity
  8
0
  6
Continuous
 62
     2
100
AcDbCircle
 10
-257.969738343942
 20
-235.566243944245
 30
0.0
 40
0.3157169230756836
100
AcDbArc
 50
180.0
 51
270.0
  0
ARC
  5
1E5
102
{ACAD_REACTORS
330
24A
330
24B
102
}
330
82
100
AcDbEntity
  8
0
  6
Continuous
 62
     2
100
AcDbCircle
 10
-256.4939050829324
 20
-231.2097889015279
 30
0.0
 40
0.315716923076593
100
AcDbArc
 50
0.0
 51
90.0
  0
ARC
  5
1E6
102
{ACAD_REACTORS
330
24A
330
24B
102
}
330
82
100
AcDbEntity
  8
0
  6
Continuous
 62
     2
100
AcDbCircle
 10
-256.4939050829324
 20
-231.8138135205884
 30
0.0
 40
0.3157169230761203
100
AcDbArc
 50
295.1944106485397
 51
0.0
  0
ARC
  5
1E7
102
{ACAD_REACTORS
330
24A
330
24B
102
}
330
82
100
AcDbEntity
  8
0
  6
Continuous
 62
     2
100
AcDbCircle
 10
-256.4939050829324
 20
-235.566243944245
 30
0.0
 40
0.3157169230767067
100
AcDbArc
 50
270.0
 51
0.0
  0
ARC
  5
1E8
102
{ACAD_REACTORS
330
24A
330
24B
102
}
330
82
100
AcDbEntity
  8
0
  6
Continuous
 62
     2
100
AcDbCircle
 10
-258.5636330206885
 20
-230.6057610382951
 30
0.0
 40
0.4242446153837989
100
AcDbArc
 50
90.0
 51
180.0
  0
ARC
  5
1E9
102
{ACAD_REACTORS
330
24A
330
24B
102
}
330
82
100
AcDbEntity
  8
0
  6
Continuous
 62
     2
100
AcDbCircle
 10
-253.0903209299717
 20
-230.6057610382951
 30
0.0
 40
0.4242446153837989
100
AcDbArc
 50
0.0
 51
90.0
  0
ARC
  5
1EA
102
{ACAD_REACTORS
330
24A
330
24B
102
}
330
82
100
AcDbEntity
  8
0
  6
Continuous
 62
     2
100
AcDbCircle
 10
-253.0903209299717
 20
-236.1702718074953
 30
0.0
 40
0.4242446153832873
100
AcDbArc
 50
270.0
 51
0.0
  0
ARC
  5
1EB
102
{ACAD_REACTORS
330
248
330
249
102
}
330
82
100
AcDbEntity
  8
0
  6
Continuous
 62
     2
100
AcDbCircle
 10
-243.8719370428802
 20
-231.708421184799
 30
0.0
 40
0.7717997786796421
100
AcDbArc
 50
321.8795802028467
 51
38.12041979715826
  0
ARC
  5
1EC
102
{ACAD_REACTORS
330
248
330
249
102
}
330
82
100
AcDbEntity
  8
0
  6
Continuous
 62
     2
100
AcDbCircle
 10
-243.6721970065341
 20
-231.8651523629195
 30
0.0
 40
0.5179085730132998
100
AcDbArc
 50
218.120419797147
 51
321.8795802028743
  0
ARC
  5
1ED
102
{ACAD_REACTORS
330
246
330
247
102
}
330
82
100
AcDbEntity
  8
0
  6
Continuous
 62
     2
100
AcDbCircle
 10
-247.3522045954942
 20
-235.0676116609733
 30
0.0
 40
1.45803408365195
100
AcDbArc
 50
297.5481481756971
 51
62.45185182430291
  0
ARC
  5
1EE
102
{ACAD_REACTORS
330
246
330
247
102
}
330
82
100
AcDbEntity
  8
0
  6
Continuous
 62
     2
100
AcDbCircle
 10
-247.9140843791608
 20
-235.0676116609733
 30
0.0
 40
1.45803408365149
100
AcDbArc
 50
117.5481481756624
 51
242.4518518243375
  0
ARC
  5
1EF
102
{ACAD_REACTORS
330
246
330
247
102
}
330
82
100
AcDbEntity
  8
0
  6
Continuous
 62
     2
100
AcDbCircle
 10
-247.6331444873275
 20
-235.6061866712761
 30
0.0
 40
2.065479772208529
100
AcDbArc
 50
62.45185182430846
 51
117.5481481756664
  0
ARC
  5
1F0
102
{ACAD_REACTORS
330
246
330
247
102
}
330
82
100
AcDbEntity
  8
0
  6
Continuous
 62
     2
100
AcDbCircle
 10
-247.6331444873275
 20
-234.52903665067
 30
0.0
 40
2.065479772208509
100
AcDbArc
 50
242.4518518243402
 51
297.548148175685
  0
ARC
  5
1F1
102
{ACAD_REACTORS
330
248
330
249
102
}
330
82
100
AcDbEntity
  8
0
  6
Continuous
 62
     2
100
AcDbCircle
 10
-243.4724569701878
 20
-231.708421184799
 30
0.0
 40
0.7717997786796054
100
AcDbArc
 50
141.8795802028365
 51
218.1204197971585
  0
ARC
  5
1F2
102
{ACAD_REACTORS
330
248
330
249
102
}
330
82
100
AcDbEntity
  8
0
  6
Continuous
 62
     2
100
AcDbCircle
 10
-243.6721970065341
 20
-231.5516900066785
 30
0.0
 40
0.5179085730136159
100
AcDbArc
 50
38.12041979713558
 51
141.8795802028431
  0
ARC
  5
1F3
102
{ACAD_REACTORS
330
24A
330
24B
102
}
330
82
100
AcDbEntity
  8
0
  6
Continuous
 62
     2
100
AcDbCircle
 10
-258.5636330206885
 20
-236.1702718074953
 30
0.0
 40
0.4242446153829178
100
AcDbArc
 50
180.0
 51
270.0
  0
ARC
  5
1F4
102
{ACAD_REACTORS
330
24A
330
24B
102
}
330
82
100
AcDbEntity
  8
0
  6
Continuous
 62
     2
100
AcDbCircle
 10
-256.4939050829324
 20
-234.0354730127134
 30
0.0
 40
0.315716923076593
100
AcDbArc
 50
0.0
 51
64.80558935146249
  0
ARC
  5
1F5
102
{ACAD_REACTORS
330
24A
330
24B
102
}
330
82
100
AcDbEntity
  8
0
  6
Continuous
 62
     2
100
AcDbCircle
 10
-255.9713206353574
 20
-232.9246432666506
 30
0.0
 40
0.9118975235576147
100
AcDbArc
 50
115.1944106485282
 51
244.8055893514869
  0
ARC
  5
1F6
102
{ACAD_REACTORS
330
24A
330
24B
102
}
330
82
100
AcDbEntity
  8
0
  6
Continuous
 62
     2
100
AcDbCircle
 10
-257.969738343942
 20
-231.2097889015279
 30
0.0
 40
0.3157169230761951
100
AcDbArc
 50
90.0
 51
180.0
  0
ARC
  5
1F7
102
{ACAD_REACTORS
330
244
330
245
102
}
330
82
100
AcDbEntity
  8
0
  6
Continuous
 62
     2
100
AcDbCircle
 10
-250.631159761925
 20
-231.1974860930043
 30
0.0
 40
0.3528638246712035
100
AcDbArc
 50
270.0
 51
90.0
  0
ARC
  5
1F8
102
{ACAD_REACTORS
330
248
330
249
102
}
330
82
100
AcDbEntity
  8
0
  6
Continuous
 62
     2
100
AcDbCircle
 10
-243.8884690166993
 20
-231.708421184799
 30
0.0
 40
1.526904761905882
100
AcDbArc
 50
90.0
 51
270.0
  0
ARC
  5
1F9
102
{ACAD_REACTORS
330
24C
330
24D
102
}
330
82
100
AcDbEntity
  8
0
  6
Continuous
 62
     2
100
AcDbCircle
 10
-234.4614739239955
 20
-235.1804020230082
 30
0.0
 40
1.639695123940214
100
AcDbArc
 50
90.0
 51
164.9381082228957
  0
ARC
  5
1FA
102
{ACAD_REACTORS
330
24C
330
24D
102
}
330
82
100
AcDbEntity
  8
0
  6
Continuous
 62
     2
100
AcDbCircle
 10
-234.8806017674571
 20
-235.0676116609733
 30
0.0
 40
1.205656168393085
100
AcDbArc
 50
164.9381082229038
 51
195.0618917770948
  0
ARC
  5
1FB
102
{ACAD_REACTORS
330
24C
330
24D
102
}
330
82
100
AcDbEntity
  8
0
  6
Continuous
 62
     2
100
AcDbCircle
 10
-234.3307294426797
 20
-235.2726830903118
 30
0.0
 40
0.5115800601960965
100
AcDbArc
 50
208.521473257682
 51
246.6277221118478
  0
ARC
  5
1FC
102
{ACAD_REACTORS
330
24C
330
24D
102
}
330
82
100
AcDbEntity
  8
0
  6
Continuous
 62
     2
100
AcDbCircle
 10
-234.3307294426797
 20
-234.8625402316343
 30
0.0
 40
0.5115800601943621
100
AcDbArc
 50
109.3371432194974
 51
151.478526742427
  0
ARC
  5
1FD
102
{ACAD_REACTORS
330
24A
330
24B
102
}
330
82
100
AcDbEntity
  8
0
  6
Continuous
 62
     2
100
AcDbCircle
 10
-255.3941896574104
 20
-234.6156362733141
 30
0.0
 40
0.3157169230766783
100
AcDbArc
 50
180.0
 51
269.8110329574695
  0
ARC
  5
1FE
102
{ACAD_REACTORS
330
24A
330
24B
102
}
330
82
100
AcDbEntity
  8
0
  6
Continuous
 62
     2
100
AcDbCircle
 10
-255.3885735221003
 20
-232.9128013257451
 30
0.0
 40
2.018561131933237
100
AcDbArc
 50
269.8110329575858
 51
90.18896704241416
  0
ARC
  5
1FF
102
{ACAD_REACTORS
330
24A
330
24B
102
}
330
82
100
AcDbEntity
  8
0
  6
Continuous
 62
     2
100
AcDbCircle
 10
-255.3941896574104
 20
-231.8155016666828
 30
0.0
 40
0.3157169230766783
100
AcDbArc
 50
180.0
 51
244.6259913216621
  0
ARC
  5
200
102
{ACAD_REACTORS
330
24A
330
24B
102
}
330
82
100
AcDbEntity
  8
0
  6
Continuous
 62
     2
100
AcDbCircle
 10
-255.3941896574104
 20
-234.033784866619
 30
0.0
 40
0.3157169230764706
100
AcDbArc
 50
115.3740086783401
 51
180.0
  0
ARC
  5
201
102
{ACAD_REACTORS
330
24E
330
24F
102
}
330
82
100
AcDbEntity
  8
0
  6
Continuous
 62
     2
100
AcDbCircle
 10
-250.5641754032484
 20
-235.1804020230082
 30
0.0
 40
1.639695123940499
100
AcDbArc
 50
84.84185523036533
 51
164.9381082228864
  0
ARC
  5
202
102
{ACAD_REACTORS
330
24E
330
24F
102
}
330
82
100
AcDbEntity
  8
0
  6
Continuous
 62
     2
100
AcDbCircle
 10
-250.9833032467112
 20
-235.0676116609733
 30
0.0
 40
1.205656168390971
100
AcDbArc
 50
164.9381082228768
 51
195.0618917770945
  0
ARC
  5
203
102
{ACAD_REACTORS
330
24E
330
24F
102
}
330
82
100
AcDbEntity
  8
0
  6
Continuous
 62
     2
100
AcDbCircle
 10
-250.5641754032484
 20
-234.9548212989385
 30
0.0
 40
1.639695123939387
100
AcDbArc
 50
195.0618917770896
 51
275.1581447696365
  0
ARC
  5
204
102
{ACAD_REACTORS
330
24E
330
24F
102
}
330
82
100
AcDbEntity
  8
0
  6
Continuous
 62
     2
100
AcDbCircle
 10
-250.8530314979844
 20
-231.7549307157169
 30
0.0
 40
4.852596863498138
100
AcDbArc
 50
275.1581447696249
 51
285.9799912583526
  0
ARC
  5
205
102
{ACAD_REACTORS
330
24E
330
24F
102
}
330
82
100
AcDbEntity
  8
0
  6
Continuous
 62
     2
100
AcDbCircle
 10
-250.0560736638524
 20
-235.0676116609733
 30
0.0
 40
0.9410597353332545
100
AcDbArc
 50
151.4785267422669
 51
208.5214732577057
  0
ARC
  5
206
102
{ACAD_REACTORS
330
24E
330
24F
102
}
330
82
100
AcDbEntity
  8
0
  6
Continuous
 62
     2
100
AcDbCircle
 10
-250.4334309219327
 20
-234.8625402316343
 30
0.0
 40
0.511580060194844
100
AcDbArc
 50
113.3722778881904
 51
151.4785267423044
  0
ARC
  5
207
102
{ACAD_REACTORS
330
24E
330
24F
102
}
330
82
100
AcDbEntity
  8
0
  6
Continuous
 62
     2
100
AcDbCircle
 10
-250.6951586228914
 20
-236.4780780263815
 30
0.0
 40
2.227384008973432
100
AcDbArc
 50
58.06909105004259
 51
71.5519238818686
  0
ARC
  5
208
102
{ACAD_REACTORS
330
246
330
247
102
}
330
82
100
AcDbEntity
  8
0
  6
Continuous
 62
     2
100
AcDbCircle
 10
-247.6331444873275
 20
-234.9108804828528
 30
0.0
 40
0.5179085730132472
100
AcDbArc
 50
38.12041979713961
 51
141.8795802028662
  0
ARC
  5
209
102
{ACAD_REACTORS
330
246
330
247
102
}
330
82
100
AcDbEntity
  8
0
  6
Continuous
 62
     2
100
AcDbCircle
 10
-247.4334044509814
 20
-235.0676116609733
 30
0.0
 40
0.7717997786794106
100
AcDbArc
 50
141.8795802028413
 51
218.1204197971687
  0
ARC
  5
20A
102
{ACAD_REACTORS
330
246
330
247
102
}
330
82
100
AcDbEntity
  8
0
  6
Continuous
 62
     2
100
AcDbCircle
 10
-247.6331444873275
 20
-235.2243428390933
 30
0.0
 40
0.5179085730137354
100
AcDbArc
 50
218.1204197971931
 51
321.879580202801
  0
ARC
  5
20B
102
{ACAD_REACTORS
330
246
330
247
102
}
330
82
100
AcDbEntity
  8
0
  6
Continuous
 62
     2
100
AcDbCircle
 10
-247.832884523674
 20
-235.0676116609733
 30
0.0
 40
0.7717997786797618
100
AcDbArc
 50
321.8795802028456
 51
38.1204197971444
  0
CIRCLE
  5
20C
330
82
100
AcDbEntity
  8
1
  6
Continuous
 62
     2
100
AcDbCircle
 10
-250.4878776360714
 20
-222.763016422895
 30
0.0
 40
2.5
  0
CIRCLE
  5
20D
330
82
100
AcDbEntity
  8
1
  6
Continuous
 62
     2
100
AcDbCircle
 10
-250.4878776360714
 20
-222.763016422895
 30
0.0
 40
1.25
  0
CIRCLE
  5
20E
102
{ACAD_REACTORS
330
24A
330
24B
102
}
330
82
100
AcDbEntity
  8
0
  6
Continuous
 62
     2
100
AcDbCircle
 10
-255.944047370171
 20
-232.9246432666506
 30
0.0
 40
0.4709789327785074
  0
MTEXT
  5
20F
330
82
100
AcDbEntity
  8
1
 62
     3
100
AcDbMText
 10
-420.6746602098122
 20
-57.09670826759614
 30
0.0
 40
1.8
 41
0.0
 71
     7
 72
     1
  3
Weitergabe sowie Vervielf\U+00e4ltigung dieses Dokuments, Verwertung und \PMitteilung seines Inhalts sind verboten, soweit nicht ausdr\U+00fccklich gestattet. \PZuwiderhandlungen verpflichten zu Schadenersatz. Alle Rechte f\U+00fcr den Fall\Pder Pat
  1
ent-, Gebrauchsmuster- oder Designeintragung vorbehalten.
  7
CONVERTER_11
 73
     1
 44
0.99639855942377
  0
MTEXT
  5
210
330
82
100
AcDbEntity
  8
1
 62
     3
100
AcDbMText
 10
-237.8215503710241
 20
-57.09670826759614
 30
0.0
 40
1.8
 41
0.0
 71
     7
 72
     1
  3
Transfer or duplication of this document as well as the utilisation or\Pcommunication of its content are not permitted unless express consent\Pis granted. Violations give rise to claims for damages. All rights reserved\Pin case of patent, utility mo
  1
del or design patent registrations.
  7
CONVERTER_11
 73
     1
 44
0.99639855942377
  0
TEXT
  5
211
330
82
100
AcDbEntity
  8
1
 62
     2
100
AcDbText
 10
-244.0245325226341
 20
-242.6470336378866
 30
0.0
 40
1.8
  1
of
 41
0.9
  7
CONVERTER_11
100
AcDbText
  0
TEXT
  5
212
330
82
100
AcDbEntity
  8
1
 62
     2
100
AcDbText
 10
-262.2245325226339
 20
-242.6470336378866
 30
0.0
 40
1.8
  1
page
 41
0.9
  7
CONVERTER_11
100
AcDbText
  0
TEXT
  5
213
330
82
100
AcDbEntity
  8
1
 62
     2
100
AcDbText
 10
-253.578267552292
 20
-242.687265076697
 30
0.0
 40
1.8
  1
1
 41
0.9
  7
CONVERTER_11
100
AcDbText
  0
TEXT
  5
214
330
82
100
AcDbEntity
  8
1
 62
     2
100
AcDbText
 10
-238.7892237128204
 20
-242.6380164228951
 30
0.0
 40
1.8
  1
1
 41
0.9
  7
CONVERTER_11
100
AcDbText
  0
MTEXT
  5
216
330
82
100
AcDbEntity
  8
1
 62
     7
100
AcDbMText
 10
-180.2521302592585
 20
-240.6380164228947
 30
0.0
 40
3.0
 41
0.0
 71
     5
 72
     1
  1
KLM-A + ESL 44X7
  7
CONVERTER_12
 73
     1
 44
1.20048019207683
  0
MTEXT
  5
217
330
82
100
AcDbEntity
  8
1
 62
     2
100
AcDbMText
 10
-225.824532522634
 20
-236.3880164228949
 30
0.0
 40
1.8
 41
0.0
 71
     1
 72
     1
  1
description
  7
CONVERTER_11
 73
     1
 44
1.20048019207683
  0
MTEXT
  5
218
330
82
100
AcDbEntity
  8
1
 62
     3
100
AcDbMText
 10
-237.0245325226341
 20
-222.7630164228949
 30
0.0
 40
2.5
 41
0.0
 71
     5
 72
     1
  1
DIN A4
  7
CONVERTER_11
 73
     1
 44
1.20048019207683
  0
MTEXT
  5
219
330
82
100
AcDbEntity
  8
1
 62
     7
100
AcDbMText
 10
-423.179727995883
 20
-221.3880164228949
 30
0.0
 40
3.5
 41
0.0
 71
     5
 72
     1
  1
D
  7
CONVERTER_11
 73
     1
 44
1.20048019207683
  0
MTEXT
  5
21A
330
82
100
AcDbEntity
  8
1
 62
     7
100
AcDbMText
 10
-423.179727995883
 20
-168.8880164228949
 30
0.0
 40
3.5
 41
0.0
 71
     5
 72
     1
  1
C
  7
CONVERTER_11
 73
     1
 44
1.20048019207683
  0
MTEXT
  5
21B
330
82
100
AcDbEntity
  8
1
 62
     7
100
AcDbMText
 10
-423.179727995883
 20
-118.8880164228949
 30
0.0
 40
3.5
 41
0.0
 71
     5
 72
     1
  1
B
  7
CONVERTER_11
 73
     1
 44
1.20048019207683
  0
MTEXT
  5
21C
330
82
100
AcDbEntity
  8
1
 62
     7
100
AcDbMText
 10
-423.179727995883
 20
-66.38801642289494
 30
0.0
 40
3.5
 41
0.0
 71
     5
 72
     1
  1
A
  7
CONVERTER_11
 73
     1
 44
1.20048019207683
  0
MTEXT
  5
21D
330
82
100
AcDbEntity
  8
1
 62
     7
100
AcDbMText
 10
-152.9297279958848
 20
-246.3880164228951
 30
0.0
 40
3.5
 41
0.0
 71
     5
 72
     1
  1
6
  7
CONVERTER_11
 73
     1
 44
1.20048019207683
  0
MTEXT
  5
21E
330
82
100
AcDbEntity
  8
1
 62
     7
100
AcDbMText
 10
-202.179727995884
 20
-246.3880164228951
 30
0.0
 40
3.5
 41
0.0
 71
     5
 72
     1
  1
5
  7
CONVERTER_11
 73
     1
 44
1.20048019207683
  0
MTEXT
  5
21F
330
82
100
AcDbEntity
  8
1
 62
     7
100
AcDbMText
 10
-252.179727995884
 20
-246.3880164228951
 30
0.0
 40
3.5
 41
0.0
 71
     5
 72
     1
  1
4
  7
CONVERTER_11
 73
     1
 44
1.20048019207683
  0
MTEXT
  5
220
330
82
100
AcDbEntity
  8
1
 62
     7
100
AcDbMText
 10
-302.1797279958839
 20
-246.3880164228951
 30
0.0
 40
3.5
 41
0.0
 71
     5
 72
     1
  1
3
  7
CONVERTER_11
 73
     1
 44
1.20048019207683
  0
MTEXT
  5
221
330
82
100
AcDbEntity
  8
1
 62
     7
100
AcDbMText
 10
-352.1797279958839
 20
-246.3880164228951
 30
0.0
 40
3.5
 41
0.0
 71
     5
 72
     1
  1
2
  7
CONVERTER_11
 73
     1
 44
1.20048019207683
  0
MTEXT
  5
222
330
82
100
AcDbEntity
  8
1
 62
     7
100
AcDbMText
 10
-401.4297279958835
 20
-246.3880164228951
 30
0.0
 40
3.5
 41
0.0
 71
     5
 72
     1
  1
1
  7
CONVERTER_11
 73
     1
 44
1.20048019207683
  0
MTEXT
  5
223
330
82
100
AcDbEntity
  8
1
 62
     7
100
AcDbMText
 10
-131.179727995885
 20
-221.3880164228949
 30
0.0
 40
3.5
 41
0.0
 71
     5
 72
     1
  1
D
  7
CONVERTER_11
 73
     1
 44
1.20048019207683
  0
MTEXT
  5
224
330
82
100
AcDbEntity
  8
1
 62
     7
100
AcDbMText
 10
-131.179727995885
 20
-118.888016422893
 30
0.0
 40
3.5
 41
0.0
 71
     5
 72
     1
  1
B
  7
CONVERTER_11
 73
     1
 44
1.20048019207683
  0
MTEXT
  5
225
330
82
100
AcDbEntity
  8
1
 62
     7
100
AcDbMText
 10
-131.179727995885
 20
-66.38801642289494
 30
0.0
 40
3.5
 41
0.0
 71
     5
 72
     1
  1
A
  7
CONVERTER_11
 73
     1
 44
1.20048019207683
  0
MTEXT
  5
226
330
82
100
AcDbEntity
  8
1
 62
     7
100
AcDbMText
 10
-131.179727995885
 20
-168.888016422893
 30
0.0
 40
3.5
 41
0.0
 71
     5
 72
     1
  1
C
  7
CONVERTER_11
 73
     1
 44
1.20048019207683
  0
MTEXT
  5
227
330
82
100
AcDbEntity
  8
1
 62
     2
100
AcDbMText
 10
-297.6625472476815
 20
-231.138016422895
 30
0.0
 40
2.0
 41
0.0
 71
     5
 72
     1
  1
General Information\P- Simplified representation\P- Document excluded from change process\P- Linear dimensions [mm]
  7
CONVERTER_11
 73
     1
 44
1.20048019207683
  0
TEXT
  5
228
330
82
100
AcDbEntity
  8
1
 62
     7
100
AcDbText
 10
-225.3245325226342
 20
-234.088016422895
 30
0.0
 40
2.5
  1
0809421
 41
0.81
  7
CONVERTER_12
100
AcDbText
  0
MTEXT
  5
229
330
82
100
AcDbEntity
  8
1
 62
     2
100
AcDbMText
 10
-225.724532522634
 20
-227.8880164228949
 30
0.0
 40
1.8
 41
0.0
 71
     1
 72
     1
  1
ident.-No.
  7
CONVERTER_11
 73
     1
 44
1.20048019207683
  0
MTEXT
  5
22A
330
82
100
AcDbEntity
  8
1
 62
     2
100
AcDbMText
 10
-141.4981362775612
 20
-219.3880164228949
 30
0.0
 40
1.8
 41
0.0
 71
     1
 72
     1
  1
scale
  7
CONVERTER_11
 73
     1
 44
1.20048019207683
  0
MTEXT
  5
22C
330
82
100
AcDbEntity
  8
1
 62
     3
100
AcDbMText
 10
-138.1389321367216
 20
-225.5880164228948
 30
0.0
 40
2.5
 41
0.0
 71
     8
 72
     1
  1
1:1
  7
CONVERTER_13
 73
     1
 44
1.32052821128451
  0
TEXT
  5
22D
330
82
100
AcDbEntity
  8
1
 62
     7
100
AcDbText
 10
-225.724532522634
 20
-225.588016422895
 30
0.0
 40
2.5
  1
01098313
 41
0.81
  7
CONVERTER_12
100
AcDbText
  0
MTEXT
  5
22F
330
82
100
AcDbEntity
  8
1
 62
     2
100
AcDbMText
 10
-225.724532522634
 20
-219.3880164228949
 30
0.0
 40
1.8
 41
0.0
 71
     1
 72
     1
  1
document-No. / RI
  7
CONVERTER_14
 73
     1
 44
1.32052821128451
  0
TEXT
  5
230
330
82
100
AcDbEntity
  8
1
 62
     3
100
AcDbText
 10
-197.9245325226339
 20
-234.088016422895
 30
0.0
 40
2.5
  1
TECDOC 2D_Productdrawing
 41
0.81
  7
CONVERTER_12
100
AcDbText
  0
MTEXT
  5
231
330
82
100
AcDbEntity
  8
1
 62
     2
100
AcDbMText
 10
-197.9245325226339
 20
-227.888016422895
 30
0.0
 40
1.8
 41
0.0
 71
     1
 72
     1
  1
document-type
  7
CONVERTER_11
 73
     1
 44
1.20048019207683
  0
MTEXT
  5
232
330
82
100
AcDbEntity
  8
1
 62
     2
100
AcDbMText
 10
-168.0981362775611
 20
-219.388016422895
 30
0.0
 40
1.8
 41
0.0
 71
     1
 72
     1
  1
date
  7
CONVERTER_11
 73
     1
 44
1.32052821128451
  0
TEXT
  5
233
330
82
100
AcDbEntity
  8
1
 62
     3
100
AcDbText
 10
-168.0981362775611
 20
-225.588016422895
 30
0.0
 40
2.5
  1
19.10.2018
 41
0.81
  7
CONVERTER_12
100
AcDbText
  0
TEXT
  5
234
330
82
100
AcDbEntity
  8
1
 62
     7
100
AcDbText
 10
-205.6946203035782
 20
-225.588016422895
 30
0.0
 40
2.5
  1
00
 41
0.81
  7
CONVERTER_12
100
AcDbText
  0
TEXT
  5
235
330
82
100
AcDbEntity
  8
1
 62
     7
100
AcDbText
 10
-207.8509848006202
 20
-225.588016422895
 30
0.0
 40
2.5
  1
/
 41
0.9
  7
CONVERTER_11
100
AcDbText
  0
HATCH
  5
236
330
82
100
AcDbEntity
  8
1
  6
Continuous
 62
     2
100
AcDbHatch
 10
0.0
 20
0.0
 30
0.0
210
0.0
220
0.0
230
1.0
  2
_USER
 70
     0
 71
     1
 91
        1
 92
        1
 93
       12
 72
     1
 10
-245.5570318096729
 20
-233.2353259467043
 11
-246.7498245118393
 21
-233.2353259467043
 72
     1
 10
-246.7498245118393
 20
-233.2353259467043
 11
-246.7498245118393
 21
-232.1010538378605
 72
     1
 10
-246.7498245118393
 20
-232.1010538378605
 11
-247.7994820897467
 21
-232.1010538378605
 72
     1
 10
-247.7994820897467
 20
-232.1010538378605
 11
-247.7994820897467
 21
-233.2353259467043
 72
     1
 10
-247.7994820897467
 20
-233.2353259467043
 11
-248.9922747919133
 21
-233.2353259467043
 72
     1
 10
-248.9922747919133
 20
-233.2353259467043
 11
-248.9922747919133
 21
-230.1815164228931
 72
     1
 10
-248.9922747919133
 20
-230.1815164228931
 11
-247.7994820897467
 21
-230.1815164228931
 72
     1
 10
-247.7994820897467
 20
-230.1815164228931
 11
-247.7994820897467
 21
-231.2503497562277
 72
     1
 10
-247.7994820897467
 20
-231.2503497562277
 11
-246.7498245118393
 21
-231.2503497562277
 72
     1
 10
-246.7498245118393
 20
-231.2503497562277
 11
-246.7498245118393
 21
-230.1815164228931
 72
     1
 10
-246.7498245118393
 20
-230.1815164228931
 11
-245.5570318096729
 21
-230.1815164228931
 72
     1
 10
-245.5570318096729
 20
-230.1815164228931
 11
-245.5570318096729
 21
-233.2353259467043
 97
       12
330
1A3
330
1A4
330
18E
330
18D
330
18C
330
1A0
330
18B
330
1A1
330
1A2
330
18A
330
189
330
188
 75
     1
 76
     0
 52
45.0
 41
0.1
 77
     0
 78
     1
 53
45.0
 43
0.0
 44
0.0
 45
-0.0707106781186548
 46
0.0707106781186548
 79
     0
 98
        1
 10
0.0
 20
0.0
  0
HATCH
  5
237
330
82
100
AcDbEntity
  8
1
  6
Continuous
 62
     2
100
AcDbHatch
 10
0.0
 20
0.0
 30
0.0
210
0.0
220
0.0
230
1.0
  2
_USER
 70
     0
 71
     1
 91
        1
 92
        1
 93
       12
 72
     1
 10
-245.5570318096729
 20
-233.2353259467043
 11
-246.7498245118393
 21
-233.2353259467043
 72
     1
 10
-246.7498245118393
 20
-233.2353259467043
 11
-246.7498245118393
 21
-232.1010538378605
 72
     1
 10
-246.7498245118393
 20
-232.1010538378605
 11
-247.7994820897467
 21
-232.1010538378605
 72
     1
 10
-247.7994820897467
 20
-232.1010538378605
 11
-247.7994820897467
 21
-233.2353259467043
 72
     1
 10
-247.7994820897467
 20
-233.2353259467043
 11
-248.9922747919133
 21
-233.2353259467043
 72
     1
 10
-248.9922747919133
 20
-233.2353259467043
 11
-248.9922747919133
 21
-230.1815164228931
 72
     1
 10
-248.9922747919133
 20
-230.1815164228931
 11
-247.7994820897467
 21
-230.1815164228931
 72
     1
 10
-247.7994820897467
 20
-230.1815164228931
 11
-247.7994820897467
 21
-231.2503497562277
 72
     1
 10
-247.7994820897467
 20
-231.2503497562277
 11
-246.7498245118393
 21
-231.2503497562277
 72
     1
 10
-246.7498245118393
 20
-231.2503497562277
 11
-246.7498245118393
 21
-230.1815164228931
 72
     1
 10
-246.7498245118393
 20
-230.1815164228931
 11
-245.5570318096729
 21
-230.1815164228931
 72
     1
 10
-245.5570318096729
 20
-230.1815164228931
 11
-245.5570318096729
 21
-233.2353259467043
 97
       12
330
1A3
330
1A4
330
18E
330
18D
330
18C
330
1A0
330
18B
330
1A1
330
1A2
330
18A
330
189
330
188
 75
     1
 76
     0
 52
45.0
 41
0.1
 77
     0
 78
     1
 53
45.0
 43
0.0
 44
0.0
 45
-0.0707106781186548
 46
0.0707106781186548
 79
     0
 98
        1
 10
0.0
 20
0.0
  0
HATCH
  5
238
330
82
100
AcDbEntity
  8
1
  6
Continuous
 62
     2
100
AcDbHatch
 10
0.0
 20
0.0
 30
0.0
210
0.0
220
0.0
230
1.0
  2
_USER
 70
     0
 71
     1
 91
        1
 92
        1
 93
       10
 72
     1
 10
-243.3147324604846
 20
-234.8494824092726
 11
-244.5552368707375
 21
-233.5407068990675
 72
     1
 10
-244.5552368707375
 20
-233.5407068990675
 11
-245.748029572905
 21
-233.5407068990675
 72
     1
 10
-245.748029572905
 20
-233.5407068990675
 11
-245.748029572905
 21
-236.5945164228786
 72
     1
 10
-245.748029572905
 20
-236.5945164228786
 11
-244.5552368707375
 21
-236.5945164228786
 72
     1
 10
-244.5552368707375
 20
-236.5945164228786
 11
-244.5552368707375
 21
-235.285740912674
 72
     1
 10
-244.5552368707375
 20
-235.285740912674
 11
-243.3147324604846
 21
-236.5945164228786
 72
     1
 10
-243.3147324604846
 20
-236.5945164228786
 11
-242.1219397583182
 21
-236.5945164228786
 72
     1
 10
-242.1219397583182
 20
-236.5945164228786
 11
-242.1219397583182
 21
-233.5407068990675
 72
     1
 10
-242.1219397583182
 20
-233.5407068990675
 11
-243.3147324604846
 21
-233.5407068990675
 72
     1
 10
-243.3147324604846
 20
-233.5407068990675
 11
-243.3147324604846
 21
-234.8494824092726
 97
       10
330
1B1
330
181
330
180
330
183
330
1AC
330
1AD
330
182
330
1AE
330
1AF
330
1B0
 75
     1
 76
     0
 52
45.0
 41
0.1
 77
     0
 78
     1
 53
45.0
 43
0.0
 44
0.0
 45
-0.0707106781186548
 46
0.0707106781186548
 79
     0
 98
        1
 10
0.0
 20
0.0
  0
HATCH
  5
239
330
82
100
AcDbEntity
  8
1
  6
Continuous
 62
     2
100
AcDbHatch
 10
0.0
 20
0.0
 30
0.0
210
0.0
220
0.0
230
1.0
  2
_USER
 70
     0
 71
     1
 91
        1
 92
        1
 93
       10
 72
     1
 10
-243.3147324604846
 20
-234.8494824092726
 11
-244.5552368707375
 21
-233.5407068990675
 72
     1
 10
-244.5552368707375
 20
-233.5407068990675
 11
-245.748029572905
 21
-233.5407068990675
 72
     1
 10
-245.748029572905
 20
-233.5407068990675
 11
-245.748029572905
 21
-236.5945164228786
 72
     1
 10
-245.748029572905
 20
-236.5945164228786
 11
-244.5552368707375
 21
-236.5945164228786
 72
     1
 10
-244.5552368707375
 20
-236.5945164228786
 11
-244.5552368707375
 21
-235.285740912674
 72
     1
 10
-244.5552368707375
 20
-235.285740912674
 11
-243.3147324604846
 21
-236.5945164228786
 72
     1
 10
-243.3147324604846
 20
-236.5945164228786
 11
-242.1219397583182
 21
-236.5945164228786
 72
     1
 10
-242.1219397583182
 20
-236.5945164228786
 11
-242.1219397583182
 21
-233.5407068990675
 72
     1
 10
-242.1219397583182
 20
-233.5407068990675
 11
-243.3147324604846
 21
-233.5407068990675
 72
     1
 10
-243.3147324604846
 20
-233.5407068990675
 11
-243.3147324604846
 21
-234.8494824092726
 97
       10
330
1B1
330
181
330
180
330
183
330
1AC
330
1AD
330
182
330
1AE
330
1AF
330
1B0
 75
     1
 76
     0
 52
45.0
 41
0.1
 77
     0
 78
     1
 53
45.0
 43
0.0
 44
0.0
 45
-0.0707106781186548
 46
0.0707106781186548
 79
     0
 98
        1
 10
0.0
 20
0.0
  0
HATCH
  5
23A
330
82
100
AcDbEntity
  8
1
  6
Continuous
 62
     2
100
AcDbHatch
 10
0.0
 20
0.0
 30
0.0
210
0.0
220
0.0
230
1.0
  2
_USER
 70
     0
 71
     1
 91
        1
 92
        1
 93
       10
 72
     1
 10
-238.0662936400648
 20
-231.4902919330983
 11
-239.3067980503188
 21
-230.1815164228931
 72
     1
 10
-239.3067980503188
 20
-230.1815164228931
 11
-240.4995907524854
 21
-230.1815164228931
 72
     1
 10
-240.4995907524854
 20
-230.1815164228931
 11
-240.4995907524854
 21
-233.2353259467043
 72
     1
 10
-240.4995907524854
 20
-233.2353259467043
 11
-239.3067980503188
 21
-233.2353259467043
 72
     1
 10
-239.3067980503188
 20
-233.2353259467043
 11
-239.3067980503188
 21
-231.9265504364996
 72
     1
 10
-239.3067980503188
 20
-231.9265504364996
 11
-238.0662936400648
 21
-233.2353259467043
 72
     1
 10
-238.0662936400648
 20
-233.2353259467043
 11
-236.8735009378982
 21
-233.2353259467043
 72
     1
 10
-236.8735009378982
 20
-233.2353259467043
 11
-236.8735009378982
 21
-230.1815164228931
 72
     1
 10
-236.8735009378982
 20
-230.1815164228931
 11
-238.0662936400648
 21
-230.1815164228931
 72
     1
 10
-238.0662936400648
 20
-230.1815164228931
 11
-238.0662936400648
 21
-231.4902919330983
 97
       10
330
1B6
330
17E
330
17D
330
1B7
330
17C
330
1B2
330
1B3
330
1B4
330
1B5
330
17F
 75
     1
 76
     0
 52
45.0
 41
0.1
 77
     0
 78
     1
 53
45.0
 43
0.0
 44
0.0
 45
-0.0707106781186548
 46
0.0707106781186548
 79
     0
 98
        1
 10
0.0
 20
0.0
  0
HATCH
  5
23B
330
82
100
AcDbEntity
  8
1
  6
Continuous
 62
     2
100
AcDbHatch
 10
0.0
 20
0.0
 30
0.0
210
0.0
220
0.0
230
1.0
  2
_USER
 70
     0
 71
     1
 91
        1
 92
        1
 93
       10
 72
     1
 10
-238.0662936400648
 20
-231.4902919330983
 11
-239.3067980503188
 21
-230.1815164228931
 72
     1
 10
-239.3067980503188
 20
-230.1815164228931
 11
-240.4995907524854
 21
-230.1815164228931
 72
     1
 10
-240.4995907524854
 20
-230.1815164228931
 11
-240.4995907524854
 21
-233.2353259467043
 72
     1
 10
-240.4995907524854
 20
-233.2353259467043
 11
-239.3067980503188
 21
-233.2353259467043
 72
     1
 10
-239.3067980503188
 20
-233.2353259467043
 11
-239.3067980503188
 21
-231.9265504364996
 72
     1
 10
-239.3067980503188
 20
-231.9265504364996
 11
-238.0662936400648
 21
-233.2353259467043
 72
     1
 10
-238.0662936400648
 20
-233.2353259467043
 11
-236.8735009378982
 21
-233.2353259467043
 72
     1
 10
-236.8735009378982
 20
-233.2353259467043
 11
-236.8735009378982
 21
-230.1815164228931
 72
     1
 10
-236.8735009378982
 20
-230.1815164228931
 11
-238.0662936400648
 21
-230.1815164228931
 72
     1
 10
-238.0662936400648
 20
-230.1815164228931
 11
-238.0662936400648
 21
-231.4902919330983
 97
       10
330
1B6
330
17E
330
17D
330
1B7
330
17C
330
1B2
330
1B3
330
1B4
330
1B5
330
17F
 75
     1
 76
     0
 52
45.0
 41
0.1
 77
     0
 78
     1
 53
45.0
 43
0.0
 44
0.0
 45
-0.0707106781186548
 46
0.0707106781186548
 79
     0
 98
        1
 10
0.0
 20
0.0
  0
HATCH
  5
23C
330
82
100
AcDbEntity
  8
1
  6
Continuous
 62
     2
100
AcDbHatch
 10
0.0
 20
0.0
 30
0.0
210
0.0
220
0.0
230
1.0
  2
_USER
 70
     0
 71
     1
 91
        1
 92
        1
 93
        8
 72
     1
 10
-239.1638138569443
 20
-233.5407068990675
 11
-241.978804634058
 21
-233.5407068990675
 72
     1
 10
-241.978804634058
 20
-233.5407068990675
 11
-241.978804634058
 21
-234.3259722051911
 72
     1
 10
-241.978804634058
 20
-234.3259722051911
 11
-241.1677055965834
 21
-234.3259722051911
 72
     1
 10
-241.1677055965834
 20
-234.3259722051911
 11
-241.1677055965834
 21
-236.5945164228786
 72
     1
 10
-241.1677055965834
 20
-236.5945164228786
 11
-239.9749128944168
 21
-236.5945164228786
 72
     1
 10
-239.9749128944168
 20
-236.5945164228786
 11
-239.9749128944168
 21
-234.3259722051911
 72
     1
 10
-239.9749128944168
 20
-234.3259722051911
 11
-239.1638138569443
 21
-234.3259722051911
 72
     1
 10
-239.1638138569443
 20
-234.3259722051911
 11
-239.1638138569443
 21
-233.5407068990675
 97
        8
330
178
330
1B8
330
177
330
1B9
330
1BA
330
17B
330
17A
330
179
 75
     1
 76
     0
 52
45.0
 41
0.1
 77
     0
 78
     1
 53
45.0
 43
0.0
 44
0.0
 45
-0.0707106781186548
 46
0.0707106781186548
 79
     0
 98
        1
 10
0.0
 20
0.0
  0
HATCH
  5
23D
330
82
100
AcDbEntity
  8
1
  6
Continuous
 62
     2
100
AcDbHatch
 10
0.0
 20
0.0
 30
0.0
210
0.0
220
0.0
230
1.0
  2
_USER
 70
     0
 71
     1
 91
        1
 92
        1
 93
        8
 72
     1
 10
-239.1638138569443
 20
-233.5407068990675
 11
-241.978804634058
 21
-233.5407068990675
 72
     1
 10
-241.978804634058
 20
-233.5407068990675
 11
-241.978804634058
 21
-234.3259722051911
 72
     1
 10
-241.978804634058
 20
-234.3259722051911
 11
-241.1677055965834
 21
-234.3259722051911
 72
     1
 10
-241.1677055965834
 20
-234.3259722051911
 11
-241.1677055965834
 21
-236.5945164228786
 72
     1
 10
-241.1677055965834
 20
-236.5945164228786
 11
-239.9749128944168
 21
-236.5945164228786
 72
     1
 10
-239.9749128944168
 20
-236.5945164228786
 11
-239.9749128944168
 21
-234.3259722051911
 72
     1
 10
-239.9749128944168
 20
-234.3259722051911
 11
-239.1638138569443
 21
-234.3259722051911
 72
     1
 10
-239.1638138569443
 20
-234.3259722051911
 11
-239.1638138569443
 21
-233.5407068990675
 97
        8
330
178
330
1B8
330
177
330
1B9
330
1BA
330
17B
330
17A
330
179
 75
     1
 76
     0
 52
45.0
 41
0.1
 77
     0
 78
     1
 53
45.0
 43
0.0
 44
0.0
 45
-0.0707106781186548
 46
0.0707106781186548
 79
     0
 98
        1
 10
0.0
 20
0.0
  0
HATCH
  5
23E
330
82
100
AcDbEntity
  8
1
  6
Continuous
 62
     2
100
AcDbHatch
 10
0.0
 20
0.0
 30
0.0
210
0.0
220
0.0
230
1.0
  2
_USER
 70
     0
 71
     1
 91
        2
 92
        1
 93
        8
 72
     1
 10
-237.0253864009974
 20
-236.5945164228786
 11
-237.2368664544731
 21
-236.0535558786608
 72
     1
 10
-237.2368664544731
 20
-236.0535558786608
 11
-238.3693080311469
 21
-236.0535558786608
 72
     1
 10
-238.3693080311469
 20
-236.0535558786608
 11
-238.5807880846228
 21
-236.5945164228786
 72
     1
 10
-238.5807880846228
 20
-236.5945164228786
 11
-239.8212924948757
 21
-236.5945164228786
 72
     1
 10
-239.8212924948757
 20
-236.5945164228786
 11
-238.4233394479364
 21
-233.5407068990675
 72
     1
 10
-238.4233394479364
 20
-233.5407068990675
 11
-237.1828350376837
 21
-233.5407068990675
 72
     1
 10
-237.1828350376837
 20
-233.5407068990675
 11
-235.7848819907434
 21
-236.5945164228786
 72
     1
 10
-235.7848819907434
 20
-236.5945164228786
 11
-237.0253864009974
 21
-236.5945164228786
 97
        8
330
1BC
330
1BD
330
174
330
1BE
330
173
330
176
330
1BB
330
175
 92
       16
 93
        3
 72
     1
 10
-238.1032524800019
 20
-235.3729926133541
 11
-237.8030872428095
 21
-234.6051776473674
 72
     1
 10
-237.8030872428095
 20
-234.6051776473674
 11
-237.5029220056194
 21
-235.3729926133541
 72
     1
 10
-237.5029220056194
 20
-235.3729926133541
 11
-238.1032524800019
 21
-235.3729926133541
 97
        3
330
172
330
1C0
330
1BF
 75
     1
 76
     0
 52
45.0
 41
0.1
 77
     0
 78
     1
 53
45.0
 43
0.0
 44
0.0
 45
-0.0707106781186548
 46
0.0707106781186548
 79
     0
 98
        1
 10
0.0
 20
0.0
  0
HATCH
  5
23F
330
82
100
AcDbEntity
  8
1
  6
Continuous
 62
     2
100
AcDbHatch
 10
0.0
 20
0.0
 30
0.0
210
0.0
220
0.0
230
1.0
  2
_USER
 70
     0
 71
     1
 91
        2
 92
        1
 93
        8
 72
     1
 10
-237.0253864009974
 20
-236.5945164228786
 11
-237.2368664544731
 21
-236.0535558786608
 72
     1
 10
-237.2368664544731
 20
-236.0535558786608
 11
-238.3693080311469
 21
-236.0535558786608
 72
     1
 10
-238.3693080311469
 20
-236.0535558786608
 11
-238.5807880846228
 21
-236.5945164228786
 72
     1
 10
-238.5807880846228
 20
-236.5945164228786
 11
-239.8212924948757
 21
-236.5945164228786
 72
     1
 10
-239.8212924948757
 20
-236.5945164228786
 11
-238.4233394479364
 21
-233.5407068990675
 72
     1
 10
-238.4233394479364
 20
-233.5407068990675
 11
-237.1828350376837
 21
-233.5407068990675
 72
     1
 10
-237.1828350376837
 20
-233.5407068990675
 11
-235.7848819907434
 21
-236.5945164228786
 72
     1
 10
-235.7848819907434
 20
-236.5945164228786
 11
-237.0253864009974
 21
-236.5945164228786
 97
        8
330
1BC
330
1BD
330
174
330
1BE
330
173
330
176
330
1BB
330
175
 92
       16
 93
        3
 72
     1
 10
-238.1032524800019
 20
-235.3729926133541
 11
-237.8030872428095
 21
-234.6051776473674
 72
     1
 10
-237.8030872428095
 20
-234.6051776473674
 11
-237.5029220056194
 21
-235.3729926133541
 72
     1
 10
-237.5029220056194
 20
-235.3729926133541
 11
-238.1032524800019
 21
-235.3729926133541
 97
        3
330
172
330
1C0
330
1BF
 75
     1
 76
     0
 52
45.0
 41
0.1
 77
     0
 78
     1
 53
45.0
 43
0.0
 44
0.0
 45
-0.0707106781186548
 46
0.0707106781186548
 79
     0
 98
        1
 10
0.0
 20
0.0
  0
HATCH
  5
240
330
82
100
AcDbEntity
  8
1
  6
Continuous
 62
     2
100
AcDbHatch
 10
0.0
 20
0.0
 30
0.0
210
0.0
220
0.0
230
1.0
  2
_USER
 70
     0
 71
     1
 91
        1
 92
        1
 93
        4
 72
     1
 10
-235.3944379872114
 20
-233.2353259467043
 11
-236.6349423974643
 21
-233.2353259467043
 72
     1
 10
-236.6349423974643
 20
-233.2353259467043
 11
-236.6349423974643
 21
-230.1815164228931
 72
     1
 10
-236.6349423974643
 20
-230.1815164228931
 11
-235.3944379872114
 21
-230.1815164228931
 72
     1
 10
-235.3944379872114
 20
-230.1815164228931
 11
-235.3944379872114
 21
-233.2353259467043
 97
        4
330
16F
330
171
330
1C1
330
170
 75
     1
 76
     0
 52
45.0
 41
0.1
 77
     0
 78
     1
 53
45.0
 43
0.0
 44
0.0
 45
-0.0707106781186548
 46
0.0707106781186548
 79
     0
 98
        1
 10
0.0
 20
0.0
  0
HATCH
  5
241
330
82
100
AcDbEntity
  8
1
  6
Continuous
 62
     2
100
AcDbHatch
 10
0.0
 20
0.0
 30
0.0
210
0.0
220
0.0
230
1.0
  2
_USER
 70
     0
 71
     1
 91
        1
 92
        1
 93
        4
 72
     1
 10
-235.3944379872114
 20
-233.2353259467043
 11
-236.6349423974643
 21
-233.2353259467043
 72
     1
 10
-236.6349423974643
 20
-233.2353259467043
 11
-236.6349423974643
 21
-230.1815164228931
 72
     1
 10
-236.6349423974643
 20
-230.1815164228931
 11
-235.3944379872114
 21
-230.1815164228931
 72
     1
 10
-235.3944379872114
 20
-230.1815164228931
 11
-235.3944379872114
 21
-233.2353259467043
 97
        4
330
16F
330
171
330
1C1
330
170
 75
     1
 76
     0
 52
45.0
 41
0.1
 77
     0
 78
     1
 53
45.0
 43
0.0
 44
0.0
 45
-0.0707106781186548
 46
0.0707106781186548
 79
     0
 98
        1
 10
0.0
 20
0.0
  0
HATCH
  5
242
330
82
100
AcDbEntity
  8
1
  6
Continuous
 62
     2
100
AcDbHatch
 10
0.0
 20
0.0
 30
0.0
210
0.0
220
0.0
230
1.0
  2
_USER
 70
     0
 71
     1
 91
        1
 92
        1
 93
       12
 72
     1
 10
-231.1719518215406
 20
-230.1815164228931
 11
-232.4744814523072
 21
-231.6544669529293
 72
     1
 10
-232.4744814523072
 20
-231.6544669529293
 11
-231.0765284053668
 21
-233.2353259467043
 72
     1
 10
-231.0765284053668
 20
-233.2353259467043
 11
-232.4792526231151
 21
-233.2353259467043
 72
     1
 10
-232.4792526231151
 20
-233.2353259467043
 11
-233.1758435611806
 21
-232.4475941614106
 72
     1
 10
-233.1758435611806
 20
-232.4475941614106
 11
-233.8724344992463
 21
-233.2353259467043
 72
     1
 10
-233.8724344992463
 20
-233.2353259467043
 11
-235.2751587169946
 21
-233.2353259467043
 72
     1
 10
-235.2751587169946
 20
-233.2353259467043
 11
-233.8772056700543
 21
-231.6544669529293
 72
     1
 10
-233.8772056700543
 20
-231.6544669529293
 11
-235.1797353008217
 21
-230.1815164228931
 72
     1
 10
-235.1797353008217
 20
-230.1815164228931
 11
-233.7770110830724
 21
-230.1815164228931
 72
     1
 10
-233.7770110830724
 20
-230.1815164228931
 11
-233.1758435611806
 21
-230.8613397444486
 72
     1
 10
-233.1758435611806
 20
-230.8613397444486
 11
-232.5746760392879
 21
-230.1815164228931
 72
     1
 10
-232.5746760392879
 20
-230.1815164228931
 11
-231.1719518215406
 21
-230.1815164228931
 97
       12
330
16A
330
169
330
168
330
1C5
330
1C6
330
1C2
330
1C3
330
16E
330
16D
330
16C
330
16B
330
1C4
 75
     1
 76
     0
 52
45.0
 41
0.1
 77
     0
 78
     1
 53
45.0
 43
0.0
 44
0.0
 45
-0.0707106781186548
 46
0.0707106781186548
 79
     0
 98
        1
 10
0.0
 20
0.0
  0
HATCH
  5
243
330
82
100
AcDbEntity
  8
1
  6
Continuous
 62
     2
100
AcDbHatch
 10
0.0
 20
0.0
 30
0.0
210
0.0
220
0.0
230
1.0
  2
_USER
 70
     0
 71
     1
 91
        1
 92
        1
 93
       12
 72
     1
 10
-231.1719518215406
 20
-230.1815164228931
 11
-232.4744814523072
 21
-231.6544669529293
 72
     1
 10
-232.4744814523072
 20
-231.6544669529293
 11
-231.0765284053668
 21
-233.2353259467043
 72
     1
 10
-231.0765284053668
 20
-233.2353259467043
 11
-232.4792526231151
 21
-233.2353259467043
 72
     1
 10
-232.4792526231151
 20
-233.2353259467043
 11
-233.1758435611806
 21
-232.4475941614106
 72
     1
 10
-233.1758435611806
 20
-232.4475941614106
 11
-233.8724344992463
 21
-233.2353259467043
 72
     1
 10
-233.8724344992463
 20
-233.2353259467043
 11
-235.2751587169946
 21
-233.2353259467043
 72
     1
 10
-235.2751587169946
 20
-233.2353259467043
 11
-233.8772056700543
 21
-231.6544669529293
 72
     1
 10
-233.8772056700543
 20
-231.6544669529293
 11
-235.1797353008217
 21
-230.1815164228931
 72
     1
 10
-235.1797353008217
 20
-230.1815164228931
 11
-233.7770110830724
 21
-230.1815164228931
 72
     1
 10
-233.7770110830724
 20
-230.1815164228931
 11
-233.1758435611806
 21
-230.8613397444486
 72
     1
 10
-233.1758435611806
 20
-230.8613397444486
 11
-232.5746760392879
 21
-230.1815164228931
 72
     1
 10
-232.5746760392879
 20
-230.1815164228931
 11
-231.1719518215406
 21
-230.1815164228931
 97
       12
330
16A
330
169
330
168
330
1C5
330
1C6
330
1C2
330
1C3
330
16E
330
16D
330
16C
330
16B
330
1C4
 75
     1
 76
     0
 52
45.0
 41
0.1
 77
     0
 78
     1
 53
45.0
 43
0.0
 44
0.0
 45
-0.0707106781186548
 46
0.0707106781186548
 79
     0
 98
        1
 10
0.0
 20
0.0
  0
HATCH
  5
244
330
82
100
AcDbEntity
  8
1
  6
Continuous
 62
     2
100
AcDbHatch
 10
0.0
 20
0.0
 30
0.0
210
0.0
220
0.0
230
1.0
  2
_USER
 70
     0
 71
     1
 91
        2
 92
        1
 93
        6
 72
     1
 10
-250.1896872356867
 20
-232.2922477055605
 11
-250.9484548234669
 21
-232.2922477055605
 72
     1
 10
-250.9484548234669
 20
-232.2922477055605
 11
-250.9484548234669
 21
-233.2353259467043
 72
     1
 10
-250.9484548234669
 20
-233.2353259467043
 11
-252.1889592337211
 21
-233.2353259467043
 72
     1
 10
-252.1889592337211
 20
-233.2353259467043
 11
-252.1889592337211
 21
-230.1815164228931
 72
     1
 10
-252.1889592337211
 20
-230.1815164228931
 11
-250.1896872356867
 21
-230.1815164228931
 72
     2
 10
-250.1896872356867
 20
-231.2368820642268
 40
1.055365641333708
 50
270.0
 51
450.0
 73
     0
 97
        6
330
192
330
191
330
19E
330
19D
330
193
330
1E3
 92
       16
 93
        4
 72
     2
 10
-250.631159761925
 20
-231.1974860930043
 40
0.3528638246712035
 50
270.0
 51
450.0
 73
     1
 72
     1
 10
-250.631159761925
 20
-230.8446222683332
 11
-250.9484548234669
 21
-230.8446222683332
 72
     1
 10
-250.9484548234669
 20
-230.8446222683332
 11
-250.9484548234669
 21
-231.5503499176755
 72
     1
 10
-250.9484548234669
 20
-231.5503499176755
 11
-250.631159761925
 21
-231.5503499176755
 97
        4
330
1F7
330
18F
330
19F
330
190
 75
     1
 76
     0
 52
45.0
 41
0.1
 77
     0
 78
     1
 53
45.0
 43
0.0
 44
0.0
 45
-0.0707106781186548
 46
0.0707106781186548
 79
     0
 98
        1
 10
0.0
 20
0.0
  0
HATCH
  5
245
330
82
100
AcDbEntity
  8
1
  6
Continuous
 62
     2
100
AcDbHatch
 10
0.0
 20
0.0
 30
0.0
210
0.0
220
0.0
230
1.0
  2
_USER
 70
     0
 71
     1
 91
        2
 92
        1
 93
        6
 72
     1
 10
-250.1896872356867
 20
-232.2922477055605
 11
-250.9484548234669
 21
-232.2922477055605
 72
     1
 10
-250.9484548234669
 20
-232.2922477055605
 11
-250.9484548234669
 21
-233.2353259467043
 72
     1
 10
-250.9484548234669
 20
-233.2353259467043
 11
-252.1889592337211
 21
-233.2353259467043
 72
     1
 10
-252.1889592337211
 20
-233.2353259467043
 11
-252.1889592337211
 21
-230.1815164228931
 72
     1
 10
-252.1889592337211
 20
-230.1815164228931
 11
-250.1896872356867
 21
-230.1815164228931
 72
     2
 10
-250.1896872356867
 20
-231.2368820642268
 40
1.055365641333708
 50
270.0
 51
450.0
 73
     0
 97
        6
330
192
330
191
330
19E
330
19D
330
193
330
1E3
 92
       16
 93
        4
 72
     2
 10
-250.631159761925
 20
-231.1974860930043
 40
0.3528638246712035
 50
270.0
 51
450.0
 73
     1
 72
     1
 10
-250.631159761925
 20
-230.8446222683332
 11
-250.9484548234669
 21
-230.8446222683332
 72
     1
 10
-250.9484548234669
 20
-230.8446222683332
 11
-250.9484548234669
 21
-231.5503499176755
 72
     1
 10
-250.9484548234669
 20
-231.5503499176755
 11
-250.631159761925
 21
-231.5503499176755
 97
        4
330
1F7
330
18F
330
19F
330
190
 75
     1
 76
     0
 52
45.0
 41
0.1
 77
     0
 78
     1
 53
45.0
 43
0.0
 44
0.0
 45
-0.0707106781186548
 46
0.0707106781186548
 79
     0
 98
        1
 10
0.0
 20
0.0
  0
HATCH
  5
246
330
82
100
AcDbEntity
  8
1
  6
Continuous
 62
     2
100
AcDbHatch
 10
0.0
 20
0.0
 30
0.0
210
0.0
220
0.0
230
1.0
  2
_USER
 70
     0
 71
     1
 91
        2
 92
        1
 93
        4
 72
     2
 10
-247.6331444873275
 20
-235.6061866712761
 40
2.065479772208529
 50
62.45185182430846
 51
117.5481481756664
 73
     1
 72
     2
 10
-247.9140843791608
 20
-235.0676116609733
 40
1.45803408365149
 50
117.5481481756624
 51
242.4518518243375
 73
     1
 72
     2
 10
-247.6331444873275
 20
-234.52903665067
 40
2.065479772208509
 50
242.4518518243402
 51
297.548148175685
 73
     1
 72
     2
 10
-247.3522045954942
 20
-235.0676116609733
 40
1.45803408365195
 50
297.5481481756971
 51
422.4518518243029
 73
     1
 97
        4
330
1EF
330
1EE
330
1F0
330
1ED
 92
       16
 93
        4
 72
     2
 10
-247.832884523674
 20
-235.0676116609733
 40
0.7717997786797618
 50
321.8795802028456
 51
398.1204197971443
 73
     1
 72
     2
 10
-247.6331444873275
 20
-234.9108804828528
 40
0.5179085730132472
 50
38.12041979713961
 51
141.8795802028662
 73
     1
 72
     2
 10
-247.4334044509814
 20
-235.0676116609733
 40
0.7717997786794106
 50
141.8795802028413
 51
218.1204197971687
 73
     1
 72
     2
 10
-247.6331444873275
 20
-235.2243428390933
 40
0.5179085730137354
 50
218.1204197971931
 51
321.879580202801
 73
     1
 97
        4
330
20B
330
208
330
209
330
20A
 75
     1
 76
     0
 52
45.0
 41
0.1
 77
     0
 78
     1
 53
45.0
 43
0.0
 44
0.0
 45
-0.0707106781186548
 46
0.0707106781186548
 79
     0
 98
        1
 10
0.0
 20
0.0
  0
HATCH
  5
247
330
82
100
AcDbEntity
  8
1
  6
Continuous
 62
     2
100
AcDbHatch
 10
0.0
 20
0.0
 30
0.0
210
0.0
220
0.0
230
1.0
  2
_USER
 70
     0
 71
     1
 91
        2
 92
        1
 93
        4
 72
     2
 10
-247.6331444873275
 20
-235.6061866712761
 40
2.065479772208529
 50
62.45185182430846
 51
117.5481481756664
 73
     1
 72
     2
 10
-247.9140843791608
 20
-235.0676116609733
 40
1.45803408365149
 50
117.5481481756624
 51
242.4518518243375
 73
     1
 72
     2
 10
-247.6331444873275
 20
-234.52903665067
 40
2.065479772208509
 50
242.4518518243402
 51
297.548148175685
 73
     1
 72
     2
 10
-247.3522045954942
 20
-235.0676116609733
 40
1.45803408365195
 50
297.5481481756971
 51
422.4518518243029
 73
     1
 97
        4
330
1EF
330
1EE
330
1F0
330
1ED
 92
       16
 93
        4
 72
     2
 10
-247.832884523674
 20
-235.0676116609733
 40
0.7717997786797618
 50
321.8795802028456
 51
398.1204197971443
 73
     1
 72
     2
 10
-247.6331444873275
 20
-234.9108804828528
 40
0.5179085730132472
 50
38.12041979713961
 51
141.8795802028662
 73
     1
 72
     2
 10
-247.4334044509814
 20
-235.0676116609733
 40
0.7717997786794106
 50
141.8795802028413
 51
218.1204197971687
 73
     1
 72
     2
 10
-247.6331444873275
 20
-235.2243428390933
 40
0.5179085730137354
 50
218.1204197971931
 51
321.879580202801
 73
     1
 97
        4
330
20B
330
208
330
209
330
20A
 75
     1
 76
     0
 52
45.0
 41
0.1
 77
     0
 78
     1
 53
45.0
 43
0.0
 44
0.0
 45
-0.0707106781186548
 46
0.0707106781186548
 79
     0
 98
        1
 10
0.0
 20
0.0
  0
HATCH
  5
248
330
82
100
AcDbEntity
  8
1
  6
Continuous
 62
     2
100
AcDbHatch
 10
0.0
 20
0.0
 30
0.0
210
0.0
220
0.0
230
1.0
  2
_USER
 70
     0
 71
     1
 91
        2
 92
        1
 93
       12
 72
     1
 10
-240.7381492929183
 20
-230.8795300283361
 11
-242.0740771193459
 21
-230.8795300283361
 72
     1
 10
-242.0740771193459
 20
-230.8795300283361
 11
-242.0740771193459
 21
-231.3594143820778
 72
     1
 10
-242.0740771193459
 20
-231.3594143820778
 11
-240.7381492929183
 21
-231.3594143820778
 72
     1
 10
-240.7381492929183
 20
-231.3594143820778
 11
-240.7381492929183
 21
-232.0574279875201
 72
     1
 10
-240.7381492929183
 20
-232.0574279875201
 11
-242.0740771193459
 21
-232.0574279875201
 72
     1
 10
-242.0740771193459
 20
-232.0574279875201
 11
-242.0740771193459
 21
-232.5373123412618
 72
     1
 10
-242.0740771193459
 20
-232.5373123412618
 11
-240.7381492929183
 21
-232.5373123412618
 72
     1
 10
-240.7381492929183
 20
-232.5373123412618
 11
-240.7381492929183
 21
-233.2353259467043
 72
     1
 10
-240.7381492929183
 20
-233.2353259467043
 11
-243.8884690166993
 21
-233.2353259467043
 72
     2
 10
-243.8884690166993
 20
-231.708421184799
 40
1.526904761905882
 50
90.0
 51
270.0
 73
     0
 72
     1
 10
-243.8884690166993
 20
-230.1815164228931
 11
-240.7381492929183
 21
-230.1815164228931
 72
     1
 10
-240.7381492929183
 20
-230.1815164228931
 11
-240.7381492929183
 21
-230.8795300283361
 97
       12
330
1A6
330
1F8
330
1A7
330
1A8
330
1A9
330
1AA
330
187
330
186
330
185
330
184
330
1AB
330
1A5
 92
       16
 93
        4
 72
     2
 10
-243.6721970065341
 20
-231.5516900066785
 40
0.5179085730136159
 50
38.12041979713558
 51
141.8795802028431
 73
     1
 72
     2
 10
-243.4724569701878
 20
-231.708421184799
 40
0.7717997786796054
 50
141.8795802028365
 51
218.1204197971585
 73
     1
 72
     2
 10
-243.6721970065341
 20
-231.8651523629195
 40
0.5179085730132998
 50
218.120419797147
 51
321.8795802028743
 73
     1
 72
     2
 10
-243.8719370428802
 20
-231.708421184799
 40
0.7717997786796421
 50
321.8795802028467
 51
398.1204197971583
 73
     1
 97
        4
330
1F2
330
1F1
330
1EC
330
1EB
 75
     1
 76
     0
 52
45.0
 41
0.1
 77
     0
 78
     1
 53
45.0
 43
0.0
 44
0.0
 45
-0.0707106781186548
 46
0.0707106781186548
 79
     0
 98
        1
 10
0.0
 20
0.0
  0
HATCH
  5
249
330
82
100
AcDbEntity
  8
1
  6
Continuous
 62
     2
100
AcDbHatch
 10
0.0
 20
0.0
 30
0.0
210
0.0
220
0.0
230
1.0
  2
_USER
 70
     0
 71
     1
 91
        2
 92
        1
 93
       12
 72
     1
 10
-240.7381492929183
 20
-230.8795300283361
 11
-242.0740771193459
 21
-230.8795300283361
 72
     1
 10
-242.0740771193459
 20
-230.8795300283361
 11
-242.0740771193459
 21
-231.3594143820778
 72
     1
 10
-242.0740771193459
 20
-231.3594143820778
 11
-240.7381492929183
 21
-231.3594143820778
 72
     1
 10
-240.7381492929183
 20
-231.3594143820778
 11
-240.7381492929183
 21
-232.0574279875201
 72
     1
 10
-240.7381492929183
 20
-232.0574279875201
 11
-242.0740771193459
 21
-232.0574279875201
 72
     1
 10
-242.0740771193459
 20
-232.0574279875201
 11
-242.0740771193459
 21
-232.5373123412618
 72
     1
 10
-242.0740771193459
 20
-232.5373123412618
 11
-240.7381492929183
 21
-232.5373123412618
 72
     1
 10
-240.7381492929183
 20
-232.5373123412618
 11
-240.7381492929183
 21
-233.2353259467043
 72
     1
 10
-240.7381492929183
 20
-233.2353259467043
 11
-243.8884690166993
 21
-233.2353259467043
 72
     2
 10
-243.8884690166993
 20
-231.708421184799
 40
1.526904761905882
 50
90.0
 51
270.0
 73
     0
 72
     1
 10
-243.8884690166993
 20
-230.1815164228931
 11
-240.7381492929183
 21
-230.1815164228931
 72
     1
 10
-240.7381492929183
 20
-230.1815164228931
 11
-240.7381492929183
 21
-230.8795300283361
 97
       12
330
1A6
330
1F8
330
1A7
330
1A8
330
1A9
330
1AA
330
187
330
186
330
185
330
184
330
1AB
330
1A5
 92
       16
 93
        4
 72
     2
 10
-243.6721970065341
 20
-231.5516900066785
 40
0.5179085730136159
 50
38.12041979713558
 51
141.8795802028431
 73
     1
 72
     2
 10
-243.4724569701878
 20
-231.708421184799
 40
0.7717997786796054
 50
141.8795802028365
 51
218.1204197971585
 73
     1
 72
     2
 10
-243.6721970065341
 20
-231.8651523629195
 40
0.5179085730132998
 50
218.120419797147
 51
321.8795802028743
 73
     1
 72
     2
 10
-243.8719370428802
 20
-231.708421184799
 40
0.7717997786796421
 50
321.8795802028467
 51
398.1204197971583
 73
     1
 97
        4
330
1F2
330
1F1
330
1EC
330
1EB
 75
     1
 76
     0
 52
45.0
 41
0.1
 77
     0
 78
     1
 53
45.0
 43
0.0
 44
0.0
 45
-0.0707106781186548
 46
0.0707106781186548
 79
     0
 98
        1
 10
0.0
 20
0.0
  0
HATCH
  5
24A
330
82
100
AcDbEntity
  8
1
  6
Continuous
 62
     2
100
AcDbHatch
 10
0.0
 20
0.0
 30
0.0
210
0.0
220
0.0
230
1.0
  2
_USER
 70
     0
 71
     1
 91
        4
 92
        1
 93
        8
 72
     1
 10
-252.6660763145879
 20
-230.6057610382951
 11
-252.6660763145879
 21
-236.1702718074953
 72
     2
 10
-253.0903209299717
 20
-236.1702718074953
 40
0.4242446153832873
 50
0.0
 51
90.0
 73
     0
 72
     1
 10
-253.0903209299717
 20
-236.5945164228786
 11
-258.5636330206885
 21
-236.5945164228786
 72
     2
 10
-258.5636330206885
 20
-236.1702718074953
 40
0.4242446153829178
 50
90.0
 51
180.0
 73
     0
 72
     1
 10
-258.9878776360714
 20
-236.1702718074953
 11
-258.9878776360714
 21
-230.6057610382951
 72
     2
 10
-258.5636330206885
 20
-230.6057610382951
 40
0.4242446153837989
 50
180.0
 51
270.0
 73
     0
 72
     1
 10
-258.5636330206885
 20
-230.1815164229113
 11
-253.0903209299717
 21
-230.1815164229113
 72
     2
 10
-253.0903209299717
 20
-230.6057610382951
 40
0.4242446153837989
 50
270.0
 51
360.0
 73
     0
 97
        8
330
19A
330
1E8
330
19B
330
1F3
330
198
330
1EA
330
199
330
1E9
 92
       16
 93
        1
 72
     2
 10
-255.944047370171
 20
-232.9246432666506
 40
0.4709789327785074
 50
0.0
 51
360.0
 73
     1
 97
        1
330
20E
 92
       16
 93
        8
 72
     2
 10
-255.3941896574104
 20
-234.033784866619
 40
0.3157169230764706
 50
115.3740086783401
 51
180.0
 73
     1
 72
     1
 10
-255.7099065804871
 20
-234.033784866619
 11
-255.7099065804871
 21
-234.6156362733141
 72
     2
 10
-255.3941896574104
 20
-234.6156362733141
 40
0.3157169230766783
 50
180.0
 51
269.8110329574695
 73
     1
 72
     2
 10
-255.3885735221003
 20
-232.9128013257451
 40
2.018561131933237
 50
269.8110329575858
 51
450.1889670424142
 73
     1
 72
     2
 10
-255.3941896574104
 20
-231.209966378176
 40
0.3157169230760707
 50
90.18896704253045
 51
180.0
 73
     1
 72
     1
 10
-255.7099065804871
 20
-231.209966378176
 11
-255.7099065804871
 21
-231.8155016666828
 72
     2
 10
-255.3941896574104
 20
-231.8155016666828
 40
0.3157169230766783
 50
180.0
 51
244.6259913216621
 73
     1
 72
     2
 10
-255.9202323554982
 20
-232.9246432666506
 40
0.911848150144459
 50
295.3740086781925
 51
424.6259913218236
 73
     0
 97
        8
330
200
330
161
330
1FD
330
1FE
330
1DC
330
160
330
1FF
330
1DB
 92
       16
 93
       12
 72
     2
 10
-257.969738343942
 20
-235.566243944245
 40
0.3157169230756836
 50
180.0
 51
270.0
 73
     1
 72
     1
 10
-257.969738343942
 20
-235.8819608673217
 11
-256.4939050829324
 21
-235.8819608673217
 72
     2
 10
-256.4939050829324
 20
-235.566243944245
 40
0.3157169230767067
 50
270.0
 51
360.0
 73
     1
 72
     1
 10
-256.1781881598558
 20
-235.566243944245
 11
-256.1781881598558
 21
-234.0354730127134
 72
     2
 10
-256.4939050829324
 20
-234.0354730127134
 40
0.315716923076593
 50
0.0
 51
64.80558935146249
 73
     1
 72
     2
 10
-255.9713206353574
 20
-232.9246432666506
 40
0.9118975235576147
 50
115.1944106485131
 51
244.8055893514718
 73
     0
 72
     2
 10
-256.4939050829324
 20
-231.8138135205884
 40
0.3157169230761203
 50
295.1944106485397
 51
360.0
 73
     1
 72
     1
 10
-256.1781881598558
 20
-231.8138135205884
 11
-256.1781881598558
 21
-231.2097889015279
 72
     2
 10
-256.4939050829324
 20
-231.2097889015279
 40
0.315716923076593
 50
0.0
 51
90.0
 73
     1
 72
     1
 10
-256.4939050829324
 20
-230.8940719784517
 11
-257.969738343942
 21
-230.8940719784517
 72
     2
 10
-257.969738343942
 20
-231.2097889015279
 40
0.3157169230761951
 50
90.0
 51
180.0
 73
     1
 72
     1
 10
-258.2854552670177
 20
-231.2097889015279
 11
-258.2854552670177
 21
-235.566243944245
 97
       12
330
1E4
330
19C
330
1E7
330
197
330
1F4
330
1F5
330
1E6
330
196
330
1E5
330
195
330
1F6
330
194
 75
     1
 76
     0
 52
45.0
 41
0.1
 77
     0
 78
     1
 53
45.0
 43
0.0
 44
0.0
 45
-0.0707106781186548
 46
0.0707106781186548
 79
     0
 98
        1
 10
0.0
 20
0.0
  0
HATCH
  5
24B
330
82
100
AcDbEntity
  8
1
  6
Continuous
 62
     2
100
AcDbHatch
 10
0.0
 20
0.0
 30
0.0
210
0.0
220
0.0
230
1.0
  2
_USER
 70
     0
 71
     1
 91
        4
 92
        1
 93
        8
 72
     1
 10
-252.6660763145879
 20
-230.6057610382951
 11
-252.6660763145879
 21
-236.1702718074953
 72
     2
 10
-253.0903209299717
 20
-236.1702718074953
 40
0.4242446153832873
 50
0.0
 51
90.0
 73
     0
 72
     1
 10
-253.0903209299717
 20
-236.5945164228786
 11
-258.5636330206885
 21
-236.5945164228786
 72
     2
 10
-258.5636330206885
 20
-236.1702718074953
 40
0.4242446153829178
 50
90.0
 51
180.0
 73
     0
 72
     1
 10
-258.9878776360714
 20
-236.1702718074953
 11
-258.9878776360714
 21
-230.6057610382951
 72
     2
 10
-258.5636330206885
 20
-230.6057610382951
 40
0.4242446153837989
 50
180.0
 51
270.0
 73
     0
 72
     1
 10
-258.5636330206885
 20
-230.1815164229113
 11
-253.0903209299717
 21
-230.1815164229113
 72
     2
 10
-253.0903209299717
 20
-230.6057610382951
 40
0.4242446153837989
 50
270.0
 51
360.0
 73
     0
 97
        8
330
19A
330
1E8
330
19B
330
1F3
330
198
330
1EA
330
199
330
1E9
 92
       16
 93
        1
 72
     2
 10
-255.944047370171
 20
-232.9246432666506
 40
0.4709789327785074
 50
0.0
 51
360.0
 73
     1
 97
        1
330
20E
 92
       16
 93
        8
 72
     2
 10
-255.3941896574104
 20
-234.033784866619
 40
0.3157169230764706
 50
115.3740086783401
 51
180.0
 73
     1
 72
     1
 10
-255.7099065804871
 20
-234.033784866619
 11
-255.7099065804871
 21
-234.6156362733141
 72
     2
 10
-255.3941896574104
 20
-234.6156362733141
 40
0.3157169230766783
 50
180.0
 51
269.8110329574695
 73
     1
 72
     2
 10
-255.3885735221003
 20
-232.9128013257451
 40
2.018561131933237
 50
269.8110329575858
 51
450.1889670424142
 73
     1
 72
     2
 10
-255.3941896574104
 20
-231.209966378176
 40
0.3157169230760707
 50
90.18896704253045
 51
180.0
 73
     1
 72
     1
 10
-255.7099065804871
 20
-231.209966378176
 11
-255.7099065804871
 21
-231.8155016666828
 72
     2
 10
-255.3941896574104
 20
-231.8155016666828
 40
0.3157169230766783
 50
180.0
 51
244.6259913216621
 73
     1
 72
     2
 10
-255.9202323554982
 20
-232.9246432666506
 40
0.911848150144459
 50
295.3740086781925
 51
424.6259913218236
 73
     0
 97
        8
330
200
330
161
330
1FD
330
1FE
330
1DC
330
160
330
1FF
330
1DB
 92
       16
 93
       12
 72
     2
 10
-257.969738343942
 20
-235.566243944245
 40
0.3157169230756836
 50
180.0
 51
270.0
 73
     1
 72
     1
 10
-257.969738343942
 20
-235.8819608673217
 11
-256.4939050829324
 21
-235.8819608673217
 72
     2
 10
-256.4939050829324
 20
-235.566243944245
 40
0.3157169230767067
 50
270.0
 51
360.0
 73
     1
 72
     1
 10
-256.1781881598558
 20
-235.566243944245
 11
-256.1781881598558
 21
-234.0354730127134
 72
     2
 10
-256.4939050829324
 20
-234.0354730127134
 40
0.315716923076593
 50
0.0
 51
64.80558935146249
 73
     1
 72
     2
 10
-255.9713206353574
 20
-232.9246432666506
 40
0.9118975235576147
 50
115.1944106485131
 51
244.8055893514718
 73
     0
 72
     2
 10
-256.4939050829324
 20
-231.8138135205884
 40
0.3157169230761203
 50
295.1944106485397
 51
360.0
 73
     1
 72
     1
 10
-256.1781881598558
 20
-231.8138135205884
 11
-256.1781881598558
 21
-231.2097889015279
 72
     2
 10
-256.4939050829324
 20
-231.2097889015279
 40
0.315716923076593
 50
0.0
 51
90.0
 73
     1
 72
     1
 10
-256.4939050829324
 20
-230.8940719784517
 11
-257.969738343942
 21
-230.8940719784517
 72
     2
 10
-257.969738343942
 20
-231.2097889015279
 40
0.3157169230761951
 50
90.0
 51
180.0
 73
     1
 72
     1
 10
-258.2854552670177
 20
-231.2097889015279
 11
-258.2854552670177
 21
-235.566243944245
 97
       12
330
1E4
330
19C
330
1E7
330
197
330
1F4
330
1F5
330
1E6
330
196
330
1E5
330
195
330
1F6
330
194
 75
     1
 76
     0
 52
45.0
 41
0.1
 77
     0
 78
     1
 53
45.0
 43
0.0
 44
0.0
 45
-0.0707106781186548
 46
0.0707106781186548
 79
     0
 98
        1
 10
0.0
 20
0.0
  0
HATCH
  5
24C
330
82
100
AcDbEntity
  8
1
  6
Continuous
 62
     2
100
AcDbHatch
 10
0.0
 20
0.0
 30
0.0
210
0.0
220
0.0
230
1.0
  2
_USER
 70
     0
 71
     1
 91
        1
 92
        1
 93
       18
 72
     1
 10
-231.0765284053668
 20
-234.3259722051911
 11
-231.8876274428402
 21
-234.3259722051911
 72
     1
 10
-231.8876274428402
 20
-234.3259722051911
 11
-231.8876274428402
 21
-236.5945164228786
 72
     1
 10
-231.8876274428402
 20
-236.5945164228786
 11
-233.0804201450079
 21
-236.5945164228786
 72
     1
 10
-233.0804201450079
 20
-236.5945164228786
 11
-233.0804201450079
 21
-234.3259722051911
 72
     1
 10
-233.0804201450079
 20
-234.3259722051911
 11
-234.184059444576
 21
-234.3259722051911
 72
     2
 10
-234.184059444576
 20
-235.2804952120172
 40
0.9545230068260935
 50
90.0
 51
109.3371432194385
 73
     1
 72
     2
 10
-234.3307294426797
 20
-234.8625402316343
 40
0.5115800601943621
 50
109.3371432194974
 51
151.478526742427
 73
     1
 72
     2
 10
-233.9533721845984
 20
-235.0676116609733
 40
0.9410597353348924
 50
151.4785267423624
 51
208.5214732576695
 73
     1
 72
     2
 10
-234.3307294426797
 20
-235.2726830903118
 40
0.5115800601960965
 50
208.521473257682
 51
246.6277221118478
 73
     1
 72
     2
 10
-234.1742894099766
 20
-234.9106910716018
 40
0.9059297849852688
 50
246.6277221118199
 51
288.4480761180817
 73
     1
 72
     2
 10
-234.5924571436385
 20
-233.6571452955652
 40
2.227384008972773
 50
288.4480761181333
 51
301.9309089499394
 73
     1
 72
     1
 10
-233.4144021016146
 20
-235.547496014715
 11
-233.4144021016146
 21
-236.4200130215183
 72
     2
 10
-234.7503300187314
 20
-231.7549307157169
 40
4.852596863498833
 50
74.02000874166028
 51
84.84185523036264
 73
     0
 72
     2
 10
-234.4614739239955
 20
-234.9548212989385
 40
1.639695123940531
 50
84.8418552303238
 51
164.9381082228996
 73
     0
 72
     2
 10
-234.8806017674571
 20
-235.0676116609733
 40
1.205656168393085
 50
164.9381082229052
 51
195.0618917770962
 73
     0
 72
     2
 10
-234.4614739239955
 20
-235.1804020230082
 40
1.639695123940214
 50
195.0618917771043
 51
270.0
 73
     0
 72
     1
 10
-234.4614739239955
 20
-233.540706899068
 11
-231.0765284053668
 21
-233.5407068990675
 72
     1
 10
-231.0765284053668
 20
-233.5407068990675
 11
-231.0765284053668
 21
-234.3259722051911
 97
       18
330
163
330
1F9
330
1FA
330
1E2
330
1E1
330
1C7
330
1E0
330
1DF
330
1FB
330
1DE
330
1FC
330
1DD
330
1C8
330
162
330
167
330
166
330
165
330
164
 75
     1
 76
     0
 52
45.0
 41
0.1
 77
     0
 78
     1
 53
45.0
 43
0.0
 44
0.0
 45
-0.0707106781186548
 46
0.0707106781186548
 79
     0
 98
        1
 10
0.0
 20
0.0
  0
HATCH
  5
24D
330
82
100
AcDbEntity
  8
1
  6
Continuous
 62
     2
100
AcDbHatch
 10
0.0
 20
0.0
 30
0.0
210
0.0
220
0.0
230
1.0
  2
_USER
 70
     0
 71
     1
 91
        1
 92
        1
 93
       18
 72
     1
 10
-231.0765284053668
 20
-234.3259722051911
 11
-231.8876274428402
 21
-234.3259722051911
 72
     1
 10
-231.8876274428402
 20
-234.3259722051911
 11
-231.8876274428402
 21
-236.5945164228786
 72
     1
 10
-231.8876274428402
 20
-236.5945164228786
 11
-233.0804201450079
 21
-236.5945164228786
 72
     1
 10
-233.0804201450079
 20
-236.5945164228786
 11
-233.0804201450079
 21
-234.3259722051911
 72
     1
 10
-233.0804201450079
 20
-234.3259722051911
 11
-234.184059444576
 21
-234.3259722051911
 72
     2
 10
-234.184059444576
 20
-235.2804952120172
 40
0.9545230068260935
 50
90.0
 51
109.3371432194385
 73
     1
 72
     2
 10
-234.3307294426797
 20
-234.8625402316343
 40
0.5115800601943621
 50
109.3371432194974
 51
151.478526742427
 73
     1
 72
     2
 10
-233.9533721845984
 20
-235.0676116609733
 40
0.9410597353348924
 50
151.4785267423624
 51
208.5214732576695
 73
     1
 72
     2
 10
-234.3307294426797
 20
-235.2726830903118
 40
0.5115800601960965
 50
208.521473257682
 51
246.6277221118478
 73
     1
 72
     2
 10
-234.1742894099766
 20
-234.9106910716018
 40
0.9059297849852688
 50
246.6277221118199
 51
288.4480761180817
 73
     1
 72
     2
 10
-234.5924571436385
 20
-233.6571452955652
 40
2.227384008972773
 50
288.4480761181333
 51
301.9309089499394
 73
     1
 72
     1
 10
-233.4144021016146
 20
-235.547496014715
 11
-233.4144021016146
 21
-236.4200130215183
 72
     2
 10
-234.7503300187314
 20
-231.7549307157169
 40
4.852596863498833
 50
74.02000874166028
 51
84.84185523036264
 73
     0
 72
     2
 10
-234.4614739239955
 20
-234.9548212989385
 40
1.639695123940531
 50
84.8418552303238
 51
164.9381082228996
 73
     0
 72
     2
 10
-234.8806017674571
 20
-235.0676116609733
 40
1.205656168393085
 50
164.9381082229052
 51
195.0618917770962
 73
     0
 72
     2
 10
-234.4614739239955
 20
-235.1804020230082
 40
1.639695123940214
 50
195.0618917771043
 51
270.0
 73
     0
 72
     1
 10
-234.4614739239955
 20
-233.540706899068
 11
-231.0765284053668
 21
-233.5407068990675
 72
     1
 10
-231.0765284053668
 20
-233.5407068990675
 11
-231.0765284053668
 21
-234.3259722051911
 97
       18
330
163
330
1F9
330
1FA
330
1E2
330
1E1
330
1C7
330
1E0
330
1DF
330
1FB
330
1DE
330
1FC
330
1DD
330
1C8
330
162
330
167
330
166
330
165
330
164
 75
     1
 76
     0
 52
45.0
 41
0.1
 77
     0
 78
     1
 53
45.0
 43
0.0
 44
0.0
 45
-0.0707106781186548
 46
0.0707106781186548
 79
     0
 98
        1
 10
0.0
 20
0.0
  0
HATCH
  5
24E
330
82
100
AcDbEntity
  8
1
  6
Continuous
 62
     2
100
AcDbHatch
 10
0.0
 20
0.0
 30
0.0
210
0.0
220
0.0
230
1.0
  2
_USER
 70
     0
 71
     1
 91
        1
 92
        1
 93
       14
 72
     2
 10
-250.5641754032484
 20
-235.1804020230082
 40
1.639695123940499
 50
84.84185523036533
 51
164.9381082228864
 73
     1
 72
     2
 10
-250.9833032467112
 20
-235.0676116609733
 40
1.205656168390971
 50
164.9381082228768
 51
195.0618917770945
 73
     1
 72
     2
 10
-250.5641754032484
 20
-234.9548212989385
 40
1.639695123939387
 50
195.0618917770896
 51
275.1581447696365
 73
     1
 72
     2
 10
-250.8530314979844
 20
-231.7549307157169
 40
4.852596863498138
 50
275.1581447696249
 51
285.9799912583526
 73
     1
 72
     1
 10
-249.5171035808666
 20
-236.4200130215178
 11
-249.5171035808666
 21
-235.5474960147145
 72
     2
 10
-250.6951586228914
 20
-233.6571452955647
 40
2.227384008972629
 50
58.06909105004141
 51
71.5519238818686
 73
     0
 72
     2
 10
-250.2769908892306
 20
-234.9106910716018
 40
0.9059297849849192
 50
71.55192388184666
 51
113.372277888129
 73
     0
 72
     2
 10
-250.4334309219327
 20
-235.2726830903118
 40
0.5115800601948034
 50
113.3722778881639
 51
151.4785267423044
 73
     0
 72
     2
 10
-250.0560736638524
 20
-235.0676116609733
 40
0.9410597353332545
 50
151.4785267422943
 51
208.5214732577331
 73
     0
 72
     2
 10
-250.4334309219327
 20
-234.8625402316343
 40
0.511580060194844
 50
208.5214732576956
 51
246.6277221118096
 73
     0
 72
     2
 10
-250.2769908892306
 20
-235.2245322503449
 40
0.9059297849852149
 50
246.627722111871
 51
288.4480761181431
 73
     0
 72
     2
 10
-250.6951586228914
 20
-236.4780780263815
 40
2.227384008973432
 50
288.4480761181314
 51
301.9309089499574
 73
     0
 72
     1
 10
-249.5171035808666
 20
-234.5877273072316
 11
-249.5171035808666
 21
-233.7152103004283
 72
     2
 10
-250.8530314979844
 20
-238.3802926062292
 40
4.852596863498068
 50
74.02000874164739
 51
84.84185523037506
 73
     1
 97
       14
330
201
330
202
330
203
330
204
330
1C9
330
1DA
330
1D9
330
1D8
330
205
330
206
330
1D7
330
207
330
1CA
330
1D6
 75
     1
 76
     0
 52
45.0
 41
0.1
 77
     0
 78
     1
 53
45.0
 43
0.0
 44
0.0
 45
-0.0707106781186548
 46
0.0707106781186548
 79
     0
 98
        1
 10
0.0
 20
0.0
  0
HATCH
  5
24F
330
82
100
AcDbEntity
  8
1
  6
Continuous
 62
     2
100
AcDbHatch
 10
0.0
 20
0.0
 30
0.0
210
0.0
220
0.0
230
1.0
  2
_USER
 70
     0
 71
     1
 91
        1
 92
        1
 93
       14
 72
     2
 10
-250.5641754032484
 20
-235.1804020230082
 40
1.639695123940499
 50
84.84185523036533
 51
164.9381082228864
 73
     1
 72
     2
 10
-250.9833032467112
 20
-235.0676116609733
 40
1.205656168390971
 50
164.9381082228768
 51
195.0618917770945
 73
     1
 72
     2
 10
-250.5641754032484
 20
-234.9548212989385
 40
1.639695123939387
 50
195.0618917770896
 51
275.1581447696365
 73
     1
 72
     2
 10
-250.8530314979844
 20
-231.7549307157169
 40
4.852596863498138
 50
275.1581447696249
 51
285.9799912583526
 73
     1
 72
     1
 10
-249.5171035808666
 20
-236.4200130215178
 11
-249.5171035808666
 21
-235.5474960147145
 72
     2
 10
-250.6951586228914
 20
-233.6571452955647
 40
2.227384008972629
 50
58.06909105004141
 51
71.5519238818686
 73
     0
 72
     2
 10
-250.2769908892306
 20
-234.9106910716018
 40
0.9059297849849192
 50
71.55192388184666
 51
113.372277888129
 73
     0
 72
     2
 10
-250.4334309219327
 20
-235.2726830903118
 40
0.5115800601948034
 50
113.3722778881639
 51
151.4785267423044
 73
     0
 72
     2
 10
-250.0560736638524
 20
-235.0676116609733
 40
0.9410597353332545
 50
151.4785267422943
 51
208.5214732577331
 73
     0
 72
     2
 10
-250.4334309219327
 20
-234.8625402316343
 40
0.511580060194844
 50
208.5214732576956
 51
246.6277221118096
 73
     0
 72
     2
 10
-250.2769908892306
 20
-235.2245322503449
 40
0.9059297849852149
 50
246.627722111871
 51
288.4480761181431
 73
     0
 72
     2
 10
-250.6951586228914
 20
-236.4780780263815
 40
2.227384008973432
 50
288.4480761181314
 51
301.9309089499574
 73
     0
 72
     1
 10
-249.5171035808666
 20
-234.5877273072316
 11
-249.5171035808666
 21
-233.7152103004283
 72
     2
 10
-250.8530314979844
 20
-238.3802926062292
 40
4.852596863498068
 50
74.02000874164739
 51
84.84185523037506
 73
     1
 97
       14
330
201
330
202
330
203
330
204
330
1C9
330
1DA
330
1D9
330
1D8
330
205
330
206
330
1D7
330
207
330
1CA
330
1D6
 75
     1
 76
     0
 52
45.0
 41
0.1
 77
     0
 78
     1
 53
45.0
 43
0.0
 44
0.0
 45
-0.0707106781186548
 46
0.0707106781186548
 79
     0
 98
        1
 10
0.0
 20
0.0
  0
ENDBLK
  5
84
330
82
100
AcDbEntity
  8
0
100
AcDbBlockEnd
  0
BLOCK
  5
86
330
85
100
AcDbEntity
  8
0
100
AcDbBlockBegin
  2
_punkt
 70
     0
 10
-133.6797279958839
 20
-243.8880164228949
 30
0.0
  3
_punkt
  1

  0
LINE
  5
250
330
85
100
AcDbEntity
  8
1
  6
Continuous
 62
     2
100
AcDbLine
 10
-133.6797279958839
 20
-243.8880164228949
 30
0.0
 11
-128.679727995885
 21
-243.8880164228949
 31
0.0
  0
LINE
  5
251
330
85
100
AcDbEntity
  8
1
  6
Continuous
 62
     2
100
AcDbLine
 10
-133.6797279958839
 20
-243.8880164228949
 30
0.0
 11
-133.6797279958839
 21
-248.8880164228951
 31
0.0
  0
ENDBLK
  5
87
330
85
100
AcDbEntity
  8
0
100
AcDbBlockEnd
  0
BLOCK
  5
8B
330
88
100
AcDbEntity
  8
0
100
AcDbBlockBegin
  2
A4I_CS
 70
     0
 10
-133.6797279958839
 20
-248.8880164228951
 30
0.0
  3
A4I_CS
  1

  0
INSERT
  5
89
330
88
100
AcDbEntity
  8
1
100
AcDbBlockReference
  2
_rahmen
 10
-133.6797279958839
 20
-248.8880164228951
 30
0.0
  0
INSERT
  5
8A
330
88
100
AcDbEntity
  8
1
100
AcDbBlockReference
  2
_punkt
 10
-133.6797279958839
 20
-243.8880164228949
 30
0.0
  0
ENDBLK
  5
8C
330
88
100
AcDbEntity
  8
0
100
AcDbBlockEnd
  0
BLOCK
  5
94
330
8D
100
AcDbEntity
  8
0
100
AcDbBlockBegin
  2
1
 70
     0
 10
0.0
 20
0.0
 30
0.0
  3
1
  1

  0
INSERT
  5
8E
330
8D
100
AcDbEntity
  8
0
100
AcDbBlockReference
  2
Drfsicht1
 10
-317.0
 20
-168.1500000953674
 30
0.0
  0
INSERT
  5
8F
330
8D
100
AcDbEntity
  8
0
100
AcDbBlockReference
  2
Rckans1
 10
-181.4999999999999
 20
-115.00000000001
 30
0.0
  0
INSERT
  5
90
330
8D
100
AcDbEntity
  8
0
100
AcDbBlockReference
  2
SA_Links1
 10
-252.25
 20
-115.00000000001
 30
0.0
  0
INSERT
  5
91
330
8D
100
AcDbEntity
  8
0
100
AcDbBlockReference
  2
SA_Rechts1
 10
-374.75
 20
-115.00000000001
 30
0.0
  0
INSERT
  5
92
330
8D
100
AcDbEntity
  8
0
100
AcDbBlockReference
  2
Vordans1
 10
-317.0
 20
-115.00000000001
 30
0.0
  0
INSERT
  5
93
330
8D
100
AcDbEntity
  8
0
100
AcDbBlockReference
  2
A4I_CS
 10
-133.6797279958839
 20
-248.8880164228951
 30
0.0
  0
ENDBLK
  5
95
330
8D
100
AcDbEntity
  8
0
100
AcDbBlockEnd
  0
BLOCK
  5
A6
330
9D
100
AcDbEntity
  8
0
100
AcDbBlockBegin
  2
*D21
 70
     1
 10
0.0
 20
0.0
 30
0.0
  3
*D21
  1

  0
LINE
  5
9E
330
9D
100
AcDbEntity
  8
1
  6
Continuous
 62
     2
100
AcDbLine
 10
-350.0000007334296
 20
-156.4000000953674
 30
0.0
 11
-350.0000007334296
 21
-163.4000000953674
 31
0.0
  0
LINE
  5
9F
330
9D
100
AcDbEntity
  8
1
  6
Continuous
 62
     2
100
AcDbLine
 10
-350.0000007334296
 20
-163.4000000953674
 30
0.0
 11
-350.0000007334296
 21
-172.9000000953674
 31
0.0
  0
LINE
  5
A0
330
9D
100
AcDbEntity
  8
1
  6
Continuous
 62
     2
100
AcDbLine
 10
-350.0000007334296
 20
-172.9000000953674
 30
0.0
 11
-350.0000007334296
 21
-179.9000000953674
 31
0.0
  0
LINE
  5
A1
330
9D
100
AcDbEntity
  8
1
  6
Continuous
 62
     2
100
AcDbLine
 10
-340.0000007334296
 20
-163.4000000953674
 30
0.0
 11
-351.5000007334296
 21
-163.4000000953674
 31
0.0
  0
LINE
  5
A2
330
9D
100
AcDbEntity
  8
1
  6
Continuous
 62
     2
100
AcDbLine
 10
-340.0000007334296
 20
-172.9000000953674
 30
0.0
 11
-351.5000007334296
 21
-172.9000000953674
 31
0.0
  0
SOLID
  5
A3
330
9D
100
AcDbEntity
  8
1
 62
     2
100
AcDbTrace
 10
-350.4607844749855
 20
-159.9000000953674
 30
0.0
 11
-349.5392169918737
 21
-159.9000000953674
 31
0.0
 12
-350.0000007334296
 22
-163.4000000953674
 32
0.0
 13
-350.0000007334296
 23
-163.4000000953674
 33
0.0
  0
SOLID
  5
A4
330
9D
100
AcDbEntity
  8
1
 62
     2
100
AcDbTrace
 10
-349.5392169918737
 20
-176.4000000953674
 30
0.0
 11
-350.4607844749855
 21
-176.4000000953674
 31
0.0
 12
-350.0000007334296
 22
-172.9000000953674
 32
0.0
 13
-350.0000007334296
 23
-172.9000000953674
 33
0.0
  0
MTEXT
  5
A5
330
9D
100
AcDbEntity
  8
1
 62
     3
100
AcDbMText
 10
-351.8500007334296
 20
-172.088791129947
 30
0.0
 40
3.5
 41
0.0
 71
     7
 72
     1
  1
9,5
  7
CONVERTER_11
 11
0.0
 21
1.0
 31
0.0
 73
     1
 44
0.60024009603842
  0
ENDBLK
  5
A7
330
9D
100
AcDbEntity
  8
0
100
AcDbBlockEnd
  0
BLOCK
  5
10A
330
103
100
AcDbEntity
  8
0
100
AcDbBlockBegin
  2
*D22
 70
     1
 10
0.0
 20
0.0
 30
0.0
  3
*D22
  1

  0
LINE
  5
104
330
103
100
AcDbEntity
  8
1
  6
Continuous
 62
     2
100
AcDbLine
 10
-340.0000007334295
 20
-84.8732838042721
 30
0.0
 11
-294.0000007334295
 21
-84.8732838042721
 31
0.0
  0
LINE
  5
105
330
103
100
AcDbEntity
  8
1
  6
Continuous
 62
     2
100
AcDbLine
 10
-340.0000007334295
 20
-96.59999990465255
 30
0.0
 11
-340.0000007334295
 21
-83.3732838042721
 31
0.0
  0
LINE
  5
106
330
103
100
AcDbEntity
  8
1
  6
Continuous
 62
     2
100
AcDbLine
 10
-294.0000007334295
 20
-96.59999990465255
 30
0.0
 11
-294.0000007334295
 21
-83.3732838042721
 31
0.0
  0
SOLID
  5
107
330
103
100
AcDbEntity
  8
1
 62
     2
100
AcDbTrace
 10
-336.5000007334295
 20
-84.41250006271622
 30
0.0
 11
-336.5000007334295
 21
-85.33406754582799
 31
0.0
 12
-340.0000007334295
 22
-84.8732838042721
 32
0.0
 13
-340.0000007334295
 23
-84.8732838042721
 33
0.0
  0
SOLID
  5
108
330
103
100
AcDbEntity
  8
1
 62
     2
100
AcDbTrace
 10
-297.5000007334295
 20
-85.33406754582799
 30
0.0
 11
-297.5000007334295
 21
-84.41250006271622
 31
0.0
 12
-294.0000007334295
 22
-84.8732838042721
 32
0.0
 13
-294.0000007334295
 23
-84.8732838042721
 33
0.0
  0
MTEXT
  5
109
330
103
100
AcDbEntity
  8
1
 62
     3
100
AcDbMText
 10
-317.787044500895
 20
-83.3732838042721
 30
0.0
 40
3.5
 41
0.0
 71
     7
 72
     1
  1
46
  7
CONVERTER_11
 11
0.9999999999970619
 21
2.424068405545306E-6
 31
0.0
 73
     1
 44
0.60024009603842
  0
ENDBLK
  5
10B
330
103
100
AcDbEntity
  8
0
100
AcDbBlockEnd
  0
BLOCK
  5
115
330
10E
100
AcDbEntity
  8
0
100
AcDbBlockBegin
  2
*D23
 70
     1
 10
0.0
 20
0.0
 30
0.0
  3
*D23
  1

  0
LINE
  5
10F
330
10E
100
AcDbEntity
  8
1
  6
Continuous
 62
     2
100
AcDbLine
 10
-350.0000007334295
 20
-96.59999990465255
 30
0.0
 11
-350.0000007334295
 21
-133.3999999046525
 31
0.0
  0
LINE
  5
110
330
10E
100
AcDbEntity
  8
1
  6
Continuous
 62
     2
100
AcDbLine
 10
-340.0000007334295
 20
-96.59999990465255
 30
0.0
 11
-351.5000007334295
 21
-96.59999990465255
 31
0.0
  0
LINE
  5
111
330
10E
100
AcDbEntity
  8
1
  6
Continuous
 62
     2
100
AcDbLine
 10
-319.8500007334295
 20
-133.3999999046525
 30
0.0
 11
-351.5000007334295
 21
-133.3999999046525
 31
0.0
  0
SOLID
  5
112
330
10E
100
AcDbEntity
  8
1
 62
     2
100
AcDbTrace
 10
-349.5392169918736
 20
-100.0999999046525
 30
0.0
 11
-350.4607844749854
 21
-100.0999999046525
 31
0.0
 12
-350.0000007334295
 22
-96.59999990465255
 32
0.0
 13
-350.0000007334295
 23
-96.59999990465255
 33
0.0
  0
SOLID
  5
113
330
10E
100
AcDbEntity
  8
1
 62
     2
100
AcDbTrace
 10
-350.4607844749854
 20
-129.8999999046525
 30
0.0
 11
-349.5392169918736
 21
-129.8999999046525
 31
0.0
 12
-350.0000007334295
 22
-133.3999999046525
 32
0.0
 13
-350.0000007334295
 23
-133.3999999046525
 33
0.0
  0
MTEXT
  5
114
330
10E
100
AcDbEntity
  8
1
 62
     3
100
AcDbMText
 10
-351.8500007334295
 20
-121.127448530301
 30
0.0
 40
3.5
 41
0.0
 71
     7
 72
     1
  1
36,8
  7
CONVERTER_11
 11
0.0
 21
1.0
 31
0.0
 73
     1
 44
0.60024009603842
  0
ENDBLK
  5
116
330
10E
100
AcDbEntity
  8
0
100
AcDbBlockEnd
  0
ENDSEC
  0
SECTION
  2
ENTITIES
  0
INSERT
  5
96
330
1F
100
AcDbEntity
  8
1
100
AcDbBlockReference
  2
1
 10
0.0
 20
0.0
 30
0.0
  0
ENDSEC
  0
SECTION
  2
OBJECTS
  0
DICTIONARY
  5
C
330
0
100
AcDbDictionary
281
     1
  3
ACAD_GROUP
350
D
  3
ACAD_LAYOUT
350
1A
  3
ACAD_MATERIAL
350
3B
  3
ACAD_MLEADERSTYLE
350
279
  3
ACAD_MLINESTYLE
350
17
  3
ACAD_PLOTSETTINGS
350
19
  3
ACAD_PLOTSTYLENAME
350
E
  3
ACAD_TABLESTYLE
350
278
  3
ACAD_VISUALSTYLE
350
2A
  0
DICTIONARY
  5
D
102
{ACAD_REACTORS
330
C
102
}
330
C
100
AcDbDictionary
281
     1
  0
DICTIONARY
  5
1A
102
{ACAD_REACTORS
330
C
102
}
330
C
100
AcDbDictionary
281
     1
  3
Layout1
350
1E
  3
Layout2
350
26
  3
Model
350
22
  0
DICTIONARY
  5
3B
102
{ACAD_REACTORS
330
C
102
}
330
C
100
AcDbDictionary
281
     1
  3
ByBlock
350
3D
  3
ByLayer
350
3C
  3
Global
350
3E
  0
DICTIONARY
  5
279
102
{ACAD_REACTORS
330
C
102
}
330
C
100
AcDbDictionary
281
     1
  0
DICTIONARY
  5
17
102
{ACAD_REACTORS
330
C
102
}
330
C
100
AcDbDictionary
281
     1
  3
Standard
350
18
  0
DICTIONARY
  5
19
102
{ACAD_REACTORS
330
C
102
}
330
C
100
AcDbDictionary
281
     1
  0
ACDBDICTIONARYWDFLT
  5
E
102
{ACAD_REACTORS
330
C
102
}
330
C
100
AcDbDictionary
281
     1
  3
Normal
350
F
100
AcDbDictionaryWithDefault
340
F
  0
DICTIONARY
  5
278
102
{ACAD_REACTORS
330
C
102
}
330
C
100
AcDbDictionary
281
     1
  0
DICTIONARY
  5
2A
102
{ACAD_REACTORS
330
C
102
}
330
C
100
AcDbDictionary
281
     1
  3
2dWireframe
350
2F
  3
3D Hidden
350
31
  3
3dWireframe
350
30
  3
Basic
350
32
  3
Brighten
350
36
  3
ColorChange
350
3A
  3
Conceptual
350
34
  3
Dim
350
35
  3
Facepattern
350
39
  3
Flat
350
2B
  3
FlatWithEdges
350
2C
  3
Gouraud
350
2D
  3
GouraudWithEdges
350
2E
  3
Linepattern
350
38
  3
Realistic
350
33
  3
Thicken
350
37
  0
LAYOUT
  5
1E
102
{ACAD_REACTORS
330
1A
102
}
330
1A
100
AcDbPlotSettings
  1

  2
none_device
  4

  6

 40
0.0
 41
0.0
 42
0.0
 43
0.0
 44
0.0
 45
0.0
 46
0.0
 47
0.0
 48
0.0
 49
0.0
140
0.0
141
0.0
142
1.0
143
1.0
 70
   688
 72
     0
 73
     0
 74
     5
  7

 75
    16
 76
     0
 77
     2
 78
   300
147
1.0
148
0.0
149
0.0
100
AcDbLayout
  1
Layout1
 70
     1
 71
     1
 10
0.0
 20
0.0
 11
12.0
 21
9.0
 12
0.0
 22
0.0
 32
0.0
 14
1.00000000000000E+20
 24
1.00000000000000E+20
 34
1.00000000000000E+20
 15
-1.00000000000000E+20
 25
-1.00000000000000E+20
 35
-1.00000000000000E+20
146
0.0
 13
0.0
 23
0.0
 33
0.0
 16
1.0
 26
0.0
 36
0.0
 17
0.0
 27
1.0
 37
0.0
 76
     0
330
1B
  0
LAYOUT
  5
26
102
{ACAD_REACTORS
330
1A
102
}
330
1A
100
AcDbPlotSettings
  1

  2
none_device
  4

  6

 40
0.0
 41
0.0
 42
0.0
 43
0.0
 44
0.0
 45
0.0
 46
0.0
 47
0.0
 48
0.0
 49
0.0
140
0.0
141
0.0
142
1.0
143
1.0
 70
   688
 72
     0
 73
     0
 74
     5
  7

 75
    16
 76
     0
 77
     2
 78
   300
147
1.0
148
0.0
149
0.0
100
AcDbLayout
  1
Layout2
 70
     1
 71
     2
 10
0.0
 20
0.0
 11
0.0
 21
0.0
 12
0.0
 22
0.0
 32
0.0
 14
0.0
 24
0.0
 34
0.0
 15
0.0
 25
0.0
 35
0.0
146
0.0
 13
0.0
 23
0.0
 33
0.0
 16
1.0
 26
0.0
 36
0.0
 17
0.0
 27
1.0
 37
0.0
 76
     0
330
23
  0
LAYOUT
  5
22
102
{ACAD_REACTORS
330
1A
102
}
330
1A
100
AcDbPlotSettings
  1

  2
none_device
  4

  6

 40
0.0
 41
0.0
 42
0.0
 43
0.0
 44
0.0
 45
0.0
 46
0.0
 47
0.0
 48
0.0
 49
0.0
140
0.0
141
0.0
142
1.0
143
1.0
 70
  1712
 72
     0
 73
     0
 74
     0
  7

 75
     0
 76
     0
 77
     2
 78
   300
147
1.0
148
0.0
149
0.0
100
AcDbLayout
  1
Model
 70
     1
 71
     0
 10
0.0
 20
0.0
 11
12.0
 21
9.0
 12
0.0
 22
0.0
 32
0.0
 14
-425.679727995883
 24
-248.8880164228951
 34
0.0
 15
-128.679727995885
 25
-38.88801642289494
 35
0.0
146
0.0
 13
0.0
 23
0.0
 33
0.0
 16
1.0
 26
0.0
 36
0.0
 17
0.0
 27
1.0
 37
0.0
 76
     0
330
1F
331
29
  0
MATERIAL
  5
3D
102
{ACAD_REACTORS
330
3B
102
}
102
{ACAD_XDICTIONARY
360
274
102
}
330
3B
100
AcDbMaterial
  1
ByBlock
  0
MATERIAL
  5
3C
102
{ACAD_REACTORS
330
3B
102
}
102
{ACAD_XDICTIONARY
360
272
102
}
330
3B
100
AcDbMaterial
  1
ByLayer
  0
MATERIAL
  5
3E
102
{ACAD_REACTORS
330
3B
102
}
102
{ACAD_XDICTIONARY
360
276
102
}
330
3B
100
AcDbMaterial
  1
Global
  0
MLINESTYLE
  5
18
102
{ACAD_REACTORS
330
17
102
}
330
17
100
AcDbMlineStyle
  2
Standard
 70
     0
  3

 62
   256
 51
90.0
 52
90.0
 71
     2
 49
0.5
 62
   256
  6
BYLAYER
 49
-0.5
 62
   256
  6
BYLAYER
  0
ACDBPLACEHOLDER
  5
F
102
{ACAD_REACTORS
330
E
102
}
330
E
  0
VISUALSTYLE
  5
2F
102
{ACAD_REACTORS
330
2A
102
}
102
{ACAD_XDICTIONARY
360
25A
102
}
330
2A
100
AcDbVisualStyle
  2
2dWireframe
 70
     4
 71
     0
 72
     2
 73
     0
 90
        0
 40
-0.6
 41
-30.0
 62
     5
 63
     7
421
 16777215
 74
     1
 91
        4
 64
     7
 65
   257
 75
     1
175
     1
 42
1.0
 92
        0
 66
   257
 43
1.0
 76
     1
 77
     6
 78
     2
 67
     7
 79
     5
170
     0
171
     0
290
     0
174
     0
 93
        1
 44
0.0
173
     0
291
     0
 45
0.0
1001
ACAD
1000
AcDbSavedByObjectVersion
1070
     0
  0
VISUALSTYLE
  5
31
102
{ACAD_REACTORS
330
2A
102
}
102
{ACAD_XDICTIONARY
360
25E
102
}
330
2A
100
AcDbVisualStyle
  2
3D Hidden
 70
     6
 71
     1
 72
     2
 73
     2
 90
        0
 40
-0.6
 41
-30.0
 62
     5
 63
     7
421
 16777215
 74
     2
 91
        2
 64
     7
 65
   257
 75
     2
175
     1
 42
40.0
 92
        0
 66
   257
 43
1.0
 76
     1
 77
     6
 78
     2
 67
     7
 79
     3
170
     0
171
     0
290
     0
174
     0
 93
        1
 44
0.0
173
     0
291
     0
 45
0.0
1001
ACAD
1000
AcDbSavedByObjectVersion
1070
     0
  0
VISUALSTYLE
  5
30
102
{ACAD_REACTORS
330
2A
102
}
102
{ACAD_XDICTIONARY
360
25C
102
}
330
2A
100
AcDbVisualStyle
  2
3dWireframe
 70
     5
 71
     0
 72
     2
 73
     0
 90
        0
 40
-0.6
 41
-30.0
 62
     5
 63
     7
421
 16777215
 74
     1
 91
        4
 64
     7
 65
   257
 75
     1
175
     1
 42
1.0
 92
        0
 66
   257
 43
1.0
 76
     1
 77
     6
 78
     2
 67
     7
 79
     5
170
     0
171
     0
290
     0
174
     0
 93
        1
 44
0.0
173
     0
291
     0
 45
0.0
1001
ACAD
1000
AcDbSavedByObjectVersion
1070
     0
  0
VISUALSTYLE
  5
32
102
{ACAD_REACTORS
330
2A
102
}
102
{ACAD_XDICTIONARY
360
260
102
}
330
2A
100
AcDbVisualStyle
  2
Basic
 70
     7
 71
     1
 72
     0
 73
     1
 90
        0
 40
-0.6
 41
-30.0
 62
     5
 63
     7
421
 16777215
 74
     0
 91
        4
 64
     7
 65
   257
 75
     1
175
     1
 42
1.0
 92
        8
 66
     7
 43
1.0
 76
     1
 77
     6
 78
     2
 67
     7
 79
     5
170
     0
171
     0
290
     0
174
     0
 93
        1
 44
0.0
173
     0
291
     1
 45
0.0
1001
ACAD
1000
AcDbSavedByObjectVersion
1070
     0
  0
VISUALSTYLE
  5
36
102
{ACAD_REACTORS
330
2A
102
}
102
{ACAD_XDICTIONARY
360
268
102
}
330
2A
100
AcDbVisualStyle
  2
Brighten
 70
    12
 71
     2
 72
     2
 73
     0
 90
        0
 40
-0.6
 41
-30.0
 62
     5
 63
     7
421
 16777215
 74
     1
 91
        4
 64
     7
 65
   257
 75
     1
175
     1
 42
1.0
 92
        8
 66
     7
 43
1.0
 76
     1
 77
     6
 78
     2
 67
     7
 79
     5
170
     0
171
     0
290
     0
174
     0
 93
        1
 44
50.0
173
     0
291
     1
 45
0.0
1001
ACAD
1000
AcDbSavedByObjectVersion
1070
     0
  0
VISUALSTYLE
  5
3A
102
{ACAD_REACTORS
330
2A
102
}
102
{ACAD_XDICTIONARY
360
270
102
}
330
2A
100
AcDbVisualStyle
  2
ColorChange
 70
    16
 71
     2
 72
     2
 73
     3
 90
        0
 40
-0.6
 41
-30.0
 62
     5
 63
     8
421
  8421504
 74
     1
 91
        4
 64
     7
 65
   257
 75
     1
175
     1
 42
1.0
 92
        8
 66
     8
424
  8421504
 43
1.0
 76
     1
 77
     6
 78
     2
 67
     7
 79
     5
170
     0
171
     0
290
     0
174
     0
 93
        1
 44
0.0
173
     0
291
     1
 45
0.0
1001
ACAD
1000
AcDbSavedByObjectVersion
1070
     0
  0
VISUALSTYLE
  5
34
102
{ACAD_REACTORS
330
2A
102
}
102
{ACAD_XDICTIONARY
360
264
102
}
330
2A
100
AcDbVisualStyle
  2
Conceptual
 70
     9
 71
     3
 72
     2
 73
     0
 90
        0
 40
-0.6
 41
-30.0
 62
     5
 63
     7
421
 16777215
 74
     2
 91
        2
 64
     7
 65
   257
 75
     1
175
     1
 42
40.0
 92
        8
 66
     7
 43
1.0
 76
     1
 77
     6
 78
     2
 67
     7
 79
     3
170
     0
171
     0
290
     0
174
     0
 93
        1
 44
0.0
173
     0
291
     0
 45
0.0
1001
ACAD
1000
AcDbSavedByObjectVersion
1070
     0
  0
VISUALSTYLE
  5
35
102
{ACAD_REACTORS
330
2A
102
}
102
{ACAD_XDICTIONARY
360
266
102
}
330
2A
100
AcDbVisualStyle
  2
Dim
 70
    11
 71
     2
 72
     2
 73
     0
 90
        0
 40
-0.6
 41
-30.0
 62
     5
 63
     7
421
 16777215
 74
     1
 91
        4
 64
     7
 65
   257
 75
     1
175
     1
 42
1.0
 92
        8
 66
     7
 43
1.0
 76
     1
 77
     6
 78
     2
 67
     7
 79
     5
170
     0
171
     0
290
     0
174
     0
 93
        1
 44
-50.0
173
     0
291
     1
 45
0.0
1001
ACAD
1000
AcDbSavedByObjectVersion
1070
     0
  0
VISUALSTYLE
  5
39
102
{ACAD_REACTORS
330
2A
102
}
102
{ACAD_XDICTIONARY
360
26E
102
}
330
2A
100
AcDbVisualStyle
  2
Facepattern
 70
    15
 71
     2
 72
     2
 73
     0
 90
        0
 40
-0.6
 41
-30.0
 62
     5
 63
     7
421
 16777215
 74
     1
 91
        4
 64
     7
 65
   257
 75
     1
175
     1
 42
1.0
 92
        8
 66
     7
 43
1.0
 76
     1
 77
     6
 78
     2
 67
     7
 79
     5
170
     0
171
     0
290
     0
174
     0
 93
        1
 44
0.0
173
     0
291
     1
 45
0.0
1001
ACAD
1000
AcDbSavedByObjectVersion
1070
     0
  0
VISUALSTYLE
  5
2B
102
{ACAD_REACTORS
330
2A
102
}
102
{ACAD_XDICTIONARY
360
252
102
}
330
2A
100
AcDbVisualStyle
  2
Flat
 70
     0
 71
     2
 72
     1
 73
     1
 90
        2
 40
-0.6
 41
30.0
 62
     5
 63
     7
421
 16777215
 74
     0
 91
        4
 64
     7
 65
   257
 75
     1
175
     1
 42
1.0
 92
        8
 66
     7
 43
1.0
 76
     1
 77
     6
 78
     2
 67
     7
 79
     5
170
     0
171
     0
290
     0
174
     0
 93
       13
 44
0.0
173
     0
291
     1
 45
0.0
1001
ACAD
1000
AcDbSavedByObjectVersion
1070
     0
  0
VISUALSTYLE
  5
2C
102
{ACAD_REACTORS
330
2A
102
}
102
{ACAD_XDICTIONARY
360
254
102
}
330
2A
100
AcDbVisualStyle
  2
FlatWithEdges
 70
     1
 71
     2
 72
     1
 73
     1
 90
        2
 40
-0.6
 41
30.0
 62
     5
 63
     7
421
 16777215
 74
     1
 91
        4
 64
     7
 65
   257
 75
     1
175
     1
 42
1.0
 92
        0
 66
   257
 43
1.0
 76
     1
 77
     6
 78
     2
 67
     7
 79
     5
170
     0
171
     0
290
     0
174
     0
 93
       13
 44
0.0
173
     0
291
     1
 45
0.0
1001
ACAD
1000
AcDbSavedByObjectVersion
1070
     0
  0
VISUALSTYLE
  5
2D
102
{ACAD_REACTORS
330
2A
102
}
102
{ACAD_XDICTIONARY
360
256
102
}
330
2A
100
AcDbVisualStyle
  2
Gouraud
 70
     2
 71
     2
 72
     2
 73
     1
 90
        2
 40
-0.6
 41
30.0
 62
     5
 63
     7
421
 16777215
 74
     0
 91
        4
 64
     7
 65
   257
 75
     1
175
     1
 42
1.0
 92
        0
 66
     7
 43
1.0
 76
     1
 77
     6
 78
     2
 67
     7
 79
     5
170
     0
171
     0
290
     0
174
     0
 93
       13
 44
0.0
173
     0
291
     1
 45
0.0
1001
ACAD
1000
AcDbSavedByObjectVersion
1070
     0
  0
VISUALSTYLE
  5
2E
102
{ACAD_REACTORS
330
2A
102
}
102
{ACAD_XDICTIONARY
360
258
102
}
330
2A
100
AcDbVisualStyle
  2
GouraudWithEdges
 70
     3
 71
     2
 72
     2
 73
     1
 90
        2
 40
-0.6
 41
30.0
 62
     5
 63
     7
421
 16777215
 74
     1
 91
        4
 64
     7
 65
   257
 75
     1
175
     1
 42
1.0
 92
        0
 66
   257
 43
1.0
 76
     1
 77
     6
 78
     2
 67
     7
 79
     5
170
     0
171
     0
290
     0
174
     0
 93
       13
 44
0.0
173
     0
291
     1
 45
0.0
1001
ACAD
1000
AcDbSavedByObjectVersion
1070
     0
  0
VISUALSTYLE
  5
38
102
{ACAD_REACTORS
330
2A
102
}
102
{ACAD_XDICTIONARY
360
26C
102
}
330
2A
100
AcDbVisualStyle
  2
Linepattern
 70
    14
 71
     2
 72
     2
 73
     0
 90
        0
 40
-0.6
 41
-30.0
 62
     5
 63
     7
421
 16777215
 74
     1
 91
        4
 64
     7
 65
   257
 75
     7
175
     7
 42
1.0
 92
        8
 66
     7
 43
1.0
 76
     1
 77
     6
 78
     2
 67
     7
 79
     5
170
     0
171
     0
290
     0
174
     0
 93
        1
 44
0.0
173
     0
291
     1
 45
0.0
1001
ACAD
1000
AcDbSavedByObjectVersion
1070
     0
  0
VISUALSTYLE
  5
33
102
{ACAD_REACTORS
330
2A
102
}
102
{ACAD_XDICTIONARY
360
262
102
}
330
2A
100
AcDbVisualStyle
  2
Realistic
 70
     8
 71
     2
 72
     2
 73
     0
 90
        0
 40
-0.6
 41
-30.0
 62
     5
 63
     7
421
 16777215
 74
     1
 91
        0
 64
     7
 65
   257
 75
     1
175
     1
 42
1.0
 92
        8
 66
     8
424
  7895160
 43
1.0
 76
     1
 77
     6
 78
     2
 67
     7
 79
     5
170
     0
171
     0
290
     0
174
     0
 93
       13
 44
0.0
173
     0
291
     0
 45
0.0
1001
ACAD
1000
AcDbSavedByObjectVersion
1070
     0
  0
VISUALSTYLE
  5
37
102
{ACAD_REACTORS
330
2A
102
}
102
{ACAD_XDICTIONARY
360
26A
102
}
330
2A
100
AcDbVisualStyle
  2
Thicken
 70
    13
 71
     2
 72
     2
 73
     0
 90
        0
 40
-0.6
 41
-30.0
 62
     5
 63
     7
421
 16777215
 74
     1
 91
        4
 64
     7
 65
   257
 75
     1
175
     1
 42
1.0
 92
       12
 66
     7
 43
1.0
 76
     1
 77
     6
 78
     2
 67
     7
 79
     5
170
     0
171
     0
290
     0
174
     0
 93
        1
 44
0.0
173
     0
291
     1
 45
0.0
1001
ACAD
1000
AcDbSavedByObjectVersion
1070
     0
  0
DICTIONARY
  5
274
330
3D
100
AcDbDictionary
280
     1
281
     1
  3
ACAD_XREC_ROUNDTRIP
360
275
  0
DICTIONARY
  5
272
330
3C
100
AcDbDictionary
280
     1
281
     1
  3
ACAD_XREC_ROUNDTRIP
360
273
  0
DICTIONARY
  5
276
330
3E
100
AcDbDictionary
280
     1
281
     1
  3
ACAD_XREC_ROUNDTRIP
360
277
  0
DICTIONARY
  5
25A
330
2F
100
AcDbDictionary
280
     1
281
     1
  3
ACAD_XREC_ROUNDTRIP
360
25B
  0
DICTIONARY
  5
25E
330
31
100
AcDbDictionary
280
     1
281
     1
  3
ACAD_XREC_ROUNDTRIP
360
25F
  0
DICTIONARY
  5
25C
330
30
100
AcDbDictionary
280
     1
281
     1
  3
ACAD_XREC_ROUNDTRIP
360
25D
  0
DICTIONARY
  5
260
330
32
100
AcDbDictionary
280
     1
281
     1
  3
ACAD_XREC_ROUNDTRIP
360
261
  0
DICTIONARY
  5
268
330
36
100
AcDbDictionary
280
     1
281
     1
  3
ACAD_XREC_ROUNDTRIP
360
269
  0
DICTIONARY
  5
270
330
3A
100
AcDbDictionary
280
     1
281
     1
  3
ACAD_XREC_ROUNDTRIP
360
271
  0
DICTIONARY
  5
264
330
34
100
AcDbDictionary
280
     1
281
     1
  3
ACAD_XREC_ROUNDTRIP
360
265
  0
DICTIONARY
  5
266
330
35
100
AcDbDictionary
280
     1
281
     1
  3
ACAD_XREC_ROUNDTRIP
360
267
  0
DICTIONARY
  5
26E
330
39
100
AcDbDictionary
280
     1
281
     1
  3
ACAD_XREC_ROUNDTRIP
360
26F
  0
DICTIONARY
  5
252
330
2B
100
AcDbDictionary
280
     1
281
     1
  3
ACAD_XREC_ROUNDTRIP
360
253
  0
DICTIONARY
  5
254
330
2C
100
AcDbDictionary
280
     1
281
     1
  3
ACAD_XREC_ROUNDTRIP
360
255
  0
DICTIONARY
  5
256
330
2D
100
AcDbDictionary
280
     1
281
     1
  3
ACAD_XREC_ROUNDTRIP
360
257
  0
DICTIONARY
  5
258
330
2E
100
AcDbDictionary
280
     1
281
     1
  3
ACAD_XREC_ROUNDTRIP
360
259
  0
DICTIONARY
  5
26C
330
38
100
AcDbDictionary
280
     1
281
     1
  3
ACAD_XREC_ROUNDTRIP
360
26D
  0
DICTIONARY
  5
262
330
33
100
AcDbDictionary
280
     1
281
     1
  3
ACAD_XREC_ROUNDTRIP
360
263
  0
DICTIONARY
  5
26A
330
37
100
AcDbDictionary
280
     1
281
     1
  3
ACAD_XREC_ROUNDTRIP
360
26B
  0
XRECORD
  5
275
102
{ACAD_REACTORS
330
274
102
}
330
274
100
AcDbXrecord
280
     1
102
MATERIAL
148
0.0
149
0.0
149
0.0
 93
        0
 94
      127
282
     0
 72
     1
 77
     1
171
     1
175
     1
179
     1
273
     0
  0
XRECORD
  5
273
102
{ACAD_REACTORS
330
272
102
}
330
272
100
AcDbXrecord
280
     1
102
MATERIAL
148
0.0
149
0.0
149
0.0
 93
        0
 94
      127
282
     0
 72
     1
 77
     1
171
     1
175
     1
179
     1
273
     0
  0
XRECORD
  5
277
102
{ACAD_REACTORS
330
276
102
}
330
276
100
AcDbXrecord
280
     1
102
MATERIAL
148
0.0
149
0.0
149
0.0
 93
        0
 94
      127
282
     0
 72
     1
 77
     1
171
     1
175
     1
179
     1
273
     0
  0
XRECORD
  5
25B
102
{ACAD_REACTORS
330
25A
102
}
330
25A
100
AcDbXrecord
280
     1
102
RTVSPropertyOp0
 70
     1
102
RTVSPropertyOp1
 70
     1
102
RTVSPropertyOp2
 70
     1
102
RTVSPropertyOp3
 70
     1
102
RTVSPropertyOp4
 70
     1
102
RTVSPropertyOp5
 70
     1
102
RTVSPropertyOp6
 70
     1
102
RTVSPropertyOp7
 70
     1
102
RTVSPropertyOp8
 70
     1
102
RTVSPropertyOp9
 70
     1
102
RTVSPropertyOp10
 70
     1
102
RTVSPropertyOp11
 70
     1
102
RTVSPropertyOp12
 70
     1
102
RTVSPropertyOp13
 70
     1
102
RTVSPropertyOp14
 70
     1
102
RTVSPropertyOp15
 70
     1
102
RTVSPropertyOp16
 70
     1
102
RTVSPropertyOp17
 70
     1
102
RTVSPropertyOp18
 70
     1
102
RTVSPropertyOp19
 70
     1
102
RTVSPropertyOp20
 70
     1
102
RTVSPropertyOp21
 70
     1
102
RTVSPropertyOp22
 70
     1
102
RTVSPropertyOp23
 70
     1
102
RTVSPropertyOp24
 70
     1
102
RTVSPropertyOp25
 70
     1
102
RTVSPropertyOp26
 70
     1
102
RTVSPropertyOp27
 70
     1
102
RTVSPropertyOp28
 70
     1
102
RTVSPropertyOp29
 70
     1
102
RTVSPropertyOp30
 70
     1
102
RTVSPropertyOp31
 70
     1
102
RTVSPropertyOp32
 70
     1
  0
XRECORD
  5
25F
102
{ACAD_REACTORS
330
25E
102
}
330
25E
100
AcDbXrecord
280
     1
102
RTVSPropertyOp0
 70
     1
102
RTVSPropertyOp1
 70
     1
102
RTVSPropertyOp2
 70
     1
102
RTVSPropertyOp3
 70
     1
102
RTVSPropertyOp4
 70
     1
102
RTVSPropertyOp5
 70
     1
102
RTVSPropertyOp6
 70
     1
102
RTVSPropertyOp7
 70
     1
102
RTVSPropertyOp8
 70
     1
102
RTVSPropertyOp9
 70
     1
102
RTVSPropertyOp10
 70
     1
102
RTVSPropertyOp11
 70
     1
102
RTVSPropertyOp12
 70
     1
102
RTVSPropertyOp13
 70
     1
102
RTVSPropertyOp14
 70
     1
102
RTVSPropertyOp15
 70
     1
102
RTVSPropertyOp16
 70
     1
102
RTVSPropertyOp17
 70
     1
102
RTVSPropertyOp18
 70
     1
102
RTVSPropertyOp19
 70
     1
102
RTVSPropertyOp20
 70
     1
102
RTVSPropertyOp21
 70
     1
102
RTVSPropertyOp22
 70
     1
102
RTVSPropertyOp23
 70
     1
102
RTVSPropertyOp24
 70
     1
102
RTVSPropertyOp25
 70
     1
102
RTVSPropertyOp26
 70
     1
102
RTVSPropertyOp27
 70
     1
102
RTVSPropertyOp28
 70
     1
102
RTVSPropertyOp29
 70
     1
102
RTVSPropertyOp30
 70
     1
102
RTVSPropertyOp31
 70
     1
102
RTVSPropertyOp32
 70
     1
  0
XRECORD
  5
25D
102
{ACAD_REACTORS
330
25C
102
}
330
25C
100
AcDbXrecord
280
     1
102
RTVSPropertyOp0
 70
     1
102
RTVSPropertyOp1
 70
     1
102
RTVSPropertyOp2
 70
     1
102
RTVSPropertyOp3
 70
     1
102
RTVSPropertyOp4
 70
     1
102
RTVSPropertyOp5
 70
     1
102
RTVSPropertyOp6
 70
     1
102
RTVSPropertyOp7
 70
     1
102
RTVSPropertyOp8
 70
     1
102
RTVSPropertyOp9
 70
     1
102
RTVSPropertyOp10
 70
     1
102
RTVSPropertyOp11
 70
     1
102
RTVSPropertyOp12
 70
     1
102
RTVSPropertyOp13
 70
     1
102
RTVSPropertyOp14
 70
     1
102
RTVSPropertyOp15
 70
     1
102
RTVSPropertyOp16
 70
     1
102
RTVSPropertyOp17
 70
     1
102
RTVSPropertyOp18
 70
     1
102
RTVSPropertyOp19
 70
     1
102
RTVSPropertyOp20
 70
     1
102
RTVSPropertyOp21
 70
     1
102
RTVSPropertyOp22
 70
     1
102
RTVSPropertyOp23
 70
     1
102
RTVSPropertyOp24
 70
     1
102
RTVSPropertyOp25
 70
     1
102
RTVSPropertyOp26
 70
     1
102
RTVSPropertyOp27
 70
     1
102
RTVSPropertyOp28
 70
     1
102
RTVSPropertyOp29
 70
     1
102
RTVSPropertyOp30
 70
     1
102
RTVSPropertyOp31
 70
     1
102
RTVSPropertyOp32
 70
     1
  0
XRECORD
  5
261
102
{ACAD_REACTORS
330
260
102
}
330
260
100
AcDbXrecord
280
     1
102
RTVSPropertyOp0
 70
     1
102
RTVSPropertyOp1
 70
     1
102
RTVSPropertyOp2
 70
     1
102
RTVSPropertyOp3
 70
     1
102
RTVSPropertyOp4
 70
     1
102
RTVSPropertyOp5
 70
     1
102
RTVSPropertyOp6
 70
     1
102
RTVSPropertyOp7
 70
     1
102
RTVSPropertyOp8
 70
     1
102
RTVSPropertyOp9
 70
     1
102
RTVSPropertyOp10
 70
     1
102
RTVSPropertyOp11
 70
     1
102
RTVSPropertyOp12
 70
     1
102
RTVSPropertyOp13
 70
     1
102
RTVSPropertyOp14
 70
     1
102
RTVSPropertyOp15
 70
     1
102
RTVSPropertyOp16
 70
     1
102
RTVSPropertyOp17
 70
     1
102
RTVSPropertyOp18
 70
     1
102
RTVSPropertyOp19
 70
     1
102
RTVSPropertyOp20
 70
     1
102
RTVSPropertyOp21
 70
     1
102
RTVSPropertyOp22
 70
     1
102
RTVSPropertyOp23
 70
     1
102
RTVSPropertyOp24
 70
     1
102
RTVSPropertyOp25
 70
     1
102
RTVSPropertyOp26
 70
     1
102
RTVSPropertyOp27
 70
     1
102
RTVSPropertyOp28
 70
     1
102
RTVSPropertyOp29
 70
     1
102
RTVSPropertyOp30
 70
     1
102
RTVSPropertyOp31
 70
     1
102
RTVSPropertyOp32
 70
     1
  0
XRECORD
  5
269
102
{ACAD_REACTORS
330
268
102
}
330
268
100
AcDbXrecord
280
     1
102
RTVSPropertyOp0
 70
     1
102
RTVSPropertyOp1
 70
     1
102
RTVSPropertyOp2
 70
     1
102
RTVSPropertyOp3
 70
     1
102
RTVSPropertyOp4
 70
     1
102
RTVSPropertyOp5
 70
     1
102
RTVSPropertyOp6
 70
     1
102
RTVSPropertyOp7
 70
     1
102
RTVSPropertyOp8
 70
     1
102
RTVSPropertyOp9
 70
     1
102
RTVSPropertyOp10
 70
     1
102
RTVSPropertyOp11
 70
     1
102
RTVSPropertyOp12
 70
     1
102
RTVSPropertyOp13
 70
     1
102
RTVSPropertyOp14
 70
     1
102
RTVSPropertyOp15
 70
     1
102
RTVSPropertyOp16
 70
     1
102
RTVSPropertyOp17
 70
     1
102
RTVSPropertyOp18
 70
     1
102
RTVSPropertyOp19
 70
     1
102
RTVSPropertyOp20
 70
     1
102
RTVSPropertyOp21
 70
     1
102
RTVSPropertyOp22
 70
     1
102
RTVSPropertyOp23
 70
     1
102
RTVSPropertyOp24
 70
     1
102
RTVSPropertyOp25
 70
     1
102
RTVSPropertyOp26
 70
     1
102
RTVSPropertyOp27
 70
     1
102
RTVSPropertyOp28
 70
     1
102
RTVSPropertyOp29
 70
     1
102
RTVSPropertyOp30
 70
     1
102
RTVSPropertyOp31
 70
     1
102
RTVSPropertyOp32
 70
     1
  0
XRECORD
  5
271
102
{ACAD_REACTORS
330
270
102
}
330
270
100
AcDbXrecord
280
     1
102
RTVSPropertyOp0
 70
     1
102
RTVSPropertyOp1
 70
     1
102
RTVSPropertyOp2
 70
     1
102
RTVSPropertyOp3
 70
     1
102
RTVSPropertyOp4
 70
     1
102
RTVSPropertyOp5
 70
     1
102
RTVSPropertyOp6
 70
     1
102
RTVSPropertyOp7
 70
     1
102
RTVSPropertyOp8
 70
     1
102
RTVSPropertyOp9
 70
     1
102
RTVSPropertyOp10
 70
     1
102
RTVSPropertyOp11
 70
     1
102
RTVSPropertyOp12
 70
     1
102
RTVSPropertyOp13
 70
     1
102
RTVSPropertyOp14
 70
     1
102
RTVSPropertyOp15
 70
     1
102
RTVSPropertyOp16
 70
     1
102
RTVSPropertyOp17
 70
     1
102
RTVSPropertyOp18
 70
     1
102
RTVSPropertyOp19
 70
     1
102
RTVSPropertyOp20
 70
     1
102
RTVSPropertyOp21
 70
     1
102
RTVSPropertyOp22
 70
     1
102
RTVSPropertyOp23
 70
     1
102
RTVSPropertyOp24
 70
     1
102
RTVSPropertyOp25
 70
     1
102
RTVSPropertyOp26
 70
     1
102
RTVSPropertyOp27
 70
     1
102
RTVSPropertyOp28
 70
     1
102
RTVSPropertyOp29
 70
     1
102
RTVSPropertyOp30
 70
     1
102
RTVSPropertyOp31
 70
     1
102
RTVSPropertyOp32
 70
     1
  0
XRECORD
  5
265
102
{ACAD_REACTORS
330
264
102
}
330
264
100
AcDbXrecord
280
     1
102
RTVSPropertyOp0
 70
     1
102
RTVSPropertyOp1
 70
     1
102
RTVSPropertyOp2
 70
     1
102
RTVSPropertyOp3
 70
     1
102
RTVSPropertyOp4
 70
     1
102
RTVSPropertyOp5
 70
     1
102
RTVSPropertyOp6
 70
     1
102
RTVSPropertyOp7
 70
     1
102
RTVSPropertyOp8
 70
     1
102
RTVSPropertyOp9
 70
     1
102
RTVSPropertyOp10
 70
     1
102
RTVSPropertyOp11
 70
     1
102
RTVSPropertyOp12
 70
     1
102
RTVSPropertyOp13
 70
     1
102
RTVSPropertyOp14
 70
     1
102
RTVSPropertyOp15
 70
     1
102
RTVSPropertyOp16
 70
     1
102
RTVSPropertyOp17
 70
     1
102
RTVSPropertyOp18
 70
     1
102
RTVSPropertyOp19
 70
     1
102
RTVSPropertyOp20
 70
     1
102
RTVSPropertyOp21
 70
     1
102
RTVSPropertyOp22
 70
     1
102
RTVSPropertyOp23
 70
     1
102
RTVSPropertyOp24
 70
     1
102
RTVSPropertyOp25
 70
     1
102
RTVSPropertyOp26
 70
     1
102
RTVSPropertyOp27
 70
     1
102
RTVSPropertyOp28
 70
     1
102
RTVSPropertyOp29
 70
     1
102
RTVSPropertyOp30
 70
     1
102
RTVSPropertyOp31
 70
     1
102
RTVSPropertyOp32
 70
     1
  0
XRECORD
  5
267
102
{ACAD_REACTORS
330
266
102
}
330
266
100
AcDbXrecord
280
     1
102
RTVSPropertyOp0
 70
     1
102
RTVSPropertyOp1
 70
     1
102
RTVSPropertyOp2
 70
     1
102
RTVSPropertyOp3
 70
     1
102
RTVSPropertyOp4
 70
     1
102
RTVSPropertyOp5
 70
     1
102
RTVSPropertyOp6
 70
     1
102
RTVSPropertyOp7
 70
     1
102
RTVSPropertyOp8
 70
     1
102
RTVSPropertyOp9
 70
     1
102
RTVSPropertyOp10
 70
     1
102
RTVSPropertyOp11
 70
     1
102
RTVSPropertyOp12
 70
     1
102
RTVSPropertyOp13
 70
     1
102
RTVSPropertyOp14
 70
     1
102
RTVSPropertyOp15
 70
     1
102
RTVSPropertyOp16
 70
     1
102
RTVSPropertyOp17
 70
     1
102
RTVSPropertyOp18
 70
     1
102
RTVSPropertyOp19
 70
     1
102
RTVSPropertyOp20
 70
     1
102
RTVSPropertyOp21
 70
     1
102
RTVSPropertyOp22
 70
     1
102
RTVSPropertyOp23
 70
     1
102
RTVSPropertyOp24
 70
     1
102
RTVSPropertyOp25
 70
     1
102
RTVSPropertyOp26
 70
     1
102
RTVSPropertyOp27
 70
     1
102
RTVSPropertyOp28
 70
     1
102
RTVSPropertyOp29
 70
     1
102
RTVSPropertyOp30
 70
     1
102
RTVSPropertyOp31
 70
     1
102
RTVSPropertyOp32
 70
     1
  0
XRECORD
  5
26F
102
{ACAD_REACTORS
330
26E
102
}
330
26E
100
AcDbXrecord
280
     1
102
RTVSPropertyOp0
 70
     1
102
RTVSPropertyOp1
 70
     1
102
RTVSPropertyOp2
 70
     1
102
RTVSPropertyOp3
 70
     1
102
RTVSPropertyOp4
 70
     1
102
RTVSPropertyOp5
 70
     1
102
RTVSPropertyOp6
 70
     1
102
RTVSPropertyOp7
 70
     1
102
RTVSPropertyOp8
 70
     1
102
RTVSPropertyOp9
 70
     1
102
RTVSPropertyOp10
 70
     1
102
RTVSPropertyOp11
 70
     1
102
RTVSPropertyOp12
 70
     1
102
RTVSPropertyOp13
 70
     1
102
RTVSPropertyOp14
 70
     1
102
RTVSPropertyOp15
 70
     1
102
RTVSPropertyOp16
 70
     1
102
RTVSPropertyOp17
 70
     1
102
RTVSPropertyOp18
 70
     1
102
RTVSPropertyOp19
 70
     1
102
RTVSPropertyOp20
 70
     1
102
RTVSPropertyOp21
 70
     1
102
RTVSPropertyOp22
 70
     1
102
RTVSPropertyOp23
 70
     1
102
RTVSPropertyOp24
 70
     1
102
RTVSPropertyOp25
 70
     1
102
RTVSPropertyOp26
 70
     1
102
RTVSPropertyOp27
 70
     1
102
RTVSPropertyOp28
 70
     1
102
RTVSPropertyOp29
 70
     1
102
RTVSPropertyOp30
 70
     1
102
RTVSPropertyOp31
 70
     1
102
RTVSPropertyOp32
 70
     1
  0
XRECORD
  5
253
102
{ACAD_REACTORS
330
252
102
}
330
252
100
AcDbXrecord
280
     1
102
RTVSPropertyOp0
 70
     1
102
RTVSPropertyOp1
 70
     1
102
RTVSPropertyOp2
 70
     1
102
RTVSPropertyOp3
 70
     1
102
RTVSPropertyOp4
 70
     1
102
RTVSPropertyOp5
 70
     1
102
RTVSPropertyOp6
 70
     1
102
RTVSPropertyOp7
 70
     1
102
RTVSPropertyOp8
 70
     1
102
RTVSPropertyOp9
 70
     1
102
RTVSPropertyOp10
 70
     1
102
RTVSPropertyOp11
 70
     1
102
RTVSPropertyOp12
 70
     1
102
RTVSPropertyOp13
 70
     1
102
RTVSPropertyOp14
 70
     1
102
RTVSPropertyOp15
 70
     1
102
RTVSPropertyOp16
 70
     1
102
RTVSPropertyOp17
 70
     1
102
RTVSPropertyOp18
 70
     1
102
RTVSPropertyOp19
 70
     1
102
RTVSPropertyOp20
 70
     1
102
RTVSPropertyOp21
 70
     1
102
RTVSPropertyOp22
 70
     1
102
RTVSPropertyOp23
 70
     1
102
RTVSPropertyOp24
 70
     1
102
RTVSPropertyOp25
 70
     1
102
RTVSPropertyOp26
 70
     1
102
RTVSPropertyOp27
 70
     1
102
RTVSPropertyOp28
 70
     1
102
RTVSPropertyOp29
 70
     1
102
RTVSPropertyOp30
 70
     1
102
RTVSPropertyOp31
 70
     1
102
RTVSPropertyOp32
 70
     1
  0
XRECORD
  5
255
102
{ACAD_REACTORS
330
254
102
}
330
254
100
AcDbXrecord
280
     1
102
RTVSPropertyOp0
 70
     1
102
RTVSPropertyOp1
 70
     1
102
RTVSPropertyOp2
 70
     1
102
RTVSPropertyOp3
 70
     1
102
RTVSPropertyOp4
 70
     1
102
RTVSPropertyOp5
 70
     1
102
RTVSPropertyOp6
 70
     1
102
RTVSPropertyOp7
 70
     1
102
RTVSPropertyOp8
 70
     1
102
RTVSPropertyOp9
 70
     1
102
RTVSPropertyOp10
 70
     1
102
RTVSPropertyOp11
 70
     1
102
RTVSPropertyOp12
 70
     1
102
RTVSPropertyOp13
 70
     1
102
RTVSPropertyOp14
 70
     1
102
RTVSPropertyOp15
 70
     1
102
RTVSPropertyOp16
 70
     1
102
RTVSPropertyOp17
 70
     1
102
RTVSPropertyOp18
 70
     1
102
RTVSPropertyOp19
 70
     1
102
RTVSPropertyOp20
 70
     1
102
RTVSPropertyOp21
 70
     1
102
RTVSPropertyOp22
 70
     1
102
RTVSPropertyOp23
 70
     1
102
RTVSPropertyOp24
 70
     1
102
RTVSPropertyOp25
 70
     1
102
RTVSPropertyOp26
 70
     1
102
RTVSPropertyOp27
 70
     1
102
RTVSPropertyOp28
 70
     1
102
RTVSPropertyOp29
 70
     1
102
RTVSPropertyOp30
 70
     1
102
RTVSPropertyOp31
 70
     1
102
RTVSPropertyOp32
 70
     1
  0
XRECORD
  5
257
102
{ACAD_REACTORS
330
256
102
}
330
256
100
AcDbXrecord
280
     1
102
RTVSPropertyOp0
 70
     1
102
RTVSPropertyOp1
 70
     1
102
RTVSPropertyOp2
 70
     1
102
RTVSPropertyOp3
 70
     1
102
RTVSPropertyOp4
 70
     1
102
RTVSPropertyOp5
 70
     1
102
RTVSPropertyOp6
 70
     1
102
RTVSPropertyOp7
 70
     1
102
RTVSPropertyOp8
 70
     1
102
RTVSPropertyOp9
 70
     1
102
RTVSPropertyOp10
 70
     1
102
RTVSPropertyOp11
 70
     1
102
RTVSPropertyOp12
 70
     1
102
RTVSPropertyOp13
 70
     1
102
RTVSPropertyOp14
 70
     1
102
RTVSPropertyOp15
 70
     1
102
RTVSPropertyOp16
 70
     1
102
RTVSPropertyOp17
 70
     1
102
RTVSPropertyOp18
 70
     1
102
RTVSPropertyOp19
 70
     1
102
RTVSPropertyOp20
 70
     1
102
RTVSPropertyOp21
 70
     1
102
RTVSPropertyOp22
 70
     1
102
RTVSPropertyOp23
 70
     1
102
RTVSPropertyOp24
 70
     1
102
RTVSPropertyOp25
 70
     1
102
RTVSPropertyOp26
 70
     1
102
RTVSPropertyOp27
 70
     1
102
RTVSPropertyOp28
 70
     1
102
RTVSPropertyOp29
 70
     1
102
RTVSPropertyOp30
 70
     1
102
RTVSPropertyOp31
 70
     1
102
RTVSPropertyOp32
 70
     1
  0
XRECORD
  5
259
102
{ACAD_REACTORS
330
258
102
}
330
258
100
AcDbXrecord
280
     1
102
RTVSPropertyOp0
 70
     1
102
RTVSPropertyOp1
 70
     1
102
RTVSPropertyOp2
 70
     1
102
RTVSPropertyOp3
 70
     1
102
RTVSPropertyOp4
 70
     1
102
RTVSPropertyOp5
 70
     1
102
RTVSPropertyOp6
 70
     1
102
RTVSPropertyOp7
 70
     1
102
RTVSPropertyOp8
 70
     1
102
RTVSPropertyOp9
 70
     1
102
RTVSPropertyOp10
 70
     1
102
RTVSPropertyOp11
 70
     1
102
RTVSPropertyOp12
 70
     1
102
RTVSPropertyOp13
 70
     1
102
RTVSPropertyOp14
 70
     1
102
RTVSPropertyOp15
 70
     1
102
RTVSPropertyOp16
 70
     1
102
RTVSPropertyOp17
 70
     1
102
RTVSPropertyOp18
 70
     1
102
RTVSPropertyOp19
 70
     1
102
RTVSPropertyOp20
 70
     1
102
RTVSPropertyOp21
 70
     1
102
RTVSPropertyOp22
 70
     1
102
RTVSPropertyOp23
 70
     1
102
RTVSPropertyOp24
 70
     1
102
RTVSPropertyOp25
 70
     1
102
RTVSPropertyOp26
 70
     1
102
RTVSPropertyOp27
 70
     1
102
RTVSPropertyOp28
 70
     1
102
RTVSPropertyOp29
 70
     1
102
RTVSPropertyOp30
 70
     1
102
RTVSPropertyOp31
 70
     1
102
RTVSPropertyOp32
 70
     1
  0
XRECORD
  5
26D
102
{ACAD_REACTORS
330
26C
102
}
330
26C
100
AcDbXrecord
280
     1
102
RTVSPropertyOp0
 70
     1
102
RTVSPropertyOp1
 70
     1
102
RTVSPropertyOp2
 70
     1
102
RTVSPropertyOp3
 70
     1
102
RTVSPropertyOp4
 70
     1
102
RTVSPropertyOp5
 70
     1
102
RTVSPropertyOp6
 70
     1
102
RTVSPropertyOp7
 70
     1
102
RTVSPropertyOp8
 70
     1
102
RTVSPropertyOp9
 70
     1
102
RTVSPropertyOp10
 70
     1
102
RTVSPropertyOp11
 70
     1
102
RTVSPropertyOp12
 70
     1
102
RTVSPropertyOp13
 70
     1
102
RTVSPropertyOp14
 70
     1
102
RTVSPropertyOp15
 70
     1
102
RTVSPropertyOp16
 70
     1
102
RTVSPropertyOp17
 70
     1
102
RTVSPropertyOp18
 70
     1
102
RTVSPropertyOp19
 70
     1
102
RTVSPropertyOp20
 70
     1
102
RTVSPropertyOp21
 70
     1
102
RTVSPropertyOp22
 70
     1
102
RTVSPropertyOp23
 70
     1
102
RTVSPropertyOp24
 70
     1
102
RTVSPropertyOp25
 70
     1
102
RTVSPropertyOp26
 70
     1
102
RTVSPropertyOp27
 70
     1
102
RTVSPropertyOp28
 70
     1
102
RTVSPropertyOp29
 70
     1
102
RTVSPropertyOp30
 70
     1
102
RTVSPropertyOp31
 70
     1
102
RTVSPropertyOp32
 70
     1
  0
XRECORD
  5
263
102
{ACAD_REACTORS
330
262
102
}
330
262
100
AcDbXrecord
280
     1
102
RTVSPropertyOp0
 70
     1
102
RTVSPropertyOp1
 70
     1
102
RTVSPropertyOp2
 70
     1
102
RTVSPropertyOp3
 70
     1
102
RTVSPropertyOp4
 70
     1
102
RTVSPropertyOp5
 70
     1
102
RTVSPropertyOp6
 70
     1
102
RTVSPropertyOp7
 70
     1
102
RTVSPropertyOp8
 70
     1
102
RTVSPropertyOp9
 70
     1
102
RTVSPropertyOp10
 70
     1
102
RTVSPropertyOp11
 70
     1
102
RTVSPropertyOp12
 70
     1
102
RTVSPropertyOp13
 70
     1
102
RTVSPropertyOp14
 70
     1
102
RTVSPropertyOp15
 70
     1
102
RTVSPropertyOp16
 70
     1
102
RTVSPropertyOp17
 70
     1
102
RTVSPropertyOp18
 70
     1
102
RTVSPropertyOp19
 70
     1
102
RTVSPropertyOp20
 70
     1
102
RTVSPropertyOp21
 70
     1
102
RTVSPropertyOp22
 70
     1
102
RTVSPropertyOp23
 70
     1
102
RTVSPropertyOp24
 70
     1
102
RTVSPropertyOp25
 70
     1
102
RTVSPropertyOp26
 70
     1
102
RTVSPropertyOp27
 70
     1
102
RTVSPropertyOp28
 70
     1
102
RTVSPropertyOp29
 70
     1
102
RTVSPropertyOp30
 70
     1
102
RTVSPropertyOp31
 70
     1
102
RTVSPropertyOp32
 70
     1
  0
XRECORD
  5
26B
102
{ACAD_REACTORS
330
26A
102
}
330
26A
100
AcDbXrecord
280
     1
102
RTVSPropertyOp0
 70
     1
102
RTVSPropertyOp1
 70
     1
102
RTVSPropertyOp2
 70
     1
102
RTVSPropertyOp3
 70
     1
102
RTVSPropertyOp4
 70
     1
102
RTVSPropertyOp5
 70
     1
102
RTVSPropertyOp6
 70
     1
102
RTVSPropertyOp7
 70
     1
102
RTVSPropertyOp8
 70
     1
102
RTVSPropertyOp9
 70
     1
102
RTVSPropertyOp10
 70
     1
102
RTVSPropertyOp11
 70
     1
102
RTVSPropertyOp12
 70
     1
102
RTVSPropertyOp13
 70
     1
102
RTVSPropertyOp14
 70
     1
102
RTVSPropertyOp15
 70
     1
102
RTVSPropertyOp16
 70
     1
102
RTVSPropertyOp17
 70
     1
102
RTVSPropertyOp18
 70
     1
102
RTVSPropertyOp19
 70
     1
102
RTVSPropertyOp20
 70
     1
102
RTVSPropertyOp21
 70
     1
102
RTVSPropertyOp22
 70
     1
102
RTVSPropertyOp23
 70
     1
102
RTVSPropertyOp24
 70
     1
102
RTVSPropertyOp25
 70
     1
102
RTVSPropertyOp26
 70
     1
102
RTVSPropertyOp27
 70
     1
102
RTVSPropertyOp28
 70
     1
102
RTVSPropertyOp29
 70
     1
102
RTVSPropertyOp30
 70
     1
102
RTVSPropertyOp31
 70
     1
102
RTVSPropertyOp32
 70
     1
  0
ENDSEC
  0
EOF
