  0
SECTION
  2
HEADER
  9
$ACADVER
  1
AC1018
  9
$ACADMAINTVER
 70
     0
  9
$DWGCODEPAGE
  3
ANSI_1252
  9
$INSBASE
 10
0.0
 20
0.0
 30
0.0
  9
$EXTMIN
 10
-454.814065334842
 20
-266.3935179445691
 30
0.0
  9
$EXTMAX
 10
-157.8140653348439
 20
-56.39351794456891
 30
0.0
  9
$LIMMIN
 10
0.0
 20
0.0
  9
$LIMMAX
 10
12.0
 20
9.0
  9
$ORTHOMODE
 70
     0
  9
$REGENMODE
 70
     1
  9
$FILLMODE
 70
     1
  9
$QTEXTMODE
 70
     0
  9
$MIRRTEXT
 70
     1
  9
$LTSCALE
 40
1.0
  9
$ATTMODE
 70
     1
  9
$TEXTSIZE
 40
0.2
  9
$TRACEWID
 40
0.05
  9
$TEXTSTYLE
  7
Standard
  9
$CLAYER
  8
0
  9
$CELTYPE
  6
ByLayer
  9
$CECOLOR
 62
   256
  9
$CELTSCALE
 40
1.0
  9
$DISPSILH
 70
     0
  9
$DIMSCALE
 40
1.0
  9
$DIMASZ
 40
0.18
  9
$DIMEXO
 40
0.0625
  9
$DIMDLI
 40
0.38
  9
$DIMRND
 40
0.0
  9
$DIMDLE
 40
0.0
  9
$DIMEXE
 40
0.18
  9
$DIMTP
 40
0.0
  9
$DIMTM
 40
0.0
  9
$DIMTXT
 40
0.18
  9
$DIMCEN
 40
0.09
  9
$DIMTSZ
 40
0.0
  9
$DIMTOL
 70
     0
  9
$DIMLIM
 70
     0
  9
$DIMTIH
 70
     1
  9
$DIMTOH
 70
     1
  9
$DIMSE1
 70
     0
  9
$DIMSE2
 70
     0
  9
$DIMTAD
 70
     0
  9
$DIMZIN
 70
     0
  9
$DIMBLK
  1

  9
$DIMASO
 70
     1
  9
$DIMSHO
 70
     1
  9
$DIMPOST
  1

  9
$DIMAPOST
  1

  9
$DIMALT
 70
     0
  9
$DIMALTD
 70
     2
  9
$DIMALTF
 40
25.4
  9
$DIMLFAC
 40
1.0
  9
$DIMTOFL
 70
     0
  9
$DIMTVP
 40
0.0
  9
$DIMTIX
 70
     0
  9
$DIMSOXD
 70
     0
  9
$DIMSAH
 70
     0
  9
$DIMBLK1
  1

  9
$DIMBLK2
  1

  9
$DIMSTYLE
  2
Standard
  9
$DIMCLRD
 70
     0
  9
$DIMCLRE
 70
     0
  9
$DIMCLRT
 70
     0
  9
$DIMTFAC
 40
1.0
  9
$DIMGAP
 40
0.09
  9
$DIMJUST
 70
     0
  9
$DIMSD1
 70
     0
  9
$DIMSD2
 70
     0
  9
$DIMTOLJ
 70
     1
  9
$DIMTZIN
 70
     0
  9
$DIMALTZ
 70
     0
  9
$DIMALTTZ
 70
     0
  9
$DIMUPT
 70
     0
  9
$DIMDEC
 70
     4
  9
$DIMTDEC
 70
     4
  9
$DIMALTU
 70
     2
  9
$DIMALTTD
 70
     2
  9
$DIMTXSTY
  7
Standard
  9
$DIMAUNIT
 70
     0
  9
$DIMADEC
 70
     0
  9
$DIMALTRND
 40
0.0
  9
$DIMAZIN
 70
     0
  9
$DIMDSEP
 70
    46
  9
$DIMATFIT
 70
     3
  9
$DIMFRAC
 70
     0
  9
$DIMLDRBLK
  1

  9
$DIMLUNIT
 70
     2
  9
$DIMLWD
 70
    -2
  9
$DIMLWE
 70
    -2
  9
$DIMTMOVE
 70
     0
  9
$LUNITS
 70
     2
  9
$LUPREC
 70
     4
  9
$SKETCHINC
 40
0.1
  9
$FILLETRAD
 40
0.5
  9
$AUNITS
 70
     0
  9
$AUPREC
 70
     0
  9
$MENU
  1
.
  9
$ELEVATION
 40
0.0
  9
$PELEVATION
 40
0.0
  9
$THICKNESS
 40
0.0
  9
$LIMCHECK
 70
     0
  9
$CHAMFERA
 40
0.5
  9
$CHAMFERB
 40
0.5
  9
$CHAMFERC
 40
1.0
  9
$CHAMFERD
 40
0.0
  9
$SKPOLY
 70
     0
  9
$TDCREATE
 40
2458409.608263241
  9
$TDUCREATE
 40
2458409.524929908
  9
$TDUPDATE
 40
2458409.608263773
  9
$TDUUPDATE
 40
2458409.52493044
  9
$TDINDWG
 40
0.0000000116
  9
$TDUSRTIMER
 40
0.0000000116
  9
$USRTIMER
 70
     1
  9
$ANGBASE
 50
0.0
  9
$ANGDIR
 70
     0
  9
$PDMODE
 70
     0
  9
$PDSIZE
 40
0.0
  9
$PLINEWID
 40
0.0
  9
$SPLFRAME
 70
     0
  9
$SPLINETYPE
 70
     6
  9
$SPLINESEGS
 70
     8
  9
$HANDSEED
  5
2F3
  9
$SURFTAB1
 70
     6
  9
$SURFTAB2
 70
     6
  9
$SURFTYPE
 70
     6
  9
$SURFU
 70
     6
  9
$SURFV
 70
     6
  9
$UCSBASE
  2

  9
$UCSNAME
  2

  9
$UCSORG
 10
0.0
 20
0.0
 30
0.0
  9
$UCSXDIR
 10
1.0
 20
0.0
 30
0.0
  9
$UCSYDIR
 10
0.0
 20
1.0
 30
0.0
  9
$UCSORTHOREF
  2

  9
$UCSORTHOVIEW
 70
     0
  9
$UCSORGTOP
 10
0.0
 20
0.0
 30
0.0
  9
$UCSORGBOTTOM
 10
0.0
 20
0.0
 30
0.0
  9
$UCSORGLEFT
 10
0.0
 20
0.0
 30
0.0
  9
$UCSORGRIGHT
 10
0.0
 20
0.0
 30
0.0
  9
$UCSORGFRONT
 10
0.0
 20
0.0
 30
0.0
  9
$UCSORGBACK
 10
0.0
 20
0.0
 30
0.0
  9
$PUCSBASE
  2

  9
$PUCSNAME
  2

  9
$PUCSORG
 10
0.0
 20
0.0
 30
0.0
  9
$PUCSXDIR
 10
1.0
 20
0.0
 30
0.0
  9
$PUCSYDIR
 10
0.0
 20
1.0
 30
0.0
  9
$PUCSORTHOREF
  2

  9
$PUCSORTHOVIEW
 70
     0
  9
$PUCSORGTOP
 10
0.0
 20
0.0
 30
0.0
  9
$PUCSORGBOTTOM
 10
0.0
 20
0.0
 30
0.0
  9
$PUCSORGLEFT
 10
0.0
 20
0.0
 30
0.0
  9
$PUCSORGRIGHT
 10
0.0
 20
0.0
 30
0.0
  9
$PUCSORGFRONT
 10
0.0
 20
0.0
 30
0.0
  9
$PUCSORGBACK
 10
0.0
 20
0.0
 30
0.0
  9
$USERI1
 70
     0
  9
$USERI2
 70
     0
  9
$USERI3
 70
     0
  9
$USERI4
 70
     0
  9
$USERI5
 70
     0
  9
$USERR1
 40
18.1
  9
$USERR2
 40
0.0
  9
$USERR3
 40
0.0
  9
$USERR4
 40
0.0
  9
$USERR5
 40
0.0
  9
$WORLDVIEW
 70
     1
  9
$SHADEDGE
 70
     3
  9
$SHADEDIF
 70
    70
  9
$TILEMODE
 70
     1
  9
$MAXACTVP
 70
    64
  9
$PINSBASE
 10
0.0
 20
0.0
 30
0.0
  9
$PLIMCHECK
 70
     0
  9
$PEXTMIN
 10
1.00000000000000E+20
 20
1.00000000000000E+20
 30
1.00000000000000E+20
  9
$PEXTMAX
 10
-1.00000000000000E+20
 20
-1.00000000000000E+20
 30
-1.00000000000000E+20
  9
$PLIMMIN
 10
0.0
 20
0.0
  9
$PLIMMAX
 10
12.0
 20
9.0
  9
$UNITMODE
 70
     0
  9
$VISRETAIN
 70
     1
  9
$PLINEGEN
 70
     0
  9
$PSLTSCALE
 70
     1
  9
$TREEDEPTH
 70
  3020
  9
$CMLSTYLE
  2
Standard
  9
$CMLJUST
 70
     0
  9
$CMLSCALE
 40
1.0
  9
$PROXYGRAPHICS
 70
     1
  9
$MEASUREMENT
 70
     1
  9
$CELWEIGHT
370
    -1
  9
$ENDCAPS
280
     0
  9
$JOINSTYLE
280
     0
  9
$LWDISPLAY
290
     0
  9
$INSUNITS
 70
     4
  9
$HYPERLINKBASE
  1

  9
$STYLESHEET
  1

  9
$XEDIT
290
     1
  9
$CEPSNTYPE
380
     0
  9
$PSTYLEMODE
290
     1
  9
$FINGERPRINTGUID
  2
{E1539C27-0D8F-4B62-B69B-C6DF1A6E571E}
  9
$VERSIONGUID
  2
{FAEB1C32-E019-11D5-929B-00C0DF256EC4}
  9
$EXTNAMES
290
     1
  9
$PSVPSCALE
 40
0.0
  9
$OLESTARTUP
290
     0
  9
$SORTENTS
280
   127
  9
$INDEXCTL
280
     0
  9
$HIDETEXT
280
     1
  9
$XCLIPFRAME
290
     0
  9
$HALOGAP
280
     0
  9
$OBSCOLOR
 70
   257
  9
$OBSLTYPE
280
     0
  9
$INTERSECTIONDISPLAY
280
     0
  9
$INTERSECTIONCOLOR
 70
   257
  9
$DIMASSOC
280
     2
  9
$PROJECTNAME
  1

  0
ENDSEC
  0
SECTION
  2
CLASSES
  0
CLASS
  1
ACDBDICTIONARYWDFLT
  2
AcDbDictionaryWithDefault
  3
ObjectDBX Classes
 90
        0
 91
        4
280
     0
281
     0
  0
CLASS
  1
VISUALSTYLE
  2
AcDbVisualStyle
  3
ObjectDBX Classes
 90
     4095
 91
        4
280
     0
281
     0
  0
CLASS
  1
MATERIAL
  2
AcDbMaterial
  3
ObjectDBX Classes
 90
     1153
 91
        4
280
     0
281
     0
  0
ENDSEC
  0
SECTION
  2
TABLES
  0
TABLE
  2
VPORT
  5
8
330
0
100
AcDbSymbolTable
 70
     1
  0
VPORT
  5
29
330
8
100
AcDbSymbolTableRecord
100
AcDbViewportTableRecord
  2
*Active
 70
     0
 10
0.0
 20
0.0
 11
1.0
 21
1.0
 12
-306.314065334843
 22
-161.393517944569
 13
0.0
 23
0.0
 14
0.5
 24
0.5
 15
0.5
 25
0.5
 16
0.0
 26
0.0
 36
1.0
 17
0.0
 27
0.0
 37
0.0
 40
231.0000000000002
 41
1.60267857142857
 42
50.0
 43
0.0
 44
0.0
 50
0.0
 51
0.0
 71
     0
 72
   100
 73
     1
 74
     3
 75
     0
 76
     0
 77
     0
 78
     0
281
     0
 65
     1
110
0.0
120
0.0
130
0.0
111
1.0
121
0.0
131
0.0
112
0.0
122
1.0
132
0.0
 79
     0
146
0.0
  0
ENDTAB
  0
TABLE
  2
LTYPE
  5
5
330
0
100
AcDbSymbolTable
 70
     8
  0
LTYPE
  5
14
330
5
100
AcDbSymbolTableRecord
100
AcDbLinetypeTableRecord
  2
ByBlock
 70
     0
  3

 72
    65
 73
     0
 40
0.0
  0
LTYPE
  5
15
330
5
100
AcDbSymbolTableRecord
100
AcDbLinetypeTableRecord
  2
ByLayer
 70
     0
  3

 72
    65
 73
     0
 40
0.0
  0
LTYPE
  5
16
330
5
100
AcDbSymbolTableRecord
100
AcDbLinetypeTableRecord
  2
Continuous
 70
     0
  3
Solid line
 72
    65
 73
     0
 40
0.0
  0
LTYPE
  5
3F
330
5
100
AcDbSymbolTableRecord
100
AcDbLinetypeTableRecord
  2
DASHED
 70
     0
  3
Dashed
 72
    65
 73
     2
 40
15.0
 49
7.0
 74
     0
 49
-8.0
 74
     0
  0
LTYPE
  5
40
330
5
100
AcDbSymbolTableRecord
100
AcDbLinetypeTableRecord
  2
DOTTED
 70
     0
  3
Dotted
 72
    65
 73
     2
 40
1.0
 49
0.0
 74
     0
 49
-1.0
 74
     0
  0
LTYPE
  5
41
330
5
100
AcDbSymbolTableRecord
100
AcDbLinetypeTableRecord
  2
DOT_CENTER
 70
     0
  3
Dot_Center
 72
    65
 73
     4
 40
14.0
 49
12.0
 74
     0
 49
-1.0
 74
     0
 49
0.0
 74
     0
 49
-1.0
 74
     0
  0
LTYPE
  5
42
330
5
100
AcDbSymbolTableRecord
100
AcDbLinetypeTableRecord
  2
LONG_DASHED
 70
     0
  3
Long_Dashed
 72
    65
 73
     2
 40
15.0
 49
10.0
 74
     0
 49
-5.0
 74
     0
  0
LTYPE
  5
43
330
5
100
AcDbSymbolTableRecord
100
AcDbLinetypeTableRecord
  2
DASH_CENTER
 70
     0
  3
Dash_Center
 72
    65
 73
     4
 40
14.0
 49
11.0
 74
     0
 49
-1.0
 74
     0
 49
1.0
 74
     0
 49
-1.0
 74
     0
  0
LTYPE
  5
44
330
5
100
AcDbSymbolTableRecord
100
AcDbLinetypeTableRecord
  2
PHANTOM
 70
     0
  3
Phantom
 72
    65
 73
     6
 40
13.0
 49
10.0
 74
     0
 49
-1.0
 74
     0
 49
0.0
 74
     0
 49
-1.0
 74
     0
 49
0.0
 74
     0
 49
-1.0
 74
     0
  0
LTYPE
  5
45
330
5
100
AcDbSymbolTableRecord
100
AcDbLinetypeTableRecord
  2
CENTER_DASH_DASH
 70
     0
  3
Center_Dash_Dash
 72
    65
 73
     6
 40
14.0
 49
9.0
 74
     0
 49
-1.0
 74
     0
 49
1.0
 74
     0
 49
-1.0
 74
     0
 49
1.0
 74
     0
 49
-1.0
 74
     0
  0
ENDTAB
  0
TABLE
  2
LAYER
  5
2
330
0
100
AcDbSymbolTable
 70
     2
  0
LAYER
  5
10
330
2
100
AcDbSymbolTableRecord
100
AcDbLayerTableRecord
  2
0
 70
     0
 62
     7
  6
Continuous
370
    -3
390
F
  0
LAYER
  5
46
330
2
100
AcDbSymbolTableRecord
100
AcDbLayerTableRecord
  2
1
 70
     0
 62
     7
  6
Continuous
370
    -3
390
F
  0
ENDTAB
  0
TABLE
  2
STYLE
  5
3
330
0
100
AcDbSymbolTable
 70
     5
  0
STYLE
  5
11
330
3
100
AcDbSymbolTableRecord
100
AcDbTextStyleTableRecord
  2
Standard
 70
     0
 40
0.0
 41
1.0
 50
0.0
 71
     0
 42
0.2
  3
txt
  4

  0
STYLE
  5
D4
330
3
100
AcDbSymbolTableRecord
100
AcDbTextStyleTableRecord
  2
CONVERTER_11
 70
     0
 40
0.0
 41
0.9
 50
0.0
 71
     0
 42
0.2
  3
txt.shx
  4

  0
STYLE
  5
28E
330
3
100
AcDbSymbolTableRecord
100
AcDbTextStyleTableRecord
  2
CONVERTER_12
 70
     0
 40
0.0
 41
0.81
 50
0.0
 71
     0
 42
0.2
  3
txt.shx
  4

  0
STYLE
  5
2A4
330
3
100
AcDbSymbolTableRecord
100
AcDbTextStyleTableRecord
  2
CONVERTER_13
 70
     0
 40
0.0
 41
0.72
 50
0.0
 71
     0
 42
0.2
  3
txt.shx
  4

  0
STYLE
  5
2A7
330
3
100
AcDbSymbolTableRecord
100
AcDbTextStyleTableRecord
  2
CONVERTER_14
 70
     0
 40
0.0
 41
0.855
 50
0.0
 71
     0
 42
0.2
  3
txt.shx
  4

  0
ENDTAB
  0
TABLE
  2
VIEW
  5
6
330
0
100
AcDbSymbolTable
 70
     0
  0
ENDTAB
  0
TABLE
  2
UCS
  5
7
330
0
100
AcDbSymbolTable
 70
     0
  0
ENDTAB
  0
TABLE
  2
APPID
  5
9
330
0
100
AcDbSymbolTable
 70
     1
  0
APPID
  5
12
330
9
100
AcDbSymbolTableRecord
100
AcDbRegAppTableRecord
  2
ACAD
 70
     0
  0
ENDTAB
  0
TABLE
  2
DIMSTYLE
  5
A
330
0
100
AcDbSymbolTable
 70
     4
100
AcDbDimStyleTable
  0
DIMSTYLE
105
27
330
A
100
AcDbSymbolTableRecord
100
AcDbDimStyleTableRecord
  2
Standard
 70
     0
178
     0
340
11
  0
DIMSTYLE
105
E4
102
{ACAD_REACTORS
330
E5
102
}
330
A
100
AcDbSymbolTableRecord
100
AcDbDimStyleTableRecord
  2
ME10_DIM_10
 70
     0
 41
1.75
 42
0.0
 44
0.75
 73
     0
 74
     0
 77
     1
 78
     8
140
1.75
147
0.75
172
     1
173
     1
174
     1
175
     1
176
     2
177
     2
178
     3
340
D4
  0
DIMSTYLE
105
185
102
{ACAD_REACTORS
330
186
102
}
330
A
100
AcDbSymbolTableRecord
100
AcDbDimStyleTableRecord
  2
ME10_DIM_11
 70
     0
 41
1.75
 42
0.0
 44
0.75
 73
     0
 74
     0
 77
     1
 78
     8
140
1.75
147
0.75
172
     1
173
     1
174
     1
175
     1
176
     2
177
     2
178
     3
340
D4
  0
DIMSTYLE
105
190
102
{ACAD_REACTORS
330
191
102
}
330
A
100
AcDbSymbolTableRecord
100
AcDbDimStyleTableRecord
  2
ME10_DIM_12
 70
     0
 41
1.75
 42
0.0
 44
0.75
 73
     0
 74
     0
 77
     1
 78
     8
140
1.75
147
0.75
172
     1
173
     1
174
     1
175
     1
176
     2
177
     2
178
     3
340
D4
  0
ENDTAB
  0
TABLE
  2
BLOCK_RECORD
  5
1
330
0
100
AcDbSymbolTable
 70
    27
  0
BLOCK_RECORD
  5
1F
330
1
100
AcDbSymbolTableRecord
100
AcDbBlockTableRecord
  2
*Model_Space
340
22
  0
BLOCK_RECORD
  5
1B
330
1
100
AcDbSymbolTableRecord
100
AcDbBlockTableRecord
  2
*Paper_Space
340
1E
  0
BLOCK_RECORD
  5
23
330
1
100
AcDbSymbolTableRecord
100
AcDbBlockTableRecord
  2
*Paper_Space0
340
26
  0
BLOCK_RECORD
  5
47
330
1
100
AcDbSymbolTableRecord
100
AcDbBlockTableRecord
  2
KLM-Select__1
340
0
102
{BLKREFS
331
4B
102
}
  0
BLOCK_RECORD
  5
4A
330
1
100
AcDbSymbolTableRecord
100
AcDbBlockTableRecord
  2
KLM-ESL_26x6-Select__2
340
0
102
{BLKREFS
331
4F
102
}
  0
BLOCK_RECORD
  5
4E
330
1
100
AcDbSymbolTableRecord
100
AcDbBlockTableRecord
  2
Allg1
340
0
102
{BLKREFS
331
99
102
}
  0
BLOCK_RECORD
  5
52
330
1
100
AcDbSymbolTableRecord
100
AcDbBlockTableRecord
  2
KLM-Select__3
340
0
102
{BLKREFS
331
56
102
}
  0
BLOCK_RECORD
  5
55
330
1
100
AcDbSymbolTableRecord
100
AcDbBlockTableRecord
  2
KLM-ESL_26x6-Select__4
340
0
102
{BLKREFS
331
5A
102
}
  0
BLOCK_RECORD
  5
59
330
1
100
AcDbSymbolTableRecord
100
AcDbBlockTableRecord
  2
Drfsicht2
340
0
102
{BLKREFS
331
9A
102
}
  0
BLOCK_RECORD
  5
5D
330
1
100
AcDbSymbolTableRecord
100
AcDbBlockTableRecord
  2
KLM-Select__5
340
0
102
{BLKREFS
331
61
102
}
  0
BLOCK_RECORD
  5
60
330
1
100
AcDbSymbolTableRecord
100
AcDbBlockTableRecord
  2
KLM-ESL_26x6-Select__6
340
0
102
{BLKREFS
331
65
102
}
  0
BLOCK_RECORD
  5
64
330
1
100
AcDbSymbolTableRecord
100
AcDbBlockTableRecord
  2
Rckans2
340
0
102
{BLKREFS
331
9B
102
}
  0
BLOCK_RECORD
  5
68
330
1
100
AcDbSymbolTableRecord
100
AcDbBlockTableRecord
  2
KLM-Select__7
340
0
102
{BLKREFS
331
6C
102
}
  0
BLOCK_RECORD
  5
6B
330
1
100
AcDbSymbolTableRecord
100
AcDbBlockTableRecord
  2
KLM-ESL_26x6-Select__8
340
0
102
{BLKREFS
331
70
102
}
  0
BLOCK_RECORD
  5
6F
330
1
100
AcDbSymbolTableRecord
100
AcDbBlockTableRecord
  2
SA_Links2
340
0
102
{BLKREFS
331
9C
102
}
  0
BLOCK_RECORD
  5
73
330
1
100
AcDbSymbolTableRecord
100
AcDbBlockTableRecord
  2
KLM-Select__9
340
0
102
{BLKREFS
331
77
102
}
  0
BLOCK_RECORD
  5
76
330
1
100
AcDbSymbolTableRecord
100
AcDbBlockTableRecord
  2
KLM-ESL_26x6-Select__10
340
0
102
{BLKREFS
331
7B
102
}
  0
BLOCK_RECORD
  5
7A
330
1
100
AcDbSymbolTableRecord
100
AcDbBlockTableRecord
  2
SA_Rechts2
340
0
102
{BLKREFS
331
9D
102
}
  0
BLOCK_RECORD
  5
7E
330
1
100
AcDbSymbolTableRecord
100
AcDbBlockTableRecord
  2
ESL_26x6-Select
340
0
102
{BLKREFS
331
85
102
}
  0
BLOCK_RECORD
  5
81
330
1
100
AcDbSymbolTableRecord
100
AcDbBlockTableRecord
  2
KLM-Select__11
340
0
102
{BLKREFS
331
86
102
}
  0
BLOCK_RECORD
  5
84
330
1
100
AcDbSymbolTableRecord
100
AcDbBlockTableRecord
  2
KLM-ESL_26x6-Select__12
340
0
102
{BLKREFS
331
8A
102
}
  0
BLOCK_RECORD
  5
89
330
1
100
AcDbSymbolTableRecord
100
AcDbBlockTableRecord
  2
Vordans2
340
0
102
{BLKREFS
331
9E
102
}
  0
BLOCK_RECORD
  5
8D
330
1
100
AcDbSymbolTableRecord
100
AcDbBlockTableRecord
  2
_rahmen
340
0
102
{BLKREFS
331
94
102
}
  0
BLOCK_RECORD
  5
90
330
1
100
AcDbSymbolTableRecord
100
AcDbBlockTableRecord
  2
_punkt
340
0
102
{BLKREFS
331
95
102
}
  0
BLOCK_RECORD
  5
93
330
1
100
AcDbSymbolTableRecord
100
AcDbBlockTableRecord
  2
A4I_CS
340
0
102
{BLKREFS
331
9F
102
}
  0
BLOCK_RECORD
  5
98
330
1
100
AcDbSymbolTableRecord
100
AcDbBlockTableRecord
  2
1
340
0
102
{BLKREFS
331
A2
102
}
  0
BLOCK_RECORD
  5
DB
330
1
100
AcDbSymbolTableRecord
100
AcDbBlockTableRecord
  2
*D24
340
0
  0
BLOCK_RECORD
  5
17C
330
1
100
AcDbSymbolTableRecord
100
AcDbBlockTableRecord
  2
*D25
340
0
  0
BLOCK_RECORD
  5
187
330
1
100
AcDbSymbolTableRecord
100
AcDbBlockTableRecord
  2
*D26
340
0
  0
ENDTAB
  0
ENDSEC
  0
SECTION
  2
BLOCKS
  0
BLOCK
  5
20
330
1F
100
AcDbEntity
  8
0
100
AcDbBlockBegin
  2
*Model_Space
 70
     0
 10
0.0
 20
0.0
 30
0.0
  3
*Model_Space
  1

  0
ENDBLK
  5
21
330
1F
100
AcDbEntity
  8
0
100
AcDbBlockEnd
  0
BLOCK
  5
1C
330
1B
100
AcDbEntity
 67
     1
  8
0
100
AcDbBlockBegin
  2
*Paper_Space
 70
     0
 10
0.0
 20
0.0
 30
0.0
  3
*Paper_Space
  1

  0
ENDBLK
  5
1D
330
1B
100
AcDbEntity
 67
     1
  8
0
100
AcDbBlockEnd
  0
BLOCK
  5
24
330
23
100
AcDbEntity
  8
0
100
AcDbBlockBegin
  2
*Paper_Space0
 70
     0
 10
0.0
 20
0.0
 30
0.0
  3
*Paper_Space0
  1

  0
ENDBLK
  5
25
330
23
100
AcDbEntity
  8
0
100
AcDbBlockEnd
  0
BLOCK
  5
48
330
47
100
AcDbEntity
  8
0
100
AcDbBlockBegin
  2
KLM-Select__1
 70
     0
 10
-135.6243551574485
 20
-107.8379897034476
 30
0.0
  3
KLM-Select__1
  1

  0
LINE
  5
A3
330
47
100
AcDbEntity
  8
0
  6
Continuous
 62
     7
100
AcDbLine
 10
-135.6243551574485
 20
-87.30421855238588
 30
0.0
 11
-135.6243551574485
 21
-84.70614234103256
 31
0.0
  0
LINE
  5
A4
330
47
100
AcDbEntity
  8
0
  6
Continuous
 62
     7
100
AcDbLine
 10
-130.861215436634
 20
-88.67921855238588
 30
0.0
 11
-135.6243551574485
 21
-87.30421855238588
 31
0.0
  0
LINE
  5
A5
330
47
100
AcDbEntity
  8
0
  6
Continuous
 62
     7
100
AcDbLine
 10
-135.6243551574485
 20
-84.70614234103256
 30
0.0
 11
-131.6243551574485
 21
-81.24204072589481
 31
0.0
  0
LINE
  5
A6
330
47
100
AcDbEntity
  8
0
  6
Continuous
 62
     7
100
AcDbLine
 10
-111.3756438514842
 20
-91.70614234103255
 30
0.0
 11
-135.6243551574485
 21
-84.70614234103256
 31
0.0
  0
LINE
  5
A7
330
47
100
AcDbEntity
  8
0
  6
Continuous
 62
     2
100
AcDbLine
 10
-116.4295744410697
 20
-106.9453185065882
 30
0.0
 11
-114.9140299844469
 21
-107.3828185065882
 31
0.0
  0
LINE
  5
A8
330
47
100
AcDbEntity
  8
0
  6
Continuous
 62
     7
100
AcDbLine
 10
-116.1387835722986
 20
-92.92921855238586
 30
0.0
 11
-116.1387835722986
 21
-102.6151650040512
 31
0.0
  0
LINE
  5
A9
330
47
100
AcDbEntity
  8
0
  6
Continuous
 62
     7
100
AcDbLine
 10
-117.6543280289213
 20
-93.01133379465654
 30
0.0
 11
-117.6543280289213
 21
-102.1776650040512
 31
0.0
  0
LINE
  5
AA
330
47
100
AcDbEntity
  8
0
  6
Continuous
 62
     7
100
AcDbLine
 10
-107.3756438514842
 20
-90.84011693724811
 30
0.0
 11
-107.3756438514842
 21
-88.2420407258948
 31
0.0
  0
LINE
  5
AB
330
47
100
AcDbEntity
  8
0
  6
Continuous
 62
     7
100
AcDbLine
 10
-111.3756438514842
 20
-94.30421855238586
 30
0.0
 11
-116.1387835722986
 21
-92.92921855238586
 31
0.0
  0
LINE
  5
AC
330
47
100
AcDbEntity
  8
0
  6
Continuous
 62
     7
100
AcDbLine
 10
-111.3756438514842
 20
-94.30421855238586
 30
0.0
 11
-111.3756438514842
 21
-91.70614234103255
 31
0.0
  0
LINE
  5
AD
330
47
100
AcDbEntity
  8
0
  6
Continuous
 62
     7
100
AcDbLine
 10
-107.3756438514842
 20
-88.2420407258948
 30
0.0
 11
-111.3756438514842
 21
-91.70614234103255
 31
0.0
  0
LINE
  5
AE
330
47
100
AcDbEntity
  8
0
  6
Continuous
 62
     7
100
AcDbLine
 10
-107.3756438514842
 20
-90.84011693724811
 30
0.0
 11
-111.3756438514842
 21
-94.30421855238586
 31
0.0
  0
LINE
  5
AF
330
47
100
AcDbEntity
  8
0
  6
Continuous
 62
     7
100
AcDbLine
 10
-112.1387835722986
 20
-99.1510633889135
 30
0.0
 11
-113.3635371601502
 21
-106.0400523323618
 31
0.0
  0
LINE
  5
B0
330
47
100
AcDbEntity
  8
0
  6
Continuous
 62
     7
100
AcDbLine
 10
-117.6543280289213
 20
-95.81148260022621
 30
0.0
 11
-118.7009613987896
 21
-95.50934557130806
 31
0.0
  0
LINE
  5
B1
330
47
100
AcDbEntity
  8
0
  6
Continuous
 62
     7
100
AcDbLine
 10
-118.7009613987896
 20
-92.70919676573838
 30
0.0
 11
-118.7009613987896
 21
-95.50934557130806
 31
0.0
  0
LINE
  5
B2
330
47
100
AcDbEntity
  8
0
  6
Continuous
 62
     7
100
AcDbLine
 10
-129.3456709800113
 20
-96.47793448455359
 30
0.0
 11
-129.3456709800113
 21
-98.80266500405122
 31
0.0
  0
LINE
  5
B3
330
47
100
AcDbEntity
  8
0
  6
Continuous
 62
     7
100
AcDbLine
 10
-129.3456709800113
 20
-98.80266500405122
 30
0.0
 11
-130.861215436634
 21
-98.36516500405122
 31
0.0
  0
LINE
  5
B4
330
47
100
AcDbEntity
  8
0
  6
Continuous
 62
     7
100
AcDbLine
 10
-124.299037610143
 20
-93.02729476373918
 30
0.0
 11
-124.299037610143
 21
-97.35742178266136
 31
0.0
  0
LINE
  5
B5
330
47
100
AcDbEntity
  8
0
  6
Continuous
 62
     7
100
AcDbLine
 10
-130.861215436634
 20
-88.67921855238588
 30
0.0
 11
-130.861215436634
 21
-98.36516500405122
 31
0.0
  0
LINE
  5
B6
330
47
100
AcDbEntity
  8
0
  6
Continuous
 62
     7
100
AcDbLine
 10
-125.3456709800113
 20
-90.79103433303578
 30
0.0
 11
-125.3456709800113
 21
-92.72515773482102
 31
0.0
  0
LINE
  5
B7
330
47
100
AcDbEntity
  8
0
  6
Continuous
 62
     7
100
AcDbLine
 10
-129.3456709800113
 20
-89.63633379465654
 30
0.0
 11
-129.3456709800113
 21
-92.1478074656314
 31
0.0
  0
LINE
  5
B8
330
47
100
AcDbEntity
  8
0
  6
Continuous
 62
     7
100
AcDbLine
 10
-124.799037610143
 20
-97.79043448455359
 30
0.0
 11
-124.799037610143
 21
-93.4603074656314
 31
0.0
  0
LINE
  5
B9
330
47
100
AcDbEntity
  8
0
  6
Continuous
 62
     7
100
AcDbLine
 10
-124.799037610143
 20
-93.4603074656314
 30
0.0
 11
-124.299037610143
 21
-93.02729476373918
 31
0.0
  0
LINE
  5
BA
330
47
100
AcDbEntity
  8
0
  6
Continuous
 62
     7
100
AcDbLine
 10
-129.3456709800113
 20
-92.1478074656314
 30
0.0
 11
-128.8456709800113
 21
-91.71479476373918
 31
0.0
  0
LINE
  5
BB
330
47
100
AcDbEntity
  8
0
  6
Continuous
 62
     7
100
AcDbLine
 10
-129.3456709800113
 20
-92.1478074656314
 30
0.0
 11
-124.799037610143
 21
-93.4603074656314
 31
0.0
  0
LINE
  5
BC
330
47
100
AcDbEntity
  8
0
  6
Continuous
 62
     7
100
AcDbLine
 10
-128.8456709800113
 20
-91.71479476373918
 30
0.0
 11
-124.299037610143
 21
-93.02729476373918
 31
0.0
  0
LINE
  5
BD
330
47
100
AcDbEntity
  8
0
  6
Continuous
 62
     7
100
AcDbLine
 10
-124.799037610143
 20
-97.79043448455359
 30
0.0
 11
-124.299037610143
 21
-97.35742178266136
 31
0.0
  0
LINE
  5
BE
330
47
100
AcDbEntity
  8
0
  6
Continuous
 62
     7
100
AcDbLine
 10
-129.3456709800113
 20
-96.47793448455359
 30
0.0
 11
-124.799037610143
 21
-97.79043448455359
 31
0.0
  0
LINE
  5
BF
330
47
100
AcDbEntity
  8
0
  6
Continuous
 62
     7
100
AcDbLine
 10
-129.3456709800113
 20
-89.63633379465654
 30
0.0
 11
-117.6543280289213
 21
-93.01133379465654
 31
0.0
  0
LINE
  5
C0
330
47
100
AcDbEntity
  8
0
  6
Continuous
 62
     7
100
AcDbLine
 10
-112.1387835722986
 20
-94.08391909076512
 30
0.0
 11
-112.1387835722986
 21
-99.1510633889135
 31
0.0
  0
LINE
  5
C1
330
47
100
AcDbEntity
  8
0
  6
Continuous
 62
     7
100
AcDbLine
 10
-125.7336109269003
 20
-97.52064640654994
 30
0.0
 11
-126.3487402281068
 21
-100.9806231699052
 31
0.0
  0
LINE
  5
C2
330
47
100
AcDbEntity
  8
0
  6
Continuous
 62
     2
100
AcDbLine
 10
-129.6364618487824
 20
-103.1328185065883
 30
0.0
 11
-128.1209173921596
 21
-103.5703185065882
 31
0.0
  0
LINE
  5
C3
330
47
100
AcDbEntity
  8
0
  6
Continuous
 62
     7
100
AcDbLine
 10
-130.861215436634
 20
-98.36516500405122
 30
0.0
 11
-129.6364618487824
 21
-103.1328185065883
 31
0.0
  0
LINE
  5
C4
330
47
100
AcDbEntity
  8
0
  6
Continuous
 62
     7
100
AcDbLine
 10
-129.3456709800113
 20
-98.80266500405122
 30
0.0
 11
-128.1209173921596
 21
-103.5703185065882
 31
0.0
  0
LINE
  5
C5
330
47
100
AcDbEntity
  8
0
  6
Continuous
 62
     7
100
AcDbLine
 10
-126.8880433181255
 20
-100.8249397778067
 30
0.0
 11
-125.0260886999889
 21
-101.3624397778067
 31
0.0
  0
LINE
  5
C6
330
47
100
AcDbEntity
  8
0
  6
Continuous
 62
     7
100
AcDbLine
 10
-117.6543280289213
 20
-102.1776650040512
 30
0.0
 11
-116.1387835722986
 21
-102.6151650040512
 31
0.0
  0
LINE
  5
C7
330
47
100
AcDbEntity
  8
0
  6
Continuous
 62
     7
100
AcDbLine
 10
-116.1387835722986
 20
-102.6151650040512
 30
0.0
 11
-114.9140299844469
 21
-107.3828185065882
 31
0.0
  0
LINE
  5
C8
330
47
100
AcDbEntity
  8
0
  6
Continuous
 62
     7
100
AcDbLine
 10
-117.6543280289213
 20
-102.1776650040512
 30
0.0
 11
-116.4295744410697
 21
-106.9453185065882
 31
0.0
  0
LINE
  5
C9
330
47
100
AcDbEntity
  8
0
  6
Continuous
 62
     7
100
AcDbLine
 10
-117.9739103089437
 20
-106.8329772231474
 30
0.0
 11
-114.5964112341844
 21
-107.8079772231474
 31
0.0
  0
LINE
  5
CA
330
47
100
AcDbEntity
  8
0
  6
Continuous
 62
     7
100
AcDbLine
 10
-129.3188430985198
 20
-103.5579772231474
 30
0.0
 11
-125.9413440237605
 21
-104.5329772231474
 31
0.0
  0
LINE
  5
CB
330
47
100
AcDbEntity
  8
0
  6
Continuous
 62
     7
100
AcDbLine
 10
-107.3756438514842
 20
-88.2420407258948
 30
0.0
 11
-131.6243551574485
 21
-81.24204072589481
 31
0.0
  0
SPLINE
  5
CC
330
47
100
AcDbEntity
  8
0
  6
Continuous
 62
     7
100
AcDbSpline
210
0.0
220
0.0
230
1.0
 70
     8
 71
     3
 72
    11
 73
     7
 74
     5
 42
0.000000001
 43
0.0000000001
 44
0.00000001
 40
0.0
 40
0.0
 40
0.0
 40
0.0
 40
0.1677708697762208
 40
0.3128001089303387
 40
0.4387250455200061
 40
0.5533256677928451
 40
0.5533256677928451
 40
0.5533256677928451
 40
0.5533256677928451
 10
-114.9140299844469
 20
-107.3828185065882
 30
0.0
 10
-114.8980613640491
 20
-107.4366197412051
 30
0.0
 10
-114.8682886844411
 20
-107.5369293555586
 30
0.0
 10
-114.7957125243299
 20
-107.6647588476083
 30
0.0
 10
-114.706920129639
 20
-107.7621421249606
 30
0.0
 10
-114.6320728937087
 20
-107.7931860600384
 30
0.0
 10
-114.5964112341844
 20
-107.8079772231474
 30
0.0
 11
-114.9140299844469
 21
-107.3828185065882
 31
0.0
 11
-114.8598032707647
 21
-107.5415841436045
 31
0.0
 11
-114.7875163093803
 21
-107.6673143159118
 31
0.0
 11
-114.6989797252336
 21
-107.7568596339651
 31
0.0
 11
-114.5964112341844
 21
-107.8079772231474
 31
0.0
  0
SPLINE
  5
CD
330
47
100
AcDbEntity
  8
0
  6
Continuous
 62
     7
100
AcDbSpline
210
0.0
220
0.0
230
1.0
 70
     8
 71
     3
 72
    11
 73
     7
 74
     5
 42
0.000000001
 43
0.0000000001
 44
0.00000001
 40
0.0
 40
0.0
 40
0.0
 40
0.0
 40
0.1146006222729026
 40
0.2405255588625801
 40
0.3855547980166487
 40
0.5533256677928338
 40
0.5533256677928338
 40
0.5533256677928338
 40
0.5533256677928338
 10
-129.3188430985198
 20
-103.5579772231474
 30
0.0
 10
-129.3545047580442
 20
-103.5431860600384
 30
0.0
 10
-129.4293519939746
 20
-103.5121421249606
 30
0.0
 10
-129.5181443886654
 20
-103.4147588476083
 30
0.0
 10
-129.5907205487766
 20
-103.2869293555587
 30
0.0
 10
-129.6204932283845
 20
-103.1866197412052
 30
0.0
 10
-129.6364618487824
 20
-103.1328185065883
 30
0.0
 11
-129.3188430985198
 21
-103.5579772231474
 31
0.0
 11
-129.4214115895691
 21
-103.5068596339651
 31
0.0
 11
-129.5099481737158
 21
-103.4173143159118
 31
0.0
 11
-129.5822351351002
 21
-103.2915841436046
 31
0.0
 11
-129.6364618487824
 21
-103.1328185065883
 31
0.0
  0
SPLINE
  5
CE
330
47
100
AcDbEntity
  8
0
  6
Continuous
 62
     7
100
AcDbSpline
210
0.0
220
0.0
230
1.0
 70
     8
 71
     3
 72
    17
 73
    13
 74
    11
 42
0.000000001
 43
0.0000000001
 44
0.00000001
 40
0.0
 40
0.0
 40
0.0
 40
0.0
 40
0.3110579463460371
 40
0.6731727994684082
 40
1.071044150872887
 40
1.485187505909059
 40
1.894427537263089
 40
2.278087337702543
 40
2.61825771722503
 40
2.902648109492124
 40
3.129259979130689
 40
3.314979877801118
 40
3.314979877801118
 40
3.314979877801118
 40
3.314979877801118
 10
-125.4571373078681
 20
-104.3528905121196
 30
0.0
 10
-125.3860264991609
 20
-104.2770606938647
 30
0.0
 10
-125.2321327921864
 20
-104.1129543816991
 30
0.0
 10
-125.0503516427835
 20
-103.8028642356441
 30
0.0
 10
-124.889290102685
 20
-103.4458398669833
 30
0.0
 10
-124.7652849013718
 20
-103.0570873715514
 30
0.0
 10
-124.6840072421673
 20
-102.6621489868861
 30
0.0
 10
-124.6510639841977
 20
-102.285329077839
 30
0.0
 10
-124.6673157500355
 20
-101.9470763141363
 30
0.0
 10
-124.7341065901363
 20
-101.6724121780104
 30
0.0
 10
-124.8448692321252
 20
-101.4552551089332
 30
0.0
 10
-124.9698125224406
 20
-101.3912627951792
 30
0.0
 10
-125.0260886999889
 20
-101.3624397778067
 30
0.0
 11
-125.4571373078681
 21
-104.3528905121196
 31
0.0
 11
-125.2522687734655
 21
-104.1188265810438
 31
0.0
 11
-125.0620361618256
 21
-103.8107053055346
 31
0.0
 11
-124.8984694545711
 21
-103.4480104686252
 31
0.0
 11
-124.7719116813533
 21
-103.053678313677
 31
0.0
 11
-124.6903664924344
 21
-102.6526449171095
 31
0.0
 11
-124.6589899291328
 21
-102.2702702926898
 31
0.0
 11
-124.6797668133894
 21
-101.9307350106764
 31
0.0
 11
-124.7513826092872
 21
-101.6555095171153
 31
0.0
 11
-124.8693091919436
 21
-101.4619991587048
 31
0.0
 11
-125.0260886999889
 21
-101.3624397778067
 31
0.0
  0
SPLINE
  5
CF
330
47
100
AcDbEntity
  8
0
  6
Continuous
 62
     7
100
AcDbSpline
210
0.0
220
0.0
230
1.0
 70
     8
 71
     3
 72
    17
 73
    13
 74
    11
 42
0.000000001
 43
0.0000000001
 44
0.00000001
 40
0.0
 40
0.0
 40
0.0
 40
0.0
 40
0.2688794497498427
 40
0.6127097311563139
 40
1.022809127711205
 40
1.477034377955905
 40
1.946641184885607
 40
2.400843748290555
 40
2.81089962372702
 40
3.154675029817756
 40
3.423499313413481
 40
3.635579733238329
 40
3.635579733238329
 40
3.635579733238329
 40
3.635579733238329
 10
-117.2707396080379
 20
-103.6708769419445
 30
0.0
 10
-117.3512621661189
 20
-103.7119680514561
 30
0.0
 10
-117.5347531426419
 20
-103.8056045334284
 30
0.0
 10
-117.7566160298169
 20
-104.0740410076573
 30
0.0
 10
-117.9667660226245
 20
-104.4168486316307
 30
0.0
 10
-118.1411532949351
 20
-104.8280566039057
 30
0.0
 10
-118.2690578571523
 20
-105.2702982616876
 30
0.0
 10
-118.3392847396824
 20
-105.7100377944617
 30
0.0
 10
-118.3482217491153
 20
-106.1160343162861
 30
0.0
 10
-118.2917121763108
 20
-106.4498641023401
 30
0.0
 10
-118.181158605946
 20
-106.718633042081
 30
0.0
 10
-118.0373363560602
 20
-106.7979834546713
 30
0.0
 10
-117.9739103089437
 20
-106.8329772231474
 30
0.0
 11
-117.2707396080379
 21
-103.6708769419445
 31
0.0
 11
-117.5025657566328
 21
-103.8070855738889
 31
0.0
 11
-117.7355030026044
 21
-104.0599877351281
 31
0.0
 11
-117.9506825542777
 21
-104.409099859216
 31
0.0
 11
-118.1306747870744
 21
-104.8261410716445
 31
0.0
 11
-118.2608988869143
 21
-105.2773308717289
 31
0.0
 11
-118.3308074833734
 21
-105.7261211965698
 31
0.0
 11
-118.3347364265946
 21
-106.1361582478634
 31
0.0
 11
-118.2723688682566
 21
-106.4742289749302
 31
0.0
 11
-118.1487554098939
 21
-106.7129468130663
 31
0.0
 11
-117.9739103089437
 21
-106.8329772231474
 31
0.0
  0
SPLINE
  5
D0
330
47
100
AcDbEntity
  8
0
  6
Continuous
 62
     7
100
AcDbSpline
210
0.0
220
0.0
230
1.0
 70
     8
 71
     3
 72
    19
 73
    15
 74
    13
 42
0.000000001
 43
0.0000000001
 44
0.00000001
 40
0.0
 40
0.0
 40
0.0
 40
0.0
 40
0.1932767642802934
 40
0.4317379924383669
 40
0.7328241261215657
 40
1.092919338124897
 40
1.497218313649048
 40
1.924962995472324
 40
2.35270767729563
 40
2.757006652819816
 40
3.117101864823138
 40
3.418187998506293
 40
3.656649226664418
 40
3.849925990944774
 40
3.849925990944774
 40
3.849925990944774
 40
3.849925990944774
 10
-125.0260886999889
 20
-101.3624397778067
 30
0.0
 10
-125.0917445652558
 20
-101.3571815590079
 30
0.0
 10
-125.238405396443
 20
-101.3454358693251
 30
0.0
 10
-125.4559218078845
 20
-101.4822245134103
 30
0.0
 10
-125.6656446849608
 20
-101.6946355070815
 30
0.0
 10
-125.8644748949996
 20
-101.9923014880164
 30
0.0
 10
-126.0388179076861
 20
-102.350030582271
 30
0.0
 10
-126.1777546771087
 20
-102.7473568964129
 30
0.0
 10
-126.2719433686058
 20
-103.1576008679728
 30
0.0
 10
-126.3150700399003
 20
-103.5532088572399
 30
0.0
 10
-126.3054668168409
 20
-103.9110443875283
 30
0.0
 10
-126.2412110387379
 20
-104.2025462063596
 30
0.0
 10
-126.1300586541194
 20
-104.4342133593846
 30
0.0
 10
-125.9997012950223
 20
-104.5024359330672
 30
0.0
 10
-125.9413440237605
 20
-104.5329772231474
 30
0.0
 11
-125.0260886999889
 21
-101.3624397778067
 31
0.0
 11
-125.2193461866102
 21
-101.3651697044265
 31
0.0
 11
-125.4306199276214
 21
-101.4757462196527
 31
0.0
 11
-125.645512130228
 21
-101.686635289908
 31
0.0
 11
-125.8493783019332
 21
-101.9834637659347
 31
0.0
 11
-126.0283250283768
 21
-102.346004423758
 31
0.0
 11
-126.1701578547035
 21
-102.7495499101432
 31
0.0
 11
-126.2652104741453
 21
-103.1665996790473
 31
0.0
 11
-126.307005963819
 21
-103.568732488605
 31
0.0
 11
-126.2926952036412
 21
-103.9285432198085
 31
0.0
 11
-126.2232542889567
 21
-104.2215121909675
 31
0.0
 11
-126.103414705792
 21
-104.4276728896164
 31
0.0
 11
-125.9413440237605
 21
-104.5329772231474
 31
0.0
  0
SPLINE
  5
D1
330
47
100
AcDbEntity
  8
0
  6
Continuous
 62
     7
100
AcDbSpline
210
0.0
220
0.0
230
1.0
 70
     8
 71
     3
 72
    17
 73
    13
 74
    11
 42
0.000000001
 43
0.0000000001
 44
0.00000001
 40
0.0
 40
0.0
 40
0.0
 40
0.0
 40
0.1846676085601471
 40
0.4096460705038349
 40
0.6917348651392095
 40
1.029142578899798
 40
1.409909546518611
 40
1.816506242203163
 40
2.228630699551286
 40
2.625424833511706
 40
2.987602371330632
 40
3.299852827679349
 40
3.299852827679349
 40
3.299852827679349
 40
3.299852827679349
 10
-126.8880433181255
 20
-100.8249397778067
 30
0.0
 10
-126.950649934338
 20
-100.8192925549692
 30
0.0
 10
-127.0895294822466
 20
-100.8067653874252
 30
0.0
 10
-127.29784676513
 20
-100.9298362145822
 30
0.0
 10
-127.4997724711789
 20
-101.1245006122204
 30
0.0
 10
-127.6930885099438
 20
-101.3992691342917
 30
0.0
 10
-127.8657813071215
 20
-101.7326883790513
 30
0.0
 10
-128.007816342119
 20
-102.1073577705324
 30
0.0
 10
-128.1110312250346
 20
-102.5001374578761
 30
0.0
 10
-128.166695849415
 20
-102.8868216742953
 30
0.0
 10
-128.1801970402014
 20
-103.2459766976987
 30
0.0
 10
-128.1396774038874
 20
-103.4676752619318
 30
0.0
 10
-128.1209173921596
 20
-103.5703185065882
 30
0.0
 11
-126.8880433181255
 21
-100.8249397778067
 31
0.0
 11
-127.0727104698618
 21
-100.825354995791
 31
0.0
 11
-127.2744552628041
 21
-100.9249258004282
 31
0.0
 11
-127.4806556892082
 21
-101.1174237784199
 31
0.0
 11
-127.6784108631078
 21
-101.3908042021093
 31
0.0
 11
-127.8553480628955
 21
-101.7279639722822
 31
0.0
 11
-128.0003975645411
 21
-102.1078080386592
 31
0.0
 11
-128.1044838941129
 21
-102.5065718838345
 31
0.0
 11
-128.1610954637557
 21
-102.8993068009225
 31
0.0
 11
-128.1666897473587
 21
-103.261441130963
 31
0.0
 11
-128.1209173921596
 21
-103.5703185065882
 31
0.0
  0
SPLINE
  5
D2
330
47
100
AcDbEntity
  8
0
  6
Continuous
 62
     7
100
AcDbSpline
210
0.0
220
0.0
230
1.0
 70
     8
 71
     3
 72
    11
 73
     7
 74
     5
 42
0.000000001
 43
0.0000000001
 44
0.00000001
 40
0.0
 40
0.0
 40
0.0
 40
0.0
 40
0.1121014508777248
 40
0.2348537823438944
 40
0.3756810047902974
 40
0.5381763103679363
 40
0.5381763103679363
 40
0.5381763103679363
 40
0.5381763103679363
 10
-125.9413440237605
 20
-104.5329772231474
 30
0.0
 10
-125.9041474054584
 20
-104.5394223521528
 30
0.0
 10
-125.8262200764135
 20
-104.5529249541626
 30
0.0
 10
-125.7021861243654
 20
-104.520102495182
 30
0.0
 10
-125.5755456754914
 20
-104.4541695017646
 30
0.0
 10
-125.4984427306169
 20
-104.3882205509903
 30
0.0
 10
-125.4571373078681
 20
-104.3528905121196
 30
0.0
 11
-125.9413440237605
 21
-104.5329772231474
 31
0.0
 11
-125.8298426946922
 21
-104.5445612436885
 31
0.0
 11
-125.7100363054565
 21
-104.5178298953785
 31
0.0
 11
-125.5847995165925
 21
-104.4534245069284
 31
0.0
 11
-125.4571373078681
 21
-104.3528905121196
 31
0.0
  0
SPLINE
  5
D3
330
47
100
AcDbEntity
  8
0
  6
Continuous
 62
     7
100
AcDbSpline
210
0.0
220
0.0
230
1.0
 70
     8
 71
     3
 72
    15
 73
    11
 74
     9
 42
0.000000001
 43
0.0000000001
 44
0.00000001
 40
0.0
 40
0.0
 40
0.0
 40
0.0
 40
0.1656725834373733
 40
0.3618848891709174
 40
0.603502807902581
 40
0.8917501851546605
 40
1.219850533350032
 40
1.57639770914708
 40
1.947336886489498
 40
2.317408214191887
 40
2.317408214191887
 40
2.317408214191887
 40
2.317408214191887
 10
-114.5964112341844
 20
-107.8079772231474
 30
0.0
 10
-114.5405197271427
 20
-107.8142595955166
 30
0.0
 10
-114.418433796342
 20
-107.8279824073986
 30
0.0
 10
-114.2311597775519
 20
-107.7331723046089
 30
0.0
 10
-114.0474355789444
 20
-107.5761484989791
 30
0.0
 10
-113.8682418851137
 20
-107.3506900290856
 30
0.0
 10
-113.7022685186466
 20
-107.0714330773783
 30
0.0
 10
-113.55791812376
 20
-106.7498819425533
 30
0.0
 10
-113.4392461388979
 20
-106.4028971912415
 30
0.0
 10
-113.3887537746647
 20
-106.1609061477575
 30
0.0
 10
-113.3635371601502
 20
-106.0400523323618
 30
0.0
 11
-114.5964112341844
 21
-107.8079772231474
 31
0.0
 11
-114.4307882910141
 21
-107.8120329050913
 31
0.0
 11
-114.2502859874006
 21
-107.7351031468637
 31
0.0
 11
-114.0641019307228
 21
-107.5811073187322
 31
0.0
 11
-113.881723343588
 21
-107.3578930692983
 31
0.0
 11
-113.7124436004636
 21
-107.0768339884618
 31
0.0
 11
-113.5648883902172
 21
-106.7522521828716
 31
0.0
 11
-113.4465767681608
 21
-106.4006867784292
 31
0.0
 11
-113.3635371601502
 21
-106.0400523323618
 31
0.0
  0
ENDBLK
  5
49
330
47
100
AcDbEntity
  8
0
100
AcDbBlockEnd
  0
BLOCK
  5
4C
330
4A
100
AcDbEntity
  8
0
100
AcDbBlockBegin
  2
KLM-ESL_26x6-Select__2
 70
     0
 10
-135.6243551574485
 20
-107.8379897034476
 30
0.0
  3
KLM-ESL_26x6-Select__2
  1

  0
INSERT
  5
4B
330
4A
100
AcDbEntity
  8
0
100
AcDbBlockReference
  2
KLM-Select__1
 10
-135.6243551574485
 20
-107.8379897034476
 30
0.0
  0
ENDBLK
  5
4D
330
4A
100
AcDbEntity
  8
0
100
AcDbBlockEnd
  0
BLOCK
  5
50
330
4E
100
AcDbEntity
  8
0
100
AcDbBlockBegin
  2
Allg1
 70
     0
 10
-121.500000000005
 20
-96.00000000008203
 30
0.0
  3
Allg1
  1

  0
INSERT
  5
4F
330
4E
100
AcDbEntity
  8
0
100
AcDbBlockReference
  2
KLM-ESL_26x6-Select__2
 10
-135.6243551574485
 20
-107.8379897034476
 30
0.0
  0
MTEXT
  5
D5
330
4E
100
AcDbEntity
  8
1
 62
     6
100
AcDbMText
 10
-121.500000000005
 20
-113.2579596558214
 30
0.0
 40
2.5
 41
0.0
 71
     2
 72
     1
  1
 
  7
CONVERTER_11
 73
     1
 44
1.32052821128451
  0
ENDBLK
  5
51
330
4E
100
AcDbEntity
  8
0
100
AcDbBlockEnd
  0
BLOCK
  5
53
330
52
100
AcDbEntity
  8
0
100
AcDbBlockBegin
  2
KLM-Select__3
 70
     0
 10
-182.0000005722046
 20
-96.49999980021195
 30
0.0
  3
KLM-Select__3
  1

  0
LINE
  5
D6
330
52
100
AcDbEntity
  8
0
  6
Continuous
 62
     7
100
AcDbLine
 10
-182.0000005722046
 20
-96.49999980021195
 30
0.0
 11
-154.0000005722046
 21
-96.49999980021195
 31
0.0
  0
LINE
  5
D7
330
52
100
AcDbEntity
  8
0
  6
Continuous
 62
     7
100
AcDbLine
 10
-154.0000005722046
 20
-88.49999980021195
 30
0.0
 11
-154.0000005722046
 21
-96.49999980021195
 31
0.0
  0
LINE
  5
D8
330
52
100
AcDbEntity
  8
0
  6
Continuous
 62
     7
100
AcDbLine
 10
-182.0000005722046
 20
-88.49999980021195
 30
0.0
 11
-154.0000005722046
 21
-88.49999980021195
 31
0.0
  0
LINE
  5
D9
330
52
100
AcDbEntity
  8
0
  6
Continuous
 62
     7
100
AcDbLine
 10
-182.0000005722046
 20
-96.49999980021195
 30
0.0
 11
-182.0000005722046
 21
-88.49999980021195
 31
0.0
  0
ENDBLK
  5
54
330
52
100
AcDbEntity
  8
0
100
AcDbBlockEnd
  0
BLOCK
  5
57
330
55
100
AcDbEntity
  8
0
100
AcDbBlockBegin
  2
KLM-ESL_26x6-Select__4
 70
     0
 10
-182.0000005722046
 20
-96.49999980021195
 30
0.0
  3
KLM-ESL_26x6-Select__4
  1

  0
INSERT
  5
56
330
55
100
AcDbEntity
  8
0
100
AcDbBlockReference
  2
KLM-Select__3
 10
-182.0000005722046
 20
-96.49999980021195
 30
0.0
  0
ENDBLK
  5
58
330
55
100
AcDbEntity
  8
0
100
AcDbBlockEnd
  0
BLOCK
  5
5B
330
59
100
AcDbEntity
  8
0
100
AcDbBlockBegin
  2
Drfsicht2
 70
     0
 10
-168.0
 20
-92.49999980022193
 30
0.0
  3
Drfsicht2
  1

  0
INSERT
  5
5A
330
59
100
AcDbEntity
  8
0
100
AcDbBlockReference
  2
KLM-ESL_26x6-Select__4
 10
-182.0000005722046
 20
-96.49999980021195
 30
0.0
  0
MTEXT
  5
DA
330
59
100
AcDbEntity
  8
1
 62
     6
100
AcDbMText
 10
-168.0
 20
-98.99999980022193
 30
0.0
 40
2.5
 41
0.0
 71
     2
 72
     1
  1
 
  7
CONVERTER_11
 73
     1
 44
1.32052821128451
  0
DIMENSION
  5
E5
330
59
100
AcDbEntity
  8
1
100
AcDbDimension
  2
*D24
 10
-187.3674247734
 20
-88.49999980021195
 30
0.0
 11
-188.9924247734
 21
-92.995404056434
 31
0.0
 70
    32
  1
<>
 71
     5
 42
-1.0
 53
90.0
  3
ME10_DIM_10
100
AcDbAlignedDimension
 13
-182.0000005722046
 23
-96.49999980021195
 33
0.0
 14
-182.0000005722046
 24
-88.49999980021195
 34
0.0
 50
90.0
100
AcDbRotatedDimension
  0
ENDBLK
  5
5C
330
59
100
AcDbEntity
  8
0
100
AcDbBlockEnd
  0
BLOCK
  5
5E
330
5D
100
AcDbEntity
  8
0
100
AcDbBlockBegin
  2
KLM-Select__5
 70
     0
 10
-125.9999975204468
 20
-73.50085619994806
 30
0.0
  3
KLM-Select__5
  1

  0
LINE
  5
E6
330
5D
100
AcDbEntity
  8
0
  6
Continuous
 62
     7
100
AcDbLine
 10
-120.4999975204468
 20
-54.50085619994805
 30
0.0
 11
-125.9999975204468
 21
-54.50085619994805
 31
0.0
  0
LINE
  5
E7
330
5D
100
AcDbEntity
  8
0
  6
Continuous
 62
     7
100
AcDbLine
 10
-120.4999975204468
 20
-73.50085619994806
 30
0.0
 11
-116.5999975204468
 21
-73.50085619994806
 31
0.0
  0
LINE
  5
E8
330
5D
100
AcDbEntity
  8
0
  6
Continuous
 62
     7
100
AcDbLine
 10
-118.7499975204468
 20
-70.20085619994806
 30
0.0
 11
-116.5999975204468
 21
-70.20085619994806
 31
0.0
  0
LINE
  5
E9
330
5D
100
AcDbEntity
  8
0
  6
Continuous
 62
     7
100
AcDbLine
 10
-116.5999975204468
 20
-70.20085619994806
 30
0.0
 11
-116.5999975204468
 21
-73.50085619994806
 31
0.0
  0
LINE
  5
EA
330
5D
100
AcDbEntity
  8
0
  6
Continuous
 62
     2
100
AcDbLine
 10
-120.4999975204468
 20
-72.4151894364355
 30
0.0
 11
-118.7499975204468
 21
-72.41518943643547
 31
0.0
  0
LINE
  5
EB
330
5D
100
AcDbEntity
  8
0
  6
Continuous
 62
     7
100
AcDbLine
 10
-118.7499975204468
 20
-65.68522378239862
 30
0.0
 11
-120.4999975204468
 21
-65.68522378239862
 31
0.0
  0
LINE
  5
EC
330
5D
100
AcDbEntity
  8
0
  6
Continuous
 62
     7
100
AcDbLine
 10
-118.7499975204468
 20
-70.20085619994806
 30
0.0
 11
-118.7499975204468
 21
-72.41518943643547
 31
0.0
  0
LINE
  5
ED
330
5D
100
AcDbEntity
  8
0
  6
Continuous
 62
     7
100
AcDbLine
 10
-118.7499975204468
 20
-65.68522378239862
 30
0.0
 11
-118.7499975204468
 21
-70.20085619994806
 31
0.0
  0
LINE
  5
EE
330
5D
100
AcDbEntity
  8
0
  6
Continuous
 62
     7
100
AcDbLine
 10
-118.7499975204468
 20
-63.00085619994803
 30
0.0
 11
-113.4999975204468
 21
-63.00085619994803
 31
0.0
  0
LINE
  5
EF
330
5D
100
AcDbEntity
  8
0
  6
Continuous
 62
     7
100
AcDbLine
 10
-118.7499975204468
 20
-58.00085619994803
 30
0.0
 11
-113.4999975204468
 21
-58.00085619994803
 31
0.0
  0
LINE
  5
F0
330
5D
100
AcDbEntity
  8
0
  6
Continuous
 62
     7
100
AcDbLine
 10
-120.4999975204468
 20
-54.50085619994805
 30
0.0
 11
-120.4999975204468
 21
-65.68522378239862
 31
0.0
  0
LINE
  5
F1
330
5D
100
AcDbEntity
  8
0
  6
Continuous
 62
     7
100
AcDbLine
 10
-120.4999975204468
 20
-65.68522378239862
 30
0.0
 11
-120.4999975204468
 21
-72.4151894364355
 31
0.0
  0
LINE
  5
F2
330
5D
100
AcDbEntity
  8
0
  6
Continuous
 62
     7
100
AcDbLine
 10
-120.4999975204468
 20
-73.50085619994806
 30
0.0
 11
-120.4999975204468
 21
-72.4151894364355
 31
0.0
  0
LINE
  5
F3
330
5D
100
AcDbEntity
  8
0
  6
Continuous
 62
     7
100
AcDbLine
 10
-105.2499975204468
 20
-63.00085619994803
 30
0.0
 11
-110.4999975204468
 21
-63.00085619994803
 31
0.0
  0
LINE
  5
F4
330
5D
100
AcDbEntity
  8
0
  6
Continuous
 62
     7
100
AcDbLine
 10
-110.4999975204468
 20
-58.00085619994803
 30
0.0
 11
-110.4999975204468
 21
-63.00085619994803
 31
0.0
  0
LINE
  5
F5
330
5D
100
AcDbEntity
  8
0
  6
Continuous
 62
     7
100
AcDbLine
 10
-113.4999975204468
 20
-63.00085619994803
 30
0.0
 11
-113.4999975204468
 21
-58.00085619994803
 31
0.0
  0
LINE
  5
F6
330
5D
100
AcDbEntity
  8
0
  6
Continuous
 62
     7
100
AcDbLine
 10
-105.2499975204468
 20
-58.00085619994803
 30
0.0
 11
-110.4999975204468
 21
-58.00085619994803
 31
0.0
  0
LINE
  5
F7
330
5D
100
AcDbEntity
  8
0
  6
Continuous
 62
     7
100
AcDbLine
 10
-103.4999975204468
 20
-72.4151894364354
 30
0.0
 11
-103.4999975204468
 21
-73.50085619994806
 31
0.0
  0
LINE
  5
F8
330
5D
100
AcDbEntity
  8
0
  6
Continuous
 62
     7
100
AcDbLine
 10
-107.3999975204468
 20
-70.20085619994806
 30
0.0
 11
-107.3999975204468
 21
-73.50085619994806
 31
0.0
  0
LINE
  5
F9
330
5D
100
AcDbEntity
  8
0
  6
Continuous
 62
     7
100
AcDbLine
 10
-107.3999975204468
 20
-70.20085619994806
 30
0.0
 11
-105.2499975204468
 21
-70.20085619994806
 31
0.0
  0
LINE
  5
FA
330
5D
100
AcDbEntity
  8
0
  6
Continuous
 62
     2
100
AcDbLine
 10
-105.2499975204468
 20
-72.4151894364354
 30
0.0
 11
-103.4999975204468
 21
-72.4151894364354
 31
0.0
  0
LINE
  5
FB
330
5D
100
AcDbEntity
  8
0
  6
Continuous
 62
     7
100
AcDbLine
 10
-105.2499975204468
 20
-63.00085619994803
 30
0.0
 11
-105.2499975204468
 21
-65.68522378239862
 31
0.0
  0
LINE
  5
FC
330
5D
100
AcDbEntity
  8
0
  6
Continuous
 62
     7
100
AcDbLine
 10
-105.2499975204468
 20
-55.10085619994805
 30
0.0
 11
-105.2499975204468
 21
-58.00085619994803
 31
0.0
  0
LINE
  5
FD
330
5D
100
AcDbEntity
  8
0
  6
Continuous
 62
     7
100
AcDbLine
 10
-105.2499975204468
 20
-65.68522378239862
 30
0.0
 11
-103.4999975204468
 21
-65.68522378239862
 31
0.0
  0
LINE
  5
FE
330
5D
100
AcDbEntity
  8
0
  6
Continuous
 62
     7
100
AcDbLine
 10
-103.4999975204468
 20
-54.50085619994805
 30
0.0
 11
-103.4999975204468
 21
-65.68522378239862
 31
0.0
  0
LINE
  5
FF
330
5D
100
AcDbEntity
  8
0
  6
Continuous
 62
     7
100
AcDbLine
 10
-105.2499975204468
 20
-58.00085619994803
 30
0.0
 11
-105.2499975204468
 21
-63.00085619994803
 31
0.0
  0
LINE
  5
100
330
5D
100
AcDbEntity
  8
0
  6
Continuous
 62
     7
100
AcDbLine
 10
-105.2499975204468
 20
-70.20085619994806
 30
0.0
 11
-105.2499975204468
 21
-72.4151894364354
 31
0.0
  0
LINE
  5
101
330
5D
100
AcDbEntity
  8
0
  6
Continuous
 62
     7
100
AcDbLine
 10
-103.4999975204468
 20
-65.68522378239862
 30
0.0
 11
-103.4999975204468
 21
-72.4151894364354
 31
0.0
  0
LINE
  5
102
330
5D
100
AcDbEntity
  8
0
  6
Continuous
 62
     7
100
AcDbLine
 10
-105.2499975204468
 20
-65.68522378239862
 30
0.0
 11
-105.2499975204468
 21
-70.20085619994806
 31
0.0
  0
LINE
  5
103
330
5D
100
AcDbEntity
  8
0
  6
Continuous
 62
     7
100
AcDbLine
 10
-107.3999975204468
 20
-73.50085619994806
 30
0.0
 11
-103.4999975204468
 21
-73.50085619994806
 31
0.0
  0
LINE
  5
104
330
5D
100
AcDbEntity
  8
0
  6
Continuous
 62
     7
100
AcDbLine
 10
-125.9999975204468
 20
-54.50085619994805
 30
0.0
 11
-125.9999975204468
 21
-51.50085619994805
 31
0.0
  0
LINE
  5
105
330
5D
100
AcDbEntity
  8
0
  6
Continuous
 62
     7
100
AcDbLine
 10
-97.99999752044678
 20
-54.50085619994805
 30
0.0
 11
-103.4999975204468
 21
-54.50085619994805
 31
0.0
  0
LINE
  5
106
330
5D
100
AcDbEntity
  8
0
  6
Continuous
 62
     7
100
AcDbLine
 10
-118.7499975204468
 20
-55.10085619994805
 30
0.0
 11
-105.2499975204468
 21
-55.10085619994805
 31
0.0
  0
LINE
  5
107
330
5D
100
AcDbEntity
  8
0
  6
Continuous
 62
     7
100
AcDbLine
 10
-97.99999752044678
 20
-54.50085619994805
 30
0.0
 11
-97.99999752044678
 21
-51.50085619994805
 31
0.0
  0
LINE
  5
108
330
5D
100
AcDbEntity
  8
0
  6
Continuous
 62
     7
100
AcDbLine
 10
-118.7499975204468
 20
-63.00085619994803
 30
0.0
 11
-118.7499975204468
 21
-65.68522378239862
 31
0.0
  0
LINE
  5
109
330
5D
100
AcDbEntity
  8
0
  6
Continuous
 62
     7
100
AcDbLine
 10
-118.7499975204468
 20
-55.10085619994805
 30
0.0
 11
-118.7499975204468
 21
-58.00085619994803
 31
0.0
  0
LINE
  5
10A
330
5D
100
AcDbEntity
  8
0
  6
Continuous
 62
     7
100
AcDbLine
 10
-97.99999752044678
 20
-51.50085619994805
 30
0.0
 11
-125.9999975204468
 21
-51.50085619994805
 31
0.0
  0
LINE
  5
10B
330
5D
100
AcDbEntity
  8
1
  6
DOT_CENTER
 62
     2
100
AcDbLine
 10
-107.3999975204468
 20
-71.85085619994805
 30
0.0
 11
-103.4999975204468
 21
-71.85085619994805
 31
0.0
  0
LINE
  5
10C
330
5D
100
AcDbEntity
  8
1
  6
DOT_CENTER
 62
     2
100
AcDbLine
 10
-120.4999975204468
 20
-71.85085619994805
 30
0.0
 11
-116.5999975204468
 21
-71.85085619994805
 31
0.0
  0
ENDBLK
  5
5F
330
5D
100
AcDbEntity
  8
0
100
AcDbBlockEnd
  0
BLOCK
  5
62
330
60
100
AcDbEntity
  8
0
100
AcDbBlockBegin
  2
KLM-ESL_26x6-Select__6
 70
     0
 10
-125.9999975204468
 20
-73.50085619994806
 30
0.0
  3
KLM-ESL_26x6-Select__6
  1

  0
INSERT
  5
61
330
60
100
AcDbEntity
  8
0
100
AcDbBlockReference
  2
KLM-Select__5
 10
-125.9999975204468
 20
-73.50085619994806
 30
0.0
  0
ENDBLK
  5
63
330
60
100
AcDbEntity
  8
0
100
AcDbBlockEnd
  0
BLOCK
  5
66
330
64
100
AcDbEntity
  8
0
100
AcDbBlockBegin
  2
Rckans2
 70
     0
 10
-111.9999980926514
 20
-62.50042800008995
 30
0.0
  3
Rckans2
  1

  0
INSERT
  5
65
330
64
100
AcDbEntity
  8
0
100
AcDbBlockReference
  2
KLM-ESL_26x6-Select__6
 10
-125.9999975204468
 20
-73.50085619994806
 30
0.0
  0
MTEXT
  5
10D
330
64
100
AcDbEntity
  8
1
 62
     6
100
AcDbMText
 10
-111.9999980926514
 20
-75.99999980032197
 30
0.0
 40
2.5
 41
0.0
 71
     2
 72
     1
  1
 
  7
CONVERTER_11
 73
     1
 44
1.32052821128451
  0
ENDBLK
  5
67
330
64
100
AcDbEntity
  8
0
100
AcDbBlockEnd
  0
BLOCK
  5
69
330
68
100
AcDbEntity
  8
0
100
AcDbBlockBegin
  2
KLM-Select__7
 70
     0
 10
-143.9999990463457
 20
-73.50085619994807
 30
0.0
  3
KLM-Select__7
  1

  0
LINE
  5
10E
330
68
100
AcDbEntity
  8
0
  6
Continuous
 62
     7
100
AcDbLine
 10
-135.9999990463457
 20
-54.50085619994808
 30
0.0
 11
-135.9999990463457
 21
-51.50085619994808
 31
0.0
  0
LINE
  5
10F
330
68
100
AcDbEntity
  8
0
  6
Continuous
 62
     7
100
AcDbLine
 10
-135.9999990463457
 20
-54.50085619994808
 30
0.0
 11
-143.9999990463457
 21
-54.50085619994808
 31
0.0
  0
LINE
  5
110
330
68
100
AcDbEntity
  8
0
  6
Continuous
 62
     7
100
AcDbLine
 10
-143.9999990463457
 20
-54.50085619994808
 30
0.0
 11
-143.9999990463457
 21
-51.50085619994808
 31
0.0
  0
LINE
  5
111
330
68
100
AcDbEntity
  8
0
  6
Continuous
 62
     7
100
AcDbLine
 10
-135.9999990463457
 20
-51.50085619994808
 30
0.0
 11
-143.9999990463457
 21
-51.50085619994808
 31
0.0
  0
LINE
  5
112
330
68
100
AcDbEntity
  8
0
  6
Continuous
 62
     7
100
AcDbLine
 10
-143.9999990463457
 20
-54.50085619994808
 30
0.0
 11
-143.9999990463457
 21
-65.68522378239865
 31
0.0
  0
LINE
  5
113
330
68
100
AcDbEntity
  8
0
  6
Continuous
 62
     7
100
AcDbLine
 10
-135.9999990463457
 20
-54.50085619994808
 30
0.0
 11
-135.9999990463457
 21
-65.6852237823987
 31
0.0
  0
LINE
  5
114
330
68
100
AcDbEntity
  8
0
  6
Continuous
 62
     7
100
AcDbLine
 10
-143.9999990463457
 20
-65.68522378239865
 30
0.0
 11
-141.5504918706424
 21
-72.41518943643543
 31
0.0
  0
LINE
  5
115
330
68
100
AcDbEntity
  8
0
  6
Continuous
 62
     7
100
AcDbLine
 10
-135.9999990463457
 20
-65.6852237823987
 30
0.0
 11
-138.4495062220489
 21
-72.41518943643553
 31
0.0
  0
ARC
  5
116
330
68
100
AcDbEntity
  8
0
  6
Continuous
 62
     7
100
AcDbCircle
 10
-139.9999990463457
 20
-71.85085619994808
 30
0.0
 40
1.649999999999948
100
AcDbArc
 50
200.0000000000003
 51
339.9999999999975
  0
ENDBLK
  5
6A
330
68
100
AcDbEntity
  8
0
100
AcDbBlockEnd
  0
BLOCK
  5
6D
330
6B
100
AcDbEntity
  8
0
100
AcDbBlockBegin
  2
KLM-ESL_26x6-Select__8
 70
     0
 10
-143.9999990463457
 20
-73.50085619994807
 30
0.0
  3
KLM-ESL_26x6-Select__8
  1

  0
INSERT
  5
6C
330
6B
100
AcDbEntity
  8
0
100
AcDbBlockReference
  2
KLM-Select__7
 10
-143.9999990463457
 20
-73.50085619994807
 30
0.0
  0
ENDBLK
  5
6E
330
6B
100
AcDbEntity
  8
0
100
AcDbBlockEnd
  0
BLOCK
  5
71
330
6F
100
AcDbEntity
  8
0
100
AcDbBlockBegin
  2
SA_Links2
 70
     0
 10
-139.9999990463357
 20
-62.50042800008998
 30
0.0
  3
SA_Links2
  1

  0
INSERT
  5
70
330
6F
100
AcDbEntity
  8
0
100
AcDbBlockReference
  2
KLM-ESL_26x6-Select__8
 10
-143.9999990463457
 20
-73.50085619994807
 30
0.0
  0
MTEXT
  5
117
330
6F
100
AcDbEntity
  8
1
 62
     6
100
AcDbMText
 10
-139.9999990463357
 20
-75.99999980032197
 30
0.0
 40
2.5
 41
0.0
 71
     2
 72
     1
  1
 
  7
CONVERTER_11
 73
     1
 44
1.32052821128451
  0
ENDBLK
  5
72
330
6F
100
AcDbEntity
  8
0
100
AcDbBlockEnd
  0
BLOCK
  5
74
330
73
100
AcDbEntity
  8
0
100
AcDbBlockBegin
  2
KLM-Select__9
 70
     0
 10
-205.0000009536544
 20
-73.50085619994807
 30
0.0
  3
KLM-Select__9
  1

  0
LINE
  5
118
330
73
100
AcDbEntity
  8
0
  6
Continuous
 62
     7
100
AcDbLine
 10
-197.0000009536544
 20
-54.50085619994808
 30
0.0
 11
-205.0000009536544
 21
-54.50085619994808
 31
0.0
  0
LINE
  5
119
330
73
100
AcDbEntity
  8
0
  6
Continuous
 62
     7
100
AcDbLine
 10
-197.0000009536544
 20
-51.50085619994808
 30
0.0
 11
-205.0000009536544
 21
-51.50085619994808
 31
0.0
  0
LINE
  5
11A
330
73
100
AcDbEntity
  8
0
  6
Continuous
 62
     7
100
AcDbLine
 10
-197.0000009536544
 20
-65.68522378239865
 30
0.0
 11
-199.4495081293576
 21
-72.41518943643543
 31
0.0
  0
LINE
  5
11B
330
73
100
AcDbEntity
  8
0
  6
Continuous
 62
     7
100
AcDbLine
 10
-197.0000009536544
 20
-54.50085619994808
 30
0.0
 11
-197.0000009536544
 21
-65.68522378239865
 31
0.0
  0
LINE
  5
11C
330
73
100
AcDbEntity
  8
0
  6
Continuous
 62
     7
100
AcDbLine
 10
-197.0000009536544
 20
-54.50085619994808
 30
0.0
 11
-197.0000009536544
 21
-51.50085619994808
 31
0.0
  0
LINE
  5
11D
330
73
100
AcDbEntity
  8
0
  6
Continuous
 62
     7
100
AcDbLine
 10
-205.0000009536544
 20
-54.50085619994808
 30
0.0
 11
-205.0000009536544
 21
-65.6852237823987
 31
0.0
  0
LINE
  5
11E
330
73
100
AcDbEntity
  8
0
  6
Continuous
 62
     7
100
AcDbLine
 10
-205.0000009536544
 20
-51.50085619994808
 30
0.0
 11
-205.0000009536544
 21
-54.50085619994808
 31
0.0
  0
LINE
  5
11F
330
73
100
AcDbEntity
  8
0
  6
Continuous
 62
     7
100
AcDbLine
 10
-205.0000009536544
 20
-65.6852237823987
 30
0.0
 11
-202.5504937779511
 21
-72.41518943643544
 31
0.0
  0
ARC
  5
120
330
73
100
AcDbEntity
  8
0
  6
Continuous
 62
     7
100
AcDbCircle
 10
-201.0000009536544
 20
-71.85085619994808
 30
0.0
 40
1.649999999999952
100
AcDbArc
 50
200.0000000000007
 51
340.0000000000007
  0
ENDBLK
  5
75
330
73
100
AcDbEntity
  8
0
100
AcDbBlockEnd
  0
BLOCK
  5
78
330
76
100
AcDbEntity
  8
0
100
AcDbBlockBegin
  2
KLM-ESL_26x6-Select__10
 70
     0
 10
-205.0000009536544
 20
-73.50085619994807
 30
0.0
  3
KLM-ESL_26x6-Select__10
  1

  0
INSERT
  5
77
330
76
100
AcDbEntity
  8
0
100
AcDbBlockReference
  2
KLM-Select__9
 10
-205.0000009536544
 20
-73.50085619994807
 30
0.0
  0
ENDBLK
  5
79
330
76
100
AcDbEntity
  8
0
100
AcDbBlockEnd
  0
BLOCK
  5
7C
330
7A
100
AcDbEntity
  8
0
100
AcDbBlockBegin
  2
SA_Rechts2
 70
     0
 10
-201.0000009536643
 20
-62.50042800008998
 30
0.0
  3
SA_Rechts2
  1

  0
INSERT
  5
7B
330
7A
100
AcDbEntity
  8
0
100
AcDbBlockReference
  2
KLM-ESL_26x6-Select__10
 10
-205.0000009536544
 20
-73.50085619994807
 30
0.0
  0
MTEXT
  5
121
330
7A
100
AcDbEntity
  8
1
 62
     6
100
AcDbMText
 10
-201.0000009536643
 20
-75.99999980032197
 30
0.0
 40
2.5
 41
0.0
 71
     2
 72
     1
  1
 
  7
CONVERTER_11
 73
     1
 44
1.32052821128451
  0
ENDBLK
  5
7D
330
7A
100
AcDbEntity
  8
0
100
AcDbBlockEnd
  0
BLOCK
  5
7F
330
7E
100
AcDbEntity
  8
0
100
AcDbBlockBegin
  2
ESL_26x6-Select
 70
     0
 10
-181.3500005722046
 20
-52.4230768814308
 30
0.0
  3
ESL_26x6-Select
  1

  0
LINE
  5
122
330
7E
100
AcDbEntity
  8
0
  6
Continuous
 62
     7
100
AcDbLine
 10
-181.3500005722046
 20
-52.4230768814308
 30
0.0
 11
-181.3500005722046
 21
-52.27307688143081
 31
0.0
  0
LINE
  5
123
330
7E
100
AcDbEntity
  8
0
  6
Continuous
 62
     7
100
AcDbLine
 10
-154.6500005722046
 20
-52.27307688143081
 30
0.0
 11
-181.3500005722046
 21
-52.27307688143081
 31
0.0
  0
LINE
  5
124
330
7E
100
AcDbEntity
  8
0
  6
Continuous
 62
     7
100
AcDbLine
 10
-154.6500005722046
 20
-52.4230768814308
 30
0.0
 11
-181.3500005722046
 21
-52.4230768814308
 31
0.0
  0
LINE
  5
125
330
7E
100
AcDbEntity
  8
0
  6
Continuous
 62
     7
100
AcDbLine
 10
-154.6500005722046
 20
-52.4230768814308
 30
0.0
 11
-154.6500005722046
 21
-52.27307688143081
 31
0.0
  0
ENDBLK
  5
80
330
7E
100
AcDbEntity
  8
0
100
AcDbBlockEnd
  0
BLOCK
  5
82
330
81
100
AcDbEntity
  8
0
100
AcDbBlockBegin
  2
KLM-Select__11
 70
     0
 10
-182.0000005722046
 20
-73.50085619994806
 30
0.0
  3
KLM-Select__11
  1

  0
LINE
  5
126
330
81
100
AcDbEntity
  8
0
  6
Continuous
 62
     7
100
AcDbLine
 10
-172.6000005722046
 20
-73.50085619994806
 30
0.0
 11
-176.5000005722046
 21
-73.50085619994806
 31
0.0
  0
LINE
  5
127
330
81
100
AcDbEntity
  8
0
  6
Continuous
 62
     7
100
AcDbLine
 10
-176.5000005722046
 20
-73.50085619994806
 30
0.0
 11
-176.5000005722046
 21
-72.41518943643548
 31
0.0
  0
LINE
  5
128
330
81
100
AcDbEntity
  8
0
  6
Continuous
 62
     7
100
AcDbLine
 10
-172.6000005722046
 20
-73.50085619994806
 30
0.0
 11
-172.6000005722046
 21
-73.49999967931922
 31
0.0
  0
LINE
  5
129
330
81
100
AcDbEntity
  8
0
  6
Continuous
 62
     7
100
AcDbLine
 10
-172.6000005722046
 20
-73.49999967931922
 30
0.0
 11
-172.6000005722046
 21
-70.20085619994806
 31
0.0
  0
LINE
  5
12A
330
81
100
AcDbEntity
  8
0
  6
Continuous
 62
     7
100
AcDbLine
 10
-172.6000005722046
 20
-70.20085619994806
 30
0.0
 11
-174.7500005722046
 21
-70.20085619994806
 31
0.0
  0
LINE
  5
12B
330
81
100
AcDbEntity
  8
0
  6
Continuous
 62
     7
100
AcDbLine
 10
-176.5000005722046
 20
-65.68522378239867
 30
0.0
 11
-176.5000005722046
 21
-72.41518943643548
 31
0.0
  0
LINE
  5
12C
330
81
100
AcDbEntity
  8
0
  6
Continuous
 62
     2
100
AcDbLine
 10
-174.7500005722046
 20
-72.41518943643541
 30
0.0
 11
-176.5000005722046
 21
-72.41518943643548
 31
0.0
  0
LINE
  5
12D
330
81
100
AcDbEntity
  8
0
  6
Continuous
 62
     7
100
AcDbLine
 10
-174.7500005722046
 20
-63.00085619994803
 30
0.0
 11
-174.7500005722046
 21
-65.68522378239867
 31
0.0
  0
LINE
  5
12E
330
81
100
AcDbEntity
  8
0
  6
Continuous
 62
     7
100
AcDbLine
 10
-174.7500005722046
 20
-65.68522378239867
 30
0.0
 11
-176.5000005722046
 21
-65.68522378239867
 31
0.0
  0
LINE
  5
12F
330
81
100
AcDbEntity
  8
0
  6
Continuous
 62
     7
100
AcDbLine
 10
-175.861450953884
 20
-52.80085619994804
 30
0.0
 11
-175.861450953884
 21
-53.70085619994805
 31
0.0
  0
LINE
  5
130
330
81
100
AcDbEntity
  8
0
  6
Continuous
 62
     7
100
AcDbLine
 10
-176.5000005722046
 20
-54.50085619994805
 30
0.0
 11
-176.5000005722046
 21
-65.68522378239867
 31
0.0
  0
LINE
  5
131
330
81
100
AcDbEntity
  8
0
  6
Continuous
 62
     7
100
AcDbLine
 10
-174.7500005722046
 20
-55.10085619994805
 30
0.0
 11
-174.7500005722046
 21
-58.00085619994803
 31
0.0
  0
LINE
  5
132
330
81
100
AcDbEntity
  8
0
  6
Continuous
 62
     7
100
AcDbLine
 10
-174.7500005722046
 20
-70.20085619994806
 30
0.0
 11
-174.7500005722046
 21
-72.41518943643541
 31
0.0
  0
LINE
  5
133
330
81
100
AcDbEntity
  8
0
  6
Continuous
 62
     7
100
AcDbLine
 10
-174.7500005722046
 20
-65.68522378239867
 30
0.0
 11
-174.7500005722046
 21
-70.20085619994806
 31
0.0
  0
LINE
  5
134
330
81
100
AcDbEntity
  8
0
  6
Continuous
 62
     7
100
AcDbLine
 10
-160.1385501905252
 20
-52.80085619994804
 30
0.0
 11
-158.961450953884
 21
-52.80085619994804
 31
0.0
  0
LINE
  5
135
330
81
100
AcDbEntity
  8
0
  6
Continuous
 62
     7
100
AcDbLine
 10
-165.5885501905252
 20
-52.80085619994804
 30
0.0
 11
-164.411450953884
 21
-52.80085619994804
 31
0.0
  0
LINE
  5
136
330
81
100
AcDbEntity
  8
0
  6
Continuous
 62
     7
100
AcDbLine
 10
-175.861450953884
 20
-52.80085619994804
 30
0.0
 11
-175.7250005722046
 21
-52.80085619994804
 31
0.0
  0
LINE
  5
137
330
81
100
AcDbEntity
  8
0
  6
Continuous
 62
     7
100
AcDbLine
 10
-177.0385501905252
 20
-52.80085619994804
 30
0.0
 11
-175.861450953884
 21
-52.80085619994804
 31
0.0
  0
LINE
  5
138
330
81
100
AcDbEntity
  8
0
  6
Continuous
 62
     7
100
AcDbLine
 10
-171.5885501905252
 20
-52.80085619994804
 30
0.0
 11
-170.411450953884
 21
-52.80085619994804
 31
0.0
  0
LINE
  5
139
330
81
100
AcDbEntity
  8
0
  6
Continuous
 62
     7
100
AcDbLine
 10
-154.6000005722046
 20
-52.20085619994805
 30
0.0
 11
-181.4000005722046
 21
-52.20085619994805
 31
0.0
  0
LINE
  5
13A
330
81
100
AcDbEntity
  8
0
  6
Continuous
 62
     7
100
AcDbLine
 10
-159.5000005722046
 20
-73.50085619994806
 30
0.0
 11
-163.4000005722046
 21
-73.50085619994806
 31
0.0
  0
LINE
  5
13B
330
81
100
AcDbEntity
  8
0
  6
Continuous
 62
     7
100
AcDbLine
 10
-161.2500005722046
 20
-70.20085619994806
 30
0.0
 11
-161.2500005722046
 21
-72.4151894364355
 31
0.0
  0
LINE
  5
13C
330
81
100
AcDbEntity
  8
0
  6
Continuous
 62
     7
100
AcDbLine
 10
-163.4000005722046
 20
-73.50085619994806
 30
0.0
 11
-163.4000005722046
 21
-73.49999967931922
 31
0.0
  0
LINE
  5
13D
330
81
100
AcDbEntity
  8
0
  6
Continuous
 62
     7
100
AcDbLine
 10
-163.4000005722046
 20
-73.49999967931922
 30
0.0
 11
-163.4000005722046
 21
-70.20085619994806
 31
0.0
  0
LINE
  5
13E
330
81
100
AcDbEntity
  8
0
  6
Continuous
 62
     2
100
AcDbLine
 10
-159.5000005722046
 20
-72.4151894364355
 30
0.0
 11
-161.2500005722046
 21
-72.4151894364355
 31
0.0
  0
LINE
  5
13F
330
81
100
AcDbEntity
  8
0
  6
Continuous
 62
     7
100
AcDbLine
 10
-161.2500005722046
 20
-70.20085619994806
 30
0.0
 11
-163.4000005722046
 21
-70.20085619994806
 31
0.0
  0
LINE
  5
140
330
81
100
AcDbEntity
  8
0
  6
Continuous
 62
     7
100
AcDbLine
 10
-161.2500005722046
 20
-65.68522378239867
 30
0.0
 11
-159.5000005722046
 21
-65.68522378239867
 31
0.0
  0
LINE
  5
141
330
81
100
AcDbEntity
  8
0
  6
Continuous
 62
     7
100
AcDbLine
 10
-161.2500005722046
 20
-63.00085619994803
 30
0.0
 11
-161.2500005722046
 21
-65.68522378239867
 31
0.0
  0
LINE
  5
142
330
81
100
AcDbEntity
  8
0
  6
Continuous
 62
     7
100
AcDbLine
 10
-158.961450953884
 20
-52.80085619994804
 30
0.0
 11
-158.961450953884
 21
-53.70085619994805
 31
0.0
  0
LINE
  5
143
330
81
100
AcDbEntity
  8
0
  6
Continuous
 62
     7
100
AcDbLine
 10
-160.1385501905252
 20
-53.70085619994805
 30
0.0
 11
-160.1385501905252
 21
-52.80085619994804
 31
0.0
  0
LINE
  5
144
330
81
100
AcDbEntity
  8
0
  6
Continuous
 62
     7
100
AcDbLine
 10
-164.411450953884
 20
-52.80085619994804
 30
0.0
 11
-164.411450953884
 21
-53.70085619994805
 31
0.0
  0
LINE
  5
145
330
81
100
AcDbEntity
  8
0
  6
Continuous
 62
     7
100
AcDbLine
 10
-165.5885501905252
 20
-53.70085619994805
 30
0.0
 11
-165.5885501905252
 21
-52.80085619994804
 31
0.0
  0
LINE
  5
146
330
81
100
AcDbEntity
  8
0
  6
Continuous
 62
     7
100
AcDbLine
 10
-161.2500005722046
 20
-55.10085619994805
 30
0.0
 11
-161.2500005722046
 21
-58.00085619994803
 31
0.0
  0
LINE
  5
147
330
81
100
AcDbEntity
  8
0
  6
Continuous
 62
     7
100
AcDbLine
 10
-161.2500005722046
 20
-58.00085619994803
 30
0.0
 11
-161.2500005722046
 21
-63.00085619994803
 31
0.0
  0
LINE
  5
148
330
81
100
AcDbEntity
  8
0
  6
Continuous
 62
     7
100
AcDbLine
 10
-161.2500005722046
 20
-63.00085619994803
 30
0.0
 11
-166.5000005722046
 21
-63.00085619994803
 31
0.0
  0
LINE
  5
149
330
81
100
AcDbEntity
  8
0
  6
Continuous
 62
     7
100
AcDbLine
 10
-161.2500005722046
 20
-65.68522378239867
 30
0.0
 11
-161.2500005722046
 21
-70.20085619994806
 31
0.0
  0
LINE
  5
14A
330
81
100
AcDbEntity
  8
0
  6
Continuous
 62
     7
100
AcDbLine
 10
-170.411450953884
 20
-52.80085619994804
 30
0.0
 11
-170.2750005722046
 21
-52.80085619994804
 31
0.0
  0
LINE
  5
14B
330
81
100
AcDbEntity
  8
0
  6
Continuous
 62
     7
100
AcDbLine
 10
-170.2750005722046
 20
-52.80085619994804
 30
0.0
 11
-170.2750005722046
 21
-53.70085619994805
 31
0.0
  0
LINE
  5
14C
330
81
100
AcDbEntity
  8
0
  6
Continuous
 62
     7
100
AcDbLine
 10
-174.7500005722046
 20
-63.00085619994803
 30
0.0
 11
-169.5000005722046
 21
-63.00085619994803
 31
0.0
  0
LINE
  5
14D
330
81
100
AcDbEntity
  8
0
  6
Continuous
 62
     7
100
AcDbLine
 10
-169.5000005722046
 20
-63.00085619994803
 30
0.0
 11
-169.5000005722046
 21
-58.00085619994803
 31
0.0
  0
LINE
  5
14E
330
81
100
AcDbEntity
  8
0
  6
Continuous
 62
     7
100
AcDbLine
 10
-170.411450953884
 20
-52.80085619994804
 30
0.0
 11
-170.411450953884
 21
-53.70085619994805
 31
0.0
  0
LINE
  5
14F
330
81
100
AcDbEntity
  8
0
  6
Continuous
 62
     7
100
AcDbLine
 10
-171.7250005722046
 20
-53.70085619994805
 30
0.0
 11
-171.7250005722046
 21
-52.80085619994804
 31
0.0
  0
LINE
  5
150
330
81
100
AcDbEntity
  8
0
  6
Continuous
 62
     7
100
AcDbLine
 10
-171.7250005722046
 20
-52.80085619994804
 30
0.0
 11
-171.5885501905252
 21
-52.80085619994804
 31
0.0
  0
LINE
  5
151
330
81
100
AcDbEntity
  8
0
  6
Continuous
 62
     7
100
AcDbLine
 10
-171.5885501905252
 20
-53.70085619994805
 30
0.0
 11
-171.5885501905252
 21
-52.80085619994804
 31
0.0
  0
LINE
  5
152
330
81
100
AcDbEntity
  8
0
  6
Continuous
 62
     7
100
AcDbLine
 10
-175.7250005722046
 20
-52.80085619994804
 30
0.0
 11
-175.7250005722046
 21
-53.70085619994805
 31
0.0
  0
LINE
  5
153
330
81
100
AcDbEntity
  8
0
  6
Continuous
 62
     7
100
AcDbLine
 10
-175.7250005722046
 20
-53.70085619994805
 30
0.0
 11
-171.7250005722046
 21
-53.70085619994805
 31
0.0
  0
LINE
  5
154
330
81
100
AcDbEntity
  8
0
  6
Continuous
 62
     7
100
AcDbLine
 10
-174.7500005722046
 20
-58.00085619994803
 30
0.0
 11
-169.5000005722046
 21
-58.00085619994803
 31
0.0
  0
LINE
  5
155
330
81
100
AcDbEntity
  8
0
  6
Continuous
 62
     7
100
AcDbLine
 10
-166.5000005722046
 20
-58.00085619994803
 30
0.0
 11
-166.5000005722046
 21
-63.00085619994803
 31
0.0
  0
LINE
  5
156
330
81
100
AcDbEntity
  8
0
  6
Continuous
 62
     7
100
AcDbLine
 10
-165.7250005722046
 20
-53.70085619994805
 30
0.0
 11
-165.5885501905252
 21
-53.70085619994805
 31
0.0
  0
LINE
  5
157
330
81
100
AcDbEntity
  8
0
  6
Continuous
 62
     7
100
AcDbLine
 10
-170.411450953884
 20
-53.70085619994805
 30
0.0
 11
-170.2750005722046
 21
-53.70085619994805
 31
0.0
  0
LINE
  5
158
330
81
100
AcDbEntity
  8
0
  6
Continuous
 62
     7
100
AcDbLine
 10
-175.861450953884
 20
-53.70085619994805
 30
0.0
 11
-175.7250005722046
 21
-53.70085619994805
 31
0.0
  0
LINE
  5
159
330
81
100
AcDbEntity
  8
0
  6
Continuous
 62
     7
100
AcDbLine
 10
-171.7250005722046
 20
-53.70085619994805
 30
0.0
 11
-171.5885501905252
 21
-53.70085619994805
 31
0.0
  0
LINE
  5
15A
330
81
100
AcDbEntity
  8
0
  6
Continuous
 62
     7
100
AcDbLine
 10
-177.1750005722046
 20
-53.70085619994805
 30
0.0
 11
-177.0385501905252
 21
-53.70085619994805
 31
0.0
  0
LINE
  5
15B
330
81
100
AcDbEntity
  8
0
  6
Continuous
 62
     7
100
AcDbLine
 10
-170.2750005722046
 20
-53.70085619994805
 30
0.0
 11
-165.7250005722046
 21
-53.70085619994805
 31
0.0
  0
LINE
  5
15C
330
81
100
AcDbEntity
  8
0
  6
Continuous
 62
     7
100
AcDbLine
 10
-174.7500005722046
 20
-55.10085619994805
 30
0.0
 11
-161.2500005722046
 21
-55.10085619994805
 31
0.0
  0
LINE
  5
15D
330
81
100
AcDbEntity
  8
0
  6
Continuous
 62
     7
100
AcDbLine
 10
-181.4000005722046
 20
-52.20085619994805
 30
0.0
 11
-181.4000005722046
 21
-53.70085619994805
 31
0.0
  0
LINE
  5
15E
330
81
100
AcDbEntity
  8
0
  6
Continuous
 62
     7
100
AcDbLine
 10
-159.5000005722046
 20
-72.4151894364355
 30
0.0
 11
-159.5000005722046
 21
-73.50085619994806
 31
0.0
  0
LINE
  5
15F
330
81
100
AcDbEntity
  8
0
  6
Continuous
 62
     7
100
AcDbLine
 10
-154.6000005722046
 20
-52.20085619994805
 30
0.0
 11
-154.6000005722046
 21
-53.70085619994805
 31
0.0
  0
LINE
  5
160
330
81
100
AcDbEntity
  8
0
  6
Continuous
 62
     7
100
AcDbLine
 10
-159.5000005722046
 20
-54.50085619994805
 30
0.0
 11
-159.5000005722046
 21
-65.68522378239867
 31
0.0
  0
LINE
  5
161
330
81
100
AcDbEntity
  8
0
  6
Continuous
 62
     7
100
AcDbLine
 10
-159.5000005722046
 20
-65.68522378239867
 30
0.0
 11
-159.5000005722046
 21
-72.4151894364355
 31
0.0
  0
LINE
  5
162
330
81
100
AcDbEntity
  8
0
  6
Continuous
 62
     7
100
AcDbLine
 10
-165.7250005722046
 20
-53.70085619994805
 30
0.0
 11
-165.7250005722046
 21
-52.80085619994804
 31
0.0
  0
LINE
  5
163
330
81
100
AcDbEntity
  8
0
  6
Continuous
 62
     7
100
AcDbLine
 10
-165.7250005722046
 20
-52.80085619994804
 30
0.0
 11
-165.5885501905252
 21
-52.80085619994804
 31
0.0
  0
LINE
  5
164
330
81
100
AcDbEntity
  8
0
  6
Continuous
 62
     7
100
AcDbLine
 10
-154.0000005722046
 20
-51.50085619994805
 30
0.0
 11
-154.0000005722046
 21
-54.50085619994805
 31
0.0
  0
LINE
  5
165
330
81
100
AcDbEntity
  8
0
  6
Continuous
 62
     7
100
AcDbLine
 10
-160.2750005722046
 20
-53.70085619994805
 30
0.0
 11
-160.2750005722046
 21
-52.80085619994804
 31
0.0
  0
LINE
  5
166
330
81
100
AcDbEntity
  8
0
  6
Continuous
 62
     7
100
AcDbLine
 10
-160.2750005722046
 20
-52.80085619994804
 30
0.0
 11
-160.1385501905252
 21
-52.80085619994804
 31
0.0
  0
LINE
  5
167
330
81
100
AcDbEntity
  8
0
  6
Continuous
 62
     7
100
AcDbLine
 10
-164.411450953884
 20
-52.80085619994804
 30
0.0
 11
-164.2750005722046
 21
-52.80085619994804
 31
0.0
  0
LINE
  5
168
330
81
100
AcDbEntity
  8
0
  6
Continuous
 62
     7
100
AcDbLine
 10
-164.2750005722046
 20
-52.80085619994804
 30
0.0
 11
-164.2750005722046
 21
-53.70085619994805
 31
0.0
  0
LINE
  5
169
330
81
100
AcDbEntity
  8
0
  6
Continuous
 62
     7
100
AcDbLine
 10
-158.961450953884
 20
-52.80085619994804
 30
0.0
 11
-158.8250005722046
 21
-52.80085619994804
 31
0.0
  0
LINE
  5
16A
330
81
100
AcDbEntity
  8
0
  6
Continuous
 62
     7
100
AcDbLine
 10
-158.8250005722046
 20
-52.80085619994804
 30
0.0
 11
-158.8250005722046
 21
-53.70085619994805
 31
0.0
  0
LINE
  5
16B
330
81
100
AcDbEntity
  8
0
  6
Continuous
 62
     7
100
AcDbLine
 10
-164.411450953884
 20
-53.70085619994805
 30
0.0
 11
-164.2750005722046
 21
-53.70085619994805
 31
0.0
  0
LINE
  5
16C
330
81
100
AcDbEntity
  8
0
  6
Continuous
 62
     7
100
AcDbLine
 10
-158.961450953884
 20
-53.70085619994805
 30
0.0
 11
-158.8250005722046
 21
-53.70085619994805
 31
0.0
  0
LINE
  5
16D
330
81
100
AcDbEntity
  8
0
  6
Continuous
 62
     7
100
AcDbLine
 10
-158.8250005722046
 20
-53.70085619994805
 30
0.0
 11
-154.6000005722046
 21
-53.70085619994805
 31
0.0
  0
LINE
  5
16E
330
81
100
AcDbEntity
  8
0
  6
Continuous
 62
     7
100
AcDbLine
 10
-160.2750005722046
 20
-53.70085619994805
 30
0.0
 11
-160.1385501905252
 21
-53.70085619994805
 31
0.0
  0
LINE
  5
16F
330
81
100
AcDbEntity
  8
0
  6
Continuous
 62
     7
100
AcDbLine
 10
-154.0000005722046
 20
-54.50085619994805
 30
0.0
 11
-159.5000005722046
 21
-54.50085619994805
 31
0.0
  0
LINE
  5
170
330
81
100
AcDbEntity
  8
0
  6
Continuous
 62
     7
100
AcDbLine
 10
-164.2750005722046
 20
-53.70085619994805
 30
0.0
 11
-160.2750005722046
 21
-53.70085619994805
 31
0.0
  0
LINE
  5
171
330
81
100
AcDbEntity
  8
0
  6
Continuous
 62
     7
100
AcDbLine
 10
-161.2500005722046
 20
-58.00085619994803
 30
0.0
 11
-166.5000005722046
 21
-58.00085619994803
 31
0.0
  0
LINE
  5
172
330
81
100
AcDbEntity
  8
0
  6
Continuous
 62
     7
100
AcDbLine
 10
-181.4000005722046
 20
-53.70085619994805
 30
0.0
 11
-177.1750005722046
 21
-53.70085619994805
 31
0.0
  0
LINE
  5
173
330
81
100
AcDbEntity
  8
0
  6
Continuous
 62
     7
100
AcDbLine
 10
-177.1750005722046
 20
-53.70085619994805
 30
0.0
 11
-177.1750005722046
 21
-52.80085619994804
 31
0.0
  0
LINE
  5
174
330
81
100
AcDbEntity
  8
0
  6
Continuous
 62
     7
100
AcDbLine
 10
-177.1750005722046
 20
-52.80085619994804
 30
0.0
 11
-177.0385501905252
 21
-52.80085619994804
 31
0.0
  0
LINE
  5
175
330
81
100
AcDbEntity
  8
0
  6
Continuous
 62
     7
100
AcDbLine
 10
-177.0385501905252
 20
-53.70085619994805
 30
0.0
 11
-177.0385501905252
 21
-52.80085619994804
 31
0.0
  0
LINE
  5
176
330
81
100
AcDbEntity
  8
0
  6
Continuous
 62
     7
100
AcDbLine
 10
-176.5000005722046
 20
-54.50085619994805
 30
0.0
 11
-182.0000005722046
 21
-54.50085619994805
 31
0.0
  0
LINE
  5
177
330
81
100
AcDbEntity
  8
0
  6
Continuous
 62
     7
100
AcDbLine
 10
-182.0000005722046
 20
-54.50085619994805
 30
0.0
 11
-182.0000005722046
 21
-51.50085619994805
 31
0.0
  0
LINE
  5
178
330
81
100
AcDbEntity
  8
0
  6
Continuous
 62
     7
100
AcDbLine
 10
-182.0000005722046
 20
-51.50085619994805
 30
0.0
 11
-154.0000005722046
 21
-51.50085619994805
 31
0.0
  0
LINE
  5
179
330
81
100
AcDbEntity
  8
1
  6
DOT_CENTER
 62
     2
100
AcDbLine
 10
-172.6000005722046
 20
-71.85085619994805
 30
0.0
 11
-176.5000005722046
 21
-71.85085619994805
 31
0.0
  0
LINE
  5
17A
330
81
100
AcDbEntity
  8
1
  6
DOT_CENTER
 62
     2
100
AcDbLine
 10
-159.5000005722046
 20
-71.85085619994805
 30
0.0
 11
-163.4000005722046
 21
-71.85085619994805
 31
0.0
  0
ENDBLK
  5
83
330
81
100
AcDbEntity
  8
0
100
AcDbBlockEnd
  0
BLOCK
  5
87
330
84
100
AcDbEntity
  8
0
100
AcDbBlockBegin
  2
KLM-ESL_26x6-Select__12
 70
     0
 10
-182.0000005722046
 20
-73.50085619994806
 30
0.0
  3
KLM-ESL_26x6-Select__12
  1

  0
INSERT
  5
85
330
84
100
AcDbEntity
  8
0
100
AcDbBlockReference
  2
ESL_26x6-Select
 10
-181.3500005722046
 20
-52.4230768814308
 30
0.0
  0
INSERT
  5
86
330
84
100
AcDbEntity
  8
0
100
AcDbBlockReference
  2
KLM-Select__11
 10
-182.0000005722046
 20
-73.50085619994806
 30
0.0
  0
ENDBLK
  5
88
330
84
100
AcDbEntity
  8
0
100
AcDbBlockEnd
  0
BLOCK
  5
8B
330
89
100
AcDbEntity
  8
0
100
AcDbBlockBegin
  2
Vordans2
 70
     0
 10
-168.0
 20
-62.50042800008995
 30
0.0
  3
Vordans2
  1

  0
INSERT
  5
8A
330
89
100
AcDbEntity
  8
0
100
AcDbBlockReference
  2
KLM-ESL_26x6-Select__12
 10
-182.0000005722046
 20
-73.50085619994806
 30
0.0
  0
MTEXT
  5
17B
330
89
100
AcDbEntity
  8
1
 62
     6
100
AcDbMText
 10
-168.0
 20
-75.99999980032192
 30
0.0
 40
2.5
 41
0.0
 71
     2
 72
     1
  1
 
  7
CONVERTER_11
 73
     1
 44
1.32052821128451
  0
DIMENSION
  5
186
330
89
100
AcDbEntity
  8
1
100
AcDbDimension
  2
*D25
 10
-187.0000005722046
 20
-51.50085619994805
 30
0.0
 11
-188.6250005722046
 21
-63.488598787258
 31
0.0
 70
    32
  1
<>
 71
     5
 42
-1.0
 53
90.0
  3
ME10_DIM_11
100
AcDbAlignedDimension
 13
-172.6000005722046
 23
-73.50085619994806
 33
0.0
 14
-182.0000005722046
 24
-51.50085619994805
 34
0.0
 50
90.0
100
AcDbRotatedDimension
  0
DIMENSION
  5
191
330
89
100
AcDbEntity
  8
1
100
AcDbDimension
  2
*D26
 10
-182.0000005722046
 20
-44.63240575450775
 30
0.0
 11
-167.2526747166905
 21
-43.00740575450775
 31
0.0
 70
    32
  1
<>
 71
     5
 42
-1.0
 53
0.00013888888889
  3
ME10_DIM_12
100
AcDbAlignedDimension
 13
-154.0000005722046
 23
-51.50085619994805
 33
0.0
 14
-182.0000005722046
 24
-54.50085619994805
 34
0.0
100
AcDbRotatedDimension
  0
ENDBLK
  5
8C
330
89
100
AcDbEntity
  8
0
100
AcDbBlockEnd
  0
BLOCK
  5
8E
330
8D
100
AcDbEntity
  8
0
100
AcDbBlockBegin
  2
_rahmen
 70
     0
 10
-162.8140653348429
 20
-266.3935179445691
 30
0.0
  3
_rahmen
  1

  0
LINE
  5
192
330
8D
100
AcDbEntity
  8
1
  6
Continuous
 62
     6
100
AcDbLine
 10
-292.358869861593
 20
-235.8935179445689
 30
0.0
 11
-162.8140653348412
 21
-235.8935179445689
 31
0.0
  0
LINE
  5
193
330
8D
100
AcDbEntity
  8
1
  6
Continuous
 62
     7
100
AcDbLine
 10
-274.1588698615929
 20
-257.143517944569
 30
0.0
 11
-255.958869861593
 21
-257.143517944569
 31
0.0
  0
LINE
  5
194
330
8D
100
AcDbEntity
  8
1
  6
Continuous
 62
     6
100
AcDbLine
 10
-274.1588698615929
 20
-261.393517944569
 30
0.0
 11
-292.358869861593
 21
-261.3935179445691
 31
0.0
  0
LINE
  5
195
330
8D
100
AcDbEntity
  8
1
  6
Continuous
 62
     7
100
AcDbLine
 10
-274.1588698615929
 20
-257.143517944569
 30
0.0
 11
-274.1588698615929
 21
-261.393517944569
 31
0.0
  0
LINE
  5
196
330
8D
100
AcDbEntity
  8
1
  6
Continuous
 62
     7
100
AcDbLine
 10
-255.958869861593
 20
-257.143517944569
 30
0.0
 11
-255.958869861593
 21
-261.3935179445691
 31
0.0
  0
LINE
  5
197
330
8D
100
AcDbEntity
  8
1
  6
Continuous
 62
     7
100
AcDbLine
 10
-292.358869861593
 20
-257.1435179445691
 30
0.0
 11
-292.358869861593
 21
-261.3935179445691
 31
0.0
  0
LINE
  5
198
330
8D
100
AcDbEntity
  8
1
  6
Continuous
 62
     7
100
AcDbLine
 10
-292.358869861593
 20
-257.1435179445691
 30
0.0
 11
-274.1588698615929
 21
-257.143517944569
 31
0.0
  0
LINE
  5
199
330
8D
100
AcDbEntity
  8
1
  6
Continuous
 62
     2
100
AcDbLine
 10
-283.1222149750303
 20
-237.768517944569
 30
0.0
 11
-283.1222149750303
 21
-242.768517944569
 31
0.0
  0
LINE
  5
19A
330
8D
100
AcDbEntity
  8
1
  6
Continuous
 62
     2
100
AcDbLine
 10
-283.1222149750303
 20
-242.768517944569
 30
0.0
 11
-288.1222149750303
 21
-241.518517944569
 31
0.0
  0
LINE
  5
19B
330
8D
100
AcDbEntity
  8
1
  6
Continuous
 62
     2
100
AcDbLine
 10
-288.1222149750303
 20
-241.518517944569
 30
0.0
 11
-288.1222149750303
 21
-239.018517944569
 31
0.0
  0
LINE
  5
19C
330
8D
100
AcDbEntity
  8
1
  6
Continuous
 62
     2
100
AcDbLine
 10
-288.1222149750303
 20
-239.018517944569
 30
0.0
 11
-283.1222149750303
 21
-237.768517944569
 31
0.0
  0
LINE
  5
19D
330
8D
100
AcDbEntity
  8
1
  6
Continuous
 62
     6
100
AcDbLine
 10
-414.8140653348411
 20
-261.393517944569
 30
0.0
 11
-449.814065334841
 21
-261.393517944569
 31
0.0
  0
LINE
  5
19E
330
8D
100
AcDbEntity
  8
1
  6
Continuous
 62
     6
100
AcDbLine
 10
-162.8140653348412
 20
-244.3935179445689
 30
0.0
 11
-162.8140653348416
 21
-252.8935179445689
 31
0.0
  0
LINE
  5
19F
330
8D
100
AcDbEntity
  8
1
  6
Continuous
 62
     6
100
AcDbLine
 10
-255.958869861593
 20
-261.3935179445691
 30
0.0
 11
-256.3140653348429
 21
-261.393517944569
 31
0.0
  0
LINE
  5
1A0
330
8D
100
AcDbEntity
  8
1
  6
Continuous
 62
     6
100
AcDbLine
 10
-408.6140653348431
 20
-261.3935179445691
 30
0.0
 11
-414.8140653348411
 21
-261.393517944569
 31
0.0
  0
LINE
  5
1A1
330
8D
100
AcDbEntity
  8
1
  6
Continuous
 62
     7
100
AcDbLine
 10
-255.958869861593
 20
-244.3935179445689
 30
0.0
 11
-255.958869861593
 21
-257.143517944569
 31
0.0
  0
LINE
  5
1A2
330
8D
100
AcDbEntity
  8
1
  6
Continuous
 62
     7
100
AcDbLine
 10
-292.358869861593
 20
-244.3935179445689
 30
0.0
 11
-292.358869861593
 21
-257.1435179445691
 31
0.0
  0
LINE
  5
1A3
330
8D
100
AcDbEntity
  8
1
  6
Continuous
 62
     6
100
AcDbLine
 10
-306.314065334843
 20
-261.393517944569
 30
0.0
 11
-356.3140653348431
 21
-261.393517944569
 31
0.0
  0
LINE
  5
1A4
330
8D
100
AcDbEntity
  8
1
  6
Continuous
 62
     6
100
AcDbLine
 10
-408.6140653348431
 20
-261.3935179445691
 30
0.0
 11
-406.314065334843
 21
-261.393517944569
 31
0.0
  0
LINE
  5
1A5
330
8D
100
AcDbEntity
  8
1
  6
Continuous
 62
     6
100
AcDbLine
 10
-255.958869861593
 20
-261.3935179445691
 30
0.0
 11
-206.3140653348429
 21
-261.393517944569
 31
0.0
  0
LINE
  5
1A6
330
8D
100
AcDbEntity
  8
1
  6
Continuous
 62
     6
100
AcDbLine
 10
-162.8140653348429
 20
-261.393517944569
 30
0.0
 11
-162.8140653348416
 21
-252.8935179445689
 31
0.0
  0
LINE
  5
1A7
330
8D
100
AcDbEntity
  8
1
  6
Continuous
 62
     2
100
AcDbLine
 10
-454.814065334842
 20
-261.393517944569
 30
0.0
 11
-454.814065334842
 21
-266.3935179445691
 31
0.0
  0
LINE
  5
1A8
330
8D
100
AcDbEntity
  8
1
  6
Continuous
 62
     2
100
AcDbLine
 10
-449.814065334841
 20
-261.393517944569
 30
0.0
 11
-454.814065334842
 21
-261.393517944569
 31
0.0
  0
LINE
  5
1A9
330
8D
100
AcDbEntity
  8
1
  6
Continuous
 62
     2
100
AcDbLine
 10
-449.814065334841
 20
-266.3935179445691
 30
0.0
 11
-406.314065334843
 21
-266.3935179445691
 31
0.0
  0
LINE
  5
1AA
330
8D
100
AcDbEntity
  8
1
  6
Continuous
 62
     2
100
AcDbLine
 10
-449.814065334841
 20
-261.393517944569
 30
0.0
 11
-449.814065334841
 21
-266.3935179445691
 31
0.0
  0
LINE
  5
1AB
330
8D
100
AcDbEntity
  8
1
  6
Continuous
 62
     2
100
AcDbLine
 10
-206.3140653348429
 20
-266.3935179445691
 30
0.0
 11
-256.3140653348429
 21
-266.3935179445691
 31
0.0
  0
LINE
  5
1AC
330
8D
100
AcDbEntity
  8
1
  6
Continuous
 62
     2
100
AcDbLine
 10
-206.3140653348429
 20
-266.3935179445691
 30
0.0
 11
-206.3140653348429
 21
-261.393517944569
 31
0.0
  0
LINE
  5
1AD
330
8D
100
AcDbEntity
  8
1
  6
Continuous
 62
     2
100
AcDbLine
 10
-256.3140653348429
 20
-266.3935179445691
 30
0.0
 11
-256.3140653348429
 21
-261.393517944569
 31
0.0
  0
LINE
  5
1AE
330
8D
100
AcDbEntity
  8
1
  6
Continuous
 62
     2
100
AcDbLine
 10
-306.314065334843
 20
-266.3935179445691
 30
0.0
 11
-256.3140653348429
 21
-266.3935179445691
 31
0.0
  0
LINE
  5
1AF
330
8D
100
AcDbEntity
  8
1
  6
Continuous
 62
     2
100
AcDbLine
 10
-306.314065334843
 20
-266.3935179445691
 30
0.0
 11
-306.314065334843
 21
-261.393517944569
 31
0.0
  0
LINE
  5
1B0
330
8D
100
AcDbEntity
  8
1
  6
Continuous
 62
     2
100
AcDbLine
 10
-356.3140653348431
 20
-266.3935179445691
 30
0.0
 11
-306.314065334843
 21
-266.3935179445691
 31
0.0
  0
LINE
  5
1B1
330
8D
100
AcDbEntity
  8
1
  6
Continuous
 62
     2
100
AcDbLine
 10
-356.3140653348431
 20
-266.3935179445691
 30
0.0
 11
-356.3140653348431
 21
-261.393517944569
 31
0.0
  0
LINE
  5
1B2
330
8D
100
AcDbEntity
  8
1
  6
Continuous
 62
     2
100
AcDbLine
 10
-406.314065334843
 20
-266.3935179445691
 30
0.0
 11
-356.3140653348431
 21
-266.3935179445691
 31
0.0
  0
LINE
  5
1B3
330
8D
100
AcDbEntity
  8
1
  6
Continuous
 62
     2
100
AcDbLine
 10
-406.314065334843
 20
-266.3935179445691
 30
0.0
 11
-406.314065334843
 21
-261.393517944569
 31
0.0
  0
LINE
  5
1B4
330
8D
100
AcDbEntity
  8
1
  6
Continuous
 62
     6
100
AcDbLine
 10
-449.8140653348413
 20
-211.3935179445688
 30
0.0
 11
-449.814065334841
 21
-261.393517944569
 31
0.0
  0
LINE
  5
1B5
330
8D
100
AcDbEntity
  8
1
  6
Continuous
 62
     2
100
AcDbLine
 10
-454.814065334842
 20
-211.3935179445688
 30
0.0
 11
-454.814065334842
 21
-261.393517944569
 31
0.0
  0
LINE
  5
1B6
330
8D
100
AcDbEntity
  8
1
  6
Continuous
 62
     2
100
AcDbLine
 10
-454.814065334842
 20
-211.3935179445688
 30
0.0
 11
-449.8140653348413
 21
-211.3935179445688
 31
0.0
  0
LINE
  5
1B7
330
8D
100
AcDbEntity
  8
1
  6
Continuous
 62
     6
100
AcDbLine
 10
-449.8140653348414
 20
-161.393517944569
 30
0.0
 11
-449.8140653348413
 21
-211.3935179445688
 31
0.0
  0
LINE
  5
1B8
330
8D
100
AcDbEntity
  8
1
  6
Continuous
 62
     2
100
AcDbLine
 10
-454.814065334842
 20
-161.393517944569
 30
0.0
 11
-454.814065334842
 21
-211.3935179445688
 31
0.0
  0
LINE
  5
1B9
330
8D
100
AcDbEntity
  8
1
  6
Continuous
 62
     2
100
AcDbLine
 10
-454.814065334842
 20
-161.393517944569
 30
0.0
 11
-449.8140653348414
 21
-161.393517944569
 31
0.0
  0
LINE
  5
1BA
330
8D
100
AcDbEntity
  8
1
  6
Continuous
 62
     6
100
AcDbLine
 10
-449.8140653348419
 20
-111.3935179445689
 30
0.0
 11
-449.8140653348414
 21
-161.393517944569
 31
0.0
  0
LINE
  5
1BB
330
8D
100
AcDbEntity
  8
1
  6
Continuous
 62
     2
100
AcDbLine
 10
-454.814065334842
 20
-111.3935179445689
 30
0.0
 11
-454.814065334842
 21
-161.393517944569
 31
0.0
  0
LINE
  5
1BC
330
8D
100
AcDbEntity
  8
1
  6
Continuous
 62
     2
100
AcDbLine
 10
-454.814065334842
 20
-111.3935179445689
 30
0.0
 11
-449.8140653348419
 21
-111.3935179445689
 31
0.0
  0
LINE
  5
1BD
330
8D
100
AcDbEntity
  8
1
  6
Continuous
 62
     6
100
AcDbLine
 10
-449.814065334842
 20
-76.39351794456891
 30
0.0
 11
-449.8140653348419
 21
-111.3935179445689
 31
0.0
  0
LINE
  5
1BE
330
8D
100
AcDbEntity
  8
1
  6
Continuous
 62
     2
100
AcDbLine
 10
-454.814065334842
 20
-56.39351794456891
 30
0.0
 11
-454.814065334842
 21
-111.3935179445689
 31
0.0
  0
LINE
  5
1BF
330
8D
100
AcDbEntity
  8
1
  6
Continuous
 62
     2
100
AcDbLine
 10
-454.814065334842
 20
-266.3935179445691
 30
0.0
 11
-449.814065334841
 21
-266.3935179445691
 31
0.0
  0
LINE
  5
1C0
330
8D
100
AcDbEntity
  8
1
  6
Continuous
 62
     2
100
AcDbLine
 10
-306.314065334843
 20
-56.39351794456891
 30
0.0
 11
-306.314065334843
 21
-65.60220978927023
 31
0.0
  0
LINE
  5
1C1
330
8D
100
AcDbEntity
  8
1
  6
Continuous
 62
     2
100
AcDbLine
 10
-306.314065334843
 20
-56.39351794456891
 30
0.0
 11
-454.814065334842
 21
-56.39351794456891
 31
0.0
  0
LINE
  5
1C2
330
8D
100
AcDbEntity
  8
1
  6
Continuous
 62
     2
100
AcDbLine
 10
-157.8140653348439
 20
-261.393517944569
 30
0.0
 11
-157.8140653348439
 21
-211.3935179445688
 31
0.0
  0
LINE
  5
1C3
330
8D
100
AcDbEntity
  8
1
  6
Continuous
 62
     2
100
AcDbLine
 10
-157.8140653348439
 20
-111.3935179445689
 30
0.0
 11
-157.8140653348439
 21
-56.39351794456891
 31
0.0
  0
LINE
  5
1C4
330
8D
100
AcDbEntity
  8
1
  6
Continuous
 62
     6
100
AcDbLine
 10
-162.8140653348437
 20
-111.3935179445689
 30
0.0
 11
-162.8140653348439
 21
-76.39351794456891
 31
0.0
  0
LINE
  5
1C5
330
8D
100
AcDbEntity
  8
1
  6
Continuous
 62
     2
100
AcDbLine
 10
-162.8140653348437
 20
-111.3935179445689
 30
0.0
 11
-157.8140653348439
 21
-111.3935179445689
 31
0.0
  0
LINE
  5
1C6
330
8D
100
AcDbEntity
  8
1
  6
Continuous
 62
     2
100
AcDbLine
 10
-157.8140653348439
 20
-161.393517944569
 30
0.0
 11
-157.8140653348439
 21
-111.3935179445689
 31
0.0
  0
LINE
  5
1C7
330
8D
100
AcDbEntity
  8
1
  6
Continuous
 62
     6
100
AcDbLine
 10
-162.8140653348425
 20
-161.393517944569
 30
0.0
 11
-162.8140653348437
 21
-111.3935179445689
 31
0.0
  0
LINE
  5
1C8
330
8D
100
AcDbEntity
  8
1
  6
Continuous
 62
     2
100
AcDbLine
 10
-162.8140653348425
 20
-161.393517944569
 30
0.0
 11
-157.8140653348439
 21
-161.393517944569
 31
0.0
  0
LINE
  5
1C9
330
8D
100
AcDbEntity
  8
1
  6
Continuous
 62
     2
100
AcDbLine
 10
-157.8140653348439
 20
-211.3935179445688
 30
0.0
 11
-157.8140653348439
 21
-161.393517944569
 31
0.0
  0
LINE
  5
1CA
330
8D
100
AcDbEntity
  8
1
  6
Continuous
 62
     6
100
AcDbLine
 10
-162.814065334842
 20
-211.3935179445688
 30
0.0
 11
-162.8140653348425
 21
-161.393517944569
 31
0.0
  0
LINE
  5
1CB
330
8D
100
AcDbEntity
  8
1
  6
Continuous
 62
     2
100
AcDbLine
 10
-162.814065334842
 20
-211.3935179445688
 30
0.0
 11
-157.8140653348439
 21
-211.3935179445688
 31
0.0
  0
LINE
  5
1CC
330
8D
100
AcDbEntity
  8
1
  6
Continuous
 62
     6
100
AcDbLine
 10
-162.8140653348439
 20
-76.39351794456891
 30
0.0
 11
-449.814065334842
 21
-76.39351794456891
 31
0.0
  0
LINE
  5
1CD
330
8D
100
AcDbEntity
  8
1
  6
Continuous
 62
     2
100
AcDbLine
 10
-157.8140653348439
 20
-56.39351794456891
 30
0.0
 11
-306.314065334843
 21
-56.39351794456891
 31
0.0
  0
LINE
  5
1CE
330
8D
100
AcDbEntity
  8
1
  6
Continuous
 62
     6
100
AcDbLine
 10
-162.8140653348412
 20
-244.3935179445689
 30
0.0
 11
-162.814065334842
 21
-211.3935179445688
 31
0.0
  0
LINE
  5
1CF
330
8D
100
AcDbEntity
  8
1
  6
Continuous
 62
     2
100
AcDbLine
 10
-162.8140653348429
 20
-266.3935179445691
 30
0.0
 11
-206.3140653348429
 21
-266.3935179445691
 31
0.0
  0
LINE
  5
1D0
330
8D
100
AcDbEntity
  8
1
  6
Continuous
 62
     2
100
AcDbLine
 10
-157.8140653348439
 20
-266.3935179445691
 30
0.0
 11
-162.8140653348429
 21
-266.3935179445691
 31
0.0
  0
LINE
  5
1D1
330
8D
100
AcDbEntity
  8
1
  6
Continuous
 62
     2
100
AcDbLine
 10
-157.8140653348439
 20
-266.3935179445691
 30
0.0
 11
-157.8140653348439
 21
-261.393517944569
 31
0.0
  0
LINE
  5
1D2
330
8D
100
AcDbEntity
  8
1
  6
Continuous
 62
     6
100
AcDbLine
 10
-292.358869861593
 20
-244.3935179445689
 30
0.0
 11
-255.958869861593
 21
-244.3935179445689
 31
0.0
  0
LINE
  5
1D3
330
8D
100
AcDbEntity
  8
1
  6
Continuous
 62
     2
100
AcDbLine
 10
-162.8140653348429
 20
-261.393517944569
 30
0.0
 11
-162.8140653348429
 21
-266.3935179445691
 31
0.0
  0
LINE
  5
1D4
330
8D
100
AcDbEntity
  8
1
  6
Continuous
 62
     2
100
AcDbLine
 10
-162.8140653348429
 20
-261.393517944569
 30
0.0
 11
-157.8140653348439
 21
-261.393517944569
 31
0.0
  0
LINE
  5
1D5
330
8D
100
AcDbEntity
  8
1
  6
Continuous
 62
     6
100
AcDbLine
 10
-256.3140653348429
 20
-261.393517944569
 30
0.0
 11
-274.1588698615929
 21
-261.393517944569
 31
0.0
  0
LINE
  5
1D6
330
8D
100
AcDbEntity
  8
1
  6
Continuous
 62
     6
100
AcDbLine
 10
-206.3140653348429
 20
-261.393517944569
 30
0.0
 11
-162.8140653348429
 21
-261.393517944569
 31
0.0
  0
LINE
  5
1D7
330
8D
100
AcDbEntity
  8
1
  6
Continuous
 62
     6
100
AcDbLine
 10
-356.3140653348431
 20
-261.393517944569
 30
0.0
 11
-361.358869861593
 21
-261.393517944569
 31
0.0
  0
LINE
  5
1D8
330
8D
100
AcDbEntity
  8
1
  6
Continuous
 62
     6
100
AcDbLine
 10
-306.314065334843
 20
-261.393517944569
 30
0.0
 11
-292.358869861593
 21
-261.3935179445691
 31
0.0
  0
LINE
  5
1D9
102
{ACAD_REACTORS
330
2C3
330
2C4
102
}
330
8D
100
AcDbEntity
  8
0
  6
Continuous
 62
     2
100
AcDbLine
 10
-284.8442439194461
 20
-249.3210031883568
 30
0.0
 11
-284.8442439194461
 21
-248.71546789985
 31
0.0
  0
LINE
  5
1DA
102
{ACAD_REACTORS
330
2C3
330
2C4
102
}
330
8D
100
AcDbEntity
  8
0
  6
Continuous
 62
     2
100
AcDbLine
 10
-284.8442439194461
 20
-252.121137794988
 30
0.0
 11
-284.8442439194461
 21
-251.539286388293
 31
0.0
  0
LINE
  5
1DB
102
{ACAD_REACTORS
330
2C5
330
2C6
102
}
330
8D
100
AcDbEntity
  8
0
  6
Continuous
 62
     2
100
AcDbLine
 10
-262.2147574839669
 20
-251.8314737268651
 30
0.0
 11
-262.2147574839669
 21
-254.1000179445526
 31
0.0
  0
LINE
  5
1DC
102
{ACAD_REACTORS
330
2C5
330
2C6
102
}
330
8D
100
AcDbEntity
  8
0
  6
Continuous
 62
     2
100
AcDbLine
 10
-263.5958112629545
 20
-251.046208420742
 30
0.0
 11
-260.2108657443258
 21
-251.0462084207416
 31
0.0
  0
LINE
  5
1DD
102
{ACAD_REACTORS
330
2C5
330
2C6
102
}
330
8D
100
AcDbEntity
  8
0
  6
Continuous
 62
     2
100
AcDbLine
 10
-260.2108657443258
 20
-251.8314737268651
 30
0.0
 11
-260.2108657443258
 21
-251.0462084207416
 31
0.0
  0
LINE
  5
1DE
102
{ACAD_REACTORS
330
2C5
330
2C6
102
}
330
8D
100
AcDbEntity
  8
0
  6
Continuous
 62
     2
100
AcDbLine
 10
-261.0219647817992
 20
-251.8314737268651
 30
0.0
 11
-260.2108657443258
 21
-251.8314737268651
 31
0.0
  0
LINE
  5
1DF
102
{ACAD_REACTORS
330
2C5
330
2C6
102
}
330
8D
100
AcDbEntity
  8
0
  6
Continuous
 62
     2
100
AcDbLine
 10
-261.0219647817992
 20
-254.1000179445526
 30
0.0
 11
-261.0219647817992
 21
-251.8314737268651
 31
0.0
  0
LINE
  5
1E0
102
{ACAD_REACTORS
330
2C5
330
2C6
102
}
330
8D
100
AcDbEntity
  8
0
  6
Continuous
 62
     2
100
AcDbLine
 10
-262.2147574839669
 20
-254.1000179445526
 30
0.0
 11
-261.0219647817992
 21
-254.1000179445526
 31
0.0
  0
LINE
  5
1E1
102
{ACAD_REACTORS
330
2BB
330
2BC
102
}
330
8D
100
AcDbEntity
  8
0
  6
Continuous
 62
     2
100
AcDbLine
 10
-262.9113484220314
 20
-247.6870179445671
 30
0.0
 11
-264.3140726397807
 21
-247.6870179445671
 31
0.0
  0
LINE
  5
1E2
102
{ACAD_REACTORS
330
2BB
330
2BC
102
}
330
8D
100
AcDbEntity
  8
0
  6
Continuous
 62
     2
100
AcDbLine
 10
-262.9113484220314
 20
-247.6870179445671
 30
0.0
 11
-262.3101809001396
 21
-248.3668412661226
 31
0.0
  0
LINE
  5
1E3
102
{ACAD_REACTORS
330
2BB
330
2BC
102
}
330
8D
100
AcDbEntity
  8
0
  6
Continuous
 62
     2
100
AcDbLine
 10
-262.3101809001396
 20
-248.3668412661226
 30
0.0
 11
-261.7090133782468
 21
-247.6870179445671
 31
0.0
  0
LINE
  5
1E4
102
{ACAD_REACTORS
330
2BB
330
2BC
102
}
330
8D
100
AcDbEntity
  8
0
  6
Continuous
 62
     2
100
AcDbLine
 10
-261.6088187912661
 20
-249.1599684746033
 30
0.0
 11
-260.3062891604997
 21
-247.6870179445671
 31
0.0
  0
LINE
  5
1E5
102
{ACAD_REACTORS
330
2BB
330
2BC
102
}
330
8D
100
AcDbEntity
  8
0
  6
Continuous
 62
     2
100
AcDbLine
 10
-261.6088187912661
 20
-249.1599684746033
 30
0.0
 11
-260.2108657443258
 21
-250.7408274683783
 31
0.0
  0
LINE
  5
1E6
102
{ACAD_REACTORS
330
2BB
330
2BC
102
}
330
8D
100
AcDbEntity
  8
0
  6
Continuous
 62
     2
100
AcDbLine
 10
-261.6135899620741
 20
-250.7408274683783
 30
0.0
 11
-260.2108657443258
 21
-250.7408274683783
 31
0.0
  0
LINE
  5
1E7
102
{ACAD_REACTORS
330
2BB
330
2BC
102
}
330
8D
100
AcDbEntity
  8
0
  6
Continuous
 62
     2
100
AcDbLine
 10
-262.3101809001396
 20
-249.9530956830846
 30
0.0
 11
-261.6135899620741
 21
-250.7408274683783
 31
0.0
  0
LINE
  5
1E8
102
{ACAD_REACTORS
330
2B9
330
2BA
102
}
330
8D
100
AcDbEntity
  8
0
  6
Continuous
 62
     2
100
AcDbLine
 10
-265.7692797364233
 20
-247.6870179445671
 30
0.0
 11
-264.5287753261704
 21
-247.6870179445671
 31
0.0
  0
LINE
  5
1E9
102
{ACAD_REACTORS
330
2B9
330
2BA
102
}
330
8D
100
AcDbEntity
  8
0
  6
Continuous
 62
     2
100
AcDbLine
 10
-264.5287753261704
 20
-247.6870179445671
 30
0.0
 11
-264.5287753261704
 21
-250.7408274683783
 31
0.0
  0
LINE
  5
1EA
102
{ACAD_REACTORS
330
2B9
330
2BA
102
}
330
8D
100
AcDbEntity
  8
0
  6
Continuous
 62
     2
100
AcDbLine
 10
-265.7692797364233
 20
-250.7408274683783
 30
0.0
 11
-265.7692797364233
 21
-247.6870179445671
 31
0.0
  0
LINE
  5
1EB
102
{ACAD_REACTORS
330
2B7
330
2B8
102
}
330
8D
100
AcDbEntity
  8
0
  6
Continuous
 62
     2
100
AcDbLine
 10
-267.2375898189609
 20
-252.8784941350281
 30
0.0
 11
-266.9374245817685
 21
-252.1106791690414
 31
0.0
  0
LINE
  5
1EC
102
{ACAD_REACTORS
330
2B7
330
2B8
102
}
330
8D
100
AcDbEntity
  8
0
  6
Continuous
 62
     2
100
AcDbLine
 10
-267.7151254235817
 20
-254.1000179445526
 30
0.0
 11
-267.5036453701059
 21
-253.5590574003347
 31
0.0
  0
LINE
  5
1ED
102
{ACAD_REACTORS
330
2B7
330
2B8
102
}
330
8D
100
AcDbEntity
  8
0
  6
Continuous
 62
     2
100
AcDbLine
 10
-267.5576767868954
 20
-251.0462084207416
 30
0.0
 11
-268.9556298338347
 21
-254.1000179445526
 31
0.0
  0
LINE
  5
1EE
102
{ACAD_REACTORS
330
2B7
330
2B8
102
}
330
8D
100
AcDbEntity
  8
0
  6
Continuous
 62
     2
100
AcDbLine
 10
-264.9192193297024
 20
-254.1000179445526
 30
0.0
 11
-266.1597237399564
 21
-254.1000179445526
 31
0.0
  0
LINE
  5
1EF
102
{ACAD_REACTORS
330
2B7
330
2B8
102
}
330
8D
100
AcDbEntity
  8
0
  6
Continuous
 62
     2
100
AcDbLine
 10
-267.5036453701059
 20
-253.5590574003347
 30
0.0
 11
-266.3712037934321
 21
-253.5590574003347
 31
0.0
  0
LINE
  5
1F0
102
{ACAD_REACTORS
330
2B5
330
2B6
102
}
330
8D
100
AcDbEntity
  8
0
  6
Continuous
 62
     2
100
AcDbLine
 10
-271.1131419730169
 20
-251.8314737268651
 30
0.0
 11
-270.3020429355423
 21
-251.8314737268651
 31
0.0
  0
LINE
  5
1F1
102
{ACAD_REACTORS
330
2B5
330
2B6
102
}
330
8D
100
AcDbEntity
  8
0
  6
Continuous
 62
     2
100
AcDbLine
 10
-268.2981511959033
 20
-251.0462084207416
 30
0.0
 11
-271.1131419730169
 21
-251.0462084207416
 31
0.0
  0
LINE
  5
1F2
102
{ACAD_REACTORS
330
2B5
330
2B6
102
}
330
8D
100
AcDbEntity
  8
0
  6
Continuous
 62
     2
100
AcDbLine
 10
-268.2981511959033
 20
-251.8314737268651
 30
0.0
 11
-268.2981511959033
 21
-251.0462084207416
 31
0.0
  0
LINE
  5
1F3
102
{ACAD_REACTORS
330
2B5
330
2B6
102
}
330
8D
100
AcDbEntity
  8
0
  6
Continuous
 62
     2
100
AcDbLine
 10
-269.1092502333758
 20
-251.8314737268651
 30
0.0
 11
-268.2981511959033
 21
-251.8314737268651
 31
0.0
  0
LINE
  5
1F4
102
{ACAD_REACTORS
330
2B5
330
2B6
102
}
330
8D
100
AcDbEntity
  8
0
  6
Continuous
 62
     2
100
AcDbLine
 10
-269.1092502333758
 20
-254.1000179445526
 30
0.0
 11
-269.1092502333758
 21
-251.8314737268651
 31
0.0
  0
LINE
  5
1F5
102
{ACAD_REACTORS
330
2B3
330
2B4
102
}
330
8D
100
AcDbEntity
  8
0
  6
Continuous
 62
     2
100
AcDbLine
 10
-268.4411353892778
 20
-250.7408274683783
 30
0.0
 11
-268.4411353892778
 21
-249.4320519581736
 31
0.0
  0
LINE
  5
1F6
102
{ACAD_REACTORS
330
2B3
330
2B4
102
}
330
8D
100
AcDbEntity
  8
0
  6
Continuous
 62
     2
100
AcDbLine
 10
-269.6339280914443
 20
-247.6870179445671
 30
0.0
 11
-269.6339280914443
 21
-250.7408274683783
 31
0.0
  0
LINE
  5
1F7
102
{ACAD_REACTORS
330
2B3
330
2B4
102
}
330
8D
100
AcDbEntity
  8
0
  6
Continuous
 62
     2
100
AcDbLine
 10
-268.4411353892778
 20
-247.6870179445671
 30
0.0
 11
-269.6339280914443
 21
-247.6870179445671
 31
0.0
  0
LINE
  5
1F8
102
{ACAD_REACTORS
330
2B3
330
2B4
102
}
330
8D
100
AcDbEntity
  8
0
  6
Continuous
 62
     2
100
AcDbLine
 10
-267.2006309790238
 20
-247.6870179445671
 30
0.0
 11
-267.2006309790238
 21
-248.9957934547723
 31
0.0
  0
LINE
  5
1F9
102
{ACAD_REACTORS
330
2B1
330
2B2
102
}
330
8D
100
AcDbEntity
  8
0
  6
Continuous
 62
     2
100
AcDbLine
 10
-274.882366911864
 20
-251.0462084207416
 30
0.0
 11
-274.882366911864
 21
-254.1000179445526
 31
0.0
  0
LINE
  5
1FA
102
{ACAD_REACTORS
330
2B1
330
2B2
102
}
330
8D
100
AcDbEntity
  8
0
  6
Continuous
 62
     2
100
AcDbLine
 10
-273.6895742096965
 20
-251.0462084207416
 30
0.0
 11
-274.882366911864
 21
-251.0462084207416
 31
0.0
  0
LINE
  5
1FB
102
{ACAD_REACTORS
330
2B1
330
2B2
102
}
330
8D
100
AcDbEntity
  8
0
  6
Continuous
 62
     2
100
AcDbLine
 10
-272.4490697994435
 20
-254.1000179445526
 30
0.0
 11
-271.2562770972771
 21
-254.1000179445526
 31
0.0
  0
LINE
  5
1FC
102
{ACAD_REACTORS
330
2B1
330
2B2
102
}
330
8D
100
AcDbEntity
  8
0
  6
Continuous
 62
     2
100
AcDbLine
 10
-274.882366911864
 20
-254.1000179445526
 30
0.0
 11
-273.6895742096965
 21
-254.1000179445526
 31
0.0
  0
LINE
  5
1FD
102
{ACAD_REACTORS
330
2C1
330
2C2
102
}
330
8D
100
AcDbEntity
  8
0
  6
Continuous
 62
     2
100
AcDbLine
 10
-271.2084144583049
 20
-248.8649159037518
 30
0.0
 11
-271.2084144583049
 21
-248.3850315500101
 31
0.0
  0
LINE
  5
1FE
102
{ACAD_REACTORS
330
2C1
330
2C2
102
}
330
8D
100
AcDbEntity
  8
0
  6
Continuous
 62
     2
100
AcDbLine
 10
-269.8724866318772
 20
-248.8649159037518
 30
0.0
 11
-271.2084144583049
 21
-248.8649159037518
 31
0.0
  0
LINE
  5
1FF
102
{ACAD_REACTORS
330
2C1
330
2C2
102
}
330
8D
100
AcDbEntity
  8
0
  6
Continuous
 62
     2
100
AcDbLine
 10
-269.8724866318772
 20
-249.5629295091941
 30
0.0
 11
-269.8724866318772
 21
-248.8649159037518
 31
0.0
  0
LINE
  5
200
102
{ACAD_REACTORS
330
2C1
330
2C2
102
}
330
8D
100
AcDbEntity
  8
0
  6
Continuous
 62
     2
100
AcDbLine
 10
-271.2084144583049
 20
-249.5629295091941
 30
0.0
 11
-269.8724866318772
 21
-249.5629295091941
 31
0.0
  0
LINE
  5
201
102
{ACAD_REACTORS
330
2AF
330
2B0
102
}
330
8D
100
AcDbEntity
  8
0
  6
Continuous
 62
     2
100
AcDbLine
 10
-274.6913691486319
 20
-247.6870179445671
 30
0.0
 11
-274.6913691486319
 21
-250.7408274683783
 31
0.0
  0
LINE
  5
202
102
{ACAD_REACTORS
330
2AF
330
2B0
102
}
330
8D
100
AcDbEntity
  8
0
  6
Continuous
 62
     2
100
AcDbLine
 10
-274.6913691486319
 20
-250.7408274683783
 30
0.0
 11
-275.8841618507983
 21
-250.7408274683783
 31
0.0
  0
LINE
  5
203
102
{ACAD_REACTORS
330
2AF
330
2B0
102
}
330
8D
100
AcDbEntity
  8
0
  6
Continuous
 62
     2
100
AcDbLine
 10
-275.8841618507983
 20
-250.7408274683783
 30
0.0
 11
-275.8841618507983
 21
-249.6065553595345
 31
0.0
  0
LINE
  5
204
102
{ACAD_REACTORS
330
2AF
330
2B0
102
}
330
8D
100
AcDbEntity
  8
0
  6
Continuous
 62
     2
100
AcDbLine
 10
-276.9338194287057
 20
-250.7408274683783
 30
0.0
 11
-278.1266121308723
 21
-250.7408274683783
 31
0.0
  0
LINE
  5
205
102
{ACAD_REACTORS
330
2AF
330
2B0
102
}
330
8D
100
AcDbEntity
  8
0
  6
Continuous
 62
     2
100
AcDbLine
 10
-278.1266121308723
 20
-247.6870179445671
 30
0.0
 11
-276.9338194287057
 21
-247.6870179445671
 31
0.0
  0
LINE
  5
206
102
{ACAD_REACTORS
330
2AF
330
2B0
102
}
330
8D
100
AcDbEntity
  8
0
  6
Continuous
 62
     2
100
AcDbLine
 10
-276.9338194287057
 20
-247.6870179445671
 30
0.0
 11
-276.9338194287057
 21
-248.7558512779017
 31
0.0
  0
LINE
  5
207
102
{ACAD_REACTORS
330
2AF
330
2B0
102
}
330
8D
100
AcDbEntity
  8
0
  6
Continuous
 62
     2
100
AcDbLine
 10
-276.9338194287057
 20
-248.7558512779017
 30
0.0
 11
-275.8841618507983
 21
-248.7558512779017
 31
0.0
  0
LINE
  5
208
102
{ACAD_REACTORS
330
2BD
330
2BE
102
}
330
8D
100
AcDbEntity
  8
0
  6
Continuous
 62
     2
100
AcDbLine
 10
-280.0827921624259
 20
-248.3501237900072
 30
0.0
 11
-279.765497100884
 21
-248.3501237900072
 31
0.0
  0
LINE
  5
209
102
{ACAD_REACTORS
330
2BD
330
2BE
102
}
330
8D
100
AcDbEntity
  8
0
  6
Continuous
 62
     2
100
AcDbLine
 10
-280.0827921624259
 20
-249.0558514393495
 30
0.0
 11
-279.765497100884
 21
-249.0558514393495
 31
0.0
  0
LINE
  5
20A
102
{ACAD_REACTORS
330
2BD
330
2BE
102
}
330
8D
100
AcDbEntity
  8
0
  6
Continuous
 62
     2
100
AcDbLine
 10
-281.32329657268
 20
-247.6870179445671
 30
0.0
 11
-281.32329657268
 21
-250.7408274683783
 31
0.0
  0
LINE
  5
20B
102
{ACAD_REACTORS
330
2BD
330
2BE
102
}
330
8D
100
AcDbEntity
  8
0
  6
Continuous
 62
     2
100
AcDbLine
 10
-281.32329657268
 20
-247.6870179445671
 30
0.0
 11
-279.3240245746457
 21
-247.6870179445671
 31
0.0
  0
LINE
  5
20C
102
{ACAD_REACTORS
330
2BD
330
2BE
102
}
330
8D
100
AcDbEntity
  8
0
  6
Continuous
 62
     2
100
AcDbLine
 10
-280.0827921624259
 20
-249.7977492272345
 30
0.0
 11
-279.3240245746457
 21
-249.7977492272345
 31
0.0
  0
LINE
  5
20D
102
{ACAD_REACTORS
330
2C3
330
2C4
102
}
330
8D
100
AcDbEntity
  8
0
  6
Continuous
 62
     2
100
AcDbLine
 10
-287.4197926059767
 20
-248.7152904232019
 30
0.0
 11
-287.4197926059767
 21
-253.071745465919
 31
0.0
  0
LINE
  5
20E
102
{ACAD_REACTORS
330
2C3
330
2C4
102
}
330
8D
100
AcDbEntity
  8
0
  6
Continuous
 62
     2
100
AcDbLine
 10
-287.104075682901
 20
-248.3995735001257
 30
0.0
 11
-285.6282424218914
 21
-248.3995735001257
 31
0.0
  0
LINE
  5
20F
102
{ACAD_REACTORS
330
2C3
330
2C4
102
}
330
8D
100
AcDbEntity
  8
0
  6
Continuous
 62
     2
100
AcDbLine
 10
-285.3125254988148
 20
-249.3193150422624
 30
0.0
 11
-285.3125254988148
 21
-248.7152904232019
 31
0.0
  0
LINE
  5
210
102
{ACAD_REACTORS
330
2C3
330
2C4
102
}
330
8D
100
AcDbEntity
  8
0
  6
Continuous
 62
     2
100
AcDbLine
 10
-285.3125254988148
 20
-253.071745465919
 30
0.0
 11
-285.3125254988148
 21
-251.5409745343874
 31
0.0
  0
LINE
  5
211
102
{ACAD_REACTORS
330
2C3
330
2C4
102
}
330
8D
100
AcDbEntity
  8
0
  6
Continuous
 62
     2
100
AcDbLine
 10
-282.2246582689307
 20
-254.1000179445526
 30
0.0
 11
-287.6979703596475
 21
-254.1000179445526
 31
0.0
  0
LINE
  5
212
102
{ACAD_REACTORS
330
2C3
330
2C4
102
}
330
8D
100
AcDbEntity
  8
0
  6
Continuous
 62
     2
100
AcDbLine
 10
-281.8004136535468
 20
-248.1112625599691
 30
0.0
 11
-281.8004136535468
 21
-253.6757733291693
 31
0.0
  0
LINE
  5
213
102
{ACAD_REACTORS
330
2C3
330
2C4
102
}
330
8D
100
AcDbEntity
  8
0
  6
Continuous
 62
     2
100
AcDbLine
 10
-287.6979703596475
 20
-247.6870179445853
 30
0.0
 11
-282.2246582689307
 21
-247.6870179445853
 31
0.0
  0
LINE
  5
214
102
{ACAD_REACTORS
330
2C3
330
2C4
102
}
330
8D
100
AcDbEntity
  8
0
  6
Continuous
 62
     2
100
AcDbLine
 10
-288.1222149750303
 20
-248.1112625599691
 30
0.0
 11
-288.1222149750303
 21
-253.6757733291693
 31
0.0
  0
LINE
  5
215
102
{ACAD_REACTORS
330
2C3
330
2C4
102
}
330
8D
100
AcDbEntity
  8
0
  6
Continuous
 62
     2
100
AcDbLine
 10
-285.6282424218914
 20
-253.3874623889958
 30
0.0
 11
-287.104075682901
 21
-253.3874623889958
 31
0.0
  0
LINE
  5
216
102
{ACAD_REACTORS
330
2BD
330
2BE
102
}
330
8D
100
AcDbEntity
  8
0
  6
Continuous
 62
     2
100
AcDbLine
 10
-280.0827921624259
 20
-250.7408274683783
 30
0.0
 11
-280.0827921624259
 21
-249.7977492272345
 31
0.0
  0
LINE
  5
217
102
{ACAD_REACTORS
330
2BD
330
2BE
102
}
330
8D
100
AcDbEntity
  8
0
  6
Continuous
 62
     2
100
AcDbLine
 10
-281.32329657268
 20
-250.7408274683783
 30
0.0
 11
-280.0827921624259
 21
-250.7408274683783
 31
0.0
  0
LINE
  5
218
102
{ACAD_REACTORS
330
2BD
330
2BE
102
}
330
8D
100
AcDbEntity
  8
0
  6
Continuous
 62
     2
100
AcDbLine
 10
-280.0827921624259
 20
-249.0558514393495
 30
0.0
 11
-280.0827921624259
 21
-248.3501237900072
 31
0.0
  0
LINE
  5
219
102
{ACAD_REACTORS
330
2AF
330
2B0
102
}
330
8D
100
AcDbEntity
  8
0
  6
Continuous
 62
     2
100
AcDbLine
 10
-278.1266121308723
 20
-247.6870179445671
 30
0.0
 11
-278.1266121308723
 21
-250.7408274683783
 31
0.0
  0
LINE
  5
21A
102
{ACAD_REACTORS
330
2AF
330
2B0
102
}
330
8D
100
AcDbEntity
  8
0
  6
Continuous
 62
     2
100
AcDbLine
 10
-276.9338194287057
 20
-249.6065553595345
 30
0.0
 11
-276.9338194287057
 21
-250.7408274683783
 31
0.0
  0
LINE
  5
21B
102
{ACAD_REACTORS
330
2AF
330
2B0
102
}
330
8D
100
AcDbEntity
  8
0
  6
Continuous
 62
     2
100
AcDbLine
 10
-275.8841618507983
 20
-249.6065553595345
 30
0.0
 11
-276.9338194287057
 21
-249.6065553595345
 31
0.0
  0
LINE
  5
21C
102
{ACAD_REACTORS
330
2AF
330
2B0
102
}
330
8D
100
AcDbEntity
  8
0
  6
Continuous
 62
     2
100
AcDbLine
 10
-275.8841618507983
 20
-247.6870179445671
 30
0.0
 11
-274.6913691486319
 21
-247.6870179445671
 31
0.0
  0
LINE
  5
21D
102
{ACAD_REACTORS
330
2AF
330
2B0
102
}
330
8D
100
AcDbEntity
  8
0
  6
Continuous
 62
     2
100
AcDbLine
 10
-275.8841618507983
 20
-248.7558512779017
 30
0.0
 11
-275.8841618507983
 21
-247.6870179445671
 31
0.0
  0
LINE
  5
21E
102
{ACAD_REACTORS
330
2C1
330
2C2
102
}
330
8D
100
AcDbEntity
  8
0
  6
Continuous
 62
     2
100
AcDbLine
 10
-269.8724866318772
 20
-248.3850315500101
 30
0.0
 11
-269.8724866318772
 21
-247.6870179445671
 31
0.0
  0
LINE
  5
21F
102
{ACAD_REACTORS
330
2C1
330
2C2
102
}
330
8D
100
AcDbEntity
  8
0
  6
Continuous
 62
     2
100
AcDbLine
 10
-273.0228063556583
 20
-247.6870179445671
 30
0.0
 11
-269.8724866318772
 21
-247.6870179445671
 31
0.0
  0
LINE
  5
220
102
{ACAD_REACTORS
330
2C1
330
2C2
102
}
330
8D
100
AcDbEntity
  8
0
  6
Continuous
 62
     2
100
AcDbLine
 10
-273.0228063556583
 20
-250.7408274683783
 30
0.0
 11
-269.8724866318772
 21
-250.7408274683783
 31
0.0
  0
LINE
  5
221
102
{ACAD_REACTORS
330
2C1
330
2C2
102
}
330
8D
100
AcDbEntity
  8
0
  6
Continuous
 62
     2
100
AcDbLine
 10
-269.8724866318772
 20
-250.7408274683783
 30
0.0
 11
-269.8724866318772
 21
-250.0428138629358
 31
0.0
  0
LINE
  5
222
102
{ACAD_REACTORS
330
2C1
330
2C2
102
}
330
8D
100
AcDbEntity
  8
0
  6
Continuous
 62
     2
100
AcDbLine
 10
-269.8724866318772
 20
-250.0428138629358
 30
0.0
 11
-271.2084144583049
 21
-250.0428138629358
 31
0.0
  0
LINE
  5
223
102
{ACAD_REACTORS
330
2C1
330
2C2
102
}
330
8D
100
AcDbEntity
  8
0
  6
Continuous
 62
     2
100
AcDbLine
 10
-271.2084144583049
 20
-250.0428138629358
 30
0.0
 11
-271.2084144583049
 21
-249.5629295091941
 31
0.0
  0
LINE
  5
224
102
{ACAD_REACTORS
330
2C1
330
2C2
102
}
330
8D
100
AcDbEntity
  8
0
  6
Continuous
 62
     2
100
AcDbLine
 10
-271.2084144583049
 20
-248.3850315500101
 30
0.0
 11
-269.8724866318772
 21
-248.3850315500101
 31
0.0
  0
LINE
  5
225
102
{ACAD_REACTORS
330
2B1
330
2B2
102
}
330
8D
100
AcDbEntity
  8
0
  6
Continuous
 62
     2
100
AcDbLine
 10
-273.6895742096965
 20
-254.1000179445526
 30
0.0
 11
-273.6895742096965
 21
-252.791242434348
 31
0.0
  0
LINE
  5
226
102
{ACAD_REACTORS
330
2B1
330
2B2
102
}
330
8D
100
AcDbEntity
  8
0
  6
Continuous
 62
     2
100
AcDbLine
 10
-273.6895742096965
 20
-252.791242434348
 30
0.0
 11
-272.4490697994435
 21
-254.1000179445526
 31
0.0
  0
LINE
  5
227
102
{ACAD_REACTORS
330
2B1
330
2B2
102
}
330
8D
100
AcDbEntity
  8
0
  6
Continuous
 62
     2
100
AcDbLine
 10
-271.2562770972771
 20
-254.1000179445526
 30
0.0
 11
-271.2562770972771
 21
-251.0462084207416
 31
0.0
  0
LINE
  5
228
102
{ACAD_REACTORS
330
2B1
330
2B2
102
}
330
8D
100
AcDbEntity
  8
0
  6
Continuous
 62
     2
100
AcDbLine
 10
-271.2562770972771
 20
-251.0462084207416
 30
0.0
 11
-272.4490697994435
 21
-251.0462084207416
 31
0.0
  0
LINE
  5
229
102
{ACAD_REACTORS
330
2B1
330
2B2
102
}
330
8D
100
AcDbEntity
  8
0
  6
Continuous
 62
     2
100
AcDbLine
 10
-272.4490697994435
 20
-251.0462084207416
 30
0.0
 11
-272.4490697994435
 21
-252.3549839309466
 31
0.0
  0
LINE
  5
22A
102
{ACAD_REACTORS
330
2B1
330
2B2
102
}
330
8D
100
AcDbEntity
  8
0
  6
Continuous
 62
     2
100
AcDbLine
 10
-272.4490697994435
 20
-252.3549839309466
 30
0.0
 11
-273.6895742096965
 21
-251.0462084207416
 31
0.0
  0
LINE
  5
22B
102
{ACAD_REACTORS
330
2B3
330
2B4
102
}
330
8D
100
AcDbEntity
  8
0
  6
Continuous
 62
     2
100
AcDbLine
 10
-268.4411353892778
 20
-249.4320519581736
 30
0.0
 11
-267.2006309790238
 21
-250.7408274683783
 31
0.0
  0
LINE
  5
22C
102
{ACAD_REACTORS
330
2B3
330
2B4
102
}
330
8D
100
AcDbEntity
  8
0
  6
Continuous
 62
     2
100
AcDbLine
 10
-267.2006309790238
 20
-250.7408274683783
 30
0.0
 11
-266.0078382768572
 21
-250.7408274683783
 31
0.0
  0
LINE
  5
22D
102
{ACAD_REACTORS
330
2B3
330
2B4
102
}
330
8D
100
AcDbEntity
  8
0
  6
Continuous
 62
     2
100
AcDbLine
 10
-266.0078382768572
 20
-250.7408274683783
 30
0.0
 11
-266.0078382768572
 21
-247.6870179445671
 31
0.0
  0
LINE
  5
22E
102
{ACAD_REACTORS
330
2B3
330
2B4
102
}
330
8D
100
AcDbEntity
  8
0
  6
Continuous
 62
     2
100
AcDbLine
 10
-266.0078382768572
 20
-247.6870179445671
 30
0.0
 11
-267.2006309790238
 21
-247.6870179445671
 31
0.0
  0
LINE
  5
22F
102
{ACAD_REACTORS
330
2B3
330
2B4
102
}
330
8D
100
AcDbEntity
  8
0
  6
Continuous
 62
     2
100
AcDbLine
 10
-267.2006309790238
 20
-248.9957934547723
 30
0.0
 11
-268.4411353892778
 21
-247.6870179445671
 31
0.0
  0
LINE
  5
230
102
{ACAD_REACTORS
330
2B3
330
2B4
102
}
330
8D
100
AcDbEntity
  8
0
  6
Continuous
 62
     2
100
AcDbLine
 10
-269.6339280914443
 20
-250.7408274683783
 30
0.0
 11
-268.4411353892778
 21
-250.7408274683783
 31
0.0
  0
LINE
  5
231
102
{ACAD_REACTORS
330
2B5
330
2B6
102
}
330
8D
100
AcDbEntity
  8
0
  6
Continuous
 62
     2
100
AcDbLine
 10
-271.1131419730169
 20
-251.0462084207416
 30
0.0
 11
-271.1131419730169
 21
-251.8314737268651
 31
0.0
  0
LINE
  5
232
102
{ACAD_REACTORS
330
2B5
330
2B6
102
}
330
8D
100
AcDbEntity
  8
0
  6
Continuous
 62
     2
100
AcDbLine
 10
-270.3020429355423
 20
-251.8314737268651
 30
0.0
 11
-270.3020429355423
 21
-254.1000179445526
 31
0.0
  0
LINE
  5
233
102
{ACAD_REACTORS
330
2B5
330
2B6
102
}
330
8D
100
AcDbEntity
  8
0
  6
Continuous
 62
     2
100
AcDbLine
 10
-270.3020429355423
 20
-254.1000179445526
 30
0.0
 11
-269.1092502333758
 21
-254.1000179445526
 31
0.0
  0
LINE
  5
234
102
{ACAD_REACTORS
330
2B7
330
2B8
102
}
330
8D
100
AcDbEntity
  8
0
  6
Continuous
 62
     2
100
AcDbLine
 10
-266.1597237399564
 20
-254.1000179445526
 30
0.0
 11
-266.3712037934321
 21
-253.5590574003347
 31
0.0
  0
LINE
  5
235
102
{ACAD_REACTORS
330
2B7
330
2B8
102
}
330
8D
100
AcDbEntity
  8
0
  6
Continuous
 62
     2
100
AcDbLine
 10
-266.3171723766427
 20
-251.0462084207416
 30
0.0
 11
-264.9192193297024
 21
-254.1000179445526
 31
0.0
  0
LINE
  5
236
102
{ACAD_REACTORS
330
2B7
330
2B8
102
}
330
8D
100
AcDbEntity
  8
0
  6
Continuous
 62
     2
100
AcDbLine
 10
-267.5576767868954
 20
-251.0462084207416
 30
0.0
 11
-266.3171723766427
 21
-251.0462084207416
 31
0.0
  0
LINE
  5
237
102
{ACAD_REACTORS
330
2B7
330
2B8
102
}
330
8D
100
AcDbEntity
  8
0
  6
Continuous
 62
     2
100
AcDbLine
 10
-268.9556298338347
 20
-254.1000179445526
 30
0.0
 11
-267.7151254235817
 21
-254.1000179445526
 31
0.0
  0
LINE
  5
238
102
{ACAD_REACTORS
330
2B7
330
2B8
102
}
330
8D
100
AcDbEntity
  8
0
  6
Continuous
 62
     2
100
AcDbLine
 10
-267.2375898189609
 20
-252.8784941350281
 30
0.0
 11
-266.6372593445784
 21
-252.8784941350281
 31
0.0
  0
LINE
  5
239
102
{ACAD_REACTORS
330
2B7
330
2B8
102
}
330
8D
100
AcDbEntity
  8
0
  6
Continuous
 62
     2
100
AcDbLine
 10
-266.6372593445784
 20
-252.8784941350281
 30
0.0
 11
-266.9374245817685
 21
-252.1106791690414
 31
0.0
  0
LINE
  5
23A
102
{ACAD_REACTORS
330
2B9
330
2BA
102
}
330
8D
100
AcDbEntity
  8
0
  6
Continuous
 62
     2
100
AcDbLine
 10
-264.5287753261704
 20
-250.7408274683783
 30
0.0
 11
-265.7692797364233
 21
-250.7408274683783
 31
0.0
  0
LINE
  5
23B
102
{ACAD_REACTORS
330
2BB
330
2BC
102
}
330
8D
100
AcDbEntity
  8
0
  6
Continuous
 62
     2
100
AcDbLine
 10
-263.0067718382053
 20
-250.7408274683783
 30
0.0
 11
-264.4094960559535
 21
-250.7408274683783
 31
0.0
  0
LINE
  5
23C
102
{ACAD_REACTORS
330
2BB
330
2BC
102
}
330
8D
100
AcDbEntity
  8
0
  6
Continuous
 62
     2
100
AcDbLine
 10
-263.0067718382053
 20
-250.7408274683783
 30
0.0
 11
-262.3101809001396
 21
-249.9530956830846
 31
0.0
  0
LINE
  5
23D
102
{ACAD_REACTORS
330
2BB
330
2BC
102
}
330
8D
100
AcDbEntity
  8
0
  6
Continuous
 62
     2
100
AcDbLine
 10
-261.7090133782468
 20
-247.6870179445671
 30
0.0
 11
-260.3062891604997
 21
-247.6870179445671
 31
0.0
  0
LINE
  5
23E
102
{ACAD_REACTORS
330
2BB
330
2BC
102
}
330
8D
100
AcDbEntity
  8
0
  6
Continuous
 62
     2
100
AcDbLine
 10
-264.3140726397807
 20
-247.6870179445671
 30
0.0
 11
-263.0115430090132
 21
-249.1599684746033
 31
0.0
  0
LINE
  5
23F
102
{ACAD_REACTORS
330
2BB
330
2BC
102
}
330
8D
100
AcDbEntity
  8
0
  6
Continuous
 62
     2
100
AcDbLine
 10
-264.4094960559535
 20
-250.7408274683783
 30
0.0
 11
-263.0115430090132
 21
-249.1599684746033
 31
0.0
  0
LINE
  5
240
102
{ACAD_REACTORS
330
2C5
330
2C6
102
}
330
8D
100
AcDbEntity
  8
0
  6
Continuous
 62
     2
100
AcDbLine
 10
-262.5487394405736
 20
-253.0529975363889
 30
0.0
 11
-262.5487394405736
 21
-253.9255145431923
 31
0.0
  0
LINE
  5
241
102
{ACAD_REACTORS
330
2C5
330
2C6
102
}
330
8D
100
AcDbEntity
  8
0
  6
Continuous
 62
     2
100
AcDbLine
 10
-263.318396783535
 20
-251.8314737268651
 30
0.0
 11
-262.2147574839669
 21
-251.8314737268651
 31
0.0
  0
LINE
  5
242
102
{ACAD_REACTORS
330
2C7
330
2C8
102
}
330
8D
100
AcDbEntity
  8
0
  6
Continuous
 62
     2
100
AcDbLine
 10
-278.6514409198255
 20
-253.0529975363885
 30
0.0
 11
-278.6514409198255
 21
-253.9255145431918
 31
0.0
  0
LINE
  5
243
102
{ACAD_REACTORS
330
2C7
330
2C8
102
}
330
8D
100
AcDbEntity
  8
0
  6
Continuous
 62
     2
100
AcDbLine
 10
-278.6514409198255
 20
-252.0932288289056
 30
0.0
 11
-278.6514409198255
 21
-251.2207118221023
 31
0.0
  0
LINE
  5
244
330
8D
100
AcDbEntity
  8
1
  6
Continuous
 62
     7
100
AcDbLine
 10
-162.8140653348416
 20
-252.8935179445689
 30
0.0
 11
-255.958869861593
 21
-252.8935179445689
 31
0.0
  0
LINE
  5
245
330
8D
100
AcDbEntity
  8
1
  6
Continuous
 62
     6
100
AcDbLine
 10
-361.358869861593
 20
-261.393517944569
 30
0.0
 11
-406.314065334843
 21
-261.393517944569
 31
0.0
  0
LINE
  5
246
330
8D
100
AcDbEntity
  8
1
  6
Continuous
 62
     7
100
AcDbLine
 10
-171.7324736165204
 20
-235.8935179445689
 30
0.0
 11
-171.7324736165204
 21
-244.3935179445689
 31
0.0
  0
LINE
  5
247
330
8D
100
AcDbEntity
  8
1
  6
Continuous
 62
     7
100
AcDbLine
 10
-198.23247361652
 20
-235.8935179445689
 30
0.0
 11
-198.23247361652
 21
-244.3935179445689
 31
0.0
  0
LINE
  5
248
330
8D
100
AcDbEntity
  8
1
  6
Continuous
 62
     7
100
AcDbLine
 10
-255.958869861593
 20
-244.3935179445689
 30
0.0
 11
-255.958869861593
 21
-235.8935179445689
 31
0.0
  0
LINE
  5
249
330
8D
100
AcDbEntity
  8
1
  6
Continuous
 62
     7
100
AcDbLine
 10
-292.358869861593
 20
-244.3935179445689
 30
0.0
 11
-292.358869861593
 21
-235.8935179445689
 31
0.0
  0
LINE
  5
24A
330
8D
100
AcDbEntity
  8
1
  6
Continuous
 62
     6
100
AcDbLine
 10
-255.958869861593
 20
-244.3935179445689
 30
0.0
 11
-162.8140653348412
 21
-244.3935179445689
 31
0.0
  0
LINE
  5
24B
330
8D
100
AcDbEntity
  8
1
  6
Continuous
 62
     7
100
AcDbLine
 10
-228.0588698615929
 20
-252.893517944569
 30
0.0
 11
-228.0588698615929
 21
-244.3935179445689
 31
0.0
  0
LINE
  5
24C
330
8D
100
AcDbEntity
  8
1
  6
PHANTOM
 62
     2
100
AcDbLine
 10
-276.8722149750303
 20
-240.268517944569
 30
0.0
 11
-282.3722149750303
 21
-240.268517944569
 31
0.0
  0
LINE
  5
24D
330
8D
100
AcDbEntity
  8
1
  6
PHANTOM
 62
     2
100
AcDbLine
 10
-279.6222149750303
 20
-237.518517944569
 30
0.0
 11
-279.6222149750303
 21
-243.018517944569
 31
0.0
  0
LINE
  5
24E
330
8D
100
AcDbEntity
  8
1
  6
DOT_CENTER
 62
     2
100
AcDbLine
 10
-288.3722149750303
 20
-240.268517944569
 30
0.0
 11
-282.8722149750303
 21
-240.268517944569
 31
0.0
  0
ARC
  5
24F
102
{ACAD_REACTORS
330
2C7
330
2C8
102
}
330
8D
100
AcDbEntity
  8
0
  6
Continuous
 62
     2
100
AcDbCircle
 10
-279.9873688369434
 20
-255.8857941279033
 30
0.0
 40
4.852596863498201
100
AcDbArc
 50
74.02000874164679
 51
84.84185523037418
  0
ARC
  5
250
102
{ACAD_REACTORS
330
2C7
330
2C8
102
}
330
8D
100
AcDbEntity
  8
0
  6
Continuous
 62
     2
100
AcDbCircle
 10
-279.4113282281896
 20
-252.7300337720189
 30
0.0
 40
0.9059297849853498
100
AcDbArc
 50
71.55192388185405
 51
113.3722778881323
  0
ARC
  5
251
102
{ACAD_REACTORS
330
2C7
330
2C8
102
}
330
8D
100
AcDbEntity
  8
0
  6
Continuous
 62
     2
100
AcDbCircle
 10
-279.5677682608916
 20
-252.7781846119858
 30
0.0
 40
0.5115800601948783
100
AcDbArc
 50
208.521473257691
 51
246.6277221118245
  0
ARC
  5
252
102
{ACAD_REACTORS
330
2C7
330
2C8
102
}
330
8D
100
AcDbEntity
  8
0
  6
Continuous
 62
     2
100
AcDbCircle
 10
-279.4113282281896
 20
-252.4161925932758
 30
0.0
 40
0.9059297849849417
100
AcDbArc
 50
246.6277221118678
 51
288.4480761181568
  0
ARC
  5
253
102
{ACAD_REACTORS
330
2C7
330
2C8
102
}
330
8D
100
AcDbEntity
  8
0
  6
Continuous
 62
     2
100
AcDbCircle
 10
-279.8294959618504
 20
-251.1626468172386
 30
0.0
 40
2.227384008972854
100
AcDbArc
 50
288.4480761181326
 51
301.9309089499593
  0
ARC
  5
254
102
{ACAD_REACTORS
330
2C3
330
2C4
102
}
330
8D
100
AcDbEntity
  8
0
  6
Continuous
 62
     2
100
AcDbCircle
 10
-285.0545696944572
 20
-250.4301447883246
 30
0.0
 40
0.911848150144459
100
AcDbArc
 50
295.3740086781764
 51
64.62599132180823
  0
ARC
  5
255
102
{ACAD_REACTORS
330
2C3
330
2C4
102
}
330
8D
100
AcDbEntity
  8
0
  6
Continuous
 62
     2
100
AcDbCircle
 10
-284.5285269963694
 20
-248.71546789985
 30
0.0
 40
0.3157169230760707
100
AcDbArc
 50
90.18896704253045
 51
180.0
  0
ARC
  5
256
102
{ACAD_REACTORS
330
2C5
330
2C6
102
}
330
8D
100
AcDbEntity
  8
0
  6
Continuous
 62
     2
100
AcDbCircle
 10
-263.318396783535
 20
-252.7859967336912
 30
0.0
 40
0.9545230068260935
100
AcDbArc
 50
90.0
 51
109.3371432194314
  0
ARC
  5
257
102
{ACAD_REACTORS
330
2C5
330
2C6
102
}
330
8D
100
AcDbEntity
  8
0
  6
Continuous
 62
     2
100
AcDbCircle
 10
-263.0877095235574
 20
-252.5731131826473
 30
0.0
 40
0.9410597353348175
100
AcDbArc
 50
151.4785267423599
 51
208.521473257672
  0
ARC
  5
258
102
{ACAD_REACTORS
330
2C5
330
2C6
102
}
330
8D
100
AcDbEntity
  8
0
  6
Continuous
 62
     2
100
AcDbCircle
 10
-263.3086267489356
 20
-252.4161925932758
 30
0.0
 40
0.9059297849852801
100
AcDbArc
 50
246.6277221118183
 51
288.448076118084
  0
ARC
  5
259
102
{ACAD_REACTORS
330
2C5
330
2C6
102
}
330
8D
100
AcDbEntity
  8
0
  6
Continuous
 62
     2
100
AcDbCircle
 10
-263.7267944825975
 20
-251.1626468172392
 30
0.0
 40
2.227384008972665
100
AcDbArc
 50
288.4480761181342
 51
301.9309089499396
  0
ARC
  5
25A
102
{ACAD_REACTORS
330
2C5
330
2C6
102
}
330
8D
100
AcDbEntity
  8
0
  6
Continuous
 62
     2
100
AcDbCircle
 10
-263.8846673576903
 20
-249.2604322373909
 30
0.0
 40
4.852596863498941
100
AcDbArc
 50
275.1581447696365
 51
285.9799912583383
  0
ARC
  5
25B
102
{ACAD_REACTORS
330
2C5
330
2C6
102
}
330
8D
100
AcDbEntity
  8
0
  6
Continuous
 62
     2
100
AcDbCircle
 10
-263.5958112629545
 20
-252.4603228206125
 30
0.0
 40
1.639695123940531
100
AcDbArc
 50
195.0618917771004
 51
275.1581447696769
  0
ARC
  5
25C
102
{ACAD_REACTORS
330
2BD
330
2BE
102
}
330
8D
100
AcDbEntity
  8
0
  6
Continuous
 62
     2
100
AcDbCircle
 10
-279.3240245746457
 20
-248.7423835859008
 30
0.0
 40
1.055365641333708
100
AcDbArc
 50
270.0
 51
90.0
  0
ARC
  5
25D
102
{ACAD_REACTORS
330
2C3
330
2C4
102
}
330
8D
100
AcDbEntity
  8
0
  6
Continuous
 62
     2
100
AcDbCircle
 10
-287.104075682901
 20
-253.071745465919
 30
0.0
 40
0.3157169230756836
100
AcDbArc
 50
180.0
 51
270.0
  0
ARC
  5
25E
102
{ACAD_REACTORS
330
2C3
330
2C4
102
}
330
8D
100
AcDbEntity
  8
0
  6
Continuous
 62
     2
100
AcDbCircle
 10
-285.6282424218914
 20
-248.7152904232019
 30
0.0
 40
0.315716923076593
100
AcDbArc
 50
0.0
 51
90.0
  0
ARC
  5
25F
102
{ACAD_REACTORS
330
2C3
330
2C4
102
}
330
8D
100
AcDbEntity
  8
0
  6
Continuous
 62
     2
100
AcDbCircle
 10
-285.6282424218914
 20
-249.3193150422624
 30
0.0
 40
0.315716923076146
100
AcDbArc
 50
295.1944106485375
 51
0.0
  0
ARC
  5
260
102
{ACAD_REACTORS
330
2C3
330
2C4
102
}
330
8D
100
AcDbEntity
  8
0
  6
Continuous
 62
     2
100
AcDbCircle
 10
-285.6282424218914
 20
-253.071745465919
 30
0.0
 40
0.315716923076792
100
AcDbArc
 50
270.0
 51
0.0
  0
ARC
  5
261
102
{ACAD_REACTORS
330
2C3
330
2C4
102
}
330
8D
100
AcDbEntity
  8
0
  6
Continuous
 62
     2
100
AcDbCircle
 10
-287.6979703596475
 20
-248.1112625599691
 30
0.0
 40
0.4242446153837989
100
AcDbArc
 50
90.0
 51
180.0
  0
ARC
  5
262
102
{ACAD_REACTORS
330
2C3
330
2C4
102
}
330
8D
100
AcDbEntity
  8
0
  6
Continuous
 62
     2
100
AcDbCircle
 10
-282.2246582689307
 20
-248.1112625599691
 30
0.0
 40
0.4242446153838841
100
AcDbArc
 50
0.0
 51
90.0
  0
ARC
  5
263
102
{ACAD_REACTORS
330
2C3
330
2C4
102
}
330
8D
100
AcDbEntity
  8
0
  6
Continuous
 62
     2
100
AcDbCircle
 10
-282.2246582689307
 20
-253.6757733291693
 30
0.0
 40
0.4242446153833157
100
AcDbArc
 50
270.0
 51
0.0
  0
ARC
  5
264
102
{ACAD_REACTORS
330
2C1
330
2C2
102
}
330
8D
100
AcDbEntity
  8
0
  6
Continuous
 62
     2
100
AcDbCircle
 10
-273.0062743818392
 20
-249.213922706473
 30
0.0
 40
0.7717997786796421
100
AcDbArc
 50
321.8795802028467
 51
38.12041979715993
  0
ARC
  5
265
102
{ACAD_REACTORS
330
2C1
330
2C2
102
}
330
8D
100
AcDbEntity
  8
0
  6
Continuous
 62
     2
100
AcDbCircle
 10
-272.8065343454931
 20
-249.3706538845934
 30
0.0
 40
0.5179085730133477
100
AcDbArc
 50
218.1204197971589
 51
321.8795802028644
  0
ARC
  5
266
102
{ACAD_REACTORS
330
2BF
330
2C0
102
}
330
8D
100
AcDbEntity
  8
0
  6
Continuous
 62
     2
100
AcDbCircle
 10
-276.4865419344532
 20
-252.5731131826473
 30
0.0
 40
1.458034083652064
100
AcDbArc
 50
297.548148175696
 51
62.45185182430191
  0
ARC
  5
267
102
{ACAD_REACTORS
330
2BF
330
2C0
102
}
330
8D
100
AcDbEntity
  8
0
  6
Continuous
 62
     2
100
AcDbCircle
 10
-277.0484217181198
 20
-252.5731131826473
 30
0.0
 40
1.45803408365149
100
AcDbArc
 50
117.5481481756624
 51
242.4518518243397
  0
ARC
  5
268
102
{ACAD_REACTORS
330
2BF
330
2C0
102
}
330
8D
100
AcDbEntity
  8
0
  6
Continuous
 62
     2
100
AcDbCircle
 10
-276.7674818262865
 20
-253.1116881929501
 30
0.0
 40
2.065479772208541
100
AcDbArc
 50
62.45185182430953
 51
117.5481481756667
  0
ARC
  5
269
102
{ACAD_REACTORS
330
2BF
330
2C0
102
}
330
8D
100
AcDbEntity
  8
0
  6
Continuous
 62
     2
100
AcDbCircle
 10
-276.7674818262865
 20
-252.034538172344
 30
0.0
 40
2.065479772208597
100
AcDbArc
 50
242.4518518243406
 51
297.5481481756832
  0
ARC
  5
26A
102
{ACAD_REACTORS
330
2C1
330
2C2
102
}
330
8D
100
AcDbEntity
  8
0
  6
Continuous
 62
     2
100
AcDbCircle
 10
-272.6067943091467
 20
-249.213922706473
 30
0.0
 40
0.7717997786796676
100
AcDbArc
 50
141.8795802028375
 51
218.1204197971559
  0
ARC
  5
26B
102
{ACAD_REACTORS
330
2C1
330
2C2
102
}
330
8D
100
AcDbEntity
  8
0
  6
Continuous
 62
     2
100
AcDbCircle
 10
-272.8065343454931
 20
-249.0571915283525
 30
0.0
 40
0.5179085730136159
100
AcDbArc
 50
38.12041979713558
 51
141.8795802028411
  0
ARC
  5
26C
102
{ACAD_REACTORS
330
2C3
330
2C4
102
}
330
8D
100
AcDbEntity
  8
0
  6
Continuous
 62
     2
100
AcDbCircle
 10
-287.6979703596475
 20
-253.6757733291693
 30
0.0
 40
0.4242446153828041
100
AcDbArc
 50
180.0
 51
270.0
  0
ARC
  5
26D
102
{ACAD_REACTORS
330
2C3
330
2C4
102
}
330
8D
100
AcDbEntity
  8
0
  6
Continuous
 62
     2
100
AcDbCircle
 10
-285.6282424218914
 20
-251.5409745343874
 30
0.0
 40
0.315716923076593
100
AcDbArc
 50
0.0
 51
64.80558935145369
  0
ARC
  5
26E
102
{ACAD_REACTORS
330
2C3
330
2C4
102
}
330
8D
100
AcDbEntity
  8
0
  6
Continuous
 62
     2
100
AcDbCircle
 10
-285.1056579743164
 20
-250.4301447883246
 30
0.0
 40
0.9118975235576268
100
AcDbArc
 50
115.1944106485298
 51
244.8055893514884
  0
ARC
  5
26F
102
{ACAD_REACTORS
330
2C3
330
2C4
102
}
330
8D
100
AcDbEntity
  8
0
  6
Continuous
 62
     2
100
AcDbCircle
 10
-287.104075682901
 20
-248.7152904232019
 30
0.0
 40
0.3157169230761951
100
AcDbArc
 50
90.0
 51
180.0
  0
ARC
  5
270
102
{ACAD_REACTORS
330
2BD
330
2BE
102
}
330
8D
100
AcDbEntity
  8
0
  6
Continuous
 62
     2
100
AcDbCircle
 10
-279.765497100884
 20
-248.7029876146783
 30
0.0
 40
0.3528638246712035
100
AcDbArc
 50
270.0
 51
90.0
  0
ARC
  5
271
102
{ACAD_REACTORS
330
2C1
330
2C2
102
}
330
8D
100
AcDbEntity
  8
0
  6
Continuous
 62
     2
100
AcDbCircle
 10
-273.0228063556583
 20
-249.213922706473
 30
0.0
 40
1.526904761905911
100
AcDbArc
 50
90.0
 51
270.0
  0
ARC
  5
272
102
{ACAD_REACTORS
330
2C5
330
2C6
102
}
330
8D
100
AcDbEntity
  8
0
  6
Continuous
 62
     2
100
AcDbCircle
 10
-263.5958112629545
 20
-252.6859035446822
 30
0.0
 40
1.639695123940186
100
AcDbArc
 50
90.0
 51
164.9381082228967
  0
ARC
  5
273
102
{ACAD_REACTORS
330
2C5
330
2C6
102
}
330
8D
100
AcDbEntity
  8
0
  6
Continuous
 62
     2
100
AcDbCircle
 10
-264.0149391064161
 20
-252.5731131826473
 30
0.0
 40
1.205656168393105
100
AcDbArc
 50
164.9381082229055
 51
195.0618917770958
  0
ARC
  5
274
102
{ACAD_REACTORS
330
2C5
330
2C6
102
}
330
8D
100
AcDbEntity
  8
0
  6
Continuous
 62
     2
100
AcDbCircle
 10
-263.4650667816387
 20
-252.7781846119858
 30
0.0
 40
0.511580060196008
100
AcDbArc
 50
208.5214732576838
 51
246.6277221118478
  0
ARC
  5
275
102
{ACAD_REACTORS
330
2C5
330
2C6
102
}
330
8D
100
AcDbEntity
  8
0
  6
Continuous
 62
     2
100
AcDbCircle
 10
-263.4650667816387
 20
-252.3680417533083
 30
0.0
 40
0.5115800601944048
100
AcDbArc
 50
109.3371432194823
 51
151.4785267424225
  0
ARC
  5
276
102
{ACAD_REACTORS
330
2C3
330
2C4
102
}
330
8D
100
AcDbEntity
  8
0
  6
Continuous
 62
     2
100
AcDbCircle
 10
-284.5285269963694
 20
-252.121137794988
 30
0.0
 40
0.3157169230767067
100
AcDbArc
 50
180.0
 51
269.8110329574696
  0
ARC
  5
277
102
{ACAD_REACTORS
330
2C3
330
2C4
102
}
330
8D
100
AcDbEntity
  8
0
  6
Continuous
 62
     2
100
AcDbCircle
 10
-284.5229108610593
 20
-250.4183028474191
 30
0.0
 40
2.018561131933237
100
AcDbArc
 50
269.8110329575858
 51
90.18896704241416
  0
ARC
  5
278
102
{ACAD_REACTORS
330
2C3
330
2C4
102
}
330
8D
100
AcDbEntity
  8
0
  6
Continuous
 62
     2
100
AcDbCircle
 10
-284.5285269963694
 20
-249.3210031883568
 30
0.0
 40
0.3157169230767067
100
AcDbArc
 50
180.0
 51
244.6259913216599
  0
ARC
  5
279
102
{ACAD_REACTORS
330
2C3
330
2C4
102
}
330
8D
100
AcDbEntity
  8
0
  6
Continuous
 62
     2
100
AcDbCircle
 10
-284.5285269963694
 20
-251.539286388293
 30
0.0
 40
0.3157169230764706
100
AcDbArc
 50
115.3740086783401
 51
180.0
  0
ARC
  5
27A
102
{ACAD_REACTORS
330
2C7
330
2C8
102
}
330
8D
100
AcDbEntity
  8
0
  6
Continuous
 62
     2
100
AcDbCircle
 10
-279.6985127422074
 20
-252.6859035446822
 30
0.0
 40
1.639695123940507
100
AcDbArc
 50
84.84185523036236
 51
164.9381082228874
  0
ARC
  5
27B
102
{ACAD_REACTORS
330
2C7
330
2C8
102
}
330
8D
100
AcDbEntity
  8
0
  6
Continuous
 62
     2
100
AcDbCircle
 10
-280.1176405856702
 20
-252.5731131826473
 30
0.0
 40
1.205656168390964
100
AcDbArc
 50
164.9381082228781
 51
195.0618917770945
  0
ARC
  5
27C
102
{ACAD_REACTORS
330
2C7
330
2C8
102
}
330
8D
100
AcDbEntity
  8
0
  6
Continuous
 62
     2
100
AcDbCircle
 10
-279.6985127422074
 20
-252.4603228206125
 30
0.0
 40
1.63969512393938
100
AcDbArc
 50
195.0618917770886
 51
275.1581447696395
  0
ARC
  5
27D
102
{ACAD_REACTORS
330
2C7
330
2C8
102
}
330
8D
100
AcDbEntity
  8
0
  6
Continuous
 62
     2
100
AcDbCircle
 10
-279.9873688369434
 20
-249.2604322373909
 30
0.0
 40
4.852596863498174
100
AcDbArc
 50
275.1581447696259
 51
285.9799912583535
  0
ARC
  5
27E
102
{ACAD_REACTORS
330
2C7
330
2C8
102
}
330
8D
100
AcDbEntity
  8
0
  6
Continuous
 62
     2
100
AcDbCircle
 10
-279.1904110028114
 20
-252.5731131826473
 30
0.0
 40
0.9410597353332545
100
AcDbArc
 50
151.4785267422669
 51
208.5214732577073
  0
ARC
  5
27F
102
{ACAD_REACTORS
330
2C7
330
2C8
102
}
330
8D
100
AcDbEntity
  8
0
  6
Continuous
 62
     2
100
AcDbCircle
 10
-279.5677682608916
 20
-252.3680417533083
 30
0.0
 40
0.511580060194863
100
AcDbArc
 50
113.3722778882033
 51
151.478526742309
  0
ARC
  5
280
102
{ACAD_REACTORS
330
2C7
330
2C8
102
}
330
8D
100
AcDbEntity
  8
0
  6
Continuous
 62
     2
100
AcDbCircle
 10
-279.8294959618504
 20
-253.9835795480555
 30
0.0
 40
2.227384008973478
100
AcDbArc
 50
58.06909105004071
 51
71.55192388186676
  0
ARC
  5
281
102
{ACAD_REACTORS
330
2BF
330
2C0
102
}
330
8D
100
AcDbEntity
  8
0
  6
Continuous
 62
     2
100
AcDbCircle
 10
-276.7674818262865
 20
-252.4163820045268
 30
0.0
 40
0.5179085730132249
100
AcDbArc
 50
38.12041979714156
 51
141.8795802028662
  0
ARC
  5
282
102
{ACAD_REACTORS
330
2BF
330
2C0
102
}
330
8D
100
AcDbEntity
  8
0
  6
Continuous
 62
     2
100
AcDbCircle
 10
-276.5677417899404
 20
-252.5731131826473
 30
0.0
 40
0.7717997786793931
100
AcDbArc
 50
141.879580202843
 51
218.1204197971703
  0
ARC
  5
283
102
{ACAD_REACTORS
330
2BF
330
2C0
102
}
330
8D
100
AcDbEntity
  8
0
  6
Continuous
 62
     2
100
AcDbCircle
 10
-276.7674818262865
 20
-252.7298443607673
 30
0.0
 40
0.5179085730137529
100
AcDbArc
 50
218.1204197971956
 51
321.8795802027966
  0
ARC
  5
284
102
{ACAD_REACTORS
330
2BF
330
2C0
102
}
330
8D
100
AcDbEntity
  8
0
  6
Continuous
 62
     2
100
AcDbCircle
 10
-276.9672218626329
 20
-252.5731131826473
 30
0.0
 40
0.7717997786797123
100
AcDbArc
 50
321.8795802028401
 51
38.12041979714665
  0
CIRCLE
  5
285
330
8D
100
AcDbEntity
  8
1
  6
Continuous
 62
     2
100
AcDbCircle
 10
-279.6222149750303
 20
-240.268517944569
 30
0.0
 40
2.5
  0
CIRCLE
  5
286
330
8D
100
AcDbEntity
  8
1
  6
Continuous
 62
     2
100
AcDbCircle
 10
-279.6222149750303
 20
-240.268517944569
 30
0.0
 40
1.249999999999943
  0
CIRCLE
  5
287
102
{ACAD_REACTORS
330
2C3
330
2C4
102
}
330
8D
100
AcDbEntity
  8
0
  6
Continuous
 62
     2
100
AcDbCircle
 10
-285.07838470913
 20
-250.4301447883246
 30
0.0
 40
0.4709789327784506
  0
MTEXT
  5
288
330
8D
100
AcDbEntity
  8
1
 62
     3
100
AcDbMText
 10
-449.8089975487711
 20
-74.60220978927012
 30
0.0
 40
1.8
 41
0.0
 71
     7
 72
     1
  3
Weitergabe sowie Vervielf\U+00e4ltigung dieses Dokuments, Verwertung und \PMitteilung seines Inhalts sind verboten, soweit nicht ausdr\U+00fccklich gestattet. \PZuwiderhandlungen verpflichten zu Schadenersatz. Alle Rechte f\U+00fcr den Fall\Pder Pat
  1
ent-, Gebrauchsmuster- oder Designeintragung vorbehalten.
  7
CONVERTER_11
 73
     1
 44
0.99639855942377
  0
MTEXT
  5
289
330
8D
100
AcDbEntity
  8
1
 62
     3
100
AcDbMText
 10
-266.955887709983
 20
-74.60220978927012
 30
0.0
 40
1.8
 41
0.0
 71
     7
 72
     1
  3
Transfer or duplication of this document as well as the utilisation or\Pcommunication of its content are not permitted unless express consent\Pis granted. Violations give rise to claims for damages. All rights reserved\Pin case of patent, utility mo
  1
del or design patent registrations.
  7
CONVERTER_11
 73
     1
 44
0.99639855942377
  0
TEXT
  5
28A
330
8D
100
AcDbEntity
  8
1
 62
     2
100
AcDbText
 10
-273.1588698615931
 20
-260.1525351595604
 30
0.0
 40
1.8
  1
of
 41
0.9
  7
CONVERTER_11
100
AcDbText
  0
TEXT
  5
28B
330
8D
100
AcDbEntity
  8
1
 62
     2
100
AcDbText
 10
-291.358869861593
 20
-260.1525351595606
 30
0.0
 40
1.8
  1
page
 41
0.9
  7
CONVERTER_11
100
AcDbText
  0
TEXT
  5
28C
330
8D
100
AcDbEntity
  8
1
 62
     2
100
AcDbText
 10
-282.7126048912509
 20
-260.192766598371
 30
0.0
 40
1.8
  1
1
 41
0.9
  7
CONVERTER_11
100
AcDbText
  0
TEXT
  5
28D
330
8D
100
AcDbEntity
  8
1
 62
     2
100
AcDbText
 10
-267.9235610517794
 20
-260.1435179445691
 30
0.0
 40
1.8
  1
1
 41
0.9
  7
CONVERTER_11
100
AcDbText
  0
MTEXT
  5
28F
330
8D
100
AcDbEntity
  8
1
 62
     7
100
AcDbMText
 10
-209.3864675982174
 20
-258.1435179445687
 30
0.0
 40
3.0
 41
0.0
 71
     5
 72
     1
  1
KLM + ESL 26X6
  7
CONVERTER_12
 73
     1
 44
1.20048019207683
  0
MTEXT
  5
290
330
8D
100
AcDbEntity
  8
1
 62
     2
100
AcDbMText
 10
-254.958869861593
 20
-253.893517944569
 30
0.0
 40
1.8
 41
0.0
 71
     1
 72
     1
  1
description
  7
CONVERTER_11
 73
     1
 44
1.20048019207683
  0
MTEXT
  5
291
330
8D
100
AcDbEntity
  8
1
 62
     3
100
AcDbMText
 10
-266.158869861593
 20
-240.2685179445689
 30
0.0
 40
2.5
 41
0.0
 71
     5
 72
     1
  1
DIN A4
  7
CONVERTER_11
 73
     1
 44
1.20048019207683
  0
MTEXT
  5
292
330
8D
100
AcDbEntity
  8
1
 62
     7
100
AcDbMText
 10
-452.314065334842
 20
-238.8935179445689
 30
0.0
 40
3.5
 41
0.0
 71
     5
 72
     1
  1
D
  7
CONVERTER_11
 73
     1
 44
1.20048019207683
  0
MTEXT
  5
293
330
8D
100
AcDbEntity
  8
1
 62
     7
100
AcDbMText
 10
-452.314065334842
 20
-186.3935179445689
 30
0.0
 40
3.5
 41
0.0
 71
     5
 72
     1
  1
C
  7
CONVERTER_11
 73
     1
 44
1.20048019207683
  0
MTEXT
  5
294
330
8D
100
AcDbEntity
  8
1
 62
     7
100
AcDbMText
 10
-452.314065334842
 20
-136.3935179445689
 30
0.0
 40
3.5
 41
0.0
 71
     5
 72
     1
  1
B
  7
CONVERTER_11
 73
     1
 44
1.20048019207683
  0
MTEXT
  5
295
330
8D
100
AcDbEntity
  8
1
 62
     7
100
AcDbMText
 10
-452.314065334842
 20
-83.89351794456891
 30
0.0
 40
3.5
 41
0.0
 71
     5
 72
     1
  1
A
  7
CONVERTER_11
 73
     1
 44
1.20048019207683
  0
MTEXT
  5
296
330
8D
100
AcDbEntity
  8
1
 62
     7
100
AcDbMText
 10
-182.0640653348437
 20
-263.8935179445691
 30
0.0
 40
3.5
 41
0.0
 71
     5
 72
     1
  1
6
  7
CONVERTER_11
 73
     1
 44
1.20048019207683
  0
MTEXT
  5
297
330
8D
100
AcDbEntity
  8
1
 62
     7
100
AcDbMText
 10
-231.3140653348429
 20
-263.8935179445691
 30
0.0
 40
3.5
 41
0.0
 71
     5
 72
     1
  1
5
  7
CONVERTER_11
 73
     1
 44
1.20048019207683
  0
MTEXT
  5
298
330
8D
100
AcDbEntity
  8
1
 62
     7
100
AcDbMText
 10
-281.314065334843
 20
-263.8935179445691
 30
0.0
 40
3.5
 41
0.0
 71
     5
 72
     1
  1
4
  7
CONVERTER_11
 73
     1
 44
1.20048019207683
  0
MTEXT
  5
299
330
8D
100
AcDbEntity
  8
1
 62
     7
100
AcDbMText
 10
-331.314065334843
 20
-263.8935179445691
 30
0.0
 40
3.5
 41
0.0
 71
     5
 72
     1
  1
3
  7
CONVERTER_11
 73
     1
 44
1.20048019207683
  0
MTEXT
  5
29A
330
8D
100
AcDbEntity
  8
1
 62
     7
100
AcDbMText
 10
-381.314065334843
 20
-263.8935179445691
 30
0.0
 40
3.5
 41
0.0
 71
     5
 72
     1
  1
2
  7
CONVERTER_11
 73
     1
 44
1.20048019207683
  0
MTEXT
  5
29B
330
8D
100
AcDbEntity
  8
1
 62
     7
100
AcDbMText
 10
-430.5640653348426
 20
-263.8935179445691
 30
0.0
 40
3.5
 41
0.0
 71
     5
 72
     1
  1
1
  7
CONVERTER_11
 73
     1
 44
1.20048019207683
  0
MTEXT
  5
29C
330
8D
100
AcDbEntity
  8
1
 62
     7
100
AcDbMText
 10
-160.3140653348439
 20
-238.8935179445689
 30
0.0
 40
3.5
 41
0.0
 71
     5
 72
     1
  1
D
  7
CONVERTER_11
 73
     1
 44
1.20048019207683
  0
MTEXT
  5
29D
330
8D
100
AcDbEntity
  8
1
 62
     7
100
AcDbMText
 10
-160.3140653348439
 20
-136.393517944567
 30
0.0
 40
3.5
 41
0.0
 71
     5
 72
     1
  1
B
  7
CONVERTER_11
 73
     1
 44
1.20048019207683
  0
MTEXT
  5
29E
330
8D
100
AcDbEntity
  8
1
 62
     7
100
AcDbMText
 10
-160.3140653348439
 20
-83.89351794456891
 30
0.0
 40
3.5
 41
0.0
 71
     5
 72
     1
  1
A
  7
CONVERTER_11
 73
     1
 44
1.20048019207683
  0
MTEXT
  5
29F
330
8D
100
AcDbEntity
  8
1
 62
     7
100
AcDbMText
 10
-160.3140653348439
 20
-186.393517944567
 30
0.0
 40
3.5
 41
0.0
 71
     5
 72
     1
  1
C
  7
CONVERTER_11
 73
     1
 44
1.20048019207683
  0
MTEXT
  5
2A0
330
8D
100
AcDbEntity
  8
1
 62
     2
100
AcDbMText
 10
-326.7968845866404
 20
-248.643517944569
 30
0.0
 40
2.0
 41
0.0
 71
     5
 72
     1
  1
General Information\P- Simplified representation\P- Document excluded from change process\P- Linear dimensions [mm]
  7
CONVERTER_11
 73
     1
 44
1.20048019207683
  0
TEXT
  5
2A1
330
8D
100
AcDbEntity
  8
1
 62
     7
100
AcDbText
 10
-254.4588698615932
 20
-251.593517944569
 30
0.0
 40
2.5
  1
0809395
 41
0.81
  7
CONVERTER_12
100
AcDbText
  0
MTEXT
  5
2A2
330
8D
100
AcDbEntity
  8
1
 62
     2
100
AcDbMText
 10
-254.8588698615929
 20
-245.3935179445689
 30
0.0
 40
1.8
 41
0.0
 71
     1
 72
     1
  1
ident.-No.
  7
CONVERTER_11
 73
     1
 44
1.20048019207683
  0
MTEXT
  5
2A3
330
8D
100
AcDbEntity
  8
1
 62
     2
100
AcDbMText
 10
-170.6324736165202
 20
-236.8935179445689
 30
0.0
 40
1.8
 41
0.0
 71
     1
 72
     1
  1
scale
  7
CONVERTER_11
 73
     1
 44
1.20048019207683
  0
MTEXT
  5
2A5
330
8D
100
AcDbEntity
  8
1
 62
     3
100
AcDbMText
 10
-167.2732694756806
 20
-243.0935179445688
 30
0.0
 40
2.5
 41
0.0
 71
     8
 72
     1
  1
2:1
  7
CONVERTER_13
 73
     1
 44
1.32052821128451
  0
TEXT
  5
2A6
330
8D
100
AcDbEntity
  8
1
 62
     7
100
AcDbText
 10
-254.8588698615929
 20
-243.093517944569
 30
0.0
 40
2.5
  1
01097936
 41
0.81
  7
CONVERTER_12
100
AcDbText
  0
MTEXT
  5
2A8
330
8D
100
AcDbEntity
  8
1
 62
     2
100
AcDbMText
 10
-254.8588698615929
 20
-236.8935179445689
 30
0.0
 40
1.8
 41
0.0
 71
     1
 72
     1
  1
document-No. / RI
  7
CONVERTER_14
 73
     1
 44
1.32052821128451
  0
TEXT
  5
2A9
330
8D
100
AcDbEntity
  8
1
 62
     3
100
AcDbText
 10
-227.0588698615929
 20
-251.593517944569
 30
0.0
 40
2.5
  1
TECDOC 2D_Productdrawing
 41
0.81
  7
CONVERTER_12
100
AcDbText
  0
MTEXT
  5
2AA
330
8D
100
AcDbEntity
  8
1
 62
     2
100
AcDbMText
 10
-227.0588698615929
 20
-245.393517944569
 30
0.0
 40
1.8
 41
0.0
 71
     1
 72
     1
  1
document-type
  7
CONVERTER_11
 73
     1
 44
1.20048019207683
  0
MTEXT
  5
2AB
330
8D
100
AcDbEntity
  8
1
 62
     2
100
AcDbMText
 10
-197.23247361652
 20
-236.893517944569
 30
0.0
 40
1.8
 41
0.0
 71
     1
 72
     1
  1
date
  7
CONVERTER_11
 73
     1
 44
1.32052821128451
  0
TEXT
  5
2AC
330
8D
100
AcDbEntity
  8
1
 62
     3
100
AcDbText
 10
-197.23247361652
 20
-243.093517944569
 30
0.0
 40
2.5
  1
17.10.2018
 41
0.81
  7
CONVERTER_12
100
AcDbText
  0
TEXT
  5
2AD
330
8D
100
AcDbEntity
  8
1
 62
     7
100
AcDbText
 10
-234.8289576425371
 20
-243.093517944569
 30
0.0
 40
2.5
  1
00
 41
0.81
  7
CONVERTER_12
100
AcDbText
  0
TEXT
  5
2AE
330
8D
100
AcDbEntity
  8
1
 62
     7
100
AcDbText
 10
-236.9853221395791
 20
-243.093517944569
 30
0.0
 40
2.5
  1
/
 41
0.9
  7
CONVERTER_11
100
AcDbText
  0
HATCH
  5
2AF
330
8D
100
AcDbEntity
  8
1
  6
Continuous
 62
     2
100
AcDbHatch
 10
0.0
 20
0.0
 30
0.0
210
0.0
220
0.0
230
1.0
  2
_USER
 70
     0
 71
     1
 91
        1
 92
        1
 93
       12
 72
     1
 10
-274.6913691486319
 20
-250.7408274683783
 11
-275.8841618507983
 21
-250.7408274683783
 72
     1
 10
-275.8841618507983
 20
-250.7408274683783
 11
-275.8841618507983
 21
-249.6065553595345
 72
     1
 10
-275.8841618507983
 20
-249.6065553595345
 11
-276.9338194287057
 21
-249.6065553595345
 72
     1
 10
-276.9338194287057
 20
-249.6065553595345
 11
-276.9338194287057
 21
-250.7408274683783
 72
     1
 10
-276.9338194287057
 20
-250.7408274683783
 11
-278.1266121308723
 21
-250.7408274683783
 72
     1
 10
-278.1266121308723
 20
-250.7408274683783
 11
-278.1266121308723
 21
-247.6870179445671
 72
     1
 10
-278.1266121308723
 20
-247.6870179445671
 11
-276.9338194287057
 21
-247.6870179445671
 72
     1
 10
-276.9338194287057
 20
-247.6870179445671
 11
-276.9338194287057
 21
-248.7558512779017
 72
     1
 10
-276.9338194287057
 20
-248.7558512779017
 11
-275.8841618507983
 21
-248.7558512779017
 72
     1
 10
-275.8841618507983
 20
-248.7558512779017
 11
-275.8841618507983
 21
-247.6870179445671
 72
     1
 10
-275.8841618507983
 20
-247.6870179445671
 11
-274.6913691486319
 21
-247.6870179445671
 72
     1
 10
-274.6913691486319
 20
-247.6870179445671
 11
-274.6913691486319
 21
-250.7408274683783
 97
       12
330
21C
330
21D
330
207
330
206
330
205
330
219
330
204
330
21A
330
21B
330
203
330
202
330
201
 75
     1
 76
     0
 52
45.0
 41
0.1
 77
     0
 78
     1
 53
45.0
 43
0.0
 44
0.0
 45
-0.0707106781186548
 46
0.0707106781186548
 79
     0
 98
        1
 10
0.0
 20
0.0
  0
HATCH
  5
2B0
330
8D
100
AcDbEntity
  8
1
  6
Continuous
 62
     2
100
AcDbHatch
 10
0.0
 20
0.0
 30
0.0
210
0.0
220
0.0
230
1.0
  2
_USER
 70
     0
 71
     1
 91
        1
 92
        1
 93
       12
 72
     1
 10
-274.6913691486319
 20
-250.7408274683783
 11
-275.8841618507983
 21
-250.7408274683783
 72
     1
 10
-275.8841618507983
 20
-250.7408274683783
 11
-275.8841618507983
 21
-249.6065553595345
 72
     1
 10
-275.8841618507983
 20
-249.6065553595345
 11
-276.9338194287057
 21
-249.6065553595345
 72
     1
 10
-276.9338194287057
 20
-249.6065553595345
 11
-276.9338194287057
 21
-250.7408274683783
 72
     1
 10
-276.9338194287057
 20
-250.7408274683783
 11
-278.1266121308723
 21
-250.7408274683783
 72
     1
 10
-278.1266121308723
 20
-250.7408274683783
 11
-278.1266121308723
 21
-247.6870179445671
 72
     1
 10
-278.1266121308723
 20
-247.6870179445671
 11
-276.9338194287057
 21
-247.6870179445671
 72
     1
 10
-276.9338194287057
 20
-247.6870179445671
 11
-276.9338194287057
 21
-248.7558512779017
 72
     1
 10
-276.9338194287057
 20
-248.7558512779017
 11
-275.8841618507983
 21
-248.7558512779017
 72
     1
 10
-275.8841618507983
 20
-248.7558512779017
 11
-275.8841618507983
 21
-247.6870179445671
 72
     1
 10
-275.8841618507983
 20
-247.6870179445671
 11
-274.6913691486319
 21
-247.6870179445671
 72
     1
 10
-274.6913691486319
 20
-247.6870179445671
 11
-274.6913691486319
 21
-250.7408274683783
 97
       12
330
21C
330
21D
330
207
330
206
330
205
330
219
330
204
330
21A
330
21B
330
203
330
202
330
201
 75
     1
 76
     0
 52
45.0
 41
0.1
 77
     0
 78
     1
 53
45.0
 43
0.0
 44
0.0
 45
-0.0707106781186548
 46
0.0707106781186548
 79
     0
 98
        1
 10
0.0
 20
0.0
  0
HATCH
  5
2B1
330
8D
100
AcDbEntity
  8
1
  6
Continuous
 62
     2
100
AcDbHatch
 10
0.0
 20
0.0
 30
0.0
210
0.0
220
0.0
230
1.0
  2
_USER
 70
     0
 71
     1
 91
        1
 92
        1
 93
       10
 72
     1
 10
-272.4490697994435
 20
-252.3549839309466
 11
-273.6895742096965
 21
-251.0462084207416
 72
     1
 10
-273.6895742096965
 20
-251.0462084207416
 11
-274.882366911864
 21
-251.0462084207416
 72
     1
 10
-274.882366911864
 20
-251.0462084207416
 11
-274.882366911864
 21
-254.1000179445526
 72
     1
 10
-274.882366911864
 20
-254.1000179445526
 11
-273.6895742096965
 21
-254.1000179445526
 72
     1
 10
-273.6895742096965
 20
-254.1000179445526
 11
-273.6895742096965
 21
-252.791242434348
 72
     1
 10
-273.6895742096965
 20
-252.791242434348
 11
-272.4490697994435
 21
-254.1000179445526
 72
     1
 10
-272.4490697994435
 20
-254.1000179445526
 11
-271.2562770972771
 21
-254.1000179445526
 72
     1
 10
-271.2562770972771
 20
-254.1000179445526
 11
-271.2562770972771
 21
-251.0462084207416
 72
     1
 10
-271.2562770972771
 20
-251.0462084207416
 11
-272.4490697994435
 21
-251.0462084207416
 72
     1
 10
-272.4490697994435
 20
-251.0462084207416
 11
-272.4490697994435
 21
-252.3549839309466
 97
       10
330
22A
330
1FA
330
1F9
330
1FC
330
225
330
226
330
1FB
330
227
330
228
330
229
 75
     1
 76
     0
 52
45.0
 41
0.1
 77
     0
 78
     1
 53
45.0
 43
0.0
 44
0.0
 45
-0.0707106781186548
 46
0.0707106781186548
 79
     0
 98
        1
 10
0.0
 20
0.0
  0
HATCH
  5
2B2
330
8D
100
AcDbEntity
  8
1
  6
Continuous
 62
     2
100
AcDbHatch
 10
0.0
 20
0.0
 30
0.0
210
0.0
220
0.0
230
1.0
  2
_USER
 70
     0
 71
     1
 91
        1
 92
        1
 93
       10
 72
     1
 10
-272.4490697994435
 20
-252.3549839309466
 11
-273.6895742096965
 21
-251.0462084207416
 72
     1
 10
-273.6895742096965
 20
-251.0462084207416
 11
-274.882366911864
 21
-251.0462084207416
 72
     1
 10
-274.882366911864
 20
-251.0462084207416
 11
-274.882366911864
 21
-254.1000179445526
 72
     1
 10
-274.882366911864
 20
-254.1000179445526
 11
-273.6895742096965
 21
-254.1000179445526
 72
     1
 10
-273.6895742096965
 20
-254.1000179445526
 11
-273.6895742096965
 21
-252.791242434348
 72
     1
 10
-273.6895742096965
 20
-252.791242434348
 11
-272.4490697994435
 21
-254.1000179445526
 72
     1
 10
-272.4490697994435
 20
-254.1000179445526
 11
-271.2562770972771
 21
-254.1000179445526
 72
     1
 10
-271.2562770972771
 20
-254.1000179445526
 11
-271.2562770972771
 21
-251.0462084207416
 72
     1
 10
-271.2562770972771
 20
-251.0462084207416
 11
-272.4490697994435
 21
-251.0462084207416
 72
     1
 10
-272.4490697994435
 20
-251.0462084207416
 11
-272.4490697994435
 21
-252.3549839309466
 97
       10
330
22A
330
1FA
330
1F9
330
1FC
330
225
330
226
330
1FB
330
227
330
228
330
229
 75
     1
 76
     0
 52
45.0
 41
0.1
 77
     0
 78
     1
 53
45.0
 43
0.0
 44
0.0
 45
-0.0707106781186548
 46
0.0707106781186548
 79
     0
 98
        1
 10
0.0
 20
0.0
  0
HATCH
  5
2B3
330
8D
100
AcDbEntity
  8
1
  6
Continuous
 62
     2
100
AcDbHatch
 10
0.0
 20
0.0
 30
0.0
210
0.0
220
0.0
230
1.0
  2
_USER
 70
     0
 71
     1
 91
        1
 92
        1
 93
       10
 72
     1
 10
-267.2006309790238
 20
-248.9957934547723
 11
-268.4411353892778
 21
-247.6870179445671
 72
     1
 10
-268.4411353892778
 20
-247.6870179445671
 11
-269.6339280914443
 21
-247.6870179445671
 72
     1
 10
-269.6339280914443
 20
-247.6870179445671
 11
-269.6339280914443
 21
-250.7408274683783
 72
     1
 10
-269.6339280914443
 20
-250.7408274683783
 11
-268.4411353892778
 21
-250.7408274683783
 72
     1
 10
-268.4411353892778
 20
-250.7408274683783
 11
-268.4411353892778
 21
-249.4320519581736
 72
     1
 10
-268.4411353892778
 20
-249.4320519581736
 11
-267.2006309790238
 21
-250.7408274683783
 72
     1
 10
-267.2006309790238
 20
-250.7408274683783
 11
-266.0078382768572
 21
-250.7408274683783
 72
     1
 10
-266.0078382768572
 20
-250.7408274683783
 11
-266.0078382768572
 21
-247.6870179445671
 72
     1
 10
-266.0078382768572
 20
-247.6870179445671
 11
-267.2006309790238
 21
-247.6870179445671
 72
     1
 10
-267.2006309790238
 20
-247.6870179445671
 11
-267.2006309790238
 21
-248.9957934547723
 97
       10
330
22F
330
1F7
330
1F6
330
230
330
1F5
330
22B
330
22C
330
22D
330
22E
330
1F8
 75
     1
 76
     0
 52
45.0
 41
0.1
 77
     0
 78
     1
 53
45.0
 43
0.0
 44
0.0
 45
-0.0707106781186548
 46
0.0707106781186548
 79
     0
 98
        1
 10
0.0
 20
0.0
  0
HATCH
  5
2B4
330
8D
100
AcDbEntity
  8
1
  6
Continuous
 62
     2
100
AcDbHatch
 10
0.0
 20
0.0
 30
0.0
210
0.0
220
0.0
230
1.0
  2
_USER
 70
     0
 71
     1
 91
        1
 92
        1
 93
       10
 72
     1
 10
-267.2006309790238
 20
-248.9957934547723
 11
-268.4411353892778
 21
-247.6870179445671
 72
     1
 10
-268.4411353892778
 20
-247.6870179445671
 11
-269.6339280914443
 21
-247.6870179445671
 72
     1
 10
-269.6339280914443
 20
-247.6870179445671
 11
-269.6339280914443
 21
-250.7408274683783
 72
     1
 10
-269.6339280914443
 20
-250.7408274683783
 11
-268.4411353892778
 21
-250.7408274683783
 72
     1
 10
-268.4411353892778
 20
-250.7408274683783
 11
-268.4411353892778
 21
-249.4320519581736
 72
     1
 10
-268.4411353892778
 20
-249.4320519581736
 11
-267.2006309790238
 21
-250.7408274683783
 72
     1
 10
-267.2006309790238
 20
-250.7408274683783
 11
-266.0078382768572
 21
-250.7408274683783
 72
     1
 10
-266.0078382768572
 20
-250.7408274683783
 11
-266.0078382768572
 21
-247.6870179445671
 72
     1
 10
-266.0078382768572
 20
-247.6870179445671
 11
-267.2006309790238
 21
-247.6870179445671
 72
     1
 10
-267.2006309790238
 20
-247.6870179445671
 11
-267.2006309790238
 21
-248.9957934547723
 97
       10
330
22F
330
1F7
330
1F6
330
230
330
1F5
330
22B
330
22C
330
22D
330
22E
330
1F8
 75
     1
 76
     0
 52
45.0
 41
0.1
 77
     0
 78
     1
 53
45.0
 43
0.0
 44
0.0
 45
-0.0707106781186548
 46
0.0707106781186548
 79
     0
 98
        1
 10
0.0
 20
0.0
  0
HATCH
  5
2B5
330
8D
100
AcDbEntity
  8
1
  6
Continuous
 62
     2
100
AcDbHatch
 10
0.0
 20
0.0
 30
0.0
210
0.0
220
0.0
230
1.0
  2
_USER
 70
     0
 71
     1
 91
        1
 92
        1
 93
        8
 72
     1
 10
-268.2981511959033
 20
-251.0462084207416
 11
-271.1131419730169
 21
-251.0462084207416
 72
     1
 10
-271.1131419730169
 20
-251.0462084207416
 11
-271.1131419730169
 21
-251.8314737268651
 72
     1
 10
-271.1131419730169
 20
-251.8314737268651
 11
-270.3020429355423
 21
-251.8314737268651
 72
     1
 10
-270.3020429355423
 20
-251.8314737268651
 11
-270.3020429355423
 21
-254.1000179445526
 72
     1
 10
-270.3020429355423
 20
-254.1000179445526
 11
-269.1092502333758
 21
-254.1000179445526
 72
     1
 10
-269.1092502333758
 20
-254.1000179445526
 11
-269.1092502333758
 21
-251.8314737268651
 72
     1
 10
-269.1092502333758
 20
-251.8314737268651
 11
-268.2981511959033
 21
-251.8314737268651
 72
     1
 10
-268.2981511959033
 20
-251.8314737268651
 11
-268.2981511959033
 21
-251.0462084207416
 97
        8
330
1F1
330
231
330
1F0
330
232
330
233
330
1F4
330
1F3
330
1F2
 75
     1
 76
     0
 52
45.0
 41
0.1
 77
     0
 78
     1
 53
45.0
 43
0.0
 44
0.0
 45
-0.0707106781186548
 46
0.0707106781186548
 79
     0
 98
        1
 10
0.0
 20
0.0
  0
HATCH
  5
2B6
330
8D
100
AcDbEntity
  8
1
  6
Continuous
 62
     2
100
AcDbHatch
 10
0.0
 20
0.0
 30
0.0
210
0.0
220
0.0
230
1.0
  2
_USER
 70
     0
 71
     1
 91
        1
 92
        1
 93
        8
 72
     1
 10
-268.2981511959033
 20
-251.0462084207416
 11
-271.1131419730169
 21
-251.0462084207416
 72
     1
 10
-271.1131419730169
 20
-251.0462084207416
 11
-271.1131419730169
 21
-251.8314737268651
 72
     1
 10
-271.1131419730169
 20
-251.8314737268651
 11
-270.3020429355423
 21
-251.8314737268651
 72
     1
 10
-270.3020429355423
 20
-251.8314737268651
 11
-270.3020429355423
 21
-254.1000179445526
 72
     1
 10
-270.3020429355423
 20
-254.1000179445526
 11
-269.1092502333758
 21
-254.1000179445526
 72
     1
 10
-269.1092502333758
 20
-254.1000179445526
 11
-269.1092502333758
 21
-251.8314737268651
 72
     1
 10
-269.1092502333758
 20
-251.8314737268651
 11
-268.2981511959033
 21
-251.8314737268651
 72
     1
 10
-268.2981511959033
 20
-251.8314737268651
 11
-268.2981511959033
 21
-251.0462084207416
 97
        8
330
1F1
330
231
330
1F0
330
232
330
233
330
1F4
330
1F3
330
1F2
 75
     1
 76
     0
 52
45.0
 41
0.1
 77
     0
 78
     1
 53
45.0
 43
0.0
 44
0.0
 45
-0.0707106781186548
 46
0.0707106781186548
 79
     0
 98
        1
 10
0.0
 20
0.0
  0
HATCH
  5
2B7
330
8D
100
AcDbEntity
  8
1
  6
Continuous
 62
     2
100
AcDbHatch
 10
0.0
 20
0.0
 30
0.0
210
0.0
220
0.0
230
1.0
  2
_USER
 70
     0
 71
     1
 91
        2
 92
        1
 93
        8
 72
     1
 10
-266.1597237399564
 20
-254.1000179445526
 11
-266.3712037934321
 21
-253.5590574003347
 72
     1
 10
-266.3712037934321
 20
-253.5590574003347
 11
-267.5036453701059
 21
-253.5590574003347
 72
     1
 10
-267.5036453701059
 20
-253.5590574003347
 11
-267.7151254235817
 21
-254.1000179445526
 72
     1
 10
-267.7151254235817
 20
-254.1000179445526
 11
-268.9556298338347
 21
-254.1000179445526
 72
     1
 10
-268.9556298338347
 20
-254.1000179445526
 11
-267.5576767868954
 21
-251.0462084207416
 72
     1
 10
-267.5576767868954
 20
-251.0462084207416
 11
-266.3171723766427
 21
-251.0462084207416
 72
     1
 10
-266.3171723766427
 20
-251.0462084207416
 11
-264.9192193297024
 21
-254.1000179445526
 72
     1
 10
-264.9192193297024
 20
-254.1000179445526
 11
-266.1597237399564
 21
-254.1000179445526
 97
        8
330
235
330
236
330
1ED
330
237
330
1EC
330
1EF
330
234
330
1EE
 92
       16
 93
        3
 72
     1
 10
-267.2375898189609
 20
-252.8784941350281
 11
-266.9374245817685
 21
-252.1106791690414
 72
     1
 10
-266.9374245817685
 20
-252.1106791690414
 11
-266.6372593445784
 21
-252.8784941350281
 72
     1
 10
-266.6372593445784
 20
-252.8784941350281
 11
-267.2375898189609
 21
-252.8784941350281
 97
        3
330
1EB
330
239
330
238
 75
     1
 76
     0
 52
45.0
 41
0.1
 77
     0
 78
     1
 53
45.0
 43
0.0
 44
0.0
 45
-0.0707106781186548
 46
0.0707106781186548
 79
     0
 98
        1
 10
0.0
 20
0.0
  0
HATCH
  5
2B8
330
8D
100
AcDbEntity
  8
1
  6
Continuous
 62
     2
100
AcDbHatch
 10
0.0
 20
0.0
 30
0.0
210
0.0
220
0.0
230
1.0
  2
_USER
 70
     0
 71
     1
 91
        2
 92
        1
 93
        8
 72
     1
 10
-266.1597237399564
 20
-254.1000179445526
 11
-266.3712037934321
 21
-253.5590574003347
 72
     1
 10
-266.3712037934321
 20
-253.5590574003347
 11
-267.5036453701059
 21
-253.5590574003347
 72
     1
 10
-267.5036453701059
 20
-253.5590574003347
 11
-267.7151254235817
 21
-254.1000179445526
 72
     1
 10
-267.7151254235817
 20
-254.1000179445526
 11
-268.9556298338347
 21
-254.1000179445526
 72
     1
 10
-268.9556298338347
 20
-254.1000179445526
 11
-267.5576767868954
 21
-251.0462084207416
 72
     1
 10
-267.5576767868954
 20
-251.0462084207416
 11
-266.3171723766427
 21
-251.0462084207416
 72
     1
 10
-266.3171723766427
 20
-251.0462084207416
 11
-264.9192193297024
 21
-254.1000179445526
 72
     1
 10
-264.9192193297024
 20
-254.1000179445526
 11
-266.1597237399564
 21
-254.1000179445526
 97
        8
330
235
330
236
330
1ED
330
237
330
1EC
330
1EF
330
234
330
1EE
 92
       16
 93
        3
 72
     1
 10
-267.2375898189609
 20
-252.8784941350281
 11
-266.9374245817685
 21
-252.1106791690414
 72
     1
 10
-266.9374245817685
 20
-252.1106791690414
 11
-266.6372593445784
 21
-252.8784941350281
 72
     1
 10
-266.6372593445784
 20
-252.8784941350281
 11
-267.2375898189609
 21
-252.8784941350281
 97
        3
330
1EB
330
239
330
238
 75
     1
 76
     0
 52
45.0
 41
0.1
 77
     0
 78
     1
 53
45.0
 43
0.0
 44
0.0
 45
-0.0707106781186548
 46
0.0707106781186548
 79
     0
 98
        1
 10
0.0
 20
0.0
  0
HATCH
  5
2B9
330
8D
100
AcDbEntity
  8
1
  6
Continuous
 62
     2
100
AcDbHatch
 10
0.0
 20
0.0
 30
0.0
210
0.0
220
0.0
230
1.0
  2
_USER
 70
     0
 71
     1
 91
        1
 92
        1
 93
        4
 72
     1
 10
-264.5287753261704
 20
-250.7408274683783
 11
-265.7692797364233
 21
-250.7408274683783
 72
     1
 10
-265.7692797364233
 20
-250.7408274683783
 11
-265.7692797364233
 21
-247.6870179445671
 72
     1
 10
-265.7692797364233
 20
-247.6870179445671
 11
-264.5287753261704
 21
-247.6870179445671
 72
     1
 10
-264.5287753261704
 20
-247.6870179445671
 11
-264.5287753261704
 21
-250.7408274683783
 97
        4
330
1E8
330
1EA
330
23A
330
1E9
 75
     1
 76
     0
 52
45.0
 41
0.1
 77
     0
 78
     1
 53
45.0
 43
0.0
 44
0.0
 45
-0.0707106781186548
 46
0.0707106781186548
 79
     0
 98
        1
 10
0.0
 20
0.0
  0
HATCH
  5
2BA
330
8D
100
AcDbEntity
  8
1
  6
Continuous
 62
     2
100
AcDbHatch
 10
0.0
 20
0.0
 30
0.0
210
0.0
220
0.0
230
1.0
  2
_USER
 70
     0
 71
     1
 91
        1
 92
        1
 93
        4
 72
     1
 10
-264.5287753261704
 20
-250.7408274683783
 11
-265.7692797364233
 21
-250.7408274683783
 72
     1
 10
-265.7692797364233
 20
-250.7408274683783
 11
-265.7692797364233
 21
-247.6870179445671
 72
     1
 10
-265.7692797364233
 20
-247.6870179445671
 11
-264.5287753261704
 21
-247.6870179445671
 72
     1
 10
-264.5287753261704
 20
-247.6870179445671
 11
-264.5287753261704
 21
-250.7408274683783
 97
        4
330
1E8
330
1EA
330
23A
330
1E9
 75
     1
 76
     0
 52
45.0
 41
0.1
 77
     0
 78
     1
 53
45.0
 43
0.0
 44
0.0
 45
-0.0707106781186548
 46
0.0707106781186548
 79
     0
 98
        1
 10
0.0
 20
0.0
  0
HATCH
  5
2BB
330
8D
100
AcDbEntity
  8
1
  6
Continuous
 62
     2
100
AcDbHatch
 10
0.0
 20
0.0
 30
0.0
210
0.0
220
0.0
230
1.0
  2
_USER
 70
     0
 71
     1
 91
        1
 92
        1
 93
       12
 72
     1
 10
-260.3062891604997
 20
-247.6870179445671
 11
-261.6088187912661
 21
-249.1599684746033
 72
     1
 10
-261.6088187912661
 20
-249.1599684746033
 11
-260.2108657443258
 21
-250.7408274683783
 72
     1
 10
-260.2108657443258
 20
-250.7408274683783
 11
-261.6135899620741
 21
-250.7408274683783
 72
     1
 10
-261.6135899620741
 20
-250.7408274683783
 11
-262.3101809001396
 21
-249.9530956830846
 72
     1
 10
-262.3101809001396
 20
-249.9530956830846
 11
-263.0067718382053
 21
-250.7408274683783
 72
     1
 10
-263.0067718382053
 20
-250.7408274683783
 11
-264.4094960559535
 21
-250.7408274683783
 72
     1
 10
-264.4094960559535
 20
-250.7408274683783
 11
-263.0115430090132
 21
-249.1599684746033
 72
     1
 10
-263.0115430090132
 20
-249.1599684746033
 11
-264.3140726397807
 21
-247.6870179445671
 72
     1
 10
-264.3140726397807
 20
-247.6870179445671
 11
-262.9113484220314
 21
-247.6870179445671
 72
     1
 10
-262.9113484220314
 20
-247.6870179445671
 11
-262.3101809001396
 21
-248.3668412661226
 72
     1
 10
-262.3101809001396
 20
-248.3668412661226
 11
-261.7090133782468
 21
-247.6870179445671
 72
     1
 10
-261.7090133782468
 20
-247.6870179445671
 11
-260.3062891604997
 21
-247.6870179445671
 97
       12
330
1E3
330
1E2
330
1E1
330
23E
330
23F
330
23B
330
23C
330
1E7
330
1E6
330
1E5
330
1E4
330
23D
 75
     1
 76
     0
 52
45.0
 41
0.1
 77
     0
 78
     1
 53
45.0
 43
0.0
 44
0.0
 45
-0.0707106781186548
 46
0.0707106781186548
 79
     0
 98
        1
 10
0.0
 20
0.0
  0
HATCH
  5
2BC
330
8D
100
AcDbEntity
  8
1
  6
Continuous
 62
     2
100
AcDbHatch
 10
0.0
 20
0.0
 30
0.0
210
0.0
220
0.0
230
1.0
  2
_USER
 70
     0
 71
     1
 91
        1
 92
        1
 93
       12
 72
     1
 10
-260.3062891604997
 20
-247.6870179445671
 11
-261.6088187912661
 21
-249.1599684746033
 72
     1
 10
-261.6088187912661
 20
-249.1599684746033
 11
-260.2108657443258
 21
-250.7408274683783
 72
     1
 10
-260.2108657443258
 20
-250.7408274683783
 11
-261.6135899620741
 21
-250.7408274683783
 72
     1
 10
-261.6135899620741
 20
-250.7408274683783
 11
-262.3101809001396
 21
-249.9530956830846
 72
     1
 10
-262.3101809001396
 20
-249.9530956830846
 11
-263.0067718382053
 21
-250.7408274683783
 72
     1
 10
-263.0067718382053
 20
-250.7408274683783
 11
-264.4094960559535
 21
-250.7408274683783
 72
     1
 10
-264.4094960559535
 20
-250.7408274683783
 11
-263.0115430090132
 21
-249.1599684746033
 72
     1
 10
-263.0115430090132
 20
-249.1599684746033
 11
-264.3140726397807
 21
-247.6870179445671
 72
     1
 10
-264.3140726397807
 20
-247.6870179445671
 11
-262.9113484220314
 21
-247.6870179445671
 72
     1
 10
-262.9113484220314
 20
-247.6870179445671
 11
-262.3101809001396
 21
-248.3668412661226
 72
     1
 10
-262.3101809001396
 20
-248.3668412661226
 11
-261.7090133782468
 21
-247.6870179445671
 72
     1
 10
-261.7090133782468
 20
-247.6870179445671
 11
-260.3062891604997
 21
-247.6870179445671
 97
       12
330
1E3
330
1E2
330
1E1
330
23E
330
23F
330
23B
330
23C
330
1E7
330
1E6
330
1E5
330
1E4
330
23D
 75
     1
 76
     0
 52
45.0
 41
0.1
 77
     0
 78
     1
 53
45.0
 43
0.0
 44
0.0
 45
-0.0707106781186548
 46
0.0707106781186548
 79
     0
 98
        1
 10
0.0
 20
0.0
  0
HATCH
  5
2BD
330
8D
100
AcDbEntity
  8
1
  6
Continuous
 62
     2
100
AcDbHatch
 10
0.0
 20
0.0
 30
0.0
210
0.0
220
0.0
230
1.0
  2
_USER
 70
     0
 71
     1
 91
        2
 92
        1
 93
        6
 72
     1
 10
-279.3240245746457
 20
-249.7977492272345
 11
-280.0827921624259
 21
-249.7977492272345
 72
     1
 10
-280.0827921624259
 20
-249.7977492272345
 11
-280.0827921624259
 21
-250.7408274683783
 72
     1
 10
-280.0827921624259
 20
-250.7408274683783
 11
-281.32329657268
 21
-250.7408274683783
 72
     1
 10
-281.32329657268
 20
-250.7408274683783
 11
-281.32329657268
 21
-247.6870179445671
 72
     1
 10
-281.32329657268
 20
-247.6870179445671
 11
-279.3240245746457
 21
-247.6870179445671
 72
     2
 10
-279.3240245746457
 20
-248.7423835859008
 40
1.055365641333708
 50
270.0
 51
450.0
 73
     0
 97
        6
330
20B
330
20A
330
217
330
216
330
20C
330
25C
 92
       16
 93
        4
 72
     2
 10
-279.765497100884
 20
-248.7029876146783
 40
0.3528638246712035
 50
270.0
 51
450.0
 73
     1
 72
     1
 10
-279.765497100884
 20
-248.3501237900072
 11
-280.0827921624259
 21
-248.3501237900072
 72
     1
 10
-280.0827921624259
 20
-248.3501237900072
 11
-280.0827921624259
 21
-249.0558514393495
 72
     1
 10
-280.0827921624259
 20
-249.0558514393495
 11
-279.765497100884
 21
-249.0558514393495
 97
        4
330
270
330
208
330
218
330
209
 75
     1
 76
     0
 52
45.0
 41
0.1
 77
     0
 78
     1
 53
45.0
 43
0.0
 44
0.0
 45
-0.0707106781186548
 46
0.0707106781186548
 79
     0
 98
        1
 10
0.0
 20
0.0
  0
HATCH
  5
2BE
330
8D
100
AcDbEntity
  8
1
  6
Continuous
 62
     2
100
AcDbHatch
 10
0.0
 20
0.0
 30
0.0
210
0.0
220
0.0
230
1.0
  2
_USER
 70
     0
 71
     1
 91
        2
 92
        1
 93
        6
 72
     1
 10
-279.3240245746457
 20
-249.7977492272345
 11
-280.0827921624259
 21
-249.7977492272345
 72
     1
 10
-280.0827921624259
 20
-249.7977492272345
 11
-280.0827921624259
 21
-250.7408274683783
 72
     1
 10
-280.0827921624259
 20
-250.7408274683783
 11
-281.32329657268
 21
-250.7408274683783
 72
     1
 10
-281.32329657268
 20
-250.7408274683783
 11
-281.32329657268
 21
-247.6870179445671
 72
     1
 10
-281.32329657268
 20
-247.6870179445671
 11
-279.3240245746457
 21
-247.6870179445671
 72
     2
 10
-279.3240245746457
 20
-248.7423835859008
 40
1.055365641333708
 50
270.0
 51
450.0
 73
     0
 97
        6
330
20B
330
20A
330
217
330
216
330
20C
330
25C
 92
       16
 93
        4
 72
     2
 10
-279.765497100884
 20
-248.7029876146783
 40
0.3528638246712035
 50
270.0
 51
450.0
 73
     1
 72
     1
 10
-279.765497100884
 20
-248.3501237900072
 11
-280.0827921624259
 21
-248.3501237900072
 72
     1
 10
-280.0827921624259
 20
-248.3501237900072
 11
-280.0827921624259
 21
-249.0558514393495
 72
     1
 10
-280.0827921624259
 20
-249.0558514393495
 11
-279.765497100884
 21
-249.0558514393495
 97
        4
330
270
330
208
330
218
330
209
 75
     1
 76
     0
 52
45.0
 41
0.1
 77
     0
 78
     1
 53
45.0
 43
0.0
 44
0.0
 45
-0.0707106781186548
 46
0.0707106781186548
 79
     0
 98
        1
 10
0.0
 20
0.0
  0
HATCH
  5
2BF
330
8D
100
AcDbEntity
  8
1
  6
Continuous
 62
     2
100
AcDbHatch
 10
0.0
 20
0.0
 30
0.0
210
0.0
220
0.0
230
1.0
  2
_USER
 70
     0
 71
     1
 91
        2
 92
        1
 93
        4
 72
     2
 10
-276.7674818262865
 20
-253.1116881929501
 40
2.065479772208541
 50
62.45185182430953
 51
117.5481481756667
 73
     1
 72
     2
 10
-277.0484217181198
 20
-252.5731131826473
 40
1.45803408365149
 50
117.5481481756624
 51
242.4518518243397
 73
     1
 72
     2
 10
-276.7674818262865
 20
-252.034538172344
 40
2.065479772208597
 50
242.4518518243406
 51
297.5481481756832
 73
     1
 72
     2
 10
-276.4865419344532
 20
-252.5731131826473
 40
1.458034083652064
 50
297.548148175696
 51
422.4518518243019
 73
     1
 97
        4
330
268
330
267
330
269
330
266
 92
       16
 93
        4
 72
     2
 10
-276.9672218626329
 20
-252.5731131826473
 40
0.7717997786797123
 50
321.8795802028401
 51
398.1204197971467
 73
     1
 72
     2
 10
-276.7674818262865
 20
-252.4163820045268
 40
0.5179085730132249
 50
38.12041979714156
 51
141.8795802028662
 73
     1
 72
     2
 10
-276.5677417899404
 20
-252.5731131826473
 40
0.7717997786793931
 50
141.879580202843
 51
218.1204197971703
 73
     1
 72
     2
 10
-276.7674818262865
 20
-252.7298443607673
 40
0.5179085730137529
 50
218.1204197971956
 51
321.8795802027966
 73
     1
 97
        4
330
284
330
281
330
282
330
283
 75
     1
 76
     0
 52
45.0
 41
0.1
 77
     0
 78
     1
 53
45.0
 43
0.0
 44
0.0
 45
-0.0707106781186548
 46
0.0707106781186548
 79
     0
 98
        1
 10
0.0
 20
0.0
  0
HATCH
  5
2C0
330
8D
100
AcDbEntity
  8
1
  6
Continuous
 62
     2
100
AcDbHatch
 10
0.0
 20
0.0
 30
0.0
210
0.0
220
0.0
230
1.0
  2
_USER
 70
     0
 71
     1
 91
        2
 92
        1
 93
        4
 72
     2
 10
-276.7674818262865
 20
-253.1116881929501
 40
2.065479772208541
 50
62.45185182430953
 51
117.5481481756667
 73
     1
 72
     2
 10
-277.0484217181198
 20
-252.5731131826473
 40
1.45803408365149
 50
117.5481481756624
 51
242.4518518243397
 73
     1
 72
     2
 10
-276.7674818262865
 20
-252.034538172344
 40
2.065479772208597
 50
242.4518518243406
 51
297.5481481756832
 73
     1
 72
     2
 10
-276.4865419344532
 20
-252.5731131826473
 40
1.458034083652064
 50
297.548148175696
 51
422.4518518243019
 73
     1
 97
        4
330
268
330
267
330
269
330
266
 92
       16
 93
        4
 72
     2
 10
-276.9672218626329
 20
-252.5731131826473
 40
0.7717997786797123
 50
321.8795802028401
 51
398.1204197971467
 73
     1
 72
     2
 10
-276.7674818262865
 20
-252.4163820045268
 40
0.5179085730132249
 50
38.12041979714156
 51
141.8795802028662
 73
     1
 72
     2
 10
-276.5677417899404
 20
-252.5731131826473
 40
0.7717997786793931
 50
141.879580202843
 51
218.1204197971703
 73
     1
 72
     2
 10
-276.7674818262865
 20
-252.7298443607673
 40
0.5179085730137529
 50
218.1204197971956
 51
321.8795802027966
 73
     1
 97
        4
330
284
330
281
330
282
330
283
 75
     1
 76
     0
 52
45.0
 41
0.1
 77
     0
 78
     1
 53
45.0
 43
0.0
 44
0.0
 45
-0.0707106781186548
 46
0.0707106781186548
 79
     0
 98
        1
 10
0.0
 20
0.0
  0
HATCH
  5
2C1
330
8D
100
AcDbEntity
  8
1
  6
Continuous
 62
     2
100
AcDbHatch
 10
0.0
 20
0.0
 30
0.0
210
0.0
220
0.0
230
1.0
  2
_USER
 70
     0
 71
     1
 91
        2
 92
        1
 93
       12
 72
     1
 10
-269.8724866318772
 20
-248.3850315500101
 11
-271.2084144583049
 21
-248.3850315500101
 72
     1
 10
-271.2084144583049
 20
-248.3850315500101
 11
-271.2084144583049
 21
-248.8649159037518
 72
     1
 10
-271.2084144583049
 20
-248.8649159037518
 11
-269.8724866318772
 21
-248.8649159037518
 72
     1
 10
-269.8724866318772
 20
-248.8649159037518
 11
-269.8724866318772
 21
-249.5629295091941
 72
     1
 10
-269.8724866318772
 20
-249.5629295091941
 11
-271.2084144583049
 21
-249.5629295091941
 72
     1
 10
-271.2084144583049
 20
-249.5629295091941
 11
-271.2084144583049
 21
-250.0428138629358
 72
     1
 10
-271.2084144583049
 20
-250.0428138629358
 11
-269.8724866318772
 21
-250.0428138629358
 72
     1
 10
-269.8724866318772
 20
-250.0428138629358
 11
-269.8724866318772
 21
-250.7408274683783
 72
     1
 10
-269.8724866318772
 20
-250.7408274683783
 11
-273.0228063556583
 21
-250.7408274683783
 72
     2
 10
-273.0228063556583
 20
-249.213922706473
 40
1.526904761905911
 50
90.0
 51
270.0
 73
     0
 72
     1
 10
-273.0228063556583
 20
-247.6870179445671
 11
-269.8724866318772
 21
-247.6870179445671
 72
     1
 10
-269.8724866318772
 20
-247.6870179445671
 11
-269.8724866318772
 21
-248.3850315500101
 97
       12
330
21F
330
271
330
220
330
221
330
222
330
223
330
200
330
1FF
330
1FE
330
1FD
330
224
330
21E
 92
       16
 93
        4
 72
     2
 10
-272.8065343454931
 20
-249.0571915283525
 40
0.5179085730136159
 50
38.12041979713558
 51
141.8795802028411
 73
     1
 72
     2
 10
-272.6067943091467
 20
-249.213922706473
 40
0.7717997786796676
 50
141.8795802028375
 51
218.1204197971559
 73
     1
 72
     2
 10
-272.8065343454931
 20
-249.3706538845934
 40
0.5179085730133477
 50
218.1204197971589
 51
321.8795802028644
 73
     1
 72
     2
 10
-273.0062743818392
 20
-249.213922706473
 40
0.7717997786796421
 50
321.8795802028467
 51
398.1204197971599
 73
     1
 97
        4
330
26B
330
26A
330
265
330
264
 75
     1
 76
     0
 52
45.0
 41
0.1
 77
     0
 78
     1
 53
45.0
 43
0.0
 44
0.0
 45
-0.0707106781186548
 46
0.0707106781186548
 79
     0
 98
        1
 10
0.0
 20
0.0
  0
HATCH
  5
2C2
330
8D
100
AcDbEntity
  8
1
  6
Continuous
 62
     2
100
AcDbHatch
 10
0.0
 20
0.0
 30
0.0
210
0.0
220
0.0
230
1.0
  2
_USER
 70
     0
 71
     1
 91
        2
 92
        1
 93
       12
 72
     1
 10
-269.8724866318772
 20
-248.3850315500101
 11
-271.2084144583049
 21
-248.3850315500101
 72
     1
 10
-271.2084144583049
 20
-248.3850315500101
 11
-271.2084144583049
 21
-248.8649159037518
 72
     1
 10
-271.2084144583049
 20
-248.8649159037518
 11
-269.8724866318772
 21
-248.8649159037518
 72
     1
 10
-269.8724866318772
 20
-248.8649159037518
 11
-269.8724866318772
 21
-249.5629295091941
 72
     1
 10
-269.8724866318772
 20
-249.5629295091941
 11
-271.2084144583049
 21
-249.5629295091941
 72
     1
 10
-271.2084144583049
 20
-249.5629295091941
 11
-271.2084144583049
 21
-250.0428138629358
 72
     1
 10
-271.2084144583049
 20
-250.0428138629358
 11
-269.8724866318772
 21
-250.0428138629358
 72
     1
 10
-269.8724866318772
 20
-250.0428138629358
 11
-269.8724866318772
 21
-250.7408274683783
 72
     1
 10
-269.8724866318772
 20
-250.7408274683783
 11
-273.0228063556583
 21
-250.7408274683783
 72
     2
 10
-273.0228063556583
 20
-249.213922706473
 40
1.526904761905911
 50
90.0
 51
270.0
 73
     0
 72
     1
 10
-273.0228063556583
 20
-247.6870179445671
 11
-269.8724866318772
 21
-247.6870179445671
 72
     1
 10
-269.8724866318772
 20
-247.6870179445671
 11
-269.8724866318772
 21
-248.3850315500101
 97
       12
330
21F
330
271
330
220
330
221
330
222
330
223
330
200
330
1FF
330
1FE
330
1FD
330
224
330
21E
 92
       16
 93
        4
 72
     2
 10
-272.8065343454931
 20
-249.0571915283525
 40
0.5179085730136159
 50
38.12041979713558
 51
141.8795802028411
 73
     1
 72
     2
 10
-272.6067943091467
 20
-249.213922706473
 40
0.7717997786796676
 50
141.8795802028375
 51
218.1204197971559
 73
     1
 72
     2
 10
-272.8065343454931
 20
-249.3706538845934
 40
0.5179085730133477
 50
218.1204197971589
 51
321.8795802028644
 73
     1
 72
     2
 10
-273.0062743818392
 20
-249.213922706473
 40
0.7717997786796421
 50
321.8795802028467
 51
398.1204197971599
 73
     1
 97
        4
330
26B
330
26A
330
265
330
264
 75
     1
 76
     0
 52
45.0
 41
0.1
 77
     0
 78
     1
 53
45.0
 43
0.0
 44
0.0
 45
-0.0707106781186548
 46
0.0707106781186548
 79
     0
 98
        1
 10
0.0
 20
0.0
  0
HATCH
  5
2C3
330
8D
100
AcDbEntity
  8
1
  6
Continuous
 62
     2
100
AcDbHatch
 10
0.0
 20
0.0
 30
0.0
210
0.0
220
0.0
230
1.0
  2
_USER
 70
     0
 71
     1
 91
        4
 92
        1
 93
        8
 72
     1
 10
-281.8004136535468
 20
-248.1112625599691
 11
-281.8004136535468
 21
-253.6757733291693
 72
     2
 10
-282.2246582689307
 20
-253.6757733291693
 40
0.4242446153833157
 50
0.0
 51
90.0
 73
     0
 72
     1
 10
-282.2246582689307
 20
-254.1000179445526
 11
-287.6979703596475
 21
-254.1000179445526
 72
     2
 10
-287.6979703596475
 20
-253.6757733291693
 40
0.4242446153828041
 50
90.0
 51
180.0
 73
     0
 72
     1
 10
-288.1222149750303
 20
-253.6757733291693
 11
-288.1222149750303
 21
-248.1112625599691
 72
     2
 10
-287.6979703596475
 20
-248.1112625599691
 40
0.4242446153837989
 50
180.0
 51
270.0
 73
     0
 72
     1
 10
-287.6979703596475
 20
-247.6870179445853
 11
-282.2246582689307
 21
-247.6870179445853
 72
     2
 10
-282.2246582689307
 20
-248.1112625599691
 40
0.4242446153838841
 50
270.0
 51
360.0
 73
     0
 97
        8
330
213
330
261
330
214
330
26C
330
211
330
263
330
212
330
262
 92
       16
 93
        1
 72
     2
 10
-285.07838470913
 20
-250.4301447883246
 40
0.4709789327784506
 50
0.0
 51
360.0
 73
     1
 97
        1
330
287
 92
       16
 93
        8
 72
     2
 10
-284.5285269963694
 20
-251.539286388293
 40
0.3157169230764706
 50
115.3740086783401
 51
180.0
 73
     1
 72
     1
 10
-284.8442439194461
 20
-251.539286388293
 11
-284.8442439194461
 21
-252.121137794988
 72
     2
 10
-284.5285269963694
 20
-252.121137794988
 40
0.3157169230767067
 50
180.0
 51
269.8110329574696
 73
     1
 72
     2
 10
-284.5229108610593
 20
-250.4183028474191
 40
2.018561131933237
 50
269.8110329575858
 51
450.1889670424142
 73
     1
 72
     2
 10
-284.5285269963694
 20
-248.71546789985
 40
0.3157169230760707
 50
90.18896704253045
 51
180.0
 73
     1
 72
     1
 10
-284.8442439194461
 20
-248.71546789985
 11
-284.8442439194461
 21
-249.3210031883568
 72
     2
 10
-284.5285269963694
 20
-249.3210031883568
 40
0.3157169230767067
 50
180.0
 51
244.6259913216599
 73
     1
 72
     2
 10
-285.0545696944572
 20
-250.4301447883246
 40
0.911848150144459
 50
295.3740086781918
 51
424.6259913218236
 73
     0
 97
        8
330
279
330
1DA
330
276
330
277
330
255
330
1D9
330
278
330
254
 92
       16
 93
       12
 72
     2
 10
-287.104075682901
 20
-253.071745465919
 40
0.3157169230756836
 50
180.0
 51
270.0
 73
     1
 72
     1
 10
-287.104075682901
 20
-253.3874623889958
 11
-285.6282424218914
 21
-253.3874623889958
 72
     2
 10
-285.6282424218914
 20
-253.071745465919
 40
0.315716923076792
 50
270.0
 51
360.0
 73
     1
 72
     1
 10
-285.3125254988148
 20
-253.071745465919
 11
-285.3125254988148
 21
-251.5409745343874
 72
     2
 10
-285.6282424218914
 20
-251.5409745343874
 40
0.315716923076593
 50
0.0
 51
64.80558935145369
 73
     1
 72
     2
 10
-285.1056579743164
 20
-250.4301447883246
 40
0.9118975235576268
 50
115.1944106485116
 51
244.8055893514702
 73
     0
 72
     2
 10
-285.6282424218914
 20
-249.3193150422624
 40
0.315716923076146
 50
295.1944106485375
 51
360.0
 73
     1
 72
     1
 10
-285.3125254988148
 20
-249.3193150422624
 11
-285.3125254988148
 21
-248.7152904232019
 72
     2
 10
-285.6282424218914
 20
-248.7152904232019
 40
0.315716923076593
 50
0.0
 51
90.0
 73
     1
 72
     1
 10
-285.6282424218914
 20
-248.3995735001257
 11
-287.104075682901
 21
-248.3995735001257
 72
     2
 10
-287.104075682901
 20
-248.7152904232019
 40
0.3157169230761951
 50
90.0
 51
180.0
 73
     1
 72
     1
 10
-287.4197926059767
 20
-248.7152904232019
 11
-287.4197926059767
 21
-253.071745465919
 97
       12
330
25D
330
215
330
260
330
210
330
26D
330
26E
330
25F
330
20F
330
25E
330
20E
330
26F
330
20D
 75
     1
 76
     0
 52
45.0
 41
0.1
 77
     0
 78
     1
 53
45.0
 43
0.0
 44
0.0
 45
-0.0707106781186548
 46
0.0707106781186548
 79
     0
 98
        1
 10
0.0
 20
0.0
  0
HATCH
  5
2C4
330
8D
100
AcDbEntity
  8
1
  6
Continuous
 62
     2
100
AcDbHatch
 10
0.0
 20
0.0
 30
0.0
210
0.0
220
0.0
230
1.0
  2
_USER
 70
     0
 71
     1
 91
        4
 92
        1
 93
        8
 72
     1
 10
-281.8004136535468
 20
-248.1112625599691
 11
-281.8004136535468
 21
-253.6757733291693
 72
     2
 10
-282.2246582689307
 20
-253.6757733291693
 40
0.4242446153833157
 50
0.0
 51
90.0
 73
     0
 72
     1
 10
-282.2246582689307
 20
-254.1000179445526
 11
-287.6979703596475
 21
-254.1000179445526
 72
     2
 10
-287.6979703596475
 20
-253.6757733291693
 40
0.4242446153828041
 50
90.0
 51
180.0
 73
     0
 72
     1
 10
-288.1222149750303
 20
-253.6757733291693
 11
-288.1222149750303
 21
-248.1112625599691
 72
     2
 10
-287.6979703596475
 20
-248.1112625599691
 40
0.4242446153837989
 50
180.0
 51
270.0
 73
     0
 72
     1
 10
-287.6979703596475
 20
-247.6870179445853
 11
-282.2246582689307
 21
-247.6870179445853
 72
     2
 10
-282.2246582689307
 20
-248.1112625599691
 40
0.4242446153838841
 50
270.0
 51
360.0
 73
     0
 97
        8
330
213
330
261
330
214
330
26C
330
211
330
263
330
212
330
262
 92
       16
 93
        1
 72
     2
 10
-285.07838470913
 20
-250.4301447883246
 40
0.4709789327784506
 50
0.0
 51
360.0
 73
     1
 97
        1
330
287
 92
       16
 93
        8
 72
     2
 10
-284.5285269963694
 20
-251.539286388293
 40
0.3157169230764706
 50
115.3740086783401
 51
180.0
 73
     1
 72
     1
 10
-284.8442439194461
 20
-251.539286388293
 11
-284.8442439194461
 21
-252.121137794988
 72
     2
 10
-284.5285269963694
 20
-252.121137794988
 40
0.3157169230767067
 50
180.0
 51
269.8110329574696
 73
     1
 72
     2
 10
-284.5229108610593
 20
-250.4183028474191
 40
2.018561131933237
 50
269.8110329575858
 51
450.1889670424142
 73
     1
 72
     2
 10
-284.5285269963694
 20
-248.71546789985
 40
0.3157169230760707
 50
90.18896704253045
 51
180.0
 73
     1
 72
     1
 10
-284.8442439194461
 20
-248.71546789985
 11
-284.8442439194461
 21
-249.3210031883568
 72
     2
 10
-284.5285269963694
 20
-249.3210031883568
 40
0.3157169230767067
 50
180.0
 51
244.6259913216599
 73
     1
 72
     2
 10
-285.0545696944572
 20
-250.4301447883246
 40
0.911848150144459
 50
295.3740086781918
 51
424.6259913218236
 73
     0
 97
        8
330
279
330
1DA
330
276
330
277
330
255
330
1D9
330
278
330
254
 92
       16
 93
       12
 72
     2
 10
-287.104075682901
 20
-253.071745465919
 40
0.3157169230756836
 50
180.0
 51
270.0
 73
     1
 72
     1
 10
-287.104075682901
 20
-253.3874623889958
 11
-285.6282424218914
 21
-253.3874623889958
 72
     2
 10
-285.6282424218914
 20
-253.071745465919
 40
0.315716923076792
 50
270.0
 51
360.0
 73
     1
 72
     1
 10
-285.3125254988148
 20
-253.071745465919
 11
-285.3125254988148
 21
-251.5409745343874
 72
     2
 10
-285.6282424218914
 20
-251.5409745343874
 40
0.315716923076593
 50
0.0
 51
64.80558935145369
 73
     1
 72
     2
 10
-285.1056579743164
 20
-250.4301447883246
 40
0.9118975235576268
 50
115.1944106485116
 51
244.8055893514702
 73
     0
 72
     2
 10
-285.6282424218914
 20
-249.3193150422624
 40
0.315716923076146
 50
295.1944106485375
 51
360.0
 73
     1
 72
     1
 10
-285.3125254988148
 20
-249.3193150422624
 11
-285.3125254988148
 21
-248.7152904232019
 72
     2
 10
-285.6282424218914
 20
-248.7152904232019
 40
0.315716923076593
 50
0.0
 51
90.0
 73
     1
 72
     1
 10
-285.6282424218914
 20
-248.3995735001257
 11
-287.104075682901
 21
-248.3995735001257
 72
     2
 10
-287.104075682901
 20
-248.7152904232019
 40
0.3157169230761951
 50
90.0
 51
180.0
 73
     1
 72
     1
 10
-287.4197926059767
 20
-248.7152904232019
 11
-287.4197926059767
 21
-253.071745465919
 97
       12
330
25D
330
215
330
260
330
210
330
26D
330
26E
330
25F
330
20F
330
25E
330
20E
330
26F
330
20D
 75
     1
 76
     0
 52
45.0
 41
0.1
 77
     0
 78
     1
 53
45.0
 43
0.0
 44
0.0
 45
-0.0707106781186548
 46
0.0707106781186548
 79
     0
 98
        1
 10
0.0
 20
0.0
  0
HATCH
  5
2C5
330
8D
100
AcDbEntity
  8
1
  6
Continuous
 62
     2
100
AcDbHatch
 10
0.0
 20
0.0
 30
0.0
210
0.0
220
0.0
230
1.0
  2
_USER
 70
     0
 71
     1
 91
        1
 92
        1
 93
       18
 72
     1
 10
-260.2108657443258
 20
-251.8314737268651
 11
-261.0219647817992
 21
-251.8314737268651
 72
     1
 10
-261.0219647817992
 20
-251.8314737268651
 11
-261.0219647817992
 21
-254.1000179445526
 72
     1
 10
-261.0219647817992
 20
-254.1000179445526
 11
-262.2147574839669
 21
-254.1000179445526
 72
     1
 10
-262.2147574839669
 20
-254.1000179445526
 11
-262.2147574839669
 21
-251.8314737268651
 72
     1
 10
-262.2147574839669
 20
-251.8314737268651
 11
-263.318396783535
 21
-251.8314737268651
 72
     2
 10
-263.318396783535
 20
-252.7859967336912
 40
0.9545230068260935
 50
90.0
 51
109.3371432194314
 73
     1
 72
     2
 10
-263.4650667816387
 20
-252.3680417533083
 40
0.5115800601944048
 50
109.3371432194823
 51
151.4785267424225
 73
     1
 72
     2
 10
-263.0877095235574
 20
-252.5731131826473
 40
0.9410597353348175
 50
151.4785267423599
 51
208.521473257672
 73
     1
 72
     2
 10
-263.4650667816387
 20
-252.7781846119858
 40
0.511580060196008
 50
208.5214732576838
 51
246.6277221118478
 73
     1
 72
     2
 10
-263.3086267489356
 20
-252.4161925932758
 40
0.9059297849852801
 50
246.6277221118183
 51
288.448076118084
 73
     1
 72
     2
 10
-263.7267944825975
 20
-251.1626468172392
 40
2.227384008972665
 50
288.4480761181342
 51
301.9309089499396
 73
     1
 72
     1
 10
-262.5487394405736
 20
-253.0529975363889
 11
-262.5487394405736
 21
-253.9255145431923
 72
     2
 10
-263.8846673576903
 20
-249.2604322373909
 40
4.852596863498941
 50
74.02000874166164
 51
84.84185523036345
 73
     0
 72
     2
 10
-263.5958112629545
 20
-252.4603228206125
 40
1.639695123940531
 50
84.84185523032305
 51
164.9381082228996
 73
     0
 72
     2
 10
-264.0149391064161
 20
-252.5731131826473
 40
1.205656168393105
 50
164.9381082229042
 51
195.0618917770945
 73
     0
 72
     2
 10
-263.5958112629545
 20
-252.6859035446822
 40
1.639695123940186
 50
195.0618917771033
 51
270.0
 73
     0
 72
     1
 10
-263.5958112629545
 20
-251.046208420742
 11
-260.2108657443258
 21
-251.0462084207416
 72
     1
 10
-260.2108657443258
 20
-251.0462084207416
 11
-260.2108657443258
 21
-251.8314737268651
 97
       18
330
1DC
330
272
330
273
330
25B
330
25A
330
240
330
259
330
258
330
274
330
257
330
275
330
256
330
241
330
1DB
330
1E0
330
1DF
330
1DE
330
1DD
 75
     1
 76
     0
 52
45.0
 41
0.1
 77
     0
 78
     1
 53
45.0
 43
0.0
 44
0.0
 45
-0.0707106781186548
 46
0.0707106781186548
 79
     0
 98
        1
 10
0.0
 20
0.0
  0
HATCH
  5
2C6
330
8D
100
AcDbEntity
  8
1
  6
Continuous
 62
     2
100
AcDbHatch
 10
0.0
 20
0.0
 30
0.0
210
0.0
220
0.0
230
1.0
  2
_USER
 70
     0
 71
     1
 91
        1
 92
        1
 93
       18
 72
     1
 10
-260.2108657443258
 20
-251.8314737268651
 11
-261.0219647817992
 21
-251.8314737268651
 72
     1
 10
-261.0219647817992
 20
-251.8314737268651
 11
-261.0219647817992
 21
-254.1000179445526
 72
     1
 10
-261.0219647817992
 20
-254.1000179445526
 11
-262.2147574839669
 21
-254.1000179445526
 72
     1
 10
-262.2147574839669
 20
-254.1000179445526
 11
-262.2147574839669
 21
-251.8314737268651
 72
     1
 10
-262.2147574839669
 20
-251.8314737268651
 11
-263.318396783535
 21
-251.8314737268651
 72
     2
 10
-263.318396783535
 20
-252.7859967336912
 40
0.9545230068260935
 50
90.0
 51
109.3371432194314
 73
     1
 72
     2
 10
-263.4650667816387
 20
-252.3680417533083
 40
0.5115800601944048
 50
109.3371432194823
 51
151.4785267424225
 73
     1
 72
     2
 10
-263.0877095235574
 20
-252.5731131826473
 40
0.9410597353348175
 50
151.4785267423599
 51
208.521473257672
 73
     1
 72
     2
 10
-263.4650667816387
 20
-252.7781846119858
 40
0.511580060196008
 50
208.5214732576838
 51
246.6277221118478
 73
     1
 72
     2
 10
-263.3086267489356
 20
-252.4161925932758
 40
0.9059297849852801
 50
246.6277221118183
 51
288.448076118084
 73
     1
 72
     2
 10
-263.7267944825975
 20
-251.1626468172392
 40
2.227384008972665
 50
288.4480761181342
 51
301.9309089499396
 73
     1
 72
     1
 10
-262.5487394405736
 20
-253.0529975363889
 11
-262.5487394405736
 21
-253.9255145431923
 72
     2
 10
-263.8846673576903
 20
-249.2604322373909
 40
4.852596863498941
 50
74.02000874166164
 51
84.84185523036345
 73
     0
 72
     2
 10
-263.5958112629545
 20
-252.4603228206125
 40
1.639695123940531
 50
84.84185523032305
 51
164.9381082228996
 73
     0
 72
     2
 10
-264.0149391064161
 20
-252.5731131826473
 40
1.205656168393105
 50
164.9381082229042
 51
195.0618917770945
 73
     0
 72
     2
 10
-263.5958112629545
 20
-252.6859035446822
 40
1.639695123940186
 50
195.0618917771033
 51
270.0
 73
     0
 72
     1
 10
-263.5958112629545
 20
-251.046208420742
 11
-260.2108657443258
 21
-251.0462084207416
 72
     1
 10
-260.2108657443258
 20
-251.0462084207416
 11
-260.2108657443258
 21
-251.8314737268651
 97
       18
330
1DC
330
272
330
273
330
25B
330
25A
330
240
330
259
330
258
330
274
330
257
330
275
330
256
330
241
330
1DB
330
1E0
330
1DF
330
1DE
330
1DD
 75
     1
 76
     0
 52
45.0
 41
0.1
 77
     0
 78
     1
 53
45.0
 43
0.0
 44
0.0
 45
-0.0707106781186548
 46
0.0707106781186548
 79
     0
 98
        1
 10
0.0
 20
0.0
  0
HATCH
  5
2C7
330
8D
100
AcDbEntity
  8
1
  6
Continuous
 62
     2
100
AcDbHatch
 10
0.0
 20
0.0
 30
0.0
210
0.0
220
0.0
230
1.0
  2
_USER
 70
     0
 71
     1
 91
        1
 92
        1
 93
       14
 72
     2
 10
-279.6985127422074
 20
-252.6859035446822
 40
1.639695123940507
 50
84.84185523036236
 51
164.9381082228874
 73
     1
 72
     2
 10
-280.1176405856702
 20
-252.5731131826473
 40
1.205656168390964
 50
164.9381082228781
 51
195.0618917770945
 73
     1
 72
     2
 10
-279.6985127422074
 20
-252.4603228206125
 40
1.63969512393938
 50
195.0618917770886
 51
275.1581447696395
 73
     1
 72
     2
 10
-279.9873688369434
 20
-249.2604322373909
 40
4.852596863498174
 50
275.1581447696259
 51
285.9799912583535
 73
     1
 72
     1
 10
-278.6514409198255
 20
-253.9255145431918
 11
-278.6514409198255
 21
-253.0529975363885
 72
     2
 10
-279.8294959618504
 20
-251.1626468172386
 40
2.227384008972854
 50
58.0690910500407
 51
71.55192388186742
 73
     0
 72
     2
 10
-279.4113282281896
 20
-252.4161925932758
 40
0.9059297849849417
 50
71.55192388184321
 51
113.3722778881322
 73
     0
 72
     2
 10
-279.5677682608916
 20
-252.7781846119858
 40
0.5115800601948783
 50
113.3722778881755
 51
151.478526742309
 73
     0
 72
     2
 10
-279.1904110028114
 20
-252.5731131826473
 40
0.9410597353332545
 50
151.4785267422927
 51
208.5214732577331
 73
     0
 72
     2
 10
-279.5677682608916
 20
-252.3680417533083
 40
0.511580060194863
 50
208.521473257691
 51
246.6277221117967
 73
     0
 72
     2
 10
-279.4113282281896
 20
-252.7300337720189
 40
0.9059297849853498
 50
246.6277221118678
 51
288.448076118146
 73
     0
 72
     2
 10
-279.8294959618504
 20
-253.9835795480555
 40
2.227384008973478
 50
288.4480761181333
 51
301.9309089499592
 73
     0
 72
     1
 10
-278.6514409198255
 20
-252.0932288289056
 11
-278.6514409198255
 21
-251.2207118221023
 72
     2
 10
-279.9873688369434
 20
-255.8857941279033
 40
4.852596863498201
 50
74.02000874164679
 51
84.84185523037418
 73
     1
 97
       14
330
27A
330
27B
330
27C
330
27D
330
242
330
253
330
252
330
251
330
27E
330
27F
330
250
330
280
330
243
330
24F
 75
     1
 76
     0
 52
45.0
 41
0.1
 77
     0
 78
     1
 53
45.0
 43
0.0
 44
0.0
 45
-0.0707106781186548
 46
0.0707106781186548
 79
     0
 98
        1
 10
0.0
 20
0.0
  0
HATCH
  5
2C8
330
8D
100
AcDbEntity
  8
1
  6
Continuous
 62
     2
100
AcDbHatch
 10
0.0
 20
0.0
 30
0.0
210
0.0
220
0.0
230
1.0
  2
_USER
 70
     0
 71
     1
 91
        1
 92
        1
 93
       14
 72
     2
 10
-279.6985127422074
 20
-252.6859035446822
 40
1.639695123940507
 50
84.84185523036236
 51
164.9381082228874
 73
     1
 72
     2
 10
-280.1176405856702
 20
-252.5731131826473
 40
1.205656168390964
 50
164.9381082228781
 51
195.0618917770945
 73
     1
 72
     2
 10
-279.6985127422074
 20
-252.4603228206125
 40
1.63969512393938
 50
195.0618917770886
 51
275.1581447696395
 73
     1
 72
     2
 10
-279.9873688369434
 20
-249.2604322373909
 40
4.852596863498174
 50
275.1581447696259
 51
285.9799912583535
 73
     1
 72
     1
 10
-278.6514409198255
 20
-253.9255145431918
 11
-278.6514409198255
 21
-253.0529975363885
 72
     2
 10
-279.8294959618504
 20
-251.1626468172386
 40
2.227384008972854
 50
58.0690910500407
 51
71.55192388186742
 73
     0
 72
     2
 10
-279.4113282281896
 20
-252.4161925932758
 40
0.9059297849849417
 50
71.55192388184321
 51
113.3722778881322
 73
     0
 72
     2
 10
-279.5677682608916
 20
-252.7781846119858
 40
0.5115800601948783
 50
113.3722778881755
 51
151.478526742309
 73
     0
 72
     2
 10
-279.1904110028114
 20
-252.5731131826473
 40
0.9410597353332545
 50
151.4785267422927
 51
208.5214732577331
 73
     0
 72
     2
 10
-279.5677682608916
 20
-252.3680417533083
 40
0.511580060194863
 50
208.521473257691
 51
246.6277221117967
 73
     0
 72
     2
 10
-279.4113282281896
 20
-252.7300337720189
 40
0.9059297849853498
 50
246.6277221118678
 51
288.448076118146
 73
     0
 72
     2
 10
-279.8294959618504
 20
-253.9835795480555
 40
2.227384008973478
 50
288.4480761181333
 51
301.9309089499592
 73
     0
 72
     1
 10
-278.6514409198255
 20
-252.0932288289056
 11
-278.6514409198255
 21
-251.2207118221023
 72
     2
 10
-279.9873688369434
 20
-255.8857941279033
 40
4.852596863498201
 50
74.02000874164679
 51
84.84185523037418
 73
     1
 97
       14
330
27A
330
27B
330
27C
330
27D
330
242
330
253
330
252
330
251
330
27E
330
27F
330
250
330
280
330
243
330
24F
 75
     1
 76
     0
 52
45.0
 41
0.1
 77
     0
 78
     1
 53
45.0
 43
0.0
 44
0.0
 45
-0.0707106781186548
 46
0.0707106781186548
 79
     0
 98
        1
 10
0.0
 20
0.0
  0
ENDBLK
  5
8F
330
8D
100
AcDbEntity
  8
0
100
AcDbBlockEnd
  0
BLOCK
  5
91
330
90
100
AcDbEntity
  8
0
100
AcDbBlockBegin
  2
_punkt
 70
     0
 10
-162.8140653348429
 20
-261.393517944569
 30
0.0
  3
_punkt
  1

  0
LINE
  5
2C9
330
90
100
AcDbEntity
  8
1
  6
Continuous
 62
     2
100
AcDbLine
 10
-162.8140653348429
 20
-261.393517944569
 30
0.0
 11
-157.8140653348439
 21
-261.393517944569
 31
0.0
  0
LINE
  5
2CA
330
90
100
AcDbEntity
  8
1
  6
Continuous
 62
     2
100
AcDbLine
 10
-162.8140653348429
 20
-261.393517944569
 30
0.0
 11
-162.8140653348429
 21
-266.3935179445691
 31
0.0
  0
ENDBLK
  5
92
330
90
100
AcDbEntity
  8
0
100
AcDbBlockEnd
  0
BLOCK
  5
96
330
93
100
AcDbEntity
  8
0
100
AcDbBlockBegin
  2
A4I_CS
 70
     0
 10
-162.8140653348429
 20
-266.3935179445691
 30
0.0
  3
A4I_CS
  1

  0
INSERT
  5
94
330
93
100
AcDbEntity
  8
1
100
AcDbBlockReference
  2
_rahmen
 10
-162.8140653348429
 20
-266.3935179445691
 30
0.0
  0
INSERT
  5
95
330
93
100
AcDbEntity
  8
1
100
AcDbBlockReference
  2
_punkt
 10
-162.8140653348429
 20
-261.393517944569
 30
0.0
  0
ENDBLK
  5
97
330
93
100
AcDbEntity
  8
0
100
AcDbBlockEnd
  0
BLOCK
  5
A0
330
98
100
AcDbEntity
  8
0
100
AcDbBlockBegin
  2
1
 70
     0
 10
0.0
 20
0.0
 30
0.0
  3
1
  1

  0
INSERT
  5
99
330
98
100
AcDbEntity
  8
0
100
AcDbBlockReference
  2
Allg1
 10
-243.00000000001
 20
-192.0000000001641
 30
0.0
 41
2.0
 42
2.0
 43
2.0
  0
INSERT
  5
9A
330
98
100
AcDbEntity
  8
0
100
AcDbBlockReference
  2
Drfsicht2
 10
-336.0
 20
-184.9999996004439
 30
0.0
 41
2.0
 42
2.0
 43
2.0
  0
INSERT
  5
9B
330
98
100
AcDbEntity
  8
0
100
AcDbBlockReference
  2
Rckans2
 10
-223.9999961853028
 20
-125.0008560001799
 30
0.0
 41
2.0
 42
2.0
 43
2.0
  0
INSERT
  5
9C
330
98
100
AcDbEntity
  8
0
100
AcDbBlockReference
  2
SA_Links2
 10
-279.9999980926714
 20
-125.00085600018
 30
0.0
 41
2.0
 42
2.0
 43
2.0
  0
INSERT
  5
9D
330
98
100
AcDbEntity
  8
0
100
AcDbBlockReference
  2
SA_Rechts2
 10
-402.0000019073286
 20
-125.00085600018
 30
0.0
 41
2.0
 42
2.0
 43
2.0
  0
INSERT
  5
9E
330
98
100
AcDbEntity
  8
0
100
AcDbBlockReference
  2
Vordans2
 10
-336.0
 20
-125.0008560001799
 30
0.0
 41
2.0
 42
2.0
 43
2.0
  0
INSERT
  5
9F
330
98
100
AcDbEntity
  8
0
100
AcDbBlockReference
  2
A4I_CS
 10
-162.8140653348429
 20
-266.3935179445691
 30
0.0
  0
ENDBLK
  5
A1
330
98
100
AcDbEntity
  8
0
100
AcDbBlockEnd
  0
BLOCK
  5
E2
330
DB
100
AcDbEntity
  8
0
100
AcDbBlockBegin
  2
*D24
 70
     1
 10
0.0
 20
0.0
 30
0.0
  3
*D24
  1

  0
LINE
  5
DC
330
DB
100
AcDbEntity
  8
1
  6
Continuous
 62
     2
100
AcDbLine
 10
-187.3674247734
 20
-88.49999980021195
 30
0.0
 11
-187.3674247734
 21
-96.49999980021195
 31
0.0
  0
LINE
  5
DD
330
DB
100
AcDbEntity
  8
1
  6
Continuous
 62
     2
100
AcDbLine
 10
-182.0000005722046
 20
-88.49999980021195
 30
0.0
 11
-188.1174247734
 21
-88.49999980021195
 31
0.0
  0
LINE
  5
DE
330
DB
100
AcDbEntity
  8
1
  6
Continuous
 62
     2
100
AcDbLine
 10
-182.0000005722046
 20
-96.49999980021195
 30
0.0
 11
-188.1174247734
 21
-96.49999980021195
 31
0.0
  0
SOLID
  5
DF
330
DB
100
AcDbEntity
  8
1
 62
     2
100
AcDbTrace
 10
-187.1370329026221
 20
-90.24999980021195
 30
0.0
 11
-187.5978166441779
 21
-90.24999980021195
 31
0.0
 12
-187.3674247734
 22
-88.49999980021195
 32
0.0
 13
-187.3674247734
 23
-88.49999980021195
 33
0.0
  0
SOLID
  5
E0
330
DB
100
AcDbEntity
  8
1
 62
     2
100
AcDbTrace
 10
-187.5978166441779
 20
-94.74999980021195
 30
0.0
 11
-187.1370329026221
 21
-94.74999980021195
 31
0.0
 12
-187.3674247734
 22
-96.49999980021195
 32
0.0
 13
-187.3674247734
 23
-96.49999980021195
 33
0.0
  0
MTEXT
  5
E1
330
DB
100
AcDbEntity
  8
1
 62
     3
100
AcDbMText
 10
-188.1174247734
 20
-93.520404056434
 30
0.0
 40
1.75
 41
0.0
 71
     7
 72
     1
  1
8
  7
CONVERTER_11
 11
0.0
 21
1.0
 31
0.0
 73
     1
 44
0.60024009603842
  0
ENDBLK
  5
E3
330
DB
100
AcDbEntity
  8
0
100
AcDbBlockEnd
  0
BLOCK
  5
183
330
17C
100
AcDbEntity
  8
0
100
AcDbBlockBegin
  2
*D25
 70
     1
 10
0.0
 20
0.0
 30
0.0
  3
*D25
  1

  0
LINE
  5
17D
330
17C
100
AcDbEntity
  8
1
  6
Continuous
 62
     2
100
AcDbLine
 10
-187.0000005722046
 20
-51.50085619994805
 30
0.0
 11
-187.0000005722046
 21
-73.50085619994806
 31
0.0
  0
LINE
  5
17E
330
17C
100
AcDbEntity
  8
1
  6
Continuous
 62
     2
100
AcDbLine
 10
-182.0000005722046
 20
-51.50085619994805
 30
0.0
 11
-187.7500005722046
 21
-51.50085619994805
 31
0.0
  0
LINE
  5
17F
330
17C
100
AcDbEntity
  8
1
  6
Continuous
 62
     2
100
AcDbLine
 10
-172.6000005722046
 20
-73.50085619994806
 30
0.0
 11
-187.7500005722046
 21
-73.50085619994806
 31
0.0
  0
SOLID
  5
180
330
17C
100
AcDbEntity
  8
1
 62
     2
100
AcDbTrace
 10
-186.7696087014267
 20
-53.25085619994805
 30
0.0
 11
-187.2303924429825
 21
-53.25085619994805
 31
0.0
 12
-187.0000005722046
 22
-51.50085619994805
 32
0.0
 13
-187.0000005722046
 23
-51.50085619994805
 33
0.0
  0
SOLID
  5
181
330
17C
100
AcDbEntity
  8
1
 62
     2
100
AcDbTrace
 10
-187.2303924429825
 20
-71.75085619994806
 30
0.0
 11
-186.7696087014267
 21
-71.75085619994806
 31
0.0
 12
-187.0000005722046
 22
-73.50085619994806
 32
0.0
 13
-187.0000005722046
 23
-73.50085619994806
 33
0.0
  0
MTEXT
  5
182
330
17C
100
AcDbEntity
  8
1
 62
     3
100
AcDbMText
 10
-187.7500005722046
 20
-64.801098787258
 30
0.0
 40
1.75
 41
0.0
 71
     7
 72
     1
  1
22
  7
CONVERTER_11
 11
0.0
 21
1.0
 31
0.0
 73
     1
 44
0.60024009603842
  0
ENDBLK
  5
184
330
17C
100
AcDbEntity
  8
0
100
AcDbBlockEnd
  0
BLOCK
  5
18E
330
187
100
AcDbEntity
  8
0
100
AcDbBlockBegin
  2
*D26
 70
     1
 10
0.0
 20
0.0
 30
0.0
  3
*D26
  1

  0
LINE
  5
188
330
187
100
AcDbEntity
  8
1
  6
Continuous
 62
     2
100
AcDbLine
 10
-182.0000005722046
 20
-44.63240575450775
 30
0.0
 11
-154.0000005722046
 21
-44.63240575450775
 31
0.0
  0
LINE
  5
189
330
187
100
AcDbEntity
  8
1
  6
Continuous
 62
     2
100
AcDbLine
 10
-182.0000005722046
 20
-54.50085619994805
 30
0.0
 11
-182.0000005722046
 21
-43.88240575450775
 31
0.0
  0
LINE
  5
18A
330
187
100
AcDbEntity
  8
1
  6
Continuous
 62
     2
100
AcDbLine
 10
-154.0000005722046
 20
-51.50085619994805
 30
0.0
 11
-154.0000005722046
 21
-43.88240575450775
 31
0.0
  0
SOLID
  5
18B
330
187
100
AcDbEntity
  8
1
 62
     2
100
AcDbTrace
 10
-180.2500005722046
 20
-44.40201388372981
 30
0.0
 11
-180.2500005722046
 21
-44.86279762528569
 31
0.0
 12
-182.0000005722046
 22
-44.63240575450775
 32
0.0
 13
-182.0000005722046
 23
-44.63240575450775
 33
0.0
  0
SOLID
  5
18C
330
187
100
AcDbEntity
  8
1
 62
     2
100
AcDbTrace
 10
-155.7500005722046
 20
-44.86279762528569
 30
0.0
 11
-155.7500005722046
 21
-44.40201388372981
 31
0.0
 12
-154.0000005722046
 22
-44.63240575450775
 32
0.0
 13
-154.0000005722046
 23
-44.63240575450775
 33
0.0
  0
MTEXT
  5
18D
330
187
100
AcDbEntity
  8
1
 62
     3
100
AcDbMText
 10
-168.5651747166905
 20
-43.88240575450775
 30
0.0
 40
1.75
 41
0.0
 71
     7
 72
     1
  1
28
  7
CONVERTER_11
 11
0.9999999999970619
 21
2.424068405545306E-6
 31
0.0
 73
     1
 44
0.60024009603842
  0
ENDBLK
  5
18F
330
187
100
AcDbEntity
  8
0
100
AcDbBlockEnd
  0
ENDSEC
  0
SECTION
  2
ENTITIES
  0
INSERT
  5
A2
330
1F
100
AcDbEntity
  8
1
100
AcDbBlockReference
  2
1
 10
0.0
 20
0.0
 30
0.0
  0
ENDSEC
  0
SECTION
  2
OBJECTS
  0
DICTIONARY
  5
C
330
0
100
AcDbDictionary
281
     1
  3
ACAD_GROUP
350
D
  3
ACAD_LAYOUT
350
1A
  3
ACAD_MATERIAL
350
3B
  3
ACAD_MLEADERSTYLE
350
2F2
  3
ACAD_MLINESTYLE
350
17
  3
ACAD_PLOTSETTINGS
350
19
  3
ACAD_PLOTSTYLENAME
350
E
  3
ACAD_TABLESTYLE
350
2F1
  3
ACAD_VISUALSTYLE
350
2A
  0
DICTIONARY
  5
D
102
{ACAD_REACTORS
330
C
102
}
330
C
100
AcDbDictionary
281
     1
  0
DICTIONARY
  5
1A
102
{ACAD_REACTORS
330
C
102
}
330
C
100
AcDbDictionary
281
     1
  3
Layout1
350
1E
  3
Layout2
350
26
  3
Model
350
22
  0
DICTIONARY
  5
3B
102
{ACAD_REACTORS
330
C
102
}
330
C
100
AcDbDictionary
281
     1
  3
ByBlock
350
3D
  3
ByLayer
350
3C
  3
Global
350
3E
  0
DICTIONARY
  5
2F2
102
{ACAD_REACTORS
330
C
102
}
330
C
100
AcDbDictionary
281
     1
  0
DICTIONARY
  5
17
102
{ACAD_REACTORS
330
C
102
}
330
C
100
AcDbDictionary
281
     1
  3
Standard
350
18
  0
DICTIONARY
  5
19
102
{ACAD_REACTORS
330
C
102
}
330
C
100
AcDbDictionary
281
     1
  0
ACDBDICTIONARYWDFLT
  5
E
102
{ACAD_REACTORS
330
C
102
}
330
C
100
AcDbDictionary
281
     1
  3
Normal
350
F
100
AcDbDictionaryWithDefault
340
F
  0
DICTIONARY
  5
2F1
102
{ACAD_REACTORS
330
C
102
}
330
C
100
AcDbDictionary
281
     1
  0
DICTIONARY
  5
2A
102
{ACAD_REACTORS
330
C
102
}
330
C
100
AcDbDictionary
281
     1
  3
2dWireframe
350
2F
  3
3D Hidden
350
31
  3
3dWireframe
350
30
  3
Basic
350
32
  3
Brighten
350
36
  3
ColorChange
350
3A
  3
Conceptual
350
34
  3
Dim
350
35
  3
Facepattern
350
39
  3
Flat
350
2B
  3
FlatWithEdges
350
2C
  3
Gouraud
350
2D
  3
GouraudWithEdges
350
2E
  3
Linepattern
350
38
  3
Realistic
350
33
  3
Thicken
350
37
  0
LAYOUT
  5
1E
102
{ACAD_REACTORS
330
1A
102
}
330
1A
100
AcDbPlotSettings
  1

  2
none_device
  4

  6

 40
0.0
 41
0.0
 42
0.0
 43
0.0
 44
0.0
 45
0.0
 46
0.0
 47
0.0
 48
0.0
 49
0.0
140
0.0
141
0.0
142
1.0
143
1.0
 70
   688
 72
     0
 73
     0
 74
     5
  7

 75
    16
 76
     0
 77
     2
 78
   300
147
1.0
148
0.0
149
0.0
100
AcDbLayout
  1
Layout1
 70
     1
 71
     1
 10
0.0
 20
0.0
 11
12.0
 21
9.0
 12
0.0
 22
0.0
 32
0.0
 14
1.00000000000000E+20
 24
1.00000000000000E+20
 34
1.00000000000000E+20
 15
-1.00000000000000E+20
 25
-1.00000000000000E+20
 35
-1.00000000000000E+20
146
0.0
 13
0.0
 23
0.0
 33
0.0
 16
1.0
 26
0.0
 36
0.0
 17
0.0
 27
1.0
 37
0.0
 76
     0
330
1B
  0
LAYOUT
  5
26
102
{ACAD_REACTORS
330
1A
102
}
330
1A
100
AcDbPlotSettings
  1

  2
none_device
  4

  6

 40
0.0
 41
0.0
 42
0.0
 43
0.0
 44
0.0
 45
0.0
 46
0.0
 47
0.0
 48
0.0
 49
0.0
140
0.0
141
0.0
142
1.0
143
1.0
 70
   688
 72
     0
 73
     0
 74
     5
  7

 75
    16
 76
     0
 77
     2
 78
   300
147
1.0
148
0.0
149
0.0
100
AcDbLayout
  1
Layout2
 70
     1
 71
     2
 10
0.0
 20
0.0
 11
0.0
 21
0.0
 12
0.0
 22
0.0
 32
0.0
 14
0.0
 24
0.0
 34
0.0
 15
0.0
 25
0.0
 35
0.0
146
0.0
 13
0.0
 23
0.0
 33
0.0
 16
1.0
 26
0.0
 36
0.0
 17
0.0
 27
1.0
 37
0.0
 76
     0
330
23
  0
LAYOUT
  5
22
102
{ACAD_REACTORS
330
1A
102
}
330
1A
100
AcDbPlotSettings
  1

  2
none_device
  4

  6

 40
0.0
 41
0.0
 42
0.0
 43
0.0
 44
0.0
 45
0.0
 46
0.0
 47
0.0
 48
0.0
 49
0.0
140
0.0
141
0.0
142
1.0
143
1.0
 70
  1712
 72
     0
 73
     0
 74
     0
  7

 75
     0
 76
     0
 77
     2
 78
   300
147
1.0
148
0.0
149
0.0
100
AcDbLayout
  1
Model
 70
     1
 71
     0
 10
0.0
 20
0.0
 11
12.0
 21
9.0
 12
0.0
 22
0.0
 32
0.0
 14
-454.814065334842
 24
-266.3935179445691
 34
0.0
 15
-157.8140653348439
 25
-56.39351794456891
 35
0.0
146
0.0
 13
0.0
 23
0.0
 33
0.0
 16
1.0
 26
0.0
 36
0.0
 17
0.0
 27
1.0
 37
0.0
 76
     0
330
1F
331
29
  0
MATERIAL
  5
3D
102
{ACAD_REACTORS
330
3B
102
}
102
{ACAD_XDICTIONARY
360
2ED
102
}
330
3B
100
AcDbMaterial
  1
ByBlock
  0
MATERIAL
  5
3C
102
{ACAD_REACTORS
330
3B
102
}
102
{ACAD_XDICTIONARY
360
2EB
102
}
330
3B
100
AcDbMaterial
  1
ByLayer
  0
MATERIAL
  5
3E
102
{ACAD_REACTORS
330
3B
102
}
102
{ACAD_XDICTIONARY
360
2EF
102
}
330
3B
100
AcDbMaterial
  1
Global
  0
MLINESTYLE
  5
18
102
{ACAD_REACTORS
330
17
102
}
330
17
100
AcDbMlineStyle
  2
Standard
 70
     0
  3

 62
   256
 51
90.0
 52
90.0
 71
     2
 49
0.5
 62
   256
  6
BYLAYER
 49
-0.5
 62
   256
  6
BYLAYER
  0
ACDBPLACEHOLDER
  5
F
102
{ACAD_REACTORS
330
E
102
}
330
E
  0
VISUALSTYLE
  5
2F
102
{ACAD_REACTORS
330
2A
102
}
102
{ACAD_XDICTIONARY
360
2D3
102
}
330
2A
100
AcDbVisualStyle
  2
2dWireframe
 70
     4
 71
     0
 72
     2
 73
     0
 90
        0
 40
-0.6
 41
-30.0
 62
     5
 63
     7
421
 16777215
 74
     1
 91
        4
 64
     7
 65
   257
 75
     1
175
     1
 42
1.0
 92
        0
 66
   257
 43
1.0
 76
     1
 77
     6
 78
     2
 67
     7
 79
     5
170
     0
171
     0
290
     0
174
     0
 93
        1
 44
0.0
173
     0
291
     0
 45
0.0
1001
ACAD
1000
AcDbSavedByObjectVersion
1070
     0
  0
VISUALSTYLE
  5
31
102
{ACAD_REACTORS
330
2A
102
}
102
{ACAD_XDICTIONARY
360
2D7
102
}
330
2A
100
AcDbVisualStyle
  2
3D Hidden
 70
     6
 71
     1
 72
     2
 73
     2
 90
        0
 40
-0.6
 41
-30.0
 62
     5
 63
     7
421
 16777215
 74
     2
 91
        2
 64
     7
 65
   257
 75
     2
175
     1
 42
40.0
 92
        0
 66
   257
 43
1.0
 76
     1
 77
     6
 78
     2
 67
     7
 79
     3
170
     0
171
     0
290
     0
174
     0
 93
        1
 44
0.0
173
     0
291
     0
 45
0.0
1001
ACAD
1000
AcDbSavedByObjectVersion
1070
     0
  0
VISUALSTYLE
  5
30
102
{ACAD_REACTORS
330
2A
102
}
102
{ACAD_XDICTIONARY
360
2D5
102
}
330
2A
100
AcDbVisualStyle
  2
3dWireframe
 70
     5
 71
     0
 72
     2
 73
     0
 90
        0
 40
-0.6
 41
-30.0
 62
     5
 63
     7
421
 16777215
 74
     1
 91
        4
 64
     7
 65
   257
 75
     1
175
     1
 42
1.0
 92
        0
 66
   257
 43
1.0
 76
     1
 77
     6
 78
     2
 67
     7
 79
     5
170
     0
171
     0
290
     0
174
     0
 93
        1
 44
0.0
173
     0
291
     0
 45
0.0
1001
ACAD
1000
AcDbSavedByObjectVersion
1070
     0
  0
VISUALSTYLE
  5
32
102
{ACAD_REACTORS
330
2A
102
}
102
{ACAD_XDICTIONARY
360
2D9
102
}
330
2A
100
AcDbVisualStyle
  2
Basic
 70
     7
 71
     1
 72
     0
 73
     1
 90
        0
 40
-0.6
 41
-30.0
 62
     5
 63
     7
421
 16777215
 74
     0
 91
        4
 64
     7
 65
   257
 75
     1
175
     1
 42
1.0
 92
        8
 66
     7
 43
1.0
 76
     1
 77
     6
 78
     2
 67
     7
 79
     5
170
     0
171
     0
290
     0
174
     0
 93
        1
 44
0.0
173
     0
291
     1
 45
0.0
1001
ACAD
1000
AcDbSavedByObjectVersion
1070
     0
  0
VISUALSTYLE
  5
36
102
{ACAD_REACTORS
330
2A
102
}
102
{ACAD_XDICTIONARY
360
2E1
102
}
330
2A
100
AcDbVisualStyle
  2
Brighten
 70
    12
 71
     2
 72
     2
 73
     0
 90
        0
 40
-0.6
 41
-30.0
 62
     5
 63
     7
421
 16777215
 74
     1
 91
        4
 64
     7
 65
   257
 75
     1
175
     1
 42
1.0
 92
        8
 66
     7
 43
1.0
 76
     1
 77
     6
 78
     2
 67
     7
 79
     5
170
     0
171
     0
290
     0
174
     0
 93
        1
 44
50.0
173
     0
291
     1
 45
0.0
1001
ACAD
1000
AcDbSavedByObjectVersion
1070
     0
  0
VISUALSTYLE
  5
3A
102
{ACAD_REACTORS
330
2A
102
}
102
{ACAD_XDICTIONARY
360
2E9
102
}
330
2A
100
AcDbVisualStyle
  2
ColorChange
 70
    16
 71
     2
 72
     2
 73
     3
 90
        0
 40
-0.6
 41
-30.0
 62
     5
 63
     8
421
  8421504
 74
     1
 91
        4
 64
     7
 65
   257
 75
     1
175
     1
 42
1.0
 92
        8
 66
     8
424
  8421504
 43
1.0
 76
     1
 77
     6
 78
     2
 67
     7
 79
     5
170
     0
171
     0
290
     0
174
     0
 93
        1
 44
0.0
173
     0
291
     1
 45
0.0
1001
ACAD
1000
AcDbSavedByObjectVersion
1070
     0
  0
VISUALSTYLE
  5
34
102
{ACAD_REACTORS
330
2A
102
}
102
{ACAD_XDICTIONARY
360
2DD
102
}
330
2A
100
AcDbVisualStyle
  2
Conceptual
 70
     9
 71
     3
 72
     2
 73
     0
 90
        0
 40
-0.6
 41
-30.0
 62
     5
 63
     7
421
 16777215
 74
     2
 91
        2
 64
     7
 65
   257
 75
     1
175
     1
 42
40.0
 92
        8
 66
     7
 43
1.0
 76
     1
 77
     6
 78
     2
 67
     7
 79
     3
170
     0
171
     0
290
     0
174
     0
 93
        1
 44
0.0
173
     0
291
     0
 45
0.0
1001
ACAD
1000
AcDbSavedByObjectVersion
1070
     0
  0
VISUALSTYLE
  5
35
102
{ACAD_REACTORS
330
2A
102
}
102
{ACAD_XDICTIONARY
360
2DF
102
}
330
2A
100
AcDbVisualStyle
  2
Dim
 70
    11
 71
     2
 72
     2
 73
     0
 90
        0
 40
-0.6
 41
-30.0
 62
     5
 63
     7
421
 16777215
 74
     1
 91
        4
 64
     7
 65
   257
 75
     1
175
     1
 42
1.0
 92
        8
 66
     7
 43
1.0
 76
     1
 77
     6
 78
     2
 67
     7
 79
     5
170
     0
171
     0
290
     0
174
     0
 93
        1
 44
-50.0
173
     0
291
     1
 45
0.0
1001
ACAD
1000
AcDbSavedByObjectVersion
1070
     0
  0
VISUALSTYLE
  5
39
102
{ACAD_REACTORS
330
2A
102
}
102
{ACAD_XDICTIONARY
360
2E7
102
}
330
2A
100
AcDbVisualStyle
  2
Facepattern
 70
    15
 71
     2
 72
     2
 73
     0
 90
        0
 40
-0.6
 41
-30.0
 62
     5
 63
     7
421
 16777215
 74
     1
 91
        4
 64
     7
 65
   257
 75
     1
175
     1
 42
1.0
 92
        8
 66
     7
 43
1.0
 76
     1
 77
     6
 78
     2
 67
     7
 79
     5
170
     0
171
     0
290
     0
174
     0
 93
        1
 44
0.0
173
     0
291
     1
 45
0.0
1001
ACAD
1000
AcDbSavedByObjectVersion
1070
     0
  0
VISUALSTYLE
  5
2B
102
{ACAD_REACTORS
330
2A
102
}
102
{ACAD_XDICTIONARY
360
2CB
102
}
330
2A
100
AcDbVisualStyle
  2
Flat
 70
     0
 71
     2
 72
     1
 73
     1
 90
        2
 40
-0.6
 41
30.0
 62
     5
 63
     7
421
 16777215
 74
     0
 91
        4
 64
     7
 65
   257
 75
     1
175
     1
 42
1.0
 92
        8
 66
     7
 43
1.0
 76
     1
 77
     6
 78
     2
 67
     7
 79
     5
170
     0
171
     0
290
     0
174
     0
 93
       13
 44
0.0
173
     0
291
     1
 45
0.0
1001
ACAD
1000
AcDbSavedByObjectVersion
1070
     0
  0
VISUALSTYLE
  5
2C
102
{ACAD_REACTORS
330
2A
102
}
102
{ACAD_XDICTIONARY
360
2CD
102
}
330
2A
100
AcDbVisualStyle
  2
FlatWithEdges
 70
     1
 71
     2
 72
     1
 73
     1
 90
        2
 40
-0.6
 41
30.0
 62
     5
 63
     7
421
 16777215
 74
     1
 91
        4
 64
     7
 65
   257
 75
     1
175
     1
 42
1.0
 92
        0
 66
   257
 43
1.0
 76
     1
 77
     6
 78
     2
 67
     7
 79
     5
170
     0
171
     0
290
     0
174
     0
 93
       13
 44
0.0
173
     0
291
     1
 45
0.0
1001
ACAD
1000
AcDbSavedByObjectVersion
1070
     0
  0
VISUALSTYLE
  5
2D
102
{ACAD_REACTORS
330
2A
102
}
102
{ACAD_XDICTIONARY
360
2CF
102
}
330
2A
100
AcDbVisualStyle
  2
Gouraud
 70
     2
 71
     2
 72
     2
 73
     1
 90
        2
 40
-0.6
 41
30.0
 62
     5
 63
     7
421
 16777215
 74
     0
 91
        4
 64
     7
 65
   257
 75
     1
175
     1
 42
1.0
 92
        0
 66
     7
 43
1.0
 76
     1
 77
     6
 78
     2
 67
     7
 79
     5
170
     0
171
     0
290
     0
174
     0
 93
       13
 44
0.0
173
     0
291
     1
 45
0.0
1001
ACAD
1000
AcDbSavedByObjectVersion
1070
     0
  0
VISUALSTYLE
  5
2E
102
{ACAD_REACTORS
330
2A
102
}
102
{ACAD_XDICTIONARY
360
2D1
102
}
330
2A
100
AcDbVisualStyle
  2
GouraudWithEdges
 70
     3
 71
     2
 72
     2
 73
     1
 90
        2
 40
-0.6
 41
30.0
 62
     5
 63
     7
421
 16777215
 74
     1
 91
        4
 64
     7
 65
   257
 75
     1
175
     1
 42
1.0
 92
        0
 66
   257
 43
1.0
 76
     1
 77
     6
 78
     2
 67
     7
 79
     5
170
     0
171
     0
290
     0
174
     0
 93
       13
 44
0.0
173
     0
291
     1
 45
0.0
1001
ACAD
1000
AcDbSavedByObjectVersion
1070
     0
  0
VISUALSTYLE
  5
38
102
{ACAD_REACTORS
330
2A
102
}
102
{ACAD_XDICTIONARY
360
2E5
102
}
330
2A
100
AcDbVisualStyle
  2
Linepattern
 70
    14
 71
     2
 72
     2
 73
     0
 90
        0
 40
-0.6
 41
-30.0
 62
     5
 63
     7
421
 16777215
 74
     1
 91
        4
 64
     7
 65
   257
 75
     7
175
     7
 42
1.0
 92
        8
 66
     7
 43
1.0
 76
     1
 77
     6
 78
     2
 67
     7
 79
     5
170
     0
171
     0
290
     0
174
     0
 93
        1
 44
0.0
173
     0
291
     1
 45
0.0
1001
ACAD
1000
AcDbSavedByObjectVersion
1070
     0
  0
VISUALSTYLE
  5
33
102
{ACAD_REACTORS
330
2A
102
}
102
{ACAD_XDICTIONARY
360
2DB
102
}
330
2A
100
AcDbVisualStyle
  2
Realistic
 70
     8
 71
     2
 72
     2
 73
     0
 90
        0
 40
-0.6
 41
-30.0
 62
     5
 63
     7
421
 16777215
 74
     1
 91
        0
 64
     7
 65
   257
 75
     1
175
     1
 42
1.0
 92
        8
 66
     8
424
  7895160
 43
1.0
 76
     1
 77
     6
 78
     2
 67
     7
 79
     5
170
     0
171
     0
290
     0
174
     0
 93
       13
 44
0.0
173
     0
291
     0
 45
0.0
1001
ACAD
1000
AcDbSavedByObjectVersion
1070
     0
  0
VISUALSTYLE
  5
37
102
{ACAD_REACTORS
330
2A
102
}
102
{ACAD_XDICTIONARY
360
2E3
102
}
330
2A
100
AcDbVisualStyle
  2
Thicken
 70
    13
 71
     2
 72
     2
 73
     0
 90
        0
 40
-0.6
 41
-30.0
 62
     5
 63
     7
421
 16777215
 74
     1
 91
        4
 64
     7
 65
   257
 75
     1
175
     1
 42
1.0
 92
       12
 66
     7
 43
1.0
 76
     1
 77
     6
 78
     2
 67
     7
 79
     5
170
     0
171
     0
290
     0
174
     0
 93
        1
 44
0.0
173
     0
291
     1
 45
0.0
1001
ACAD
1000
AcDbSavedByObjectVersion
1070
     0
  0
DICTIONARY
  5
2ED
330
3D
100
AcDbDictionary
280
     1
281
     1
  3
ACAD_XREC_ROUNDTRIP
360
2EE
  0
DICTIONARY
  5
2EB
330
3C
100
AcDbDictionary
280
     1
281
     1
  3
ACAD_XREC_ROUNDTRIP
360
2EC
  0
DICTIONARY
  5
2EF
330
3E
100
AcDbDictionary
280
     1
281
     1
  3
ACAD_XREC_ROUNDTRIP
360
2F0
  0
DICTIONARY
  5
2D3
330
2F
100
AcDbDictionary
280
     1
281
     1
  3
ACAD_XREC_ROUNDTRIP
360
2D4
  0
DICTIONARY
  5
2D7
330
31
100
AcDbDictionary
280
     1
281
     1
  3
ACAD_XREC_ROUNDTRIP
360
2D8
  0
DICTIONARY
  5
2D5
330
30
100
AcDbDictionary
280
     1
281
     1
  3
ACAD_XREC_ROUNDTRIP
360
2D6
  0
DICTIONARY
  5
2D9
330
32
100
AcDbDictionary
280
     1
281
     1
  3
ACAD_XREC_ROUNDTRIP
360
2DA
  0
DICTIONARY
  5
2E1
330
36
100
AcDbDictionary
280
     1
281
     1
  3
ACAD_XREC_ROUNDTRIP
360
2E2
  0
DICTIONARY
  5
2E9
330
3A
100
AcDbDictionary
280
     1
281
     1
  3
ACAD_XREC_ROUNDTRIP
360
2EA
  0
DICTIONARY
  5
2DD
330
34
100
AcDbDictionary
280
     1
281
     1
  3
ACAD_XREC_ROUNDTRIP
360
2DE
  0
DICTIONARY
  5
2DF
330
35
100
AcDbDictionary
280
     1
281
     1
  3
ACAD_XREC_ROUNDTRIP
360
2E0
  0
DICTIONARY
  5
2E7
330
39
100
AcDbDictionary
280
     1
281
     1
  3
ACAD_XREC_ROUNDTRIP
360
2E8
  0
DICTIONARY
  5
2CB
330
2B
100
AcDbDictionary
280
     1
281
     1
  3
ACAD_XREC_ROUNDTRIP
360
2CC
  0
DICTIONARY
  5
2CD
330
2C
100
AcDbDictionary
280
     1
281
     1
  3
ACAD_XREC_ROUNDTRIP
360
2CE
  0
DICTIONARY
  5
2CF
330
2D
100
AcDbDictionary
280
     1
281
     1
  3
ACAD_XREC_ROUNDTRIP
360
2D0
  0
DICTIONARY
  5
2D1
330
2E
100
AcDbDictionary
280
     1
281
     1
  3
ACAD_XREC_ROUNDTRIP
360
2D2
  0
DICTIONARY
  5
2E5
330
38
100
AcDbDictionary
280
     1
281
     1
  3
ACAD_XREC_ROUNDTRIP
360
2E6
  0
DICTIONARY
  5
2DB
330
33
100
AcDbDictionary
280
     1
281
     1
  3
ACAD_XREC_ROUNDTRIP
360
2DC
  0
DICTIONARY
  5
2E3
330
37
100
AcDbDictionary
280
     1
281
     1
  3
ACAD_XREC_ROUNDTRIP
360
2E4
  0
XRECORD
  5
2EE
102
{ACAD_REACTORS
330
2ED
102
}
330
2ED
100
AcDbXrecord
280
     1
102
MATERIAL
148
0.0
149
0.0
149
0.0
 93
        0
 94
      127
282
     0
 72
     1
 77
     1
171
     1
175
     1
179
     1
273
     0
  0
XRECORD
  5
2EC
102
{ACAD_REACTORS
330
2EB
102
}
330
2EB
100
AcDbXrecord
280
     1
102
MATERIAL
148
0.0
149
0.0
149
0.0
 93
        0
 94
      127
282
     0
 72
     1
 77
     1
171
     1
175
     1
179
     1
273
     0
  0
XRECORD
  5
2F0
102
{ACAD_REACTORS
330
2EF
102
}
330
2EF
100
AcDbXrecord
280
     1
102
MATERIAL
148
0.0
149
0.0
149
0.0
 93
        0
 94
      127
282
     0
 72
     1
 77
     1
171
     1
175
     1
179
     1
273
     0
  0
XRECORD
  5
2D4
102
{ACAD_REACTORS
330
2D3
102
}
330
2D3
100
AcDbXrecord
280
     1
102
RTVSPropertyOp0
 70
     1
102
RTVSPropertyOp1
 70
     1
102
RTVSPropertyOp2
 70
     1
102
RTVSPropertyOp3
 70
     1
102
RTVSPropertyOp4
 70
     1
102
RTVSPropertyOp5
 70
     1
102
RTVSPropertyOp6
 70
     1
102
RTVSPropertyOp7
 70
     1
102
RTVSPropertyOp8
 70
     1
102
RTVSPropertyOp9
 70
     1
102
RTVSPropertyOp10
 70
     1
102
RTVSPropertyOp11
 70
     1
102
RTVSPropertyOp12
 70
     1
102
RTVSPropertyOp13
 70
     1
102
RTVSPropertyOp14
 70
     1
102
RTVSPropertyOp15
 70
     1
102
RTVSPropertyOp16
 70
     1
102
RTVSPropertyOp17
 70
     1
102
RTVSPropertyOp18
 70
     1
102
RTVSPropertyOp19
 70
     1
102
RTVSPropertyOp20
 70
     1
102
RTVSPropertyOp21
 70
     1
102
RTVSPropertyOp22
 70
     1
102
RTVSPropertyOp23
 70
     1
102
RTVSPropertyOp24
 70
     1
102
RTVSPropertyOp25
 70
     1
102
RTVSPropertyOp26
 70
     1
102
RTVSPropertyOp27
 70
     1
102
RTVSPropertyOp28
 70
     1
102
RTVSPropertyOp29
 70
     1
102
RTVSPropertyOp30
 70
     1
102
RTVSPropertyOp31
 70
     1
102
RTVSPropertyOp32
 70
     1
  0
XRECORD
  5
2D8
102
{ACAD_REACTORS
330
2D7
102
}
330
2D7
100
AcDbXrecord
280
     1
102
RTVSPropertyOp0
 70
     1
102
RTVSPropertyOp1
 70
     1
102
RTVSPropertyOp2
 70
     1
102
RTVSPropertyOp3
 70
     1
102
RTVSPropertyOp4
 70
     1
102
RTVSPropertyOp5
 70
     1
102
RTVSPropertyOp6
 70
     1
102
RTVSPropertyOp7
 70
     1
102
RTVSPropertyOp8
 70
     1
102
RTVSPropertyOp9
 70
     1
102
RTVSPropertyOp10
 70
     1
102
RTVSPropertyOp11
 70
     1
102
RTVSPropertyOp12
 70
     1
102
RTVSPropertyOp13
 70
     1
102
RTVSPropertyOp14
 70
     1
102
RTVSPropertyOp15
 70
     1
102
RTVSPropertyOp16
 70
     1
102
RTVSPropertyOp17
 70
     1
102
RTVSPropertyOp18
 70
     1
102
RTVSPropertyOp19
 70
     1
102
RTVSPropertyOp20
 70
     1
102
RTVSPropertyOp21
 70
     1
102
RTVSPropertyOp22
 70
     1
102
RTVSPropertyOp23
 70
     1
102
RTVSPropertyOp24
 70
     1
102
RTVSPropertyOp25
 70
     1
102
RTVSPropertyOp26
 70
     1
102
RTVSPropertyOp27
 70
     1
102
RTVSPropertyOp28
 70
     1
102
RTVSPropertyOp29
 70
     1
102
RTVSPropertyOp30
 70
     1
102
RTVSPropertyOp31
 70
     1
102
RTVSPropertyOp32
 70
     1
  0
XRECORD
  5
2D6
102
{ACAD_REACTORS
330
2D5
102
}
330
2D5
100
AcDbXrecord
280
     1
102
RTVSPropertyOp0
 70
     1
102
RTVSPropertyOp1
 70
     1
102
RTVSPropertyOp2
 70
     1
102
RTVSPropertyOp3
 70
     1
102
RTVSPropertyOp4
 70
     1
102
RTVSPropertyOp5
 70
     1
102
RTVSPropertyOp6
 70
     1
102
RTVSPropertyOp7
 70
     1
102
RTVSPropertyOp8
 70
     1
102
RTVSPropertyOp9
 70
     1
102
RTVSPropertyOp10
 70
     1
102
RTVSPropertyOp11
 70
     1
102
RTVSPropertyOp12
 70
     1
102
RTVSPropertyOp13
 70
     1
102
RTVSPropertyOp14
 70
     1
102
RTVSPropertyOp15
 70
     1
102
RTVSPropertyOp16
 70
     1
102
RTVSPropertyOp17
 70
     1
102
RTVSPropertyOp18
 70
     1
102
RTVSPropertyOp19
 70
     1
102
RTVSPropertyOp20
 70
     1
102
RTVSPropertyOp21
 70
     1
102
RTVSPropertyOp22
 70
     1
102
RTVSPropertyOp23
 70
     1
102
RTVSPropertyOp24
 70
     1
102
RTVSPropertyOp25
 70
     1
102
RTVSPropertyOp26
 70
     1
102
RTVSPropertyOp27
 70
     1
102
RTVSPropertyOp28
 70
     1
102
RTVSPropertyOp29
 70
     1
102
RTVSPropertyOp30
 70
     1
102
RTVSPropertyOp31
 70
     1
102
RTVSPropertyOp32
 70
     1
  0
XRECORD
  5
2DA
102
{ACAD_REACTORS
330
2D9
102
}
330
2D9
100
AcDbXrecord
280
     1
102
RTVSPropertyOp0
 70
     1
102
RTVSPropertyOp1
 70
     1
102
RTVSPropertyOp2
 70
     1
102
RTVSPropertyOp3
 70
     1
102
RTVSPropertyOp4
 70
     1
102
RTVSPropertyOp5
 70
     1
102
RTVSPropertyOp6
 70
     1
102
RTVSPropertyOp7
 70
     1
102
RTVSPropertyOp8
 70
     1
102
RTVSPropertyOp9
 70
     1
102
RTVSPropertyOp10
 70
     1
102
RTVSPropertyOp11
 70
     1
102
RTVSPropertyOp12
 70
     1
102
RTVSPropertyOp13
 70
     1
102
RTVSPropertyOp14
 70
     1
102
RTVSPropertyOp15
 70
     1
102
RTVSPropertyOp16
 70
     1
102
RTVSPropertyOp17
 70
     1
102
RTVSPropertyOp18
 70
     1
102
RTVSPropertyOp19
 70
     1
102
RTVSPropertyOp20
 70
     1
102
RTVSPropertyOp21
 70
     1
102
RTVSPropertyOp22
 70
     1
102
RTVSPropertyOp23
 70
     1
102
RTVSPropertyOp24
 70
     1
102
RTVSPropertyOp25
 70
     1
102
RTVSPropertyOp26
 70
     1
102
RTVSPropertyOp27
 70
     1
102
RTVSPropertyOp28
 70
     1
102
RTVSPropertyOp29
 70
     1
102
RTVSPropertyOp30
 70
     1
102
RTVSPropertyOp31
 70
     1
102
RTVSPropertyOp32
 70
     1
  0
XRECORD
  5
2E2
102
{ACAD_REACTORS
330
2E1
102
}
330
2E1
100
AcDbXrecord
280
     1
102
RTVSPropertyOp0
 70
     1
102
RTVSPropertyOp1
 70
     1
102
RTVSPropertyOp2
 70
     1
102
RTVSPropertyOp3
 70
     1
102
RTVSPropertyOp4
 70
     1
102
RTVSPropertyOp5
 70
     1
102
RTVSPropertyOp6
 70
     1
102
RTVSPropertyOp7
 70
     1
102
RTVSPropertyOp8
 70
     1
102
RTVSPropertyOp9
 70
     1
102
RTVSPropertyOp10
 70
     1
102
RTVSPropertyOp11
 70
     1
102
RTVSPropertyOp12
 70
     1
102
RTVSPropertyOp13
 70
     1
102
RTVSPropertyOp14
 70
     1
102
RTVSPropertyOp15
 70
     1
102
RTVSPropertyOp16
 70
     1
102
RTVSPropertyOp17
 70
     1
102
RTVSPropertyOp18
 70
     1
102
RTVSPropertyOp19
 70
     1
102
RTVSPropertyOp20
 70
     1
102
RTVSPropertyOp21
 70
     1
102
RTVSPropertyOp22
 70
     1
102
RTVSPropertyOp23
 70
     1
102
RTVSPropertyOp24
 70
     1
102
RTVSPropertyOp25
 70
     1
102
RTVSPropertyOp26
 70
     1
102
RTVSPropertyOp27
 70
     1
102
RTVSPropertyOp28
 70
     1
102
RTVSPropertyOp29
 70
     1
102
RTVSPropertyOp30
 70
     1
102
RTVSPropertyOp31
 70
     1
102
RTVSPropertyOp32
 70
     1
  0
XRECORD
  5
2EA
102
{ACAD_REACTORS
330
2E9
102
}
330
2E9
100
AcDbXrecord
280
     1
102
RTVSPropertyOp0
 70
     1
102
RTVSPropertyOp1
 70
     1
102
RTVSPropertyOp2
 70
     1
102
RTVSPropertyOp3
 70
     1
102
RTVSPropertyOp4
 70
     1
102
RTVSPropertyOp5
 70
     1
102
RTVSPropertyOp6
 70
     1
102
RTVSPropertyOp7
 70
     1
102
RTVSPropertyOp8
 70
     1
102
RTVSPropertyOp9
 70
     1
102
RTVSPropertyOp10
 70
     1
102
RTVSPropertyOp11
 70
     1
102
RTVSPropertyOp12
 70
     1
102
RTVSPropertyOp13
 70
     1
102
RTVSPropertyOp14
 70
     1
102
RTVSPropertyOp15
 70
     1
102
RTVSPropertyOp16
 70
     1
102
RTVSPropertyOp17
 70
     1
102
RTVSPropertyOp18
 70
     1
102
RTVSPropertyOp19
 70
     1
102
RTVSPropertyOp20
 70
     1
102
RTVSPropertyOp21
 70
     1
102
RTVSPropertyOp22
 70
     1
102
RTVSPropertyOp23
 70
     1
102
RTVSPropertyOp24
 70
     1
102
RTVSPropertyOp25
 70
     1
102
RTVSPropertyOp26
 70
     1
102
RTVSPropertyOp27
 70
     1
102
RTVSPropertyOp28
 70
     1
102
RTVSPropertyOp29
 70
     1
102
RTVSPropertyOp30
 70
     1
102
RTVSPropertyOp31
 70
     1
102
RTVSPropertyOp32
 70
     1
  0
XRECORD
  5
2DE
102
{ACAD_REACTORS
330
2DD
102
}
330
2DD
100
AcDbXrecord
280
     1
102
RTVSPropertyOp0
 70
     1
102
RTVSPropertyOp1
 70
     1
102
RTVSPropertyOp2
 70
     1
102
RTVSPropertyOp3
 70
     1
102
RTVSPropertyOp4
 70
     1
102
RTVSPropertyOp5
 70
     1
102
RTVSPropertyOp6
 70
     1
102
RTVSPropertyOp7
 70
     1
102
RTVSPropertyOp8
 70
     1
102
RTVSPropertyOp9
 70
     1
102
RTVSPropertyOp10
 70
     1
102
RTVSPropertyOp11
 70
     1
102
RTVSPropertyOp12
 70
     1
102
RTVSPropertyOp13
 70
     1
102
RTVSPropertyOp14
 70
     1
102
RTVSPropertyOp15
 70
     1
102
RTVSPropertyOp16
 70
     1
102
RTVSPropertyOp17
 70
     1
102
RTVSPropertyOp18
 70
     1
102
RTVSPropertyOp19
 70
     1
102
RTVSPropertyOp20
 70
     1
102
RTVSPropertyOp21
 70
     1
102
RTVSPropertyOp22
 70
     1
102
RTVSPropertyOp23
 70
     1
102
RTVSPropertyOp24
 70
     1
102
RTVSPropertyOp25
 70
     1
102
RTVSPropertyOp26
 70
     1
102
RTVSPropertyOp27
 70
     1
102
RTVSPropertyOp28
 70
     1
102
RTVSPropertyOp29
 70
     1
102
RTVSPropertyOp30
 70
     1
102
RTVSPropertyOp31
 70
     1
102
RTVSPropertyOp32
 70
     1
  0
XRECORD
  5
2E0
102
{ACAD_REACTORS
330
2DF
102
}
330
2DF
100
AcDbXrecord
280
     1
102
RTVSPropertyOp0
 70
     1
102
RTVSPropertyOp1
 70
     1
102
RTVSPropertyOp2
 70
     1
102
RTVSPropertyOp3
 70
     1
102
RTVSPropertyOp4
 70
     1
102
RTVSPropertyOp5
 70
     1
102
RTVSPropertyOp6
 70
     1
102
RTVSPropertyOp7
 70
     1
102
RTVSPropertyOp8
 70
     1
102
RTVSPropertyOp9
 70
     1
102
RTVSPropertyOp10
 70
     1
102
RTVSPropertyOp11
 70
     1
102
RTVSPropertyOp12
 70
     1
102
RTVSPropertyOp13
 70
     1
102
RTVSPropertyOp14
 70
     1
102
RTVSPropertyOp15
 70
     1
102
RTVSPropertyOp16
 70
     1
102
RTVSPropertyOp17
 70
     1
102
RTVSPropertyOp18
 70
     1
102
RTVSPropertyOp19
 70
     1
102
RTVSPropertyOp20
 70
     1
102
RTVSPropertyOp21
 70
     1
102
RTVSPropertyOp22
 70
     1
102
RTVSPropertyOp23
 70
     1
102
RTVSPropertyOp24
 70
     1
102
RTVSPropertyOp25
 70
     1
102
RTVSPropertyOp26
 70
     1
102
RTVSPropertyOp27
 70
     1
102
RTVSPropertyOp28
 70
     1
102
RTVSPropertyOp29
 70
     1
102
RTVSPropertyOp30
 70
     1
102
RTVSPropertyOp31
 70
     1
102
RTVSPropertyOp32
 70
     1
  0
XRECORD
  5
2E8
102
{ACAD_REACTORS
330
2E7
102
}
330
2E7
100
AcDbXrecord
280
     1
102
RTVSPropertyOp0
 70
     1
102
RTVSPropertyOp1
 70
     1
102
RTVSPropertyOp2
 70
     1
102
RTVSPropertyOp3
 70
     1
102
RTVSPropertyOp4
 70
     1
102
RTVSPropertyOp5
 70
     1
102
RTVSPropertyOp6
 70
     1
102
RTVSPropertyOp7
 70
     1
102
RTVSPropertyOp8
 70
     1
102
RTVSPropertyOp9
 70
     1
102
RTVSPropertyOp10
 70
     1
102
RTVSPropertyOp11
 70
     1
102
RTVSPropertyOp12
 70
     1
102
RTVSPropertyOp13
 70
     1
102
RTVSPropertyOp14
 70
     1
102
RTVSPropertyOp15
 70
     1
102
RTVSPropertyOp16
 70
     1
102
RTVSPropertyOp17
 70
     1
102
RTVSPropertyOp18
 70
     1
102
RTVSPropertyOp19
 70
     1
102
RTVSPropertyOp20
 70
     1
102
RTVSPropertyOp21
 70
     1
102
RTVSPropertyOp22
 70
     1
102
RTVSPropertyOp23
 70
     1
102
RTVSPropertyOp24
 70
     1
102
RTVSPropertyOp25
 70
     1
102
RTVSPropertyOp26
 70
     1
102
RTVSPropertyOp27
 70
     1
102
RTVSPropertyOp28
 70
     1
102
RTVSPropertyOp29
 70
     1
102
RTVSPropertyOp30
 70
     1
102
RTVSPropertyOp31
 70
     1
102
RTVSPropertyOp32
 70
     1
  0
XRECORD
  5
2CC
102
{ACAD_REACTORS
330
2CB
102
}
330
2CB
100
AcDbXrecord
280
     1
102
RTVSPropertyOp0
 70
     1
102
RTVSPropertyOp1
 70
     1
102
RTVSPropertyOp2
 70
     1
102
RTVSPropertyOp3
 70
     1
102
RTVSPropertyOp4
 70
     1
102
RTVSPropertyOp5
 70
     1
102
RTVSPropertyOp6
 70
     1
102
RTVSPropertyOp7
 70
     1
102
RTVSPropertyOp8
 70
     1
102
RTVSPropertyOp9
 70
     1
102
RTVSPropertyOp10
 70
     1
102
RTVSPropertyOp11
 70
     1
102
RTVSPropertyOp12
 70
     1
102
RTVSPropertyOp13
 70
     1
102
RTVSPropertyOp14
 70
     1
102
RTVSPropertyOp15
 70
     1
102
RTVSPropertyOp16
 70
     1
102
RTVSPropertyOp17
 70
     1
102
RTVSPropertyOp18
 70
     1
102
RTVSPropertyOp19
 70
     1
102
RTVSPropertyOp20
 70
     1
102
RTVSPropertyOp21
 70
     1
102
RTVSPropertyOp22
 70
     1
102
RTVSPropertyOp23
 70
     1
102
RTVSPropertyOp24
 70
     1
102
RTVSPropertyOp25
 70
     1
102
RTVSPropertyOp26
 70
     1
102
RTVSPropertyOp27
 70
     1
102
RTVSPropertyOp28
 70
     1
102
RTVSPropertyOp29
 70
     1
102
RTVSPropertyOp30
 70
     1
102
RTVSPropertyOp31
 70
     1
102
RTVSPropertyOp32
 70
     1
  0
XRECORD
  5
2CE
102
{ACAD_REACTORS
330
2CD
102
}
330
2CD
100
AcDbXrecord
280
     1
102
RTVSPropertyOp0
 70
     1
102
RTVSPropertyOp1
 70
     1
102
RTVSPropertyOp2
 70
     1
102
RTVSPropertyOp3
 70
     1
102
RTVSPropertyOp4
 70
     1
102
RTVSPropertyOp5
 70
     1
102
RTVSPropertyOp6
 70
     1
102
RTVSPropertyOp7
 70
     1
102
RTVSPropertyOp8
 70
     1
102
RTVSPropertyOp9
 70
     1
102
RTVSPropertyOp10
 70
     1
102
RTVSPropertyOp11
 70
     1
102
RTVSPropertyOp12
 70
     1
102
RTVSPropertyOp13
 70
     1
102
RTVSPropertyOp14
 70
     1
102
RTVSPropertyOp15
 70
     1
102
RTVSPropertyOp16
 70
     1
102
RTVSPropertyOp17
 70
     1
102
RTVSPropertyOp18
 70
     1
102
RTVSPropertyOp19
 70
     1
102
RTVSPropertyOp20
 70
     1
102
RTVSPropertyOp21
 70
     1
102
RTVSPropertyOp22
 70
     1
102
RTVSPropertyOp23
 70
     1
102
RTVSPropertyOp24
 70
     1
102
RTVSPropertyOp25
 70
     1
102
RTVSPropertyOp26
 70
     1
102
RTVSPropertyOp27
 70
     1
102
RTVSPropertyOp28
 70
     1
102
RTVSPropertyOp29
 70
     1
102
RTVSPropertyOp30
 70
     1
102
RTVSPropertyOp31
 70
     1
102
RTVSPropertyOp32
 70
     1
  0
XRECORD
  5
2D0
102
{ACAD_REACTORS
330
2CF
102
}
330
2CF
100
AcDbXrecord
280
     1
102
RTVSPropertyOp0
 70
     1
102
RTVSPropertyOp1
 70
     1
102
RTVSPropertyOp2
 70
     1
102
RTVSPropertyOp3
 70
     1
102
RTVSPropertyOp4
 70
     1
102
RTVSPropertyOp5
 70
     1
102
RTVSPropertyOp6
 70
     1
102
RTVSPropertyOp7
 70
     1
102
RTVSPropertyOp8
 70
     1
102
RTVSPropertyOp9
 70
     1
102
RTVSPropertyOp10
 70
     1
102
RTVSPropertyOp11
 70
     1
102
RTVSPropertyOp12
 70
     1
102
RTVSPropertyOp13
 70
     1
102
RTVSPropertyOp14
 70
     1
102
RTVSPropertyOp15
 70
     1
102
RTVSPropertyOp16
 70
     1
102
RTVSPropertyOp17
 70
     1
102
RTVSPropertyOp18
 70
     1
102
RTVSPropertyOp19
 70
     1
102
RTVSPropertyOp20
 70
     1
102
RTVSPropertyOp21
 70
     1
102
RTVSPropertyOp22
 70
     1
102
RTVSPropertyOp23
 70
     1
102
RTVSPropertyOp24
 70
     1
102
RTVSPropertyOp25
 70
     1
102
RTVSPropertyOp26
 70
     1
102
RTVSPropertyOp27
 70
     1
102
RTVSPropertyOp28
 70
     1
102
RTVSPropertyOp29
 70
     1
102
RTVSPropertyOp30
 70
     1
102
RTVSPropertyOp31
 70
     1
102
RTVSPropertyOp32
 70
     1
  0
XRECORD
  5
2D2
102
{ACAD_REACTORS
330
2D1
102
}
330
2D1
100
AcDbXrecord
280
     1
102
RTVSPropertyOp0
 70
     1
102
RTVSPropertyOp1
 70
     1
102
RTVSPropertyOp2
 70
     1
102
RTVSPropertyOp3
 70
     1
102
RTVSPropertyOp4
 70
     1
102
RTVSPropertyOp5
 70
     1
102
RTVSPropertyOp6
 70
     1
102
RTVSPropertyOp7
 70
     1
102
RTVSPropertyOp8
 70
     1
102
RTVSPropertyOp9
 70
     1
102
RTVSPropertyOp10
 70
     1
102
RTVSPropertyOp11
 70
     1
102
RTVSPropertyOp12
 70
     1
102
RTVSPropertyOp13
 70
     1
102
RTVSPropertyOp14
 70
     1
102
RTVSPropertyOp15
 70
     1
102
RTVSPropertyOp16
 70
     1
102
RTVSPropertyOp17
 70
     1
102
RTVSPropertyOp18
 70
     1
102
RTVSPropertyOp19
 70
     1
102
RTVSPropertyOp20
 70
     1
102
RTVSPropertyOp21
 70
     1
102
RTVSPropertyOp22
 70
     1
102
RTVSPropertyOp23
 70
     1
102
RTVSPropertyOp24
 70
     1
102
RTVSPropertyOp25
 70
     1
102
RTVSPropertyOp26
 70
     1
102
RTVSPropertyOp27
 70
     1
102
RTVSPropertyOp28
 70
     1
102
RTVSPropertyOp29
 70
     1
102
RTVSPropertyOp30
 70
     1
102
RTVSPropertyOp31
 70
     1
102
RTVSPropertyOp32
 70
     1
  0
XRECORD
  5
2E6
102
{ACAD_REACTORS
330
2E5
102
}
330
2E5
100
AcDbXrecord
280
     1
102
RTVSPropertyOp0
 70
     1
102
RTVSPropertyOp1
 70
     1
102
RTVSPropertyOp2
 70
     1
102
RTVSPropertyOp3
 70
     1
102
RTVSPropertyOp4
 70
     1
102
RTVSPropertyOp5
 70
     1
102
RTVSPropertyOp6
 70
     1
102
RTVSPropertyOp7
 70
     1
102
RTVSPropertyOp8
 70
     1
102
RTVSPropertyOp9
 70
     1
102
RTVSPropertyOp10
 70
     1
102
RTVSPropertyOp11
 70
     1
102
RTVSPropertyOp12
 70
     1
102
RTVSPropertyOp13
 70
     1
102
RTVSPropertyOp14
 70
     1
102
RTVSPropertyOp15
 70
     1
102
RTVSPropertyOp16
 70
     1
102
RTVSPropertyOp17
 70
     1
102
RTVSPropertyOp18
 70
     1
102
RTVSPropertyOp19
 70
     1
102
RTVSPropertyOp20
 70
     1
102
RTVSPropertyOp21
 70
     1
102
RTVSPropertyOp22
 70
     1
102
RTVSPropertyOp23
 70
     1
102
RTVSPropertyOp24
 70
     1
102
RTVSPropertyOp25
 70
     1
102
RTVSPropertyOp26
 70
     1
102
RTVSPropertyOp27
 70
     1
102
RTVSPropertyOp28
 70
     1
102
RTVSPropertyOp29
 70
     1
102
RTVSPropertyOp30
 70
     1
102
RTVSPropertyOp31
 70
     1
102
RTVSPropertyOp32
 70
     1
  0
XRECORD
  5
2DC
102
{ACAD_REACTORS
330
2DB
102
}
330
2DB
100
AcDbXrecord
280
     1
102
RTVSPropertyOp0
 70
     1
102
RTVSPropertyOp1
 70
     1
102
RTVSPropertyOp2
 70
     1
102
RTVSPropertyOp3
 70
     1
102
RTVSPropertyOp4
 70
     1
102
RTVSPropertyOp5
 70
     1
102
RTVSPropertyOp6
 70
     1
102
RTVSPropertyOp7
 70
     1
102
RTVSPropertyOp8
 70
     1
102
RTVSPropertyOp9
 70
     1
102
RTVSPropertyOp10
 70
     1
102
RTVSPropertyOp11
 70
     1
102
RTVSPropertyOp12
 70
     1
102
RTVSPropertyOp13
 70
     1
102
RTVSPropertyOp14
 70
     1
102
RTVSPropertyOp15
 70
     1
102
RTVSPropertyOp16
 70
     1
102
RTVSPropertyOp17
 70
     1
102
RTVSPropertyOp18
 70
     1
102
RTVSPropertyOp19
 70
     1
102
RTVSPropertyOp20
 70
     1
102
RTVSPropertyOp21
 70
     1
102
RTVSPropertyOp22
 70
     1
102
RTVSPropertyOp23
 70
     1
102
RTVSPropertyOp24
 70
     1
102
RTVSPropertyOp25
 70
     1
102
RTVSPropertyOp26
 70
     1
102
RTVSPropertyOp27
 70
     1
102
RTVSPropertyOp28
 70
     1
102
RTVSPropertyOp29
 70
     1
102
RTVSPropertyOp30
 70
     1
102
RTVSPropertyOp31
 70
     1
102
RTVSPropertyOp32
 70
     1
  0
XRECORD
  5
2E4
102
{ACAD_REACTORS
330
2E3
102
}
330
2E3
100
AcDbXrecord
280
     1
102
RTVSPropertyOp0
 70
     1
102
RTVSPropertyOp1
 70
     1
102
RTVSPropertyOp2
 70
     1
102
RTVSPropertyOp3
 70
     1
102
RTVSPropertyOp4
 70
     1
102
RTVSPropertyOp5
 70
     1
102
RTVSPropertyOp6
 70
     1
102
RTVSPropertyOp7
 70
     1
102
RTVSPropertyOp8
 70
     1
102
RTVSPropertyOp9
 70
     1
102
RTVSPropertyOp10
 70
     1
102
RTVSPropertyOp11
 70
     1
102
RTVSPropertyOp12
 70
     1
102
RTVSPropertyOp13
 70
     1
102
RTVSPropertyOp14
 70
     1
102
RTVSPropertyOp15
 70
     1
102
RTVSPropertyOp16
 70
     1
102
RTVSPropertyOp17
 70
     1
102
RTVSPropertyOp18
 70
     1
102
RTVSPropertyOp19
 70
     1
102
RTVSPropertyOp20
 70
     1
102
RTVSPropertyOp21
 70
     1
102
RTVSPropertyOp22
 70
     1
102
RTVSPropertyOp23
 70
     1
102
RTVSPropertyOp24
 70
     1
102
RTVSPropertyOp25
 70
     1
102
RTVSPropertyOp26
 70
     1
102
RTVSPropertyOp27
 70
     1
102
RTVSPropertyOp28
 70
     1
102
RTVSPropertyOp29
 70
     1
102
RTVSPropertyOp30
 70
     1
102
RTVSPropertyOp31
 70
     1
102
RTVSPropertyOp32
 70
     1
  0
ENDSEC
  0
EOF
