  0
SECTION
  2
HEADER
  9
$ACADVER
  1
AC1018
  9
$ACADMAINTVER
 70
     0
  9
$DWGCODEPAGE
  3
ANSI_1252
  9
$INSBASE
 10
0.0
 20
0.0
 30
0.0
  9
$EXTMIN
 10
-147.9868599453828
 20
-96.06060607427725
 30
0.0
  9
$EXTMAX
 10
149.0131400546153
 20
113.9393939257229
 30
0.0
  9
$LIMMIN
 10
0.0
 20
0.0
  9
$LIMMAX
 10
12.0
 20
9.0
  9
$ORTHOMODE
 70
     0
  9
$REGENMODE
 70
     1
  9
$FILLMODE
 70
     1
  9
$QTEXTMODE
 70
     0
  9
$MIRRTEXT
 70
     1
  9
$LTSCALE
 40
1.0
  9
$ATTMODE
 70
     1
  9
$TEXTSIZE
 40
0.2
  9
$TRACEWID
 40
0.05
  9
$TEXTSTYLE
  7
Standard
  9
$CLAYER
  8
0
  9
$CELTYPE
  6
ByLayer
  9
$CECOLOR
 62
   256
  9
$CELTSCALE
 40
1.0
  9
$DISPSILH
 70
     0
  9
$DIMSCALE
 40
1.0
  9
$DIMASZ
 40
0.18
  9
$DIMEXO
 40
0.0625
  9
$DIMDLI
 40
0.38
  9
$DIMRND
 40
0.0
  9
$DIMDLE
 40
0.0
  9
$DIMEXE
 40
0.18
  9
$DIMTP
 40
0.0
  9
$DIMTM
 40
0.0
  9
$DIMTXT
 40
0.18
  9
$DIMCEN
 40
0.09
  9
$DIMTSZ
 40
0.0
  9
$DIMTOL
 70
     0
  9
$DIMLIM
 70
     0
  9
$DIMTIH
 70
     1
  9
$DIMTOH
 70
     1
  9
$DIMSE1
 70
     0
  9
$DIMSE2
 70
     0
  9
$DIMTAD
 70
     0
  9
$DIMZIN
 70
     0
  9
$DIMBLK
  1

  9
$DIMASO
 70
     1
  9
$DIMSHO
 70
     1
  9
$DIMPOST
  1

  9
$DIMAPOST
  1

  9
$DIMALT
 70
     0
  9
$DIMALTD
 70
     2
  9
$DIMALTF
 40
25.4
  9
$DIMLFAC
 40
1.0
  9
$DIMTOFL
 70
     0
  9
$DIMTVP
 40
0.0
  9
$DIMTIX
 70
     0
  9
$DIMSOXD
 70
     0
  9
$DIMSAH
 70
     0
  9
$DIMBLK1
  1

  9
$DIMBLK2
  1

  9
$DIMSTYLE
  2
Standard
  9
$DIMCLRD
 70
     0
  9
$DIMCLRE
 70
     0
  9
$DIMCLRT
 70
     0
  9
$DIMTFAC
 40
1.0
  9
$DIMGAP
 40
0.09
  9
$DIMJUST
 70
     0
  9
$DIMSD1
 70
     0
  9
$DIMSD2
 70
     0
  9
$DIMTOLJ
 70
     1
  9
$DIMTZIN
 70
     0
  9
$DIMALTZ
 70
     0
  9
$DIMALTTZ
 70
     0
  9
$DIMUPT
 70
     0
  9
$DIMDEC
 70
     4
  9
$DIMTDEC
 70
     4
  9
$DIMALTU
 70
     2
  9
$DIMALTTD
 70
     2
  9
$DIMTXSTY
  7
Standard
  9
$DIMAUNIT
 70
     0
  9
$DIMADEC
 70
     0
  9
$DIMALTRND
 40
0.0
  9
$DIMAZIN
 70
     0
  9
$DIMDSEP
 70
    46
  9
$DIMATFIT
 70
     3
  9
$DIMFRAC
 70
     0
  9
$DIMLDRBLK
  1

  9
$DIMLUNIT
 70
     2
  9
$DIMLWD
 70
    -2
  9
$DIMLWE
 70
    -2
  9
$DIMTMOVE
 70
     0
  9
$LUNITS
 70
     2
  9
$LUPREC
 70
     4
  9
$SKETCHINC
 40
0.1
  9
$FILLETRAD
 40
0.5
  9
$AUNITS
 70
     0
  9
$AUPREC
 70
     0
  9
$MENU
  1
.
  9
$ELEVATION
 40
0.0
  9
$PELEVATION
 40
0.0
  9
$THICKNESS
 40
0.0
  9
$LIMCHECK
 70
     0
  9
$CHAMFERA
 40
0.5
  9
$CHAMFERB
 40
0.5
  9
$CHAMFERC
 40
1.0
  9
$CHAMFERD
 40
0.0
  9
$SKPOLY
 70
     0
  9
$TDCREATE
 40
2458347.530334317
  9
$TDUCREATE
 40
2458347.447000984
  9
$TDUPDATE
 40
2458347.530334849
  9
$TDUUPDATE
 40
2458347.447001516
  9
$TDINDWG
 40
0.0000000116
  9
$TDUSRTIMER
 40
0.0000000116
  9
$USRTIMER
 70
     1
  9
$ANGBASE
 50
0.0
  9
$ANGDIR
 70
     0
  9
$PDMODE
 70
     0
  9
$PDSIZE
 40
0.0
  9
$PLINEWID
 40
0.0
  9
$SPLFRAME
 70
     0
  9
$SPLINETYPE
 70
     6
  9
$SPLINESEGS
 70
     8
  9
$HANDSEED
  5
3CE
  9
$SURFTAB1
 70
     6
  9
$SURFTAB2
 70
     6
  9
$SURFTYPE
 70
     6
  9
$SURFU
 70
     6
  9
$SURFV
 70
     6
  9
$UCSBASE
  2

  9
$UCSNAME
  2

  9
$UCSORG
 10
0.0
 20
0.0
 30
0.0
  9
$UCSXDIR
 10
1.0
 20
0.0
 30
0.0
  9
$UCSYDIR
 10
0.0
 20
1.0
 30
0.0
  9
$UCSORTHOREF
  2

  9
$UCSORTHOVIEW
 70
     0
  9
$UCSORGTOP
 10
0.0
 20
0.0
 30
0.0
  9
$UCSORGBOTTOM
 10
0.0
 20
0.0
 30
0.0
  9
$UCSORGLEFT
 10
0.0
 20
0.0
 30
0.0
  9
$UCSORGRIGHT
 10
0.0
 20
0.0
 30
0.0
  9
$UCSORGFRONT
 10
0.0
 20
0.0
 30
0.0
  9
$UCSORGBACK
 10
0.0
 20
0.0
 30
0.0
  9
$PUCSBASE
  2

  9
$PUCSNAME
  2

  9
$PUCSORG
 10
0.0
 20
0.0
 30
0.0
  9
$PUCSXDIR
 10
1.0
 20
0.0
 30
0.0
  9
$PUCSYDIR
 10
0.0
 20
1.0
 30
0.0
  9
$PUCSORTHOREF
  2

  9
$PUCSORTHOVIEW
 70
     0
  9
$PUCSORGTOP
 10
0.0
 20
0.0
 30
0.0
  9
$PUCSORGBOTTOM
 10
0.0
 20
0.0
 30
0.0
  9
$PUCSORGLEFT
 10
0.0
 20
0.0
 30
0.0
  9
$PUCSORGRIGHT
 10
0.0
 20
0.0
 30
0.0
  9
$PUCSORGFRONT
 10
0.0
 20
0.0
 30
0.0
  9
$PUCSORGBACK
 10
0.0
 20
0.0
 30
0.0
  9
$USERI1
 70
     0
  9
$USERI2
 70
     0
  9
$USERI3
 70
     0
  9
$USERI4
 70
     0
  9
$USERI5
 70
     0
  9
$USERR1
 40
18.1
  9
$USERR2
 40
0.0
  9
$USERR3
 40
0.0
  9
$USERR4
 40
0.0
  9
$USERR5
 40
0.0
  9
$WORLDVIEW
 70
     1
  9
$SHADEDGE
 70
     3
  9
$SHADEDIF
 70
    70
  9
$TILEMODE
 70
     1
  9
$MAXACTVP
 70
    64
  9
$PINSBASE
 10
0.0
 20
0.0
 30
0.0
  9
$PLIMCHECK
 70
     0
  9
$PEXTMIN
 10
1.00000000000000E+20
 20
1.00000000000000E+20
 30
1.00000000000000E+20
  9
$PEXTMAX
 10
-1.00000000000000E+20
 20
-1.00000000000000E+20
 30
-1.00000000000000E+20
  9
$PLIMMIN
 10
0.0
 20
0.0
  9
$PLIMMAX
 10
12.0
 20
9.0
  9
$UNITMODE
 70
     0
  9
$VISRETAIN
 70
     1
  9
$PLINEGEN
 70
     0
  9
$PSLTSCALE
 70
     1
  9
$TREEDEPTH
 70
  3020
  9
$CMLSTYLE
  2
Standard
  9
$CMLJUST
 70
     0
  9
$CMLSCALE
 40
1.0
  9
$PROXYGRAPHICS
 70
     1
  9
$MEASUREMENT
 70
     1
  9
$CELWEIGHT
370
    -1
  9
$ENDCAPS
280
     0
  9
$JOINSTYLE
280
     0
  9
$LWDISPLAY
290
     0
  9
$INSUNITS
 70
     4
  9
$HYPERLINKBASE
  1

  9
$STYLESHEET
  1

  9
$XEDIT
290
     1
  9
$CEPSNTYPE
380
     0
  9
$PSTYLEMODE
290
     1
  9
$FINGERPRINTGUID
  2
{43992F37-2D95-4D86-9578-9CDDFBC4D392}
  9
$VERSIONGUID
  2
{FAEB1C32-E019-11D5-929B-00C0DF256EC4}
  9
$EXTNAMES
290
     1
  9
$PSVPSCALE
 40
0.0
  9
$OLESTARTUP
290
     0
  9
$SORTENTS
280
   127
  9
$INDEXCTL
280
     0
  9
$HIDETEXT
280
     1
  9
$XCLIPFRAME
290
     0
  9
$HALOGAP
280
     0
  9
$OBSCOLOR
 70
   257
  9
$OBSLTYPE
280
     0
  9
$INTERSECTIONDISPLAY
280
     0
  9
$INTERSECTIONCOLOR
 70
   257
  9
$DIMASSOC
280
     2
  9
$PROJECTNAME
  1

  0
ENDSEC
  0
SECTION
  2
CLASSES
  0
CLASS
  1
ACDBDICTIONARYWDFLT
  2
AcDbDictionaryWithDefault
  3
ObjectDBX Classes
 90
        0
 91
        4
280
     0
281
     0
  0
CLASS
  1
VISUALSTYLE
  2
AcDbVisualStyle
  3
ObjectDBX Classes
 90
     4095
 91
        4
280
     0
281
     0
  0
CLASS
  1
MATERIAL
  2
AcDbMaterial
  3
ObjectDBX Classes
 90
     1153
 91
        4
280
     0
281
     0
  0
ENDSEC
  0
SECTION
  2
TABLES
  0
TABLE
  2
VPORT
  5
8
330
0
100
AcDbSymbolTable
 70
     1
  0
VPORT
  5
29
330
8
100
AcDbSymbolTableRecord
100
AcDbViewportTableRecord
  2
*Active
 70
     0
 10
0.0
 20
0.0
 11
1.0
 21
1.0
 12
0.51314005461624
 22
8.93939392572283
 13
0.0
 23
0.0
 14
0.5
 24
0.5
 15
0.5
 25
0.5
 16
0.0
 26
0.0
 36
1.0
 17
0.0
 27
0.0
 37
0.0
 40
231.0000000000002
 41
1.60267857142857
 42
50.0
 43
0.0
 44
0.0
 50
0.0
 51
0.0
 71
     0
 72
   100
 73
     1
 74
     3
 75
     0
 76
     0
 77
     0
 78
     0
281
     0
 65
     1
110
0.0
120
0.0
130
0.0
111
1.0
121
0.0
131
0.0
112
0.0
122
1.0
132
0.0
 79
     0
146
0.0
  0
ENDTAB
  0
TABLE
  2
LTYPE
  5
5
330
0
100
AcDbSymbolTable
 70
     8
  0
LTYPE
  5
14
330
5
100
AcDbSymbolTableRecord
100
AcDbLinetypeTableRecord
  2
ByBlock
 70
     0
  3

 72
    65
 73
     0
 40
0.0
  0
LTYPE
  5
15
330
5
100
AcDbSymbolTableRecord
100
AcDbLinetypeTableRecord
  2
ByLayer
 70
     0
  3

 72
    65
 73
     0
 40
0.0
  0
LTYPE
  5
16
330
5
100
AcDbSymbolTableRecord
100
AcDbLinetypeTableRecord
  2
Continuous
 70
     0
  3
Solid line
 72
    65
 73
     0
 40
0.0
  0
LTYPE
  5
3F
330
5
100
AcDbSymbolTableRecord
100
AcDbLinetypeTableRecord
  2
DASHED
 70
     0
  3
Dashed
 72
    65
 73
     2
 40
15.0
 49
7.0
 74
     0
 49
-8.0
 74
     0
  0
LTYPE
  5
40
330
5
100
AcDbSymbolTableRecord
100
AcDbLinetypeTableRecord
  2
DOTTED
 70
     0
  3
Dotted
 72
    65
 73
     2
 40
1.0
 49
0.0
 74
     0
 49
-1.0
 74
     0
  0
LTYPE
  5
41
330
5
100
AcDbSymbolTableRecord
100
AcDbLinetypeTableRecord
  2
DOT_CENTER
 70
     0
  3
Dot_Center
 72
    65
 73
     4
 40
14.0
 49
12.0
 74
     0
 49
-1.0
 74
     0
 49
0.0
 74
     0
 49
-1.0
 74
     0
  0
LTYPE
  5
42
330
5
100
AcDbSymbolTableRecord
100
AcDbLinetypeTableRecord
  2
LONG_DASHED
 70
     0
  3
Long_Dashed
 72
    65
 73
     2
 40
15.0
 49
10.0
 74
     0
 49
-5.0
 74
     0
  0
LTYPE
  5
43
330
5
100
AcDbSymbolTableRecord
100
AcDbLinetypeTableRecord
  2
DASH_CENTER
 70
     0
  3
Dash_Center
 72
    65
 73
     4
 40
14.0
 49
11.0
 74
     0
 49
-1.0
 74
     0
 49
1.0
 74
     0
 49
-1.0
 74
     0
  0
LTYPE
  5
44
330
5
100
AcDbSymbolTableRecord
100
AcDbLinetypeTableRecord
  2
PHANTOM
 70
     0
  3
Phantom
 72
    65
 73
     6
 40
13.0
 49
10.0
 74
     0
 49
-1.0
 74
     0
 49
0.0
 74
     0
 49
-1.0
 74
     0
 49
0.0
 74
     0
 49
-1.0
 74
     0
  0
LTYPE
  5
45
330
5
100
AcDbSymbolTableRecord
100
AcDbLinetypeTableRecord
  2
CENTER_DASH_DASH
 70
     0
  3
Center_Dash_Dash
 72
    65
 73
     6
 40
14.0
 49
9.0
 74
     0
 49
-1.0
 74
     0
 49
1.0
 74
     0
 49
-1.0
 74
     0
 49
1.0
 74
     0
 49
-1.0
 74
     0
  0
ENDTAB
  0
TABLE
  2
LAYER
  5
2
330
0
100
AcDbSymbolTable
 70
     2
  0
LAYER
  5
10
330
2
100
AcDbSymbolTableRecord
100
AcDbLayerTableRecord
  2
0
 70
     0
 62
     7
  6
Continuous
370
    -3
390
F
  0
LAYER
  5
46
330
2
100
AcDbSymbolTableRecord
100
AcDbLayerTableRecord
  2
1
 70
     0
 62
     7
  6
Continuous
370
    -3
390
F
  0
ENDTAB
  0
TABLE
  2
STYLE
  5
3
330
0
100
AcDbSymbolTable
 70
     5
  0
STYLE
  5
11
330
3
100
AcDbSymbolTableRecord
100
AcDbTextStyleTableRecord
  2
Standard
 70
     0
 40
0.0
 41
1.0
 50
0.0
 71
     0
 42
0.2
  3
txt
  4

  0
STYLE
  5
113
330
3
100
AcDbSymbolTableRecord
100
AcDbTextStyleTableRecord
  2
CONVERTER_11
 70
     0
 40
0.0
 41
0.9
 50
0.0
 71
     0
 42
0.2
  3
txt.shx
  4

  0
STYLE
  5
364
330
3
100
AcDbSymbolTableRecord
100
AcDbTextStyleTableRecord
  2
CONVERTER_12
 70
     0
 40
0.0
 41
0.81
 50
0.0
 71
     0
 42
0.2
  3
txt.shx
  4

  0
STYLE
  5
36A
330
3
100
AcDbSymbolTableRecord
100
AcDbTextStyleTableRecord
  2
CONVERTER_13
 70
     0
 40
0.0
 41
0.855
 50
0.0
 71
     0
 42
0.2
  3
txt.shx
  4

  0
STYLE
  5
36D
330
3
100
AcDbSymbolTableRecord
100
AcDbTextStyleTableRecord
  2
CONVERTER_14
 70
     0
 40
0.0
 41
0.72
 50
0.0
 71
     0
 42
0.2
  3
txt.shx
  4

  0
ENDTAB
  0
TABLE
  2
VIEW
  5
6
330
0
100
AcDbSymbolTable
 70
     0
  0
ENDTAB
  0
TABLE
  2
UCS
  5
7
330
0
100
AcDbSymbolTable
 70
     0
  0
ENDTAB
  0
TABLE
  2
APPID
  5
9
330
0
100
AcDbSymbolTable
 70
     1
  0
APPID
  5
12
330
9
100
AcDbSymbolTableRecord
100
AcDbRegAppTableRecord
  2
ACAD
 70
     0
  0
ENDTAB
  0
TABLE
  2
DIMSTYLE
  5
A
330
0
100
AcDbSymbolTable
 70
     4
100
AcDbDimStyleTable
  0
DIMSTYLE
105
27
330
A
100
AcDbSymbolTableRecord
100
AcDbDimStyleTableRecord
  2
Standard
 70
     0
178
     0
340
11
  0
DIMSTYLE
105
149
102
{ACAD_REACTORS
330
14A
102
}
330
A
100
AcDbSymbolTableRecord
100
AcDbDimStyleTableRecord
  2
ME10_DIM_10
 70
     0
 41
1.75
 42
0.0
 44
0.75
 73
     0
 74
     0
 77
     1
 78
     8
140
1.75
147
0.75
172
     1
173
     1
174
     1
175
     1
176
     2
177
     2
178
     3
340
113
  0
DIMSTYLE
105
260
102
{ACAD_REACTORS
330
261
102
}
330
A
100
AcDbSymbolTableRecord
100
AcDbDimStyleTableRecord
  2
ME10_DIM_11
 70
     0
 41
1.75
 42
0.0
 44
1.0
 73
     0
 74
     0
 77
     1
 78
     8
140
1.75
147
1.0
172
     1
173
     1
174
     1
175
     1
176
     2
177
     2
178
     3
340
113
  0
DIMSTYLE
105
26B
102
{ACAD_REACTORS
330
26C
102
}
330
A
100
AcDbSymbolTableRecord
100
AcDbDimStyleTableRecord
  2
ME10_DIM_12
 70
     0
 41
1.75
 42
0.0
 44
0.75
 73
     0
 74
     0
 77
     1
 78
     8
140
1.75
147
0.75
172
     1
173
     1
174
     1
175
     1
176
     2
177
     2
178
     3
340
113
  0
ENDTAB
  0
TABLE
  2
BLOCK_RECORD
  5
1
330
0
100
AcDbSymbolTable
 70
    20
  0
BLOCK_RECORD
  5
1F
330
1
100
AcDbSymbolTableRecord
100
AcDbBlockTableRecord
  2
*Model_Space
340
22
  0
BLOCK_RECORD
  5
1B
330
1
100
AcDbSymbolTableRecord
100
AcDbBlockTableRecord
  2
*Paper_Space
340
1E
  0
BLOCK_RECORD
  5
23
330
1
100
AcDbSymbolTableRecord
100
AcDbBlockTableRecord
  2
*Paper_Space0
340
26
  0
BLOCK_RECORD
  5
47
330
1
100
AcDbSymbolTableRecord
100
AcDbBlockTableRecord
  2
KLM2_select__1
340
0
102
{BLKREFS
331
4B
102
}
  0
BLOCK_RECORD
  5
4A
330
1
100
AcDbSymbolTableRecord
100
AcDbBlockTableRecord
  2
AllgSicht1
340
0
102
{BLKREFS
331
7D
102
}
  0
BLOCK_RECORD
  5
4E
330
1
100
AcDbSymbolTableRecord
100
AcDbBlockTableRecord
  2
KLM2_select__2
340
0
102
{BLKREFS
331
52
102
}
  0
BLOCK_RECORD
  5
51
330
1
100
AcDbSymbolTableRecord
100
AcDbBlockTableRecord
  2
Drfsicht1
340
0
102
{BLKREFS
331
7E
102
}
  0
BLOCK_RECORD
  5
55
330
1
100
AcDbSymbolTableRecord
100
AcDbBlockTableRecord
  2
KLM2_select__3
340
0
102
{BLKREFS
331
59
102
}
  0
BLOCK_RECORD
  5
58
330
1
100
AcDbSymbolTableRecord
100
AcDbBlockTableRecord
  2
Rckans1
340
0
102
{BLKREFS
331
7F
102
}
  0
BLOCK_RECORD
  5
5C
330
1
100
AcDbSymbolTableRecord
100
AcDbBlockTableRecord
  2
KLM2_select__4
340
0
102
{BLKREFS
331
60
102
}
  0
BLOCK_RECORD
  5
5F
330
1
100
AcDbSymbolTableRecord
100
AcDbBlockTableRecord
  2
SA_Links1
340
0
102
{BLKREFS
331
80
102
}
  0
BLOCK_RECORD
  5
63
330
1
100
AcDbSymbolTableRecord
100
AcDbBlockTableRecord
  2
KLM2_select__5
340
0
102
{BLKREFS
331
67
102
}
  0
BLOCK_RECORD
  5
66
330
1
100
AcDbSymbolTableRecord
100
AcDbBlockTableRecord
  2
SA_Rechts1
340
0
102
{BLKREFS
331
81
102
}
  0
BLOCK_RECORD
  5
6A
330
1
100
AcDbSymbolTableRecord
100
AcDbBlockTableRecord
  2
KLM2_select__6
340
0
102
{BLKREFS
331
6E
102
}
  0
BLOCK_RECORD
  5
6D
330
1
100
AcDbSymbolTableRecord
100
AcDbBlockTableRecord
  2
Vordans1
340
0
102
{BLKREFS
331
82
102
}
  0
BLOCK_RECORD
  5
71
330
1
100
AcDbSymbolTableRecord
100
AcDbBlockTableRecord
  2
_rahmen
340
0
102
{BLKREFS
331
78
102
}
  0
BLOCK_RECORD
  5
74
330
1
100
AcDbSymbolTableRecord
100
AcDbBlockTableRecord
  2
_punkt
340
0
102
{BLKREFS
331
79
102
}
  0
BLOCK_RECORD
  5
77
330
1
100
AcDbSymbolTableRecord
100
AcDbBlockTableRecord
  2
A4I_CS
340
0
102
{BLKREFS
331
83
102
}
  0
BLOCK_RECORD
  5
7C
330
1
100
AcDbSymbolTableRecord
100
AcDbBlockTableRecord
  2
1
340
0
102
{BLKREFS
331
86
102
}
  0
BLOCK_RECORD
  5
140
330
1
100
AcDbSymbolTableRecord
100
AcDbBlockTableRecord
  2
*D17
340
0
  0
BLOCK_RECORD
  5
257
330
1
100
AcDbSymbolTableRecord
100
AcDbBlockTableRecord
  2
*D18
340
0
  0
BLOCK_RECORD
  5
262
330
1
100
AcDbSymbolTableRecord
100
AcDbBlockTableRecord
  2
*D19
340
0
  0
ENDTAB
  0
ENDSEC
  0
SECTION
  2
BLOCKS
  0
BLOCK
  5
20
330
1F
100
AcDbEntity
  8
0
100
AcDbBlockBegin
  2
*Model_Space
 70
     0
 10
0.0
 20
0.0
 30
0.0
  3
*Model_Space
  1

  0
ENDBLK
  5
21
330
1F
100
AcDbEntity
  8
0
100
AcDbBlockEnd
  0
BLOCK
  5
1C
330
1B
100
AcDbEntity
 67
     1
  8
0
100
AcDbBlockBegin
  2
*Paper_Space
 70
     0
 10
0.0
 20
0.0
 30
0.0
  3
*Paper_Space
  1

  0
ENDBLK
  5
1D
330
1B
100
AcDbEntity
 67
     1
  8
0
100
AcDbBlockEnd
  0
BLOCK
  5
24
330
23
100
AcDbEntity
  8
0
100
AcDbBlockBegin
  2
*Paper_Space0
 70
     0
 10
0.0
 20
0.0
 30
0.0
  3
*Paper_Space0
  1

  0
ENDBLK
  5
25
330
23
100
AcDbEntity
  8
0
100
AcDbBlockEnd
  0
BLOCK
  5
48
330
47
100
AcDbEntity
  8
0
100
AcDbBlockBegin
  2
KLM2_select__1
 70
     0
 10
60.37372065375535
 20
-59.3205723103592
 30
0.0
  3
KLM2_select__1
  1

  0
LINE
  5
87
330
47
100
AcDbEntity
  8
0
  6
Continuous
 62
     7
100
AcDbLine
 10
84.50127953701289
 20
-28.44300090548007
 30
0.0
 11
80.5512795370129
 21
-31.86380125042861
 31
0.0
  0
LINE
  5
88
330
47
100
AcDbEntity
  8
0
  6
Continuous
 62
     7
100
AcDbLine
 10
76.728701538048
 20
-25.50643058245426
 30
0.0
 11
80.43345921398506
 21
-26.57590200319719
 31
0.0
  0
LINE
  5
89
330
47
100
AcDbEntity
  8
0
  6
Continuous
 62
     7
100
AcDbLine
 10
76.15370153804781
 20
-24.8785621647105
 30
0.0
 11
80.83345921398535
 21
-26.22949184168315
 31
0.0
  0
LINE
  5
8A
330
47
100
AcDbEntity
  8
0
  6
Continuous
 62
     7
100
AcDbLine
 10
80.68345921398534
 20
-26.35939565225083
 30
0.0
 11
76.15370153804778
 21
-25.0517672454671
 31
0.0
  0
LINE
  5
8B
330
47
100
AcDbEntity
  8
0
  6
Continuous
 62
     7
100
AcDbLine
 10
84.50127953701295
 20
-26.74535819984389
 30
0.0
 11
84.50127953701289
 21
-28.44300090548007
 31
0.0
  0
LINE
  5
8C
330
47
100
AcDbEntity
  8
0
  6
Continuous
 62
     7
100
AcDbLine
 10
67.05086765075642
 20
-22.4240054478588
 30
0.0
 11
67.0508676507564
 21
-22.71268058245357
 31
0.0
  0
LINE
  5
8D
330
47
100
AcDbEntity
  8
0
  6
Continuous
 62
     7
100
AcDbLine
 10
66.47586765075641
 20
-22.08481216470985
 30
0.0
 11
72.64629865272096
 21
-23.86606216471033
 31
0.0
  0
LINE
  5
8E
330
47
100
AcDbEntity
  8
0
  6
Continuous
 62
     7
100
AcDbLine
 10
72.64629865272093
 20
-24.03926724546749
 30
0.0
 11
66.4758676507564
 21
-22.25801724546683
 31
0.0
  0
LINE
  5
8F
330
47
100
AcDbEntity
  8
0
  6
Continuous
 62
     7
100
AcDbLine
 10
60.78592030851011
 20
-25.2187587711742
 30
0.0
 11
60.37372065375535
 21
-23.61417059341386
 31
0.0
  0
LINE
  5
90
330
47
100
AcDbEntity
  8
0
  6
Continuous
 62
     7
100
AcDbLine
 10
61.49872065375525
 20
-26.36380125042805
 30
0.0
 11
68.81911332273503
 21
-28.47701658943288
 31
0.0
  0
LINE
  5
91
330
47
100
AcDbEntity
  8
0
  6
Continuous
 62
     7
100
AcDbLine
 10
63.1008676507564
 20
-26.13348092740211
 30
0.0
 11
63.10086765075641
 21
-25.88702650677723
 31
0.0
  0
LINE
  5
92
330
47
100
AcDbEntity
  8
0
  6
Continuous
 62
     7
100
AcDbLine
 10
63.1008676507564
 20
-26.13348092740211
 30
0.0
 11
63.31430343989251
 21
-25.94864011193346
 31
0.0
  0
LINE
  5
93
330
47
100
AcDbEntity
  8
0
  6
Continuous
 62
     7
100
AcDbLine
 10
61.49872065375525
 20
-26.36380125042805
 30
0.0
 11
61.49872065375527
 21
-25.42452650677713
 31
0.0
  0
LINE
  5
94
330
47
100
AcDbEntity
  8
0
  6
Continuous
 62
     7
100
AcDbLine
 10
60.78592030851011
 20
-25.2187587711742
 30
0.0
 11
68.55849830747584
 21
-27.4625087711749
 31
0.0
  0
LINE
  5
95
330
47
100
AcDbEntity
  8
0
  6
Continuous
 62
     7
100
AcDbLine
 10
68.62688055987432
 20
-27.72870344771489
 30
0.0
 11
63.1008676507564
 21
-26.13348092740211
 31
0.0
  0
LINE
  5
96
330
47
100
AcDbEntity
  8
0
  6
Continuous
 62
     7
100
AcDbLine
 10
76.328701538048
 20
-25.85284074396805
 30
0.0
 11
76.728701538048
 21
-25.50643058245426
 31
0.0
  0
LINE
  5
97
330
47
100
AcDbEntity
  8
0
  6
Continuous
 62
     7
100
AcDbLine
 10
76.32870153804802
 20
-25.10228539402157
 30
0.0
 11
76.328701538048
 21
-25.85284074396805
 31
0.0
  0
LINE
  5
98
330
47
100
AcDbEntity
  8
0
  6
Continuous
 62
     7
100
AcDbLine
 10
77.12145359041062
 20
-25.61980833403277
 30
0.0
 11
77.17027012025315
 21
-25.34522531776045
 31
0.0
  0
LINE
  5
99
330
47
100
AcDbEntity
  8
0
  6
Continuous
 62
     7
100
AcDbLine
 10
65.74154097678283
 20
-22.7965907439673
 30
0.0
 11
66.6508676507564
 21
-23.05909074396733
 31
0.0
  0
LINE
  5
9A
330
47
100
AcDbEntity
  8
0
  6
Continuous
 62
     7
100
AcDbLine
 10
60.37372065375538
 20
-22.7481451896297
 30
0.0
 11
79.42627953701302
 21
-28.24814518963026
 31
0.0
  0
LINE
  5
9B
330
47
100
AcDbEntity
  8
0
  6
Continuous
 62
     7
100
AcDbLine
 10
76.32870153804782
 20
-24.42389882772369
 30
0.0
 11
76.15370153804781
 21
-24.8785621647105
 31
0.0
  0
LINE
  5
9C
330
47
100
AcDbEntity
  8
0
  6
Continuous
 62
     7
100
AcDbLine
 10
72.82129865272097
 20
-23.41139882772352
 30
0.0
 11
76.32870153804782
 21
-24.42389882772369
 31
0.0
  0
LINE
  5
9D
330
47
100
AcDbEntity
  8
0
  6
Continuous
 62
     7
100
AcDbLine
 10
76.15370153804781
 20
-24.8785621647105
 30
0.0
 11
76.15370153804778
 21
-25.0517672454671
 31
0.0
  0
LINE
  5
9E
330
47
100
AcDbEntity
  8
0
  6
Continuous
 62
     7
100
AcDbLine
 10
72.82129865272091
 20
-24.8403407439678
 30
0.0
 11
76.328701538048
 21
-25.85284074396805
 31
0.0
  0
LINE
  5
9F
330
47
100
AcDbEntity
  8
0
  6
Continuous
 62
     7
100
AcDbLine
 10
72.64629865272093
 20
-24.03926724546749
 30
0.0
 11
72.64629865272096
 21
-23.86606216471033
 31
0.0
  0
LINE
  5
A0
330
47
100
AcDbEntity
  8
0
  6
Continuous
 62
     7
100
AcDbLine
 10
72.82129865272094
 20
-23.87182753592994
 30
0.0
 11
72.64629865272093
 21
-24.03926724546749
 31
0.0
  0
LINE
  5
A1
330
47
100
AcDbEntity
  8
0
  6
Continuous
 62
     7
100
AcDbLine
 10
72.82129865272091
 20
-24.8403407439678
 30
0.0
 11
72.82129865272094
 21
-23.87182753592994
 31
0.0
  0
LINE
  5
A2
330
47
100
AcDbEntity
  8
0
  6
Continuous
 62
     7
100
AcDbLine
 10
72.82129865272094
 20
-23.87182753592994
 30
0.0
 11
72.82129865272097
 21
-23.41139882772352
 31
0.0
  0
LINE
  5
A3
330
47
100
AcDbEntity
  8
0
  6
Continuous
 62
     7
100
AcDbLine
 10
66.6508676507564
 20
-23.05909074396733
 30
0.0
 11
67.0508676507564
 21
-22.71268058245357
 31
0.0
  0
LINE
  5
A4
330
47
100
AcDbEntity
  8
0
  6
Continuous
 62
     7
100
AcDbLine
 10
72.64629865272096
 20
-23.86606216471033
 30
0.0
 11
72.82129865272097
 21
-23.41139882772352
 31
0.0
  0
LINE
  5
A5
330
47
100
AcDbEntity
  8
0
  6
Continuous
 62
     7
100
AcDbLine
 10
67.0508676507564
 20
-22.71268058245357
 30
0.0
 11
72.82129865272093
 21
-24.37846052861627
 31
0.0
  0
LINE
  5
A6
330
47
100
AcDbEntity
  8
0
  6
Continuous
 62
     7
100
AcDbLine
 10
61.46654097678307
 20
-22.60173502811596
 30
0.0
 11
79.13345921398562
 21
-27.70173502811647
 31
0.0
  0
LINE
  5
A7
330
47
100
AcDbEntity
  8
0
  6
Continuous
 62
     7
100
AcDbLine
 10
66.86654097678304
 20
-17.92519784768001
 30
0.0
 11
66.86654097678297
 21
-18.87782579184288
 31
0.0
  0
LINE
  5
A8
330
47
100
AcDbEntity
  8
0
  6
Continuous
 62
     7
100
AcDbLine
 10
84.5334592139856
 20
-23.02519784768053
 30
0.0
 11
66.86654097678304
 21
-17.92519784768001
 31
0.0
  0
LINE
  5
A9
330
47
100
AcDbEntity
  8
0
  6
Continuous
 62
     7
100
AcDbLine
 10
66.65086765075644
 20
-22.30853539402086
 30
0.0
 11
66.6508676507564
 21
-23.05909074396733
 31
0.0
  0
LINE
  5
AA
330
47
100
AcDbEntity
  8
0
  6
Continuous
 62
     7
100
AcDbLine
 10
85.62627953701303
 20
-22.87878768616674
 30
0.0
 11
66.57372065375537
 21
-17.37878768616618
 31
0.0
  0
LINE
  5
AB
330
47
100
AcDbEntity
  8
0
  6
Continuous
 62
     7
100
AcDbLine
 10
85.21407988225809
 20
-26.06335201260895
 30
0.0
 11
84.50127953701295
 21
-26.74535819984389
 31
0.0
  0
LINE
  5
AC
330
47
100
AcDbEntity
  8
0
  6
Continuous
 62
     7
100
AcDbLine
 10
85.626279537013
 20
-23.74481308995062
 30
0.0
 11
85.62627953701303
 21
-22.87878768616674
 31
0.0
  0
LINE
  5
AD
330
47
100
AcDbEntity
  8
0
  6
Continuous
 62
     7
100
AcDbLine
 10
85.626279537013
 20
-23.74481308995062
 30
0.0
 11
85.21407988225809
 21
-26.06335201260895
 31
0.0
  0
LINE
  5
AE
330
47
100
AcDbEntity
  8
0
  6
Continuous
 62
     7
100
AcDbLine
 10
85.62627953701303
 20
-22.87878768616674
 30
0.0
 11
79.42627953701302
 21
-28.24814518963026
 31
0.0
  0
LINE
  5
AF
330
47
100
AcDbEntity
  8
0
  6
Continuous
 62
     7
100
AcDbLine
 10
84.5334592139856
 20
-23.02519784768053
 30
0.0
 11
79.13345921398562
 21
-27.70173502811647
 31
0.0
  0
LINE
  5
B0
330
47
100
AcDbEntity
  8
0
  6
Continuous
 62
     7
100
AcDbLine
 10
66.09154097678288
 20
-20.4583221537495
 30
0.0
 11
82.14595921398518
 21
-25.09283349921623
 31
0.0
  0
LINE
  5
B1
330
47
100
AcDbEntity
  8
0
  6
Continuous
 62
     7
100
AcDbLine
 10
66.49154097678293
 20
-20.11191199223569
 30
0.0
 11
82.54595921398524
 21
-24.74642333770241
 31
0.0
  0
LINE
  5
B2
330
47
100
AcDbEntity
  8
0
  6
Continuous
 62
     7
100
AcDbLine
 10
66.86654097678297
 20
-18.87782579184288
 30
0.0
 11
83.70845921398518
 21
-23.73966880580305
 31
0.0
  0
LINE
  5
B3
330
47
100
AcDbEntity
  8
0
  6
Continuous
 62
     7
100
AcDbLine
 10
66.49154097678297
 20
-19.20258531826205
 30
0.0
 11
83.33345921398518
 21
-24.0644283322222
 31
0.0
  0
LINE
  5
B4
330
47
100
AcDbEntity
  8
0
  6
Continuous
 62
     7
100
AcDbLine
 10
76.01596972461951
 20
-57.15032045273492
 30
0.0
 11
76.38217456623286
 21
-44.14141865314754
 31
0.0
  0
LINE
  5
B5
330
47
100
AcDbEntity
  8
0
  6
Continuous
 62
     7
100
AcDbLine
 10
74.41088121501947
 20
-32.29797427910486
 30
0.0
 11
74.4108812150196
 21
-30.41825428892402
 31
0.0
  0
LINE
  5
B6
330
47
100
AcDbEntity
  8
0
  6
Continuous
 62
     7
100
AcDbLine
 10
73.30556089199213
 20
-32.45520975816588
 30
0.0
 11
73.30556089199223
 21
-30.48275729889739
 31
0.0
  0
LINE
  5
B7
330
47
100
AcDbEntity
  8
0
  6
Continuous
 62
     7
100
AcDbLine
 10
72.56943929877545
 20
-30.51776092793404
 30
0.0
 11
72.56943929877534
 21
-32.24270975816582
 31
0.0
  0
LINE
  5
B8
330
47
100
AcDbEntity
  8
0
  6
Continuous
 62
     7
100
AcDbLine
 10
72.13950898485824
 20
-44.37447602510707
 30
0.0
 11
72.56943929877534
 21
-32.24270975816582
 31
0.0
  0
LINE
  5
B9
330
47
100
AcDbEntity
  8
0
  6
Continuous
 62
     7
100
AcDbLine
 10
73.67336048715796
 20
-43.04612165848268
 30
0.0
 11
72.13950898485824
 21
-44.37447602510707
 31
0.0
  0
LINE
  5
BA
330
47
100
AcDbEntity
  8
0
  6
Continuous
 62
     7
100
AcDbLine
 10
76.38217456623286
 20
-44.14141865314754
 30
0.0
 11
75.53217456623288
 21
-44.87754024636433
 31
0.0
  0
LINE
  5
BB
330
47
100
AcDbEntity
  8
0
  6
Continuous
 62
     7
100
AcDbLine
 10
75.10370153804729
 20
-32.49797427910497
 30
0.0
 11
75.95370153804731
 21
-31.76185268588821
 31
0.0
  0
LINE
  5
BC
330
47
100
AcDbEntity
  8
0
  6
Continuous
 62
     7
100
AcDbLine
 10
72.778701538048
 20
-28.92723092740279
 30
0.0
 11
72.99213732718457
 21
-28.7423901119339
 31
0.0
  0
LINE
  5
BD
330
47
100
AcDbEntity
  8
0
  6
Continuous
 62
     7
100
AcDbLine
 10
72.59235968426421
 20
-30.52437747329985
 30
0.0
 11
75.1037015380478
 21
-30.37782347871021
 31
0.0
  0
LINE
  5
BE
330
47
100
AcDbEntity
  8
0
  6
Continuous
 62
     7
100
AcDbLine
 10
80.5512795370129
 20
-31.86380125042861
 30
0.0
 11
80.55127953701296
 21
-30.1661585447924
 31
0.0
  0
LINE
  5
BF
330
47
100
AcDbEntity
  8
0
  6
Continuous
 62
     7
100
AcDbLine
 10
80.55127953701296
 20
-30.1661585447924
 30
0.0
 11
79.83847919176773
 21
-30.71875877117476
 31
0.0
  0
LINE
  5
C0
330
47
100
AcDbEntity
  8
0
  6
Continuous
 62
     7
100
AcDbLine
 10
75.95370153804731
 20
-31.76185268588821
 30
0.0
 11
75.95370153804777
 21
-30.53659480276705
 31
0.0
  0
LINE
  5
C1
330
47
100
AcDbEntity
  8
0
  6
Continuous
 62
     7
100
AcDbLine
 10
73.13193929877534
 20
-31.75557046853711
 30
0.0
 11
73.30556089199214
 21
-31.80569070532755
 31
0.0
  0
LINE
  5
C2
330
47
100
AcDbEntity
  8
0
  6
Continuous
 62
     7
100
AcDbLine
 10
73.13193929877534
 20
-31.75557046853711
 30
0.0
 11
73.13193929877541
 21
-30.49288930780516
 31
0.0
  0
LINE
  5
C3
330
47
100
AcDbEntity
  8
0
  6
Continuous
 62
     7
100
AcDbLine
 10
79.42627953701302
 20
-29.11417059341447
 30
0.0
 11
79.83847919176773
 21
-30.71875877117476
 31
0.0
  0
LINE
  5
C4
330
47
100
AcDbEntity
  8
0
  6
Continuous
 62
     7
100
AcDbLine
 10
78.94913254001173
 20
-30.46202650677762
 30
0.0
 11
78.94913254001173
 21
-30.70848092740354
 31
0.0
  0
LINE
  5
C5
330
47
100
AcDbEntity
  8
0
  6
Continuous
 62
     7
100
AcDbLine
 10
78.94913254001173
 20
-30.70848092740354
 30
0.0
 11
72.778701538048
 21
-28.92723092740279
 31
0.0
  0
LINE
  5
C6
330
47
100
AcDbEntity
  8
0
  6
Continuous
 62
     7
100
AcDbLine
 10
72.77870153804756
 20
-29.62005125042838
 30
0.0
 11
72.778701538048
 21
-28.92723092740279
 31
0.0
  0
LINE
  5
C7
330
47
100
AcDbEntity
  8
0
  6
Continuous
 62
     7
100
AcDbLine
 10
72.77870153804756
 20
-29.62005125042838
 30
0.0
 11
80.5512795370129
 21
-31.86380125042861
 31
0.0
  0
LINE
  5
C8
330
47
100
AcDbEntity
  8
0
  6
Continuous
 62
     7
100
AcDbLine
 10
72.59235968426421
 20
-30.52437747329985
 30
0.0
 11
72.06590119280283
 21
-28.47500877117465
 31
0.0
  0
LINE
  5
C9
330
47
100
AcDbEntity
  8
0
  6
Continuous
 62
     7
100
AcDbLine
 10
79.42627953701302
 20
-28.24814518963026
 30
0.0
 11
79.42627953701302
 21
-29.11417059341447
 31
0.0
  0
LINE
  5
CA
330
47
100
AcDbEntity
  8
0
  6
Continuous
 62
     7
100
AcDbLine
 10
72.06590119280283
 20
-28.47500877117465
 30
0.0
 11
79.83847919176773
 21
-30.71875877117476
 31
0.0
  0
LINE
  5
CB
330
47
100
AcDbEntity
  8
0
  6
Continuous
 62
     7
100
AcDbLine
 10
76.38217456623286
 20
-44.14141865314754
 30
0.0
 11
75.95370153804731
 21
-31.76185268588821
 31
0.0
  0
LINE
  5
CC
330
47
100
AcDbEntity
  8
0
  6
Continuous
 62
     7
100
AcDbLine
 10
74.06653685976703
 20
-57.83453401693362
 30
0.0
 11
74.28612128192003
 21
-59.3205723103592
 31
0.0
  0
LINE
  5
CD
330
47
100
AcDbEntity
  8
0
  6
Continuous
 62
     7
100
AcDbLine
 10
74.4306720894889
 20
-59.19538763886702
 30
0.0
 11
74.28612128192003
 21
-59.3205723103592
 31
0.0
  0
LINE
  5
CE
330
47
100
AcDbEntity
  8
0
  6
Continuous
 62
     7
100
AcDbLine
 10
76.01596972461951
 20
-57.15032045273492
 30
0.0
 11
75.16596972461946
 21
-57.88644204595168
 31
0.0
  0
LINE
  5
CF
330
47
100
AcDbEntity
  8
0
  6
Continuous
 62
     7
100
AcDbLine
 10
75.59276656520417
 20
-57.51682513975044
 30
0.0
 11
75.45683077721515
 21
-58.5101186785396
 31
0.0
  0
LINE
  5
D0
330
47
100
AcDbEntity
  8
0
  6
Continuous
 62
     7
100
AcDbLine
 10
75.45683077721515
 20
-58.5101186785396
 30
0.0
 11
74.6068307772151
 21
-59.24624027175642
 31
0.0
  0
LINE
  5
D1
330
47
100
AcDbEntity
  8
0
  6
Continuous
 62
     7
100
AcDbLine
 10
75.16596972461946
 20
-57.88644204595168
 30
0.0
 11
75.53217456623288
 21
-44.87754024636433
 31
0.0
  0
LINE
  5
D2
330
47
100
AcDbEntity
  8
0
  6
Continuous
 62
     7
100
AcDbLine
 10
74.76801207822814
 20
-58.06847577545737
 30
0.0
 11
75.16596972461946
 21
-57.88644204595168
 31
0.0
  0
LINE
  5
D3
330
47
100
AcDbEntity
  8
0
  6
Continuous
 62
     7
100
AcDbLine
 10
74.6068307772151
 20
-59.24624027175642
 30
0.0
 11
74.76801207822814
 21
-58.06847577545737
 31
0.0
  0
LINE
  5
D4
330
47
100
AcDbEntity
  8
0
  6
Continuous
 62
     7
100
AcDbLine
 10
74.4306720894889
 20
-59.19538763886702
 30
0.0
 11
74.6068307772151
 21
-59.24624027175642
 31
0.0
  0
LINE
  5
D5
330
47
100
AcDbEntity
  8
0
  6
Continuous
 62
     7
100
AcDbLine
 10
72.49982636828047
 20
-57.38226365493252
 30
0.0
 11
71.80846333096946
 21
-57.18268433708288
 31
0.0
  0
LINE
  5
D6
330
47
100
AcDbEntity
  8
0
  6
Continuous
 62
     7
100
AcDbLine
 10
72.49982636828047
 20
-57.38226365493252
 30
0.0
 11
72.64944831666992
 21
-58.09839359869209
 31
0.0
  0
LINE
  5
D7
330
47
100
AcDbEntity
  8
0
  6
Continuous
 62
     7
100
AcDbLine
 10
72.64944831666992
 20
-58.09839359869209
 30
0.0
 11
72.9869925387528
 21
-58.435937820775
 31
0.0
  0
LINE
  5
D8
330
47
100
AcDbEntity
  8
0
  6
Continuous
 62
     7
100
AcDbLine
 10
72.9869925387528
 20
-58.435937820775
 30
0.0
 11
73.23194151303133
 21
-58.50664849889373
 31
0.0
  0
LINE
  5
D9
330
47
100
AcDbEntity
  8
0
  6
Continuous
 62
     7
100
AcDbLine
 10
74.06653685976703
 20
-57.83453401693362
 30
0.0
 11
73.37517382245605
 21
-57.63495469908391
 31
0.0
  0
LINE
  5
DA
330
47
100
AcDbEntity
  8
0
  6
Continuous
 62
     7
100
AcDbLine
 10
73.47904103337066
 20
-58.33787638787045
 30
0.0
 11
73.37517382245605
 21
-57.63495469908391
 31
0.0
  0
LINE
  5
DB
330
47
100
AcDbEntity
  8
0
  6
Continuous
 62
     7
100
AcDbLine
 10
73.23194151303133
 20
-58.50664849889373
 30
0.0
 11
73.47904103337066
 21
-58.33787638787045
 31
0.0
  0
LINE
  5
DC
330
47
100
AcDbEntity
  8
0
  6
Continuous
 62
     7
100
AcDbLine
 10
73.47311685952823
 20
-58.29778452206091
 30
0.0
 11
73.23194151303133
 21
-58.50664849889373
 31
0.0
  0
LINE
  5
DD
330
47
100
AcDbEntity
  8
0
  6
Continuous
 62
     7
100
AcDbLine
 10
73.43606417723406
 20
-58.04703037373115
 30
0.0
 11
72.9869925387528
 21
-58.435937820775
 31
0.0
  0
LINE
  5
DE
330
47
100
AcDbEntity
  8
0
  6
Continuous
 62
     7
100
AcDbLine
 10
73.37993635962775
 20
-57.46577239632987
 30
0.0
 11
72.64944831666992
 21
-58.09839359869209
 31
0.0
  0
LINE
  5
DF
330
47
100
AcDbEntity
  8
0
  6
Continuous
 62
     7
100
AcDbLine
 10
71.53254217403935
 20
-56.83645145146091
 30
0.0
 11
71.80673180577071
 21
-57.12017469115065
 31
0.0
  0
LINE
  5
E0
330
47
100
AcDbEntity
  8
0
  6
Continuous
 62
     7
100
AcDbLine
 10
71.44814594754725
 20
-44.17489670725738
 30
0.0
 11
71.80846333096946
 21
-57.18268433708288
 31
0.0
  0
LINE
  5
E1
330
47
100
AcDbEntity
  8
0
  6
Continuous
 62
     7
100
AcDbLine
 10
72.49982636828047
 20
-57.38226365493252
 30
0.0
 11
72.13950898485824
 21
-44.37447602510707
 31
0.0
  0
LINE
  5
E2
330
47
100
AcDbEntity
  8
0
  6
Continuous
 62
     7
100
AcDbLine
 10
73.73549120589414
 20
-44.83519640757655
 30
0.0
 11
73.37517382245605
 21
-57.63495469908391
 31
0.0
  0
LINE
  5
E3
330
47
100
AcDbEntity
  8
0
  6
Continuous
 62
     7
100
AcDbLine
 10
74.06653685976703
 20
-57.83453401693362
 30
0.0
 11
74.4268542432051
 21
-45.034775725427
 31
0.0
  0
LINE
  5
E4
330
47
100
AcDbEntity
  8
0
  6
Continuous
 62
     7
100
AcDbLine
 10
71.16636833880358
 20
-43.61724054604613
 30
0.0
 11
71.53254217403935
 21
-56.83645145146091
 31
0.0
  0
LINE
  5
E5
330
47
100
AcDbEntity
  8
0
  6
Continuous
 62
     7
100
AcDbLine
 10
72.12477729367595
 20
-58.69664604364849
 30
0.0
 11
71.80846333096946
 21
-57.18268433708288
 31
0.0
  0
LINE
  5
E6
330
47
100
AcDbEntity
  8
0
  6
Continuous
 62
     7
100
AcDbLine
 10
74.8393542432051
 20
-44.67754024636597
 30
0.0
 11
74.4268542432051
 21
-45.034775725427
 31
0.0
  0
LINE
  5
E7
330
47
100
AcDbEntity
  8
0
  6
Continuous
 62
     7
100
AcDbLine
 10
75.1037015380478
 20
-30.37782347871021
 30
0.0
 11
75.10370153804729
 21
-32.49797427910497
 31
0.0
  0
LINE
  5
E8
330
47
100
AcDbEntity
  8
0
  6
Continuous
 62
     7
100
AcDbLine
 10
73.99838121501955
 20
-32.6552097581659
 30
0.0
 11
74.41088121501947
 21
-32.29797427910486
 31
0.0
  0
LINE
  5
E9
330
47
100
AcDbEntity
  8
0
  6
Continuous
 62
     7
100
AcDbLine
 10
71.59629865272072
 20
-30.23683942095443
 30
0.0
 11
71.59629865272068
 21
-31.48547427910486
 31
0.0
  0
LINE
  5
EA
330
47
100
AcDbEntity
  8
0
  6
Continuous
 62
     7
100
AcDbLine
 10
71.87807626146436
 20
-32.04313044031613
 30
0.0
 11
71.87807626146447
 21
-30.31818161008435
 31
0.0
  0
LINE
  5
EB
330
47
100
AcDbEntity
  8
0
  6
Continuous
 62
     7
100
AcDbLine
 10
72.56943929877534
 20
-32.24270975816582
 30
0.0
 11
73.13193929877534
 21
-31.75557046853711
 31
0.0
  0
LINE
  5
EC
330
47
100
AcDbEntity
  8
0
  6
Continuous
 62
     7
100
AcDbLine
 10
73.99838121501963
 20
-30.44232648868339
 30
0.0
 11
73.99838121501955
 21
-32.6552097581659
 31
0.0
  0
LINE
  5
ED
330
47
100
AcDbEntity
  8
0
  6
Continuous
 62
     7
100
AcDbLine
 10
71.55312919972263
 20
-30.22437747329973
 30
0.0
 11
72.59235968426421
 21
-30.52437747329985
 31
0.0
  0
LINE
  5
EE
330
47
100
AcDbEntity
  8
0
  6
Continuous
 62
     7
100
AcDbLine
 10
71.48799961574483
 20
-29.97084460574942
 30
0.0
 11
71.55312919972263
 21
-30.22437747329973
 31
0.0
  0
LINE
  5
EF
330
47
100
AcDbEntity
  8
0
  6
Continuous
 62
     7
100
AcDbLine
 10
71.59629865272075
 20
-29.72596969403073
 30
0.0
 11
71.59629865272072
 21
-29.8770548885229
 31
0.0
  0
LINE
  5
F0
330
47
100
AcDbEntity
  8
0
  6
Continuous
 62
     7
100
AcDbLine
 10
70.12418728347839
 20
-29.81187747329968
 30
0.0
 11
71.74360717762919
 21
-29.71737323284805
 31
0.0
  0
LINE
  5
F1
330
47
100
AcDbEntity
  8
0
  6
Continuous
 62
     7
100
AcDbLine
 10
71.48799961574483
 20
-29.97084460574942
 30
0.0
 11
71.75035445216656
 21
-29.74363865260249
 31
0.0
  0
LINE
  5
F2
330
47
100
AcDbEntity
  8
0
  6
Continuous
 62
     7
100
AcDbLine
 10
71.48799961574483
 20
-29.97084460574942
 30
0.0
 11
71.8344097772586
 21
-30.07084460574942
 31
0.0
  0
LINE
  5
F3
330
47
100
AcDbEntity
  8
0
  6
Continuous
 62
     7
100
AcDbLine
 10
70.0590576995006
 20
-29.5583446057494
 30
0.0
 11
70.68552913726184
 21
-29.0158044259028
 31
0.0
  0
LINE
  5
F4
330
47
100
AcDbEntity
  8
0
  6
Continuous
 62
     7
100
AcDbLine
 10
69.71264753798684
 20
-29.45834460574939
 30
0.0
 11
70.33911897574808
 21
-28.91580442590279
 31
0.0
  0
LINE
  5
F5
330
47
100
AcDbEntity
  8
0
  6
Continuous
 62
     7
100
AcDbLine
 10
70.12418728347839
 20
-29.81187747329968
 30
0.0
 11
70.0590576995006
 21
-29.5583446057494
 31
0.0
  0
LINE
  5
F6
330
47
100
AcDbEntity
  8
0
  6
Continuous
 62
     7
100
AcDbLine
 10
69.96411897574812
 20
-27.93787762664535
 30
0.0
 11
69.96411897574808
 21
-28.80755125042973
 31
0.0
  0
LINE
  5
F7
330
47
100
AcDbEntity
  8
0
  6
Continuous
 62
     7
100
AcDbLine
 10
69.71264753798684
 20
-29.45834460574939
 30
0.0
 11
70.0590576995006
 21
-29.5583446057494
 31
0.0
  0
LINE
  5
F8
330
47
100
AcDbEntity
  8
0
  6
Continuous
 62
     7
100
AcDbLine
 10
68.55849830747584
 20
-27.4625087711749
 30
0.0
 11
69.08495679893714
 21
-29.51187747329966
 31
0.0
  0
LINE
  5
F9
330
47
100
AcDbEntity
  8
0
  6
Continuous
 62
     7
100
AcDbLine
 10
69.08495679893714
 20
-29.51187747329966
 30
0.0
 11
70.12418728347839
 21
-29.81187747329968
 31
0.0
  0
LINE
  5
FA
330
47
100
AcDbEntity
  8
0
  6
Continuous
 62
     7
100
AcDbLine
 10
69.27063044213112
 20
-27.73768473086347
 30
0.0
 11
69.71264753798684
 21
-29.45834460574939
 31
0.0
  0
LINE
  5
FB
330
47
100
AcDbEntity
  8
0
  6
Continuous
 62
     7
100
AcDbLine
 10
71.39239268140301
 20
-28.35018473086359
 30
0.0
 11
69.27063044213112
 21
-27.73768473086347
 31
0.0
  0
LINE
  5
FC
330
47
100
AcDbEntity
  8
0
  6
Continuous
 62
     7
100
AcDbLine
 10
71.8344097772586
 20
-30.07084460574942
 30
0.0
 11
71.39239268140301
 21
-28.35018473086359
 31
0.0
  0
LINE
  5
FD
330
47
100
AcDbEntity
  8
0
  6
Continuous
 62
     7
100
AcDbLine
 10
69.96411897574808
 20
-28.80755125042973
 30
0.0
 11
71.63369588503463
 21
-29.28951658943447
 31
0.0
  0
LINE
  5
FE
330
47
100
AcDbEntity
  8
0
  6
Continuous
 62
     7
100
AcDbLine
 10
74.41088121501947
 20
-32.29797427910486
 30
0.0
 11
74.8393542432051
 21
-44.67754024636597
 31
0.0
  0
LINE
  5
FF
330
47
100
AcDbEntity
  8
0
  6
Continuous
 62
     7
100
AcDbLine
 10
74.8393542432051
 20
-44.67754024636597
 30
0.0
 11
74.4306720894889
 21
-59.19538763886702
 31
0.0
  0
LINE
  5
100
330
47
100
AcDbEntity
  8
0
  6
Continuous
 62
     7
100
AcDbLine
 10
71.87807626146436
 20
-32.04313044031613
 30
0.0
 11
71.44814594754725
 21
-44.17489670725738
 31
0.0
  0
LINE
  5
101
330
47
100
AcDbEntity
  8
0
  6
Continuous
 62
     7
100
AcDbLine
 10
71.59629865272068
 20
-31.48547427910486
 30
0.0
 11
71.16636833880358
 21
-43.61724054604613
 31
0.0
  0
LINE
  5
102
330
47
100
AcDbEntity
  8
0
  6
Continuous
 62
     7
100
AcDbLine
 10
75.53217456623288
 20
-44.87754024636433
 30
0.0
 11
75.10370153804729
 21
-32.49797427910497
 31
0.0
  0
LINE
  5
103
330
47
100
AcDbEntity
  8
0
  6
Continuous
 62
     7
100
AcDbLine
 10
74.4268542432051
 20
-45.034775725427
 30
0.0
 11
73.99838121501955
 21
-32.6552097581659
 31
0.0
  0
LINE
  5
104
330
47
100
AcDbEntity
  8
0
  6
Continuous
 62
     7
100
AcDbLine
 10
73.30556089199213
 20
-32.45520975816588
 30
0.0
 11
73.73549120589414
 21
-44.83519640757655
 31
0.0
  0
LINE
  5
105
330
47
100
AcDbEntity
  8
0
  6
Continuous
 62
     7
100
AcDbLine
 10
74.28612128192003
 20
-59.3205723103592
 30
0.0
 11
72.12477729367595
 21
-58.69664604364849
 31
0.0
  0
LINE
  5
106
330
47
100
AcDbEntity
  8
0
  6
Continuous
 62
     7
100
AcDbLine
 10
66.86654097678297
 20
-18.87782579184288
 30
0.0
 11
66.49154097678297
 21
-19.20258531826205
 31
0.0
  0
LINE
  5
107
330
47
100
AcDbEntity
  8
0
  6
Continuous
 62
     7
100
AcDbLine
 10
66.47586765075641
 20
-22.08481216470985
 30
0.0
 11
66.4758676507564
 21
-22.25801724546683
 31
0.0
  0
LINE
  5
108
330
47
100
AcDbEntity
  8
0
  6
Continuous
 62
     7
100
AcDbLine
 10
66.65086765075642
 20
-21.63014882772304
 30
0.0
 11
66.47586765075641
 21
-22.08481216470985
 31
0.0
  0
LINE
  5
109
330
47
100
AcDbEntity
  8
0
  6
Continuous
 62
     7
100
AcDbLine
 10
66.49154097678297
 20
-19.20258531826205
 30
0.0
 11
66.49154097678293
 21
-20.11191199223569
 31
0.0
  0
LINE
  5
10A
330
47
100
AcDbEntity
  8
0
  6
Continuous
 62
     7
100
AcDbLine
 10
66.49154097678293
 20
-20.11191199223569
 30
0.0
 11
66.09154097678288
 21
-20.4583221537495
 31
0.0
  0
LINE
  5
10B
330
47
100
AcDbEntity
  8
0
  6
Continuous
 62
     7
100
AcDbLine
 10
66.09154097678288
 20
-20.4583221537495
 30
0.0
 11
65.74154097678289
 21
-21.36764882772302
 31
0.0
  0
LINE
  5
10C
330
47
100
AcDbEntity
  8
0
  6
Continuous
 62
     7
100
AcDbLine
 10
64.84154097678265
 20
-23.57601360737344
 30
0.0
 11
65.74154097678283
 21
-22.7965907439673
 31
0.0
  0
LINE
  5
10D
330
47
100
AcDbEntity
  8
0
  6
Continuous
 62
     7
100
AcDbLine
 10
65.74154097678289
 20
-21.36764882772302
 30
0.0
 11
66.65086765075642
 21
-21.63014882772304
 31
0.0
  0
LINE
  5
10E
330
47
100
AcDbEntity
  8
0
  6
Continuous
 62
     7
100
AcDbLine
 10
65.74154097678283
 20
-22.7965907439673
 30
0.0
 11
65.74154097678289
 21
-21.36764882772302
 31
0.0
  0
LINE
  5
10F
330
47
100
AcDbEntity
  8
0
  6
Continuous
 62
     7
100
AcDbLine
 10
60.37372065375538
 20
-22.7481451896297
 30
0.0
 11
60.37372065375535
 21
-23.61417059341386
 31
0.0
  0
LINE
  5
110
330
47
100
AcDbEntity
  8
0
  6
Continuous
 62
     7
100
AcDbLine
 10
66.57372065375537
 20
-17.37878768616618
 30
0.0
 11
60.37372065375538
 21
-22.7481451896297
 31
0.0
  0
LINE
  5
111
330
47
100
AcDbEntity
  8
0
  6
Continuous
 62
     7
100
AcDbLine
 10
61.46654097678307
 20
-22.60173502811596
 30
0.0
 11
66.86654097678304
 21
-17.92519784768001
 31
0.0
  0
LINE
  5
112
330
47
100
AcDbEntity
  8
0
  6
Continuous
 62
     7
100
AcDbLine
 10
60.37372065375535
 20
-23.61417059341386
 30
0.0
 11
79.42627953701302
 21
-29.11417059341447
 31
0.0
  0
ENDBLK
  5
49
330
47
100
AcDbEntity
  8
0
100
AcDbBlockEnd
  0
BLOCK
  5
4C
330
4A
100
AcDbEntity
  8
0
100
AcDbBlockBegin
  2
AllgSicht1
 70
     0
 10
73.00000000001006
 20
-40.99999999998001
 30
0.0
  3
AllgSicht1
  1

  0
INSERT
  5
4B
330
4A
100
AcDbEntity
  8
0
100
AcDbBlockReference
  2
KLM2_select__1
 10
60.37372065375535
 20
-59.3205723103592
 30
0.0
  0
MTEXT
  5
114
330
4A
100
AcDbEntity
  8
1
 62
     6
100
AcDbMText
 10
58.00000009538418
 20
-42.32057231035918
 30
0.0
 40
5.0
 41
0.0
 71
     2
 72
     1
  1
 \P1:1
  7
CONVERTER_11
 73
     1
 44
1.32052821128451
  0
ENDBLK
  5
4D
330
4A
100
AcDbEntity
  8
0
100
AcDbBlockEnd
  0
BLOCK
  5
4F
330
4E
100
AcDbEntity
  8
0
100
AcDbBlockBegin
  2
KLM2_select__2
 70
     0
 10
-26.09999980925013
 20
-28.2999996185153
 30
0.0
  3
KLM2_select__2
  1

  0
LINE
  5
115
330
4E
100
AcDbEntity
  8
0
  6
Continuous
 62
     7
100
AcDbLine
 10
-24.24999980925035
 20
-19.29999961851529
 30
0.0
 11
-17.12499980924987
 21
-19.29999961851529
 31
0.0
  0
LINE
  5
116
330
4E
100
AcDbEntity
  8
0
  6
Continuous
 62
     7
100
AcDbLine
 10
-25.29999980925007
 20
-17.44999961851532
 30
0.0
 11
-4.89999980925007
 21
-17.44999961851532
 31
0.0
  0
LINE
  5
117
330
4E
100
AcDbEntity
  8
0
  6
Continuous
 62
     7
100
AcDbLine
 10
-4.09999980925013
 20
-15.89999961851529
 30
0.0
 11
-26.09999980925013
 21
-15.89999961851529
 31
0.0
  0
LINE
  5
118
330
4E
100
AcDbEntity
  8
0
  6
Continuous
 62
     7
100
AcDbLine
 10
-17.12499980924983
 20
-18.9499996185153
 30
0.0
 11
-13.07499980924998
 21
-18.9499996185153
 31
0.0
  0
LINE
  5
119
330
4E
100
AcDbEntity
  8
0
  6
Continuous
 62
     7
100
AcDbLine
 10
-25.29999980925013
 20
-18.24999961851541
 30
0.0
 11
-4.89999980925014
 21
-18.24999961851541
 31
0.0
  0
LINE
  5
11A
330
4E
100
AcDbEntity
  8
0
  6
Continuous
 62
     7
100
AcDbLine
 10
-4.89999980925001
 20
-16.69999961851532
 30
0.0
 11
-25.29999980925
 21
-16.69999961851532
 31
0.0
  0
LINE
  5
11B
330
4E
100
AcDbEntity
  8
0
  6
Continuous
 62
     7
100
AcDbLine
 10
-17.12499980924987
 20
-19.29999961851529
 30
0.0
 11
-17.12499980924983
 21
-18.9499996185153
 31
0.0
  0
LINE
  5
11C
330
4E
100
AcDbEntity
  8
0
  6
Continuous
 62
     7
100
AcDbLine
 10
-17.12499980925003
 20
-25.24999961851529
 30
0.0
 11
-17.12499980925005
 21
-24.89999961851526
 31
0.0
  0
LINE
  5
11D
330
4E
100
AcDbEntity
  8
0
  6
Continuous
 62
     7
100
AcDbLine
 10
-24.24999980925032
 20
-18.9499996185153
 30
0.0
 11
-24.24999980925035
 21
-19.29999961851529
 31
0.0
  0
LINE
  5
11E
330
4E
100
AcDbEntity
  8
0
  6
Continuous
 62
     7
100
AcDbLine
 10
-25.29999980925017
 20
-18.9499996185153
 30
0.0
 11
-24.24999980925032
 21
-18.9499996185153
 31
0.0
  0
LINE
  5
11F
330
4E
100
AcDbEntity
  8
0
  6
Continuous
 62
     7
100
AcDbLine
 10
-24.24999980925031
 20
-25.24999961851529
 30
0.0
 11
-25.29999980925017
 21
-25.24999961851529
 31
0.0
  0
LINE
  5
120
330
4E
100
AcDbEntity
  8
0
  6
Continuous
 62
     7
100
AcDbLine
 10
-24.24999980925034
 20
-24.89999961851526
 30
0.0
 11
-24.24999980925031
 21
-25.24999961851529
 31
0.0
  0
LINE
  5
121
330
4E
100
AcDbEntity
  8
0
  6
Continuous
 62
     7
100
AcDbLine
 10
-25.29999980925017
 20
-18.9499996185153
 30
0.0
 11
-25.29999980925013
 21
-18.24999961851541
 31
0.0
  0
LINE
  5
122
330
4E
100
AcDbEntity
  8
0
  6
Continuous
 62
     7
100
AcDbLine
 10
-25.29999980925007
 20
-17.44999961851532
 30
0.0
 11
-25.29999980925
 21
-16.69999961851532
 31
0.0
  0
LINE
  5
123
330
4E
100
AcDbEntity
  8
0
  6
Continuous
 62
     7
100
AcDbLine
 10
-25.29999980925013
 20
-18.24999961851541
 30
0.0
 11
-25.29999980925007
 21
-17.44999961851532
 31
0.0
  0
LINE
  5
124
330
4E
100
AcDbEntity
  8
0
  6
Continuous
 62
     7
100
AcDbLine
 10
-25.29999980925013
 20
-25.94999961851516
 30
0.0
 11
-25.29999980925017
 21
-25.24999961851529
 31
0.0
  0
LINE
  5
125
330
4E
100
AcDbEntity
  8
0
  6
Continuous
 62
     7
100
AcDbLine
 10
-25.29999980925007
 20
-26.74999961851526
 30
0.0
 11
-25.29999980925013
 21
-25.94999961851516
 31
0.0
  0
LINE
  5
126
330
4E
100
AcDbEntity
  8
0
  6
Continuous
 62
     7
100
AcDbLine
 10
-25.29999980925017
 20
-25.24999961851529
 30
0.0
 11
-25.29999980925017
 21
-18.9499996185153
 31
0.0
  0
LINE
  5
127
330
4E
100
AcDbEntity
  8
0
  6
Continuous
 62
     7
100
AcDbLine
 10
-26.09999980925013
 20
-15.89999961851529
 30
0.0
 11
-26.09999980925013
 21
-28.2999996185153
 31
0.0
  0
LINE
  5
128
330
4E
100
AcDbEntity
  8
0
  6
Continuous
 62
     7
100
AcDbLine
 10
-25.29999980925
 20
-27.49999961851526
 30
0.0
 11
-25.29999980925007
 21
-26.74999961851526
 31
0.0
  0
LINE
  5
129
330
4E
100
AcDbEntity
  8
0
  6
Continuous
 62
     7
100
AcDbLine
 10
-25.29999980925007
 20
-26.74999961851526
 30
0.0
 11
-4.89999980925007
 21
-26.74999961851526
 31
0.0
  0
LINE
  5
12A
330
4E
100
AcDbEntity
  8
0
  6
Continuous
 62
     7
100
AcDbLine
 10
-25.29999980925
 20
-27.49999961851526
 30
0.0
 11
-4.89999980925001
 21
-27.49999961851526
 31
0.0
  0
LINE
  5
12B
330
4E
100
AcDbEntity
  8
0
  6
Continuous
 62
     7
100
AcDbLine
 10
-26.09999980925013
 20
-28.2999996185153
 30
0.0
 11
-4.09999980925013
 21
-28.2999996185153
 31
0.0
  0
LINE
  5
12C
330
4E
100
AcDbEntity
  8
0
  6
Continuous
 62
     7
100
AcDbLine
 10
-25.29999980925013
 20
-25.94999961851516
 30
0.0
 11
-4.89999980925014
 21
-25.94999961851517
 31
0.0
  0
LINE
  5
12D
330
4E
100
AcDbEntity
  8
0
  6
Continuous
 62
     7
100
AcDbLine
 10
-5.94999980925018
 20
-19.29999961851529
 30
0.0
 11
-5.94999980925015
 21
-18.9499996185153
 31
0.0
  0
LINE
  5
12E
330
4E
100
AcDbEntity
  8
0
  6
Continuous
 62
     7
100
AcDbLine
 10
-13.07499980925001
 20
-19.29999961851529
 30
0.0
 11
-5.94999980925018
 21
-19.29999961851529
 31
0.0
  0
LINE
  5
12F
330
4E
100
AcDbEntity
  8
0
  6
Continuous
 62
     7
100
AcDbLine
 10
-5.94999980925015
 20
-18.9499996185153
 30
0.0
 11
-4.89999980925017
 21
-18.9499996185153
 31
0.0
  0
LINE
  5
130
330
4E
100
AcDbEntity
  8
0
  6
Continuous
 62
     7
100
AcDbLine
 10
-13.07499980925001
 20
-24.89999961851526
 30
0.0
 11
-13.07499980924998
 21
-25.24999961851529
 31
0.0
  0
LINE
  5
131
330
4E
100
AcDbEntity
  8
0
  6
Continuous
 62
     7
100
AcDbLine
 10
-13.07499980925001
 20
-24.89999961851526
 30
0.0
 11
-5.94999980925018
 21
-24.89999961851526
 31
0.0
  0
LINE
  5
132
330
4E
100
AcDbEntity
  8
0
  6
Continuous
 62
     7
100
AcDbLine
 10
-5.94999980925015
 20
-25.2499996185153
 30
0.0
 11
-5.94999980925018
 21
-24.89999961851526
 31
0.0
  0
LINE
  5
133
330
4E
100
AcDbEntity
  8
0
  6
Continuous
 62
     7
100
AcDbLine
 10
-4.89999980925012
 20
-25.24999961851529
 30
0.0
 11
-5.94999980925015
 21
-25.2499996185153
 31
0.0
  0
LINE
  5
134
330
4E
100
AcDbEntity
  8
0
  6
Continuous
 62
     7
100
AcDbLine
 10
-4.89999980925014
 20
-18.24999961851541
 30
0.0
 11
-4.89999980925017
 21
-18.9499996185153
 31
0.0
  0
LINE
  5
135
330
4E
100
AcDbEntity
  8
0
  6
Continuous
 62
     7
100
AcDbLine
 10
-4.89999980925001
 20
-16.69999961851532
 30
0.0
 11
-4.89999980925007
 21
-17.44999961851532
 31
0.0
  0
LINE
  5
136
330
4E
100
AcDbEntity
  8
0
  6
Continuous
 62
     7
100
AcDbLine
 10
-4.89999980925007
 20
-17.44999961851532
 30
0.0
 11
-4.89999980925014
 21
-18.24999961851541
 31
0.0
  0
LINE
  5
137
330
4E
100
AcDbEntity
  8
0
  6
Continuous
 62
     7
100
AcDbLine
 10
-4.89999980925012
 20
-25.24999961851529
 30
0.0
 11
-4.89999980925014
 21
-25.94999961851517
 31
0.0
  0
LINE
  5
138
330
4E
100
AcDbEntity
  8
0
  6
Continuous
 62
     7
100
AcDbLine
 10
-4.89999980925007
 20
-26.74999961851526
 30
0.0
 11
-4.89999980925001
 21
-27.49999961851526
 31
0.0
  0
LINE
  5
139
330
4E
100
AcDbEntity
  8
0
  6
Continuous
 62
     7
100
AcDbLine
 10
-4.89999980925014
 20
-25.94999961851517
 30
0.0
 11
-4.89999980925007
 21
-26.74999961851526
 31
0.0
  0
LINE
  5
13A
330
4E
100
AcDbEntity
  8
0
  6
Continuous
 62
     7
100
AcDbLine
 10
-4.89999980925017
 20
-18.9499996185153
 30
0.0
 11
-4.89999980925012
 21
-25.24999961851529
 31
0.0
  0
LINE
  5
13B
330
4E
100
AcDbEntity
  8
0
  6
Continuous
 62
     7
100
AcDbLine
 10
-13.07499980924998
 20
-18.9499996185153
 30
0.0
 11
-13.07499980925001
 21
-19.29999961851529
 31
0.0
  0
LINE
  5
13C
330
4E
100
AcDbEntity
  8
0
  6
Continuous
 62
     7
100
AcDbLine
 10
-4.09999980925013
 20
-15.89999961851529
 30
0.0
 11
-4.09999980925013
 21
-28.2999996185153
 31
0.0
  0
LINE
  5
13D
330
4E
100
AcDbEntity
  8
0
  6
Continuous
 62
     7
100
AcDbLine
 10
-13.07499980924998
 20
-25.24999961851529
 30
0.0
 11
-17.12499980925003
 21
-25.24999961851529
 31
0.0
  0
LINE
  5
13E
330
4E
100
AcDbEntity
  8
0
  6
Continuous
 62
     7
100
AcDbLine
 10
-24.24999980925034
 20
-24.89999961851526
 30
0.0
 11
-17.12499980925005
 21
-24.89999961851526
 31
0.0
  0
ENDBLK
  5
50
330
4E
100
AcDbEntity
  8
0
100
AcDbBlockEnd
  0
BLOCK
  5
53
330
51
100
AcDbEntity
  8
0
100
AcDbBlockBegin
  2
Drfsicht1
 70
     0
 10
-15.09999980925504
 20
-22.09999980925509
 30
0.0
  3
Drfsicht1
  1

  0
INSERT
  5
52
330
51
100
AcDbEntity
  8
0
100
AcDbBlockReference
  2
KLM2_select__2
 10
-26.09999980925013
 20
-28.2999996185153
 30
0.0
  0
MTEXT
  5
13F
330
51
100
AcDbEntity
  8
1
 62
     6
100
AcDbMText
 10
-15.09999980925011
 20
-30.79999961851531
 30
0.0
 40
2.5
 41
0.0
 71
     2
 72
     1
  1
 
  7
CONVERTER_11
 73
     1
 44
1.32052821128451
  0
DIMENSION
  5
14A
330
51
100
AcDbEntity
  8
1
100
AcDbDimension
  2
*D17
 10
-31.31417396135457
 20
-15.8999996185153
 30
0.0
 11
-33.02667396135457
 21
-21.70150472726089
 31
0.0
 70
    32
  1
<>
 71
     5
 42
-1.0
 53
90.0
  3
ME10_DIM_10
100
AcDbAlignedDimension
 13
-26.09999980925013
 23
-28.2999996185153
 33
0.0
 14
-26.09999980925013
 24
-15.89999961851529
 34
0.0
 50
90.0
100
AcDbRotatedDimension
  0
ENDBLK
  5
54
330
51
100
AcDbEntity
  8
0
100
AcDbBlockEnd
  0
BLOCK
  5
56
330
55
100
AcDbEntity
  8
0
100
AcDbBlockBegin
  2
KLM2_select__3
 70
     0
 10
34.59999980925526
 20
-1.99999999995633
 30
0.0
  3
KLM2_select__3
  1

  0
LINE
  5
14B
330
55
100
AcDbEntity
  8
0
  6
Continuous
 62
     7
100
AcDbLine
 10
46.84785234269864
 20
-1.99999999995627
 30
0.0
 11
44.35214727585108
 21
-1.99999999995549
 31
0.0
  0
LINE
  5
14C
330
55
100
AcDbEntity
  8
0
  6
Continuous
 62
     7
100
AcDbLine
 10
45.45857845301912
 20
-1.28357864372342
 30
0.0
 11
45.74142116549398
 21
-1.28357864372342
 31
0.0
  0
LINE
  5
14D
330
55
100
AcDbEntity
  8
0
  6
Continuous
 62
     7
100
AcDbLine
 10
46.02499980925541
 20
34.70000000003994
 30
0.0
 11
46.82331708065471
 21
34.70000000003996
 31
0.0
  0
LINE
  5
14E
330
55
100
AcDbEntity
  8
0
  6
Continuous
 62
     7
100
AcDbLine
 10
46.82331708065495
 20
33.18266219715411
 30
0.0
 11
47.62499980925512
 21
33.18266219715413
 31
0.0
  0
LINE
  5
14F
330
55
100
AcDbEntity
  8
0
  6
Continuous
 62
     7
100
AcDbLine
 10
47.62499980925504
 20
35.50000000003965
 30
0.0
 11
47.62499980925531
 21
34.70000000003985
 31
0.0
  0
LINE
  5
150
330
55
100
AcDbEntity
  8
0
  6
Continuous
 62
     7
100
AcDbLine
 10
47.62499980925525
 20
29.05186072941487
 30
0.0
 11
47.62499980925517
 21
31.50000000007585
 31
0.0
  0
LINE
  5
151
330
55
100
AcDbEntity
  8
0
  6
Continuous
 62
     7
100
AcDbLine
 10
47.62499980925517
 20
31.50000000007585
 30
0.0
 11
46.82331708065416
 21
31.50000000007612
 31
0.0
  0
LINE
  5
152
330
55
100
AcDbEntity
  8
0
  6
Continuous
 62
     7
100
AcDbLine
 10
47.62499980925531
 20
34.70000000003985
 30
0.0
 11
47.62499980925512
 21
33.18266219715413
 31
0.0
  0
LINE
  5
153
330
55
100
AcDbEntity
  8
0
  6
Continuous
 62
     7
100
AcDbLine
 10
47.62499980925502
 20
36.60000000003931
 30
0.0
 11
47.62499980925504
 21
35.50000000003965
 31
0.0
  0
LINE
  5
154
330
55
100
AcDbEntity
  8
0
  6
Continuous
 62
     7
100
AcDbLine
 10
46.82331708065471
 20
34.70000000003996
 30
0.0
 11
46.8233170806546
 21
36.62886397979413
 31
0.0
  0
LINE
  5
155
330
55
100
AcDbEntity
  8
0
  6
Continuous
 62
     7
100
AcDbLine
 10
46.82331708065495
 20
33.18266219715411
 30
0.0
 11
46.82331708065416
 21
31.50000000007612
 31
0.0
  0
LINE
  5
156
330
55
100
AcDbEntity
  8
0
  6
Continuous
 62
     7
100
AcDbLine
 10
47.62499980925517
 20
31.50000000007585
 30
0.0
 11
47.62499980925512
 21
33.18266219715413
 31
0.0
  0
LINE
  5
157
330
55
100
AcDbEntity
  8
0
  6
Continuous
 62
     7
100
AcDbLine
 10
46.82331708065495
 20
33.18266219715411
 30
0.0
 11
46.82331708065471
 21
34.70000000003996
 31
0.0
  0
LINE
  5
158
330
55
100
AcDbEntity
  8
0
  6
Continuous
 62
     7
100
AcDbLine
 10
46.10538189757637
 20
0.00000000003948
 30
0.0
 11
46.5214405742014
 21
14.89999358484742
 31
0.0
  0
LINE
  5
159
330
55
100
AcDbEntity
  8
0
  6
Continuous
 62
     7
100
AcDbLine
 10
45.1749998092554
 20
34.70000000003991
 30
0.0
 11
45.17499980925575
 21
29.05186072941425
 31
0.0
  0
LINE
  5
15A
330
55
100
AcDbEntity
  8
0
  6
Continuous
 62
     7
100
AcDbLine
 10
45.17499980925575
 20
29.05186072941425
 30
0.0
 11
44.67855904432751
 21
14.89999358484628
 31
0.0
  0
LINE
  5
15B
330
55
100
AcDbEntity
  8
0
  6
Continuous
 62
     7
100
AcDbLine
 10
46.82331708065428
 20
29.05186072941483
 30
0.0
 11
46.82331708065416
 21
31.50000000007612
 31
0.0
  0
LINE
  5
15C
330
55
100
AcDbEntity
  8
0
  6
Continuous
 62
     7
100
AcDbLine
 10
46.82331708065428
 20
29.05186072941483
 30
0.0
 11
47.31975784559992
 21
14.89999358484748
 31
0.0
  0
LINE
  5
15D
330
55
100
AcDbEntity
  8
0
  6
Continuous
 62
     7
100
AcDbLine
 10
44.67855904432751
 20
14.89999358484628
 30
0.0
 11
45.0946177209709
 21
0.00000000003951
 31
0.0
  0
LINE
  5
15E
330
55
100
AcDbEntity
  8
0
  6
Continuous
 62
     7
100
AcDbLine
 10
47.31975784559992
 20
14.89999358484748
 30
0.0
 11
46.90369916897489
 21
0.00000000003959
 31
0.0
  0
LINE
  5
15F
330
55
100
AcDbEntity
  8
0
  6
Continuous
 62
     7
100
AcDbLine
 10
46.90369916897489
 20
0.00000000003959
 30
0.0
 11
46.10538189757637
 21
0.00000000003948
 31
0.0
  0
LINE
  5
160
330
55
100
AcDbEntity
  8
0
  6
Continuous
 62
     7
100
AcDbLine
 10
47.62499980925499
 20
36.7349815125479
 30
0.0
 11
47.62499980925502
 21
36.60000000003931
 31
0.0
  0
LINE
  5
161
330
55
100
AcDbEntity
  8
0
  6
Continuous
 62
     7
100
AcDbLine
 10
54.74999980925543
 20
36.66026894621549
 30
0.0
 11
54.7499998092555
 21
36.60000000003994
 31
0.0
  0
LINE
  5
162
330
55
100
AcDbEntity
  8
0
  6
Continuous
 62
     7
100
AcDbLine
 10
54.7499998092555
 20
36.60000000003994
 30
0.0
 11
54.7499998092555
 21
35.50000000004004
 31
0.0
  0
LINE
  5
163
330
55
100
AcDbEntity
  8
0
  6
Continuous
 62
     7
100
AcDbLine
 10
44.37499980925539
 20
36.62886397979399
 30
0.0
 11
46.8233170806546
 21
36.62886397979413
 31
0.0
  0
LINE
  5
164
330
55
100
AcDbEntity
  8
0
  6
Continuous
 62
     7
100
AcDbLine
 10
45.0946177209709
 20
0.00000000003951
 30
0.0
 11
44.29630044957234
 21
0.00000000003948
 31
0.0
  0
LINE
  5
165
330
55
100
AcDbEntity
  8
0
  6
Continuous
 62
     7
100
AcDbLine
 10
44.37499980925563
 20
33.18266219715333
 30
0.0
 11
44.37499980925578
 21
31.50000000007578
 31
0.0
  0
LINE
  5
166
330
55
100
AcDbEntity
  8
0
  6
Continuous
 62
     7
100
AcDbLine
 10
45.1749998092554
 20
34.70000000003991
 30
0.0
 11
46.02499980925541
 21
34.70000000003994
 31
0.0
  0
LINE
  5
167
330
55
100
AcDbEntity
  8
0
  6
Continuous
 62
     7
100
AcDbLine
 10
44.3749998092555
 20
34.70000000003989
 30
0.0
 11
45.1749998092554
 21
34.70000000003991
 31
0.0
  0
LINE
  5
168
330
55
100
AcDbEntity
  8
0
  6
Continuous
 62
     7
100
AcDbLine
 10
46.02499980925574
 20
29.05186072941477
 30
0.0
 11
46.02499980925541
 21
34.70000000003994
 31
0.0
  0
LINE
  5
169
330
55
100
AcDbEntity
  8
0
  6
Continuous
 62
     7
100
AcDbLine
 10
44.3749998092555
 20
34.70000000003989
 30
0.0
 11
44.37499980925539
 21
36.62886397979399
 31
0.0
  0
LINE
  5
16A
330
55
100
AcDbEntity
  8
0
  6
Continuous
 62
     7
100
AcDbLine
 10
45.17499980925575
 20
29.05186072941425
 30
0.0
 11
46.02499980925574
 21
29.05186072941477
 31
0.0
  0
LINE
  5
16B
330
55
100
AcDbEntity
  8
0
  6
Continuous
 62
     7
100
AcDbLine
 10
44.37499980925563
 20
33.18266219715333
 30
0.0
 11
44.3749998092555
 21
34.70000000003989
 31
0.0
  0
LINE
  5
16C
330
55
100
AcDbEntity
  8
0
  6
Continuous
 62
     7
100
AcDbLine
 10
46.5214405742014
 20
14.89999358484742
 30
0.0
 11
46.02499980925574
 21
29.05186072941477
 31
0.0
  0
LINE
  5
16D
330
55
100
AcDbEntity
  8
0
  6
Continuous
 62
     7
100
AcDbLine
 10
45.74142116549398
 20
-1.28357864372342
 30
0.0
 11
46.07896538757684
 21
-0.94603442164052
 31
0.0
  0
LINE
  5
16E
330
55
100
AcDbEntity
  8
0
  6
Continuous
 62
     7
100
AcDbLine
 10
45.0946177209709
 20
0.00000000003951
 30
0.0
 11
45.12103423097261
 21
-0.9460344216769
 31
0.0
  0
LINE
  5
16F
330
55
100
AcDbEntity
  8
0
  6
Continuous
 62
     7
100
AcDbLine
 10
45.12103423097261
 20
-0.9460344216769
 30
0.0
 11
45.45857845301912
 21
-1.28357864372342
 31
0.0
  0
LINE
  5
170
330
55
100
AcDbEntity
  8
0
  6
Continuous
 62
     7
100
AcDbLine
 10
44.35214727585108
 20
-1.99999999995549
 30
0.0
 11
44.29630044957234
 21
0.00000000003948
 31
0.0
  0
LINE
  5
171
330
55
100
AcDbEntity
  8
0
  6
Continuous
 62
     7
100
AcDbLine
 10
56.59999980925537
 20
36.66026894621566
 30
0.0
 11
56.59999980925542
 21
34.70000000004192
 31
0.0
  0
LINE
  5
172
330
55
100
AcDbEntity
  8
0
  6
Continuous
 62
     7
100
AcDbLine
 10
56.59999980925529
 20
39.0000000000401
 30
0.0
 11
56.59999980925537
 21
36.73498151254871
 31
0.0
  0
LINE
  5
173
330
55
100
AcDbEntity
  8
0
  6
Continuous
 62
     7
100
AcDbLine
 10
56.59999980925537
 20
36.66026894621566
 30
0.0
 11
54.74999980925543
 21
36.66026894621549
 31
0.0
  0
LINE
  5
174
330
55
100
AcDbEntity
  8
0
  6
Continuous
 62
     7
100
AcDbLine
 10
47.62499980925502
 20
36.60000000003931
 30
0.0
 11
54.7499998092555
 21
36.60000000003994
 31
0.0
  0
LINE
  5
175
330
55
100
AcDbEntity
  8
0
  6
Continuous
 62
     7
100
AcDbLine
 10
44.29630044957234
 20
0.00000000003948
 30
0.0
 11
43.88024177292899
 21
14.89999358484534
 31
0.0
  0
LINE
  5
176
330
55
100
AcDbEntity
  8
0
  6
Continuous
 62
     7
100
AcDbLine
 10
44.35214727585108
 20
-1.99999999995549
 30
0.0
 11
44.14873674429348
 21
-1.99999999995543
 31
0.0
  0
LINE
  5
177
330
55
100
AcDbEntity
  8
0
  6
Continuous
 62
     7
100
AcDbLine
 10
36.44999980925533
 20
36.60000000003951
 30
0.0
 11
43.57499980925516
 21
36.60000000003973
 31
0.0
  0
LINE
  5
178
330
55
100
AcDbEntity
  8
0
  6
Continuous
 62
     7
100
AcDbLine
 10
43.57499980925492
 20
35.50000000003942
 30
0.0
 11
36.4499998092554
 21
35.50000000003844
 31
0.0
  0
LINE
  5
179
330
55
100
AcDbEntity
  8
0
  6
Continuous
 62
     7
100
AcDbLine
 10
34.59999980925542
 20
34.70000000004128
 30
0.0
 11
43.5749998092552
 21
34.70000000004155
 31
0.0
  0
LINE
  5
17A
330
55
100
AcDbEntity
  8
0
  6
Continuous
 62
     7
100
AcDbLine
 10
43.5749998092552
 20
34.70000000004155
 30
0.0
 11
43.57499980925492
 21
35.50000000003942
 31
0.0
  0
LINE
  5
17B
330
55
100
AcDbEntity
  8
0
  6
Continuous
 62
     7
100
AcDbLine
 10
43.57499980925531
 20
33.18266219715329
 30
0.0
 11
43.5749998092552
 21
34.70000000004155
 31
0.0
  0
LINE
  5
17C
330
55
100
AcDbEntity
  8
0
  6
Continuous
 62
     7
100
AcDbLine
 10
43.57499980925516
 20
36.60000000003973
 30
0.0
 11
43.57499980925487
 21
36.73498151254832
 31
0.0
  0
LINE
  5
17D
330
55
100
AcDbEntity
  8
0
  6
Continuous
 62
     7
100
AcDbLine
 10
43.57499980925487
 20
36.73498151254832
 30
0.0
 11
34.59999980925537
 21
36.73498151254806
 31
0.0
  0
LINE
  5
17E
330
55
100
AcDbEntity
  8
0
  6
Continuous
 62
     7
100
AcDbLine
 10
43.57499980925492
 20
35.50000000003942
 30
0.0
 11
43.57499980925516
 21
36.60000000003973
 31
0.0
  0
LINE
  5
17F
330
55
100
AcDbEntity
  8
0
  6
Continuous
 62
     7
100
AcDbLine
 10
36.44999980925533
 20
36.60000000003951
 30
0.0
 11
36.44999980925532
 21
36.66026894621507
 31
0.0
  0
LINE
  5
180
330
55
100
AcDbEntity
  8
0
  6
Continuous
 62
     7
100
AcDbLine
 10
34.59999980925537
 20
36.66026894621501
 30
0.0
 11
34.59999980925542
 21
34.70000000004128
 31
0.0
  0
LINE
  5
181
330
55
100
AcDbEntity
  8
0
  6
Continuous
 62
     7
100
AcDbLine
 10
34.59999980925537
 20
36.66026894621501
 30
0.0
 11
36.44999980925532
 21
36.66026894621507
 31
0.0
  0
LINE
  5
182
330
55
100
AcDbEntity
  8
0
  6
Continuous
 62
     7
100
AcDbLine
 10
34.59999980925537
 20
36.73498151254806
 30
0.0
 11
34.59999980925537
 21
36.66026894621501
 31
0.0
  0
LINE
  5
183
330
55
100
AcDbEntity
  8
0
  6
Continuous
 62
     7
100
AcDbLine
 10
34.59999980925529
 20
39.00000000004002
 30
0.0
 11
34.59999980925537
 21
36.73498151254806
 31
0.0
  0
LINE
  5
184
330
55
100
AcDbEntity
  8
0
  6
Continuous
 62
     7
100
AcDbLine
 10
36.44999980925533
 20
36.60000000003951
 30
0.0
 11
36.4499998092554
 21
35.50000000003844
 31
0.0
  0
LINE
  5
185
330
55
100
AcDbEntity
  8
0
  6
Continuous
 62
     7
100
AcDbLine
 10
34.59999980925529
 20
39.00000000004002
 30
0.0
 11
34.59999980925526
 21
40.00000000003938
 31
0.0
  0
LINE
  5
186
330
55
100
AcDbEntity
  8
0
  6
Continuous
 62
     7
100
AcDbLine
 10
43.50309870069683
 20
-0.24346060739681
 30
0.0
 11
43.0802417729288
 21
14.89999358484733
 31
0.0
  0
LINE
  5
187
330
55
100
AcDbEntity
  8
0
  6
Continuous
 62
     7
100
AcDbLine
 10
43.50309870069683
 20
-0.24346060739681
 30
0.0
 11
43.96262060923704
 21
-0.58630760165732
 31
0.0
  0
LINE
  5
188
330
55
100
AcDbEntity
  8
0
  6
Continuous
 62
     7
100
AcDbLine
 10
43.96262060923704
 20
-0.58630760165732
 30
0.0
 11
44.14873674429348
 21
-1.99999999995543
 31
0.0
  0
LINE
  5
189
330
55
100
AcDbEntity
  8
0
  6
Continuous
 62
     7
100
AcDbLine
 10
43.0802417729288
 20
14.89999358484733
 30
0.0
 11
43.57499980925564
 21
29.05186072941462
 31
0.0
  0
LINE
  5
18A
330
55
100
AcDbEntity
  8
0
  6
Continuous
 62
     7
100
AcDbLine
 10
56.59999980925537
 20
36.73498151254871
 30
0.0
 11
56.59999980925537
 21
36.66026894621566
 31
0.0
  0
LINE
  5
18B
330
55
100
AcDbEntity
  8
0
  6
Continuous
 62
     7
100
AcDbLine
 10
56.59999980925529
 20
39.0000000000401
 30
0.0
 11
34.59999980925529
 21
39.00000000004002
 31
0.0
  0
LINE
  5
18C
330
55
100
AcDbEntity
  8
0
  6
Continuous
 62
     7
100
AcDbLine
 10
43.57499980925508
 20
31.50000000007573
 30
0.0
 11
43.57499980925531
 21
33.18266219715329
 31
0.0
  0
LINE
  5
18D
330
55
100
AcDbEntity
  8
0
  6
Continuous
 62
     7
100
AcDbLine
 10
44.37499980925563
 20
33.18266219715333
 30
0.0
 11
43.57499980925531
 21
33.18266219715329
 31
0.0
  0
LINE
  5
18E
330
55
100
AcDbEntity
  8
0
  6
Continuous
 62
     7
100
AcDbLine
 10
43.57499980925564
 20
29.05186072941462
 30
0.0
 11
43.57499980925508
 21
31.50000000007573
 31
0.0
  0
LINE
  5
18F
330
55
100
AcDbEntity
  8
0
  6
Continuous
 62
     7
100
AcDbLine
 10
43.57499980925508
 20
31.50000000007573
 30
0.0
 11
44.37499980925578
 21
31.50000000007578
 31
0.0
  0
LINE
  5
190
330
55
100
AcDbEntity
  8
0
  6
Continuous
 62
     7
100
AcDbLine
 10
54.7499998092555
 20
35.50000000004004
 30
0.0
 11
47.62499980925504
 21
35.50000000003965
 31
0.0
  0
LINE
  5
191
330
55
100
AcDbEntity
  8
0
  6
Continuous
 62
     7
100
AcDbLine
 10
44.37499980925591
 20
29.05186072941467
 30
0.0
 11
44.37499980925578
 21
31.50000000007578
 31
0.0
  0
LINE
  5
192
330
55
100
AcDbEntity
  8
0
  6
Continuous
 62
     7
100
AcDbLine
 10
43.88024177292899
 20
14.89999358484534
 30
0.0
 11
44.37499980925591
 21
29.05186072941467
 31
0.0
  0
LINE
  5
193
330
55
100
AcDbEntity
  8
0
  6
Continuous
 62
     7
100
AcDbLine
 10
56.59999980925529
 20
39.0000000000401
 30
0.0
 11
56.59999980925527
 21
40.00000000004003
 31
0.0
  0
LINE
  5
194
330
55
100
AcDbEntity
  8
0
  6
Continuous
 62
     7
100
AcDbLine
 10
34.59999980925526
 20
40.00000000003938
 30
0.0
 11
56.59999980925527
 21
40.00000000004003
 31
0.0
  0
LINE
  5
195
330
55
100
AcDbEntity
  8
0
  6
Continuous
 62
     7
100
AcDbLine
 10
56.59999980925537
 20
36.73498151254871
 30
0.0
 11
47.62499980925499
 21
36.7349815125479
 31
0.0
  0
LINE
  5
196
330
55
100
AcDbEntity
  8
0
  6
Continuous
 62
     7
100
AcDbLine
 10
47.05126287421975
 20
-1.99999999995633
 30
0.0
 11
47.23737900927626
 21
-0.58630760165718
 31
0.0
  0
LINE
  5
197
330
55
100
AcDbEntity
  8
0
  6
Continuous
 62
     7
100
AcDbLine
 10
47.23737900927626
 20
-0.58630760165718
 30
0.0
 11
47.69861944951376
 21
-0.24217841950519
 31
0.0
  0
LINE
  5
198
330
55
100
AcDbEntity
  8
0
  6
Continuous
 62
     7
100
AcDbLine
 10
46.84785234269864
 20
-1.99999999995627
 30
0.0
 11
47.05126287421975
 21
-1.99999999995633
 31
0.0
  0
LINE
  5
199
330
55
100
AcDbEntity
  8
0
  6
Continuous
 62
     7
100
AcDbLine
 10
47.62499980925531
 20
34.70000000003985
 30
0.0
 11
56.59999980925542
 21
34.70000000004192
 31
0.0
  0
LINE
  5
19A
330
55
100
AcDbEntity
  8
0
  6
Continuous
 62
     7
100
AcDbLine
 10
48.1214405742009
 20
14.89999358484752
 30
0.0
 11
47.69861944951376
 21
-0.24217841950519
 31
0.0
  0
LINE
  5
19B
330
55
100
AcDbEntity
  8
0
  6
Continuous
 62
     7
100
AcDbLine
 10
46.90369916897489
 20
0.00000000003959
 30
0.0
 11
46.84785234269864
 21
-1.99999999995627
 31
0.0
  0
LINE
  5
19C
330
55
100
AcDbEntity
  8
0
  6
Continuous
 62
     7
100
AcDbLine
 10
46.07896538757684
 20
-0.94603442164052
 30
0.0
 11
46.10538189757637
 21
0.00000000003948
 31
0.0
  0
LINE
  5
19D
330
55
100
AcDbEntity
  8
0
  6
Continuous
 62
     7
100
AcDbLine
 10
47.62499980925525
 20
29.05186072941487
 30
0.0
 11
48.1214405742009
 21
14.89999358484752
 31
0.0
  0
ENDBLK
  5
57
330
55
100
AcDbEntity
  8
0
100
AcDbBlockEnd
  0
BLOCK
  5
5A
330
58
100
AcDbEntity
  8
0
100
AcDbBlockBegin
  2
Rckans1
 70
     0
 10
45.59999980926017
 20
19.00000000002003
 30
0.0
  3
Rckans1
  1

  0
INSERT
  5
59
330
58
100
AcDbEntity
  8
0
100
AcDbBlockReference
  2
KLM2_select__3
 10
34.59999980925526
 20
-1.99999999995633
 30
0.0
  0
MTEXT
  5
19E
330
58
100
AcDbEntity
  8
1
 62
     6
100
AcDbMText
 10
45.59999980925533
 20
-4.49999999995633
 30
0.0
 40
2.5
 41
0.0
 71
     2
 72
     1
  1
 
  7
CONVERTER_11
 73
     1
 44
1.32052821128451
  0
ENDBLK
  5
5B
330
58
100
AcDbEntity
  8
0
100
AcDbBlockEnd
  0
BLOCK
  5
5D
330
5C
100
AcDbEntity
  8
0
100
AcDbBlockBegin
  2
KLM2_select__4
 70
     0
 10
8.2999998092552
 20
-1.99999999995633
 30
0.0
  3
KLM2_select__4
  1

  0
LINE
  5
19F
330
5C
100
AcDbEntity
  8
0
  6
Continuous
 62
     7
100
AcDbLine
 10
18.4499998092552
 20
34.70000000004193
 30
0.0
 11
18.4499998092552
 21
36.66026894621568
 31
0.0
  0
LINE
  5
1A0
330
5C
100
AcDbEntity
  8
0
  6
Continuous
 62
     7
100
AcDbLine
 10
9.12439911876501
 20
36.73498151254791
 30
0.0
 11
10.54999980925519
 21
36.66026894621566
 31
0.0
  0
LINE
  5
1A1
330
5C
100
AcDbEntity
  8
0
  6
Continuous
 62
     7
100
AcDbLine
 10
8.2999998092552
 20
40.00000000004003
 30
0.0
 11
20.69999980925521
 21
40.00000000004003
 31
0.0
  0
LINE
  5
1A2
330
5C
100
AcDbEntity
  8
0
  6
Continuous
 62
     7
100
AcDbLine
 10
8.2999998092552
 20
39.0000000000401
 30
0.0
 11
8.2999998092552
 21
40.00000000004003
 31
0.0
  0
LINE
  5
1A3
330
5C
100
AcDbEntity
  8
0
  6
Continuous
 62
     7
100
AcDbLine
 10
18.4499998092552
 20
36.66026894621568
 30
0.0
 11
19.87560049974541
 21
36.73498151254788
 31
0.0
  0
LINE
  5
1A4
330
5C
100
AcDbEntity
  8
0
  6
Continuous
 62
     7
100
AcDbLine
 10
8.2999998092552
 20
39.0000000000401
 30
0.0
 11
9.12439911876501
 21
36.73498151254791
 31
0.0
  0
LINE
  5
1A5
330
5C
100
AcDbEntity
  8
0
  6
Continuous
 62
     7
100
AcDbLine
 10
14.08910142439414
 20
-1.99999999995627
 30
0.0
 11
14.62499980925512
 21
0.00000000003909
 31
0.0
  0
LINE
  5
1A6
330
5C
100
AcDbEntity
  8
0
  6
Continuous
 62
     7
100
AcDbLine
 10
13.79999980925531
 20
-1.99999999995633
 30
0.0
 11
14.08910142439414
 21
-1.99999999995627
 31
0.0
  0
LINE
  5
1A7
330
5C
100
AcDbEntity
  8
0
  6
Continuous
 62
     7
100
AcDbLine
 10
14.62499980925518
 20
29.05186072941473
 30
0.0
 11
14.62499980925512
 21
14.89999358484748
 31
0.0
  0
LINE
  5
1A8
330
5C
100
AcDbEntity
  8
0
  6
Continuous
 62
     7
100
AcDbLine
 10
13.79999980925531
 20
14.89999358484752
 30
0.0
 11
14.62499980925512
 21
14.89999358484748
 31
0.0
  0
LINE
  5
1A9
330
5C
100
AcDbEntity
  8
0
  6
Continuous
 62
     7
100
AcDbLine
 10
14.62499980925512
 20
14.89999358484748
 30
0.0
 11
14.62499980925512
 21
0.00000000003909
 31
0.0
  0
LINE
  5
1AA
330
5C
100
AcDbEntity
  8
0
  6
Continuous
 62
     7
100
AcDbLine
 10
13.79999980925531
 20
29.05186072941487
 30
0.0
 11
13.79999980925531
 21
14.89999358484752
 31
0.0
  0
LINE
  5
1AB
330
5C
100
AcDbEntity
  8
0
  6
Continuous
 62
     7
100
AcDbLine
 10
13.79999980925531
 20
31.50000000007596
 30
0.0
 11
13.79999980925531
 21
29.05186072941487
 31
0.0
  0
LINE
  5
1AC
330
5C
100
AcDbEntity
  8
0
  6
Continuous
 62
     7
100
AcDbLine
 10
14.62499980925518
 20
29.05186072941473
 30
0.0
 11
14.62499980925518
 21
31.88470381805383
 31
0.0
  0
LINE
  5
1AD
330
5C
100
AcDbEntity
  8
0
  6
Continuous
 62
     7
100
AcDbLine
 10
14.62499980925518
 20
31.88470381805383
 30
0.0
 11
13.79999980925531
 21
31.50000000007596
 31
0.0
  0
LINE
  5
1AE
330
5C
100
AcDbEntity
  8
0
  6
Continuous
 62
     7
100
AcDbLine
 10
13.79999980925531
 20
14.89999358484752
 30
0.0
 11
13.79999980925531
 21
-0.24217841950521
 31
0.0
  0
LINE
  5
1AF
330
5C
100
AcDbEntity
  8
0
  6
Continuous
 62
     7
100
AcDbLine
 10
9.12439911876501
 20
36.73498151254791
 30
0.0
 11
10.41733761217725
 21
33.18266219715413
 31
0.0
  0
LINE
  5
1B0
330
5C
100
AcDbEntity
  8
0
  6
Continuous
 62
     7
100
AcDbLine
 10
13.79999980925531
 20
29.05186072941487
 30
0.0
 11
12.09999980925531
 21
29.05186072941487
 31
0.0
  0
LINE
  5
1B1
330
5C
100
AcDbEntity
  8
0
  6
Continuous
 62
     7
100
AcDbLine
 10
14.62499980925518
 20
29.05186072941473
 30
0.0
 11
13.79999980925531
 21
29.05186072941487
 31
0.0
  0
LINE
  5
1B2
330
5C
100
AcDbEntity
  8
0
  6
Continuous
 62
     7
100
AcDbLine
 10
10.54999980925519
 20
34.70000000004193
 30
0.0
 11
18.4499998092552
 21
34.70000000004193
 31
0.0
  0
LINE
  5
1B3
330
5C
100
AcDbEntity
  8
0
  6
Continuous
 62
     7
100
AcDbLine
 10
12.09999980925531
 20
-0.58630760165717
 30
0.0
 11
12.09999980925531
 21
-0.24217841950518
 31
0.0
  0
LINE
  5
1B4
330
5C
100
AcDbEntity
  8
0
  6
Continuous
 62
     7
100
AcDbLine
 10
11.81089819411627
 20
-1.99999999995627
 30
0.0
 11
12.09999980925531
 21
-1.99999999995627
 31
0.0
  0
LINE
  5
1B5
330
5C
100
AcDbEntity
  8
0
  6
Continuous
 62
     7
100
AcDbLine
 10
11.2749998092551
 20
14.89999358484748
 30
0.0
 11
12.09999980925531
 21
14.89999358484752
 31
0.0
  0
LINE
  5
1B6
330
5C
100
AcDbEntity
  8
0
  6
Continuous
 62
     7
100
AcDbLine
 10
12.09999980925531
 20
29.05186072941487
 30
0.0
 11
11.27499980925512
 21
29.05186072941483
 31
0.0
  0
LINE
  5
1B7
330
5C
100
AcDbEntity
  8
0
  6
Continuous
 62
     7
100
AcDbLine
 10
12.09999980925529
 20
31.50000000007587
 30
0.0
 11
11.27499980925512
 21
32.32500000007629
 31
0.0
  0
LINE
  5
1B8
330
5C
100
AcDbEntity
  8
0
  6
Continuous
 62
     7
100
AcDbLine
 10
11.27499980925512
 20
32.32500000007629
 30
0.0
 11
10.41733761217725
 21
33.18266219715413
 31
0.0
  0
LINE
  5
1B9
330
5C
100
AcDbEntity
  8
0
  6
Continuous
 62
     7
100
AcDbLine
 10
13.79999980925531
 20
-0.24217841950521
 30
0.0
 11
13.79999980925531
 21
-0.58630760165717
 31
0.0
  0
LINE
  5
1BA
330
5C
100
AcDbEntity
  8
0
  6
Continuous
 62
     7
100
AcDbLine
 10
12.09999980925531
 20
-0.58630760165717
 30
0.0
 11
13.79999980925531
 21
-0.58630760165717
 31
0.0
  0
LINE
  5
1BB
330
5C
100
AcDbEntity
  8
0
  6
Continuous
 62
     7
100
AcDbLine
 10
13.79999980925531
 20
-0.58630760165717
 30
0.0
 11
13.79999980925531
 21
-1.99999999995633
 31
0.0
  0
LINE
  5
1BC
330
5C
100
AcDbEntity
  8
0
  6
Continuous
 62
     7
100
AcDbLine
 10
12.09999980925531
 20
-1.99999999995627
 30
0.0
 11
12.09999980925531
 21
-0.58630760165717
 31
0.0
  0
LINE
  5
1BD
330
5C
100
AcDbEntity
  8
0
  6
Continuous
 62
     7
100
AcDbLine
 10
12.09999980925531
 20
29.05186072941487
 30
0.0
 11
12.09999980925529
 21
31.50000000007587
 31
0.0
  0
LINE
  5
1BE
330
5C
100
AcDbEntity
  8
0
  6
Continuous
 62
     7
100
AcDbLine
 10
12.09999980925531
 20
29.05186072941487
 30
0.0
 11
12.09999980925531
 21
14.89999358484752
 31
0.0
  0
LINE
  5
1BF
330
5C
100
AcDbEntity
  8
0
  6
Continuous
 62
     7
100
AcDbLine
 10
12.09999980925531
 20
14.89999358484752
 30
0.0
 11
13.79999980925531
 21
14.89999358484752
 31
0.0
  0
LINE
  5
1C0
330
5C
100
AcDbEntity
  8
0
  6
Continuous
 62
     7
100
AcDbLine
 10
13.79999980925531
 20
-0.24217841950521
 30
0.0
 11
12.09999980925531
 21
-0.24217841950518
 31
0.0
  0
LINE
  5
1C1
330
5C
100
AcDbEntity
  8
0
  6
Continuous
 62
     7
100
AcDbLine
 10
12.09999980925531
 20
14.89999358484752
 30
0.0
 11
12.09999980925531
 21
-0.24217841950518
 31
0.0
  0
LINE
  5
1C2
330
5C
100
AcDbEntity
  8
0
  6
Continuous
 62
     7
100
AcDbLine
 10
13.79999980925531
 20
-1.99999999995633
 30
0.0
 11
12.09999980925531
 21
-1.99999999995627
 31
0.0
  0
LINE
  5
1C3
330
5C
100
AcDbEntity
  8
0
  6
Continuous
 62
     7
100
AcDbLine
 10
11.27499980925512
 20
29.05186072941483
 30
0.0
 11
11.27499980925512
 21
32.32500000007629
 31
0.0
  0
LINE
  5
1C4
330
5C
100
AcDbEntity
  8
0
  6
Continuous
 62
     7
100
AcDbLine
 10
11.27499980925512
 20
0.00000000003959
 30
0.0
 11
11.81089819411627
 21
-1.99999999995627
 31
0.0
  0
LINE
  5
1C5
330
5C
100
AcDbEntity
  8
0
  6
Continuous
 62
     7
100
AcDbLine
 10
11.27499980925512
 20
29.05186072941483
 30
0.0
 11
11.2749998092551
 21
14.89999358484748
 31
0.0
  0
LINE
  5
1C6
330
5C
100
AcDbEntity
  8
0
  6
Continuous
 62
     7
100
AcDbLine
 10
10.54999980925519
 20
36.66026894621566
 30
0.0
 11
10.54999980925519
 21
34.70000000004193
 31
0.0
  0
LINE
  5
1C7
330
5C
100
AcDbEntity
  8
0
  6
Continuous
 62
     7
100
AcDbLine
 10
11.2749998092551
 20
14.89999358484748
 30
0.0
 11
11.27499980925512
 21
0.00000000003959
 31
0.0
  0
LINE
  5
1C8
330
5C
100
AcDbEntity
  8
0
  6
Continuous
 62
     7
100
AcDbLine
 10
20.69999980925521
 20
40.00000000004003
 30
0.0
 11
20.69999980925521
 21
39.00000000004035
 31
0.0
  0
LINE
  5
1C9
330
5C
100
AcDbEntity
  8
0
  6
Continuous
 62
     7
100
AcDbLine
 10
19.87560049974541
 20
36.73498151254788
 30
0.0
 11
18.82268351682176
 21
33.84211587740483
 31
0.0
  0
LINE
  5
1CA
330
5C
100
AcDbEntity
  8
0
  6
Continuous
 62
     7
100
AcDbLine
 10
19.87560049974541
 20
36.73498151254788
 30
0.0
 11
20.69999980925521
 21
39.00000000004035
 31
0.0
  0
LINE
  5
1CB
330
5C
100
AcDbEntity
  8
0
  6
Continuous
 62
     7
100
AcDbLine
 10
18.82268351682176
 20
33.84211587740483
 30
0.0
 11
14.62499980925518
 21
31.88470381805383
 31
0.0
  0
ENDBLK
  5
5E
330
5C
100
AcDbEntity
  8
0
100
AcDbBlockEnd
  0
BLOCK
  5
61
330
5F
100
AcDbEntity
  8
0
100
AcDbBlockBegin
  2
SA_Links1
 70
     0
 10
14.499999999995
 20
19.00000000002003
 30
0.0
  3
SA_Links1
  1

  0
INSERT
  5
60
330
5F
100
AcDbEntity
  8
0
100
AcDbBlockReference
  2
KLM2_select__4
 10
8.2999998092552
 20
-1.99999999995633
 30
0.0
  0
MTEXT
  5
1CC
330
5F
100
AcDbEntity
  8
1
 62
     6
100
AcDbMText
 10
14.49999980925521
 20
-4.49999999995633
 30
0.0
 40
2.5
 41
0.0
 71
     2
 72
     1
  1
 
  7
CONVERTER_11
 73
     1
 44
1.32052821128451
  0
ENDBLK
  5
62
330
5F
100
AcDbEntity
  8
0
100
AcDbBlockEnd
  0
BLOCK
  5
64
330
63
100
AcDbEntity
  8
0
100
AcDbBlockBegin
  2
KLM2_select__5
 70
     0
 10
-59.39999942778049
 20
-1.99999999995552
 30
0.0
  3
KLM2_select__5
  1

  0
LINE
  5
1CD
330
63
100
AcDbEntity
  8
0
  6
Continuous
 62
     7
100
AcDbLine
 10
-50.51089781264266
 20
-1.99999999995551
 30
0.0
 11
-50.79999942778057
 21
-1.99999999995546
 31
0.0
  0
LINE
  5
1CE
330
63
100
AcDbEntity
  8
0
  6
Continuous
 62
     7
100
AcDbLine
 10
-50.51089781264266
 20
-1.99999999995551
 30
0.0
 11
-49.97499942778041
 21
0.00000000003946
 31
0.0
  0
LINE
  5
1CF
330
63
100
AcDbEntity
  8
0
  6
Continuous
 62
     7
100
AcDbLine
 10
-53.32499942778048
 20
0.00000000003899
 30
0.0
 11
-52.7891010429183
 21
-1.99999999995551
 31
0.0
  0
LINE
  5
1D0
330
63
100
AcDbEntity
  8
0
  6
Continuous
 62
     7
100
AcDbLine
 10
-52.49999942778057
 20
-1.99999999995552
 30
0.0
 11
-52.7891010429183
 21
-1.99999999995551
 31
0.0
  0
LINE
  5
1D1
330
63
100
AcDbEntity
  8
0
  6
Continuous
 62
     7
100
AcDbLine
 10
-50.79999942778057
 20
-1.99999999995546
 30
0.0
 11
-52.49999942778057
 21
-1.99999999995552
 31
0.0
  0
LINE
  5
1D2
330
63
100
AcDbEntity
  8
0
  6
Continuous
 62
     7
100
AcDbLine
 10
-50.79999942778058
 20
-0.24346060739684
 30
0.0
 11
-52.49999942778058
 21
-0.24346060739684
 31
0.0
  0
LINE
  5
1D3
330
63
100
AcDbEntity
  8
0
  6
Continuous
 62
     7
100
AcDbLine
 10
-50.79999942778058
 20
-0.24346060739684
 30
0.0
 11
-50.79999942778057
 21
-0.58630760165735
 31
0.0
  0
LINE
  5
1D4
330
63
100
AcDbEntity
  8
0
  6
Continuous
 62
     7
100
AcDbLine
 10
-50.79999942778057
 20
-0.58630760165735
 30
0.0
 11
-50.79999942778057
 21
-1.99999999995546
 31
0.0
  0
LINE
  5
1D5
330
63
100
AcDbEntity
  8
0
  6
Continuous
 62
     7
100
AcDbLine
 10
-50.79999942778058
 20
-0.24346060739684
 30
0.0
 11
-50.79999942778058
 21
14.89999358484731
 31
0.0
  0
LINE
  5
1D6
330
63
100
AcDbEntity
  8
0
  6
Continuous
 62
     7
100
AcDbLine
 10
-50.79999942778058
 20
14.89999358484731
 30
0.0
 11
-50.79999942778058
 21
29.05186072941465
 31
0.0
  0
LINE
  5
1D7
330
63
100
AcDbEntity
  8
0
  6
Continuous
 62
     7
100
AcDbLine
 10
-49.97499942778046
 20
29.05186072941465
 30
0.0
 11
-49.97499942778063
 21
32.32500000007601
 31
0.0
  0
LINE
  5
1D8
330
63
100
AcDbEntity
  8
0
  6
Continuous
 62
     7
100
AcDbLine
 10
-49.97499942778048
 20
14.89999358484532
 30
0.0
 11
-49.97499942778046
 21
29.05186072941465
 31
0.0
  0
LINE
  5
1D9
330
63
100
AcDbEntity
  8
0
  6
Continuous
 62
     7
100
AcDbLine
 10
-49.97499942778041
 20
0.00000000003946
 30
0.0
 11
-49.97499942778048
 21
14.89999358484532
 31
0.0
  0
LINE
  5
1DA
330
63
100
AcDbEntity
  8
0
  6
Continuous
 62
     7
100
AcDbLine
 10
-53.32499942778048
 20
31.8847038180538
 30
0.0
 11
-53.32499942778048
 21
29.05186072941465
 31
0.0
  0
LINE
  5
1DB
330
63
100
AcDbEntity
  8
0
  6
Continuous
 62
     7
100
AcDbLine
 10
-53.32499942778049
 20
14.89999358484532
 30
0.0
 11
-53.32499942778048
 21
29.05186072941465
 31
0.0
  0
LINE
  5
1DC
330
63
100
AcDbEntity
  8
0
  6
Continuous
 62
     7
100
AcDbLine
 10
-53.32499942778048
 20
0.00000000003899
 30
0.0
 11
-53.32499942778049
 21
14.89999358484532
 31
0.0
  0
LINE
  5
1DD
330
63
100
AcDbEntity
  8
0
  6
Continuous
 62
     7
100
AcDbLine
 10
-50.79999942778057
 20
-0.58630760165735
 30
0.0
 11
-52.49999942778057
 21
-0.58630760165735
 31
0.0
  0
LINE
  5
1DE
330
63
100
AcDbEntity
  8
0
  6
Continuous
 62
     7
100
AcDbLine
 10
-57.14999942778047
 20
36.6602689462155
 30
0.0
 11
-58.57560011827088
 21
36.73498151254828
 31
0.0
  0
LINE
  5
1DF
330
63
100
AcDbEntity
  8
0
  6
Continuous
 62
     7
100
AcDbLine
 10
-46.99999942778047
 20
40.00000000003936
 30
0.0
 11
-59.39999942778049
 21
40.00000000003936
 31
0.0
  0
LINE
  5
1E0
330
63
100
AcDbEntity
  8
0
  6
Continuous
 62
     7
100
AcDbLine
 10
-59.39999942778049
 20
40.00000000003936
 30
0.0
 11
-59.39999942778049
 21
39.00000000003962
 31
0.0
  0
LINE
  5
1E1
330
63
100
AcDbEntity
  8
0
  6
Continuous
 62
     7
100
AcDbLine
 10
-57.14999942778047
 20
34.70000000004126
 30
0.0
 11
-57.14999942778047
 21
36.6602689462155
 31
0.0
  0
LINE
  5
1E2
330
63
100
AcDbEntity
  8
0
  6
Continuous
 62
     7
100
AcDbLine
 10
-57.52268313534702
 20
33.84211587740474
 30
0.0
 11
-58.57560011827088
 21
36.73498151254828
 31
0.0
  0
LINE
  5
1E3
330
63
100
AcDbEntity
  8
0
  6
Continuous
 62
     7
100
AcDbLine
 10
-49.24999942778047
 20
34.70000000004126
 30
0.0
 11
-57.14999942778047
 21
34.70000000004126
 31
0.0
  0
LINE
  5
1E4
330
63
100
AcDbEntity
  8
0
  6
Continuous
 62
     7
100
AcDbLine
 10
-49.11733723070283
 20
33.18266219715327
 30
0.0
 11
-47.82439873729012
 21
36.7349815125483
 31
0.0
  0
LINE
  5
1E5
330
63
100
AcDbEntity
  8
0
  6
Continuous
 62
     7
100
AcDbLine
 10
-59.39999942778049
 20
39.00000000003962
 30
0.0
 11
-58.57560011827088
 21
36.73498151254828
 31
0.0
  0
LINE
  5
1E6
330
63
100
AcDbEntity
  8
0
  6
Continuous
 62
     7
100
AcDbLine
 10
-52.49999942778058
 20
31.5000000000758
 30
0.0
 11
-52.49999942778058
 21
29.05186072941465
 31
0.0
  0
LINE
  5
1E7
330
63
100
AcDbEntity
  8
0
  6
Continuous
 62
     7
100
AcDbLine
 10
-52.49999942778057
 20
-0.58630760165735
 30
0.0
 11
-52.49999942778058
 21
-0.24346060739684
 31
0.0
  0
LINE
  5
1E8
330
63
100
AcDbEntity
  8
0
  6
Continuous
 62
     7
100
AcDbLine
 10
-52.49999942778057
 20
-1.99999999995552
 30
0.0
 11
-52.49999942778057
 21
-0.58630760165735
 31
0.0
  0
LINE
  5
1E9
330
63
100
AcDbEntity
  8
0
  6
Continuous
 62
     7
100
AcDbLine
 10
-52.49999942778058
 20
-0.24346060739684
 30
0.0
 11
-52.49999942778058
 21
14.8999935848473
 31
0.0
  0
LINE
  5
1EA
330
63
100
AcDbEntity
  8
0
  6
Continuous
 62
     7
100
AcDbLine
 10
-52.49999942778058
 20
14.8999935848473
 30
0.0
 11
-52.49999942778058
 21
29.05186072941465
 31
0.0
  0
LINE
  5
1EB
330
63
100
AcDbEntity
  8
0
  6
Continuous
 62
     7
100
AcDbLine
 10
-47.82439873729012
 20
36.7349815125483
 30
0.0
 11
-49.24999942778047
 21
36.66026894621548
 31
0.0
  0
LINE
  5
1EC
330
63
100
AcDbEntity
  8
0
  6
Continuous
 62
     7
100
AcDbLine
 10
-49.24999942778047
 20
36.66026894621548
 30
0.0
 11
-49.24999942778047
 21
34.70000000004126
 31
0.0
  0
LINE
  5
1ED
330
63
100
AcDbEntity
  8
0
  6
Continuous
 62
     7
100
AcDbLine
 10
-46.99999942778047
 20
39.00000000004
 30
0.0
 11
-46.99999942778047
 21
40.00000000003936
 31
0.0
  0
LINE
  5
1EE
330
63
100
AcDbEntity
  8
0
  6
Continuous
 62
     7
100
AcDbLine
 10
-50.79999942778058
 20
31.50000000007571
 30
0.0
 11
-49.97499942778063
 21
32.32500000007601
 31
0.0
  0
LINE
  5
1EF
330
63
100
AcDbEntity
  8
0
  6
Continuous
 62
     7
100
AcDbLine
 10
-52.49999942778058
 20
29.05186072941465
 30
0.0
 11
-50.79999942778058
 21
29.05186072941465
 31
0.0
  0
LINE
  5
1F0
330
63
100
AcDbEntity
  8
0
  6
Continuous
 62
     7
100
AcDbLine
 10
-53.32499942778048
 20
29.05186072941465
 30
0.0
 11
-52.49999942778058
 21
29.05186072941465
 31
0.0
  0
LINE
  5
1F1
330
63
100
AcDbEntity
  8
0
  6
Continuous
 62
     7
100
AcDbLine
 10
-50.79999942778058
 20
29.05186072941465
 30
0.0
 11
-49.97499942778046
 21
29.05186072941465
 31
0.0
  0
LINE
  5
1F2
330
63
100
AcDbEntity
  8
0
  6
Continuous
 62
     7
100
AcDbLine
 10
-53.32499942778048
 20
31.8847038180538
 30
0.0
 11
-52.49999942778058
 21
31.5000000000758
 31
0.0
  0
LINE
  5
1F3
330
63
100
AcDbEntity
  8
0
  6
Continuous
 62
     7
100
AcDbLine
 10
-50.79999942778058
 20
29.05186072941465
 30
0.0
 11
-50.79999942778058
 21
31.50000000007571
 31
0.0
  0
LINE
  5
1F4
330
63
100
AcDbEntity
  8
0
  6
Continuous
 62
     7
100
AcDbLine
 10
-49.97499942778063
 20
32.32500000007601
 30
0.0
 11
-49.11733723070283
 21
33.18266219715327
 31
0.0
  0
LINE
  5
1F5
330
63
100
AcDbEntity
  8
0
  6
Continuous
 62
     7
100
AcDbLine
 10
-46.99999942778047
 20
39.00000000004
 30
0.0
 11
-47.82439873729012
 21
36.7349815125483
 31
0.0
  0
LINE
  5
1F6
330
63
100
AcDbEntity
  8
0
  6
Continuous
 62
     7
100
AcDbLine
 10
-52.49999942778058
 20
14.8999935848473
 30
0.0
 11
-53.32499942778049
 21
14.89999358484532
 31
0.0
  0
LINE
  5
1F7
330
63
100
AcDbEntity
  8
0
  6
Continuous
 62
     7
100
AcDbLine
 10
-50.79999942778058
 20
14.89999358484731
 30
0.0
 11
-52.49999942778058
 21
14.8999935848473
 31
0.0
  0
LINE
  5
1F8
330
63
100
AcDbEntity
  8
0
  6
Continuous
 62
     7
100
AcDbLine
 10
-49.97499942778048
 20
14.89999358484532
 30
0.0
 11
-50.79999942778058
 21
14.89999358484731
 31
0.0
  0
LINE
  5
1F9
330
63
100
AcDbEntity
  8
0
  6
Continuous
 62
     7
100
AcDbLine
 10
-57.52268313534702
 20
33.84211587740474
 30
0.0
 11
-53.32499942778048
 21
31.8847038180538
 31
0.0
  0
ENDBLK
  5
65
330
63
100
AcDbEntity
  8
0
100
AcDbBlockEnd
  0
BLOCK
  5
68
330
66
100
AcDbEntity
  8
0
100
AcDbBlockBegin
  2
SA_Rechts1
 70
     0
 10
-53.19999961852027
 20
19.00000000002001
 30
0.0
  3
SA_Rechts1
  1

  0
INSERT
  5
67
330
66
100
AcDbEntity
  8
0
100
AcDbBlockReference
  2
KLM2_select__5
 10
-59.39999942778049
 20
-1.99999999995552
 30
0.0
  0
MTEXT
  5
1FA
330
66
100
AcDbEntity
  8
1
 62
     6
100
AcDbMText
 10
-53.19999942778047
 20
-4.49999999995552
 30
0.0
 40
2.5
 41
0.0
 71
     2
 72
     1
  1
 
  7
CONVERTER_11
 73
     1
 44
1.32052821128451
  0
ENDBLK
  5
69
330
66
100
AcDbEntity
  8
0
100
AcDbBlockEnd
  0
BLOCK
  5
6B
330
6A
100
AcDbEntity
  8
0
100
AcDbBlockBegin
  2
KLM2_select__6
 70
     0
 10
-26.09999980925029
 20
-1.99999999995635
 30
0.0
  3
KLM2_select__6
  1

  0
LINE
  5
1FB
330
6A
100
AcDbEntity
  8
0
  6
Continuous
 62
     7
100
AcDbLine
 10
-26.09999980925014
 20
40.00000000004001
 30
0.0
 11
-4.09999980925013
 21
40.00000000003936
 31
0.0
  0
LINE
  5
1FC
330
6A
100
AcDbEntity
  8
0
  6
Continuous
 62
     7
100
AcDbLine
 10
-26.09999980925016
 20
39.00000000004033
 30
0.0
 11
-4.09999980925016
 21
39.00000000003962
 31
0.0
  0
LINE
  5
1FD
330
6A
100
AcDbEntity
  8
0
  6
Continuous
 62
     7
100
AcDbLine
 10
-15.52499980925036
 20
34.70000000003992
 30
0.0
 11
-15.52499980925071
 21
29.05186072941475
 31
0.0
  0
LINE
  5
1FE
330
6A
100
AcDbEntity
  8
0
  6
Continuous
 62
     7
100
AcDbLine
 10
-17.12499980925004
 20
31.50000000007594
 30
0.0
 11
-17.12499980925012
 21
29.05186072941485
 31
0.0
  0
LINE
  5
1FF
330
6A
100
AcDbEntity
  8
0
  6
Continuous
 62
     7
100
AcDbLine
 10
-16.02144057419636
 20
14.8999935848474
 30
0.0
 11
-15.52499980925071
 21
29.05186072941475
 31
0.0
  0
LINE
  5
200
330
6A
100
AcDbEntity
  8
0
  6
Continuous
 62
     7
100
AcDbLine
 10
-15.52499980925071
 20
29.05186072941475
 30
0.0
 11
-14.67499980925068
 21
29.0518607294147
 31
0.0
  0
LINE
  5
201
330
6A
100
AcDbEntity
  8
0
  6
Continuous
 62
     7
100
AcDbLine
 10
-17.12499980925004
 20
31.50000000007594
 30
0.0
 11
-16.32331708064906
 21
31.50000000007616
 31
0.0
  0
LINE
  5
202
330
6A
100
AcDbEntity
  8
0
  6
Continuous
 62
     7
100
AcDbLine
 10
-14.27499980925073
 20
31.88470381805383
 30
0.0
 11
-13.8749998092507
 21
31.8847038180538
 31
0.0
  0
LINE
  5
203
330
6A
100
AcDbEntity
  8
0
  6
Continuous
 62
     7
100
AcDbLine
 10
-16.32331708064906
 20
31.88470381805395
 30
0.0
 11
-15.92499980925064
 21
31.88470381805393
 31
0.0
  0
LINE
  5
204
330
6A
100
AcDbEntity
  8
0
  6
Continuous
 62
     7
100
AcDbLine
 10
-16.32499980925037
 20
34.70000000003994
 30
0.0
 11
-15.52499980925036
 21
34.70000000003992
 31
0.0
  0
LINE
  5
205
330
6A
100
AcDbEntity
  8
0
  6
Continuous
 62
     7
100
AcDbLine
 10
-14.27499980925067
 20
34.20000000003965
 30
0.0
 11
-14.27499980925068
 21
33.84211587740466
 31
0.0
  0
LINE
  5
206
330
6A
100
AcDbEntity
  8
0
  6
Continuous
 62
     7
100
AcDbLine
 10
-14.27499980925067
 20
34.20000000003965
 30
0.0
 11
-13.87499980925069
 21
34.20000000003964
 31
0.0
  0
LINE
  5
207
330
6A
100
AcDbEntity
  8
0
  6
Continuous
 62
     7
100
AcDbLine
 10
-16.32499980925057
 20
34.20000000003971
 30
0.0
 11
-15.92499980925057
 21
34.2000000000397
 31
0.0
  0
LINE
  5
208
330
6A
100
AcDbEntity
  8
0
  6
Continuous
 62
     7
100
AcDbLine
 10
-15.92499980925058
 20
33.84211587740474
 30
0.0
 11
-15.92499980925057
 21
34.2000000000397
 31
0.0
  0
LINE
  5
209
330
6A
100
AcDbEntity
  8
0
  6
Continuous
 62
     7
100
AcDbLine
 10
-13.0749998092503
 20
34.70000000004153
 30
0.0
 11
-4.09999980925029
 21
34.70000000004126
 31
0.0
  0
LINE
  5
20A
330
6A
100
AcDbEntity
  8
0
  6
Continuous
 62
     7
100
AcDbLine
 10
-13.0749998092503
 20
34.70000000004153
 30
0.0
 11
-13.07499980924979
 21
35.5000000000394
 31
0.0
  0
LINE
  5
20B
330
6A
100
AcDbEntity
  8
0
  6
Continuous
 62
     7
100
AcDbLine
 10
-13.07499980925037
 20
33.8421158774046
 30
0.0
 11
-13.0749998092503
 21
34.70000000004153
 31
0.0
  0
LINE
  5
20C
330
6A
100
AcDbEntity
  8
0
  6
Continuous
 62
     7
100
AcDbLine
 10
-17.12499980925048
 20
33.84211587740481
 30
0.0
 11
-15.92499980925058
 21
33.84211587740474
 31
0.0
  0
LINE
  5
20D
330
6A
100
AcDbEntity
  8
0
  6
Continuous
 62
     7
100
AcDbLine
 10
-14.27499980925068
 20
33.84211587740466
 30
0.0
 11
-13.07499980925037
 21
33.8421158774046
 31
0.0
  0
LINE
  5
20E
330
6A
100
AcDbEntity
  8
0
  6
Continuous
 62
     7
100
AcDbLine
 10
-15.52499980925036
 20
34.70000000003992
 30
0.0
 11
-14.67499980925036
 21
34.70000000003989
 31
0.0
  0
LINE
  5
20F
330
6A
100
AcDbEntity
  8
0
  6
Continuous
 62
     7
100
AcDbLine
 10
-16.32331708064924
 20
29.0518607294148
 30
0.0
 11
-16.32331708064906
 21
31.50000000007616
 31
0.0
  0
LINE
  5
210
330
6A
100
AcDbEntity
  8
0
  6
Continuous
 62
     7
100
AcDbLine
 10
-16.55126287421466
 20
-1.99999999995635
 30
0.0
 11
-16.34785234269343
 21
-1.9999999999563
 31
0.0
  0
LINE
  5
211
330
6A
100
AcDbEntity
  8
0
  6
Continuous
 62
     7
100
AcDbLine
 10
-16.81975784559489
 20
14.89999358484746
 30
0.0
 11
-16.40369916896985
 21
0.00000000003907
 31
0.0
  0
LINE
  5
212
330
6A
100
AcDbEntity
  8
0
  6
Continuous
 62
     7
100
AcDbLine
 10
-15.60538189757132
 20
0.00000000003904
 30
0.0
 11
-16.02144057419636
 21
14.8999935848474
 31
0.0
  0
LINE
  5
213
330
6A
100
AcDbEntity
  8
0
  6
Continuous
 62
     7
100
AcDbLine
 10
-17.12499980925048
 20
33.84211587740481
 30
0.0
 11
-17.12499980925004
 21
31.50000000007594
 31
0.0
  0
LINE
  5
214
330
6A
100
AcDbEntity
  8
0
  6
Continuous
 62
     7
100
AcDbLine
 10
-15.92499980925058
 20
33.84211587740474
 30
0.0
 11
-15.92499980925064
 21
31.88470381805393
 31
0.0
  0
LINE
  5
215
330
6A
100
AcDbEntity
  8
0
  6
Continuous
 62
     7
100
AcDbLine
 10
-16.32331708064906
 20
31.50000000007616
 30
0.0
 11
-16.32331708064906
 21
31.88470381805395
 31
0.0
  0
LINE
  5
216
330
6A
100
AcDbEntity
  8
0
  6
Continuous
 62
     7
100
AcDbLine
 10
-15.60538189757132
 20
0.00000000003904
 30
0.0
 11
-16.40369916896985
 21
0.00000000003907
 31
0.0
  0
LINE
  5
217
330
6A
100
AcDbEntity
  8
0
  6
Continuous
 62
     7
100
AcDbLine
 10
-16.32499980925037
 20
34.70000000003994
 30
0.0
 11
-16.32499980925057
 21
34.20000000003971
 31
0.0
  0
LINE
  5
218
330
6A
100
AcDbEntity
  8
0
  6
Continuous
 62
     7
100
AcDbLine
 10
-17.12499980924986
 20
36.73498151254786
 30
0.0
 11
-17.12499980925007
 21
36.60000000003934
 31
0.0
  0
LINE
  5
219
330
6A
100
AcDbEntity
  8
0
  6
Continuous
 62
     7
100
AcDbLine
 10
-17.1249998092499
 20
35.50000000003963
 30
0.0
 11
-17.12499980925041
 21
34.70000000004164
 31
0.0
  0
LINE
  5
21A
330
6A
100
AcDbEntity
  8
0
  6
Continuous
 62
     7
100
AcDbLine
 10
-17.12499980925041
 20
34.70000000004164
 30
0.0
 11
-17.12499980925048
 21
33.84211587740481
 31
0.0
  0
LINE
  5
21B
330
6A
100
AcDbEntity
  8
0
  6
Continuous
 62
     7
100
AcDbLine
 10
-24.24999980925036
 20
36.60000000003996
 30
0.0
 11
-24.2499998092503
 21
36.6602689462155
 31
0.0
  0
LINE
  5
21C
330
6A
100
AcDbEntity
  8
0
  6
Continuous
 62
     7
100
AcDbLine
 10
-24.24999980925036
 20
36.60000000003996
 30
0.0
 11
-24.24999980925036
 21
35.50000000004005
 31
0.0
  0
LINE
  5
21D
330
6A
100
AcDbEntity
  8
0
  6
Continuous
 62
     7
100
AcDbLine
 10
-16.32499980925026
 20
36.62886397979411
 30
0.0
 11
-16.32499980925037
 21
34.70000000003994
 31
0.0
  0
LINE
  5
21E
330
6A
100
AcDbEntity
  8
0
  6
Continuous
 62
     7
100
AcDbLine
 10
-16.32331708064924
 20
29.0518607294148
 30
0.0
 11
-16.81975784559489
 21
14.89999358484746
 31
0.0
  0
LINE
  5
21F
330
6A
100
AcDbEntity
  8
0
  6
Continuous
 62
     7
100
AcDbLine
 10
-17.62144057419577
 20
14.89999358484749
 30
0.0
 11
-17.19861944950863
 21
-0.24217841950524
 31
0.0
  0
LINE
  5
220
330
6A
100
AcDbEntity
  8
0
  6
Continuous
 62
     7
100
AcDbLine
 10
-17.19861944950863
 20
-0.24217841950524
 30
0.0
 11
-16.73737900927117
 21
-0.5863076016572
 31
0.0
  0
LINE
  5
221
330
6A
100
AcDbEntity
  8
0
  6
Continuous
 62
     7
100
AcDbLine
 10
-16.73737900927117
 20
-0.5863076016572
 30
0.0
 11
-16.55126287421466
 21
-1.99999999995635
 31
0.0
  0
LINE
  5
222
330
6A
100
AcDbEntity
  8
0
  6
Continuous
 62
     7
100
AcDbLine
 10
-17.1249998092499
 20
35.50000000003963
 30
0.0
 11
-24.24999980925036
 21
35.50000000004005
 31
0.0
  0
LINE
  5
223
330
6A
100
AcDbEntity
  8
0
  6
Continuous
 62
     7
100
AcDbLine
 10
-16.34785234269343
 20
-1.9999999999563
 30
0.0
 11
-16.40369916896985
 21
0.00000000003907
 31
0.0
  0
LINE
  5
224
330
6A
100
AcDbEntity
  8
0
  6
Continuous
 62
     7
100
AcDbLine
 10
-15.60538189757132
 20
0.00000000003904
 30
0.0
 11
-15.5789653875718
 21
-0.94603442164053
 31
0.0
  0
LINE
  5
225
330
6A
100
AcDbEntity
  8
0
  6
Continuous
 62
     7
100
AcDbLine
 10
-14.95857845301404
 20
-1.28357864372344
 30
0.0
 11
-14.62103423096756
 21
-0.94603442167692
 31
0.0
  0
LINE
  5
226
330
6A
100
AcDbEntity
  8
0
  6
Continuous
 62
     7
100
AcDbLine
 10
-15.24142116548891
 20
-1.28357864372344
 30
0.0
 11
-14.95857845301404
 21
-1.28357864372344
 31
0.0
  0
LINE
  5
227
330
6A
100
AcDbEntity
  8
0
  6
Continuous
 62
     7
100
AcDbLine
 10
-13.79630044956732
 20
0.00000000003899
 30
0.0
 11
-13.852147275846
 21
-1.99999999995551
 31
0.0
  0
LINE
  5
228
330
6A
100
AcDbEntity
  8
0
  6
Continuous
 62
     7
100
AcDbLine
 10
-14.62103423096756
 20
-0.94603442167692
 30
0.0
 11
-14.59461772096588
 21
0.00000000003901
 31
0.0
  0
LINE
  5
229
330
6A
100
AcDbEntity
  8
0
  6
Continuous
 62
     7
100
AcDbLine
 10
-13.852147275846
 20
-1.99999999995551
 30
0.0
 11
-16.34785234269343
 21
-1.9999999999563
 31
0.0
  0
LINE
  5
22A
330
6A
100
AcDbEntity
  8
0
  6
Continuous
 62
     7
100
AcDbLine
 10
-13.38024177292395
 20
14.89999358484532
 30
0.0
 11
-13.87499980925083
 21
29.05186072941465
 31
0.0
  0
LINE
  5
22B
330
6A
100
AcDbEntity
  8
0
  6
Continuous
 62
     7
100
AcDbLine
 10
-14.17855904432248
 20
14.89999358484626
 30
0.0
 11
-14.59461772096588
 21
0.00000000003901
 31
0.0
  0
LINE
  5
22C
330
6A
100
AcDbEntity
  8
0
  6
Continuous
 62
     7
100
AcDbLine
 10
-13.79630044956732
 20
0.00000000003899
 30
0.0
 11
-14.59461772096588
 21
0.00000000003901
 31
0.0
  0
LINE
  5
22D
330
6A
100
AcDbEntity
  8
0
  6
Continuous
 62
     7
100
AcDbLine
 10
-14.27499980925073
 20
31.88470381805383
 30
0.0
 11
-14.27499980925068
 21
33.84211587740466
 31
0.0
  0
LINE
  5
22E
330
6A
100
AcDbEntity
  8
0
  6
Continuous
 62
     7
100
AcDbLine
 10
-14.67499980925036
 20
34.70000000003989
 30
0.0
 11
-13.87499980925037
 21
34.70000000003987
 31
0.0
  0
LINE
  5
22F
330
6A
100
AcDbEntity
  8
0
  6
Continuous
 62
     7
100
AcDbLine
 10
-13.8749998092507
 20
31.8847038180538
 30
0.0
 11
-13.8749998092507
 21
31.50000000007586
 31
0.0
  0
LINE
  5
230
330
6A
100
AcDbEntity
  8
0
  6
Continuous
 62
     7
100
AcDbLine
 10
-13.87499980925069
 20
34.20000000003964
 30
0.0
 11
-13.87499980925037
 21
34.70000000003987
 31
0.0
  0
LINE
  5
231
330
6A
100
AcDbEntity
  8
0
  6
Continuous
 62
     7
100
AcDbLine
 10
-13.87499980925037
 20
34.70000000003987
 30
0.0
 11
-13.87499980925026
 21
36.62886397979397
 31
0.0
  0
LINE
  5
232
330
6A
100
AcDbEntity
  8
0
  6
Continuous
 62
     7
100
AcDbLine
 10
-13.07499980924995
 20
31.5000000000758
 30
0.0
 11
-13.8749998092507
 21
31.50000000007586
 31
0.0
  0
LINE
  5
233
330
6A
100
AcDbEntity
  8
0
  6
Continuous
 62
     7
100
AcDbLine
 10
-13.8749998092507
 20
31.50000000007586
 30
0.0
 11
-13.87499980925083
 21
29.05186072941465
 31
0.0
  0
LINE
  5
234
330
6A
100
AcDbEntity
  8
0
  6
Continuous
 62
     7
100
AcDbLine
 10
-14.67499980925068
 20
29.0518607294147
 30
0.0
 11
-14.67499980925036
 21
34.70000000003989
 31
0.0
  0
LINE
  5
235
330
6A
100
AcDbEntity
  8
0
  6
Continuous
 62
     7
100
AcDbLine
 10
-14.67499980925068
 20
29.0518607294147
 30
0.0
 11
-14.17855904432248
 21
14.89999358484626
 31
0.0
  0
LINE
  5
236
330
6A
100
AcDbEntity
  8
0
  6
Continuous
 62
     7
100
AcDbLine
 10
-15.5789653875718
 20
-0.94603442164053
 30
0.0
 11
-15.24142116548891
 21
-1.28357864372344
 31
0.0
  0
LINE
  5
237
330
6A
100
AcDbEntity
  8
0
  6
Continuous
 62
     7
100
AcDbLine
 10
-13.6487367442884
 20
-1.99999999995552
 30
0.0
 11
-13.46262060923195
 21
-0.58630760165735
 31
0.0
  0
LINE
  5
238
330
6A
100
AcDbEntity
  8
0
  6
Continuous
 62
     7
100
AcDbLine
 10
-13.07499980925037
 20
33.8421158774046
 30
0.0
 11
-13.07499980924995
 21
31.5000000000758
 31
0.0
  0
LINE
  5
239
330
6A
100
AcDbEntity
  8
0
  6
Continuous
 62
     7
100
AcDbLine
 10
-13.79630044956732
 20
0.00000000003899
 30
0.0
 11
-13.38024177292395
 21
14.89999358484532
 31
0.0
  0
LINE
  5
23A
330
6A
100
AcDbEntity
  8
0
  6
Continuous
 62
     7
100
AcDbLine
 10
-13.46262060923195
 20
-0.58630760165735
 30
0.0
 11
-13.00309870069176
 21
-0.24346060739684
 31
0.0
  0
LINE
  5
23B
330
6A
100
AcDbEntity
  8
0
  6
Continuous
 62
     7
100
AcDbLine
 10
-13.852147275846
 20
-1.99999999995551
 30
0.0
 11
-13.6487367442884
 21
-1.99999999995552
 31
0.0
  0
LINE
  5
23C
330
6A
100
AcDbEntity
  8
0
  6
Continuous
 62
     7
100
AcDbLine
 10
-13.07499980924995
 20
31.5000000000758
 30
0.0
 11
-13.07499980925056
 21
29.0518607294146
 31
0.0
  0
LINE
  5
23D
330
6A
100
AcDbEntity
  8
0
  6
Continuous
 62
     7
100
AcDbLine
 10
-5.94999980925018
 20
36.66026894621506
 30
0.0
 11
-5.9499998092502
 21
36.60000000003954
 31
0.0
  0
LINE
  5
23E
330
6A
100
AcDbEntity
  8
0
  6
Continuous
 62
     7
100
AcDbLine
 10
-13.07499980925003
 20
36.60000000003975
 30
0.0
 11
-13.07499980924974
 21
36.73498151254828
 31
0.0
  0
LINE
  5
23F
330
6A
100
AcDbEntity
  8
0
  6
Continuous
 62
     7
100
AcDbLine
 10
-5.94999980925027
 20
35.50000000003841
 30
0.0
 11
-13.07499980924979
 21
35.5000000000394
 31
0.0
  0
LINE
  5
240
330
6A
100
AcDbEntity
  8
0
  6
Continuous
 62
     7
100
AcDbLine
 10
-13.00309870069176
 20
-0.24346060739684
 30
0.0
 11
-12.58024177292366
 21
14.8999935848473
 31
0.0
  0
LINE
  5
241
330
6A
100
AcDbEntity
  8
0
  6
Continuous
 62
     7
100
AcDbLine
 10
-12.58024177292366
 20
14.8999935848473
 30
0.0
 11
-13.07499980925056
 21
29.0518607294146
 31
0.0
  0
LINE
  5
242
330
6A
100
AcDbEntity
  8
0
  6
Continuous
 62
     7
100
AcDbLine
 10
-26.09999980925014
 20
40.00000000004001
 30
0.0
 11
-26.09999980925016
 21
39.00000000004033
 31
0.0
  0
LINE
  5
243
330
6A
100
AcDbEntity
  8
0
  6
Continuous
 62
     7
100
AcDbLine
 10
-26.09999980925023
 20
36.73498151254866
 30
0.0
 11
-26.09999980925016
 21
39.00000000004033
 31
0.0
  0
LINE
  5
244
330
6A
100
AcDbEntity
  8
0
  6
Continuous
 62
     7
100
AcDbLine
 10
-26.09999980925029
 20
34.70000000004191
 30
0.0
 11
-26.09999980925023
 21
36.66026894621565
 31
0.0
  0
LINE
  5
245
330
6A
100
AcDbEntity
  8
0
  6
Continuous
 62
     7
100
AcDbLine
 10
-26.09999980925023
 20
36.66026894621565
 30
0.0
 11
-26.09999980925023
 21
36.73498151254866
 31
0.0
  0
LINE
  5
246
330
6A
100
AcDbEntity
  8
0
  6
Continuous
 62
     7
100
AcDbLine
 10
-4.09999980925024
 20
36.66026894621501
 30
0.0
 11
-4.09999980925024
 21
36.73498151254801
 31
0.0
  0
LINE
  5
247
330
6A
100
AcDbEntity
  8
0
  6
Continuous
 62
     7
100
AcDbLine
 10
-4.09999980925024
 20
36.66026894621501
 30
0.0
 11
-5.94999980925018
 21
36.66026894621506
 31
0.0
  0
LINE
  5
248
330
6A
100
AcDbEntity
  8
0
  6
Continuous
 62
     7
100
AcDbLine
 10
-13.07499980924974
 20
36.73498151254828
 30
0.0
 11
-4.09999980925024
 21
36.73498151254801
 31
0.0
  0
LINE
  5
249
330
6A
100
AcDbEntity
  8
0
  6
Continuous
 62
     7
100
AcDbLine
 10
-26.09999980925023
 20
36.73498151254866
 30
0.0
 11
-17.12499980924986
 21
36.73498151254786
 31
0.0
  0
LINE
  5
24A
330
6A
100
AcDbEntity
  8
0
  6
Continuous
 62
     7
100
AcDbLine
 10
-13.87499980925026
 20
36.62886397979397
 30
0.0
 11
-16.32499980925026
 21
36.62886397979411
 31
0.0
  0
LINE
  5
24B
330
6A
100
AcDbEntity
  8
0
  6
Continuous
 62
     7
100
AcDbLine
 10
-26.09999980925023
 20
36.66026894621565
 30
0.0
 11
-24.2499998092503
 21
36.6602689462155
 31
0.0
  0
LINE
  5
24C
330
6A
100
AcDbEntity
  8
0
  6
Continuous
 62
     7
100
AcDbLine
 10
-4.09999980925013
 20
40.00000000003936
 30
0.0
 11
-4.09999980925016
 21
39.00000000003962
 31
0.0
  0
LINE
  5
24D
330
6A
100
AcDbEntity
  8
0
  6
Continuous
 62
     7
100
AcDbLine
 10
-4.09999980925016
 20
39.00000000003962
 30
0.0
 11
-4.09999980925024
 21
36.73498151254801
 31
0.0
  0
LINE
  5
24E
330
6A
100
AcDbEntity
  8
0
  6
Continuous
 62
     7
100
AcDbLine
 10
-24.24999980925036
 20
36.60000000003996
 30
0.0
 11
-17.12499980925007
 21
36.60000000003934
 31
0.0
  0
LINE
  5
24F
330
6A
100
AcDbEntity
  8
0
  6
Continuous
 62
     7
100
AcDbLine
 10
-5.9499998092502
 20
36.60000000003954
 30
0.0
 11
-5.94999980925027
 21
35.50000000003841
 31
0.0
  0
LINE
  5
250
330
6A
100
AcDbEntity
  8
0
  6
Continuous
 62
     7
100
AcDbLine
 10
-17.12499980925007
 20
36.60000000003934
 30
0.0
 11
-17.1249998092499
 21
35.50000000003963
 31
0.0
  0
LINE
  5
251
330
6A
100
AcDbEntity
  8
0
  6
Continuous
 62
     7
100
AcDbLine
 10
-13.07499980924979
 20
35.5000000000394
 30
0.0
 11
-13.07499980925003
 21
36.60000000003975
 31
0.0
  0
LINE
  5
252
330
6A
100
AcDbEntity
  8
0
  6
Continuous
 62
     7
100
AcDbLine
 10
-13.07499980925003
 20
36.60000000003975
 30
0.0
 11
-5.9499998092502
 21
36.60000000003954
 31
0.0
  0
LINE
  5
253
330
6A
100
AcDbEntity
  8
0
  6
Continuous
 62
     7
100
AcDbLine
 10
-4.09999980925029
 20
34.70000000004126
 30
0.0
 11
-4.09999980925024
 21
36.66026894621501
 31
0.0
  0
LINE
  5
254
330
6A
100
AcDbEntity
  8
0
  6
Continuous
 62
     7
100
AcDbLine
 10
-26.09999980925029
 20
34.70000000004191
 30
0.0
 11
-17.12499980925041
 21
34.70000000004164
 31
0.0
  0
LINE
  5
255
330
6A
100
AcDbEntity
  8
0
  6
Continuous
 62
     7
100
AcDbLine
 10
-17.12499980925012
 20
29.05186072941485
 30
0.0
 11
-17.62144057419577
 21
14.89999358484749
 31
0.0
  0
ENDBLK
  5
6C
330
6A
100
AcDbEntity
  8
0
100
AcDbBlockEnd
  0
BLOCK
  5
6F
330
6D
100
AcDbEntity
  8
0
100
AcDbBlockBegin
  2
Vordans1
 70
     0
 10
-15.09999980925504
 20
19.00000000002001
 30
0.0
  3
Vordans1
  1

  0
INSERT
  5
6E
330
6D
100
AcDbEntity
  8
0
100
AcDbBlockReference
  2
KLM2_select__6
 10
-26.09999980925029
 20
-1.99999999995635
 30
0.0
  0
MTEXT
  5
256
330
6D
100
AcDbEntity
  8
1
 62
     6
100
AcDbMText
 10
-9.1305036062893
 20
-4.49999999996061
 30
0.0
 40
2.5
 41
0.0
 71
     2
 72
     1
  1
 
  7
CONVERTER_11
 73
     1
 44
1.32052821128451
  0
DIMENSION
  5
261
330
6D
100
AcDbEntity
  8
1
100
AcDbDimension
  2
*D18
 10
-26.09999980925015
 20
-7.99999999995998
 30
0.0
 11
-15.19545652034166
 21
-6.12499999995998
 31
0.0
 70
    33
  1
<>
 71
     5
 42
-1.0
 53
0.00013888888889
  3
ME10_DIM_11
100
AcDbAlignedDimension
 13
-4.09999980925013
 23
40.00000000003936
 33
0.0
 14
-26.09999980925014
 24
40.00000000004001
 34
0.0
  0
DIMENSION
  5
26C
330
6D
100
AcDbEntity
  8
1
100
AcDbDimension
  2
*D19
 10
-31.09999980925014
 20
-1.99999999995635
 30
0.0
 11
-32.72499980925014
 21
20.9407365151961
 31
0.0
 70
    32
  1
<>
 71
     5
 42
-1.0
 53
90.0
  3
ME10_DIM_12
100
AcDbAlignedDimension
 13
-26.09999980925014
 23
40.00000000004001
 33
0.0
 14
-16.55126287421466
 24
-1.99999999995635
 34
0.0
 50
90.0
100
AcDbRotatedDimension
  0
ENDBLK
  5
70
330
6D
100
AcDbEntity
  8
0
100
AcDbBlockEnd
  0
BLOCK
  5
72
330
71
100
AcDbEntity
  8
0
100
AcDbBlockBegin
  2
_rahmen
 70
     0
 10
144.0131400546163
 20
-96.06060607427725
 30
0.0
  3
_rahmen
  1

  0
LINE
  5
26D
330
71
100
AcDbEntity
  8
1
  6
DOT_CENTER
 62
     2
100
AcDbLine
 10
18.45499041442889
 20
-69.93560607427722
 30
0.0
 11
23.95499041442889
 21
-69.93560607427722
 31
0.0
  0
LINE
  5
26E
330
71
100
AcDbEntity
  8
1
  6
PHANTOM
 62
     2
100
AcDbLine
 10
27.20499041442889
 20
-67.18560607427722
 30
0.0
 11
27.20499041442889
 21
-72.68560607427722
 31
0.0
  0
LINE
  5
26F
330
71
100
AcDbEntity
  8
1
  6
PHANTOM
 62
     2
100
AcDbLine
 10
29.95499041442889
 20
-69.93560607427722
 30
0.0
 11
24.45499041442889
 21
-69.93560607427722
 31
0.0
  0
LINE
  5
270
330
71
100
AcDbEntity
  8
1
  6
Continuous
 62
     7
100
AcDbLine
 10
78.7683355278663
 20
-82.56060607427722
 30
0.0
 11
78.7683355278663
 21
-74.06060607427713
 31
0.0
  0
LINE
  5
271
330
71
100
AcDbEntity
  8
1
  6
Continuous
 62
     6
100
AcDbLine
 10
50.86833552786621
 20
-74.06060607427713
 30
0.0
 11
144.013140054618
 21
-74.06060607427713
 31
0.0
  0
LINE
  5
272
330
71
100
AcDbEntity
  8
1
  6
Continuous
 62
     7
100
AcDbLine
 10
14.46833552786629
 20
-74.06060607427713
 30
0.0
 11
14.46833552786629
 21
-65.56060607427713
 31
0.0
  0
LINE
  5
273
330
71
100
AcDbEntity
  8
1
  6
Continuous
 62
     7
100
AcDbLine
 10
50.86833552786621
 20
-74.06060607427713
 30
0.0
 11
50.86833552786621
 21
-65.56060607427713
 31
0.0
  0
LINE
  5
274
330
71
100
AcDbEntity
  8
1
  6
Continuous
 62
     7
100
AcDbLine
 10
108.5947317729392
 20
-65.56060607427713
 30
0.0
 11
108.5947317729392
 21
-74.06060607427713
 31
0.0
  0
LINE
  5
275
330
71
100
AcDbEntity
  8
1
  6
Continuous
 62
     7
100
AcDbLine
 10
135.0947317729388
 20
-65.56060607427713
 30
0.0
 11
135.0947317729388
 21
-74.06060607427713
 31
0.0
  0
LINE
  5
276
330
71
100
AcDbEntity
  8
1
  6
Continuous
 62
     6
100
AcDbLine
 10
-54.53166447213368
 20
-91.06060607427713
 30
0.0
 11
-99.48685994538369
 21
-91.06060607427713
 31
0.0
  0
LINE
  5
277
330
71
100
AcDbEntity
  8
1
  6
Continuous
 62
     7
100
AcDbLine
 10
144.0131400546176
 20
-82.56060607427713
 30
0.0
 11
50.86833552786621
 21
-82.56060607427713
 31
0.0
  0
LINE
  5
278
102
{ACAD_REACTORS
330
38A
330
38B
102
}
330
71
100
AcDbEntity
  8
0
  6
Continuous
 62
     2
100
AcDbLine
 10
28.17576446963369
 20
-81.76031695861383
 30
0.0
 11
28.17576446963369
 21
-80.88779995181054
 31
0.0
  0
LINE
  5
279
102
{ACAD_REACTORS
330
38A
330
38B
102
}
330
71
100
AcDbEntity
  8
0
  6
Continuous
 62
     2
100
AcDbLine
 10
28.17576446963369
 20
-82.72008566609674
 30
0.0
 11
28.17576446963369
 21
-83.59260267289994
 31
0.0
  0
LINE
  5
27A
102
{ACAD_REACTORS
330
38C
330
38D
102
}
330
71
100
AcDbEntity
  8
0
  6
Continuous
 62
     2
100
AcDbLine
 10
43.5088086059242
 20
-81.49856185657333
 30
0.0
 11
44.6124479054923
 21
-81.49856185657333
 31
0.0
  0
LINE
  5
27B
102
{ACAD_REACTORS
330
38C
330
38D
102
}
330
71
100
AcDbEntity
  8
0
  6
Continuous
 62
     2
100
AcDbLine
 10
44.27846594888561
 20
-82.72008566609722
 30
0.0
 11
44.27846594888561
 21
-83.59260267290054
 31
0.0
  0
LINE
  5
27C
102
{ACAD_REACTORS
330
396
330
397
102
}
330
71
100
AcDbEntity
  8
0
  6
Continuous
 62
     2
100
AcDbLine
 10
42.41770933350568
 20
-80.40791559808653
 30
0.0
 11
43.81566238044599
 21
-78.82705660431154
 31
0.0
  0
LINE
  5
27D
102
{ACAD_REACTORS
330
396
330
397
102
}
330
71
100
AcDbEntity
  8
0
  6
Continuous
 62
     2
100
AcDbLine
 10
42.51313274967851
 20
-77.35410607427534
 30
0.0
 11
43.81566238044599
 21
-78.82705660431154
 31
0.0
  0
LINE
  5
27E
102
{ACAD_REACTORS
330
396
330
397
102
}
330
71
100
AcDbEntity
  8
0
  6
Continuous
 62
     2
100
AcDbLine
 10
45.11819201121239
 20
-77.35410607427534
 30
0.0
 11
46.52091622895961
 21
-77.35410607427534
 31
0.0
  0
LINE
  5
27F
102
{ACAD_REACTORS
330
396
330
397
102
}
330
71
100
AcDbEntity
  8
0
  6
Continuous
 62
     2
100
AcDbLine
 10
43.8204335512539
 20
-80.40791559808653
 30
0.0
 11
44.5170244893196
 21
-79.62018381279282
 31
0.0
  0
LINE
  5
280
102
{ACAD_REACTORS
330
396
330
397
102
}
330
71
100
AcDbEntity
  8
0
  6
Continuous
 62
     2
100
AcDbLine
 10
43.8204335512539
 20
-80.40791559808653
 30
0.0
 11
42.41770933350568
 21
-80.40791559808653
 31
0.0
  0
LINE
  5
281
102
{ACAD_REACTORS
330
398
330
399
102
}
330
71
100
AcDbEntity
  8
0
  6
Continuous
 62
     2
100
AcDbLine
 10
42.29843006328881
 20
-80.40791559808653
 30
0.0
 11
41.05792565303591
 21
-80.40791559808653
 31
0.0
  0
LINE
  5
282
102
{ACAD_REACTORS
330
39A
330
39B
102
}
330
71
100
AcDbEntity
  8
0
  6
Continuous
 62
     2
100
AcDbLine
 10
40.1899460448808
 20
-82.54558226473634
 30
0.0
 11
39.8897808076907
 21
-81.77776729874964
 31
0.0
  0
LINE
  5
283
102
{ACAD_REACTORS
330
39A
330
39B
102
}
330
71
100
AcDbEntity
  8
0
  6
Continuous
 62
     2
100
AcDbLine
 10
39.5896155704983
 20
-82.54558226473634
 30
0.0
 11
40.1899460448808
 21
-82.54558226473634
 31
0.0
  0
LINE
  5
284
102
{ACAD_REACTORS
330
39A
330
39B
102
}
330
71
100
AcDbEntity
  8
0
  6
Continuous
 62
     2
100
AcDbLine
 10
37.8715755556245
 20
-83.76710607426082
 30
0.0
 11
39.11207996587748
 21
-83.76710607426082
 31
0.0
  0
LINE
  5
285
102
{ACAD_REACTORS
330
39A
330
39B
102
}
330
71
100
AcDbEntity
  8
0
  6
Continuous
 62
     2
100
AcDbLine
 10
39.26952860256381
 20
-80.71329655044974
 30
0.0
 11
40.51003301281651
 21
-80.71329655044974
 31
0.0
  0
LINE
  5
286
102
{ACAD_REACTORS
330
39A
330
39B
102
}
330
71
100
AcDbEntity
  8
0
  6
Continuous
 62
     2
100
AcDbLine
 10
40.51003301281651
 20
-80.71329655044974
 30
0.0
 11
41.90798605975681
 21
-83.76710607426082
 31
0.0
  0
LINE
  5
287
102
{ACAD_REACTORS
330
39A
330
39B
102
}
330
71
100
AcDbEntity
  8
0
  6
Continuous
 62
     2
100
AcDbLine
 10
40.66748164950289
 20
-83.76710607426082
 30
0.0
 11
40.45600159602711
 21
-83.22614553004294
 31
0.0
  0
LINE
  5
288
102
{ACAD_REACTORS
330
39C
330
39D
102
}
330
71
100
AcDbEntity
  8
0
  6
Continuous
 62
     2
100
AcDbLine
 10
36.52516245391689
 20
-83.76710607426082
 30
0.0
 11
37.71795515608341
 21
-83.76710607426082
 31
0.0
  0
LINE
  5
289
102
{ACAD_REACTORS
330
39C
330
39D
102
}
330
71
100
AcDbEntity
  8
0
  6
Continuous
 62
     2
100
AcDbLine
 10
36.52516245391689
 20
-81.49856185657333
 30
0.0
 11
36.52516245391689
 21
-83.76710607426082
 31
0.0
  0
LINE
  5
28A
102
{ACAD_REACTORS
330
39C
330
39D
102
}
330
71
100
AcDbEntity
  8
0
  6
Continuous
 62
     2
100
AcDbLine
 10
35.71406341644229
 20
-80.71329655044974
 30
0.0
 11
35.71406341644229
 21
-81.49856185657333
 31
0.0
  0
LINE
  5
28B
102
{ACAD_REACTORS
330
39E
330
39F
102
}
330
71
100
AcDbEntity
  8
0
  6
Continuous
 62
     2
100
AcDbLine
 10
37.19327729801489
 20
-80.40791559808653
 30
0.0
 11
38.38607000018141
 21
-80.40791559808653
 31
0.0
  0
LINE
  5
28C
102
{ACAD_REACTORS
330
39E
330
39F
102
}
330
71
100
AcDbEntity
  8
0
  6
Continuous
 62
     2
100
AcDbLine
 10
39.62657441043541
 20
-78.66288158448052
 30
0.0
 11
38.38607000018141
 21
-77.35410607427534
 31
0.0
  0
LINE
  5
28D
102
{ACAD_REACTORS
330
39E
330
39F
102
}
330
71
100
AcDbEntity
  8
0
  6
Continuous
 62
     2
100
AcDbLine
 10
40.81936711260201
 20
-77.35410607427534
 30
0.0
 11
39.62657441043541
 21
-77.35410607427534
 31
0.0
  0
LINE
  5
28E
102
{ACAD_REACTORS
330
39E
330
39F
102
}
330
71
100
AcDbEntity
  8
0
  6
Continuous
 62
     2
100
AcDbLine
 10
40.81936711260201
 20
-80.40791559808653
 30
0.0
 11
40.81936711260201
 21
-77.35410607427534
 31
0.0
  0
LINE
  5
28F
102
{ACAD_REACTORS
330
39E
330
39F
102
}
330
71
100
AcDbEntity
  8
0
  6
Continuous
 62
     2
100
AcDbLine
 10
39.62657441043541
 20
-80.40791559808653
 30
0.0
 11
40.81936711260201
 21
-80.40791559808653
 31
0.0
  0
LINE
  5
290
102
{ACAD_REACTORS
330
39E
330
39F
102
}
330
71
100
AcDbEntity
  8
0
  6
Continuous
 62
     2
100
AcDbLine
 10
38.38607000018141
 20
-79.09914008788184
 30
0.0
 11
39.62657441043541
 21
-80.40791559808653
 31
0.0
  0
LINE
  5
291
102
{ACAD_REACTORS
330
3A0
330
3A1
102
}
330
71
100
AcDbEntity
  8
0
  6
Continuous
 62
     2
100
AcDbLine
 10
34.37813559001569
 20
-82.02207206065484
 30
0.0
 11
33.13763117976279
 21
-80.71329655044974
 31
0.0
  0
LINE
  5
292
102
{ACAD_REACTORS
330
3A0
330
3A1
102
}
330
71
100
AcDbEntity
  8
0
  6
Continuous
 62
     2
100
AcDbLine
 10
34.37813559001569
 20
-80.71329655044974
 30
0.0
 11
34.37813559001569
 21
-82.02207206065484
 31
0.0
  0
LINE
  5
293
102
{ACAD_REACTORS
330
3A0
330
3A1
102
}
330
71
100
AcDbEntity
  8
0
  6
Continuous
 62
     2
100
AcDbLine
 10
35.57092829218209
 20
-80.71329655044974
 30
0.0
 11
34.37813559001569
 21
-80.71329655044974
 31
0.0
  0
LINE
  5
294
102
{ACAD_REACTORS
330
3A0
330
3A1
102
}
330
71
100
AcDbEntity
  8
0
  6
Continuous
 62
     2
100
AcDbLine
 10
35.57092829218209
 20
-83.76710607426082
 30
0.0
 11
35.57092829218209
 21
-80.71329655044974
 31
0.0
  0
LINE
  5
295
102
{ACAD_REACTORS
330
3A0
330
3A1
102
}
330
71
100
AcDbEntity
  8
0
  6
Continuous
 62
     2
100
AcDbLine
 10
33.13763117976279
 20
-82.45833056405624
 30
0.0
 11
34.37813559001569
 21
-83.76710607426082
 31
0.0
  0
LINE
  5
296
102
{ACAD_REACTORS
330
3A0
330
3A1
102
}
330
71
100
AcDbEntity
  8
0
  6
Continuous
 62
     2
100
AcDbLine
 10
33.13763117976279
 20
-83.76710607426082
 30
0.0
 11
33.13763117976279
 21
-82.45833056405624
 31
0.0
  0
LINE
  5
297
102
{ACAD_REACTORS
330
390
330
391
102
}
330
71
100
AcDbEntity
  8
0
  6
Continuous
 62
     2
100
AcDbLine
 10
35.61879093115431
 20
-78.05211967971832
 30
0.0
 11
36.95471875758199
 21
-78.05211967971832
 31
0.0
  0
LINE
  5
298
102
{ACAD_REACTORS
330
390
330
391
102
}
330
71
100
AcDbEntity
  8
0
  6
Continuous
 62
     2
100
AcDbLine
 10
35.61879093115431
 20
-79.70990199264403
 30
0.0
 11
35.61879093115431
 21
-79.23001763890232
 31
0.0
  0
LINE
  5
299
102
{ACAD_REACTORS
330
390
330
391
102
}
330
71
100
AcDbEntity
  8
0
  6
Continuous
 62
     2
100
AcDbLine
 10
36.95471875758199
 20
-79.70990199264403
 30
0.0
 11
35.61879093115431
 21
-79.70990199264403
 31
0.0
  0
LINE
  5
29A
102
{ACAD_REACTORS
330
390
330
391
102
}
330
71
100
AcDbEntity
  8
0
  6
Continuous
 62
     2
100
AcDbLine
 10
36.95471875758199
 20
-80.40791559808653
 30
0.0
 11
36.95471875758199
 21
-79.70990199264403
 31
0.0
  0
LINE
  5
29B
102
{ACAD_REACTORS
330
390
330
391
102
}
330
71
100
AcDbEntity
  8
0
  6
Continuous
 62
     2
100
AcDbLine
 10
33.80439903380099
 20
-80.40791559808653
 30
0.0
 11
36.95471875758199
 21
-80.40791559808653
 31
0.0
  0
LINE
  5
29C
102
{ACAD_REACTORS
330
390
330
391
102
}
330
71
100
AcDbEntity
  8
0
  6
Continuous
 62
     2
100
AcDbLine
 10
33.80439903380099
 20
-77.35410607427534
 30
0.0
 11
36.95471875758199
 21
-77.35410607427534
 31
0.0
  0
LINE
  5
29D
102
{ACAD_REACTORS
330
390
330
391
102
}
330
71
100
AcDbEntity
  8
0
  6
Continuous
 62
     2
100
AcDbLine
 10
36.95471875758199
 20
-78.05211967971832
 30
0.0
 11
36.95471875758199
 21
-77.35410607427534
 31
0.0
  0
LINE
  5
29E
102
{ACAD_REACTORS
330
3A2
330
3A3
102
}
330
71
100
AcDbEntity
  8
0
  6
Continuous
 62
     2
100
AcDbLine
 10
30.94304353866099
 20
-78.42293940760993
 30
0.0
 11
30.94304353866099
 21
-77.35410607427534
 31
0.0
  0
LINE
  5
29F
102
{ACAD_REACTORS
330
3A2
330
3A3
102
}
330
71
100
AcDbEntity
  8
0
  6
Continuous
 62
     2
100
AcDbLine
 10
30.94304353866099
 20
-77.35410607427534
 30
0.0
 11
32.13583624082739
 21
-77.35410607427534
 31
0.0
  0
LINE
  5
2A0
102
{ACAD_REACTORS
330
3A2
330
3A3
102
}
330
71
100
AcDbEntity
  8
0
  6
Continuous
 62
     2
100
AcDbLine
 10
30.94304353866099
 20
-79.27364348924272
 30
0.0
 11
29.89338596075351
 21
-79.27364348924272
 31
0.0
  0
LINE
  5
2A1
102
{ACAD_REACTORS
330
3A2
330
3A3
102
}
330
71
100
AcDbEntity
  8
0
  6
Continuous
 62
     2
100
AcDbLine
 10
29.89338596075351
 20
-79.27364348924272
 30
0.0
 11
29.89338596075351
 21
-80.40791559808653
 31
0.0
  0
LINE
  5
2A2
102
{ACAD_REACTORS
330
3A2
330
3A3
102
}
330
71
100
AcDbEntity
  8
0
  6
Continuous
 62
     2
100
AcDbLine
 10
28.70059325858691
 20
-77.35410607427534
 30
0.0
 11
28.70059325858691
 21
-80.40791559808653
 31
0.0
  0
LINE
  5
2A3
102
{ACAD_REACTORS
330
394
330
395
102
}
330
71
100
AcDbEntity
  8
0
  6
Continuous
 62
     2
100
AcDbLine
 10
26.74441322703331
 20
-78.72293956905764
 30
0.0
 11
26.74441322703331
 21
-78.01721191971544
 31
0.0
  0
LINE
  5
2A4
102
{ACAD_REACTORS
330
394
330
395
102
}
330
71
100
AcDbEntity
  8
0
  6
Continuous
 62
     2
100
AcDbLine
 10
25.50390881677919
 20
-80.40791559808653
 30
0.0
 11
26.74441322703331
 21
-80.40791559808653
 31
0.0
  0
LINE
  5
2A5
102
{ACAD_REACTORS
330
394
330
395
102
}
330
71
100
AcDbEntity
  8
0
  6
Continuous
 62
     2
100
AcDbLine
 10
26.74441322703331
 20
-80.40791559808653
 30
0.0
 11
26.74441322703331
 21
-79.46483735694272
 31
0.0
  0
LINE
  5
2A6
102
{ACAD_REACTORS
330
38E
330
38F
102
}
330
71
100
AcDbEntity
  8
0
  6
Continuous
 62
     2
100
AcDbLine
 10
21.19896296756781
 20
-83.05455051870393
 30
0.0
 11
19.72312970655818
 21
-83.05455051870393
 31
0.0
  0
LINE
  5
2A7
102
{ACAD_REACTORS
330
38E
330
38F
102
}
330
71
100
AcDbEntity
  8
0
  6
Continuous
 62
     2
100
AcDbLine
 10
18.70499041442889
 20
-77.77835068967732
 30
0.0
 11
18.70499041442889
 21
-83.34286145887754
 31
0.0
  0
LINE
  5
2A8
102
{ACAD_REACTORS
330
38E
330
38F
102
}
330
71
100
AcDbEntity
  8
0
  6
Continuous
 62
     2
100
AcDbLine
 10
19.1292350298117
 20
-77.35410607429353
 30
0.0
 11
24.6025471205285
 21
-77.35410607429353
 31
0.0
  0
LINE
  5
2A9
102
{ACAD_REACTORS
330
38E
330
38F
102
}
330
71
100
AcDbEntity
  8
0
  6
Continuous
 62
     2
100
AcDbLine
 10
25.02679173591238
 20
-77.77835068967732
 30
0.0
 11
25.02679173591238
 21
-83.34286145887754
 31
0.0
  0
LINE
  5
2AA
102
{ACAD_REACTORS
330
38E
330
38F
102
}
330
71
100
AcDbEntity
  8
0
  6
Continuous
 62
     2
100
AcDbLine
 10
24.6025471205285
 20
-83.76710607426082
 30
0.0
 11
19.1292350298117
 21
-83.76710607426082
 31
0.0
  0
LINE
  5
2AB
102
{ACAD_REACTORS
330
38E
330
38F
102
}
330
71
100
AcDbEntity
  8
0
  6
Continuous
 62
     2
100
AcDbLine
 10
21.5146798906444
 20
-82.73883359562723
 30
0.0
 11
21.5146798906444
 21
-81.20806266409562
 31
0.0
  0
LINE
  5
2AC
102
{ACAD_REACTORS
330
38E
330
38F
102
}
330
71
100
AcDbEntity
  8
0
  6
Continuous
 62
     2
100
AcDbLine
 10
21.5146798906444
 20
-78.98640317197064
 30
0.0
 11
21.5146798906444
 21
-78.38237855291013
 31
0.0
  0
LINE
  5
2AD
102
{ACAD_REACTORS
330
38E
330
38F
102
}
330
71
100
AcDbEntity
  8
0
  6
Continuous
 62
     2
100
AcDbLine
 10
19.72312970655818
 20
-78.06666162983393
 30
0.0
 11
21.19896296756781
 21
-78.06666162983393
 31
0.0
  0
LINE
  5
2AE
102
{ACAD_REACTORS
330
38E
330
38F
102
}
330
71
100
AcDbEntity
  8
0
  6
Continuous
 62
     2
100
AcDbLine
 10
19.4074127834825
 20
-78.38237855291013
 30
0.0
 11
19.4074127834825
 21
-82.73883359562723
 31
0.0
  0
LINE
  5
2AF
102
{ACAD_REACTORS
330
394
330
395
102
}
330
71
100
AcDbEntity
  8
0
  6
Continuous
 62
     2
100
AcDbLine
 10
26.74441322703331
 20
-79.46483735694272
 30
0.0
 11
27.50318081481359
 21
-79.46483735694272
 31
0.0
  0
LINE
  5
2B0
102
{ACAD_REACTORS
330
394
330
395
102
}
330
71
100
AcDbEntity
  8
0
  6
Continuous
 62
     2
100
AcDbLine
 10
25.50390881677919
 20
-77.35410607427534
 30
0.0
 11
27.50318081481359
 21
-77.35410607427534
 31
0.0
  0
LINE
  5
2B1
102
{ACAD_REACTORS
330
394
330
395
102
}
330
71
100
AcDbEntity
  8
0
  6
Continuous
 62
     2
100
AcDbLine
 10
25.50390881677919
 20
-77.35410607427534
 30
0.0
 11
25.50390881677919
 21
-80.40791559808653
 31
0.0
  0
LINE
  5
2B2
102
{ACAD_REACTORS
330
394
330
395
102
}
330
71
100
AcDbEntity
  8
0
  6
Continuous
 62
     2
100
AcDbLine
 10
26.74441322703331
 20
-78.72293956905764
 30
0.0
 11
27.0617082885752
 21
-78.72293956905764
 31
0.0
  0
LINE
  5
2B3
102
{ACAD_REACTORS
330
394
330
395
102
}
330
71
100
AcDbEntity
  8
0
  6
Continuous
 62
     2
100
AcDbLine
 10
26.74441322703331
 20
-78.01721191971544
 30
0.0
 11
27.0617082885752
 21
-78.01721191971544
 31
0.0
  0
LINE
  5
2B4
102
{ACAD_REACTORS
330
3A2
330
3A3
102
}
330
71
100
AcDbEntity
  8
0
  6
Continuous
 62
     2
100
AcDbLine
 10
29.89338596075351
 20
-78.42293940760993
 30
0.0
 11
30.94304353866099
 21
-78.42293940760993
 31
0.0
  0
LINE
  5
2B5
102
{ACAD_REACTORS
330
3A2
330
3A3
102
}
330
71
100
AcDbEntity
  8
0
  6
Continuous
 62
     2
100
AcDbLine
 10
29.89338596075351
 20
-77.35410607427534
 30
0.0
 11
29.89338596075351
 21
-78.42293940760993
 31
0.0
  0
LINE
  5
2B6
102
{ACAD_REACTORS
330
3A2
330
3A3
102
}
330
71
100
AcDbEntity
  8
0
  6
Continuous
 62
     2
100
AcDbLine
 10
28.70059325858691
 20
-77.35410607427534
 30
0.0
 11
29.89338596075351
 21
-77.35410607427534
 31
0.0
  0
LINE
  5
2B7
102
{ACAD_REACTORS
330
3A2
330
3A3
102
}
330
71
100
AcDbEntity
  8
0
  6
Continuous
 62
     2
100
AcDbLine
 10
29.89338596075351
 20
-80.40791559808653
 30
0.0
 11
28.70059325858691
 21
-80.40791559808653
 31
0.0
  0
LINE
  5
2B8
102
{ACAD_REACTORS
330
3A2
330
3A3
102
}
330
71
100
AcDbEntity
  8
0
  6
Continuous
 62
     2
100
AcDbLine
 10
30.94304353866099
 20
-80.40791559808653
 30
0.0
 11
30.94304353866099
 21
-79.27364348924272
 31
0.0
  0
LINE
  5
2B9
102
{ACAD_REACTORS
330
3A2
330
3A3
102
}
330
71
100
AcDbEntity
  8
0
  6
Continuous
 62
     2
100
AcDbLine
 10
32.13583624082739
 20
-80.40791559808653
 30
0.0
 11
30.94304353866099
 21
-80.40791559808653
 31
0.0
  0
LINE
  5
2BA
102
{ACAD_REACTORS
330
3A2
330
3A3
102
}
330
71
100
AcDbEntity
  8
0
  6
Continuous
 62
     2
100
AcDbLine
 10
32.13583624082739
 20
-77.35410607427534
 30
0.0
 11
32.13583624082739
 21
-80.40791559808653
 31
0.0
  0
LINE
  5
2BB
102
{ACAD_REACTORS
330
390
330
391
102
}
330
71
100
AcDbEntity
  8
0
  6
Continuous
 62
     2
100
AcDbLine
 10
35.61879093115431
 20
-79.23001763890232
 30
0.0
 11
36.95471875758199
 21
-79.23001763890232
 31
0.0
  0
LINE
  5
2BC
102
{ACAD_REACTORS
330
390
330
391
102
}
330
71
100
AcDbEntity
  8
0
  6
Continuous
 62
     2
100
AcDbLine
 10
36.95471875758199
 20
-79.23001763890232
 30
0.0
 11
36.95471875758199
 21
-78.53200403346003
 31
0.0
  0
LINE
  5
2BD
102
{ACAD_REACTORS
330
390
330
391
102
}
330
71
100
AcDbEntity
  8
0
  6
Continuous
 62
     2
100
AcDbLine
 10
36.95471875758199
 20
-78.53200403346003
 30
0.0
 11
35.61879093115431
 21
-78.53200403346003
 31
0.0
  0
LINE
  5
2BE
102
{ACAD_REACTORS
330
390
330
391
102
}
330
71
100
AcDbEntity
  8
0
  6
Continuous
 62
     2
100
AcDbLine
 10
35.61879093115431
 20
-78.53200403346003
 30
0.0
 11
35.61879093115431
 21
-78.05211967971832
 31
0.0
  0
LINE
  5
2BF
102
{ACAD_REACTORS
330
3A0
330
3A1
102
}
330
71
100
AcDbEntity
  8
0
  6
Continuous
 62
     2
100
AcDbLine
 10
31.9448384775952
 20
-83.76710607426082
 30
0.0
 11
33.13763117976279
 21
-83.76710607426082
 31
0.0
  0
LINE
  5
2C0
102
{ACAD_REACTORS
330
3A0
330
3A1
102
}
330
71
100
AcDbEntity
  8
0
  6
Continuous
 62
     2
100
AcDbLine
 10
34.37813559001569
 20
-83.76710607426082
 30
0.0
 11
35.57092829218209
 21
-83.76710607426082
 31
0.0
  0
LINE
  5
2C1
102
{ACAD_REACTORS
330
3A0
330
3A1
102
}
330
71
100
AcDbEntity
  8
0
  6
Continuous
 62
     2
100
AcDbLine
 10
33.13763117976279
 20
-80.71329655044974
 30
0.0
 11
31.9448384775952
 21
-80.71329655044974
 31
0.0
  0
LINE
  5
2C2
102
{ACAD_REACTORS
330
3A0
330
3A1
102
}
330
71
100
AcDbEntity
  8
0
  6
Continuous
 62
     2
100
AcDbLine
 10
31.9448384775952
 20
-80.71329655044974
 30
0.0
 11
31.9448384775952
 21
-83.76710607426082
 31
0.0
  0
LINE
  5
2C3
102
{ACAD_REACTORS
330
39E
330
39F
102
}
330
71
100
AcDbEntity
  8
0
  6
Continuous
 62
     2
100
AcDbLine
 10
39.62657441043541
 20
-77.35410607427534
 30
0.0
 11
39.62657441043541
 21
-78.66288158448052
 31
0.0
  0
LINE
  5
2C4
102
{ACAD_REACTORS
330
39E
330
39F
102
}
330
71
100
AcDbEntity
  8
0
  6
Continuous
 62
     2
100
AcDbLine
 10
38.38607000018141
 20
-77.35410607427534
 30
0.0
 11
37.19327729801489
 21
-77.35410607427534
 31
0.0
  0
LINE
  5
2C5
102
{ACAD_REACTORS
330
39E
330
39F
102
}
330
71
100
AcDbEntity
  8
0
  6
Continuous
 62
     2
100
AcDbLine
 10
37.19327729801489
 20
-77.35410607427534
 30
0.0
 11
37.19327729801489
 21
-80.40791559808653
 31
0.0
  0
LINE
  5
2C6
102
{ACAD_REACTORS
330
39E
330
39F
102
}
330
71
100
AcDbEntity
  8
0
  6
Continuous
 62
     2
100
AcDbLine
 10
38.38607000018141
 20
-80.40791559808653
 30
0.0
 11
38.38607000018141
 21
-79.09914008788184
 31
0.0
  0
LINE
  5
2C7
102
{ACAD_REACTORS
330
39C
330
39D
102
}
330
71
100
AcDbEntity
  8
0
  6
Continuous
 62
     2
100
AcDbLine
 10
37.71795515608341
 20
-83.76710607426082
 30
0.0
 11
37.71795515608341
 21
-81.49856185657333
 31
0.0
  0
LINE
  5
2C8
102
{ACAD_REACTORS
330
39C
330
39D
102
}
330
71
100
AcDbEntity
  8
0
  6
Continuous
 62
     2
100
AcDbLine
 10
37.71795515608341
 20
-81.49856185657333
 30
0.0
 11
38.52905419355591
 21
-81.49856185657333
 31
0.0
  0
LINE
  5
2C9
102
{ACAD_REACTORS
330
39C
330
39D
102
}
330
71
100
AcDbEntity
  8
0
  6
Continuous
 62
     2
100
AcDbLine
 10
38.52905419355591
 20
-81.49856185657333
 30
0.0
 11
38.52905419355591
 21
-80.71329655044974
 31
0.0
  0
LINE
  5
2CA
102
{ACAD_REACTORS
330
39C
330
39D
102
}
330
71
100
AcDbEntity
  8
0
  6
Continuous
 62
     2
100
AcDbLine
 10
38.52905419355591
 20
-80.71329655044974
 30
0.0
 11
35.71406341644229
 21
-80.71329655044974
 31
0.0
  0
LINE
  5
2CB
102
{ACAD_REACTORS
330
39C
330
39D
102
}
330
71
100
AcDbEntity
  8
0
  6
Continuous
 62
     2
100
AcDbLine
 10
35.71406341644229
 20
-81.49856185657333
 30
0.0
 11
36.52516245391689
 21
-81.49856185657333
 31
0.0
  0
LINE
  5
2CC
102
{ACAD_REACTORS
330
39A
330
39B
102
}
330
71
100
AcDbEntity
  8
0
  6
Continuous
 62
     2
100
AcDbLine
 10
39.3235600193533
 20
-83.22614553004294
 30
0.0
 11
40.45600159602711
 21
-83.22614553004294
 31
0.0
  0
LINE
  5
2CD
102
{ACAD_REACTORS
330
39A
330
39B
102
}
330
71
100
AcDbEntity
  8
0
  6
Continuous
 62
     2
100
AcDbLine
 10
41.90798605975681
 20
-83.76710607426082
 30
0.0
 11
40.66748164950289
 21
-83.76710607426082
 31
0.0
  0
LINE
  5
2CE
102
{ACAD_REACTORS
330
39A
330
39B
102
}
330
71
100
AcDbEntity
  8
0
  6
Continuous
 62
     2
100
AcDbLine
 10
39.26952860256381
 20
-80.71329655044974
 30
0.0
 11
37.8715755556245
 21
-83.76710607426082
 31
0.0
  0
LINE
  5
2CF
102
{ACAD_REACTORS
330
39A
330
39B
102
}
330
71
100
AcDbEntity
  8
0
  6
Continuous
 62
     2
100
AcDbLine
 10
39.11207996587748
 20
-83.76710607426082
 30
0.0
 11
39.3235600193533
 21
-83.22614553004294
 31
0.0
  0
LINE
  5
2D0
102
{ACAD_REACTORS
330
39A
330
39B
102
}
330
71
100
AcDbEntity
  8
0
  6
Continuous
 62
     2
100
AcDbLine
 10
39.5896155704983
 20
-82.54558226473634
 30
0.0
 11
39.8897808076907
 21
-81.77776729874964
 31
0.0
  0
LINE
  5
2D1
102
{ACAD_REACTORS
330
398
330
399
102
}
330
71
100
AcDbEntity
  8
0
  6
Continuous
 62
     2
100
AcDbLine
 10
41.05792565303591
 20
-80.40791559808653
 30
0.0
 11
41.05792565303591
 21
-77.35410607427534
 31
0.0
  0
LINE
  5
2D2
102
{ACAD_REACTORS
330
398
330
399
102
}
330
71
100
AcDbEntity
  8
0
  6
Continuous
 62
     2
100
AcDbLine
 10
42.29843006328881
 20
-77.35410607427534
 30
0.0
 11
42.29843006328881
 21
-80.40791559808653
 31
0.0
  0
LINE
  5
2D3
102
{ACAD_REACTORS
330
398
330
399
102
}
330
71
100
AcDbEntity
  8
0
  6
Continuous
 62
     2
100
AcDbLine
 10
41.05792565303591
 20
-77.35410607427534
 30
0.0
 11
42.29843006328881
 21
-77.35410607427534
 31
0.0
  0
LINE
  5
2D4
102
{ACAD_REACTORS
330
396
330
397
102
}
330
71
100
AcDbEntity
  8
0
  6
Continuous
 62
     2
100
AcDbLine
 10
44.5170244893196
 20
-79.62018381279282
 30
0.0
 11
45.21361542738509
 21
-80.40791559808653
 31
0.0
  0
LINE
  5
2D5
102
{ACAD_REACTORS
330
396
330
397
102
}
330
71
100
AcDbEntity
  8
0
  6
Continuous
 62
     2
100
AcDbLine
 10
45.21361542738509
 20
-80.40791559808653
 30
0.0
 11
46.61633964513339
 21
-80.40791559808653
 31
0.0
  0
LINE
  5
2D6
102
{ACAD_REACTORS
330
396
330
397
102
}
330
71
100
AcDbEntity
  8
0
  6
Continuous
 62
     2
100
AcDbLine
 10
45.21838659819309
 20
-78.82705660431154
 30
0.0
 11
46.61633964513339
 21
-80.40791559808653
 31
0.0
  0
LINE
  5
2D7
102
{ACAD_REACTORS
330
396
330
397
102
}
330
71
100
AcDbEntity
  8
0
  6
Continuous
 62
     2
100
AcDbLine
 10
45.21838659819309
 20
-78.82705660431154
 30
0.0
 11
46.52091622895961
 21
-77.35410607427534
 31
0.0
  0
LINE
  5
2D8
102
{ACAD_REACTORS
330
396
330
397
102
}
330
71
100
AcDbEntity
  8
0
  6
Continuous
 62
     2
100
AcDbLine
 10
44.5170244893196
 20
-78.03392939583082
 30
0.0
 11
45.11819201121239
 21
-77.35410607427534
 31
0.0
  0
LINE
  5
2D9
102
{ACAD_REACTORS
330
396
330
397
102
}
330
71
100
AcDbEntity
  8
0
  6
Continuous
 62
     2
100
AcDbLine
 10
43.9158569674278
 20
-77.35410607427534
 30
0.0
 11
44.5170244893196
 21
-78.03392939583082
 31
0.0
  0
LINE
  5
2DA
102
{ACAD_REACTORS
330
396
330
397
102
}
330
71
100
AcDbEntity
  8
0
  6
Continuous
 62
     2
100
AcDbLine
 10
43.9158569674278
 20
-77.35410607427534
 30
0.0
 11
42.51313274967851
 21
-77.35410607427534
 31
0.0
  0
LINE
  5
2DB
102
{ACAD_REACTORS
330
38C
330
38D
102
}
330
71
100
AcDbEntity
  8
0
  6
Continuous
 62
     2
100
AcDbLine
 10
44.6124479054923
 20
-83.76710607426082
 30
0.0
 11
45.80524060766001
 21
-83.76710607426082
 31
0.0
  0
LINE
  5
2DC
102
{ACAD_REACTORS
330
38C
330
38D
102
}
330
71
100
AcDbEntity
  8
0
  6
Continuous
 62
     2
100
AcDbLine
 10
45.80524060766001
 20
-83.76710607426082
 30
0.0
 11
45.80524060766001
 21
-81.49856185657333
 31
0.0
  0
LINE
  5
2DD
102
{ACAD_REACTORS
330
38C
330
38D
102
}
330
71
100
AcDbEntity
  8
0
  6
Continuous
 62
     2
100
AcDbLine
 10
45.80524060766001
 20
-81.49856185657333
 30
0.0
 11
46.61633964513339
 21
-81.49856185657333
 31
0.0
  0
LINE
  5
2DE
102
{ACAD_REACTORS
330
38C
330
38D
102
}
330
71
100
AcDbEntity
  8
0
  6
Continuous
 62
     2
100
AcDbLine
 10
46.61633964513339
 20
-81.49856185657333
 30
0.0
 11
46.61633964513339
 21
-80.71329655044974
 31
0.0
  0
LINE
  5
2DF
102
{ACAD_REACTORS
330
38C
330
38D
102
}
330
71
100
AcDbEntity
  8
0
  6
Continuous
 62
     2
100
AcDbLine
 10
43.23139412650471
 20
-80.71329655045022
 30
0.0
 11
46.61633964513339
 21
-80.71329655044974
 31
0.0
  0
LINE
  5
2E0
102
{ACAD_REACTORS
330
38C
330
38D
102
}
330
71
100
AcDbEntity
  8
0
  6
Continuous
 62
     2
100
AcDbLine
 10
44.6124479054923
 20
-81.49856185657333
 30
0.0
 11
44.6124479054923
 21
-83.76710607426082
 31
0.0
  0
LINE
  5
2E1
102
{ACAD_REACTORS
330
38E
330
38F
102
}
330
71
100
AcDbEntity
  8
0
  6
Continuous
 62
     2
100
AcDbLine
 10
21.9829614700131
 20
-81.78822592469632
 30
0.0
 11
21.9829614700131
 21
-81.20637451800124
 31
0.0
  0
LINE
  5
2E2
102
{ACAD_REACTORS
330
38E
330
38F
102
}
330
71
100
AcDbEntity
  8
0
  6
Continuous
 62
     2
100
AcDbLine
 10
21.9829614700131
 20
-78.98809131806502
 30
0.0
 11
21.9829614700131
 21
-78.38255602955823
 31
0.0
  0
LINE
  5
2E3
330
71
100
AcDbEntity
  8
1
  6
Continuous
 62
     6
100
AcDbLine
 10
0.51314005461631
 20
-91.06060607427713
 30
0.0
 11
14.46833552786629
 21
-91.06060607427725
 31
0.0
  0
LINE
  5
2E4
330
71
100
AcDbEntity
  8
1
  6
Continuous
 62
     6
100
AcDbLine
 10
-49.48685994538391
 20
-91.06060607427713
 30
0.0
 11
-54.53166447213368
 21
-91.06060607427713
 31
0.0
  0
LINE
  5
2E5
330
71
100
AcDbEntity
  8
1
  6
Continuous
 62
     6
100
AcDbLine
 10
100.5131400546163
 20
-91.06060607427713
 30
0.0
 11
144.0131400546163
 21
-91.06060607427713
 31
0.0
  0
LINE
  5
2E6
330
71
100
AcDbEntity
  8
1
  6
Continuous
 62
     6
100
AcDbLine
 10
50.51314005461629
 20
-91.06060607427713
 30
0.0
 11
32.6683355278663
 21
-91.06060607427713
 31
0.0
  0
LINE
  5
2E7
330
71
100
AcDbEntity
  8
1
  6
Continuous
 62
     2
100
AcDbLine
 10
144.0131400546163
 20
-91.06060607427713
 30
0.0
 11
149.0131400546153
 21
-91.06060607427713
 31
0.0
  0
LINE
  5
2E8
330
71
100
AcDbEntity
  8
1
  6
Continuous
 62
     2
100
AcDbLine
 10
144.0131400546163
 20
-91.06060607427713
 30
0.0
 11
144.0131400546163
 21
-96.06060607427725
 31
0.0
  0
LINE
  5
2E9
330
71
100
AcDbEntity
  8
1
  6
Continuous
 62
     6
100
AcDbLine
 10
14.46833552786629
 20
-74.06060607427713
 30
0.0
 11
50.86833552786621
 21
-74.06060607427713
 31
0.0
  0
LINE
  5
2EA
330
71
100
AcDbEntity
  8
1
  6
Continuous
 62
     2
100
AcDbLine
 10
149.0131400546153
 20
-96.06060607427725
 30
0.0
 11
149.0131400546153
 21
-91.06060607427713
 31
0.0
  0
LINE
  5
2EB
330
71
100
AcDbEntity
  8
1
  6
Continuous
 62
     2
100
AcDbLine
 10
149.0131400546153
 20
-96.06060607427725
 30
0.0
 11
144.0131400546163
 21
-96.06060607427725
 31
0.0
  0
LINE
  5
2EC
330
71
100
AcDbEntity
  8
1
  6
Continuous
 62
     2
100
AcDbLine
 10
144.0131400546163
 20
-96.06060607427725
 30
0.0
 11
100.5131400546163
 21
-96.06060607427725
 31
0.0
  0
LINE
  5
2ED
330
71
100
AcDbEntity
  8
1
  6
Continuous
 62
     6
100
AcDbLine
 10
144.013140054618
 20
-74.06060607427713
 30
0.0
 11
144.0131400546172
 21
-41.06060607427702
 31
0.0
  0
LINE
  5
2EE
330
71
100
AcDbEntity
  8
1
  6
Continuous
 62
     2
100
AcDbLine
 10
149.0131400546153
 20
113.9393939257229
 30
0.0
 11
0.51314005461631
 21
113.9393939257229
 31
0.0
  0
LINE
  5
2EF
330
71
100
AcDbEntity
  8
1
  6
Continuous
 62
     6
100
AcDbLine
 10
144.0131400546153
 20
93.93939392572287
 30
0.0
 11
-142.9868599453828
 21
93.93939392572287
 31
0.0
  0
LINE
  5
2F0
330
71
100
AcDbEntity
  8
1
  6
Continuous
 62
     2
100
AcDbLine
 10
144.0131400546172
 20
-41.06060607427702
 30
0.0
 11
149.0131400546153
 21
-41.06060607427702
 31
0.0
  0
LINE
  5
2F1
330
71
100
AcDbEntity
  8
1
  6
Continuous
 62
     6
100
AcDbLine
 10
144.0131400546172
 20
-41.06060607427702
 30
0.0
 11
144.0131400546167
 21
8.93939392572278
 31
0.0
  0
LINE
  5
2F2
330
71
100
AcDbEntity
  8
1
  6
Continuous
 62
     2
100
AcDbLine
 10
149.0131400546153
 20
-41.06060607427702
 30
0.0
 11
149.0131400546153
 21
8.93939392572278
 31
0.0
  0
LINE
  5
2F3
330
71
100
AcDbEntity
  8
1
  6
Continuous
 62
     2
100
AcDbLine
 10
144.0131400546167
 20
8.93939392572278
 30
0.0
 11
149.0131400546153
 21
8.93939392572278
 31
0.0
  0
LINE
  5
2F4
330
71
100
AcDbEntity
  8
1
  6
Continuous
 62
     6
100
AcDbLine
 10
144.0131400546167
 20
8.93939392572278
 30
0.0
 11
144.0131400546155
 21
58.93939392572287
 31
0.0
  0
LINE
  5
2F5
330
71
100
AcDbEntity
  8
1
  6
Continuous
 62
     2
100
AcDbLine
 10
149.0131400546153
 20
8.93939392572278
 30
0.0
 11
149.0131400546153
 21
58.93939392572287
 31
0.0
  0
LINE
  5
2F6
330
71
100
AcDbEntity
  8
1
  6
Continuous
 62
     2
100
AcDbLine
 10
144.0131400546155
 20
58.93939392572287
 30
0.0
 11
149.0131400546153
 21
58.93939392572287
 31
0.0
  0
LINE
  5
2F7
330
71
100
AcDbEntity
  8
1
  6
Continuous
 62
     6
100
AcDbLine
 10
144.0131400546155
 20
58.93939392572287
 30
0.0
 11
144.0131400546153
 21
93.93939392572287
 31
0.0
  0
LINE
  5
2F8
330
71
100
AcDbEntity
  8
1
  6
Continuous
 62
     2
100
AcDbLine
 10
149.0131400546153
 20
58.93939392572287
 30
0.0
 11
149.0131400546153
 21
113.9393939257229
 31
0.0
  0
LINE
  5
2F9
330
71
100
AcDbEntity
  8
1
  6
Continuous
 62
     2
100
AcDbLine
 10
149.0131400546153
 20
-91.06060607427713
 30
0.0
 11
149.0131400546153
 21
-41.06060607427702
 31
0.0
  0
LINE
  5
2FA
330
71
100
AcDbEntity
  8
1
  6
Continuous
 62
     2
100
AcDbLine
 10
0.51314005461631
 20
113.9393939257229
 30
0.0
 11
-147.9868599453828
 21
113.9393939257229
 31
0.0
  0
LINE
  5
2FB
330
71
100
AcDbEntity
  8
1
  6
Continuous
 62
     2
100
AcDbLine
 10
0.51314005461631
 20
113.9393939257229
 30
0.0
 11
0.51314005461631
 21
104.7307020810216
 31
0.0
  0
LINE
  5
2FC
330
71
100
AcDbEntity
  8
1
  6
Continuous
 62
     2
100
AcDbLine
 10
-147.9868599453828
 20
-96.06060607427725
 30
0.0
 11
-142.9868599453818
 21
-96.06060607427725
 31
0.0
  0
LINE
  5
2FD
330
71
100
AcDbEntity
  8
1
  6
Continuous
 62
     2
100
AcDbLine
 10
-147.9868599453828
 20
113.9393939257229
 30
0.0
 11
-147.9868599453828
 21
58.93939392572287
 31
0.0
  0
LINE
  5
2FE
330
71
100
AcDbEntity
  8
1
  6
Continuous
 62
     6
100
AcDbLine
 10
-142.9868599453828
 20
93.93939392572287
 30
0.0
 11
-142.9868599453827
 21
58.93939392572287
 31
0.0
  0
LINE
  5
2FF
330
71
100
AcDbEntity
  8
1
  6
Continuous
 62
     2
100
AcDbLine
 10
-147.9868599453828
 20
58.93939392572287
 30
0.0
 11
-142.9868599453827
 21
58.93939392572287
 31
0.0
  0
LINE
  5
300
330
71
100
AcDbEntity
  8
1
  6
Continuous
 62
     2
100
AcDbLine
 10
-147.9868599453828
 20
58.93939392572287
 30
0.0
 11
-147.9868599453828
 21
8.93939392572278
 31
0.0
  0
LINE
  5
301
330
71
100
AcDbEntity
  8
1
  6
Continuous
 62
     6
100
AcDbLine
 10
-142.9868599453827
 20
58.93939392572287
 30
0.0
 11
-142.9868599453822
 21
8.93939392572278
 31
0.0
  0
LINE
  5
302
330
71
100
AcDbEntity
  8
1
  6
Continuous
 62
     2
100
AcDbLine
 10
-147.9868599453828
 20
8.93939392572278
 30
0.0
 11
-142.9868599453822
 21
8.93939392572278
 31
0.0
  0
LINE
  5
303
330
71
100
AcDbEntity
  8
1
  6
Continuous
 62
     2
100
AcDbLine
 10
-147.9868599453828
 20
8.93939392572278
 30
0.0
 11
-147.9868599453828
 21
-41.06060607427702
 31
0.0
  0
LINE
  5
304
330
71
100
AcDbEntity
  8
1
  6
Continuous
 62
     6
100
AcDbLine
 10
-142.9868599453822
 20
8.93939392572278
 30
0.0
 11
-142.986859945382
 21
-41.06060607427702
 31
0.0
  0
LINE
  5
305
330
71
100
AcDbEntity
  8
1
  6
Continuous
 62
     2
100
AcDbLine
 10
-147.9868599453828
 20
-41.06060607427702
 30
0.0
 11
-142.986859945382
 21
-41.06060607427702
 31
0.0
  0
LINE
  5
306
330
71
100
AcDbEntity
  8
1
  6
Continuous
 62
     2
100
AcDbLine
 10
-147.9868599453828
 20
-41.06060607427702
 30
0.0
 11
-147.9868599453828
 21
-91.06060607427713
 31
0.0
  0
LINE
  5
307
330
71
100
AcDbEntity
  8
1
  6
Continuous
 62
     6
100
AcDbLine
 10
-142.986859945382
 20
-41.06060607427702
 30
0.0
 11
-142.9868599453818
 21
-91.06060607427713
 31
0.0
  0
LINE
  5
308
330
71
100
AcDbEntity
  8
1
  6
Continuous
 62
     2
100
AcDbLine
 10
-99.48685994538369
 20
-96.06060607427725
 30
0.0
 11
-99.48685994538369
 21
-91.06060607427713
 31
0.0
  0
LINE
  5
309
330
71
100
AcDbEntity
  8
1
  6
Continuous
 62
     2
100
AcDbLine
 10
-99.48685994538369
 20
-96.06060607427725
 30
0.0
 11
-49.48685994538391
 21
-96.06060607427725
 31
0.0
  0
LINE
  5
30A
330
71
100
AcDbEntity
  8
1
  6
Continuous
 62
     2
100
AcDbLine
 10
-49.48685994538391
 20
-96.06060607427725
 30
0.0
 11
-49.48685994538391
 21
-91.06060607427713
 31
0.0
  0
LINE
  5
30B
330
71
100
AcDbEntity
  8
1
  6
Continuous
 62
     2
100
AcDbLine
 10
-49.48685994538391
 20
-96.06060607427725
 30
0.0
 11
0.51314005461631
 21
-96.06060607427725
 31
0.0
  0
LINE
  5
30C
330
71
100
AcDbEntity
  8
1
  6
Continuous
 62
     2
100
AcDbLine
 10
0.51314005461631
 20
-96.06060607427725
 30
0.0
 11
0.51314005461631
 21
-91.06060607427713
 31
0.0
  0
LINE
  5
30D
330
71
100
AcDbEntity
  8
1
  6
Continuous
 62
     2
100
AcDbLine
 10
0.51314005461631
 20
-96.06060607427725
 30
0.0
 11
50.51314005461629
 21
-96.06060607427725
 31
0.0
  0
LINE
  5
30E
330
71
100
AcDbEntity
  8
1
  6
Continuous
 62
     2
100
AcDbLine
 10
50.51314005461629
 20
-96.06060607427725
 30
0.0
 11
50.51314005461629
 21
-91.06060607427713
 31
0.0
  0
LINE
  5
30F
330
71
100
AcDbEntity
  8
1
  6
Continuous
 62
     2
100
AcDbLine
 10
100.5131400546163
 20
-96.06060607427725
 30
0.0
 11
100.5131400546163
 21
-91.06060607427713
 31
0.0
  0
LINE
  5
310
330
71
100
AcDbEntity
  8
1
  6
Continuous
 62
     2
100
AcDbLine
 10
100.5131400546163
 20
-96.06060607427725
 30
0.0
 11
50.51314005461629
 21
-96.06060607427725
 31
0.0
  0
LINE
  5
311
330
71
100
AcDbEntity
  8
1
  6
Continuous
 62
     2
100
AcDbLine
 10
-142.9868599453818
 20
-91.06060607427713
 30
0.0
 11
-142.9868599453818
 21
-96.06060607427725
 31
0.0
  0
LINE
  5
312
330
71
100
AcDbEntity
  8
1
  6
Continuous
 62
     2
100
AcDbLine
 10
-142.9868599453818
 20
-96.06060607427725
 30
0.0
 11
-99.48685994538369
 21
-96.06060607427725
 31
0.0
  0
LINE
  5
313
330
71
100
AcDbEntity
  8
1
  6
Continuous
 62
     2
100
AcDbLine
 10
-142.9868599453818
 20
-91.06060607427713
 30
0.0
 11
-147.9868599453828
 21
-91.06060607427713
 31
0.0
  0
LINE
  5
314
330
71
100
AcDbEntity
  8
1
  6
Continuous
 62
     2
100
AcDbLine
 10
-147.9868599453828
 20
-91.06060607427713
 30
0.0
 11
-147.9868599453828
 21
-96.06060607427725
 31
0.0
  0
LINE
  5
315
330
71
100
AcDbEntity
  8
1
  6
Continuous
 62
     6
100
AcDbLine
 10
144.0131400546163
 20
-91.06060607427713
 30
0.0
 11
144.0131400546176
 21
-82.56060607427713
 31
0.0
  0
LINE
  5
316
330
71
100
AcDbEntity
  8
1
  6
Continuous
 62
     6
100
AcDbLine
 10
50.86833552786621
 20
-91.06060607427725
 30
0.0
 11
100.5131400546163
 21
-91.06060607427713
 31
0.0
  0
LINE
  5
317
330
71
100
AcDbEntity
  8
1
  6
Continuous
 62
     6
100
AcDbLine
 10
-101.7868599453839
 20
-91.06060607427725
 30
0.0
 11
-99.48685994538369
 21
-91.06060607427713
 31
0.0
  0
LINE
  5
318
330
71
100
AcDbEntity
  8
1
  6
Continuous
 62
     6
100
AcDbLine
 10
0.51314005461631
 20
-91.06060607427713
 30
0.0
 11
-49.48685994538391
 21
-91.06060607427713
 31
0.0
  0
LINE
  5
319
330
71
100
AcDbEntity
  8
1
  6
Continuous
 62
     7
100
AcDbLine
 10
14.46833552786629
 20
-74.06060607427713
 30
0.0
 11
14.46833552786629
 21
-86.81060607427725
 31
0.0
  0
LINE
  5
31A
330
71
100
AcDbEntity
  8
1
  6
Continuous
 62
     7
100
AcDbLine
 10
50.86833552786621
 20
-74.06060607427713
 30
0.0
 11
50.86833552786621
 21
-86.81060607427713
 31
0.0
  0
LINE
  5
31B
330
71
100
AcDbEntity
  8
1
  6
Continuous
 62
     6
100
AcDbLine
 10
-101.7868599453839
 20
-91.06060607427725
 30
0.0
 11
-107.9868599453819
 21
-91.06060607427713
 31
0.0
  0
LINE
  5
31C
330
71
100
AcDbEntity
  8
1
  6
Continuous
 62
     6
100
AcDbLine
 10
50.86833552786621
 20
-91.06060607427725
 30
0.0
 11
50.51314005461629
 21
-91.06060607427713
 31
0.0
  0
LINE
  5
31D
330
71
100
AcDbEntity
  8
1
  6
Continuous
 62
     6
100
AcDbLine
 10
144.013140054618
 20
-74.06060607427713
 30
0.0
 11
144.0131400546176
 21
-82.56060607427713
 31
0.0
  0
LINE
  5
31E
330
71
100
AcDbEntity
  8
1
  6
Continuous
 62
     6
100
AcDbLine
 10
-107.9868599453819
 20
-91.06060607427713
 30
0.0
 11
-142.9868599453818
 21
-91.06060607427713
 31
0.0
  0
LINE
  5
31F
330
71
100
AcDbEntity
  8
1
  6
Continuous
 62
     2
100
AcDbLine
 10
18.70499041442889
 20
-68.68560607427722
 30
0.0
 11
23.70499041442889
 21
-67.43560607427722
 31
0.0
  0
LINE
  5
320
330
71
100
AcDbEntity
  8
1
  6
Continuous
 62
     2
100
AcDbLine
 10
18.70499041442889
 20
-71.18560607427722
 30
0.0
 11
18.70499041442889
 21
-68.68560607427722
 31
0.0
  0
LINE
  5
321
330
71
100
AcDbEntity
  8
1
  6
Continuous
 62
     2
100
AcDbLine
 10
23.70499041442889
 20
-72.43560607427722
 30
0.0
 11
18.70499041442889
 21
-71.18560607427722
 31
0.0
  0
LINE
  5
322
330
71
100
AcDbEntity
  8
1
  6
Continuous
 62
     2
100
AcDbLine
 10
23.70499041442889
 20
-67.43560607427722
 30
0.0
 11
23.70499041442889
 21
-72.43560607427722
 31
0.0
  0
LINE
  5
323
330
71
100
AcDbEntity
  8
1
  6
Continuous
 62
     7
100
AcDbLine
 10
14.46833552786629
 20
-86.81060607427725
 30
0.0
 11
32.6683355278663
 21
-86.81060607427713
 31
0.0
  0
LINE
  5
324
330
71
100
AcDbEntity
  8
1
  6
Continuous
 62
     7
100
AcDbLine
 10
14.46833552786629
 20
-86.81060607427725
 30
0.0
 11
14.46833552786629
 21
-91.06060607427725
 31
0.0
  0
LINE
  5
325
330
71
100
AcDbEntity
  8
1
  6
Continuous
 62
     7
100
AcDbLine
 10
50.86833552786621
 20
-86.81060607427713
 30
0.0
 11
50.86833552786621
 21
-91.06060607427725
 31
0.0
  0
LINE
  5
326
330
71
100
AcDbEntity
  8
1
  6
Continuous
 62
     7
100
AcDbLine
 10
32.6683355278663
 20
-86.81060607427713
 30
0.0
 11
32.6683355278663
 21
-91.06060607427713
 31
0.0
  0
LINE
  5
327
330
71
100
AcDbEntity
  8
1
  6
Continuous
 62
     6
100
AcDbLine
 10
32.6683355278663
 20
-91.06060607427713
 30
0.0
 11
14.46833552786629
 21
-91.06060607427725
 31
0.0
  0
LINE
  5
328
330
71
100
AcDbEntity
  8
1
  6
Continuous
 62
     7
100
AcDbLine
 10
32.6683355278663
 20
-86.81060607427713
 30
0.0
 11
50.86833552786621
 21
-86.81060607427713
 31
0.0
  0
LINE
  5
329
330
71
100
AcDbEntity
  8
1
  6
Continuous
 62
     6
100
AcDbLine
 10
14.46833552786629
 20
-65.56060607427713
 30
0.0
 11
144.013140054618
 21
-65.56060607427713
 31
0.0
  0
ARC
  5
32A
102
{ACAD_REACTORS
330
392
330
393
102
}
330
71
100
AcDbEntity
  8
0
  6
Continuous
 62
     2
100
AcDbCircle
 10
29.85998352682628
 20
-82.24020131235554
 30
0.0
 40
0.7717997786796947
100
AcDbArc
 50
321.8795802028417
 51
38.12041979715329
  0
ARC
  5
32B
102
{ACAD_REACTORS
330
392
330
393
102
}
330
71
100
AcDbEntity
  8
0
  6
Continuous
 62
     2
100
AcDbCircle
 10
30.0597235631727
 20
-82.39693249047554
 30
0.0
 40
0.5179085730137409
100
AcDbArc
 50
218.1204197971927
 51
321.8795802028005
  0
ARC
  5
32C
102
{ACAD_REACTORS
330
392
330
393
102
}
330
71
100
AcDbEntity
  8
0
  6
Continuous
 62
     2
100
AcDbCircle
 10
30.2594635995188
 20
-82.24020131235554
 30
0.0
 40
0.7717997786794689
100
AcDbArc
 50
141.8795802028366
 51
218.1204197971684
  0
ARC
  5
32D
102
{ACAD_REACTORS
330
392
330
393
102
}
330
71
100
AcDbEntity
  8
0
  6
Continuous
 62
     2
100
AcDbCircle
 10
30.0597235631727
 20
-82.08347013423503
 30
0.0
 40
0.5179085730132943
100
AcDbArc
 50
38.12041979714752
 51
141.8795802028593
  0
ARC
  5
32E
102
{ACAD_REACTORS
330
38A
330
38B
102
}
330
71
100
AcDbEntity
  8
0
  6
Continuous
 62
     2
100
AcDbCircle
 10
26.99770942760881
 20
-83.65066767776372
 30
0.0
 40
2.227384008973478
100
AcDbArc
 50
58.06909105004071
 51
71.55192388186731
  0
ARC
  5
32F
102
{ACAD_REACTORS
330
38A
330
38B
102
}
330
71
100
AcDbEntity
  8
0
  6
Continuous
 62
     2
100
AcDbCircle
 10
27.25943712856758
 20
-82.03512988301654
 30
0.0
 40
0.5115800601948765
100
AcDbArc
 50
113.3722778881988
 51
151.4785267423041
  0
ARC
  5
330
102
{ACAD_REACTORS
330
38A
330
38B
102
}
330
71
100
AcDbEntity
  8
0
  6
Continuous
 62
     2
100
AcDbCircle
 10
27.63679438664789
 20
-82.24020131235554
 30
0.0
 40
0.9410597353332483
100
AcDbArc
 50
151.4785267422667
 51
208.5214732577059
  0
ARC
  5
331
102
{ACAD_REACTORS
330
38A
330
38B
102
}
330
71
100
AcDbEntity
  8
0
  6
Continuous
 62
     2
100
AcDbCircle
 10
26.83983655251589
 20
-78.92752036709913
 30
0.0
 40
4.852596863498138
100
AcDbArc
 50
275.1581447696249
 51
285.9799912583529
  0
ARC
  5
332
102
{ACAD_REACTORS
330
38A
330
38B
102
}
330
71
100
AcDbEntity
  8
0
  6
Continuous
 62
     2
100
AcDbCircle
 10
27.1286926472518
 20
-82.12741095032072
 30
0.0
 40
1.639695123939391
100
AcDbArc
 50
195.0618917770896
 51
275.1581447696393
  0
ARC
  5
333
102
{ACAD_REACTORS
330
38A
330
38B
102
}
330
71
100
AcDbEntity
  8
0
  6
Continuous
 62
     2
100
AcDbCircle
 10
26.70956480378899
 20
-82.24020131235554
 30
0.0
 40
1.205656168390941
100
AcDbArc
 50
164.9381082228764
 51
195.0618917770949
  0
ARC
  5
334
102
{ACAD_REACTORS
330
38A
330
38B
102
}
330
71
100
AcDbEntity
  8
0
  6
Continuous
 62
     2
100
AcDbCircle
 10
27.1286926472518
 20
-82.35299167439044
 30
0.0
 40
1.639695123940506
100
AcDbArc
 50
84.84185523036261
 51
164.9381082228865
  0
ARC
  5
335
102
{ACAD_REACTORS
330
38E
330
38F
102
}
330
71
100
AcDbEntity
  8
0
  6
Continuous
 62
     2
100
AcDbCircle
 10
22.29867839308989
 20
-81.20637451800124
 30
0.0
 40
0.3157169230765343
100
AcDbArc
 50
115.3740086783524
 51
180.0
  0
ARC
  5
336
102
{ACAD_REACTORS
330
38E
330
38F
102
}
330
71
100
AcDbEntity
  8
0
  6
Continuous
 62
     2
100
AcDbCircle
 10
22.29867839308989
 20
-78.98809131806502
 30
0.0
 40
0.3157169230767884
100
AcDbArc
 50
180.0
 51
244.6259913216475
  0
ARC
  5
337
102
{ACAD_REACTORS
330
38E
330
38F
102
}
330
71
100
AcDbEntity
  8
0
  6
Continuous
 62
     2
100
AcDbCircle
 10
22.30429452839991
 20
-80.08539097712733
 30
0.0
 40
2.018561131933266
100
AcDbArc
 50
269.8110329575857
 51
90.18896704241426
  0
ARC
  5
338
102
{ACAD_REACTORS
330
38E
330
38F
102
}
330
71
100
AcDbEntity
  8
0
  6
Continuous
 62
     2
100
AcDbCircle
 10
22.29867839308989
 20
-81.78822592469632
 30
0.0
 40
0.3157169230767884
100
AcDbArc
 50
180.0
 51
269.8110329574535
  0
ARC
  5
339
102
{ACAD_REACTORS
330
38C
330
38D
102
}
330
71
100
AcDbEntity
  8
0
  6
Continuous
 62
     2
100
AcDbCircle
 10
43.3621386078205
 20
-82.03512988301654
 30
0.0
 40
0.5115800601944143
100
AcDbArc
 50
109.3371432194853
 51
151.4785267424225
  0
ARC
  5
33A
102
{ACAD_REACTORS
330
38C
330
38D
102
}
330
71
100
AcDbEntity
  8
0
  6
Continuous
 62
     2
100
AcDbCircle
 10
43.3621386078205
 20
-82.44527274169403
 30
0.0
 40
0.5115800601960215
100
AcDbArc
 50
208.5214732576866
 51
246.6277221118442
  0
ARC
  5
33B
102
{ACAD_REACTORS
330
38C
330
38D
102
}
330
71
100
AcDbEntity
  8
0
  6
Continuous
 62
     2
100
AcDbCircle
 10
42.8122662830431
 20
-82.24020131235554
 30
0.0
 40
1.205656168393002
100
AcDbArc
 50
164.9381082229028
 51
195.0618917770959
  0
ARC
  5
33C
102
{ACAD_REACTORS
330
38C
330
38D
102
}
330
71
100
AcDbEntity
  8
0
  6
Continuous
 62
     2
100
AcDbCircle
 10
43.23139412650471
 20
-82.35299167439044
 30
0.0
 40
1.639695123940214
100
AcDbArc
 50
90.0
 51
164.938108222895
  0
ARC
  5
33D
102
{ACAD_REACTORS
330
390
330
391
102
}
330
71
100
AcDbEntity
  8
0
  6
Continuous
 62
     2
100
AcDbCircle
 10
33.80439903380099
 20
-78.88101083618122
 30
0.0
 40
1.526904761905882
100
AcDbArc
 50
90.0
 51
270.0
  0
ARC
  5
33E
102
{ACAD_REACTORS
330
394
330
395
102
}
330
71
100
AcDbEntity
  8
0
  6
Continuous
 62
     2
100
AcDbCircle
 10
27.0617082885752
 20
-78.37007574438653
 30
0.0
 40
0.3528638246711182
100
AcDbArc
 50
270.0
 51
90.0
  0
ARC
  5
33F
102
{ACAD_REACTORS
330
38E
330
38F
102
}
330
71
100
AcDbEntity
  8
0
  6
Continuous
 62
     2
100
AcDbCircle
 10
19.72312970655818
 20
-78.38237855291013
 30
0.0
 40
0.3157169230761951
100
AcDbArc
 50
90.0
 51
180.0
  0
ARC
  5
340
102
{ACAD_REACTORS
330
38E
330
38F
102
}
330
71
100
AcDbEntity
  8
0
  6
Continuous
 62
     2
100
AcDbCircle
 10
21.72154741514279
 20
-80.09723291803283
 30
0.0
 40
0.9118975235576116
100
AcDbArc
 50
115.1944106485278
 51
244.8055893514882
  0
ARC
  5
341
102
{ACAD_REACTORS
330
38E
330
38F
102
}
330
71
100
AcDbEntity
  8
0
  6
Continuous
 62
     2
100
AcDbCircle
 10
21.19896296756781
 20
-81.20806266409562
 30
0.0
 40
0.3157169230765895
100
AcDbArc
 50
0.0
 51
64.8055893514597
  0
ARC
  5
342
102
{ACAD_REACTORS
330
38E
330
38F
102
}
330
71
100
AcDbEntity
  8
0
  6
Continuous
 62
     2
100
AcDbCircle
 10
19.1292350298117
 20
-83.34286145887754
 30
0.0
 40
0.4242446153828077
100
AcDbArc
 50
180.0
 51
270.0
  0
ARC
  5
343
102
{ACAD_REACTORS
330
390
330
391
102
}
330
71
100
AcDbEntity
  8
0
  6
Continuous
 62
     2
100
AcDbCircle
 10
34.02067104396619
 20
-78.72427965806074
 30
0.0
 40
0.5179085730135321
100
AcDbArc
 50
38.12041979714286
 51
141.8795802028489
  0
ARC
  5
344
102
{ACAD_REACTORS
330
390
330
391
102
}
330
71
100
AcDbEntity
  8
0
  6
Continuous
 62
     2
100
AcDbCircle
 10
34.22041108031249
 20
-78.88101083618122
 30
0.0
 40
0.7717997786796724
100
AcDbArc
 50
141.8795802028404
 51
218.1204197971562
  0
ARC
  5
345
102
{ACAD_REACTORS
330
392
330
393
102
}
330
71
100
AcDbEntity
  8
0
  6
Continuous
 62
     2
100
AcDbCircle
 10
30.0597235631727
 20
-81.70162630205223
 30
0.0
 40
2.06547977220851
100
AcDbArc
 50
242.4518518243401
 51
297.548148175687
  0
ARC
  5
346
102
{ACAD_REACTORS
330
392
330
393
102
}
330
71
100
AcDbEntity
  8
0
  6
Continuous
 62
     2
100
AcDbCircle
 10
30.0597235631727
 20
-82.77877632265833
 30
0.0
 40
2.065479772208566
100
AcDbArc
 50
62.45185182430646
 51
117.5481481756665
  0
ARC
  5
347
102
{ACAD_REACTORS
330
392
330
393
102
}
330
71
100
AcDbEntity
  8
0
  6
Continuous
 62
     2
100
AcDbCircle
 10
29.7787836713394
 20
-82.24020131235554
 30
0.0
 40
1.458034083651492
100
AcDbArc
 50
117.5481481756626
 51
242.4518518243374
  0
ARC
  5
348
102
{ACAD_REACTORS
330
392
330
393
102
}
330
71
100
AcDbEntity
  8
0
  6
Continuous
 62
     2
100
AcDbCircle
 10
30.340663455006
 20
-82.24020131235554
 30
0.0
 40
1.458034083652001
100
AcDbArc
 50
297.5481481757009
 51
62.45185182429908
  0
ARC
  5
349
102
{ACAD_REACTORS
330
390
330
391
102
}
330
71
100
AcDbEntity
  8
0
  6
Continuous
 62
     2
100
AcDbCircle
 10
34.02067104396619
 20
-79.03774201430164
 30
0.0
 40
0.5179085730134372
100
AcDbArc
 50
218.1204197971511
 51
321.8795802028571
  0
ARC
  5
34A
102
{ACAD_REACTORS
330
390
330
391
102
}
330
71
100
AcDbEntity
  8
0
  6
Continuous
 62
     2
100
AcDbCircle
 10
33.82093100762
 20
-78.88101083618122
 30
0.0
 40
0.7717997786796486
100
AcDbArc
 50
321.8795802028444
 51
38.12041979715892
  0
ARC
  5
34B
102
{ACAD_REACTORS
330
38E
330
38F
102
}
330
71
100
AcDbEntity
  8
0
  6
Continuous
 62
     2
100
AcDbCircle
 10
24.6025471205285
 20
-83.34286145887754
 30
0.0
 40
0.4242446153832873
100
AcDbArc
 50
270.0
 51
0.0
  0
ARC
  5
34C
102
{ACAD_REACTORS
330
38E
330
38F
102
}
330
71
100
AcDbEntity
  8
0
  6
Continuous
 62
     2
100
AcDbCircle
 10
24.6025471205285
 20
-77.77835068967732
 30
0.0
 40
0.4242446153838806
100
AcDbArc
 50
0.0
 51
90.0
  0
ARC
  5
34D
102
{ACAD_REACTORS
330
38E
330
38F
102
}
330
71
100
AcDbEntity
  8
0
  6
Continuous
 62
     2
100
AcDbCircle
 10
19.1292350298117
 20
-77.77835068967732
 30
0.0
 40
0.4242446153837989
100
AcDbArc
 50
90.0
 51
180.0
  0
ARC
  5
34E
102
{ACAD_REACTORS
330
38E
330
38F
102
}
330
71
100
AcDbEntity
  8
0
  6
Continuous
 62
     2
100
AcDbCircle
 10
21.19896296756781
 20
-82.73883359562723
 30
0.0
 40
0.3157169230767067
100
AcDbArc
 50
270.0
 51
0.0
  0
ARC
  5
34F
102
{ACAD_REACTORS
330
38E
330
38F
102
}
330
71
100
AcDbEntity
  8
0
  6
Continuous
 62
     2
100
AcDbCircle
 10
21.19896296756781
 20
-78.98640317197064
 30
0.0
 40
0.3157169230761218
100
AcDbArc
 50
295.1944106485403
 51
0.0
  0
ARC
  5
350
102
{ACAD_REACTORS
330
38E
330
38F
102
}
330
71
100
AcDbEntity
  8
0
  6
Continuous
 62
     2
100
AcDbCircle
 10
21.19896296756781
 20
-78.38237855291013
 30
0.0
 40
0.3157169230765895
100
AcDbArc
 50
0.0
 51
90.0
  0
ARC
  5
351
102
{ACAD_REACTORS
330
38E
330
38F
102
}
330
71
100
AcDbEntity
  8
0
  6
Continuous
 62
     2
100
AcDbCircle
 10
19.72312970655818
 20
-82.73883359562723
 30
0.0
 40
0.31571692307568
100
AcDbArc
 50
180.0
 51
270.0
  0
ARC
  5
352
102
{ACAD_REACTORS
330
394
330
395
102
}
330
71
100
AcDbEntity
  8
0
  6
Continuous
 62
     2
100
AcDbCircle
 10
27.50318081481359
 20
-78.40947171560902
 30
0.0
 40
1.055365641333708
100
AcDbArc
 50
270.0
 51
90.0
  0
ARC
  5
353
102
{ACAD_REACTORS
330
38C
330
38D
102
}
330
71
100
AcDbEntity
  8
0
  6
Continuous
 62
     2
100
AcDbCircle
 10
43.23139412650471
 20
-82.12741095032072
 30
0.0
 40
1.639695123940448
100
AcDbArc
 50
195.0618917771012
 51
275.1581447696765
  0
ARC
  5
354
102
{ACAD_REACTORS
330
38C
330
38D
102
}
330
71
100
AcDbEntity
  8
0
  6
Continuous
 62
     2
100
AcDbCircle
 10
42.94253803176889
 20
-78.92752036709913
 30
0.0
 40
4.852596863498825
100
AcDbArc
 50
275.1581447696364
 51
285.9799912583387
  0
ARC
  5
355
102
{ACAD_REACTORS
330
38C
330
38D
102
}
330
71
100
AcDbEntity
  8
0
  6
Continuous
 62
     2
100
AcDbCircle
 10
43.1004109068617
 20
-80.82973494694744
 30
0.0
 40
2.227384008972746
100
AcDbArc
 50
288.4480761181335
 51
301.9309089499397
  0
ARC
  5
356
102
{ACAD_REACTORS
330
38C
330
38D
102
}
330
71
100
AcDbEntity
  8
0
  6
Continuous
 62
     2
100
AcDbCircle
 10
43.5185786405236
 20
-82.08328072298403
 30
0.0
 40
0.9059297849852829
100
AcDbArc
 50
246.6277221118178
 51
288.4480761180817
  0
ARC
  5
357
102
{ACAD_REACTORS
330
38C
330
38D
102
}
330
71
100
AcDbEntity
  8
0
  6
Continuous
 62
     2
100
AcDbCircle
 10
43.73949586590189
 20
-82.24020131235554
 30
0.0
 40
0.9410597353348924
100
AcDbArc
 50
151.4785267423624
 51
208.5214732576695
  0
ARC
  5
358
102
{ACAD_REACTORS
330
38C
330
38D
102
}
330
71
100
AcDbEntity
  8
0
  6
Continuous
 62
     2
100
AcDbCircle
 10
43.5088086059242
 20
-82.45308486339943
 30
0.0
 40
0.9545230068260935
100
AcDbArc
 50
90.0
 51
109.337143219432
  0
ARC
  5
359
102
{ACAD_REACTORS
330
38E
330
38F
102
}
330
71
100
AcDbEntity
  8
0
  6
Continuous
 62
     2
100
AcDbCircle
 10
22.29867839308989
 20
-78.38255602955823
 30
0.0
 40
0.3157169230760711
100
AcDbArc
 50
90.18896704254658
 51
180.0
  0
ARC
  5
35A
102
{ACAD_REACTORS
330
38E
330
38F
102
}
330
71
100
AcDbEntity
  8
0
  6
Continuous
 62
     2
100
AcDbCircle
 10
21.77263569500201
 20
-80.09723291803283
 30
0.0
 40
0.911848150144459
100
AcDbArc
 50
295.3740086781764
 51
64.62599132180748
  0
ARC
  5
35B
102
{ACAD_REACTORS
330
38A
330
38B
102
}
330
71
100
AcDbEntity
  8
0
  6
Continuous
 62
     2
100
AcDbCircle
 10
26.99770942760881
 20
-80.82973494694684
 30
0.0
 40
2.227384008972736
100
AcDbArc
 50
288.4480761181327
 51
301.9309089499593
  0
ARC
  5
35C
102
{ACAD_REACTORS
330
38A
330
38B
102
}
330
71
100
AcDbEntity
  8
0
  6
Continuous
 62
     2
100
AcDbCircle
 10
27.41587716126961
 20
-82.08328072298403
 30
0.0
 40
0.9059297849849207
100
AcDbArc
 50
246.6277221118708
 51
288.448076118158
  0
ARC
  5
35D
102
{ACAD_REACTORS
330
38A
330
38B
102
}
330
71
100
AcDbEntity
  8
0
  6
Continuous
 62
     2
100
AcDbCircle
 10
27.25943712856758
 20
-82.44527274169403
 30
0.0
 40
0.5115800601947972
100
AcDbArc
 50
208.5214732576959
 51
246.6277221118278
  0
ARC
  5
35E
102
{ACAD_REACTORS
330
38A
330
38B
102
}
330
71
100
AcDbEntity
  8
0
  6
Continuous
 62
     2
100
AcDbCircle
 10
27.41587716126961
 20
-82.39712190172713
 30
0.0
 40
0.9059297849853205
100
AcDbArc
 50
71.55192388185391
 51
113.3722778881292
  0
ARC
  5
35F
102
{ACAD_REACTORS
330
38A
330
38B
102
}
330
71
100
AcDbEntity
  8
0
  6
Continuous
 62
     2
100
AcDbCircle
 10
26.83983655251589
 20
-85.55288225761143
 30
0.0
 40
4.852596863498068
100
AcDbArc
 50
74.02000874164739
 51
84.84185523037509
  0
CIRCLE
  5
360
102
{ACAD_REACTORS
330
38E
330
38F
102
}
330
71
100
AcDbEntity
  8
0
  6
Continuous
 62
     2
100
AcDbCircle
 10
21.7488206803292
 20
-80.09723291803283
 30
0.0
 40
0.470978932778511
  0
CIRCLE
  5
361
330
71
100
AcDbEntity
  8
1
  6
Continuous
 62
     2
100
AcDbCircle
 10
27.20499041442889
 20
-69.93560607427722
 30
0.0
 40
1.249999999999918
  0
CIRCLE
  5
362
330
71
100
AcDbEntity
  8
1
  6
Continuous
 62
     2
100
AcDbCircle
 10
27.20499041442889
 20
-69.93560607427722
 30
0.0
 40
2.5
  0
TEXT
  5
363
330
71
100
AcDbEntity
  8
1
 62
     7
100
AcDbText
 10
69.84188324988008
 20
-72.76060607427723
 30
0.0
 40
2.5
  1
/
 41
0.9
  7
CONVERTER_11
100
AcDbText
  0
TEXT
  5
365
330
71
100
AcDbEntity
  8
1
 62
     7
100
AcDbText
 10
71.99824774692209
 20
-72.76060607427723
 30
0.0
 40
2.5
  1
01
 41
0.81
  7
CONVERTER_12
100
AcDbText
  0
TEXT
  5
366
330
71
100
AcDbEntity
  8
1
 62
     3
100
AcDbText
 10
109.5947317729392
 20
-72.76060607427723
 30
0.0
 40
2.5
  1
16.08.2018
 41
0.81
  7
CONVERTER_12
100
AcDbText
  0
MTEXT
  5
367
330
71
100
AcDbEntity
  8
1
 62
     2
100
AcDbMText
 10
109.5947317729392
 20
-66.56060607427722
 30
0.0
 40
1.8
 41
0.0
 71
     1
 72
     1
  1
date
  7
CONVERTER_11
 73
     1
 44
1.32052821128451
  0
MTEXT
  5
368
330
71
100
AcDbEntity
  8
1
 62
     2
100
AcDbMText
 10
79.7683355278663
 20
-75.06060607427722
 30
0.0
 40
1.8
 41
0.0
 71
     1
 72
     1
  1
document-type
  7
CONVERTER_11
 73
     1
 44
1.20048019207683
  0
TEXT
  5
369
330
71
100
AcDbEntity
  8
1
 62
     3
100
AcDbText
 10
79.7683355278663
 20
-81.26060607427723
 30
0.0
 40
2.5
  1
TECDOC 2D_Productdrawing
 41
0.81
  7
CONVERTER_12
100
AcDbText
  0
MTEXT
  5
36B
330
71
100
AcDbEntity
  8
1
 62
     2
100
AcDbMText
 10
51.96833552786629
 20
-66.56060607427713
 30
0.0
 40
1.8
 41
0.0
 71
     1
 72
     1
  1
document-No. / RI
  7
CONVERTER_13
 73
     1
 44
1.32052821128451
  0
TEXT
  5
36C
330
71
100
AcDbEntity
  8
1
 62
     7
100
AcDbText
 10
51.96833552786629
 20
-72.76060607427723
 30
0.0
 40
2.5
  1
40204112
 41
0.81
  7
CONVERTER_12
100
AcDbText
  0
MTEXT
  5
36E
330
71
100
AcDbEntity
  8
1
 62
     3
100
AcDbMText
 10
139.5539359137786
 20
-72.76060607427704
 30
0.0
 40
2.5
 41
0.0
 71
     8
 72
     1
  1
2:1
  7
CONVERTER_14
 73
     1
 44
1.32052821128451
  0
MTEXT
  5
36F
330
71
100
AcDbEntity
  8
1
 62
     2
100
AcDbMText
 10
136.194731772939
 20
-66.56060607427713
 30
0.0
 40
1.8
 41
0.0
 71
     1
 72
     1
  1
scale
  7
CONVERTER_11
 73
     1
 44
1.20048019207683
  0
MTEXT
  5
370
330
71
100
AcDbEntity
  8
1
 62
     2
100
AcDbMText
 10
51.96833552786629
 20
-75.06060607427713
 30
0.0
 40
1.8
 41
0.0
 71
     1
 72
     1
  1
ident.-No.
  7
CONVERTER_11
 73
     1
 44
1.20048019207683
  0
TEXT
  5
371
330
71
100
AcDbEntity
  8
1
 62
     7
100
AcDbText
 10
52.36833552786601
 20
-81.26060607427723
 30
0.0
 40
2.5
  1
0807575
 41
0.81
  7
CONVERTER_12
100
AcDbText
  0
MTEXT
  5
372
330
71
100
AcDbEntity
  8
1
 62
     2
100
AcDbMText
 10
-19.96967919718122
 20
-78.31060607427722
 30
0.0
 40
2.0
 41
0.0
 71
     5
 72
     1
  1
General Information\P- Simplified representation\P- Document excluded from change process\P- Linear dimensions [mm]
  7
CONVERTER_11
 73
     1
 44
1.20048019207683
  0
MTEXT
  5
373
330
71
100
AcDbEntity
  8
1
 62
     7
100
AcDbMText
 10
146.5131400546153
 20
-16.06060607427523
 30
0.0
 40
3.5
 41
0.0
 71
     5
 72
     1
  1
C
  7
CONVERTER_11
 73
     1
 44
1.20048019207683
  0
MTEXT
  5
374
330
71
100
AcDbEntity
  8
1
 62
     7
100
AcDbMText
 10
146.5131400546153
 20
86.43939392572287
 30
0.0
 40
3.5
 41
0.0
 71
     5
 72
     1
  1
A
  7
CONVERTER_11
 73
     1
 44
1.20048019207683
  0
MTEXT
  5
375
330
71
100
AcDbEntity
  8
1
 62
     7
100
AcDbMText
 10
146.5131400546153
 20
33.93939392572477
 30
0.0
 40
3.5
 41
0.0
 71
     5
 72
     1
  1
B
  7
CONVERTER_11
 73
     1
 44
1.20048019207683
  0
MTEXT
  5
376
330
71
100
AcDbEntity
  8
1
 62
     7
100
AcDbMText
 10
146.5131400546153
 20
-68.56060607427713
 30
0.0
 40
3.5
 41
0.0
 71
     5
 72
     1
  1
D
  7
CONVERTER_11
 73
     1
 44
1.20048019207683
  0
MTEXT
  5
377
330
71
100
AcDbEntity
  8
1
 62
     7
100
AcDbMText
 10
-123.7368599453833
 20
-93.56060607427725
 30
0.0
 40
3.5
 41
0.0
 71
     5
 72
     1
  1
1
  7
CONVERTER_11
 73
     1
 44
1.20048019207683
  0
MTEXT
  5
378
330
71
100
AcDbEntity
  8
1
 62
     7
100
AcDbMText
 10
-74.48685994538369
 20
-93.56060607427725
 30
0.0
 40
3.5
 41
0.0
 71
     5
 72
     1
  1
2
  7
CONVERTER_11
 73
     1
 44
1.20048019207683
  0
MTEXT
  5
379
330
71
100
AcDbEntity
  8
1
 62
     7
100
AcDbMText
 10
-24.48685994538369
 20
-93.56060607427725
 30
0.0
 40
3.5
 41
0.0
 71
     5
 72
     1
  1
3
  7
CONVERTER_11
 73
     1
 44
1.20048019207683
  0
MTEXT
  5
37A
330
71
100
AcDbEntity
  8
1
 62
     7
100
AcDbMText
 10
25.5131400546162
 20
-93.56060607427725
 30
0.0
 40
3.5
 41
0.0
 71
     5
 72
     1
  1
4
  7
CONVERTER_11
 73
     1
 44
1.20048019207683
  0
MTEXT
  5
37B
330
71
100
AcDbEntity
  8
1
 62
     7
100
AcDbMText
 10
75.51314005461629
 20
-93.56060607427725
 30
0.0
 40
3.5
 41
0.0
 71
     5
 72
     1
  1
5
  7
CONVERTER_11
 73
     1
 44
1.20048019207683
  0
MTEXT
  5
37C
330
71
100
AcDbEntity
  8
1
 62
     7
100
AcDbMText
 10
124.7631400546155
 20
-93.56060607427725
 30
0.0
 40
3.5
 41
0.0
 71
     5
 72
     1
  1
6
  7
CONVERTER_11
 73
     1
 44
1.20048019207683
  0
MTEXT
  5
37D
330
71
100
AcDbEntity
  8
1
 62
     7
100
AcDbMText
 10
-145.4868599453828
 20
86.43939392572287
 30
0.0
 40
3.5
 41
0.0
 71
     5
 72
     1
  1
A
  7
CONVERTER_11
 73
     1
 44
1.20048019207683
  0
MTEXT
  5
37E
330
71
100
AcDbEntity
  8
1
 62
     7
100
AcDbMText
 10
-145.4868599453828
 20
33.93939392572287
 30
0.0
 40
3.5
 41
0.0
 71
     5
 72
     1
  1
B
  7
CONVERTER_11
 73
     1
 44
1.20048019207683
  0
MTEXT
  5
37F
330
71
100
AcDbEntity
  8
1
 62
     7
100
AcDbMText
 10
-145.4868599453828
 20
-16.06060607427713
 30
0.0
 40
3.5
 41
0.0
 71
     5
 72
     1
  1
C
  7
CONVERTER_11
 73
     1
 44
1.20048019207683
  0
MTEXT
  5
380
330
71
100
AcDbEntity
  8
1
 62
     7
100
AcDbMText
 10
-145.4868599453828
 20
-68.56060607427713
 30
0.0
 40
3.5
 41
0.0
 71
     5
 72
     1
  1
D
  7
CONVERTER_11
 73
     1
 44
1.20048019207683
  0
MTEXT
  5
381
330
71
100
AcDbEntity
  8
1
 62
     3
100
AcDbMText
 10
40.66833552786619
 20
-69.93560607427713
 30
0.0
 40
2.5
 41
0.0
 71
     5
 72
     1
  1
DIN A4
  7
CONVERTER_11
 73
     1
 44
1.20048019207683
  0
MTEXT
  5
382
330
71
100
AcDbEntity
  8
1
 62
     2
100
AcDbMText
 10
51.86833552786621
 20
-83.56060607427713
 30
0.0
 40
1.8
 41
0.0
 71
     1
 72
     1
  1
description
  7
CONVERTER_11
 73
     1
 44
1.20048019207683
  0
MTEXT
  5
383
330
71
100
AcDbEntity
  8
1
 62
     7
100
AcDbMText
 10
97.44073779124179
 20
-87.8106060742769
 30
0.0
 40
3.0
 41
0.0
 71
     5
 72
     1
  1
KLM 2
  7
CONVERTER_12
 73
     1
 44
1.20048019207683
  0
TEXT
  5
384
330
71
100
AcDbEntity
  8
1
 62
     2
100
AcDbText
 10
38.90364433767979
 20
-89.81060607427725
 30
0.0
 40
1.8
  1
1
 41
0.9
  7
CONVERTER_11
100
AcDbText
  0
TEXT
  5
385
330
71
100
AcDbEntity
  8
1
 62
     2
100
AcDbText
 10
24.11460049820829
 20
-89.85985472807914
 30
0.0
 40
1.8
  1
1
 41
0.9
  7
CONVERTER_11
100
AcDbText
  0
TEXT
  5
386
330
71
100
AcDbEntity
  8
1
 62
     2
100
AcDbText
 10
15.46833552786629
 20
-89.8196232892688
 30
0.0
 40
1.8
  1
page
 41
0.9
  7
CONVERTER_11
100
AcDbText
  0
TEXT
  5
387
330
71
100
AcDbEntity
  8
1
 62
     2
100
AcDbText
 10
33.66833552786611
 20
-89.81962328926875
 30
0.0
 40
1.8
  1
of
 41
0.9
  7
CONVERTER_11
100
AcDbText
  0
MTEXT
  5
388
330
71
100
AcDbEntity
  8
1
 62
     3
100
AcDbMText
 10
39.87131767947619
 20
95.73070208102166
 30
0.0
 40
1.8
 41
0.0
 71
     7
 72
     1
  3
Transfer or duplication of this document as well as the utilisation or\Pcommunication of its content are not permitted unless express consent\Pis granted. Violations give rise to claims for damages. All rights reserved\Pin case of patent, utility mo
  1
del or design patent registrations.
  7
CONVERTER_11
 73
     1
 44
0.99639855942377
  0
MTEXT
  5
389
330
71
100
AcDbEntity
  8
1
 62
     3
100
AcDbMText
 10
-142.9817921593119
 20
95.73070208102166
 30
0.0
 40
1.8
 41
0.0
 71
     7
 72
     1
  3
Weitergabe sowie Vervielf\U+00e4ltigung dieses Dokuments, Verwertung und \PMitteilung seines Inhalts sind verboten, soweit nicht ausdr\U+00fccklich gestattet. \PZuwiderhandlungen verpflichten zu Schadenersatz. Alle Rechte f\U+00fcr den Fall\Pder Pat
  1
ent-, Gebrauchsmuster- oder Designeintragung vorbehalten.
  7
CONVERTER_11
 73
     1
 44
0.99639855942377
  0
HATCH
  5
38A
330
71
100
AcDbEntity
  8
1
  6
Continuous
 62
     2
100
AcDbHatch
 10
0.0
 20
0.0
 30
0.0
210
0.0
220
0.0
230
1.0
  2
_USER
 70
     0
 71
     1
 91
        1
 92
        1
 93
       14
 72
     2
 10
26.70956480378899
 20
-82.24020131235554
 40
1.205656168390941
 50
164.9381082228764
 51
195.0618917770949
 73
     1
 72
     2
 10
27.1286926472518
 20
-82.12741095032072
 40
1.639695123939391
 50
195.0618917770896
 51
275.1581447696393
 73
     1
 72
     2
 10
26.83983655251589
 20
-78.92752036709913
 40
4.852596863498138
 50
275.1581447696249
 51
285.9799912583529
 73
     1
 72
     1
 10
28.17576446963369
 20
-83.59260267289994
 11
28.17576446963369
 21
-82.72008566609674
 72
     2
 10
26.99770942760881
 20
-80.82973494694684
 40
2.227384008972736
 50
58.0690910500407
 51
71.55192388186732
 73
     0
 72
     2
 10
27.41587716126961
 20
-82.08328072298403
 40
0.9059297849849207
 50
71.55192388184199
 51
113.3722778881292
 73
     0
 72
     2
 10
27.25943712856758
 20
-82.44527274169403
 40
0.5115800601947972
 50
113.3722778881722
 51
151.4785267423041
 73
     0
 72
     2
 10
27.63679438664789
 20
-82.24020131235554
 40
0.9410597353332483
 50
151.4785267422941
 51
208.5214732577333
 73
     0
 72
     2
 10
27.25943712856758
 20
-82.03512988301654
 40
0.5115800601948765
 50
208.5214732576959
 51
246.6277221118012
 73
     0
 72
     2
 10
27.41587716126961
 20
-82.39712190172713
 40
0.9059297849853205
 50
246.6277221118708
 51
288.4480761181461
 73
     0
 72
     2
 10
26.99770942760881
 20
-83.65066767776372
 40
2.227384008973478
 50
288.4480761181327
 51
301.9309089499592
 73
     0
 72
     1
 10
28.17576446963369
 20
-81.76031695861383
 11
28.17576446963369
 21
-80.88779995181054
 72
     2
 10
26.83983655251589
 20
-85.55288225761143
 40
4.852596863498068
 50
74.02000874164739
 51
84.84185523037509
 73
     1
 72
     2
 10
27.1286926472518
 20
-82.35299167439044
 40
1.639695123940506
 50
84.84185523036261
 51
164.9381082228865
 73
     1
 97
       14
330
35F
330
278
330
32E
330
35E
330
32F
330
330
330
35D
330
35C
330
35B
330
279
330
331
330
332
330
333
330
334
 75
     1
 76
     0
 52
45.0
 41
0.1
 77
     0
 78
     1
 53
45.0
 43
0.0
 44
0.0
 45
-0.0707106781186548
 46
0.0707106781186548
 79
     0
 98
        1
 10
0.0
 20
0.0
  0
HATCH
  5
38B
330
71
100
AcDbEntity
  8
1
  6
Continuous
 62
     2
100
AcDbHatch
 10
0.0
 20
0.0
 30
0.0
210
0.0
220
0.0
230
1.0
  2
_USER
 70
     0
 71
     1
 91
        1
 92
        1
 93
       14
 72
     2
 10
26.70956480378899
 20
-82.24020131235554
 40
1.205656168390941
 50
164.9381082228764
 51
195.0618917770949
 73
     1
 72
     2
 10
27.1286926472518
 20
-82.12741095032072
 40
1.639695123939391
 50
195.0618917770896
 51
275.1581447696393
 73
     1
 72
     2
 10
26.83983655251589
 20
-78.92752036709913
 40
4.852596863498138
 50
275.1581447696249
 51
285.9799912583529
 73
     1
 72
     1
 10
28.17576446963369
 20
-83.59260267289994
 11
28.17576446963369
 21
-82.72008566609674
 72
     2
 10
26.99770942760881
 20
-80.82973494694684
 40
2.227384008972736
 50
58.0690910500407
 51
71.55192388186732
 73
     0
 72
     2
 10
27.41587716126961
 20
-82.08328072298403
 40
0.9059297849849207
 50
71.55192388184199
 51
113.3722778881292
 73
     0
 72
     2
 10
27.25943712856758
 20
-82.44527274169403
 40
0.5115800601947972
 50
113.3722778881722
 51
151.4785267423041
 73
     0
 72
     2
 10
27.63679438664789
 20
-82.24020131235554
 40
0.9410597353332483
 50
151.4785267422941
 51
208.5214732577333
 73
     0
 72
     2
 10
27.25943712856758
 20
-82.03512988301654
 40
0.5115800601948765
 50
208.5214732576959
 51
246.6277221118012
 73
     0
 72
     2
 10
27.41587716126961
 20
-82.39712190172713
 40
0.9059297849853205
 50
246.6277221118708
 51
288.4480761181461
 73
     0
 72
     2
 10
26.99770942760881
 20
-83.65066767776372
 40
2.227384008973478
 50
288.4480761181327
 51
301.9309089499592
 73
     0
 72
     1
 10
28.17576446963369
 20
-81.76031695861383
 11
28.17576446963369
 21
-80.88779995181054
 72
     2
 10
26.83983655251589
 20
-85.55288225761143
 40
4.852596863498068
 50
74.02000874164739
 51
84.84185523037509
 73
     1
 72
     2
 10
27.1286926472518
 20
-82.35299167439044
 40
1.639695123940506
 50
84.84185523036261
 51
164.9381082228865
 73
     1
 97
       14
330
35F
330
278
330
32E
330
35E
330
32F
330
330
330
35D
330
35C
330
35B
330
279
330
331
330
332
330
333
330
334
 75
     1
 76
     0
 52
45.0
 41
0.1
 77
     0
 78
     1
 53
45.0
 43
0.0
 44
0.0
 45
-0.0707106781186548
 46
0.0707106781186548
 79
     0
 98
        1
 10
0.0
 20
0.0
  0
HATCH
  5
38C
330
71
100
AcDbEntity
  8
1
  6
Continuous
 62
     2
100
AcDbHatch
 10
0.0
 20
0.0
 30
0.0
210
0.0
220
0.0
230
1.0
  2
_USER
 70
     0
 71
     1
 91
        1
 92
        1
 93
       18
 72
     2
 10
43.23139412650471
 20
-82.35299167439044
 40
1.639695123940214
 50
90.0
 51
164.938108222895
 73
     1
 72
     2
 10
42.8122662830431
 20
-82.24020131235554
 40
1.205656168393002
 50
164.9381082229028
 51
195.0618917770959
 73
     1
 72
     2
 10
43.23139412650471
 20
-82.12741095032072
 40
1.639695123940448
 50
195.0618917771012
 51
275.1581447696765
 73
     1
 72
     2
 10
42.94253803176889
 20
-78.92752036709913
 40
4.852596863498825
 50
275.1581447696364
 51
285.9799912583387
 73
     1
 72
     1
 10
44.27846594888561
 20
-83.59260267290054
 11
44.27846594888561
 21
-82.72008566609722
 72
     2
 10
43.1004109068617
 20
-80.82973494694744
 40
2.227384008972746
 50
58.06909105006029
 51
71.55192388186651
 73
     0
 72
     2
 10
43.5185786405236
 20
-82.08328072298403
 40
0.9059297849852829
 50
71.55192388191827
 51
113.3722778881822
 73
     0
 72
     2
 10
43.3621386078205
 20
-82.44527274169403
 40
0.5115800601960215
 50
113.3722778881558
 51
151.4785267423134
 73
     0
 72
     2
 10
43.73949586590189
 20
-82.24020131235554
 40
0.9410597353348924
 50
151.4785267423305
 51
208.5214732576376
 73
     0
 72
     2
 10
43.3621386078205
 20
-82.03512988301654
 40
0.5115800601944143
 50
208.5214732575775
 51
250.6628567805147
 73
     0
 72
     2
 10
43.5088086059242
 20
-82.45308486339943
 40
0.9545230068260935
 50
250.662856780568
 51
270.0
 73
     0
 72
     1
 10
43.5088086059242
 20
-81.49856185657333
 11
44.6124479054923
 21
-81.49856185657333
 72
     1
 10
44.6124479054923
 20
-81.49856185657333
 11
44.6124479054923
 21
-83.76710607426082
 72
     1
 10
44.6124479054923
 20
-83.76710607426082
 11
45.80524060766001
 21
-83.76710607426082
 72
     1
 10
45.80524060766001
 20
-83.76710607426082
 11
45.80524060766001
 21
-81.49856185657333
 72
     1
 10
45.80524060766001
 20
-81.49856185657333
 11
46.61633964513339
 21
-81.49856185657333
 72
     1
 10
46.61633964513339
 20
-81.49856185657333
 11
46.61633964513339
 21
-80.71329655044974
 72
     1
 10
46.61633964513339
 20
-80.71329655044974
 11
43.23139412650471
 21
-80.71329655045022
 97
       18
330
2DE
330
2DD
330
2DC
330
2DB
330
2E0
330
27A
330
358
330
339
330
357
330
33A
330
356
330
355
330
27B
330
354
330
353
330
33B
330
33C
330
2DF
 75
     1
 76
     0
 52
45.0
 41
0.1
 77
     0
 78
     1
 53
45.0
 43
0.0
 44
0.0
 45
-0.0707106781186548
 46
0.0707106781186548
 79
     0
 98
        1
 10
0.0
 20
0.0
  0
HATCH
  5
38D
330
71
100
AcDbEntity
  8
1
  6
Continuous
 62
     2
100
AcDbHatch
 10
0.0
 20
0.0
 30
0.0
210
0.0
220
0.0
230
1.0
  2
_USER
 70
     0
 71
     1
 91
        1
 92
        1
 93
       18
 72
     2
 10
43.23139412650471
 20
-82.35299167439044
 40
1.639695123940214
 50
90.0
 51
164.938108222895
 73
     1
 72
     2
 10
42.8122662830431
 20
-82.24020131235554
 40
1.205656168393002
 50
164.9381082229028
 51
195.0618917770959
 73
     1
 72
     2
 10
43.23139412650471
 20
-82.12741095032072
 40
1.639695123940448
 50
195.0618917771012
 51
275.1581447696765
 73
     1
 72
     2
 10
42.94253803176889
 20
-78.92752036709913
 40
4.852596863498825
 50
275.1581447696364
 51
285.9799912583387
 73
     1
 72
     1
 10
44.27846594888561
 20
-83.59260267290054
 11
44.27846594888561
 21
-82.72008566609722
 72
     2
 10
43.1004109068617
 20
-80.82973494694744
 40
2.227384008972746
 50
58.06909105006029
 51
71.55192388186651
 73
     0
 72
     2
 10
43.5185786405236
 20
-82.08328072298403
 40
0.9059297849852829
 50
71.55192388191827
 51
113.3722778881822
 73
     0
 72
     2
 10
43.3621386078205
 20
-82.44527274169403
 40
0.5115800601960215
 50
113.3722778881558
 51
151.4785267423134
 73
     0
 72
     2
 10
43.73949586590189
 20
-82.24020131235554
 40
0.9410597353348924
 50
151.4785267423305
 51
208.5214732576376
 73
     0
 72
     2
 10
43.3621386078205
 20
-82.03512988301654
 40
0.5115800601944143
 50
208.5214732575775
 51
250.6628567805147
 73
     0
 72
     2
 10
43.5088086059242
 20
-82.45308486339943
 40
0.9545230068260935
 50
250.662856780568
 51
270.0
 73
     0
 72
     1
 10
43.5088086059242
 20
-81.49856185657333
 11
44.6124479054923
 21
-81.49856185657333
 72
     1
 10
44.6124479054923
 20
-81.49856185657333
 11
44.6124479054923
 21
-83.76710607426082
 72
     1
 10
44.6124479054923
 20
-83.76710607426082
 11
45.80524060766001
 21
-83.76710607426082
 72
     1
 10
45.80524060766001
 20
-83.76710607426082
 11
45.80524060766001
 21
-81.49856185657333
 72
     1
 10
45.80524060766001
 20
-81.49856185657333
 11
46.61633964513339
 21
-81.49856185657333
 72
     1
 10
46.61633964513339
 20
-81.49856185657333
 11
46.61633964513339
 21
-80.71329655044974
 72
     1
 10
46.61633964513339
 20
-80.71329655044974
 11
43.23139412650471
 21
-80.71329655045022
 97
       18
330
2DE
330
2DD
330
2DC
330
2DB
330
2E0
330
27A
330
358
330
339
330
357
330
33A
330
356
330
355
330
27B
330
354
330
353
330
33B
330
33C
330
2DF
 75
     1
 76
     0
 52
45.0
 41
0.1
 77
     0
 78
     1
 53
45.0
 43
0.0
 44
0.0
 45
-0.0707106781186548
 46
0.0707106781186548
 79
     0
 98
        1
 10
0.0
 20
0.0
  0
HATCH
  5
38E
330
71
100
AcDbEntity
  8
1
  6
Continuous
 62
     2
100
AcDbHatch
 10
0.0
 20
0.0
 30
0.0
210
0.0
220
0.0
230
1.0
  2
_USER
 70
     0
 71
     1
 91
        4
 92
        1
 93
        8
 72
     2
 10
19.1292350298117
 20
-77.77835068967732
 40
0.4242446153837989
 50
90.0
 51
180.0
 73
     1
 72
     1
 10
18.70499041442889
 20
-77.77835068967732
 11
18.70499041442889
 21
-83.34286145887754
 72
     2
 10
19.1292350298117
 20
-83.34286145887754
 40
0.4242446153828077
 50
180.0
 51
270.0
 73
     1
 72
     1
 10
19.1292350298117
 20
-83.76710607426082
 11
24.6025471205285
 21
-83.76710607426082
 72
     2
 10
24.6025471205285
 20
-83.34286145887754
 40
0.4242446153832873
 50
270.0
 51
360.0
 73
     1
 72
     1
 10
25.02679173591238
 20
-83.34286145887754
 11
25.02679173591238
 21
-77.77835068967732
 72
     2
 10
24.6025471205285
 20
-77.77835068967732
 40
0.4242446153838806
 50
0.0
 51
90.0
 73
     1
 72
     1
 10
24.6025471205285
 20
-77.35410607429353
 11
19.1292350298117
 21
-77.35410607429353
 97
        8
330
34C
330
2A9
330
34B
330
2AA
330
342
330
2A7
330
34D
330
2A8
 92
       16
 93
        1
 72
     2
 10
21.7488206803292
 20
-80.09723291803283
 40
0.470978932778511
 50
0.0
 51
360.0
 73
     1
 97
        1
330
360
 92
       16
 93
        8
 72
     2
 10
21.77263569500201
 20
-80.09723291803283
 40
0.911848150144459
 50
295.3740086781764
 51
424.6259913218075
 73
     1
 72
     2
 10
22.29867839308989
 20
-78.98809131806502
 40
0.3157169230767884
 50
115.3740086783524
 51
180.0
 73
     0
 72
     1
 10
21.9829614700131
 20
-78.98809131806502
 11
21.9829614700131
 21
-78.38255602955823
 72
     2
 10
22.29867839308989
 20
-78.38255602955823
 40
0.3157169230760711
 50
180.0
 51
269.8110329574534
 73
     0
 72
     2
 10
22.30429452839991
 20
-80.08539097712733
 40
2.018561131933266
 50
269.8110329575857
 51
450.1889670424143
 73
     0
 72
     2
 10
22.29867839308989
 20
-81.78822592469632
 40
0.3157169230767884
 50
90.18896704254651
 51
180.0
 73
     0
 72
     1
 10
21.9829614700131
 20
-81.78822592469632
 11
21.9829614700131
 21
-81.20637451800124
 72
     2
 10
22.29867839308989
 20
-81.20637451800124
 40
0.3157169230765343
 50
180.0
 51
244.6259913216475
 73
     0
 97
        8
330
35A
330
336
330
2E2
330
359
330
337
330
338
330
2E1
330
335
 92
       16
 93
       12
 72
     1
 10
19.72312970655818
 20
-83.05455051870393
 11
21.19896296756781
 21
-83.05455051870393
 72
     2
 10
21.19896296756781
 20
-82.73883359562723
 40
0.3157169230767067
 50
270.0
 51
360.0
 73
     1
 72
     1
 10
21.5146798906444
 20
-82.73883359562723
 11
21.5146798906444
 21
-81.20806266409562
 72
     2
 10
21.19896296756781
 20
-81.20806266409562
 40
0.3157169230765895
 50
0.0
 51
64.8055893514597
 73
     1
 72
     2
 10
21.72154741514279
 20
-80.09723291803283
 40
0.9118975235576116
 50
115.1944106485118
 51
244.8055893514722
 73
     0
 72
     2
 10
21.19896296756781
 20
-78.98640317197064
 40
0.3157169230761218
 50
295.1944106485403
 51
360.0
 73
     1
 72
     1
 10
21.5146798906444
 20
-78.98640317197064
 11
21.5146798906444
 21
-78.38237855291013
 72
     2
 10
21.19896296756781
 20
-78.38237855291013
 40
0.3157169230765895
 50
0.0
 51
90.0
 73
     1
 72
     1
 10
21.19896296756781
 20
-78.06666162983393
 11
19.72312970655818
 21
-78.06666162983393
 72
     2
 10
19.72312970655818
 20
-78.38237855291013
 40
0.3157169230761951
 50
90.0
 51
180.0
 73
     1
 72
     1
 10
19.4074127834825
 20
-78.38237855291013
 11
19.4074127834825
 21
-82.73883359562723
 72
     2
 10
19.72312970655818
 20
-82.73883359562723
 40
0.31571692307568
 50
180.0
 51
270.0
 73
     1
 97
       12
330
2AE
330
33F
330
2AD
330
350
330
2AC
330
34F
330
340
330
341
330
2AB
330
34E
330
2A6
330
351
 75
     1
 76
     0
 52
45.0
 41
0.1
 77
     0
 78
     1
 53
45.0
 43
0.0
 44
0.0
 45
-0.0707106781186548
 46
0.0707106781186548
 79
     0
 98
        1
 10
0.0
 20
0.0
  0
HATCH
  5
38F
330
71
100
AcDbEntity
  8
1
  6
Continuous
 62
     2
100
AcDbHatch
 10
0.0
 20
0.0
 30
0.0
210
0.0
220
0.0
230
1.0
  2
_USER
 70
     0
 71
     1
 91
        4
 92
        1
 93
        8
 72
     2
 10
19.1292350298117
 20
-77.77835068967732
 40
0.4242446153837989
 50
90.0
 51
180.0
 73
     1
 72
     1
 10
18.70499041442889
 20
-77.77835068967732
 11
18.70499041442889
 21
-83.34286145887754
 72
     2
 10
19.1292350298117
 20
-83.34286145887754
 40
0.4242446153828077
 50
180.0
 51
270.0
 73
     1
 72
     1
 10
19.1292350298117
 20
-83.76710607426082
 11
24.6025471205285
 21
-83.76710607426082
 72
     2
 10
24.6025471205285
 20
-83.34286145887754
 40
0.4242446153832873
 50
270.0
 51
360.0
 73
     1
 72
     1
 10
25.02679173591238
 20
-83.34286145887754
 11
25.02679173591238
 21
-77.77835068967732
 72
     2
 10
24.6025471205285
 20
-77.77835068967732
 40
0.4242446153838806
 50
0.0
 51
90.0
 73
     1
 72
     1
 10
24.6025471205285
 20
-77.35410607429353
 11
19.1292350298117
 21
-77.35410607429353
 97
        8
330
34C
330
2A9
330
34B
330
2AA
330
342
330
2A7
330
34D
330
2A8
 92
       16
 93
        1
 72
     2
 10
21.7488206803292
 20
-80.09723291803283
 40
0.470978932778511
 50
0.0
 51
360.0
 73
     1
 97
        1
330
360
 92
       16
 93
        8
 72
     2
 10
21.77263569500201
 20
-80.09723291803283
 40
0.911848150144459
 50
295.3740086781764
 51
424.6259913218075
 73
     1
 72
     2
 10
22.29867839308989
 20
-78.98809131806502
 40
0.3157169230767884
 50
115.3740086783524
 51
180.0
 73
     0
 72
     1
 10
21.9829614700131
 20
-78.98809131806502
 11
21.9829614700131
 21
-78.38255602955823
 72
     2
 10
22.29867839308989
 20
-78.38255602955823
 40
0.3157169230760711
 50
180.0
 51
269.8110329574534
 73
     0
 72
     2
 10
22.30429452839991
 20
-80.08539097712733
 40
2.018561131933266
 50
269.8110329575857
 51
450.1889670424143
 73
     0
 72
     2
 10
22.29867839308989
 20
-81.78822592469632
 40
0.3157169230767884
 50
90.18896704254651
 51
180.0
 73
     0
 72
     1
 10
21.9829614700131
 20
-81.78822592469632
 11
21.9829614700131
 21
-81.20637451800124
 72
     2
 10
22.29867839308989
 20
-81.20637451800124
 40
0.3157169230765343
 50
180.0
 51
244.6259913216475
 73
     0
 97
        8
330
35A
330
336
330
2E2
330
359
330
337
330
338
330
2E1
330
335
 92
       16
 93
       12
 72
     1
 10
19.72312970655818
 20
-83.05455051870393
 11
21.19896296756781
 21
-83.05455051870393
 72
     2
 10
21.19896296756781
 20
-82.73883359562723
 40
0.3157169230767067
 50
270.0
 51
360.0
 73
     1
 72
     1
 10
21.5146798906444
 20
-82.73883359562723
 11
21.5146798906444
 21
-81.20806266409562
 72
     2
 10
21.19896296756781
 20
-81.20806266409562
 40
0.3157169230765895
 50
0.0
 51
64.8055893514597
 73
     1
 72
     2
 10
21.72154741514279
 20
-80.09723291803283
 40
0.9118975235576116
 50
115.1944106485118
 51
244.8055893514722
 73
     0
 72
     2
 10
21.19896296756781
 20
-78.98640317197064
 40
0.3157169230761218
 50
295.1944106485403
 51
360.0
 73
     1
 72
     1
 10
21.5146798906444
 20
-78.98640317197064
 11
21.5146798906444
 21
-78.38237855291013
 72
     2
 10
21.19896296756781
 20
-78.38237855291013
 40
0.3157169230765895
 50
0.0
 51
90.0
 73
     1
 72
     1
 10
21.19896296756781
 20
-78.06666162983393
 11
19.72312970655818
 21
-78.06666162983393
 72
     2
 10
19.72312970655818
 20
-78.38237855291013
 40
0.3157169230761951
 50
90.0
 51
180.0
 73
     1
 72
     1
 10
19.4074127834825
 20
-78.38237855291013
 11
19.4074127834825
 21
-82.73883359562723
 72
     2
 10
19.72312970655818
 20
-82.73883359562723
 40
0.31571692307568
 50
180.0
 51
270.0
 73
     1
 97
       12
330
2AE
330
33F
330
2AD
330
350
330
2AC
330
34F
330
340
330
341
330
2AB
330
34E
330
2A6
330
351
 75
     1
 76
     0
 52
45.0
 41
0.1
 77
     0
 78
     1
 53
45.0
 43
0.0
 44
0.0
 45
-0.0707106781186548
 46
0.0707106781186548
 79
     0
 98
        1
 10
0.0
 20
0.0
  0
HATCH
  5
390
330
71
100
AcDbEntity
  8
1
  6
Continuous
 62
     2
100
AcDbHatch
 10
0.0
 20
0.0
 30
0.0
210
0.0
220
0.0
230
1.0
  2
_USER
 70
     0
 71
     1
 91
        2
 92
        1
 93
       12
 72
     2
 10
33.80439903380099
 20
-78.88101083618122
 40
1.526904761905882
 50
90.0
 51
270.0
 73
     1
 72
     1
 10
33.80439903380099
 20
-80.40791559808653
 11
36.95471875758199
 21
-80.40791559808653
 72
     1
 10
36.95471875758199
 20
-80.40791559808653
 11
36.95471875758199
 21
-79.70990199264403
 72
     1
 10
36.95471875758199
 20
-79.70990199264403
 11
35.61879093115431
 21
-79.70990199264403
 72
     1
 10
35.61879093115431
 20
-79.70990199264403
 11
35.61879093115431
 21
-79.23001763890232
 72
     1
 10
35.61879093115431
 20
-79.23001763890232
 11
36.95471875758199
 21
-79.23001763890232
 72
     1
 10
36.95471875758199
 20
-79.23001763890232
 11
36.95471875758199
 21
-78.53200403346003
 72
     1
 10
36.95471875758199
 20
-78.53200403346003
 11
35.61879093115431
 21
-78.53200403346003
 72
     1
 10
35.61879093115431
 20
-78.53200403346003
 11
35.61879093115431
 21
-78.05211967971832
 72
     1
 10
35.61879093115431
 20
-78.05211967971832
 11
36.95471875758199
 21
-78.05211967971832
 72
     1
 10
36.95471875758199
 20
-78.05211967971832
 11
36.95471875758199
 21
-77.35410607427534
 72
     1
 10
36.95471875758199
 20
-77.35410607427534
 11
33.80439903380099
 21
-77.35410607427534
 97
       12
330
29D
330
297
330
2BE
330
2BD
330
2BC
330
2BB
330
298
330
299
330
29A
330
29B
330
33D
330
29C
 92
       16
 93
        4
 72
     2
 10
34.22041108031249
 20
-78.88101083618122
 40
0.7717997786796724
 50
141.8795802028404
 51
218.1204197971562
 73
     1
 72
     2
 10
34.02067104396619
 20
-79.03774201430164
 40
0.5179085730134372
 50
218.1204197971511
 51
321.8795802028571
 73
     1
 72
     2
 10
33.82093100762
 20
-78.88101083618122
 40
0.7717997786796486
 50
321.8795802028444
 51
398.1204197971589
 73
     1
 72
     2
 10
34.02067104396619
 20
-78.72427965806074
 40
0.5179085730135321
 50
38.12041979714286
 51
141.8795802028489
 73
     1
 97
        4
330
34A
330
349
330
344
330
343
 75
     1
 76
     0
 52
45.0
 41
0.1
 77
     0
 78
     1
 53
45.0
 43
0.0
 44
0.0
 45
-0.0707106781186548
 46
0.0707106781186548
 79
     0
 98
        1
 10
0.0
 20
0.0
  0
HATCH
  5
391
330
71
100
AcDbEntity
  8
1
  6
Continuous
 62
     2
100
AcDbHatch
 10
0.0
 20
0.0
 30
0.0
210
0.0
220
0.0
230
1.0
  2
_USER
 70
     0
 71
     1
 91
        2
 92
        1
 93
       12
 72
     2
 10
33.80439903380099
 20
-78.88101083618122
 40
1.526904761905882
 50
90.0
 51
270.0
 73
     1
 72
     1
 10
33.80439903380099
 20
-80.40791559808653
 11
36.95471875758199
 21
-80.40791559808653
 72
     1
 10
36.95471875758199
 20
-80.40791559808653
 11
36.95471875758199
 21
-79.70990199264403
 72
     1
 10
36.95471875758199
 20
-79.70990199264403
 11
35.61879093115431
 21
-79.70990199264403
 72
     1
 10
35.61879093115431
 20
-79.70990199264403
 11
35.61879093115431
 21
-79.23001763890232
 72
     1
 10
35.61879093115431
 20
-79.23001763890232
 11
36.95471875758199
 21
-79.23001763890232
 72
     1
 10
36.95471875758199
 20
-79.23001763890232
 11
36.95471875758199
 21
-78.53200403346003
 72
     1
 10
36.95471875758199
 20
-78.53200403346003
 11
35.61879093115431
 21
-78.53200403346003
 72
     1
 10
35.61879093115431
 20
-78.53200403346003
 11
35.61879093115431
 21
-78.05211967971832
 72
     1
 10
35.61879093115431
 20
-78.05211967971832
 11
36.95471875758199
 21
-78.05211967971832
 72
     1
 10
36.95471875758199
 20
-78.05211967971832
 11
36.95471875758199
 21
-77.35410607427534
 72
     1
 10
36.95471875758199
 20
-77.35410607427534
 11
33.80439903380099
 21
-77.35410607427534
 97
       12
330
29D
330
297
330
2BE
330
2BD
330
2BC
330
2BB
330
298
330
299
330
29A
330
29B
330
33D
330
29C
 92
       16
 93
        4
 72
     2
 10
34.22041108031249
 20
-78.88101083618122
 40
0.7717997786796724
 50
141.8795802028404
 51
218.1204197971562
 73
     1
 72
     2
 10
34.02067104396619
 20
-79.03774201430164
 40
0.5179085730134372
 50
218.1204197971511
 51
321.8795802028571
 73
     1
 72
     2
 10
33.82093100762
 20
-78.88101083618122
 40
0.7717997786796486
 50
321.8795802028444
 51
398.1204197971589
 73
     1
 72
     2
 10
34.02067104396619
 20
-78.72427965806074
 40
0.5179085730135321
 50
38.12041979714286
 51
141.8795802028489
 73
     1
 97
        4
330
34A
330
349
330
344
330
343
 75
     1
 76
     0
 52
45.0
 41
0.1
 77
     0
 78
     1
 53
45.0
 43
0.0
 44
0.0
 45
-0.0707106781186548
 46
0.0707106781186548
 79
     0
 98
        1
 10
0.0
 20
0.0
  0
HATCH
  5
392
330
71
100
AcDbEntity
  8
1
  6
Continuous
 62
     2
100
AcDbHatch
 10
0.0
 20
0.0
 30
0.0
210
0.0
220
0.0
230
1.0
  2
_USER
 70
     0
 71
     1
 91
        2
 92
        1
 93
        4
 72
     2
 10
29.7787836713394
 20
-82.24020131235554
 40
1.458034083651492
 50
117.5481481756626
 51
242.4518518243374
 73
     1
 72
     2
 10
30.0597235631727
 20
-81.70162630205223
 40
2.06547977220851
 50
242.4518518243401
 51
297.548148175687
 73
     1
 72
     2
 10
30.340663455006
 20
-82.24020131235554
 40
1.458034083652001
 50
297.5481481757009
 51
422.451851824299
 73
     1
 72
     2
 10
30.0597235631727
 20
-82.77877632265833
 40
2.065479772208566
 50
62.45185182430646
 51
117.5481481756665
 73
     1
 97
        4
330
348
330
345
330
347
330
346
 92
       16
 93
        4
 72
     2
 10
30.0597235631727
 20
-82.08347013423503
 40
0.5179085730132943
 50
38.12041979714752
 51
141.8795802028593
 73
     1
 72
     2
 10
30.2594635995188
 20
-82.24020131235554
 40
0.7717997786794689
 50
141.8795802028366
 51
218.1204197971684
 73
     1
 72
     2
 10
30.0597235631727
 20
-82.39693249047554
 40
0.5179085730137409
 50
218.1204197971927
 51
321.8795802028005
 73
     1
 72
     2
 10
29.85998352682628
 20
-82.24020131235554
 40
0.7717997786796947
 50
321.8795802028417
 51
398.1204197971533
 73
     1
 97
        4
330
32B
330
32C
330
32D
330
32A
 75
     1
 76
     0
 52
45.0
 41
0.1
 77
     0
 78
     1
 53
45.0
 43
0.0
 44
0.0
 45
-0.0707106781186548
 46
0.0707106781186548
 79
     0
 98
        1
 10
0.0
 20
0.0
  0
HATCH
  5
393
330
71
100
AcDbEntity
  8
1
  6
Continuous
 62
     2
100
AcDbHatch
 10
0.0
 20
0.0
 30
0.0
210
0.0
220
0.0
230
1.0
  2
_USER
 70
     0
 71
     1
 91
        2
 92
        1
 93
        4
 72
     2
 10
29.7787836713394
 20
-82.24020131235554
 40
1.458034083651492
 50
117.5481481756626
 51
242.4518518243374
 73
     1
 72
     2
 10
30.0597235631727
 20
-81.70162630205223
 40
2.06547977220851
 50
242.4518518243401
 51
297.548148175687
 73
     1
 72
     2
 10
30.340663455006
 20
-82.24020131235554
 40
1.458034083652001
 50
297.5481481757009
 51
422.451851824299
 73
     1
 72
     2
 10
30.0597235631727
 20
-82.77877632265833
 40
2.065479772208566
 50
62.45185182430646
 51
117.5481481756665
 73
     1
 97
        4
330
348
330
345
330
347
330
346
 92
       16
 93
        4
 72
     2
 10
30.0597235631727
 20
-82.08347013423503
 40
0.5179085730132943
 50
38.12041979714752
 51
141.8795802028593
 73
     1
 72
     2
 10
30.2594635995188
 20
-82.24020131235554
 40
0.7717997786794689
 50
141.8795802028366
 51
218.1204197971684
 73
     1
 72
     2
 10
30.0597235631727
 20
-82.39693249047554
 40
0.5179085730137409
 50
218.1204197971927
 51
321.8795802028005
 73
     1
 72
     2
 10
29.85998352682628
 20
-82.24020131235554
 40
0.7717997786796947
 50
321.8795802028417
 51
398.1204197971533
 73
     1
 97
        4
330
32B
330
32C
330
32D
330
32A
 75
     1
 76
     0
 52
45.0
 41
0.1
 77
     0
 78
     1
 53
45.0
 43
0.0
 44
0.0
 45
-0.0707106781186548
 46
0.0707106781186548
 79
     0
 98
        1
 10
0.0
 20
0.0
  0
HATCH
  5
394
330
71
100
AcDbEntity
  8
1
  6
Continuous
 62
     2
100
AcDbHatch
 10
0.0
 20
0.0
 30
0.0
210
0.0
220
0.0
230
1.0
  2
_USER
 70
     0
 71
     1
 91
        2
 92
        1
 93
        6
 72
     1
 10
25.50390881677919
 20
-77.35410607427534
 11
25.50390881677919
 21
-80.40791559808653
 72
     1
 10
25.50390881677919
 20
-80.40791559808653
 11
26.74441322703331
 21
-80.40791559808653
 72
     1
 10
26.74441322703331
 20
-80.40791559808653
 11
26.74441322703331
 21
-79.46483735694272
 72
     1
 10
26.74441322703331
 20
-79.46483735694272
 11
27.50318081481359
 21
-79.46483735694272
 72
     2
 10
27.50318081481359
 20
-78.40947171560902
 40
1.055365641333708
 50
270.0
 51
450.0
 73
     1
 72
     1
 10
27.50318081481359
 20
-77.35410607427534
 11
25.50390881677919
 21
-77.35410607427534
 97
        6
330
352
330
2AF
330
2A5
330
2A4
330
2B1
330
2B0
 92
       16
 93
        4
 72
     1
 10
27.0617082885752
 20
-78.01721191971544
 11
26.74441322703331
 21
-78.01721191971544
 72
     1
 10
26.74441322703331
 20
-78.01721191971544
 11
26.74441322703331
 21
-78.72293956905764
 72
     1
 10
26.74441322703331
 20
-78.72293956905764
 11
27.0617082885752
 21
-78.72293956905764
 72
     2
 10
27.0617082885752
 20
-78.37007574438653
 40
0.3528638246711182
 50
270.0
 51
450.0
 73
     1
 97
        4
330
2B2
330
2A3
330
2B3
330
33E
 75
     1
 76
     0
 52
45.0
 41
0.1
 77
     0
 78
     1
 53
45.0
 43
0.0
 44
0.0
 45
-0.0707106781186548
 46
0.0707106781186548
 79
     0
 98
        1
 10
0.0
 20
0.0
  0
HATCH
  5
395
330
71
100
AcDbEntity
  8
1
  6
Continuous
 62
     2
100
AcDbHatch
 10
0.0
 20
0.0
 30
0.0
210
0.0
220
0.0
230
1.0
  2
_USER
 70
     0
 71
     1
 91
        2
 92
        1
 93
        6
 72
     1
 10
25.50390881677919
 20
-77.35410607427534
 11
25.50390881677919
 21
-80.40791559808653
 72
     1
 10
25.50390881677919
 20
-80.40791559808653
 11
26.74441322703331
 21
-80.40791559808653
 72
     1
 10
26.74441322703331
 20
-80.40791559808653
 11
26.74441322703331
 21
-79.46483735694272
 72
     1
 10
26.74441322703331
 20
-79.46483735694272
 11
27.50318081481359
 21
-79.46483735694272
 72
     2
 10
27.50318081481359
 20
-78.40947171560902
 40
1.055365641333708
 50
270.0
 51
450.0
 73
     1
 72
     1
 10
27.50318081481359
 20
-77.35410607427534
 11
25.50390881677919
 21
-77.35410607427534
 97
        6
330
352
330
2AF
330
2A5
330
2A4
330
2B1
330
2B0
 92
       16
 93
        4
 72
     1
 10
27.0617082885752
 20
-78.01721191971544
 11
26.74441322703331
 21
-78.01721191971544
 72
     1
 10
26.74441322703331
 20
-78.01721191971544
 11
26.74441322703331
 21
-78.72293956905764
 72
     1
 10
26.74441322703331
 20
-78.72293956905764
 11
27.0617082885752
 21
-78.72293956905764
 72
     2
 10
27.0617082885752
 20
-78.37007574438653
 40
0.3528638246711182
 50
270.0
 51
450.0
 73
     1
 97
        4
330
2B2
330
2A3
330
2B3
330
33E
 75
     1
 76
     0
 52
45.0
 41
0.1
 77
     0
 78
     1
 53
45.0
 43
0.0
 44
0.0
 45
-0.0707106781186548
 46
0.0707106781186548
 79
     0
 98
        1
 10
0.0
 20
0.0
  0
HATCH
  5
396
330
71
100
AcDbEntity
  8
1
  6
Continuous
 62
     2
100
AcDbHatch
 10
0.0
 20
0.0
 30
0.0
210
0.0
220
0.0
230
1.0
  2
_USER
 70
     0
 71
     1
 91
        1
 92
        1
 93
       12
 72
     1
 10
45.11819201121239
 20
-77.35410607427534
 11
46.52091622895961
 21
-77.35410607427534
 72
     1
 10
46.52091622895961
 20
-77.35410607427534
 11
45.21838659819309
 21
-78.82705660431154
 72
     1
 10
45.21838659819309
 20
-78.82705660431154
 11
46.61633964513339
 21
-80.40791559808653
 72
     1
 10
46.61633964513339
 20
-80.40791559808653
 11
45.21361542738509
 21
-80.40791559808653
 72
     1
 10
45.21361542738509
 20
-80.40791559808653
 11
44.5170244893196
 21
-79.62018381279282
 72
     1
 10
44.5170244893196
 20
-79.62018381279282
 11
43.8204335512539
 21
-80.40791559808653
 72
     1
 10
43.8204335512539
 20
-80.40791559808653
 11
42.41770933350568
 21
-80.40791559808653
 72
     1
 10
42.41770933350568
 20
-80.40791559808653
 11
43.81566238044599
 21
-78.82705660431154
 72
     1
 10
43.81566238044599
 20
-78.82705660431154
 11
42.51313274967851
 21
-77.35410607427534
 72
     1
 10
42.51313274967851
 20
-77.35410607427534
 11
43.9158569674278
 21
-77.35410607427534
 72
     1
 10
43.9158569674278
 20
-77.35410607427534
 11
44.5170244893196
 21
-78.03392939583082
 72
     1
 10
44.5170244893196
 20
-78.03392939583082
 11
45.11819201121239
 21
-77.35410607427534
 97
       12
330
27E
330
2D7
330
2D6
330
2D5
330
2D4
330
27F
330
280
330
27C
330
27D
330
2DA
330
2D9
330
2D8
 75
     1
 76
     0
 52
45.0
 41
0.1
 77
     0
 78
     1
 53
45.0
 43
0.0
 44
0.0
 45
-0.0707106781186548
 46
0.0707106781186548
 79
     0
 98
        1
 10
0.0
 20
0.0
  0
HATCH
  5
397
330
71
100
AcDbEntity
  8
1
  6
Continuous
 62
     2
100
AcDbHatch
 10
0.0
 20
0.0
 30
0.0
210
0.0
220
0.0
230
1.0
  2
_USER
 70
     0
 71
     1
 91
        1
 92
        1
 93
       12
 72
     1
 10
45.11819201121239
 20
-77.35410607427534
 11
46.52091622895961
 21
-77.35410607427534
 72
     1
 10
46.52091622895961
 20
-77.35410607427534
 11
45.21838659819309
 21
-78.82705660431154
 72
     1
 10
45.21838659819309
 20
-78.82705660431154
 11
46.61633964513339
 21
-80.40791559808653
 72
     1
 10
46.61633964513339
 20
-80.40791559808653
 11
45.21361542738509
 21
-80.40791559808653
 72
     1
 10
45.21361542738509
 20
-80.40791559808653
 11
44.5170244893196
 21
-79.62018381279282
 72
     1
 10
44.5170244893196
 20
-79.62018381279282
 11
43.8204335512539
 21
-80.40791559808653
 72
     1
 10
43.8204335512539
 20
-80.40791559808653
 11
42.41770933350568
 21
-80.40791559808653
 72
     1
 10
42.41770933350568
 20
-80.40791559808653
 11
43.81566238044599
 21
-78.82705660431154
 72
     1
 10
43.81566238044599
 20
-78.82705660431154
 11
42.51313274967851
 21
-77.35410607427534
 72
     1
 10
42.51313274967851
 20
-77.35410607427534
 11
43.9158569674278
 21
-77.35410607427534
 72
     1
 10
43.9158569674278
 20
-77.35410607427534
 11
44.5170244893196
 21
-78.03392939583082
 72
     1
 10
44.5170244893196
 20
-78.03392939583082
 11
45.11819201121239
 21
-77.35410607427534
 97
       12
330
27E
330
2D7
330
2D6
330
2D5
330
2D4
330
27F
330
280
330
27C
330
27D
330
2DA
330
2D9
330
2D8
 75
     1
 76
     0
 52
45.0
 41
0.1
 77
     0
 78
     1
 53
45.0
 43
0.0
 44
0.0
 45
-0.0707106781186548
 46
0.0707106781186548
 79
     0
 98
        1
 10
0.0
 20
0.0
  0
HATCH
  5
398
330
71
100
AcDbEntity
  8
1
  6
Continuous
 62
     2
100
AcDbHatch
 10
0.0
 20
0.0
 30
0.0
210
0.0
220
0.0
230
1.0
  2
_USER
 70
     0
 71
     1
 91
        1
 92
        1
 93
        4
 72
     1
 10
42.29843006328881
 20
-77.35410607427534
 11
42.29843006328881
 21
-80.40791559808653
 72
     1
 10
42.29843006328881
 20
-80.40791559808653
 11
41.05792565303591
 21
-80.40791559808653
 72
     1
 10
41.05792565303591
 20
-80.40791559808653
 11
41.05792565303591
 21
-77.35410607427534
 72
     1
 10
41.05792565303591
 20
-77.35410607427534
 11
42.29843006328881
 21
-77.35410607427534
 97
        4
330
2D2
330
281
330
2D1
330
2D3
 75
     1
 76
     0
 52
45.0
 41
0.1
 77
     0
 78
     1
 53
45.0
 43
0.0
 44
0.0
 45
-0.0707106781186548
 46
0.0707106781186548
 79
     0
 98
        1
 10
0.0
 20
0.0
  0
HATCH
  5
399
330
71
100
AcDbEntity
  8
1
  6
Continuous
 62
     2
100
AcDbHatch
 10
0.0
 20
0.0
 30
0.0
210
0.0
220
0.0
230
1.0
  2
_USER
 70
     0
 71
     1
 91
        1
 92
        1
 93
        4
 72
     1
 10
42.29843006328881
 20
-77.35410607427534
 11
42.29843006328881
 21
-80.40791559808653
 72
     1
 10
42.29843006328881
 20
-80.40791559808653
 11
41.05792565303591
 21
-80.40791559808653
 72
     1
 10
41.05792565303591
 20
-80.40791559808653
 11
41.05792565303591
 21
-77.35410607427534
 72
     1
 10
41.05792565303591
 20
-77.35410607427534
 11
42.29843006328881
 21
-77.35410607427534
 97
        4
330
2D2
330
281
330
2D1
330
2D3
 75
     1
 76
     0
 52
45.0
 41
0.1
 77
     0
 78
     1
 53
45.0
 43
0.0
 44
0.0
 45
-0.0707106781186548
 46
0.0707106781186548
 79
     0
 98
        1
 10
0.0
 20
0.0
  0
HATCH
  5
39A
330
71
100
AcDbEntity
  8
1
  6
Continuous
 62
     2
100
AcDbHatch
 10
0.0
 20
0.0
 30
0.0
210
0.0
220
0.0
230
1.0
  2
_USER
 70
     0
 71
     1
 91
        2
 92
        1
 93
        8
 72
     1
 10
41.90798605975681
 20
-83.76710607426082
 11
40.66748164950289
 21
-83.76710607426082
 72
     1
 10
40.66748164950289
 20
-83.76710607426082
 11
40.45600159602711
 21
-83.22614553004294
 72
     1
 10
40.45600159602711
 20
-83.22614553004294
 11
39.3235600193533
 21
-83.22614553004294
 72
     1
 10
39.3235600193533
 20
-83.22614553004294
 11
39.11207996587748
 21
-83.76710607426082
 72
     1
 10
39.11207996587748
 20
-83.76710607426082
 11
37.8715755556245
 21
-83.76710607426082
 72
     1
 10
37.8715755556245
 20
-83.76710607426082
 11
39.26952860256381
 21
-80.71329655044974
 72
     1
 10
39.26952860256381
 20
-80.71329655044974
 11
40.51003301281651
 21
-80.71329655044974
 72
     1
 10
40.51003301281651
 20
-80.71329655044974
 11
41.90798605975681
 21
-83.76710607426082
 97
        8
330
2CD
330
287
330
2CC
330
2CF
330
284
330
2CE
330
285
330
286
 92
       16
 93
        3
 72
     1
 10
39.5896155704983
 20
-82.54558226473634
 11
40.1899460448808
 21
-82.54558226473634
 72
     1
 10
40.1899460448808
 20
-82.54558226473634
 11
39.8897808076907
 21
-81.77776729874964
 72
     1
 10
39.8897808076907
 20
-81.77776729874964
 11
39.5896155704983
 21
-82.54558226473634
 97
        3
330
283
330
282
330
2D0
 75
     1
 76
     0
 52
45.0
 41
0.1
 77
     0
 78
     1
 53
45.0
 43
0.0
 44
0.0
 45
-0.0707106781186548
 46
0.0707106781186548
 79
     0
 98
        1
 10
0.0
 20
0.0
  0
HATCH
  5
39B
330
71
100
AcDbEntity
  8
1
  6
Continuous
 62
     2
100
AcDbHatch
 10
0.0
 20
0.0
 30
0.0
210
0.0
220
0.0
230
1.0
  2
_USER
 70
     0
 71
     1
 91
        2
 92
        1
 93
        8
 72
     1
 10
41.90798605975681
 20
-83.76710607426082
 11
40.66748164950289
 21
-83.76710607426082
 72
     1
 10
40.66748164950289
 20
-83.76710607426082
 11
40.45600159602711
 21
-83.22614553004294
 72
     1
 10
40.45600159602711
 20
-83.22614553004294
 11
39.3235600193533
 21
-83.22614553004294
 72
     1
 10
39.3235600193533
 20
-83.22614553004294
 11
39.11207996587748
 21
-83.76710607426082
 72
     1
 10
39.11207996587748
 20
-83.76710607426082
 11
37.8715755556245
 21
-83.76710607426082
 72
     1
 10
37.8715755556245
 20
-83.76710607426082
 11
39.26952860256381
 21
-80.71329655044974
 72
     1
 10
39.26952860256381
 20
-80.71329655044974
 11
40.51003301281651
 21
-80.71329655044974
 72
     1
 10
40.51003301281651
 20
-80.71329655044974
 11
41.90798605975681
 21
-83.76710607426082
 97
        8
330
2CD
330
287
330
2CC
330
2CF
330
284
330
2CE
330
285
330
286
 92
       16
 93
        3
 72
     1
 10
39.5896155704983
 20
-82.54558226473634
 11
40.1899460448808
 21
-82.54558226473634
 72
     1
 10
40.1899460448808
 20
-82.54558226473634
 11
39.8897808076907
 21
-81.77776729874964
 72
     1
 10
39.8897808076907
 20
-81.77776729874964
 11
39.5896155704983
 21
-82.54558226473634
 97
        3
330
283
330
282
330
2D0
 75
     1
 76
     0
 52
45.0
 41
0.1
 77
     0
 78
     1
 53
45.0
 43
0.0
 44
0.0
 45
-0.0707106781186548
 46
0.0707106781186548
 79
     0
 98
        1
 10
0.0
 20
0.0
  0
HATCH
  5
39C
330
71
100
AcDbEntity
  8
1
  6
Continuous
 62
     2
100
AcDbHatch
 10
0.0
 20
0.0
 30
0.0
210
0.0
220
0.0
230
1.0
  2
_USER
 70
     0
 71
     1
 91
        1
 92
        1
 93
        8
 72
     1
 10
35.71406341644229
 20
-80.71329655044974
 11
35.71406341644229
 21
-81.49856185657333
 72
     1
 10
35.71406341644229
 20
-81.49856185657333
 11
36.52516245391689
 21
-81.49856185657333
 72
     1
 10
36.52516245391689
 20
-81.49856185657333
 11
36.52516245391689
 21
-83.76710607426082
 72
     1
 10
36.52516245391689
 20
-83.76710607426082
 11
37.71795515608341
 21
-83.76710607426082
 72
     1
 10
37.71795515608341
 20
-83.76710607426082
 11
37.71795515608341
 21
-81.49856185657333
 72
     1
 10
37.71795515608341
 20
-81.49856185657333
 11
38.52905419355591
 21
-81.49856185657333
 72
     1
 10
38.52905419355591
 20
-81.49856185657333
 11
38.52905419355591
 21
-80.71329655044974
 72
     1
 10
38.52905419355591
 20
-80.71329655044974
 11
35.71406341644229
 21
-80.71329655044974
 97
        8
330
2C9
330
2C8
330
2C7
330
288
330
289
330
2CB
330
28A
330
2CA
 75
     1
 76
     0
 52
45.0
 41
0.1
 77
     0
 78
     1
 53
45.0
 43
0.0
 44
0.0
 45
-0.0707106781186548
 46
0.0707106781186548
 79
     0
 98
        1
 10
0.0
 20
0.0
  0
HATCH
  5
39D
330
71
100
AcDbEntity
  8
1
  6
Continuous
 62
     2
100
AcDbHatch
 10
0.0
 20
0.0
 30
0.0
210
0.0
220
0.0
230
1.0
  2
_USER
 70
     0
 71
     1
 91
        1
 92
        1
 93
        8
 72
     1
 10
35.71406341644229
 20
-80.71329655044974
 11
35.71406341644229
 21
-81.49856185657333
 72
     1
 10
35.71406341644229
 20
-81.49856185657333
 11
36.52516245391689
 21
-81.49856185657333
 72
     1
 10
36.52516245391689
 20
-81.49856185657333
 11
36.52516245391689
 21
-83.76710607426082
 72
     1
 10
36.52516245391689
 20
-83.76710607426082
 11
37.71795515608341
 21
-83.76710607426082
 72
     1
 10
37.71795515608341
 20
-83.76710607426082
 11
37.71795515608341
 21
-81.49856185657333
 72
     1
 10
37.71795515608341
 20
-81.49856185657333
 11
38.52905419355591
 21
-81.49856185657333
 72
     1
 10
38.52905419355591
 20
-81.49856185657333
 11
38.52905419355591
 21
-80.71329655044974
 72
     1
 10
38.52905419355591
 20
-80.71329655044974
 11
35.71406341644229
 21
-80.71329655044974
 97
        8
330
2C9
330
2C8
330
2C7
330
288
330
289
330
2CB
330
28A
330
2CA
 75
     1
 76
     0
 52
45.0
 41
0.1
 77
     0
 78
     1
 53
45.0
 43
0.0
 44
0.0
 45
-0.0707106781186548
 46
0.0707106781186548
 79
     0
 98
        1
 10
0.0
 20
0.0
  0
HATCH
  5
39E
330
71
100
AcDbEntity
  8
1
  6
Continuous
 62
     2
100
AcDbHatch
 10
0.0
 20
0.0
 30
0.0
210
0.0
220
0.0
230
1.0
  2
_USER
 70
     0
 71
     1
 91
        1
 92
        1
 93
       10
 72
     1
 10
38.38607000018141
 20
-77.35410607427534
 11
37.19327729801489
 21
-77.35410607427534
 72
     1
 10
37.19327729801489
 20
-77.35410607427534
 11
37.19327729801489
 21
-80.40791559808653
 72
     1
 10
37.19327729801489
 20
-80.40791559808653
 11
38.38607000018141
 21
-80.40791559808653
 72
     1
 10
38.38607000018141
 20
-80.40791559808653
 11
38.38607000018141
 21
-79.09914008788184
 72
     1
 10
38.38607000018141
 20
-79.09914008788184
 11
39.62657441043541
 21
-80.40791559808653
 72
     1
 10
39.62657441043541
 20
-80.40791559808653
 11
40.81936711260201
 21
-80.40791559808653
 72
     1
 10
40.81936711260201
 20
-80.40791559808653
 11
40.81936711260201
 21
-77.35410607427534
 72
     1
 10
40.81936711260201
 20
-77.35410607427534
 11
39.62657441043541
 21
-77.35410607427534
 72
     1
 10
39.62657441043541
 20
-77.35410607427534
 11
39.62657441043541
 21
-78.66288158448052
 72
     1
 10
39.62657441043541
 20
-78.66288158448052
 11
38.38607000018141
 21
-77.35410607427534
 97
       10
330
2C3
330
28D
330
28E
330
28F
330
290
330
2C6
330
28B
330
2C5
330
2C4
330
28C
 75
     1
 76
     0
 52
45.0
 41
0.1
 77
     0
 78
     1
 53
45.0
 43
0.0
 44
0.0
 45
-0.0707106781186548
 46
0.0707106781186548
 79
     0
 98
        1
 10
0.0
 20
0.0
  0
HATCH
  5
39F
330
71
100
AcDbEntity
  8
1
  6
Continuous
 62
     2
100
AcDbHatch
 10
0.0
 20
0.0
 30
0.0
210
0.0
220
0.0
230
1.0
  2
_USER
 70
     0
 71
     1
 91
        1
 92
        1
 93
       10
 72
     1
 10
38.38607000018141
 20
-77.35410607427534
 11
37.19327729801489
 21
-77.35410607427534
 72
     1
 10
37.19327729801489
 20
-77.35410607427534
 11
37.19327729801489
 21
-80.40791559808653
 72
     1
 10
37.19327729801489
 20
-80.40791559808653
 11
38.38607000018141
 21
-80.40791559808653
 72
     1
 10
38.38607000018141
 20
-80.40791559808653
 11
38.38607000018141
 21
-79.09914008788184
 72
     1
 10
38.38607000018141
 20
-79.09914008788184
 11
39.62657441043541
 21
-80.40791559808653
 72
     1
 10
39.62657441043541
 20
-80.40791559808653
 11
40.81936711260201
 21
-80.40791559808653
 72
     1
 10
40.81936711260201
 20
-80.40791559808653
 11
40.81936711260201
 21
-77.35410607427534
 72
     1
 10
40.81936711260201
 20
-77.35410607427534
 11
39.62657441043541
 21
-77.35410607427534
 72
     1
 10
39.62657441043541
 20
-77.35410607427534
 11
39.62657441043541
 21
-78.66288158448052
 72
     1
 10
39.62657441043541
 20
-78.66288158448052
 11
38.38607000018141
 21
-77.35410607427534
 97
       10
330
2C3
330
28D
330
28E
330
28F
330
290
330
2C6
330
28B
330
2C5
330
2C4
330
28C
 75
     1
 76
     0
 52
45.0
 41
0.1
 77
     0
 78
     1
 53
45.0
 43
0.0
 44
0.0
 45
-0.0707106781186548
 46
0.0707106781186548
 79
     0
 98
        1
 10
0.0
 20
0.0
  0
HATCH
  5
3A0
330
71
100
AcDbEntity
  8
1
  6
Continuous
 62
     2
100
AcDbHatch
 10
0.0
 20
0.0
 30
0.0
210
0.0
220
0.0
230
1.0
  2
_USER
 70
     0
 71
     1
 91
        1
 92
        1
 93
       10
 72
     1
 10
33.13763117976279
 20
-80.71329655044974
 11
31.9448384775952
 21
-80.71329655044974
 72
     1
 10
31.9448384775952
 20
-80.71329655044974
 11
31.9448384775952
 21
-83.76710607426082
 72
     1
 10
31.9448384775952
 20
-83.76710607426082
 11
33.13763117976279
 21
-83.76710607426082
 72
     1
 10
33.13763117976279
 20
-83.76710607426082
 11
33.13763117976279
 21
-82.45833056405624
 72
     1
 10
33.13763117976279
 20
-82.45833056405624
 11
34.37813559001569
 21
-83.76710607426082
 72
     1
 10
34.37813559001569
 20
-83.76710607426082
 11
35.57092829218209
 21
-83.76710607426082
 72
     1
 10
35.57092829218209
 20
-83.76710607426082
 11
35.57092829218209
 21
-80.71329655044974
 72
     1
 10
35.57092829218209
 20
-80.71329655044974
 11
34.37813559001569
 21
-80.71329655044974
 72
     1
 10
34.37813559001569
 20
-80.71329655044974
 11
34.37813559001569
 21
-82.02207206065484
 72
     1
 10
34.37813559001569
 20
-82.02207206065484
 11
33.13763117976279
 21
-80.71329655044974
 97
       10
330
292
330
293
330
294
330
2C0
330
295
330
296
330
2BF
330
2C2
330
2C1
330
291
 75
     1
 76
     0
 52
45.0
 41
0.1
 77
     0
 78
     1
 53
45.0
 43
0.0
 44
0.0
 45
-0.0707106781186548
 46
0.0707106781186548
 79
     0
 98
        1
 10
0.0
 20
0.0
  0
HATCH
  5
3A1
330
71
100
AcDbEntity
  8
1
  6
Continuous
 62
     2
100
AcDbHatch
 10
0.0
 20
0.0
 30
0.0
210
0.0
220
0.0
230
1.0
  2
_USER
 70
     0
 71
     1
 91
        1
 92
        1
 93
       10
 72
     1
 10
33.13763117976279
 20
-80.71329655044974
 11
31.9448384775952
 21
-80.71329655044974
 72
     1
 10
31.9448384775952
 20
-80.71329655044974
 11
31.9448384775952
 21
-83.76710607426082
 72
     1
 10
31.9448384775952
 20
-83.76710607426082
 11
33.13763117976279
 21
-83.76710607426082
 72
     1
 10
33.13763117976279
 20
-83.76710607426082
 11
33.13763117976279
 21
-82.45833056405624
 72
     1
 10
33.13763117976279
 20
-82.45833056405624
 11
34.37813559001569
 21
-83.76710607426082
 72
     1
 10
34.37813559001569
 20
-83.76710607426082
 11
35.57092829218209
 21
-83.76710607426082
 72
     1
 10
35.57092829218209
 20
-83.76710607426082
 11
35.57092829218209
 21
-80.71329655044974
 72
     1
 10
35.57092829218209
 20
-80.71329655044974
 11
34.37813559001569
 21
-80.71329655044974
 72
     1
 10
34.37813559001569
 20
-80.71329655044974
 11
34.37813559001569
 21
-82.02207206065484
 72
     1
 10
34.37813559001569
 20
-82.02207206065484
 11
33.13763117976279
 21
-80.71329655044974
 97
       10
330
292
330
293
330
294
330
2C0
330
295
330
296
330
2BF
330
2C2
330
2C1
330
291
 75
     1
 76
     0
 52
45.0
 41
0.1
 77
     0
 78
     1
 53
45.0
 43
0.0
 44
0.0
 45
-0.0707106781186548
 46
0.0707106781186548
 79
     0
 98
        1
 10
0.0
 20
0.0
  0
HATCH
  5
3A2
330
71
100
AcDbEntity
  8
1
  6
Continuous
 62
     2
100
AcDbHatch
 10
0.0
 20
0.0
 30
0.0
210
0.0
220
0.0
230
1.0
  2
_USER
 70
     0
 71
     1
 91
        1
 92
        1
 93
       12
 72
     1
 10
32.13583624082739
 20
-77.35410607427534
 11
32.13583624082739
 21
-80.40791559808653
 72
     1
 10
32.13583624082739
 20
-80.40791559808653
 11
30.94304353866099
 21
-80.40791559808653
 72
     1
 10
30.94304353866099
 20
-80.40791559808653
 11
30.94304353866099
 21
-79.27364348924272
 72
     1
 10
30.94304353866099
 20
-79.27364348924272
 11
29.89338596075351
 21
-79.27364348924272
 72
     1
 10
29.89338596075351
 20
-79.27364348924272
 11
29.89338596075351
 21
-80.40791559808653
 72
     1
 10
29.89338596075351
 20
-80.40791559808653
 11
28.70059325858691
 21
-80.40791559808653
 72
     1
 10
28.70059325858691
 20
-80.40791559808653
 11
28.70059325858691
 21
-77.35410607427534
 72
     1
 10
28.70059325858691
 20
-77.35410607427534
 11
29.89338596075351
 21
-77.35410607427534
 72
     1
 10
29.89338596075351
 20
-77.35410607427534
 11
29.89338596075351
 21
-78.42293940760993
 72
     1
 10
29.89338596075351
 20
-78.42293940760993
 11
30.94304353866099
 21
-78.42293940760993
 72
     1
 10
30.94304353866099
 20
-78.42293940760993
 11
30.94304353866099
 21
-77.35410607427534
 72
     1
 10
30.94304353866099
 20
-77.35410607427534
 11
32.13583624082739
 21
-77.35410607427534
 97
       12
330
2BA
330
2B9
330
2B8
330
2A0
330
2A1
330
2B7
330
2A2
330
2B6
330
2B5
330
2B4
330
29E
330
29F
 75
     1
 76
     0
 52
45.0
 41
0.1
 77
     0
 78
     1
 53
45.0
 43
0.0
 44
0.0
 45
-0.0707106781186548
 46
0.0707106781186548
 79
     0
 98
        1
 10
0.0
 20
0.0
  0
HATCH
  5
3A3
330
71
100
AcDbEntity
  8
1
  6
Continuous
 62
     2
100
AcDbHatch
 10
0.0
 20
0.0
 30
0.0
210
0.0
220
0.0
230
1.0
  2
_USER
 70
     0
 71
     1
 91
        1
 92
        1
 93
       12
 72
     1
 10
32.13583624082739
 20
-77.35410607427534
 11
32.13583624082739
 21
-80.40791559808653
 72
     1
 10
32.13583624082739
 20
-80.40791559808653
 11
30.94304353866099
 21
-80.40791559808653
 72
     1
 10
30.94304353866099
 20
-80.40791559808653
 11
30.94304353866099
 21
-79.27364348924272
 72
     1
 10
30.94304353866099
 20
-79.27364348924272
 11
29.89338596075351
 21
-79.27364348924272
 72
     1
 10
29.89338596075351
 20
-79.27364348924272
 11
29.89338596075351
 21
-80.40791559808653
 72
     1
 10
29.89338596075351
 20
-80.40791559808653
 11
28.70059325858691
 21
-80.40791559808653
 72
     1
 10
28.70059325858691
 20
-80.40791559808653
 11
28.70059325858691
 21
-77.35410607427534
 72
     1
 10
28.70059325858691
 20
-77.35410607427534
 11
29.89338596075351
 21
-77.35410607427534
 72
     1
 10
29.89338596075351
 20
-77.35410607427534
 11
29.89338596075351
 21
-78.42293940760993
 72
     1
 10
29.89338596075351
 20
-78.42293940760993
 11
30.94304353866099
 21
-78.42293940760993
 72
     1
 10
30.94304353866099
 20
-78.42293940760993
 11
30.94304353866099
 21
-77.35410607427534
 72
     1
 10
30.94304353866099
 20
-77.35410607427534
 11
32.13583624082739
 21
-77.35410607427534
 97
       12
330
2BA
330
2B9
330
2B8
330
2A0
330
2A1
330
2B7
330
2A2
330
2B6
330
2B5
330
2B4
330
29E
330
29F
 75
     1
 76
     0
 52
45.0
 41
0.1
 77
     0
 78
     1
 53
45.0
 43
0.0
 44
0.0
 45
-0.0707106781186548
 46
0.0707106781186548
 79
     0
 98
        1
 10
0.0
 20
0.0
  0
ENDBLK
  5
73
330
71
100
AcDbEntity
  8
0
100
AcDbBlockEnd
  0
BLOCK
  5
75
330
74
100
AcDbEntity
  8
0
100
AcDbBlockBegin
  2
_punkt
 70
     0
 10
144.0131400546163
 20
-91.06060607427713
 30
0.0
  3
_punkt
  1

  0
LINE
  5
3A4
330
74
100
AcDbEntity
  8
1
  6
Continuous
 62
     2
100
AcDbLine
 10
144.0131400546163
 20
-91.06060607427713
 30
0.0
 11
144.0131400546163
 21
-96.06060607427725
 31
0.0
  0
LINE
  5
3A5
330
74
100
AcDbEntity
  8
1
  6
Continuous
 62
     2
100
AcDbLine
 10
144.0131400546163
 20
-91.06060607427713
 30
0.0
 11
149.0131400546153
 21
-91.06060607427713
 31
0.0
  0
ENDBLK
  5
76
330
74
100
AcDbEntity
  8
0
100
AcDbBlockEnd
  0
BLOCK
  5
7A
330
77
100
AcDbEntity
  8
0
100
AcDbBlockBegin
  2
A4I_CS
 70
     0
 10
144.0131400546163
 20
-96.06060607427725
 30
0.0
  3
A4I_CS
  1

  0
INSERT
  5
78
330
77
100
AcDbEntity
  8
1
100
AcDbBlockReference
  2
_rahmen
 10
144.0131400546163
 20
-96.06060607427725
 30
0.0
  0
INSERT
  5
79
330
77
100
AcDbEntity
  8
1
100
AcDbBlockReference
  2
_punkt
 10
144.0131400546163
 20
-91.06060607427713
 30
0.0
  0
ENDBLK
  5
7B
330
77
100
AcDbEntity
  8
0
100
AcDbBlockEnd
  0
BLOCK
  5
84
330
7C
100
AcDbEntity
  8
0
100
AcDbBlockBegin
  2
1
 70
     0
 10
0.0
 20
0.0
 30
0.0
  3
1
  1

  0
INSERT
  5
7D
330
7C
100
AcDbEntity
  8
0
100
AcDbBlockReference
  2
AllgSicht1
 10
73.00000000001006
 20
-40.99999999998001
 30
0.0
  0
INSERT
  5
7E
330
7C
100
AcDbEntity
  8
0
100
AcDbBlockReference
  2
Drfsicht1
 10
-30.19999961851008
 20
-44.19999961851018
 30
0.0
 41
2.0
 42
2.0
 43
2.0
  0
INSERT
  5
7F
330
7C
100
AcDbEntity
  8
0
100
AcDbBlockReference
  2
Rckans1
 10
91.19999961852034
 20
38.00000000004006
 30
0.0
 41
2.0
 42
2.0
 43
2.0
  0
INSERT
  5
80
330
7C
100
AcDbEntity
  8
0
100
AcDbBlockReference
  2
SA_Links1
 10
28.99999999999
 20
38.00000000004006
 30
0.0
 41
2.0
 42
2.0
 43
2.0
  0
INSERT
  5
81
330
7C
100
AcDbEntity
  8
0
100
AcDbBlockReference
  2
SA_Rechts1
 10
-106.3999992370405
 20
38.00000000004002
 30
0.0
 41
2.0
 42
2.0
 43
2.0
  0
INSERT
  5
82
330
7C
100
AcDbEntity
  8
0
100
AcDbBlockReference
  2
Vordans1
 10
-30.19999961851008
 20
38.00000000004002
 30
0.0
 41
2.0
 42
2.0
 43
2.0
  0
INSERT
  5
83
330
7C
100
AcDbEntity
  8
0
100
AcDbBlockReference
  2
A4I_CS
 10
144.0131400546163
 20
-96.06060607427725
 30
0.0
  0
ENDBLK
  5
85
330
7C
100
AcDbEntity
  8
0
100
AcDbBlockEnd
  0
BLOCK
  5
147
330
140
100
AcDbEntity
  8
0
100
AcDbBlockBegin
  2
*D17
 70
     1
 10
0.0
 20
0.0
 30
0.0
  3
*D17
  1

  0
LINE
  5
141
330
140
100
AcDbEntity
  8
1
  6
Continuous
 62
     2
100
AcDbLine
 10
-31.31417396135457
 20
-15.8999996185153
 30
0.0
 11
-31.31417396135457
 21
-28.29999961851529
 31
0.0
  0
LINE
  5
142
330
140
100
AcDbEntity
  8
1
  6
Continuous
 62
     2
100
AcDbLine
 10
-26.09999980925014
 20
-15.8999996185153
 30
0.0
 11
-32.06417396135457
 21
-15.8999996185153
 31
0.0
  0
LINE
  5
143
330
140
100
AcDbEntity
  8
1
  6
Continuous
 62
     2
100
AcDbLine
 10
-26.09999980925014
 20
-28.29999961851529
 30
0.0
 11
-32.06417396135457
 21
-28.29999961851529
 31
0.0
  0
SOLID
  5
144
330
140
100
AcDbEntity
  8
1
 62
     2
100
AcDbTrace
 10
-31.08378209057663
 20
-17.6499996185153
 30
0.0
 11
-31.54456583213251
 21
-17.6499996185153
 31
0.0
 12
-31.31417396135457
 22
-15.8999996185153
 32
0.0
 13
-31.31417396135457
 23
-15.8999996185153
 33
0.0
  0
SOLID
  5
145
330
140
100
AcDbEntity
  8
1
 62
     2
100
AcDbTrace
 10
-31.54456583213251
 20
-26.54999961851529
 30
0.0
 11
-31.08378209057663
 21
-26.54999961851529
 31
0.0
 12
-31.31417396135457
 22
-28.29999961851529
 32
0.0
 13
-31.31417396135457
 23
-28.29999961851529
 33
0.0
  0
MTEXT
  5
146
330
140
100
AcDbEntity
  8
1
 62
     3
100
AcDbMText
 10
-32.23917396135457
 20
-23.84525472726089
 30
0.0
 40
1.75
 41
0.0
 71
     7
 72
     1
  1
12,4
  7
CONVERTER_11
 11
0.0
 21
1.0
 31
0.0
 73
     1
 44
0.60024009603842
  0
ENDBLK
  5
148
330
140
100
AcDbEntity
  8
0
100
AcDbBlockEnd
  0
BLOCK
  5
25E
330
257
100
AcDbEntity
  8
0
100
AcDbBlockBegin
  2
*D18
 70
     1
 10
0.0
 20
0.0
 30
0.0
  3
*D18
  1

  0
LINE
  5
258
330
257
100
AcDbEntity
  8
1
  6
Continuous
 62
     2
100
AcDbLine
 10
-26.09999980925015
 20
-7.99999999995998
 30
0.0
 11
-4.09999980925013
 21
-7.99999999995998
 31
0.0
  0
LINE
  5
259
330
257
100
AcDbEntity
  8
1
  6
Continuous
 62
     2
100
AcDbLine
 10
-26.09999980925015
 20
40.00000000004002
 30
0.0
 11
-26.09999980925015
 21
-8.99999999995998
 31
0.0
  0
LINE
  5
25A
330
257
100
AcDbEntity
  8
1
  6
Continuous
 62
     2
100
AcDbLine
 10
-4.09999980925013
 20
40.00000000003938
 30
0.0
 11
-4.09999980925013
 21
-8.99999999995998
 31
0.0
  0
SOLID
  5
25B
330
257
100
AcDbEntity
  8
1
 62
     2
100
AcDbTrace
 10
-24.34999980925015
 20
-7.76960812918203
 30
0.0
 11
-24.34999980925015
 21
-8.23039187073792
 31
0.0
 12
-26.09999980925015
 22
-7.99999999995998
 32
0.0
 13
-26.09999980925015
 23
-7.99999999995998
 33
0.0
  0
SOLID
  5
25C
330
257
100
AcDbEntity
  8
1
 62
     2
100
AcDbTrace
 10
-5.84999980925013
 20
-8.23039187073792
 30
0.0
 11
-5.84999980925013
 21
-7.76960812918203
 31
0.0
 12
-4.09999980925013
 22
-7.99999999995998
 32
0.0
 13
-4.09999980925013
 23
-7.99999999995998
 33
0.0
  0
MTEXT
  5
25D
330
257
100
AcDbEntity
  8
1
 62
     3
100
AcDbMText
 10
-16.50795652034166
 20
-6.99999999995998
 30
0.0
 40
1.75
 41
0.0
 71
     7
 72
     1
  1
22
  7
CONVERTER_11
 11
0.9999999999970619
 21
2.424068405545306E-6
 31
0.0
 73
     1
 44
0.60024009603842
  0
ENDBLK
  5
25F
330
257
100
AcDbEntity
  8
0
100
AcDbBlockEnd
  0
BLOCK
  5
269
330
262
100
AcDbEntity
  8
0
100
AcDbBlockBegin
  2
*D19
 70
     1
 10
0.0
 20
0.0
 30
0.0
  3
*D19
  1

  0
LINE
  5
263
330
262
100
AcDbEntity
  8
1
  6
Continuous
 62
     2
100
AcDbLine
 10
-31.09999980925014
 20
-1.99999999995635
 30
0.0
 11
-31.09999980925014
 21
40.00000000004001
 31
0.0
  0
LINE
  5
264
330
262
100
AcDbEntity
  8
1
  6
Continuous
 62
     2
100
AcDbLine
 10
-16.55126287421466
 20
-1.99999999995635
 30
0.0
 11
-31.84999980925014
 21
-1.99999999995635
 31
0.0
  0
LINE
  5
265
330
262
100
AcDbEntity
  8
1
  6
Continuous
 62
     2
100
AcDbLine
 10
-26.09999980925014
 20
40.00000000004001
 30
0.0
 11
-31.84999980925014
 21
40.00000000004001
 31
0.0
  0
SOLID
  5
266
330
262
100
AcDbEntity
  8
1
 62
     2
100
AcDbTrace
 10
-31.33039168002809
 20
-0.24999999995635
 30
0.0
 11
-30.8696079384722
 21
-0.24999999995635
 31
0.0
 12
-31.09999980925014
 22
-1.99999999995635
 32
0.0
 13
-31.09999980925014
 23
-1.99999999995635
 33
0.0
  0
SOLID
  5
267
330
262
100
AcDbEntity
  8
1
 62
     2
100
AcDbTrace
 10
-30.8696079384722
 20
38.25000000004001
 30
0.0
 11
-31.33039168002809
 21
38.25000000004001
 31
0.0
 12
-31.09999980925014
 22
40.00000000004001
 32
0.0
 13
-31.09999980925014
 23
40.00000000004001
 33
0.0
  0
MTEXT
  5
268
330
262
100
AcDbEntity
  8
1
 62
     3
100
AcDbMText
 10
-31.84999980925014
 20
19.6282365151961
 30
0.0
 40
1.75
 41
0.0
 71
     7
 72
     1
  1
42
  7
CONVERTER_11
 11
0.0
 21
1.0
 31
0.0
 73
     1
 44
0.60024009603842
  0
ENDBLK
  5
26A
330
262
100
AcDbEntity
  8
0
100
AcDbBlockEnd
  0
ENDSEC
  0
SECTION
  2
ENTITIES
  0
INSERT
  5
86
330
1F
100
AcDbEntity
  8
1
100
AcDbBlockReference
  2
1
 10
0.0
 20
0.0
 30
0.0
  0
ENDSEC
  0
SECTION
  2
OBJECTS
  0
DICTIONARY
  5
C
330
0
100
AcDbDictionary
281
     1
  3
ACAD_GROUP
350
D
  3
ACAD_LAYOUT
350
1A
  3
ACAD_MATERIAL
350
3B
  3
ACAD_MLEADERSTYLE
350
3CD
  3
ACAD_MLINESTYLE
350
17
  3
ACAD_PLOTSETTINGS
350
19
  3
ACAD_PLOTSTYLENAME
350
E
  3
ACAD_TABLESTYLE
350
3CC
  3
ACAD_VISUALSTYLE
350
2A
  0
DICTIONARY
  5
D
102
{ACAD_REACTORS
330
C
102
}
330
C
100
AcDbDictionary
281
     1
  0
DICTIONARY
  5
1A
102
{ACAD_REACTORS
330
C
102
}
330
C
100
AcDbDictionary
281
     1
  3
Layout1
350
1E
  3
Layout2
350
26
  3
Model
350
22
  0
DICTIONARY
  5
3B
102
{ACAD_REACTORS
330
C
102
}
330
C
100
AcDbDictionary
281
     1
  3
ByBlock
350
3D
  3
ByLayer
350
3C
  3
Global
350
3E
  0
DICTIONARY
  5
3CD
102
{ACAD_REACTORS
330
C
102
}
330
C
100
AcDbDictionary
281
     1
  0
DICTIONARY
  5
17
102
{ACAD_REACTORS
330
C
102
}
330
C
100
AcDbDictionary
281
     1
  3
Standard
350
18
  0
DICTIONARY
  5
19
102
{ACAD_REACTORS
330
C
102
}
330
C
100
AcDbDictionary
281
     1
  0
ACDBDICTIONARYWDFLT
  5
E
102
{ACAD_REACTORS
330
C
102
}
330
C
100
AcDbDictionary
281
     1
  3
Normal
350
F
100
AcDbDictionaryWithDefault
340
F
  0
DICTIONARY
  5
3CC
102
{ACAD_REACTORS
330
C
102
}
330
C
100
AcDbDictionary
281
     1
  0
DICTIONARY
  5
2A
102
{ACAD_REACTORS
330
C
102
}
330
C
100
AcDbDictionary
281
     1
  3
2dWireframe
350
2F
  3
3D Hidden
350
31
  3
3dWireframe
350
30
  3
Basic
350
32
  3
Brighten
350
36
  3
ColorChange
350
3A
  3
Conceptual
350
34
  3
Dim
350
35
  3
Facepattern
350
39
  3
Flat
350
2B
  3
FlatWithEdges
350
2C
  3
Gouraud
350
2D
  3
GouraudWithEdges
350
2E
  3
Linepattern
350
38
  3
Realistic
350
33
  3
Thicken
350
37
  0
LAYOUT
  5
1E
102
{ACAD_REACTORS
330
1A
102
}
330
1A
100
AcDbPlotSettings
  1

  2
none_device
  4

  6

 40
0.0
 41
0.0
 42
0.0
 43
0.0
 44
0.0
 45
0.0
 46
0.0
 47
0.0
 48
0.0
 49
0.0
140
0.0
141
0.0
142
1.0
143
1.0
 70
   688
 72
     0
 73
     0
 74
     5
  7

 75
    16
 76
     0
 77
     2
 78
   300
147
1.0
148
0.0
149
0.0
100
AcDbLayout
  1
Layout1
 70
     1
 71
     1
 10
0.0
 20
0.0
 11
12.0
 21
9.0
 12
0.0
 22
0.0
 32
0.0
 14
1.00000000000000E+20
 24
1.00000000000000E+20
 34
1.00000000000000E+20
 15
-1.00000000000000E+20
 25
-1.00000000000000E+20
 35
-1.00000000000000E+20
146
0.0
 13
0.0
 23
0.0
 33
0.0
 16
1.0
 26
0.0
 36
0.0
 17
0.0
 27
1.0
 37
0.0
 76
     0
330
1B
  0
LAYOUT
  5
26
102
{ACAD_REACTORS
330
1A
102
}
330
1A
100
AcDbPlotSettings
  1

  2
none_device
  4

  6

 40
0.0
 41
0.0
 42
0.0
 43
0.0
 44
0.0
 45
0.0
 46
0.0
 47
0.0
 48
0.0
 49
0.0
140
0.0
141
0.0
142
1.0
143
1.0
 70
   688
 72
     0
 73
     0
 74
     5
  7

 75
    16
 76
     0
 77
     2
 78
   300
147
1.0
148
0.0
149
0.0
100
AcDbLayout
  1
Layout2
 70
     1
 71
     2
 10
0.0
 20
0.0
 11
0.0
 21
0.0
 12
0.0
 22
0.0
 32
0.0
 14
0.0
 24
0.0
 34
0.0
 15
0.0
 25
0.0
 35
0.0
146
0.0
 13
0.0
 23
0.0
 33
0.0
 16
1.0
 26
0.0
 36
0.0
 17
0.0
 27
1.0
 37
0.0
 76
     0
330
23
  0
LAYOUT
  5
22
102
{ACAD_REACTORS
330
1A
102
}
330
1A
100
AcDbPlotSettings
  1

  2
none_device
  4

  6

 40
0.0
 41
0.0
 42
0.0
 43
0.0
 44
0.0
 45
0.0
 46
0.0
 47
0.0
 48
0.0
 49
0.0
140
0.0
141
0.0
142
1.0
143
1.0
 70
  1712
 72
     0
 73
     0
 74
     0
  7

 75
     0
 76
     0
 77
     2
 78
   300
147
1.0
148
0.0
149
0.0
100
AcDbLayout
  1
Model
 70
     1
 71
     0
 10
0.0
 20
0.0
 11
12.0
 21
9.0
 12
0.0
 22
0.0
 32
0.0
 14
-147.9868599453828
 24
-96.06060607427725
 34
0.0
 15
149.0131400546153
 25
113.9393939257229
 35
0.0
146
0.0
 13
0.0
 23
0.0
 33
0.0
 16
1.0
 26
0.0
 36
0.0
 17
0.0
 27
1.0
 37
0.0
 76
     0
330
1F
331
29
  0
MATERIAL
  5
3D
102
{ACAD_REACTORS
330
3B
102
}
102
{ACAD_XDICTIONARY
360
3C8
102
}
330
3B
100
AcDbMaterial
  1
ByBlock
  0
MATERIAL
  5
3C
102
{ACAD_REACTORS
330
3B
102
}
102
{ACAD_XDICTIONARY
360
3C6
102
}
330
3B
100
AcDbMaterial
  1
ByLayer
  0
MATERIAL
  5
3E
102
{ACAD_REACTORS
330
3B
102
}
102
{ACAD_XDICTIONARY
360
3CA
102
}
330
3B
100
AcDbMaterial
  1
Global
  0
MLINESTYLE
  5
18
102
{ACAD_REACTORS
330
17
102
}
330
17
100
AcDbMlineStyle
  2
Standard
 70
     0
  3

 62
   256
 51
90.0
 52
90.0
 71
     2
 49
0.5
 62
   256
  6
BYLAYER
 49
-0.5
 62
   256
  6
BYLAYER
  0
ACDBPLACEHOLDER
  5
F
102
{ACAD_REACTORS
330
E
102
}
330
E
  0
VISUALSTYLE
  5
2F
102
{ACAD_REACTORS
330
2A
102
}
102
{ACAD_XDICTIONARY
360
3AE
102
}
330
2A
100
AcDbVisualStyle
  2
2dWireframe
 70
     4
 71
     0
 72
     2
 73
     0
 90
        0
 40
-0.6
 41
-30.0
 62
     5
 63
     7
421
 16777215
 74
     1
 91
        4
 64
     7
 65
   257
 75
     1
175
     1
 42
1.0
 92
        0
 66
   257
 43
1.0
 76
     1
 77
     6
 78
     2
 67
     7
 79
     5
170
     0
171
     0
290
     0
174
     0
 93
        1
 44
0.0
173
     0
291
     0
 45
0.0
1001
ACAD
1000
AcDbSavedByObjectVersion
1070
     0
  0
VISUALSTYLE
  5
31
102
{ACAD_REACTORS
330
2A
102
}
102
{ACAD_XDICTIONARY
360
3B2
102
}
330
2A
100
AcDbVisualStyle
  2
3D Hidden
 70
     6
 71
     1
 72
     2
 73
     2
 90
        0
 40
-0.6
 41
-30.0
 62
     5
 63
     7
421
 16777215
 74
     2
 91
        2
 64
     7
 65
   257
 75
     2
175
     1
 42
40.0
 92
        0
 66
   257
 43
1.0
 76
     1
 77
     6
 78
     2
 67
     7
 79
     3
170
     0
171
     0
290
     0
174
     0
 93
        1
 44
0.0
173
     0
291
     0
 45
0.0
1001
ACAD
1000
AcDbSavedByObjectVersion
1070
     0
  0
VISUALSTYLE
  5
30
102
{ACAD_REACTORS
330
2A
102
}
102
{ACAD_XDICTIONARY
360
3B0
102
}
330
2A
100
AcDbVisualStyle
  2
3dWireframe
 70
     5
 71
     0
 72
     2
 73
     0
 90
        0
 40
-0.6
 41
-30.0
 62
     5
 63
     7
421
 16777215
 74
     1
 91
        4
 64
     7
 65
   257
 75
     1
175
     1
 42
1.0
 92
        0
 66
   257
 43
1.0
 76
     1
 77
     6
 78
     2
 67
     7
 79
     5
170
     0
171
     0
290
     0
174
     0
 93
        1
 44
0.0
173
     0
291
     0
 45
0.0
1001
ACAD
1000
AcDbSavedByObjectVersion
1070
     0
  0
VISUALSTYLE
  5
32
102
{ACAD_REACTORS
330
2A
102
}
102
{ACAD_XDICTIONARY
360
3B4
102
}
330
2A
100
AcDbVisualStyle
  2
Basic
 70
     7
 71
     1
 72
     0
 73
     1
 90
        0
 40
-0.6
 41
-30.0
 62
     5
 63
     7
421
 16777215
 74
     0
 91
        4
 64
     7
 65
   257
 75
     1
175
     1
 42
1.0
 92
        8
 66
     7
 43
1.0
 76
     1
 77
     6
 78
     2
 67
     7
 79
     5
170
     0
171
     0
290
     0
174
     0
 93
        1
 44
0.0
173
     0
291
     1
 45
0.0
1001
ACAD
1000
AcDbSavedByObjectVersion
1070
     0
  0
VISUALSTYLE
  5
36
102
{ACAD_REACTORS
330
2A
102
}
102
{ACAD_XDICTIONARY
360
3BC
102
}
330
2A
100
AcDbVisualStyle
  2
Brighten
 70
    12
 71
     2
 72
     2
 73
     0
 90
        0
 40
-0.6
 41
-30.0
 62
     5
 63
     7
421
 16777215
 74
     1
 91
        4
 64
     7
 65
   257
 75
     1
175
     1
 42
1.0
 92
        8
 66
     7
 43
1.0
 76
     1
 77
     6
 78
     2
 67
     7
 79
     5
170
     0
171
     0
290
     0
174
     0
 93
        1
 44
50.0
173
     0
291
     1
 45
0.0
1001
ACAD
1000
AcDbSavedByObjectVersion
1070
     0
  0
VISUALSTYLE
  5
3A
102
{ACAD_REACTORS
330
2A
102
}
102
{ACAD_XDICTIONARY
360
3C4
102
}
330
2A
100
AcDbVisualStyle
  2
ColorChange
 70
    16
 71
     2
 72
     2
 73
     3
 90
        0
 40
-0.6
 41
-30.0
 62
     5
 63
     8
421
  8421504
 74
     1
 91
        4
 64
     7
 65
   257
 75
     1
175
     1
 42
1.0
 92
        8
 66
     8
424
  8421504
 43
1.0
 76
     1
 77
     6
 78
     2
 67
     7
 79
     5
170
     0
171
     0
290
     0
174
     0
 93
        1
 44
0.0
173
     0
291
     1
 45
0.0
1001
ACAD
1000
AcDbSavedByObjectVersion
1070
     0
  0
VISUALSTYLE
  5
34
102
{ACAD_REACTORS
330
2A
102
}
102
{ACAD_XDICTIONARY
360
3B8
102
}
330
2A
100
AcDbVisualStyle
  2
Conceptual
 70
     9
 71
     3
 72
     2
 73
     0
 90
        0
 40
-0.6
 41
-30.0
 62
     5
 63
     7
421
 16777215
 74
     2
 91
        2
 64
     7
 65
   257
 75
     1
175
     1
 42
40.0
 92
        8
 66
     7
 43
1.0
 76
     1
 77
     6
 78
     2
 67
     7
 79
     3
170
     0
171
     0
290
     0
174
     0
 93
        1
 44
0.0
173
     0
291
     0
 45
0.0
1001
ACAD
1000
AcDbSavedByObjectVersion
1070
     0
  0
VISUALSTYLE
  5
35
102
{ACAD_REACTORS
330
2A
102
}
102
{ACAD_XDICTIONARY
360
3BA
102
}
330
2A
100
AcDbVisualStyle
  2
Dim
 70
    11
 71
     2
 72
     2
 73
     0
 90
        0
 40
-0.6
 41
-30.0
 62
     5
 63
     7
421
 16777215
 74
     1
 91
        4
 64
     7
 65
   257
 75
     1
175
     1
 42
1.0
 92
        8
 66
     7
 43
1.0
 76
     1
 77
     6
 78
     2
 67
     7
 79
     5
170
     0
171
     0
290
     0
174
     0
 93
        1
 44
-50.0
173
     0
291
     1
 45
0.0
1001
ACAD
1000
AcDbSavedByObjectVersion
1070
     0
  0
VISUALSTYLE
  5
39
102
{ACAD_REACTORS
330
2A
102
}
102
{ACAD_XDICTIONARY
360
3C2
102
}
330
2A
100
AcDbVisualStyle
  2
Facepattern
 70
    15
 71
     2
 72
     2
 73
     0
 90
        0
 40
-0.6
 41
-30.0
 62
     5
 63
     7
421
 16777215
 74
     1
 91
        4
 64
     7
 65
   257
 75
     1
175
     1
 42
1.0
 92
        8
 66
     7
 43
1.0
 76
     1
 77
     6
 78
     2
 67
     7
 79
     5
170
     0
171
     0
290
     0
174
     0
 93
        1
 44
0.0
173
     0
291
     1
 45
0.0
1001
ACAD
1000
AcDbSavedByObjectVersion
1070
     0
  0
VISUALSTYLE
  5
2B
102
{ACAD_REACTORS
330
2A
102
}
102
{ACAD_XDICTIONARY
360
3A6
102
}
330
2A
100
AcDbVisualStyle
  2
Flat
 70
     0
 71
     2
 72
     1
 73
     1
 90
        2
 40
-0.6
 41
30.0
 62
     5
 63
     7
421
 16777215
 74
     0
 91
        4
 64
     7
 65
   257
 75
     1
175
     1
 42
1.0
 92
        8
 66
     7
 43
1.0
 76
     1
 77
     6
 78
     2
 67
     7
 79
     5
170
     0
171
     0
290
     0
174
     0
 93
       13
 44
0.0
173
     0
291
     1
 45
0.0
1001
ACAD
1000
AcDbSavedByObjectVersion
1070
     0
  0
VISUALSTYLE
  5
2C
102
{ACAD_REACTORS
330
2A
102
}
102
{ACAD_XDICTIONARY
360
3A8
102
}
330
2A
100
AcDbVisualStyle
  2
FlatWithEdges
 70
     1
 71
     2
 72
     1
 73
     1
 90
        2
 40
-0.6
 41
30.0
 62
     5
 63
     7
421
 16777215
 74
     1
 91
        4
 64
     7
 65
   257
 75
     1
175
     1
 42
1.0
 92
        0
 66
   257
 43
1.0
 76
     1
 77
     6
 78
     2
 67
     7
 79
     5
170
     0
171
     0
290
     0
174
     0
 93
       13
 44
0.0
173
     0
291
     1
 45
0.0
1001
ACAD
1000
AcDbSavedByObjectVersion
1070
     0
  0
VISUALSTYLE
  5
2D
102
{ACAD_REACTORS
330
2A
102
}
102
{ACAD_XDICTIONARY
360
3AA
102
}
330
2A
100
AcDbVisualStyle
  2
Gouraud
 70
     2
 71
     2
 72
     2
 73
     1
 90
        2
 40
-0.6
 41
30.0
 62
     5
 63
     7
421
 16777215
 74
     0
 91
        4
 64
     7
 65
   257
 75
     1
175
     1
 42
1.0
 92
        0
 66
     7
 43
1.0
 76
     1
 77
     6
 78
     2
 67
     7
 79
     5
170
     0
171
     0
290
     0
174
     0
 93
       13
 44
0.0
173
     0
291
     1
 45
0.0
1001
ACAD
1000
AcDbSavedByObjectVersion
1070
     0
  0
VISUALSTYLE
  5
2E
102
{ACAD_REACTORS
330
2A
102
}
102
{ACAD_XDICTIONARY
360
3AC
102
}
330
2A
100
AcDbVisualStyle
  2
GouraudWithEdges
 70
     3
 71
     2
 72
     2
 73
     1
 90
        2
 40
-0.6
 41
30.0
 62
     5
 63
     7
421
 16777215
 74
     1
 91
        4
 64
     7
 65
   257
 75
     1
175
     1
 42
1.0
 92
        0
 66
   257
 43
1.0
 76
     1
 77
     6
 78
     2
 67
     7
 79
     5
170
     0
171
     0
290
     0
174
     0
 93
       13
 44
0.0
173
     0
291
     1
 45
0.0
1001
ACAD
1000
AcDbSavedByObjectVersion
1070
     0
  0
VISUALSTYLE
  5
38
102
{ACAD_REACTORS
330
2A
102
}
102
{ACAD_XDICTIONARY
360
3C0
102
}
330
2A
100
AcDbVisualStyle
  2
Linepattern
 70
    14
 71
     2
 72
     2
 73
     0
 90
        0
 40
-0.6
 41
-30.0
 62
     5
 63
     7
421
 16777215
 74
     1
 91
        4
 64
     7
 65
   257
 75
     7
175
     7
 42
1.0
 92
        8
 66
     7
 43
1.0
 76
     1
 77
     6
 78
     2
 67
     7
 79
     5
170
     0
171
     0
290
     0
174
     0
 93
        1
 44
0.0
173
     0
291
     1
 45
0.0
1001
ACAD
1000
AcDbSavedByObjectVersion
1070
     0
  0
VISUALSTYLE
  5
33
102
{ACAD_REACTORS
330
2A
102
}
102
{ACAD_XDICTIONARY
360
3B6
102
}
330
2A
100
AcDbVisualStyle
  2
Realistic
 70
     8
 71
     2
 72
     2
 73
     0
 90
        0
 40
-0.6
 41
-30.0
 62
     5
 63
     7
421
 16777215
 74
     1
 91
        0
 64
     7
 65
   257
 75
     1
175
     1
 42
1.0
 92
        8
 66
     8
424
  7895160
 43
1.0
 76
     1
 77
     6
 78
     2
 67
     7
 79
     5
170
     0
171
     0
290
     0
174
     0
 93
       13
 44
0.0
173
     0
291
     0
 45
0.0
1001
ACAD
1000
AcDbSavedByObjectVersion
1070
     0
  0
VISUALSTYLE
  5
37
102
{ACAD_REACTORS
330
2A
102
}
102
{ACAD_XDICTIONARY
360
3BE
102
}
330
2A
100
AcDbVisualStyle
  2
Thicken
 70
    13
 71
     2
 72
     2
 73
     0
 90
        0
 40
-0.6
 41
-30.0
 62
     5
 63
     7
421
 16777215
 74
     1
 91
        4
 64
     7
 65
   257
 75
     1
175
     1
 42
1.0
 92
       12
 66
     7
 43
1.0
 76
     1
 77
     6
 78
     2
 67
     7
 79
     5
170
     0
171
     0
290
     0
174
     0
 93
        1
 44
0.0
173
     0
291
     1
 45
0.0
1001
ACAD
1000
AcDbSavedByObjectVersion
1070
     0
  0
DICTIONARY
  5
3C8
330
3D
100
AcDbDictionary
280
     1
281
     1
  3
ACAD_XREC_ROUNDTRIP
360
3C9
  0
DICTIONARY
  5
3C6
330
3C
100
AcDbDictionary
280
     1
281
     1
  3
ACAD_XREC_ROUNDTRIP
360
3C7
  0
DICTIONARY
  5
3CA
330
3E
100
AcDbDictionary
280
     1
281
     1
  3
ACAD_XREC_ROUNDTRIP
360
3CB
  0
DICTIONARY
  5
3AE
330
2F
100
AcDbDictionary
280
     1
281
     1
  3
ACAD_XREC_ROUNDTRIP
360
3AF
  0
DICTIONARY
  5
3B2
330
31
100
AcDbDictionary
280
     1
281
     1
  3
ACAD_XREC_ROUNDTRIP
360
3B3
  0
DICTIONARY
  5
3B0
330
30
100
AcDbDictionary
280
     1
281
     1
  3
ACAD_XREC_ROUNDTRIP
360
3B1
  0
DICTIONARY
  5
3B4
330
32
100
AcDbDictionary
280
     1
281
     1
  3
ACAD_XREC_ROUNDTRIP
360
3B5
  0
DICTIONARY
  5
3BC
330
36
100
AcDbDictionary
280
     1
281
     1
  3
ACAD_XREC_ROUNDTRIP
360
3BD
  0
DICTIONARY
  5
3C4
330
3A
100
AcDbDictionary
280
     1
281
     1
  3
ACAD_XREC_ROUNDTRIP
360
3C5
  0
DICTIONARY
  5
3B8
330
34
100
AcDbDictionary
280
     1
281
     1
  3
ACAD_XREC_ROUNDTRIP
360
3B9
  0
DICTIONARY
  5
3BA
330
35
100
AcDbDictionary
280
     1
281
     1
  3
ACAD_XREC_ROUNDTRIP
360
3BB
  0
DICTIONARY
  5
3C2
330
39
100
AcDbDictionary
280
     1
281
     1
  3
ACAD_XREC_ROUNDTRIP
360
3C3
  0
DICTIONARY
  5
3A6
330
2B
100
AcDbDictionary
280
     1
281
     1
  3
ACAD_XREC_ROUNDTRIP
360
3A7
  0
DICTIONARY
  5
3A8
330
2C
100
AcDbDictionary
280
     1
281
     1
  3
ACAD_XREC_ROUNDTRIP
360
3A9
  0
DICTIONARY
  5
3AA
330
2D
100
AcDbDictionary
280
     1
281
     1
  3
ACAD_XREC_ROUNDTRIP
360
3AB
  0
DICTIONARY
  5
3AC
330
2E
100
AcDbDictionary
280
     1
281
     1
  3
ACAD_XREC_ROUNDTRIP
360
3AD
  0
DICTIONARY
  5
3C0
330
38
100
AcDbDictionary
280
     1
281
     1
  3
ACAD_XREC_ROUNDTRIP
360
3C1
  0
DICTIONARY
  5
3B6
330
33
100
AcDbDictionary
280
     1
281
     1
  3
ACAD_XREC_ROUNDTRIP
360
3B7
  0
DICTIONARY
  5
3BE
330
37
100
AcDbDictionary
280
     1
281
     1
  3
ACAD_XREC_ROUNDTRIP
360
3BF
  0
XRECORD
  5
3C9
102
{ACAD_REACTORS
330
3C8
102
}
330
3C8
100
AcDbXrecord
280
     1
102
MATERIAL
148
0.0
149
0.0
149
0.0
 93
        0
 94
      127
282
     0
 72
     1
 77
     1
171
     1
175
     1
179
     1
273
     0
  0
XRECORD
  5
3C7
102
{ACAD_REACTORS
330
3C6
102
}
330
3C6
100
AcDbXrecord
280
     1
102
MATERIAL
148
0.0
149
0.0
149
0.0
 93
        0
 94
      127
282
     0
 72
     1
 77
     1
171
     1
175
     1
179
     1
273
     0
  0
XRECORD
  5
3CB
102
{ACAD_REACTORS
330
3CA
102
}
330
3CA
100
AcDbXrecord
280
     1
102
MATERIAL
148
0.0
149
0.0
149
0.0
 93
        0
 94
      127
282
     0
 72
     1
 77
     1
171
     1
175
     1
179
     1
273
     0
  0
XRECORD
  5
3AF
102
{ACAD_REACTORS
330
3AE
102
}
330
3AE
100
AcDbXrecord
280
     1
102
RTVSPropertyOp0
 70
     1
102
RTVSPropertyOp1
 70
     1
102
RTVSPropertyOp2
 70
     1
102
RTVSPropertyOp3
 70
     1
102
RTVSPropertyOp4
 70
     1
102
RTVSPropertyOp5
 70
     1
102
RTVSPropertyOp6
 70
     1
102
RTVSPropertyOp7
 70
     1
102
RTVSPropertyOp8
 70
     1
102
RTVSPropertyOp9
 70
     1
102
RTVSPropertyOp10
 70
     1
102
RTVSPropertyOp11
 70
     1
102
RTVSPropertyOp12
 70
     1
102
RTVSPropertyOp13
 70
     1
102
RTVSPropertyOp14
 70
     1
102
RTVSPropertyOp15
 70
     1
102
RTVSPropertyOp16
 70
     1
102
RTVSPropertyOp17
 70
     1
102
RTVSPropertyOp18
 70
     1
102
RTVSPropertyOp19
 70
     1
102
RTVSPropertyOp20
 70
     1
102
RTVSPropertyOp21
 70
     1
102
RTVSPropertyOp22
 70
     1
102
RTVSPropertyOp23
 70
     1
102
RTVSPropertyOp24
 70
     1
102
RTVSPropertyOp25
 70
     1
102
RTVSPropertyOp26
 70
     1
102
RTVSPropertyOp27
 70
     1
102
RTVSPropertyOp28
 70
     1
102
RTVSPropertyOp29
 70
     1
102
RTVSPropertyOp30
 70
     1
102
RTVSPropertyOp31
 70
     1
102
RTVSPropertyOp32
 70
     1
  0
XRECORD
  5
3B3
102
{ACAD_REACTORS
330
3B2
102
}
330
3B2
100
AcDbXrecord
280
     1
102
RTVSPropertyOp0
 70
     1
102
RTVSPropertyOp1
 70
     1
102
RTVSPropertyOp2
 70
     1
102
RTVSPropertyOp3
 70
     1
102
RTVSPropertyOp4
 70
     1
102
RTVSPropertyOp5
 70
     1
102
RTVSPropertyOp6
 70
     1
102
RTVSPropertyOp7
 70
     1
102
RTVSPropertyOp8
 70
     1
102
RTVSPropertyOp9
 70
     1
102
RTVSPropertyOp10
 70
     1
102
RTVSPropertyOp11
 70
     1
102
RTVSPropertyOp12
 70
     1
102
RTVSPropertyOp13
 70
     1
102
RTVSPropertyOp14
 70
     1
102
RTVSPropertyOp15
 70
     1
102
RTVSPropertyOp16
 70
     1
102
RTVSPropertyOp17
 70
     1
102
RTVSPropertyOp18
 70
     1
102
RTVSPropertyOp19
 70
     1
102
RTVSPropertyOp20
 70
     1
102
RTVSPropertyOp21
 70
     1
102
RTVSPropertyOp22
 70
     1
102
RTVSPropertyOp23
 70
     1
102
RTVSPropertyOp24
 70
     1
102
RTVSPropertyOp25
 70
     1
102
RTVSPropertyOp26
 70
     1
102
RTVSPropertyOp27
 70
     1
102
RTVSPropertyOp28
 70
     1
102
RTVSPropertyOp29
 70
     1
102
RTVSPropertyOp30
 70
     1
102
RTVSPropertyOp31
 70
     1
102
RTVSPropertyOp32
 70
     1
  0
XRECORD
  5
3B1
102
{ACAD_REACTORS
330
3B0
102
}
330
3B0
100
AcDbXrecord
280
     1
102
RTVSPropertyOp0
 70
     1
102
RTVSPropertyOp1
 70
     1
102
RTVSPropertyOp2
 70
     1
102
RTVSPropertyOp3
 70
     1
102
RTVSPropertyOp4
 70
     1
102
RTVSPropertyOp5
 70
     1
102
RTVSPropertyOp6
 70
     1
102
RTVSPropertyOp7
 70
     1
102
RTVSPropertyOp8
 70
     1
102
RTVSPropertyOp9
 70
     1
102
RTVSPropertyOp10
 70
     1
102
RTVSPropertyOp11
 70
     1
102
RTVSPropertyOp12
 70
     1
102
RTVSPropertyOp13
 70
     1
102
RTVSPropertyOp14
 70
     1
102
RTVSPropertyOp15
 70
     1
102
RTVSPropertyOp16
 70
     1
102
RTVSPropertyOp17
 70
     1
102
RTVSPropertyOp18
 70
     1
102
RTVSPropertyOp19
 70
     1
102
RTVSPropertyOp20
 70
     1
102
RTVSPropertyOp21
 70
     1
102
RTVSPropertyOp22
 70
     1
102
RTVSPropertyOp23
 70
     1
102
RTVSPropertyOp24
 70
     1
102
RTVSPropertyOp25
 70
     1
102
RTVSPropertyOp26
 70
     1
102
RTVSPropertyOp27
 70
     1
102
RTVSPropertyOp28
 70
     1
102
RTVSPropertyOp29
 70
     1
102
RTVSPropertyOp30
 70
     1
102
RTVSPropertyOp31
 70
     1
102
RTVSPropertyOp32
 70
     1
  0
XRECORD
  5
3B5
102
{ACAD_REACTORS
330
3B4
102
}
330
3B4
100
AcDbXrecord
280
     1
102
RTVSPropertyOp0
 70
     1
102
RTVSPropertyOp1
 70
     1
102
RTVSPropertyOp2
 70
     1
102
RTVSPropertyOp3
 70
     1
102
RTVSPropertyOp4
 70
     1
102
RTVSPropertyOp5
 70
     1
102
RTVSPropertyOp6
 70
     1
102
RTVSPropertyOp7
 70
     1
102
RTVSPropertyOp8
 70
     1
102
RTVSPropertyOp9
 70
     1
102
RTVSPropertyOp10
 70
     1
102
RTVSPropertyOp11
 70
     1
102
RTVSPropertyOp12
 70
     1
102
RTVSPropertyOp13
 70
     1
102
RTVSPropertyOp14
 70
     1
102
RTVSPropertyOp15
 70
     1
102
RTVSPropertyOp16
 70
     1
102
RTVSPropertyOp17
 70
     1
102
RTVSPropertyOp18
 70
     1
102
RTVSPropertyOp19
 70
     1
102
RTVSPropertyOp20
 70
     1
102
RTVSPropertyOp21
 70
     1
102
RTVSPropertyOp22
 70
     1
102
RTVSPropertyOp23
 70
     1
102
RTVSPropertyOp24
 70
     1
102
RTVSPropertyOp25
 70
     1
102
RTVSPropertyOp26
 70
     1
102
RTVSPropertyOp27
 70
     1
102
RTVSPropertyOp28
 70
     1
102
RTVSPropertyOp29
 70
     1
102
RTVSPropertyOp30
 70
     1
102
RTVSPropertyOp31
 70
     1
102
RTVSPropertyOp32
 70
     1
  0
XRECORD
  5
3BD
102
{ACAD_REACTORS
330
3BC
102
}
330
3BC
100
AcDbXrecord
280
     1
102
RTVSPropertyOp0
 70
     1
102
RTVSPropertyOp1
 70
     1
102
RTVSPropertyOp2
 70
     1
102
RTVSPropertyOp3
 70
     1
102
RTVSPropertyOp4
 70
     1
102
RTVSPropertyOp5
 70
     1
102
RTVSPropertyOp6
 70
     1
102
RTVSPropertyOp7
 70
     1
102
RTVSPropertyOp8
 70
     1
102
RTVSPropertyOp9
 70
     1
102
RTVSPropertyOp10
 70
     1
102
RTVSPropertyOp11
 70
     1
102
RTVSPropertyOp12
 70
     1
102
RTVSPropertyOp13
 70
     1
102
RTVSPropertyOp14
 70
     1
102
RTVSPropertyOp15
 70
     1
102
RTVSPropertyOp16
 70
     1
102
RTVSPropertyOp17
 70
     1
102
RTVSPropertyOp18
 70
     1
102
RTVSPropertyOp19
 70
     1
102
RTVSPropertyOp20
 70
     1
102
RTVSPropertyOp21
 70
     1
102
RTVSPropertyOp22
 70
     1
102
RTVSPropertyOp23
 70
     1
102
RTVSPropertyOp24
 70
     1
102
RTVSPropertyOp25
 70
     1
102
RTVSPropertyOp26
 70
     1
102
RTVSPropertyOp27
 70
     1
102
RTVSPropertyOp28
 70
     1
102
RTVSPropertyOp29
 70
     1
102
RTVSPropertyOp30
 70
     1
102
RTVSPropertyOp31
 70
     1
102
RTVSPropertyOp32
 70
     1
  0
XRECORD
  5
3C5
102
{ACAD_REACTORS
330
3C4
102
}
330
3C4
100
AcDbXrecord
280
     1
102
RTVSPropertyOp0
 70
     1
102
RTVSPropertyOp1
 70
     1
102
RTVSPropertyOp2
 70
     1
102
RTVSPropertyOp3
 70
     1
102
RTVSPropertyOp4
 70
     1
102
RTVSPropertyOp5
 70
     1
102
RTVSPropertyOp6
 70
     1
102
RTVSPropertyOp7
 70
     1
102
RTVSPropertyOp8
 70
     1
102
RTVSPropertyOp9
 70
     1
102
RTVSPropertyOp10
 70
     1
102
RTVSPropertyOp11
 70
     1
102
RTVSPropertyOp12
 70
     1
102
RTVSPropertyOp13
 70
     1
102
RTVSPropertyOp14
 70
     1
102
RTVSPropertyOp15
 70
     1
102
RTVSPropertyOp16
 70
     1
102
RTVSPropertyOp17
 70
     1
102
RTVSPropertyOp18
 70
     1
102
RTVSPropertyOp19
 70
     1
102
RTVSPropertyOp20
 70
     1
102
RTVSPropertyOp21
 70
     1
102
RTVSPropertyOp22
 70
     1
102
RTVSPropertyOp23
 70
     1
102
RTVSPropertyOp24
 70
     1
102
RTVSPropertyOp25
 70
     1
102
RTVSPropertyOp26
 70
     1
102
RTVSPropertyOp27
 70
     1
102
RTVSPropertyOp28
 70
     1
102
RTVSPropertyOp29
 70
     1
102
RTVSPropertyOp30
 70
     1
102
RTVSPropertyOp31
 70
     1
102
RTVSPropertyOp32
 70
     1
  0
XRECORD
  5
3B9
102
{ACAD_REACTORS
330
3B8
102
}
330
3B8
100
AcDbXrecord
280
     1
102
RTVSPropertyOp0
 70
     1
102
RTVSPropertyOp1
 70
     1
102
RTVSPropertyOp2
 70
     1
102
RTVSPropertyOp3
 70
     1
102
RTVSPropertyOp4
 70
     1
102
RTVSPropertyOp5
 70
     1
102
RTVSPropertyOp6
 70
     1
102
RTVSPropertyOp7
 70
     1
102
RTVSPropertyOp8
 70
     1
102
RTVSPropertyOp9
 70
     1
102
RTVSPropertyOp10
 70
     1
102
RTVSPropertyOp11
 70
     1
102
RTVSPropertyOp12
 70
     1
102
RTVSPropertyOp13
 70
     1
102
RTVSPropertyOp14
 70
     1
102
RTVSPropertyOp15
 70
     1
102
RTVSPropertyOp16
 70
     1
102
RTVSPropertyOp17
 70
     1
102
RTVSPropertyOp18
 70
     1
102
RTVSPropertyOp19
 70
     1
102
RTVSPropertyOp20
 70
     1
102
RTVSPropertyOp21
 70
     1
102
RTVSPropertyOp22
 70
     1
102
RTVSPropertyOp23
 70
     1
102
RTVSPropertyOp24
 70
     1
102
RTVSPropertyOp25
 70
     1
102
RTVSPropertyOp26
 70
     1
102
RTVSPropertyOp27
 70
     1
102
RTVSPropertyOp28
 70
     1
102
RTVSPropertyOp29
 70
     1
102
RTVSPropertyOp30
 70
     1
102
RTVSPropertyOp31
 70
     1
102
RTVSPropertyOp32
 70
     1
  0
XRECORD
  5
3BB
102
{ACAD_REACTORS
330
3BA
102
}
330
3BA
100
AcDbXrecord
280
     1
102
RTVSPropertyOp0
 70
     1
102
RTVSPropertyOp1
 70
     1
102
RTVSPropertyOp2
 70
     1
102
RTVSPropertyOp3
 70
     1
102
RTVSPropertyOp4
 70
     1
102
RTVSPropertyOp5
 70
     1
102
RTVSPropertyOp6
 70
     1
102
RTVSPropertyOp7
 70
     1
102
RTVSPropertyOp8
 70
     1
102
RTVSPropertyOp9
 70
     1
102
RTVSPropertyOp10
 70
     1
102
RTVSPropertyOp11
 70
     1
102
RTVSPropertyOp12
 70
     1
102
RTVSPropertyOp13
 70
     1
102
RTVSPropertyOp14
 70
     1
102
RTVSPropertyOp15
 70
     1
102
RTVSPropertyOp16
 70
     1
102
RTVSPropertyOp17
 70
     1
102
RTVSPropertyOp18
 70
     1
102
RTVSPropertyOp19
 70
     1
102
RTVSPropertyOp20
 70
     1
102
RTVSPropertyOp21
 70
     1
102
RTVSPropertyOp22
 70
     1
102
RTVSPropertyOp23
 70
     1
102
RTVSPropertyOp24
 70
     1
102
RTVSPropertyOp25
 70
     1
102
RTVSPropertyOp26
 70
     1
102
RTVSPropertyOp27
 70
     1
102
RTVSPropertyOp28
 70
     1
102
RTVSPropertyOp29
 70
     1
102
RTVSPropertyOp30
 70
     1
102
RTVSPropertyOp31
 70
     1
102
RTVSPropertyOp32
 70
     1
  0
XRECORD
  5
3C3
102
{ACAD_REACTORS
330
3C2
102
}
330
3C2
100
AcDbXrecord
280
     1
102
RTVSPropertyOp0
 70
     1
102
RTVSPropertyOp1
 70
     1
102
RTVSPropertyOp2
 70
     1
102
RTVSPropertyOp3
 70
     1
102
RTVSPropertyOp4
 70
     1
102
RTVSPropertyOp5
 70
     1
102
RTVSPropertyOp6
 70
     1
102
RTVSPropertyOp7
 70
     1
102
RTVSPropertyOp8
 70
     1
102
RTVSPropertyOp9
 70
     1
102
RTVSPropertyOp10
 70
     1
102
RTVSPropertyOp11
 70
     1
102
RTVSPropertyOp12
 70
     1
102
RTVSPropertyOp13
 70
     1
102
RTVSPropertyOp14
 70
     1
102
RTVSPropertyOp15
 70
     1
102
RTVSPropertyOp16
 70
     1
102
RTVSPropertyOp17
 70
     1
102
RTVSPropertyOp18
 70
     1
102
RTVSPropertyOp19
 70
     1
102
RTVSPropertyOp20
 70
     1
102
RTVSPropertyOp21
 70
     1
102
RTVSPropertyOp22
 70
     1
102
RTVSPropertyOp23
 70
     1
102
RTVSPropertyOp24
 70
     1
102
RTVSPropertyOp25
 70
     1
102
RTVSPropertyOp26
 70
     1
102
RTVSPropertyOp27
 70
     1
102
RTVSPropertyOp28
 70
     1
102
RTVSPropertyOp29
 70
     1
102
RTVSPropertyOp30
 70
     1
102
RTVSPropertyOp31
 70
     1
102
RTVSPropertyOp32
 70
     1
  0
XRECORD
  5
3A7
102
{ACAD_REACTORS
330
3A6
102
}
330
3A6
100
AcDbXrecord
280
     1
102
RTVSPropertyOp0
 70
     1
102
RTVSPropertyOp1
 70
     1
102
RTVSPropertyOp2
 70
     1
102
RTVSPropertyOp3
 70
     1
102
RTVSPropertyOp4
 70
     1
102
RTVSPropertyOp5
 70
     1
102
RTVSPropertyOp6
 70
     1
102
RTVSPropertyOp7
 70
     1
102
RTVSPropertyOp8
 70
     1
102
RTVSPropertyOp9
 70
     1
102
RTVSPropertyOp10
 70
     1
102
RTVSPropertyOp11
 70
     1
102
RTVSPropertyOp12
 70
     1
102
RTVSPropertyOp13
 70
     1
102
RTVSPropertyOp14
 70
     1
102
RTVSPropertyOp15
 70
     1
102
RTVSPropertyOp16
 70
     1
102
RTVSPropertyOp17
 70
     1
102
RTVSPropertyOp18
 70
     1
102
RTVSPropertyOp19
 70
     1
102
RTVSPropertyOp20
 70
     1
102
RTVSPropertyOp21
 70
     1
102
RTVSPropertyOp22
 70
     1
102
RTVSPropertyOp23
 70
     1
102
RTVSPropertyOp24
 70
     1
102
RTVSPropertyOp25
 70
     1
102
RTVSPropertyOp26
 70
     1
102
RTVSPropertyOp27
 70
     1
102
RTVSPropertyOp28
 70
     1
102
RTVSPropertyOp29
 70
     1
102
RTVSPropertyOp30
 70
     1
102
RTVSPropertyOp31
 70
     1
102
RTVSPropertyOp32
 70
     1
  0
XRECORD
  5
3A9
102
{ACAD_REACTORS
330
3A8
102
}
330
3A8
100
AcDbXrecord
280
     1
102
RTVSPropertyOp0
 70
     1
102
RTVSPropertyOp1
 70
     1
102
RTVSPropertyOp2
 70
     1
102
RTVSPropertyOp3
 70
     1
102
RTVSPropertyOp4
 70
     1
102
RTVSPropertyOp5
 70
     1
102
RTVSPropertyOp6
 70
     1
102
RTVSPropertyOp7
 70
     1
102
RTVSPropertyOp8
 70
     1
102
RTVSPropertyOp9
 70
     1
102
RTVSPropertyOp10
 70
     1
102
RTVSPropertyOp11
 70
     1
102
RTVSPropertyOp12
 70
     1
102
RTVSPropertyOp13
 70
     1
102
RTVSPropertyOp14
 70
     1
102
RTVSPropertyOp15
 70
     1
102
RTVSPropertyOp16
 70
     1
102
RTVSPropertyOp17
 70
     1
102
RTVSPropertyOp18
 70
     1
102
RTVSPropertyOp19
 70
     1
102
RTVSPropertyOp20
 70
     1
102
RTVSPropertyOp21
 70
     1
102
RTVSPropertyOp22
 70
     1
102
RTVSPropertyOp23
 70
     1
102
RTVSPropertyOp24
 70
     1
102
RTVSPropertyOp25
 70
     1
102
RTVSPropertyOp26
 70
     1
102
RTVSPropertyOp27
 70
     1
102
RTVSPropertyOp28
 70
     1
102
RTVSPropertyOp29
 70
     1
102
RTVSPropertyOp30
 70
     1
102
RTVSPropertyOp31
 70
     1
102
RTVSPropertyOp32
 70
     1
  0
XRECORD
  5
3AB
102
{ACAD_REACTORS
330
3AA
102
}
330
3AA
100
AcDbXrecord
280
     1
102
RTVSPropertyOp0
 70
     1
102
RTVSPropertyOp1
 70
     1
102
RTVSPropertyOp2
 70
     1
102
RTVSPropertyOp3
 70
     1
102
RTVSPropertyOp4
 70
     1
102
RTVSPropertyOp5
 70
     1
102
RTVSPropertyOp6
 70
     1
102
RTVSPropertyOp7
 70
     1
102
RTVSPropertyOp8
 70
     1
102
RTVSPropertyOp9
 70
     1
102
RTVSPropertyOp10
 70
     1
102
RTVSPropertyOp11
 70
     1
102
RTVSPropertyOp12
 70
     1
102
RTVSPropertyOp13
 70
     1
102
RTVSPropertyOp14
 70
     1
102
RTVSPropertyOp15
 70
     1
102
RTVSPropertyOp16
 70
     1
102
RTVSPropertyOp17
 70
     1
102
RTVSPropertyOp18
 70
     1
102
RTVSPropertyOp19
 70
     1
102
RTVSPropertyOp20
 70
     1
102
RTVSPropertyOp21
 70
     1
102
RTVSPropertyOp22
 70
     1
102
RTVSPropertyOp23
 70
     1
102
RTVSPropertyOp24
 70
     1
102
RTVSPropertyOp25
 70
     1
102
RTVSPropertyOp26
 70
     1
102
RTVSPropertyOp27
 70
     1
102
RTVSPropertyOp28
 70
     1
102
RTVSPropertyOp29
 70
     1
102
RTVSPropertyOp30
 70
     1
102
RTVSPropertyOp31
 70
     1
102
RTVSPropertyOp32
 70
     1
  0
XRECORD
  5
3AD
102
{ACAD_REACTORS
330
3AC
102
}
330
3AC
100
AcDbXrecord
280
     1
102
RTVSPropertyOp0
 70
     1
102
RTVSPropertyOp1
 70
     1
102
RTVSPropertyOp2
 70
     1
102
RTVSPropertyOp3
 70
     1
102
RTVSPropertyOp4
 70
     1
102
RTVSPropertyOp5
 70
     1
102
RTVSPropertyOp6
 70
     1
102
RTVSPropertyOp7
 70
     1
102
RTVSPropertyOp8
 70
     1
102
RTVSPropertyOp9
 70
     1
102
RTVSPropertyOp10
 70
     1
102
RTVSPropertyOp11
 70
     1
102
RTVSPropertyOp12
 70
     1
102
RTVSPropertyOp13
 70
     1
102
RTVSPropertyOp14
 70
     1
102
RTVSPropertyOp15
 70
     1
102
RTVSPropertyOp16
 70
     1
102
RTVSPropertyOp17
 70
     1
102
RTVSPropertyOp18
 70
     1
102
RTVSPropertyOp19
 70
     1
102
RTVSPropertyOp20
 70
     1
102
RTVSPropertyOp21
 70
     1
102
RTVSPropertyOp22
 70
     1
102
RTVSPropertyOp23
 70
     1
102
RTVSPropertyOp24
 70
     1
102
RTVSPropertyOp25
 70
     1
102
RTVSPropertyOp26
 70
     1
102
RTVSPropertyOp27
 70
     1
102
RTVSPropertyOp28
 70
     1
102
RTVSPropertyOp29
 70
     1
102
RTVSPropertyOp30
 70
     1
102
RTVSPropertyOp31
 70
     1
102
RTVSPropertyOp32
 70
     1
  0
XRECORD
  5
3C1
102
{ACAD_REACTORS
330
3C0
102
}
330
3C0
100
AcDbXrecord
280
     1
102
RTVSPropertyOp0
 70
     1
102
RTVSPropertyOp1
 70
     1
102
RTVSPropertyOp2
 70
     1
102
RTVSPropertyOp3
 70
     1
102
RTVSPropertyOp4
 70
     1
102
RTVSPropertyOp5
 70
     1
102
RTVSPropertyOp6
 70
     1
102
RTVSPropertyOp7
 70
     1
102
RTVSPropertyOp8
 70
     1
102
RTVSPropertyOp9
 70
     1
102
RTVSPropertyOp10
 70
     1
102
RTVSPropertyOp11
 70
     1
102
RTVSPropertyOp12
 70
     1
102
RTVSPropertyOp13
 70
     1
102
RTVSPropertyOp14
 70
     1
102
RTVSPropertyOp15
 70
     1
102
RTVSPropertyOp16
 70
     1
102
RTVSPropertyOp17
 70
     1
102
RTVSPropertyOp18
 70
     1
102
RTVSPropertyOp19
 70
     1
102
RTVSPropertyOp20
 70
     1
102
RTVSPropertyOp21
 70
     1
102
RTVSPropertyOp22
 70
     1
102
RTVSPropertyOp23
 70
     1
102
RTVSPropertyOp24
 70
     1
102
RTVSPropertyOp25
 70
     1
102
RTVSPropertyOp26
 70
     1
102
RTVSPropertyOp27
 70
     1
102
RTVSPropertyOp28
 70
     1
102
RTVSPropertyOp29
 70
     1
102
RTVSPropertyOp30
 70
     1
102
RTVSPropertyOp31
 70
     1
102
RTVSPropertyOp32
 70
     1
  0
XRECORD
  5
3B7
102
{ACAD_REACTORS
330
3B6
102
}
330
3B6
100
AcDbXrecord
280
     1
102
RTVSPropertyOp0
 70
     1
102
RTVSPropertyOp1
 70
     1
102
RTVSPropertyOp2
 70
     1
102
RTVSPropertyOp3
 70
     1
102
RTVSPropertyOp4
 70
     1
102
RTVSPropertyOp5
 70
     1
102
RTVSPropertyOp6
 70
     1
102
RTVSPropertyOp7
 70
     1
102
RTVSPropertyOp8
 70
     1
102
RTVSPropertyOp9
 70
     1
102
RTVSPropertyOp10
 70
     1
102
RTVSPropertyOp11
 70
     1
102
RTVSPropertyOp12
 70
     1
102
RTVSPropertyOp13
 70
     1
102
RTVSPropertyOp14
 70
     1
102
RTVSPropertyOp15
 70
     1
102
RTVSPropertyOp16
 70
     1
102
RTVSPropertyOp17
 70
     1
102
RTVSPropertyOp18
 70
     1
102
RTVSPropertyOp19
 70
     1
102
RTVSPropertyOp20
 70
     1
102
RTVSPropertyOp21
 70
     1
102
RTVSPropertyOp22
 70
     1
102
RTVSPropertyOp23
 70
     1
102
RTVSPropertyOp24
 70
     1
102
RTVSPropertyOp25
 70
     1
102
RTVSPropertyOp26
 70
     1
102
RTVSPropertyOp27
 70
     1
102
RTVSPropertyOp28
 70
     1
102
RTVSPropertyOp29
 70
     1
102
RTVSPropertyOp30
 70
     1
102
RTVSPropertyOp31
 70
     1
102
RTVSPropertyOp32
 70
     1
  0
XRECORD
  5
3BF
102
{ACAD_REACTORS
330
3BE
102
}
330
3BE
100
AcDbXrecord
280
     1
102
RTVSPropertyOp0
 70
     1
102
RTVSPropertyOp1
 70
     1
102
RTVSPropertyOp2
 70
     1
102
RTVSPropertyOp3
 70
     1
102
RTVSPropertyOp4
 70
     1
102
RTVSPropertyOp5
 70
     1
102
RTVSPropertyOp6
 70
     1
102
RTVSPropertyOp7
 70
     1
102
RTVSPropertyOp8
 70
     1
102
RTVSPropertyOp9
 70
     1
102
RTVSPropertyOp10
 70
     1
102
RTVSPropertyOp11
 70
     1
102
RTVSPropertyOp12
 70
     1
102
RTVSPropertyOp13
 70
     1
102
RTVSPropertyOp14
 70
     1
102
RTVSPropertyOp15
 70
     1
102
RTVSPropertyOp16
 70
     1
102
RTVSPropertyOp17
 70
     1
102
RTVSPropertyOp18
 70
     1
102
RTVSPropertyOp19
 70
     1
102
RTVSPropertyOp20
 70
     1
102
RTVSPropertyOp21
 70
     1
102
RTVSPropertyOp22
 70
     1
102
RTVSPropertyOp23
 70
     1
102
RTVSPropertyOp24
 70
     1
102
RTVSPropertyOp25
 70
     1
102
RTVSPropertyOp26
 70
     1
102
RTVSPropertyOp27
 70
     1
102
RTVSPropertyOp28
 70
     1
102
RTVSPropertyOp29
 70
     1
102
RTVSPropertyOp30
 70
     1
102
RTVSPropertyOp31
 70
     1
102
RTVSPropertyOp32
 70
     1
  0
ENDSEC
  0
EOF
