  0
SECTION
  2
HEADER
  9
$ACADVER
  1
AC1018
  9
$ACADMAINTVER
 70
     0
  9
$DWGCODEPAGE
  3
ANSI_1252
  9
$INSBASE
 10
0.0
 20
0.0
 30
0.0
  9
$EXTMIN
 10
-242.5704228722063
 20
17.07105506196933
 30
0.0
  9
$EXTMAX
 10
54.42957712779179
 20
227.0710550619695
 30
0.0
  9
$LIMMIN
 10
0.0
 20
0.0
  9
$LIMMAX
 10
12.0
 20
9.0
  9
$ORTHOMODE
 70
     0
  9
$REGENMODE
 70
     1
  9
$FILLMODE
 70
     1
  9
$QTEXTMODE
 70
     0
  9
$MIRRTEXT
 70
     1
  9
$LTSCALE
 40
1.0
  9
$ATTMODE
 70
     1
  9
$TEXTSIZE
 40
0.2
  9
$TRACEWID
 40
0.05
  9
$TEXTSTYLE
  7
Standard
  9
$CLAYER
  8
0
  9
$CELTYPE
  6
ByLayer
  9
$CECOLOR
 62
   256
  9
$CELTSCALE
 40
1.0
  9
$DISPSILH
 70
     0
  9
$DIMSCALE
 40
1.0
  9
$DIMASZ
 40
0.18
  9
$DIMEXO
 40
0.0625
  9
$DIMDLI
 40
0.38
  9
$DIMRND
 40
0.0
  9
$DIMDLE
 40
0.0
  9
$DIMEXE
 40
0.18
  9
$DIMTP
 40
0.0
  9
$DIMTM
 40
0.0
  9
$DIMTXT
 40
0.18
  9
$DIMCEN
 40
0.09
  9
$DIMTSZ
 40
0.0
  9
$DIMTOL
 70
     0
  9
$DIMLIM
 70
     0
  9
$DIMTIH
 70
     1
  9
$DIMTOH
 70
     1
  9
$DIMSE1
 70
     0
  9
$DIMSE2
 70
     0
  9
$DIMTAD
 70
     0
  9
$DIMZIN
 70
     0
  9
$DIMBLK
  1

  9
$DIMASO
 70
     1
  9
$DIMSHO
 70
     1
  9
$DIMPOST
  1

  9
$DIMAPOST
  1

  9
$DIMALT
 70
     0
  9
$DIMALTD
 70
     2
  9
$DIMALTF
 40
25.4
  9
$DIMLFAC
 40
1.0
  9
$DIMTOFL
 70
     0
  9
$DIMTVP
 40
0.0
  9
$DIMTIX
 70
     0
  9
$DIMSOXD
 70
     0
  9
$DIMSAH
 70
     0
  9
$DIMBLK1
  1

  9
$DIMBLK2
  1

  9
$DIMSTYLE
  2
Standard
  9
$DIMCLRD
 70
     0
  9
$DIMCLRE
 70
     0
  9
$DIMCLRT
 70
     0
  9
$DIMTFAC
 40
1.0
  9
$DIMGAP
 40
0.09
  9
$DIMJUST
 70
     0
  9
$DIMSD1
 70
     0
  9
$DIMSD2
 70
     0
  9
$DIMTOLJ
 70
     1
  9
$DIMTZIN
 70
     0
  9
$DIMALTZ
 70
     0
  9
$DIMALTTZ
 70
     0
  9
$DIMUPT
 70
     0
  9
$DIMDEC
 70
     4
  9
$DIMTDEC
 70
     4
  9
$DIMALTU
 70
     2
  9
$DIMALTTD
 70
     2
  9
$DIMTXSTY
  7
Standard
  9
$DIMAUNIT
 70
     0
  9
$DIMADEC
 70
     0
  9
$DIMALTRND
 40
0.0
  9
$DIMAZIN
 70
     0
  9
$DIMDSEP
 70
    46
  9
$DIMATFIT
 70
     3
  9
$DIMFRAC
 70
     0
  9
$DIMLDRBLK
  1

  9
$DIMLUNIT
 70
     2
  9
$DIMLWD
 70
    -2
  9
$DIMLWE
 70
    -2
  9
$DIMTMOVE
 70
     0
  9
$LUNITS
 70
     2
  9
$LUPREC
 70
     4
  9
$SKETCHINC
 40
0.1
  9
$FILLETRAD
 40
0.5
  9
$AUNITS
 70
     0
  9
$AUPREC
 70
     0
  9
$MENU
  1
.
  9
$ELEVATION
 40
0.0
  9
$PELEVATION
 40
0.0
  9
$THICKNESS
 40
0.0
  9
$LIMCHECK
 70
     0
  9
$CHAMFERA
 40
0.5
  9
$CHAMFERB
 40
0.5
  9
$CHAMFERC
 40
1.0
  9
$CHAMFERD
 40
0.0
  9
$SKPOLY
 70
     0
  9
$TDCREATE
 40
2458193.549881157
  9
$TDUCREATE
 40
2458193.508214491
  9
$TDUPDATE
 40
2458193.549881528
  9
$TDUUPDATE
 40
2458193.508214861
  9
$TDINDWG
 40
0.0000000116
  9
$TDUSRTIMER
 40
0.0000000116
  9
$USRTIMER
 70
     1
  9
$ANGBASE
 50
0.0
  9
$ANGDIR
 70
     0
  9
$PDMODE
 70
     0
  9
$PDSIZE
 40
0.0
  9
$PLINEWID
 40
0.0
  9
$SPLFRAME
 70
     0
  9
$SPLINETYPE
 70
     6
  9
$SPLINESEGS
 70
     8
  9
$HANDSEED
  5
267
  9
$SURFTAB1
 70
     6
  9
$SURFTAB2
 70
     6
  9
$SURFTYPE
 70
     6
  9
$SURFU
 70
     6
  9
$SURFV
 70
     6
  9
$UCSBASE
  2

  9
$UCSNAME
  2

  9
$UCSORG
 10
0.0
 20
0.0
 30
0.0
  9
$UCSXDIR
 10
1.0
 20
0.0
 30
0.0
  9
$UCSYDIR
 10
0.0
 20
1.0
 30
0.0
  9
$UCSORTHOREF
  2

  9
$UCSORTHOVIEW
 70
     0
  9
$UCSORGTOP
 10
0.0
 20
0.0
 30
0.0
  9
$UCSORGBOTTOM
 10
0.0
 20
0.0
 30
0.0
  9
$UCSORGLEFT
 10
0.0
 20
0.0
 30
0.0
  9
$UCSORGRIGHT
 10
0.0
 20
0.0
 30
0.0
  9
$UCSORGFRONT
 10
0.0
 20
0.0
 30
0.0
  9
$UCSORGBACK
 10
0.0
 20
0.0
 30
0.0
  9
$PUCSBASE
  2

  9
$PUCSNAME
  2

  9
$PUCSORG
 10
0.0
 20
0.0
 30
0.0
  9
$PUCSXDIR
 10
1.0
 20
0.0
 30
0.0
  9
$PUCSYDIR
 10
0.0
 20
1.0
 30
0.0
  9
$PUCSORTHOREF
  2

  9
$PUCSORTHOVIEW
 70
     0
  9
$PUCSORGTOP
 10
0.0
 20
0.0
 30
0.0
  9
$PUCSORGBOTTOM
 10
0.0
 20
0.0
 30
0.0
  9
$PUCSORGLEFT
 10
0.0
 20
0.0
 30
0.0
  9
$PUCSORGRIGHT
 10
0.0
 20
0.0
 30
0.0
  9
$PUCSORGFRONT
 10
0.0
 20
0.0
 30
0.0
  9
$PUCSORGBACK
 10
0.0
 20
0.0
 30
0.0
  9
$USERI1
 70
     0
  9
$USERI2
 70
     0
  9
$USERI3
 70
     0
  9
$USERI4
 70
     0
  9
$USERI5
 70
     0
  9
$USERR1
 40
18.1
  9
$USERR2
 40
0.0
  9
$USERR3
 40
0.0
  9
$USERR4
 40
0.0
  9
$USERR5
 40
0.0
  9
$WORLDVIEW
 70
     1
  9
$SHADEDGE
 70
     3
  9
$SHADEDIF
 70
    70
  9
$TILEMODE
 70
     1
  9
$MAXACTVP
 70
    64
  9
$PINSBASE
 10
0.0
 20
0.0
 30
0.0
  9
$PLIMCHECK
 70
     0
  9
$PEXTMIN
 10
1.00000000000000E+20
 20
1.00000000000000E+20
 30
1.00000000000000E+20
  9
$PEXTMAX
 10
-1.00000000000000E+20
 20
-1.00000000000000E+20
 30
-1.00000000000000E+20
  9
$PLIMMIN
 10
0.0
 20
0.0
  9
$PLIMMAX
 10
12.0
 20
9.0
  9
$UNITMODE
 70
     0
  9
$VISRETAIN
 70
     1
  9
$PLINEGEN
 70
     0
  9
$PSLTSCALE
 70
     1
  9
$TREEDEPTH
 70
  3020
  9
$CMLSTYLE
  2
Standard
  9
$CMLJUST
 70
     0
  9
$CMLSCALE
 40
1.0
  9
$PROXYGRAPHICS
 70
     1
  9
$MEASUREMENT
 70
     1
  9
$CELWEIGHT
370
    -1
  9
$ENDCAPS
280
     0
  9
$JOINSTYLE
280
     0
  9
$LWDISPLAY
290
     0
  9
$INSUNITS
 70
     4
  9
$HYPERLINKBASE
  1

  9
$STYLESHEET
  1

  9
$XEDIT
290
     1
  9
$CEPSNTYPE
380
     0
  9
$PSTYLEMODE
290
     1
  9
$FINGERPRINTGUID
  2
{4F5C525C-AD3D-4698-BDB3-45112FBE1712}
  9
$VERSIONGUID
  2
{FAEB1C32-E019-11D5-929B-00C0DF256EC4}
  9
$EXTNAMES
290
     1
  9
$PSVPSCALE
 40
0.0
  9
$OLESTARTUP
290
     0
  9
$SORTENTS
280
   127
  9
$INDEXCTL
280
     0
  9
$HIDETEXT
280
     1
  9
$XCLIPFRAME
290
     0
  9
$HALOGAP
280
     0
  9
$OBSCOLOR
 70
   257
  9
$OBSLTYPE
280
     0
  9
$INTERSECTIONDISPLAY
280
     0
  9
$INTERSECTIONCOLOR
 70
   257
  9
$DIMASSOC
280
     2
  9
$PROJECTNAME
  1

  0
ENDSEC
  0
SECTION
  2
CLASSES
  0
CLASS
  1
ACDBDICTIONARYWDFLT
  2
AcDbDictionaryWithDefault
  3
ObjectDBX Classes
 90
        0
 91
        4
280
     0
281
     0
  0
CLASS
  1
VISUALSTYLE
  2
AcDbVisualStyle
  3
ObjectDBX Classes
 90
     4095
 91
        4
280
     0
281
     0
  0
CLASS
  1
MATERIAL
  2
AcDbMaterial
  3
ObjectDBX Classes
 90
     1153
 91
        4
280
     0
281
     0
  0
ENDSEC
  0
SECTION
  2
TABLES
  0
TABLE
  2
VPORT
  5
8
330
0
100
AcDbSymbolTable
 70
     1
  0
VPORT
  5
29
330
8
100
AcDbSymbolTableRecord
100
AcDbViewportTableRecord
  2
*Active
 70
     0
 10
0.0
 20
0.0
 11
1.0
 21
1.0
 12
-94.07042287220726
 22
122.0710550619694
 13
0.0
 23
0.0
 14
0.5
 24
0.5
 15
0.5
 25
0.5
 16
0.0
 26
0.0
 36
1.0
 17
0.0
 27
0.0
 37
0.0
 40
231.0000000000002
 41
1.60267857142857
 42
50.0
 43
0.0
 44
0.0
 50
0.0
 51
0.0
 71
     0
 72
   100
 73
     1
 74
     3
 75
     0
 76
     0
 77
     0
 78
     0
281
     0
 65
     1
110
0.0
120
0.0
130
0.0
111
1.0
121
0.0
131
0.0
112
0.0
122
1.0
132
0.0
 79
     0
146
0.0
  0
ENDTAB
  0
TABLE
  2
LTYPE
  5
5
330
0
100
AcDbSymbolTable
 70
     8
  0
LTYPE
  5
14
330
5
100
AcDbSymbolTableRecord
100
AcDbLinetypeTableRecord
  2
ByBlock
 70
     0
  3

 72
    65
 73
     0
 40
0.0
  0
LTYPE
  5
15
330
5
100
AcDbSymbolTableRecord
100
AcDbLinetypeTableRecord
  2
ByLayer
 70
     0
  3

 72
    65
 73
     0
 40
0.0
  0
LTYPE
  5
16
330
5
100
AcDbSymbolTableRecord
100
AcDbLinetypeTableRecord
  2
Continuous
 70
     0
  3
Solid line
 72
    65
 73
     0
 40
0.0
  0
LTYPE
  5
3F
330
5
100
AcDbSymbolTableRecord
100
AcDbLinetypeTableRecord
  2
DASHED
 70
     0
  3
Dashed
 72
    65
 73
     2
 40
15.0
 49
7.0
 74
     0
 49
-8.0
 74
     0
  0
LTYPE
  5
40
330
5
100
AcDbSymbolTableRecord
100
AcDbLinetypeTableRecord
  2
DOTTED
 70
     0
  3
Dotted
 72
    65
 73
     2
 40
1.0
 49
0.0
 74
     0
 49
-1.0
 74
     0
  0
LTYPE
  5
41
330
5
100
AcDbSymbolTableRecord
100
AcDbLinetypeTableRecord
  2
DOT_CENTER
 70
     0
  3
Dot_Center
 72
    65
 73
     4
 40
14.0
 49
12.0
 74
     0
 49
-1.0
 74
     0
 49
0.0
 74
     0
 49
-1.0
 74
     0
  0
LTYPE
  5
42
330
5
100
AcDbSymbolTableRecord
100
AcDbLinetypeTableRecord
  2
LONG_DASHED
 70
     0
  3
Long_Dashed
 72
    65
 73
     2
 40
15.0
 49
10.0
 74
     0
 49
-5.0
 74
     0
  0
LTYPE
  5
43
330
5
100
AcDbSymbolTableRecord
100
AcDbLinetypeTableRecord
  2
DASH_CENTER
 70
     0
  3
Dash_Center
 72
    65
 73
     4
 40
14.0
 49
11.0
 74
     0
 49
-1.0
 74
     0
 49
1.0
 74
     0
 49
-1.0
 74
     0
  0
LTYPE
  5
44
330
5
100
AcDbSymbolTableRecord
100
AcDbLinetypeTableRecord
  2
PHANTOM
 70
     0
  3
Phantom
 72
    65
 73
     6
 40
13.0
 49
10.0
 74
     0
 49
-1.0
 74
     0
 49
0.0
 74
     0
 49
-1.0
 74
     0
 49
0.0
 74
     0
 49
-1.0
 74
     0
  0
LTYPE
  5
45
330
5
100
AcDbSymbolTableRecord
100
AcDbLinetypeTableRecord
  2
CENTER_DASH_DASH
 70
     0
  3
Center_Dash_Dash
 72
    65
 73
     6
 40
14.0
 49
9.0
 74
     0
 49
-1.0
 74
     0
 49
1.0
 74
     0
 49
-1.0
 74
     0
 49
1.0
 74
     0
 49
-1.0
 74
     0
  0
ENDTAB
  0
TABLE
  2
LAYER
  5
2
330
0
100
AcDbSymbolTable
 70
     2
  0
LAYER
  5
10
330
2
100
AcDbSymbolTableRecord
100
AcDbLayerTableRecord
  2
0
 70
     0
 62
     7
  6
Continuous
370
    -3
390
F
  0
LAYER
  5
46
330
2
100
AcDbSymbolTableRecord
100
AcDbLayerTableRecord
  2
1
 70
     0
 62
     7
  6
Continuous
370
    -3
390
F
  0
ENDTAB
  0
TABLE
  2
STYLE
  5
3
330
0
100
AcDbSymbolTable
 70
     5
  0
STYLE
  5
11
330
3
100
AcDbSymbolTableRecord
100
AcDbTextStyleTableRecord
  2
Standard
 70
     0
 40
0.0
 41
1.0
 50
0.0
 71
     0
 42
0.2
  3
txt
  4

  0
STYLE
  5
A6
330
3
100
AcDbSymbolTableRecord
100
AcDbTextStyleTableRecord
  2
CONVERTER_11
 70
     0
 40
0.0
 41
0.9
 50
0.0
 71
     0
 42
0.2
  3
txt.shx
  4

  0
STYLE
  5
202
330
3
100
AcDbSymbolTableRecord
100
AcDbTextStyleTableRecord
  2
CONVERTER_12
 70
     0
 40
0.0
 41
0.81
 50
0.0
 71
     0
 42
0.2
  3
txt.shx
  4

  0
STYLE
  5
218
330
3
100
AcDbSymbolTableRecord
100
AcDbTextStyleTableRecord
  2
CONVERTER_13
 70
     0
 40
0.0
 41
0.72
 50
0.0
 71
     0
 42
0.2
  3
txt.shx
  4

  0
STYLE
  5
21B
330
3
100
AcDbSymbolTableRecord
100
AcDbTextStyleTableRecord
  2
CONVERTER_14
 70
     0
 40
0.0
 41
0.855
 50
0.0
 71
     0
 42
0.2
  3
txt.shx
  4

  0
ENDTAB
  0
TABLE
  2
VIEW
  5
6
330
0
100
AcDbSymbolTable
 70
     0
  0
ENDTAB
  0
TABLE
  2
UCS
  5
7
330
0
100
AcDbSymbolTable
 70
     0
  0
ENDTAB
  0
TABLE
  2
APPID
  5
9
330
0
100
AcDbSymbolTable
 70
     1
  0
APPID
  5
12
330
9
100
AcDbSymbolTableRecord
100
AcDbRegAppTableRecord
  2
ACAD
 70
     0
  0
ENDTAB
  0
TABLE
  2
DIMSTYLE
  5
A
330
0
100
AcDbSymbolTable
 70
     4
100
AcDbDimStyleTable
  0
DIMSTYLE
105
27
330
A
100
AcDbSymbolTableRecord
100
AcDbDimStyleTableRecord
  2
Standard
 70
     0
178
     0
340
11
  0
DIMSTYLE
105
B6
102
{ACAD_REACTORS
330
B7
102
}
330
A
100
AcDbSymbolTableRecord
100
AcDbDimStyleTableRecord
  2
ME10_DIM_10
 70
     0
 41
0.7
 42
0.0
 44
0.3
 73
     0
 74
     0
 77
     1
 78
     8
140
0.7
147
0.3
172
     1
173
     1
174
     1
175
     1
176
     2
177
     2
178
     3
340
A6
  0
DIMSTYLE
105
F9
102
{ACAD_REACTORS
330
FA
102
}
330
A
100
AcDbSymbolTableRecord
100
AcDbDimStyleTableRecord
  2
ME10_DIM_11
 70
     0
 41
0.7
 42
0.0
 44
0.3
 73
     0
 74
     0
 77
     1
 78
     8
140
0.7
147
0.3
172
     1
173
     1
174
     1
175
     1
176
     2
177
     2
178
     3
340
A6
  0
DIMSTYLE
105
104
102
{ACAD_REACTORS
330
105
102
}
330
A
100
AcDbSymbolTableRecord
100
AcDbDimStyleTableRecord
  2
ME10_DIM_12
 70
     0
 41
0.7
 42
0.0
 44
0.3
 73
     0
 74
     0
 77
     1
 78
     8
140
0.7
147
0.3
172
     1
173
     1
174
     1
175
     1
176
     2
177
     2
178
     3
340
A6
  0
ENDTAB
  0
TABLE
  2
BLOCK_RECORD
  5
1
330
0
100
AcDbSymbolTable
 70
    20
  0
BLOCK_RECORD
  5
1F
330
1
100
AcDbSymbolTableRecord
100
AcDbBlockTableRecord
  2
*Model_Space
340
22
  0
BLOCK_RECORD
  5
1B
330
1
100
AcDbSymbolTableRecord
100
AcDbBlockTableRecord
  2
*Paper_Space
340
1E
  0
BLOCK_RECORD
  5
23
330
1
100
AcDbSymbolTableRecord
100
AcDbBlockTableRecord
  2
*Paper_Space0
340
26
  0
BLOCK_RECORD
  5
47
330
1
100
AcDbSymbolTableRecord
100
AcDbBlockTableRecord
  2
ZB_4_select__1
340
0
102
{BLKREFS
331
4B
102
}
  0
BLOCK_RECORD
  5
4A
330
1
100
AcDbSymbolTableRecord
100
AcDbBlockTableRecord
  2
AllgSicht1
340
0
102
{BLKREFS
331
7D
102
}
  0
BLOCK_RECORD
  5
4E
330
1
100
AcDbSymbolTableRecord
100
AcDbBlockTableRecord
  2
ZB_4_select__2
340
0
102
{BLKREFS
331
52
102
}
  0
BLOCK_RECORD
  5
51
330
1
100
AcDbSymbolTableRecord
100
AcDbBlockTableRecord
  2
Drfsicht1
340
0
102
{BLKREFS
331
7E
102
}
  0
BLOCK_RECORD
  5
55
330
1
100
AcDbSymbolTableRecord
100
AcDbBlockTableRecord
  2
ZB_4_select__3
340
0
102
{BLKREFS
331
59
102
}
  0
BLOCK_RECORD
  5
58
330
1
100
AcDbSymbolTableRecord
100
AcDbBlockTableRecord
  2
Rckans1
340
0
102
{BLKREFS
331
7F
102
}
  0
BLOCK_RECORD
  5
5C
330
1
100
AcDbSymbolTableRecord
100
AcDbBlockTableRecord
  2
ZB_4_select__4
340
0
102
{BLKREFS
331
60
102
}
  0
BLOCK_RECORD
  5
5F
330
1
100
AcDbSymbolTableRecord
100
AcDbBlockTableRecord
  2
SA_Links1
340
0
102
{BLKREFS
331
80
102
}
  0
BLOCK_RECORD
  5
63
330
1
100
AcDbSymbolTableRecord
100
AcDbBlockTableRecord
  2
ZB_4_select__5
340
0
102
{BLKREFS
331
67
102
}
  0
BLOCK_RECORD
  5
66
330
1
100
AcDbSymbolTableRecord
100
AcDbBlockTableRecord
  2
SA_Rechts1
340
0
102
{BLKREFS
331
81
102
}
  0
BLOCK_RECORD
  5
6A
330
1
100
AcDbSymbolTableRecord
100
AcDbBlockTableRecord
  2
ZB_4_select__6
340
0
102
{BLKREFS
331
6E
102
}
  0
BLOCK_RECORD
  5
6D
330
1
100
AcDbSymbolTableRecord
100
AcDbBlockTableRecord
  2
Vordans1
340
0
102
{BLKREFS
331
82
102
}
  0
BLOCK_RECORD
  5
71
330
1
100
AcDbSymbolTableRecord
100
AcDbBlockTableRecord
  2
_rahmen
340
0
102
{BLKREFS
331
78
102
}
  0
BLOCK_RECORD
  5
74
330
1
100
AcDbSymbolTableRecord
100
AcDbBlockTableRecord
  2
_punkt
340
0
102
{BLKREFS
331
79
102
}
  0
BLOCK_RECORD
  5
77
330
1
100
AcDbSymbolTableRecord
100
AcDbBlockTableRecord
  2
A4I_CS
340
0
102
{BLKREFS
331
83
102
}
  0
BLOCK_RECORD
  5
7C
330
1
100
AcDbSymbolTableRecord
100
AcDbBlockTableRecord
  2
1
340
0
102
{BLKREFS
331
86
102
}
  0
BLOCK_RECORD
  5
AD
330
1
100
AcDbSymbolTableRecord
100
AcDbBlockTableRecord
  2
*D17
340
0
  0
BLOCK_RECORD
  5
F0
330
1
100
AcDbSymbolTableRecord
100
AcDbBlockTableRecord
  2
*D18
340
0
  0
BLOCK_RECORD
  5
FB
330
1
100
AcDbSymbolTableRecord
100
AcDbBlockTableRecord
  2
*D19
340
0
  0
ENDTAB
  0
ENDSEC
  0
SECTION
  2
BLOCKS
  0
BLOCK
  5
20
330
1F
100
AcDbEntity
  8
0
100
AcDbBlockBegin
  2
*Model_Space
 70
     0
 10
0.0
 20
0.0
 30
0.0
  3
*Model_Space
  1

  0
ENDBLK
  5
21
330
1F
100
AcDbEntity
  8
0
100
AcDbBlockEnd
  0
BLOCK
  5
1C
330
1B
100
AcDbEntity
 67
     1
  8
0
100
AcDbBlockBegin
  2
*Paper_Space
 70
     0
 10
0.0
 20
0.0
 30
0.0
  3
*Paper_Space
  1

  0
ENDBLK
  5
1D
330
1B
100
AcDbEntity
 67
     1
  8
0
100
AcDbBlockEnd
  0
BLOCK
  5
24
330
23
100
AcDbEntity
  8
0
100
AcDbBlockBegin
  2
*Paper_Space0
 70
     0
 10
0.0
 20
0.0
 30
0.0
  3
*Paper_Space0
  1

  0
ENDBLK
  5
25
330
23
100
AcDbEntity
  8
0
100
AcDbBlockEnd
  0
BLOCK
  5
48
330
47
100
AcDbEntity
  8
0
100
AcDbBlockBegin
  2
ZB_4_select__1
 70
     0
 10
-8.18412394486519
 20
15.95430797820005
 30
0.0
  3
ZB_4_select__1
  1

  0
LINE
  5
87
330
47
100
AcDbEntity
  8
0
  6
Continuous
 62
     7
100
AcDbLine
 10
2.98414279487142
 20
19.85202474166886
 30
0.0
 11
2.98414279487142
 21
20.80465268583177
 31
0.0
  0
LINE
  5
88
330
47
100
AcDbEntity
  8
0
  6
Continuous
 62
     7
100
AcDbLine
 10
0.90914279487142
 20
19.00764997297906
 30
0.0
 11
2.98414279487142
 21
20.80465268583177
 31
0.0
  0
LINE
  5
89
330
47
100
AcDbEntity
  8
0
  6
Continuous
 62
     7
100
AcDbLine
 10
0.90914279487142
 20
18.05502202881625
 30
0.0
 11
0.90914279487142
 21
19.00764997297906
 31
0.0
  0
LINE
  5
8A
330
47
100
AcDbEntity
  8
0
  6
Continuous
 62
     7
100
AcDbLine
 10
2.98414279487142
 20
19.85202474166886
 30
0.0
 11
0.90914279487142
 21
18.05502202881625
 31
0.0
  0
LINE
  5
8B
330
47
100
AcDbEntity
  8
0
  6
Continuous
 62
     2
100
AcDbLine
 10
0.38403119069387
 20
18.20660869182938
 30
0.0
 11
-1.1909688093062
 21
16.84261868086877
 31
0.0
  0
LINE
  5
8C
330
47
100
AcDbEntity
  8
0
  6
Continuous
 62
     7
100
AcDbLine
 10
1.21135802604769
 20
17.82864421882002
 30
0.0
 11
-0.86364197395231
 21
16.03164150596732
 31
0.0
  0
LINE
  5
8D
330
47
100
AcDbEntity
  8
0
  6
Continuous
 62
     7
100
AcDbLine
 10
-1.47065324672026
 20
16.92335662348334
 30
0.0
 11
0.10434675327995
 21
18.28734663444392
 31
0.0
  0
LINE
  5
8E
330
47
100
AcDbEntity
  8
0
  6
Continuous
 62
     7
100
AcDbLine
 10
-2.58556277313799
 20
19.06385662903066
 30
0.0
 11
-1.86620526966994
 21
16.17151725316325
 31
0.0
  0
LINE
  5
8F
330
47
100
AcDbEntity
  8
0
  6
Continuous
 62
     7
100
AcDbLine
 10
-6.10912394486519
 20
23.42965268583177
 30
0.0
 11
-8.18412394486519
 21
21.63264997297906
 31
0.0
  0
LINE
  5
90
330
47
100
AcDbEntity
  8
0
  6
Continuous
 62
     7
100
AcDbLine
 10
-8.18412394486519
 20
21.63264997297906
 30
0.0
 11
-8.18412394486519
 21
20.68002202881615
 31
0.0
  0
LINE
  5
91
330
47
100
AcDbEntity
  8
0
  6
Continuous
 62
     7
100
AcDbLine
 10
-1.86620526966994
 20
16.17151725316325
 30
0.0
 11
-1.1909688093062
 21
15.97659327708433
 31
0.0
  0
LINE
  5
92
330
47
100
AcDbEntity
  8
0
  6
Continuous
 62
     7
100
AcDbLine
 10
-1.47065324672026
 20
16.92335662348334
 30
0.0
 11
-1.1909688093062
 21
16.84261868086877
 31
0.0
  0
LINE
  5
93
330
47
100
AcDbEntity
  8
0
  6
Continuous
 62
     7
100
AcDbLine
 10
-1.95795994261998
 20
18.88268329745874
 30
0.0
 11
-1.47065324672026
 21
16.92335662348334
 31
0.0
  0
LINE
  5
94
330
47
100
AcDbEntity
  8
0
  6
Continuous
 62
     7
100
AcDbLine
 10
-6.08401234068797
 20
18.25511868086868
 30
0.0
 11
-5.8043279032747
 21
18.17438073825433
 31
0.0
  0
LINE
  5
95
330
47
100
AcDbEntity
  8
0
  6
Continuous
 62
     7
100
AcDbLine
 10
-1.95795994261998
 20
18.88268329745874
 30
0.0
 11
0.90914279487142
 21
18.05502202881625
 31
0.0
  0
LINE
  5
96
330
47
100
AcDbEntity
  8
0
  6
Continuous
 62
     7
100
AcDbLine
 10
-3.33377588032423
 20
18.99117201385812
 30
0.0
 11
-3.25642561113428
 21
19.25751804908372
 31
0.0
  0
LINE
  5
97
330
47
100
AcDbEntity
  8
0
  6
Continuous
 62
     7
100
AcDbLine
 10
-4.68941837685756
 20
19.67118742860246
 30
0.0
 11
-2.58556277313799
 21
19.06385662903066
 31
0.0
  0
LINE
  5
98
330
47
100
AcDbEntity
  8
0
  6
Continuous
 62
     7
100
AcDbLine
 10
-8.18412394486519
 20
20.68002202881615
 30
0.0
 11
-5.31702120737536
 21
19.85236076017422
 31
0.0
  0
LINE
  5
99
330
47
100
AcDbEntity
  8
0
  6
Continuous
 62
     7
100
AcDbLine
 10
2.98414279487142
 20
20.80465268583177
 30
0.0
 11
-6.10912394486519
 21
23.42965268583177
 31
0.0
  0
LINE
  5
9A
330
47
100
AcDbEntity
  8
0
  6
Continuous
 62
     7
100
AcDbLine
 10
-5.59039621423305
 20
18.91102791197039
 30
0.0
 11
-6.41133917604193
 21
18.20007045198569
 31
0.0
  0
LINE
  5
9B
330
47
100
AcDbEntity
  8
0
  6
Continuous
 62
     7
100
AcDbLine
 10
-6.08401234068797
 20
17.38909327708424
 30
0.0
 11
-5.40877588032403
 21
17.1941693010055
 31
0.0
  0
LINE
  5
9C
330
47
100
AcDbEntity
  8
0
  6
Continuous
 62
     7
100
AcDbLine
 10
-5.31702120737536
 20
19.85236076017422
 30
0.0
 11
-5.8043279032747
 21
18.17438073825433
 31
0.0
  0
LINE
  5
9D
330
47
100
AcDbEntity
  8
0
  6
Continuous
 62
     2
100
AcDbLine
 10
-5.67902410800749
 20
18.60584877860369
 30
0.0
 11
-6.08401234068797
 21
18.25511868086868
 31
0.0
  0
LINE
  5
9E
330
47
100
AcDbEntity
  8
0
  6
Continuous
 62
     7
100
AcDbLine
 10
-5.40877588032403
 20
17.1941693010055
 30
0.0
 11
-4.68941837685756
 21
19.67118742860246
 31
0.0
  0
LINE
  5
9F
330
47
100
AcDbEntity
  8
0
  6
Continuous
 62
     7
100
AcDbLine
 10
-3.33377588032423
 20
18.99117201385812
 30
0.0
 11
-5.40877588032403
 21
17.1941693010055
 31
0.0
  0
LINE
  5
A0
330
47
100
AcDbEntity
  8
0
  6
Continuous
 62
     7
100
AcDbLine
 10
0.90914279487142
 20
19.00764997297906
 30
0.0
 11
-8.18412394486519
 21
21.63264997297906
 31
0.0
  0
SPLINE
  5
A1
330
47
100
AcDbEntity
  8
0
  6
Continuous
 62
     7
100
AcDbSpline
210
0.0
220
0.0
230
1.0
 70
     8
 71
     3
 72
    11
 73
     7
 74
     5
 42
0.000000001
 43
0.0000000001
 44
0.00000001
 40
0.0
 40
0.0
 40
0.0
 40
0.0
 40
0.1231062047300431
 40
0.2550331524724369
 40
0.3998739696127528
 40
0.5561029043245731
 40
0.5561029043245731
 40
0.5561029043245731
 40
0.5561029043245731
 10
1.211358026047687
 20
17.82864421882002
 30
0.0
 10
1.238992945138929
 20
17.85984121694197
 30
0.0
 10
1.296242854691862
 20
17.92447053302857
 30
0.0
 10
1.323467477670731
 20
18.06000913423774
 30
0.0
 10
1.309243960638756
 20
18.20576464236706
 30
0.0
 10
1.265878725278452
 20
18.29708771992853
 30
0.0
 10
1.243375944531838
 20
18.34447642720907
 30
0.0
 11
1.211358026047687
 21
17.82864421882002
 31
0.0
 11
1.284969001733561
 21
17.92731824109355
 31
0.0
 11
1.316241096760665
 21
18.05548522895241
 31
0.0
 11
1.301870348898173
 21
18.19961137086167
 31
0.0
 11
1.243375944531838
 21
18.34447642720907
 31
0.0
  0
SPLINE
  5
A2
330
47
100
AcDbEntity
  8
0
  6
Continuous
 62
     7
100
AcDbSpline
210
0.0
220
0.0
230
1.0
 70
     8
 71
     3
 72
    11
 73
     7
 74
     5
 42
0.000000001
 43
0.0000000001
 44
0.00000001
 40
0.0
 40
0.0
 40
0.0
 40
0.0
 40
0.0935705952110105
 40
0.1815181363976983
 40
0.264769094469701
 40
0.3453217744507142
 40
0.3453217744507142
 40
0.3453217744507142
 40
0.3453217744507142
 10
-1.190968809306202
 20
15.97659327708433
 30
0.0
 10
-1.160438502049822
 20
15.96955287676775
 30
0.0
 10
-1.101212580902285
 20
15.95589517804751
 30
0.0
 10
-1.012180305295774
 20
15.96036866712199
 30
0.0
 10
-0.9299430697790179
 20
15.98333328158524
 30
0.0
 10
-0.8854982957751836
 20
16.01571657315435
 30
0.0
 10
-0.863641973952312
 20
16.03164150596732
 30
0.0
 11
-1.190968809306202
 21
15.97659327708433
 31
0.0
 11
-1.09889636816409
 21
15.95991628880348
 31
0.0
 11
-1.011034881512821
 21
15.96380596299863
 31
0.0
 11
-0.9314027711979613
 21
15.98808454409559
 31
0.0
 11
-0.863641973952312
 21
16.03164150596732
 31
0.0
  0
SPLINE
  5
A3
330
47
100
AcDbEntity
  8
0
  6
Continuous
 62
     7
100
AcDbSpline
210
0.0
220
0.0
230
1.0
 70
     8
 71
     3
 72
    15
 73
    11
 74
     9
 42
0.000000001
 43
0.0000000001
 44
0.00000001
 40
0.0
 40
0.0
 40
0.0
 40
0.0
 40
0.1075605161160138
 40
0.2212191566791808
 40
0.3444594698633841
 40
0.4773441629485862
 40
0.6171468747724572
 40
0.7594447323086492
 40
0.8992538434256262
 40
1.032150054401336
 40
1.032150054401336
 40
1.032150054401336
 40
1.032150054401336
 10
-0.863641973952312
 20
16.03164150596732
 30
0.0
 10
-0.8391124250083047
 20
16.05836311773711
 30
0.0
 10
-0.7886626396650211
 20
16.11332132657848
 30
0.0
 10
-0.7561494174449238
 20
16.22720378251223
 30
0.0
 10
-0.75716641010847
 20
16.35151074499409
 30
0.0
 10
-0.7932040010744283
 20
16.48000077696641
 30
0.0
 10
-0.8600505519266686
 20
16.60241844521045
 30
0.0
 10
-0.9529818619298542
 20
16.70897419539626
 30
0.0
 10
-1.063815409066218
 20
16.79482010819796
 30
0.0
 10
-1.149306723473763
 20
16.82695738059213
 30
0.0
 10
-1.190968809306202
 20
16.84261868086877
 30
0.0
 11
-0.863641973952312
 21
16.03164150596732
 31
0.0
 11
-0.7970436709302888
 21
16.11610411187722
 31
0.0
 11
-0.7623508998993014
 21
16.22433857771162
 31
0.0
 11
-0.7623743024025293
 21
16.34757889167182
 31
0.0
 11
-0.7971112441520809
 21
16.47584302113784
 31
0.0
 11
-0.8637489237839202
 21
16.59874224027324
 31
0.0
 11
-0.9568894170432962
 21
16.7063225765866
 31
0.0
 11
-1.068989315927655
 21
16.78987016796082
 31
0.0
 11
-1.190968809306202
 21
16.84261868086877
 31
0.0
  0
SPLINE
  5
A4
330
47
100
AcDbEntity
  8
0
  6
Continuous
 62
     7
100
AcDbSpline
210
0.0
220
0.0
230
1.0
 70
     8
 71
     3
 72
    11
 73
     7
 74
     5
 42
0.000000001
 43
0.0000000001
 44
0.00000001
 40
0.0
 40
0.0
 40
0.0
 40
0.0
 40
0.0935705952108675
 40
0.18151813639755
 40
0.264769094469577
 40
0.3453217744506176
 40
0.3453217744506176
 40
0.3453217744506176
 40
0.3453217744506176
 10
-6.08401234068797
 20
18.25511868086868
 30
0.0
 10
-6.114542647944313
 20
18.2621590811852
 30
0.0
 10
-6.173768569091821
 20
18.27581677990532
 30
0.0
 10
-6.262800844698294
 20
18.27134329083082
 30
0.0
 10
-6.345038080215014
 20
18.24837867636749
 30
0.0
 10
-6.389482854218989
 20
18.21599538479856
 30
0.0
 10
-6.411339176041931
 20
18.20007045198569
 30
0.0
 11
-6.08401234068797
 21
18.25511868086868
 31
0.0
 11
-6.176084781829966
 21
18.27179566914937
 31
0.0
 11
-6.263946268481227
 21
18.26790599495418
 31
0.0
 11
-6.34357837879611
 21
18.24362741385721
 31
0.0
 11
-6.411339176041931
 21
18.20007045198569
 31
0.0
  0
SPLINE
  5
A5
330
47
100
AcDbEntity
  8
0
  6
Continuous
 62
     7
100
AcDbSpline
210
0.0
220
0.0
230
1.0
 70
     8
 71
     3
 72
    15
 73
    11
 74
     9
 42
0.000000001
 43
0.0000000001
 44
0.00000001
 40
0.0
 40
0.0
 40
0.0
 40
0.0
 40
0.107560516116027
 40
0.2212191566791404
 40
0.344459469863262
 40
0.477344162948363
 40
0.6171468747721183
 40
0.7594447323081931
 40
0.8992538434250736
 40
1.032150054400718
 40
1.032150054400718
 40
1.032150054400718
 40
1.032150054400718
 10
-6.411339176041931
 20
18.20007045198569
 30
0.0
 10
-6.435868724985823
 20
18.17334884021581
 30
0.0
 10
-6.486318510328847
 20
18.11839063137423
 30
0.0
 10
-6.518831732548901
 20
18.00450817544058
 30
0.0
 10
-6.517814739885318
 20
17.88020121295877
 30
0.0
 10
-6.481777148919368
 20
17.75171118098656
 30
0.0
 10
-6.414930598067176
 20
17.62929351274262
 30
0.0
 10
-6.32199928806406
 20
17.52273776255689
 30
0.0
 10
-6.211165740927785
 20
17.43689184975526
 30
0.0
 10
-6.125674426520356
 20
17.40475457736096
 30
0.0
 10
-6.08401234068797
 20
17.38909327708424
 30
0.0
 11
-6.411339176041931
 21
18.20007045198569
 31
0.0
 11
-6.477937479063652
 21
18.11560784607554
 31
0.0
 11
-6.51263025009453
 21
18.00737338024116
 31
0.0
 11
-6.512606847591265
 21
17.88413306628103
 31
0.0
 11
-6.47786990584172
 21
17.75586893681512
 31
0.0
 11
-6.411232226209927
 21
17.63296971767982
 31
0.0
 11
-6.318091732950627
 21
17.52538938136655
 31
0.0
 11
-6.205991834066373
 21
17.44184178999235
 31
0.0
 11
-6.08401234068797
 21
17.38909327708424
 31
0.0
  0
ENDBLK
  5
49
330
47
100
AcDbEntity
  8
0
100
AcDbBlockEnd
  0
BLOCK
  5
4C
330
4A
100
AcDbEntity
  8
0
100
AcDbBlockBegin
  2
AllgSicht1
 70
     0
 10
-2.59999956106983
 20
19.39999974953304
 30
0.0
  3
AllgSicht1
  1

  0
INSERT
  5
4B
330
4A
100
AcDbEntity
  8
0
100
AcDbBlockReference
  2
ZB_4_select__1
 10
-8.18412394486519
 20
15.95430797820005
 30
0.0
  0
MTEXT
  5
A7
330
4A
100
AcDbEntity
  8
1
 62
     6
100
AcDbMText
 10
-2.59999057499694
 20
14.95723501276384
 30
0.0
 40
1.0
 41
0.0
 71
     2
 72
     1
  1
 
  7
CONVERTER_11
 73
     1
 44
1.32052821128451
  0
ENDBLK
  5
4D
330
4A
100
AcDbEntity
  8
0
100
AcDbBlockEnd
  0
BLOCK
  5
4F
330
4E
100
AcDbEntity
  8
0
100
AcDbBlockBegin
  2
ZB_4_select__2
 70
     0
 10
-30.11498798978818
 20
18.29000185992098
 30
0.0
  3
ZB_4_select__2
  1

  0
LINE
  5
A8
330
4E
100
AcDbEntity
  8
0
  6
Continuous
 62
     7
100
AcDbLine
 10
-19.61498798978817
 20
22.44000185992098
 30
0.0
 11
-30.11498798978818
 21
22.44000185992098
 31
0.0
  0
LINE
  5
A9
330
4E
100
AcDbEntity
  8
0
  6
Continuous
 62
     7
100
AcDbLine
 10
-19.61498798978817
 20
18.29000185992098
 30
0.0
 11
-19.61498798978817
 21
22.44000185992098
 31
0.0
  0
LINE
  5
AA
330
4E
100
AcDbEntity
  8
0
  6
Continuous
 62
     7
100
AcDbLine
 10
-19.61498798978817
 20
18.29000185992098
 30
0.0
 11
-30.11498798978818
 21
18.29000185992098
 31
0.0
  0
LINE
  5
AB
330
4E
100
AcDbEntity
  8
0
  6
Continuous
 62
     7
100
AcDbLine
 10
-30.11498798978818
 20
22.44000185992098
 30
0.0
 11
-30.11498798978818
 21
18.29000185992098
 31
0.0
  0
ENDBLK
  5
50
330
4E
100
AcDbEntity
  8
0
100
AcDbBlockEnd
  0
BLOCK
  5
53
330
51
100
AcDbEntity
  8
0
100
AcDbBlockBegin
  2
Drfsicht1
 70
     0
 10
-24.86499839353877
 20
20.36500190759969
 30
0.0
  3
Drfsicht1
  1

  0
INSERT
  5
52
330
51
100
AcDbEntity
  8
0
100
AcDbBlockReference
  2
ZB_4_select__2
 10
-30.11498798978818
 20
18.29000185992098
 30
0.0
  0
MTEXT
  5
AC
330
51
100
AcDbEntity
  8
1
 62
     6
100
AcDbMText
 10
-24.86498798978818
 20
17.290001859921
 30
0.0
 40
1.0
 41
0.0
 71
     2
 72
     1
  1
 
  7
CONVERTER_11
 73
     1
 44
1.32052821128451
  0
DIMENSION
  5
B7
330
51
100
AcDbEntity
  8
1
100
AcDbDimension
  2
*D17
 10
-32.11498798978818
 20
22.44000185992098
 30
0.0
 11
-32.79998798978818
 21
20.35408390186759
 31
0.0
 70
    32
  1
<>
 71
     5
 42
-1.0
 53
90.0
  3
ME10_DIM_10
100
AcDbAlignedDimension
 13
-30.11498798978818
 23
18.29000185992098
 33
0.0
 14
-30.11498798978818
 24
22.44000185992098
 34
0.0
 50
90.0
100
AcDbRotatedDimension
  0
ENDBLK
  5
54
330
51
100
AcDbEntity
  8
0
100
AcDbBlockEnd
  0
BLOCK
  5
56
330
55
100
AcDbEntity
  8
0
100
AcDbBlockBegin
  2
ZB_4_select__3
 70
     0
 10
-4.78501155981691
 20
31.70000098554611
 30
0.0
  3
ZB_4_select__3
  1

  0
LINE
  5
B8
330
55
100
AcDbEntity
  8
0
  6
Continuous
 62
     7
100
AcDbLine
 10
5.71498844018309
 20
34.80000098554631
 30
0.0
 11
2.40434336561497
 21
34.80000098554642
 31
0.0
  0
LINE
  5
B9
330
55
100
AcDbEntity
  8
0
  6
Continuous
 62
     7
100
AcDbLine
 10
1.67965003932771
 20
34.80000098554636
 30
0.0
 11
-0.74967315895948
 21
34.80000098554636
 31
0.0
  0
LINE
  5
BA
330
55
100
AcDbEntity
  8
0
  6
Continuous
 62
     7
100
AcDbLine
 10
-1.47436648524696
 20
34.80000098554642
 30
0.0
 11
-4.78501155981691
 21
34.80000098554631
 31
0.0
  0
LINE
  5
BB
330
55
100
AcDbEntity
  8
0
  6
Continuous
 62
     7
100
AcDbLine
 10
-4.78501155981691
 20
34.80000098554631
 30
0.0
 11
-4.78501155981691
 21
35.90000098554633
 31
0.0
  0
LINE
  5
BC
330
55
100
AcDbEntity
  8
0
  6
Continuous
 62
     7
100
AcDbLine
 10
-4.78501155981691
 20
35.90000098554633
 30
0.0
 11
5.71498844018309
 21
35.90000098554633
 31
0.0
  0
LINE
  5
BD
330
55
100
AcDbEntity
  8
0
  6
Continuous
 62
     7
100
AcDbLine
 10
5.71498844018309
 20
35.90000098554633
 30
0.0
 11
5.71498844018309
 21
34.80000098554631
 31
0.0
  0
LINE
  5
BE
330
55
100
AcDbEntity
  8
0
  6
Continuous
 62
     7
100
AcDbLine
 10
2.40434336561497
 20
34.80000098554642
 30
0.0
 11
2.96703666972552
 21
32.70000098554611
 31
0.0
  0
LINE
  5
BF
330
55
100
AcDbEntity
  8
0
  6
Continuous
 62
     7
100
AcDbLine
 10
2.51029253586784
 20
31.70000098554611
 30
0.0
 11
1.67965003932771
 21
34.80000098554636
 31
0.0
  0
LINE
  5
C0
330
55
100
AcDbEntity
  8
0
  6
Continuous
 62
     7
100
AcDbLine
 10
-1.58031565550119
 20
31.70000098554617
 30
0.0
 11
-2.3600115598165
 21
31.70000098554611
 31
0.0
  0
LINE
  5
C1
330
55
100
AcDbEntity
  8
0
  6
Continuous
 62
     7
100
AcDbLine
 10
-1.47436648524696
 20
34.80000098554642
 30
0.0
 11
-2.03705978935819
 21
32.70000098554611
 31
0.0
  0
LINE
  5
C2
330
55
100
AcDbEntity
  8
0
  6
Continuous
 62
     7
100
AcDbLine
 10
3.28998844018314
 20
32.70000098554611
 30
0.0
 11
2.96703666972552
 21
32.70000098554611
 31
0.0
  0
LINE
  5
C3
330
55
100
AcDbEntity
  8
0
  6
Continuous
 62
     7
100
AcDbLine
 10
-2.03705978935819
 20
32.70000098554611
 30
0.0
 11
-2.3600115598165
 21
32.70000098554611
 31
0.0
  0
LINE
  5
C4
330
55
100
AcDbEntity
  8
0
  6
Continuous
 62
     7
100
AcDbLine
 10
3.28998844018314
 20
31.70000098554611
 30
0.0
 11
2.51029253586784
 21
31.70000098554611
 31
0.0
  0
LINE
  5
C5
330
55
100
AcDbEntity
  8
0
  6
Continuous
 62
     7
100
AcDbLine
 10
-0.74967315895948
 20
34.80000098554636
 30
0.0
 11
-1.58031565550119
 21
31.70000098554617
 31
0.0
  0
ARC
  5
C6
330
55
100
AcDbEntity
  8
0
  6
Continuous
 62
     7
100
AcDbCircle
 10
-2.3600115598165
 20
32.20000098554611
 30
0.0
 40
0.5
100
AcDbArc
 50
90.0
 51
270.0
  0
ARC
  5
C7
330
55
100
AcDbEntity
  8
0
  6
Continuous
 62
     7
100
AcDbCircle
 10
3.28998844018314
 20
32.20000098554611
 30
0.0
 40
0.5
100
AcDbArc
 50
270.0
 51
90.0
  0
ENDBLK
  5
57
330
55
100
AcDbEntity
  8
0
100
AcDbBlockEnd
  0
BLOCK
  5
5A
330
58
100
AcDbEntity
  8
0
100
AcDbBlockBegin
  2
Rckans1
 70
     0
 10
0.46499884393369
 20
33.8
 30
0.0
  3
Rckans1
  1

  0
INSERT
  5
59
330
58
100
AcDbEntity
  8
0
100
AcDbBlockReference
  2
ZB_4_select__3
 10
-4.78501155981691
 20
31.70000098554611
 30
0.0
  0
MTEXT
  5
C8
330
58
100
AcDbEntity
  8
1
 62
     6
100
AcDbMText
 10
0.4649884401831
 20
30.7000009855461
 30
0.0
 40
1.0
 41
0.0
 71
     2
 72
     1
  1
 
  7
CONVERTER_11
 73
     1
 44
1.32052821128451
  0
ENDBLK
  5
5B
330
58
100
AcDbEntity
  8
0
100
AcDbBlockEnd
  0
BLOCK
  5
5D
330
5C
100
AcDbEntity
  8
0
100
AcDbBlockBegin
  2
ZB_4_select__4
 70
     0
 10
-14.67499995232629
 20
31.7000009855461
 30
0.0
  3
ZB_4_select__4
  1

  0
LINE
  5
C9
330
5C
100
AcDbEntity
  8
0
  6
Continuous
 62
     7
100
AcDbLine
 10
-14.67499995232629
 20
35.90000098554631
 30
0.0
 11
-10.52499995232629
 21
35.90000098554631
 31
0.0
  0
LINE
  5
CA
330
5C
100
AcDbEntity
  8
0
  6
Continuous
 62
     7
100
AcDbLine
 10
-10.52499995232629
 20
35.90000098554631
 30
0.0
 11
-10.52499995232629
 21
34.80000098554646
 31
0.0
  0
LINE
  5
CB
330
5C
100
AcDbEntity
  8
0
  6
Continuous
 62
     7
100
AcDbLine
 10
-10.52499995232629
 20
34.80000098554646
 30
0.0
 11
-14.67499995232629
 21
34.80000098554635
 31
0.0
  0
LINE
  5
CC
330
5C
100
AcDbEntity
  8
0
  6
Continuous
 62
     7
100
AcDbLine
 10
-14.67499995232629
 20
35.90000098554631
 30
0.0
 11
-14.67499995232629
 21
34.80000098554635
 31
0.0
  0
LINE
  5
CD
330
5C
100
AcDbEntity
  8
0
  6
Continuous
 62
     7
100
AcDbLine
 10
-10.52499995232629
 20
34.80000098554646
 30
0.0
 11
-10.52499995232629
 21
32.7000009855461
 31
0.0
  0
LINE
  5
CE
330
5C
100
AcDbEntity
  8
0
  6
Continuous
 62
     7
100
AcDbLine
 10
-14.67499995232629
 20
34.80000098554635
 30
0.0
 11
-14.67499995232629
 21
32.7000009855461
 31
0.0
  0
LINE
  5
CF
330
5C
100
AcDbEntity
  8
0
  6
Continuous
 62
     7
100
AcDbLine
 10
-14.67499995232629
 20
32.7000009855461
 30
0.0
 11
-10.52499995232629
 21
32.7000009855461
 31
0.0
  0
LINE
  5
D0
330
5C
100
AcDbEntity
  8
0
  6
Continuous
 62
     7
100
AcDbLine
 10
-10.52499995232629
 20
32.7000009855461
 30
0.0
 11
-10.52499995232629
 21
31.7000009855461
 31
0.0
  0
LINE
  5
D1
330
5C
100
AcDbEntity
  8
0
  6
Continuous
 62
     7
100
AcDbLine
 10
-14.67499995232629
 20
32.7000009855461
 30
0.0
 11
-14.67499995232629
 21
31.7000009855461
 31
0.0
  0
LINE
  5
D2
330
5C
100
AcDbEntity
  8
0
  6
Continuous
 62
     7
100
AcDbLine
 10
-14.67499995232629
 20
31.7000009855461
 30
0.0
 11
-10.52499995232629
 21
31.7000009855461
 31
0.0
  0
ENDBLK
  5
5E
330
5C
100
AcDbEntity
  8
0
100
AcDbBlockEnd
  0
BLOCK
  5
61
330
5F
100
AcDbEntity
  8
0
100
AcDbBlockBegin
  2
SA_Links1
 70
     0
 10
-12.60000000000501
 20
33.79999999999998
 30
0.0
  3
SA_Links1
  1

  0
INSERT
  5
60
330
5F
100
AcDbEntity
  8
0
100
AcDbBlockReference
  2
ZB_4_select__4
 10
-14.67499995232629
 20
31.7000009855461
 30
0.0
  0
MTEXT
  5
D3
330
5F
100
AcDbEntity
  8
1
 62
     6
100
AcDbMText
 10
-7.42076937768295
 20
18.8621550844458
 30
0.0
 40
1.0
 41
0.0
 71
     2
 72
     1
  1
 
  7
CONVERTER_11
 73
     1
 44
1.32052821128451
  0
ENDBLK
  5
62
330
5F
100
AcDbEntity
  8
0
100
AcDbBlockEnd
  0
BLOCK
  5
64
330
63
100
AcDbEntity
  8
0
100
AcDbBlockBegin
  2
ZB_4_select__5
 70
     0
 10
-42.80499813928582
 20
31.7000009855461
 30
0.0
  3
ZB_4_select__5
  1

  0
LINE
  5
D4
330
63
100
AcDbEntity
  8
0
  6
Continuous
 62
     7
100
AcDbLine
 10
-38.65499813928582
 20
34.80000098554635
 30
0.0
 11
-42.80499813928582
 21
34.80000098554646
 31
0.0
  0
LINE
  5
D5
330
63
100
AcDbEntity
  8
0
  6
Continuous
 62
     7
100
AcDbLine
 10
-42.80499813928582
 20
34.80000098554646
 30
0.0
 11
-42.80499813928582
 21
35.90000098554631
 31
0.0
  0
LINE
  5
D6
330
63
100
AcDbEntity
  8
0
  6
Continuous
 62
     7
100
AcDbLine
 10
-42.80499813928582
 20
35.90000098554631
 30
0.0
 11
-38.65499813928582
 21
35.90000098554631
 31
0.0
  0
LINE
  5
D7
330
63
100
AcDbEntity
  8
0
  6
Continuous
 62
     7
100
AcDbLine
 10
-38.65499813928582
 20
34.80000098554635
 30
0.0
 11
-38.65499813928582
 21
35.90000098554631
 31
0.0
  0
LINE
  5
D8
330
63
100
AcDbEntity
  8
0
  6
Continuous
 62
     7
100
AcDbLine
 10
-38.65499813928582
 20
32.7000009855461
 30
0.0
 11
-42.80499813928582
 21
32.7000009855461
 31
0.0
  0
LINE
  5
D9
330
63
100
AcDbEntity
  8
0
  6
Continuous
 62
     7
100
AcDbLine
 10
-38.65499813928582
 20
31.7000009855461
 30
0.0
 11
-38.65499813928582
 21
32.7000009855461
 31
0.0
  0
LINE
  5
DA
330
63
100
AcDbEntity
  8
0
  6
Continuous
 62
     7
100
AcDbLine
 10
-38.65499813928582
 20
32.7000009855461
 30
0.0
 11
-38.65499813928582
 21
34.80000098554635
 31
0.0
  0
LINE
  5
DB
330
63
100
AcDbEntity
  8
0
  6
Continuous
 62
     7
100
AcDbLine
 10
-42.80499813928582
 20
31.70000098554627
 30
0.0
 11
-42.80499813928582
 21
32.7000009855461
 31
0.0
  0
LINE
  5
DC
330
63
100
AcDbEntity
  8
0
  6
Continuous
 62
     7
100
AcDbLine
 10
-42.80499813928582
 20
32.7000009855461
 30
0.0
 11
-42.80499813928582
 21
34.80000098554646
 31
0.0
  0
LINE
  5
DD
330
63
100
AcDbEntity
  8
0
  6
Continuous
 62
     7
100
AcDbLine
 10
-38.65499813928582
 20
31.7000009855461
 30
0.0
 11
-42.80499813928582
 21
31.70000098554627
 31
0.0
  0
ENDBLK
  5
65
330
63
100
AcDbEntity
  8
0
100
AcDbBlockEnd
  0
BLOCK
  5
68
330
66
100
AcDbEntity
  8
0
100
AcDbBlockBegin
  2
SA_Rechts1
 70
     0
 10
-40.72999809160711
 20
33.79999999999998
 30
0.0
  3
SA_Rechts1
  1

  0
INSERT
  5
67
330
66
100
AcDbEntity
  8
0
100
AcDbBlockReference
  2
ZB_4_select__5
 10
-42.80499813928582
 20
31.7000009855461
 30
0.0
  0
MTEXT
  5
DE
330
66
100
AcDbEntity
  8
1
 62
     6
100
AcDbMText
 10
-40.72999813928583
 20
30.7000009855461
 30
0.0
 40
1.0
 41
0.0
 71
     2
 72
     1
  1
 
  7
CONVERTER_11
 73
     1
 44
1.32052821128451
  0
ENDBLK
  5
69
330
66
100
AcDbEntity
  8
0
100
AcDbBlockEnd
  0
BLOCK
  5
6B
330
6A
100
AcDbEntity
  8
0
100
AcDbBlockBegin
  2
ZB_4_select__6
 70
     0
 10
-30.11498844017797
 20
31.7000009855461
 30
0.0
  3
ZB_4_select__6
  1

  0
LINE
  5
DF
330
6A
100
AcDbEntity
  8
0
  6
Continuous
 62
     7
100
AcDbLine
 10
-26.91029253586248
 20
31.70000098554628
 30
0.0
 11
-26.07965003932259
 21
34.80000098554647
 31
0.0
  0
LINE
  5
E0
330
6A
100
AcDbEntity
  8
0
  6
Continuous
 62
     7
100
AcDbLine
 10
-27.68998844017801
 20
31.7000009855461
 30
0.0
 11
-26.91029253586248
 21
31.70000098554628
 31
0.0
  0
LINE
  5
E1
330
6A
100
AcDbEntity
  8
0
  6
Continuous
 62
     7
100
AcDbLine
 10
-22.36294021063668
 20
32.7000009855461
 30
0.0
 11
-22.03998844017838
 21
32.7000009855461
 31
0.0
  0
LINE
  5
E2
330
6A
100
AcDbEntity
  8
0
  6
Continuous
 62
     7
100
AcDbLine
 10
-22.81968434449368
 20
31.70000098554622
 30
0.0
 11
-22.03998844017838
 21
31.7000009855461
 31
0.0
  0
LINE
  5
E3
330
6A
100
AcDbEntity
  8
0
  6
Continuous
 62
     7
100
AcDbLine
 10
-19.61498844017796
 20
35.90000098554632
 30
0.0
 11
-30.11498844017797
 21
35.90000098554632
 31
0.0
  0
LINE
  5
E4
330
6A
100
AcDbEntity
  8
0
  6
Continuous
 62
     7
100
AcDbLine
 10
-19.61498844017796
 20
34.80000098554641
 30
0.0
 11
-19.61498844017796
 21
35.90000098554632
 31
0.0
  0
LINE
  5
E5
330
6A
100
AcDbEntity
  8
0
  6
Continuous
 62
     7
100
AcDbLine
 10
-22.92563351474792
 20
34.80000098554641
 30
0.0
 11
-19.61498844017796
 21
34.80000098554641
 31
0.0
  0
LINE
  5
E6
330
6A
100
AcDbEntity
  8
0
  6
Continuous
 62
     7
100
AcDbLine
 10
-22.92563351474792
 20
34.80000098554641
 30
0.0
 11
-22.36294021063668
 21
32.7000009855461
 31
0.0
  0
LINE
  5
E7
330
6A
100
AcDbEntity
  8
0
  6
Continuous
 62
     7
100
AcDbLine
 10
-30.11498844017797
 20
35.90000098554632
 30
0.0
 11
-30.11498844017797
 21
34.8000009855463
 31
0.0
  0
LINE
  5
E8
330
6A
100
AcDbEntity
  8
0
  6
Continuous
 62
     7
100
AcDbLine
 10
-27.68998844017801
 20
32.7000009855461
 30
0.0
 11
-27.36703666972062
 21
32.7000009855461
 31
0.0
  0
LINE
  5
E9
330
6A
100
AcDbEntity
  8
0
  6
Continuous
 62
     7
100
AcDbLine
 10
-30.11498844017797
 20
34.8000009855463
 30
0.0
 11
-26.80434336560984
 21
34.80000098554641
 31
0.0
  0
LINE
  5
EA
330
6A
100
AcDbEntity
  8
0
  6
Continuous
 62
     7
100
AcDbLine
 10
-26.80434336560984
 20
34.80000098554641
 30
0.0
 11
-27.36703666972062
 21
32.7000009855461
 31
0.0
  0
LINE
  5
EB
330
6A
100
AcDbEntity
  8
0
  6
Continuous
 62
     7
100
AcDbLine
 10
-26.07965003932259
 20
34.80000098554647
 30
0.0
 11
-23.65032684103539
 21
34.80000098554647
 31
0.0
  0
LINE
  5
EC
330
6A
100
AcDbEntity
  8
0
  6
Continuous
 62
     7
100
AcDbLine
 10
-23.65032684103539
 20
34.80000098554647
 30
0.0
 11
-22.81968434449368
 21
31.70000098554622
 31
0.0
  0
ARC
  5
ED
330
6A
100
AcDbEntity
  8
0
  6
Continuous
 62
     7
100
AcDbCircle
 10
-27.68998844017801
 20
32.2000009855461
 30
0.0
 40
0.5
100
AcDbArc
 50
90.0
 51
270.0
  0
ARC
  5
EE
330
6A
100
AcDbEntity
  8
0
  6
Continuous
 62
     7
100
AcDbCircle
 10
-22.03998844017838
 20
32.2000009855461
 30
0.0
 40
0.4999999999999964
100
AcDbArc
 50
270.0
 51
90.0
  0
ENDBLK
  5
6C
330
6A
100
AcDbEntity
  8
0
100
AcDbBlockEnd
  0
BLOCK
  5
6F
330
6D
100
AcDbEntity
  8
0
100
AcDbBlockBegin
  2
Vordans1
 70
     0
 10
-24.86499884392856
 20
33.79999999999999
 30
0.0
  3
Vordans1
  1

  0
INSERT
  5
6E
330
6D
100
AcDbEntity
  8
0
100
AcDbBlockReference
  2
ZB_4_select__6
 10
-30.11498844017797
 20
31.7000009855461
 30
0.0
  0
MTEXT
  5
EF
330
6D
100
AcDbEntity
  8
1
 62
     6
100
AcDbMText
 10
-20.464988440178
 20
18.86215508444597
 30
0.0
 40
1.0
 41
0.0
 71
     2
 72
     1
  1
 
  7
CONVERTER_11
 73
     1
 44
1.32052821128451
  0
DIMENSION
  5
FA
330
6D
100
AcDbEntity
  8
1
100
AcDbDimension
  2
*D18
 10
-32.11498844017797
 20
35.90000098554632
 30
0.0
 11
-32.79998844017798
 21
33.4907109257308
 31
0.0
 70
    32
  1
<>
 71
     5
 42
-1.0
 53
90.0
  3
ME10_DIM_11
100
AcDbAlignedDimension
 13
-27.68998844017801
 23
31.7000009855461
 33
0.0
 14
-30.11498844017797
 24
35.90000098554632
 34
0.0
 50
90.0
100
AcDbRotatedDimension
  0
DIMENSION
  5
105
330
6D
100
AcDbEntity
  8
1
100
AcDbDimension
  2
*D19
 10
-19.61498844017796
 20
37.90000098554632
 30
0.0
 11
-25.0158794900306
 21
38.58500098554632
 31
0.0
 70
    33
  1
<>
 71
     5
 42
-1.0
 53
0.00013888888889
  3
ME10_DIM_12
100
AcDbAlignedDimension
 13
-30.11498844017797
 23
35.90000098554632
 33
0.0
 14
-19.61498844017796
 24
35.90000098554632
 34
0.0
  0
ENDBLK
  5
70
330
6D
100
AcDbEntity
  8
0
100
AcDbBlockEnd
  0
BLOCK
  5
72
330
71
100
AcDbEntity
  8
0
100
AcDbBlockBegin
  2
_rahmen
 70
     0
 10
49.4295771277928
 20
17.07105506196933
 30
0.0
  3
_rahmen
  1

  0
LINE
  5
106
330
71
100
AcDbEntity
  8
1
  6
Continuous
 62
     6
100
AcDbLine
 10
-80.11522739895722
 20
47.57105506196945
 30
0.0
 11
49.42957712779449
 21
47.57105506196945
 31
0.0
  0
LINE
  5
107
330
71
100
AcDbEntity
  8
1
  6
Continuous
 62
     7
100
AcDbLine
 10
-61.9152273989572
 20
26.32105506196945
 30
0.0
 11
-43.7152273989573
 21
26.32105506196945
 31
0.0
  0
LINE
  5
108
330
71
100
AcDbEntity
  8
1
  6
Continuous
 62
     6
100
AcDbLine
 10
-61.9152273989572
 20
22.07105506196945
 30
0.0
 11
-80.11522739895722
 21
22.07105506196933
 31
0.0
  0
LINE
  5
109
330
71
100
AcDbEntity
  8
1
  6
Continuous
 62
     7
100
AcDbLine
 10
-61.9152273989572
 20
26.32105506196945
 30
0.0
 11
-61.9152273989572
 21
22.07105506196945
 31
0.0
  0
LINE
  5
10A
330
71
100
AcDbEntity
  8
1
  6
Continuous
 62
     7
100
AcDbLine
 10
-43.7152273989573
 20
26.32105506196945
 30
0.0
 11
-43.7152273989573
 21
22.07105506196933
 31
0.0
  0
LINE
  5
10B
330
71
100
AcDbEntity
  8
1
  6
Continuous
 62
     7
100
AcDbLine
 10
-80.11522739895722
 20
26.32105506196933
 30
0.0
 11
-80.11522739895722
 21
22.07105506196933
 31
0.0
  0
LINE
  5
10C
330
71
100
AcDbEntity
  8
1
  6
Continuous
 62
     7
100
AcDbLine
 10
-80.11522739895722
 20
26.32105506196933
 30
0.0
 11
-61.9152273989572
 21
26.32105506196945
 31
0.0
  0
LINE
  5
10D
330
71
100
AcDbEntity
  8
1
  6
Continuous
 62
     2
100
AcDbLine
 10
-70.87857251239461
 20
45.69605506196936
 30
0.0
 11
-70.87857251239461
 21
40.69605506196936
 31
0.0
  0
LINE
  5
10E
330
71
100
AcDbEntity
  8
1
  6
Continuous
 62
     2
100
AcDbLine
 10
-70.87857251239461
 20
40.69605506196936
 30
0.0
 11
-75.87857251239461
 21
41.94605506196936
 31
0.0
  0
LINE
  5
10F
330
71
100
AcDbEntity
  8
1
  6
Continuous
 62
     2
100
AcDbLine
 10
-75.87857251239461
 20
41.94605506196936
 30
0.0
 11
-75.87857251239461
 21
44.44605506196936
 31
0.0
  0
LINE
  5
110
330
71
100
AcDbEntity
  8
1
  6
Continuous
 62
     2
100
AcDbLine
 10
-75.87857251239461
 20
44.44605506196936
 30
0.0
 11
-70.87857251239461
 21
45.69605506196936
 31
0.0
  0
LINE
  5
111
330
71
100
AcDbEntity
  8
1
  6
Continuous
 62
     6
100
AcDbLine
 10
-202.5704228722054
 20
22.07105506196945
 30
0.0
 11
-237.5704228722053
 21
22.07105506196945
 31
0.0
  0
LINE
  5
112
330
71
100
AcDbEntity
  8
1
  6
Continuous
 62
     6
100
AcDbLine
 10
49.42957712779449
 20
39.07105506196945
 30
0.0
 11
49.42957712779409
 21
30.57105506196945
 31
0.0
  0
LINE
  5
113
330
71
100
AcDbEntity
  8
1
  6
Continuous
 62
     6
100
AcDbLine
 10
-43.7152273989573
 20
22.07105506196933
 30
0.0
 11
-44.07042287220722
 21
22.07105506196945
 31
0.0
  0
LINE
  5
114
330
71
100
AcDbEntity
  8
1
  6
Continuous
 62
     6
100
AcDbLine
 10
-196.3704228722074
 20
22.07105506196933
 30
0.0
 11
-202.5704228722054
 21
22.07105506196945
 31
0.0
  0
LINE
  5
115
330
71
100
AcDbEntity
  8
1
  6
Continuous
 62
     7
100
AcDbLine
 10
-43.7152273989573
 20
39.07105506196945
 30
0.0
 11
-43.7152273989573
 21
26.32105506196945
 31
0.0
  0
LINE
  5
116
330
71
100
AcDbEntity
  8
1
  6
Continuous
 62
     7
100
AcDbLine
 10
-80.11522739895722
 20
39.07105506196945
 30
0.0
 11
-80.11522739895722
 21
26.32105506196933
 31
0.0
  0
LINE
  5
117
330
71
100
AcDbEntity
  8
1
  6
Continuous
 62
     6
100
AcDbLine
 10
-94.07042287220719
 20
22.07105506196945
 30
0.0
 11
-144.0704228722074
 21
22.07105506196945
 31
0.0
  0
LINE
  5
118
330
71
100
AcDbEntity
  8
1
  6
Continuous
 62
     6
100
AcDbLine
 10
-196.3704228722074
 20
22.07105506196933
 30
0.0
 11
-194.0704228722072
 21
22.07105506196945
 31
0.0
  0
LINE
  5
119
330
71
100
AcDbEntity
  8
1
  6
Continuous
 62
     6
100
AcDbLine
 10
-43.7152273989573
 20
22.07105506196933
 30
0.0
 11
5.92957712779278
 21
22.07105506196945
 31
0.0
  0
LINE
  5
11A
330
71
100
AcDbEntity
  8
1
  6
Continuous
 62
     6
100
AcDbLine
 10
49.4295771277928
 20
22.07105506196945
 30
0.0
 11
49.42957712779409
 21
30.57105506196945
 31
0.0
  0
LINE
  5
11B
330
71
100
AcDbEntity
  8
1
  6
Continuous
 62
     2
100
AcDbLine
 10
-242.5704228722063
 20
22.07105506196945
 30
0.0
 11
-242.5704228722063
 21
17.07105506196933
 31
0.0
  0
LINE
  5
11C
330
71
100
AcDbEntity
  8
1
  6
Continuous
 62
     2
100
AcDbLine
 10
-237.5704228722053
 20
22.07105506196945
 30
0.0
 11
-242.5704228722063
 21
22.07105506196945
 31
0.0
  0
LINE
  5
11D
330
71
100
AcDbEntity
  8
1
  6
Continuous
 62
     2
100
AcDbLine
 10
-237.5704228722053
 20
17.07105506196933
 30
0.0
 11
-194.0704228722072
 21
17.07105506196933
 31
0.0
  0
LINE
  5
11E
330
71
100
AcDbEntity
  8
1
  6
Continuous
 62
     2
100
AcDbLine
 10
-237.5704228722053
 20
22.07105506196945
 30
0.0
 11
-237.5704228722053
 21
17.07105506196933
 31
0.0
  0
LINE
  5
11F
330
71
100
AcDbEntity
  8
1
  6
Continuous
 62
     2
100
AcDbLine
 10
5.92957712779278
 20
17.07105506196933
 30
0.0
 11
-44.07042287220722
 21
17.07105506196933
 31
0.0
  0
LINE
  5
120
330
71
100
AcDbEntity
  8
1
  6
Continuous
 62
     2
100
AcDbLine
 10
5.92957712779278
 20
17.07105506196933
 30
0.0
 11
5.92957712779278
 21
22.07105506196945
 31
0.0
  0
LINE
  5
121
330
71
100
AcDbEntity
  8
1
  6
Continuous
 62
     2
100
AcDbLine
 10
-44.07042287220722
 20
17.07105506196933
 30
0.0
 11
-44.07042287220722
 21
22.07105506196945
 31
0.0
  0
LINE
  5
122
330
71
100
AcDbEntity
  8
1
  6
Continuous
 62
     2
100
AcDbLine
 10
-94.07042287220719
 20
17.07105506196933
 30
0.0
 11
-44.07042287220722
 21
17.07105506196933
 31
0.0
  0
LINE
  5
123
330
71
100
AcDbEntity
  8
1
  6
Continuous
 62
     2
100
AcDbLine
 10
-94.07042287220719
 20
17.07105506196933
 30
0.0
 11
-94.07042287220719
 21
22.07105506196945
 31
0.0
  0
LINE
  5
124
330
71
100
AcDbEntity
  8
1
  6
Continuous
 62
     2
100
AcDbLine
 10
-144.0704228722074
 20
17.07105506196933
 30
0.0
 11
-94.07042287220719
 21
17.07105506196933
 31
0.0
  0
LINE
  5
125
330
71
100
AcDbEntity
  8
1
  6
Continuous
 62
     2
100
AcDbLine
 10
-144.0704228722074
 20
17.07105506196933
 30
0.0
 11
-144.0704228722074
 21
22.07105506196945
 31
0.0
  0
LINE
  5
126
330
71
100
AcDbEntity
  8
1
  6
Continuous
 62
     2
100
AcDbLine
 10
-194.0704228722072
 20
17.07105506196933
 30
0.0
 11
-144.0704228722074
 21
17.07105506196933
 31
0.0
  0
LINE
  5
127
330
71
100
AcDbEntity
  8
1
  6
Continuous
 62
     2
100
AcDbLine
 10
-194.0704228722072
 20
17.07105506196933
 30
0.0
 11
-194.0704228722072
 21
22.07105506196945
 31
0.0
  0
LINE
  5
128
330
71
100
AcDbEntity
  8
1
  6
Continuous
 62
     6
100
AcDbLine
 10
-237.5704228722055
 20
72.07105506196956
 30
0.0
 11
-237.5704228722053
 21
22.07105506196945
 31
0.0
  0
LINE
  5
129
330
71
100
AcDbEntity
  8
1
  6
Continuous
 62
     2
100
AcDbLine
 10
-242.5704228722063
 20
72.07105506196956
 30
0.0
 11
-242.5704228722063
 21
22.07105506196945
 31
0.0
  0
LINE
  5
12A
330
71
100
AcDbEntity
  8
1
  6
Continuous
 62
     2
100
AcDbLine
 10
-242.5704228722063
 20
72.07105506196956
 30
0.0
 11
-237.5704228722055
 21
72.07105506196956
 31
0.0
  0
LINE
  5
12B
330
71
100
AcDbEntity
  8
1
  6
Continuous
 62
     6
100
AcDbLine
 10
-237.5704228722057
 20
122.0710550619694
 30
0.0
 11
-237.5704228722055
 21
72.07105506196956
 31
0.0
  0
LINE
  5
12C
330
71
100
AcDbEntity
  8
1
  6
Continuous
 62
     2
100
AcDbLine
 10
-242.5704228722063
 20
122.0710550619694
 30
0.0
 11
-242.5704228722063
 21
72.07105506196956
 31
0.0
  0
LINE
  5
12D
330
71
100
AcDbEntity
  8
1
  6
Continuous
 62
     2
100
AcDbLine
 10
-242.5704228722063
 20
122.0710550619694
 30
0.0
 11
-237.5704228722057
 21
122.0710550619694
 31
0.0
  0
LINE
  5
12E
330
71
100
AcDbEntity
  8
1
  6
Continuous
 62
     6
100
AcDbLine
 10
-237.5704228722062
 20
172.0710550619695
 30
0.0
 11
-237.5704228722057
 21
122.0710550619694
 31
0.0
  0
LINE
  5
12F
330
71
100
AcDbEntity
  8
1
  6
Continuous
 62
     2
100
AcDbLine
 10
-242.5704228722063
 20
172.0710550619695
 30
0.0
 11
-242.5704228722063
 21
122.0710550619694
 31
0.0
  0
LINE
  5
130
330
71
100
AcDbEntity
  8
1
  6
Continuous
 62
     2
100
AcDbLine
 10
-242.5704228722063
 20
172.0710550619695
 30
0.0
 11
-237.5704228722062
 21
172.0710550619695
 31
0.0
  0
LINE
  5
131
330
71
100
AcDbEntity
  8
1
  6
Continuous
 62
     6
100
AcDbLine
 10
-237.5704228722063
 20
207.0710550619695
 30
0.0
 11
-237.5704228722062
 21
172.0710550619695
 31
0.0
  0
LINE
  5
132
330
71
100
AcDbEntity
  8
1
  6
Continuous
 62
     2
100
AcDbLine
 10
-242.5704228722063
 20
227.0710550619695
 30
0.0
 11
-242.5704228722063
 21
172.0710550619695
 31
0.0
  0
LINE
  5
133
330
71
100
AcDbEntity
  8
1
  6
Continuous
 62
     2
100
AcDbLine
 10
-242.5704228722063
 20
17.07105506196933
 30
0.0
 11
-237.5704228722053
 21
17.07105506196933
 31
0.0
  0
LINE
  5
134
330
71
100
AcDbEntity
  8
1
  6
Continuous
 62
     2
100
AcDbLine
 10
-94.07042287220719
 20
227.0710550619695
 30
0.0
 11
-94.07042287220719
 21
217.8623632172681
 31
0.0
  0
LINE
  5
135
330
71
100
AcDbEntity
  8
1
  6
Continuous
 62
     2
100
AcDbLine
 10
-94.07042287220719
 20
227.0710550619695
 30
0.0
 11
-242.5704228722063
 21
227.0710550619695
 31
0.0
  0
LINE
  5
136
330
71
100
AcDbEntity
  8
1
  6
Continuous
 62
     2
100
AcDbLine
 10
54.42957712779179
 20
22.07105506196945
 30
0.0
 11
54.42957712779179
 21
72.07105506196956
 31
0.0
  0
LINE
  5
137
330
71
100
AcDbEntity
  8
1
  6
Continuous
 62
     2
100
AcDbLine
 10
54.42957712779179
 20
172.0710550619695
 30
0.0
 11
54.42957712779179
 21
227.0710550619695
 31
0.0
  0
LINE
  5
138
330
71
100
AcDbEntity
  8
1
  6
Continuous
 62
     6
100
AcDbLine
 10
49.42957712779199
 20
172.0710550619695
 30
0.0
 11
49.42957712779179
 21
207.0710550619695
 31
0.0
  0
LINE
  5
139
330
71
100
AcDbEntity
  8
1
  6
Continuous
 62
     2
100
AcDbLine
 10
49.42957712779199
 20
172.0710550619695
 30
0.0
 11
54.42957712779179
 21
172.0710550619695
 31
0.0
  0
LINE
  5
13A
330
71
100
AcDbEntity
  8
1
  6
Continuous
 62
     2
100
AcDbLine
 10
54.42957712779179
 20
122.0710550619694
 30
0.0
 11
54.42957712779179
 21
172.0710550619695
 31
0.0
  0
LINE
  5
13B
330
71
100
AcDbEntity
  8
1
  6
Continuous
 62
     6
100
AcDbLine
 10
49.4295771277932
 20
122.0710550619694
 30
0.0
 11
49.42957712779199
 21
172.0710550619695
 31
0.0
  0
LINE
  5
13C
330
71
100
AcDbEntity
  8
1
  6
Continuous
 62
     2
100
AcDbLine
 10
49.4295771277932
 20
122.0710550619694
 30
0.0
 11
54.42957712779179
 21
122.0710550619694
 31
0.0
  0
LINE
  5
13D
330
71
100
AcDbEntity
  8
1
  6
Continuous
 62
     2
100
AcDbLine
 10
54.42957712779179
 20
72.07105506196956
 30
0.0
 11
54.42957712779179
 21
122.0710550619694
 31
0.0
  0
LINE
  5
13E
330
71
100
AcDbEntity
  8
1
  6
Continuous
 62
     6
100
AcDbLine
 10
49.42957712779369
 20
72.07105506196956
 30
0.0
 11
49.4295771277932
 21
122.0710550619694
 31
0.0
  0
LINE
  5
13F
330
71
100
AcDbEntity
  8
1
  6
Continuous
 62
     2
100
AcDbLine
 10
49.42957712779369
 20
72.07105506196956
 30
0.0
 11
54.42957712779179
 21
72.07105506196956
 31
0.0
  0
LINE
  5
140
330
71
100
AcDbEntity
  8
1
  6
Continuous
 62
     6
100
AcDbLine
 10
49.42957712779179
 20
207.0710550619695
 30
0.0
 11
-237.5704228722063
 21
207.0710550619695
 31
0.0
  0
LINE
  5
141
330
71
100
AcDbEntity
  8
1
  6
Continuous
 62
     2
100
AcDbLine
 10
54.42957712779179
 20
227.0710550619695
 30
0.0
 11
-94.07042287220719
 21
227.0710550619695
 31
0.0
  0
LINE
  5
142
330
71
100
AcDbEntity
  8
1
  6
Continuous
 62
     6
100
AcDbLine
 10
49.42957712779449
 20
39.07105506196945
 30
0.0
 11
49.42957712779369
 21
72.07105506196956
 31
0.0
  0
LINE
  5
143
330
71
100
AcDbEntity
  8
1
  6
Continuous
 62
     2
100
AcDbLine
 10
49.4295771277928
 20
17.07105506196933
 30
0.0
 11
5.92957712779278
 21
17.07105506196933
 31
0.0
  0
LINE
  5
144
330
71
100
AcDbEntity
  8
1
  6
Continuous
 62
     2
100
AcDbLine
 10
54.42957712779179
 20
17.07105506196933
 30
0.0
 11
49.4295771277928
 21
17.07105506196933
 31
0.0
  0
LINE
  5
145
330
71
100
AcDbEntity
  8
1
  6
Continuous
 62
     2
100
AcDbLine
 10
54.42957712779179
 20
17.07105506196933
 30
0.0
 11
54.42957712779179
 21
22.07105506196945
 31
0.0
  0
LINE
  5
146
330
71
100
AcDbEntity
  8
1
  6
Continuous
 62
     6
100
AcDbLine
 10
-80.11522739895722
 20
39.07105506196945
 30
0.0
 11
-43.7152273989573
 21
39.07105506196945
 31
0.0
  0
LINE
  5
147
330
71
100
AcDbEntity
  8
1
  6
Continuous
 62
     2
100
AcDbLine
 10
49.4295771277928
 20
22.07105506196945
 30
0.0
 11
49.4295771277928
 21
17.07105506196933
 31
0.0
  0
LINE
  5
148
330
71
100
AcDbEntity
  8
1
  6
Continuous
 62
     2
100
AcDbLine
 10
49.4295771277928
 20
22.07105506196945
 30
0.0
 11
54.42957712779179
 21
22.07105506196945
 31
0.0
  0
LINE
  5
149
330
71
100
AcDbEntity
  8
1
  6
Continuous
 62
     6
100
AcDbLine
 10
-44.07042287220722
 20
22.07105506196945
 30
0.0
 11
-61.9152273989572
 21
22.07105506196945
 31
0.0
  0
LINE
  5
14A
330
71
100
AcDbEntity
  8
1
  6
Continuous
 62
     6
100
AcDbLine
 10
5.92957712779278
 20
22.07105506196945
 30
0.0
 11
49.4295771277928
 21
22.07105506196945
 31
0.0
  0
LINE
  5
14B
330
71
100
AcDbEntity
  8
1
  6
Continuous
 62
     6
100
AcDbLine
 10
-144.0704228722074
 20
22.07105506196945
 30
0.0
 11
-149.1152273989572
 21
22.07105506196945
 31
0.0
  0
LINE
  5
14C
330
71
100
AcDbEntity
  8
1
  6
Continuous
 62
     6
100
AcDbLine
 10
-94.07042287220719
 20
22.07105506196945
 30
0.0
 11
-80.11522739895722
 21
22.07105506196933
 31
0.0
  0
LINE
  5
14D
102
{ACAD_REACTORS
330
237
330
238
102
}
330
71
100
AcDbEntity
  8
0
  6
Continuous
 62
     2
100
AcDbLine
 10
-72.60060145681041
 20
34.14356981818156
 30
0.0
 11
-72.60060145681041
 21
34.74910510668835
 31
0.0
  0
LINE
  5
14E
102
{ACAD_REACTORS
330
237
330
238
102
}
330
71
100
AcDbEntity
  8
0
  6
Continuous
 62
     2
100
AcDbLine
 10
-72.60060145681041
 20
31.34343521155026
 30
0.0
 11
-72.60060145681041
 21
31.92528661824534
 31
0.0
  0
LINE
  5
14F
102
{ACAD_REACTORS
330
239
330
23A
102
}
330
71
100
AcDbEntity
  8
0
  6
Continuous
 62
     2
100
AcDbLine
 10
-49.9711150213312
 20
31.63309927967325
 30
0.0
 11
-49.9711150213312
 21
29.36455506198575
 31
0.0
  0
LINE
  5
150
102
{ACAD_REACTORS
330
239
330
23A
102
}
330
71
100
AcDbEntity
  8
0
  6
Continuous
 62
     2
100
AcDbLine
 10
-51.35216880031879
 20
32.41836458579635
 30
0.0
 11
-47.96722328169011
 21
32.41836458579684
 31
0.0
  0
LINE
  5
151
102
{ACAD_REACTORS
330
239
330
23A
102
}
330
71
100
AcDbEntity
  8
0
  6
Continuous
 62
     2
100
AcDbLine
 10
-47.96722328169011
 20
31.63309927967325
 30
0.0
 11
-47.96722328169011
 21
32.41836458579684
 31
0.0
  0
LINE
  5
152
102
{ACAD_REACTORS
330
239
330
23A
102
}
330
71
100
AcDbEntity
  8
0
  6
Continuous
 62
     2
100
AcDbLine
 10
-48.77832231916349
 20
31.63309927967325
 30
0.0
 11
-47.96722328169011
 21
31.63309927967325
 31
0.0
  0
LINE
  5
153
102
{ACAD_REACTORS
330
239
330
23A
102
}
330
71
100
AcDbEntity
  8
0
  6
Continuous
 62
     2
100
AcDbLine
 10
-48.77832231916349
 20
29.36455506198575
 30
0.0
 11
-48.77832231916349
 21
31.63309927967325
 31
0.0
  0
LINE
  5
154
102
{ACAD_REACTORS
330
239
330
23A
102
}
330
71
100
AcDbEntity
  8
0
  6
Continuous
 62
     2
100
AcDbLine
 10
-49.9711150213312
 20
29.36455506198575
 30
0.0
 11
-48.77832231916349
 21
29.36455506198575
 31
0.0
  0
LINE
  5
155
102
{ACAD_REACTORS
330
22F
330
230
102
}
330
71
100
AcDbEntity
  8
0
  6
Continuous
 62
     2
100
AcDbLine
 10
-50.6677059593957
 20
35.77755506197124
 30
0.0
 11
-52.070430177145
 21
35.77755506197124
 31
0.0
  0
LINE
  5
156
102
{ACAD_REACTORS
330
22F
330
230
102
}
330
71
100
AcDbEntity
  8
0
  6
Continuous
 62
     2
100
AcDbLine
 10
-50.6677059593957
 20
35.77755506197124
 30
0.0
 11
-50.06653843750391
 21
35.09773174041575
 31
0.0
  0
LINE
  5
157
102
{ACAD_REACTORS
330
22F
330
230
102
}
330
71
100
AcDbEntity
  8
0
  6
Continuous
 62
     2
100
AcDbLine
 10
-50.06653843750391
 20
35.09773174041575
 30
0.0
 11
-49.46537091561112
 21
35.77755506197124
 31
0.0
  0
LINE
  5
158
102
{ACAD_REACTORS
330
22F
330
230
102
}
330
71
100
AcDbEntity
  8
0
  6
Continuous
 62
     2
100
AcDbLine
 10
-49.36517632863041
 20
34.30460453193504
 30
0.0
 11
-48.0626466978639
 21
35.77755506197124
 31
0.0
  0
LINE
  5
159
102
{ACAD_REACTORS
330
22F
330
230
102
}
330
71
100
AcDbEntity
  8
0
  6
Continuous
 62
     2
100
AcDbLine
 10
-49.36517632863041
 20
34.30460453193504
 30
0.0
 11
-47.96722328169011
 21
32.72374553816005
 31
0.0
  0
LINE
  5
15A
102
{ACAD_REACTORS
330
22F
330
230
102
}
330
71
100
AcDbEntity
  8
0
  6
Continuous
 62
     2
100
AcDbLine
 10
-49.36994749943841
 20
32.72374553816005
 30
0.0
 11
-47.96722328169011
 21
32.72374553816005
 31
0.0
  0
LINE
  5
15B
102
{ACAD_REACTORS
330
22F
330
230
102
}
330
71
100
AcDbEntity
  8
0
  6
Continuous
 62
     2
100
AcDbLine
 10
-50.06653843750391
 20
33.51147732345376
 30
0.0
 11
-49.36994749943841
 21
32.72374553816005
 31
0.0
  0
LINE
  5
15C
102
{ACAD_REACTORS
330
22D
330
22E
102
}
330
71
100
AcDbEntity
  8
0
  6
Continuous
 62
     2
100
AcDbLine
 10
-53.5256372737876
 20
35.77755506197124
 30
0.0
 11
-52.2851328635347
 21
35.77755506197124
 31
0.0
  0
LINE
  5
15D
102
{ACAD_REACTORS
330
22D
330
22E
102
}
330
71
100
AcDbEntity
  8
0
  6
Continuous
 62
     2
100
AcDbLine
 10
-52.2851328635347
 20
35.77755506197124
 30
0.0
 11
-52.2851328635347
 21
32.72374553816005
 31
0.0
  0
LINE
  5
15E
102
{ACAD_REACTORS
330
22D
330
22E
102
}
330
71
100
AcDbEntity
  8
0
  6
Continuous
 62
     2
100
AcDbLine
 10
-53.5256372737876
 20
32.72374553816005
 30
0.0
 11
-53.5256372737876
 21
35.77755506197124
 31
0.0
  0
LINE
  5
15F
102
{ACAD_REACTORS
330
22B
330
22C
102
}
330
71
100
AcDbEntity
  8
0
  6
Continuous
 62
     2
100
AcDbLine
 10
-54.99394735632521
 20
30.58607887151024
 30
0.0
 11
-54.69378211913281
 21
31.35389383749694
 31
0.0
  0
LINE
  5
160
102
{ACAD_REACTORS
330
22B
330
22C
102
}
330
71
100
AcDbEntity
  8
0
  6
Continuous
 62
     2
100
AcDbLine
 10
-55.47148296094602
 20
29.36455506198575
 30
0.0
 11
-55.26000290747021
 21
29.90551560620364
 31
0.0
  0
LINE
  5
161
102
{ACAD_REACTORS
330
22B
330
22C
102
}
330
71
100
AcDbEntity
  8
0
  6
Continuous
 62
     2
100
AcDbLine
 10
-55.31403432425969
 20
32.41836458579684
 30
0.0
 11
-56.711987371199
 21
29.36455506198575
 31
0.0
  0
LINE
  5
162
102
{ACAD_REACTORS
330
22B
330
22C
102
}
330
71
100
AcDbEntity
  8
0
  6
Continuous
 62
     2
100
AcDbLine
 10
-52.6755768670667
 20
29.36455506198575
 30
0.0
 11
-53.91608127732062
 21
29.36455506198575
 31
0.0
  0
LINE
  5
163
102
{ACAD_REACTORS
330
22B
330
22C
102
}
330
71
100
AcDbEntity
  8
0
  6
Continuous
 62
     2
100
AcDbLine
 10
-55.26000290747021
 20
29.90551560620364
 30
0.0
 11
-54.1275613307964
 21
29.90551560620364
 31
0.0
  0
LINE
  5
164
102
{ACAD_REACTORS
330
229
330
22A
102
}
330
71
100
AcDbEntity
  8
0
  6
Continuous
 62
     2
100
AcDbLine
 10
-58.86949951038122
 20
31.63309927967325
 30
0.0
 11
-58.05840047290661
 21
31.63309927967325
 31
0.0
  0
LINE
  5
165
102
{ACAD_REACTORS
330
229
330
22A
102
}
330
71
100
AcDbEntity
  8
0
  6
Continuous
 62
     2
100
AcDbLine
 10
-56.0545087332676
 20
32.41836458579684
 30
0.0
 11
-58.86949951038122
 21
32.41836458579684
 31
0.0
  0
LINE
  5
166
102
{ACAD_REACTORS
330
229
330
22A
102
}
330
71
100
AcDbEntity
  8
0
  6
Continuous
 62
     2
100
AcDbLine
 10
-56.0545087332676
 20
31.63309927967325
 30
0.0
 11
-56.0545087332676
 21
32.41836458579684
 31
0.0
  0
LINE
  5
167
102
{ACAD_REACTORS
330
229
330
22A
102
}
330
71
100
AcDbEntity
  8
0
  6
Continuous
 62
     2
100
AcDbLine
 10
-56.8656077707401
 20
31.63309927967325
 30
0.0
 11
-56.0545087332676
 21
31.63309927967325
 31
0.0
  0
LINE
  5
168
102
{ACAD_REACTORS
330
229
330
22A
102
}
330
71
100
AcDbEntity
  8
0
  6
Continuous
 62
     2
100
AcDbLine
 10
-56.8656077707401
 20
29.36455506198575
 30
0.0
 11
-56.8656077707401
 21
31.63309927967325
 31
0.0
  0
LINE
  5
169
102
{ACAD_REACTORS
330
227
330
228
102
}
330
71
100
AcDbEntity
  8
0
  6
Continuous
 62
     2
100
AcDbLine
 10
-56.1974929266421
 20
32.72374553816005
 30
0.0
 11
-56.1974929266421
 21
34.03252104836474
 31
0.0
  0
LINE
  5
16A
102
{ACAD_REACTORS
330
227
330
228
102
}
330
71
100
AcDbEntity
  8
0
  6
Continuous
 62
     2
100
AcDbLine
 10
-57.39028562880861
 20
35.77755506197124
 30
0.0
 11
-57.39028562880861
 21
32.72374553816005
 31
0.0
  0
LINE
  5
16B
102
{ACAD_REACTORS
330
227
330
228
102
}
330
71
100
AcDbEntity
  8
0
  6
Continuous
 62
     2
100
AcDbLine
 10
-56.1974929266421
 20
35.77755506197124
 30
0.0
 11
-57.39028562880861
 21
35.77755506197124
 31
0.0
  0
LINE
  5
16C
102
{ACAD_REACTORS
330
227
330
228
102
}
330
71
100
AcDbEntity
  8
0
  6
Continuous
 62
     2
100
AcDbLine
 10
-54.95698851638809
 20
35.77755506197124
 30
0.0
 11
-54.95698851638809
 21
34.46877955176606
 31
0.0
  0
LINE
  5
16D
102
{ACAD_REACTORS
330
225
330
226
102
}
330
71
100
AcDbEntity
  8
0
  6
Continuous
 62
     2
100
AcDbLine
 10
-62.63872444922831
 20
32.41836458579684
 30
0.0
 11
-62.63872444922831
 21
29.36455506198575
 31
0.0
  0
LINE
  5
16E
102
{ACAD_REACTORS
330
225
330
226
102
}
330
71
100
AcDbEntity
  8
0
  6
Continuous
 62
     2
100
AcDbLine
 10
-61.44593174706071
 20
32.41836458579684
 30
0.0
 11
-62.63872444922831
 21
32.41836458579684
 31
0.0
  0
LINE
  5
16F
102
{ACAD_REACTORS
330
225
330
226
102
}
330
71
100
AcDbEntity
  8
0
  6
Continuous
 62
     2
100
AcDbLine
 10
-60.20542733680782
 20
29.36455506198575
 30
0.0
 11
-59.01263463464142
 21
29.36455506198575
 31
0.0
  0
LINE
  5
170
102
{ACAD_REACTORS
330
225
330
226
102
}
330
71
100
AcDbEntity
  8
0
  6
Continuous
 62
     2
100
AcDbLine
 10
-62.63872444922831
 20
29.36455506198575
 30
0.0
 11
-61.44593174706071
 21
29.36455506198575
 31
0.0
  0
LINE
  5
171
102
{ACAD_REACTORS
330
235
330
236
102
}
330
71
100
AcDbEntity
  8
0
  6
Continuous
 62
     2
100
AcDbLine
 10
-58.9647719956692
 20
34.59965710278655
 30
0.0
 11
-58.9647719956692
 21
35.07954145652826
 31
0.0
  0
LINE
  5
172
102
{ACAD_REACTORS
330
235
330
236
102
}
330
71
100
AcDbEntity
  8
0
  6
Continuous
 62
     2
100
AcDbLine
 10
-57.62884416924152
 20
34.59965710278655
 30
0.0
 11
-58.9647719956692
 21
34.59965710278655
 31
0.0
  0
LINE
  5
173
102
{ACAD_REACTORS
330
235
330
236
102
}
330
71
100
AcDbEntity
  8
0
  6
Continuous
 62
     2
100
AcDbLine
 10
-57.62884416924152
 20
33.90164349734425
 30
0.0
 11
-57.62884416924152
 21
34.59965710278655
 31
0.0
  0
LINE
  5
174
102
{ACAD_REACTORS
330
235
330
236
102
}
330
71
100
AcDbEntity
  8
0
  6
Continuous
 62
     2
100
AcDbLine
 10
-58.9647719956692
 20
33.90164349734425
 30
0.0
 11
-57.62884416924152
 21
33.90164349734425
 31
0.0
  0
LINE
  5
175
102
{ACAD_REACTORS
330
223
330
224
102
}
330
71
100
AcDbEntity
  8
0
  6
Continuous
 62
     2
100
AcDbLine
 10
-62.44772668599612
 20
35.77755506197124
 30
0.0
 11
-62.44772668599612
 21
32.72374553816005
 31
0.0
  0
LINE
  5
176
102
{ACAD_REACTORS
330
223
330
224
102
}
330
71
100
AcDbEntity
  8
0
  6
Continuous
 62
     2
100
AcDbLine
 10
-62.44772668599612
 20
32.72374553816005
 30
0.0
 11
-63.64051938816252
 21
32.72374553816005
 31
0.0
  0
LINE
  5
177
102
{ACAD_REACTORS
330
223
330
224
102
}
330
71
100
AcDbEntity
  8
0
  6
Continuous
 62
     2
100
AcDbLine
 10
-63.64051938816252
 20
32.72374553816005
 30
0.0
 11
-63.64051938816252
 21
33.85801764700386
 31
0.0
  0
LINE
  5
178
102
{ACAD_REACTORS
330
223
330
224
102
}
330
71
100
AcDbEntity
  8
0
  6
Continuous
 62
     2
100
AcDbLine
 10
-64.69017696607
 20
32.72374553816005
 30
0.0
 11
-65.8829696682366
 21
32.72374553816005
 31
0.0
  0
LINE
  5
179
102
{ACAD_REACTORS
330
223
330
224
102
}
330
71
100
AcDbEntity
  8
0
  6
Continuous
 62
     2
100
AcDbLine
 10
-65.8829696682366
 20
35.77755506197124
 30
0.0
 11
-64.69017696607
 21
35.77755506197124
 31
0.0
  0
LINE
  5
17A
102
{ACAD_REACTORS
330
223
330
224
102
}
330
71
100
AcDbEntity
  8
0
  6
Continuous
 62
     2
100
AcDbLine
 10
-64.69017696607
 20
35.77755506197124
 30
0.0
 11
-64.69017696607
 21
34.70872172863665
 31
0.0
  0
LINE
  5
17B
102
{ACAD_REACTORS
330
223
330
224
102
}
330
71
100
AcDbEntity
  8
0
  6
Continuous
 62
     2
100
AcDbLine
 10
-64.69017696607
 20
34.70872172863665
 30
0.0
 11
-63.64051938816252
 21
34.70872172863665
 31
0.0
  0
LINE
  5
17C
102
{ACAD_REACTORS
330
231
330
232
102
}
330
71
100
AcDbEntity
  8
0
  6
Continuous
 62
     2
100
AcDbLine
 10
-67.8391496997902
 20
35.11444921653114
 30
0.0
 11
-67.5218546382483
 21
35.11444921653114
 31
0.0
  0
LINE
  5
17D
102
{ACAD_REACTORS
330
231
330
232
102
}
330
71
100
AcDbEntity
  8
0
  6
Continuous
 62
     2
100
AcDbLine
 10
-67.8391496997902
 20
34.40872156718893
 30
0.0
 11
-67.5218546382483
 21
34.40872156718893
 31
0.0
  0
LINE
  5
17E
102
{ACAD_REACTORS
330
231
330
232
102
}
330
71
100
AcDbEntity
  8
0
  6
Continuous
 62
     2
100
AcDbLine
 10
-69.07965411004432
 20
35.77755506197124
 30
0.0
 11
-69.07965411004432
 21
32.72374553816005
 31
0.0
  0
LINE
  5
17F
102
{ACAD_REACTORS
330
231
330
232
102
}
330
71
100
AcDbEntity
  8
0
  6
Continuous
 62
     2
100
AcDbLine
 10
-69.07965411004432
 20
35.77755506197124
 30
0.0
 11
-67.08038211200991
 21
35.77755506197124
 31
0.0
  0
LINE
  5
180
102
{ACAD_REACTORS
330
231
330
232
102
}
330
71
100
AcDbEntity
  8
0
  6
Continuous
 62
     2
100
AcDbLine
 10
-67.8391496997902
 20
33.66682377930385
 30
0.0
 11
-67.08038211200991
 21
33.66682377930385
 31
0.0
  0
LINE
  5
181
102
{ACAD_REACTORS
330
237
330
238
102
}
330
71
100
AcDbEntity
  8
0
  6
Continuous
 62
     2
100
AcDbLine
 10
-75.176150143341
 20
34.74928258333645
 30
0.0
 11
-75.176150143341
 21
30.39282754061935
 31
0.0
  0
LINE
  5
182
102
{ACAD_REACTORS
330
237
330
238
102
}
330
71
100
AcDbEntity
  8
0
  6
Continuous
 62
     2
100
AcDbLine
 10
-74.86043322026532
 20
35.06499950641265
 30
0.0
 11
-73.3845999592557
 21
35.06499950641265
 31
0.0
  0
LINE
  5
183
102
{ACAD_REACTORS
330
237
330
238
102
}
330
71
100
AcDbEntity
  8
0
  6
Continuous
 62
     2
100
AcDbLine
 10
-73.0688830361791
 20
34.14525796427594
 30
0.0
 11
-73.0688830361791
 21
34.74928258333645
 31
0.0
  0
LINE
  5
184
102
{ACAD_REACTORS
330
237
330
238
102
}
330
71
100
AcDbEntity
  8
0
  6
Continuous
 62
     2
100
AcDbLine
 10
-73.0688830361791
 20
30.39282754061935
 30
0.0
 11
-73.0688830361791
 21
31.92359847215096
 31
0.0
  0
LINE
  5
185
102
{ACAD_REACTORS
330
237
330
238
102
}
330
71
100
AcDbEntity
  8
0
  6
Continuous
 62
     2
100
AcDbLine
 10
-69.981015806295
 20
29.36455506198575
 30
0.0
 11
-75.45432789701181
 21
29.36455506198575
 31
0.0
  0
LINE
  5
186
102
{ACAD_REACTORS
330
237
330
238
102
}
330
71
100
AcDbEntity
  8
0
  6
Continuous
 62
     2
100
AcDbLine
 10
-69.55677119091112
 20
35.35331044656925
 30
0.0
 11
-69.55677119091112
 21
29.78879967736904
 31
0.0
  0
LINE
  5
187
102
{ACAD_REACTORS
330
237
330
238
102
}
330
71
100
AcDbEntity
  8
0
  6
Continuous
 62
     2
100
AcDbLine
 10
-75.45432789701181
 20
35.77755506195305
 30
0.0
 11
-69.981015806295
 21
35.77755506195305
 31
0.0
  0
LINE
  5
188
102
{ACAD_REACTORS
330
237
330
238
102
}
330
71
100
AcDbEntity
  8
0
  6
Continuous
 62
     2
100
AcDbLine
 10
-75.87857251239461
 20
35.35331044656925
 30
0.0
 11
-75.87857251239461
 21
29.78879967736904
 31
0.0
  0
LINE
  5
189
102
{ACAD_REACTORS
330
237
330
238
102
}
330
71
100
AcDbEntity
  8
0
  6
Continuous
 62
     2
100
AcDbLine
 10
-73.3845999592557
 20
30.07711061754264
 30
0.0
 11
-74.86043322026532
 21
30.07711061754264
 31
0.0
  0
LINE
  5
18A
102
{ACAD_REACTORS
330
231
330
232
102
}
330
71
100
AcDbEntity
  8
0
  6
Continuous
 62
     2
100
AcDbLine
 10
-67.8391496997902
 20
32.72374553816005
 30
0.0
 11
-67.8391496997902
 21
33.66682377930385
 31
0.0
  0
LINE
  5
18B
102
{ACAD_REACTORS
330
231
330
232
102
}
330
71
100
AcDbEntity
  8
0
  6
Continuous
 62
     2
100
AcDbLine
 10
-69.07965411004432
 20
32.72374553816005
 30
0.0
 11
-67.8391496997902
 21
32.72374553816005
 31
0.0
  0
LINE
  5
18C
102
{ACAD_REACTORS
330
231
330
232
102
}
330
71
100
AcDbEntity
  8
0
  6
Continuous
 62
     2
100
AcDbLine
 10
-67.8391496997902
 20
34.40872156718893
 30
0.0
 11
-67.8391496997902
 21
35.11444921653114
 31
0.0
  0
LINE
  5
18D
102
{ACAD_REACTORS
330
223
330
224
102
}
330
71
100
AcDbEntity
  8
0
  6
Continuous
 62
     2
100
AcDbLine
 10
-65.8829696682366
 20
35.77755506197124
 30
0.0
 11
-65.8829696682366
 21
32.72374553816005
 31
0.0
  0
LINE
  5
18E
102
{ACAD_REACTORS
330
223
330
224
102
}
330
71
100
AcDbEntity
  8
0
  6
Continuous
 62
     2
100
AcDbLine
 10
-64.69017696607
 20
33.85801764700386
 30
0.0
 11
-64.69017696607
 21
32.72374553816005
 31
0.0
  0
LINE
  5
18F
102
{ACAD_REACTORS
330
223
330
224
102
}
330
71
100
AcDbEntity
  8
0
  6
Continuous
 62
     2
100
AcDbLine
 10
-63.64051938816252
 20
33.85801764700386
 30
0.0
 11
-64.69017696607
 21
33.85801764700386
 31
0.0
  0
LINE
  5
190
102
{ACAD_REACTORS
330
223
330
224
102
}
330
71
100
AcDbEntity
  8
0
  6
Continuous
 62
     2
100
AcDbLine
 10
-63.64051938816252
 20
35.77755506197124
 30
0.0
 11
-62.44772668599612
 21
35.77755506197124
 31
0.0
  0
LINE
  5
191
102
{ACAD_REACTORS
330
223
330
224
102
}
330
71
100
AcDbEntity
  8
0
  6
Continuous
 62
     2
100
AcDbLine
 10
-63.64051938816252
 20
34.70872172863665
 30
0.0
 11
-63.64051938816252
 21
35.77755506197124
 31
0.0
  0
LINE
  5
192
102
{ACAD_REACTORS
330
235
330
236
102
}
330
71
100
AcDbEntity
  8
0
  6
Continuous
 62
     2
100
AcDbLine
 10
-57.62884416924152
 20
35.07954145652826
 30
0.0
 11
-57.62884416924152
 21
35.77755506197124
 31
0.0
  0
LINE
  5
193
102
{ACAD_REACTORS
330
235
330
236
102
}
330
71
100
AcDbEntity
  8
0
  6
Continuous
 62
     2
100
AcDbLine
 10
-60.77916389302251
 20
35.77755506197124
 30
0.0
 11
-57.62884416924152
 21
35.77755506197124
 31
0.0
  0
LINE
  5
194
102
{ACAD_REACTORS
330
235
330
236
102
}
330
71
100
AcDbEntity
  8
0
  6
Continuous
 62
     2
100
AcDbLine
 10
-60.77916389302251
 20
32.72374553816005
 30
0.0
 11
-57.62884416924152
 21
32.72374553816005
 31
0.0
  0
LINE
  5
195
102
{ACAD_REACTORS
330
235
330
236
102
}
330
71
100
AcDbEntity
  8
0
  6
Continuous
 62
     2
100
AcDbLine
 10
-57.62884416924152
 20
32.72374553816005
 30
0.0
 11
-57.62884416924152
 21
33.42175914360254
 31
0.0
  0
LINE
  5
196
102
{ACAD_REACTORS
330
235
330
236
102
}
330
71
100
AcDbEntity
  8
0
  6
Continuous
 62
     2
100
AcDbLine
 10
-57.62884416924152
 20
33.42175914360254
 30
0.0
 11
-58.9647719956692
 21
33.42175914360254
 31
0.0
  0
LINE
  5
197
102
{ACAD_REACTORS
330
235
330
236
102
}
330
71
100
AcDbEntity
  8
0
  6
Continuous
 62
     2
100
AcDbLine
 10
-58.9647719956692
 20
33.42175914360254
 30
0.0
 11
-58.9647719956692
 21
33.90164349734425
 31
0.0
  0
LINE
  5
198
102
{ACAD_REACTORS
330
235
330
236
102
}
330
71
100
AcDbEntity
  8
0
  6
Continuous
 62
     2
100
AcDbLine
 10
-58.9647719956692
 20
35.07954145652826
 30
0.0
 11
-57.62884416924152
 21
35.07954145652826
 31
0.0
  0
LINE
  5
199
102
{ACAD_REACTORS
330
225
330
226
102
}
330
71
100
AcDbEntity
  8
0
  6
Continuous
 62
     2
100
AcDbLine
 10
-61.44593174706071
 20
29.36455506198575
 30
0.0
 11
-61.44593174706071
 21
30.67333057219034
 31
0.0
  0
LINE
  5
19A
102
{ACAD_REACTORS
330
225
330
226
102
}
330
71
100
AcDbEntity
  8
0
  6
Continuous
 62
     2
100
AcDbLine
 10
-61.44593174706071
 20
30.67333057219034
 30
0.0
 11
-60.20542733680782
 21
29.36455506198575
 31
0.0
  0
LINE
  5
19B
102
{ACAD_REACTORS
330
225
330
226
102
}
330
71
100
AcDbEntity
  8
0
  6
Continuous
 62
     2
100
AcDbLine
 10
-59.01263463464142
 20
29.36455506198575
 30
0.0
 11
-59.01263463464142
 21
32.41836458579684
 31
0.0
  0
LINE
  5
19C
102
{ACAD_REACTORS
330
225
330
226
102
}
330
71
100
AcDbEntity
  8
0
  6
Continuous
 62
     2
100
AcDbLine
 10
-59.01263463464142
 20
32.41836458579684
 30
0.0
 11
-60.20542733680782
 21
32.41836458579684
 31
0.0
  0
LINE
  5
19D
102
{ACAD_REACTORS
330
225
330
226
102
}
330
71
100
AcDbEntity
  8
0
  6
Continuous
 62
     2
100
AcDbLine
 10
-60.20542733680782
 20
32.41836458579684
 30
0.0
 11
-60.20542733680782
 21
31.10958907559174
 31
0.0
  0
LINE
  5
19E
102
{ACAD_REACTORS
330
225
330
226
102
}
330
71
100
AcDbEntity
  8
0
  6
Continuous
 62
     2
100
AcDbLine
 10
-60.20542733680782
 20
31.10958907559174
 30
0.0
 11
-61.44593174706071
 21
32.41836458579684
 31
0.0
  0
LINE
  5
19F
102
{ACAD_REACTORS
330
227
330
228
102
}
330
71
100
AcDbEntity
  8
0
  6
Continuous
 62
     2
100
AcDbLine
 10
-56.1974929266421
 20
34.03252104836474
 30
0.0
 11
-54.95698851638809
 21
32.72374553816005
 31
0.0
  0
LINE
  5
1A0
102
{ACAD_REACTORS
330
227
330
228
102
}
330
71
100
AcDbEntity
  8
0
  6
Continuous
 62
     2
100
AcDbLine
 10
-54.95698851638809
 20
32.72374553816005
 30
0.0
 11
-53.7641958142215
 21
32.72374553816005
 31
0.0
  0
LINE
  5
1A1
102
{ACAD_REACTORS
330
227
330
228
102
}
330
71
100
AcDbEntity
  8
0
  6
Continuous
 62
     2
100
AcDbLine
 10
-53.7641958142215
 20
32.72374553816005
 30
0.0
 11
-53.7641958142215
 21
35.77755506197124
 31
0.0
  0
LINE
  5
1A2
102
{ACAD_REACTORS
330
227
330
228
102
}
330
71
100
AcDbEntity
  8
0
  6
Continuous
 62
     2
100
AcDbLine
 10
-53.7641958142215
 20
35.77755506197124
 30
0.0
 11
-54.95698851638809
 21
35.77755506197124
 31
0.0
  0
LINE
  5
1A3
102
{ACAD_REACTORS
330
227
330
228
102
}
330
71
100
AcDbEntity
  8
0
  6
Continuous
 62
     2
100
AcDbLine
 10
-54.95698851638809
 20
34.46877955176606
 30
0.0
 11
-56.1974929266421
 21
35.77755506197124
 31
0.0
  0
LINE
  5
1A4
102
{ACAD_REACTORS
330
227
330
228
102
}
330
71
100
AcDbEntity
  8
0
  6
Continuous
 62
     2
100
AcDbLine
 10
-57.39028562880861
 20
32.72374553816005
 30
0.0
 11
-56.1974929266421
 21
32.72374553816005
 31
0.0
  0
LINE
  5
1A5
102
{ACAD_REACTORS
330
229
330
22A
102
}
330
71
100
AcDbEntity
  8
0
  6
Continuous
 62
     2
100
AcDbLine
 10
-58.86949951038122
 20
32.41836458579684
 30
0.0
 11
-58.86949951038122
 21
31.63309927967325
 31
0.0
  0
LINE
  5
1A6
102
{ACAD_REACTORS
330
229
330
22A
102
}
330
71
100
AcDbEntity
  8
0
  6
Continuous
 62
     2
100
AcDbLine
 10
-58.05840047290661
 20
31.63309927967325
 30
0.0
 11
-58.05840047290661
 21
29.36455506198575
 31
0.0
  0
LINE
  5
1A7
102
{ACAD_REACTORS
330
229
330
22A
102
}
330
71
100
AcDbEntity
  8
0
  6
Continuous
 62
     2
100
AcDbLine
 10
-58.05840047290661
 20
29.36455506198575
 30
0.0
 11
-56.8656077707401
 21
29.36455506198575
 31
0.0
  0
LINE
  5
1A8
102
{ACAD_REACTORS
330
22B
330
22C
102
}
330
71
100
AcDbEntity
  8
0
  6
Continuous
 62
     2
100
AcDbLine
 10
-53.91608127732062
 20
29.36455506198575
 30
0.0
 11
-54.1275613307964
 21
29.90551560620364
 31
0.0
  0
LINE
  5
1A9
102
{ACAD_REACTORS
330
22B
330
22C
102
}
330
71
100
AcDbEntity
  8
0
  6
Continuous
 62
     2
100
AcDbLine
 10
-54.073529914007
 20
32.41836458579684
 30
0.0
 11
-52.6755768670667
 21
29.36455506198575
 31
0.0
  0
LINE
  5
1AA
102
{ACAD_REACTORS
330
22B
330
22C
102
}
330
71
100
AcDbEntity
  8
0
  6
Continuous
 62
     2
100
AcDbLine
 10
-55.31403432425969
 20
32.41836458579684
 30
0.0
 11
-54.073529914007
 21
32.41836458579684
 31
0.0
  0
LINE
  5
1AB
102
{ACAD_REACTORS
330
22B
330
22C
102
}
330
71
100
AcDbEntity
  8
0
  6
Continuous
 62
     2
100
AcDbLine
 10
-56.711987371199
 20
29.36455506198575
 30
0.0
 11
-55.47148296094602
 21
29.36455506198575
 31
0.0
  0
LINE
  5
1AC
102
{ACAD_REACTORS
330
22B
330
22C
102
}
330
71
100
AcDbEntity
  8
0
  6
Continuous
 62
     2
100
AcDbLine
 10
-54.99394735632521
 20
30.58607887151024
 30
0.0
 11
-54.39361688194271
 21
30.58607887151024
 31
0.0
  0
LINE
  5
1AD
102
{ACAD_REACTORS
330
22B
330
22C
102
}
330
71
100
AcDbEntity
  8
0
  6
Continuous
 62
     2
100
AcDbLine
 10
-54.39361688194271
 20
30.58607887151024
 30
0.0
 11
-54.69378211913281
 21
31.35389383749694
 31
0.0
  0
LINE
  5
1AE
102
{ACAD_REACTORS
330
22D
330
22E
102
}
330
71
100
AcDbEntity
  8
0
  6
Continuous
 62
     2
100
AcDbLine
 10
-52.2851328635347
 20
32.72374553816005
 30
0.0
 11
-53.5256372737876
 21
32.72374553816005
 31
0.0
  0
LINE
  5
1AF
102
{ACAD_REACTORS
330
22F
330
230
102
}
330
71
100
AcDbEntity
  8
0
  6
Continuous
 62
     2
100
AcDbLine
 10
-50.76312937556961
 20
32.72374553816005
 30
0.0
 11
-52.16585359331782
 21
32.72374553816005
 31
0.0
  0
LINE
  5
1B0
102
{ACAD_REACTORS
330
22F
330
230
102
}
330
71
100
AcDbEntity
  8
0
  6
Continuous
 62
     2
100
AcDbLine
 10
-50.76312937556961
 20
32.72374553816005
 30
0.0
 11
-50.06653843750391
 21
33.51147732345376
 31
0.0
  0
LINE
  5
1B1
102
{ACAD_REACTORS
330
22F
330
230
102
}
330
71
100
AcDbEntity
  8
0
  6
Continuous
 62
     2
100
AcDbLine
 10
-49.46537091561112
 20
35.77755506197124
 30
0.0
 11
-48.0626466978639
 21
35.77755506197124
 31
0.0
  0
LINE
  5
1B2
102
{ACAD_REACTORS
330
22F
330
230
102
}
330
71
100
AcDbEntity
  8
0
  6
Continuous
 62
     2
100
AcDbLine
 10
-52.070430177145
 20
35.77755506197124
 30
0.0
 11
-50.76790054637752
 21
34.30460453193504
 31
0.0
  0
LINE
  5
1B3
102
{ACAD_REACTORS
330
22F
330
230
102
}
330
71
100
AcDbEntity
  8
0
  6
Continuous
 62
     2
100
AcDbLine
 10
-52.16585359331782
 20
32.72374553816005
 30
0.0
 11
-50.76790054637752
 21
34.30460453193504
 31
0.0
  0
LINE
  5
1B4
102
{ACAD_REACTORS
330
239
330
23A
102
}
330
71
100
AcDbEntity
  8
0
  6
Continuous
 62
     2
100
AcDbLine
 10
-50.30509697793789
 20
30.41157547014936
 30
0.0
 11
-50.30509697793789
 21
29.53905846334604
 31
0.0
  0
LINE
  5
1B5
102
{ACAD_REACTORS
330
239
330
23A
102
}
330
71
100
AcDbEntity
  8
0
  6
Continuous
 62
     2
100
AcDbLine
 10
-51.0747543208993
 20
31.63309927967325
 30
0.0
 11
-49.9711150213312
 21
31.63309927967325
 31
0.0
  0
LINE
  5
1B6
102
{ACAD_REACTORS
330
23B
330
23C
102
}
330
71
100
AcDbEntity
  8
0
  6
Continuous
 62
     2
100
AcDbLine
 10
-66.40779845718981
 20
30.41157547014984
 30
0.0
 11
-66.40779845718981
 21
29.53905846334664
 31
0.0
  0
LINE
  5
1B7
102
{ACAD_REACTORS
330
23B
330
23C
102
}
330
71
100
AcDbEntity
  8
0
  6
Continuous
 62
     2
100
AcDbLine
 10
-66.40779845718981
 20
31.37134417763275
 30
0.0
 11
-66.40779845718981
 21
32.24386118443604
 31
0.0
  0
LINE
  5
1B8
330
71
100
AcDbEntity
  8
1
  6
Continuous
 62
     7
100
AcDbLine
 10
49.42957712779409
 20
30.57105506196945
 30
0.0
 11
-43.7152273989573
 21
30.57105506196945
 31
0.0
  0
LINE
  5
1B9
330
71
100
AcDbEntity
  8
1
  6
Continuous
 62
     6
100
AcDbLine
 10
-149.1152273989572
 20
22.07105506196945
 30
0.0
 11
-194.0704228722072
 21
22.07105506196945
 31
0.0
  0
LINE
  5
1BA
330
71
100
AcDbEntity
  8
1
  6
Continuous
 62
     7
100
AcDbLine
 10
40.51116884611528
 20
47.57105506196945
 30
0.0
 11
40.51116884611528
 21
39.07105506196945
 31
0.0
  0
LINE
  5
1BB
330
71
100
AcDbEntity
  8
1
  6
Continuous
 62
     7
100
AcDbLine
 10
14.01116884611568
 20
47.57105506196945
 30
0.0
 11
14.01116884611568
 21
39.07105506196945
 31
0.0
  0
LINE
  5
1BC
330
71
100
AcDbEntity
  8
1
  6
Continuous
 62
     7
100
AcDbLine
 10
-43.7152273989573
 20
39.07105506196945
 30
0.0
 11
-43.7152273989573
 21
47.57105506196945
 31
0.0
  0
LINE
  5
1BD
330
71
100
AcDbEntity
  8
1
  6
Continuous
 62
     7
100
AcDbLine
 10
-80.11522739895722
 20
39.07105506196945
 30
0.0
 11
-80.11522739895722
 21
47.57105506196945
 31
0.0
  0
LINE
  5
1BE
330
71
100
AcDbEntity
  8
1
  6
Continuous
 62
     6
100
AcDbLine
 10
-43.7152273989573
 20
39.07105506196945
 30
0.0
 11
49.42957712779449
 21
39.07105506196945
 31
0.0
  0
LINE
  5
1BF
330
71
100
AcDbEntity
  8
1
  6
Continuous
 62
     7
100
AcDbLine
 10
-15.81522739895721
 20
30.57105506196936
 30
0.0
 11
-15.81522739895721
 21
39.07105506196945
 31
0.0
  0
LINE
  5
1C0
330
71
100
AcDbEntity
  8
1
  6
PHANTOM
 62
     2
100
AcDbLine
 10
-64.62857251239461
 20
43.19605506196936
 30
0.0
 11
-70.12857251239461
 21
43.19605506196936
 31
0.0
  0
LINE
  5
1C1
330
71
100
AcDbEntity
  8
1
  6
PHANTOM
 62
     2
100
AcDbLine
 10
-67.37857251239461
 20
45.94605506196936
 30
0.0
 11
-67.37857251239461
 21
40.44605506196936
 31
0.0
  0
LINE
  5
1C2
330
71
100
AcDbEntity
  8
1
  6
DOT_CENTER
 62
     2
100
AcDbLine
 10
-76.12857251239461
 20
43.19605506196936
 30
0.0
 11
-70.62857251239461
 21
43.19605506196936
 31
0.0
  0
ARC
  5
1C3
102
{ACAD_REACTORS
330
23B
330
23C
102
}
330
71
100
AcDbEntity
  8
0
  6
Continuous
 62
     2
100
AcDbCircle
 10
-67.74372637430761
 20
27.57877887863515
 30
0.0
 40
4.852596863498068
100
AcDbArc
 50
74.02000874164739
 51
84.84185523037506
  0
ARC
  5
1C4
102
{ACAD_REACTORS
330
23B
330
23C
102
}
330
71
100
AcDbEntity
  8
0
  6
Continuous
 62
     2
100
AcDbCircle
 10
-67.1676857655539
 20
30.73453923451945
 30
0.0
 40
0.9059297849853228
100
AcDbArc
 50
71.55192388185348
 51
113.372277888129
  0
ARC
  5
1C5
102
{ACAD_REACTORS
330
23B
330
23C
102
}
330
71
100
AcDbEntity
  8
0
  6
Continuous
 62
     2
100
AcDbCircle
 10
-67.32412579825592
 20
30.68638839455255
 30
0.0
 40
0.5115800601948034
100
AcDbArc
 50
208.5214732576956
 51
246.6277221118272
  0
ARC
  5
1C6
102
{ACAD_REACTORS
330
23B
330
23C
102
}
330
71
100
AcDbEntity
  8
0
  6
Continuous
 62
     2
100
AcDbCircle
 10
-67.1676857655539
 20
31.04838041326255
 30
0.0
 40
0.905929784984916
100
AcDbArc
 50
246.6277221118709
 51
288.4480761181586
  0
ARC
  5
1C7
102
{ACAD_REACTORS
330
23B
330
23C
102
}
330
71
100
AcDbEntity
  8
0
  6
Continuous
 62
     2
100
AcDbCircle
 10
-67.58585349921469
 20
32.30192618929974
 30
0.0
 40
2.22738400897274
100
AcDbArc
 50
288.4480761181328
 51
301.9309089499592
  0
ARC
  5
1C8
102
{ACAD_REACTORS
330
237
330
238
102
}
330
71
100
AcDbEntity
  8
0
  6
Continuous
 62
     2
100
AcDbCircle
 10
-72.8109272318215
 20
33.03442821821375
 30
0.0
 40
0.9118481501444525
100
AcDbArc
 50
295.3740086781767
 51
64.62599132180748
  0
ARC
  5
1C9
102
{ACAD_REACTORS
330
237
330
238
102
}
330
71
100
AcDbEntity
  8
0
  6
Continuous
 62
     2
100
AcDbCircle
 10
-72.28488453373362
 20
34.74910510668835
 30
0.0
 40
0.3157169230760781
100
AcDbArc
 50
90.18896704254594
 51
180.0
  0
ARC
  5
1CA
102
{ACAD_REACTORS
330
239
330
23A
102
}
330
71
100
AcDbEntity
  8
0
  6
Continuous
 62
     2
100
AcDbCircle
 10
-51.0747543208993
 20
30.67857627284715
 30
0.0
 40
0.9545230068261006
100
AcDbArc
 50
90.0
 51
109.3371432194319
  0
ARC
  5
1CB
102
{ACAD_REACTORS
330
239
330
23A
102
}
330
71
100
AcDbEntity
  8
0
  6
Continuous
 62
     2
100
AcDbCircle
 10
-50.84406706092162
 20
30.89145982389104
 30
0.0
 40
0.9410597353348907
100
AcDbArc
 50
151.4785267423626
 51
208.5214732576695
  0
ARC
  5
1CC
102
{ACAD_REACTORS
330
239
330
23A
102
}
330
71
100
AcDbEntity
  8
0
  6
Continuous
 62
     2
100
AcDbCircle
 10
-51.0649842862999
 20
31.04838041326255
 30
0.0
 40
0.9059297849852797
100
AcDbArc
 50
246.6277221118177
 51
288.4480761180808
  0
ARC
  5
1CD
102
{ACAD_REACTORS
330
239
330
23A
102
}
330
71
100
AcDbEntity
  8
0
  6
Continuous
 62
     2
100
AcDbCircle
 10
-51.48315201996181
 20
32.30192618929914
 30
0.0
 40
2.227384008972744
100
AcDbArc
 50
288.4480761181333
 51
301.9309089499397
  0
ARC
  5
1CE
102
{ACAD_REACTORS
330
239
330
23A
102
}
330
71
100
AcDbEntity
  8
0
  6
Continuous
 62
     2
100
AcDbCircle
 10
-51.64102489505461
 20
34.20414076914744
 30
0.0
 40
4.852596863498828
100
AcDbArc
 50
275.1581447696364
 51
285.9799912583387
  0
ARC
  5
1CF
102
{ACAD_REACTORS
330
239
330
23A
102
}
330
71
100
AcDbEntity
  8
0
  6
Continuous
 62
     2
100
AcDbCircle
 10
-51.35216880031879
 20
31.00425018592586
 30
0.0
 40
1.639695123940448
100
AcDbArc
 50
195.0618917771012
 51
275.1581447696762
  0
ARC
  5
1D0
102
{ACAD_REACTORS
330
231
330
232
102
}
330
71
100
AcDbEntity
  8
0
  6
Continuous
 62
     2
100
AcDbCircle
 10
-67.08038211200991
 20
34.72218942063756
 30
0.0
 40
1.055365641333715
100
AcDbArc
 50
270.0
 51
90.0
  0
ARC
  5
1D1
102
{ACAD_REACTORS
330
237
330
238
102
}
330
71
100
AcDbEntity
  8
0
  6
Continuous
 62
     2
100
AcDbCircle
 10
-74.86043322026532
 20
30.39282754061935
 30
0.0
 40
0.3157169230756836
100
AcDbArc
 50
180.0
 51
270.0
  0
ARC
  5
1D2
102
{ACAD_REACTORS
330
237
330
238
102
}
330
71
100
AcDbEntity
  8
0
  6
Continuous
 62
     2
100
AcDbCircle
 10
-73.3845999592557
 20
34.74928258333645
 30
0.0
 40
0.315716923076593
100
AcDbArc
 50
0.0
 51
90.0
  0
ARC
  5
1D3
102
{ACAD_REACTORS
330
237
330
238
102
}
330
71
100
AcDbEntity
  8
0
  6
Continuous
 62
     2
100
AcDbCircle
 10
-73.3845999592557
 20
34.14525796427594
 30
0.0
 40
0.3157169230761203
100
AcDbArc
 50
295.1944106485397
 51
0.0
  0
ARC
  5
1D4
102
{ACAD_REACTORS
330
237
330
238
102
}
330
71
100
AcDbEntity
  8
0
  6
Continuous
 62
     2
100
AcDbCircle
 10
-73.3845999592557
 20
30.39282754061935
 30
0.0
 40
0.3157169230767103
100
AcDbArc
 50
270.0
 51
0.0
  0
ARC
  5
1D5
102
{ACAD_REACTORS
330
237
330
238
102
}
330
71
100
AcDbEntity
  8
0
  6
Continuous
 62
     2
100
AcDbCircle
 10
-75.45432789701181
 20
35.35331044656925
 30
0.0
 40
0.4242446153837989
100
AcDbArc
 50
90.0
 51
180.0
  0
ARC
  5
1D6
102
{ACAD_REACTORS
330
237
330
238
102
}
330
71
100
AcDbEntity
  8
0
  6
Continuous
 62
     2
100
AcDbCircle
 10
-69.981015806295
 20
35.35331044656925
 30
0.0
 40
0.4242446153838841
100
AcDbArc
 50
0.0
 51
90.0
  0
ARC
  5
1D7
102
{ACAD_REACTORS
330
237
330
238
102
}
330
71
100
AcDbEntity
  8
0
  6
Continuous
 62
     2
100
AcDbCircle
 10
-69.981015806295
 20
29.78879967736904
 30
0.0
 40
0.4242446153832908
100
AcDbArc
 50
270.0
 51
0.0
  0
ARC
  5
1D8
102
{ACAD_REACTORS
330
235
330
236
102
}
330
71
100
AcDbEntity
  8
0
  6
Continuous
 62
     2
100
AcDbCircle
 10
-60.7626319192035
 20
34.25065030006536
 30
0.0
 40
0.7717997786796373
100
AcDbArc
 50
321.8795802028437
 51
38.12041979715956
  0
ARC
  5
1D9
102
{ACAD_REACTORS
330
235
330
236
102
}
330
71
100
AcDbEntity
  8
0
  6
Continuous
 62
     2
100
AcDbCircle
 10
-60.56289188285732
 20
34.09391912194494
 30
0.0
 40
0.517908573013436
100
AcDbArc
 50
218.1204197971522
 51
321.8795802028565
  0
ARC
  5
1DA
102
{ACAD_REACTORS
330
233
330
234
102
}
330
71
100
AcDbEntity
  8
0
  6
Continuous
 62
     2
100
AcDbCircle
 10
-64.24289947181751
 20
30.89145982389104
 30
0.0
 40
1.458034083652003
100
AcDbArc
 50
297.548148175701
 51
62.45185182429896
  0
ARC
  5
1DB
102
{ACAD_REACTORS
330
233
330
234
102
}
330
71
100
AcDbEntity
  8
0
  6
Continuous
 62
     2
100
AcDbCircle
 10
-64.8047792554841
 20
30.89145982389104
 30
0.0
 40
1.45803408365149
100
AcDbArc
 50
117.5481481756624
 51
242.4518518243375
  0
ARC
  5
1DC
102
{ACAD_REACTORS
330
233
330
234
102
}
330
71
100
AcDbEntity
  8
0
  6
Continuous
 62
     2
100
AcDbCircle
 10
-64.52383936365081
 20
30.35288481358825
 30
0.0
 40
2.065479772208564
100
AcDbArc
 50
62.45185182430632
 51
117.5481481756664
  0
ARC
  5
1DD
102
{ACAD_REACTORS
330
233
330
234
102
}
330
71
100
AcDbEntity
  8
0
  6
Continuous
 62
     2
100
AcDbCircle
 10
-64.52383936365081
 20
31.43003483419435
 30
0.0
 40
2.065479772208512
100
AcDbArc
 50
242.4518518243403
 51
297.548148175687
  0
ARC
  5
1DE
102
{ACAD_REACTORS
330
235
330
236
102
}
330
71
100
AcDbEntity
  8
0
  6
Continuous
 62
     2
100
AcDbCircle
 10
-60.36315184651102
 20
34.25065030006536
 30
0.0
 40
0.7717997786796668
100
AcDbArc
 50
141.8795802028401
 51
218.1204197971566
  0
ARC
  5
1DF
102
{ACAD_REACTORS
330
235
330
236
102
}
330
71
100
AcDbEntity
  8
0
  6
Continuous
 62
     2
100
AcDbCircle
 10
-60.56289188285732
 20
34.40738147818584
 30
0.0
 40
0.5179085730135321
100
AcDbArc
 50
38.12041979714286
 51
141.8795802028484
  0
ARC
  5
1E0
102
{ACAD_REACTORS
330
237
330
238
102
}
330
71
100
AcDbEntity
  8
0
  6
Continuous
 62
     2
100
AcDbCircle
 10
-75.45432789701181
 20
29.78879967736904
 30
0.0
 40
0.4242446153828041
100
AcDbArc
 50
180.0
 51
270.0
  0
ARC
  5
1E1
102
{ACAD_REACTORS
330
237
330
238
102
}
330
71
100
AcDbEntity
  8
0
  6
Continuous
 62
     2
100
AcDbCircle
 10
-73.3845999592557
 20
31.92359847215096
 30
0.0
 40
0.315716923076593
100
AcDbArc
 50
0.0
 51
64.80558935146
  0
ARC
  5
1E2
102
{ACAD_REACTORS
330
237
330
238
102
}
330
71
100
AcDbEntity
  8
0
  6
Continuous
 62
     2
100
AcDbCircle
 10
-72.86201551168071
 20
33.03442821821375
 30
0.0
 40
0.9118975235576147
100
AcDbArc
 50
115.1944106485282
 51
244.8055893514878
  0
ARC
  5
1E3
102
{ACAD_REACTORS
330
237
330
238
102
}
330
71
100
AcDbEntity
  8
0
  6
Continuous
 62
     2
100
AcDbCircle
 10
-74.86043322026532
 20
34.74928258333645
 30
0.0
 40
0.3157169230761951
100
AcDbArc
 50
90.0
 51
180.0
  0
ARC
  5
1E4
102
{ACAD_REACTORS
330
231
330
232
102
}
330
71
100
AcDbEntity
  8
0
  6
Continuous
 62
     2
100
AcDbCircle
 10
-67.5218546382483
 20
34.76158539186005
 30
0.0
 40
0.3528638246711253
100
AcDbArc
 50
270.0
 51
90.0
  0
ARC
  5
1E5
102
{ACAD_REACTORS
330
235
330
236
102
}
330
71
100
AcDbEntity
  8
0
  6
Continuous
 62
     2
100
AcDbCircle
 10
-60.77916389302251
 20
34.25065030006536
 30
0.0
 40
1.526904761905882
100
AcDbArc
 50
90.0
 51
270.0
  0
ARC
  5
1E6
102
{ACAD_REACTORS
330
239
330
23A
102
}
330
71
100
AcDbEntity
  8
0
  6
Continuous
 62
     2
100
AcDbCircle
 10
-51.35216880031879
 20
30.77866946185614
 30
0.0
 40
1.639695123940207
100
AcDbArc
 50
90.0
 51
164.9381082228951
  0
ARC
  5
1E7
102
{ACAD_REACTORS
330
239
330
23A
102
}
330
71
100
AcDbEntity
  8
0
  6
Continuous
 62
     2
100
AcDbCircle
 10
-51.7712966437804
 20
30.89145982389104
 30
0.0
 40
1.205656168393001
100
AcDbArc
 50
164.938108222903
 51
195.0618917770958
  0
ARC
  5
1E8
102
{ACAD_REACTORS
330
239
330
23A
102
}
330
71
100
AcDbEntity
  8
0
  6
Continuous
 62
     2
100
AcDbCircle
 10
-51.22142431900301
 20
30.68638839455255
 30
0.0
 40
0.5115800601960153
100
AcDbArc
 50
208.521473257687
 51
246.6277221118455
  0
ARC
  5
1E9
102
{ACAD_REACTORS
330
239
330
23A
102
}
330
71
100
AcDbEntity
  8
0
  6
Continuous
 62
     2
100
AcDbCircle
 10
-51.22142431900301
 20
31.09653125323004
 30
0.0
 40
0.5115800601944153
100
AcDbArc
 50
109.3371432194844
 51
151.4785267424224
  0
ARC
  5
1EA
102
{ACAD_REACTORS
330
237
330
238
102
}
330
71
100
AcDbEntity
  8
0
  6
Continuous
 62
     2
100
AcDbCircle
 10
-72.28488453373362
 20
31.34343521155026
 30
0.0
 40
0.315716923076792
100
AcDbArc
 50
180.0
 51
269.8110329574542
  0
ARC
  5
1EB
102
{ACAD_REACTORS
330
237
330
238
102
}
330
71
100
AcDbEntity
  8
0
  6
Continuous
 62
     2
100
AcDbCircle
 10
-72.2792683984236
 20
33.04627015911925
 30
0.0
 40
2.018561131933269
100
AcDbArc
 50
269.8110329575858
 51
90.18896704241416
  0
ARC
  5
1EC
102
{ACAD_REACTORS
330
237
330
238
102
}
330
71
100
AcDbEntity
  8
0
  6
Continuous
 62
     2
100
AcDbCircle
 10
-72.28488453373362
 20
34.14356981818156
 30
0.0
 40
0.315716923076792
100
AcDbArc
 50
180.0
 51
244.6259913216482
  0
ARC
  5
1ED
102
{ACAD_REACTORS
330
237
330
238
102
}
330
71
100
AcDbEntity
  8
0
  6
Continuous
 62
     2
100
AcDbCircle
 10
-72.28488453373362
 20
31.92528661824534
 30
0.0
 40
0.315716923076536
100
AcDbArc
 50
115.3740086783516
 51
180.0
  0
ARC
  5
1EE
102
{ACAD_REACTORS
330
23B
330
23C
102
}
330
71
100
AcDbEntity
  8
0
  6
Continuous
 62
     2
100
AcDbCircle
 10
-67.45487027957171
 20
30.77866946185614
 30
0.0
 40
1.639695123940507
100
AcDbArc
 50
84.84185523036236
 51
164.9381082228866
  0
ARC
  5
1EF
102
{ACAD_REACTORS
330
23B
330
23C
102
}
330
71
100
AcDbEntity
  8
0
  6
Continuous
 62
     2
100
AcDbCircle
 10
-67.87399812303451
 20
30.89145982389104
 30
0.0
 40
1.205656168390943
100
AcDbArc
 50
164.9381082228766
 51
195.061891777095
  0
ARC
  5
1F0
102
{ACAD_REACTORS
330
23B
330
23C
102
}
330
71
100
AcDbEntity
  8
0
  6
Continuous
 62
     2
100
AcDbCircle
 10
-67.45487027957171
 20
31.00425018592586
 30
0.0
 40
1.639695123939389
100
AcDbArc
 50
195.0618917770898
 51
275.1581447696395
  0
ARC
  5
1F1
102
{ACAD_REACTORS
330
23B
330
23C
102
}
330
71
100
AcDbEntity
  8
0
  6
Continuous
 62
     2
100
AcDbCircle
 10
-67.74372637430761
 20
34.20414076914744
 30
0.0
 40
4.852596863498138
100
AcDbArc
 50
275.1581447696249
 51
285.9799912583529
  0
ARC
  5
1F2
102
{ACAD_REACTORS
330
23B
330
23C
102
}
330
71
100
AcDbEntity
  8
0
  6
Continuous
 62
     2
100
AcDbCircle
 10
-66.94676854017561
 20
30.89145982389104
 30
0.0
 40
0.9410597353332545
100
AcDbArc
 50
151.4785267422669
 51
208.5214732577057
  0
ARC
  5
1F3
102
{ACAD_REACTORS
330
23B
330
23C
102
}
330
71
100
AcDbEntity
  8
0
  6
Continuous
 62
     2
100
AcDbCircle
 10
-67.32412579825592
 20
31.09653125323004
 30
0.0
 40
0.5115800601948779
100
AcDbArc
 50
113.3722778881992
 51
151.4785267423044
  0
ARC
  5
1F4
102
{ACAD_REACTORS
330
23B
330
23C
102
}
330
71
100
AcDbEntity
  8
0
  6
Continuous
 62
     2
100
AcDbCircle
 10
-67.58585349921469
 20
29.48099345848286
 30
0.0
 40
2.227384008973474
100
AcDbArc
 50
58.06909105004068
 51
71.55192388186722
  0
ARC
  5
1F5
102
{ACAD_REACTORS
330
233
330
234
102
}
330
71
100
AcDbEntity
  8
0
  6
Continuous
 62
     2
100
AcDbCircle
 10
-64.52383936365081
 20
31.04819100201155
 30
0.0
 40
0.5179085730132976
100
AcDbArc
 50
38.12041979714672
 51
141.8795802028591
  0
ARC
  5
1F6
102
{ACAD_REACTORS
330
233
330
234
102
}
330
71
100
AcDbEntity
  8
0
  6
Continuous
 62
     2
100
AcDbCircle
 10
-64.32409932730471
 20
30.89145982389104
 30
0.0
 40
0.771799778679461
100
AcDbArc
 50
141.8795802028365
 51
218.1204197971687
  0
ARC
  5
1F7
102
{ACAD_REACTORS
330
233
330
234
102
}
330
71
100
AcDbEntity
  8
0
  6
Continuous
 62
     2
100
AcDbCircle
 10
-64.52383936365081
 20
30.73472864577104
 30
0.0
 40
0.5179085730137332
100
AcDbArc
 50
218.1204197971929
 51
321.8795802028013
  0
ARC
  5
1F8
102
{ACAD_REACTORS
330
233
330
234
102
}
330
71
100
AcDbEntity
  8
0
  6
Continuous
 62
     2
100
AcDbCircle
 10
-64.72357939999722
 20
30.89145982389104
 30
0.0
 40
0.7717997786796947
100
AcDbArc
 50
321.8795802028417
 51
38.12041979715308
  0
CIRCLE
  5
1F9
330
71
100
AcDbEntity
  8
1
  6
Continuous
 62
     2
100
AcDbCircle
 10
-67.37857251239461
 20
43.19605506196936
 30
0.0
 40
2.5
  0
CIRCLE
  5
1FA
330
71
100
AcDbEntity
  8
1
  6
Continuous
 62
     2
100
AcDbCircle
 10
-67.37857251239461
 20
43.19605506196936
 30
0.0
 40
1.249999999999915
  0
CIRCLE
  5
1FB
102
{ACAD_REACTORS
330
237
330
238
102
}
330
71
100
AcDbEntity
  8
0
  6
Continuous
 62
     2
100
AcDbCircle
 10
-72.8347422464943
 20
33.03442821821375
 30
0.0
 40
0.4709789327785074
  0
MTEXT
  5
1FC
330
71
100
AcDbEntity
  8
1
 62
     3
100
AcDbMText
 10
-237.5653550861354
 20
208.8623632172682
 30
0.0
 40
1.8
 41
0.0
 71
     7
 72
     1
  3
Weitergabe sowie Vervielf\U+00e4ltigung dieses Dokuments, Verwertung und \PMitteilung seines Inhalts sind verboten, soweit nicht ausdr\U+00fccklich gestattet. \PZuwiderhandlungen verpflichten zu Schadenersatz. Alle Rechte f\U+00fcr den Fall\Pder Pat
  1
ent-, Gebrauchsmuster- oder Designeintragung vorbehalten.
  7
CONVERTER_11
 73
     1
 44
0.99639855942377
  0
MTEXT
  5
1FD
330
71
100
AcDbEntity
  8
1
 62
     3
100
AcDbMText
 10
-54.71224524734731
 20
208.8623632172682
 30
0.0
 40
1.8
 41
0.0
 71
     7
 72
     1
  3
Transfer or duplication of this document as well as the utilisation or\Pcommunication of its content are not permitted unless express consent\Pis granted. Violations give rise to claims for damages. All rights reserved\Pin case of patent, utility mo
  1
del or design patent registrations.
  7
CONVERTER_11
 73
     1
 44
0.99639855942377
  0
TEXT
  5
1FE
330
71
100
AcDbEntity
  8
1
 62
     2
100
AcDbText
 10
-60.9152273989574
 20
23.31203784697783
 30
0.0
 40
1.8
  1
of
 41
0.9
  7
CONVERTER_11
100
AcDbText
  0
TEXT
  5
1FF
330
71
100
AcDbEntity
  8
1
 62
     2
100
AcDbText
 10
-79.11522739895722
 20
23.31203784697777
 30
0.0
 40
1.8
  1
page
 41
0.9
  7
CONVERTER_11
100
AcDbText
  0
TEXT
  5
200
330
71
100
AcDbEntity
  8
1
 62
     2
100
AcDbText
 10
-70.46896242861521
 20
23.27180640816744
 30
0.0
 40
1.8
  1
1
 41
0.9
  7
CONVERTER_11
100
AcDbText
  0
TEXT
  5
201
330
71
100
AcDbEntity
  8
1
 62
     2
100
AcDbText
 10
-55.67991858914371
 20
23.32105506196933
 30
0.0
 40
1.8
  1
1
 41
0.9
  7
CONVERTER_11
100
AcDbText
  0
MTEXT
  5
203
330
71
100
AcDbEntity
  8
1
 62
     7
100
AcDbMText
 10
2.85717486441828
 20
25.32105506196967
 30
0.0
 40
3.0
 41
0.0
 71
     5
 72
     1
  1
ZB 4 :UNBEDRUCKT
  7
CONVERTER_12
 73
     1
 44
1.20048019207683
  0
MTEXT
  5
204
330
71
100
AcDbEntity
  8
1
 62
     2
100
AcDbMText
 10
-42.7152273989573
 20
29.57105506196945
 30
0.0
 40
1.8
 41
0.0
 71
     1
 72
     1
  1
description
  7
CONVERTER_11
 73
     1
 44
1.20048019207683
  0
MTEXT
  5
205
330
71
100
AcDbEntity
  8
1
 62
     3
100
AcDbMText
 10
-53.91522739895731
 20
43.19605506196945
 30
0.0
 40
2.5
 41
0.0
 71
     5
 72
     1
  1
DIN A4
  7
CONVERTER_11
 73
     1
 44
1.20048019207683
  0
MTEXT
  5
206
330
71
100
AcDbEntity
  8
1
 62
     7
100
AcDbMText
 10
-240.0704228722063
 20
44.57105506196945
 30
0.0
 40
3.5
 41
0.0
 71
     5
 72
     1
  1
D
  7
CONVERTER_11
 73
     1
 44
1.20048019207683
  0
MTEXT
  5
207
330
71
100
AcDbEntity
  8
1
 62
     7
100
AcDbMText
 10
-240.0704228722063
 20
97.07105506196945
 30
0.0
 40
3.5
 41
0.0
 71
     5
 72
     1
  1
C
  7
CONVERTER_11
 73
     1
 44
1.20048019207683
  0
MTEXT
  5
208
330
71
100
AcDbEntity
  8
1
 62
     7
100
AcDbMText
 10
-240.0704228722063
 20
147.0710550619695
 30
0.0
 40
3.5
 41
0.0
 71
     5
 72
     1
  1
B
  7
CONVERTER_11
 73
     1
 44
1.20048019207683
  0
MTEXT
  5
209
330
71
100
AcDbEntity
  8
1
 62
     7
100
AcDbMText
 10
-240.0704228722063
 20
199.5710550619695
 30
0.0
 40
3.5
 41
0.0
 71
     5
 72
     1
  1
A
  7
CONVERTER_11
 73
     1
 44
1.20048019207683
  0
MTEXT
  5
20A
330
71
100
AcDbEntity
  8
1
 62
     7
100
AcDbMText
 10
30.17957712779199
 20
19.57105506196933
 30
0.0
 40
3.5
 41
0.0
 71
     5
 72
     1
  1
6
  7
CONVERTER_11
 73
     1
 44
1.20048019207683
  0
MTEXT
  5
20B
330
71
100
AcDbEntity
  8
1
 62
     7
100
AcDbMText
 10
-19.07042287220722
 20
19.57105506196933
 30
0.0
 40
3.5
 41
0.0
 71
     5
 72
     1
  1
5
  7
CONVERTER_11
 73
     1
 44
1.20048019207683
  0
MTEXT
  5
20C
330
71
100
AcDbEntity
  8
1
 62
     7
100
AcDbMText
 10
-69.0704228722073
 20
19.57105506196933
 30
0.0
 40
3.5
 41
0.0
 71
     5
 72
     1
  1
4
  7
CONVERTER_11
 73
     1
 44
1.20048019207683
  0
MTEXT
  5
20D
330
71
100
AcDbEntity
  8
1
 62
     7
100
AcDbMText
 10
-119.0704228722072
 20
19.57105506196933
 30
0.0
 40
3.5
 41
0.0
 71
     5
 72
     1
  1
3
  7
CONVERTER_11
 73
     1
 44
1.20048019207683
  0
MTEXT
  5
20E
330
71
100
AcDbEntity
  8
1
 62
     7
100
AcDbMText
 10
-169.0704228722072
 20
19.57105506196933
 30
0.0
 40
3.5
 41
0.0
 71
     5
 72
     1
  1
2
  7
CONVERTER_11
 73
     1
 44
1.20048019207683
  0
MTEXT
  5
20F
330
71
100
AcDbEntity
  8
1
 62
     7
100
AcDbMText
 10
-218.3204228722068
 20
19.57105506196933
 30
0.0
 40
3.5
 41
0.0
 71
     5
 72
     1
  1
1
  7
CONVERTER_11
 73
     1
 44
1.20048019207683
  0
MTEXT
  5
210
330
71
100
AcDbEntity
  8
1
 62
     7
100
AcDbMText
 10
51.92957712779179
 20
44.57105506196945
 30
0.0
 40
3.5
 41
0.0
 71
     5
 72
     1
  1
D
  7
CONVERTER_11
 73
     1
 44
1.20048019207683
  0
MTEXT
  5
211
330
71
100
AcDbEntity
  8
1
 62
     7
100
AcDbMText
 10
51.92957712779179
 20
147.0710550619714
 30
0.0
 40
3.5
 41
0.0
 71
     5
 72
     1
  1
B
  7
CONVERTER_11
 73
     1
 44
1.20048019207683
  0
MTEXT
  5
212
330
71
100
AcDbEntity
  8
1
 62
     7
100
AcDbMText
 10
51.92957712779179
 20
199.5710550619695
 30
0.0
 40
3.5
 41
0.0
 71
     5
 72
     1
  1
A
  7
CONVERTER_11
 73
     1
 44
1.20048019207683
  0
MTEXT
  5
213
330
71
100
AcDbEntity
  8
1
 62
     7
100
AcDbMText
 10
51.92957712779179
 20
97.07105506197135
 30
0.0
 40
3.5
 41
0.0
 71
     5
 72
     1
  1
C
  7
CONVERTER_11
 73
     1
 44
1.20048019207683
  0
MTEXT
  5
214
330
71
100
AcDbEntity
  8
1
 62
     2
100
AcDbMText
 10
-114.5532421240047
 20
34.82105506196936
 30
0.0
 40
2.0
 41
0.0
 71
     5
 72
     1
  1
General Information\P- Simplified representation\P- Document excluded from change process\P- Linear dimensions [mm]
  7
CONVERTER_11
 73
     1
 44
1.20048019207683
  0
TEXT
  5
215
330
71
100
AcDbEntity
  8
1
 62
     7
100
AcDbText
 10
-42.2152273989575
 20
31.87105506196934
 30
0.0
 40
2.5
  1
0805001
 41
0.81
  7
CONVERTER_12
100
AcDbText
  0
MTEXT
  5
216
330
71
100
AcDbEntity
  8
1
 62
     2
100
AcDbMText
 10
-42.61522739895722
 20
38.07105506196945
 30
0.0
 40
1.8
 41
0.0
 71
     1
 72
     1
  1
ident.-No.
  7
CONVERTER_11
 73
     1
 44
1.20048019207683
  0
MTEXT
  5
217
330
71
100
AcDbEntity
  8
1
 62
     2
100
AcDbMText
 10
41.6111688461155
 20
46.57105506196945
 30
0.0
 40
1.8
 41
0.0
 71
     1
 72
     1
  1
scale
  7
CONVERTER_11
 73
     1
 44
1.20048019207683
  0
MTEXT
  5
219
330
71
100
AcDbEntity
  8
1
 62
     3
100
AcDbMText
 10
44.9703729869551
 20
40.37105506196954
 30
0.0
 40
2.5
 41
0.0
 71
     8
 72
     1
  1
5:1
  7
CONVERTER_13
 73
     1
 44
1.32052821128451
  0
TEXT
  5
21A
330
71
100
AcDbEntity
  8
1
 62
     7
100
AcDbText
 10
-42.61522739895722
 20
40.37105506196934
 30
0.0
 40
2.5
  1
40203889
 41
0.81
  7
CONVERTER_12
100
AcDbText
  0
MTEXT
  5
21C
330
71
100
AcDbEntity
  8
1
 62
     2
100
AcDbMText
 10
-42.61522739895722
 20
46.57105506196945
 30
0.0
 40
1.8
 41
0.0
 71
     1
 72
     1
  1
document-No. / RI
  7
CONVERTER_14
 73
     1
 44
1.32052821128451
  0
TEXT
  5
21D
330
71
100
AcDbEntity
  8
1
 62
     3
100
AcDbText
 10
-14.81522739895721
 20
31.87105506196934
 30
0.0
 40
2.5
  1
TECDOC 2D_Productdrawing
 41
0.81
  7
CONVERTER_12
100
AcDbText
  0
MTEXT
  5
21E
330
71
100
AcDbEntity
  8
1
 62
     2
100
AcDbMText
 10
-14.81522739895721
 20
38.07105506196936
 30
0.0
 40
1.8
 41
0.0
 71
     1
 72
     1
  1
document-type
  7
CONVERTER_11
 73
     1
 44
1.20048019207683
  0
MTEXT
  5
21F
330
71
100
AcDbEntity
  8
1
 62
     2
100
AcDbMText
 10
15.01116884611568
 20
46.57105506196936
 30
0.0
 40
1.8
 41
0.0
 71
     1
 72
     1
  1
date
  7
CONVERTER_11
 73
     1
 44
1.32052821128451
  0
TEXT
  5
220
330
71
100
AcDbEntity
  8
1
 62
     3
100
AcDbText
 10
15.01116884611568
 20
40.37105506196934
 30
0.0
 40
2.5
  1
15.03.2018
 41
0.81
  7
CONVERTER_12
100
AcDbText
  0
TEXT
  5
221
330
71
100
AcDbEntity
  8
1
 62
     7
100
AcDbText
 10
-22.58531517990141
 20
40.37105506196934
 30
0.0
 40
2.5
  1
01
 41
0.81
  7
CONVERTER_12
100
AcDbText
  0
TEXT
  5
222
330
71
100
AcDbEntity
  8
1
 62
     7
100
AcDbText
 10
-24.74167967694342
 20
40.37105506196934
 30
0.0
 40
2.5
  1
/
 41
0.9
  7
CONVERTER_11
100
AcDbText
  0
HATCH
  5
223
330
71
100
AcDbEntity
  8
1
  6
Continuous
 62
     2
100
AcDbHatch
 10
0.0
 20
0.0
 30
0.0
210
0.0
220
0.0
230
1.0
  2
_USER
 70
     0
 71
     1
 91
        1
 92
        1
 93
       12
 72
     1
 10
-62.44772668599612
 20
32.72374553816005
 11
-63.64051938816252
 21
32.72374553816005
 72
     1
 10
-63.64051938816252
 20
32.72374553816005
 11
-63.64051938816252
 21
33.85801764700386
 72
     1
 10
-63.64051938816252
 20
33.85801764700386
 11
-64.69017696607
 21
33.85801764700386
 72
     1
 10
-64.69017696607
 20
33.85801764700386
 11
-64.69017696607
 21
32.72374553816005
 72
     1
 10
-64.69017696607
 20
32.72374553816005
 11
-65.8829696682366
 21
32.72374553816005
 72
     1
 10
-65.8829696682366
 20
32.72374553816005
 11
-65.8829696682366
 21
35.77755506197124
 72
     1
 10
-65.8829696682366
 20
35.77755506197124
 11
-64.69017696607
 21
35.77755506197124
 72
     1
 10
-64.69017696607
 20
35.77755506197124
 11
-64.69017696607
 21
34.70872172863665
 72
     1
 10
-64.69017696607
 20
34.70872172863665
 11
-63.64051938816252
 21
34.70872172863665
 72
     1
 10
-63.64051938816252
 20
34.70872172863665
 11
-63.64051938816252
 21
35.77755506197124
 72
     1
 10
-63.64051938816252
 20
35.77755506197124
 11
-62.44772668599612
 21
35.77755506197124
 72
     1
 10
-62.44772668599612
 20
35.77755506197124
 11
-62.44772668599612
 21
32.72374553816005
 97
       12
330
190
330
191
330
17B
330
17A
330
179
330
18D
330
178
330
18E
330
18F
330
177
330
176
330
175
 75
     1
 76
     0
 52
45.0
 41
0.1
 77
     0
 78
     1
 53
45.0
 43
0.0
 44
0.0
 45
-0.0707106781186548
 46
0.0707106781186548
 79
     0
 98
        1
 10
0.0
 20
0.0
  0
HATCH
  5
224
330
71
100
AcDbEntity
  8
1
  6
Continuous
 62
     2
100
AcDbHatch
 10
0.0
 20
0.0
 30
0.0
210
0.0
220
0.0
230
1.0
  2
_USER
 70
     0
 71
     1
 91
        1
 92
        1
 93
       12
 72
     1
 10
-62.44772668599612
 20
32.72374553816005
 11
-63.64051938816252
 21
32.72374553816005
 72
     1
 10
-63.64051938816252
 20
32.72374553816005
 11
-63.64051938816252
 21
33.85801764700386
 72
     1
 10
-63.64051938816252
 20
33.85801764700386
 11
-64.69017696607
 21
33.85801764700386
 72
     1
 10
-64.69017696607
 20
33.85801764700386
 11
-64.69017696607
 21
32.72374553816005
 72
     1
 10
-64.69017696607
 20
32.72374553816005
 11
-65.8829696682366
 21
32.72374553816005
 72
     1
 10
-65.8829696682366
 20
32.72374553816005
 11
-65.8829696682366
 21
35.77755506197124
 72
     1
 10
-65.8829696682366
 20
35.77755506197124
 11
-64.69017696607
 21
35.77755506197124
 72
     1
 10
-64.69017696607
 20
35.77755506197124
 11
-64.69017696607
 21
34.70872172863665
 72
     1
 10
-64.69017696607
 20
34.70872172863665
 11
-63.64051938816252
 21
34.70872172863665
 72
     1
 10
-63.64051938816252
 20
34.70872172863665
 11
-63.64051938816252
 21
35.77755506197124
 72
     1
 10
-63.64051938816252
 20
35.77755506197124
 11
-62.44772668599612
 21
35.77755506197124
 72
     1
 10
-62.44772668599612
 20
35.77755506197124
 11
-62.44772668599612
 21
32.72374553816005
 97
       12
330
190
330
191
330
17B
330
17A
330
179
330
18D
330
178
330
18E
330
18F
330
177
330
176
330
175
 75
     1
 76
     0
 52
45.0
 41
0.1
 77
     0
 78
     1
 53
45.0
 43
0.0
 44
0.0
 45
-0.0707106781186548
 46
0.0707106781186548
 79
     0
 98
        1
 10
0.0
 20
0.0
  0
HATCH
  5
225
330
71
100
AcDbEntity
  8
1
  6
Continuous
 62
     2
100
AcDbHatch
 10
0.0
 20
0.0
 30
0.0
210
0.0
220
0.0
230
1.0
  2
_USER
 70
     0
 71
     1
 91
        1
 92
        1
 93
       10
 72
     1
 10
-60.20542733680782
 20
31.10958907559174
 11
-61.44593174706071
 21
32.41836458579684
 72
     1
 10
-61.44593174706071
 20
32.41836458579684
 11
-62.63872444922831
 21
32.41836458579684
 72
     1
 10
-62.63872444922831
 20
32.41836458579684
 11
-62.63872444922831
 21
29.36455506198575
 72
     1
 10
-62.63872444922831
 20
29.36455506198575
 11
-61.44593174706071
 21
29.36455506198575
 72
     1
 10
-61.44593174706071
 20
29.36455506198575
 11
-61.44593174706071
 21
30.67333057219034
 72
     1
 10
-61.44593174706071
 20
30.67333057219034
 11
-60.20542733680782
 21
29.36455506198575
 72
     1
 10
-60.20542733680782
 20
29.36455506198575
 11
-59.01263463464142
 21
29.36455506198575
 72
     1
 10
-59.01263463464142
 20
29.36455506198575
 11
-59.01263463464142
 21
32.41836458579684
 72
     1
 10
-59.01263463464142
 20
32.41836458579684
 11
-60.20542733680782
 21
32.41836458579684
 72
     1
 10
-60.20542733680782
 20
32.41836458579684
 11
-60.20542733680782
 21
31.10958907559174
 97
       10
330
19E
330
16E
330
16D
330
170
330
199
330
19A
330
16F
330
19B
330
19C
330
19D
 75
     1
 76
     0
 52
45.0
 41
0.1
 77
     0
 78
     1
 53
45.0
 43
0.0
 44
0.0
 45
-0.0707106781186548
 46
0.0707106781186548
 79
     0
 98
        1
 10
0.0
 20
0.0
  0
HATCH
  5
226
330
71
100
AcDbEntity
  8
1
  6
Continuous
 62
     2
100
AcDbHatch
 10
0.0
 20
0.0
 30
0.0
210
0.0
220
0.0
230
1.0
  2
_USER
 70
     0
 71
     1
 91
        1
 92
        1
 93
       10
 72
     1
 10
-60.20542733680782
 20
31.10958907559174
 11
-61.44593174706071
 21
32.41836458579684
 72
     1
 10
-61.44593174706071
 20
32.41836458579684
 11
-62.63872444922831
 21
32.41836458579684
 72
     1
 10
-62.63872444922831
 20
32.41836458579684
 11
-62.63872444922831
 21
29.36455506198575
 72
     1
 10
-62.63872444922831
 20
29.36455506198575
 11
-61.44593174706071
 21
29.36455506198575
 72
     1
 10
-61.44593174706071
 20
29.36455506198575
 11
-61.44593174706071
 21
30.67333057219034
 72
     1
 10
-61.44593174706071
 20
30.67333057219034
 11
-60.20542733680782
 21
29.36455506198575
 72
     1
 10
-60.20542733680782
 20
29.36455506198575
 11
-59.01263463464142
 21
29.36455506198575
 72
     1
 10
-59.01263463464142
 20
29.36455506198575
 11
-59.01263463464142
 21
32.41836458579684
 72
     1
 10
-59.01263463464142
 20
32.41836458579684
 11
-60.20542733680782
 21
32.41836458579684
 72
     1
 10
-60.20542733680782
 20
32.41836458579684
 11
-60.20542733680782
 21
31.10958907559174
 97
       10
330
19E
330
16E
330
16D
330
170
330
199
330
19A
330
16F
330
19B
330
19C
330
19D
 75
     1
 76
     0
 52
45.0
 41
0.1
 77
     0
 78
     1
 53
45.0
 43
0.0
 44
0.0
 45
-0.0707106781186548
 46
0.0707106781186548
 79
     0
 98
        1
 10
0.0
 20
0.0
  0
HATCH
  5
227
330
71
100
AcDbEntity
  8
1
  6
Continuous
 62
     2
100
AcDbHatch
 10
0.0
 20
0.0
 30
0.0
210
0.0
220
0.0
230
1.0
  2
_USER
 70
     0
 71
     1
 91
        1
 92
        1
 93
       10
 72
     1
 10
-54.95698851638809
 20
34.46877955176606
 11
-56.1974929266421
 21
35.77755506197124
 72
     1
 10
-56.1974929266421
 20
35.77755506197124
 11
-57.39028562880861
 21
35.77755506197124
 72
     1
 10
-57.39028562880861
 20
35.77755506197124
 11
-57.39028562880861
 21
32.72374553816005
 72
     1
 10
-57.39028562880861
 20
32.72374553816005
 11
-56.1974929266421
 21
32.72374553816005
 72
     1
 10
-56.1974929266421
 20
32.72374553816005
 11
-56.1974929266421
 21
34.03252104836474
 72
     1
 10
-56.1974929266421
 20
34.03252104836474
 11
-54.95698851638809
 21
32.72374553816005
 72
     1
 10
-54.95698851638809
 20
32.72374553816005
 11
-53.7641958142215
 21
32.72374553816005
 72
     1
 10
-53.7641958142215
 20
32.72374553816005
 11
-53.7641958142215
 21
35.77755506197124
 72
     1
 10
-53.7641958142215
 20
35.77755506197124
 11
-54.95698851638809
 21
35.77755506197124
 72
     1
 10
-54.95698851638809
 20
35.77755506197124
 11
-54.95698851638809
 21
34.46877955176606
 97
       10
330
1A3
330
16B
330
16A
330
1A4
330
169
330
19F
330
1A0
330
1A1
330
1A2
330
16C
 75
     1
 76
     0
 52
45.0
 41
0.1
 77
     0
 78
     1
 53
45.0
 43
0.0
 44
0.0
 45
-0.0707106781186548
 46
0.0707106781186548
 79
     0
 98
        1
 10
0.0
 20
0.0
  0
HATCH
  5
228
330
71
100
AcDbEntity
  8
1
  6
Continuous
 62
     2
100
AcDbHatch
 10
0.0
 20
0.0
 30
0.0
210
0.0
220
0.0
230
1.0
  2
_USER
 70
     0
 71
     1
 91
        1
 92
        1
 93
       10
 72
     1
 10
-54.95698851638809
 20
34.46877955176606
 11
-56.1974929266421
 21
35.77755506197124
 72
     1
 10
-56.1974929266421
 20
35.77755506197124
 11
-57.39028562880861
 21
35.77755506197124
 72
     1
 10
-57.39028562880861
 20
35.77755506197124
 11
-57.39028562880861
 21
32.72374553816005
 72
     1
 10
-57.39028562880861
 20
32.72374553816005
 11
-56.1974929266421
 21
32.72374553816005
 72
     1
 10
-56.1974929266421
 20
32.72374553816005
 11
-56.1974929266421
 21
34.03252104836474
 72
     1
 10
-56.1974929266421
 20
34.03252104836474
 11
-54.95698851638809
 21
32.72374553816005
 72
     1
 10
-54.95698851638809
 20
32.72374553816005
 11
-53.7641958142215
 21
32.72374553816005
 72
     1
 10
-53.7641958142215
 20
32.72374553816005
 11
-53.7641958142215
 21
35.77755506197124
 72
     1
 10
-53.7641958142215
 20
35.77755506197124
 11
-54.95698851638809
 21
35.77755506197124
 72
     1
 10
-54.95698851638809
 20
35.77755506197124
 11
-54.95698851638809
 21
34.46877955176606
 97
       10
330
1A3
330
16B
330
16A
330
1A4
330
169
330
19F
330
1A0
330
1A1
330
1A2
330
16C
 75
     1
 76
     0
 52
45.0
 41
0.1
 77
     0
 78
     1
 53
45.0
 43
0.0
 44
0.0
 45
-0.0707106781186548
 46
0.0707106781186548
 79
     0
 98
        1
 10
0.0
 20
0.0
  0
HATCH
  5
229
330
71
100
AcDbEntity
  8
1
  6
Continuous
 62
     2
100
AcDbHatch
 10
0.0
 20
0.0
 30
0.0
210
0.0
220
0.0
230
1.0
  2
_USER
 70
     0
 71
     1
 91
        1
 92
        1
 93
        8
 72
     1
 10
-56.0545087332676
 20
32.41836458579684
 11
-58.86949951038122
 21
32.41836458579684
 72
     1
 10
-58.86949951038122
 20
32.41836458579684
 11
-58.86949951038122
 21
31.63309927967325
 72
     1
 10
-58.86949951038122
 20
31.63309927967325
 11
-58.05840047290661
 21
31.63309927967325
 72
     1
 10
-58.05840047290661
 20
31.63309927967325
 11
-58.05840047290661
 21
29.36455506198575
 72
     1
 10
-58.05840047290661
 20
29.36455506198575
 11
-56.8656077707401
 21
29.36455506198575
 72
     1
 10
-56.8656077707401
 20
29.36455506198575
 11
-56.8656077707401
 21
31.63309927967325
 72
     1
 10
-56.8656077707401
 20
31.63309927967325
 11
-56.0545087332676
 21
31.63309927967325
 72
     1
 10
-56.0545087332676
 20
31.63309927967325
 11
-56.0545087332676
 21
32.41836458579684
 97
        8
330
165
330
1A5
330
164
330
1A6
330
1A7
330
168
330
167
330
166
 75
     1
 76
     0
 52
45.0
 41
0.1
 77
     0
 78
     1
 53
45.0
 43
0.0
 44
0.0
 45
-0.0707106781186548
 46
0.0707106781186548
 79
     0
 98
        1
 10
0.0
 20
0.0
  0
HATCH
  5
22A
330
71
100
AcDbEntity
  8
1
  6
Continuous
 62
     2
100
AcDbHatch
 10
0.0
 20
0.0
 30
0.0
210
0.0
220
0.0
230
1.0
  2
_USER
 70
     0
 71
     1
 91
        1
 92
        1
 93
        8
 72
     1
 10
-56.0545087332676
 20
32.41836458579684
 11
-58.86949951038122
 21
32.41836458579684
 72
     1
 10
-58.86949951038122
 20
32.41836458579684
 11
-58.86949951038122
 21
31.63309927967325
 72
     1
 10
-58.86949951038122
 20
31.63309927967325
 11
-58.05840047290661
 21
31.63309927967325
 72
     1
 10
-58.05840047290661
 20
31.63309927967325
 11
-58.05840047290661
 21
29.36455506198575
 72
     1
 10
-58.05840047290661
 20
29.36455506198575
 11
-56.8656077707401
 21
29.36455506198575
 72
     1
 10
-56.8656077707401
 20
29.36455506198575
 11
-56.8656077707401
 21
31.63309927967325
 72
     1
 10
-56.8656077707401
 20
31.63309927967325
 11
-56.0545087332676
 21
31.63309927967325
 72
     1
 10
-56.0545087332676
 20
31.63309927967325
 11
-56.0545087332676
 21
32.41836458579684
 97
        8
330
165
330
1A5
330
164
330
1A6
330
1A7
330
168
330
167
330
166
 75
     1
 76
     0
 52
45.0
 41
0.1
 77
     0
 78
     1
 53
45.0
 43
0.0
 44
0.0
 45
-0.0707106781186548
 46
0.0707106781186548
 79
     0
 98
        1
 10
0.0
 20
0.0
  0
HATCH
  5
22B
330
71
100
AcDbEntity
  8
1
  6
Continuous
 62
     2
100
AcDbHatch
 10
0.0
 20
0.0
 30
0.0
210
0.0
220
0.0
230
1.0
  2
_USER
 70
     0
 71
     1
 91
        2
 92
        1
 93
        8
 72
     1
 10
-53.91608127732062
 20
29.36455506198575
 11
-54.1275613307964
 21
29.90551560620364
 72
     1
 10
-54.1275613307964
 20
29.90551560620364
 11
-55.26000290747021
 21
29.90551560620364
 72
     1
 10
-55.26000290747021
 20
29.90551560620364
 11
-55.47148296094602
 21
29.36455506198575
 72
     1
 10
-55.47148296094602
 20
29.36455506198575
 11
-56.711987371199
 21
29.36455506198575
 72
     1
 10
-56.711987371199
 20
29.36455506198575
 11
-55.31403432425969
 21
32.41836458579684
 72
     1
 10
-55.31403432425969
 20
32.41836458579684
 11
-54.073529914007
 21
32.41836458579684
 72
     1
 10
-54.073529914007
 20
32.41836458579684
 11
-52.6755768670667
 21
29.36455506198575
 72
     1
 10
-52.6755768670667
 20
29.36455506198575
 11
-53.91608127732062
 21
29.36455506198575
 97
        8
330
1A9
330
1AA
330
161
330
1AB
330
160
330
163
330
1A8
330
162
 92
       16
 93
        3
 72
     1
 10
-54.99394735632521
 20
30.58607887151024
 11
-54.69378211913281
 21
31.35389383749694
 72
     1
 10
-54.69378211913281
 20
31.35389383749694
 11
-54.39361688194271
 21
30.58607887151024
 72
     1
 10
-54.39361688194271
 20
30.58607887151024
 11
-54.99394735632521
 21
30.58607887151024
 97
        3
330
15F
330
1AD
330
1AC
 75
     1
 76
     0
 52
45.0
 41
0.1
 77
     0
 78
     1
 53
45.0
 43
0.0
 44
0.0
 45
-0.0707106781186548
 46
0.0707106781186548
 79
     0
 98
        1
 10
0.0
 20
0.0
  0
HATCH
  5
22C
330
71
100
AcDbEntity
  8
1
  6
Continuous
 62
     2
100
AcDbHatch
 10
0.0
 20
0.0
 30
0.0
210
0.0
220
0.0
230
1.0
  2
_USER
 70
     0
 71
     1
 91
        2
 92
        1
 93
        8
 72
     1
 10
-53.91608127732062
 20
29.36455506198575
 11
-54.1275613307964
 21
29.90551560620364
 72
     1
 10
-54.1275613307964
 20
29.90551560620364
 11
-55.26000290747021
 21
29.90551560620364
 72
     1
 10
-55.26000290747021
 20
29.90551560620364
 11
-55.47148296094602
 21
29.36455506198575
 72
     1
 10
-55.47148296094602
 20
29.36455506198575
 11
-56.711987371199
 21
29.36455506198575
 72
     1
 10
-56.711987371199
 20
29.36455506198575
 11
-55.31403432425969
 21
32.41836458579684
 72
     1
 10
-55.31403432425969
 20
32.41836458579684
 11
-54.073529914007
 21
32.41836458579684
 72
     1
 10
-54.073529914007
 20
32.41836458579684
 11
-52.6755768670667
 21
29.36455506198575
 72
     1
 10
-52.6755768670667
 20
29.36455506198575
 11
-53.91608127732062
 21
29.36455506198575
 97
        8
330
1A9
330
1AA
330
161
330
1AB
330
160
330
163
330
1A8
330
162
 92
       16
 93
        3
 72
     1
 10
-54.99394735632521
 20
30.58607887151024
 11
-54.69378211913281
 21
31.35389383749694
 72
     1
 10
-54.69378211913281
 20
31.35389383749694
 11
-54.39361688194271
 21
30.58607887151024
 72
     1
 10
-54.39361688194271
 20
30.58607887151024
 11
-54.99394735632521
 21
30.58607887151024
 97
        3
330
15F
330
1AD
330
1AC
 75
     1
 76
     0
 52
45.0
 41
0.1
 77
     0
 78
     1
 53
45.0
 43
0.0
 44
0.0
 45
-0.0707106781186548
 46
0.0707106781186548
 79
     0
 98
        1
 10
0.0
 20
0.0
  0
HATCH
  5
22D
330
71
100
AcDbEntity
  8
1
  6
Continuous
 62
     2
100
AcDbHatch
 10
0.0
 20
0.0
 30
0.0
210
0.0
220
0.0
230
1.0
  2
_USER
 70
     0
 71
     1
 91
        1
 92
        1
 93
        4
 72
     1
 10
-52.2851328635347
 20
32.72374553816005
 11
-53.5256372737876
 21
32.72374553816005
 72
     1
 10
-53.5256372737876
 20
32.72374553816005
 11
-53.5256372737876
 21
35.77755506197124
 72
     1
 10
-53.5256372737876
 20
35.77755506197124
 11
-52.2851328635347
 21
35.77755506197124
 72
     1
 10
-52.2851328635347
 20
35.77755506197124
 11
-52.2851328635347
 21
32.72374553816005
 97
        4
330
15C
330
15E
330
1AE
330
15D
 75
     1
 76
     0
 52
45.0
 41
0.1
 77
     0
 78
     1
 53
45.0
 43
0.0
 44
0.0
 45
-0.0707106781186548
 46
0.0707106781186548
 79
     0
 98
        1
 10
0.0
 20
0.0
  0
HATCH
  5
22E
330
71
100
AcDbEntity
  8
1
  6
Continuous
 62
     2
100
AcDbHatch
 10
0.0
 20
0.0
 30
0.0
210
0.0
220
0.0
230
1.0
  2
_USER
 70
     0
 71
     1
 91
        1
 92
        1
 93
        4
 72
     1
 10
-52.2851328635347
 20
32.72374553816005
 11
-53.5256372737876
 21
32.72374553816005
 72
     1
 10
-53.5256372737876
 20
32.72374553816005
 11
-53.5256372737876
 21
35.77755506197124
 72
     1
 10
-53.5256372737876
 20
35.77755506197124
 11
-52.2851328635347
 21
35.77755506197124
 72
     1
 10
-52.2851328635347
 20
35.77755506197124
 11
-52.2851328635347
 21
32.72374553816005
 97
        4
330
15C
330
15E
330
1AE
330
15D
 75
     1
 76
     0
 52
45.0
 41
0.1
 77
     0
 78
     1
 53
45.0
 43
0.0
 44
0.0
 45
-0.0707106781186548
 46
0.0707106781186548
 79
     0
 98
        1
 10
0.0
 20
0.0
  0
HATCH
  5
22F
330
71
100
AcDbEntity
  8
1
  6
Continuous
 62
     2
100
AcDbHatch
 10
0.0
 20
0.0
 30
0.0
210
0.0
220
0.0
230
1.0
  2
_USER
 70
     0
 71
     1
 91
        1
 92
        1
 93
       12
 72
     1
 10
-48.0626466978639
 20
35.77755506197124
 11
-49.36517632863041
 21
34.30460453193504
 72
     1
 10
-49.36517632863041
 20
34.30460453193504
 11
-47.96722328169011
 21
32.72374553816005
 72
     1
 10
-47.96722328169011
 20
32.72374553816005
 11
-49.36994749943841
 21
32.72374553816005
 72
     1
 10
-49.36994749943841
 20
32.72374553816005
 11
-50.06653843750391
 21
33.51147732345376
 72
     1
 10
-50.06653843750391
 20
33.51147732345376
 11
-50.76312937556961
 21
32.72374553816005
 72
     1
 10
-50.76312937556961
 20
32.72374553816005
 11
-52.16585359331782
 21
32.72374553816005
 72
     1
 10
-52.16585359331782
 20
32.72374553816005
 11
-50.76790054637752
 21
34.30460453193504
 72
     1
 10
-50.76790054637752
 20
34.30460453193504
 11
-52.070430177145
 21
35.77755506197124
 72
     1
 10
-52.070430177145
 20
35.77755506197124
 11
-50.6677059593957
 21
35.77755506197124
 72
     1
 10
-50.6677059593957
 20
35.77755506197124
 11
-50.06653843750391
 21
35.09773174041575
 72
     1
 10
-50.06653843750391
 20
35.09773174041575
 11
-49.46537091561112
 21
35.77755506197124
 72
     1
 10
-49.46537091561112
 20
35.77755506197124
 11
-48.0626466978639
 21
35.77755506197124
 97
       12
330
157
330
156
330
155
330
1B2
330
1B3
330
1AF
330
1B0
330
15B
330
15A
330
159
330
158
330
1B1
 75
     1
 76
     0
 52
45.0
 41
0.1
 77
     0
 78
     1
 53
45.0
 43
0.0
 44
0.0
 45
-0.0707106781186548
 46
0.0707106781186548
 79
     0
 98
        1
 10
0.0
 20
0.0
  0
HATCH
  5
230
330
71
100
AcDbEntity
  8
1
  6
Continuous
 62
     2
100
AcDbHatch
 10
0.0
 20
0.0
 30
0.0
210
0.0
220
0.0
230
1.0
  2
_USER
 70
     0
 71
     1
 91
        1
 92
        1
 93
       12
 72
     1
 10
-48.0626466978639
 20
35.77755506197124
 11
-49.36517632863041
 21
34.30460453193504
 72
     1
 10
-49.36517632863041
 20
34.30460453193504
 11
-47.96722328169011
 21
32.72374553816005
 72
     1
 10
-47.96722328169011
 20
32.72374553816005
 11
-49.36994749943841
 21
32.72374553816005
 72
     1
 10
-49.36994749943841
 20
32.72374553816005
 11
-50.06653843750391
 21
33.51147732345376
 72
     1
 10
-50.06653843750391
 20
33.51147732345376
 11
-50.76312937556961
 21
32.72374553816005
 72
     1
 10
-50.76312937556961
 20
32.72374553816005
 11
-52.16585359331782
 21
32.72374553816005
 72
     1
 10
-52.16585359331782
 20
32.72374553816005
 11
-50.76790054637752
 21
34.30460453193504
 72
     1
 10
-50.76790054637752
 20
34.30460453193504
 11
-52.070430177145
 21
35.77755506197124
 72
     1
 10
-52.070430177145
 20
35.77755506197124
 11
-50.6677059593957
 21
35.77755506197124
 72
     1
 10
-50.6677059593957
 20
35.77755506197124
 11
-50.06653843750391
 21
35.09773174041575
 72
     1
 10
-50.06653843750391
 20
35.09773174041575
 11
-49.46537091561112
 21
35.77755506197124
 72
     1
 10
-49.46537091561112
 20
35.77755506197124
 11
-48.0626466978639
 21
35.77755506197124
 97
       12
330
157
330
156
330
155
330
1B2
330
1B3
330
1AF
330
1B0
330
15B
330
15A
330
159
330
158
330
1B1
 75
     1
 76
     0
 52
45.0
 41
0.1
 77
     0
 78
     1
 53
45.0
 43
0.0
 44
0.0
 45
-0.0707106781186548
 46
0.0707106781186548
 79
     0
 98
        1
 10
0.0
 20
0.0
  0
HATCH
  5
231
330
71
100
AcDbEntity
  8
1
  6
Continuous
 62
     2
100
AcDbHatch
 10
0.0
 20
0.0
 30
0.0
210
0.0
220
0.0
230
1.0
  2
_USER
 70
     0
 71
     1
 91
        2
 92
        1
 93
        6
 72
     1
 10
-67.08038211200991
 20
33.66682377930385
 11
-67.8391496997902
 21
33.66682377930385
 72
     1
 10
-67.8391496997902
 20
33.66682377930385
 11
-67.8391496997902
 21
32.72374553816005
 72
     1
 10
-67.8391496997902
 20
32.72374553816005
 11
-69.07965411004432
 21
32.72374553816005
 72
     1
 10
-69.07965411004432
 20
32.72374553816005
 11
-69.07965411004432
 21
35.77755506197124
 72
     1
 10
-69.07965411004432
 20
35.77755506197124
 11
-67.08038211200991
 21
35.77755506197124
 72
     2
 10
-67.08038211200991
 20
34.72218942063756
 40
1.055365641333715
 50
270.0
 51
450.0
 73
     0
 97
        6
330
17F
330
17E
330
18B
330
18A
330
180
330
1D0
 92
       16
 93
        4
 72
     2
 10
-67.5218546382483
 20
34.76158539186005
 40
0.3528638246711253
 50
270.0
 51
450.0
 73
     1
 72
     1
 10
-67.5218546382483
 20
35.11444921653114
 11
-67.8391496997902
 21
35.11444921653114
 72
     1
 10
-67.8391496997902
 20
35.11444921653114
 11
-67.8391496997902
 21
34.40872156718893
 72
     1
 10
-67.8391496997902
 20
34.40872156718893
 11
-67.5218546382483
 21
34.40872156718893
 97
        4
330
1E4
330
17C
330
18C
330
17D
 75
     1
 76
     0
 52
45.0
 41
0.1
 77
     0
 78
     1
 53
45.0
 43
0.0
 44
0.0
 45
-0.0707106781186548
 46
0.0707106781186548
 79
     0
 98
        1
 10
0.0
 20
0.0
  0
HATCH
  5
232
330
71
100
AcDbEntity
  8
1
  6
Continuous
 62
     2
100
AcDbHatch
 10
0.0
 20
0.0
 30
0.0
210
0.0
220
0.0
230
1.0
  2
_USER
 70
     0
 71
     1
 91
        2
 92
        1
 93
        6
 72
     1
 10
-67.08038211200991
 20
33.66682377930385
 11
-67.8391496997902
 21
33.66682377930385
 72
     1
 10
-67.8391496997902
 20
33.66682377930385
 11
-67.8391496997902
 21
32.72374553816005
 72
     1
 10
-67.8391496997902
 20
32.72374553816005
 11
-69.07965411004432
 21
32.72374553816005
 72
     1
 10
-69.07965411004432
 20
32.72374553816005
 11
-69.07965411004432
 21
35.77755506197124
 72
     1
 10
-69.07965411004432
 20
35.77755506197124
 11
-67.08038211200991
 21
35.77755506197124
 72
     2
 10
-67.08038211200991
 20
34.72218942063756
 40
1.055365641333715
 50
270.0
 51
450.0
 73
     0
 97
        6
330
17F
330
17E
330
18B
330
18A
330
180
330
1D0
 92
       16
 93
        4
 72
     2
 10
-67.5218546382483
 20
34.76158539186005
 40
0.3528638246711253
 50
270.0
 51
450.0
 73
     1
 72
     1
 10
-67.5218546382483
 20
35.11444921653114
 11
-67.8391496997902
 21
35.11444921653114
 72
     1
 10
-67.8391496997902
 20
35.11444921653114
 11
-67.8391496997902
 21
34.40872156718893
 72
     1
 10
-67.8391496997902
 20
34.40872156718893
 11
-67.5218546382483
 21
34.40872156718893
 97
        4
330
1E4
330
17C
330
18C
330
17D
 75
     1
 76
     0
 52
45.0
 41
0.1
 77
     0
 78
     1
 53
45.0
 43
0.0
 44
0.0
 45
-0.0707106781186548
 46
0.0707106781186548
 79
     0
 98
        1
 10
0.0
 20
0.0
  0
HATCH
  5
233
330
71
100
AcDbEntity
  8
1
  6
Continuous
 62
     2
100
AcDbHatch
 10
0.0
 20
0.0
 30
0.0
210
0.0
220
0.0
230
1.0
  2
_USER
 70
     0
 71
     1
 91
        2
 92
        1
 93
        4
 72
     2
 10
-64.52383936365081
 20
30.35288481358825
 40
2.065479772208564
 50
62.45185182430632
 51
117.5481481756664
 73
     1
 72
     2
 10
-64.8047792554841
 20
30.89145982389104
 40
1.45803408365149
 50
117.5481481756624
 51
242.4518518243375
 73
     1
 72
     2
 10
-64.52383936365081
 20
31.43003483419435
 40
2.065479772208512
 50
242.4518518243403
 51
297.548148175687
 73
     1
 72
     2
 10
-64.24289947181751
 20
30.89145982389104
 40
1.458034083652003
 50
297.548148175701
 51
422.451851824299
 73
     1
 97
        4
330
1DC
330
1DB
330
1DD
330
1DA
 92
       16
 93
        4
 72
     2
 10
-64.72357939999722
 20
30.89145982389104
 40
0.7717997786796947
 50
321.8795802028417
 51
398.120419797153
 73
     1
 72
     2
 10
-64.52383936365081
 20
31.04819100201155
 40
0.5179085730132976
 50
38.12041979714672
 51
141.8795802028591
 73
     1
 72
     2
 10
-64.32409932730471
 20
30.89145982389104
 40
0.771799778679461
 50
141.8795802028365
 51
218.1204197971687
 73
     1
 72
     2
 10
-64.52383936365081
 20
30.73472864577104
 40
0.5179085730137332
 50
218.1204197971929
 51
321.8795802028013
 73
     1
 97
        4
330
1F8
330
1F5
330
1F6
330
1F7
 75
     1
 76
     0
 52
45.0
 41
0.1
 77
     0
 78
     1
 53
45.0
 43
0.0
 44
0.0
 45
-0.0707106781186548
 46
0.0707106781186548
 79
     0
 98
        1
 10
0.0
 20
0.0
  0
HATCH
  5
234
330
71
100
AcDbEntity
  8
1
  6
Continuous
 62
     2
100
AcDbHatch
 10
0.0
 20
0.0
 30
0.0
210
0.0
220
0.0
230
1.0
  2
_USER
 70
     0
 71
     1
 91
        2
 92
        1
 93
        4
 72
     2
 10
-64.52383936365081
 20
30.35288481358825
 40
2.065479772208564
 50
62.45185182430632
 51
117.5481481756664
 73
     1
 72
     2
 10
-64.8047792554841
 20
30.89145982389104
 40
1.45803408365149
 50
117.5481481756624
 51
242.4518518243375
 73
     1
 72
     2
 10
-64.52383936365081
 20
31.43003483419435
 40
2.065479772208512
 50
242.4518518243403
 51
297.548148175687
 73
     1
 72
     2
 10
-64.24289947181751
 20
30.89145982389104
 40
1.458034083652003
 50
297.548148175701
 51
422.451851824299
 73
     1
 97
        4
330
1DC
330
1DB
330
1DD
330
1DA
 92
       16
 93
        4
 72
     2
 10
-64.72357939999722
 20
30.89145982389104
 40
0.7717997786796947
 50
321.8795802028417
 51
398.120419797153
 73
     1
 72
     2
 10
-64.52383936365081
 20
31.04819100201155
 40
0.5179085730132976
 50
38.12041979714672
 51
141.8795802028591
 73
     1
 72
     2
 10
-64.32409932730471
 20
30.89145982389104
 40
0.771799778679461
 50
141.8795802028365
 51
218.1204197971687
 73
     1
 72
     2
 10
-64.52383936365081
 20
30.73472864577104
 40
0.5179085730137332
 50
218.1204197971929
 51
321.8795802028013
 73
     1
 97
        4
330
1F8
330
1F5
330
1F6
330
1F7
 75
     1
 76
     0
 52
45.0
 41
0.1
 77
     0
 78
     1
 53
45.0
 43
0.0
 44
0.0
 45
-0.0707106781186548
 46
0.0707106781186548
 79
     0
 98
        1
 10
0.0
 20
0.0
  0
HATCH
  5
235
330
71
100
AcDbEntity
  8
1
  6
Continuous
 62
     2
100
AcDbHatch
 10
0.0
 20
0.0
 30
0.0
210
0.0
220
0.0
230
1.0
  2
_USER
 70
     0
 71
     1
 91
        2
 92
        1
 93
       12
 72
     1
 10
-57.62884416924152
 20
35.07954145652826
 11
-58.9647719956692
 21
35.07954145652826
 72
     1
 10
-58.9647719956692
 20
35.07954145652826
 11
-58.9647719956692
 21
34.59965710278655
 72
     1
 10
-58.9647719956692
 20
34.59965710278655
 11
-57.62884416924152
 21
34.59965710278655
 72
     1
 10
-57.62884416924152
 20
34.59965710278655
 11
-57.62884416924152
 21
33.90164349734425
 72
     1
 10
-57.62884416924152
 20
33.90164349734425
 11
-58.9647719956692
 21
33.90164349734425
 72
     1
 10
-58.9647719956692
 20
33.90164349734425
 11
-58.9647719956692
 21
33.42175914360254
 72
     1
 10
-58.9647719956692
 20
33.42175914360254
 11
-57.62884416924152
 21
33.42175914360254
 72
     1
 10
-57.62884416924152
 20
33.42175914360254
 11
-57.62884416924152
 21
32.72374553816005
 72
     1
 10
-57.62884416924152
 20
32.72374553816005
 11
-60.77916389302251
 21
32.72374553816005
 72
     2
 10
-60.77916389302251
 20
34.25065030006536
 40
1.526904761905882
 50
90.0
 51
270.0
 73
     0
 72
     1
 10
-60.77916389302251
 20
35.77755506197124
 11
-57.62884416924152
 21
35.77755506197124
 72
     1
 10
-57.62884416924152
 20
35.77755506197124
 11
-57.62884416924152
 21
35.07954145652826
 97
       12
330
193
330
1E5
330
194
330
195
330
196
330
197
330
174
330
173
330
172
330
171
330
198
330
192
 92
       16
 93
        4
 72
     2
 10
-60.56289188285732
 20
34.40738147818584
 40
0.5179085730135321
 50
38.12041979714286
 51
141.8795802028484
 73
     1
 72
     2
 10
-60.36315184651102
 20
34.25065030006536
 40
0.7717997786796668
 50
141.8795802028401
 51
218.1204197971566
 73
     1
 72
     2
 10
-60.56289188285732
 20
34.09391912194494
 40
0.517908573013436
 50
218.1204197971522
 51
321.8795802028565
 73
     1
 72
     2
 10
-60.7626319192035
 20
34.25065030006536
 40
0.7717997786796373
 50
321.8795802028437
 51
398.1204197971596
 73
     1
 97
        4
330
1DF
330
1DE
330
1D9
330
1D8
 75
     1
 76
     0
 52
45.0
 41
0.1
 77
     0
 78
     1
 53
45.0
 43
0.0
 44
0.0
 45
-0.0707106781186548
 46
0.0707106781186548
 79
     0
 98
        1
 10
0.0
 20
0.0
  0
HATCH
  5
236
330
71
100
AcDbEntity
  8
1
  6
Continuous
 62
     2
100
AcDbHatch
 10
0.0
 20
0.0
 30
0.0
210
0.0
220
0.0
230
1.0
  2
_USER
 70
     0
 71
     1
 91
        2
 92
        1
 93
       12
 72
     1
 10
-57.62884416924152
 20
35.07954145652826
 11
-58.9647719956692
 21
35.07954145652826
 72
     1
 10
-58.9647719956692
 20
35.07954145652826
 11
-58.9647719956692
 21
34.59965710278655
 72
     1
 10
-58.9647719956692
 20
34.59965710278655
 11
-57.62884416924152
 21
34.59965710278655
 72
     1
 10
-57.62884416924152
 20
34.59965710278655
 11
-57.62884416924152
 21
33.90164349734425
 72
     1
 10
-57.62884416924152
 20
33.90164349734425
 11
-58.9647719956692
 21
33.90164349734425
 72
     1
 10
-58.9647719956692
 20
33.90164349734425
 11
-58.9647719956692
 21
33.42175914360254
 72
     1
 10
-58.9647719956692
 20
33.42175914360254
 11
-57.62884416924152
 21
33.42175914360254
 72
     1
 10
-57.62884416924152
 20
33.42175914360254
 11
-57.62884416924152
 21
32.72374553816005
 72
     1
 10
-57.62884416924152
 20
32.72374553816005
 11
-60.77916389302251
 21
32.72374553816005
 72
     2
 10
-60.77916389302251
 20
34.25065030006536
 40
1.526904761905882
 50
90.0
 51
270.0
 73
     0
 72
     1
 10
-60.77916389302251
 20
35.77755506197124
 11
-57.62884416924152
 21
35.77755506197124
 72
     1
 10
-57.62884416924152
 20
35.77755506197124
 11
-57.62884416924152
 21
35.07954145652826
 97
       12
330
193
330
1E5
330
194
330
195
330
196
330
197
330
174
330
173
330
172
330
171
330
198
330
192
 92
       16
 93
        4
 72
     2
 10
-60.56289188285732
 20
34.40738147818584
 40
0.5179085730135321
 50
38.12041979714286
 51
141.8795802028484
 73
     1
 72
     2
 10
-60.36315184651102
 20
34.25065030006536
 40
0.7717997786796668
 50
141.8795802028401
 51
218.1204197971566
 73
     1
 72
     2
 10
-60.56289188285732
 20
34.09391912194494
 40
0.517908573013436
 50
218.1204197971522
 51
321.8795802028565
 73
     1
 72
     2
 10
-60.7626319192035
 20
34.25065030006536
 40
0.7717997786796373
 50
321.8795802028437
 51
398.1204197971596
 73
     1
 97
        4
330
1DF
330
1DE
330
1D9
330
1D8
 75
     1
 76
     0
 52
45.0
 41
0.1
 77
     0
 78
     1
 53
45.0
 43
0.0
 44
0.0
 45
-0.0707106781186548
 46
0.0707106781186548
 79
     0
 98
        1
 10
0.0
 20
0.0
  0
HATCH
  5
237
330
71
100
AcDbEntity
  8
1
  6
Continuous
 62
     2
100
AcDbHatch
 10
0.0
 20
0.0
 30
0.0
210
0.0
220
0.0
230
1.0
  2
_USER
 70
     0
 71
     1
 91
        4
 92
        1
 93
        8
 72
     1
 10
-69.55677119091112
 20
35.35331044656925
 11
-69.55677119091112
 21
29.78879967736904
 72
     2
 10
-69.981015806295
 20
29.78879967736904
 40
0.4242446153832908
 50
0.0
 51
90.0
 73
     0
 72
     1
 10
-69.981015806295
 20
29.36455506198575
 11
-75.45432789701181
 21
29.36455506198575
 72
     2
 10
-75.45432789701181
 20
29.78879967736904
 40
0.4242446153828041
 50
90.0
 51
180.0
 73
     0
 72
     1
 10
-75.87857251239461
 20
29.78879967736904
 11
-75.87857251239461
 21
35.35331044656925
 72
     2
 10
-75.45432789701181
 20
35.35331044656925
 40
0.4242446153837989
 50
180.0
 51
270.0
 73
     0
 72
     1
 10
-75.45432789701181
 20
35.77755506195305
 11
-69.981015806295
 21
35.77755506195305
 72
     2
 10
-69.981015806295
 20
35.35331044656925
 40
0.4242446153838841
 50
270.0
 51
360.0
 73
     0
 97
        8
330
187
330
1D5
330
188
330
1E0
330
185
330
1D7
330
186
330
1D6
 92
       16
 93
        1
 72
     2
 10
-72.8347422464943
 20
33.03442821821375
 40
0.4709789327785074
 50
0.0
 51
360.0
 73
     1
 97
        1
330
1FB
 92
       16
 93
        8
 72
     2
 10
-72.28488453373362
 20
31.92528661824534
 40
0.315716923076536
 50
115.3740086783516
 51
180.0
 73
     1
 72
     1
 10
-72.60060145681041
 20
31.92528661824534
 11
-72.60060145681041
 21
31.34343521155026
 72
     2
 10
-72.28488453373362
 20
31.34343521155026
 40
0.315716923076792
 50
180.0
 51
269.8110329574542
 73
     1
 72
     2
 10
-72.2792683984236
 20
33.04627015911925
 40
2.018561131933269
 50
269.8110329575858
 51
450.1889670424142
 73
     1
 72
     2
 10
-72.28488453373362
 20
34.74910510668835
 40
0.3157169230760781
 50
90.18896704254594
 51
180.0
 73
     1
 72
     1
 10
-72.60060145681041
 20
34.74910510668835
 11
-72.60060145681041
 21
34.14356981818156
 72
     2
 10
-72.28488453373362
 20
34.14356981818156
 40
0.315716923076792
 50
180.0
 51
244.6259913216482
 73
     1
 72
     2
 10
-72.8109272318215
 20
33.03442821821375
 40
0.9118481501444525
 50
295.3740086781925
 51
424.6259913218233
 73
     0
 97
        8
330
1ED
330
14E
330
1EA
330
1EB
330
1C9
330
14D
330
1EC
330
1C8
 92
       16
 93
       12
 72
     2
 10
-74.86043322026532
 20
30.39282754061935
 40
0.3157169230756836
 50
180.0
 51
270.0
 73
     1
 72
     1
 10
-74.86043322026532
 20
30.07711061754264
 11
-73.3845999592557
 21
30.07711061754264
 72
     2
 10
-73.3845999592557
 20
30.39282754061935
 40
0.3157169230767103
 50
270.0
 51
360.0
 73
     1
 72
     1
 10
-73.0688830361791
 20
30.39282754061935
 11
-73.0688830361791
 21
31.92359847215096
 72
     2
 10
-73.3845999592557
 20
31.92359847215096
 40
0.315716923076593
 50
0.0
 51
64.80558935146
 73
     1
 72
     2
 10
-72.86201551168071
 20
33.03442821821375
 40
0.9118975235576147
 50
115.1944106485122
 51
244.8055893514718
 73
     0
 72
     2
 10
-73.3845999592557
 20
34.14525796427594
 40
0.3157169230761203
 50
295.1944106485397
 51
360.0
 73
     1
 72
     1
 10
-73.0688830361791
 20
34.14525796427594
 11
-73.0688830361791
 21
34.74928258333645
 72
     2
 10
-73.3845999592557
 20
34.74928258333645
 40
0.315716923076593
 50
0.0
 51
90.0
 73
     1
 72
     1
 10
-73.3845999592557
 20
35.06499950641265
 11
-74.86043322026532
 21
35.06499950641265
 72
     2
 10
-74.86043322026532
 20
34.74928258333645
 40
0.3157169230761951
 50
90.0
 51
180.0
 73
     1
 72
     1
 10
-75.176150143341
 20
34.74928258333645
 11
-75.176150143341
 21
30.39282754061935
 97
       12
330
1D1
330
189
330
1D4
330
184
330
1E1
330
1E2
330
1D3
330
183
330
1D2
330
182
330
1E3
330
181
 75
     1
 76
     0
 52
45.0
 41
0.1
 77
     0
 78
     1
 53
45.0
 43
0.0
 44
0.0
 45
-0.0707106781186548
 46
0.0707106781186548
 79
     0
 98
        1
 10
0.0
 20
0.0
  0
HATCH
  5
238
330
71
100
AcDbEntity
  8
1
  6
Continuous
 62
     2
100
AcDbHatch
 10
0.0
 20
0.0
 30
0.0
210
0.0
220
0.0
230
1.0
  2
_USER
 70
     0
 71
     1
 91
        4
 92
        1
 93
        8
 72
     1
 10
-69.55677119091112
 20
35.35331044656925
 11
-69.55677119091112
 21
29.78879967736904
 72
     2
 10
-69.981015806295
 20
29.78879967736904
 40
0.4242446153832908
 50
0.0
 51
90.0
 73
     0
 72
     1
 10
-69.981015806295
 20
29.36455506198575
 11
-75.45432789701181
 21
29.36455506198575
 72
     2
 10
-75.45432789701181
 20
29.78879967736904
 40
0.4242446153828041
 50
90.0
 51
180.0
 73
     0
 72
     1
 10
-75.87857251239461
 20
29.78879967736904
 11
-75.87857251239461
 21
35.35331044656925
 72
     2
 10
-75.45432789701181
 20
35.35331044656925
 40
0.4242446153837989
 50
180.0
 51
270.0
 73
     0
 72
     1
 10
-75.45432789701181
 20
35.77755506195305
 11
-69.981015806295
 21
35.77755506195305
 72
     2
 10
-69.981015806295
 20
35.35331044656925
 40
0.4242446153838841
 50
270.0
 51
360.0
 73
     0
 97
        8
330
187
330
1D5
330
188
330
1E0
330
185
330
1D7
330
186
330
1D6
 92
       16
 93
        1
 72
     2
 10
-72.8347422464943
 20
33.03442821821375
 40
0.4709789327785074
 50
0.0
 51
360.0
 73
     1
 97
        1
330
1FB
 92
       16
 93
        8
 72
     2
 10
-72.28488453373362
 20
31.92528661824534
 40
0.315716923076536
 50
115.3740086783516
 51
180.0
 73
     1
 72
     1
 10
-72.60060145681041
 20
31.92528661824534
 11
-72.60060145681041
 21
31.34343521155026
 72
     2
 10
-72.28488453373362
 20
31.34343521155026
 40
0.315716923076792
 50
180.0
 51
269.8110329574542
 73
     1
 72
     2
 10
-72.2792683984236
 20
33.04627015911925
 40
2.018561131933269
 50
269.8110329575858
 51
450.1889670424142
 73
     1
 72
     2
 10
-72.28488453373362
 20
34.74910510668835
 40
0.3157169230760781
 50
90.18896704254594
 51
180.0
 73
     1
 72
     1
 10
-72.60060145681041
 20
34.74910510668835
 11
-72.60060145681041
 21
34.14356981818156
 72
     2
 10
-72.28488453373362
 20
34.14356981818156
 40
0.315716923076792
 50
180.0
 51
244.6259913216482
 73
     1
 72
     2
 10
-72.8109272318215
 20
33.03442821821375
 40
0.9118481501444525
 50
295.3740086781925
 51
424.6259913218233
 73
     0
 97
        8
330
1ED
330
14E
330
1EA
330
1EB
330
1C9
330
14D
330
1EC
330
1C8
 92
       16
 93
       12
 72
     2
 10
-74.86043322026532
 20
30.39282754061935
 40
0.3157169230756836
 50
180.0
 51
270.0
 73
     1
 72
     1
 10
-74.86043322026532
 20
30.07711061754264
 11
-73.3845999592557
 21
30.07711061754264
 72
     2
 10
-73.3845999592557
 20
30.39282754061935
 40
0.3157169230767103
 50
270.0
 51
360.0
 73
     1
 72
     1
 10
-73.0688830361791
 20
30.39282754061935
 11
-73.0688830361791
 21
31.92359847215096
 72
     2
 10
-73.3845999592557
 20
31.92359847215096
 40
0.315716923076593
 50
0.0
 51
64.80558935146
 73
     1
 72
     2
 10
-72.86201551168071
 20
33.03442821821375
 40
0.9118975235576147
 50
115.1944106485122
 51
244.8055893514718
 73
     0
 72
     2
 10
-73.3845999592557
 20
34.14525796427594
 40
0.3157169230761203
 50
295.1944106485397
 51
360.0
 73
     1
 72
     1
 10
-73.0688830361791
 20
34.14525796427594
 11
-73.0688830361791
 21
34.74928258333645
 72
     2
 10
-73.3845999592557
 20
34.74928258333645
 40
0.315716923076593
 50
0.0
 51
90.0
 73
     1
 72
     1
 10
-73.3845999592557
 20
35.06499950641265
 11
-74.86043322026532
 21
35.06499950641265
 72
     2
 10
-74.86043322026532
 20
34.74928258333645
 40
0.3157169230761951
 50
90.0
 51
180.0
 73
     1
 72
     1
 10
-75.176150143341
 20
34.74928258333645
 11
-75.176150143341
 21
30.39282754061935
 97
       12
330
1D1
330
189
330
1D4
330
184
330
1E1
330
1E2
330
1D3
330
183
330
1D2
330
182
330
1E3
330
181
 75
     1
 76
     0
 52
45.0
 41
0.1
 77
     0
 78
     1
 53
45.0
 43
0.0
 44
0.0
 45
-0.0707106781186548
 46
0.0707106781186548
 79
     0
 98
        1
 10
0.0
 20
0.0
  0
HATCH
  5
239
330
71
100
AcDbEntity
  8
1
  6
Continuous
 62
     2
100
AcDbHatch
 10
0.0
 20
0.0
 30
0.0
210
0.0
220
0.0
230
1.0
  2
_USER
 70
     0
 71
     1
 91
        1
 92
        1
 93
       18
 72
     1
 10
-47.96722328169011
 20
31.63309927967325
 11
-48.77832231916349
 21
31.63309927967325
 72
     1
 10
-48.77832231916349
 20
31.63309927967325
 11
-48.77832231916349
 21
29.36455506198575
 72
     1
 10
-48.77832231916349
 20
29.36455506198575
 11
-49.9711150213312
 21
29.36455506198575
 72
     1
 10
-49.9711150213312
 20
29.36455506198575
 11
-49.9711150213312
 21
31.63309927967325
 72
     1
 10
-49.9711150213312
 20
31.63309927967325
 11
-51.0747543208993
 21
31.63309927967325
 72
     2
 10
-51.0747543208993
 20
30.67857627284715
 40
0.9545230068261006
 50
90.0
 51
109.3371432194319
 73
     1
 72
     2
 10
-51.22142431900301
 20
31.09653125323004
 40
0.5115800601944153
 50
109.3371432194844
 51
151.4785267424224
 73
     1
 72
     2
 10
-50.84406706092162
 20
30.89145982389104
 40
0.9410597353348907
 50
151.4785267423626
 51
208.5214732576695
 73
     1
 72
     2
 10
-51.22142431900301
 20
30.68638839455255
 40
0.5115800601960153
 50
208.521473257687
 51
246.6277221118455
 73
     1
 72
     2
 10
-51.0649842862999
 20
31.04838041326255
 40
0.9059297849852797
 50
246.6277221118177
 51
288.4480761180808
 73
     1
 72
     2
 10
-51.48315201996181
 20
32.30192618929914
 40
2.227384008972744
 50
288.4480761181333
 51
301.9309089499397
 73
     1
 72
     1
 10
-50.30509697793789
 20
30.41157547014936
 11
-50.30509697793789
 21
29.53905846334604
 72
     2
 10
-51.64102489505461
 20
34.20414076914744
 40
4.852596863498828
 50
74.02000874166129
 51
84.84185523036365
 73
     0
 72
     2
 10
-51.35216880031879
 20
31.00425018592586
 40
1.639695123940448
 50
84.8418552303238
 51
164.9381082228988
 73
     0
 72
     2
 10
-51.7712966437804
 20
30.89145982389104
 40
1.205656168393001
 50
164.9381082229043
 51
195.061891777097
 73
     0
 72
     2
 10
-51.35216880031879
 20
30.77866946185614
 40
1.639695123940207
 50
195.0618917771049
 51
270.0
 73
     0
 72
     1
 10
-51.35216880031879
 20
32.41836458579635
 11
-47.96722328169011
 21
32.41836458579684
 72
     1
 10
-47.96722328169011
 20
32.41836458579684
 11
-47.96722328169011
 21
31.63309927967325
 97
       18
330
150
330
1E6
330
1E7
330
1CF
330
1CE
330
1B4
330
1CD
330
1CC
330
1E8
330
1CB
330
1E9
330
1CA
330
1B5
330
14F
330
154
330
153
330
152
330
151
 75
     1
 76
     0
 52
45.0
 41
0.1
 77
     0
 78
     1
 53
45.0
 43
0.0
 44
0.0
 45
-0.0707106781186548
 46
0.0707106781186548
 79
     0
 98
        1
 10
0.0
 20
0.0
  0
HATCH
  5
23A
330
71
100
AcDbEntity
  8
1
  6
Continuous
 62
     2
100
AcDbHatch
 10
0.0
 20
0.0
 30
0.0
210
0.0
220
0.0
230
1.0
  2
_USER
 70
     0
 71
     1
 91
        1
 92
        1
 93
       18
 72
     1
 10
-47.96722328169011
 20
31.63309927967325
 11
-48.77832231916349
 21
31.63309927967325
 72
     1
 10
-48.77832231916349
 20
31.63309927967325
 11
-48.77832231916349
 21
29.36455506198575
 72
     1
 10
-48.77832231916349
 20
29.36455506198575
 11
-49.9711150213312
 21
29.36455506198575
 72
     1
 10
-49.9711150213312
 20
29.36455506198575
 11
-49.9711150213312
 21
31.63309927967325
 72
     1
 10
-49.9711150213312
 20
31.63309927967325
 11
-51.0747543208993
 21
31.63309927967325
 72
     2
 10
-51.0747543208993
 20
30.67857627284715
 40
0.9545230068261006
 50
90.0
 51
109.3371432194319
 73
     1
 72
     2
 10
-51.22142431900301
 20
31.09653125323004
 40
0.5115800601944153
 50
109.3371432194844
 51
151.4785267424224
 73
     1
 72
     2
 10
-50.84406706092162
 20
30.89145982389104
 40
0.9410597353348907
 50
151.4785267423626
 51
208.5214732576695
 73
     1
 72
     2
 10
-51.22142431900301
 20
30.68638839455255
 40
0.5115800601960153
 50
208.521473257687
 51
246.6277221118455
 73
     1
 72
     2
 10
-51.0649842862999
 20
31.04838041326255
 40
0.9059297849852797
 50
246.6277221118177
 51
288.4480761180808
 73
     1
 72
     2
 10
-51.48315201996181
 20
32.30192618929914
 40
2.227384008972744
 50
288.4480761181333
 51
301.9309089499397
 73
     1
 72
     1
 10
-50.30509697793789
 20
30.41157547014936
 11
-50.30509697793789
 21
29.53905846334604
 72
     2
 10
-51.64102489505461
 20
34.20414076914744
 40
4.852596863498828
 50
74.02000874166129
 51
84.84185523036365
 73
     0
 72
     2
 10
-51.35216880031879
 20
31.00425018592586
 40
1.639695123940448
 50
84.8418552303238
 51
164.9381082228988
 73
     0
 72
     2
 10
-51.7712966437804
 20
30.89145982389104
 40
1.205656168393001
 50
164.9381082229043
 51
195.061891777097
 73
     0
 72
     2
 10
-51.35216880031879
 20
30.77866946185614
 40
1.639695123940207
 50
195.0618917771049
 51
270.0
 73
     0
 72
     1
 10
-51.35216880031879
 20
32.41836458579635
 11
-47.96722328169011
 21
32.41836458579684
 72
     1
 10
-47.96722328169011
 20
32.41836458579684
 11
-47.96722328169011
 21
31.63309927967325
 97
       18
330
150
330
1E6
330
1E7
330
1CF
330
1CE
330
1B4
330
1CD
330
1CC
330
1E8
330
1CB
330
1E9
330
1CA
330
1B5
330
14F
330
154
330
153
330
152
330
151
 75
     1
 76
     0
 52
45.0
 41
0.1
 77
     0
 78
     1
 53
45.0
 43
0.0
 44
0.0
 45
-0.0707106781186548
 46
0.0707106781186548
 79
     0
 98
        1
 10
0.0
 20
0.0
  0
HATCH
  5
23B
330
71
100
AcDbEntity
  8
1
  6
Continuous
 62
     2
100
AcDbHatch
 10
0.0
 20
0.0
 30
0.0
210
0.0
220
0.0
230
1.0
  2
_USER
 70
     0
 71
     1
 91
        1
 92
        1
 93
       14
 72
     2
 10
-67.45487027957171
 20
30.77866946185614
 40
1.639695123940507
 50
84.84185523036236
 51
164.9381082228866
 73
     1
 72
     2
 10
-67.87399812303451
 20
30.89145982389104
 40
1.205656168390943
 50
164.9381082228766
 51
195.061891777095
 73
     1
 72
     2
 10
-67.45487027957171
 20
31.00425018592586
 40
1.639695123939389
 50
195.0618917770898
 51
275.1581447696395
 73
     1
 72
     2
 10
-67.74372637430761
 20
34.20414076914744
 40
4.852596863498138
 50
275.1581447696249
 51
285.9799912583529
 73
     1
 72
     1
 10
-66.40779845718981
 20
29.53905846334664
 11
-66.40779845718981
 21
30.41157547014984
 72
     2
 10
-67.58585349921469
 20
32.30192618929974
 40
2.22738400897274
 50
58.0690910500408
 51
71.55192388186722
 73
     0
 72
     2
 10
-67.1676857655539
 20
31.04838041326255
 40
0.905929784984916
 50
71.55192388184147
 51
113.3722778881291
 73
     0
 72
     2
 10
-67.32412579825592
 20
30.68638839455255
 40
0.5115800601948034
 50
113.3722778881728
 51
151.4785267423044
 73
     0
 72
     2
 10
-66.94676854017561
 20
30.89145982389104
 40
0.9410597353332545
 50
151.4785267422943
 51
208.5214732577331
 73
     0
 72
     2
 10
-67.32412579825592
 20
31.09653125323004
 40
0.5115800601948779
 50
208.5214732576956
 51
246.6277221118009
 73
     0
 72
     2
 10
-67.1676857655539
 20
30.73453923451945
 40
0.9059297849853228
 50
246.6277221118709
 51
288.4480761181465
 73
     0
 72
     2
 10
-67.58585349921469
 20
29.48099345848286
 40
2.227384008973474
 50
288.4480761181328
 51
301.9309089499593
 73
     0
 72
     1
 10
-66.40779845718981
 20
31.37134417763275
 11
-66.40779845718981
 21
32.24386118443604
 72
     2
 10
-67.74372637430761
 20
27.57877887863515
 40
4.852596863498068
 50
74.02000874164739
 51
84.84185523037506
 73
     1
 97
       14
330
1EE
330
1EF
330
1F0
330
1F1
330
1B6
330
1C7
330
1C6
330
1C5
330
1F2
330
1F3
330
1C4
330
1F4
330
1B7
330
1C3
 75
     1
 76
     0
 52
45.0
 41
0.1
 77
     0
 78
     1
 53
45.0
 43
0.0
 44
0.0
 45
-0.0707106781186548
 46
0.0707106781186548
 79
     0
 98
        1
 10
0.0
 20
0.0
  0
HATCH
  5
23C
330
71
100
AcDbEntity
  8
1
  6
Continuous
 62
     2
100
AcDbHatch
 10
0.0
 20
0.0
 30
0.0
210
0.0
220
0.0
230
1.0
  2
_USER
 70
     0
 71
     1
 91
        1
 92
        1
 93
       14
 72
     2
 10
-67.45487027957171
 20
30.77866946185614
 40
1.639695123940507
 50
84.84185523036236
 51
164.9381082228866
 73
     1
 72
     2
 10
-67.87399812303451
 20
30.89145982389104
 40
1.205656168390943
 50
164.9381082228766
 51
195.061891777095
 73
     1
 72
     2
 10
-67.45487027957171
 20
31.00425018592586
 40
1.639695123939389
 50
195.0618917770898
 51
275.1581447696395
 73
     1
 72
     2
 10
-67.74372637430761
 20
34.20414076914744
 40
4.852596863498138
 50
275.1581447696249
 51
285.9799912583529
 73
     1
 72
     1
 10
-66.40779845718981
 20
29.53905846334664
 11
-66.40779845718981
 21
30.41157547014984
 72
     2
 10
-67.58585349921469
 20
32.30192618929974
 40
2.22738400897274
 50
58.0690910500408
 51
71.55192388186722
 73
     0
 72
     2
 10
-67.1676857655539
 20
31.04838041326255
 40
0.905929784984916
 50
71.55192388184147
 51
113.3722778881291
 73
     0
 72
     2
 10
-67.32412579825592
 20
30.68638839455255
 40
0.5115800601948034
 50
113.3722778881728
 51
151.4785267423044
 73
     0
 72
     2
 10
-66.94676854017561
 20
30.89145982389104
 40
0.9410597353332545
 50
151.4785267422943
 51
208.5214732577331
 73
     0
 72
     2
 10
-67.32412579825592
 20
31.09653125323004
 40
0.5115800601948779
 50
208.5214732576956
 51
246.6277221118009
 73
     0
 72
     2
 10
-67.1676857655539
 20
30.73453923451945
 40
0.9059297849853228
 50
246.6277221118709
 51
288.4480761181465
 73
     0
 72
     2
 10
-67.58585349921469
 20
29.48099345848286
 40
2.227384008973474
 50
288.4480761181328
 51
301.9309089499593
 73
     0
 72
     1
 10
-66.40779845718981
 20
31.37134417763275
 11
-66.40779845718981
 21
32.24386118443604
 72
     2
 10
-67.74372637430761
 20
27.57877887863515
 40
4.852596863498068
 50
74.02000874164739
 51
84.84185523037506
 73
     1
 97
       14
330
1EE
330
1EF
330
1F0
330
1F1
330
1B6
330
1C7
330
1C6
330
1C5
330
1F2
330
1F3
330
1C4
330
1F4
330
1B7
330
1C3
 75
     1
 76
     0
 52
45.0
 41
0.1
 77
     0
 78
     1
 53
45.0
 43
0.0
 44
0.0
 45
-0.0707106781186548
 46
0.0707106781186548
 79
     0
 98
        1
 10
0.0
 20
0.0
  0
ENDBLK
  5
73
330
71
100
AcDbEntity
  8
0
100
AcDbBlockEnd
  0
BLOCK
  5
75
330
74
100
AcDbEntity
  8
0
100
AcDbBlockBegin
  2
_punkt
 70
     0
 10
49.4295771277928
 20
22.07105506196945
 30
0.0
  3
_punkt
  1

  0
LINE
  5
23D
330
74
100
AcDbEntity
  8
1
  6
Continuous
 62
     2
100
AcDbLine
 10
49.4295771277928
 20
22.07105506196945
 30
0.0
 11
54.42957712779179
 21
22.07105506196945
 31
0.0
  0
LINE
  5
23E
330
74
100
AcDbEntity
  8
1
  6
Continuous
 62
     2
100
AcDbLine
 10
49.4295771277928
 20
22.07105506196945
 30
0.0
 11
49.4295771277928
 21
17.07105506196933
 31
0.0
  0
ENDBLK
  5
76
330
74
100
AcDbEntity
  8
0
100
AcDbBlockEnd
  0
BLOCK
  5
7A
330
77
100
AcDbEntity
  8
0
100
AcDbBlockBegin
  2
A4I_CS
 70
     0
 10
49.4295771277928
 20
17.07105506196933
 30
0.0
  3
A4I_CS
  1

  0
INSERT
  5
78
330
77
100
AcDbEntity
  8
1
100
AcDbBlockReference
  2
_rahmen
 10
49.4295771277928
 20
17.07105506196933
 30
0.0
  0
INSERT
  5
79
330
77
100
AcDbEntity
  8
1
100
AcDbBlockReference
  2
_punkt
 10
49.4295771277928
 20
22.07105506196945
 30
0.0
  0
ENDBLK
  5
7B
330
77
100
AcDbEntity
  8
0
100
AcDbBlockEnd
  0
BLOCK
  5
84
330
7C
100
AcDbEntity
  8
0
100
AcDbBlockBegin
  2
1
 70
     0
 10
0.0
 20
0.0
 30
0.0
  3
1
  1

  0
INSERT
  5
7D
330
7C
100
AcDbEntity
  8
0
100
AcDbBlockReference
  2
AllgSicht1
 10
-12.99999780534917
 20
96.9999987476652
 30
0.0
 41
5.0
 42
5.0
 43
5.0
  0
INSERT
  5
7E
330
7C
100
AcDbEntity
  8
0
100
AcDbBlockReference
  2
Drfsicht1
 10
-124.3249919676938
 20
101.8250095379985
 30
0.0
 41
5.0
 42
5.0
 43
5.0
  0
INSERT
  5
7F
330
7C
100
AcDbEntity
  8
0
100
AcDbBlockReference
  2
Rckans1
 10
2.32499421966846
 20
169.0
 30
0.0
 41
5.0
 42
5.0
 43
5.0
  0
INSERT
  5
80
330
7C
100
AcDbEntity
  8
0
100
AcDbBlockReference
  2
SA_Links1
 10
-63.00000000002505
 20
168.9999999999999
 30
0.0
 41
5.0
 42
5.0
 43
5.0
  0
INSERT
  5
81
330
7C
100
AcDbEntity
  8
0
100
AcDbBlockReference
  2
SA_Rechts1
 10
-203.6499904580355
 20
168.9999999999999
 30
0.0
 41
5.0
 42
5.0
 43
5.0
  0
INSERT
  5
82
330
7C
100
AcDbEntity
  8
0
100
AcDbBlockReference
  2
Vordans1
 10
-124.3249942196428
 20
168.9999999999999
 30
0.0
 41
5.0
 42
5.0
 43
5.0
  0
INSERT
  5
83
330
7C
100
AcDbEntity
  8
0
100
AcDbBlockReference
  2
A4I_CS
 10
49.4295771277928
 20
17.07105506196933
 30
0.0
  0
ENDBLK
  5
85
330
7C
100
AcDbEntity
  8
0
100
AcDbBlockEnd
  0
BLOCK
  5
B4
330
AD
100
AcDbEntity
  8
0
100
AcDbBlockBegin
  2
*D17
 70
     1
 10
0.0
 20
0.0
 30
0.0
  3
*D17
  1

  0
LINE
  5
AE
330
AD
100
AcDbEntity
  8
1
  6
Continuous
 62
     2
100
AcDbLine
 10
-32.11498798978818
 20
22.44000185992098
 30
0.0
 11
-32.11498798978818
 21
18.29000185992098
 31
0.0
  0
LINE
  5
AF
330
AD
100
AcDbEntity
  8
1
  6
Continuous
 62
     2
100
AcDbLine
 10
-30.11498798978818
 20
22.44000185992098
 30
0.0
 11
-32.41498798978817
 21
22.44000185992098
 31
0.0
  0
LINE
  5
B0
330
AD
100
AcDbEntity
  8
1
  6
Continuous
 62
     2
100
AcDbLine
 10
-30.11498798978818
 20
18.29000185992098
 30
0.0
 11
-32.41498798978817
 21
18.29000185992098
 31
0.0
  0
SOLID
  5
B1
330
AD
100
AcDbEntity
  8
1
 62
     2
100
AcDbTrace
 10
-32.022831241477
 20
21.74000185992098
 30
0.0
 11
-32.20714473809935
 21
21.74000185992098
 31
0.0
 12
-32.11498798978818
 22
22.44000185992098
 32
0.0
 13
-32.11498798978818
 23
22.44000185992098
 33
0.0
  0
SOLID
  5
B2
330
AD
100
AcDbEntity
  8
1
 62
     2
100
AcDbTrace
 10
-32.20714473809935
 20
18.99000185992098
 30
0.0
 11
-32.022831241477
 21
18.99000185992098
 31
0.0
 12
-32.11498798978818
 22
18.29000185992098
 32
0.0
 13
-32.11498798978818
 23
18.29000185992098
 33
0.0
  0
MTEXT
  5
B3
330
AD
100
AcDbEntity
  8
1
 62
     3
100
AcDbMText
 10
-32.48498798978818
 20
19.49658390186759
 30
0.0
 40
0.7
 41
0.0
 71
     7
 72
     1
  1
4,15
  7
CONVERTER_11
 11
0.0
 21
1.0
 31
0.0
 73
     1
 44
0.60024009603842
  0
ENDBLK
  5
B5
330
AD
100
AcDbEntity
  8
0
100
AcDbBlockEnd
  0
BLOCK
  5
F7
330
F0
100
AcDbEntity
  8
0
100
AcDbBlockBegin
  2
*D18
 70
     1
 10
0.0
 20
0.0
 30
0.0
  3
*D18
  1

  0
LINE
  5
F1
330
F0
100
AcDbEntity
  8
1
  6
Continuous
 62
     2
100
AcDbLine
 10
-32.11498844017797
 20
35.90000098554632
 30
0.0
 11
-32.11498844017797
 21
31.7000009855461
 31
0.0
  0
LINE
  5
F2
330
F0
100
AcDbEntity
  8
1
  6
Continuous
 62
     2
100
AcDbLine
 10
-30.11498844017797
 20
35.90000098554632
 30
0.0
 11
-32.41498844017797
 21
35.90000098554632
 31
0.0
  0
LINE
  5
F3
330
F0
100
AcDbEntity
  8
1
  6
Continuous
 62
     2
100
AcDbLine
 10
-27.68998844017801
 20
31.7000009855461
 30
0.0
 11
-32.41498844017797
 21
31.7000009855461
 31
0.0
  0
SOLID
  5
F4
330
F0
100
AcDbEntity
  8
1
 62
     2
100
AcDbTrace
 10
-32.0228316918668
 20
35.20000098554632
 30
0.0
 11
-32.20714518848915
 21
35.20000098554632
 31
0.0
 12
-32.11498844017797
 22
35.90000098554632
 32
0.0
 13
-32.11498844017797
 23
35.90000098554632
 33
0.0
  0
SOLID
  5
F5
330
F0
100
AcDbEntity
  8
1
 62
     2
100
AcDbTrace
 10
-32.20714518848915
 20
32.40000098554611
 30
0.0
 11
-32.0228316918668
 21
32.40000098554611
 31
0.0
 12
-32.11498844017797
 22
31.7000009855461
 32
0.0
 13
-32.11498844017797
 23
31.7000009855461
 33
0.0
  0
MTEXT
  5
F6
330
F0
100
AcDbEntity
  8
1
 62
     3
100
AcDbMText
 10
-32.48498844017798
 20
32.8432109257308
 30
0.0
 40
0.7
 41
0.0
 71
     7
 72
     1
  1
4,2
  7
CONVERTER_11
 11
0.0
 21
1.0
 31
0.0
 73
     1
 44
0.60024009603842
  0
ENDBLK
  5
F8
330
F0
100
AcDbEntity
  8
0
100
AcDbBlockEnd
  0
BLOCK
  5
102
330
FB
100
AcDbEntity
  8
0
100
AcDbBlockBegin
  2
*D19
 70
     1
 10
0.0
 20
0.0
 30
0.0
  3
*D19
  1

  0
LINE
  5
FC
330
FB
100
AcDbEntity
  8
1
  6
Continuous
 62
     2
100
AcDbLine
 10
-19.61498844017796
 20
37.90000098554632
 30
0.0
 11
-30.11498844017797
 21
37.90000098554632
 31
0.0
  0
LINE
  5
FD
330
FB
100
AcDbEntity
  8
1
  6
Continuous
 62
     2
100
AcDbLine
 10
-19.61498844017796
 20
35.90000098554632
 30
0.0
 11
-19.61498844017796
 21
38.20000098554632
 31
0.0
  0
LINE
  5
FE
330
FB
100
AcDbEntity
  8
1
  6
Continuous
 62
     2
100
AcDbLine
 10
-30.11498844017797
 20
35.90000098554632
 30
0.0
 11
-30.11498844017797
 21
38.20000098554632
 31
0.0
  0
SOLID
  5
FF
330
FB
100
AcDbEntity
  8
1
 62
     2
100
AcDbTrace
 10
-20.31498844017796
 20
37.80784423723514
 30
0.0
 11
-20.31498844017796
 21
37.9921577338575
 31
0.0
 12
-19.61498844017796
 22
37.90000098554632
 32
0.0
 13
-19.61498844017796
 23
37.90000098554632
 33
0.0
  0
SOLID
  5
100
330
FB
100
AcDbEntity
  8
1
 62
     2
100
AcDbTrace
 10
-29.41498844017797
 20
37.9921577338575
 30
0.0
 11
-29.41498844017797
 21
37.80784423723514
 31
0.0
 12
-30.11498844017797
 22
37.90000098554632
 32
0.0
 13
-30.11498844017797
 23
37.90000098554632
 33
0.0
  0
MTEXT
  5
101
330
FB
100
AcDbEntity
  8
1
 62
     3
100
AcDbMText
 10
-25.8733794900306
 20
38.27000098554633
 30
0.0
 40
0.7
 41
0.0
 71
     7
 72
     1
  1
10,5
  7
CONVERTER_11
 11
0.9999999999970619
 21
2.424068405545306E-6
 31
0.0
 73
     1
 44
0.60024009603842
  0
ENDBLK
  5
103
330
FB
100
AcDbEntity
  8
0
100
AcDbBlockEnd
  0
ENDSEC
  0
SECTION
  2
ENTITIES
  0
INSERT
  5
86
330
1F
100
AcDbEntity
  8
1
100
AcDbBlockReference
  2
1
 10
0.0
 20
0.0
 30
0.0
  0
ENDSEC
  0
SECTION
  2
OBJECTS
  0
DICTIONARY
  5
C
330
0
100
AcDbDictionary
281
     1
  3
ACAD_GROUP
350
D
  3
ACAD_LAYOUT
350
1A
  3
ACAD_MATERIAL
350
3B
  3
ACAD_MLEADERSTYLE
350
266
  3
ACAD_MLINESTYLE
350
17
  3
ACAD_PLOTSETTINGS
350
19
  3
ACAD_PLOTSTYLENAME
350
E
  3
ACAD_TABLESTYLE
350
265
  3
ACAD_VISUALSTYLE
350
2A
  0
DICTIONARY
  5
D
102
{ACAD_REACTORS
330
C
102
}
330
C
100
AcDbDictionary
281
     1
  0
DICTIONARY
  5
1A
102
{ACAD_REACTORS
330
C
102
}
330
C
100
AcDbDictionary
281
     1
  3
Layout1
350
1E
  3
Layout2
350
26
  3
Model
350
22
  0
DICTIONARY
  5
3B
102
{ACAD_REACTORS
330
C
102
}
330
C
100
AcDbDictionary
281
     1
  3
ByBlock
350
3D
  3
ByLayer
350
3C
  3
Global
350
3E
  0
DICTIONARY
  5
266
102
{ACAD_REACTORS
330
C
102
}
330
C
100
AcDbDictionary
281
     1
  0
DICTIONARY
  5
17
102
{ACAD_REACTORS
330
C
102
}
330
C
100
AcDbDictionary
281
     1
  3
Standard
350
18
  0
DICTIONARY
  5
19
102
{ACAD_REACTORS
330
C
102
}
330
C
100
AcDbDictionary
281
     1
  0
ACDBDICTIONARYWDFLT
  5
E
102
{ACAD_REACTORS
330
C
102
}
330
C
100
AcDbDictionary
281
     1
  3
Normal
350
F
100
AcDbDictionaryWithDefault
340
F
  0
DICTIONARY
  5
265
102
{ACAD_REACTORS
330
C
102
}
330
C
100
AcDbDictionary
281
     1
  0
DICTIONARY
  5
2A
102
{ACAD_REACTORS
330
C
102
}
330
C
100
AcDbDictionary
281
     1
  3
2dWireframe
350
2F
  3
3D Hidden
350
31
  3
3dWireframe
350
30
  3
Basic
350
32
  3
Brighten
350
36
  3
ColorChange
350
3A
  3
Conceptual
350
34
  3
Dim
350
35
  3
Facepattern
350
39
  3
Flat
350
2B
  3
FlatWithEdges
350
2C
  3
Gouraud
350
2D
  3
GouraudWithEdges
350
2E
  3
Linepattern
350
38
  3
Realistic
350
33
  3
Thicken
350
37
  0
LAYOUT
  5
1E
102
{ACAD_REACTORS
330
1A
102
}
330
1A
100
AcDbPlotSettings
  1

  2
none_device
  4

  6

 40
0.0
 41
0.0
 42
0.0
 43
0.0
 44
0.0
 45
0.0
 46
0.0
 47
0.0
 48
0.0
 49
0.0
140
0.0
141
0.0
142
1.0
143
1.0
 70
   688
 72
     0
 73
     0
 74
     5
  7

 75
    16
 76
     0
 77
     2
 78
   300
147
1.0
148
0.0
149
0.0
100
AcDbLayout
  1
Layout1
 70
     1
 71
     1
 10
0.0
 20
0.0
 11
12.0
 21
9.0
 12
0.0
 22
0.0
 32
0.0
 14
1.00000000000000E+20
 24
1.00000000000000E+20
 34
1.00000000000000E+20
 15
-1.00000000000000E+20
 25
-1.00000000000000E+20
 35
-1.00000000000000E+20
146
0.0
 13
0.0
 23
0.0
 33
0.0
 16
1.0
 26
0.0
 36
0.0
 17
0.0
 27
1.0
 37
0.0
 76
     0
330
1B
  0
LAYOUT
  5
26
102
{ACAD_REACTORS
330
1A
102
}
330
1A
100
AcDbPlotSettings
  1

  2
none_device
  4

  6

 40
0.0
 41
0.0
 42
0.0
 43
0.0
 44
0.0
 45
0.0
 46
0.0
 47
0.0
 48
0.0
 49
0.0
140
0.0
141
0.0
142
1.0
143
1.0
 70
   688
 72
     0
 73
     0
 74
     5
  7

 75
    16
 76
     0
 77
     2
 78
   300
147
1.0
148
0.0
149
0.0
100
AcDbLayout
  1
Layout2
 70
     1
 71
     2
 10
0.0
 20
0.0
 11
0.0
 21
0.0
 12
0.0
 22
0.0
 32
0.0
 14
0.0
 24
0.0
 34
0.0
 15
0.0
 25
0.0
 35
0.0
146
0.0
 13
0.0
 23
0.0
 33
0.0
 16
1.0
 26
0.0
 36
0.0
 17
0.0
 27
1.0
 37
0.0
 76
     0
330
23
  0
LAYOUT
  5
22
102
{ACAD_REACTORS
330
1A
102
}
330
1A
100
AcDbPlotSettings
  1

  2
none_device
  4

  6

 40
0.0
 41
0.0
 42
0.0
 43
0.0
 44
0.0
 45
0.0
 46
0.0
 47
0.0
 48
0.0
 49
0.0
140
0.0
141
0.0
142
1.0
143
1.0
 70
  1712
 72
     0
 73
     0
 74
     0
  7

 75
     0
 76
     0
 77
     2
 78
   300
147
1.0
148
0.0
149
0.0
100
AcDbLayout
  1
Model
 70
     1
 71
     0
 10
0.0
 20
0.0
 11
12.0
 21
9.0
 12
0.0
 22
0.0
 32
0.0
 14
-242.5704228722063
 24
17.07105506196933
 34
0.0
 15
54.42957712779179
 25
227.0710550619695
 35
0.0
146
0.0
 13
0.0
 23
0.0
 33
0.0
 16
1.0
 26
0.0
 36
0.0
 17
0.0
 27
1.0
 37
0.0
 76
     0
330
1F
331
29
  0
MATERIAL
  5
3D
102
{ACAD_REACTORS
330
3B
102
}
102
{ACAD_XDICTIONARY
360
261
102
}
330
3B
100
AcDbMaterial
  1
ByBlock
  0
MATERIAL
  5
3C
102
{ACAD_REACTORS
330
3B
102
}
102
{ACAD_XDICTIONARY
360
25F
102
}
330
3B
100
AcDbMaterial
  1
ByLayer
  0
MATERIAL
  5
3E
102
{ACAD_REACTORS
330
3B
102
}
102
{ACAD_XDICTIONARY
360
263
102
}
330
3B
100
AcDbMaterial
  1
Global
  0
MLINESTYLE
  5
18
102
{ACAD_REACTORS
330
17
102
}
330
17
100
AcDbMlineStyle
  2
Standard
 70
     0
  3

 62
   256
 51
90.0
 52
90.0
 71
     2
 49
0.5
 62
   256
  6
BYLAYER
 49
-0.5
 62
   256
  6
BYLAYER
  0
ACDBPLACEHOLDER
  5
F
102
{ACAD_REACTORS
330
E
102
}
330
E
  0
VISUALSTYLE
  5
2F
102
{ACAD_REACTORS
330
2A
102
}
102
{ACAD_XDICTIONARY
360
247
102
}
330
2A
100
AcDbVisualStyle
  2
2dWireframe
 70
     4
 71
     0
 72
     2
 73
     0
 90
        0
 40
-0.6
 41
-30.0
 62
     5
 63
     7
421
 16777215
 74
     1
 91
        4
 64
     7
 65
   257
 75
     1
175
     1
 42
1.0
 92
        0
 66
   257
 43
1.0
 76
     1
 77
     6
 78
     2
 67
     7
 79
     5
170
     0
171
     0
290
     0
174
     0
 93
        1
 44
0.0
173
     0
291
     0
 45
0.0
1001
ACAD
1000
AcDbSavedByObjectVersion
1070
     0
  0
VISUALSTYLE
  5
31
102
{ACAD_REACTORS
330
2A
102
}
102
{ACAD_XDICTIONARY
360
24B
102
}
330
2A
100
AcDbVisualStyle
  2
3D Hidden
 70
     6
 71
     1
 72
     2
 73
     2
 90
        0
 40
-0.6
 41
-30.0
 62
     5
 63
     7
421
 16777215
 74
     2
 91
        2
 64
     7
 65
   257
 75
     2
175
     1
 42
40.0
 92
        0
 66
   257
 43
1.0
 76
     1
 77
     6
 78
     2
 67
     7
 79
     3
170
     0
171
     0
290
     0
174
     0
 93
        1
 44
0.0
173
     0
291
     0
 45
0.0
1001
ACAD
1000
AcDbSavedByObjectVersion
1070
     0
  0
VISUALSTYLE
  5
30
102
{ACAD_REACTORS
330
2A
102
}
102
{ACAD_XDICTIONARY
360
249
102
}
330
2A
100
AcDbVisualStyle
  2
3dWireframe
 70
     5
 71
     0
 72
     2
 73
     0
 90
        0
 40
-0.6
 41
-30.0
 62
     5
 63
     7
421
 16777215
 74
     1
 91
        4
 64
     7
 65
   257
 75
     1
175
     1
 42
1.0
 92
        0
 66
   257
 43
1.0
 76
     1
 77
     6
 78
     2
 67
     7
 79
     5
170
     0
171
     0
290
     0
174
     0
 93
        1
 44
0.0
173
     0
291
     0
 45
0.0
1001
ACAD
1000
AcDbSavedByObjectVersion
1070
     0
  0
VISUALSTYLE
  5
32
102
{ACAD_REACTORS
330
2A
102
}
102
{ACAD_XDICTIONARY
360
24D
102
}
330
2A
100
AcDbVisualStyle
  2
Basic
 70
     7
 71
     1
 72
     0
 73
     1
 90
        0
 40
-0.6
 41
-30.0
 62
     5
 63
     7
421
 16777215
 74
     0
 91
        4
 64
     7
 65
   257
 75
     1
175
     1
 42
1.0
 92
        8
 66
     7
 43
1.0
 76
     1
 77
     6
 78
     2
 67
     7
 79
     5
170
     0
171
     0
290
     0
174
     0
 93
        1
 44
0.0
173
     0
291
     1
 45
0.0
1001
ACAD
1000
AcDbSavedByObjectVersion
1070
     0
  0
VISUALSTYLE
  5
36
102
{ACAD_REACTORS
330
2A
102
}
102
{ACAD_XDICTIONARY
360
255
102
}
330
2A
100
AcDbVisualStyle
  2
Brighten
 70
    12
 71
     2
 72
     2
 73
     0
 90
        0
 40
-0.6
 41
-30.0
 62
     5
 63
     7
421
 16777215
 74
     1
 91
        4
 64
     7
 65
   257
 75
     1
175
     1
 42
1.0
 92
        8
 66
     7
 43
1.0
 76
     1
 77
     6
 78
     2
 67
     7
 79
     5
170
     0
171
     0
290
     0
174
     0
 93
        1
 44
50.0
173
     0
291
     1
 45
0.0
1001
ACAD
1000
AcDbSavedByObjectVersion
1070
     0
  0
VISUALSTYLE
  5
3A
102
{ACAD_REACTORS
330
2A
102
}
102
{ACAD_XDICTIONARY
360
25D
102
}
330
2A
100
AcDbVisualStyle
  2
ColorChange
 70
    16
 71
     2
 72
     2
 73
     3
 90
        0
 40
-0.6
 41
-30.0
 62
     5
 63
     8
421
  8421504
 74
     1
 91
        4
 64
     7
 65
   257
 75
     1
175
     1
 42
1.0
 92
        8
 66
     8
424
  8421504
 43
1.0
 76
     1
 77
     6
 78
     2
 67
     7
 79
     5
170
     0
171
     0
290
     0
174
     0
 93
        1
 44
0.0
173
     0
291
     1
 45
0.0
1001
ACAD
1000
AcDbSavedByObjectVersion
1070
     0
  0
VISUALSTYLE
  5
34
102
{ACAD_REACTORS
330
2A
102
}
102
{ACAD_XDICTIONARY
360
251
102
}
330
2A
100
AcDbVisualStyle
  2
Conceptual
 70
     9
 71
     3
 72
     2
 73
     0
 90
        0
 40
-0.6
 41
-30.0
 62
     5
 63
     7
421
 16777215
 74
     2
 91
        2
 64
     7
 65
   257
 75
     1
175
     1
 42
40.0
 92
        8
 66
     7
 43
1.0
 76
     1
 77
     6
 78
     2
 67
     7
 79
     3
170
     0
171
     0
290
     0
174
     0
 93
        1
 44
0.0
173
     0
291
     0
 45
0.0
1001
ACAD
1000
AcDbSavedByObjectVersion
1070
     0
  0
VISUALSTYLE
  5
35
102
{ACAD_REACTORS
330
2A
102
}
102
{ACAD_XDICTIONARY
360
253
102
}
330
2A
100
AcDbVisualStyle
  2
Dim
 70
    11
 71
     2
 72
     2
 73
     0
 90
        0
 40
-0.6
 41
-30.0
 62
     5
 63
     7
421
 16777215
 74
     1
 91
        4
 64
     7
 65
   257
 75
     1
175
     1
 42
1.0
 92
        8
 66
     7
 43
1.0
 76
     1
 77
     6
 78
     2
 67
     7
 79
     5
170
     0
171
     0
290
     0
174
     0
 93
        1
 44
-50.0
173
     0
291
     1
 45
0.0
1001
ACAD
1000
AcDbSavedByObjectVersion
1070
     0
  0
VISUALSTYLE
  5
39
102
{ACAD_REACTORS
330
2A
102
}
102
{ACAD_XDICTIONARY
360
25B
102
}
330
2A
100
AcDbVisualStyle
  2
Facepattern
 70
    15
 71
     2
 72
     2
 73
     0
 90
        0
 40
-0.6
 41
-30.0
 62
     5
 63
     7
421
 16777215
 74
     1
 91
        4
 64
     7
 65
   257
 75
     1
175
     1
 42
1.0
 92
        8
 66
     7
 43
1.0
 76
     1
 77
     6
 78
     2
 67
     7
 79
     5
170
     0
171
     0
290
     0
174
     0
 93
        1
 44
0.0
173
     0
291
     1
 45
0.0
1001
ACAD
1000
AcDbSavedByObjectVersion
1070
     0
  0
VISUALSTYLE
  5
2B
102
{ACAD_REACTORS
330
2A
102
}
102
{ACAD_XDICTIONARY
360
23F
102
}
330
2A
100
AcDbVisualStyle
  2
Flat
 70
     0
 71
     2
 72
     1
 73
     1
 90
        2
 40
-0.6
 41
30.0
 62
     5
 63
     7
421
 16777215
 74
     0
 91
        4
 64
     7
 65
   257
 75
     1
175
     1
 42
1.0
 92
        8
 66
     7
 43
1.0
 76
     1
 77
     6
 78
     2
 67
     7
 79
     5
170
     0
171
     0
290
     0
174
     0
 93
       13
 44
0.0
173
     0
291
     1
 45
0.0
1001
ACAD
1000
AcDbSavedByObjectVersion
1070
     0
  0
VISUALSTYLE
  5
2C
102
{ACAD_REACTORS
330
2A
102
}
102
{ACAD_XDICTIONARY
360
241
102
}
330
2A
100
AcDbVisualStyle
  2
FlatWithEdges
 70
     1
 71
     2
 72
     1
 73
     1
 90
        2
 40
-0.6
 41
30.0
 62
     5
 63
     7
421
 16777215
 74
     1
 91
        4
 64
     7
 65
   257
 75
     1
175
     1
 42
1.0
 92
        0
 66
   257
 43
1.0
 76
     1
 77
     6
 78
     2
 67
     7
 79
     5
170
     0
171
     0
290
     0
174
     0
 93
       13
 44
0.0
173
     0
291
     1
 45
0.0
1001
ACAD
1000
AcDbSavedByObjectVersion
1070
     0
  0
VISUALSTYLE
  5
2D
102
{ACAD_REACTORS
330
2A
102
}
102
{ACAD_XDICTIONARY
360
243
102
}
330
2A
100
AcDbVisualStyle
  2
Gouraud
 70
     2
 71
     2
 72
     2
 73
     1
 90
        2
 40
-0.6
 41
30.0
 62
     5
 63
     7
421
 16777215
 74
     0
 91
        4
 64
     7
 65
   257
 75
     1
175
     1
 42
1.0
 92
        0
 66
     7
 43
1.0
 76
     1
 77
     6
 78
     2
 67
     7
 79
     5
170
     0
171
     0
290
     0
174
     0
 93
       13
 44
0.0
173
     0
291
     1
 45
0.0
1001
ACAD
1000
AcDbSavedByObjectVersion
1070
     0
  0
VISUALSTYLE
  5
2E
102
{ACAD_REACTORS
330
2A
102
}
102
{ACAD_XDICTIONARY
360
245
102
}
330
2A
100
AcDbVisualStyle
  2
GouraudWithEdges
 70
     3
 71
     2
 72
     2
 73
     1
 90
        2
 40
-0.6
 41
30.0
 62
     5
 63
     7
421
 16777215
 74
     1
 91
        4
 64
     7
 65
   257
 75
     1
175
     1
 42
1.0
 92
        0
 66
   257
 43
1.0
 76
     1
 77
     6
 78
     2
 67
     7
 79
     5
170
     0
171
     0
290
     0
174
     0
 93
       13
 44
0.0
173
     0
291
     1
 45
0.0
1001
ACAD
1000
AcDbSavedByObjectVersion
1070
     0
  0
VISUALSTYLE
  5
38
102
{ACAD_REACTORS
330
2A
102
}
102
{ACAD_XDICTIONARY
360
259
102
}
330
2A
100
AcDbVisualStyle
  2
Linepattern
 70
    14
 71
     2
 72
     2
 73
     0
 90
        0
 40
-0.6
 41
-30.0
 62
     5
 63
     7
421
 16777215
 74
     1
 91
        4
 64
     7
 65
   257
 75
     7
175
     7
 42
1.0
 92
        8
 66
     7
 43
1.0
 76
     1
 77
     6
 78
     2
 67
     7
 79
     5
170
     0
171
     0
290
     0
174
     0
 93
        1
 44
0.0
173
     0
291
     1
 45
0.0
1001
ACAD
1000
AcDbSavedByObjectVersion
1070
     0
  0
VISUALSTYLE
  5
33
102
{ACAD_REACTORS
330
2A
102
}
102
{ACAD_XDICTIONARY
360
24F
102
}
330
2A
100
AcDbVisualStyle
  2
Realistic
 70
     8
 71
     2
 72
     2
 73
     0
 90
        0
 40
-0.6
 41
-30.0
 62
     5
 63
     7
421
 16777215
 74
     1
 91
        0
 64
     7
 65
   257
 75
     1
175
     1
 42
1.0
 92
        8
 66
     8
424
  7895160
 43
1.0
 76
     1
 77
     6
 78
     2
 67
     7
 79
     5
170
     0
171
     0
290
     0
174
     0
 93
       13
 44
0.0
173
     0
291
     0
 45
0.0
1001
ACAD
1000
AcDbSavedByObjectVersion
1070
     0
  0
VISUALSTYLE
  5
37
102
{ACAD_REACTORS
330
2A
102
}
102
{ACAD_XDICTIONARY
360
257
102
}
330
2A
100
AcDbVisualStyle
  2
Thicken
 70
    13
 71
     2
 72
     2
 73
     0
 90
        0
 40
-0.6
 41
-30.0
 62
     5
 63
     7
421
 16777215
 74
     1
 91
        4
 64
     7
 65
   257
 75
     1
175
     1
 42
1.0
 92
       12
 66
     7
 43
1.0
 76
     1
 77
     6
 78
     2
 67
     7
 79
     5
170
     0
171
     0
290
     0
174
     0
 93
        1
 44
0.0
173
     0
291
     1
 45
0.0
1001
ACAD
1000
AcDbSavedByObjectVersion
1070
     0
  0
DICTIONARY
  5
261
330
3D
100
AcDbDictionary
280
     1
281
     1
  3
ACAD_XREC_ROUNDTRIP
360
262
  0
DICTIONARY
  5
25F
330
3C
100
AcDbDictionary
280
     1
281
     1
  3
ACAD_XREC_ROUNDTRIP
360
260
  0
DICTIONARY
  5
263
330
3E
100
AcDbDictionary
280
     1
281
     1
  3
ACAD_XREC_ROUNDTRIP
360
264
  0
DICTIONARY
  5
247
330
2F
100
AcDbDictionary
280
     1
281
     1
  3
ACAD_XREC_ROUNDTRIP
360
248
  0
DICTIONARY
  5
24B
330
31
100
AcDbDictionary
280
     1
281
     1
  3
ACAD_XREC_ROUNDTRIP
360
24C
  0
DICTIONARY
  5
249
330
30
100
AcDbDictionary
280
     1
281
     1
  3
ACAD_XREC_ROUNDTRIP
360
24A
  0
DICTIONARY
  5
24D
330
32
100
AcDbDictionary
280
     1
281
     1
  3
ACAD_XREC_ROUNDTRIP
360
24E
  0
DICTIONARY
  5
255
330
36
100
AcDbDictionary
280
     1
281
     1
  3
ACAD_XREC_ROUNDTRIP
360
256
  0
DICTIONARY
  5
25D
330
3A
100
AcDbDictionary
280
     1
281
     1
  3
ACAD_XREC_ROUNDTRIP
360
25E
  0
DICTIONARY
  5
251
330
34
100
AcDbDictionary
280
     1
281
     1
  3
ACAD_XREC_ROUNDTRIP
360
252
  0
DICTIONARY
  5
253
330
35
100
AcDbDictionary
280
     1
281
     1
  3
ACAD_XREC_ROUNDTRIP
360
254
  0
DICTIONARY
  5
25B
330
39
100
AcDbDictionary
280
     1
281
     1
  3
ACAD_XREC_ROUNDTRIP
360
25C
  0
DICTIONARY
  5
23F
330
2B
100
AcDbDictionary
280
     1
281
     1
  3
ACAD_XREC_ROUNDTRIP
360
240
  0
DICTIONARY
  5
241
330
2C
100
AcDbDictionary
280
     1
281
     1
  3
ACAD_XREC_ROUNDTRIP
360
242
  0
DICTIONARY
  5
243
330
2D
100
AcDbDictionary
280
     1
281
     1
  3
ACAD_XREC_ROUNDTRIP
360
244
  0
DICTIONARY
  5
245
330
2E
100
AcDbDictionary
280
     1
281
     1
  3
ACAD_XREC_ROUNDTRIP
360
246
  0
DICTIONARY
  5
259
330
38
100
AcDbDictionary
280
     1
281
     1
  3
ACAD_XREC_ROUNDTRIP
360
25A
  0
DICTIONARY
  5
24F
330
33
100
AcDbDictionary
280
     1
281
     1
  3
ACAD_XREC_ROUNDTRIP
360
250
  0
DICTIONARY
  5
257
330
37
100
AcDbDictionary
280
     1
281
     1
  3
ACAD_XREC_ROUNDTRIP
360
258
  0
XRECORD
  5
262
102
{ACAD_REACTORS
330
261
102
}
330
261
100
AcDbXrecord
280
     1
102
MATERIAL
148
0.0
149
0.0
149
0.0
 93
        0
 94
      127
282
     0
 72
     1
 77
     1
171
     1
175
     1
179
     1
273
     0
  0
XRECORD
  5
260
102
{ACAD_REACTORS
330
25F
102
}
330
25F
100
AcDbXrecord
280
     1
102
MATERIAL
148
0.0
149
0.0
149
0.0
 93
        0
 94
      127
282
     0
 72
     1
 77
     1
171
     1
175
     1
179
     1
273
     0
  0
XRECORD
  5
264
102
{ACAD_REACTORS
330
263
102
}
330
263
100
AcDbXrecord
280
     1
102
MATERIAL
148
0.0
149
0.0
149
0.0
 93
        0
 94
      127
282
     0
 72
     1
 77
     1
171
     1
175
     1
179
     1
273
     0
  0
XRECORD
  5
248
102
{ACAD_REACTORS
330
247
102
}
330
247
100
AcDbXrecord
280
     1
102
RTVSPropertyOp0
 70
     1
102
RTVSPropertyOp1
 70
     1
102
RTVSPropertyOp2
 70
     1
102
RTVSPropertyOp3
 70
     1
102
RTVSPropertyOp4
 70
     1
102
RTVSPropertyOp5
 70
     1
102
RTVSPropertyOp6
 70
     1
102
RTVSPropertyOp7
 70
     1
102
RTVSPropertyOp8
 70
     1
102
RTVSPropertyOp9
 70
     1
102
RTVSPropertyOp10
 70
     1
102
RTVSPropertyOp11
 70
     1
102
RTVSPropertyOp12
 70
     1
102
RTVSPropertyOp13
 70
     1
102
RTVSPropertyOp14
 70
     1
102
RTVSPropertyOp15
 70
     1
102
RTVSPropertyOp16
 70
     1
102
RTVSPropertyOp17
 70
     1
102
RTVSPropertyOp18
 70
     1
102
RTVSPropertyOp19
 70
     1
102
RTVSPropertyOp20
 70
     1
102
RTVSPropertyOp21
 70
     1
102
RTVSPropertyOp22
 70
     1
102
RTVSPropertyOp23
 70
     1
102
RTVSPropertyOp24
 70
     1
102
RTVSPropertyOp25
 70
     1
102
RTVSPropertyOp26
 70
     1
102
RTVSPropertyOp27
 70
     1
102
RTVSPropertyOp28
 70
     1
102
RTVSPropertyOp29
 70
     1
102
RTVSPropertyOp30
 70
     1
102
RTVSPropertyOp31
 70
     1
102
RTVSPropertyOp32
 70
     1
  0
XRECORD
  5
24C
102
{ACAD_REACTORS
330
24B
102
}
330
24B
100
AcDbXrecord
280
     1
102
RTVSPropertyOp0
 70
     1
102
RTVSPropertyOp1
 70
     1
102
RTVSPropertyOp2
 70
     1
102
RTVSPropertyOp3
 70
     1
102
RTVSPropertyOp4
 70
     1
102
RTVSPropertyOp5
 70
     1
102
RTVSPropertyOp6
 70
     1
102
RTVSPropertyOp7
 70
     1
102
RTVSPropertyOp8
 70
     1
102
RTVSPropertyOp9
 70
     1
102
RTVSPropertyOp10
 70
     1
102
RTVSPropertyOp11
 70
     1
102
RTVSPropertyOp12
 70
     1
102
RTVSPropertyOp13
 70
     1
102
RTVSPropertyOp14
 70
     1
102
RTVSPropertyOp15
 70
     1
102
RTVSPropertyOp16
 70
     1
102
RTVSPropertyOp17
 70
     1
102
RTVSPropertyOp18
 70
     1
102
RTVSPropertyOp19
 70
     1
102
RTVSPropertyOp20
 70
     1
102
RTVSPropertyOp21
 70
     1
102
RTVSPropertyOp22
 70
     1
102
RTVSPropertyOp23
 70
     1
102
RTVSPropertyOp24
 70
     1
102
RTVSPropertyOp25
 70
     1
102
RTVSPropertyOp26
 70
     1
102
RTVSPropertyOp27
 70
     1
102
RTVSPropertyOp28
 70
     1
102
RTVSPropertyOp29
 70
     1
102
RTVSPropertyOp30
 70
     1
102
RTVSPropertyOp31
 70
     1
102
RTVSPropertyOp32
 70
     1
  0
XRECORD
  5
24A
102
{ACAD_REACTORS
330
249
102
}
330
249
100
AcDbXrecord
280
     1
102
RTVSPropertyOp0
 70
     1
102
RTVSPropertyOp1
 70
     1
102
RTVSPropertyOp2
 70
     1
102
RTVSPropertyOp3
 70
     1
102
RTVSPropertyOp4
 70
     1
102
RTVSPropertyOp5
 70
     1
102
RTVSPropertyOp6
 70
     1
102
RTVSPropertyOp7
 70
     1
102
RTVSPropertyOp8
 70
     1
102
RTVSPropertyOp9
 70
     1
102
RTVSPropertyOp10
 70
     1
102
RTVSPropertyOp11
 70
     1
102
RTVSPropertyOp12
 70
     1
102
RTVSPropertyOp13
 70
     1
102
RTVSPropertyOp14
 70
     1
102
RTVSPropertyOp15
 70
     1
102
RTVSPropertyOp16
 70
     1
102
RTVSPropertyOp17
 70
     1
102
RTVSPropertyOp18
 70
     1
102
RTVSPropertyOp19
 70
     1
102
RTVSPropertyOp20
 70
     1
102
RTVSPropertyOp21
 70
     1
102
RTVSPropertyOp22
 70
     1
102
RTVSPropertyOp23
 70
     1
102
RTVSPropertyOp24
 70
     1
102
RTVSPropertyOp25
 70
     1
102
RTVSPropertyOp26
 70
     1
102
RTVSPropertyOp27
 70
     1
102
RTVSPropertyOp28
 70
     1
102
RTVSPropertyOp29
 70
     1
102
RTVSPropertyOp30
 70
     1
102
RTVSPropertyOp31
 70
     1
102
RTVSPropertyOp32
 70
     1
  0
XRECORD
  5
24E
102
{ACAD_REACTORS
330
24D
102
}
330
24D
100
AcDbXrecord
280
     1
102
RTVSPropertyOp0
 70
     1
102
RTVSPropertyOp1
 70
     1
102
RTVSPropertyOp2
 70
     1
102
RTVSPropertyOp3
 70
     1
102
RTVSPropertyOp4
 70
     1
102
RTVSPropertyOp5
 70
     1
102
RTVSPropertyOp6
 70
     1
102
RTVSPropertyOp7
 70
     1
102
RTVSPropertyOp8
 70
     1
102
RTVSPropertyOp9
 70
     1
102
RTVSPropertyOp10
 70
     1
102
RTVSPropertyOp11
 70
     1
102
RTVSPropertyOp12
 70
     1
102
RTVSPropertyOp13
 70
     1
102
RTVSPropertyOp14
 70
     1
102
RTVSPropertyOp15
 70
     1
102
RTVSPropertyOp16
 70
     1
102
RTVSPropertyOp17
 70
     1
102
RTVSPropertyOp18
 70
     1
102
RTVSPropertyOp19
 70
     1
102
RTVSPropertyOp20
 70
     1
102
RTVSPropertyOp21
 70
     1
102
RTVSPropertyOp22
 70
     1
102
RTVSPropertyOp23
 70
     1
102
RTVSPropertyOp24
 70
     1
102
RTVSPropertyOp25
 70
     1
102
RTVSPropertyOp26
 70
     1
102
RTVSPropertyOp27
 70
     1
102
RTVSPropertyOp28
 70
     1
102
RTVSPropertyOp29
 70
     1
102
RTVSPropertyOp30
 70
     1
102
RTVSPropertyOp31
 70
     1
102
RTVSPropertyOp32
 70
     1
  0
XRECORD
  5
256
102
{ACAD_REACTORS
330
255
102
}
330
255
100
AcDbXrecord
280
     1
102
RTVSPropertyOp0
 70
     1
102
RTVSPropertyOp1
 70
     1
102
RTVSPropertyOp2
 70
     1
102
RTVSPropertyOp3
 70
     1
102
RTVSPropertyOp4
 70
     1
102
RTVSPropertyOp5
 70
     1
102
RTVSPropertyOp6
 70
     1
102
RTVSPropertyOp7
 70
     1
102
RTVSPropertyOp8
 70
     1
102
RTVSPropertyOp9
 70
     1
102
RTVSPropertyOp10
 70
     1
102
RTVSPropertyOp11
 70
     1
102
RTVSPropertyOp12
 70
     1
102
RTVSPropertyOp13
 70
     1
102
RTVSPropertyOp14
 70
     1
102
RTVSPropertyOp15
 70
     1
102
RTVSPropertyOp16
 70
     1
102
RTVSPropertyOp17
 70
     1
102
RTVSPropertyOp18
 70
     1
102
RTVSPropertyOp19
 70
     1
102
RTVSPropertyOp20
 70
     1
102
RTVSPropertyOp21
 70
     1
102
RTVSPropertyOp22
 70
     1
102
RTVSPropertyOp23
 70
     1
102
RTVSPropertyOp24
 70
     1
102
RTVSPropertyOp25
 70
     1
102
RTVSPropertyOp26
 70
     1
102
RTVSPropertyOp27
 70
     1
102
RTVSPropertyOp28
 70
     1
102
RTVSPropertyOp29
 70
     1
102
RTVSPropertyOp30
 70
     1
102
RTVSPropertyOp31
 70
     1
102
RTVSPropertyOp32
 70
     1
  0
XRECORD
  5
25E
102
{ACAD_REACTORS
330
25D
102
}
330
25D
100
AcDbXrecord
280
     1
102
RTVSPropertyOp0
 70
     1
102
RTVSPropertyOp1
 70
     1
102
RTVSPropertyOp2
 70
     1
102
RTVSPropertyOp3
 70
     1
102
RTVSPropertyOp4
 70
     1
102
RTVSPropertyOp5
 70
     1
102
RTVSPropertyOp6
 70
     1
102
RTVSPropertyOp7
 70
     1
102
RTVSPropertyOp8
 70
     1
102
RTVSPropertyOp9
 70
     1
102
RTVSPropertyOp10
 70
     1
102
RTVSPropertyOp11
 70
     1
102
RTVSPropertyOp12
 70
     1
102
RTVSPropertyOp13
 70
     1
102
RTVSPropertyOp14
 70
     1
102
RTVSPropertyOp15
 70
     1
102
RTVSPropertyOp16
 70
     1
102
RTVSPropertyOp17
 70
     1
102
RTVSPropertyOp18
 70
     1
102
RTVSPropertyOp19
 70
     1
102
RTVSPropertyOp20
 70
     1
102
RTVSPropertyOp21
 70
     1
102
RTVSPropertyOp22
 70
     1
102
RTVSPropertyOp23
 70
     1
102
RTVSPropertyOp24
 70
     1
102
RTVSPropertyOp25
 70
     1
102
RTVSPropertyOp26
 70
     1
102
RTVSPropertyOp27
 70
     1
102
RTVSPropertyOp28
 70
     1
102
RTVSPropertyOp29
 70
     1
102
RTVSPropertyOp30
 70
     1
102
RTVSPropertyOp31
 70
     1
102
RTVSPropertyOp32
 70
     1
  0
XRECORD
  5
252
102
{ACAD_REACTORS
330
251
102
}
330
251
100
AcDbXrecord
280
     1
102
RTVSPropertyOp0
 70
     1
102
RTVSPropertyOp1
 70
     1
102
RTVSPropertyOp2
 70
     1
102
RTVSPropertyOp3
 70
     1
102
RTVSPropertyOp4
 70
     1
102
RTVSPropertyOp5
 70
     1
102
RTVSPropertyOp6
 70
     1
102
RTVSPropertyOp7
 70
     1
102
RTVSPropertyOp8
 70
     1
102
RTVSPropertyOp9
 70
     1
102
RTVSPropertyOp10
 70
     1
102
RTVSPropertyOp11
 70
     1
102
RTVSPropertyOp12
 70
     1
102
RTVSPropertyOp13
 70
     1
102
RTVSPropertyOp14
 70
     1
102
RTVSPropertyOp15
 70
     1
102
RTVSPropertyOp16
 70
     1
102
RTVSPropertyOp17
 70
     1
102
RTVSPropertyOp18
 70
     1
102
RTVSPropertyOp19
 70
     1
102
RTVSPropertyOp20
 70
     1
102
RTVSPropertyOp21
 70
     1
102
RTVSPropertyOp22
 70
     1
102
RTVSPropertyOp23
 70
     1
102
RTVSPropertyOp24
 70
     1
102
RTVSPropertyOp25
 70
     1
102
RTVSPropertyOp26
 70
     1
102
RTVSPropertyOp27
 70
     1
102
RTVSPropertyOp28
 70
     1
102
RTVSPropertyOp29
 70
     1
102
RTVSPropertyOp30
 70
     1
102
RTVSPropertyOp31
 70
     1
102
RTVSPropertyOp32
 70
     1
  0
XRECORD
  5
254
102
{ACAD_REACTORS
330
253
102
}
330
253
100
AcDbXrecord
280
     1
102
RTVSPropertyOp0
 70
     1
102
RTVSPropertyOp1
 70
     1
102
RTVSPropertyOp2
 70
     1
102
RTVSPropertyOp3
 70
     1
102
RTVSPropertyOp4
 70
     1
102
RTVSPropertyOp5
 70
     1
102
RTVSPropertyOp6
 70
     1
102
RTVSPropertyOp7
 70
     1
102
RTVSPropertyOp8
 70
     1
102
RTVSPropertyOp9
 70
     1
102
RTVSPropertyOp10
 70
     1
102
RTVSPropertyOp11
 70
     1
102
RTVSPropertyOp12
 70
     1
102
RTVSPropertyOp13
 70
     1
102
RTVSPropertyOp14
 70
     1
102
RTVSPropertyOp15
 70
     1
102
RTVSPropertyOp16
 70
     1
102
RTVSPropertyOp17
 70
     1
102
RTVSPropertyOp18
 70
     1
102
RTVSPropertyOp19
 70
     1
102
RTVSPropertyOp20
 70
     1
102
RTVSPropertyOp21
 70
     1
102
RTVSPropertyOp22
 70
     1
102
RTVSPropertyOp23
 70
     1
102
RTVSPropertyOp24
 70
     1
102
RTVSPropertyOp25
 70
     1
102
RTVSPropertyOp26
 70
     1
102
RTVSPropertyOp27
 70
     1
102
RTVSPropertyOp28
 70
     1
102
RTVSPropertyOp29
 70
     1
102
RTVSPropertyOp30
 70
     1
102
RTVSPropertyOp31
 70
     1
102
RTVSPropertyOp32
 70
     1
  0
XRECORD
  5
25C
102
{ACAD_REACTORS
330
25B
102
}
330
25B
100
AcDbXrecord
280
     1
102
RTVSPropertyOp0
 70
     1
102
RTVSPropertyOp1
 70
     1
102
RTVSPropertyOp2
 70
     1
102
RTVSPropertyOp3
 70
     1
102
RTVSPropertyOp4
 70
     1
102
RTVSPropertyOp5
 70
     1
102
RTVSPropertyOp6
 70
     1
102
RTVSPropertyOp7
 70
     1
102
RTVSPropertyOp8
 70
     1
102
RTVSPropertyOp9
 70
     1
102
RTVSPropertyOp10
 70
     1
102
RTVSPropertyOp11
 70
     1
102
RTVSPropertyOp12
 70
     1
102
RTVSPropertyOp13
 70
     1
102
RTVSPropertyOp14
 70
     1
102
RTVSPropertyOp15
 70
     1
102
RTVSPropertyOp16
 70
     1
102
RTVSPropertyOp17
 70
     1
102
RTVSPropertyOp18
 70
     1
102
RTVSPropertyOp19
 70
     1
102
RTVSPropertyOp20
 70
     1
102
RTVSPropertyOp21
 70
     1
102
RTVSPropertyOp22
 70
     1
102
RTVSPropertyOp23
 70
     1
102
RTVSPropertyOp24
 70
     1
102
RTVSPropertyOp25
 70
     1
102
RTVSPropertyOp26
 70
     1
102
RTVSPropertyOp27
 70
     1
102
RTVSPropertyOp28
 70
     1
102
RTVSPropertyOp29
 70
     1
102
RTVSPropertyOp30
 70
     1
102
RTVSPropertyOp31
 70
     1
102
RTVSPropertyOp32
 70
     1
  0
XRECORD
  5
240
102
{ACAD_REACTORS
330
23F
102
}
330
23F
100
AcDbXrecord
280
     1
102
RTVSPropertyOp0
 70
     1
102
RTVSPropertyOp1
 70
     1
102
RTVSPropertyOp2
 70
     1
102
RTVSPropertyOp3
 70
     1
102
RTVSPropertyOp4
 70
     1
102
RTVSPropertyOp5
 70
     1
102
RTVSPropertyOp6
 70
     1
102
RTVSPropertyOp7
 70
     1
102
RTVSPropertyOp8
 70
     1
102
RTVSPropertyOp9
 70
     1
102
RTVSPropertyOp10
 70
     1
102
RTVSPropertyOp11
 70
     1
102
RTVSPropertyOp12
 70
     1
102
RTVSPropertyOp13
 70
     1
102
RTVSPropertyOp14
 70
     1
102
RTVSPropertyOp15
 70
     1
102
RTVSPropertyOp16
 70
     1
102
RTVSPropertyOp17
 70
     1
102
RTVSPropertyOp18
 70
     1
102
RTVSPropertyOp19
 70
     1
102
RTVSPropertyOp20
 70
     1
102
RTVSPropertyOp21
 70
     1
102
RTVSPropertyOp22
 70
     1
102
RTVSPropertyOp23
 70
     1
102
RTVSPropertyOp24
 70
     1
102
RTVSPropertyOp25
 70
     1
102
RTVSPropertyOp26
 70
     1
102
RTVSPropertyOp27
 70
     1
102
RTVSPropertyOp28
 70
     1
102
RTVSPropertyOp29
 70
     1
102
RTVSPropertyOp30
 70
     1
102
RTVSPropertyOp31
 70
     1
102
RTVSPropertyOp32
 70
     1
  0
XRECORD
  5
242
102
{ACAD_REACTORS
330
241
102
}
330
241
100
AcDbXrecord
280
     1
102
RTVSPropertyOp0
 70
     1
102
RTVSPropertyOp1
 70
     1
102
RTVSPropertyOp2
 70
     1
102
RTVSPropertyOp3
 70
     1
102
RTVSPropertyOp4
 70
     1
102
RTVSPropertyOp5
 70
     1
102
RTVSPropertyOp6
 70
     1
102
RTVSPropertyOp7
 70
     1
102
RTVSPropertyOp8
 70
     1
102
RTVSPropertyOp9
 70
     1
102
RTVSPropertyOp10
 70
     1
102
RTVSPropertyOp11
 70
     1
102
RTVSPropertyOp12
 70
     1
102
RTVSPropertyOp13
 70
     1
102
RTVSPropertyOp14
 70
     1
102
RTVSPropertyOp15
 70
     1
102
RTVSPropertyOp16
 70
     1
102
RTVSPropertyOp17
 70
     1
102
RTVSPropertyOp18
 70
     1
102
RTVSPropertyOp19
 70
     1
102
RTVSPropertyOp20
 70
     1
102
RTVSPropertyOp21
 70
     1
102
RTVSPropertyOp22
 70
     1
102
RTVSPropertyOp23
 70
     1
102
RTVSPropertyOp24
 70
     1
102
RTVSPropertyOp25
 70
     1
102
RTVSPropertyOp26
 70
     1
102
RTVSPropertyOp27
 70
     1
102
RTVSPropertyOp28
 70
     1
102
RTVSPropertyOp29
 70
     1
102
RTVSPropertyOp30
 70
     1
102
RTVSPropertyOp31
 70
     1
102
RTVSPropertyOp32
 70
     1
  0
XRECORD
  5
244
102
{ACAD_REACTORS
330
243
102
}
330
243
100
AcDbXrecord
280
     1
102
RTVSPropertyOp0
 70
     1
102
RTVSPropertyOp1
 70
     1
102
RTVSPropertyOp2
 70
     1
102
RTVSPropertyOp3
 70
     1
102
RTVSPropertyOp4
 70
     1
102
RTVSPropertyOp5
 70
     1
102
RTVSPropertyOp6
 70
     1
102
RTVSPropertyOp7
 70
     1
102
RTVSPropertyOp8
 70
     1
102
RTVSPropertyOp9
 70
     1
102
RTVSPropertyOp10
 70
     1
102
RTVSPropertyOp11
 70
     1
102
RTVSPropertyOp12
 70
     1
102
RTVSPropertyOp13
 70
     1
102
RTVSPropertyOp14
 70
     1
102
RTVSPropertyOp15
 70
     1
102
RTVSPropertyOp16
 70
     1
102
RTVSPropertyOp17
 70
     1
102
RTVSPropertyOp18
 70
     1
102
RTVSPropertyOp19
 70
     1
102
RTVSPropertyOp20
 70
     1
102
RTVSPropertyOp21
 70
     1
102
RTVSPropertyOp22
 70
     1
102
RTVSPropertyOp23
 70
     1
102
RTVSPropertyOp24
 70
     1
102
RTVSPropertyOp25
 70
     1
102
RTVSPropertyOp26
 70
     1
102
RTVSPropertyOp27
 70
     1
102
RTVSPropertyOp28
 70
     1
102
RTVSPropertyOp29
 70
     1
102
RTVSPropertyOp30
 70
     1
102
RTVSPropertyOp31
 70
     1
102
RTVSPropertyOp32
 70
     1
  0
XRECORD
  5
246
102
{ACAD_REACTORS
330
245
102
}
330
245
100
AcDbXrecord
280
     1
102
RTVSPropertyOp0
 70
     1
102
RTVSPropertyOp1
 70
     1
102
RTVSPropertyOp2
 70
     1
102
RTVSPropertyOp3
 70
     1
102
RTVSPropertyOp4
 70
     1
102
RTVSPropertyOp5
 70
     1
102
RTVSPropertyOp6
 70
     1
102
RTVSPropertyOp7
 70
     1
102
RTVSPropertyOp8
 70
     1
102
RTVSPropertyOp9
 70
     1
102
RTVSPropertyOp10
 70
     1
102
RTVSPropertyOp11
 70
     1
102
RTVSPropertyOp12
 70
     1
102
RTVSPropertyOp13
 70
     1
102
RTVSPropertyOp14
 70
     1
102
RTVSPropertyOp15
 70
     1
102
RTVSPropertyOp16
 70
     1
102
RTVSPropertyOp17
 70
     1
102
RTVSPropertyOp18
 70
     1
102
RTVSPropertyOp19
 70
     1
102
RTVSPropertyOp20
 70
     1
102
RTVSPropertyOp21
 70
     1
102
RTVSPropertyOp22
 70
     1
102
RTVSPropertyOp23
 70
     1
102
RTVSPropertyOp24
 70
     1
102
RTVSPropertyOp25
 70
     1
102
RTVSPropertyOp26
 70
     1
102
RTVSPropertyOp27
 70
     1
102
RTVSPropertyOp28
 70
     1
102
RTVSPropertyOp29
 70
     1
102
RTVSPropertyOp30
 70
     1
102
RTVSPropertyOp31
 70
     1
102
RTVSPropertyOp32
 70
     1
  0
XRECORD
  5
25A
102
{ACAD_REACTORS
330
259
102
}
330
259
100
AcDbXrecord
280
     1
102
RTVSPropertyOp0
 70
     1
102
RTVSPropertyOp1
 70
     1
102
RTVSPropertyOp2
 70
     1
102
RTVSPropertyOp3
 70
     1
102
RTVSPropertyOp4
 70
     1
102
RTVSPropertyOp5
 70
     1
102
RTVSPropertyOp6
 70
     1
102
RTVSPropertyOp7
 70
     1
102
RTVSPropertyOp8
 70
     1
102
RTVSPropertyOp9
 70
     1
102
RTVSPropertyOp10
 70
     1
102
RTVSPropertyOp11
 70
     1
102
RTVSPropertyOp12
 70
     1
102
RTVSPropertyOp13
 70
     1
102
RTVSPropertyOp14
 70
     1
102
RTVSPropertyOp15
 70
     1
102
RTVSPropertyOp16
 70
     1
102
RTVSPropertyOp17
 70
     1
102
RTVSPropertyOp18
 70
     1
102
RTVSPropertyOp19
 70
     1
102
RTVSPropertyOp20
 70
     1
102
RTVSPropertyOp21
 70
     1
102
RTVSPropertyOp22
 70
     1
102
RTVSPropertyOp23
 70
     1
102
RTVSPropertyOp24
 70
     1
102
RTVSPropertyOp25
 70
     1
102
RTVSPropertyOp26
 70
     1
102
RTVSPropertyOp27
 70
     1
102
RTVSPropertyOp28
 70
     1
102
RTVSPropertyOp29
 70
     1
102
RTVSPropertyOp30
 70
     1
102
RTVSPropertyOp31
 70
     1
102
RTVSPropertyOp32
 70
     1
  0
XRECORD
  5
250
102
{ACAD_REACTORS
330
24F
102
}
330
24F
100
AcDbXrecord
280
     1
102
RTVSPropertyOp0
 70
     1
102
RTVSPropertyOp1
 70
     1
102
RTVSPropertyOp2
 70
     1
102
RTVSPropertyOp3
 70
     1
102
RTVSPropertyOp4
 70
     1
102
RTVSPropertyOp5
 70
     1
102
RTVSPropertyOp6
 70
     1
102
RTVSPropertyOp7
 70
     1
102
RTVSPropertyOp8
 70
     1
102
RTVSPropertyOp9
 70
     1
102
RTVSPropertyOp10
 70
     1
102
RTVSPropertyOp11
 70
     1
102
RTVSPropertyOp12
 70
     1
102
RTVSPropertyOp13
 70
     1
102
RTVSPropertyOp14
 70
     1
102
RTVSPropertyOp15
 70
     1
102
RTVSPropertyOp16
 70
     1
102
RTVSPropertyOp17
 70
     1
102
RTVSPropertyOp18
 70
     1
102
RTVSPropertyOp19
 70
     1
102
RTVSPropertyOp20
 70
     1
102
RTVSPropertyOp21
 70
     1
102
RTVSPropertyOp22
 70
     1
102
RTVSPropertyOp23
 70
     1
102
RTVSPropertyOp24
 70
     1
102
RTVSPropertyOp25
 70
     1
102
RTVSPropertyOp26
 70
     1
102
RTVSPropertyOp27
 70
     1
102
RTVSPropertyOp28
 70
     1
102
RTVSPropertyOp29
 70
     1
102
RTVSPropertyOp30
 70
     1
102
RTVSPropertyOp31
 70
     1
102
RTVSPropertyOp32
 70
     1
  0
XRECORD
  5
258
102
{ACAD_REACTORS
330
257
102
}
330
257
100
AcDbXrecord
280
     1
102
RTVSPropertyOp0
 70
     1
102
RTVSPropertyOp1
 70
     1
102
RTVSPropertyOp2
 70
     1
102
RTVSPropertyOp3
 70
     1
102
RTVSPropertyOp4
 70
     1
102
RTVSPropertyOp5
 70
     1
102
RTVSPropertyOp6
 70
     1
102
RTVSPropertyOp7
 70
     1
102
RTVSPropertyOp8
 70
     1
102
RTVSPropertyOp9
 70
     1
102
RTVSPropertyOp10
 70
     1
102
RTVSPropertyOp11
 70
     1
102
RTVSPropertyOp12
 70
     1
102
RTVSPropertyOp13
 70
     1
102
RTVSPropertyOp14
 70
     1
102
RTVSPropertyOp15
 70
     1
102
RTVSPropertyOp16
 70
     1
102
RTVSPropertyOp17
 70
     1
102
RTVSPropertyOp18
 70
     1
102
RTVSPropertyOp19
 70
     1
102
RTVSPropertyOp20
 70
     1
102
RTVSPropertyOp21
 70
     1
102
RTVSPropertyOp22
 70
     1
102
RTVSPropertyOp23
 70
     1
102
RTVSPropertyOp24
 70
     1
102
RTVSPropertyOp25
 70
     1
102
RTVSPropertyOp26
 70
     1
102
RTVSPropertyOp27
 70
     1
102
RTVSPropertyOp28
 70
     1
102
RTVSPropertyOp29
 70
     1
102
RTVSPropertyOp30
 70
     1
102
RTVSPropertyOp31
 70
     1
102
RTVSPropertyOp32
 70
     1
  0
ENDSEC
  0
EOF
