  0
SECTION
  2
HEADER
  9
$ACADVER
  1
AC1018
  9
$ACADMAINTVER
 70
     0
  9
$DWGCODEPAGE
  3
ANSI_1252
  9
$INSBASE
 10
0.0
 20
0.0
 30
0.0
  9
$EXTMIN
 10
-427.8072862017771
 20
-262.4212475468211
 30
0.0
  9
$EXTMAX
 10
-130.807286201779
 20
-52.42124754682098
 30
0.0
  9
$LIMMIN
 10
0.0
 20
0.0
  9
$LIMMAX
 10
12.0
 20
9.0
  9
$ORTHOMODE
 70
     0
  9
$REGENMODE
 70
     1
  9
$FILLMODE
 70
     1
  9
$QTEXTMODE
 70
     0
  9
$MIRRTEXT
 70
     1
  9
$LTSCALE
 40
1.0
  9
$ATTMODE
 70
     1
  9
$TEXTSIZE
 40
0.2
  9
$TRACEWID
 40
0.05
  9
$TEXTSTYLE
  7
Standard
  9
$CLAYER
  8
0
  9
$CELTYPE
  6
ByLayer
  9
$CECOLOR
 62
   256
  9
$CELTSCALE
 40
1.0
  9
$DISPSILH
 70
     0
  9
$DIMSCALE
 40
1.0
  9
$DIMASZ
 40
0.18
  9
$DIMEXO
 40
0.0625
  9
$DIMDLI
 40
0.38
  9
$DIMRND
 40
0.0
  9
$DIMDLE
 40
0.0
  9
$DIMEXE
 40
0.18
  9
$DIMTP
 40
0.0
  9
$DIMTM
 40
0.0
  9
$DIMTXT
 40
0.18
  9
$DIMCEN
 40
0.09
  9
$DIMTSZ
 40
0.0
  9
$DIMTOL
 70
     0
  9
$DIMLIM
 70
     0
  9
$DIMTIH
 70
     1
  9
$DIMTOH
 70
     1
  9
$DIMSE1
 70
     0
  9
$DIMSE2
 70
     0
  9
$DIMTAD
 70
     0
  9
$DIMZIN
 70
     0
  9
$DIMBLK
  1

  9
$DIMASO
 70
     1
  9
$DIMSHO
 70
     1
  9
$DIMPOST
  1

  9
$DIMAPOST
  1

  9
$DIMALT
 70
     0
  9
$DIMALTD
 70
     2
  9
$DIMALTF
 40
25.4
  9
$DIMLFAC
 40
1.0
  9
$DIMTOFL
 70
     0
  9
$DIMTVP
 40
0.0
  9
$DIMTIX
 70
     0
  9
$DIMSOXD
 70
     0
  9
$DIMSAH
 70
     0
  9
$DIMBLK1
  1

  9
$DIMBLK2
  1

  9
$DIMSTYLE
  2
Standard
  9
$DIMCLRD
 70
     0
  9
$DIMCLRE
 70
     0
  9
$DIMCLRT
 70
     0
  9
$DIMTFAC
 40
1.0
  9
$DIMGAP
 40
0.09
  9
$DIMJUST
 70
     0
  9
$DIMSD1
 70
     0
  9
$DIMSD2
 70
     0
  9
$DIMTOLJ
 70
     1
  9
$DIMTZIN
 70
     0
  9
$DIMALTZ
 70
     0
  9
$DIMALTTZ
 70
     0
  9
$DIMUPT
 70
     0
  9
$DIMDEC
 70
     4
  9
$DIMTDEC
 70
     4
  9
$DIMALTU
 70
     2
  9
$DIMALTTD
 70
     2
  9
$DIMTXSTY
  7
Standard
  9
$DIMAUNIT
 70
     0
  9
$DIMADEC
 70
     0
  9
$DIMALTRND
 40
0.0
  9
$DIMAZIN
 70
     0
  9
$DIMDSEP
 70
    46
  9
$DIMATFIT
 70
     3
  9
$DIMFRAC
 70
     0
  9
$DIMLDRBLK
  1

  9
$DIMLUNIT
 70
     2
  9
$DIMLWD
 70
    -2
  9
$DIMLWE
 70
    -2
  9
$DIMTMOVE
 70
     0
  9
$LUNITS
 70
     2
  9
$LUPREC
 70
     4
  9
$SKETCHINC
 40
0.1
  9
$FILLETRAD
 40
0.5
  9
$AUNITS
 70
     0
  9
$AUPREC
 70
     0
  9
$MENU
  1
.
  9
$ELEVATION
 40
0.0
  9
$PELEVATION
 40
0.0
  9
$THICKNESS
 40
0.0
  9
$LIMCHECK
 70
     0
  9
$CHAMFERA
 40
0.5
  9
$CHAMFERB
 40
0.5
  9
$CHAMFERC
 40
1.0
  9
$CHAMFERD
 40
0.0
  9
$SKPOLY
 70
     0
  9
$TDCREATE
 40
2458213.37082478
  9
$TDUCREATE
 40
2458213.287491447
  9
$TDUPDATE
 40
2458213.370825324
  9
$TDUUPDATE
 40
2458213.287491991
  9
$TDINDWG
 40
0.0000000116
  9
$TDUSRTIMER
 40
0.0000000116
  9
$USRTIMER
 70
     1
  9
$ANGBASE
 50
0.0
  9
$ANGDIR
 70
     0
  9
$PDMODE
 70
     0
  9
$PDSIZE
 40
0.0
  9
$PLINEWID
 40
0.0
  9
$SPLFRAME
 70
     0
  9
$SPLINETYPE
 70
     6
  9
$SPLINESEGS
 70
     8
  9
$HANDSEED
  5
261
  9
$SURFTAB1
 70
     6
  9
$SURFTAB2
 70
     6
  9
$SURFTYPE
 70
     6
  9
$SURFU
 70
     6
  9
$SURFV
 70
     6
  9
$UCSBASE
  2

  9
$UCSNAME
  2

  9
$UCSORG
 10
0.0
 20
0.0
 30
0.0
  9
$UCSXDIR
 10
1.0
 20
0.0
 30
0.0
  9
$UCSYDIR
 10
0.0
 20
1.0
 30
0.0
  9
$UCSORTHOREF
  2

  9
$UCSORTHOVIEW
 70
     0
  9
$UCSORGTOP
 10
0.0
 20
0.0
 30
0.0
  9
$UCSORGBOTTOM
 10
0.0
 20
0.0
 30
0.0
  9
$UCSORGLEFT
 10
0.0
 20
0.0
 30
0.0
  9
$UCSORGRIGHT
 10
0.0
 20
0.0
 30
0.0
  9
$UCSORGFRONT
 10
0.0
 20
0.0
 30
0.0
  9
$UCSORGBACK
 10
0.0
 20
0.0
 30
0.0
  9
$PUCSBASE
  2

  9
$PUCSNAME
  2

  9
$PUCSORG
 10
0.0
 20
0.0
 30
0.0
  9
$PUCSXDIR
 10
1.0
 20
0.0
 30
0.0
  9
$PUCSYDIR
 10
0.0
 20
1.0
 30
0.0
  9
$PUCSORTHOREF
  2

  9
$PUCSORTHOVIEW
 70
     0
  9
$PUCSORGTOP
 10
0.0
 20
0.0
 30
0.0
  9
$PUCSORGBOTTOM
 10
0.0
 20
0.0
 30
0.0
  9
$PUCSORGLEFT
 10
0.0
 20
0.0
 30
0.0
  9
$PUCSORGRIGHT
 10
0.0
 20
0.0
 30
0.0
  9
$PUCSORGFRONT
 10
0.0
 20
0.0
 30
0.0
  9
$PUCSORGBACK
 10
0.0
 20
0.0
 30
0.0
  9
$USERI1
 70
     0
  9
$USERI2
 70
     0
  9
$USERI3
 70
     0
  9
$USERI4
 70
     0
  9
$USERI5
 70
     0
  9
$USERR1
 40
18.1
  9
$USERR2
 40
0.0
  9
$USERR3
 40
0.0
  9
$USERR4
 40
0.0
  9
$USERR5
 40
0.0
  9
$WORLDVIEW
 70
     1
  9
$SHADEDGE
 70
     3
  9
$SHADEDIF
 70
    70
  9
$TILEMODE
 70
     1
  9
$MAXACTVP
 70
    64
  9
$PINSBASE
 10
0.0
 20
0.0
 30
0.0
  9
$PLIMCHECK
 70
     0
  9
$PEXTMIN
 10
1.00000000000000E+20
 20
1.00000000000000E+20
 30
1.00000000000000E+20
  9
$PEXTMAX
 10
-1.00000000000000E+20
 20
-1.00000000000000E+20
 30
-1.00000000000000E+20
  9
$PLIMMIN
 10
0.0
 20
0.0
  9
$PLIMMAX
 10
12.0
 20
9.0
  9
$UNITMODE
 70
     0
  9
$VISRETAIN
 70
     1
  9
$PLINEGEN
 70
     0
  9
$PSLTSCALE
 70
     1
  9
$TREEDEPTH
 70
  3020
  9
$CMLSTYLE
  2
Standard
  9
$CMLJUST
 70
     0
  9
$CMLSCALE
 40
1.0
  9
$PROXYGRAPHICS
 70
     1
  9
$MEASUREMENT
 70
     1
  9
$CELWEIGHT
370
    -1
  9
$ENDCAPS
280
     0
  9
$JOINSTYLE
280
     0
  9
$LWDISPLAY
290
     0
  9
$INSUNITS
 70
     4
  9
$HYPERLINKBASE
  1

  9
$STYLESHEET
  1

  9
$XEDIT
290
     1
  9
$CEPSNTYPE
380
     0
  9
$PSTYLEMODE
290
     1
  9
$FINGERPRINTGUID
  2
{CA56E8A7-E8A9-4ED9-BCB6-13049F212D3C}
  9
$VERSIONGUID
  2
{FAEB1C32-E019-11D5-929B-00C0DF256EC4}
  9
$EXTNAMES
290
     1
  9
$PSVPSCALE
 40
0.0
  9
$OLESTARTUP
290
     0
  9
$SORTENTS
280
   127
  9
$INDEXCTL
280
     0
  9
$HIDETEXT
280
     1
  9
$XCLIPFRAME
290
     0
  9
$HALOGAP
280
     0
  9
$OBSCOLOR
 70
   257
  9
$OBSLTYPE
280
     0
  9
$INTERSECTIONDISPLAY
280
     0
  9
$INTERSECTIONCOLOR
 70
   257
  9
$DIMASSOC
280
     2
  9
$PROJECTNAME
  1

  0
ENDSEC
  0
SECTION
  2
CLASSES
  0
CLASS
  1
ACDBDICTIONARYWDFLT
  2
AcDbDictionaryWithDefault
  3
ObjectDBX Classes
 90
        0
 91
        4
280
     0
281
     0
  0
CLASS
  1
VISUALSTYLE
  2
AcDbVisualStyle
  3
ObjectDBX Classes
 90
     4095
 91
        4
280
     0
281
     0
  0
CLASS
  1
MATERIAL
  2
AcDbMaterial
  3
ObjectDBX Classes
 90
     1153
 91
        4
280
     0
281
     0
  0
ENDSEC
  0
SECTION
  2
TABLES
  0
TABLE
  2
VPORT
  5
8
330
0
100
AcDbSymbolTable
 70
     1
  0
VPORT
  5
29
330
8
100
AcDbSymbolTableRecord
100
AcDbViewportTableRecord
  2
*Active
 70
     0
 10
0.0
 20
0.0
 11
1.0
 21
1.0
 12
-279.3072862017781
 22
-157.4212475468211
 13
0.0
 23
0.0
 14
0.5
 24
0.5
 15
0.5
 25
0.5
 16
0.0
 26
0.0
 36
1.0
 17
0.0
 27
0.0
 37
0.0
 40
231.0000000000002
 41
1.60267857142857
 42
50.0
 43
0.0
 44
0.0
 50
0.0
 51
0.0
 71
     0
 72
   100
 73
     1
 74
     3
 75
     0
 76
     0
 77
     0
 78
     0
281
     0
 65
     1
110
0.0
120
0.0
130
0.0
111
1.0
121
0.0
131
0.0
112
0.0
122
1.0
132
0.0
 79
     0
146
0.0
  0
ENDTAB
  0
TABLE
  2
LTYPE
  5
5
330
0
100
AcDbSymbolTable
 70
     8
  0
LTYPE
  5
14
330
5
100
AcDbSymbolTableRecord
100
AcDbLinetypeTableRecord
  2
ByBlock
 70
     0
  3

 72
    65
 73
     0
 40
0.0
  0
LTYPE
  5
15
330
5
100
AcDbSymbolTableRecord
100
AcDbLinetypeTableRecord
  2
ByLayer
 70
     0
  3

 72
    65
 73
     0
 40
0.0
  0
LTYPE
  5
16
330
5
100
AcDbSymbolTableRecord
100
AcDbLinetypeTableRecord
  2
Continuous
 70
     0
  3
Solid line
 72
    65
 73
     0
 40
0.0
  0
LTYPE
  5
3F
330
5
100
AcDbSymbolTableRecord
100
AcDbLinetypeTableRecord
  2
DASHED
 70
     0
  3
Dashed
 72
    65
 73
     2
 40
15.0
 49
7.0
 74
     0
 49
-8.0
 74
     0
  0
LTYPE
  5
40
330
5
100
AcDbSymbolTableRecord
100
AcDbLinetypeTableRecord
  2
DOTTED
 70
     0
  3
Dotted
 72
    65
 73
     2
 40
1.0
 49
0.0
 74
     0
 49
-1.0
 74
     0
  0
LTYPE
  5
41
330
5
100
AcDbSymbolTableRecord
100
AcDbLinetypeTableRecord
  2
DOT_CENTER
 70
     0
  3
Dot_Center
 72
    65
 73
     4
 40
14.0
 49
12.0
 74
     0
 49
-1.0
 74
     0
 49
0.0
 74
     0
 49
-1.0
 74
     0
  0
LTYPE
  5
42
330
5
100
AcDbSymbolTableRecord
100
AcDbLinetypeTableRecord
  2
LONG_DASHED
 70
     0
  3
Long_Dashed
 72
    65
 73
     2
 40
15.0
 49
10.0
 74
     0
 49
-5.0
 74
     0
  0
LTYPE
  5
43
330
5
100
AcDbSymbolTableRecord
100
AcDbLinetypeTableRecord
  2
DASH_CENTER
 70
     0
  3
Dash_Center
 72
    65
 73
     4
 40
14.0
 49
11.0
 74
     0
 49
-1.0
 74
     0
 49
1.0
 74
     0
 49
-1.0
 74
     0
  0
LTYPE
  5
44
330
5
100
AcDbSymbolTableRecord
100
AcDbLinetypeTableRecord
  2
PHANTOM
 70
     0
  3
Phantom
 72
    65
 73
     6
 40
13.0
 49
10.0
 74
     0
 49
-1.0
 74
     0
 49
0.0
 74
     0
 49
-1.0
 74
     0
 49
0.0
 74
     0
 49
-1.0
 74
     0
  0
LTYPE
  5
45
330
5
100
AcDbSymbolTableRecord
100
AcDbLinetypeTableRecord
  2
CENTER_DASH_DASH
 70
     0
  3
Center_Dash_Dash
 72
    65
 73
     6
 40
14.0
 49
9.0
 74
     0
 49
-1.0
 74
     0
 49
1.0
 74
     0
 49
-1.0
 74
     0
 49
1.0
 74
     0
 49
-1.0
 74
     0
  0
ENDTAB
  0
TABLE
  2
LAYER
  5
2
330
0
100
AcDbSymbolTable
 70
     2
  0
LAYER
  5
10
330
2
100
AcDbSymbolTableRecord
100
AcDbLayerTableRecord
  2
0
 70
     0
 62
     7
  6
Continuous
370
    -3
390
F
  0
LAYER
  5
46
330
2
100
AcDbSymbolTableRecord
100
AcDbLayerTableRecord
  2
1
 70
     0
 62
     7
  6
Continuous
370
    -3
390
F
  0
ENDTAB
  0
TABLE
  2
STYLE
  5
3
330
0
100
AcDbSymbolTable
 70
     5
  0
STYLE
  5
11
330
3
100
AcDbSymbolTableRecord
100
AcDbTextStyleTableRecord
  2
Standard
 70
     0
 40
0.0
 41
1.0
 50
0.0
 71
     0
 42
0.2
  3
txt
  4

  0
STYLE
  5
A1
330
3
100
AcDbSymbolTableRecord
100
AcDbTextStyleTableRecord
  2
CONVERTER_11
 70
     0
 40
0.0
 41
0.9
 50
0.0
 71
     0
 42
0.2
  3
txt.shx
  4

  0
STYLE
  5
1FC
330
3
100
AcDbSymbolTableRecord
100
AcDbTextStyleTableRecord
  2
CONVERTER_12
 70
     0
 40
0.0
 41
0.81
 50
0.0
 71
     0
 42
0.2
  3
txt.shx
  4

  0
STYLE
  5
212
330
3
100
AcDbSymbolTableRecord
100
AcDbTextStyleTableRecord
  2
CONVERTER_13
 70
     0
 40
0.0
 41
0.72
 50
0.0
 71
     0
 42
0.2
  3
txt.shx
  4

  0
STYLE
  5
215
330
3
100
AcDbSymbolTableRecord
100
AcDbTextStyleTableRecord
  2
CONVERTER_14
 70
     0
 40
0.0
 41
0.855
 50
0.0
 71
     0
 42
0.2
  3
txt.shx
  4

  0
ENDTAB
  0
TABLE
  2
VIEW
  5
6
330
0
100
AcDbSymbolTable
 70
     0
  0
ENDTAB
  0
TABLE
  2
UCS
  5
7
330
0
100
AcDbSymbolTable
 70
     0
  0
ENDTAB
  0
TABLE
  2
APPID
  5
9
330
0
100
AcDbSymbolTable
 70
     1
  0
APPID
  5
12
330
9
100
AcDbSymbolTableRecord
100
AcDbRegAppTableRecord
  2
ACAD
 70
     0
  0
ENDTAB
  0
TABLE
  2
DIMSTYLE
  5
A
330
0
100
AcDbSymbolTable
 70
     3
100
AcDbDimStyleTable
  0
DIMSTYLE
105
27
330
A
100
AcDbSymbolTableRecord
100
AcDbDimStyleTableRecord
  2
Standard
 70
     0
178
     0
340
11
  0
DIMSTYLE
105
BD
102
{ACAD_REACTORS
330
BE
102
}
330
A
100
AcDbSymbolTableRecord
100
AcDbDimStyleTableRecord
  2
ME10_DIM_10
 70
     0
 41
0.7
 42
0.0
 44
0.3
 73
     0
 74
     0
 77
     1
 78
     8
140
0.7
147
0.3
172
     1
173
     1
174
     1
175
     1
176
     2
177
     2
178
     3
340
A1
  0
DIMSTYLE
105
D7
102
{ACAD_REACTORS
330
D8
102
}
330
A
100
AcDbSymbolTableRecord
100
AcDbDimStyleTableRecord
  2
ME10_DIM_11
 70
     0
 41
0.7
 42
0.0
 44
0.3
 73
     0
 74
     0
 77
     1
 78
     8
140
0.7
147
0.3
172
     1
173
     1
174
     1
175
     1
176
     2
177
     2
178
     3
340
A1
  0
ENDTAB
  0
TABLE
  2
BLOCK_RECORD
  5
1
330
0
100
AcDbSymbolTable
 70
    20
  0
BLOCK_RECORD
  5
1F
330
1
100
AcDbSymbolTableRecord
100
AcDbBlockTableRecord
  2
*Model_Space
340
22
  0
BLOCK_RECORD
  5
1B
330
1
100
AcDbSymbolTableRecord
100
AcDbBlockTableRecord
  2
*Paper_Space
340
1E
  0
BLOCK_RECORD
  5
23
330
1
100
AcDbSymbolTableRecord
100
AcDbBlockTableRecord
  2
*Paper_Space0
340
26
  0
BLOCK_RECORD
  5
47
330
1
100
AcDbSymbolTableRecord
100
AcDbBlockTableRecord
  2
ZBFM_4_WH_UNBEDRUCKT-select__1
340
0
102
{BLKREFS
331
4B
102
}
  0
BLOCK_RECORD
  5
4A
330
1
100
AcDbSymbolTableRecord
100
AcDbBlockTableRecord
  2
Allg1
340
0
102
{BLKREFS
331
7D
102
}
  0
BLOCK_RECORD
  5
4E
330
1
100
AcDbSymbolTableRecord
100
AcDbBlockTableRecord
  2
ZBFM_4_WH_UNBEDRUCKT-select__2
340
0
102
{BLKREFS
331
52
102
}
  0
BLOCK_RECORD
  5
51
330
1
100
AcDbSymbolTableRecord
100
AcDbBlockTableRecord
  2
Drfsicht1
340
0
102
{BLKREFS
331
7E
102
}
  0
BLOCK_RECORD
  5
55
330
1
100
AcDbSymbolTableRecord
100
AcDbBlockTableRecord
  2
ZBFM_4_WH_UNBEDRUCKT-select__3
340
0
102
{BLKREFS
331
59
102
}
  0
BLOCK_RECORD
  5
58
330
1
100
AcDbSymbolTableRecord
100
AcDbBlockTableRecord
  2
Vordans1
340
0
102
{BLKREFS
331
7F
102
}
  0
BLOCK_RECORD
  5
5C
330
1
100
AcDbSymbolTableRecord
100
AcDbBlockTableRecord
  2
ZBFM_4_WH_UNBEDRUCKT-select__4
340
0
102
{BLKREFS
331
60
102
}
  0
BLOCK_RECORD
  5
5F
330
1
100
AcDbSymbolTableRecord
100
AcDbBlockTableRecord
  2
SA_Rechts1
340
0
102
{BLKREFS
331
80
102
}
  0
BLOCK_RECORD
  5
63
330
1
100
AcDbSymbolTableRecord
100
AcDbBlockTableRecord
  2
ZBFM_4_WH_UNBEDRUCKT-select__5
340
0
102
{BLKREFS
331
67
102
}
  0
BLOCK_RECORD
  5
66
330
1
100
AcDbSymbolTableRecord
100
AcDbBlockTableRecord
  2
Rckans1
340
0
102
{BLKREFS
331
81
102
}
  0
BLOCK_RECORD
  5
6A
330
1
100
AcDbSymbolTableRecord
100
AcDbBlockTableRecord
  2
ZBFM_4_WH_UNBEDRUCKT-select__6
340
0
102
{BLKREFS
331
6E
102
}
  0
BLOCK_RECORD
  5
6D
330
1
100
AcDbSymbolTableRecord
100
AcDbBlockTableRecord
  2
SA_Links1
340
0
102
{BLKREFS
331
82
102
}
  0
BLOCK_RECORD
  5
71
330
1
100
AcDbSymbolTableRecord
100
AcDbBlockTableRecord
  2
_rahmen
340
0
102
{BLKREFS
331
78
102
}
  0
BLOCK_RECORD
  5
74
330
1
100
AcDbSymbolTableRecord
100
AcDbBlockTableRecord
  2
_punkt
340
0
102
{BLKREFS
331
79
102
}
  0
BLOCK_RECORD
  5
77
330
1
100
AcDbSymbolTableRecord
100
AcDbBlockTableRecord
  2
A4I_CS
340
0
102
{BLKREFS
331
83
102
}
  0
BLOCK_RECORD
  5
7C
330
1
100
AcDbSymbolTableRecord
100
AcDbBlockTableRecord
  2
1
340
0
102
{BLKREFS
331
86
102
}
  0
BLOCK_RECORD
  5
B4
330
1
100
AcDbSymbolTableRecord
100
AcDbBlockTableRecord
  2
*D17
340
0
  0
BLOCK_RECORD
  5
CC
330
1
100
AcDbSymbolTableRecord
100
AcDbBlockTableRecord
  2
*D18
340
0
  0
BLOCK_RECORD
  5
D9
330
1
100
AcDbSymbolTableRecord
100
AcDbBlockTableRecord
  2
*D19
340
0
102
{BLKREFS
331
E2
102
}
  0
ENDTAB
  0
ENDSEC
  0
SECTION
  2
BLOCKS
  0
BLOCK
  5
20
330
1F
100
AcDbEntity
  8
0
100
AcDbBlockBegin
  2
*Model_Space
 70
     0
 10
0.0
 20
0.0
 30
0.0
  3
*Model_Space
  1

  0
ENDBLK
  5
21
330
1F
100
AcDbEntity
  8
0
100
AcDbBlockEnd
  0
BLOCK
  5
1C
330
1B
100
AcDbEntity
 67
     1
  8
0
100
AcDbBlockBegin
  2
*Paper_Space
 70
     0
 10
0.0
 20
0.0
 30
0.0
  3
*Paper_Space
  1

  0
ENDBLK
  5
1D
330
1B
100
AcDbEntity
 67
     1
  8
0
100
AcDbBlockEnd
  0
BLOCK
  5
24
330
23
100
AcDbEntity
  8
0
100
AcDbBlockBegin
  2
*Paper_Space0
 70
     0
 10
0.0
 20
0.0
 30
0.0
  3
*Paper_Space0
  1

  0
ENDBLK
  5
25
330
23
100
AcDbEntity
  8
0
100
AcDbBlockEnd
  0
BLOCK
  5
48
330
47
100
AcDbEntity
  8
0
100
AcDbBlockBegin
  2
ZBFM_4_WH_UNBEDRUCKT-select__1
 70
     0
 10
-46.30948292782551
 20
-37.77120513961716
 30
0.0
  3
ZBFM_4_WH_UNBEDRUCKT-select__1
  1

  0
LINE
  5
87
330
47
100
AcDbEntity
  8
0
  6
Continuous
 62
     7
100
AcDbLine
 10
-40.77860329231238
 20
-37.69387161185009
 30
0.0
 11
-39.00360329231238
 21
-36.15667652013271
 31
0.0
  0
LINE
  5
88
330
47
100
AcDbEntity
  8
0
  6
Continuous
 62
     7
100
AcDbLine
 10
-41.71214791031548
 20
-37.57391984073311
 30
0.0
 11
-41.10593012766637
 21
-37.7489198407331
 31
0.0
  0
LINE
  5
89
330
47
100
AcDbEntity
  8
0
  6
Continuous
 62
     7
100
AcDbLine
 10
-41.71214791031548
 20
-36.70789443694864
 30
0.0
 11
-41.71214791031548
 21
-37.57391984073311
 31
0.0
  0
LINE
  5
8A
330
47
100
AcDbEntity
  8
0
  6
Continuous
 62
     7
100
AcDbLine
 10
-45.26285206583168
 20
-36.54891984073311
 30
0.0
 11
-44.51285206583165
 21
-35.89940078789477
 31
0.0
  0
LINE
  5
8B
330
47
100
AcDbEntity
  8
0
  6
Continuous
 62
     7
100
AcDbLine
 10
-45.26285206583168
 20
-35.68289443694866
 30
0.0
 11
-45.26285206583168
 21
-36.54891984073311
 31
0.0
  0
LINE
  5
8C
330
47
100
AcDbEntity
  8
0
  6
Continuous
 62
     7
100
AcDbLine
 10
-45.26285206583168
 20
-36.54891984073311
 30
0.0
 11
-45.86906984848078
 21
-36.37391984073311
 31
0.0
  0
LINE
  5
8D
330
47
100
AcDbEntity
  8
0
  6
Continuous
 62
     7
100
AcDbLine
 10
-41.71214791031548
 20
-36.70789443694864
 30
0.0
 11
-45.26285206583168
 21
-35.68289443694866
 31
0.0
  0
LINE
  5
8E
330
47
100
AcDbEntity
  8
0
  6
Continuous
 62
     7
100
AcDbLine
 10
-39.54743647861248
 20
-34.76358410296061
 30
0.0
 11
-39.54743647861248
 21
-35.28319934523127
 31
0.0
  0
LINE
  5
8F
330
47
100
AcDbEntity
  8
0
  6
Continuous
 62
     7
100
AcDbLine
 10
-39.54743647861248
 20
-34.76358410296061
 30
0.0
 11
-43.87756349753467
 21
-33.51358410296061
 31
0.0
  0
LINE
  5
90
330
47
100
AcDbEntity
  8
0
  6
Continuous
 62
     7
100
AcDbLine
 10
-39.54743647861248
 20
-35.28319934523127
 30
0.0
 11
-39.33093012766637
 21
-35.34569934523127
 31
0.0
  0
LINE
  5
91
330
47
100
AcDbEntity
  8
0
  6
Continuous
 62
     7
100
AcDbLine
 10
-41.32243647861248
 20
-36.82039443694865
 30
0.0
 11
-39.54743647861248
 21
-35.28319934523127
 31
0.0
  0
LINE
  5
92
330
47
100
AcDbEntity
  8
0
  6
Continuous
 62
     7
100
AcDbLine
 10
-41.32243647861248
 20
-36.30077919467799
 30
0.0
 11
-41.32243647861248
 21
-36.82039443694865
 31
0.0
  0
LINE
  5
93
330
47
100
AcDbEntity
  8
0
  6
Continuous
 62
     7
100
AcDbLine
 10
-41.32243647861248
 20
-36.30077919467799
 30
0.0
 11
-39.54743647861248
 21
-34.76358410296061
 31
0.0
  0
LINE
  5
94
330
47
100
AcDbEntity
  8
0
  6
Continuous
 62
     7
100
AcDbLine
 10
-41.32243647861248
 20
-36.82039443694865
 30
0.0
 11
-41.10593012766637
 21
-36.88289443694865
 31
0.0
  0
LINE
  5
95
330
47
100
AcDbEntity
  8
0
  6
Continuous
 62
     2
100
AcDbLine
 10
-41.10593012766637
 20
-36.88289443694865
 30
0.0
 11
-39.33093012766637
 21
-35.34569934523127
 31
0.0
  0
LINE
  5
96
330
47
100
AcDbEntity
  8
0
  6
Continuous
 62
     7
100
AcDbLine
 10
-45.65256349753467
 20
-35.05077919467799
 30
0.0
 11
-45.65256349753467
 21
-35.57039443694865
 31
0.0
  0
LINE
  5
97
330
47
100
AcDbEntity
  8
0
  6
Continuous
 62
     7
100
AcDbLine
 10
-45.65256349753467
 20
-35.05077919467799
 30
0.0
 11
-43.87756349753467
 21
-33.51358410296061
 31
0.0
  0
LINE
  5
98
330
47
100
AcDbEntity
  8
0
  6
Continuous
 62
     7
100
AcDbLine
 10
-45.65256349753467
 20
-35.57039443694865
 30
0.0
 11
-45.86906984848081
 21
-35.50789443694866
 31
0.0
  0
LINE
  5
99
330
47
100
AcDbEntity
  8
0
  6
Continuous
 62
     2
100
AcDbLine
 10
-45.86906984848081
 20
-35.50789443694866
 30
0.0
 11
-45.65256349753467
 21
-35.32039443694865
 31
0.0
  0
LINE
  5
9A
330
47
100
AcDbEntity
  8
0
  6
Continuous
 62
     7
100
AcDbLine
 10
-46.19639668383477
 20
-35.56294266583166
 30
0.0
 11
-45.65256349753467
 21
-35.09196931107474
 31
0.0
  0
LINE
  5
9B
330
47
100
AcDbEntity
  8
0
  6
Continuous
 62
     7
100
AcDbLine
 10
-41.32243647861248
 20
-36.30077919467799
 30
0.0
 11
-45.65256349753467
 21
-35.05077919467799
 31
0.0
  0
SPLINE
  5
9C
330
47
100
AcDbEntity
  8
0
  6
Continuous
 62
     7
100
AcDbSpline
210
0.0
220
0.0
230
1.0
 70
     8
 71
     3
 72
    15
 73
    11
 74
     9
 42
0.000000001
 43
0.0000000001
 44
0.00000001
 40
0.0
 40
0.0
 40
0.0
 40
0.0
 40
0.1328962109756644
 40
0.2727053220925336
 40
0.4150031796286233
 40
0.5548058914523821
 40
0.6876905845374897
 40
0.8109308977216076
 40
0.9245895382847301
 40
1.032150054400758
 40
1.032150054400758
 40
1.032150054400758
 40
1.032150054400758
 10
-39.33093012766637
 20
-35.34569934523127
 30
0.0
 10
-39.28926804183396
 20
-35.36136064550797
 30
0.0
 10
-39.20377672742656
 20
-35.39349791790227
 30
0.0
 10
-39.09294318029022
 20
-35.47934383070388
 30
0.0
 10
-39.00001187028715
 20
-35.58589958088963
 30
0.0
 10
-38.93316531943494
 20
-35.70831724913359
 30
0.0
 10
-38.89712772846897
 20
-35.83680728110578
 30
0.0
 10
-38.89611073580538
 20
-35.96111424358759
 30
0.0
 10
-38.92862395802547
 20
-36.07499669952124
 30
0.0
 10
-38.97907374336848
 20
-36.12995490836282
 30
0.0
 10
-39.00360329231238
 20
-36.15667652013271
 30
0.0
 11
-39.33093012766637
 21
-35.34569934523127
 31
0.0
 11
-39.20895063428794
 21
-35.39844785813936
 31
0.0
 11
-39.09685073540368
 21
-35.48199544951355
 31
0.0
 11
-39.00371024214438
 21
-35.58957578582683
 31
0.0
 11
-38.93707256251258
 21
-35.71247500496213
 31
0.0
 11
-38.90233562076303
 21
-35.84073913442805
 31
0.0
 11
-38.90231221825977
 21
-35.96397944838817
 31
0.0
 11
-38.93700498929066
 21
-36.07221391422255
 31
0.0
 11
-39.00360329231238
 21
-36.15667652013271
 31
0.0
  0
SPLINE
  5
9D
330
47
100
AcDbEntity
  8
0
  6
Continuous
 62
     7
100
AcDbSpline
210
0.0
220
0.0
230
1.0
 70
     8
 71
     3
 72
    11
 73
     7
 74
     5
 42
0.000000001
 43
0.0000000001
 44
0.00000001
 40
0.0
 40
0.0
 40
0.0
 40
0.0
 40
0.0805526799810255
 40
0.1638036380530361
 40
0.2517511792397146
 40
0.3453217744506304
 40
0.3453217744506304
 40
0.3453217744506304
 40
0.3453217744506304
 10
-40.77860329231238
 20
-37.69387161185009
 30
0.0
 10
-40.80045961413532
 20
-37.70979654466296
 30
0.0
 10
-40.8449043881393
 20
-37.74217983623188
 30
0.0
 10
-40.92714162365598
 20
-37.76514445069519
 30
0.0
 10
-41.0161738992625
 20
-37.76961793976973
 30
0.0
 10
-41.07539982041001
 20
-37.75596024104959
 30
0.0
 10
-41.10593012766637
 20
-37.7489198407331
 30
0.0
 11
-40.77860329231238
 21
-37.69387161185009
 31
0.0
 11
-40.84636408955819
 21
-37.73742857372159
 31
0.0
 11
-40.92599619987306
 21
-37.76170715481856
 31
0.0
 11
-41.01385768652432
 21
-37.76559682901377
 31
0.0
 11
-41.10593012766637
 21
-37.7489198407331
 31
0.0
  0
SPLINE
  5
9E
330
47
100
AcDbEntity
  8
0
  6
Continuous
 62
     7
100
AcDbSpline
210
0.0
220
0.0
230
1.0
 70
     8
 71
     3
 72
    15
 73
    11
 74
     9
 42
0.000000001
 43
0.0000000001
 44
0.00000001
 40
0.0
 40
0.0
 40
0.0
 40
0.0
 40
0.1328962109756587
 40
0.2727053220925322
 40
0.4150031796286226
 40
0.5548058914523786
 40
0.6876905845374861
 40
0.810930897721597
 40
0.924589538284733
 40
1.03215005440076
 40
1.03215005440076
 40
1.03215005440076
 40
1.03215005440076
 10
-41.10593012766637
 20
-36.88289443694865
 30
0.0
 10
-41.06426804183398
 20
-36.89855573722537
 30
0.0
 10
-40.97877672742652
 20
-36.93069300961962
 30
0.0
 10
-40.86794318029025
 20
-37.01653892242128
 30
0.0
 10
-40.77501187028714
 20
-37.12309467260701
 30
0.0
 10
-40.70816531943493
 20
-37.24551234085096
 30
0.0
 10
-40.67212772846897
 20
-37.37400237282315
 30
0.0
 10
-40.67111073580539
 20
-37.49830933530498
 30
0.0
 10
-40.70362395802546
 20
-37.61219179123863
 30
0.0
 10
-40.75407374336848
 20
-37.66715000008021
 30
0.0
 10
-40.77860329231238
 20
-37.69387161185009
 30
0.0
 11
-41.10593012766637
 21
-36.88289443694865
 31
0.0
 11
-40.98395063428794
 21
-36.93564294985674
 31
0.0
 11
-40.87185073540368
 21
-37.01919054123093
 31
0.0
 11
-40.77871024214438
 21
-37.12677087754422
 31
0.0
 11
-40.71207256251258
 21
-37.24967009667951
 31
0.0
 11
-40.67733562076302
 21
-37.37793422614543
 31
0.0
 11
-40.67731221825976
 21
-37.50117454010554
 31
0.0
 11
-40.71200498929066
 21
-37.60940900593994
 31
0.0
 11
-40.77860329231238
 21
-37.69387161185009
 31
0.0
  0
SPLINE
  5
9F
330
47
100
AcDbEntity
  8
0
  6
Continuous
 62
     7
100
AcDbSpline
210
0.0
220
0.0
230
1.0
 70
     8
 71
     3
 72
    11
 73
     7
 74
     5
 42
0.000000001
 43
0.0000000001
 44
0.00000001
 40
0.0
 40
0.0
 40
0.0
 40
0.0
 40
0.0805526799810293
 40
0.1638036380530311
 40
0.2517511792397022
 40
0.345321774450604
 40
0.345321774450604
 40
0.345321774450604
 40
0.345321774450604
 10
-46.19639668383477
 20
-35.56294266583166
 30
0.0
 10
-46.17454036201183
 20
-35.54701773301878
 30
0.0
 10
-46.13009558800788
 20
-35.51463444144988
 30
0.0
 10
-46.04785835249115
 20
-35.49166982698655
 30
0.0
 10
-45.95882607688468
 20
-35.48719633791205
 30
0.0
 10
-45.89960015573717
 20
-35.50085403663215
 30
0.0
 10
-45.86906984848081
 20
-35.50789443694866
 30
0.0
 11
-46.19639668383477
 21
-35.56294266583166
 31
0.0
 11
-46.12863588658896
 21
-35.51938570396015
 31
0.0
 11
-46.0490037762741
 21
-35.4951071228632
 31
0.0
 11
-45.96114228962285
 21
-35.491217448668
 31
0.0
 11
-45.86906984848081
 21
-35.50789443694866
 31
0.0
  0
SPLINE
  5
A0
330
47
100
AcDbEntity
  8
0
  6
Continuous
 62
     7
100
AcDbSpline
210
0.0
220
0.0
230
1.0
 70
     8
 71
     3
 72
    15
 73
    11
 74
     9
 42
0.000000001
 43
0.0000000001
 44
0.00000001
 40
0.0
 40
0.0
 40
0.0
 40
0.0
 40
0.1328962109756681
 40
0.2727053220925472
 40
0.4150031796286369
 40
0.5548058914523923
 40
0.6876905845374999
 40
0.8109308977216179
 40
0.9245895382847518
 40
1.032150054400778
 40
1.032150054400778
 40
1.032150054400778
 40
1.032150054400778
 10
-45.86906984848078
 20
-36.37391984073311
 30
0.0
 10
-45.91073193431318
 20
-36.35825854045641
 30
0.0
 10
-45.99622324872062
 20
-36.32612126806211
 30
0.0
 10
-46.10705679585692
 20
-36.24027535526049
 30
0.0
 10
-46.19998810586003
 20
-36.13371960507476
 30
0.0
 10
-46.26683465671221
 20
-36.0113019368308
 30
0.0
 10
-46.30287224767817
 20
-35.88281190485859
 30
0.0
 10
-46.30388924034177
 20
-35.75850494237678
 30
0.0
 10
-46.27137601812169
 20
-35.64462248644313
 30
0.0
 10
-46.22092623277867
 20
-35.58966427760154
 30
0.0
 10
-46.19639668383477
 20
-35.56294266583166
 30
0.0
 11
-45.86906984848078
 21
-36.37391984073311
 31
0.0
 11
-45.99104934185922
 21
-36.32117132782502
 31
0.0
 11
-46.10314924074348
 21
-36.23762373645082
 31
0.0
 11
-46.19628973400278
 21
-36.13004340013755
 31
0.0
 11
-46.26292741363457
 21
-36.00714418100225
 31
0.0
 11
-46.29766435538413
 21
-35.87888005153633
 31
0.0
 11
-46.29768775788739
 21
-35.7556397375762
 31
0.0
 11
-46.2629949868565
 21
-35.64740527174181
 31
0.0
 11
-46.19639668383477
 21
-35.56294266583166
 31
0.0
  0
ENDBLK
  5
49
330
47
100
AcDbEntity
  8
0
100
AcDbBlockEnd
  0
BLOCK
  5
4C
330
4A
100
AcDbEntity
  8
0
100
AcDbBlockBegin
  2
Allg1
 70
     0
 10
-42.59999999999701
 20
-35.59999999999801
 30
0.0
  3
Allg1
  1

  0
INSERT
  5
4B
330
4A
100
AcDbEntity
  8
0
100
AcDbBlockReference
  2
ZBFM_4_WH_UNBEDRUCKT-select__1
 10
-46.30948292782551
 20
-37.77120513961716
 30
0.0
  0
MTEXT
  5
A2
330
4A
100
AcDbEntity
  8
1
 62
     6
100
AcDbMText
 10
-42.59999999999701
 20
-38.87391719783545
 30
0.0
 40
1.0
 41
0.0
 71
     2
 72
     1
  1
 
  7
CONVERTER_11
 73
     1
 44
1.32052821128451
  0
ENDBLK
  5
4D
330
4A
100
AcDbEntity
  8
0
100
AcDbBlockEnd
  0
BLOCK
  5
4F
330
4E
100
AcDbEntity
  8
0
100
AcDbBlockBegin
  2
ZBFM_4_WH_UNBEDRUCKT-select__2
 70
     0
 10
-64.65000000000023
 20
-34.17499997614812
 30
0.0
  3
ZBFM_4_WH_UNBEDRUCKT-select__2
  1

  0
LINE
  5
A3
330
4E
100
AcDbEntity
  8
0
  6
Continuous
 62
     7
100
AcDbLine
 10
-58.64999999999986
 20
-34.17499997614812
 30
0.0
 11
-58.15000000000023
 21
-34.17499997614812
 31
0.0
  0
LINE
  5
A4
330
4E
100
AcDbEntity
  8
0
  6
Continuous
 62
     7
100
AcDbLine
 10
-58.64999999999986
 20
-30.62499997614812
 30
0.0
 11
-58.15000000000023
 21
-30.62499997614812
 31
0.0
  0
LINE
  5
A5
330
4E
100
AcDbEntity
  8
0
  6
Continuous
 62
     2
100
AcDbLine
 10
-58.64999999999986
 20
-34.17499997614812
 30
0.0
 11
-58.64999999999986
 21
-30.62499997614812
 31
0.0
  0
LINE
  5
A6
330
4E
100
AcDbEntity
  8
0
  6
Continuous
 62
     7
100
AcDbLine
 10
-58.15000000000023
 20
-34.17499997614812
 30
0.0
 11
-58.15000000000023
 21
-30.62499997614812
 31
0.0
  0
LINE
  5
A7
330
4E
100
AcDbEntity
  8
0
  6
Continuous
 62
     7
100
AcDbLine
 10
-58.89999999999942
 20
-34.17499997614812
 30
0.0
 11
-58.64999999999986
 21
-34.17499997614812
 31
0.0
  0
LINE
  5
A8
330
4E
100
AcDbEntity
  8
0
  6
Continuous
 62
     7
100
AcDbLine
 10
-63.89999999999986
 20
-34.17499997614812
 30
0.0
 11
-63.89999999999986
 21
-30.62499997614812
 31
0.0
  0
LINE
  5
A9
330
4E
100
AcDbEntity
  8
0
  6
Continuous
 62
     7
100
AcDbLine
 10
-63.89999999999986
 20
-30.62499997614812
 30
0.0
 11
-64.14999999999989
 21
-30.62499997614812
 31
0.0
  0
LINE
  5
AA
330
4E
100
AcDbEntity
  8
0
  6
Continuous
 62
     7
100
AcDbLine
 10
-58.89999999999942
 20
-30.62499997614812
 30
0.0
 11
-63.89999999999986
 21
-30.62499997614812
 31
0.0
  0
LINE
  5
AB
330
4E
100
AcDbEntity
  8
0
  6
Continuous
 62
     7
100
AcDbLine
 10
-58.89999999999942
 20
-30.62499997614812
 30
0.0
 11
-58.64999999999986
 21
-30.62499997614812
 31
0.0
  0
LINE
  5
AC
330
4E
100
AcDbEntity
  8
0
  6
Continuous
 62
     2
100
AcDbLine
 10
-64.14999999999989
 20
-34.17499997614812
 30
0.0
 11
-64.14999999999989
 21
-30.62499997614812
 31
0.0
  0
LINE
  5
AD
330
4E
100
AcDbEntity
  8
0
  6
Continuous
 62
     7
100
AcDbLine
 10
-58.89999999999942
 20
-34.17499997614812
 30
0.0
 11
-58.89999999999942
 21
-30.62499997614812
 31
0.0
  0
LINE
  5
AE
330
4E
100
AcDbEntity
  8
0
  6
Continuous
 62
     7
100
AcDbLine
 10
-63.89999999999986
 20
-34.17499997614812
 30
0.0
 11
-64.14999999999989
 21
-34.17499997614812
 31
0.0
  0
LINE
  5
AF
330
4E
100
AcDbEntity
  8
0
  6
Continuous
 62
     7
100
AcDbLine
 10
-64.65000000000023
 20
-34.17499997614812
 30
0.0
 11
-64.65000000000023
 21
-30.62499997614812
 31
0.0
  0
LINE
  5
B0
330
4E
100
AcDbEntity
  8
0
  6
Continuous
 62
     7
100
AcDbLine
 10
-64.65000000000023
 20
-30.62499997614812
 30
0.0
 11
-64.14999999999989
 21
-30.62499997614812
 31
0.0
  0
LINE
  5
B1
330
4E
100
AcDbEntity
  8
0
  6
Continuous
 62
     7
100
AcDbLine
 10
-64.65000000000023
 20
-34.17499997614812
 30
0.0
 11
-64.14999999999989
 21
-34.17499997614812
 31
0.0
  0
LINE
  5
B2
330
4E
100
AcDbEntity
  8
0
  6
Continuous
 62
     7
100
AcDbLine
 10
-58.89999999999942
 20
-34.17499997614812
 30
0.0
 11
-63.89999999999986
 21
-34.17499997614812
 31
0.0
  0
ENDBLK
  5
50
330
4E
100
AcDbEntity
  8
0
100
AcDbBlockEnd
  0
BLOCK
  5
53
330
51
100
AcDbEntity
  8
0
100
AcDbBlockBegin
  2
Drfsicht1
 70
     0
 10
-61.40000000000001
 20
-32.39999999999498
 30
0.0
  3
Drfsicht1
  1

  0
INSERT
  5
52
330
51
100
AcDbEntity
  8
0
100
AcDbBlockReference
  2
ZBFM_4_WH_UNBEDRUCKT-select__2
 10
-64.65000000000023
 20
-34.17499997614812
 30
0.0
  0
MTEXT
  5
B3
330
51
100
AcDbEntity
  8
1
 62
     6
100
AcDbMText
 10
-61.40000000000001
 20
-35.17499997615312
 30
0.0
 40
1.0
 41
0.0
 71
     2
 72
     1
  1
 
  7
CONVERTER_11
 73
     1
 44
1.32052821128451
  0
DIMENSION
  5
BE
330
51
100
AcDbEntity
  8
1
100
AcDbDimension
  2
*D17
 10
-66.51836597337221
 20
-30.62499997614813
 30
0.0
 11
-67.20336597337221
 21
-32.50479587095961
 31
0.0
 70
    32
  1
<>
 71
     5
 42
-1.0
 53
90.0
  3
ME10_DIM_10
100
AcDbAlignedDimension
 13
-63.89999999999986
 23
-34.17499997614812
 33
0.0
 14
-63.89999999999986
 24
-30.62499997614812
 34
0.0
 50
90.0
100
AcDbRotatedDimension
  0
ENDBLK
  5
54
330
51
100
AcDbEntity
  8
0
100
AcDbBlockEnd
  0
BLOCK
  5
56
330
55
100
AcDbEntity
  8
0
100
AcDbBlockBegin
  2
ZBFM_4_WH_UNBEDRUCKT-select__3
 70
     0
 10
-64.65000000000022
 20
-21.62500307559925
 30
0.0
  3
ZBFM_4_WH_UNBEDRUCKT-select__3
  1

  0
LINE
  5
BF
330
55
100
AcDbEntity
  8
0
  6
Continuous
 62
     7
100
AcDbLine
 10
-58.89999999999986
 20
-20.62500307559905
 30
0.0
 11
-58.64999999999986
 21
-20.62500307559923
 31
0.0
  0
LINE
  5
C0
330
55
100
AcDbEntity
  8
0
  6
Continuous
 62
     7
100
AcDbLine
 10
-59.34999999999985
 20
-20.62500307559871
 30
0.0
 11
-59.35000000000059
 21
-21.62500307559874
 31
0.0
  0
LINE
  5
C1
330
55
100
AcDbEntity
  8
0
  6
Continuous
 62
     7
100
AcDbLine
 10
-59.34999999999985
 20
-20.62500307559871
 30
0.0
 11
-63.44999999999985
 21
-20.62500307559569
 31
0.0
  0
LINE
  5
C2
330
55
100
AcDbEntity
  8
0
  6
Continuous
 62
     7
100
AcDbLine
 10
-63.44999999999985
 20
-20.62500307559569
 30
0.0
 11
-63.45000000000059
 21
-21.6250030755957
 31
0.0
  0
LINE
  5
C3
330
55
100
AcDbEntity
  8
0
  6
Continuous
 62
     7
100
AcDbLine
 10
-63.45000000000059
 20
-21.6250030755957
 30
0.0
 11
-64.15000000000059
 21
-21.62500307559519
 31
0.0
  0
LINE
  5
C4
330
55
100
AcDbEntity
  8
0
  6
Continuous
 62
     7
100
AcDbLine
 10
-58.8999999999994
 20
-20.02500307559905
 30
0.0
 11
-63.89999999999941
 21
-20.02500307559535
 31
0.0
  0
LINE
  5
C5
330
55
100
AcDbEntity
  8
0
  6
Continuous
 62
     7
100
AcDbLine
 10
-63.89999999999985
 20
-20.62500307559534
 30
0.0
 11
-64.14999999999988
 21
-20.62500307559519
 31
0.0
  0
LINE
  5
C6
330
55
100
AcDbEntity
  8
0
  6
Continuous
 62
     7
100
AcDbLine
 10
-63.89999999999941
 20
-20.02500307559535
 30
0.0
 11
-63.89999999999985
 21
-20.62500307559534
 31
0.0
  0
LINE
  5
C7
330
55
100
AcDbEntity
  8
0
  6
Continuous
 62
     7
100
AcDbLine
 10
-58.8999999999994
 20
-20.02500307559905
 30
0.0
 11
-58.89999999999986
 21
-20.62500307559905
 31
0.0
  0
LINE
  5
C8
330
55
100
AcDbEntity
  8
0
  6
Continuous
 62
     7
100
AcDbLine
 10
-59.35000000000059
 20
-21.62500307559874
 30
0.0
 11
-58.6500000000006
 21
-21.62500307559925
 31
0.0
  0
ARC
  5
C9
330
55
100
AcDbEntity
  8
0
  6
Continuous
 62
     7
100
AcDbCircle
 10
-58.65000000000023
 20
-21.12500307559923
 30
0.0
 40
0.5000000000000178
100
AcDbArc
 50
269.9999999999577
 51
89.99999999995684
  0
ARC
  5
CA
330
55
100
AcDbEntity
  8
0
  6
Continuous
 62
     7
100
AcDbCircle
 10
-64.15000000000022
 20
-21.12500307559519
 30
0.0
 40
0.5
100
AcDbArc
 50
89.99999999996092
 51
269.9999999999577
  0
ENDBLK
  5
57
330
55
100
AcDbEntity
  8
0
100
AcDbBlockEnd
  0
BLOCK
  5
5A
330
58
100
AcDbEntity
  8
0
100
AcDbBlockBegin
  2
Vordans1
 70
     0
 10
-61.4
 20
-20.82500078677885
 30
0.0
  3
Vordans1
  1

  0
INSERT
  5
59
330
58
100
AcDbEntity
  8
0
100
AcDbBlockReference
  2
ZBFM_4_WH_UNBEDRUCKT-select__3
 10
-64.65000000000022
 20
-21.62500307559925
 30
0.0
  0
MTEXT
  5
CB
330
58
100
AcDbEntity
  8
1
 62
     6
100
AcDbMText
 10
-61.40000000000001
 20
-22.62500002384181
 30
0.0
 40
1.0
 41
0.0
 71
     2
 72
     1
  1
 
  7
CONVERTER_11
 73
     1
 44
1.32052821128451
  0
DIMENSION
  5
D8
330
58
100
AcDbEntity
  8
1
100
AcDbDimension
  2
*D18
 10
-66.898951060355
 20
-20.02500307559534
 30
0.0
 11
-67.583951060355
 21
-21.1296828496404
 31
0.0
 70
    32
  1
<>
 71
     5
 42
-1.0
 53
90.0
  3
ME10_DIM_11
100
AcDbAlignedDimension
 13
-63.45000000000059
 23
-21.6250030755957
 33
0.0
 14
-63.89999999999941
 24
-20.02500307559535
 34
0.0
 50
90.0
100
AcDbRotatedDimension
  0
INSERT
  5
E2
330
58
100
AcDbEntity
  8
1
100
AcDbBlockReference
  2
*D19
 10
0.0
 20
0.0
 30
0.0
  0
ENDBLK
  5
5B
330
58
100
AcDbEntity
  8
0
100
AcDbBlockEnd
  0
BLOCK
  5
5D
330
5C
100
AcDbEntity
  8
0
100
AcDbBlockBegin
  2
ZBFM_4_WH_UNBEDRUCKT-select__4
 70
     0
 10
-74.59999995230689
 20
-21.62500307559924
 30
0.0
  3
ZBFM_4_WH_UNBEDRUCKT-select__4
  1

  0
LINE
  5
E3
330
5C
100
AcDbEntity
  8
0
  6
Continuous
 62
     7
100
AcDbLine
 10
-74.59999995230689
 20
-20.02500307559906
 30
0.0
 11
-71.04999995230688
 21
-20.02500307559906
 31
0.0
  0
LINE
  5
E4
330
5C
100
AcDbEntity
  8
0
  6
Continuous
 62
     7
100
AcDbLine
 10
-71.04999995230688
 20
-20.02500307559906
 30
0.0
 11
-71.04999995230688
 21
-20.62500307559924
 31
0.0
  0
LINE
  5
E5
330
5C
100
AcDbEntity
  8
0
  6
Continuous
 62
     7
100
AcDbLine
 10
-74.59999995230689
 20
-20.02500307559906
 30
0.0
 11
-74.59999995230689
 21
-20.62500307559924
 31
0.0
  0
LINE
  5
E6
330
5C
100
AcDbEntity
  8
0
  6
Continuous
 62
     7
100
AcDbLine
 10
-74.59999995230689
 20
-20.62500307559924
 30
0.0
 11
-71.04999995230688
 21
-20.62500307559924
 31
0.0
  0
LINE
  5
E7
330
5C
100
AcDbEntity
  8
0
  6
Continuous
 62
     7
100
AcDbLine
 10
-71.04999995230688
 20
-20.62500307559924
 30
0.0
 11
-71.04999995230688
 21
-21.62500307559924
 31
0.0
  0
LINE
  5
E8
330
5C
100
AcDbEntity
  8
0
  6
Continuous
 62
     7
100
AcDbLine
 10
-74.59999995230689
 20
-20.62500307559924
 30
0.0
 11
-74.59999995230689
 21
-21.62500307559924
 31
0.0
  0
LINE
  5
E9
330
5C
100
AcDbEntity
  8
0
  6
Continuous
 62
     7
100
AcDbLine
 10
-74.59999995230689
 20
-21.62500307559924
 30
0.0
 11
-71.04999995230688
 21
-21.62500307559924
 31
0.0
  0
ENDBLK
  5
5E
330
5C
100
AcDbEntity
  8
0
100
AcDbBlockEnd
  0
BLOCK
  5
61
330
5F
100
AcDbEntity
  8
0
100
AcDbBlockBegin
  2
SA_Rechts1
 70
     0
 10
-72.82499997615375
 20
-20.82500078677884
 30
0.0
  3
SA_Rechts1
  1

  0
INSERT
  5
60
330
5F
100
AcDbEntity
  8
0
100
AcDbBlockReference
  2
ZBFM_4_WH_UNBEDRUCKT-select__4
 10
-74.59999995230689
 20
-21.62500307559924
 30
0.0
  0
MTEXT
  5
EA
330
5F
100
AcDbEntity
  8
1
 62
     6
100
AcDbMText
 10
-72.82499997615375
 20
-22.62500002384184
 30
0.0
 40
1.0
 41
0.0
 71
     2
 72
     1
  1
 
  7
CONVERTER_11
 73
     1
 44
1.32052821128451
  0
ENDBLK
  5
62
330
5F
100
AcDbEntity
  8
0
100
AcDbBlockEnd
  0
BLOCK
  5
64
330
63
100
AcDbEntity
  8
0
100
AcDbBlockBegin
  2
ZBFM_4_WH_UNBEDRUCKT-select__5
 70
     0
 10
-46.60000004768231
 20
-21.62500307559925
 30
0.0
  3
ZBFM_4_WH_UNBEDRUCKT-select__5
  1

  0
LINE
  5
EB
330
63
100
AcDbEntity
  8
0
  6
Continuous
 62
     7
100
AcDbLine
 10
-45.40000004768267
 20
-20.62500307559871
 30
0.0
 11
-41.30000004768267
 21
-20.62500307559569
 31
0.0
  0
LINE
  5
EC
330
63
100
AcDbEntity
  8
0
  6
Continuous
 62
     7
100
AcDbLine
 10
-45.85000004768268
 20
-20.62500307559905
 30
0.0
 11
-46.10000004768268
 21
-20.62500307559923
 31
0.0
  0
LINE
  5
ED
330
63
100
AcDbEntity
  8
0
  6
Continuous
 62
     7
100
AcDbLine
 10
-45.85000004768312
 20
-20.02500307559905
 30
0.0
 11
-40.85000004768312
 21
-20.02500307559534
 31
0.0
  0
LINE
  5
EE
330
63
100
AcDbEntity
  8
0
  6
Continuous
 62
     7
100
AcDbLine
 10
-40.85000004768312
 20
-20.02500307559534
 30
0.0
 11
-40.85000004768268
 21
-20.62500307559534
 31
0.0
  0
LINE
  5
EF
330
63
100
AcDbEntity
  8
0
  6
Continuous
 62
     7
100
AcDbLine
 10
-40.85000004768268
 20
-20.62500307559534
 30
0.0
 11
-40.60000004768265
 21
-20.62500307559518
 31
0.0
  0
LINE
  5
F0
330
63
100
AcDbEntity
  8
0
  6
Continuous
 62
     7
100
AcDbLine
 10
-41.30000004768193
 20
-21.6250030755957
 30
0.0
 11
-40.60000004768194
 21
-21.62500307559518
 31
0.0
  0
LINE
  5
F1
330
63
100
AcDbEntity
  8
0
  6
Continuous
 62
     7
100
AcDbLine
 10
-41.30000004768267
 20
-20.62500307559569
 30
0.0
 11
-41.30000004768193
 21
-21.6250030755957
 31
0.0
  0
LINE
  5
F2
330
63
100
AcDbEntity
  8
0
  6
Continuous
 62
     7
100
AcDbLine
 10
-45.85000004768312
 20
-20.02500307559905
 30
0.0
 11
-45.85000004768268
 21
-20.62500307559905
 31
0.0
  0
LINE
  5
F3
330
63
100
AcDbEntity
  8
0
  6
Continuous
 62
     7
100
AcDbLine
 10
-45.40000004768267
 20
-20.62500307559871
 30
0.0
 11
-45.40000004768194
 21
-21.62500307559874
 31
0.0
  0
LINE
  5
F4
330
63
100
AcDbEntity
  8
0
  6
Continuous
 62
     7
100
AcDbLine
 10
-45.40000004768194
 20
-21.62500307559874
 30
0.0
 11
-46.10000004768194
 21
-21.62500307559925
 31
0.0
  0
ARC
  5
F5
330
63
100
AcDbEntity
  8
0
  6
Continuous
 62
     7
100
AcDbCircle
 10
-40.60000004768231
 20
-21.12500307559518
 30
0.0
 40
0.5
100
AcDbArc
 50
270.0000000000423
 51
90.0000000000391
  0
ARC
  5
F6
330
63
100
AcDbEntity
  8
0
  6
Continuous
 62
     7
100
AcDbCircle
 10
-46.10000004768231
 20
-21.12500307559923
 30
0.0
 40
0.5
100
AcDbArc
 50
90.00000000004235
 51
270.0000000000423
  0
ENDBLK
  5
65
330
63
100
AcDbEntity
  8
0
100
AcDbBlockEnd
  0
BLOCK
  5
68
330
66
100
AcDbEntity
  8
0
100
AcDbBlockBegin
  2
Rckans1
 70
     0
 10
-43.35000004768253
 20
-20.82500078677884
 30
0.0
  3
Rckans1
  1

  0
INSERT
  5
67
330
66
100
AcDbEntity
  8
0
100
AcDbBlockReference
  2
ZBFM_4_WH_UNBEDRUCKT-select__5
 10
-46.60000004768231
 20
-21.62500307559925
 30
0.0
  0
MTEXT
  5
F7
330
66
100
AcDbEntity
  8
1
 62
     6
100
AcDbMText
 10
-43.35000004768253
 20
-22.62500002384181
 30
0.0
 40
1.0
 41
0.0
 71
     2
 72
     1
  1
 
  7
CONVERTER_11
 73
     1
 44
1.32052821128451
  0
ENDBLK
  5
69
330
66
100
AcDbEntity
  8
0
100
AcDbBlockEnd
  0
BLOCK
  5
6B
330
6A
100
AcDbEntity
  8
0
100
AcDbBlockBegin
  2
ZBFM_4_WH_UNBEDRUCKT-select__6
 70
     0
 10
-54.1500000476931
 20
-21.62500307559874
 30
0.0
  3
ZBFM_4_WH_UNBEDRUCKT-select__6
  1

  0
LINE
  5
F8
330
6A
100
AcDbEntity
  8
0
  6
Continuous
 62
     7
100
AcDbLine
 10
-54.1500000476931
 20
-20.02500307559534
 30
0.0
 11
-54.1500000476931
 21
-20.62500307559871
 31
0.0
  0
LINE
  5
F9
330
6A
100
AcDbEntity
  8
0
  6
Continuous
 62
     7
100
AcDbLine
 10
-50.6000000476931
 20
-20.02500307559534
 30
0.0
 11
-54.1500000476931
 21
-20.02500307559534
 31
0.0
  0
LINE
  5
FA
330
6A
100
AcDbEntity
  8
0
  6
Continuous
 62
     7
100
AcDbLine
 10
-50.6000000476931
 20
-20.02500307559534
 30
0.0
 11
-50.6000000476931
 21
-20.62500307559871
 31
0.0
  0
LINE
  5
FB
330
6A
100
AcDbEntity
  8
0
  6
Continuous
 62
     7
100
AcDbLine
 10
-50.6000000476931
 20
-20.62500307559871
 30
0.0
 11
-54.1500000476931
 21
-20.62500307559871
 31
0.0
  0
LINE
  5
FC
330
6A
100
AcDbEntity
  8
0
  6
Continuous
 62
     7
100
AcDbLine
 10
-50.6000000476931
 20
-20.62500307559871
 30
0.0
 11
-50.6000000476931
 21
-21.62500307559874
 31
0.0
  0
LINE
  5
FD
330
6A
100
AcDbEntity
  8
0
  6
Continuous
 62
     7
100
AcDbLine
 10
-54.1500000476931
 20
-20.62500307559871
 30
0.0
 11
-54.1500000476931
 21
-21.62500307559874
 31
0.0
  0
LINE
  5
FE
330
6A
100
AcDbEntity
  8
0
  6
Continuous
 62
     7
100
AcDbLine
 10
-50.6000000476931
 20
-21.62500307559874
 30
0.0
 11
-54.1500000476931
 21
-21.62500307559874
 31
0.0
  0
ENDBLK
  5
6C
330
6A
100
AcDbEntity
  8
0
100
AcDbBlockEnd
  0
BLOCK
  5
6F
330
6D
100
AcDbEntity
  8
0
100
AcDbBlockBegin
  2
SA_Links1
 70
     0
 10
-52.37500002384624
 20
-20.82500078677885
 30
0.0
  3
SA_Links1
  1

  0
INSERT
  5
6E
330
6D
100
AcDbEntity
  8
0
100
AcDbBlockReference
  2
ZBFM_4_WH_UNBEDRUCKT-select__6
 10
-54.1500000476931
 20
-21.62500307559874
 30
0.0
  0
MTEXT
  5
FF
330
6D
100
AcDbEntity
  8
1
 62
     6
100
AcDbMText
 10
-52.37500002384627
 20
-22.62500002384181
 30
0.0
 40
1.0
 41
0.0
 71
     2
 72
     1
  1
 
  7
CONVERTER_11
 73
     1
 44
1.32052821128451
  0
ENDBLK
  5
70
330
6D
100
AcDbEntity
  8
0
100
AcDbBlockEnd
  0
BLOCK
  5
72
330
71
100
AcDbEntity
  8
0
100
AcDbBlockBegin
  2
_rahmen
 70
     0
 10
-135.807286201778
 20
-262.4212475468211
 30
0.0
  3
_rahmen
  1

  0
LINE
  5
100
330
71
100
AcDbEntity
  8
1
  6
Continuous
 62
     6
100
AcDbLine
 10
-265.352090728528
 20
-231.921247546821
 30
0.0
 11
-135.8072862017763
 21
-231.921247546821
 31
0.0
  0
LINE
  5
101
330
71
100
AcDbEntity
  8
1
  6
Continuous
 62
     7
100
AcDbLine
 10
-247.152090728528
 20
-253.171247546821
 30
0.0
 11
-228.9520907285281
 21
-253.171247546821
 31
0.0
  0
LINE
  5
102
330
71
100
AcDbEntity
  8
1
  6
Continuous
 62
     6
100
AcDbLine
 10
-247.152090728528
 20
-257.421247546821
 30
0.0
 11
-265.352090728528
 21
-257.4212475468211
 31
0.0
  0
LINE
  5
103
330
71
100
AcDbEntity
  8
1
  6
Continuous
 62
     7
100
AcDbLine
 10
-247.152090728528
 20
-253.171247546821
 30
0.0
 11
-247.152090728528
 21
-257.421247546821
 31
0.0
  0
LINE
  5
104
330
71
100
AcDbEntity
  8
1
  6
Continuous
 62
     7
100
AcDbLine
 10
-228.9520907285281
 20
-253.171247546821
 30
0.0
 11
-228.9520907285281
 21
-257.4212475468211
 31
0.0
  0
LINE
  5
105
330
71
100
AcDbEntity
  8
1
  6
Continuous
 62
     7
100
AcDbLine
 10
-265.352090728528
 20
-253.1712475468211
 30
0.0
 11
-265.352090728528
 21
-257.4212475468211
 31
0.0
  0
LINE
  5
106
330
71
100
AcDbEntity
  8
1
  6
Continuous
 62
     7
100
AcDbLine
 10
-265.352090728528
 20
-253.1712475468211
 30
0.0
 11
-247.152090728528
 21
-253.171247546821
 31
0.0
  0
LINE
  5
107
330
71
100
AcDbEntity
  8
1
  6
Continuous
 62
     2
100
AcDbLine
 10
-256.1154358419654
 20
-233.7962475468211
 30
0.0
 11
-256.1154358419654
 21
-238.7962475468211
 31
0.0
  0
LINE
  5
108
330
71
100
AcDbEntity
  8
1
  6
Continuous
 62
     2
100
AcDbLine
 10
-256.1154358419654
 20
-238.7962475468211
 30
0.0
 11
-261.1154358419654
 21
-237.5462475468211
 31
0.0
  0
LINE
  5
109
330
71
100
AcDbEntity
  8
1
  6
Continuous
 62
     2
100
AcDbLine
 10
-261.1154358419654
 20
-237.5462475468211
 30
0.0
 11
-261.1154358419654
 21
-235.0462475468211
 31
0.0
  0
LINE
  5
10A
330
71
100
AcDbEntity
  8
1
  6
Continuous
 62
     2
100
AcDbLine
 10
-261.1154358419654
 20
-235.0462475468211
 30
0.0
 11
-256.1154358419654
 21
-233.7962475468211
 31
0.0
  0
LINE
  5
10B
330
71
100
AcDbEntity
  8
1
  6
Continuous
 62
     6
100
AcDbLine
 10
-387.8072862017762
 20
-257.421247546821
 30
0.0
 11
-422.8072862017761
 21
-257.421247546821
 31
0.0
  0
LINE
  5
10C
330
71
100
AcDbEntity
  8
1
  6
Continuous
 62
     6
100
AcDbLine
 10
-135.8072862017763
 20
-240.421247546821
 30
0.0
 11
-135.8072862017767
 21
-248.921247546821
 31
0.0
  0
LINE
  5
10D
330
71
100
AcDbEntity
  8
1
  6
Continuous
 62
     6
100
AcDbLine
 10
-228.9520907285281
 20
-257.4212475468211
 30
0.0
 11
-229.307286201778
 21
-257.421247546821
 31
0.0
  0
LINE
  5
10E
330
71
100
AcDbEntity
  8
1
  6
Continuous
 62
     6
100
AcDbLine
 10
-381.6072862017782
 20
-257.4212475468211
 30
0.0
 11
-387.8072862017762
 21
-257.421247546821
 31
0.0
  0
LINE
  5
10F
330
71
100
AcDbEntity
  8
1
  6
Continuous
 62
     7
100
AcDbLine
 10
-228.9520907285281
 20
-240.421247546821
 30
0.0
 11
-228.9520907285281
 21
-253.171247546821
 31
0.0
  0
LINE
  5
110
330
71
100
AcDbEntity
  8
1
  6
Continuous
 62
     7
100
AcDbLine
 10
-265.352090728528
 20
-240.421247546821
 30
0.0
 11
-265.352090728528
 21
-253.1712475468211
 31
0.0
  0
LINE
  5
111
330
71
100
AcDbEntity
  8
1
  6
Continuous
 62
     6
100
AcDbLine
 10
-279.307286201778
 20
-257.421247546821
 30
0.0
 11
-329.3072862017782
 21
-257.421247546821
 31
0.0
  0
LINE
  5
112
330
71
100
AcDbEntity
  8
1
  6
Continuous
 62
     6
100
AcDbLine
 10
-381.6072862017782
 20
-257.4212475468211
 30
0.0
 11
-379.307286201778
 21
-257.421247546821
 31
0.0
  0
LINE
  5
113
330
71
100
AcDbEntity
  8
1
  6
Continuous
 62
     6
100
AcDbLine
 10
-228.9520907285281
 20
-257.4212475468211
 30
0.0
 11
-179.307286201778
 21
-257.421247546821
 31
0.0
  0
LINE
  5
114
330
71
100
AcDbEntity
  8
1
  6
Continuous
 62
     6
100
AcDbLine
 10
-135.807286201778
 20
-257.421247546821
 30
0.0
 11
-135.8072862017767
 21
-248.921247546821
 31
0.0
  0
LINE
  5
115
330
71
100
AcDbEntity
  8
1
  6
Continuous
 62
     2
100
AcDbLine
 10
-427.8072862017771
 20
-257.421247546821
 30
0.0
 11
-427.8072862017771
 21
-262.4212475468211
 31
0.0
  0
LINE
  5
116
330
71
100
AcDbEntity
  8
1
  6
Continuous
 62
     2
100
AcDbLine
 10
-422.8072862017761
 20
-257.421247546821
 30
0.0
 11
-427.8072862017771
 21
-257.421247546821
 31
0.0
  0
LINE
  5
117
330
71
100
AcDbEntity
  8
1
  6
Continuous
 62
     2
100
AcDbLine
 10
-422.8072862017761
 20
-262.4212475468211
 30
0.0
 11
-379.307286201778
 21
-262.4212475468211
 31
0.0
  0
LINE
  5
118
330
71
100
AcDbEntity
  8
1
  6
Continuous
 62
     2
100
AcDbLine
 10
-422.8072862017761
 20
-257.421247546821
 30
0.0
 11
-422.8072862017761
 21
-262.4212475468211
 31
0.0
  0
LINE
  5
119
330
71
100
AcDbEntity
  8
1
  6
Continuous
 62
     2
100
AcDbLine
 10
-179.307286201778
 20
-262.4212475468211
 30
0.0
 11
-229.307286201778
 21
-262.4212475468211
 31
0.0
  0
LINE
  5
11A
330
71
100
AcDbEntity
  8
1
  6
Continuous
 62
     2
100
AcDbLine
 10
-179.307286201778
 20
-262.4212475468211
 30
0.0
 11
-179.307286201778
 21
-257.421247546821
 31
0.0
  0
LINE
  5
11B
330
71
100
AcDbEntity
  8
1
  6
Continuous
 62
     2
100
AcDbLine
 10
-229.307286201778
 20
-262.4212475468211
 30
0.0
 11
-229.307286201778
 21
-257.421247546821
 31
0.0
  0
LINE
  5
11C
330
71
100
AcDbEntity
  8
1
  6
Continuous
 62
     2
100
AcDbLine
 10
-279.307286201778
 20
-262.4212475468211
 30
0.0
 11
-229.307286201778
 21
-262.4212475468211
 31
0.0
  0
LINE
  5
11D
330
71
100
AcDbEntity
  8
1
  6
Continuous
 62
     2
100
AcDbLine
 10
-279.307286201778
 20
-262.4212475468211
 30
0.0
 11
-279.307286201778
 21
-257.421247546821
 31
0.0
  0
LINE
  5
11E
330
71
100
AcDbEntity
  8
1
  6
Continuous
 62
     2
100
AcDbLine
 10
-329.3072862017782
 20
-262.4212475468211
 30
0.0
 11
-279.307286201778
 21
-262.4212475468211
 31
0.0
  0
LINE
  5
11F
330
71
100
AcDbEntity
  8
1
  6
Continuous
 62
     2
100
AcDbLine
 10
-329.3072862017782
 20
-262.4212475468211
 30
0.0
 11
-329.3072862017782
 21
-257.421247546821
 31
0.0
  0
LINE
  5
120
330
71
100
AcDbEntity
  8
1
  6
Continuous
 62
     2
100
AcDbLine
 10
-379.307286201778
 20
-262.4212475468211
 30
0.0
 11
-329.3072862017782
 21
-262.4212475468211
 31
0.0
  0
LINE
  5
121
330
71
100
AcDbEntity
  8
1
  6
Continuous
 62
     2
100
AcDbLine
 10
-379.307286201778
 20
-262.4212475468211
 30
0.0
 11
-379.307286201778
 21
-257.421247546821
 31
0.0
  0
LINE
  5
122
330
71
100
AcDbEntity
  8
1
  6
Continuous
 62
     6
100
AcDbLine
 10
-422.8072862017763
 20
-207.4212475468209
 30
0.0
 11
-422.8072862017761
 21
-257.421247546821
 31
0.0
  0
LINE
  5
123
330
71
100
AcDbEntity
  8
1
  6
Continuous
 62
     2
100
AcDbLine
 10
-427.8072862017771
 20
-207.4212475468209
 30
0.0
 11
-427.8072862017771
 21
-257.421247546821
 31
0.0
  0
LINE
  5
124
330
71
100
AcDbEntity
  8
1
  6
Continuous
 62
     2
100
AcDbLine
 10
-427.8072862017771
 20
-207.4212475468209
 30
0.0
 11
-422.8072862017763
 21
-207.4212475468209
 31
0.0
  0
LINE
  5
125
330
71
100
AcDbEntity
  8
1
  6
Continuous
 62
     6
100
AcDbLine
 10
-422.8072862017765
 20
-157.4212475468211
 30
0.0
 11
-422.8072862017763
 21
-207.4212475468209
 31
0.0
  0
LINE
  5
126
330
71
100
AcDbEntity
  8
1
  6
Continuous
 62
     2
100
AcDbLine
 10
-427.8072862017771
 20
-157.4212475468211
 30
0.0
 11
-427.8072862017771
 21
-207.4212475468209
 31
0.0
  0
LINE
  5
127
330
71
100
AcDbEntity
  8
1
  6
Continuous
 62
     2
100
AcDbLine
 10
-427.8072862017771
 20
-157.4212475468211
 30
0.0
 11
-422.8072862017765
 21
-157.4212475468211
 31
0.0
  0
LINE
  5
128
330
71
100
AcDbEntity
  8
1
  6
Continuous
 62
     6
100
AcDbLine
 10
-422.807286201777
 20
-107.421247546821
 30
0.0
 11
-422.8072862017765
 21
-157.4212475468211
 31
0.0
  0
LINE
  5
129
330
71
100
AcDbEntity
  8
1
  6
Continuous
 62
     2
100
AcDbLine
 10
-427.8072862017771
 20
-107.421247546821
 30
0.0
 11
-427.8072862017771
 21
-157.4212475468211
 31
0.0
  0
LINE
  5
12A
330
71
100
AcDbEntity
  8
1
  6
Continuous
 62
     2
100
AcDbLine
 10
-427.8072862017771
 20
-107.421247546821
 30
0.0
 11
-422.807286201777
 21
-107.421247546821
 31
0.0
  0
LINE
  5
12B
330
71
100
AcDbEntity
  8
1
  6
Continuous
 62
     6
100
AcDbLine
 10
-422.8072862017771
 20
-72.42124754682098
 30
0.0
 11
-422.807286201777
 21
-107.421247546821
 31
0.0
  0
LINE
  5
12C
330
71
100
AcDbEntity
  8
1
  6
Continuous
 62
     2
100
AcDbLine
 10
-427.8072862017771
 20
-52.42124754682098
 30
0.0
 11
-427.8072862017771
 21
-107.421247546821
 31
0.0
  0
LINE
  5
12D
330
71
100
AcDbEntity
  8
1
  6
Continuous
 62
     2
100
AcDbLine
 10
-427.8072862017771
 20
-262.4212475468211
 30
0.0
 11
-422.8072862017761
 21
-262.4212475468211
 31
0.0
  0
LINE
  5
12E
330
71
100
AcDbEntity
  8
1
  6
Continuous
 62
     2
100
AcDbLine
 10
-279.307286201778
 20
-52.42124754682098
 30
0.0
 11
-279.307286201778
 21
-61.6299393915223
 31
0.0
  0
LINE
  5
12F
330
71
100
AcDbEntity
  8
1
  6
Continuous
 62
     2
100
AcDbLine
 10
-279.307286201778
 20
-52.42124754682098
 30
0.0
 11
-427.8072862017771
 21
-52.42124754682098
 31
0.0
  0
LINE
  5
130
330
71
100
AcDbEntity
  8
1
  6
Continuous
 62
     2
100
AcDbLine
 10
-130.807286201779
 20
-257.421247546821
 30
0.0
 11
-130.807286201779
 21
-207.4212475468209
 31
0.0
  0
LINE
  5
131
330
71
100
AcDbEntity
  8
1
  6
Continuous
 62
     2
100
AcDbLine
 10
-130.807286201779
 20
-107.421247546821
 30
0.0
 11
-130.807286201779
 21
-52.42124754682098
 31
0.0
  0
LINE
  5
132
330
71
100
AcDbEntity
  8
1
  6
Continuous
 62
     6
100
AcDbLine
 10
-135.8072862017788
 20
-107.421247546821
 30
0.0
 11
-135.807286201779
 21
-72.42124754682098
 31
0.0
  0
LINE
  5
133
330
71
100
AcDbEntity
  8
1
  6
Continuous
 62
     2
100
AcDbLine
 10
-135.8072862017788
 20
-107.421247546821
 30
0.0
 11
-130.807286201779
 21
-107.421247546821
 31
0.0
  0
LINE
  5
134
330
71
100
AcDbEntity
  8
1
  6
Continuous
 62
     2
100
AcDbLine
 10
-130.807286201779
 20
-157.4212475468211
 30
0.0
 11
-130.807286201779
 21
-107.421247546821
 31
0.0
  0
LINE
  5
135
330
71
100
AcDbEntity
  8
1
  6
Continuous
 62
     6
100
AcDbLine
 10
-135.8072862017776
 20
-157.4212475468211
 30
0.0
 11
-135.8072862017788
 21
-107.421247546821
 31
0.0
  0
LINE
  5
136
330
71
100
AcDbEntity
  8
1
  6
Continuous
 62
     2
100
AcDbLine
 10
-135.8072862017776
 20
-157.4212475468211
 30
0.0
 11
-130.807286201779
 21
-157.4212475468211
 31
0.0
  0
LINE
  5
137
330
71
100
AcDbEntity
  8
1
  6
Continuous
 62
     2
100
AcDbLine
 10
-130.807286201779
 20
-207.4212475468209
 30
0.0
 11
-130.807286201779
 21
-157.4212475468211
 31
0.0
  0
LINE
  5
138
330
71
100
AcDbEntity
  8
1
  6
Continuous
 62
     6
100
AcDbLine
 10
-135.8072862017771
 20
-207.4212475468209
 30
0.0
 11
-135.8072862017776
 21
-157.4212475468211
 31
0.0
  0
LINE
  5
139
330
71
100
AcDbEntity
  8
1
  6
Continuous
 62
     2
100
AcDbLine
 10
-135.8072862017771
 20
-207.4212475468209
 30
0.0
 11
-130.807286201779
 21
-207.4212475468209
 31
0.0
  0
LINE
  5
13A
330
71
100
AcDbEntity
  8
1
  6
Continuous
 62
     6
100
AcDbLine
 10
-135.807286201779
 20
-72.42124754682098
 30
0.0
 11
-422.8072862017771
 21
-72.42124754682098
 31
0.0
  0
LINE
  5
13B
330
71
100
AcDbEntity
  8
1
  6
Continuous
 62
     2
100
AcDbLine
 10
-130.807286201779
 20
-52.42124754682098
 30
0.0
 11
-279.307286201778
 21
-52.42124754682098
 31
0.0
  0
LINE
  5
13C
330
71
100
AcDbEntity
  8
1
  6
Continuous
 62
     6
100
AcDbLine
 10
-135.8072862017763
 20
-240.421247546821
 30
0.0
 11
-135.8072862017771
 21
-207.4212475468209
 31
0.0
  0
LINE
  5
13D
330
71
100
AcDbEntity
  8
1
  6
Continuous
 62
     2
100
AcDbLine
 10
-135.807286201778
 20
-262.4212475468211
 30
0.0
 11
-179.307286201778
 21
-262.4212475468211
 31
0.0
  0
LINE
  5
13E
330
71
100
AcDbEntity
  8
1
  6
Continuous
 62
     2
100
AcDbLine
 10
-130.807286201779
 20
-262.4212475468211
 30
0.0
 11
-135.807286201778
 21
-262.4212475468211
 31
0.0
  0
LINE
  5
13F
330
71
100
AcDbEntity
  8
1
  6
Continuous
 62
     2
100
AcDbLine
 10
-130.807286201779
 20
-262.4212475468211
 30
0.0
 11
-130.807286201779
 21
-257.421247546821
 31
0.0
  0
LINE
  5
140
330
71
100
AcDbEntity
  8
1
  6
Continuous
 62
     6
100
AcDbLine
 10
-265.352090728528
 20
-240.421247546821
 30
0.0
 11
-228.9520907285281
 21
-240.421247546821
 31
0.0
  0
LINE
  5
141
330
71
100
AcDbEntity
  8
1
  6
Continuous
 62
     2
100
AcDbLine
 10
-135.807286201778
 20
-257.421247546821
 30
0.0
 11
-135.807286201778
 21
-262.4212475468211
 31
0.0
  0
LINE
  5
142
330
71
100
AcDbEntity
  8
1
  6
Continuous
 62
     2
100
AcDbLine
 10
-135.807286201778
 20
-257.421247546821
 30
0.0
 11
-130.807286201779
 21
-257.421247546821
 31
0.0
  0
LINE
  5
143
330
71
100
AcDbEntity
  8
1
  6
Continuous
 62
     6
100
AcDbLine
 10
-229.307286201778
 20
-257.421247546821
 30
0.0
 11
-247.152090728528
 21
-257.421247546821
 31
0.0
  0
LINE
  5
144
330
71
100
AcDbEntity
  8
1
  6
Continuous
 62
     6
100
AcDbLine
 10
-179.307286201778
 20
-257.421247546821
 30
0.0
 11
-135.807286201778
 21
-257.421247546821
 31
0.0
  0
LINE
  5
145
330
71
100
AcDbEntity
  8
1
  6
Continuous
 62
     6
100
AcDbLine
 10
-329.3072862017782
 20
-257.421247546821
 30
0.0
 11
-334.352090728528
 21
-257.421247546821
 31
0.0
  0
LINE
  5
146
330
71
100
AcDbEntity
  8
1
  6
Continuous
 62
     6
100
AcDbLine
 10
-279.307286201778
 20
-257.421247546821
 30
0.0
 11
-265.352090728528
 21
-257.4212475468211
 31
0.0
  0
LINE
  5
147
102
{ACAD_REACTORS
330
231
330
232
102
}
330
71
100
AcDbEntity
  8
0
  6
Continuous
 62
     2
100
AcDbLine
 10
-257.8374647863812
 20
-245.3487327906089
 30
0.0
 11
-257.8374647863812
 21
-244.7431975021021
 31
0.0
  0
LINE
  5
148
102
{ACAD_REACTORS
330
231
330
232
102
}
330
71
100
AcDbEntity
  8
0
  6
Continuous
 62
     2
100
AcDbLine
 10
-257.8374647863812
 20
-248.1488673972402
 30
0.0
 11
-257.8374647863812
 21
-247.5670159905451
 31
0.0
  0
LINE
  5
149
102
{ACAD_REACTORS
330
233
330
234
102
}
330
71
100
AcDbEntity
  8
0
  6
Continuous
 62
     2
100
AcDbLine
 10
-235.207978350902
 20
-247.8592033291172
 30
0.0
 11
-235.207978350902
 21
-250.1277475468047
 31
0.0
  0
LINE
  5
14A
102
{ACAD_REACTORS
330
233
330
234
102
}
330
71
100
AcDbEntity
  8
0
  6
Continuous
 62
     2
100
AcDbLine
 10
-236.5890321298896
 20
-247.0739380229941
 30
0.0
 11
-233.2040866112609
 21
-247.0739380229936
 31
0.0
  0
LINE
  5
14B
102
{ACAD_REACTORS
330
233
330
234
102
}
330
71
100
AcDbEntity
  8
0
  6
Continuous
 62
     2
100
AcDbLine
 10
-233.2040866112609
 20
-247.8592033291172
 30
0.0
 11
-233.2040866112609
 21
-247.0739380229936
 31
0.0
  0
LINE
  5
14C
102
{ACAD_REACTORS
330
233
330
234
102
}
330
71
100
AcDbEntity
  8
0
  6
Continuous
 62
     2
100
AcDbLine
 10
-234.0151856487343
 20
-247.8592033291172
 30
0.0
 11
-233.2040866112609
 21
-247.8592033291172
 31
0.0
  0
LINE
  5
14D
102
{ACAD_REACTORS
330
233
330
234
102
}
330
71
100
AcDbEntity
  8
0
  6
Continuous
 62
     2
100
AcDbLine
 10
-234.0151856487343
 20
-250.1277475468047
 30
0.0
 11
-234.0151856487343
 21
-247.8592033291172
 31
0.0
  0
LINE
  5
14E
102
{ACAD_REACTORS
330
233
330
234
102
}
330
71
100
AcDbEntity
  8
0
  6
Continuous
 62
     2
100
AcDbLine
 10
-235.207978350902
 20
-250.1277475468047
 30
0.0
 11
-234.0151856487343
 21
-250.1277475468047
 31
0.0
  0
LINE
  5
14F
102
{ACAD_REACTORS
330
229
330
22A
102
}
330
71
100
AcDbEntity
  8
0
  6
Continuous
 62
     2
100
AcDbLine
 10
-235.9045692889665
 20
-243.7147475468192
 30
0.0
 11
-237.3072935067158
 21
-243.7147475468192
 31
0.0
  0
LINE
  5
150
102
{ACAD_REACTORS
330
229
330
22A
102
}
330
71
100
AcDbEntity
  8
0
  6
Continuous
 62
     2
100
AcDbLine
 10
-235.9045692889665
 20
-243.7147475468192
 30
0.0
 11
-235.3034017670747
 21
-244.3945708683747
 31
0.0
  0
LINE
  5
151
102
{ACAD_REACTORS
330
229
330
22A
102
}
330
71
100
AcDbEntity
  8
0
  6
Continuous
 62
     2
100
AcDbLine
 10
-235.3034017670747
 20
-244.3945708683747
 30
0.0
 11
-234.7022342451819
 21
-243.7147475468192
 31
0.0
  0
LINE
  5
152
102
{ACAD_REACTORS
330
229
330
22A
102
}
330
71
100
AcDbEntity
  8
0
  6
Continuous
 62
     2
100
AcDbLine
 10
-234.6020396582012
 20
-245.1876980768554
 30
0.0
 11
-233.2995100274347
 21
-243.7147475468192
 31
0.0
  0
LINE
  5
153
102
{ACAD_REACTORS
330
229
330
22A
102
}
330
71
100
AcDbEntity
  8
0
  6
Continuous
 62
     2
100
AcDbLine
 10
-234.6020396582012
 20
-245.1876980768554
 30
0.0
 11
-233.2040866112609
 21
-246.7685570706304
 31
0.0
  0
LINE
  5
154
102
{ACAD_REACTORS
330
229
330
22A
102
}
330
71
100
AcDbEntity
  8
0
  6
Continuous
 62
     2
100
AcDbLine
 10
-234.6068108290092
 20
-246.7685570706304
 30
0.0
 11
-233.2040866112609
 21
-246.7685570706304
 31
0.0
  0
LINE
  5
155
102
{ACAD_REACTORS
330
229
330
22A
102
}
330
71
100
AcDbEntity
  8
0
  6
Continuous
 62
     2
100
AcDbLine
 10
-235.3034017670747
 20
-245.9808252853367
 30
0.0
 11
-234.6068108290092
 21
-246.7685570706304
 31
0.0
  0
LINE
  5
156
102
{ACAD_REACTORS
330
227
330
228
102
}
330
71
100
AcDbEntity
  8
0
  6
Continuous
 62
     2
100
AcDbLine
 10
-238.7625006033584
 20
-243.7147475468192
 30
0.0
 11
-237.5219961931055
 21
-243.7147475468192
 31
0.0
  0
LINE
  5
157
102
{ACAD_REACTORS
330
227
330
228
102
}
330
71
100
AcDbEntity
  8
0
  6
Continuous
 62
     2
100
AcDbLine
 10
-237.5219961931055
 20
-243.7147475468192
 30
0.0
 11
-237.5219961931055
 21
-246.7685570706304
 31
0.0
  0
LINE
  5
158
102
{ACAD_REACTORS
330
227
330
228
102
}
330
71
100
AcDbEntity
  8
0
  6
Continuous
 62
     2
100
AcDbLine
 10
-238.7625006033584
 20
-246.7685570706304
 30
0.0
 11
-238.7625006033584
 21
-243.7147475468192
 31
0.0
  0
LINE
  5
159
102
{ACAD_REACTORS
330
225
330
226
102
}
330
71
100
AcDbEntity
  8
0
  6
Continuous
 62
     2
100
AcDbLine
 10
-240.230810685896
 20
-248.9062237372802
 30
0.0
 11
-239.9306454487036
 21
-248.1384087712935
 31
0.0
  0
LINE
  5
15A
102
{ACAD_REACTORS
330
225
330
226
102
}
330
71
100
AcDbEntity
  8
0
  6
Continuous
 62
     2
100
AcDbLine
 10
-240.7083462905168
 20
-250.1277475468047
 30
0.0
 11
-240.496866237041
 21
-249.5867870025868
 31
0.0
  0
LINE
  5
15B
102
{ACAD_REACTORS
330
225
330
226
102
}
330
71
100
AcDbEntity
  8
0
  6
Continuous
 62
     2
100
AcDbLine
 10
-240.5508976538305
 20
-247.0739380229936
 30
0.0
 11
-241.9488507007698
 21
-250.1277475468047
 31
0.0
  0
LINE
  5
15C
102
{ACAD_REACTORS
330
225
330
226
102
}
330
71
100
AcDbEntity
  8
0
  6
Continuous
 62
     2
100
AcDbLine
 10
-237.9124401966375
 20
-250.1277475468047
 30
0.0
 11
-239.1529446068914
 21
-250.1277475468047
 31
0.0
  0
LINE
  5
15D
102
{ACAD_REACTORS
330
225
330
226
102
}
330
71
100
AcDbEntity
  8
0
  6
Continuous
 62
     2
100
AcDbLine
 10
-240.496866237041
 20
-249.5867870025868
 30
0.0
 11
-239.3644246603672
 21
-249.5867870025868
 31
0.0
  0
LINE
  5
15E
102
{ACAD_REACTORS
330
223
330
224
102
}
330
71
100
AcDbEntity
  8
0
  6
Continuous
 62
     2
100
AcDbLine
 10
-244.106362839952
 20
-247.8592033291172
 30
0.0
 11
-243.2952638024774
 21
-247.8592033291172
 31
0.0
  0
LINE
  5
15F
102
{ACAD_REACTORS
330
223
330
224
102
}
330
71
100
AcDbEntity
  8
0
  6
Continuous
 62
     2
100
AcDbLine
 10
-241.2913720628384
 20
-247.0739380229936
 30
0.0
 11
-244.106362839952
 21
-247.0739380229936
 31
0.0
  0
LINE
  5
160
102
{ACAD_REACTORS
330
223
330
224
102
}
330
71
100
AcDbEntity
  8
0
  6
Continuous
 62
     2
100
AcDbLine
 10
-241.2913720628384
 20
-247.8592033291172
 30
0.0
 11
-241.2913720628384
 21
-247.0739380229936
 31
0.0
  0
LINE
  5
161
102
{ACAD_REACTORS
330
223
330
224
102
}
330
71
100
AcDbEntity
  8
0
  6
Continuous
 62
     2
100
AcDbLine
 10
-242.1024711003109
 20
-247.8592033291172
 30
0.0
 11
-241.2913720628384
 21
-247.8592033291172
 31
0.0
  0
LINE
  5
162
102
{ACAD_REACTORS
330
223
330
224
102
}
330
71
100
AcDbEntity
  8
0
  6
Continuous
 62
     2
100
AcDbLine
 10
-242.1024711003109
 20
-250.1277475468047
 30
0.0
 11
-242.1024711003109
 21
-247.8592033291172
 31
0.0
  0
LINE
  5
163
102
{ACAD_REACTORS
330
221
330
222
102
}
330
71
100
AcDbEntity
  8
0
  6
Continuous
 62
     2
100
AcDbLine
 10
-241.4343562562129
 20
-246.7685570706304
 30
0.0
 11
-241.4343562562129
 21
-245.4597815604257
 31
0.0
  0
LINE
  5
164
102
{ACAD_REACTORS
330
221
330
222
102
}
330
71
100
AcDbEntity
  8
0
  6
Continuous
 62
     2
100
AcDbLine
 10
-242.6271489583794
 20
-243.7147475468192
 30
0.0
 11
-242.6271489583794
 21
-246.7685570706304
 31
0.0
  0
LINE
  5
165
102
{ACAD_REACTORS
330
221
330
222
102
}
330
71
100
AcDbEntity
  8
0
  6
Continuous
 62
     2
100
AcDbLine
 10
-241.4343562562129
 20
-243.7147475468192
 30
0.0
 11
-242.6271489583794
 21
-243.7147475468192
 31
0.0
  0
LINE
  5
166
102
{ACAD_REACTORS
330
221
330
222
102
}
330
71
100
AcDbEntity
  8
0
  6
Continuous
 62
     2
100
AcDbLine
 10
-240.1938518459589
 20
-243.7147475468192
 30
0.0
 11
-240.1938518459589
 21
-245.0235230570244
 31
0.0
  0
LINE
  5
167
102
{ACAD_REACTORS
330
21F
330
220
102
}
330
71
100
AcDbEntity
  8
0
  6
Continuous
 62
     2
100
AcDbLine
 10
-247.8755877787991
 20
-247.0739380229936
 30
0.0
 11
-247.8755877787991
 21
-250.1277475468047
 31
0.0
  0
LINE
  5
168
102
{ACAD_REACTORS
330
21F
330
220
102
}
330
71
100
AcDbEntity
  8
0
  6
Continuous
 62
     2
100
AcDbLine
 10
-246.6827950766315
 20
-247.0739380229936
 30
0.0
 11
-247.8755877787991
 21
-247.0739380229936
 31
0.0
  0
LINE
  5
169
102
{ACAD_REACTORS
330
21F
330
220
102
}
330
71
100
AcDbEntity
  8
0
  6
Continuous
 62
     2
100
AcDbLine
 10
-245.4422906663786
 20
-250.1277475468047
 30
0.0
 11
-244.2494979642122
 21
-250.1277475468047
 31
0.0
  0
LINE
  5
16A
102
{ACAD_REACTORS
330
21F
330
220
102
}
330
71
100
AcDbEntity
  8
0
  6
Continuous
 62
     2
100
AcDbLine
 10
-247.8755877787991
 20
-250.1277475468047
 30
0.0
 11
-246.6827950766315
 21
-250.1277475468047
 31
0.0
  0
LINE
  5
16B
102
{ACAD_REACTORS
330
22F
330
230
102
}
330
71
100
AcDbEntity
  8
0
  6
Continuous
 62
     2
100
AcDbLine
 10
-244.20163532524
 20
-244.8926455060039
 30
0.0
 11
-244.20163532524
 21
-244.4127611522622
 31
0.0
  0
LINE
  5
16C
102
{ACAD_REACTORS
330
22F
330
230
102
}
330
71
100
AcDbEntity
  8
0
  6
Continuous
 62
     2
100
AcDbLine
 10
-242.8657074988123
 20
-244.8926455060039
 30
0.0
 11
-244.20163532524
 21
-244.8926455060039
 31
0.0
  0
LINE
  5
16D
102
{ACAD_REACTORS
330
22F
330
230
102
}
330
71
100
AcDbEntity
  8
0
  6
Continuous
 62
     2
100
AcDbLine
 10
-242.8657074988123
 20
-245.5906591114462
 30
0.0
 11
-242.8657074988123
 21
-244.8926455060039
 31
0.0
  0
LINE
  5
16E
102
{ACAD_REACTORS
330
22F
330
230
102
}
330
71
100
AcDbEntity
  8
0
  6
Continuous
 62
     2
100
AcDbLine
 10
-244.20163532524
 20
-245.5906591114462
 30
0.0
 11
-242.8657074988123
 21
-245.5906591114462
 31
0.0
  0
LINE
  5
16F
102
{ACAD_REACTORS
330
21D
330
21E
102
}
330
71
100
AcDbEntity
  8
0
  6
Continuous
 62
     2
100
AcDbLine
 10
-247.6845900155669
 20
-243.7147475468192
 30
0.0
 11
-247.6845900155669
 21
-246.7685570706304
 31
0.0
  0
LINE
  5
170
102
{ACAD_REACTORS
330
21D
330
21E
102
}
330
71
100
AcDbEntity
  8
0
  6
Continuous
 62
     2
100
AcDbLine
 10
-247.6845900155669
 20
-246.7685570706304
 30
0.0
 11
-248.8773827177333
 21
-246.7685570706304
 31
0.0
  0
LINE
  5
171
102
{ACAD_REACTORS
330
21D
330
21E
102
}
330
71
100
AcDbEntity
  8
0
  6
Continuous
 62
     2
100
AcDbLine
 10
-248.8773827177333
 20
-246.7685570706304
 30
0.0
 11
-248.8773827177333
 21
-245.6342849617866
 31
0.0
  0
LINE
  5
172
102
{ACAD_REACTORS
330
21D
330
21E
102
}
330
71
100
AcDbEntity
  8
0
  6
Continuous
 62
     2
100
AcDbLine
 10
-249.9270402956408
 20
-246.7685570706304
 30
0.0
 11
-251.1198329978074
 21
-246.7685570706304
 31
0.0
  0
LINE
  5
173
102
{ACAD_REACTORS
330
21D
330
21E
102
}
330
71
100
AcDbEntity
  8
0
  6
Continuous
 62
     2
100
AcDbLine
 10
-251.1198329978074
 20
-243.7147475468192
 30
0.0
 11
-249.9270402956408
 21
-243.7147475468192
 31
0.0
  0
LINE
  5
174
102
{ACAD_REACTORS
330
21D
330
21E
102
}
330
71
100
AcDbEntity
  8
0
  6
Continuous
 62
     2
100
AcDbLine
 10
-249.9270402956408
 20
-243.7147475468192
 30
0.0
 11
-249.9270402956408
 21
-244.7835808801538
 31
0.0
  0
LINE
  5
175
102
{ACAD_REACTORS
330
21D
330
21E
102
}
330
71
100
AcDbEntity
  8
0
  6
Continuous
 62
     2
100
AcDbLine
 10
-249.9270402956408
 20
-244.7835808801538
 30
0.0
 11
-248.8773827177333
 21
-244.7835808801538
 31
0.0
  0
LINE
  5
176
102
{ACAD_REACTORS
330
22B
330
22C
102
}
330
71
100
AcDbEntity
  8
0
  6
Continuous
 62
     2
100
AcDbLine
 10
-253.076013029361
 20
-244.3778533922593
 30
0.0
 11
-252.7587179678191
 21
-244.3778533922593
 31
0.0
  0
LINE
  5
177
102
{ACAD_REACTORS
330
22B
330
22C
102
}
330
71
100
AcDbEntity
  8
0
  6
Continuous
 62
     2
100
AcDbLine
 10
-253.076013029361
 20
-245.0835810416015
 30
0.0
 11
-252.7587179678191
 21
-245.0835810416015
 31
0.0
  0
LINE
  5
178
102
{ACAD_REACTORS
330
22B
330
22C
102
}
330
71
100
AcDbEntity
  8
0
  6
Continuous
 62
     2
100
AcDbLine
 10
-254.3165174396151
 20
-243.7147475468192
 30
0.0
 11
-254.3165174396151
 21
-246.7685570706304
 31
0.0
  0
LINE
  5
179
102
{ACAD_REACTORS
330
22B
330
22C
102
}
330
71
100
AcDbEntity
  8
0
  6
Continuous
 62
     2
100
AcDbLine
 10
-254.3165174396151
 20
-243.7147475468192
 30
0.0
 11
-252.3172454415807
 21
-243.7147475468192
 31
0.0
  0
LINE
  5
17A
102
{ACAD_REACTORS
330
22B
330
22C
102
}
330
71
100
AcDbEntity
  8
0
  6
Continuous
 62
     2
100
AcDbLine
 10
-253.076013029361
 20
-245.8254788294866
 30
0.0
 11
-252.3172454415807
 21
-245.8254788294866
 31
0.0
  0
LINE
  5
17B
102
{ACAD_REACTORS
330
231
330
232
102
}
330
71
100
AcDbEntity
  8
0
  6
Continuous
 62
     2
100
AcDbLine
 10
-260.4130134729118
 20
-244.743020025454
 30
0.0
 11
-260.4130134729118
 21
-249.0994750681711
 31
0.0
  0
LINE
  5
17C
102
{ACAD_REACTORS
330
231
330
232
102
}
330
71
100
AcDbEntity
  8
0
  6
Continuous
 62
     2
100
AcDbLine
 10
-260.0972965498361
 20
-244.4273031023778
 30
0.0
 11
-258.6214632888265
 21
-244.4273031023778
 31
0.0
  0
LINE
  5
17D
102
{ACAD_REACTORS
330
231
330
232
102
}
330
71
100
AcDbEntity
  8
0
  6
Continuous
 62
     2
100
AcDbLine
 10
-258.3057463657499
 20
-245.3470446445145
 30
0.0
 11
-258.3057463657499
 21
-244.743020025454
 31
0.0
  0
LINE
  5
17E
102
{ACAD_REACTORS
330
231
330
232
102
}
330
71
100
AcDbEntity
  8
0
  6
Continuous
 62
     2
100
AcDbLine
 10
-258.3057463657499
 20
-249.0994750681711
 30
0.0
 11
-258.3057463657499
 21
-247.5687041366394
 31
0.0
  0
LINE
  5
17F
102
{ACAD_REACTORS
330
231
330
232
102
}
330
71
100
AcDbEntity
  8
0
  6
Continuous
 62
     2
100
AcDbLine
 10
-255.2178791358658
 20
-250.1277475468047
 30
0.0
 11
-260.6911912265826
 21
-250.1277475468047
 31
0.0
  0
LINE
  5
180
102
{ACAD_REACTORS
330
231
330
232
102
}
330
71
100
AcDbEntity
  8
0
  6
Continuous
 62
     2
100
AcDbLine
 10
-254.7936345204819
 20
-244.1389921622212
 30
0.0
 11
-254.7936345204819
 21
-249.7035029314214
 31
0.0
  0
LINE
  5
181
102
{ACAD_REACTORS
330
231
330
232
102
}
330
71
100
AcDbEntity
  8
0
  6
Continuous
 62
     2
100
AcDbLine
 10
-260.6911912265826
 20
-243.7147475468374
 30
0.0
 11
-255.2178791358658
 21
-243.7147475468374
 31
0.0
  0
LINE
  5
182
102
{ACAD_REACTORS
330
231
330
232
102
}
330
71
100
AcDbEntity
  8
0
  6
Continuous
 62
     2
100
AcDbLine
 10
-261.1154358419654
 20
-244.1389921622212
 30
0.0
 11
-261.1154358419654
 21
-249.7035029314214
 31
0.0
  0
LINE
  5
183
102
{ACAD_REACTORS
330
231
330
232
102
}
330
71
100
AcDbEntity
  8
0
  6
Continuous
 62
     2
100
AcDbLine
 10
-258.6214632888265
 20
-249.4151919912478
 30
0.0
 11
-260.0972965498361
 21
-249.4151919912478
 31
0.0
  0
LINE
  5
184
102
{ACAD_REACTORS
330
22B
330
22C
102
}
330
71
100
AcDbEntity
  8
0
  6
Continuous
 62
     2
100
AcDbLine
 10
-253.076013029361
 20
-246.7685570706304
 30
0.0
 11
-253.076013029361
 21
-245.8254788294866
 31
0.0
  0
LINE
  5
185
102
{ACAD_REACTORS
330
22B
330
22C
102
}
330
71
100
AcDbEntity
  8
0
  6
Continuous
 62
     2
100
AcDbLine
 10
-254.3165174396151
 20
-246.7685570706304
 30
0.0
 11
-253.076013029361
 21
-246.7685570706304
 31
0.0
  0
LINE
  5
186
102
{ACAD_REACTORS
330
22B
330
22C
102
}
330
71
100
AcDbEntity
  8
0
  6
Continuous
 62
     2
100
AcDbLine
 10
-253.076013029361
 20
-245.0835810416015
 30
0.0
 11
-253.076013029361
 21
-244.3778533922593
 31
0.0
  0
LINE
  5
187
102
{ACAD_REACTORS
330
21D
330
21E
102
}
330
71
100
AcDbEntity
  8
0
  6
Continuous
 62
     2
100
AcDbLine
 10
-251.1198329978074
 20
-243.7147475468192
 30
0.0
 11
-251.1198329978074
 21
-246.7685570706304
 31
0.0
  0
LINE
  5
188
102
{ACAD_REACTORS
330
21D
330
21E
102
}
330
71
100
AcDbEntity
  8
0
  6
Continuous
 62
     2
100
AcDbLine
 10
-249.9270402956408
 20
-245.6342849617866
 30
0.0
 11
-249.9270402956408
 21
-246.7685570706304
 31
0.0
  0
LINE
  5
189
102
{ACAD_REACTORS
330
21D
330
21E
102
}
330
71
100
AcDbEntity
  8
0
  6
Continuous
 62
     2
100
AcDbLine
 10
-248.8773827177333
 20
-245.6342849617866
 30
0.0
 11
-249.9270402956408
 21
-245.6342849617866
 31
0.0
  0
LINE
  5
18A
102
{ACAD_REACTORS
330
21D
330
21E
102
}
330
71
100
AcDbEntity
  8
0
  6
Continuous
 62
     2
100
AcDbLine
 10
-248.8773827177333
 20
-243.7147475468192
 30
0.0
 11
-247.6845900155669
 21
-243.7147475468192
 31
0.0
  0
LINE
  5
18B
102
{ACAD_REACTORS
330
21D
330
21E
102
}
330
71
100
AcDbEntity
  8
0
  6
Continuous
 62
     2
100
AcDbLine
 10
-248.8773827177333
 20
-244.7835808801538
 30
0.0
 11
-248.8773827177333
 21
-243.7147475468192
 31
0.0
  0
LINE
  5
18C
102
{ACAD_REACTORS
330
22F
330
230
102
}
330
71
100
AcDbEntity
  8
0
  6
Continuous
 62
     2
100
AcDbLine
 10
-242.8657074988123
 20
-244.4127611522622
 30
0.0
 11
-242.8657074988123
 21
-243.7147475468192
 31
0.0
  0
LINE
  5
18D
102
{ACAD_REACTORS
330
22F
330
230
102
}
330
71
100
AcDbEntity
  8
0
  6
Continuous
 62
     2
100
AcDbLine
 10
-246.0160272225933
 20
-243.7147475468192
 30
0.0
 11
-242.8657074988123
 21
-243.7147475468192
 31
0.0
  0
LINE
  5
18E
102
{ACAD_REACTORS
330
22F
330
230
102
}
330
71
100
AcDbEntity
  8
0
  6
Continuous
 62
     2
100
AcDbLine
 10
-246.0160272225933
 20
-246.7685570706304
 30
0.0
 11
-242.8657074988123
 21
-246.7685570706304
 31
0.0
  0
LINE
  5
18F
102
{ACAD_REACTORS
330
22F
330
230
102
}
330
71
100
AcDbEntity
  8
0
  6
Continuous
 62
     2
100
AcDbLine
 10
-242.8657074988123
 20
-246.7685570706304
 30
0.0
 11
-242.8657074988123
 21
-246.0705434651879
 31
0.0
  0
LINE
  5
190
102
{ACAD_REACTORS
330
22F
330
230
102
}
330
71
100
AcDbEntity
  8
0
  6
Continuous
 62
     2
100
AcDbLine
 10
-242.8657074988123
 20
-246.0705434651879
 30
0.0
 11
-244.20163532524
 21
-246.0705434651879
 31
0.0
  0
LINE
  5
191
102
{ACAD_REACTORS
330
22F
330
230
102
}
330
71
100
AcDbEntity
  8
0
  6
Continuous
 62
     2
100
AcDbLine
 10
-244.20163532524
 20
-246.0705434651879
 30
0.0
 11
-244.20163532524
 21
-245.5906591114462
 31
0.0
  0
LINE
  5
192
102
{ACAD_REACTORS
330
22F
330
230
102
}
330
71
100
AcDbEntity
  8
0
  6
Continuous
 62
     2
100
AcDbLine
 10
-244.20163532524
 20
-244.4127611522622
 30
0.0
 11
-242.8657074988123
 21
-244.4127611522622
 31
0.0
  0
LINE
  5
193
102
{ACAD_REACTORS
330
21F
330
220
102
}
330
71
100
AcDbEntity
  8
0
  6
Continuous
 62
     2
100
AcDbLine
 10
-246.6827950766315
 20
-250.1277475468047
 30
0.0
 11
-246.6827950766315
 21
-248.8189720366001
 31
0.0
  0
LINE
  5
194
102
{ACAD_REACTORS
330
21F
330
220
102
}
330
71
100
AcDbEntity
  8
0
  6
Continuous
 62
     2
100
AcDbLine
 10
-246.6827950766315
 20
-248.8189720366001
 30
0.0
 11
-245.4422906663786
 21
-250.1277475468047
 31
0.0
  0
LINE
  5
195
102
{ACAD_REACTORS
330
21F
330
220
102
}
330
71
100
AcDbEntity
  8
0
  6
Continuous
 62
     2
100
AcDbLine
 10
-244.2494979642122
 20
-250.1277475468047
 30
0.0
 11
-244.2494979642122
 21
-247.0739380229936
 31
0.0
  0
LINE
  5
196
102
{ACAD_REACTORS
330
21F
330
220
102
}
330
71
100
AcDbEntity
  8
0
  6
Continuous
 62
     2
100
AcDbLine
 10
-244.2494979642122
 20
-247.0739380229936
 30
0.0
 11
-245.4422906663786
 21
-247.0739380229936
 31
0.0
  0
LINE
  5
197
102
{ACAD_REACTORS
330
21F
330
220
102
}
330
71
100
AcDbEntity
  8
0
  6
Continuous
 62
     2
100
AcDbLine
 10
-245.4422906663786
 20
-247.0739380229936
 30
0.0
 11
-245.4422906663786
 21
-248.3827135331987
 31
0.0
  0
LINE
  5
198
102
{ACAD_REACTORS
330
21F
330
220
102
}
330
71
100
AcDbEntity
  8
0
  6
Continuous
 62
     2
100
AcDbLine
 10
-245.4422906663786
 20
-248.3827135331987
 30
0.0
 11
-246.6827950766315
 21
-247.0739380229936
 31
0.0
  0
LINE
  5
199
102
{ACAD_REACTORS
330
221
330
222
102
}
330
71
100
AcDbEntity
  8
0
  6
Continuous
 62
     2
100
AcDbLine
 10
-241.4343562562129
 20
-245.4597815604257
 30
0.0
 11
-240.1938518459589
 21
-246.7685570706304
 31
0.0
  0
LINE
  5
19A
102
{ACAD_REACTORS
330
221
330
222
102
}
330
71
100
AcDbEntity
  8
0
  6
Continuous
 62
     2
100
AcDbLine
 10
-240.1938518459589
 20
-246.7685570706304
 30
0.0
 11
-239.0010591437923
 21
-246.7685570706304
 31
0.0
  0
LINE
  5
19B
102
{ACAD_REACTORS
330
221
330
222
102
}
330
71
100
AcDbEntity
  8
0
  6
Continuous
 62
     2
100
AcDbLine
 10
-239.0010591437923
 20
-246.7685570706304
 30
0.0
 11
-239.0010591437923
 21
-243.7147475468192
 31
0.0
  0
LINE
  5
19C
102
{ACAD_REACTORS
330
221
330
222
102
}
330
71
100
AcDbEntity
  8
0
  6
Continuous
 62
     2
100
AcDbLine
 10
-239.0010591437923
 20
-243.7147475468192
 30
0.0
 11
-240.1938518459589
 21
-243.7147475468192
 31
0.0
  0
LINE
  5
19D
102
{ACAD_REACTORS
330
221
330
222
102
}
330
71
100
AcDbEntity
  8
0
  6
Continuous
 62
     2
100
AcDbLine
 10
-240.1938518459589
 20
-245.0235230570244
 30
0.0
 11
-241.4343562562129
 21
-243.7147475468192
 31
0.0
  0
LINE
  5
19E
102
{ACAD_REACTORS
330
221
330
222
102
}
330
71
100
AcDbEntity
  8
0
  6
Continuous
 62
     2
100
AcDbLine
 10
-242.6271489583794
 20
-246.7685570706304
 30
0.0
 11
-241.4343562562129
 21
-246.7685570706304
 31
0.0
  0
LINE
  5
19F
102
{ACAD_REACTORS
330
223
330
224
102
}
330
71
100
AcDbEntity
  8
0
  6
Continuous
 62
     2
100
AcDbLine
 10
-244.106362839952
 20
-247.0739380229936
 30
0.0
 11
-244.106362839952
 21
-247.8592033291172
 31
0.0
  0
LINE
  5
1A0
102
{ACAD_REACTORS
330
223
330
224
102
}
330
71
100
AcDbEntity
  8
0
  6
Continuous
 62
     2
100
AcDbLine
 10
-243.2952638024774
 20
-247.8592033291172
 30
0.0
 11
-243.2952638024774
 21
-250.1277475468047
 31
0.0
  0
LINE
  5
1A1
102
{ACAD_REACTORS
330
223
330
224
102
}
330
71
100
AcDbEntity
  8
0
  6
Continuous
 62
     2
100
AcDbLine
 10
-243.2952638024774
 20
-250.1277475468047
 30
0.0
 11
-242.1024711003109
 21
-250.1277475468047
 31
0.0
  0
LINE
  5
1A2
102
{ACAD_REACTORS
330
225
330
226
102
}
330
71
100
AcDbEntity
  8
0
  6
Continuous
 62
     2
100
AcDbLine
 10
-239.1529446068914
 20
-250.1277475468047
 30
0.0
 11
-239.3644246603672
 21
-249.5867870025868
 31
0.0
  0
LINE
  5
1A3
102
{ACAD_REACTORS
330
225
330
226
102
}
330
71
100
AcDbEntity
  8
0
  6
Continuous
 62
     2
100
AcDbLine
 10
-239.3103932435778
 20
-247.0739380229936
 30
0.0
 11
-237.9124401966375
 21
-250.1277475468047
 31
0.0
  0
LINE
  5
1A4
102
{ACAD_REACTORS
330
225
330
226
102
}
330
71
100
AcDbEntity
  8
0
  6
Continuous
 62
     2
100
AcDbLine
 10
-240.5508976538305
 20
-247.0739380229936
 30
0.0
 11
-239.3103932435778
 21
-247.0739380229936
 31
0.0
  0
LINE
  5
1A5
102
{ACAD_REACTORS
330
225
330
226
102
}
330
71
100
AcDbEntity
  8
0
  6
Continuous
 62
     2
100
AcDbLine
 10
-241.9488507007698
 20
-250.1277475468047
 30
0.0
 11
-240.7083462905168
 21
-250.1277475468047
 31
0.0
  0
LINE
  5
1A6
102
{ACAD_REACTORS
330
225
330
226
102
}
330
71
100
AcDbEntity
  8
0
  6
Continuous
 62
     2
100
AcDbLine
 10
-240.230810685896
 20
-248.9062237372802
 30
0.0
 11
-239.6304802115135
 21
-248.9062237372802
 31
0.0
  0
LINE
  5
1A7
102
{ACAD_REACTORS
330
225
330
226
102
}
330
71
100
AcDbEntity
  8
0
  6
Continuous
 62
     2
100
AcDbLine
 10
-239.6304802115135
 20
-248.9062237372802
 30
0.0
 11
-239.9306454487036
 21
-248.1384087712935
 31
0.0
  0
LINE
  5
1A8
102
{ACAD_REACTORS
330
227
330
228
102
}
330
71
100
AcDbEntity
  8
0
  6
Continuous
 62
     2
100
AcDbLine
 10
-237.5219961931055
 20
-246.7685570706304
 30
0.0
 11
-238.7625006033584
 21
-246.7685570706304
 31
0.0
  0
LINE
  5
1A9
102
{ACAD_REACTORS
330
229
330
22A
102
}
330
71
100
AcDbEntity
  8
0
  6
Continuous
 62
     2
100
AcDbLine
 10
-235.9999927051404
 20
-246.7685570706304
 30
0.0
 11
-237.4027169228886
 21
-246.7685570706304
 31
0.0
  0
LINE
  5
1AA
102
{ACAD_REACTORS
330
229
330
22A
102
}
330
71
100
AcDbEntity
  8
0
  6
Continuous
 62
     2
100
AcDbLine
 10
-235.9999927051404
 20
-246.7685570706304
 30
0.0
 11
-235.3034017670747
 21
-245.9808252853367
 31
0.0
  0
LINE
  5
1AB
102
{ACAD_REACTORS
330
229
330
22A
102
}
330
71
100
AcDbEntity
  8
0
  6
Continuous
 62
     2
100
AcDbLine
 10
-234.7022342451819
 20
-243.7147475468192
 30
0.0
 11
-233.2995100274347
 21
-243.7147475468192
 31
0.0
  0
LINE
  5
1AC
102
{ACAD_REACTORS
330
229
330
22A
102
}
330
71
100
AcDbEntity
  8
0
  6
Continuous
 62
     2
100
AcDbLine
 10
-237.3072935067158
 20
-243.7147475468192
 30
0.0
 11
-236.0047638759483
 21
-245.1876980768554
 31
0.0
  0
LINE
  5
1AD
102
{ACAD_REACTORS
330
229
330
22A
102
}
330
71
100
AcDbEntity
  8
0
  6
Continuous
 62
     2
100
AcDbLine
 10
-237.4027169228886
 20
-246.7685570706304
 30
0.0
 11
-236.0047638759483
 21
-245.1876980768554
 31
0.0
  0
LINE
  5
1AE
102
{ACAD_REACTORS
330
233
330
234
102
}
330
71
100
AcDbEntity
  8
0
  6
Continuous
 62
     2
100
AcDbLine
 10
-235.5419603075087
 20
-249.0807271386411
 30
0.0
 11
-235.5419603075087
 21
-249.9532441454444
 31
0.0
  0
LINE
  5
1AF
102
{ACAD_REACTORS
330
233
330
234
102
}
330
71
100
AcDbEntity
  8
0
  6
Continuous
 62
     2
100
AcDbLine
 10
-236.3116176504701
 20
-247.8592033291172
 30
0.0
 11
-235.207978350902
 21
-247.8592033291172
 31
0.0
  0
LINE
  5
1B0
102
{ACAD_REACTORS
330
235
330
236
102
}
330
71
100
AcDbEntity
  8
0
  6
Continuous
 62
     2
100
AcDbLine
 10
-251.6446617867606
 20
-249.0807271386406
 30
0.0
 11
-251.6446617867606
 21
-249.9532441454438
 31
0.0
  0
LINE
  5
1B1
102
{ACAD_REACTORS
330
235
330
236
102
}
330
71
100
AcDbEntity
  8
0
  6
Continuous
 62
     2
100
AcDbLine
 10
-251.6446617867606
 20
-248.1209584311577
 30
0.0
 11
-251.6446617867606
 21
-247.2484414243544
 31
0.0
  0
LINE
  5
1B2
330
71
100
AcDbEntity
  8
1
  6
Continuous
 62
     7
100
AcDbLine
 10
-135.8072862017767
 20
-248.921247546821
 30
0.0
 11
-228.9520907285281
 21
-248.921247546821
 31
0.0
  0
LINE
  5
1B3
330
71
100
AcDbEntity
  8
1
  6
Continuous
 62
     6
100
AcDbLine
 10
-334.352090728528
 20
-257.421247546821
 30
0.0
 11
-379.307286201778
 21
-257.421247546821
 31
0.0
  0
LINE
  5
1B4
330
71
100
AcDbEntity
  8
1
  6
Continuous
 62
     7
100
AcDbLine
 10
-144.7256944834555
 20
-231.921247546821
 30
0.0
 11
-144.7256944834555
 21
-240.421247546821
 31
0.0
  0
LINE
  5
1B5
330
71
100
AcDbEntity
  8
1
  6
Continuous
 62
     7
100
AcDbLine
 10
-171.2256944834551
 20
-231.921247546821
 30
0.0
 11
-171.2256944834551
 21
-240.421247546821
 31
0.0
  0
LINE
  5
1B6
330
71
100
AcDbEntity
  8
1
  6
Continuous
 62
     7
100
AcDbLine
 10
-228.9520907285281
 20
-240.421247546821
 30
0.0
 11
-228.9520907285281
 21
-231.921247546821
 31
0.0
  0
LINE
  5
1B7
330
71
100
AcDbEntity
  8
1
  6
Continuous
 62
     7
100
AcDbLine
 10
-265.352090728528
 20
-240.421247546821
 30
0.0
 11
-265.352090728528
 21
-231.921247546821
 31
0.0
  0
LINE
  5
1B8
330
71
100
AcDbEntity
  8
1
  6
Continuous
 62
     6
100
AcDbLine
 10
-228.9520907285281
 20
-240.421247546821
 30
0.0
 11
-135.8072862017763
 21
-240.421247546821
 31
0.0
  0
LINE
  5
1B9
330
71
100
AcDbEntity
  8
1
  6
Continuous
 62
     7
100
AcDbLine
 10
-201.052090728528
 20
-248.9212475468211
 30
0.0
 11
-201.052090728528
 21
-240.421247546821
 31
0.0
  0
LINE
  5
1BA
330
71
100
AcDbEntity
  8
1
  6
PHANTOM
 62
     2
100
AcDbLine
 10
-249.8654358419654
 20
-236.2962475468211
 30
0.0
 11
-255.3654358419654
 21
-236.2962475468211
 31
0.0
  0
LINE
  5
1BB
330
71
100
AcDbEntity
  8
1
  6
PHANTOM
 62
     2
100
AcDbLine
 10
-252.6154358419654
 20
-233.5462475468211
 30
0.0
 11
-252.6154358419654
 21
-239.0462475468211
 31
0.0
  0
LINE
  5
1BC
330
71
100
AcDbEntity
  8
1
  6
DOT_CENTER
 62
     2
100
AcDbLine
 10
-261.3654358419654
 20
-236.2962475468211
 30
0.0
 11
-255.8654358419654
 21
-236.2962475468211
 31
0.0
  0
ARC
  5
1BD
102
{ACAD_REACTORS
330
235
330
236
102
}
330
71
100
AcDbEntity
  8
0
  6
Continuous
 62
     2
100
AcDbCircle
 10
-252.9805897038784
 20
-251.9135237301553
 30
0.0
 40
4.852596863498068
100
AcDbArc
 50
74.02000874164739
 51
84.84185523037506
  0
ARC
  5
1BE
102
{ACAD_REACTORS
330
235
330
236
102
}
330
71
100
AcDbEntity
  8
0
  6
Continuous
 62
     2
100
AcDbCircle
 10
-252.4045490951247
 20
-248.757763374271
 30
0.0
 40
0.9059297849853588
100
AcDbArc
 50
71.55192388185235
 51
113.372277888129
  0
ARC
  5
1BF
102
{ACAD_REACTORS
330
235
330
236
102
}
330
71
100
AcDbEntity
  8
0
  6
Continuous
 62
     2
100
AcDbCircle
 10
-252.5609891278267
 20
-248.8059142142379
 30
0.0
 40
0.5115800601948034
100
AcDbArc
 50
208.5214732576956
 51
246.6277221118245
  0
ARC
  5
1C0
102
{ACAD_REACTORS
330
235
330
236
102
}
330
71
100
AcDbEntity
  8
0
  6
Continuous
 62
     2
100
AcDbCircle
 10
-252.4045490951247
 20
-248.4439221955279
 30
0.0
 40
0.9059297849849192
100
AcDbArc
 50
246.627722111871
 51
288.4480761181619
  0
ARC
  5
1C1
102
{ACAD_REACTORS
330
235
330
236
102
}
330
71
100
AcDbEntity
  8
0
  6
Continuous
 62
     2
100
AcDbCircle
 10
-252.8227168287855
 20
-247.1903764194907
 30
0.0
 40
2.227384008972692
100
AcDbArc
 50
288.4480761181339
 51
301.9309089499595
  0
ARC
  5
1C2
102
{ACAD_REACTORS
330
231
330
232
102
}
330
71
100
AcDbEntity
  8
0
  6
Continuous
 62
     2
100
AcDbCircle
 10
-258.0477905613923
 20
-246.4578743905767
 30
0.0
 40
0.911848150144459
100
AcDbArc
 50
295.3740086781764
 51
64.62599132180748
  0
ARC
  5
1C3
102
{ACAD_REACTORS
330
231
330
232
102
}
330
71
100
AcDbEntity
  8
0
  6
Continuous
 62
     2
100
AcDbCircle
 10
-257.5217478633044
 20
-244.7431975021021
 30
0.0
 40
0.315716923076071
100
AcDbArc
 50
90.18896704254078
 51
180.0
  0
ARC
  5
1C4
102
{ACAD_REACTORS
330
233
330
234
102
}
330
71
100
AcDbEntity
  8
0
  6
Continuous
 62
     2
100
AcDbCircle
 10
-236.3116176504701
 20
-248.8137263359433
 30
0.0
 40
0.9545230068260935
100
AcDbArc
 50
90.0
 51
109.3371432194298
  0
ARC
  5
1C5
102
{ACAD_REACTORS
330
233
330
234
102
}
330
71
100
AcDbEntity
  8
0
  6
Continuous
 62
     2
100
AcDbCircle
 10
-236.0809303904924
 20
-248.6008427848994
 30
0.0
 40
0.9410597353348924
100
AcDbArc
 50
151.4785267423624
 51
208.5214732576695
  0
ARC
  5
1C6
102
{ACAD_REACTORS
330
233
330
234
102
}
330
71
100
AcDbEntity
  8
0
  6
Continuous
 62
     2
100
AcDbCircle
 10
-236.3018476158707
 20
-248.4439221955279
 30
0.0
 40
0.9059297849852688
100
AcDbArc
 50
246.6277221118199
 51
288.4480761180834
  0
ARC
  5
1C7
102
{ACAD_REACTORS
330
233
330
234
102
}
330
71
100
AcDbEntity
  8
0
  6
Continuous
 62
     2
100
AcDbCircle
 10
-236.7200153495326
 20
-247.1903764194913
 30
0.0
 40
2.227384008972773
100
AcDbArc
 50
288.4480761181333
 51
301.9309089499387
  0
ARC
  5
1C8
102
{ACAD_REACTORS
330
233
330
234
102
}
330
71
100
AcDbEntity
  8
0
  6
Continuous
 62
     2
100
AcDbCircle
 10
-236.8778882246254
 20
-245.288161839643
 30
0.0
 40
4.852596863498709
100
AcDbArc
 50
275.1581447696361
 51
285.9799912583384
  0
ARC
  5
1C9
102
{ACAD_REACTORS
330
233
330
234
102
}
330
71
100
AcDbEntity
  8
0
  6
Continuous
 62
     2
100
AcDbCircle
 10
-236.5890321298896
 20
-248.4880524228646
 30
0.0
 40
1.639695123940421
100
AcDbArc
 50
195.0618917771015
 51
275.1581447696766
  0
ARC
  5
1CA
102
{ACAD_REACTORS
330
22B
330
22C
102
}
330
71
100
AcDbEntity
  8
0
  6
Continuous
 62
     2
100
AcDbCircle
 10
-252.3172454415807
 20
-244.7701131881529
 30
0.0
 40
1.055365641333708
100
AcDbArc
 50
270.0
 51
90.0
  0
ARC
  5
1CB
102
{ACAD_REACTORS
330
231
330
232
102
}
330
71
100
AcDbEntity
  8
0
  6
Continuous
 62
     2
100
AcDbCircle
 10
-260.0972965498361
 20
-249.0994750681711
 30
0.0
 40
0.3157169230757404
100
AcDbArc
 50
180.0
 51
270.0
  0
ARC
  5
1CC
102
{ACAD_REACTORS
330
231
330
232
102
}
330
71
100
AcDbEntity
  8
0
  6
Continuous
 62
     2
100
AcDbCircle
 10
-258.6214632888265
 20
-244.743020025454
 30
0.0
 40
0.315716923076593
100
AcDbArc
 50
0.0
 51
90.0
  0
ARC
  5
1CD
102
{ACAD_REACTORS
330
231
330
232
102
}
330
71
100
AcDbEntity
  8
0
  6
Continuous
 62
     2
100
AcDbCircle
 10
-258.6214632888265
 20
-245.3470446445145
 30
0.0
 40
0.3157169230761203
100
AcDbArc
 50
295.1944106485397
 51
0.0
  0
ARC
  5
1CE
102
{ACAD_REACTORS
330
231
330
232
102
}
330
71
100
AcDbEntity
  8
0
  6
Continuous
 62
     2
100
AcDbCircle
 10
-258.6214632888265
 20
-249.0994750681711
 30
0.0
 40
0.3157169230767067
100
AcDbArc
 50
270.0
 51
0.0
  0
ARC
  5
1CF
102
{ACAD_REACTORS
330
231
330
232
102
}
330
71
100
AcDbEntity
  8
0
  6
Continuous
 62
     2
100
AcDbCircle
 10
-260.6911912265826
 20
-244.1389921622212
 30
0.0
 40
0.4242446153837989
100
AcDbArc
 50
90.0
 51
180.0
  0
ARC
  5
1D0
102
{ACAD_REACTORS
330
231
330
232
102
}
330
71
100
AcDbEntity
  8
0
  6
Continuous
 62
     2
100
AcDbCircle
 10
-255.2178791358658
 20
-244.1389921622212
 30
0.0
 40
0.4242446153838841
100
AcDbArc
 50
0.0
 51
90.0
  0
ARC
  5
1D1
102
{ACAD_REACTORS
330
231
330
232
102
}
330
71
100
AcDbEntity
  8
0
  6
Continuous
 62
     2
100
AcDbCircle
 10
-255.2178791358658
 20
-249.7035029314214
 30
0.0
 40
0.4242446153832873
100
AcDbArc
 50
270.0
 51
0.0
  0
ARC
  5
1D2
102
{ACAD_REACTORS
330
22F
330
230
102
}
330
71
100
AcDbEntity
  8
0
  6
Continuous
 62
     2
100
AcDbCircle
 10
-245.9994952487743
 20
-245.2416523087251
 30
0.0
 40
0.7717997786796421
100
AcDbArc
 50
321.8795802028467
 51
38.12041979715993
  0
ARC
  5
1D3
102
{ACAD_REACTORS
330
22F
330
230
102
}
330
71
100
AcDbEntity
  8
0
  6
Continuous
 62
     2
100
AcDbCircle
 10
-245.7997552124281
 20
-245.3983834868455
 30
0.0
 40
0.5179085730134372
100
AcDbArc
 50
218.1204197971511
 51
321.8795802028566
  0
ARC
  5
1D4
102
{ACAD_REACTORS
330
22D
330
22E
102
}
330
71
100
AcDbEntity
  8
0
  6
Continuous
 62
     2
100
AcDbCircle
 10
-249.4797628013883
 20
-248.6008427848994
 30
0.0
 40
1.458034083652003
100
AcDbArc
 50
297.548148175701
 51
62.45185182429896
  0
ARC
  5
1D5
102
{ACAD_REACTORS
330
22D
330
22E
102
}
330
71
100
AcDbEntity
  8
0
  6
Continuous
 62
     2
100
AcDbCircle
 10
-250.0416425850549
 20
-248.6008427848994
 30
0.0
 40
1.458034083651503
100
AcDbArc
 50
117.5481481756634
 51
242.4518518243366
  0
ARC
  5
1D6
102
{ACAD_REACTORS
330
22D
330
22E
102
}
330
71
100
AcDbEntity
  8
0
  6
Continuous
 62
     2
100
AcDbCircle
 10
-249.7607026932216
 20
-249.1394177952022
 30
0.0
 40
2.065479772208568
100
AcDbArc
 50
62.45185182430637
 51
117.5481481756671
  0
ARC
  5
1D7
102
{ACAD_REACTORS
330
22D
330
22E
102
}
330
71
100
AcDbEntity
  8
0
  6
Continuous
 62
     2
100
AcDbCircle
 10
-249.7607026932216
 20
-248.0622677745961
 30
0.0
 40
2.065479772208522
100
AcDbArc
 50
242.4518518243395
 51
297.5481481756871
  0
ARC
  5
1D8
102
{ACAD_REACTORS
330
22F
330
230
102
}
330
71
100
AcDbEntity
  8
0
  6
Continuous
 62
     2
100
AcDbCircle
 10
-245.6000151760818
 20
-245.2416523087251
 30
0.0
 40
0.77179977867969
100
AcDbArc
 50
141.8795802028388
 51
218.1204197971546
  0
ARC
  5
1D9
102
{ACAD_REACTORS
330
22F
330
230
102
}
330
71
100
AcDbEntity
  8
0
  6
Continuous
 62
     2
100
AcDbCircle
 10
-245.7997552124281
 20
-245.0849211306046
 30
0.0
 40
0.5179085730135441
100
AcDbArc
 50
38.12041979714581
 51
141.8795802028464
  0
ARC
  5
1DA
102
{ACAD_REACTORS
330
231
330
232
102
}
330
71
100
AcDbEntity
  8
0
  6
Continuous
 62
     2
100
AcDbCircle
 10
-260.6911912265826
 20
-249.7035029314214
 30
0.0
 40
0.4242446153828041
100
AcDbArc
 50
180.0
 51
270.0
  0
ARC
  5
1DB
102
{ACAD_REACTORS
330
231
330
232
102
}
330
71
100
AcDbEntity
  8
0
  6
Continuous
 62
     2
100
AcDbCircle
 10
-258.6214632888265
 20
-247.5687041366394
 30
0.0
 40
0.315716923076593
100
AcDbArc
 50
0.0
 51
64.8055893514559
  0
ARC
  5
1DC
102
{ACAD_REACTORS
330
231
330
232
102
}
330
71
100
AcDbEntity
  8
0
  6
Continuous
 62
     2
100
AcDbCircle
 10
-258.0988788412515
 20
-246.4578743905767
 30
0.0
 40
0.9118975235576026
100
AcDbArc
 50
115.1944106485266
 51
244.8055893514886
  0
ARC
  5
1DD
102
{ACAD_REACTORS
330
231
330
232
102
}
330
71
100
AcDbEntity
  8
0
  6
Continuous
 62
     2
100
AcDbCircle
 10
-260.0972965498361
 20
-244.743020025454
 30
0.0
 40
0.3157169230761951
100
AcDbArc
 50
90.0
 51
180.0
  0
ARC
  5
1DE
102
{ACAD_REACTORS
330
22B
330
22C
102
}
330
71
100
AcDbEntity
  8
0
  6
Continuous
 62
     2
100
AcDbCircle
 10
-252.7587179678191
 20
-244.7307172169304
 30
0.0
 40
0.3528638246710898
100
AcDbArc
 50
270.0
 51
90.0
  0
ARC
  5
1DF
102
{ACAD_REACTORS
330
22F
330
230
102
}
330
71
100
AcDbEntity
  8
0
  6
Continuous
 62
     2
100
AcDbCircle
 10
-246.0160272225933
 20
-245.2416523087251
 30
0.0
 40
1.526904761905882
100
AcDbArc
 50
90.0
 51
270.0
  0
ARC
  5
1E0
102
{ACAD_REACTORS
330
233
330
234
102
}
330
71
100
AcDbEntity
  8
0
  6
Continuous
 62
     2
100
AcDbCircle
 10
-236.5890321298896
 20
-248.7136331469343
 30
0.0
 40
1.639695123940214
100
AcDbArc
 50
90.0
 51
164.9381082228947
  0
ARC
  5
1E1
102
{ACAD_REACTORS
330
233
330
234
102
}
330
71
100
AcDbEntity
  8
0
  6
Continuous
 62
     2
100
AcDbCircle
 10
-237.0081599733512
 20
-248.6008427848994
 30
0.0
 40
1.205656168392975
100
AcDbArc
 50
164.9381082229024
 51
195.0618917770962
  0
ARC
  5
1E2
102
{ACAD_REACTORS
330
233
330
234
102
}
330
71
100
AcDbEntity
  8
0
  6
Continuous
 62
     2
100
AcDbCircle
 10
-236.4582876485738
 20
-248.8059142142379
 30
0.0
 40
0.5115800601960215
100
AcDbArc
 50
208.5214732576866
 51
246.6277221118449
  0
ARC
  5
1E3
102
{ACAD_REACTORS
330
233
330
234
102
}
330
71
100
AcDbEntity
  8
0
  6
Continuous
 62
     2
100
AcDbCircle
 10
-236.4582876485738
 20
-248.3957713555604
 30
0.0
 40
0.5115800601944411
100
AcDbArc
 50
109.3371432194842
 51
151.4785267424225
  0
ARC
  5
1E4
102
{ACAD_REACTORS
330
231
330
232
102
}
330
71
100
AcDbEntity
  8
0
  6
Continuous
 62
     2
100
AcDbCircle
 10
-257.5217478633044
 20
-248.1488673972402
 30
0.0
 40
0.3157169230767636
100
AcDbArc
 50
180.0
 51
269.8110329574593
  0
ARC
  5
1E5
102
{ACAD_REACTORS
330
231
330
232
102
}
330
71
100
AcDbEntity
  8
0
  6
Continuous
 62
     2
100
AcDbCircle
 10
-257.5161317279944
 20
-246.4460324496712
 30
0.0
 40
2.018561131933237
100
AcDbArc
 50
269.8110329575858
 51
90.18896704241416
  0
ARC
  5
1E6
102
{ACAD_REACTORS
330
231
330
232
102
}
330
71
100
AcDbEntity
  8
0
  6
Continuous
 62
     2
100
AcDbCircle
 10
-257.5217478633044
 20
-245.3487327906089
 30
0.0
 40
0.3157169230767636
100
AcDbArc
 50
180.0
 51
244.6259913216528
  0
ARC
  5
1E7
102
{ACAD_REACTORS
330
231
330
232
102
}
330
71
100
AcDbEntity
  8
0
  6
Continuous
 62
     2
100
AcDbCircle
 10
-257.5217478633044
 20
-247.5670159905451
 30
0.0
 40
0.315716923076495
100
AcDbArc
 50
115.3740086783494
 51
180.0
  0
ARC
  5
1E8
102
{ACAD_REACTORS
330
235
330
236
102
}
330
71
100
AcDbEntity
  8
0
  6
Continuous
 62
     2
100
AcDbCircle
 10
-252.6917336091425
 20
-248.7136331469343
 30
0.0
 40
1.639695123940507
100
AcDbArc
 50
84.84185523036236
 51
164.9381082228867
  0
ARC
  5
1E9
102
{ACAD_REACTORS
330
235
330
236
102
}
330
71
100
AcDbEntity
  8
0
  6
Continuous
 62
     2
100
AcDbCircle
 10
-253.1108614526053
 20
-248.6008427848994
 30
0.0
 40
1.205656168390971
100
AcDbArc
 50
164.9381082228768
 51
195.0618917770945
  0
ARC
  5
1EA
102
{ACAD_REACTORS
330
235
330
236
102
}
330
71
100
AcDbEntity
  8
0
  6
Continuous
 62
     2
100
AcDbCircle
 10
-252.6917336091425
 20
-248.4880524228646
 30
0.0
 40
1.639695123939415
100
AcDbArc
 50
195.0618917770893
 51
275.1581447696395
  0
ARC
  5
1EB
102
{ACAD_REACTORS
330
235
330
236
102
}
330
71
100
AcDbEntity
  8
0
  6
Continuous
 62
     2
100
AcDbCircle
 10
-252.9805897038784
 20
-245.288161839643
 30
0.0
 40
4.852596863498138
100
AcDbArc
 50
275.1581447696249
 51
285.979991258353
  0
ARC
  5
1EC
102
{ACAD_REACTORS
330
235
330
236
102
}
330
71
100
AcDbEntity
  8
0
  6
Continuous
 62
     2
100
AcDbCircle
 10
-252.1836318697464
 20
-248.6008427848994
 30
0.0
 40
0.9410597353332545
100
AcDbArc
 50
151.4785267422669
 51
208.5214732577057
  0
ARC
  5
1ED
102
{ACAD_REACTORS
330
235
330
236
102
}
330
71
100
AcDbEntity
  8
0
  6
Continuous
 62
     2
100
AcDbCircle
 10
-252.5609891278267
 20
-248.3957713555604
 30
0.0
 40
0.5115800601948891
100
AcDbArc
 50
113.3722778882021
 51
151.4785267423044
  0
ARC
  5
1EE
102
{ACAD_REACTORS
330
235
330
236
102
}
330
71
100
AcDbEntity
  8
0
  6
Continuous
 62
     2
100
AcDbCircle
 10
-252.8227168287855
 20
-250.0113091503076
 30
0.0
 40
2.227384008973492
100
AcDbArc
 50
58.0690910500401
 51
71.55192388186676
  0
ARC
  5
1EF
102
{ACAD_REACTORS
330
22D
330
22E
102
}
330
71
100
AcDbEntity
  8
0
  6
Continuous
 62
     2
100
AcDbCircle
 10
-249.7607026932216
 20
-248.4441116067789
 30
0.0
 40
0.517908573013295
100
AcDbArc
 50
38.12041979715146
 51
141.8795802028583
  0
ARC
  5
1F0
102
{ACAD_REACTORS
330
22D
330
22E
102
}
330
71
100
AcDbEntity
  8
0
  6
Continuous
 62
     2
100
AcDbCircle
 10
-249.5609626568755
 20
-248.6008427848994
 30
0.0
 40
0.7717997786795031
100
AcDbArc
 50
141.879580202836
 51
218.1204197971674
  0
ARC
  5
1F1
102
{ACAD_REACTORS
330
22D
330
22E
102
}
330
71
100
AcDbEntity
  8
0
  6
Continuous
 62
     2
100
AcDbCircle
 10
-249.7607026932216
 20
-248.7575739630194
 30
0.0
 40
0.5179085730137577
100
AcDbArc
 50
218.1204197971912
 51
321.879580202799
  0
ARC
  5
1F2
102
{ACAD_REACTORS
330
22D
330
22E
102
}
330
71
100
AcDbEntity
  8
0
  6
Continuous
 62
     2
100
AcDbCircle
 10
-249.960442729568
 20
-248.6008427848994
 30
0.0
 40
0.7717997786796724
100
AcDbArc
 50
321.8795802028404
 51
38.12041979715625
  0
CIRCLE
  5
1F3
330
71
100
AcDbEntity
  8
1
  6
Continuous
 62
     2
100
AcDbCircle
 10
-252.6154358419654
 20
-236.2962475468211
 30
0.0
 40
2.5
  0
CIRCLE
  5
1F4
330
71
100
AcDbEntity
  8
1
  6
Continuous
 62
     2
100
AcDbCircle
 10
-252.6154358419654
 20
-236.2962475468211
 30
0.0
 40
1.249999999999886
  0
CIRCLE
  5
1F5
102
{ACAD_REACTORS
330
231
330
232
102
}
330
71
100
AcDbEntity
  8
0
  6
Continuous
 62
     2
100
AcDbCircle
 10
-258.0716055760651
 20
-246.4578743905767
 30
0.0
 40
0.4709789327785074
  0
MTEXT
  5
1F6
330
71
100
AcDbEntity
  8
1
 62
     3
100
AcDbMText
 10
-422.8022184157062
 20
-70.62993939152219
 30
0.0
 40
1.8
 41
0.0
 71
     7
 72
     1
  3
Weitergabe sowie Vervielf\U+00e4ltigung dieses Dokuments, Verwertung und \PMitteilung seines Inhalts sind verboten, soweit nicht ausdr\U+00fccklich gestattet. \PZuwiderhandlungen verpflichten zu Schadenersatz. Alle Rechte f\U+00fcr den Fall\Pder Pat
  1
ent-, Gebrauchsmuster- oder Designeintragung vorbehalten.
  7
CONVERTER_11
 73
     1
 44
0.99639855942377
  0
MTEXT
  5
1F7
330
71
100
AcDbEntity
  8
1
 62
     3
100
AcDbMText
 10
-239.9491085769181
 20
-70.62993939152219
 30
0.0
 40
1.8
 41
0.0
 71
     7
 72
     1
  3
Transfer or duplication of this document as well as the utilisation or\Pcommunication of its content are not permitted unless express consent\Pis granted. Violations give rise to claims for damages. All rights reserved\Pin case of patent, utility mo
  1
del or design patent registrations.
  7
CONVERTER_11
 73
     1
 44
0.99639855942377
  0
TEXT
  5
1F8
330
71
100
AcDbEntity
  8
1
 62
     2
100
AcDbText
 10
-246.1520907285282
 20
-256.1802647618126
 30
0.0
 40
1.8
  1
of
 41
0.9
  7
CONVERTER_11
100
AcDbText
  0
TEXT
  5
1F9
330
71
100
AcDbEntity
  8
1
 62
     2
100
AcDbText
 10
-264.352090728528
 20
-256.1802647618126
 30
0.0
 40
1.8
  1
page
 41
0.9
  7
CONVERTER_11
100
AcDbText
  0
TEXT
  5
1FA
330
71
100
AcDbEntity
  8
1
 62
     2
100
AcDbText
 10
-255.705825758186
 20
-256.220496200623
 30
0.0
 40
1.8
  1
1
 41
0.9
  7
CONVERTER_11
100
AcDbText
  0
TEXT
  5
1FB
330
71
100
AcDbEntity
  8
1
 62
     2
100
AcDbText
 10
-240.9167819187145
 20
-256.1712475468211
 30
0.0
 40
1.8
  1
1
 41
0.9
  7
CONVERTER_11
100
AcDbText
  0
MTEXT
  5
1FD
330
71
100
AcDbEntity
  8
1
 62
     7
100
AcDbMText
 10
-182.3796884651525
 20
-254.1712475468207
 30
0.0
 40
3.0
 41
0.0
 71
     5
 72
     1
  1
ZBFM 4/WH:UNBEDRUCKT
  7
CONVERTER_12
 73
     1
 44
1.20048019207683
  0
MTEXT
  5
1FE
330
71
100
AcDbEntity
  8
1
 62
     2
100
AcDbMText
 10
-227.9520907285281
 20
-249.921247546821
 30
0.0
 40
1.8
 41
0.0
 71
     1
 72
     1
  1
description
  7
CONVERTER_11
 73
     1
 44
1.20048019207683
  0
MTEXT
  5
1FF
330
71
100
AcDbEntity
  8
1
 62
     3
100
AcDbMText
 10
-239.1520907285281
 20
-236.296247546821
 30
0.0
 40
2.5
 41
0.0
 71
     5
 72
     1
  1
DIN A4
  7
CONVERTER_11
 73
     1
 44
1.20048019207683
  0
MTEXT
  5
200
330
71
100
AcDbEntity
  8
1
 62
     7
100
AcDbMText
 10
-425.3072862017771
 20
-234.921247546821
 30
0.0
 40
3.5
 41
0.0
 71
     5
 72
     1
  1
D
  7
CONVERTER_11
 73
     1
 44
1.20048019207683
  0
MTEXT
  5
201
330
71
100
AcDbEntity
  8
1
 62
     7
100
AcDbMText
 10
-425.3072862017771
 20
-182.421247546821
 30
0.0
 40
3.5
 41
0.0
 71
     5
 72
     1
  1
C
  7
CONVERTER_11
 73
     1
 44
1.20048019207683
  0
MTEXT
  5
202
330
71
100
AcDbEntity
  8
1
 62
     7
100
AcDbMText
 10
-425.3072862017771
 20
-132.421247546821
 30
0.0
 40
3.5
 41
0.0
 71
     5
 72
     1
  1
B
  7
CONVERTER_11
 73
     1
 44
1.20048019207683
  0
MTEXT
  5
203
330
71
100
AcDbEntity
  8
1
 62
     7
100
AcDbMText
 10
-425.3072862017771
 20
-79.92124754682098
 30
0.0
 40
3.5
 41
0.0
 71
     5
 72
     1
  1
A
  7
CONVERTER_11
 73
     1
 44
1.20048019207683
  0
MTEXT
  5
204
330
71
100
AcDbEntity
  8
1
 62
     7
100
AcDbMText
 10
-155.0572862017788
 20
-259.9212475468211
 30
0.0
 40
3.5
 41
0.0
 71
     5
 72
     1
  1
6
  7
CONVERTER_11
 73
     1
 44
1.20048019207683
  0
MTEXT
  5
205
330
71
100
AcDbEntity
  8
1
 62
     7
100
AcDbMText
 10
-204.307286201778
 20
-259.9212475468211
 30
0.0
 40
3.5
 41
0.0
 71
     5
 72
     1
  1
5
  7
CONVERTER_11
 73
     1
 44
1.20048019207683
  0
MTEXT
  5
206
330
71
100
AcDbEntity
  8
1
 62
     7
100
AcDbMText
 10
-254.3072862017781
 20
-259.9212475468211
 30
0.0
 40
3.5
 41
0.0
 71
     5
 72
     1
  1
4
  7
CONVERTER_11
 73
     1
 44
1.20048019207683
  0
MTEXT
  5
207
330
71
100
AcDbEntity
  8
1
 62
     7
100
AcDbMText
 10
-304.307286201778
 20
-259.9212475468211
 30
0.0
 40
3.5
 41
0.0
 71
     5
 72
     1
  1
3
  7
CONVERTER_11
 73
     1
 44
1.20048019207683
  0
MTEXT
  5
208
330
71
100
AcDbEntity
  8
1
 62
     7
100
AcDbMText
 10
-354.307286201778
 20
-259.9212475468211
 30
0.0
 40
3.5
 41
0.0
 71
     5
 72
     1
  1
2
  7
CONVERTER_11
 73
     1
 44
1.20048019207683
  0
MTEXT
  5
209
330
71
100
AcDbEntity
  8
1
 62
     7
100
AcDbMText
 10
-403.5572862017776
 20
-259.9212475468211
 30
0.0
 40
3.5
 41
0.0
 71
     5
 72
     1
  1
1
  7
CONVERTER_11
 73
     1
 44
1.20048019207683
  0
MTEXT
  5
20A
330
71
100
AcDbEntity
  8
1
 62
     7
100
AcDbMText
 10
-133.307286201779
 20
-234.921247546821
 30
0.0
 40
3.5
 41
0.0
 71
     5
 72
     1
  1
D
  7
CONVERTER_11
 73
     1
 44
1.20048019207683
  0
MTEXT
  5
20B
330
71
100
AcDbEntity
  8
1
 62
     7
100
AcDbMText
 10
-133.307286201779
 20
-132.4212475468191
 30
0.0
 40
3.5
 41
0.0
 71
     5
 72
     1
  1
B
  7
CONVERTER_11
 73
     1
 44
1.20048019207683
  0
MTEXT
  5
20C
330
71
100
AcDbEntity
  8
1
 62
     7
100
AcDbMText
 10
-133.307286201779
 20
-79.92124754682098
 30
0.0
 40
3.5
 41
0.0
 71
     5
 72
     1
  1
A
  7
CONVERTER_11
 73
     1
 44
1.20048019207683
  0
MTEXT
  5
20D
330
71
100
AcDbEntity
  8
1
 62
     7
100
AcDbMText
 10
-133.307286201779
 20
-182.4212475468191
 30
0.0
 40
3.5
 41
0.0
 71
     5
 72
     1
  1
C
  7
CONVERTER_11
 73
     1
 44
1.20048019207683
  0
MTEXT
  5
20E
330
71
100
AcDbEntity
  8
1
 62
     2
100
AcDbMText
 10
-299.7901054535755
 20
-244.6712475468211
 30
0.0
 40
2.0
 41
0.0
 71
     5
 72
     1
  1
General Information\P- Simplified representation\P- Document excluded from change process\P- Linear dimensions [mm]
  7
CONVERTER_11
 73
     1
 44
1.20048019207683
  0
TEXT
  5
20F
330
71
100
AcDbEntity
  8
1
 62
     7
100
AcDbText
 10
-227.4520907285283
 20
-247.6212475468211
 30
0.0
 40
2.5
  1
0803579
 41
0.81
  7
CONVERTER_12
100
AcDbText
  0
MTEXT
  5
210
330
71
100
AcDbEntity
  8
1
 62
     2
100
AcDbMText
 10
-227.852090728528
 20
-241.421247546821
 30
0.0
 40
1.8
 41
0.0
 71
     1
 72
     1
  1
ident.-No.
  7
CONVERTER_11
 73
     1
 44
1.20048019207683
  0
MTEXT
  5
211
330
71
100
AcDbEntity
  8
1
 62
     2
100
AcDbMText
 10
-143.6256944834553
 20
-232.921247546821
 30
0.0
 40
1.8
 41
0.0
 71
     1
 72
     1
  1
scale
  7
CONVERTER_11
 73
     1
 44
1.20048019207683
  0
MTEXT
  5
213
330
71
100
AcDbEntity
  8
1
 62
     3
100
AcDbMText
 10
-140.2664903426157
 20
-239.1212475468209
 30
0.0
 40
2.5
 41
0.0
 71
     8
 72
     1
  1
5:1
  7
CONVERTER_13
 73
     1
 44
1.32052821128451
  0
TEXT
  5
214
330
71
100
AcDbEntity
  8
1
 62
     7
100
AcDbText
 10
-227.852090728528
 20
-239.1212475468211
 30
0.0
 40
2.5
  1
01098608
 41
0.81
  7
CONVERTER_12
100
AcDbText
  0
MTEXT
  5
216
330
71
100
AcDbEntity
  8
1
 62
     2
100
AcDbMText
 10
-227.852090728528
 20
-232.921247546821
 30
0.0
 40
1.8
 41
0.0
 71
     1
 72
     1
  1
document-No. / RI
  7
CONVERTER_14
 73
     1
 44
1.32052821128451
  0
TEXT
  5
217
330
71
100
AcDbEntity
  8
1
 62
     3
100
AcDbText
 10
-200.052090728528
 20
-247.6212475468211
 30
0.0
 40
2.5
  1
TECDOC 2D_Productdrawing
 41
0.81
  7
CONVERTER_12
100
AcDbText
  0
MTEXT
  5
218
330
71
100
AcDbEntity
  8
1
 62
     2
100
AcDbMText
 10
-200.052090728528
 20
-241.4212475468211
 30
0.0
 40
1.8
 41
0.0
 71
     1
 72
     1
  1
document-type
  7
CONVERTER_11
 73
     1
 44
1.20048019207683
  0
MTEXT
  5
219
330
71
100
AcDbEntity
  8
1
 62
     2
100
AcDbMText
 10
-170.2256944834551
 20
-232.9212475468211
 30
0.0
 40
1.8
 41
0.0
 71
     1
 72
     1
  1
date
  7
CONVERTER_11
 73
     1
 44
1.32052821128451
  0
TEXT
  5
21A
330
71
100
AcDbEntity
  8
1
 62
     3
100
AcDbText
 10
-170.2256944834551
 20
-239.1212475468211
 30
0.0
 40
2.5
  1
04.04.2018
 41
0.81
  7
CONVERTER_12
100
AcDbText
  0
TEXT
  5
21B
330
71
100
AcDbEntity
  8
1
 62
     7
100
AcDbText
 10
-207.8221785094722
 20
-239.1212475468211
 30
0.0
 40
2.5
  1
00
 41
0.81
  7
CONVERTER_12
100
AcDbText
  0
TEXT
  5
21C
330
71
100
AcDbEntity
  8
1
 62
     7
100
AcDbText
 10
-209.9785430065142
 20
-239.1212475468211
 30
0.0
 40
2.5
  1
/
 41
0.9
  7
CONVERTER_11
100
AcDbText
  0
HATCH
  5
21D
330
71
100
AcDbEntity
  8
1
  6
Continuous
 62
     2
100
AcDbHatch
 10
0.0
 20
0.0
 30
0.0
210
0.0
220
0.0
230
1.0
  2
_USER
 70
     0
 71
     1
 91
        1
 92
        1
 93
       12
 72
     1
 10
-247.6845900155669
 20
-246.7685570706304
 11
-248.8773827177333
 21
-246.7685570706304
 72
     1
 10
-248.8773827177333
 20
-246.7685570706304
 11
-248.8773827177333
 21
-245.6342849617866
 72
     1
 10
-248.8773827177333
 20
-245.6342849617866
 11
-249.9270402956408
 21
-245.6342849617866
 72
     1
 10
-249.9270402956408
 20
-245.6342849617866
 11
-249.9270402956408
 21
-246.7685570706304
 72
     1
 10
-249.9270402956408
 20
-246.7685570706304
 11
-251.1198329978074
 21
-246.7685570706304
 72
     1
 10
-251.1198329978074
 20
-246.7685570706304
 11
-251.1198329978074
 21
-243.7147475468192
 72
     1
 10
-251.1198329978074
 20
-243.7147475468192
 11
-249.9270402956408
 21
-243.7147475468192
 72
     1
 10
-249.9270402956408
 20
-243.7147475468192
 11
-249.9270402956408
 21
-244.7835808801538
 72
     1
 10
-249.9270402956408
 20
-244.7835808801538
 11
-248.8773827177333
 21
-244.7835808801538
 72
     1
 10
-248.8773827177333
 20
-244.7835808801538
 11
-248.8773827177333
 21
-243.7147475468192
 72
     1
 10
-248.8773827177333
 20
-243.7147475468192
 11
-247.6845900155669
 21
-243.7147475468192
 72
     1
 10
-247.6845900155669
 20
-243.7147475468192
 11
-247.6845900155669
 21
-246.7685570706304
 97
       12
330
18A
330
18B
330
175
330
174
330
173
330
187
330
172
330
188
330
189
330
171
330
170
330
16F
 75
     1
 76
     0
 52
45.0
 41
0.1
 77
     0
 78
     1
 53
45.0
 43
0.0
 44
0.0
 45
-0.0707106781186548
 46
0.0707106781186548
 79
     0
 98
        1
 10
0.0
 20
0.0
  0
HATCH
  5
21E
330
71
100
AcDbEntity
  8
1
  6
Continuous
 62
     2
100
AcDbHatch
 10
0.0
 20
0.0
 30
0.0
210
0.0
220
0.0
230
1.0
  2
_USER
 70
     0
 71
     1
 91
        1
 92
        1
 93
       12
 72
     1
 10
-247.6845900155669
 20
-246.7685570706304
 11
-248.8773827177333
 21
-246.7685570706304
 72
     1
 10
-248.8773827177333
 20
-246.7685570706304
 11
-248.8773827177333
 21
-245.6342849617866
 72
     1
 10
-248.8773827177333
 20
-245.6342849617866
 11
-249.9270402956408
 21
-245.6342849617866
 72
     1
 10
-249.9270402956408
 20
-245.6342849617866
 11
-249.9270402956408
 21
-246.7685570706304
 72
     1
 10
-249.9270402956408
 20
-246.7685570706304
 11
-251.1198329978074
 21
-246.7685570706304
 72
     1
 10
-251.1198329978074
 20
-246.7685570706304
 11
-251.1198329978074
 21
-243.7147475468192
 72
     1
 10
-251.1198329978074
 20
-243.7147475468192
 11
-249.9270402956408
 21
-243.7147475468192
 72
     1
 10
-249.9270402956408
 20
-243.7147475468192
 11
-249.9270402956408
 21
-244.7835808801538
 72
     1
 10
-249.9270402956408
 20
-244.7835808801538
 11
-248.8773827177333
 21
-244.7835808801538
 72
     1
 10
-248.8773827177333
 20
-244.7835808801538
 11
-248.8773827177333
 21
-243.7147475468192
 72
     1
 10
-248.8773827177333
 20
-243.7147475468192
 11
-247.6845900155669
 21
-243.7147475468192
 72
     1
 10
-247.6845900155669
 20
-243.7147475468192
 11
-247.6845900155669
 21
-246.7685570706304
 97
       12
330
18A
330
18B
330
175
330
174
330
173
330
187
330
172
330
188
330
189
330
171
330
170
330
16F
 75
     1
 76
     0
 52
45.0
 41
0.1
 77
     0
 78
     1
 53
45.0
 43
0.0
 44
0.0
 45
-0.0707106781186548
 46
0.0707106781186548
 79
     0
 98
        1
 10
0.0
 20
0.0
  0
HATCH
  5
21F
330
71
100
AcDbEntity
  8
1
  6
Continuous
 62
     2
100
AcDbHatch
 10
0.0
 20
0.0
 30
0.0
210
0.0
220
0.0
230
1.0
  2
_USER
 70
     0
 71
     1
 91
        1
 92
        1
 93
       10
 72
     1
 10
-245.4422906663786
 20
-248.3827135331987
 11
-246.6827950766315
 21
-247.0739380229936
 72
     1
 10
-246.6827950766315
 20
-247.0739380229936
 11
-247.8755877787991
 21
-247.0739380229936
 72
     1
 10
-247.8755877787991
 20
-247.0739380229936
 11
-247.8755877787991
 21
-250.1277475468047
 72
     1
 10
-247.8755877787991
 20
-250.1277475468047
 11
-246.6827950766315
 21
-250.1277475468047
 72
     1
 10
-246.6827950766315
 20
-250.1277475468047
 11
-246.6827950766315
 21
-248.8189720366001
 72
     1
 10
-246.6827950766315
 20
-248.8189720366001
 11
-245.4422906663786
 21
-250.1277475468047
 72
     1
 10
-245.4422906663786
 20
-250.1277475468047
 11
-244.2494979642122
 21
-250.1277475468047
 72
     1
 10
-244.2494979642122
 20
-250.1277475468047
 11
-244.2494979642122
 21
-247.0739380229936
 72
     1
 10
-244.2494979642122
 20
-247.0739380229936
 11
-245.4422906663786
 21
-247.0739380229936
 72
     1
 10
-245.4422906663786
 20
-247.0739380229936
 11
-245.4422906663786
 21
-248.3827135331987
 97
       10
330
198
330
168
330
167
330
16A
330
193
330
194
330
169
330
195
330
196
330
197
 75
     1
 76
     0
 52
45.0
 41
0.1
 77
     0
 78
     1
 53
45.0
 43
0.0
 44
0.0
 45
-0.0707106781186548
 46
0.0707106781186548
 79
     0
 98
        1
 10
0.0
 20
0.0
  0
HATCH
  5
220
330
71
100
AcDbEntity
  8
1
  6
Continuous
 62
     2
100
AcDbHatch
 10
0.0
 20
0.0
 30
0.0
210
0.0
220
0.0
230
1.0
  2
_USER
 70
     0
 71
     1
 91
        1
 92
        1
 93
       10
 72
     1
 10
-245.4422906663786
 20
-248.3827135331987
 11
-246.6827950766315
 21
-247.0739380229936
 72
     1
 10
-246.6827950766315
 20
-247.0739380229936
 11
-247.8755877787991
 21
-247.0739380229936
 72
     1
 10
-247.8755877787991
 20
-247.0739380229936
 11
-247.8755877787991
 21
-250.1277475468047
 72
     1
 10
-247.8755877787991
 20
-250.1277475468047
 11
-246.6827950766315
 21
-250.1277475468047
 72
     1
 10
-246.6827950766315
 20
-250.1277475468047
 11
-246.6827950766315
 21
-248.8189720366001
 72
     1
 10
-246.6827950766315
 20
-248.8189720366001
 11
-245.4422906663786
 21
-250.1277475468047
 72
     1
 10
-245.4422906663786
 20
-250.1277475468047
 11
-244.2494979642122
 21
-250.1277475468047
 72
     1
 10
-244.2494979642122
 20
-250.1277475468047
 11
-244.2494979642122
 21
-247.0739380229936
 72
     1
 10
-244.2494979642122
 20
-247.0739380229936
 11
-245.4422906663786
 21
-247.0739380229936
 72
     1
 10
-245.4422906663786
 20
-247.0739380229936
 11
-245.4422906663786
 21
-248.3827135331987
 97
       10
330
198
330
168
330
167
330
16A
330
193
330
194
330
169
330
195
330
196
330
197
 75
     1
 76
     0
 52
45.0
 41
0.1
 77
     0
 78
     1
 53
45.0
 43
0.0
 44
0.0
 45
-0.0707106781186548
 46
0.0707106781186548
 79
     0
 98
        1
 10
0.0
 20
0.0
  0
HATCH
  5
221
330
71
100
AcDbEntity
  8
1
  6
Continuous
 62
     2
100
AcDbHatch
 10
0.0
 20
0.0
 30
0.0
210
0.0
220
0.0
230
1.0
  2
_USER
 70
     0
 71
     1
 91
        1
 92
        1
 93
       10
 72
     1
 10
-240.1938518459589
 20
-245.0235230570244
 11
-241.4343562562129
 21
-243.7147475468192
 72
     1
 10
-241.4343562562129
 20
-243.7147475468192
 11
-242.6271489583794
 21
-243.7147475468192
 72
     1
 10
-242.6271489583794
 20
-243.7147475468192
 11
-242.6271489583794
 21
-246.7685570706304
 72
     1
 10
-242.6271489583794
 20
-246.7685570706304
 11
-241.4343562562129
 21
-246.7685570706304
 72
     1
 10
-241.4343562562129
 20
-246.7685570706304
 11
-241.4343562562129
 21
-245.4597815604257
 72
     1
 10
-241.4343562562129
 20
-245.4597815604257
 11
-240.1938518459589
 21
-246.7685570706304
 72
     1
 10
-240.1938518459589
 20
-246.7685570706304
 11
-239.0010591437923
 21
-246.7685570706304
 72
     1
 10
-239.0010591437923
 20
-246.7685570706304
 11
-239.0010591437923
 21
-243.7147475468192
 72
     1
 10
-239.0010591437923
 20
-243.7147475468192
 11
-240.1938518459589
 21
-243.7147475468192
 72
     1
 10
-240.1938518459589
 20
-243.7147475468192
 11
-240.1938518459589
 21
-245.0235230570244
 97
       10
330
19D
330
165
330
164
330
19E
330
163
330
199
330
19A
330
19B
330
19C
330
166
 75
     1
 76
     0
 52
45.0
 41
0.1
 77
     0
 78
     1
 53
45.0
 43
0.0
 44
0.0
 45
-0.0707106781186548
 46
0.0707106781186548
 79
     0
 98
        1
 10
0.0
 20
0.0
  0
HATCH
  5
222
330
71
100
AcDbEntity
  8
1
  6
Continuous
 62
     2
100
AcDbHatch
 10
0.0
 20
0.0
 30
0.0
210
0.0
220
0.0
230
1.0
  2
_USER
 70
     0
 71
     1
 91
        1
 92
        1
 93
       10
 72
     1
 10
-240.1938518459589
 20
-245.0235230570244
 11
-241.4343562562129
 21
-243.7147475468192
 72
     1
 10
-241.4343562562129
 20
-243.7147475468192
 11
-242.6271489583794
 21
-243.7147475468192
 72
     1
 10
-242.6271489583794
 20
-243.7147475468192
 11
-242.6271489583794
 21
-246.7685570706304
 72
     1
 10
-242.6271489583794
 20
-246.7685570706304
 11
-241.4343562562129
 21
-246.7685570706304
 72
     1
 10
-241.4343562562129
 20
-246.7685570706304
 11
-241.4343562562129
 21
-245.4597815604257
 72
     1
 10
-241.4343562562129
 20
-245.4597815604257
 11
-240.1938518459589
 21
-246.7685570706304
 72
     1
 10
-240.1938518459589
 20
-246.7685570706304
 11
-239.0010591437923
 21
-246.7685570706304
 72
     1
 10
-239.0010591437923
 20
-246.7685570706304
 11
-239.0010591437923
 21
-243.7147475468192
 72
     1
 10
-239.0010591437923
 20
-243.7147475468192
 11
-240.1938518459589
 21
-243.7147475468192
 72
     1
 10
-240.1938518459589
 20
-243.7147475468192
 11
-240.1938518459589
 21
-245.0235230570244
 97
       10
330
19D
330
165
330
164
330
19E
330
163
330
199
330
19A
330
19B
330
19C
330
166
 75
     1
 76
     0
 52
45.0
 41
0.1
 77
     0
 78
     1
 53
45.0
 43
0.0
 44
0.0
 45
-0.0707106781186548
 46
0.0707106781186548
 79
     0
 98
        1
 10
0.0
 20
0.0
  0
HATCH
  5
223
330
71
100
AcDbEntity
  8
1
  6
Continuous
 62
     2
100
AcDbHatch
 10
0.0
 20
0.0
 30
0.0
210
0.0
220
0.0
230
1.0
  2
_USER
 70
     0
 71
     1
 91
        1
 92
        1
 93
        8
 72
     1
 10
-241.2913720628384
 20
-247.0739380229936
 11
-244.106362839952
 21
-247.0739380229936
 72
     1
 10
-244.106362839952
 20
-247.0739380229936
 11
-244.106362839952
 21
-247.8592033291172
 72
     1
 10
-244.106362839952
 20
-247.8592033291172
 11
-243.2952638024774
 21
-247.8592033291172
 72
     1
 10
-243.2952638024774
 20
-247.8592033291172
 11
-243.2952638024774
 21
-250.1277475468047
 72
     1
 10
-243.2952638024774
 20
-250.1277475468047
 11
-242.1024711003109
 21
-250.1277475468047
 72
     1
 10
-242.1024711003109
 20
-250.1277475468047
 11
-242.1024711003109
 21
-247.8592033291172
 72
     1
 10
-242.1024711003109
 20
-247.8592033291172
 11
-241.2913720628384
 21
-247.8592033291172
 72
     1
 10
-241.2913720628384
 20
-247.8592033291172
 11
-241.2913720628384
 21
-247.0739380229936
 97
        8
330
15F
330
19F
330
15E
330
1A0
330
1A1
330
162
330
161
330
160
 75
     1
 76
     0
 52
45.0
 41
0.1
 77
     0
 78
     1
 53
45.0
 43
0.0
 44
0.0
 45
-0.0707106781186548
 46
0.0707106781186548
 79
     0
 98
        1
 10
0.0
 20
0.0
  0
HATCH
  5
224
330
71
100
AcDbEntity
  8
1
  6
Continuous
 62
     2
100
AcDbHatch
 10
0.0
 20
0.0
 30
0.0
210
0.0
220
0.0
230
1.0
  2
_USER
 70
     0
 71
     1
 91
        1
 92
        1
 93
        8
 72
     1
 10
-241.2913720628384
 20
-247.0739380229936
 11
-244.106362839952
 21
-247.0739380229936
 72
     1
 10
-244.106362839952
 20
-247.0739380229936
 11
-244.106362839952
 21
-247.8592033291172
 72
     1
 10
-244.106362839952
 20
-247.8592033291172
 11
-243.2952638024774
 21
-247.8592033291172
 72
     1
 10
-243.2952638024774
 20
-247.8592033291172
 11
-243.2952638024774
 21
-250.1277475468047
 72
     1
 10
-243.2952638024774
 20
-250.1277475468047
 11
-242.1024711003109
 21
-250.1277475468047
 72
     1
 10
-242.1024711003109
 20
-250.1277475468047
 11
-242.1024711003109
 21
-247.8592033291172
 72
     1
 10
-242.1024711003109
 20
-247.8592033291172
 11
-241.2913720628384
 21
-247.8592033291172
 72
     1
 10
-241.2913720628384
 20
-247.8592033291172
 11
-241.2913720628384
 21
-247.0739380229936
 97
        8
330
15F
330
19F
330
15E
330
1A0
330
1A1
330
162
330
161
330
160
 75
     1
 76
     0
 52
45.0
 41
0.1
 77
     0
 78
     1
 53
45.0
 43
0.0
 44
0.0
 45
-0.0707106781186548
 46
0.0707106781186548
 79
     0
 98
        1
 10
0.0
 20
0.0
  0
HATCH
  5
225
330
71
100
AcDbEntity
  8
1
  6
Continuous
 62
     2
100
AcDbHatch
 10
0.0
 20
0.0
 30
0.0
210
0.0
220
0.0
230
1.0
  2
_USER
 70
     0
 71
     1
 91
        2
 92
        1
 93
        8
 72
     1
 10
-239.1529446068914
 20
-250.1277475468047
 11
-239.3644246603672
 21
-249.5867870025868
 72
     1
 10
-239.3644246603672
 20
-249.5867870025868
 11
-240.496866237041
 21
-249.5867870025868
 72
     1
 10
-240.496866237041
 20
-249.5867870025868
 11
-240.7083462905168
 21
-250.1277475468047
 72
     1
 10
-240.7083462905168
 20
-250.1277475468047
 11
-241.9488507007698
 21
-250.1277475468047
 72
     1
 10
-241.9488507007698
 20
-250.1277475468047
 11
-240.5508976538305
 21
-247.0739380229936
 72
     1
 10
-240.5508976538305
 20
-247.0739380229936
 11
-239.3103932435778
 21
-247.0739380229936
 72
     1
 10
-239.3103932435778
 20
-247.0739380229936
 11
-237.9124401966375
 21
-250.1277475468047
 72
     1
 10
-237.9124401966375
 20
-250.1277475468047
 11
-239.1529446068914
 21
-250.1277475468047
 97
        8
330
1A3
330
1A4
330
15B
330
1A5
330
15A
330
15D
330
1A2
330
15C
 92
       16
 93
        3
 72
     1
 10
-240.230810685896
 20
-248.9062237372802
 11
-239.9306454487036
 21
-248.1384087712935
 72
     1
 10
-239.9306454487036
 20
-248.1384087712935
 11
-239.6304802115135
 21
-248.9062237372802
 72
     1
 10
-239.6304802115135
 20
-248.9062237372802
 11
-240.230810685896
 21
-248.9062237372802
 97
        3
330
159
330
1A7
330
1A6
 75
     1
 76
     0
 52
45.0
 41
0.1
 77
     0
 78
     1
 53
45.0
 43
0.0
 44
0.0
 45
-0.0707106781186548
 46
0.0707106781186548
 79
     0
 98
        1
 10
0.0
 20
0.0
  0
HATCH
  5
226
330
71
100
AcDbEntity
  8
1
  6
Continuous
 62
     2
100
AcDbHatch
 10
0.0
 20
0.0
 30
0.0
210
0.0
220
0.0
230
1.0
  2
_USER
 70
     0
 71
     1
 91
        2
 92
        1
 93
        8
 72
     1
 10
-239.1529446068914
 20
-250.1277475468047
 11
-239.3644246603672
 21
-249.5867870025868
 72
     1
 10
-239.3644246603672
 20
-249.5867870025868
 11
-240.496866237041
 21
-249.5867870025868
 72
     1
 10
-240.496866237041
 20
-249.5867870025868
 11
-240.7083462905168
 21
-250.1277475468047
 72
     1
 10
-240.7083462905168
 20
-250.1277475468047
 11
-241.9488507007698
 21
-250.1277475468047
 72
     1
 10
-241.9488507007698
 20
-250.1277475468047
 11
-240.5508976538305
 21
-247.0739380229936
 72
     1
 10
-240.5508976538305
 20
-247.0739380229936
 11
-239.3103932435778
 21
-247.0739380229936
 72
     1
 10
-239.3103932435778
 20
-247.0739380229936
 11
-237.9124401966375
 21
-250.1277475468047
 72
     1
 10
-237.9124401966375
 20
-250.1277475468047
 11
-239.1529446068914
 21
-250.1277475468047
 97
        8
330
1A3
330
1A4
330
15B
330
1A5
330
15A
330
15D
330
1A2
330
15C
 92
       16
 93
        3
 72
     1
 10
-240.230810685896
 20
-248.9062237372802
 11
-239.9306454487036
 21
-248.1384087712935
 72
     1
 10
-239.9306454487036
 20
-248.1384087712935
 11
-239.6304802115135
 21
-248.9062237372802
 72
     1
 10
-239.6304802115135
 20
-248.9062237372802
 11
-240.230810685896
 21
-248.9062237372802
 97
        3
330
159
330
1A7
330
1A6
 75
     1
 76
     0
 52
45.0
 41
0.1
 77
     0
 78
     1
 53
45.0
 43
0.0
 44
0.0
 45
-0.0707106781186548
 46
0.0707106781186548
 79
     0
 98
        1
 10
0.0
 20
0.0
  0
HATCH
  5
227
330
71
100
AcDbEntity
  8
1
  6
Continuous
 62
     2
100
AcDbHatch
 10
0.0
 20
0.0
 30
0.0
210
0.0
220
0.0
230
1.0
  2
_USER
 70
     0
 71
     1
 91
        1
 92
        1
 93
        4
 72
     1
 10
-237.5219961931055
 20
-246.7685570706304
 11
-238.7625006033584
 21
-246.7685570706304
 72
     1
 10
-238.7625006033584
 20
-246.7685570706304
 11
-238.7625006033584
 21
-243.7147475468192
 72
     1
 10
-238.7625006033584
 20
-243.7147475468192
 11
-237.5219961931055
 21
-243.7147475468192
 72
     1
 10
-237.5219961931055
 20
-243.7147475468192
 11
-237.5219961931055
 21
-246.7685570706304
 97
        4
330
156
330
158
330
1A8
330
157
 75
     1
 76
     0
 52
45.0
 41
0.1
 77
     0
 78
     1
 53
45.0
 43
0.0
 44
0.0
 45
-0.0707106781186548
 46
0.0707106781186548
 79
     0
 98
        1
 10
0.0
 20
0.0
  0
HATCH
  5
228
330
71
100
AcDbEntity
  8
1
  6
Continuous
 62
     2
100
AcDbHatch
 10
0.0
 20
0.0
 30
0.0
210
0.0
220
0.0
230
1.0
  2
_USER
 70
     0
 71
     1
 91
        1
 92
        1
 93
        4
 72
     1
 10
-237.5219961931055
 20
-246.7685570706304
 11
-238.7625006033584
 21
-246.7685570706304
 72
     1
 10
-238.7625006033584
 20
-246.7685570706304
 11
-238.7625006033584
 21
-243.7147475468192
 72
     1
 10
-238.7625006033584
 20
-243.7147475468192
 11
-237.5219961931055
 21
-243.7147475468192
 72
     1
 10
-237.5219961931055
 20
-243.7147475468192
 11
-237.5219961931055
 21
-246.7685570706304
 97
        4
330
156
330
158
330
1A8
330
157
 75
     1
 76
     0
 52
45.0
 41
0.1
 77
     0
 78
     1
 53
45.0
 43
0.0
 44
0.0
 45
-0.0707106781186548
 46
0.0707106781186548
 79
     0
 98
        1
 10
0.0
 20
0.0
  0
HATCH
  5
229
330
71
100
AcDbEntity
  8
1
  6
Continuous
 62
     2
100
AcDbHatch
 10
0.0
 20
0.0
 30
0.0
210
0.0
220
0.0
230
1.0
  2
_USER
 70
     0
 71
     1
 91
        1
 92
        1
 93
       12
 72
     1
 10
-233.2995100274347
 20
-243.7147475468192
 11
-234.6020396582012
 21
-245.1876980768554
 72
     1
 10
-234.6020396582012
 20
-245.1876980768554
 11
-233.2040866112609
 21
-246.7685570706304
 72
     1
 10
-233.2040866112609
 20
-246.7685570706304
 11
-234.6068108290092
 21
-246.7685570706304
 72
     1
 10
-234.6068108290092
 20
-246.7685570706304
 11
-235.3034017670747
 21
-245.9808252853367
 72
     1
 10
-235.3034017670747
 20
-245.9808252853367
 11
-235.9999927051404
 21
-246.7685570706304
 72
     1
 10
-235.9999927051404
 20
-246.7685570706304
 11
-237.4027169228886
 21
-246.7685570706304
 72
     1
 10
-237.4027169228886
 20
-246.7685570706304
 11
-236.0047638759483
 21
-245.1876980768554
 72
     1
 10
-236.0047638759483
 20
-245.1876980768554
 11
-237.3072935067158
 21
-243.7147475468192
 72
     1
 10
-237.3072935067158
 20
-243.7147475468192
 11
-235.9045692889665
 21
-243.7147475468192
 72
     1
 10
-235.9045692889665
 20
-243.7147475468192
 11
-235.3034017670747
 21
-244.3945708683747
 72
     1
 10
-235.3034017670747
 20
-244.3945708683747
 11
-234.7022342451819
 21
-243.7147475468192
 72
     1
 10
-234.7022342451819
 20
-243.7147475468192
 11
-233.2995100274347
 21
-243.7147475468192
 97
       12
330
151
330
150
330
14F
330
1AC
330
1AD
330
1A9
330
1AA
330
155
330
154
330
153
330
152
330
1AB
 75
     1
 76
     0
 52
45.0
 41
0.1
 77
     0
 78
     1
 53
45.0
 43
0.0
 44
0.0
 45
-0.0707106781186548
 46
0.0707106781186548
 79
     0
 98
        1
 10
0.0
 20
0.0
  0
HATCH
  5
22A
330
71
100
AcDbEntity
  8
1
  6
Continuous
 62
     2
100
AcDbHatch
 10
0.0
 20
0.0
 30
0.0
210
0.0
220
0.0
230
1.0
  2
_USER
 70
     0
 71
     1
 91
        1
 92
        1
 93
       12
 72
     1
 10
-233.2995100274347
 20
-243.7147475468192
 11
-234.6020396582012
 21
-245.1876980768554
 72
     1
 10
-234.6020396582012
 20
-245.1876980768554
 11
-233.2040866112609
 21
-246.7685570706304
 72
     1
 10
-233.2040866112609
 20
-246.7685570706304
 11
-234.6068108290092
 21
-246.7685570706304
 72
     1
 10
-234.6068108290092
 20
-246.7685570706304
 11
-235.3034017670747
 21
-245.9808252853367
 72
     1
 10
-235.3034017670747
 20
-245.9808252853367
 11
-235.9999927051404
 21
-246.7685570706304
 72
     1
 10
-235.9999927051404
 20
-246.7685570706304
 11
-237.4027169228886
 21
-246.7685570706304
 72
     1
 10
-237.4027169228886
 20
-246.7685570706304
 11
-236.0047638759483
 21
-245.1876980768554
 72
     1
 10
-236.0047638759483
 20
-245.1876980768554
 11
-237.3072935067158
 21
-243.7147475468192
 72
     1
 10
-237.3072935067158
 20
-243.7147475468192
 11
-235.9045692889665
 21
-243.7147475468192
 72
     1
 10
-235.9045692889665
 20
-243.7147475468192
 11
-235.3034017670747
 21
-244.3945708683747
 72
     1
 10
-235.3034017670747
 20
-244.3945708683747
 11
-234.7022342451819
 21
-243.7147475468192
 72
     1
 10
-234.7022342451819
 20
-243.7147475468192
 11
-233.2995100274347
 21
-243.7147475468192
 97
       12
330
151
330
150
330
14F
330
1AC
330
1AD
330
1A9
330
1AA
330
155
330
154
330
153
330
152
330
1AB
 75
     1
 76
     0
 52
45.0
 41
0.1
 77
     0
 78
     1
 53
45.0
 43
0.0
 44
0.0
 45
-0.0707106781186548
 46
0.0707106781186548
 79
     0
 98
        1
 10
0.0
 20
0.0
  0
HATCH
  5
22B
330
71
100
AcDbEntity
  8
1
  6
Continuous
 62
     2
100
AcDbHatch
 10
0.0
 20
0.0
 30
0.0
210
0.0
220
0.0
230
1.0
  2
_USER
 70
     0
 71
     1
 91
        2
 92
        1
 93
        6
 72
     1
 10
-252.3172454415807
 20
-245.8254788294866
 11
-253.076013029361
 21
-245.8254788294866
 72
     1
 10
-253.076013029361
 20
-245.8254788294866
 11
-253.076013029361
 21
-246.7685570706304
 72
     1
 10
-253.076013029361
 20
-246.7685570706304
 11
-254.3165174396151
 21
-246.7685570706304
 72
     1
 10
-254.3165174396151
 20
-246.7685570706304
 11
-254.3165174396151
 21
-243.7147475468192
 72
     1
 10
-254.3165174396151
 20
-243.7147475468192
 11
-252.3172454415807
 21
-243.7147475468192
 72
     2
 10
-252.3172454415807
 20
-244.7701131881529
 40
1.055365641333708
 50
270.0
 51
450.0
 73
     0
 97
        6
330
179
330
178
330
185
330
184
330
17A
330
1CA
 92
       16
 93
        4
 72
     2
 10
-252.7587179678191
 20
-244.7307172169304
 40
0.3528638246710898
 50
270.0
 51
450.0
 73
     1
 72
     1
 10
-252.7587179678191
 20
-244.3778533922593
 11
-253.076013029361
 21
-244.3778533922593
 72
     1
 10
-253.076013029361
 20
-244.3778533922593
 11
-253.076013029361
 21
-245.0835810416015
 72
     1
 10
-253.076013029361
 20
-245.0835810416015
 11
-252.7587179678191
 21
-245.0835810416015
 97
        4
330
1DE
330
176
330
186
330
177
 75
     1
 76
     0
 52
45.0
 41
0.1
 77
     0
 78
     1
 53
45.0
 43
0.0
 44
0.0
 45
-0.0707106781186548
 46
0.0707106781186548
 79
     0
 98
        1
 10
0.0
 20
0.0
  0
HATCH
  5
22C
330
71
100
AcDbEntity
  8
1
  6
Continuous
 62
     2
100
AcDbHatch
 10
0.0
 20
0.0
 30
0.0
210
0.0
220
0.0
230
1.0
  2
_USER
 70
     0
 71
     1
 91
        2
 92
        1
 93
        6
 72
     1
 10
-252.3172454415807
 20
-245.8254788294866
 11
-253.076013029361
 21
-245.8254788294866
 72
     1
 10
-253.076013029361
 20
-245.8254788294866
 11
-253.076013029361
 21
-246.7685570706304
 72
     1
 10
-253.076013029361
 20
-246.7685570706304
 11
-254.3165174396151
 21
-246.7685570706304
 72
     1
 10
-254.3165174396151
 20
-246.7685570706304
 11
-254.3165174396151
 21
-243.7147475468192
 72
     1
 10
-254.3165174396151
 20
-243.7147475468192
 11
-252.3172454415807
 21
-243.7147475468192
 72
     2
 10
-252.3172454415807
 20
-244.7701131881529
 40
1.055365641333708
 50
270.0
 51
450.0
 73
     0
 97
        6
330
179
330
178
330
185
330
184
330
17A
330
1CA
 92
       16
 93
        4
 72
     2
 10
-252.7587179678191
 20
-244.7307172169304
 40
0.3528638246710898
 50
270.0
 51
450.0
 73
     1
 72
     1
 10
-252.7587179678191
 20
-244.3778533922593
 11
-253.076013029361
 21
-244.3778533922593
 72
     1
 10
-253.076013029361
 20
-244.3778533922593
 11
-253.076013029361
 21
-245.0835810416015
 72
     1
 10
-253.076013029361
 20
-245.0835810416015
 11
-252.7587179678191
 21
-245.0835810416015
 97
        4
330
1DE
330
176
330
186
330
177
 75
     1
 76
     0
 52
45.0
 41
0.1
 77
     0
 78
     1
 53
45.0
 43
0.0
 44
0.0
 45
-0.0707106781186548
 46
0.0707106781186548
 79
     0
 98
        1
 10
0.0
 20
0.0
  0
HATCH
  5
22D
330
71
100
AcDbEntity
  8
1
  6
Continuous
 62
     2
100
AcDbHatch
 10
0.0
 20
0.0
 30
0.0
210
0.0
220
0.0
230
1.0
  2
_USER
 70
     0
 71
     1
 91
        2
 92
        1
 93
        4
 72
     2
 10
-249.7607026932216
 20
-249.1394177952022
 40
2.065479772208568
 50
62.45185182430637
 51
117.5481481756671
 73
     1
 72
     2
 10
-250.0416425850549
 20
-248.6008427848994
 40
1.458034083651503
 50
117.5481481756634
 51
242.4518518243366
 73
     1
 72
     2
 10
-249.7607026932216
 20
-248.0622677745961
 40
2.065479772208522
 50
242.4518518243395
 51
297.5481481756871
 73
     1
 72
     2
 10
-249.4797628013883
 20
-248.6008427848994
 40
1.458034083652003
 50
297.548148175701
 51
422.451851824299
 73
     1
 97
        4
330
1D6
330
1D5
330
1D7
330
1D4
 92
       16
 93
        4
 72
     2
 10
-249.960442729568
 20
-248.6008427848994
 40
0.7717997786796724
 50
321.8795802028404
 51
398.1204197971563
 73
     1
 72
     2
 10
-249.7607026932216
 20
-248.4441116067789
 40
0.517908573013295
 50
38.12041979715146
 51
141.8795802028583
 73
     1
 72
     2
 10
-249.5609626568755
 20
-248.6008427848994
 40
0.7717997786795031
 50
141.879580202836
 51
218.1204197971674
 73
     1
 72
     2
 10
-249.7607026932216
 20
-248.7575739630194
 40
0.5179085730137577
 50
218.1204197971912
 51
321.879580202799
 73
     1
 97
        4
330
1F2
330
1EF
330
1F0
330
1F1
 75
     1
 76
     0
 52
45.0
 41
0.1
 77
     0
 78
     1
 53
45.0
 43
0.0
 44
0.0
 45
-0.0707106781186548
 46
0.0707106781186548
 79
     0
 98
        1
 10
0.0
 20
0.0
  0
HATCH
  5
22E
330
71
100
AcDbEntity
  8
1
  6
Continuous
 62
     2
100
AcDbHatch
 10
0.0
 20
0.0
 30
0.0
210
0.0
220
0.0
230
1.0
  2
_USER
 70
     0
 71
     1
 91
        2
 92
        1
 93
        4
 72
     2
 10
-249.7607026932216
 20
-249.1394177952022
 40
2.065479772208568
 50
62.45185182430637
 51
117.5481481756671
 73
     1
 72
     2
 10
-250.0416425850549
 20
-248.6008427848994
 40
1.458034083651503
 50
117.5481481756634
 51
242.4518518243366
 73
     1
 72
     2
 10
-249.7607026932216
 20
-248.0622677745961
 40
2.065479772208522
 50
242.4518518243395
 51
297.5481481756871
 73
     1
 72
     2
 10
-249.4797628013883
 20
-248.6008427848994
 40
1.458034083652003
 50
297.548148175701
 51
422.451851824299
 73
     1
 97
        4
330
1D6
330
1D5
330
1D7
330
1D4
 92
       16
 93
        4
 72
     2
 10
-249.960442729568
 20
-248.6008427848994
 40
0.7717997786796724
 50
321.8795802028404
 51
398.1204197971563
 73
     1
 72
     2
 10
-249.7607026932216
 20
-248.4441116067789
 40
0.517908573013295
 50
38.12041979715146
 51
141.8795802028583
 73
     1
 72
     2
 10
-249.5609626568755
 20
-248.6008427848994
 40
0.7717997786795031
 50
141.879580202836
 51
218.1204197971674
 73
     1
 72
     2
 10
-249.7607026932216
 20
-248.7575739630194
 40
0.5179085730137577
 50
218.1204197971912
 51
321.879580202799
 73
     1
 97
        4
330
1F2
330
1EF
330
1F0
330
1F1
 75
     1
 76
     0
 52
45.0
 41
0.1
 77
     0
 78
     1
 53
45.0
 43
0.0
 44
0.0
 45
-0.0707106781186548
 46
0.0707106781186548
 79
     0
 98
        1
 10
0.0
 20
0.0
  0
HATCH
  5
22F
330
71
100
AcDbEntity
  8
1
  6
Continuous
 62
     2
100
AcDbHatch
 10
0.0
 20
0.0
 30
0.0
210
0.0
220
0.0
230
1.0
  2
_USER
 70
     0
 71
     1
 91
        2
 92
        1
 93
       12
 72
     1
 10
-242.8657074988123
 20
-244.4127611522622
 11
-244.20163532524
 21
-244.4127611522622
 72
     1
 10
-244.20163532524
 20
-244.4127611522622
 11
-244.20163532524
 21
-244.8926455060039
 72
     1
 10
-244.20163532524
 20
-244.8926455060039
 11
-242.8657074988123
 21
-244.8926455060039
 72
     1
 10
-242.8657074988123
 20
-244.8926455060039
 11
-242.8657074988123
 21
-245.5906591114462
 72
     1
 10
-242.8657074988123
 20
-245.5906591114462
 11
-244.20163532524
 21
-245.5906591114462
 72
     1
 10
-244.20163532524
 20
-245.5906591114462
 11
-244.20163532524
 21
-246.0705434651879
 72
     1
 10
-244.20163532524
 20
-246.0705434651879
 11
-242.8657074988123
 21
-246.0705434651879
 72
     1
 10
-242.8657074988123
 20
-246.0705434651879
 11
-242.8657074988123
 21
-246.7685570706304
 72
     1
 10
-242.8657074988123
 20
-246.7685570706304
 11
-246.0160272225933
 21
-246.7685570706304
 72
     2
 10
-246.0160272225933
 20
-245.2416523087251
 40
1.526904761905882
 50
90.0
 51
270.0
 73
     0
 72
     1
 10
-246.0160272225933
 20
-243.7147475468192
 11
-242.8657074988123
 21
-243.7147475468192
 72
     1
 10
-242.8657074988123
 20
-243.7147475468192
 11
-242.8657074988123
 21
-244.4127611522622
 97
       12
330
18D
330
1DF
330
18E
330
18F
330
190
330
191
330
16E
330
16D
330
16C
330
16B
330
192
330
18C
 92
       16
 93
        4
 72
     2
 10
-245.7997552124281
 20
-245.0849211306046
 40
0.5179085730135441
 50
38.12041979714581
 51
141.8795802028464
 73
     1
 72
     2
 10
-245.6000151760818
 20
-245.2416523087251
 40
0.77179977867969
 50
141.8795802028388
 51
218.1204197971546
 73
     1
 72
     2
 10
-245.7997552124281
 20
-245.3983834868455
 40
0.5179085730134372
 50
218.1204197971511
 51
321.8795802028566
 73
     1
 72
     2
 10
-245.9994952487743
 20
-245.2416523087251
 40
0.7717997786796421
 50
321.8795802028467
 51
398.1204197971599
 73
     1
 97
        4
330
1D9
330
1D8
330
1D3
330
1D2
 75
     1
 76
     0
 52
45.0
 41
0.1
 77
     0
 78
     1
 53
45.0
 43
0.0
 44
0.0
 45
-0.0707106781186548
 46
0.0707106781186548
 79
     0
 98
        1
 10
0.0
 20
0.0
  0
HATCH
  5
230
330
71
100
AcDbEntity
  8
1
  6
Continuous
 62
     2
100
AcDbHatch
 10
0.0
 20
0.0
 30
0.0
210
0.0
220
0.0
230
1.0
  2
_USER
 70
     0
 71
     1
 91
        2
 92
        1
 93
       12
 72
     1
 10
-242.8657074988123
 20
-244.4127611522622
 11
-244.20163532524
 21
-244.4127611522622
 72
     1
 10
-244.20163532524
 20
-244.4127611522622
 11
-244.20163532524
 21
-244.8926455060039
 72
     1
 10
-244.20163532524
 20
-244.8926455060039
 11
-242.8657074988123
 21
-244.8926455060039
 72
     1
 10
-242.8657074988123
 20
-244.8926455060039
 11
-242.8657074988123
 21
-245.5906591114462
 72
     1
 10
-242.8657074988123
 20
-245.5906591114462
 11
-244.20163532524
 21
-245.5906591114462
 72
     1
 10
-244.20163532524
 20
-245.5906591114462
 11
-244.20163532524
 21
-246.0705434651879
 72
     1
 10
-244.20163532524
 20
-246.0705434651879
 11
-242.8657074988123
 21
-246.0705434651879
 72
     1
 10
-242.8657074988123
 20
-246.0705434651879
 11
-242.8657074988123
 21
-246.7685570706304
 72
     1
 10
-242.8657074988123
 20
-246.7685570706304
 11
-246.0160272225933
 21
-246.7685570706304
 72
     2
 10
-246.0160272225933
 20
-245.2416523087251
 40
1.526904761905882
 50
90.0
 51
270.0
 73
     0
 72
     1
 10
-246.0160272225933
 20
-243.7147475468192
 11
-242.8657074988123
 21
-243.7147475468192
 72
     1
 10
-242.8657074988123
 20
-243.7147475468192
 11
-242.8657074988123
 21
-244.4127611522622
 97
       12
330
18D
330
1DF
330
18E
330
18F
330
190
330
191
330
16E
330
16D
330
16C
330
16B
330
192
330
18C
 92
       16
 93
        4
 72
     2
 10
-245.7997552124281
 20
-245.0849211306046
 40
0.5179085730135441
 50
38.12041979714581
 51
141.8795802028464
 73
     1
 72
     2
 10
-245.6000151760818
 20
-245.2416523087251
 40
0.77179977867969
 50
141.8795802028388
 51
218.1204197971546
 73
     1
 72
     2
 10
-245.7997552124281
 20
-245.3983834868455
 40
0.5179085730134372
 50
218.1204197971511
 51
321.8795802028566
 73
     1
 72
     2
 10
-245.9994952487743
 20
-245.2416523087251
 40
0.7717997786796421
 50
321.8795802028467
 51
398.1204197971599
 73
     1
 97
        4
330
1D9
330
1D8
330
1D3
330
1D2
 75
     1
 76
     0
 52
45.0
 41
0.1
 77
     0
 78
     1
 53
45.0
 43
0.0
 44
0.0
 45
-0.0707106781186548
 46
0.0707106781186548
 79
     0
 98
        1
 10
0.0
 20
0.0
  0
HATCH
  5
231
330
71
100
AcDbEntity
  8
1
  6
Continuous
 62
     2
100
AcDbHatch
 10
0.0
 20
0.0
 30
0.0
210
0.0
220
0.0
230
1.0
  2
_USER
 70
     0
 71
     1
 91
        4
 92
        1
 93
        8
 72
     1
 10
-254.7936345204819
 20
-244.1389921622212
 11
-254.7936345204819
 21
-249.7035029314214
 72
     2
 10
-255.2178791358658
 20
-249.7035029314214
 40
0.4242446153832873
 50
0.0
 51
90.0
 73
     0
 72
     1
 10
-255.2178791358658
 20
-250.1277475468047
 11
-260.6911912265826
 21
-250.1277475468047
 72
     2
 10
-260.6911912265826
 20
-249.7035029314214
 40
0.4242446153828041
 50
90.0
 51
180.0
 73
     0
 72
     1
 10
-261.1154358419654
 20
-249.7035029314214
 11
-261.1154358419654
 21
-244.1389921622212
 72
     2
 10
-260.6911912265826
 20
-244.1389921622212
 40
0.4242446153837989
 50
180.0
 51
270.0
 73
     0
 72
     1
 10
-260.6911912265826
 20
-243.7147475468374
 11
-255.2178791358658
 21
-243.7147475468374
 72
     2
 10
-255.2178791358658
 20
-244.1389921622212
 40
0.4242446153838841
 50
270.0
 51
360.0
 73
     0
 97
        8
330
181
330
1CF
330
182
330
1DA
330
17F
330
1D1
330
180
330
1D0
 92
       16
 93
        1
 72
     2
 10
-258.0716055760651
 20
-246.4578743905767
 40
0.4709789327785074
 50
0.0
 51
360.0
 73
     1
 97
        1
330
1F5
 92
       16
 93
        8
 72
     2
 10
-257.5217478633044
 20
-247.5670159905451
 40
0.315716923076495
 50
115.3740086783494
 51
180.0
 73
     1
 72
     1
 10
-257.8374647863812
 20
-247.5670159905451
 11
-257.8374647863812
 21
-248.1488673972402
 72
     2
 10
-257.5217478633044
 20
-248.1488673972402
 40
0.3157169230767636
 50
180.0
 51
269.8110329574593
 73
     1
 72
     2
 10
-257.5161317279944
 20
-246.4460324496712
 40
2.018561131933237
 50
269.8110329575858
 51
450.1889670424142
 73
     1
 72
     2
 10
-257.5217478633044
 20
-244.7431975021021
 40
0.315716923076071
 50
90.18896704254078
 51
180.0
 73
     1
 72
     1
 10
-257.8374647863812
 20
-244.7431975021021
 11
-257.8374647863812
 21
-245.3487327906089
 72
     2
 10
-257.5217478633044
 20
-245.3487327906089
 40
0.3157169230767636
 50
180.0
 51
244.6259913216528
 73
     1
 72
     2
 10
-258.0477905613923
 20
-246.4578743905767
 40
0.911848150144459
 50
295.3740086781925
 51
424.6259913218236
 73
     0
 97
        8
330
1E7
330
148
330
1E4
330
1E5
330
1C3
330
147
330
1E6
330
1C2
 92
       16
 93
       12
 72
     2
 10
-260.0972965498361
 20
-249.0994750681711
 40
0.3157169230757404
 50
180.0
 51
270.0
 73
     1
 72
     1
 10
-260.0972965498361
 20
-249.4151919912478
 11
-258.6214632888265
 21
-249.4151919912478
 72
     2
 10
-258.6214632888265
 20
-249.0994750681711
 40
0.3157169230767067
 50
270.0
 51
360.0
 73
     1
 72
     1
 10
-258.3057463657499
 20
-249.0994750681711
 11
-258.3057463657499
 21
-247.5687041366394
 72
     2
 10
-258.6214632888265
 20
-247.5687041366394
 40
0.315716923076593
 50
0.0
 51
64.8055893514559
 73
     1
 72
     2
 10
-258.0988788412515
 20
-246.4578743905767
 40
0.9118975235576026
 50
115.1944106485114
 51
244.8055893514734
 73
     0
 72
     2
 10
-258.6214632888265
 20
-245.3470446445145
 40
0.3157169230761203
 50
295.1944106485397
 51
360.0
 73
     1
 72
     1
 10
-258.3057463657499
 20
-245.3470446445145
 11
-258.3057463657499
 21
-244.743020025454
 72
     2
 10
-258.6214632888265
 20
-244.743020025454
 40
0.315716923076593
 50
0.0
 51
90.0
 73
     1
 72
     1
 10
-258.6214632888265
 20
-244.4273031023778
 11
-260.0972965498361
 21
-244.4273031023778
 72
     2
 10
-260.0972965498361
 20
-244.743020025454
 40
0.3157169230761951
 50
90.0
 51
180.0
 73
     1
 72
     1
 10
-260.4130134729118
 20
-244.743020025454
 11
-260.4130134729118
 21
-249.0994750681711
 97
       12
330
1CB
330
183
330
1CE
330
17E
330
1DB
330
1DC
330
1CD
330
17D
330
1CC
330
17C
330
1DD
330
17B
 75
     1
 76
     0
 52
45.0
 41
0.1
 77
     0
 78
     1
 53
45.0
 43
0.0
 44
0.0
 45
-0.0707106781186548
 46
0.0707106781186548
 79
     0
 98
        1
 10
0.0
 20
0.0
  0
HATCH
  5
232
330
71
100
AcDbEntity
  8
1
  6
Continuous
 62
     2
100
AcDbHatch
 10
0.0
 20
0.0
 30
0.0
210
0.0
220
0.0
230
1.0
  2
_USER
 70
     0
 71
     1
 91
        4
 92
        1
 93
        8
 72
     1
 10
-254.7936345204819
 20
-244.1389921622212
 11
-254.7936345204819
 21
-249.7035029314214
 72
     2
 10
-255.2178791358658
 20
-249.7035029314214
 40
0.4242446153832873
 50
0.0
 51
90.0
 73
     0
 72
     1
 10
-255.2178791358658
 20
-250.1277475468047
 11
-260.6911912265826
 21
-250.1277475468047
 72
     2
 10
-260.6911912265826
 20
-249.7035029314214
 40
0.4242446153828041
 50
90.0
 51
180.0
 73
     0
 72
     1
 10
-261.1154358419654
 20
-249.7035029314214
 11
-261.1154358419654
 21
-244.1389921622212
 72
     2
 10
-260.6911912265826
 20
-244.1389921622212
 40
0.4242446153837989
 50
180.0
 51
270.0
 73
     0
 72
     1
 10
-260.6911912265826
 20
-243.7147475468374
 11
-255.2178791358658
 21
-243.7147475468374
 72
     2
 10
-255.2178791358658
 20
-244.1389921622212
 40
0.4242446153838841
 50
270.0
 51
360.0
 73
     0
 97
        8
330
181
330
1CF
330
182
330
1DA
330
17F
330
1D1
330
180
330
1D0
 92
       16
 93
        1
 72
     2
 10
-258.0716055760651
 20
-246.4578743905767
 40
0.4709789327785074
 50
0.0
 51
360.0
 73
     1
 97
        1
330
1F5
 92
       16
 93
        8
 72
     2
 10
-257.5217478633044
 20
-247.5670159905451
 40
0.315716923076495
 50
115.3740086783494
 51
180.0
 73
     1
 72
     1
 10
-257.8374647863812
 20
-247.5670159905451
 11
-257.8374647863812
 21
-248.1488673972402
 72
     2
 10
-257.5217478633044
 20
-248.1488673972402
 40
0.3157169230767636
 50
180.0
 51
269.8110329574593
 73
     1
 72
     2
 10
-257.5161317279944
 20
-246.4460324496712
 40
2.018561131933237
 50
269.8110329575858
 51
450.1889670424142
 73
     1
 72
     2
 10
-257.5217478633044
 20
-244.7431975021021
 40
0.315716923076071
 50
90.18896704254078
 51
180.0
 73
     1
 72
     1
 10
-257.8374647863812
 20
-244.7431975021021
 11
-257.8374647863812
 21
-245.3487327906089
 72
     2
 10
-257.5217478633044
 20
-245.3487327906089
 40
0.3157169230767636
 50
180.0
 51
244.6259913216528
 73
     1
 72
     2
 10
-258.0477905613923
 20
-246.4578743905767
 40
0.911848150144459
 50
295.3740086781925
 51
424.6259913218236
 73
     0
 97
        8
330
1E7
330
148
330
1E4
330
1E5
330
1C3
330
147
330
1E6
330
1C2
 92
       16
 93
       12
 72
     2
 10
-260.0972965498361
 20
-249.0994750681711
 40
0.3157169230757404
 50
180.0
 51
270.0
 73
     1
 72
     1
 10
-260.0972965498361
 20
-249.4151919912478
 11
-258.6214632888265
 21
-249.4151919912478
 72
     2
 10
-258.6214632888265
 20
-249.0994750681711
 40
0.3157169230767067
 50
270.0
 51
360.0
 73
     1
 72
     1
 10
-258.3057463657499
 20
-249.0994750681711
 11
-258.3057463657499
 21
-247.5687041366394
 72
     2
 10
-258.6214632888265
 20
-247.5687041366394
 40
0.315716923076593
 50
0.0
 51
64.8055893514559
 73
     1
 72
     2
 10
-258.0988788412515
 20
-246.4578743905767
 40
0.9118975235576026
 50
115.1944106485114
 51
244.8055893514734
 73
     0
 72
     2
 10
-258.6214632888265
 20
-245.3470446445145
 40
0.3157169230761203
 50
295.1944106485397
 51
360.0
 73
     1
 72
     1
 10
-258.3057463657499
 20
-245.3470446445145
 11
-258.3057463657499
 21
-244.743020025454
 72
     2
 10
-258.6214632888265
 20
-244.743020025454
 40
0.315716923076593
 50
0.0
 51
90.0
 73
     1
 72
     1
 10
-258.6214632888265
 20
-244.4273031023778
 11
-260.0972965498361
 21
-244.4273031023778
 72
     2
 10
-260.0972965498361
 20
-244.743020025454
 40
0.3157169230761951
 50
90.0
 51
180.0
 73
     1
 72
     1
 10
-260.4130134729118
 20
-244.743020025454
 11
-260.4130134729118
 21
-249.0994750681711
 97
       12
330
1CB
330
183
330
1CE
330
17E
330
1DB
330
1DC
330
1CD
330
17D
330
1CC
330
17C
330
1DD
330
17B
 75
     1
 76
     0
 52
45.0
 41
0.1
 77
     0
 78
     1
 53
45.0
 43
0.0
 44
0.0
 45
-0.0707106781186548
 46
0.0707106781186548
 79
     0
 98
        1
 10
0.0
 20
0.0
  0
HATCH
  5
233
330
71
100
AcDbEntity
  8
1
  6
Continuous
 62
     2
100
AcDbHatch
 10
0.0
 20
0.0
 30
0.0
210
0.0
220
0.0
230
1.0
  2
_USER
 70
     0
 71
     1
 91
        1
 92
        1
 93
       18
 72
     1
 10
-233.2040866112609
 20
-247.8592033291172
 11
-234.0151856487343
 21
-247.8592033291172
 72
     1
 10
-234.0151856487343
 20
-247.8592033291172
 11
-234.0151856487343
 21
-250.1277475468047
 72
     1
 10
-234.0151856487343
 20
-250.1277475468047
 11
-235.207978350902
 21
-250.1277475468047
 72
     1
 10
-235.207978350902
 20
-250.1277475468047
 11
-235.207978350902
 21
-247.8592033291172
 72
     1
 10
-235.207978350902
 20
-247.8592033291172
 11
-236.3116176504701
 21
-247.8592033291172
 72
     2
 10
-236.3116176504701
 20
-248.8137263359433
 40
0.9545230068260935
 50
90.0
 51
109.3371432194298
 73
     1
 72
     2
 10
-236.4582876485738
 20
-248.3957713555604
 40
0.5115800601944411
 50
109.3371432194842
 51
151.4785267424225
 73
     1
 72
     2
 10
-236.0809303904924
 20
-248.6008427848994
 40
0.9410597353348924
 50
151.4785267423624
 51
208.5214732576695
 73
     1
 72
     2
 10
-236.4582876485738
 20
-248.8059142142379
 40
0.5115800601960215
 50
208.5214732576866
 51
246.6277221118449
 73
     1
 72
     2
 10
-236.3018476158707
 20
-248.4439221955279
 40
0.9059297849852688
 50
246.6277221118199
 51
288.4480761180834
 73
     1
 72
     2
 10
-236.7200153495326
 20
-247.1903764194913
 40
2.227384008972773
 50
288.4480761181333
 51
301.9309089499387
 73
     1
 72
     1
 10
-235.5419603075087
 20
-249.0807271386411
 11
-235.5419603075087
 21
-249.9532441454444
 72
     2
 10
-236.8778882246254
 20
-245.288161839643
 40
4.852596863498709
 50
74.02000874166154
 51
84.84185523036385
 73
     0
 72
     2
 10
-236.5890321298896
 20
-248.4880524228646
 40
1.639695123940421
 50
84.8418552303234
 51
164.9381082228985
 73
     0
 72
     2
 10
-237.0081599733512
 20
-248.6008427848994
 40
1.205656168392975
 50
164.9381082229037
 51
195.0618917770975
 73
     0
 72
     2
 10
-236.5890321298896
 20
-248.7136331469343
 40
1.639695123940214
 50
195.0618917771053
 51
270.0
 73
     0
 72
     1
 10
-236.5890321298896
 20
-247.0739380229941
 11
-233.2040866112609
 21
-247.0739380229936
 72
     1
 10
-233.2040866112609
 20
-247.0739380229936
 11
-233.2040866112609
 21
-247.8592033291172
 97
       18
330
14A
330
1E0
330
1E1
330
1C9
330
1C8
330
1AE
330
1C7
330
1C6
330
1E2
330
1C5
330
1E3
330
1C4
330
1AF
330
149
330
14E
330
14D
330
14C
330
14B
 75
     1
 76
     0
 52
45.0
 41
0.1
 77
     0
 78
     1
 53
45.0
 43
0.0
 44
0.0
 45
-0.0707106781186548
 46
0.0707106781186548
 79
     0
 98
        1
 10
0.0
 20
0.0
  0
HATCH
  5
234
330
71
100
AcDbEntity
  8
1
  6
Continuous
 62
     2
100
AcDbHatch
 10
0.0
 20
0.0
 30
0.0
210
0.0
220
0.0
230
1.0
  2
_USER
 70
     0
 71
     1
 91
        1
 92
        1
 93
       18
 72
     1
 10
-233.2040866112609
 20
-247.8592033291172
 11
-234.0151856487343
 21
-247.8592033291172
 72
     1
 10
-234.0151856487343
 20
-247.8592033291172
 11
-234.0151856487343
 21
-250.1277475468047
 72
     1
 10
-234.0151856487343
 20
-250.1277475468047
 11
-235.207978350902
 21
-250.1277475468047
 72
     1
 10
-235.207978350902
 20
-250.1277475468047
 11
-235.207978350902
 21
-247.8592033291172
 72
     1
 10
-235.207978350902
 20
-247.8592033291172
 11
-236.3116176504701
 21
-247.8592033291172
 72
     2
 10
-236.3116176504701
 20
-248.8137263359433
 40
0.9545230068260935
 50
90.0
 51
109.3371432194298
 73
     1
 72
     2
 10
-236.4582876485738
 20
-248.3957713555604
 40
0.5115800601944411
 50
109.3371432194842
 51
151.4785267424225
 73
     1
 72
     2
 10
-236.0809303904924
 20
-248.6008427848994
 40
0.9410597353348924
 50
151.4785267423624
 51
208.5214732576695
 73
     1
 72
     2
 10
-236.4582876485738
 20
-248.8059142142379
 40
0.5115800601960215
 50
208.5214732576866
 51
246.6277221118449
 73
     1
 72
     2
 10
-236.3018476158707
 20
-248.4439221955279
 40
0.9059297849852688
 50
246.6277221118199
 51
288.4480761180834
 73
     1
 72
     2
 10
-236.7200153495326
 20
-247.1903764194913
 40
2.227384008972773
 50
288.4480761181333
 51
301.9309089499387
 73
     1
 72
     1
 10
-235.5419603075087
 20
-249.0807271386411
 11
-235.5419603075087
 21
-249.9532441454444
 72
     2
 10
-236.8778882246254
 20
-245.288161839643
 40
4.852596863498709
 50
74.02000874166154
 51
84.84185523036385
 73
     0
 72
     2
 10
-236.5890321298896
 20
-248.4880524228646
 40
1.639695123940421
 50
84.8418552303234
 51
164.9381082228985
 73
     0
 72
     2
 10
-237.0081599733512
 20
-248.6008427848994
 40
1.205656168392975
 50
164.9381082229037
 51
195.0618917770975
 73
     0
 72
     2
 10
-236.5890321298896
 20
-248.7136331469343
 40
1.639695123940214
 50
195.0618917771053
 51
270.0
 73
     0
 72
     1
 10
-236.5890321298896
 20
-247.0739380229941
 11
-233.2040866112609
 21
-247.0739380229936
 72
     1
 10
-233.2040866112609
 20
-247.0739380229936
 11
-233.2040866112609
 21
-247.8592033291172
 97
       18
330
14A
330
1E0
330
1E1
330
1C9
330
1C8
330
1AE
330
1C7
330
1C6
330
1E2
330
1C5
330
1E3
330
1C4
330
1AF
330
149
330
14E
330
14D
330
14C
330
14B
 75
     1
 76
     0
 52
45.0
 41
0.1
 77
     0
 78
     1
 53
45.0
 43
0.0
 44
0.0
 45
-0.0707106781186548
 46
0.0707106781186548
 79
     0
 98
        1
 10
0.0
 20
0.0
  0
HATCH
  5
235
330
71
100
AcDbEntity
  8
1
  6
Continuous
 62
     2
100
AcDbHatch
 10
0.0
 20
0.0
 30
0.0
210
0.0
220
0.0
230
1.0
  2
_USER
 70
     0
 71
     1
 91
        1
 92
        1
 93
       14
 72
     2
 10
-252.6917336091425
 20
-248.7136331469343
 40
1.639695123940507
 50
84.84185523036236
 51
164.9381082228867
 73
     1
 72
     2
 10
-253.1108614526053
 20
-248.6008427848994
 40
1.205656168390971
 50
164.9381082228768
 51
195.0618917770945
 73
     1
 72
     2
 10
-252.6917336091425
 20
-248.4880524228646
 40
1.639695123939415
 50
195.0618917770893
 51
275.1581447696395
 73
     1
 72
     2
 10
-252.9805897038784
 20
-245.288161839643
 40
4.852596863498138
 50
275.1581447696249
 51
285.979991258353
 73
     1
 72
     1
 10
-251.6446617867606
 20
-249.9532441454438
 11
-251.6446617867606
 21
-249.0807271386406
 72
     2
 10
-252.8227168287855
 20
-247.1903764194907
 40
2.227384008972692
 50
58.06909105004051
 51
71.55192388186606
 73
     0
 72
     2
 10
-252.4045490951247
 20
-248.4439221955279
 40
0.9059297849849192
 50
71.55192388183812
 51
113.372277888129
 73
     0
 72
     2
 10
-252.5609891278267
 20
-248.8059142142379
 40
0.5115800601948034
 50
113.3722778881755
 51
151.4785267423044
 73
     0
 72
     2
 10
-252.1836318697464
 20
-248.6008427848994
 40
0.9410597353332545
 50
151.4785267422943
 51
208.5214732577331
 73
     0
 72
     2
 10
-252.5609891278267
 20
-248.3957713555604
 40
0.5115800601948891
 50
208.5214732576956
 51
246.627722111798
 73
     0
 72
     2
 10
-252.4045490951247
 20
-248.757763374271
 40
0.9059297849853588
 50
246.627722111871
 51
288.4480761181476
 73
     0
 72
     2
 10
-252.8227168287855
 20
-250.0113091503076
 40
2.227384008973492
 50
288.4480761181333
 51
301.9309089499599
 73
     0
 72
     1
 10
-251.6446617867606
 20
-248.1209584311577
 11
-251.6446617867606
 21
-247.2484414243544
 72
     2
 10
-252.9805897038784
 20
-251.9135237301553
 40
4.852596863498068
 50
74.02000874164739
 51
84.84185523037506
 73
     1
 97
       14
330
1E8
330
1E9
330
1EA
330
1EB
330
1B0
330
1C1
330
1C0
330
1BF
330
1EC
330
1ED
330
1BE
330
1EE
330
1B1
330
1BD
 75
     1
 76
     0
 52
45.0
 41
0.1
 77
     0
 78
     1
 53
45.0
 43
0.0
 44
0.0
 45
-0.0707106781186548
 46
0.0707106781186548
 79
     0
 98
        1
 10
0.0
 20
0.0
  0
HATCH
  5
236
330
71
100
AcDbEntity
  8
1
  6
Continuous
 62
     2
100
AcDbHatch
 10
0.0
 20
0.0
 30
0.0
210
0.0
220
0.0
230
1.0
  2
_USER
 70
     0
 71
     1
 91
        1
 92
        1
 93
       14
 72
     2
 10
-252.6917336091425
 20
-248.7136331469343
 40
1.639695123940507
 50
84.84185523036236
 51
164.9381082228867
 73
     1
 72
     2
 10
-253.1108614526053
 20
-248.6008427848994
 40
1.205656168390971
 50
164.9381082228768
 51
195.0618917770945
 73
     1
 72
     2
 10
-252.6917336091425
 20
-248.4880524228646
 40
1.639695123939415
 50
195.0618917770893
 51
275.1581447696395
 73
     1
 72
     2
 10
-252.9805897038784
 20
-245.288161839643
 40
4.852596863498138
 50
275.1581447696249
 51
285.979991258353
 73
     1
 72
     1
 10
-251.6446617867606
 20
-249.9532441454438
 11
-251.6446617867606
 21
-249.0807271386406
 72
     2
 10
-252.8227168287855
 20
-247.1903764194907
 40
2.227384008972692
 50
58.06909105004051
 51
71.55192388186606
 73
     0
 72
     2
 10
-252.4045490951247
 20
-248.4439221955279
 40
0.9059297849849192
 50
71.55192388183812
 51
113.372277888129
 73
     0
 72
     2
 10
-252.5609891278267
 20
-248.8059142142379
 40
0.5115800601948034
 50
113.3722778881755
 51
151.4785267423044
 73
     0
 72
     2
 10
-252.1836318697464
 20
-248.6008427848994
 40
0.9410597353332545
 50
151.4785267422943
 51
208.5214732577331
 73
     0
 72
     2
 10
-252.5609891278267
 20
-248.3957713555604
 40
0.5115800601948891
 50
208.5214732576956
 51
246.627722111798
 73
     0
 72
     2
 10
-252.4045490951247
 20
-248.757763374271
 40
0.9059297849853588
 50
246.627722111871
 51
288.4480761181476
 73
     0
 72
     2
 10
-252.8227168287855
 20
-250.0113091503076
 40
2.227384008973492
 50
288.4480761181333
 51
301.9309089499599
 73
     0
 72
     1
 10
-251.6446617867606
 20
-248.1209584311577
 11
-251.6446617867606
 21
-247.2484414243544
 72
     2
 10
-252.9805897038784
 20
-251.9135237301553
 40
4.852596863498068
 50
74.02000874164739
 51
84.84185523037506
 73
     1
 97
       14
330
1E8
330
1E9
330
1EA
330
1EB
330
1B0
330
1C1
330
1C0
330
1BF
330
1EC
330
1ED
330
1BE
330
1EE
330
1B1
330
1BD
 75
     1
 76
     0
 52
45.0
 41
0.1
 77
     0
 78
     1
 53
45.0
 43
0.0
 44
0.0
 45
-0.0707106781186548
 46
0.0707106781186548
 79
     0
 98
        1
 10
0.0
 20
0.0
  0
ENDBLK
  5
73
330
71
100
AcDbEntity
  8
0
100
AcDbBlockEnd
  0
BLOCK
  5
75
330
74
100
AcDbEntity
  8
0
100
AcDbBlockBegin
  2
_punkt
 70
     0
 10
-135.807286201778
 20
-257.421247546821
 30
0.0
  3
_punkt
  1

  0
LINE
  5
237
330
74
100
AcDbEntity
  8
1
  6
Continuous
 62
     2
100
AcDbLine
 10
-135.807286201778
 20
-257.421247546821
 30
0.0
 11
-130.807286201779
 21
-257.421247546821
 31
0.0
  0
LINE
  5
238
330
74
100
AcDbEntity
  8
1
  6
Continuous
 62
     2
100
AcDbLine
 10
-135.807286201778
 20
-257.421247546821
 30
0.0
 11
-135.807286201778
 21
-262.4212475468211
 31
0.0
  0
ENDBLK
  5
76
330
74
100
AcDbEntity
  8
0
100
AcDbBlockEnd
  0
BLOCK
  5
7A
330
77
100
AcDbEntity
  8
0
100
AcDbBlockBegin
  2
A4I_CS
 70
     0
 10
-135.807286201778
 20
-262.4212475468211
 30
0.0
  3
A4I_CS
  1

  0
INSERT
  5
78
330
77
100
AcDbEntity
  8
1
100
AcDbBlockReference
  2
_rahmen
 10
-135.807286201778
 20
-262.4212475468211
 30
0.0
  0
INSERT
  5
79
330
77
100
AcDbEntity
  8
1
100
AcDbBlockReference
  2
_punkt
 10
-135.807286201778
 20
-257.421247546821
 30
0.0
  0
ENDBLK
  5
7B
330
77
100
AcDbEntity
  8
0
100
AcDbBlockEnd
  0
BLOCK
  5
84
330
7C
100
AcDbEntity
  8
0
100
AcDbBlockBegin
  2
1
 70
     0
 10
0.0
 20
0.0
 30
0.0
  3
1
  1

  0
INSERT
  5
7D
330
7C
100
AcDbEntity
  8
0
100
AcDbBlockReference
  2
Allg1
 10
-212.9999999999851
 20
-177.9999999999901
 30
0.0
 41
5.0
 42
5.0
 43
5.0
  0
INSERT
  5
7E
330
7C
100
AcDbEntity
  8
0
100
AcDbBlockReference
  2
Drfsicht1
 10
-307.0000000000001
 20
-161.9999999999749
 30
0.0
 41
5.0
 42
5.0
 43
5.0
  0
INSERT
  5
7F
330
7C
100
AcDbEntity
  8
0
100
AcDbBlockReference
  2
Vordans1
 10
-307.0
 20
-104.1250039338942
 30
0.0
 41
5.0
 42
5.0
 43
5.0
  0
INSERT
  5
80
330
7C
100
AcDbEntity
  8
0
100
AcDbBlockReference
  2
SA_Rechts1
 10
-364.1249998807688
 20
-104.1250039338942
 30
0.0
 41
5.0
 42
5.0
 43
5.0
  0
INSERT
  5
81
330
7C
100
AcDbEntity
  8
0
100
AcDbBlockReference
  2
Rckans1
 10
-216.7500002384126
 20
-104.1250039338942
 30
0.0
 41
5.0
 42
5.0
 43
5.0
  0
INSERT
  5
82
330
7C
100
AcDbEntity
  8
0
100
AcDbBlockReference
  2
SA_Links1
 10
-261.8750001192312
 20
-104.1250039338942
 30
0.0
 41
5.0
 42
5.0
 43
5.0
  0
INSERT
  5
83
330
7C
100
AcDbEntity
  8
0
100
AcDbBlockReference
  2
A4I_CS
 10
-135.807286201778
 20
-262.4212475468211
 30
0.0
  0
ENDBLK
  5
85
330
7C
100
AcDbEntity
  8
0
100
AcDbBlockEnd
  0
BLOCK
  5
BB
330
B4
100
AcDbEntity
  8
0
100
AcDbBlockBegin
  2
*D17
 70
     1
 10
0.0
 20
0.0
 30
0.0
  3
*D17
  1

  0
LINE
  5
B5
330
B4
100
AcDbEntity
  8
1
  6
Continuous
 62
     2
100
AcDbLine
 10
-66.51836597337221
 20
-30.62499997614813
 30
0.0
 11
-66.51836597337221
 21
-34.17499997614813
 31
0.0
  0
LINE
  5
B6
330
B4
100
AcDbEntity
  8
1
  6
Continuous
 62
     2
100
AcDbLine
 10
-63.89999999999986
 20
-30.62499997614813
 30
0.0
 11
-66.81836597337221
 21
-30.62499997614813
 31
0.0
  0
LINE
  5
B7
330
B4
100
AcDbEntity
  8
1
  6
Continuous
 62
     2
100
AcDbLine
 10
-63.89999999999986
 20
-34.17499997614813
 30
0.0
 11
-66.81836597337221
 21
-34.17499997614813
 31
0.0
  0
SOLID
  5
B8
330
B4
100
AcDbEntity
  8
1
 62
     2
100
AcDbTrace
 10
-66.42620922506103
 20
-31.32499997614813
 30
0.0
 11
-66.6105227216834
 21
-31.32499997614813
 31
0.0
 12
-66.51836597337221
 22
-30.62499997614813
 32
0.0
 13
-66.51836597337221
 23
-30.62499997614813
 33
0.0
  0
SOLID
  5
B9
330
B4
100
AcDbEntity
  8
1
 62
     2
100
AcDbTrace
 10
-66.6105227216834
 20
-33.47499997614813
 30
0.0
 11
-66.42620922506103
 21
-33.47499997614813
 31
0.0
 12
-66.51836597337221
 22
-34.17499997614813
 32
0.0
 13
-66.51836597337221
 23
-34.17499997614813
 33
0.0
  0
MTEXT
  5
BA
330
B4
100
AcDbEntity
  8
1
 62
     3
100
AcDbMText
 10
-66.88836597337222
 20
-33.46729587095961
 30
0.0
 40
0.7
 41
0.0
 71
     7
 72
     1
  1
3,55
  7
CONVERTER_11
 11
0.0
 21
1.0
 31
0.0
 73
     1
 44
0.60024009603842
  0
ENDBLK
  5
BC
330
B4
100
AcDbEntity
  8
0
100
AcDbBlockEnd
  0
BLOCK
  5
D5
330
CC
100
AcDbEntity
  8
0
100
AcDbBlockBegin
  2
*D18
 70
     1
 10
0.0
 20
0.0
 30
0.0
  3
*D18
  1

  0
LINE
  5
CD
330
CC
100
AcDbEntity
  8
1
  6
Continuous
 62
     2
100
AcDbLine
 10
-66.898951060355
 20
-18.62500307559534
 30
0.0
 11
-66.898951060355
 21
-20.02500307559534
 31
0.0
  0
LINE
  5
CE
330
CC
100
AcDbEntity
  8
1
  6
Continuous
 62
     2
100
AcDbLine
 10
-66.898951060355
 20
-20.02500307559534
 30
0.0
 11
-66.898951060355
 21
-21.6250030755957
 31
0.0
  0
LINE
  5
CF
330
CC
100
AcDbEntity
  8
1
  6
Continuous
 62
     2
100
AcDbLine
 10
-66.898951060355
 20
-21.6250030755957
 30
0.0
 11
-66.898951060355
 21
-23.0250030755957
 31
0.0
  0
LINE
  5
D0
330
CC
100
AcDbEntity
  8
1
  6
Continuous
 62
     2
100
AcDbLine
 10
-63.89999999999941
 20
-20.02500307559534
 30
0.0
 11
-67.198951060355
 21
-20.02500307559534
 31
0.0
  0
LINE
  5
D1
330
CC
100
AcDbEntity
  8
1
  6
Continuous
 62
     2
100
AcDbLine
 10
-63.45000000000059
 20
-21.6250030755957
 30
0.0
 11
-67.198951060355
 21
-21.6250030755957
 31
0.0
  0
SOLID
  5
D2
330
CC
100
AcDbEntity
  8
1
 62
     2
100
AcDbTrace
 10
-66.99110780866619
 20
-19.32500307559534
 30
0.0
 11
-66.80679431204382
 21
-19.32500307559534
 31
0.0
 12
-66.898951060355
 22
-20.02500307559534
 32
0.0
 13
-66.898951060355
 23
-20.02500307559534
 33
0.0
  0
SOLID
  5
D3
330
CC
100
AcDbEntity
  8
1
 62
     2
100
AcDbTrace
 10
-66.80679431204382
 20
-22.3250030755957
 30
0.0
 11
-66.99110780866619
 21
-22.3250030755957
 31
0.0
 12
-66.898951060355
 22
-21.6250030755957
 32
0.0
 13
-66.898951060355
 23
-21.6250030755957
 33
0.0
  0
MTEXT
  5
D4
330
CC
100
AcDbEntity
  8
1
 62
     3
100
AcDbMText
 10
-67.26895106035501
 20
-21.6721828496404
 30
0.0
 40
0.7
 41
0.0
 71
     7
 72
     1
  1
1,6
  7
CONVERTER_11
 11
0.0
 21
1.0
 31
0.0
 73
     1
 44
0.60024009603842
  0
ENDBLK
  5
D6
330
CC
100
AcDbEntity
  8
0
100
AcDbBlockEnd
  0
BLOCK
  5
E0
330
D9
100
AcDbEntity
  8
0
100
AcDbBlockBegin
  2
*D19
 70
     1
 10
0.0
 20
0.0
 30
0.0
  3
*D19
  1

  0
LINE
  5
DA
330
D9
100
AcDbEntity
  8
1
  6
Continuous
 62
     2
100
AcDbLine
 10
-64.65000000000022
 20
-23.97524849709841
 30
0.0
 11
-58.15000000000023
 21
-23.97524849709841
 31
0.0
  0
LINE
  5
DB
330
D9
100
AcDbEntity
  8
1
  6
Continuous
 62
     2
100
AcDbLine
 10
-64.65000000000022
 20
-21.12500307559519
 30
0.0
 11
-64.65000000000022
 21
-24.27524849709841
 31
0.0
  0
LINE
  5
DC
330
D9
100
AcDbEntity
  8
1
  6
Continuous
 62
     2
100
AcDbLine
 10
-58.15000000000023
 20
-21.12500307559923
 30
0.0
 11
-58.15000000000023
 21
-24.27524849709841
 31
0.0
  0
SOLID
  5
DD
330
D9
100
AcDbEntity
  8
1
 62
     2
100
AcDbTrace
 10
-63.95000000000022
 20
-23.88309174878723
 30
0.0
 11
-63.95000000000022
 21
-24.06740524540959
 31
0.0
 12
-64.65000000000022
 22
-23.97524849709841
 32
0.0
 13
-64.65000000000022
 23
-23.97524849709841
 33
0.0
  0
SOLID
  5
DE
330
D9
100
AcDbEntity
  8
1
 62
     2
100
AcDbTrace
 10
-58.85000000000023
 20
-24.06740524540959
 30
0.0
 11
-58.85000000000023
 21
-23.88309174878723
 31
0.0
 12
-58.15000000000023
 22
-23.97524849709841
 32
0.0
 13
-58.15000000000023
 23
-23.97524849709841
 33
0.0
  0
MTEXT
  5
DF
330
D9
100
AcDbEntity
  8
1
 62
     3
100
AcDbMText
 10
-61.922754646415
 20
-23.60524849709841
 30
0.0
 40
0.7
 41
0.0
 71
     7
 72
     1
  1
6,5
  7
CONVERTER_11
 11
0.9999999999970619
 21
2.424068405545306E-6
 31
0.0
 73
     1
 44
0.60024009603842
  0
ENDBLK
  5
E1
330
D9
100
AcDbEntity
  8
0
100
AcDbBlockEnd
  0
ENDSEC
  0
SECTION
  2
ENTITIES
  0
INSERT
  5
86
330
1F
100
AcDbEntity
  8
1
100
AcDbBlockReference
  2
1
 10
0.0
 20
0.0
 30
0.0
  0
ENDSEC
  0
SECTION
  2
OBJECTS
  0
DICTIONARY
  5
C
330
0
100
AcDbDictionary
281
     1
  3
ACAD_GROUP
350
D
  3
ACAD_LAYOUT
350
1A
  3
ACAD_MATERIAL
350
3B
  3
ACAD_MLEADERSTYLE
350
260
  3
ACAD_MLINESTYLE
350
17
  3
ACAD_PLOTSETTINGS
350
19
  3
ACAD_PLOTSTYLENAME
350
E
  3
ACAD_TABLESTYLE
350
25F
  3
ACAD_VISUALSTYLE
350
2A
  0
DICTIONARY
  5
D
102
{ACAD_REACTORS
330
C
102
}
330
C
100
AcDbDictionary
281
     1
  0
DICTIONARY
  5
1A
102
{ACAD_REACTORS
330
C
102
}
330
C
100
AcDbDictionary
281
     1
  3
Layout1
350
1E
  3
Layout2
350
26
  3
Model
350
22
  0
DICTIONARY
  5
3B
102
{ACAD_REACTORS
330
C
102
}
330
C
100
AcDbDictionary
281
     1
  3
ByBlock
350
3D
  3
ByLayer
350
3C
  3
Global
350
3E
  0
DICTIONARY
  5
260
102
{ACAD_REACTORS
330
C
102
}
330
C
100
AcDbDictionary
281
     1
  0
DICTIONARY
  5
17
102
{ACAD_REACTORS
330
C
102
}
330
C
100
AcDbDictionary
281
     1
  3
Standard
350
18
  0
DICTIONARY
  5
19
102
{ACAD_REACTORS
330
C
102
}
330
C
100
AcDbDictionary
281
     1
  0
ACDBDICTIONARYWDFLT
  5
E
102
{ACAD_REACTORS
330
C
102
}
330
C
100
AcDbDictionary
281
     1
  3
Normal
350
F
100
AcDbDictionaryWithDefault
340
F
  0
DICTIONARY
  5
25F
102
{ACAD_REACTORS
330
C
102
}
330
C
100
AcDbDictionary
281
     1
  0
DICTIONARY
  5
2A
102
{ACAD_REACTORS
330
C
102
}
330
C
100
AcDbDictionary
281
     1
  3
2dWireframe
350
2F
  3
3D Hidden
350
31
  3
3dWireframe
350
30
  3
Basic
350
32
  3
Brighten
350
36
  3
ColorChange
350
3A
  3
Conceptual
350
34
  3
Dim
350
35
  3
Facepattern
350
39
  3
Flat
350
2B
  3
FlatWithEdges
350
2C
  3
Gouraud
350
2D
  3
GouraudWithEdges
350
2E
  3
Linepattern
350
38
  3
Realistic
350
33
  3
Thicken
350
37
  0
LAYOUT
  5
1E
102
{ACAD_REACTORS
330
1A
102
}
330
1A
100
AcDbPlotSettings
  1

  2
none_device
  4

  6

 40
0.0
 41
0.0
 42
0.0
 43
0.0
 44
0.0
 45
0.0
 46
0.0
 47
0.0
 48
0.0
 49
0.0
140
0.0
141
0.0
142
1.0
143
1.0
 70
   688
 72
     0
 73
     0
 74
     5
  7

 75
    16
 76
     0
 77
     2
 78
   300
147
1.0
148
0.0
149
0.0
100
AcDbLayout
  1
Layout1
 70
     1
 71
     1
 10
0.0
 20
0.0
 11
12.0
 21
9.0
 12
0.0
 22
0.0
 32
0.0
 14
1.00000000000000E+20
 24
1.00000000000000E+20
 34
1.00000000000000E+20
 15
-1.00000000000000E+20
 25
-1.00000000000000E+20
 35
-1.00000000000000E+20
146
0.0
 13
0.0
 23
0.0
 33
0.0
 16
1.0
 26
0.0
 36
0.0
 17
0.0
 27
1.0
 37
0.0
 76
     0
330
1B
  0
LAYOUT
  5
26
102
{ACAD_REACTORS
330
1A
102
}
330
1A
100
AcDbPlotSettings
  1

  2
none_device
  4

  6

 40
0.0
 41
0.0
 42
0.0
 43
0.0
 44
0.0
 45
0.0
 46
0.0
 47
0.0
 48
0.0
 49
0.0
140
0.0
141
0.0
142
1.0
143
1.0
 70
   688
 72
     0
 73
     0
 74
     5
  7

 75
    16
 76
     0
 77
     2
 78
   300
147
1.0
148
0.0
149
0.0
100
AcDbLayout
  1
Layout2
 70
     1
 71
     2
 10
0.0
 20
0.0
 11
0.0
 21
0.0
 12
0.0
 22
0.0
 32
0.0
 14
0.0
 24
0.0
 34
0.0
 15
0.0
 25
0.0
 35
0.0
146
0.0
 13
0.0
 23
0.0
 33
0.0
 16
1.0
 26
0.0
 36
0.0
 17
0.0
 27
1.0
 37
0.0
 76
     0
330
23
  0
LAYOUT
  5
22
102
{ACAD_REACTORS
330
1A
102
}
330
1A
100
AcDbPlotSettings
  1

  2
none_device
  4

  6

 40
0.0
 41
0.0
 42
0.0
 43
0.0
 44
0.0
 45
0.0
 46
0.0
 47
0.0
 48
0.0
 49
0.0
140
0.0
141
0.0
142
1.0
143
1.0
 70
  1712
 72
     0
 73
     0
 74
     0
  7

 75
     0
 76
     0
 77
     2
 78
   300
147
1.0
148
0.0
149
0.0
100
AcDbLayout
  1
Model
 70
     1
 71
     0
 10
0.0
 20
0.0
 11
12.0
 21
9.0
 12
0.0
 22
0.0
 32
0.0
 14
-427.8072862017771
 24
-262.4212475468211
 34
0.0
 15
-130.807286201779
 25
-52.42124754682098
 35
0.0
146
0.0
 13
0.0
 23
0.0
 33
0.0
 16
1.0
 26
0.0
 36
0.0
 17
0.0
 27
1.0
 37
0.0
 76
     0
330
1F
331
29
  0
MATERIAL
  5
3D
102
{ACAD_REACTORS
330
3B
102
}
102
{ACAD_XDICTIONARY
360
25B
102
}
330
3B
100
AcDbMaterial
  1
ByBlock
  0
MATERIAL
  5
3C
102
{ACAD_REACTORS
330
3B
102
}
102
{ACAD_XDICTIONARY
360
259
102
}
330
3B
100
AcDbMaterial
  1
ByLayer
  0
MATERIAL
  5
3E
102
{ACAD_REACTORS
330
3B
102
}
102
{ACAD_XDICTIONARY
360
25D
102
}
330
3B
100
AcDbMaterial
  1
Global
  0
MLINESTYLE
  5
18
102
{ACAD_REACTORS
330
17
102
}
330
17
100
AcDbMlineStyle
  2
Standard
 70
     0
  3

 62
   256
 51
90.0
 52
90.0
 71
     2
 49
0.5
 62
   256
  6
BYLAYER
 49
-0.5
 62
   256
  6
BYLAYER
  0
ACDBPLACEHOLDER
  5
F
102
{ACAD_REACTORS
330
E
102
}
330
E
  0
VISUALSTYLE
  5
2F
102
{ACAD_REACTORS
330
2A
102
}
102
{ACAD_XDICTIONARY
360
241
102
}
330
2A
100
AcDbVisualStyle
  2
2dWireframe
 70
     4
 71
     0
 72
     2
 73
     0
 90
        0
 40
-0.6
 41
-30.0
 62
     5
 63
     7
421
 16777215
 74
     1
 91
        4
 64
     7
 65
   257
 75
     1
175
     1
 42
1.0
 92
        0
 66
   257
 43
1.0
 76
     1
 77
     6
 78
     2
 67
     7
 79
     5
170
     0
171
     0
290
     0
174
     0
 93
        1
 44
0.0
173
     0
291
     0
 45
0.0
1001
ACAD
1000
AcDbSavedByObjectVersion
1070
     0
  0
VISUALSTYLE
  5
31
102
{ACAD_REACTORS
330
2A
102
}
102
{ACAD_XDICTIONARY
360
245
102
}
330
2A
100
AcDbVisualStyle
  2
3D Hidden
 70
     6
 71
     1
 72
     2
 73
     2
 90
        0
 40
-0.6
 41
-30.0
 62
     5
 63
     7
421
 16777215
 74
     2
 91
        2
 64
     7
 65
   257
 75
     2
175
     1
 42
40.0
 92
        0
 66
   257
 43
1.0
 76
     1
 77
     6
 78
     2
 67
     7
 79
     3
170
     0
171
     0
290
     0
174
     0
 93
        1
 44
0.0
173
     0
291
     0
 45
0.0
1001
ACAD
1000
AcDbSavedByObjectVersion
1070
     0
  0
VISUALSTYLE
  5
30
102
{ACAD_REACTORS
330
2A
102
}
102
{ACAD_XDICTIONARY
360
243
102
}
330
2A
100
AcDbVisualStyle
  2
3dWireframe
 70
     5
 71
     0
 72
     2
 73
     0
 90
        0
 40
-0.6
 41
-30.0
 62
     5
 63
     7
421
 16777215
 74
     1
 91
        4
 64
     7
 65
   257
 75
     1
175
     1
 42
1.0
 92
        0
 66
   257
 43
1.0
 76
     1
 77
     6
 78
     2
 67
     7
 79
     5
170
     0
171
     0
290
     0
174
     0
 93
        1
 44
0.0
173
     0
291
     0
 45
0.0
1001
ACAD
1000
AcDbSavedByObjectVersion
1070
     0
  0
VISUALSTYLE
  5
32
102
{ACAD_REACTORS
330
2A
102
}
102
{ACAD_XDICTIONARY
360
247
102
}
330
2A
100
AcDbVisualStyle
  2
Basic
 70
     7
 71
     1
 72
     0
 73
     1
 90
        0
 40
-0.6
 41
-30.0
 62
     5
 63
     7
421
 16777215
 74
     0
 91
        4
 64
     7
 65
   257
 75
     1
175
     1
 42
1.0
 92
        8
 66
     7
 43
1.0
 76
     1
 77
     6
 78
     2
 67
     7
 79
     5
170
     0
171
     0
290
     0
174
     0
 93
        1
 44
0.0
173
     0
291
     1
 45
0.0
1001
ACAD
1000
AcDbSavedByObjectVersion
1070
     0
  0
VISUALSTYLE
  5
36
102
{ACAD_REACTORS
330
2A
102
}
102
{ACAD_XDICTIONARY
360
24F
102
}
330
2A
100
AcDbVisualStyle
  2
Brighten
 70
    12
 71
     2
 72
     2
 73
     0
 90
        0
 40
-0.6
 41
-30.0
 62
     5
 63
     7
421
 16777215
 74
     1
 91
        4
 64
     7
 65
   257
 75
     1
175
     1
 42
1.0
 92
        8
 66
     7
 43
1.0
 76
     1
 77
     6
 78
     2
 67
     7
 79
     5
170
     0
171
     0
290
     0
174
     0
 93
        1
 44
50.0
173
     0
291
     1
 45
0.0
1001
ACAD
1000
AcDbSavedByObjectVersion
1070
     0
  0
VISUALSTYLE
  5
3A
102
{ACAD_REACTORS
330
2A
102
}
102
{ACAD_XDICTIONARY
360
257
102
}
330
2A
100
AcDbVisualStyle
  2
ColorChange
 70
    16
 71
     2
 72
     2
 73
     3
 90
        0
 40
-0.6
 41
-30.0
 62
     5
 63
     8
421
  8421504
 74
     1
 91
        4
 64
     7
 65
   257
 75
     1
175
     1
 42
1.0
 92
        8
 66
     8
424
  8421504
 43
1.0
 76
     1
 77
     6
 78
     2
 67
     7
 79
     5
170
     0
171
     0
290
     0
174
     0
 93
        1
 44
0.0
173
     0
291
     1
 45
0.0
1001
ACAD
1000
AcDbSavedByObjectVersion
1070
     0
  0
VISUALSTYLE
  5
34
102
{ACAD_REACTORS
330
2A
102
}
102
{ACAD_XDICTIONARY
360
24B
102
}
330
2A
100
AcDbVisualStyle
  2
Conceptual
 70
     9
 71
     3
 72
     2
 73
     0
 90
        0
 40
-0.6
 41
-30.0
 62
     5
 63
     7
421
 16777215
 74
     2
 91
        2
 64
     7
 65
   257
 75
     1
175
     1
 42
40.0
 92
        8
 66
     7
 43
1.0
 76
     1
 77
     6
 78
     2
 67
     7
 79
     3
170
     0
171
     0
290
     0
174
     0
 93
        1
 44
0.0
173
     0
291
     0
 45
0.0
1001
ACAD
1000
AcDbSavedByObjectVersion
1070
     0
  0
VISUALSTYLE
  5
35
102
{ACAD_REACTORS
330
2A
102
}
102
{ACAD_XDICTIONARY
360
24D
102
}
330
2A
100
AcDbVisualStyle
  2
Dim
 70
    11
 71
     2
 72
     2
 73
     0
 90
        0
 40
-0.6
 41
-30.0
 62
     5
 63
     7
421
 16777215
 74
     1
 91
        4
 64
     7
 65
   257
 75
     1
175
     1
 42
1.0
 92
        8
 66
     7
 43
1.0
 76
     1
 77
     6
 78
     2
 67
     7
 79
     5
170
     0
171
     0
290
     0
174
     0
 93
        1
 44
-50.0
173
     0
291
     1
 45
0.0
1001
ACAD
1000
AcDbSavedByObjectVersion
1070
     0
  0
VISUALSTYLE
  5
39
102
{ACAD_REACTORS
330
2A
102
}
102
{ACAD_XDICTIONARY
360
255
102
}
330
2A
100
AcDbVisualStyle
  2
Facepattern
 70
    15
 71
     2
 72
     2
 73
     0
 90
        0
 40
-0.6
 41
-30.0
 62
     5
 63
     7
421
 16777215
 74
     1
 91
        4
 64
     7
 65
   257
 75
     1
175
     1
 42
1.0
 92
        8
 66
     7
 43
1.0
 76
     1
 77
     6
 78
     2
 67
     7
 79
     5
170
     0
171
     0
290
     0
174
     0
 93
        1
 44
0.0
173
     0
291
     1
 45
0.0
1001
ACAD
1000
AcDbSavedByObjectVersion
1070
     0
  0
VISUALSTYLE
  5
2B
102
{ACAD_REACTORS
330
2A
102
}
102
{ACAD_XDICTIONARY
360
239
102
}
330
2A
100
AcDbVisualStyle
  2
Flat
 70
     0
 71
     2
 72
     1
 73
     1
 90
        2
 40
-0.6
 41
30.0
 62
     5
 63
     7
421
 16777215
 74
     0
 91
        4
 64
     7
 65
   257
 75
     1
175
     1
 42
1.0
 92
        8
 66
     7
 43
1.0
 76
     1
 77
     6
 78
     2
 67
     7
 79
     5
170
     0
171
     0
290
     0
174
     0
 93
       13
 44
0.0
173
     0
291
     1
 45
0.0
1001
ACAD
1000
AcDbSavedByObjectVersion
1070
     0
  0
VISUALSTYLE
  5
2C
102
{ACAD_REACTORS
330
2A
102
}
102
{ACAD_XDICTIONARY
360
23B
102
}
330
2A
100
AcDbVisualStyle
  2
FlatWithEdges
 70
     1
 71
     2
 72
     1
 73
     1
 90
        2
 40
-0.6
 41
30.0
 62
     5
 63
     7
421
 16777215
 74
     1
 91
        4
 64
     7
 65
   257
 75
     1
175
     1
 42
1.0
 92
        0
 66
   257
 43
1.0
 76
     1
 77
     6
 78
     2
 67
     7
 79
     5
170
     0
171
     0
290
     0
174
     0
 93
       13
 44
0.0
173
     0
291
     1
 45
0.0
1001
ACAD
1000
AcDbSavedByObjectVersion
1070
     0
  0
VISUALSTYLE
  5
2D
102
{ACAD_REACTORS
330
2A
102
}
102
{ACAD_XDICTIONARY
360
23D
102
}
330
2A
100
AcDbVisualStyle
  2
Gouraud
 70
     2
 71
     2
 72
     2
 73
     1
 90
        2
 40
-0.6
 41
30.0
 62
     5
 63
     7
421
 16777215
 74
     0
 91
        4
 64
     7
 65
   257
 75
     1
175
     1
 42
1.0
 92
        0
 66
     7
 43
1.0
 76
     1
 77
     6
 78
     2
 67
     7
 79
     5
170
     0
171
     0
290
     0
174
     0
 93
       13
 44
0.0
173
     0
291
     1
 45
0.0
1001
ACAD
1000
AcDbSavedByObjectVersion
1070
     0
  0
VISUALSTYLE
  5
2E
102
{ACAD_REACTORS
330
2A
102
}
102
{ACAD_XDICTIONARY
360
23F
102
}
330
2A
100
AcDbVisualStyle
  2
GouraudWithEdges
 70
     3
 71
     2
 72
     2
 73
     1
 90
        2
 40
-0.6
 41
30.0
 62
     5
 63
     7
421
 16777215
 74
     1
 91
        4
 64
     7
 65
   257
 75
     1
175
     1
 42
1.0
 92
        0
 66
   257
 43
1.0
 76
     1
 77
     6
 78
     2
 67
     7
 79
     5
170
     0
171
     0
290
     0
174
     0
 93
       13
 44
0.0
173
     0
291
     1
 45
0.0
1001
ACAD
1000
AcDbSavedByObjectVersion
1070
     0
  0
VISUALSTYLE
  5
38
102
{ACAD_REACTORS
330
2A
102
}
102
{ACAD_XDICTIONARY
360
253
102
}
330
2A
100
AcDbVisualStyle
  2
Linepattern
 70
    14
 71
     2
 72
     2
 73
     0
 90
        0
 40
-0.6
 41
-30.0
 62
     5
 63
     7
421
 16777215
 74
     1
 91
        4
 64
     7
 65
   257
 75
     7
175
     7
 42
1.0
 92
        8
 66
     7
 43
1.0
 76
     1
 77
     6
 78
     2
 67
     7
 79
     5
170
     0
171
     0
290
     0
174
     0
 93
        1
 44
0.0
173
     0
291
     1
 45
0.0
1001
ACAD
1000
AcDbSavedByObjectVersion
1070
     0
  0
VISUALSTYLE
  5
33
102
{ACAD_REACTORS
330
2A
102
}
102
{ACAD_XDICTIONARY
360
249
102
}
330
2A
100
AcDbVisualStyle
  2
Realistic
 70
     8
 71
     2
 72
     2
 73
     0
 90
        0
 40
-0.6
 41
-30.0
 62
     5
 63
     7
421
 16777215
 74
     1
 91
        0
 64
     7
 65
   257
 75
     1
175
     1
 42
1.0
 92
        8
 66
     8
424
  7895160
 43
1.0
 76
     1
 77
     6
 78
     2
 67
     7
 79
     5
170
     0
171
     0
290
     0
174
     0
 93
       13
 44
0.0
173
     0
291
     0
 45
0.0
1001
ACAD
1000
AcDbSavedByObjectVersion
1070
     0
  0
VISUALSTYLE
  5
37
102
{ACAD_REACTORS
330
2A
102
}
102
{ACAD_XDICTIONARY
360
251
102
}
330
2A
100
AcDbVisualStyle
  2
Thicken
 70
    13
 71
     2
 72
     2
 73
     0
 90
        0
 40
-0.6
 41
-30.0
 62
     5
 63
     7
421
 16777215
 74
     1
 91
        4
 64
     7
 65
   257
 75
     1
175
     1
 42
1.0
 92
       12
 66
     7
 43
1.0
 76
     1
 77
     6
 78
     2
 67
     7
 79
     5
170
     0
171
     0
290
     0
174
     0
 93
        1
 44
0.0
173
     0
291
     1
 45
0.0
1001
ACAD
1000
AcDbSavedByObjectVersion
1070
     0
  0
DICTIONARY
  5
25B
330
3D
100
AcDbDictionary
280
     1
281
     1
  3
ACAD_XREC_ROUNDTRIP
360
25C
  0
DICTIONARY
  5
259
330
3C
100
AcDbDictionary
280
     1
281
     1
  3
ACAD_XREC_ROUNDTRIP
360
25A
  0
DICTIONARY
  5
25D
330
3E
100
AcDbDictionary
280
     1
281
     1
  3
ACAD_XREC_ROUNDTRIP
360
25E
  0
DICTIONARY
  5
241
330
2F
100
AcDbDictionary
280
     1
281
     1
  3
ACAD_XREC_ROUNDTRIP
360
242
  0
DICTIONARY
  5
245
330
31
100
AcDbDictionary
280
     1
281
     1
  3
ACAD_XREC_ROUNDTRIP
360
246
  0
DICTIONARY
  5
243
330
30
100
AcDbDictionary
280
     1
281
     1
  3
ACAD_XREC_ROUNDTRIP
360
244
  0
DICTIONARY
  5
247
330
32
100
AcDbDictionary
280
     1
281
     1
  3
ACAD_XREC_ROUNDTRIP
360
248
  0
DICTIONARY
  5
24F
330
36
100
AcDbDictionary
280
     1
281
     1
  3
ACAD_XREC_ROUNDTRIP
360
250
  0
DICTIONARY
  5
257
330
3A
100
AcDbDictionary
280
     1
281
     1
  3
ACAD_XREC_ROUNDTRIP
360
258
  0
DICTIONARY
  5
24B
330
34
100
AcDbDictionary
280
     1
281
     1
  3
ACAD_XREC_ROUNDTRIP
360
24C
  0
DICTIONARY
  5
24D
330
35
100
AcDbDictionary
280
     1
281
     1
  3
ACAD_XREC_ROUNDTRIP
360
24E
  0
DICTIONARY
  5
255
330
39
100
AcDbDictionary
280
     1
281
     1
  3
ACAD_XREC_ROUNDTRIP
360
256
  0
DICTIONARY
  5
239
330
2B
100
AcDbDictionary
280
     1
281
     1
  3
ACAD_XREC_ROUNDTRIP
360
23A
  0
DICTIONARY
  5
23B
330
2C
100
AcDbDictionary
280
     1
281
     1
  3
ACAD_XREC_ROUNDTRIP
360
23C
  0
DICTIONARY
  5
23D
330
2D
100
AcDbDictionary
280
     1
281
     1
  3
ACAD_XREC_ROUNDTRIP
360
23E
  0
DICTIONARY
  5
23F
330
2E
100
AcDbDictionary
280
     1
281
     1
  3
ACAD_XREC_ROUNDTRIP
360
240
  0
DICTIONARY
  5
253
330
38
100
AcDbDictionary
280
     1
281
     1
  3
ACAD_XREC_ROUNDTRIP
360
254
  0
DICTIONARY
  5
249
330
33
100
AcDbDictionary
280
     1
281
     1
  3
ACAD_XREC_ROUNDTRIP
360
24A
  0
DICTIONARY
  5
251
330
37
100
AcDbDictionary
280
     1
281
     1
  3
ACAD_XREC_ROUNDTRIP
360
252
  0
XRECORD
  5
25C
102
{ACAD_REACTORS
330
25B
102
}
330
25B
100
AcDbXrecord
280
     1
102
MATERIAL
148
0.0
149
0.0
149
0.0
 93
        0
 94
      127
282
     0
 72
     1
 77
     1
171
     1
175
     1
179
     1
273
     0
  0
XRECORD
  5
25A
102
{ACAD_REACTORS
330
259
102
}
330
259
100
AcDbXrecord
280
     1
102
MATERIAL
148
0.0
149
0.0
149
0.0
 93
        0
 94
      127
282
     0
 72
     1
 77
     1
171
     1
175
     1
179
     1
273
     0
  0
XRECORD
  5
25E
102
{ACAD_REACTORS
330
25D
102
}
330
25D
100
AcDbXrecord
280
     1
102
MATERIAL
148
0.0
149
0.0
149
0.0
 93
        0
 94
      127
282
     0
 72
     1
 77
     1
171
     1
175
     1
179
     1
273
     0
  0
XRECORD
  5
242
102
{ACAD_REACTORS
330
241
102
}
330
241
100
AcDbXrecord
280
     1
102
RTVSPropertyOp0
 70
     1
102
RTVSPropertyOp1
 70
     1
102
RTVSPropertyOp2
 70
     1
102
RTVSPropertyOp3
 70
     1
102
RTVSPropertyOp4
 70
     1
102
RTVSPropertyOp5
 70
     1
102
RTVSPropertyOp6
 70
     1
102
RTVSPropertyOp7
 70
     1
102
RTVSPropertyOp8
 70
     1
102
RTVSPropertyOp9
 70
     1
102
RTVSPropertyOp10
 70
     1
102
RTVSPropertyOp11
 70
     1
102
RTVSPropertyOp12
 70
     1
102
RTVSPropertyOp13
 70
     1
102
RTVSPropertyOp14
 70
     1
102
RTVSPropertyOp15
 70
     1
102
RTVSPropertyOp16
 70
     1
102
RTVSPropertyOp17
 70
     1
102
RTVSPropertyOp18
 70
     1
102
RTVSPropertyOp19
 70
     1
102
RTVSPropertyOp20
 70
     1
102
RTVSPropertyOp21
 70
     1
102
RTVSPropertyOp22
 70
     1
102
RTVSPropertyOp23
 70
     1
102
RTVSPropertyOp24
 70
     1
102
RTVSPropertyOp25
 70
     1
102
RTVSPropertyOp26
 70
     1
102
RTVSPropertyOp27
 70
     1
102
RTVSPropertyOp28
 70
     1
102
RTVSPropertyOp29
 70
     1
102
RTVSPropertyOp30
 70
     1
102
RTVSPropertyOp31
 70
     1
102
RTVSPropertyOp32
 70
     1
  0
XRECORD
  5
246
102
{ACAD_REACTORS
330
245
102
}
330
245
100
AcDbXrecord
280
     1
102
RTVSPropertyOp0
 70
     1
102
RTVSPropertyOp1
 70
     1
102
RTVSPropertyOp2
 70
     1
102
RTVSPropertyOp3
 70
     1
102
RTVSPropertyOp4
 70
     1
102
RTVSPropertyOp5
 70
     1
102
RTVSPropertyOp6
 70
     1
102
RTVSPropertyOp7
 70
     1
102
RTVSPropertyOp8
 70
     1
102
RTVSPropertyOp9
 70
     1
102
RTVSPropertyOp10
 70
     1
102
RTVSPropertyOp11
 70
     1
102
RTVSPropertyOp12
 70
     1
102
RTVSPropertyOp13
 70
     1
102
RTVSPropertyOp14
 70
     1
102
RTVSPropertyOp15
 70
     1
102
RTVSPropertyOp16
 70
     1
102
RTVSPropertyOp17
 70
     1
102
RTVSPropertyOp18
 70
     1
102
RTVSPropertyOp19
 70
     1
102
RTVSPropertyOp20
 70
     1
102
RTVSPropertyOp21
 70
     1
102
RTVSPropertyOp22
 70
     1
102
RTVSPropertyOp23
 70
     1
102
RTVSPropertyOp24
 70
     1
102
RTVSPropertyOp25
 70
     1
102
RTVSPropertyOp26
 70
     1
102
RTVSPropertyOp27
 70
     1
102
RTVSPropertyOp28
 70
     1
102
RTVSPropertyOp29
 70
     1
102
RTVSPropertyOp30
 70
     1
102
RTVSPropertyOp31
 70
     1
102
RTVSPropertyOp32
 70
     1
  0
XRECORD
  5
244
102
{ACAD_REACTORS
330
243
102
}
330
243
100
AcDbXrecord
280
     1
102
RTVSPropertyOp0
 70
     1
102
RTVSPropertyOp1
 70
     1
102
RTVSPropertyOp2
 70
     1
102
RTVSPropertyOp3
 70
     1
102
RTVSPropertyOp4
 70
     1
102
RTVSPropertyOp5
 70
     1
102
RTVSPropertyOp6
 70
     1
102
RTVSPropertyOp7
 70
     1
102
RTVSPropertyOp8
 70
     1
102
RTVSPropertyOp9
 70
     1
102
RTVSPropertyOp10
 70
     1
102
RTVSPropertyOp11
 70
     1
102
RTVSPropertyOp12
 70
     1
102
RTVSPropertyOp13
 70
     1
102
RTVSPropertyOp14
 70
     1
102
RTVSPropertyOp15
 70
     1
102
RTVSPropertyOp16
 70
     1
102
RTVSPropertyOp17
 70
     1
102
RTVSPropertyOp18
 70
     1
102
RTVSPropertyOp19
 70
     1
102
RTVSPropertyOp20
 70
     1
102
RTVSPropertyOp21
 70
     1
102
RTVSPropertyOp22
 70
     1
102
RTVSPropertyOp23
 70
     1
102
RTVSPropertyOp24
 70
     1
102
RTVSPropertyOp25
 70
     1
102
RTVSPropertyOp26
 70
     1
102
RTVSPropertyOp27
 70
     1
102
RTVSPropertyOp28
 70
     1
102
RTVSPropertyOp29
 70
     1
102
RTVSPropertyOp30
 70
     1
102
RTVSPropertyOp31
 70
     1
102
RTVSPropertyOp32
 70
     1
  0
XRECORD
  5
248
102
{ACAD_REACTORS
330
247
102
}
330
247
100
AcDbXrecord
280
     1
102
RTVSPropertyOp0
 70
     1
102
RTVSPropertyOp1
 70
     1
102
RTVSPropertyOp2
 70
     1
102
RTVSPropertyOp3
 70
     1
102
RTVSPropertyOp4
 70
     1
102
RTVSPropertyOp5
 70
     1
102
RTVSPropertyOp6
 70
     1
102
RTVSPropertyOp7
 70
     1
102
RTVSPropertyOp8
 70
     1
102
RTVSPropertyOp9
 70
     1
102
RTVSPropertyOp10
 70
     1
102
RTVSPropertyOp11
 70
     1
102
RTVSPropertyOp12
 70
     1
102
RTVSPropertyOp13
 70
     1
102
RTVSPropertyOp14
 70
     1
102
RTVSPropertyOp15
 70
     1
102
RTVSPropertyOp16
 70
     1
102
RTVSPropertyOp17
 70
     1
102
RTVSPropertyOp18
 70
     1
102
RTVSPropertyOp19
 70
     1
102
RTVSPropertyOp20
 70
     1
102
RTVSPropertyOp21
 70
     1
102
RTVSPropertyOp22
 70
     1
102
RTVSPropertyOp23
 70
     1
102
RTVSPropertyOp24
 70
     1
102
RTVSPropertyOp25
 70
     1
102
RTVSPropertyOp26
 70
     1
102
RTVSPropertyOp27
 70
     1
102
RTVSPropertyOp28
 70
     1
102
RTVSPropertyOp29
 70
     1
102
RTVSPropertyOp30
 70
     1
102
RTVSPropertyOp31
 70
     1
102
RTVSPropertyOp32
 70
     1
  0
XRECORD
  5
250
102
{ACAD_REACTORS
330
24F
102
}
330
24F
100
AcDbXrecord
280
     1
102
RTVSPropertyOp0
 70
     1
102
RTVSPropertyOp1
 70
     1
102
RTVSPropertyOp2
 70
     1
102
RTVSPropertyOp3
 70
     1
102
RTVSPropertyOp4
 70
     1
102
RTVSPropertyOp5
 70
     1
102
RTVSPropertyOp6
 70
     1
102
RTVSPropertyOp7
 70
     1
102
RTVSPropertyOp8
 70
     1
102
RTVSPropertyOp9
 70
     1
102
RTVSPropertyOp10
 70
     1
102
RTVSPropertyOp11
 70
     1
102
RTVSPropertyOp12
 70
     1
102
RTVSPropertyOp13
 70
     1
102
RTVSPropertyOp14
 70
     1
102
RTVSPropertyOp15
 70
     1
102
RTVSPropertyOp16
 70
     1
102
RTVSPropertyOp17
 70
     1
102
RTVSPropertyOp18
 70
     1
102
RTVSPropertyOp19
 70
     1
102
RTVSPropertyOp20
 70
     1
102
RTVSPropertyOp21
 70
     1
102
RTVSPropertyOp22
 70
     1
102
RTVSPropertyOp23
 70
     1
102
RTVSPropertyOp24
 70
     1
102
RTVSPropertyOp25
 70
     1
102
RTVSPropertyOp26
 70
     1
102
RTVSPropertyOp27
 70
     1
102
RTVSPropertyOp28
 70
     1
102
RTVSPropertyOp29
 70
     1
102
RTVSPropertyOp30
 70
     1
102
RTVSPropertyOp31
 70
     1
102
RTVSPropertyOp32
 70
     1
  0
XRECORD
  5
258
102
{ACAD_REACTORS
330
257
102
}
330
257
100
AcDbXrecord
280
     1
102
RTVSPropertyOp0
 70
     1
102
RTVSPropertyOp1
 70
     1
102
RTVSPropertyOp2
 70
     1
102
RTVSPropertyOp3
 70
     1
102
RTVSPropertyOp4
 70
     1
102
RTVSPropertyOp5
 70
     1
102
RTVSPropertyOp6
 70
     1
102
RTVSPropertyOp7
 70
     1
102
RTVSPropertyOp8
 70
     1
102
RTVSPropertyOp9
 70
     1
102
RTVSPropertyOp10
 70
     1
102
RTVSPropertyOp11
 70
     1
102
RTVSPropertyOp12
 70
     1
102
RTVSPropertyOp13
 70
     1
102
RTVSPropertyOp14
 70
     1
102
RTVSPropertyOp15
 70
     1
102
RTVSPropertyOp16
 70
     1
102
RTVSPropertyOp17
 70
     1
102
RTVSPropertyOp18
 70
     1
102
RTVSPropertyOp19
 70
     1
102
RTVSPropertyOp20
 70
     1
102
RTVSPropertyOp21
 70
     1
102
RTVSPropertyOp22
 70
     1
102
RTVSPropertyOp23
 70
     1
102
RTVSPropertyOp24
 70
     1
102
RTVSPropertyOp25
 70
     1
102
RTVSPropertyOp26
 70
     1
102
RTVSPropertyOp27
 70
     1
102
RTVSPropertyOp28
 70
     1
102
RTVSPropertyOp29
 70
     1
102
RTVSPropertyOp30
 70
     1
102
RTVSPropertyOp31
 70
     1
102
RTVSPropertyOp32
 70
     1
  0
XRECORD
  5
24C
102
{ACAD_REACTORS
330
24B
102
}
330
24B
100
AcDbXrecord
280
     1
102
RTVSPropertyOp0
 70
     1
102
RTVSPropertyOp1
 70
     1
102
RTVSPropertyOp2
 70
     1
102
RTVSPropertyOp3
 70
     1
102
RTVSPropertyOp4
 70
     1
102
RTVSPropertyOp5
 70
     1
102
RTVSPropertyOp6
 70
     1
102
RTVSPropertyOp7
 70
     1
102
RTVSPropertyOp8
 70
     1
102
RTVSPropertyOp9
 70
     1
102
RTVSPropertyOp10
 70
     1
102
RTVSPropertyOp11
 70
     1
102
RTVSPropertyOp12
 70
     1
102
RTVSPropertyOp13
 70
     1
102
RTVSPropertyOp14
 70
     1
102
RTVSPropertyOp15
 70
     1
102
RTVSPropertyOp16
 70
     1
102
RTVSPropertyOp17
 70
     1
102
RTVSPropertyOp18
 70
     1
102
RTVSPropertyOp19
 70
     1
102
RTVSPropertyOp20
 70
     1
102
RTVSPropertyOp21
 70
     1
102
RTVSPropertyOp22
 70
     1
102
RTVSPropertyOp23
 70
     1
102
RTVSPropertyOp24
 70
     1
102
RTVSPropertyOp25
 70
     1
102
RTVSPropertyOp26
 70
     1
102
RTVSPropertyOp27
 70
     1
102
RTVSPropertyOp28
 70
     1
102
RTVSPropertyOp29
 70
     1
102
RTVSPropertyOp30
 70
     1
102
RTVSPropertyOp31
 70
     1
102
RTVSPropertyOp32
 70
     1
  0
XRECORD
  5
24E
102
{ACAD_REACTORS
330
24D
102
}
330
24D
100
AcDbXrecord
280
     1
102
RTVSPropertyOp0
 70
     1
102
RTVSPropertyOp1
 70
     1
102
RTVSPropertyOp2
 70
     1
102
RTVSPropertyOp3
 70
     1
102
RTVSPropertyOp4
 70
     1
102
RTVSPropertyOp5
 70
     1
102
RTVSPropertyOp6
 70
     1
102
RTVSPropertyOp7
 70
     1
102
RTVSPropertyOp8
 70
     1
102
RTVSPropertyOp9
 70
     1
102
RTVSPropertyOp10
 70
     1
102
RTVSPropertyOp11
 70
     1
102
RTVSPropertyOp12
 70
     1
102
RTVSPropertyOp13
 70
     1
102
RTVSPropertyOp14
 70
     1
102
RTVSPropertyOp15
 70
     1
102
RTVSPropertyOp16
 70
     1
102
RTVSPropertyOp17
 70
     1
102
RTVSPropertyOp18
 70
     1
102
RTVSPropertyOp19
 70
     1
102
RTVSPropertyOp20
 70
     1
102
RTVSPropertyOp21
 70
     1
102
RTVSPropertyOp22
 70
     1
102
RTVSPropertyOp23
 70
     1
102
RTVSPropertyOp24
 70
     1
102
RTVSPropertyOp25
 70
     1
102
RTVSPropertyOp26
 70
     1
102
RTVSPropertyOp27
 70
     1
102
RTVSPropertyOp28
 70
     1
102
RTVSPropertyOp29
 70
     1
102
RTVSPropertyOp30
 70
     1
102
RTVSPropertyOp31
 70
     1
102
RTVSPropertyOp32
 70
     1
  0
XRECORD
  5
256
102
{ACAD_REACTORS
330
255
102
}
330
255
100
AcDbXrecord
280
     1
102
RTVSPropertyOp0
 70
     1
102
RTVSPropertyOp1
 70
     1
102
RTVSPropertyOp2
 70
     1
102
RTVSPropertyOp3
 70
     1
102
RTVSPropertyOp4
 70
     1
102
RTVSPropertyOp5
 70
     1
102
RTVSPropertyOp6
 70
     1
102
RTVSPropertyOp7
 70
     1
102
RTVSPropertyOp8
 70
     1
102
RTVSPropertyOp9
 70
     1
102
RTVSPropertyOp10
 70
     1
102
RTVSPropertyOp11
 70
     1
102
RTVSPropertyOp12
 70
     1
102
RTVSPropertyOp13
 70
     1
102
RTVSPropertyOp14
 70
     1
102
RTVSPropertyOp15
 70
     1
102
RTVSPropertyOp16
 70
     1
102
RTVSPropertyOp17
 70
     1
102
RTVSPropertyOp18
 70
     1
102
RTVSPropertyOp19
 70
     1
102
RTVSPropertyOp20
 70
     1
102
RTVSPropertyOp21
 70
     1
102
RTVSPropertyOp22
 70
     1
102
RTVSPropertyOp23
 70
     1
102
RTVSPropertyOp24
 70
     1
102
RTVSPropertyOp25
 70
     1
102
RTVSPropertyOp26
 70
     1
102
RTVSPropertyOp27
 70
     1
102
RTVSPropertyOp28
 70
     1
102
RTVSPropertyOp29
 70
     1
102
RTVSPropertyOp30
 70
     1
102
RTVSPropertyOp31
 70
     1
102
RTVSPropertyOp32
 70
     1
  0
XRECORD
  5
23A
102
{ACAD_REACTORS
330
239
102
}
330
239
100
AcDbXrecord
280
     1
102
RTVSPropertyOp0
 70
     1
102
RTVSPropertyOp1
 70
     1
102
RTVSPropertyOp2
 70
     1
102
RTVSPropertyOp3
 70
     1
102
RTVSPropertyOp4
 70
     1
102
RTVSPropertyOp5
 70
     1
102
RTVSPropertyOp6
 70
     1
102
RTVSPropertyOp7
 70
     1
102
RTVSPropertyOp8
 70
     1
102
RTVSPropertyOp9
 70
     1
102
RTVSPropertyOp10
 70
     1
102
RTVSPropertyOp11
 70
     1
102
RTVSPropertyOp12
 70
     1
102
RTVSPropertyOp13
 70
     1
102
RTVSPropertyOp14
 70
     1
102
RTVSPropertyOp15
 70
     1
102
RTVSPropertyOp16
 70
     1
102
RTVSPropertyOp17
 70
     1
102
RTVSPropertyOp18
 70
     1
102
RTVSPropertyOp19
 70
     1
102
RTVSPropertyOp20
 70
     1
102
RTVSPropertyOp21
 70
     1
102
RTVSPropertyOp22
 70
     1
102
RTVSPropertyOp23
 70
     1
102
RTVSPropertyOp24
 70
     1
102
RTVSPropertyOp25
 70
     1
102
RTVSPropertyOp26
 70
     1
102
RTVSPropertyOp27
 70
     1
102
RTVSPropertyOp28
 70
     1
102
RTVSPropertyOp29
 70
     1
102
RTVSPropertyOp30
 70
     1
102
RTVSPropertyOp31
 70
     1
102
RTVSPropertyOp32
 70
     1
  0
XRECORD
  5
23C
102
{ACAD_REACTORS
330
23B
102
}
330
23B
100
AcDbXrecord
280
     1
102
RTVSPropertyOp0
 70
     1
102
RTVSPropertyOp1
 70
     1
102
RTVSPropertyOp2
 70
     1
102
RTVSPropertyOp3
 70
     1
102
RTVSPropertyOp4
 70
     1
102
RTVSPropertyOp5
 70
     1
102
RTVSPropertyOp6
 70
     1
102
RTVSPropertyOp7
 70
     1
102
RTVSPropertyOp8
 70
     1
102
RTVSPropertyOp9
 70
     1
102
RTVSPropertyOp10
 70
     1
102
RTVSPropertyOp11
 70
     1
102
RTVSPropertyOp12
 70
     1
102
RTVSPropertyOp13
 70
     1
102
RTVSPropertyOp14
 70
     1
102
RTVSPropertyOp15
 70
     1
102
RTVSPropertyOp16
 70
     1
102
RTVSPropertyOp17
 70
     1
102
RTVSPropertyOp18
 70
     1
102
RTVSPropertyOp19
 70
     1
102
RTVSPropertyOp20
 70
     1
102
RTVSPropertyOp21
 70
     1
102
RTVSPropertyOp22
 70
     1
102
RTVSPropertyOp23
 70
     1
102
RTVSPropertyOp24
 70
     1
102
RTVSPropertyOp25
 70
     1
102
RTVSPropertyOp26
 70
     1
102
RTVSPropertyOp27
 70
     1
102
RTVSPropertyOp28
 70
     1
102
RTVSPropertyOp29
 70
     1
102
RTVSPropertyOp30
 70
     1
102
RTVSPropertyOp31
 70
     1
102
RTVSPropertyOp32
 70
     1
  0
XRECORD
  5
23E
102
{ACAD_REACTORS
330
23D
102
}
330
23D
100
AcDbXrecord
280
     1
102
RTVSPropertyOp0
 70
     1
102
RTVSPropertyOp1
 70
     1
102
RTVSPropertyOp2
 70
     1
102
RTVSPropertyOp3
 70
     1
102
RTVSPropertyOp4
 70
     1
102
RTVSPropertyOp5
 70
     1
102
RTVSPropertyOp6
 70
     1
102
RTVSPropertyOp7
 70
     1
102
RTVSPropertyOp8
 70
     1
102
RTVSPropertyOp9
 70
     1
102
RTVSPropertyOp10
 70
     1
102
RTVSPropertyOp11
 70
     1
102
RTVSPropertyOp12
 70
     1
102
RTVSPropertyOp13
 70
     1
102
RTVSPropertyOp14
 70
     1
102
RTVSPropertyOp15
 70
     1
102
RTVSPropertyOp16
 70
     1
102
RTVSPropertyOp17
 70
     1
102
RTVSPropertyOp18
 70
     1
102
RTVSPropertyOp19
 70
     1
102
RTVSPropertyOp20
 70
     1
102
RTVSPropertyOp21
 70
     1
102
RTVSPropertyOp22
 70
     1
102
RTVSPropertyOp23
 70
     1
102
RTVSPropertyOp24
 70
     1
102
RTVSPropertyOp25
 70
     1
102
RTVSPropertyOp26
 70
     1
102
RTVSPropertyOp27
 70
     1
102
RTVSPropertyOp28
 70
     1
102
RTVSPropertyOp29
 70
     1
102
RTVSPropertyOp30
 70
     1
102
RTVSPropertyOp31
 70
     1
102
RTVSPropertyOp32
 70
     1
  0
XRECORD
  5
240
102
{ACAD_REACTORS
330
23F
102
}
330
23F
100
AcDbXrecord
280
     1
102
RTVSPropertyOp0
 70
     1
102
RTVSPropertyOp1
 70
     1
102
RTVSPropertyOp2
 70
     1
102
RTVSPropertyOp3
 70
     1
102
RTVSPropertyOp4
 70
     1
102
RTVSPropertyOp5
 70
     1
102
RTVSPropertyOp6
 70
     1
102
RTVSPropertyOp7
 70
     1
102
RTVSPropertyOp8
 70
     1
102
RTVSPropertyOp9
 70
     1
102
RTVSPropertyOp10
 70
     1
102
RTVSPropertyOp11
 70
     1
102
RTVSPropertyOp12
 70
     1
102
RTVSPropertyOp13
 70
     1
102
RTVSPropertyOp14
 70
     1
102
RTVSPropertyOp15
 70
     1
102
RTVSPropertyOp16
 70
     1
102
RTVSPropertyOp17
 70
     1
102
RTVSPropertyOp18
 70
     1
102
RTVSPropertyOp19
 70
     1
102
RTVSPropertyOp20
 70
     1
102
RTVSPropertyOp21
 70
     1
102
RTVSPropertyOp22
 70
     1
102
RTVSPropertyOp23
 70
     1
102
RTVSPropertyOp24
 70
     1
102
RTVSPropertyOp25
 70
     1
102
RTVSPropertyOp26
 70
     1
102
RTVSPropertyOp27
 70
     1
102
RTVSPropertyOp28
 70
     1
102
RTVSPropertyOp29
 70
     1
102
RTVSPropertyOp30
 70
     1
102
RTVSPropertyOp31
 70
     1
102
RTVSPropertyOp32
 70
     1
  0
XRECORD
  5
254
102
{ACAD_REACTORS
330
253
102
}
330
253
100
AcDbXrecord
280
     1
102
RTVSPropertyOp0
 70
     1
102
RTVSPropertyOp1
 70
     1
102
RTVSPropertyOp2
 70
     1
102
RTVSPropertyOp3
 70
     1
102
RTVSPropertyOp4
 70
     1
102
RTVSPropertyOp5
 70
     1
102
RTVSPropertyOp6
 70
     1
102
RTVSPropertyOp7
 70
     1
102
RTVSPropertyOp8
 70
     1
102
RTVSPropertyOp9
 70
     1
102
RTVSPropertyOp10
 70
     1
102
RTVSPropertyOp11
 70
     1
102
RTVSPropertyOp12
 70
     1
102
RTVSPropertyOp13
 70
     1
102
RTVSPropertyOp14
 70
     1
102
RTVSPropertyOp15
 70
     1
102
RTVSPropertyOp16
 70
     1
102
RTVSPropertyOp17
 70
     1
102
RTVSPropertyOp18
 70
     1
102
RTVSPropertyOp19
 70
     1
102
RTVSPropertyOp20
 70
     1
102
RTVSPropertyOp21
 70
     1
102
RTVSPropertyOp22
 70
     1
102
RTVSPropertyOp23
 70
     1
102
RTVSPropertyOp24
 70
     1
102
RTVSPropertyOp25
 70
     1
102
RTVSPropertyOp26
 70
     1
102
RTVSPropertyOp27
 70
     1
102
RTVSPropertyOp28
 70
     1
102
RTVSPropertyOp29
 70
     1
102
RTVSPropertyOp30
 70
     1
102
RTVSPropertyOp31
 70
     1
102
RTVSPropertyOp32
 70
     1
  0
XRECORD
  5
24A
102
{ACAD_REACTORS
330
249
102
}
330
249
100
AcDbXrecord
280
     1
102
RTVSPropertyOp0
 70
     1
102
RTVSPropertyOp1
 70
     1
102
RTVSPropertyOp2
 70
     1
102
RTVSPropertyOp3
 70
     1
102
RTVSPropertyOp4
 70
     1
102
RTVSPropertyOp5
 70
     1
102
RTVSPropertyOp6
 70
     1
102
RTVSPropertyOp7
 70
     1
102
RTVSPropertyOp8
 70
     1
102
RTVSPropertyOp9
 70
     1
102
RTVSPropertyOp10
 70
     1
102
RTVSPropertyOp11
 70
     1
102
RTVSPropertyOp12
 70
     1
102
RTVSPropertyOp13
 70
     1
102
RTVSPropertyOp14
 70
     1
102
RTVSPropertyOp15
 70
     1
102
RTVSPropertyOp16
 70
     1
102
RTVSPropertyOp17
 70
     1
102
RTVSPropertyOp18
 70
     1
102
RTVSPropertyOp19
 70
     1
102
RTVSPropertyOp20
 70
     1
102
RTVSPropertyOp21
 70
     1
102
RTVSPropertyOp22
 70
     1
102
RTVSPropertyOp23
 70
     1
102
RTVSPropertyOp24
 70
     1
102
RTVSPropertyOp25
 70
     1
102
RTVSPropertyOp26
 70
     1
102
RTVSPropertyOp27
 70
     1
102
RTVSPropertyOp28
 70
     1
102
RTVSPropertyOp29
 70
     1
102
RTVSPropertyOp30
 70
     1
102
RTVSPropertyOp31
 70
     1
102
RTVSPropertyOp32
 70
     1
  0
XRECORD
  5
252
102
{ACAD_REACTORS
330
251
102
}
330
251
100
AcDbXrecord
280
     1
102
RTVSPropertyOp0
 70
     1
102
RTVSPropertyOp1
 70
     1
102
RTVSPropertyOp2
 70
     1
102
RTVSPropertyOp3
 70
     1
102
RTVSPropertyOp4
 70
     1
102
RTVSPropertyOp5
 70
     1
102
RTVSPropertyOp6
 70
     1
102
RTVSPropertyOp7
 70
     1
102
RTVSPropertyOp8
 70
     1
102
RTVSPropertyOp9
 70
     1
102
RTVSPropertyOp10
 70
     1
102
RTVSPropertyOp11
 70
     1
102
RTVSPropertyOp12
 70
     1
102
RTVSPropertyOp13
 70
     1
102
RTVSPropertyOp14
 70
     1
102
RTVSPropertyOp15
 70
     1
102
RTVSPropertyOp16
 70
     1
102
RTVSPropertyOp17
 70
     1
102
RTVSPropertyOp18
 70
     1
102
RTVSPropertyOp19
 70
     1
102
RTVSPropertyOp20
 70
     1
102
RTVSPropertyOp21
 70
     1
102
RTVSPropertyOp22
 70
     1
102
RTVSPropertyOp23
 70
     1
102
RTVSPropertyOp24
 70
     1
102
RTVSPropertyOp25
 70
     1
102
RTVSPropertyOp26
 70
     1
102
RTVSPropertyOp27
 70
     1
102
RTVSPropertyOp28
 70
     1
102
RTVSPropertyOp29
 70
     1
102
RTVSPropertyOp30
 70
     1
102
RTVSPropertyOp31
 70
     1
102
RTVSPropertyOp32
 70
     1
  0
ENDSEC
  0
EOF
