  0
SECTION
  2
HEADER
  9
$ACADVER
  1
AC1018
  9
$ACADMAINTVER
 70
     0
  9
$DWGCODEPAGE
  3
ANSI_1252
  9
$INSBASE
 10
0.0
 20
0.0
 30
0.0
  9
$EXTMIN
 10
-1178.858807931252
 20
-1161.345144113496
 30
0.0
  9
$EXTMAX
 10
-758.8588079312533
 20
-864.3451441134963
 30
0.0
  9
$LIMMIN
 10
0.0
 20
0.0
  9
$LIMMAX
 10
12.0
 20
9.0
  9
$ORTHOMODE
 70
     0
  9
$REGENMODE
 70
     1
  9
$FILLMODE
 70
     1
  9
$QTEXTMODE
 70
     0
  9
$MIRRTEXT
 70
     1
  9
$LTSCALE
 40
1.0
  9
$ATTMODE
 70
     1
  9
$TEXTSIZE
 40
0.2
  9
$TRACEWID
 40
0.05
  9
$TEXTSTYLE
  7
Standard
  9
$CLAYER
  8
0
  9
$CELTYPE
  6
ByLayer
  9
$CECOLOR
 62
   256
  9
$CELTSCALE
 40
1.0
  9
$DISPSILH
 70
     0
  9
$DIMSCALE
 40
1.0
  9
$DIMASZ
 40
0.18
  9
$DIMEXO
 40
0.0625
  9
$DIMDLI
 40
0.38
  9
$DIMRND
 40
0.0
  9
$DIMDLE
 40
0.0
  9
$DIMEXE
 40
0.18
  9
$DIMTP
 40
0.0
  9
$DIMTM
 40
0.0
  9
$DIMTXT
 40
0.18
  9
$DIMCEN
 40
0.09
  9
$DIMTSZ
 40
0.0
  9
$DIMTOL
 70
     0
  9
$DIMLIM
 70
     0
  9
$DIMTIH
 70
     1
  9
$DIMTOH
 70
     1
  9
$DIMSE1
 70
     0
  9
$DIMSE2
 70
     0
  9
$DIMTAD
 70
     0
  9
$DIMZIN
 70
     0
  9
$DIMBLK
  1

  9
$DIMASO
 70
     1
  9
$DIMSHO
 70
     1
  9
$DIMPOST
  1

  9
$DIMAPOST
  1

  9
$DIMALT
 70
     0
  9
$DIMALTD
 70
     2
  9
$DIMALTF
 40
25.4
  9
$DIMLFAC
 40
1.0
  9
$DIMTOFL
 70
     0
  9
$DIMTVP
 40
0.0
  9
$DIMTIX
 70
     0
  9
$DIMSOXD
 70
     0
  9
$DIMSAH
 70
     0
  9
$DIMBLK1
  1

  9
$DIMBLK2
  1

  9
$DIMSTYLE
  2
Standard
  9
$DIMCLRD
 70
     0
  9
$DIMCLRE
 70
     0
  9
$DIMCLRT
 70
     0
  9
$DIMTFAC
 40
1.0
  9
$DIMGAP
 40
0.09
  9
$DIMJUST
 70
     0
  9
$DIMSD1
 70
     0
  9
$DIMSD2
 70
     0
  9
$DIMTOLJ
 70
     1
  9
$DIMTZIN
 70
     0
  9
$DIMALTZ
 70
     0
  9
$DIMALTTZ
 70
     0
  9
$DIMUPT
 70
     0
  9
$DIMDEC
 70
     4
  9
$DIMTDEC
 70
     4
  9
$DIMALTU
 70
     2
  9
$DIMALTTD
 70
     2
  9
$DIMTXSTY
  7
Standard
  9
$DIMAUNIT
 70
     0
  9
$DIMADEC
 70
     0
  9
$DIMALTRND
 40
0.0
  9
$DIMAZIN
 70
     0
  9
$DIMDSEP
 70
    46
  9
$DIMATFIT
 70
     3
  9
$DIMFRAC
 70
     0
  9
$DIMLDRBLK
  1

  9
$DIMLUNIT
 70
     2
  9
$DIMLWD
 70
    -2
  9
$DIMLWE
 70
    -2
  9
$DIMTMOVE
 70
     0
  9
$LUNITS
 70
     2
  9
$LUPREC
 70
     4
  9
$SKETCHINC
 40
0.1
  9
$FILLETRAD
 40
0.5
  9
$AUNITS
 70
     0
  9
$AUPREC
 70
     0
  9
$MENU
  1
.
  9
$ELEVATION
 40
0.0
  9
$PELEVATION
 40
0.0
  9
$THICKNESS
 40
0.0
  9
$LIMCHECK
 70
     0
  9
$CHAMFERA
 40
0.0
  9
$CHAMFERB
 40
0.0
  9
$CHAMFERC
 40
0.0
  9
$CHAMFERD
 40
0.0
  9
$SKPOLY
 70
     0
  9
$TDCREATE
 40
2459306.487856563
  9
$TDUCREATE
 40
2459306.404523229
  9
$TDUPDATE
 40
2459306.487856736
  9
$TDUUPDATE
 40
2459306.404523403
  9
$TDINDWG
 40
0.0000000116
  9
$TDUSRTIMER
 40
0.0000000116
  9
$USRTIMER
 70
     1
  9
$ANGBASE
 50
0.0
  9
$ANGDIR
 70
     0
  9
$PDMODE
 70
     0
  9
$PDSIZE
 40
0.0
  9
$PLINEWID
 40
0.0
  9
$SPLFRAME
 70
     0
  9
$SPLINETYPE
 70
     6
  9
$SPLINESEGS
 70
     8
  9
$HANDSEED
  5
2D6
  9
$SURFTAB1
 70
     6
  9
$SURFTAB2
 70
     6
  9
$SURFTYPE
 70
     6
  9
$SURFU
 70
     6
  9
$SURFV
 70
     6
  9
$UCSBASE
  2

  9
$UCSNAME
  2

  9
$UCSORG
 10
0.0
 20
0.0
 30
0.0
  9
$UCSXDIR
 10
1.0
 20
0.0
 30
0.0
  9
$UCSYDIR
 10
0.0
 20
1.0
 30
0.0
  9
$UCSORTHOREF
  2

  9
$UCSORTHOVIEW
 70
     0
  9
$UCSORGTOP
 10
0.0
 20
0.0
 30
0.0
  9
$UCSORGBOTTOM
 10
0.0
 20
0.0
 30
0.0
  9
$UCSORGLEFT
 10
0.0
 20
0.0
 30
0.0
  9
$UCSORGRIGHT
 10
0.0
 20
0.0
 30
0.0
  9
$UCSORGFRONT
 10
0.0
 20
0.0
 30
0.0
  9
$UCSORGBACK
 10
0.0
 20
0.0
 30
0.0
  9
$PUCSBASE
  2

  9
$PUCSNAME
  2

  9
$PUCSORG
 10
0.0
 20
0.0
 30
0.0
  9
$PUCSXDIR
 10
1.0
 20
0.0
 30
0.0
  9
$PUCSYDIR
 10
0.0
 20
1.0
 30
0.0
  9
$PUCSORTHOREF
  2

  9
$PUCSORTHOVIEW
 70
     0
  9
$PUCSORGTOP
 10
0.0
 20
0.0
 30
0.0
  9
$PUCSORGBOTTOM
 10
0.0
 20
0.0
 30
0.0
  9
$PUCSORGLEFT
 10
0.0
 20
0.0
 30
0.0
  9
$PUCSORGRIGHT
 10
0.0
 20
0.0
 30
0.0
  9
$PUCSORGFRONT
 10
0.0
 20
0.0
 30
0.0
  9
$PUCSORGBACK
 10
0.0
 20
0.0
 30
0.0
  9
$USERI1
 70
     0
  9
$USERI2
 70
     0
  9
$USERI3
 70
     0
  9
$USERI4
 70
     0
  9
$USERI5
 70
     0
  9
$USERR1
 40
20.1
  9
$USERR2
 40
0.0
  9
$USERR3
 40
0.0
  9
$USERR4
 40
0.0
  9
$USERR5
 40
0.0
  9
$WORLDVIEW
 70
     1
  9
$SHADEDGE
 70
     3
  9
$SHADEDIF
 70
    70
  9
$TILEMODE
 70
     1
  9
$MAXACTVP
 70
    64
  9
$PINSBASE
 10
0.0
 20
0.0
 30
0.0
  9
$PLIMCHECK
 70
     0
  9
$PEXTMIN
 10
1.00000000000000E+20
 20
1.00000000000000E+20
 30
1.00000000000000E+20
  9
$PEXTMAX
 10
-1.00000000000000E+20
 20
-1.00000000000000E+20
 30
-1.00000000000000E+20
  9
$PLIMMIN
 10
0.0
 20
0.0
  9
$PLIMMAX
 10
12.0
 20
9.0
  9
$UNITMODE
 70
     0
  9
$VISRETAIN
 70
     1
  9
$PLINEGEN
 70
     0
  9
$PSLTSCALE
 70
     1
  9
$TREEDEPTH
 70
  3020
  9
$CMLSTYLE
  2
Standard
  9
$CMLJUST
 70
     0
  9
$CMLSCALE
 40
1.0
  9
$PROXYGRAPHICS
 70
     1
  9
$MEASUREMENT
 70
     1
  9
$CELWEIGHT
370
    -1
  9
$ENDCAPS
280
     0
  9
$JOINSTYLE
280
     0
  9
$LWDISPLAY
290
     0
  9
$INSUNITS
 70
     4
  9
$HYPERLINKBASE
  1

  9
$STYLESHEET
  1

  9
$XEDIT
290
     1
  9
$CEPSNTYPE
380
     0
  9
$PSTYLEMODE
290
     1
  9
$FINGERPRINTGUID
  2
{68e2c683-4f0e-4e76-af7d-1262ab51aaa9}
  9
$VERSIONGUID
  2
{FAEB1C32-E019-11D5-929B-00C0DF256EC4}
  9
$EXTNAMES
290
     1
  9
$PSVPSCALE
 40
0.0
  9
$OLESTARTUP
290
     0
  9
$SORTENTS
280
   127
  9
$INDEXCTL
280
     0
  9
$HIDETEXT
280
     1
  9
$XCLIPFRAME
290
     0
  9
$HALOGAP
280
     0
  9
$OBSCOLOR
 70
   257
  9
$OBSLTYPE
280
     0
  9
$INTERSECTIONDISPLAY
280
     0
  9
$INTERSECTIONCOLOR
 70
   257
  9
$DIMASSOC
280
     2
  9
$PROJECTNAME
  1

  0
ENDSEC
  0
SECTION
  2
CLASSES
  0
CLASS
  1
ACDBDICTIONARYWDFLT
  2
AcDbDictionaryWithDefault
  3
ObjectDBX Classes
 90
        0
 91
        3
280
     0
281
     0
  0
CLASS
  1
VISUALSTYLE
  2
AcDbVisualStyle
  3
ObjectDBX Classes
 90
     4095
 91
        3
280
     0
281
     0
  0
CLASS
  1
MATERIAL
  2
AcDbMaterial
  3
ObjectDBX Classes
 90
     1153
 91
        3
280
     0
281
     0
  0
CLASS
  1
SCALE
  2
AcDbScale
  3
ObjectDBX Classes
 90
     1153
 91
        3
280
     0
281
     0
  0
CLASS
  1
TABLESTYLE
  2
AcDbTableStyle
  3
ObjectDBX Classes
 90
     4095
 91
        3
280
     0
281
     0
  0
CLASS
  1
MLEADERSTYLE
  2
AcDbMLeaderStyle
  3
ACDB_MLEADERSTYLE_CLASS
 90
     4095
 91
        3
280
     0
281
     0
  0
CLASS
  1
SUN
  2
AcDbSun
  3
SCENEOE
 90
     1153
 91
        3
280
     0
281
     0
  0
CLASS
  1
DICTIONARYVAR
  2
AcDbDictionaryVar
  3
ObjectDBX Classes
 90
        0
 91
        3
280
     0
281
     0
  0
CLASS
  1
CELLSTYLEMAP
  2
AcDbCellStyleMap
  3
ObjectDBX Classes
 90
     1152
 91
        3
280
     0
281
     0
  0
ENDSEC
  0
SECTION
  2
TABLES
  0
TABLE
  2
VPORT
  5
8
102
{ACAD_XDICTIONARY
360
28F
102
}
330
0
100
AcDbSymbolTable
 70
     1
  0
VPORT
  5
29
330
8
100
AcDbSymbolTableRecord
100
AcDbViewportTableRecord
  2
*Active
 70
     0
 10
0.0
 20
0.0
 11
1.0
 21
1.0
 12
-968.8588079312526
 22
-1012.845144113496
 13
0.0
 23
0.0
 14
0.5
 24
0.5
 15
0.5
 25
0.5
 16
0.0
 26
0.0
 36
1.0
 17
0.0
 27
0.0
 37
0.0
 40
326.6999999999996
 41
1.60267857142857
 42
50.0
 43
0.0
 44
0.0
 50
0.0
 51
0.0
 71
     0
 72
   100
 73
     1
 74
     3
 75
     0
 76
     0
 77
     0
 78
     0
281
     0
 65
     1
110
0.0
120
0.0
130
0.0
111
1.0
121
0.0
131
0.0
112
0.0
122
1.0
132
0.0
 79
     0
146
0.0
  0
ENDTAB
  0
TABLE
  2
LTYPE
  5
5
330
0
100
AcDbSymbolTable
 70
     8
  0
LTYPE
  5
14
330
5
100
AcDbSymbolTableRecord
100
AcDbLinetypeTableRecord
  2
ByBlock
 70
     0
  3

 72
    65
 73
     0
 40
0.0
  0
LTYPE
  5
15
330
5
100
AcDbSymbolTableRecord
100
AcDbLinetypeTableRecord
  2
ByLayer
 70
     0
  3

 72
    65
 73
     0
 40
0.0
  0
LTYPE
  5
16
330
5
100
AcDbSymbolTableRecord
100
AcDbLinetypeTableRecord
  2
Continuous
 70
     0
  3
Solid line
 72
    65
 73
     0
 40
0.0
  0
LTYPE
  5
6E
330
5
100
AcDbSymbolTableRecord
100
AcDbLinetypeTableRecord
  2
DASHED
 70
     0
  3
Dashed
 72
    65
 73
     2
 40
15.0
 49
7.0
 74
     0
 49
-8.0
 74
     0
  0
LTYPE
  5
6F
330
5
100
AcDbSymbolTableRecord
100
AcDbLinetypeTableRecord
  2
DOTTED
 70
     0
  3
Dotted
 72
    65
 73
     2
 40
1.0
 49
0.0
 74
     0
 49
-1.0
 74
     0
  0
LTYPE
  5
70
330
5
100
AcDbSymbolTableRecord
100
AcDbLinetypeTableRecord
  2
DOT_CENTER
 70
     0
  3
Dot_Center
 72
    65
 73
     4
 40
14.0
 49
12.0
 74
     0
 49
-1.0
 74
     0
 49
0.0
 74
     0
 49
-1.0
 74
     0
  0
LTYPE
  5
71
330
5
100
AcDbSymbolTableRecord
100
AcDbLinetypeTableRecord
  2
LONG_DASHED
 70
     0
  3
Long_Dashed
 72
    65
 73
     2
 40
15.0
 49
10.0
 74
     0
 49
-5.0
 74
     0
  0
LTYPE
  5
72
330
5
100
AcDbSymbolTableRecord
100
AcDbLinetypeTableRecord
  2
DASH_CENTER
 70
     0
  3
Dash_Center
 72
    65
 73
     4
 40
14.0
 49
11.0
 74
     0
 49
-1.0
 74
     0
 49
1.0
 74
     0
 49
-1.0
 74
     0
  0
LTYPE
  5
73
330
5
100
AcDbSymbolTableRecord
100
AcDbLinetypeTableRecord
  2
PHANTOM
 70
     0
  3
Phantom
 72
    65
 73
     6
 40
13.0
 49
10.0
 74
     0
 49
-1.0
 74
     0
 49
0.0
 74
     0
 49
-1.0
 74
     0
 49
0.0
 74
     0
 49
-1.0
 74
     0
  0
LTYPE
  5
74
330
5
100
AcDbSymbolTableRecord
100
AcDbLinetypeTableRecord
  2
CENTER_DASH_DASH
 70
     0
  3
Center_Dash_Dash
 72
    65
 73
     6
 40
14.0
 49
9.0
 74
     0
 49
-1.0
 74
     0
 49
1.0
 74
     0
 49
-1.0
 74
     0
 49
1.0
 74
     0
 49
-1.0
 74
     0
  0
ENDTAB
  0
TABLE
  2
LAYER
  5
2
330
0
100
AcDbSymbolTable
 70
     2
  0
LAYER
  5
10
330
2
100
AcDbSymbolTableRecord
100
AcDbLayerTableRecord
  2
0
 70
     0
 62
     7
  6
Continuous
370
    -3
390
F
  0
LAYER
  5
75
330
2
100
AcDbSymbolTableRecord
100
AcDbLayerTableRecord
  2
1
 70
     0
 62
     7
  6
Continuous
370
    -3
390
F
  0
ENDTAB
  0
TABLE
  2
STYLE
  5
3
330
0
100
AcDbSymbolTable
 70
     5
  0
STYLE
  5
11
330
3
100
AcDbSymbolTableRecord
100
AcDbTextStyleTableRecord
  2
Standard
 70
     0
 40
0.0
 41
1.0
 50
0.0
 71
     0
 42
0.2
  3
txt
  4

  0
STYLE
  5
1BD
330
3
100
AcDbSymbolTableRecord
100
AcDbTextStyleTableRecord
  2
CONVERTER_11
 70
     0
 40
0.0
 41
0.9
 50
0.0
 71
     0
 42
0.2
  3
txt.shx
  4

  0
STYLE
  5
1C4
330
3
100
AcDbSymbolTableRecord
100
AcDbTextStyleTableRecord
  2
CONVERTER_12
 70
     0
 40
0.0
 41
0.81
 50
0.0
 71
     0
 42
0.2
  3
txt.shx
  4

  0
STYLE
  5
1CC
330
3
100
AcDbSymbolTableRecord
100
AcDbTextStyleTableRecord
  2
CONVERTER_13
 70
     0
 40
0.0
 41
0.72
 50
0.0
 71
     0
 42
0.2
  3
txt.shx
  4

  0
STYLE
  5
1CF
330
3
100
AcDbSymbolTableRecord
100
AcDbTextStyleTableRecord
  2
CONVERTER_14
 70
     0
 40
0.0
 41
0.855
 50
0.0
 71
     0
 42
0.2
  3
txt.shx
  4

  0
ENDTAB
  0
TABLE
  2
VIEW
  5
6
330
0
100
AcDbSymbolTable
 70
     0
  0
ENDTAB
  0
TABLE
  2
UCS
  5
7
330
0
100
AcDbSymbolTable
 70
     0
  0
ENDTAB
  0
TABLE
  2
APPID
  5
9
330
0
100
AcDbSymbolTable
 70
     2
  0
APPID
  5
12
330
9
100
AcDbSymbolTableRecord
100
AcDbRegAppTableRecord
  2
ACAD
 70
     0
  0
APPID
  5
2CE
330
9
100
AcDbSymbolTableRecord
100
AcDbRegAppTableRecord
  2
ACAD_MLEADERVER
 70
     0
  0
ENDTAB
  0
TABLE
  2
DIMSTYLE
  5
A
330
0
100
AcDbSymbolTable
 70
     4
100
AcDbDimStyleTable
  0
DIMSTYLE
105
27
330
A
100
AcDbSymbolTableRecord
100
AcDbDimStyleTableRecord
  2
Standard
 70
     0
178
     0
340
11
  0
DIMSTYLE
105
235
102
{ACAD_REACTORS
330
236
102
}
330
A
100
AcDbSymbolTableRecord
100
AcDbDimStyleTableRecord
  2
ME10_DIM_10
 70
     0
 41
3.5
 42
0.0
 44
1.5
 73
     0
 74
     0
 77
     1
 78
     8
140
3.5
147
1.5
172
     1
173
     1
174
     1
175
     1
176
     2
177
     2
178
     3
340
1BD
  0
DIMSTYLE
105
282
102
{ACAD_REACTORS
330
283
102
}
330
A
100
AcDbSymbolTableRecord
100
AcDbDimStyleTableRecord
  2
ME10_DIM_11
 70
     0
 41
3.5
 42
0.0
 44
2.0
 73
     0
 74
     0
 77
     1
 78
     8
140
3.5
147
2.0
172
     1
173
     1
174
     1
175
     1
176
     2
177
     2
271
     1
178
     3
271
     1
340
1BD
  0
DIMSTYLE
105
28D
102
{ACAD_REACTORS
330
28E
102
}
330
A
100
AcDbSymbolTableRecord
100
AcDbDimStyleTableRecord
  2
ME10_DIM_12
 70
     0
 41
3.5
 42
0.0
 44
2.0
 73
     0
 74
     0
 77
     1
 78
     8
140
3.5
147
2.0
172
     1
173
     1
174
     1
175
     1
176
     2
177
     2
178
     3
340
1BD
  0
ENDTAB
  0
TABLE
  2
BLOCK_RECORD
  5
1
330
0
100
AcDbSymbolTable
 70
    20
  0
BLOCK_RECORD
  5
1F
330
1
100
AcDbSymbolTableRecord
100
AcDbBlockTableRecord
  2
*Model_Space
340
22
  0
BLOCK_RECORD
  5
1B
330
1
100
AcDbSymbolTableRecord
100
AcDbBlockTableRecord
  2
*Paper_Space
340
1E
  0
BLOCK_RECORD
  5
23
330
1
100
AcDbSymbolTableRecord
100
AcDbBlockTableRecord
  2
*Paper_Space0
340
26
  0
BLOCK_RECORD
  5
76
330
1
100
AcDbSymbolTableRecord
100
AcDbBlockTableRecord
  2
_rahmen
340
0
102
{BLKREFS
331
7D
102
}
  0
BLOCK_RECORD
  5
79
330
1
100
AcDbSymbolTableRecord
100
AcDbBlockTableRecord
  2
_punkt
340
0
102
{BLKREFS
331
7E
102
}
  0
BLOCK_RECORD
  5
7C
330
1
100
AcDbSymbolTableRecord
100
AcDbBlockTableRecord
  2
A3I_CS
340
0
102
{BLKREFS
331
AC
102
}
  0
BLOCK_RECORD
  5
81
330
1
100
AcDbSymbolTableRecord
100
AcDbBlockTableRecord
  2
CES_B16_WRG_BK-select__1
340
0
102
{BLKREFS
331
85
102
}
  0
BLOCK_RECORD
  5
84
330
1
100
AcDbSymbolTableRecord
100
AcDbBlockTableRecord
  2
AllgSicht1
340
0
102
{BLKREFS
331
AD
102
}
  0
BLOCK_RECORD
  5
88
330
1
100
AcDbSymbolTableRecord
100
AcDbBlockTableRecord
  2
CES_B16_WRG_BK-select__2
340
0
102
{BLKREFS
331
8C
102
}
  0
BLOCK_RECORD
  5
8B
330
1
100
AcDbSymbolTableRecord
100
AcDbBlockTableRecord
  2
Drfsicht1
340
0
102
{BLKREFS
331
AE
102
}
  0
BLOCK_RECORD
  5
8F
330
1
100
AcDbSymbolTableRecord
100
AcDbBlockTableRecord
  2
CES_B16_WRG_BK-select__3
340
0
102
{BLKREFS
331
93
102
}
  0
BLOCK_RECORD
  5
92
330
1
100
AcDbSymbolTableRecord
100
AcDbBlockTableRecord
  2
Rckans1
340
0
102
{BLKREFS
331
AF
102
}
  0
BLOCK_RECORD
  5
96
330
1
100
AcDbSymbolTableRecord
100
AcDbBlockTableRecord
  2
CES_B16_WRG_BK-select__4
340
0
102
{BLKREFS
331
9A
102
}
  0
BLOCK_RECORD
  5
99
330
1
100
AcDbSymbolTableRecord
100
AcDbBlockTableRecord
  2
SA_Links1
340
0
102
{BLKREFS
331
B0
102
}
  0
BLOCK_RECORD
  5
9D
330
1
100
AcDbSymbolTableRecord
100
AcDbBlockTableRecord
  2
CES_B16_WRG_BK-select__5
340
0
102
{BLKREFS
331
A1
102
}
  0
BLOCK_RECORD
  5
A0
330
1
100
AcDbSymbolTableRecord
100
AcDbBlockTableRecord
  2
SA_Rechts1
340
0
102
{BLKREFS
331
B1
102
}
  0
BLOCK_RECORD
  5
A4
330
1
100
AcDbSymbolTableRecord
100
AcDbBlockTableRecord
  2
CES_B16_WRG_BK-select__6
340
0
102
{BLKREFS
331
A8
102
}
  0
BLOCK_RECORD
  5
A7
330
1
100
AcDbSymbolTableRecord
100
AcDbBlockTableRecord
  2
Vordans1
340
0
102
{BLKREFS
331
B2
102
}
  0
BLOCK_RECORD
  5
AB
330
1
100
AcDbSymbolTableRecord
100
AcDbBlockTableRecord
  2
1
340
0
102
{BLKREFS
331
B5
102
}
  0
BLOCK_RECORD
  5
22A
330
1
100
AcDbSymbolTableRecord
100
AcDbBlockTableRecord
  2
*D17
340
0
  0
BLOCK_RECORD
  5
279
330
1
100
AcDbSymbolTableRecord
100
AcDbBlockTableRecord
  2
*D18
340
0
  0
BLOCK_RECORD
  5
284
330
1
100
AcDbSymbolTableRecord
100
AcDbBlockTableRecord
  2
*D19
340
0
  0
ENDTAB
  0
ENDSEC
  0
SECTION
  2
BLOCKS
  0
BLOCK
  5
20
330
1F
100
AcDbEntity
  8
0
100
AcDbBlockBegin
  2
*Model_Space
 70
     0
 10
0.0
 20
0.0
 30
0.0
  3
*Model_Space
  1

  0
ENDBLK
  5
21
330
1F
100
AcDbEntity
  8
0
100
AcDbBlockEnd
  0
BLOCK
  5
1C
330
1B
100
AcDbEntity
 67
     1
  8
0
100
AcDbBlockBegin
  2
*Paper_Space
 70
     0
 10
0.0
 20
0.0
 30
0.0
  3
*Paper_Space
  1

  0
ENDBLK
  5
1D
330
1B
100
AcDbEntity
 67
     1
  8
0
100
AcDbBlockEnd
  0
BLOCK
  5
24
330
23
100
AcDbEntity
  8
0
100
AcDbBlockBegin
  2
*Paper_Space0
 70
     0
 10
0.0
 20
0.0
 30
0.0
  3
*Paper_Space0
  1

  0
ENDBLK
  5
25
330
23
100
AcDbEntity
  8
0
100
AcDbBlockEnd
  0
BLOCK
  5
77
330
76
100
AcDbEntity
  8
0
100
AcDbBlockBegin
  2
_rahmen
 70
     0
 10
-763.8588079312508
 20
-1161.345144113496
 30
0.0
  3
_rahmen
  1

  0
LINE
  5
B6
330
76
100
AcDbEntity
  8
1
  6
DOT_CENTER
 62
     2
100
AcDbLine
 10
-889.4169575714383
 20
-1135.220144113497
 30
0.0
 11
-883.9169575714383
 21
-1135.220144113497
 31
0.0
  0
LINE
  5
B7
330
76
100
AcDbEntity
  8
1
  6
PHANTOM
 62
     2
100
AcDbLine
 10
-880.6669575714383
 20
-1132.470144113497
 30
0.0
 11
-880.6669575714383
 21
-1137.970144113497
 31
0.0
  0
LINE
  5
B8
330
76
100
AcDbEntity
  8
1
  6
PHANTOM
 62
     2
100
AcDbLine
 10
-877.9169575714383
 20
-1135.220144113497
 30
0.0
 11
-883.4169575714383
 21
-1135.220144113497
 31
0.0
  0
LINE
  5
B9
330
76
100
AcDbEntity
  8
1
  6
Continuous
 62
     6
100
AcDbLine
 10
-893.4036124580008
 20
-1130.845144113497
 30
0.0
 11
-763.8588079312491
 21
-1130.845144113497
 31
0.0
  0
LINE
  5
BA
330
76
100
AcDbEntity
  8
1
  6
Continuous
 62
     7
100
AcDbLine
 10
-875.2036124580009
 20
-1152.095144113497
 30
0.0
 11
-857.0036124580008
 21
-1152.095144113497
 31
0.0
  0
LINE
  5
BB
330
76
100
AcDbEntity
  8
1
  6
Continuous
 62
     6
100
AcDbLine
 10
-875.2036124580009
 20
-1156.345144113497
 30
0.0
 11
-893.4036124580008
 21
-1156.345144113497
 31
0.0
  0
LINE
  5
BC
330
76
100
AcDbEntity
  8
1
  6
Continuous
 62
     7
100
AcDbLine
 10
-875.2036124580009
 20
-1152.095144113497
 30
0.0
 11
-875.2036124580009
 21
-1156.345144113497
 31
0.0
  0
LINE
  5
BD
330
76
100
AcDbEntity
  8
1
  6
Continuous
 62
     7
100
AcDbLine
 10
-857.0036124580008
 20
-1152.095144113497
 30
0.0
 11
-857.0036124580008
 21
-1156.345144113497
 31
0.0
  0
LINE
  5
BE
330
76
100
AcDbEntity
  8
1
  6
Continuous
 62
     7
100
AcDbLine
 10
-893.4036124580008
 20
-1152.095144113497
 30
0.0
 11
-893.4036124580008
 21
-1156.345144113497
 31
0.0
  0
LINE
  5
BF
330
76
100
AcDbEntity
  8
1
  6
Continuous
 62
     7
100
AcDbLine
 10
-893.4036124580008
 20
-1152.095144113497
 30
0.0
 11
-875.2036124580009
 21
-1152.095144113497
 31
0.0
  0
LINE
  5
C0
330
76
100
AcDbEntity
  8
1
  6
Continuous
 62
     2
100
AcDbLine
 10
-884.1669575714383
 20
-1132.720144113497
 30
0.0
 11
-884.1669575714383
 21
-1137.720144113497
 31
0.0
  0
LINE
  5
C1
330
76
100
AcDbEntity
  8
1
  6
Continuous
 62
     2
100
AcDbLine
 10
-884.1669575714383
 20
-1137.720144113497
 30
0.0
 11
-889.1669575714383
 21
-1136.470144113497
 31
0.0
  0
LINE
  5
C2
330
76
100
AcDbEntity
  8
1
  6
Continuous
 62
     2
100
AcDbLine
 10
-889.1669575714383
 20
-1136.470144113497
 30
0.0
 11
-889.1669575714383
 21
-1133.970144113497
 31
0.0
  0
LINE
  5
C3
330
76
100
AcDbEntity
  8
1
  6
Continuous
 62
     2
100
AcDbLine
 10
-889.1669575714383
 20
-1133.970144113497
 30
0.0
 11
-884.1669575714383
 21
-1132.720144113497
 31
0.0
  0
LINE
  5
C4
330
76
100
AcDbEntity
  8
1
  6
Continuous
 62
     6
100
AcDbLine
 10
-763.8588079312491
 20
-1139.345144113497
 30
0.0
 11
-763.8588079312495
 21
-1147.845144113497
 31
0.0
  0
LINE
  5
C5
330
76
100
AcDbEntity
  8
1
  6
Continuous
 62
     6
100
AcDbLine
 10
-857.0036124580008
 20
-1156.345144113497
 30
0.0
 11
-857.3588079312508
 21
-1156.345144113497
 31
0.0
  0
LINE
  5
C6
330
76
100
AcDbEntity
  8
1
  6
Continuous
 62
     7
100
AcDbLine
 10
-857.0036124580008
 20
-1139.345144113497
 30
0.0
 11
-857.0036124580008
 21
-1152.095144113497
 31
0.0
  0
LINE
  5
C7
330
76
100
AcDbEntity
  8
1
  6
Continuous
 62
     7
100
AcDbLine
 10
-893.4036124580008
 20
-1139.345144113497
 30
0.0
 11
-893.4036124580008
 21
-1152.095144113497
 31
0.0
  0
LINE
  5
C8
330
76
100
AcDbEntity
  8
1
  6
Continuous
 62
     6
100
AcDbLine
 10
-857.0036124580008
 20
-1156.345144113497
 30
0.0
 11
-807.3588079312508
 21
-1156.345144113497
 31
0.0
  0
LINE
  5
C9
330
76
100
AcDbEntity
  8
1
  6
Continuous
 62
     6
100
AcDbLine
 10
-763.8588079312509
 20
-1156.345144113497
 30
0.0
 11
-763.8588079312495
 21
-1147.845144113497
 31
0.0
  0
LINE
  5
CA
330
76
100
AcDbEntity
  8
1
  6
Continuous
 62
     6
100
AcDbLine
 10
-893.4036124580008
 20
-1139.345144113497
 30
0.0
 11
-857.0036124580008
 21
-1139.345144113497
 31
0.0
  0
LINE
  5
CB
330
76
100
AcDbEntity
  8
1
  6
Continuous
 62
     6
100
AcDbLine
 10
-857.3588079312508
 20
-1156.345144113497
 30
0.0
 11
-875.2036124580009
 21
-1156.345144113497
 31
0.0
  0
LINE
  5
CC
330
76
100
AcDbEntity
  8
1
  6
Continuous
 62
     6
100
AcDbLine
 10
-807.3588079312508
 20
-1156.345144113497
 30
0.0
 11
-763.8588079312509
 21
-1156.345144113497
 31
0.0
  0
LINE
  5
CD
102
{ACAD_REACTORS
330
1FC
330
1FD
102
}
330
76
100
AcDbEntity
  8
0
  6
Continuous
 62
     2
100
AcDbLine
 10
-885.888986515854
 20
-1144.272629357285
 30
0.0
 11
-885.888986515854
 21
-1143.667094068778
 31
0.0
  0
LINE
  5
CE
102
{ACAD_REACTORS
330
1FC
330
1FD
102
}
330
76
100
AcDbEntity
  8
0
  6
Continuous
 62
     2
100
AcDbLine
 10
-885.888986515854
 20
-1147.072763963916
 30
0.0
 11
-885.888986515854
 21
-1146.490912557221
 31
0.0
  0
LINE
  5
CF
102
{ACAD_REACTORS
330
1FE
330
1FF
102
}
330
76
100
AcDbEntity
  8
0
  6
Continuous
 62
     2
100
AcDbLine
 10
-863.2595000803749
 20
-1146.783099895793
 30
0.0
 11
-863.2595000803749
 21
-1149.051644113481
 31
0.0
  0
LINE
  5
D0
102
{ACAD_REACTORS
330
1FE
330
1FF
102
}
330
76
100
AcDbEntity
  8
0
  6
Continuous
 62
     2
100
AcDbLine
 10
-864.6405538593624
 20
-1145.99783458967
 30
0.0
 11
-861.2556083407337
 21
-1145.997834589669
 31
0.0
  0
LINE
  5
D1
102
{ACAD_REACTORS
330
1FE
330
1FF
102
}
330
76
100
AcDbEntity
  8
0
  6
Continuous
 62
     2
100
AcDbLine
 10
-861.2556083407337
 20
-1146.783099895793
 30
0.0
 11
-861.2556083407337
 21
-1145.997834589669
 31
0.0
  0
LINE
  5
D2
102
{ACAD_REACTORS
330
1FE
330
1FF
102
}
330
76
100
AcDbEntity
  8
0
  6
Continuous
 62
     2
100
AcDbLine
 10
-862.0667073782072
 20
-1146.783099895793
 30
0.0
 11
-861.2556083407337
 21
-1146.783099895793
 31
0.0
  0
LINE
  5
D3
102
{ACAD_REACTORS
330
1FE
330
1FF
102
}
330
76
100
AcDbEntity
  8
0
  6
Continuous
 62
     2
100
AcDbLine
 10
-862.0667073782072
 20
-1149.051644113481
 30
0.0
 11
-862.0667073782072
 21
-1146.783099895793
 31
0.0
  0
LINE
  5
D4
102
{ACAD_REACTORS
330
1FE
330
1FF
102
}
330
76
100
AcDbEntity
  8
0
  6
Continuous
 62
     2
100
AcDbLine
 10
-863.2595000803749
 20
-1149.051644113481
 30
0.0
 11
-862.0667073782072
 21
-1149.051644113481
 31
0.0
  0
LINE
  5
D5
102
{ACAD_REACTORS
330
1F4
330
1F5
102
}
330
76
100
AcDbEntity
  8
0
  6
Continuous
 62
     2
100
AcDbLine
 10
-863.9560910184393
 20
-1142.638644113495
 30
0.0
 11
-865.3588152361885
 21
-1142.638644113495
 31
0.0
  0
LINE
  5
D6
102
{ACAD_REACTORS
330
1F4
330
1F5
102
}
330
76
100
AcDbEntity
  8
0
  6
Continuous
 62
     2
100
AcDbLine
 10
-863.9560910184393
 20
-1142.638644113495
 30
0.0
 11
-863.3549234965475
 21
-1143.318467435051
 31
0.0
  0
LINE
  5
D7
102
{ACAD_REACTORS
330
1F4
330
1F5
102
}
330
76
100
AcDbEntity
  8
0
  6
Continuous
 62
     2
100
AcDbLine
 10
-863.3549234965475
 20
-1143.318467435051
 30
0.0
 11
-862.7537559746547
 21
-1142.638644113495
 31
0.0
  0
LINE
  5
D8
102
{ACAD_REACTORS
330
1F4
330
1F5
102
}
330
76
100
AcDbEntity
  8
0
  6
Continuous
 62
     2
100
AcDbLine
 10
-862.653561387674
 20
-1144.111594643531
 30
0.0
 11
-861.3510317569074
 21
-1142.638644113495
 31
0.0
  0
LINE
  5
D9
102
{ACAD_REACTORS
330
1F4
330
1F5
102
}
330
76
100
AcDbEntity
  8
0
  6
Continuous
 62
     2
100
AcDbLine
 10
-862.653561387674
 20
-1144.111594643531
 30
0.0
 11
-861.2556083407337
 21
-1145.692453637306
 31
0.0
  0
LINE
  5
DA
102
{ACAD_REACTORS
330
1F4
330
1F5
102
}
330
76
100
AcDbEntity
  8
0
  6
Continuous
 62
     2
100
AcDbLine
 10
-862.658332558482
 20
-1145.692453637306
 30
0.0
 11
-861.2556083407337
 21
-1145.692453637306
 31
0.0
  0
LINE
  5
DB
102
{ACAD_REACTORS
330
1F4
330
1F5
102
}
330
76
100
AcDbEntity
  8
0
  6
Continuous
 62
     2
100
AcDbLine
 10
-863.3549234965475
 20
-1144.904721852013
 30
0.0
 11
-862.658332558482
 21
-1145.692453637306
 31
0.0
  0
LINE
  5
DC
102
{ACAD_REACTORS
330
1F2
330
1F3
102
}
330
76
100
AcDbEntity
  8
0
  6
Continuous
 62
     2
100
AcDbLine
 10
-866.8140223328312
 20
-1142.638644113495
 30
0.0
 11
-865.5735179225783
 21
-1142.638644113495
 31
0.0
  0
LINE
  5
DD
102
{ACAD_REACTORS
330
1F2
330
1F3
102
}
330
76
100
AcDbEntity
  8
0
  6
Continuous
 62
     2
100
AcDbLine
 10
-865.5735179225783
 20
-1142.638644113495
 30
0.0
 11
-865.5735179225783
 21
-1145.692453637306
 31
0.0
  0
LINE
  5
DE
102
{ACAD_REACTORS
330
1F2
330
1F3
102
}
330
76
100
AcDbEntity
  8
0
  6
Continuous
 62
     2
100
AcDbLine
 10
-866.8140223328312
 20
-1145.692453637306
 30
0.0
 11
-866.8140223328312
 21
-1142.638644113495
 31
0.0
  0
LINE
  5
DF
102
{ACAD_REACTORS
330
1F0
330
1F1
102
}
330
76
100
AcDbEntity
  8
0
  6
Continuous
 62
     2
100
AcDbLine
 10
-868.2823324153687
 20
-1147.830120303956
 30
0.0
 11
-867.9821671781765
 21
-1147.06230533797
 31
0.0
  0
LINE
  5
E0
102
{ACAD_REACTORS
330
1F0
330
1F1
102
}
330
76
100
AcDbEntity
  8
0
  6
Continuous
 62
     2
100
AcDbLine
 10
-868.7598680199897
 20
-1149.051644113481
 30
0.0
 11
-868.5483879665139
 21
-1148.510683569263
 31
0.0
  0
LINE
  5
E1
102
{ACAD_REACTORS
330
1F0
330
1F1
102
}
330
76
100
AcDbEntity
  8
0
  6
Continuous
 62
     2
100
AcDbLine
 10
-868.6024193833034
 20
-1145.997834589669
 30
0.0
 11
-870.0003724302426
 21
-1149.051644113481
 31
0.0
  0
LINE
  5
E2
102
{ACAD_REACTORS
330
1F0
330
1F1
102
}
330
76
100
AcDbEntity
  8
0
  6
Continuous
 62
     2
100
AcDbLine
 10
-865.9639619261103
 20
-1149.051644113481
 30
0.0
 11
-867.2044663363641
 21
-1149.051644113481
 31
0.0
  0
LINE
  5
E3
102
{ACAD_REACTORS
330
1F0
330
1F1
102
}
330
76
100
AcDbEntity
  8
0
  6
Continuous
 62
     2
100
AcDbLine
 10
-868.5483879665139
 20
-1148.510683569263
 30
0.0
 11
-867.41594638984
 21
-1148.510683569263
 31
0.0
  0
LINE
  5
E4
102
{ACAD_REACTORS
330
1EE
330
1EF
102
}
330
76
100
AcDbEntity
  8
0
  6
Continuous
 62
     2
100
AcDbLine
 10
-872.1578845694248
 20
-1146.783099895793
 30
0.0
 11
-871.3467855319502
 21
-1146.783099895793
 31
0.0
  0
LINE
  5
E5
102
{ACAD_REACTORS
330
1EE
330
1EF
102
}
330
76
100
AcDbEntity
  8
0
  6
Continuous
 62
     2
100
AcDbLine
 10
-869.3428937923111
 20
-1145.997834589669
 30
0.0
 11
-872.1578845694248
 21
-1145.997834589669
 31
0.0
  0
LINE
  5
E6
102
{ACAD_REACTORS
330
1EE
330
1EF
102
}
330
76
100
AcDbEntity
  8
0
  6
Continuous
 62
     2
100
AcDbLine
 10
-869.3428937923111
 20
-1146.783099895793
 30
0.0
 11
-869.3428937923111
 21
-1145.997834589669
 31
0.0
  0
LINE
  5
E7
102
{ACAD_REACTORS
330
1EE
330
1EF
102
}
330
76
100
AcDbEntity
  8
0
  6
Continuous
 62
     2
100
AcDbLine
 10
-870.1539928297838
 20
-1146.783099895793
 30
0.0
 11
-869.3428937923111
 21
-1146.783099895793
 31
0.0
  0
LINE
  5
E8
102
{ACAD_REACTORS
330
1EE
330
1EF
102
}
330
76
100
AcDbEntity
  8
0
  6
Continuous
 62
     2
100
AcDbLine
 10
-870.1539928297838
 20
-1149.051644113481
 30
0.0
 11
-870.1539928297838
 21
-1146.783099895793
 31
0.0
  0
LINE
  5
E9
102
{ACAD_REACTORS
330
1EC
330
1ED
102
}
330
76
100
AcDbEntity
  8
0
  6
Continuous
 62
     2
100
AcDbLine
 10
-869.4858779856858
 20
-1145.692453637306
 30
0.0
 11
-869.4858779856858
 21
-1144.383678127102
 31
0.0
  0
LINE
  5
EA
102
{ACAD_REACTORS
330
1EC
330
1ED
102
}
330
76
100
AcDbEntity
  8
0
  6
Continuous
 62
     2
100
AcDbLine
 10
-870.6786706878522
 20
-1142.638644113495
 30
0.0
 11
-870.6786706878522
 21
-1145.692453637306
 31
0.0
  0
LINE
  5
EB
102
{ACAD_REACTORS
330
1EC
330
1ED
102
}
330
76
100
AcDbEntity
  8
0
  6
Continuous
 62
     2
100
AcDbLine
 10
-869.4858779856858
 20
-1142.638644113495
 30
0.0
 11
-870.6786706878522
 21
-1142.638644113495
 31
0.0
  0
LINE
  5
EC
102
{ACAD_REACTORS
330
1EC
330
1ED
102
}
330
76
100
AcDbEntity
  8
0
  6
Continuous
 62
     2
100
AcDbLine
 10
-868.2453735754317
 20
-1142.638644113495
 30
0.0
 11
-868.2453735754317
 21
-1143.9474196237
 31
0.0
  0
LINE
  5
ED
102
{ACAD_REACTORS
330
1EA
330
1EB
102
}
330
76
100
AcDbEntity
  8
0
  6
Continuous
 62
     2
100
AcDbLine
 10
-875.9271095082719
 20
-1145.997834589669
 30
0.0
 11
-875.9271095082719
 21
-1149.051644113481
 31
0.0
  0
LINE
  5
EE
102
{ACAD_REACTORS
330
1EA
330
1EB
102
}
330
76
100
AcDbEntity
  8
0
  6
Continuous
 62
     2
100
AcDbLine
 10
-874.7343168061043
 20
-1145.997834589669
 30
0.0
 11
-875.9271095082719
 21
-1145.997834589669
 31
0.0
  0
LINE
  5
EF
102
{ACAD_REACTORS
330
1EA
330
1EB
102
}
330
76
100
AcDbEntity
  8
0
  6
Continuous
 62
     2
100
AcDbLine
 10
-873.4938123958514
 20
-1149.051644113481
 30
0.0
 11
-872.301019693685
 21
-1149.051644113481
 31
0.0
  0
LINE
  5
F0
102
{ACAD_REACTORS
330
1EA
330
1EB
102
}
330
76
100
AcDbEntity
  8
0
  6
Continuous
 62
     2
100
AcDbLine
 10
-875.9271095082719
 20
-1149.051644113481
 30
0.0
 11
-874.7343168061043
 21
-1149.051644113481
 31
0.0
  0
LINE
  5
F1
102
{ACAD_REACTORS
330
1FA
330
1FB
102
}
330
76
100
AcDbEntity
  8
0
  6
Continuous
 62
     2
100
AcDbLine
 10
-872.2531570547128
 20
-1143.81654207268
 30
0.0
 11
-872.2531570547128
 21
-1143.336657718938
 31
0.0
  0
LINE
  5
F2
102
{ACAD_REACTORS
330
1FA
330
1FB
102
}
330
76
100
AcDbEntity
  8
0
  6
Continuous
 62
     2
100
AcDbLine
 10
-870.9172292282851
 20
-1143.81654207268
 30
0.0
 11
-872.2531570547128
 21
-1143.81654207268
 31
0.0
  0
LINE
  5
F3
102
{ACAD_REACTORS
330
1FA
330
1FB
102
}
330
76
100
AcDbEntity
  8
0
  6
Continuous
 62
     2
100
AcDbLine
 10
-870.9172292282851
 20
-1144.514555678122
 30
0.0
 11
-870.9172292282851
 21
-1143.81654207268
 31
0.0
  0
LINE
  5
F4
102
{ACAD_REACTORS
330
1FA
330
1FB
102
}
330
76
100
AcDbEntity
  8
0
  6
Continuous
 62
     2
100
AcDbLine
 10
-872.2531570547128
 20
-1144.514555678122
 30
0.0
 11
-870.9172292282851
 21
-1144.514555678122
 31
0.0
  0
LINE
  5
F5
102
{ACAD_REACTORS
330
1E8
330
1E9
102
}
330
76
100
AcDbEntity
  8
0
  6
Continuous
 62
     2
100
AcDbLine
 10
-875.7361117450397
 20
-1142.638644113495
 30
0.0
 11
-875.7361117450397
 21
-1145.692453637306
 31
0.0
  0
LINE
  5
F6
102
{ACAD_REACTORS
330
1E8
330
1E9
102
}
330
76
100
AcDbEntity
  8
0
  6
Continuous
 62
     2
100
AcDbLine
 10
-875.7361117450397
 20
-1145.692453637306
 30
0.0
 11
-876.9289044472062
 21
-1145.692453637306
 31
0.0
  0
LINE
  5
F7
102
{ACAD_REACTORS
330
1E8
330
1E9
102
}
330
76
100
AcDbEntity
  8
0
  6
Continuous
 62
     2
100
AcDbLine
 10
-876.9289044472062
 20
-1145.692453637306
 30
0.0
 11
-876.9289044472062
 21
-1144.558181528463
 31
0.0
  0
LINE
  5
F8
102
{ACAD_REACTORS
330
1E8
330
1E9
102
}
330
76
100
AcDbEntity
  8
0
  6
Continuous
 62
     2
100
AcDbLine
 10
-877.9785620251135
 20
-1145.692453637306
 30
0.0
 11
-879.1713547272801
 21
-1145.692453637306
 31
0.0
  0
LINE
  5
F9
102
{ACAD_REACTORS
330
1E8
330
1E9
102
}
330
76
100
AcDbEntity
  8
0
  6
Continuous
 62
     2
100
AcDbLine
 10
-879.1713547272801
 20
-1142.638644113495
 30
0.0
 11
-877.9785620251135
 21
-1142.638644113495
 31
0.0
  0
LINE
  5
FA
102
{ACAD_REACTORS
330
1E8
330
1E9
102
}
330
76
100
AcDbEntity
  8
0
  6
Continuous
 62
     2
100
AcDbLine
 10
-877.9785620251135
 20
-1142.638644113495
 30
0.0
 11
-877.9785620251135
 21
-1143.70747744683
 31
0.0
  0
LINE
  5
FB
102
{ACAD_REACTORS
330
1E8
330
1E9
102
}
330
76
100
AcDbEntity
  8
0
  6
Continuous
 62
     2
100
AcDbLine
 10
-877.9785620251135
 20
-1143.70747744683
 30
0.0
 11
-876.9289044472062
 21
-1143.70747744683
 31
0.0
  0
LINE
  5
FC
102
{ACAD_REACTORS
330
1F6
330
1F7
102
}
330
76
100
AcDbEntity
  8
0
  6
Continuous
 62
     2
100
AcDbLine
 10
-881.1275347588339
 20
-1143.301749958935
 30
0.0
 11
-880.8102396972919
 21
-1143.301749958935
 31
0.0
  0
LINE
  5
FD
102
{ACAD_REACTORS
330
1F6
330
1F7
102
}
330
76
100
AcDbEntity
  8
0
  6
Continuous
 62
     2
100
AcDbLine
 10
-881.1275347588339
 20
-1144.007477608277
 30
0.0
 11
-880.8102396972919
 21
-1144.007477608277
 31
0.0
  0
LINE
  5
FE
102
{ACAD_REACTORS
330
1F6
330
1F7
102
}
330
76
100
AcDbEntity
  8
0
  6
Continuous
 62
     2
100
AcDbLine
 10
-882.3680391690879
 20
-1142.638644113495
 30
0.0
 11
-882.3680391690879
 21
-1145.692453637306
 31
0.0
  0
LINE
  5
FF
102
{ACAD_REACTORS
330
1F6
330
1F7
102
}
330
76
100
AcDbEntity
  8
0
  6
Continuous
 62
     2
100
AcDbLine
 10
-882.3680391690879
 20
-1142.638644113495
 30
0.0
 11
-880.3687671710535
 21
-1142.638644113495
 31
0.0
  0
LINE
  5
100
102
{ACAD_REACTORS
330
1F6
330
1F7
102
}
330
76
100
AcDbEntity
  8
0
  6
Continuous
 62
     2
100
AcDbLine
 10
-881.1275347588339
 20
-1144.749375396163
 30
0.0
 11
-880.3687671710535
 21
-1144.749375396163
 31
0.0
  0
LINE
  5
101
102
{ACAD_REACTORS
330
1FC
330
1FD
102
}
330
76
100
AcDbEntity
  8
0
  6
Continuous
 62
     2
100
AcDbLine
 10
-888.4645352023846
 20
-1143.66691659213
 30
0.0
 11
-888.4645352023846
 21
-1148.023371634847
 31
0.0
  0
LINE
  5
102
102
{ACAD_REACTORS
330
1FC
330
1FD
102
}
330
76
100
AcDbEntity
  8
0
  6
Continuous
 62
     2
100
AcDbLine
 10
-888.1488182793089
 20
-1143.351199669054
 30
0.0
 11
-886.6729850182994
 21
-1143.351199669054
 31
0.0
  0
LINE
  5
103
102
{ACAD_REACTORS
330
1FC
330
1FD
102
}
330
76
100
AcDbEntity
  8
0
  6
Continuous
 62
     2
100
AcDbLine
 10
-886.3572680952227
 20
-1144.27094121119
 30
0.0
 11
-886.3572680952227
 21
-1143.66691659213
 31
0.0
  0
LINE
  5
104
102
{ACAD_REACTORS
330
1FC
330
1FD
102
}
330
76
100
AcDbEntity
  8
0
  6
Continuous
 62
     2
100
AcDbLine
 10
-886.3572680952227
 20
-1148.023371634847
 30
0.0
 11
-886.3572680952227
 21
-1146.492600703315
 31
0.0
  0
LINE
  5
105
102
{ACAD_REACTORS
330
1FC
330
1FD
102
}
330
76
100
AcDbEntity
  8
0
  6
Continuous
 62
     2
100
AcDbLine
 10
-883.2694008653385
 20
-1149.051644113481
 30
0.0
 11
-888.7427129560555
 21
-1149.051644113481
 31
0.0
  0
LINE
  5
106
102
{ACAD_REACTORS
330
1FC
330
1FD
102
}
330
76
100
AcDbEntity
  8
0
  6
Continuous
 62
     2
100
AcDbLine
 10
-882.8451562499547
 20
-1143.062888728897
 30
0.0
 11
-882.8451562499547
 21
-1148.627399498097
 31
0.0
  0
LINE
  5
107
102
{ACAD_REACTORS
330
1FC
330
1FD
102
}
330
76
100
AcDbEntity
  8
0
  6
Continuous
 62
     2
100
AcDbLine
 10
-888.7427129560555
 20
-1142.638644113513
 30
0.0
 11
-883.2694008653385
 21
-1142.638644113513
 31
0.0
  0
LINE
  5
108
102
{ACAD_REACTORS
330
1FC
330
1FD
102
}
330
76
100
AcDbEntity
  8
0
  6
Continuous
 62
     2
100
AcDbLine
 10
-889.1669575714383
 20
-1143.062888728897
 30
0.0
 11
-889.1669575714383
 21
-1148.627399498097
 31
0.0
  0
LINE
  5
109
102
{ACAD_REACTORS
330
1FC
330
1FD
102
}
330
76
100
AcDbEntity
  8
0
  6
Continuous
 62
     2
100
AcDbLine
 10
-886.6729850182994
 20
-1148.339088557924
 30
0.0
 11
-888.1488182793089
 21
-1148.339088557924
 31
0.0
  0
LINE
  5
10A
102
{ACAD_REACTORS
330
1F6
330
1F7
102
}
330
76
100
AcDbEntity
  8
0
  6
Continuous
 62
     2
100
AcDbLine
 10
-881.1275347588339
 20
-1145.692453637306
 30
0.0
 11
-881.1275347588339
 21
-1144.749375396163
 31
0.0
  0
LINE
  5
10B
102
{ACAD_REACTORS
330
1F6
330
1F7
102
}
330
76
100
AcDbEntity
  8
0
  6
Continuous
 62
     2
100
AcDbLine
 10
-882.3680391690879
 20
-1145.692453637306
 30
0.0
 11
-881.1275347588339
 21
-1145.692453637306
 31
0.0
  0
LINE
  5
10C
102
{ACAD_REACTORS
330
1F6
330
1F7
102
}
330
76
100
AcDbEntity
  8
0
  6
Continuous
 62
     2
100
AcDbLine
 10
-881.1275347588339
 20
-1144.007477608277
 30
0.0
 11
-881.1275347588339
 21
-1143.301749958935
 31
0.0
  0
LINE
  5
10D
102
{ACAD_REACTORS
330
1E8
330
1E9
102
}
330
76
100
AcDbEntity
  8
0
  6
Continuous
 62
     2
100
AcDbLine
 10
-879.1713547272801
 20
-1142.638644113495
 30
0.0
 11
-879.1713547272801
 21
-1145.692453637306
 31
0.0
  0
LINE
  5
10E
102
{ACAD_REACTORS
330
1E8
330
1E9
102
}
330
76
100
AcDbEntity
  8
0
  6
Continuous
 62
     2
100
AcDbLine
 10
-877.9785620251135
 20
-1144.558181528463
 30
0.0
 11
-877.9785620251135
 21
-1145.692453637306
 31
0.0
  0
LINE
  5
10F
102
{ACAD_REACTORS
330
1E8
330
1E9
102
}
330
76
100
AcDbEntity
  8
0
  6
Continuous
 62
     2
100
AcDbLine
 10
-876.9289044472062
 20
-1144.558181528463
 30
0.0
 11
-877.9785620251135
 21
-1144.558181528463
 31
0.0
  0
LINE
  5
110
102
{ACAD_REACTORS
330
1E8
330
1E9
102
}
330
76
100
AcDbEntity
  8
0
  6
Continuous
 62
     2
100
AcDbLine
 10
-876.9289044472062
 20
-1142.638644113495
 30
0.0
 11
-875.7361117450397
 21
-1142.638644113495
 31
0.0
  0
LINE
  5
111
102
{ACAD_REACTORS
330
1E8
330
1E9
102
}
330
76
100
AcDbEntity
  8
0
  6
Continuous
 62
     2
100
AcDbLine
 10
-876.9289044472062
 20
-1143.70747744683
 30
0.0
 11
-876.9289044472062
 21
-1142.638644113495
 31
0.0
  0
LINE
  5
112
102
{ACAD_REACTORS
330
1FA
330
1FB
102
}
330
76
100
AcDbEntity
  8
0
  6
Continuous
 62
     2
100
AcDbLine
 10
-870.9172292282851
 20
-1143.336657718938
 30
0.0
 11
-870.9172292282851
 21
-1142.638644113495
 31
0.0
  0
LINE
  5
113
102
{ACAD_REACTORS
330
1FA
330
1FB
102
}
330
76
100
AcDbEntity
  8
0
  6
Continuous
 62
     2
100
AcDbLine
 10
-874.0675489520661
 20
-1142.638644113495
 30
0.0
 11
-870.9172292282851
 21
-1142.638644113495
 31
0.0
  0
LINE
  5
114
102
{ACAD_REACTORS
330
1FA
330
1FB
102
}
330
76
100
AcDbEntity
  8
0
  6
Continuous
 62
     2
100
AcDbLine
 10
-874.0675489520661
 20
-1145.692453637306
 30
0.0
 11
-870.9172292282851
 21
-1145.692453637306
 31
0.0
  0
LINE
  5
115
102
{ACAD_REACTORS
330
1FA
330
1FB
102
}
330
76
100
AcDbEntity
  8
0
  6
Continuous
 62
     2
100
AcDbLine
 10
-870.9172292282851
 20
-1145.692453637306
 30
0.0
 11
-870.9172292282851
 21
-1144.994440031864
 31
0.0
  0
LINE
  5
116
102
{ACAD_REACTORS
330
1FA
330
1FB
102
}
330
76
100
AcDbEntity
  8
0
  6
Continuous
 62
     2
100
AcDbLine
 10
-870.9172292282851
 20
-1144.994440031864
 30
0.0
 11
-872.2531570547128
 21
-1144.994440031864
 31
0.0
  0
LINE
  5
117
102
{ACAD_REACTORS
330
1FA
330
1FB
102
}
330
76
100
AcDbEntity
  8
0
  6
Continuous
 62
     2
100
AcDbLine
 10
-872.2531570547128
 20
-1144.994440031864
 30
0.0
 11
-872.2531570547128
 21
-1144.514555678122
 31
0.0
  0
LINE
  5
118
102
{ACAD_REACTORS
330
1FA
330
1FB
102
}
330
76
100
AcDbEntity
  8
0
  6
Continuous
 62
     2
100
AcDbLine
 10
-872.2531570547128
 20
-1143.336657718938
 30
0.0
 11
-870.9172292282851
 21
-1143.336657718938
 31
0.0
  0
LINE
  5
119
102
{ACAD_REACTORS
330
1EA
330
1EB
102
}
330
76
100
AcDbEntity
  8
0
  6
Continuous
 62
     2
100
AcDbLine
 10
-874.7343168061043
 20
-1149.051644113481
 30
0.0
 11
-874.7343168061043
 21
-1147.742868603276
 31
0.0
  0
LINE
  5
11A
102
{ACAD_REACTORS
330
1EA
330
1EB
102
}
330
76
100
AcDbEntity
  8
0
  6
Continuous
 62
     2
100
AcDbLine
 10
-874.7343168061043
 20
-1147.742868603276
 30
0.0
 11
-873.4938123958514
 21
-1149.051644113481
 31
0.0
  0
LINE
  5
11B
102
{ACAD_REACTORS
330
1EA
330
1EB
102
}
330
76
100
AcDbEntity
  8
0
  6
Continuous
 62
     2
100
AcDbLine
 10
-872.301019693685
 20
-1149.051644113481
 30
0.0
 11
-872.301019693685
 21
-1145.997834589669
 31
0.0
  0
LINE
  5
11C
102
{ACAD_REACTORS
330
1EA
330
1EB
102
}
330
76
100
AcDbEntity
  8
0
  6
Continuous
 62
     2
100
AcDbLine
 10
-872.301019693685
 20
-1145.997834589669
 30
0.0
 11
-873.4938123958514
 21
-1145.997834589669
 31
0.0
  0
LINE
  5
11D
102
{ACAD_REACTORS
330
1EA
330
1EB
102
}
330
76
100
AcDbEntity
  8
0
  6
Continuous
 62
     2
100
AcDbLine
 10
-873.4938123958514
 20
-1145.997834589669
 30
0.0
 11
-873.4938123958514
 21
-1147.306610099875
 31
0.0
  0
LINE
  5
11E
102
{ACAD_REACTORS
330
1EA
330
1EB
102
}
330
76
100
AcDbEntity
  8
0
  6
Continuous
 62
     2
100
AcDbLine
 10
-873.4938123958514
 20
-1147.306610099875
 30
0.0
 11
-874.7343168061043
 21
-1145.997834589669
 31
0.0
  0
LINE
  5
11F
102
{ACAD_REACTORS
330
1EC
330
1ED
102
}
330
76
100
AcDbEntity
  8
0
  6
Continuous
 62
     2
100
AcDbLine
 10
-869.4858779856858
 20
-1144.383678127102
 30
0.0
 11
-868.2453735754317
 21
-1145.692453637306
 31
0.0
  0
LINE
  5
120
102
{ACAD_REACTORS
330
1EC
330
1ED
102
}
330
76
100
AcDbEntity
  8
0
  6
Continuous
 62
     2
100
AcDbLine
 10
-868.2453735754317
 20
-1145.692453637306
 30
0.0
 11
-867.052580873265
 21
-1145.692453637306
 31
0.0
  0
LINE
  5
121
102
{ACAD_REACTORS
330
1EC
330
1ED
102
}
330
76
100
AcDbEntity
  8
0
  6
Continuous
 62
     2
100
AcDbLine
 10
-867.052580873265
 20
-1145.692453637306
 30
0.0
 11
-867.052580873265
 21
-1142.638644113495
 31
0.0
  0
LINE
  5
122
102
{ACAD_REACTORS
330
1EC
330
1ED
102
}
330
76
100
AcDbEntity
  8
0
  6
Continuous
 62
     2
100
AcDbLine
 10
-867.052580873265
 20
-1142.638644113495
 30
0.0
 11
-868.2453735754317
 21
-1142.638644113495
 31
0.0
  0
LINE
  5
123
102
{ACAD_REACTORS
330
1EC
330
1ED
102
}
330
76
100
AcDbEntity
  8
0
  6
Continuous
 62
     2
100
AcDbLine
 10
-868.2453735754317
 20
-1143.9474196237
 30
0.0
 11
-869.4858779856858
 21
-1142.638644113495
 31
0.0
  0
LINE
  5
124
102
{ACAD_REACTORS
330
1EC
330
1ED
102
}
330
76
100
AcDbEntity
  8
0
  6
Continuous
 62
     2
100
AcDbLine
 10
-870.6786706878522
 20
-1145.692453637306
 30
0.0
 11
-869.4858779856858
 21
-1145.692453637306
 31
0.0
  0
LINE
  5
125
102
{ACAD_REACTORS
330
1EE
330
1EF
102
}
330
76
100
AcDbEntity
  8
0
  6
Continuous
 62
     2
100
AcDbLine
 10
-872.1578845694248
 20
-1145.997834589669
 30
0.0
 11
-872.1578845694248
 21
-1146.783099895793
 31
0.0
  0
LINE
  5
126
102
{ACAD_REACTORS
330
1EE
330
1EF
102
}
330
76
100
AcDbEntity
  8
0
  6
Continuous
 62
     2
100
AcDbLine
 10
-871.3467855319502
 20
-1146.783099895793
 30
0.0
 11
-871.3467855319502
 21
-1149.051644113481
 31
0.0
  0
LINE
  5
127
102
{ACAD_REACTORS
330
1EE
330
1EF
102
}
330
76
100
AcDbEntity
  8
0
  6
Continuous
 62
     2
100
AcDbLine
 10
-871.3467855319502
 20
-1149.051644113481
 30
0.0
 11
-870.1539928297838
 21
-1149.051644113481
 31
0.0
  0
LINE
  5
128
102
{ACAD_REACTORS
330
1F0
330
1F1
102
}
330
76
100
AcDbEntity
  8
0
  6
Continuous
 62
     2
100
AcDbLine
 10
-867.2044663363641
 20
-1149.051644113481
 30
0.0
 11
-867.41594638984
 21
-1148.510683569263
 31
0.0
  0
LINE
  5
129
102
{ACAD_REACTORS
330
1F0
330
1F1
102
}
330
76
100
AcDbEntity
  8
0
  6
Continuous
 62
     2
100
AcDbLine
 10
-867.3619149730505
 20
-1145.997834589669
 30
0.0
 11
-865.9639619261103
 21
-1149.051644113481
 31
0.0
  0
LINE
  5
12A
102
{ACAD_REACTORS
330
1F0
330
1F1
102
}
330
76
100
AcDbEntity
  8
0
  6
Continuous
 62
     2
100
AcDbLine
 10
-868.6024193833034
 20
-1145.997834589669
 30
0.0
 11
-867.3619149730505
 21
-1145.997834589669
 31
0.0
  0
LINE
  5
12B
102
{ACAD_REACTORS
330
1F0
330
1F1
102
}
330
76
100
AcDbEntity
  8
0
  6
Continuous
 62
     2
100
AcDbLine
 10
-870.0003724302426
 20
-1149.051644113481
 30
0.0
 11
-868.7598680199897
 21
-1149.051644113481
 31
0.0
  0
LINE
  5
12C
102
{ACAD_REACTORS
330
1F0
330
1F1
102
}
330
76
100
AcDbEntity
  8
0
  6
Continuous
 62
     2
100
AcDbLine
 10
-868.2823324153687
 20
-1147.830120303956
 30
0.0
 11
-867.6820019409863
 21
-1147.830120303956
 31
0.0
  0
LINE
  5
12D
102
{ACAD_REACTORS
330
1F0
330
1F1
102
}
330
76
100
AcDbEntity
  8
0
  6
Continuous
 62
     2
100
AcDbLine
 10
-867.6820019409863
 20
-1147.830120303956
 30
0.0
 11
-867.9821671781765
 21
-1147.06230533797
 31
0.0
  0
LINE
  5
12E
102
{ACAD_REACTORS
330
1F2
330
1F3
102
}
330
76
100
AcDbEntity
  8
0
  6
Continuous
 62
     2
100
AcDbLine
 10
-865.5735179225783
 20
-1145.692453637306
 30
0.0
 11
-866.8140223328312
 21
-1145.692453637306
 31
0.0
  0
LINE
  5
12F
102
{ACAD_REACTORS
330
1F4
330
1F5
102
}
330
76
100
AcDbEntity
  8
0
  6
Continuous
 62
     2
100
AcDbLine
 10
-864.0515144346133
 20
-1145.692453637306
 30
0.0
 11
-865.4542386523614
 21
-1145.692453637306
 31
0.0
  0
LINE
  5
130
102
{ACAD_REACTORS
330
1F4
330
1F5
102
}
330
76
100
AcDbEntity
  8
0
  6
Continuous
 62
     2
100
AcDbLine
 10
-864.0515144346133
 20
-1145.692453637306
 30
0.0
 11
-863.3549234965475
 21
-1144.904721852013
 31
0.0
  0
LINE
  5
131
102
{ACAD_REACTORS
330
1F4
330
1F5
102
}
330
76
100
AcDbEntity
  8
0
  6
Continuous
 62
     2
100
AcDbLine
 10
-862.7537559746547
 20
-1142.638644113495
 30
0.0
 11
-861.3510317569074
 21
-1142.638644113495
 31
0.0
  0
LINE
  5
132
102
{ACAD_REACTORS
330
1F4
330
1F5
102
}
330
76
100
AcDbEntity
  8
0
  6
Continuous
 62
     2
100
AcDbLine
 10
-865.3588152361885
 20
-1142.638644113495
 30
0.0
 11
-864.0562856054211
 21
-1144.111594643531
 31
0.0
  0
LINE
  5
133
102
{ACAD_REACTORS
330
1F4
330
1F5
102
}
330
76
100
AcDbEntity
  8
0
  6
Continuous
 62
     2
100
AcDbLine
 10
-865.4542386523614
 20
-1145.692453637306
 30
0.0
 11
-864.0562856054211
 21
-1144.111594643531
 31
0.0
  0
LINE
  5
134
102
{ACAD_REACTORS
330
1FE
330
1FF
102
}
330
76
100
AcDbEntity
  8
0
  6
Continuous
 62
     2
100
AcDbLine
 10
-863.5934820369815
 20
-1148.004623705317
 30
0.0
 11
-863.5934820369815
 21
-1148.87714071212
 31
0.0
  0
LINE
  5
135
102
{ACAD_REACTORS
330
1FE
330
1FF
102
}
330
76
100
AcDbEntity
  8
0
  6
Continuous
 62
     2
100
AcDbLine
 10
-864.3631393799429
 20
-1146.783099895793
 30
0.0
 11
-863.2595000803749
 21
-1146.783099895793
 31
0.0
  0
LINE
  5
136
102
{ACAD_REACTORS
330
200
330
201
102
}
330
76
100
AcDbEntity
  8
0
  6
Continuous
 62
     2
100
AcDbLine
 10
-879.6961835162333
 20
-1148.004623705316
 30
0.0
 11
-879.6961835162333
 21
-1148.87714071212
 31
0.0
  0
LINE
  5
137
102
{ACAD_REACTORS
330
200
330
201
102
}
330
76
100
AcDbEntity
  8
0
  6
Continuous
 62
     2
100
AcDbLine
 10
-879.6961835162333
 20
-1147.044854997834
 30
0.0
 11
-879.6961835162333
 21
-1146.17233799103
 31
0.0
  0
LINE
  5
138
330
76
100
AcDbEntity
  8
1
  6
Continuous
 62
     7
100
AcDbLine
 10
-763.8588079312495
 20
-1147.845144113497
 30
0.0
 11
-857.0036124580008
 21
-1147.845144113497
 31
0.0
  0
LINE
  5
139
330
76
100
AcDbEntity
  8
1
  6
Continuous
 62
     7
100
AcDbLine
 10
-772.7772162129282
 20
-1130.845144113497
 30
0.0
 11
-772.7772162129282
 21
-1139.345144113497
 31
0.0
  0
LINE
  5
13A
330
76
100
AcDbEntity
  8
1
  6
Continuous
 62
     7
100
AcDbLine
 10
-799.2772162129279
 20
-1130.845144113497
 30
0.0
 11
-799.2772162129279
 21
-1139.345144113497
 31
0.0
  0
LINE
  5
13B
330
76
100
AcDbEntity
  8
1
  6
Continuous
 62
     7
100
AcDbLine
 10
-857.0036124580008
 20
-1139.345144113497
 30
0.0
 11
-857.0036124580008
 21
-1130.845144113497
 31
0.0
  0
LINE
  5
13C
330
76
100
AcDbEntity
  8
1
  6
Continuous
 62
     7
100
AcDbLine
 10
-893.4036124580008
 20
-1139.345144113497
 30
0.0
 11
-893.4036124580008
 21
-1130.845144113497
 31
0.0
  0
LINE
  5
13D
330
76
100
AcDbEntity
  8
1
  6
Continuous
 62
     6
100
AcDbLine
 10
-857.0036124580008
 20
-1139.345144113497
 30
0.0
 11
-763.8588079312491
 21
-1139.345144113497
 31
0.0
  0
LINE
  5
13E
330
76
100
AcDbEntity
  8
1
  6
Continuous
 62
     7
100
AcDbLine
 10
-829.1036124580008
 20
-1147.845144113497
 30
0.0
 11
-829.1036124580008
 21
-1139.345144113497
 31
0.0
  0
LINE
  5
13F
330
76
100
AcDbEntity
  8
1
  6
Continuous
 62
     6
100
AcDbLine
 10
-763.8588079312491
 20
-1139.345144113497
 30
0.0
 11
-763.8588079312491
 21
-1130.845144113497
 31
0.0
  0
LINE
  5
140
330
76
100
AcDbEntity
  8
1
  6
Continuous
 62
     2
100
AcDbLine
 10
-900.5254745979174
 20
-1156.345144113499
 30
0.0
 11
-900.5254745979174
 21
-1156.345144113496
 31
0.0
  0
LINE
  5
141
330
76
100
AcDbEntity
  8
1
  6
Continuous
 62
     6
100
AcDbLine
 10
-1037.192141264584
 20
-1156.345144113496
 30
0.0
 11
-893.4036124580008
 21
-1156.345144113499
 31
0.0
  0
LINE
  5
142
330
76
100
AcDbEntity
  8
1
  6
Continuous
 62
     6
100
AcDbLine
 10
-763.8588079312509
 20
-1156.345144113497
 30
0.0
 11
-763.8588079312512
 21
-1147.845144113497
 31
0.0
  0
LINE
  5
143
330
76
100
AcDbEntity
  8
1
  6
Continuous
 62
     6
100
AcDbLine
 10
-1158.858807931251
 20
-1156.345144113496
 30
0.0
 11
-1158.858807931252
 21
-869.3451441134961
 31
0.0
  0
LINE
  5
144
330
76
100
AcDbEntity
  8
1
  6
Continuous
 62
     2
100
AcDbLine
 10
-1178.858807931252
 20
-1012.845144113496
 30
0.0
 11
-1178.858807931252
 21
-1161.345144113496
 31
0.0
  0
LINE
  5
145
330
76
100
AcDbEntity
  8
1
  6
Continuous
 62
     2
100
AcDbLine
 10
-1178.858807931252
 20
-1012.845144113496
 30
0.0
 11
-1168.858807931252
 21
-1012.845144113496
 31
0.0
  0
LINE
  5
146
330
76
100
AcDbEntity
  8
1
  6
Continuous
 62
     2
100
AcDbLine
 10
-1178.858807931252
 20
-864.3451441134963
 30
0.0
 11
-1178.858807931252
 21
-1012.845144113496
 31
0.0
  0
LINE
  5
147
330
76
100
AcDbEntity
  8
1
  6
Continuous
 62
     2
100
AcDbLine
 10
-948.8588079312536
 20
-864.3451441134963
 30
0.0
 11
-968.8588079312508
 21
-864.3451441134963
 31
0.0
  0
LINE
  5
148
330
76
100
AcDbEntity
  8
1
  6
Continuous
 62
     2
100
AcDbLine
 10
-948.8588079312536
 20
-864.3451441134963
 30
0.0
 11
-948.8588079312536
 21
-868.3451441134961
 31
0.0
  0
LINE
  5
149
330
76
100
AcDbEntity
  8
1
  6
Continuous
 62
     2
100
AcDbLine
 10
-1158.858807931252
 20
-864.3451441134963
 30
0.0
 11
-1178.858807931252
 21
-864.3451441134963
 31
0.0
  0
LINE
  5
14A
330
76
100
AcDbEntity
  8
1
  6
Continuous
 62
     2
100
AcDbLine
 10
-1158.858807931252
 20
-864.3451441134963
 30
0.0
 11
-1158.858807931252
 21
-868.3451441134961
 31
0.0
  0
LINE
  5
14B
330
76
100
AcDbEntity
  8
1
  6
Continuous
 62
     2
100
AcDbLine
 10
-1105.525474597918
 20
-864.3451441134963
 30
0.0
 11
-1158.858807931252
 21
-864.3451441134963
 31
0.0
  0
LINE
  5
14C
330
76
100
AcDbEntity
  8
1
  6
Continuous
 62
     6
100
AcDbLine
 10
-1105.525474597918
 20
-869.3451441134961
 30
0.0
 11
-1037.192141264584
 21
-869.3451441134963
 31
0.0
  0
LINE
  5
14D
330
76
100
AcDbEntity
  8
1
  6
Continuous
 62
     2
100
AcDbLine
 10
-1105.525474597918
 20
-869.3451441134961
 30
0.0
 11
-1105.525474597918
 21
-864.3451441134963
 31
0.0
  0
LINE
  5
14E
330
76
100
AcDbEntity
  8
1
  6
Continuous
 62
     2
100
AcDbLine
 10
-1037.192141264584
 20
-864.3451441134963
 30
0.0
 11
-1105.525474597918
 21
-864.3451441134963
 31
0.0
  0
LINE
  5
14F
330
76
100
AcDbEntity
  8
1
  6
Continuous
 62
     6
100
AcDbLine
 10
-1037.192141264584
 20
-869.3451441134963
 30
0.0
 11
-968.8588079312508
 21
-869.3451441134963
 31
0.0
  0
LINE
  5
150
330
76
100
AcDbEntity
  8
1
  6
Continuous
 62
     2
100
AcDbLine
 10
-1037.192141264584
 20
-869.3451441134963
 30
0.0
 11
-1037.192141264584
 21
-864.3451441134963
 31
0.0
  0
LINE
  5
151
330
76
100
AcDbEntity
  8
1
  6
Continuous
 62
     2
100
AcDbLine
 10
-968.8588079312508
 20
-864.3451441134963
 30
0.0
 11
-1037.192141264584
 21
-864.3451441134963
 31
0.0
  0
LINE
  5
152
330
76
100
AcDbEntity
  8
1
  6
Continuous
 62
     6
100
AcDbLine
 10
-968.8588079312508
 20
-869.3451441134963
 30
0.0
 11
-900.5254745979174
 21
-869.3451441134963
 31
0.0
  0
LINE
  5
153
330
76
100
AcDbEntity
  8
1
  6
Continuous
 62
     2
100
AcDbLine
 10
-968.8588079312508
 20
-869.3451441134963
 30
0.0
 11
-968.8588079312508
 21
-864.3451441134963
 31
0.0
  0
LINE
  5
154
330
76
100
AcDbEntity
  8
1
  6
Continuous
 62
     2
100
AcDbLine
 10
-900.5254745979174
 20
-864.3451441134963
 30
0.0
 11
-948.8588079312536
 21
-864.3451441134963
 31
0.0
  0
LINE
  5
155
330
76
100
AcDbEntity
  8
1
  6
Continuous
 62
     6
100
AcDbLine
 10
-900.5254745979174
 20
-869.3451441134963
 30
0.0
 11
-832.1921412645843
 21
-869.3451441134963
 31
0.0
  0
LINE
  5
156
330
76
100
AcDbEntity
  8
1
  6
Continuous
 62
     2
100
AcDbLine
 10
-900.5254745979174
 20
-869.3451441134963
 30
0.0
 11
-900.5254745979174
 21
-864.3451441134963
 31
0.0
  0
LINE
  5
157
330
76
100
AcDbEntity
  8
1
  6
Continuous
 62
     2
100
AcDbLine
 10
-832.1921412645843
 20
-864.3451441134963
 30
0.0
 11
-900.5254745979174
 21
-864.3451441134963
 31
0.0
  0
LINE
  5
158
330
76
100
AcDbEntity
  8
1
  6
Continuous
 62
     6
100
AcDbLine
 10
-832.1921412645843
 20
-869.3451441134963
 30
0.0
 11
-763.8588079312533
 21
-869.3451441134963
 31
0.0
  0
LINE
  5
159
330
76
100
AcDbEntity
  8
1
  6
Continuous
 62
     2
100
AcDbLine
 10
-832.1921412645843
 20
-869.3451441134963
 30
0.0
 11
-832.1921412645843
 21
-864.3451441134963
 31
0.0
  0
LINE
  5
15A
330
76
100
AcDbEntity
  8
1
  6
Continuous
 62
     2
100
AcDbLine
 10
-763.8588079312533
 20
-864.3451441134963
 30
0.0
 11
-832.1921412645843
 21
-864.3451441134963
 31
0.0
  0
LINE
  5
15B
330
76
100
AcDbEntity
  8
1
  6
Continuous
 62
     6
100
AcDbLine
 10
-1158.858807931252
 20
-869.3451441134961
 30
0.0
 11
-1105.525474597918
 21
-869.3451441134961
 31
0.0
  0
LINE
  5
15C
330
76
100
AcDbEntity
  8
1
  6
Continuous
 62
     6
100
AcDbLine
 10
-763.8588079312508
 20
-1041.545144113496
 30
0.0
 11
-763.8588079312509
 21
-1098.945144113496
 31
0.0
  0
LINE
  5
15D
330
76
100
AcDbEntity
  8
1
  6
Continuous
 62
     2
100
AcDbLine
 10
-763.8588079312508
 20
-1041.545144113496
 30
0.0
 11
-758.8588079312533
 21
-1041.545144113496
 31
0.0
  0
LINE
  5
15E
330
76
100
AcDbEntity
  8
1
  6
Continuous
 62
     2
100
AcDbLine
 10
-758.8588079312533
 20
-984.1451441134963
 30
0.0
 11
-758.8588079312533
 21
-1041.545144113496
 31
0.0
  0
LINE
  5
15F
330
76
100
AcDbEntity
  8
1
  6
Continuous
 62
     6
100
AcDbLine
 10
-763.8588079312508
 20
-984.1451441134963
 30
0.0
 11
-763.8588079312508
 21
-1041.545144113496
 31
0.0
  0
LINE
  5
160
330
76
100
AcDbEntity
  8
1
  6
Continuous
 62
     2
100
AcDbLine
 10
-763.8588079312508
 20
-984.1451441134963
 30
0.0
 11
-758.8588079312533
 21
-984.1451441134963
 31
0.0
  0
LINE
  5
161
330
76
100
AcDbEntity
  8
1
  6
Continuous
 62
     2
100
AcDbLine
 10
-758.8588079312533
 20
-926.7451441134964
 30
0.0
 11
-758.8588079312533
 21
-984.1451441134963
 31
0.0
  0
LINE
  5
162
330
76
100
AcDbEntity
  8
1
  6
Continuous
 62
     6
100
AcDbLine
 10
-763.8588079312528
 20
-926.7451441134964
 30
0.0
 11
-763.8588079312508
 21
-984.1451441134963
 31
0.0
  0
LINE
  5
163
330
76
100
AcDbEntity
  8
1
  6
Continuous
 62
     2
100
AcDbLine
 10
-763.8588079312528
 20
-926.7451441134964
 30
0.0
 11
-758.8588079312533
 21
-926.7451441134964
 31
0.0
  0
LINE
  5
164
330
76
100
AcDbEntity
  8
1
  6
Continuous
 62
     2
100
AcDbLine
 10
-758.8588079312533
 20
-869.3451441134963
 30
0.0
 11
-758.8588079312533
 21
-926.7451441134964
 31
0.0
  0
LINE
  5
165
330
76
100
AcDbEntity
  8
1
  6
Continuous
 62
     2
100
AcDbLine
 10
-763.8588079312533
 20
-869.3451441134963
 30
0.0
 11
-758.8588079312533
 21
-869.3451441134963
 31
0.0
  0
LINE
  5
166
330
76
100
AcDbEntity
  8
1
  6
Continuous
 62
     2
100
AcDbLine
 10
-763.8588079312533
 20
-869.3451441134963
 30
0.0
 11
-763.8588079312533
 21
-864.3451441134963
 31
0.0
  0
LINE
  5
167
330
76
100
AcDbEntity
  8
1
  6
Continuous
 62
     2
100
AcDbLine
 10
-758.8588079312533
 20
-864.3451441134963
 30
0.0
 11
-758.8588079312533
 21
-869.3451441134963
 31
0.0
  0
LINE
  5
168
330
76
100
AcDbEntity
  8
1
  6
Continuous
 62
     6
100
AcDbLine
 10
-763.8588079312533
 20
-869.3451441134963
 30
0.0
 11
-763.8588079312528
 21
-926.7451441134964
 31
0.0
  0
LINE
  5
169
330
76
100
AcDbEntity
  8
1
  6
Continuous
 62
     2
100
AcDbLine
 10
-758.8588079312533
 20
-864.3451441134963
 30
0.0
 11
-763.8588079312533
 21
-864.3451441134963
 31
0.0
  0
LINE
  5
16A
330
76
100
AcDbEntity
  8
1
  6
Continuous
 62
     2
100
AcDbLine
 10
-758.8588079312533
 20
-1156.345144113496
 30
0.0
 11
-758.8588079312533
 21
-1098.945144113496
 31
0.0
  0
LINE
  5
16B
330
76
100
AcDbEntity
  8
1
  6
Continuous
 62
     2
100
AcDbLine
 10
-758.8588079312533
 20
-1156.345144113496
 30
0.0
 11
-758.8588079312533
 21
-1161.345144113496
 31
0.0
  0
LINE
  5
16C
330
76
100
AcDbEntity
  8
1
  6
Continuous
 62
     2
100
AcDbLine
 10
-758.8588079312533
 20
-1161.345144113496
 30
0.0
 11
-763.8588079312508
 21
-1161.345144113496
 31
0.0
  0
LINE
  5
16D
330
76
100
AcDbEntity
  8
1
  6
Continuous
 62
     2
100
AcDbLine
 10
-900.5254745979174
 20
-1161.345144113496
 30
0.0
 11
-832.1921412645843
 21
-1161.345144113496
 31
0.0
  0
LINE
  5
16E
330
76
100
AcDbEntity
  8
1
  6
Continuous
 62
     2
100
AcDbLine
 10
-948.8588079312536
 20
-1161.345144113496
 30
0.0
 11
-900.5254745979174
 21
-1161.345144113496
 31
0.0
  0
LINE
  5
16F
330
76
100
AcDbEntity
  8
1
  6
Continuous
 62
     2
100
AcDbLine
 10
-948.8588079312536
 20
-1161.345144113496
 30
0.0
 11
-948.8588079312536
 21
-1157.345144113496
 31
0.0
  0
LINE
  5
170
330
76
100
AcDbEntity
  8
1
  6
Continuous
 62
     2
100
AcDbLine
 10
-948.8588079312536
 20
-1161.345144113496
 30
0.0
 11
-968.8588079312508
 21
-1161.345144113496
 31
0.0
  0
LINE
  5
171
330
76
100
AcDbEntity
  8
1
  6
Continuous
 62
     2
100
AcDbLine
 10
-1158.858807931252
 20
-1161.345144113496
 30
0.0
 11
-1105.525474597918
 21
-1161.345144113496
 31
0.0
  0
LINE
  5
172
330
76
100
AcDbEntity
  8
1
  6
Continuous
 62
     2
100
AcDbLine
 10
-1158.858807931252
 20
-1161.345144113496
 30
0.0
 11
-1158.858807931252
 21
-1157.345144113496
 31
0.0
  0
LINE
  5
173
330
76
100
AcDbEntity
  8
1
  6
Continuous
 62
     2
100
AcDbLine
 10
-1037.192141264584
 20
-1161.345144113496
 30
0.0
 11
-1037.192141264584
 21
-1156.345144113496
 31
0.0
  0
LINE
  5
174
330
76
100
AcDbEntity
  8
1
  6
Continuous
 62
     6
100
AcDbLine
 10
-1105.525474597918
 20
-1156.345144113496
 30
0.0
 11
-1158.858807931251
 21
-1156.345144113496
 31
0.0
  0
LINE
  5
175
330
76
100
AcDbEntity
  8
1
  6
Continuous
 62
     6
100
AcDbLine
 10
-1105.525474597918
 20
-1156.345144113496
 30
0.0
 11
-1037.192141264584
 21
-1156.345144113496
 31
0.0
  0
LINE
  5
176
330
76
100
AcDbEntity
  8
1
  6
Continuous
 62
     2
100
AcDbLine
 10
-1105.525474597918
 20
-1161.345144113496
 30
0.0
 11
-1037.192141264584
 21
-1161.345144113496
 31
0.0
  0
LINE
  5
177
330
76
100
AcDbEntity
  8
1
  6
Continuous
 62
     2
100
AcDbLine
 10
-1105.525474597918
 20
-1161.345144113496
 30
0.0
 11
-1105.525474597918
 21
-1156.345144113496
 31
0.0
  0
LINE
  5
178
330
76
100
AcDbEntity
  8
1
  6
Continuous
 62
     2
100
AcDbLine
 10
-1158.858807931252
 20
-1161.345144113496
 30
0.0
 11
-1178.858807931252
 21
-1161.345144113496
 31
0.0
  0
LINE
  5
179
330
76
100
AcDbEntity
  8
1
  6
Continuous
 62
     2
100
AcDbLine
 10
-758.8588079312533
 20
-1098.945144113496
 30
0.0
 11
-763.8588079312509
 21
-1098.945144113496
 31
0.0
  0
LINE
  5
17A
330
76
100
AcDbEntity
  8
1
  6
Continuous
 62
     2
100
AcDbLine
 10
-758.8588079312533
 20
-1098.945144113496
 30
0.0
 11
-758.8588079312533
 21
-1041.545144113496
 31
0.0
  0
LINE
  5
17B
330
76
100
AcDbEntity
  8
1
  6
Continuous
 62
     2
100
AcDbLine
 10
-968.8588079312508
 20
-1161.345144113496
 30
0.0
 11
-968.8588079312508
 21
-1156.345144113496
 31
0.0
  0
LINE
  5
17C
330
76
100
AcDbEntity
  8
1
  6
Continuous
 62
     2
100
AcDbLine
 10
-900.5254745979174
 20
-1161.345144113496
 30
0.0
 11
-900.5254745979174
 21
-1156.345144113499
 31
0.0
  0
LINE
  5
17D
330
76
100
AcDbEntity
  8
1
  6
Continuous
 62
     2
100
AcDbLine
 10
-832.1921412645843
 20
-1161.345144113496
 30
0.0
 11
-832.1921412645843
 21
-1156.345144113496
 31
0.0
  0
LINE
  5
17E
330
76
100
AcDbEntity
  8
1
  6
Continuous
 62
     2
100
AcDbLine
 10
-832.1921412645843
 20
-1161.345144113496
 30
0.0
 11
-763.8588079312508
 21
-1161.345144113496
 31
0.0
  0
LINE
  5
17F
330
76
100
AcDbEntity
  8
1
  6
Continuous
 62
     2
100
AcDbLine
 10
-968.8588079312508
 20
-1161.345144113496
 30
0.0
 11
-1037.192141264584
 21
-1161.345144113496
 31
0.0
  0
LINE
  5
180
330
76
100
AcDbEntity
  8
1
  6
Continuous
 62
     6
100
AcDbLine
 10
-763.8588079312518
 20
-1135.095144113497
 30
0.0
 11
-763.8588079312509
 21
-1098.945144113496
 31
0.0
  0
LINE
  5
181
330
76
100
AcDbEntity
  8
1
  6
Continuous
 62
     6
100
AcDbLine
 10
-763.8588079312508
 20
-1139.345144113497
 30
0.0
 11
-763.8588079312518
 21
-1135.095144113497
 31
0.0
  0
LINE
  5
182
330
76
100
AcDbEntity
  8
1
  6
Continuous
 62
     6
100
AcDbLine
 10
-763.8588079312512
 20
-1147.845144113497
 30
0.0
 11
-763.8588079312508
 21
-1139.345144113497
 31
0.0
  0
LINE
  5
183
330
76
100
AcDbEntity
  8
1
  6
Continuous
 62
     6
100
AcDbLine
 10
-832.1921412645843
 20
-1156.345144113496
 30
0.0
 11
-763.8588079312509
 21
-1156.345144113497
 31
0.0
  0
ARC
  5
184
102
{ACAD_REACTORS
330
200
330
201
102
}
330
76
100
AcDbEntity
  8
0
  6
Continuous
 62
     2
100
AcDbCircle
 10
-881.0321114333511
 20
-1150.837420296831
 30
0.0
 40
4.852596863498158
100
AcDbArc
 50
74.02000874164733
 51
84.84185523037584
  0
ARC
  5
185
102
{ACAD_REACTORS
330
200
330
201
102
}
330
76
100
AcDbEntity
  8
0
  6
Continuous
 62
     2
100
AcDbCircle
 10
-880.4560708245974
 20
-1147.681659940947
 30
0.0
 40
0.9059297849855745
100
AcDbArc
 50
71.55192388186258
 51
113.3722778881394
  0
ARC
  5
186
102
{ACAD_REACTORS
330
200
330
201
102
}
330
76
100
AcDbEntity
  8
0
  6
Continuous
 62
     2
100
AcDbCircle
 10
-880.6125108572995
 20
-1147.729810780914
 30
0.0
 40
0.5115800601944485
100
AcDbArc
 50
208.5214732576157
 51
246.6277221118177
  0
ARC
  5
187
102
{ACAD_REACTORS
330
200
330
201
102
}
330
76
100
AcDbEntity
  8
0
  6
Continuous
 62
     2
100
AcDbCircle
 10
-880.4560708245974
 20
-1147.367818762204
 30
0.0
 40
0.9059297849846808
100
AcDbArc
 50
246.6277221118606
 51
288.4480761181556
  0
ARC
  5
188
102
{ACAD_REACTORS
330
200
330
201
102
}
330
76
100
AcDbEntity
  8
0
  6
Continuous
 62
     2
100
AcDbCircle
 10
-880.8742385582584
 20
-1146.114272986167
 30
0.0
 40
2.227384008972647
100
AcDbArc
 50
288.4480761181374
 51
301.930908949977
  0
ARC
  5
189
102
{ACAD_REACTORS
330
1FC
330
1FD
102
}
330
76
100
AcDbEntity
  8
0
  6
Continuous
 62
     2
100
AcDbCircle
 10
-886.0993122908651
 20
-1145.381770957253
 30
0.0
 40
0.9118481501437387
100
AcDbArc
 50
295.3740086782019
 51
64.62599132182261
  0
ARC
  5
18A
102
{ACAD_REACTORS
330
1FC
330
1FD
102
}
330
76
100
AcDbEntity
  8
0
  6
Continuous
 62
     2
100
AcDbCircle
 10
-885.5732695927771
 20
-1143.667094068778
 30
0.0
 40
0.3157169230760149
100
AcDbArc
 50
90.18896704258206
 51
180.0
  0
ARC
  5
18B
102
{ACAD_REACTORS
330
1FE
330
1FF
102
}
330
76
100
AcDbEntity
  8
0
  6
Continuous
 62
     2
100
AcDbCircle
 10
-864.3631393799429
 20
-1147.737622902619
 30
0.0
 40
0.9545230068260935
100
AcDbArc
 50
90.0
 51
109.3371432194401
  0
ARC
  5
18C
102
{ACAD_REACTORS
330
1FE
330
1FF
102
}
330
76
100
AcDbEntity
  8
0
  6
Continuous
 62
     2
100
AcDbCircle
 10
-864.1324521199651
 20
-1147.524739351575
 30
0.0
 40
0.9410597353349766
100
AcDbArc
 50
151.4785267423711
 51
208.5214732576897
  0
ARC
  5
18D
102
{ACAD_REACTORS
330
1FE
330
1FF
102
}
330
76
100
AcDbEntity
  8
0
  6
Continuous
 62
     2
100
AcDbCircle
 10
-864.3533693453435
 20
-1147.367818762204
 30
0.0
 40
0.9059297849850417
100
AcDbArc
 50
246.6277221118078
 51
288.4480761180874
  0
ARC
  5
18E
102
{ACAD_REACTORS
330
1FE
330
1FF
102
}
330
76
100
AcDbEntity
  8
0
  6
Continuous
 62
     2
100
AcDbCircle
 10
-864.7715370790055
 20
-1146.114272986167
 30
0.0
 40
2.227384008972611
100
AcDbArc
 50
288.4480761181346
 51
301.9309089499367
  0
ARC
  5
18F
102
{ACAD_REACTORS
330
1FE
330
1FF
102
}
330
76
100
AcDbEntity
  8
0
  6
Continuous
 62
     2
100
AcDbCircle
 10
-864.9294099540982
 20
-1144.212058406319
 30
0.0
 40
4.852596863498941
100
AcDbArc
 50
275.1581447696365
 51
285.9799912583397
  0
ARC
  5
190
102
{ACAD_REACTORS
330
1FE
330
1FF
102
}
330
76
100
AcDbEntity
  8
0
  6
Continuous
 62
     2
100
AcDbCircle
 10
-864.6405538593624
 20
-1147.41194898954
 30
0.0
 40
1.639695123940421
100
AcDbArc
 50
195.0618917771015
 51
275.1581447696745
  0
ARC
  5
191
102
{ACAD_REACTORS
330
1F6
330
1F7
102
}
330
76
100
AcDbEntity
  8
0
  6
Continuous
 62
     2
100
AcDbCircle
 10
-880.3687671710535
 20
-1143.694009754829
 30
0.0
 40
1.055365641333992
100
AcDbArc
 50
270.0
 51
90.0
  0
ARC
  5
192
102
{ACAD_REACTORS
330
1FC
330
1FD
102
}
330
76
100
AcDbEntity
  8
0
  6
Continuous
 62
     2
100
AcDbCircle
 10
-888.1488182793089
 20
-1148.023371634847
 30
0.0
 40
0.3157169230756836
100
AcDbArc
 50
180.0
 51
270.0
  0
ARC
  5
193
102
{ACAD_REACTORS
330
1FC
330
1FD
102
}
330
76
100
AcDbEntity
  8
0
  6
Continuous
 62
     2
100
AcDbCircle
 10
-886.6729850182994
 20
-1143.66691659213
 30
0.0
 40
0.3157169230767067
100
AcDbArc
 50
0.0
 51
90.0
  0
ARC
  5
194
102
{ACAD_REACTORS
330
1FC
330
1FD
102
}
330
76
100
AcDbEntity
  8
0
  6
Continuous
 62
     2
100
AcDbCircle
 10
-886.6729850182994
 20
-1144.27094121119
 30
0.0
 40
0.3157169230765287
100
AcDbArc
 50
295.1944106485277
 51
0.0
  0
ARC
  5
195
102
{ACAD_REACTORS
330
1FC
330
1FD
102
}
330
76
100
AcDbEntity
  8
0
  6
Continuous
 62
     2
100
AcDbCircle
 10
-886.6729850182994
 20
-1148.023371634847
 30
0.0
 40
0.3157169230769341
100
AcDbArc
 50
270.0
 51
0.0
  0
ARC
  5
196
102
{ACAD_REACTORS
330
1FC
330
1FD
102
}
330
76
100
AcDbEntity
  8
0
  6
Continuous
 62
     2
100
AcDbCircle
 10
-888.7427129560555
 20
-1143.062888728897
 30
0.0
 40
0.424244615383941
100
AcDbArc
 50
90.0
 51
180.0
  0
ARC
  5
197
102
{ACAD_REACTORS
330
1FC
330
1FD
102
}
330
76
100
AcDbEntity
  8
0
  6
Continuous
 62
     2
100
AcDbCircle
 10
-883.2694008653385
 20
-1143.062888728897
 30
0.0
 40
0.4242446153838273
100
AcDbArc
 50
0.0
 51
90.0
  0
ARC
  5
198
102
{ACAD_REACTORS
330
1FC
330
1FD
102
}
330
76
100
AcDbEntity
  8
0
  6
Continuous
 62
     2
100
AcDbCircle
 10
-883.2694008653385
 20
-1148.627399498097
 30
0.0
 40
0.424244615383941
100
AcDbArc
 50
270.0
 51
0.0
  0
ARC
  5
199
102
{ACAD_REACTORS
330
1FA
330
1FB
102
}
330
76
100
AcDbEntity
  8
0
  6
Continuous
 62
     2
100
AcDbCircle
 10
-874.051016978247
 20
-1144.165548875401
 30
0.0
 40
0.7717997786794554
100
AcDbArc
 50
321.8795802028439
 51
38.1204197971694
  0
ARC
  5
19A
102
{ACAD_REACTORS
330
1FA
330
1FB
102
}
330
76
100
AcDbEntity
  8
0
  6
Continuous
 62
     2
100
AcDbCircle
 10
-873.8512769419009
 20
-1144.322280053521
 30
0.0
 40
0.5179085730138424
100
AcDbArc
 50
218.1204197971879
 51
321.8795802028044
  0
ARC
  5
19B
102
{ACAD_REACTORS
330
1F8
330
1F9
102
}
330
76
100
AcDbEntity
  8
0
  6
Continuous
 62
     2
100
AcDbCircle
 10
-877.5312845308612
 20
-1147.524739351575
 30
0.0
 40
1.458034083652521
100
AcDbArc
 50
297.5481481756942
 51
62.45185182428514
  0
ARC
  5
19C
102
{ACAD_REACTORS
330
1F8
330
1F9
102
}
330
76
100
AcDbEntity
  8
0
  6
Continuous
 62
     2
100
AcDbCircle
 10
-878.0931643145277
 20
-1147.524739351575
 30
0.0
 40
1.458034083650987
100
AcDbArc
 50
117.5481481756753
 51
242.4518518243454
  0
ARC
  5
19D
102
{ACAD_REACTORS
330
1F8
330
1F9
102
}
330
76
100
AcDbEntity
  8
0
  6
Continuous
 62
     2
100
AcDbCircle
 10
-877.8122244226944
 20
-1148.063314361878
 30
0.0
 40
2.06547977220824
100
AcDbArc
 50
62.45185182430162
 51
117.5481481756732
  0
ARC
  5
19E
102
{ACAD_REACTORS
330
1F8
330
1F9
102
}
330
76
100
AcDbEntity
  8
0
  6
Continuous
 62
     2
100
AcDbCircle
 10
-877.8122244226944
 20
-1146.986164341272
 30
0.0
 40
2.065479772208775
100
AcDbArc
 50
242.4518518243414
 51
297.5481481756838
  0
ARC
  5
19F
102
{ACAD_REACTORS
330
1FA
330
1FB
102
}
330
76
100
AcDbEntity
  8
0
  6
Continuous
 62
     2
100
AcDbCircle
 10
-873.6515369055546
 20
-1144.165548875401
 30
0.0
 40
0.7717997786797746
100
AcDbArc
 50
141.879580202841
 51
218.1204197971457
  0
ARC
  5
1A0
102
{ACAD_REACTORS
330
1FA
330
1FB
102
}
330
76
100
AcDbEntity
  8
0
  6
Continuous
 62
     2
100
AcDbCircle
 10
-873.8512769419009
 20
-1144.00881769728
 30
0.0
 40
0.5179085730130512
100
AcDbArc
 50
38.12041979709668
 51
141.8795802029111
  0
ARC
  5
1A1
102
{ACAD_REACTORS
330
1FC
330
1FD
102
}
330
76
100
AcDbEntity
  8
0
  6
Continuous
 62
     2
100
AcDbCircle
 10
-888.7427129560555
 20
-1148.627399498097
 30
0.0
 40
0.4242446153828041
100
AcDbArc
 50
180.0
 51
270.0
  0
ARC
  5
1A2
102
{ACAD_REACTORS
330
1FC
330
1FD
102
}
330
76
100
AcDbEntity
  8
0
  6
Continuous
 62
     2
100
AcDbCircle
 10
-886.6729850182994
 20
-1146.492600703315
 30
0.0
 40
0.3157169230767067
100
AcDbArc
 50
0.0
 51
64.80558935138451
  0
ARC
  5
1A3
102
{ACAD_REACTORS
330
1FC
330
1FD
102
}
330
76
100
AcDbEntity
  8
0
  6
Continuous
 62
     2
100
AcDbCircle
 10
-886.1504005707244
 20
-1145.381770957253
 30
0.0
 40
0.911897523557964
100
AcDbArc
 50
115.194410648512
 51
244.8055893514941
  0
ARC
  5
1A4
102
{ACAD_REACTORS
330
1FC
330
1FD
102
}
330
76
100
AcDbEntity
  8
0
  6
Continuous
 62
     2
100
AcDbCircle
 10
-888.1488182793089
 20
-1143.66691659213
 30
0.0
 40
0.3157169230760246
100
AcDbArc
 50
90.0
 51
180.0
  0
ARC
  5
1A5
102
{ACAD_REACTORS
330
1F6
330
1F7
102
}
330
76
100
AcDbEntity
  8
0
  6
Continuous
 62
     2
100
AcDbCircle
 10
-880.8102396972919
 20
-1143.654613783606
 30
0.0
 40
0.3528638246709761
100
AcDbArc
 50
270.0
 51
90.0
  0
ARC
  5
1A6
102
{ACAD_REACTORS
330
1FA
330
1FB
102
}
330
76
100
AcDbEntity
  8
0
  6
Continuous
 62
     2
100
AcDbCircle
 10
-874.0675489520661
 20
-1144.165548875401
 30
0.0
 40
1.526904761906053
100
AcDbArc
 50
90.0
 51
270.0
  0
ARC
  5
1A7
102
{ACAD_REACTORS
330
1FE
330
1FF
102
}
330
76
100
AcDbEntity
  8
0
  6
Continuous
 62
     2
100
AcDbCircle
 10
-864.6405538593624
 20
-1147.63752971361
 30
0.0
 40
1.639695123940101
100
AcDbArc
 50
90.0
 51
164.9381082228985
  0
ARC
  5
1A8
102
{ACAD_REACTORS
330
1FE
330
1FF
102
}
330
76
100
AcDbEntity
  8
0
  6
Continuous
 62
     2
100
AcDbCircle
 10
-865.059681702824
 20
-1147.524739351575
 30
0.0
 40
1.205656168392844
100
AcDbArc
 50
164.9381082229203
 51
195.0618917770901
  0
ARC
  5
1A9
102
{ACAD_REACTORS
330
1FE
330
1FF
102
}
330
76
100
AcDbEntity
  8
0
  6
Continuous
 62
     2
100
AcDbCircle
 10
-864.5098093780466
 20
-1147.729810780914
 30
0.0
 40
0.5115800601959901
100
AcDbArc
 50
208.5214732576668
 51
246.6277221118294
  0
ARC
  5
1AA
102
{ACAD_REACTORS
330
1FE
330
1FF
102
}
330
76
100
AcDbEntity
  8
0
  6
Continuous
 62
     2
100
AcDbCircle
 10
-864.5098093780466
 20
-1147.319667922236
 30
0.0
 40
0.5115800601937612
100
AcDbArc
 50
109.3371432195076
 51
151.4785267424227
  0
ARC
  5
1AB
102
{ACAD_REACTORS
330
1FC
330
1FD
102
}
330
76
100
AcDbEntity
  8
0
  6
Continuous
 62
     2
100
AcDbCircle
 10
-885.5732695927771
 20
-1147.072763963916
 30
0.0
 40
0.3157169230768204
100
AcDbArc
 50
180.0
 51
269.8110329574179
  0
ARC
  5
1AC
102
{ACAD_REACTORS
330
1FC
330
1FD
102
}
330
76
100
AcDbEntity
  8
0
  6
Continuous
 62
     2
100
AcDbCircle
 10
-885.5676534574671
 20
-1145.369929016347
 30
0.0
 40
2.018561131933152
100
AcDbArc
 50
269.811032957581
 51
90.18896704241901
  0
ARC
  5
1AD
102
{ACAD_REACTORS
330
1FC
330
1FD
102
}
330
76
100
AcDbEntity
  8
0
  6
Continuous
 62
     2
100
AcDbCircle
 10
-885.5732695927771
 20
-1144.272629357285
 30
0.0
 40
0.3157169230768204
100
AcDbArc
 50
180.0
 51
244.6259913215949
  0
ARC
  5
1AE
102
{ACAD_REACTORS
330
1FC
330
1FD
102
}
330
76
100
AcDbEntity
  8
0
  6
Continuous
 62
     2
100
AcDbCircle
 10
-885.5732695927771
 20
-1146.490912557221
 30
0.0
 40
0.3157169230770072
100
AcDbArc
 50
115.3740086783167
 51
180.0
  0
ARC
  5
1AF
102
{ACAD_REACTORS
330
200
330
201
102
}
330
76
100
AcDbEntity
  8
0
  6
Continuous
 62
     2
100
AcDbCircle
 10
-880.7432553386152
 20
-1147.63752971361
 30
0.0
 40
1.63969512394044
100
AcDbArc
 50
84.84185523036614
 51
164.9381082228913
  0
ARC
  5
1B0
102
{ACAD_REACTORS
330
200
330
201
102
}
330
76
100
AcDbEntity
  8
0
  6
Continuous
 62
     2
100
AcDbCircle
 10
-881.1623831820781
 20
-1147.524739351575
 30
0.0
 40
1.205656168390868
100
AcDbArc
 50
164.9381082228951
 51
195.0618917771153
  0
ARC
  5
1B1
102
{ACAD_REACTORS
330
200
330
201
102
}
330
76
100
AcDbEntity
  8
0
  6
Continuous
 62
     2
100
AcDbCircle
 10
-880.7432553386152
 20
-1147.41194898954
 30
0.0
 40
1.639695123939652
100
AcDbArc
 50
195.0618917771087
 51
275.1581447696339
  0
ARC
  5
1B2
102
{ACAD_REACTORS
330
200
330
201
102
}
330
76
100
AcDbEntity
  8
0
  6
Continuous
 62
     2
100
AcDbCircle
 10
-881.0321114333511
 20
-1144.212058406319
 30
0.0
 40
4.852596863497932
100
AcDbArc
 50
275.1581447696242
 51
285.9799912583526
  0
ARC
  5
1B3
102
{ACAD_REACTORS
330
200
330
201
102
}
330
76
100
AcDbEntity
  8
0
  6
Continuous
 62
     2
100
AcDbCircle
 10
-880.2351535992192
 20
-1147.524739351575
 30
0.0
 40
0.9410597353329787
100
AcDbArc
 50
151.478526742305
 51
208.521473257695
  0
ARC
  5
1B4
102
{ACAD_REACTORS
330
200
330
201
102
}
330
76
100
AcDbEntity
  8
0
  6
Continuous
 62
     2
100
AcDbCircle
 10
-880.6125108572995
 20
-1147.319667922236
 30
0.0
 40
0.5115800601943187
100
AcDbArc
 50
113.3722778882227
 51
151.4785267423619
  0
ARC
  5
1B5
102
{ACAD_REACTORS
330
200
330
201
102
}
330
76
100
AcDbEntity
  8
0
  6
Continuous
 62
     2
100
AcDbCircle
 10
-880.8742385582584
 20
-1148.935205716983
 30
0.0
 40
2.227384008972995
100
AcDbArc
 50
58.06909105002609
 51
71.5519238818626
  0
ARC
  5
1B6
102
{ACAD_REACTORS
330
1F8
330
1F9
102
}
330
76
100
AcDbEntity
  8
0
  6
Continuous
 62
     2
100
AcDbCircle
 10
-877.8122244226944
 20
-1147.368008173455
 30
0.0
 40
0.517908573013574
100
AcDbArc
 50
38.12041979721116
 51
141.8795802028121
  0
ARC
  5
1B7
102
{ACAD_REACTORS
330
1F8
330
1F9
102
}
330
76
100
AcDbEntity
  8
0
  6
Continuous
 62
     2
100
AcDbCircle
 10
-877.6124843863483
 20
-1147.524739351575
 30
0.0
 40
0.7717997786794554
100
AcDbArc
 50
141.8795802028439
 51
218.1204197971694
  0
ARC
  5
1B8
102
{ACAD_REACTORS
330
1F8
330
1F9
102
}
330
76
100
AcDbEntity
  8
0
  6
Continuous
 62
     2
100
AcDbCircle
 10
-877.8122244226944
 20
-1147.681470529695
 30
0.0
 40
0.5179085730138424
100
AcDbArc
 50
218.1204197971879
 51
321.8795802027889
  0
ARC
  5
1B9
102
{ACAD_REACTORS
330
1F8
330
1F9
102
}
330
76
100
AcDbEntity
  8
0
  6
Continuous
 62
     2
100
AcDbCircle
 10
-878.0119644590408
 20
-1147.524739351575
 30
0.0
 40
0.7717997786795957
100
AcDbArc
 50
321.8795802028306
 51
38.12041979715612
  0
CIRCLE
  5
1BA
330
76
100
AcDbEntity
  8
1
  6
Continuous
 62
     2
100
AcDbCircle
 10
-880.6669575714383
 20
-1135.220144113497
 30
0.0
 40
2.5
  0
CIRCLE
  5
1BB
330
76
100
AcDbEntity
  8
1
  6
Continuous
 62
     2
100
AcDbCircle
 10
-880.6669575714383
 20
-1135.220144113497
 30
0.0
 40
1.25
  0
CIRCLE
  5
1BC
102
{ACAD_REACTORS
330
1FC
330
1FD
102
}
330
76
100
AcDbEntity
  8
0
  6
Continuous
 62
     2
100
AcDbCircle
 10
-886.1231273055379
 20
-1145.381770957253
 30
0.0
 40
0.4709789327785074
  0
MTEXT
  5
1BE
330
76
100
AcDbEntity
  8
1
 62
     3
100
AcDbMText
 10
-1160.436134619898
 20
-1156.318230013996
 30
0.0
 40
1.8
 41
0.0
 71
     7
 72
     1
  3
Weitergabe sowie Vervielfältigung dieses Dokuments, Verwertung und \PMitteilung seines Inhalts sind verboten, soweit nicht ausdrücklich gestattet. \PZuwiderhandlungen verpflichten zu Schadenersatz. Alle Rechte für den Fall\Pder Patent-, Gebrauchsmus
  1
ter- oder Designeintragung vorbehalten.
  7
CONVERTER_11
 11
0.0
 21
1.0
 31
0.0
 73
     1
 44
0.99639855942377
  0
MTEXT
  5
1BF
330
76
100
AcDbEntity
  8
1
 62
     3
100
AcDbMText
 10
-1160.590340930992
 20
-983.3588599998426
 30
0.0
 40
1.8
 41
0.0
 71
     7
 72
     1
  3
Transfer or duplication of this document as well as the utilisation or\Pcommunication of its content are not permitted unless express consent\Pis granted. Violations give rise to claims for damages. All rights reserved\Pin case of patent, utility mo
  1
del or design patent registrations.
  7
CONVERTER_11
 11
0.0
 21
1.0
 31
0.0
 73
     1
 44
0.99639855942377
  0
TEXT
  5
1C0
330
76
100
AcDbEntity
  8
1
 62
     2
100
AcDbText
 10
-874.203612458001
 20
-1155.104161328488
 30
0.0
 40
1.8
  1
of
 41
0.9
  7
CONVERTER_11
100
AcDbText
  0
TEXT
  5
1C1
330
76
100
AcDbEntity
  8
1
 62
     2
100
AcDbText
 10
-892.4036124580008
 20
-1155.104161328489
 30
0.0
 40
1.8
  1
page
 41
0.9
  7
CONVERTER_11
100
AcDbText
  0
TEXT
  5
1C2
330
76
100
AcDbEntity
  8
1
 62
     2
100
AcDbText
 10
-883.7573474876588
 20
-1155.144392767299
 30
0.0
 40
1.8
  1
1
 41
0.9
  7
CONVERTER_11
100
AcDbText
  0
TEXT
  5
1C3
330
76
100
AcDbEntity
  8
1
 62
     2
100
AcDbText
 10
-868.9683036481872
 20
-1155.095144113497
 30
0.0
 40
1.8
  1
1
 41
0.9
  7
CONVERTER_11
100
AcDbText
  0
MTEXT
  5
1C5
330
76
100
AcDbEntity
  8
1
 62
     7
100
AcDbMText
 10
-810.4312101946254
 20
-1153.095144113497
 30
0.0
 40
3.0
 41
0.0
 71
     5
 72
     1
  1
CES-B16-WRG-BK
  7
CONVERTER_12
 73
     1
 44
1.20048019207683
  0
MTEXT
  5
1C6
330
76
100
AcDbEntity
  8
1
 62
     2
100
AcDbMText
 10
-856.0036124580008
 20
-1148.845144113497
 30
0.0
 40
1.8
 41
0.0
 71
     1
 72
     1
  1
description
  7
CONVERTER_11
 73
     1
 44
1.20048019207683
  0
MTEXT
  5
1C7
330
76
100
AcDbEntity
  8
1
 62
     3
100
AcDbMText
 10
-867.2036124580009
 20
-1135.220144113497
 30
0.0
 40
2.5
 41
0.0
 71
     5
 72
     1
  1
DIN A3
  7
CONVERTER_11
 73
     1
 44
1.20048019207683
  0
MTEXT
  5
1C8
330
76
100
AcDbEntity
  8
1
 62
     2
100
AcDbMText
 10
-927.8146357272103
 20
-1143.595144113498
 30
0.0
 40
2.0
 41
0.0
 71
     5
 72
     1
  1
General Information\P- Simplified representation\P- Document excluded from change process\P- Linear dimensions [mm]
  7
CONVERTER_11
 73
     1
 44
1.20048019207683
  0
TEXT
  5
1C9
330
76
100
AcDbEntity
  8
1
 62
     7
100
AcDbText
 10
-855.503612458001
 20
-1146.545144113497
 30
0.0
 40
2.5
  1
0801726
 41
0.81
  7
CONVERTER_12
100
AcDbText
  0
MTEXT
  5
1CA
330
76
100
AcDbEntity
  8
1
 62
     2
100
AcDbMText
 10
-855.9036124580009
 20
-1140.345144113497
 30
0.0
 40
1.8
 41
0.0
 71
     1
 72
     1
  1
ident.-No.
  7
CONVERTER_11
 73
     1
 44
1.20048019207683
  0
MTEXT
  5
1CB
330
76
100
AcDbEntity
  8
1
 62
     2
100
AcDbMText
 10
-771.6772162129281
 20
-1131.845144113497
 30
0.0
 40
1.8
 41
0.0
 71
     1
 72
     1
  1
scale
  7
CONVERTER_11
 73
     1
 44
1.20048019207683
  0
MTEXT
  5
1CD
330
76
100
AcDbEntity
  8
1
 62
     3
100
AcDbMText
 10
-768.3180120720885
 20
-1138.045144113497
 30
0.0
 40
2.5
 41
0.0
 71
     8
 72
     1
  1
1:1
  7
CONVERTER_13
 73
     1
 44
1.32052821128451
  0
TEXT
  5
1CE
330
76
100
AcDbEntity
  8
1
 62
     7
100
AcDbText
 10
-855.9036124580009
 20
-1138.045144113497
 30
0.0
 40
2.5
  1
00648348
 41
0.81
  7
CONVERTER_12
100
AcDbText
  0
MTEXT
  5
1D0
330
76
100
AcDbEntity
  8
1
 62
     2
100
AcDbMText
 10
-855.9036124580009
 20
-1131.845144113497
 30
0.0
 40
1.8
 41
0.0
 71
     1
 72
     1
  1
document-No. / RI
  7
CONVERTER_14
 73
     1
 44
1.32052821128451
  0
TEXT
  5
1D1
330
76
100
AcDbEntity
  8
1
 62
     3
100
AcDbText
 10
-828.1036124580008
 20
-1146.545144113497
 30
0.0
 40
2.5
  1
TECDOC 2D_Productdrawing
 41
0.81
  7
CONVERTER_12
100
AcDbText
  0
MTEXT
  5
1D2
330
76
100
AcDbEntity
  8
1
 62
     2
100
AcDbMText
 10
-828.1036124580008
 20
-1140.345144113497
 30
0.0
 40
1.8
 41
0.0
 71
     1
 72
     1
  1
document-type
  7
CONVERTER_11
 73
     1
 44
1.20048019207683
  0
MTEXT
  5
1D3
330
76
100
AcDbEntity
  8
1
 62
     2
100
AcDbMText
 10
-798.2772162129279
 20
-1131.845144113497
 30
0.0
 40
1.8
 41
0.0
 71
     1
 72
     1
  1
date
  7
CONVERTER_11
 73
     1
 44
1.32052821128451
  0
TEXT
  5
1D4
330
76
100
AcDbEntity
  8
1
 62
     3
100
AcDbText
 10
-798.2772162129279
 20
-1138.045144113497
 30
0.0
 40
2.5
  1
01.04.2021
 41
0.81
  7
CONVERTER_12
100
AcDbText
  0
TEXT
  5
1D5
330
76
100
AcDbEntity
  8
1
 62
     7
100
AcDbText
 10
-835.873700238945
 20
-1138.045144113497
 30
0.0
 40
2.5
  1
01
 41
0.81
  7
CONVERTER_12
100
AcDbText
  0
TEXT
  5
1D6
330
76
100
AcDbEntity
  8
1
 62
     7
100
AcDbText
 10
-838.030064735987
 20
-1138.045144113497
 30
0.0
 40
2.5
  1
/
 41
0.9
  7
CONVERTER_11
100
AcDbText
  0
TEXT
  5
1D7
330
76
100
AcDbEntity
  8
1
 62
     7
100
AcDbText
 10
-1140.858807931251
 20
-868.3451441134961
 30
0.0
 40
2.5
  1
1
 41
0.9
  7
CONVERTER_11
100
AcDbText
  0
TEXT
  5
1D8
330
76
100
AcDbEntity
  8
1
 62
     7
100
AcDbText
 10
-1072.525474597918
 20
-868.3451441134961
 30
0.0
 40
2.5
  1
2
 41
0.9
  7
CONVERTER_11
100
AcDbText
  0
TEXT
  5
1D9
330
76
100
AcDbEntity
  8
1
 62
     7
100
AcDbText
 10
-1004.192141264584
 20
-868.3451441134961
 30
0.0
 40
2.5
  1
3
 41
0.9
  7
CONVERTER_11
100
AcDbText
  0
TEXT
  5
1DA
330
76
100
AcDbEntity
  8
1
 62
     7
100
AcDbText
 10
-935.8588079312508
 20
-868.3451441134961
 30
0.0
 40
2.5
  1
4
 41
0.9
  7
CONVERTER_11
100
AcDbText
  0
TEXT
  5
1DB
330
76
100
AcDbEntity
  8
1
 62
     7
100
AcDbText
 10
-867.5254745979174
 20
-868.3451441134961
 30
0.0
 40
2.5
  1
5
 41
0.9
  7
CONVERTER_11
100
AcDbText
  0
TEXT
  5
1DC
330
76
100
AcDbEntity
  8
1
 62
     7
100
AcDbText
 10
-799.1921412645843
 20
-868.3451441134961
 30
0.0
 40
2.5
  1
6
 41
0.9
  7
CONVERTER_11
100
AcDbText
  0
TEXT
  5
1DD
330
76
100
AcDbEntity
  8
1
 62
     7
100
AcDbText
 10
-762.8588079312508
 20
-899.2451441134964
 30
0.0
 40
2.5
  1
A
 41
0.9
  7
CONVERTER_11
100
AcDbText
  0
TEXT
  5
1DE
330
76
100
AcDbEntity
  8
1
 62
     7
100
AcDbText
 10
-762.8588079312508
 20
-956.6451441134963
 30
0.0
 40
2.5
  1
B
 41
0.9
  7
CONVERTER_11
100
AcDbText
  0
TEXT
  5
1DF
330
76
100
AcDbEntity
  8
1
 62
     7
100
AcDbText
 10
-762.8588079312508
 20
-1014.045144113496
 30
0.0
 40
2.5
  1
C
 41
0.9
  7
CONVERTER_11
100
AcDbText
  0
TEXT
  5
1E0
330
76
100
AcDbEntity
  8
1
 62
     7
100
AcDbText
 10
-762.8588079312508
 20
-1071.445144113496
 30
0.0
 40
2.5
  1
D
 41
0.9
  7
CONVERTER_11
100
AcDbText
  0
TEXT
  5
1E1
330
76
100
AcDbEntity
  8
1
 62
     7
100
AcDbText
 10
-1072.525474597918
 20
-1160.345144113496
 30
0.0
 40
2.5
  1
2
 41
0.9
  7
CONVERTER_11
100
AcDbText
  0
TEXT
  5
1E2
330
76
100
AcDbEntity
  8
1
 62
     7
100
AcDbText
 10
-1140.858807931251
 20
-1160.345144113496
 30
0.0
 40
2.5
  1
1
 41
0.9
  7
CONVERTER_11
100
AcDbText
  0
TEXT
  5
1E3
330
76
100
AcDbEntity
  8
1
 62
     7
100
AcDbText
 10
-762.8588079312508
 20
-1128.845144113496
 30
0.0
 40
2.5
  1
E
 41
0.9
  7
CONVERTER_11
100
AcDbText
  0
TEXT
  5
1E4
330
76
100
AcDbEntity
  8
1
 62
     7
100
AcDbText
 10
-1004.192141264584
 20
-1160.345144113496
 30
0.0
 40
2.5
  1
3
 41
0.9
  7
CONVERTER_11
100
AcDbText
  0
TEXT
  5
1E5
330
76
100
AcDbEntity
  8
1
 62
     7
100
AcDbText
 10
-935.8588079312508
 20
-1160.345144113496
 30
0.0
 40
2.5
  1
4
 41
0.9
  7
CONVERTER_11
100
AcDbText
  0
TEXT
  5
1E6
330
76
100
AcDbEntity
  8
1
 62
     7
100
AcDbText
 10
-867.5254745979177
 20
-1160.345144113496
 30
0.0
 40
2.5
  1
5
 41
0.9
  7
CONVERTER_11
100
AcDbText
  0
TEXT
  5
1E7
330
76
100
AcDbEntity
  8
1
 62
     7
100
AcDbText
 10
-799.1921412645843
 20
-1160.345144113496
 30
0.0
 40
2.5
  1
6
 41
0.9
  7
CONVERTER_11
100
AcDbText
  0
HATCH
  5
1E8
330
76
100
AcDbEntity
  8
1
  6
Continuous
 62
     2
100
AcDbHatch
 10
0.0
 20
0.0
 30
0.0
210
0.0
220
0.0
230
1.0
  2
CUSTOM0
 70
     0
 71
     1
 91
        1
 92
        1
 93
       12
 72
     1
 10
-875.7361117450397
 20
-1145.692453637306
 11
-876.9289044472062
 21
-1145.692453637306
 72
     1
 10
-876.9289044472062
 20
-1145.692453637306
 11
-876.9289044472062
 21
-1144.558181528463
 72
     1
 10
-876.9289044472062
 20
-1144.558181528463
 11
-877.9785620251135
 21
-1144.558181528463
 72
     1
 10
-877.9785620251135
 20
-1144.558181528463
 11
-877.9785620251135
 21
-1145.692453637306
 72
     1
 10
-877.9785620251135
 20
-1145.692453637306
 11
-879.1713547272801
 21
-1145.692453637306
 72
     1
 10
-879.1713547272801
 20
-1145.692453637306
 11
-879.1713547272801
 21
-1142.638644113495
 72
     1
 10
-879.1713547272801
 20
-1142.638644113495
 11
-877.9785620251135
 21
-1142.638644113495
 72
     1
 10
-877.9785620251135
 20
-1142.638644113495
 11
-877.9785620251135
 21
-1143.70747744683
 72
     1
 10
-877.9785620251135
 20
-1143.70747744683
 11
-876.9289044472062
 21
-1143.70747744683
 72
     1
 10
-876.9289044472062
 20
-1143.70747744683
 11
-876.9289044472062
 21
-1142.638644113495
 72
     1
 10
-876.9289044472062
 20
-1142.638644113495
 11
-875.7361117450397
 21
-1142.638644113495
 72
     1
 10
-875.7361117450397
 20
-1142.638644113495
 11
-875.7361117450397
 21
-1145.692453637306
 97
       12
330
110
330
111
330
FB
330
FA
330
F9
330
10D
330
F8
330
10E
330
10F
330
F7
330
F6
330
F5
 75
     1
 76
     2
 52
45.0
 41
0.1
 77
     0
 78
     1
 53
45.0
 43
62.7811309658083
 44
-72.3161373035813
 45
-0.1414213562373095
 46
0.0
 79
     0
 98
        1
 10
0.0
 20
0.0
  0
HATCH
  5
1E9
330
76
100
AcDbEntity
  8
1
  6
Continuous
 62
     2
100
AcDbHatch
 10
0.0
 20
0.0
 30
0.0
210
0.0
220
0.0
230
1.0
  2
CUSTOM1
 70
     0
 71
     1
 91
        1
 92
        1
 93
       12
 72
     1
 10
-875.7361117450397
 20
-1145.692453637306
 11
-876.9289044472062
 21
-1145.692453637306
 72
     1
 10
-876.9289044472062
 20
-1145.692453637306
 11
-876.9289044472062
 21
-1144.558181528463
 72
     1
 10
-876.9289044472062
 20
-1144.558181528463
 11
-877.9785620251135
 21
-1144.558181528463
 72
     1
 10
-877.9785620251135
 20
-1144.558181528463
 11
-877.9785620251135
 21
-1145.692453637306
 72
     1
 10
-877.9785620251135
 20
-1145.692453637306
 11
-879.1713547272801
 21
-1145.692453637306
 72
     1
 10
-879.1713547272801
 20
-1145.692453637306
 11
-879.1713547272801
 21
-1142.638644113495
 72
     1
 10
-879.1713547272801
 20
-1142.638644113495
 11
-877.9785620251135
 21
-1142.638644113495
 72
     1
 10
-877.9785620251135
 20
-1142.638644113495
 11
-877.9785620251135
 21
-1143.70747744683
 72
     1
 10
-877.9785620251135
 20
-1143.70747744683
 11
-876.9289044472062
 21
-1143.70747744683
 72
     1
 10
-876.9289044472062
 20
-1143.70747744683
 11
-876.9289044472062
 21
-1142.638644113495
 72
     1
 10
-876.9289044472062
 20
-1142.638644113495
 11
-875.7361117450397
 21
-1142.638644113495
 72
     1
 10
-875.7361117450397
 20
-1142.638644113495
 11
-875.7361117450397
 21
-1145.692453637306
 97
       12
330
110
330
111
330
FB
330
FA
330
F9
330
10D
330
F8
330
10E
330
10F
330
F7
330
F6
330
F5
 75
     1
 76
     2
 52
45.0
 41
0.1
 77
     0
 78
     1
 53
45.0
 43
62.7811309658083
 44
-72.3161373035813
 45
-0.1414213562373095
 46
0.0
 79
     0
 98
        1
 10
0.0
 20
0.0
  0
HATCH
  5
1EA
330
76
100
AcDbEntity
  8
1
  6
Continuous
 62
     2
100
AcDbHatch
 10
0.0
 20
0.0
 30
0.0
210
0.0
220
0.0
230
1.0
  2
CUSTOM2
 70
     0
 71
     1
 91
        1
 92
        1
 93
       10
 72
     1
 10
-873.4938123958514
 20
-1147.306610099875
 11
-874.7343168061043
 21
-1145.997834589669
 72
     1
 10
-874.7343168061043
 20
-1145.997834589669
 11
-875.9271095082719
 21
-1145.997834589669
 72
     1
 10
-875.9271095082719
 20
-1145.997834589669
 11
-875.9271095082719
 21
-1149.051644113481
 72
     1
 10
-875.9271095082719
 20
-1149.051644113481
 11
-874.7343168061043
 21
-1149.051644113481
 72
     1
 10
-874.7343168061043
 20
-1149.051644113481
 11
-874.7343168061043
 21
-1147.742868603276
 72
     1
 10
-874.7343168061043
 20
-1147.742868603276
 11
-873.4938123958514
 21
-1149.051644113481
 72
     1
 10
-873.4938123958514
 20
-1149.051644113481
 11
-872.301019693685
 21
-1149.051644113481
 72
     1
 10
-872.301019693685
 20
-1149.051644113481
 11
-872.301019693685
 21
-1145.997834589669
 72
     1
 10
-872.301019693685
 20
-1145.997834589669
 11
-873.4938123958514
 21
-1145.997834589669
 72
     1
 10
-873.4938123958514
 20
-1145.997834589669
 11
-873.4938123958514
 21
-1147.306610099875
 97
       10
330
11E
330
EE
330
ED
330
F0
330
119
330
11A
330
EF
330
11B
330
11C
330
11D
 75
     1
 76
     2
 52
45.0
 41
0.1
 77
     0
 78
     1
 53
45.0
 43
62.7811309658083
 44
-72.3161373035813
 45
-0.1414213562373095
 46
0.0
 79
     0
 98
        1
 10
0.0
 20
0.0
  0
HATCH
  5
1EB
330
76
100
AcDbEntity
  8
1
  6
Continuous
 62
     2
100
AcDbHatch
 10
0.0
 20
0.0
 30
0.0
210
0.0
220
0.0
230
1.0
  2
CUSTOM3
 70
     0
 71
     1
 91
        1
 92
        1
 93
       10
 72
     1
 10
-873.4938123958514
 20
-1147.306610099875
 11
-874.7343168061043
 21
-1145.997834589669
 72
     1
 10
-874.7343168061043
 20
-1145.997834589669
 11
-875.9271095082719
 21
-1145.997834589669
 72
     1
 10
-875.9271095082719
 20
-1145.997834589669
 11
-875.9271095082719
 21
-1149.051644113481
 72
     1
 10
-875.9271095082719
 20
-1149.051644113481
 11
-874.7343168061043
 21
-1149.051644113481
 72
     1
 10
-874.7343168061043
 20
-1149.051644113481
 11
-874.7343168061043
 21
-1147.742868603276
 72
     1
 10
-874.7343168061043
 20
-1147.742868603276
 11
-873.4938123958514
 21
-1149.051644113481
 72
     1
 10
-873.4938123958514
 20
-1149.051644113481
 11
-872.301019693685
 21
-1149.051644113481
 72
     1
 10
-872.301019693685
 20
-1149.051644113481
 11
-872.301019693685
 21
-1145.997834589669
 72
     1
 10
-872.301019693685
 20
-1145.997834589669
 11
-873.4938123958514
 21
-1145.997834589669
 72
     1
 10
-873.4938123958514
 20
-1145.997834589669
 11
-873.4938123958514
 21
-1147.306610099875
 97
       10
330
11E
330
EE
330
ED
330
F0
330
119
330
11A
330
EF
330
11B
330
11C
330
11D
 75
     1
 76
     2
 52
45.0
 41
0.1
 77
     0
 78
     1
 53
45.0
 43
62.7811309658083
 44
-72.3161373035813
 45
-0.1414213562373095
 46
0.0
 79
     0
 98
        1
 10
0.0
 20
0.0
  0
HATCH
  5
1EC
330
76
100
AcDbEntity
  8
1
  6
Continuous
 62
     2
100
AcDbHatch
 10
0.0
 20
0.0
 30
0.0
210
0.0
220
0.0
230
1.0
  2
CUSTOM4
 70
     0
 71
     1
 91
        1
 92
        1
 93
       10
 72
     1
 10
-868.2453735754317
 20
-1143.9474196237
 11
-869.4858779856858
 21
-1142.638644113495
 72
     1
 10
-869.4858779856858
 20
-1142.638644113495
 11
-870.6786706878522
 21
-1142.638644113495
 72
     1
 10
-870.6786706878522
 20
-1142.638644113495
 11
-870.6786706878522
 21
-1145.692453637306
 72
     1
 10
-870.6786706878522
 20
-1145.692453637306
 11
-869.4858779856858
 21
-1145.692453637306
 72
     1
 10
-869.4858779856858
 20
-1145.692453637306
 11
-869.4858779856858
 21
-1144.383678127102
 72
     1
 10
-869.4858779856858
 20
-1144.383678127102
 11
-868.2453735754317
 21
-1145.692453637306
 72
     1
 10
-868.2453735754317
 20
-1145.692453637306
 11
-867.052580873265
 21
-1145.692453637306
 72
     1
 10
-867.052580873265
 20
-1145.692453637306
 11
-867.052580873265
 21
-1142.638644113495
 72
     1
 10
-867.052580873265
 20
-1142.638644113495
 11
-868.2453735754317
 21
-1142.638644113495
 72
     1
 10
-868.2453735754317
 20
-1142.638644113495
 11
-868.2453735754317
 21
-1143.9474196237
 97
       10
330
123
330
EB
330
EA
330
124
330
E9
330
11F
330
120
330
121
330
122
330
EC
 75
     1
 76
     2
 52
45.0
 41
0.1
 77
     0
 78
     1
 53
45.0
 43
62.7811309658083
 44
-72.3161373035813
 45
-0.1414213562373095
 46
0.0
 79
     0
 98
        1
 10
0.0
 20
0.0
  0
HATCH
  5
1ED
330
76
100
AcDbEntity
  8
1
  6
Continuous
 62
     2
100
AcDbHatch
 10
0.0
 20
0.0
 30
0.0
210
0.0
220
0.0
230
1.0
  2
CUSTOM5
 70
     0
 71
     1
 91
        1
 92
        1
 93
       10
 72
     1
 10
-868.2453735754317
 20
-1143.9474196237
 11
-869.4858779856858
 21
-1142.638644113495
 72
     1
 10
-869.4858779856858
 20
-1142.638644113495
 11
-870.6786706878522
 21
-1142.638644113495
 72
     1
 10
-870.6786706878522
 20
-1142.638644113495
 11
-870.6786706878522
 21
-1145.692453637306
 72
     1
 10
-870.6786706878522
 20
-1145.692453637306
 11
-869.4858779856858
 21
-1145.692453637306
 72
     1
 10
-869.4858779856858
 20
-1145.692453637306
 11
-869.4858779856858
 21
-1144.383678127102
 72
     1
 10
-869.4858779856858
 20
-1144.383678127102
 11
-868.2453735754317
 21
-1145.692453637306
 72
     1
 10
-868.2453735754317
 20
-1145.692453637306
 11
-867.052580873265
 21
-1145.692453637306
 72
     1
 10
-867.052580873265
 20
-1145.692453637306
 11
-867.052580873265
 21
-1142.638644113495
 72
     1
 10
-867.052580873265
 20
-1142.638644113495
 11
-868.2453735754317
 21
-1142.638644113495
 72
     1
 10
-868.2453735754317
 20
-1142.638644113495
 11
-868.2453735754317
 21
-1143.9474196237
 97
       10
330
123
330
EB
330
EA
330
124
330
E9
330
11F
330
120
330
121
330
122
330
EC
 75
     1
 76
     2
 52
45.0
 41
0.1
 77
     0
 78
     1
 53
45.0
 43
62.7811309658083
 44
-72.3161373035813
 45
-0.1414213562373095
 46
0.0
 79
     0
 98
        1
 10
0.0
 20
0.0
  0
HATCH
  5
1EE
330
76
100
AcDbEntity
  8
1
  6
Continuous
 62
     2
100
AcDbHatch
 10
0.0
 20
0.0
 30
0.0
210
0.0
220
0.0
230
1.0
  2
CUSTOM6
 70
     0
 71
     1
 91
        1
 92
        1
 93
        8
 72
     1
 10
-869.3428937923111
 20
-1145.997834589669
 11
-872.1578845694248
 21
-1145.997834589669
 72
     1
 10
-872.1578845694248
 20
-1145.997834589669
 11
-872.1578845694248
 21
-1146.783099895793
 72
     1
 10
-872.1578845694248
 20
-1146.783099895793
 11
-871.3467855319502
 21
-1146.783099895793
 72
     1
 10
-871.3467855319502
 20
-1146.783099895793
 11
-871.3467855319502
 21
-1149.051644113481
 72
     1
 10
-871.3467855319502
 20
-1149.051644113481
 11
-870.1539928297838
 21
-1149.051644113481
 72
     1
 10
-870.1539928297838
 20
-1149.051644113481
 11
-870.1539928297838
 21
-1146.783099895793
 72
     1
 10
-870.1539928297838
 20
-1146.783099895793
 11
-869.3428937923111
 21
-1146.783099895793
 72
     1
 10
-869.3428937923111
 20
-1146.783099895793
 11
-869.3428937923111
 21
-1145.997834589669
 97
        8
330
E5
330
125
330
E4
330
126
330
127
330
E8
330
E7
330
E6
 75
     1
 76
     2
 52
45.0
 41
0.1
 77
     0
 78
     1
 53
45.0
 43
62.7811309658083
 44
-72.3161373035813
 45
-0.1414213562373095
 46
0.0
 79
     0
 98
        1
 10
0.0
 20
0.0
  0
HATCH
  5
1EF
330
76
100
AcDbEntity
  8
1
  6
Continuous
 62
     2
100
AcDbHatch
 10
0.0
 20
0.0
 30
0.0
210
0.0
220
0.0
230
1.0
  2
CUSTOM7
 70
     0
 71
     1
 91
        1
 92
        1
 93
        8
 72
     1
 10
-869.3428937923111
 20
-1145.997834589669
 11
-872.1578845694248
 21
-1145.997834589669
 72
     1
 10
-872.1578845694248
 20
-1145.997834589669
 11
-872.1578845694248
 21
-1146.783099895793
 72
     1
 10
-872.1578845694248
 20
-1146.783099895793
 11
-871.3467855319502
 21
-1146.783099895793
 72
     1
 10
-871.3467855319502
 20
-1146.783099895793
 11
-871.3467855319502
 21
-1149.051644113481
 72
     1
 10
-871.3467855319502
 20
-1149.051644113481
 11
-870.1539928297838
 21
-1149.051644113481
 72
     1
 10
-870.1539928297838
 20
-1149.051644113481
 11
-870.1539928297838
 21
-1146.783099895793
 72
     1
 10
-870.1539928297838
 20
-1146.783099895793
 11
-869.3428937923111
 21
-1146.783099895793
 72
     1
 10
-869.3428937923111
 20
-1146.783099895793
 11
-869.3428937923111
 21
-1145.997834589669
 97
        8
330
E5
330
125
330
E4
330
126
330
127
330
E8
330
E7
330
E6
 75
     1
 76
     2
 52
45.0
 41
0.1
 77
     0
 78
     1
 53
45.0
 43
62.7811309658083
 44
-72.3161373035813
 45
-0.1414213562373095
 46
0.0
 79
     0
 98
        1
 10
0.0
 20
0.0
  0
HATCH
  5
1F0
330
76
100
AcDbEntity
  8
1
  6
Continuous
 62
     2
100
AcDbHatch
 10
0.0
 20
0.0
 30
0.0
210
0.0
220
0.0
230
1.0
  2
CUSTOM8
 70
     0
 71
     1
 91
        2
 92
        1
 93
        8
 72
     1
 10
-867.2044663363641
 20
-1149.051644113481
 11
-867.41594638984
 21
-1148.510683569263
 72
     1
 10
-867.41594638984
 20
-1148.510683569263
 11
-868.5483879665139
 21
-1148.510683569263
 72
     1
 10
-868.5483879665139
 20
-1148.510683569263
 11
-868.7598680199897
 21
-1149.051644113481
 72
     1
 10
-868.7598680199897
 20
-1149.051644113481
 11
-870.0003724302426
 21
-1149.051644113481
 72
     1
 10
-870.0003724302426
 20
-1149.051644113481
 11
-868.6024193833034
 21
-1145.997834589669
 72
     1
 10
-868.6024193833034
 20
-1145.997834589669
 11
-867.3619149730505
 21
-1145.997834589669
 72
     1
 10
-867.3619149730505
 20
-1145.997834589669
 11
-865.9639619261103
 21
-1149.051644113481
 72
     1
 10
-865.9639619261103
 20
-1149.051644113481
 11
-867.2044663363641
 21
-1149.051644113481
 97
        8
330
129
330
12A
330
E1
330
12B
330
E0
330
E3
330
128
330
E2
 92
       16
 93
        3
 72
     1
 10
-868.2823324153687
 20
-1147.830120303956
 11
-867.9821671781765
 21
-1147.06230533797
 72
     1
 10
-867.9821671781765
 20
-1147.06230533797
 11
-867.6820019409863
 21
-1147.830120303956
 72
     1
 10
-867.6820019409863
 20
-1147.830120303956
 11
-868.2823324153687
 21
-1147.830120303956
 97
        3
330
DF
330
12D
330
12C
 75
     1
 76
     2
 52
45.0
 41
0.1
 77
     0
 78
     1
 53
45.0
 43
62.7811309658083
 44
-72.3161373035813
 45
-0.1414213562373095
 46
0.0
 79
     0
 98
        1
 10
0.0
 20
0.0
  0
HATCH
  5
1F1
330
76
100
AcDbEntity
  8
1
  6
Continuous
 62
     2
100
AcDbHatch
 10
0.0
 20
0.0
 30
0.0
210
0.0
220
0.0
230
1.0
  2
CUSTOM9
 70
     0
 71
     1
 91
        2
 92
        1
 93
        8
 72
     1
 10
-867.2044663363641
 20
-1149.051644113481
 11
-867.41594638984
 21
-1148.510683569263
 72
     1
 10
-867.41594638984
 20
-1148.510683569263
 11
-868.5483879665139
 21
-1148.510683569263
 72
     1
 10
-868.5483879665139
 20
-1148.510683569263
 11
-868.7598680199897
 21
-1149.051644113481
 72
     1
 10
-868.7598680199897
 20
-1149.051644113481
 11
-870.0003724302426
 21
-1149.051644113481
 72
     1
 10
-870.0003724302426
 20
-1149.051644113481
 11
-868.6024193833034
 21
-1145.997834589669
 72
     1
 10
-868.6024193833034
 20
-1145.997834589669
 11
-867.3619149730505
 21
-1145.997834589669
 72
     1
 10
-867.3619149730505
 20
-1145.997834589669
 11
-865.9639619261103
 21
-1149.051644113481
 72
     1
 10
-865.9639619261103
 20
-1149.051644113481
 11
-867.2044663363641
 21
-1149.051644113481
 97
        8
330
129
330
12A
330
E1
330
12B
330
E0
330
E3
330
128
330
E2
 92
       16
 93
        3
 72
     1
 10
-868.2823324153687
 20
-1147.830120303956
 11
-867.9821671781765
 21
-1147.06230533797
 72
     1
 10
-867.9821671781765
 20
-1147.06230533797
 11
-867.6820019409863
 21
-1147.830120303956
 72
     1
 10
-867.6820019409863
 20
-1147.830120303956
 11
-868.2823324153687
 21
-1147.830120303956
 97
        3
330
DF
330
12D
330
12C
 75
     1
 76
     2
 52
45.0
 41
0.1
 77
     0
 78
     1
 53
45.0
 43
62.7811309658083
 44
-72.3161373035813
 45
-0.1414213562373095
 46
0.0
 79
     0
 98
        1
 10
0.0
 20
0.0
  0
HATCH
  5
1F2
330
76
100
AcDbEntity
  8
1
  6
Continuous
 62
     2
100
AcDbHatch
 10
0.0
 20
0.0
 30
0.0
210
0.0
220
0.0
230
1.0
  2
CUSTOM10
 70
     0
 71
     1
 91
        1
 92
        1
 93
        4
 72
     1
 10
-865.5735179225783
 20
-1145.692453637306
 11
-866.8140223328312
 21
-1145.692453637306
 72
     1
 10
-866.8140223328312
 20
-1145.692453637306
 11
-866.8140223328312
 21
-1142.638644113495
 72
     1
 10
-866.8140223328312
 20
-1142.638644113495
 11
-865.5735179225783
 21
-1142.638644113495
 72
     1
 10
-865.5735179225783
 20
-1142.638644113495
 11
-865.5735179225783
 21
-1145.692453637306
 97
        4
330
DC
330
DE
330
12E
330
DD
 75
     1
 76
     2
 52
45.0
 41
0.1
 77
     0
 78
     1
 53
45.0
 43
62.7811309658083
 44
-72.3161373035813
 45
-0.1414213562373095
 46
0.0
 79
     0
 98
        1
 10
0.0
 20
0.0
  0
HATCH
  5
1F3
330
76
100
AcDbEntity
  8
1
  6
Continuous
 62
     2
100
AcDbHatch
 10
0.0
 20
0.0
 30
0.0
210
0.0
220
0.0
230
1.0
  2
CUSTOM11
 70
     0
 71
     1
 91
        1
 92
        1
 93
        4
 72
     1
 10
-865.5735179225783
 20
-1145.692453637306
 11
-866.8140223328312
 21
-1145.692453637306
 72
     1
 10
-866.8140223328312
 20
-1145.692453637306
 11
-866.8140223328312
 21
-1142.638644113495
 72
     1
 10
-866.8140223328312
 20
-1142.638644113495
 11
-865.5735179225783
 21
-1142.638644113495
 72
     1
 10
-865.5735179225783
 20
-1142.638644113495
 11
-865.5735179225783
 21
-1145.692453637306
 97
        4
330
DC
330
DE
330
12E
330
DD
 75
     1
 76
     2
 52
45.0
 41
0.1
 77
     0
 78
     1
 53
45.0
 43
62.7811309658083
 44
-72.3161373035813
 45
-0.1414213562373095
 46
0.0
 79
     0
 98
        1
 10
0.0
 20
0.0
  0
HATCH
  5
1F4
330
76
100
AcDbEntity
  8
1
  6
Continuous
 62
     2
100
AcDbHatch
 10
0.0
 20
0.0
 30
0.0
210
0.0
220
0.0
230
1.0
  2
CUSTOM12
 70
     0
 71
     1
 91
        1
 92
        1
 93
       12
 72
     1
 10
-861.3510317569074
 20
-1142.638644113495
 11
-862.653561387674
 21
-1144.111594643531
 72
     1
 10
-862.653561387674
 20
-1144.111594643531
 11
-861.2556083407337
 21
-1145.692453637306
 72
     1
 10
-861.2556083407337
 20
-1145.692453637306
 11
-862.658332558482
 21
-1145.692453637306
 72
     1
 10
-862.658332558482
 20
-1145.692453637306
 11
-863.3549234965475
 21
-1144.904721852013
 72
     1
 10
-863.3549234965475
 20
-1144.904721852013
 11
-864.0515144346133
 21
-1145.692453637306
 72
     1
 10
-864.0515144346133
 20
-1145.692453637306
 11
-865.4542386523614
 21
-1145.692453637306
 72
     1
 10
-865.4542386523614
 20
-1145.692453637306
 11
-864.0562856054211
 21
-1144.111594643531
 72
     1
 10
-864.0562856054211
 20
-1144.111594643531
 11
-865.3588152361885
 21
-1142.638644113495
 72
     1
 10
-865.3588152361885
 20
-1142.638644113495
 11
-863.9560910184393
 21
-1142.638644113495
 72
     1
 10
-863.9560910184393
 20
-1142.638644113495
 11
-863.3549234965475
 21
-1143.318467435051
 72
     1
 10
-863.3549234965475
 20
-1143.318467435051
 11
-862.7537559746547
 21
-1142.638644113495
 72
     1
 10
-862.7537559746547
 20
-1142.638644113495
 11
-861.3510317569074
 21
-1142.638644113495
 97
       12
330
D7
330
D6
330
D5
330
132
330
133
330
12F
330
130
330
DB
330
DA
330
D9
330
D8
330
131
 75
     1
 76
     2
 52
45.0
 41
0.1
 77
     0
 78
     1
 53
45.0
 43
62.7811309658083
 44
-72.3161373035813
 45
-0.1414213562373095
 46
0.0
 79
     0
 98
        1
 10
0.0
 20
0.0
  0
HATCH
  5
1F5
330
76
100
AcDbEntity
  8
1
  6
Continuous
 62
     2
100
AcDbHatch
 10
0.0
 20
0.0
 30
0.0
210
0.0
220
0.0
230
1.0
  2
CUSTOM13
 70
     0
 71
     1
 91
        1
 92
        1
 93
       12
 72
     1
 10
-861.3510317569074
 20
-1142.638644113495
 11
-862.653561387674
 21
-1144.111594643531
 72
     1
 10
-862.653561387674
 20
-1144.111594643531
 11
-861.2556083407337
 21
-1145.692453637306
 72
     1
 10
-861.2556083407337
 20
-1145.692453637306
 11
-862.658332558482
 21
-1145.692453637306
 72
     1
 10
-862.658332558482
 20
-1145.692453637306
 11
-863.3549234965475
 21
-1144.904721852013
 72
     1
 10
-863.3549234965475
 20
-1144.904721852013
 11
-864.0515144346133
 21
-1145.692453637306
 72
     1
 10
-864.0515144346133
 20
-1145.692453637306
 11
-865.4542386523614
 21
-1145.692453637306
 72
     1
 10
-865.4542386523614
 20
-1145.692453637306
 11
-864.0562856054211
 21
-1144.111594643531
 72
     1
 10
-864.0562856054211
 20
-1144.111594643531
 11
-865.3588152361885
 21
-1142.638644113495
 72
     1
 10
-865.3588152361885
 20
-1142.638644113495
 11
-863.9560910184393
 21
-1142.638644113495
 72
     1
 10
-863.9560910184393
 20
-1142.638644113495
 11
-863.3549234965475
 21
-1143.318467435051
 72
     1
 10
-863.3549234965475
 20
-1143.318467435051
 11
-862.7537559746547
 21
-1142.638644113495
 72
     1
 10
-862.7537559746547
 20
-1142.638644113495
 11
-861.3510317569074
 21
-1142.638644113495
 97
       12
330
D7
330
D6
330
D5
330
132
330
133
330
12F
330
130
330
DB
330
DA
330
D9
330
D8
330
131
 75
     1
 76
     2
 52
45.0
 41
0.1
 77
     0
 78
     1
 53
45.0
 43
62.7811309658083
 44
-72.3161373035813
 45
-0.1414213562373095
 46
0.0
 79
     0
 98
        1
 10
0.0
 20
0.0
  0
HATCH
  5
1F6
330
76
100
AcDbEntity
  8
1
  6
Continuous
 62
     2
100
AcDbHatch
 10
0.0
 20
0.0
 30
0.0
210
0.0
220
0.0
230
1.0
  2
CUSTOM14
 70
     0
 71
     1
 91
        2
 92
        1
 93
        6
 72
     1
 10
-880.3687671710535
 20
-1144.749375396163
 11
-881.1275347588339
 21
-1144.749375396163
 72
     1
 10
-881.1275347588339
 20
-1144.749375396163
 11
-881.1275347588339
 21
-1145.692453637306
 72
     1
 10
-881.1275347588339
 20
-1145.692453637306
 11
-882.3680391690879
 21
-1145.692453637306
 72
     1
 10
-882.3680391690879
 20
-1145.692453637306
 11
-882.3680391690879
 21
-1142.638644113495
 72
     1
 10
-882.3680391690879
 20
-1142.638644113495
 11
-880.3687671710535
 21
-1142.638644113495
 72
     2
 10
-880.3687671710535
 20
-1143.694009754829
 40
1.055365641333992
 50
270.0
 51
450.0
 73
     0
 97
        6
330
FF
330
FE
330
10B
330
10A
330
100
330
191
 92
       16
 93
        4
 72
     2
 10
-880.8102396972919
 20
-1143.654613783606
 40
0.3528638246709761
 50
270.0
 51
450.0
 73
     1
 72
     1
 10
-880.8102396972919
 20
-1143.301749958935
 11
-881.1275347588339
 21
-1143.301749958935
 72
     1
 10
-881.1275347588339
 20
-1143.301749958935
 11
-881.1275347588339
 21
-1144.007477608277
 72
     1
 10
-881.1275347588339
 20
-1144.007477608277
 11
-880.8102396972919
 21
-1144.007477608277
 97
        4
330
1A5
330
FC
330
10C
330
FD
 75
     1
 76
     2
 52
45.0
 41
0.1
 77
     0
 78
     1
 53
45.0
 43
62.7811309658083
 44
-72.3161373035813
 45
-0.1414213562373095
 46
0.0
 79
     0
 98
        1
 10
0.0
 20
0.0
  0
HATCH
  5
1F7
330
76
100
AcDbEntity
  8
1
  6
Continuous
 62
     2
100
AcDbHatch
 10
0.0
 20
0.0
 30
0.0
210
0.0
220
0.0
230
1.0
  2
CUSTOM15
 70
     0
 71
     1
 91
        2
 92
        1
 93
        6
 72
     1
 10
-880.3687671710535
 20
-1144.749375396163
 11
-881.1275347588339
 21
-1144.749375396163
 72
     1
 10
-881.1275347588339
 20
-1144.749375396163
 11
-881.1275347588339
 21
-1145.692453637306
 72
     1
 10
-881.1275347588339
 20
-1145.692453637306
 11
-882.3680391690879
 21
-1145.692453637306
 72
     1
 10
-882.3680391690879
 20
-1145.692453637306
 11
-882.3680391690879
 21
-1142.638644113495
 72
     1
 10
-882.3680391690879
 20
-1142.638644113495
 11
-880.3687671710535
 21
-1142.638644113495
 72
     2
 10
-880.3687671710535
 20
-1143.694009754829
 40
1.055365641333992
 50
270.0
 51
450.0
 73
     0
 97
        6
330
FF
330
FE
330
10B
330
10A
330
100
330
191
 92
       16
 93
        4
 72
     2
 10
-880.8102396972919
 20
-1143.654613783606
 40
0.3528638246709761
 50
270.0
 51
450.0
 73
     1
 72
     1
 10
-880.8102396972919
 20
-1143.301749958935
 11
-881.1275347588339
 21
-1143.301749958935
 72
     1
 10
-881.1275347588339
 20
-1143.301749958935
 11
-881.1275347588339
 21
-1144.007477608277
 72
     1
 10
-881.1275347588339
 20
-1144.007477608277
 11
-880.8102396972919
 21
-1144.007477608277
 97
        4
330
1A5
330
FC
330
10C
330
FD
 75
     1
 76
     2
 52
45.0
 41
0.1
 77
     0
 78
     1
 53
45.0
 43
62.7811309658083
 44
-72.3161373035813
 45
-0.1414213562373095
 46
0.0
 79
     0
 98
        1
 10
0.0
 20
0.0
  0
HATCH
  5
1F8
330
76
100
AcDbEntity
  8
1
  6
Continuous
 62
     2
100
AcDbHatch
 10
0.0
 20
0.0
 30
0.0
210
0.0
220
0.0
230
1.0
  2
CUSTOM16
 70
     0
 71
     1
 91
        2
 92
        1
 93
        4
 72
     2
 10
-877.8122244226944
 20
-1148.063314361878
 40
2.06547977220824
 50
62.45185182430162
 51
117.5481481756732
 73
     1
 72
     2
 10
-878.0931643145277
 20
-1147.524739351575
 40
1.458034083650987
 50
117.5481481756753
 51
242.4518518243454
 73
     1
 72
     2
 10
-877.8122244226944
 20
-1146.986164341272
 40
2.065479772208775
 50
242.4518518243414
 51
297.5481481756838
 73
     1
 72
     2
 10
-877.5312845308612
 20
-1147.524739351575
 40
1.458034083652521
 50
297.5481481756942
 51
422.4518518242851
 73
     1
 97
        4
330
19D
330
19C
330
19E
330
19B
 92
       16
 93
        4
 72
     2
 10
-878.0119644590408
 20
-1147.524739351575
 40
0.7717997786795957
 50
321.8795802028306
 51
398.1204197971562
 73
     1
 72
     2
 10
-877.8122244226944
 20
-1147.368008173455
 40
0.517908573013574
 50
38.12041979721116
 51
141.8795802028121
 73
     1
 72
     2
 10
-877.6124843863483
 20
-1147.524739351575
 40
0.7717997786794554
 50
141.8795802028439
 51
218.1204197971694
 73
     1
 72
     2
 10
-877.8122244226944
 20
-1147.681470529695
 40
0.5179085730138424
 50
218.1204197971879
 51
321.8795802027889
 73
     1
 97
        4
330
1B9
330
1B6
330
1B7
330
1B8
 75
     1
 76
     2
 52
45.0
 41
0.1
 77
     0
 78
     1
 53
45.0
 43
62.7811309658083
 44
-72.3161373035813
 45
-0.1414213562373095
 46
0.0
 79
     0
 98
        1
 10
0.0
 20
0.0
  0
HATCH
  5
1F9
330
76
100
AcDbEntity
  8
1
  6
Continuous
 62
     2
100
AcDbHatch
 10
0.0
 20
0.0
 30
0.0
210
0.0
220
0.0
230
1.0
  2
CUSTOM17
 70
     0
 71
     1
 91
        2
 92
        1
 93
        4
 72
     2
 10
-877.8122244226944
 20
-1148.063314361878
 40
2.06547977220824
 50
62.45185182430162
 51
117.5481481756732
 73
     1
 72
     2
 10
-878.0931643145277
 20
-1147.524739351575
 40
1.458034083650987
 50
117.5481481756753
 51
242.4518518243454
 73
     1
 72
     2
 10
-877.8122244226944
 20
-1146.986164341272
 40
2.065479772208775
 50
242.4518518243414
 51
297.5481481756838
 73
     1
 72
     2
 10
-877.5312845308612
 20
-1147.524739351575
 40
1.458034083652521
 50
297.5481481756942
 51
422.4518518242851
 73
     1
 97
        4
330
19D
330
19C
330
19E
330
19B
 92
       16
 93
        4
 72
     2
 10
-878.0119644590408
 20
-1147.524739351575
 40
0.7717997786795957
 50
321.8795802028306
 51
398.1204197971562
 73
     1
 72
     2
 10
-877.8122244226944
 20
-1147.368008173455
 40
0.517908573013574
 50
38.12041979721116
 51
141.8795802028121
 73
     1
 72
     2
 10
-877.6124843863483
 20
-1147.524739351575
 40
0.7717997786794554
 50
141.8795802028439
 51
218.1204197971694
 73
     1
 72
     2
 10
-877.8122244226944
 20
-1147.681470529695
 40
0.5179085730138424
 50
218.1204197971879
 51
321.8795802027889
 73
     1
 97
        4
330
1B9
330
1B6
330
1B7
330
1B8
 75
     1
 76
     2
 52
45.0
 41
0.1
 77
     0
 78
     1
 53
45.0
 43
62.7811309658083
 44
-72.3161373035813
 45
-0.1414213562373095
 46
0.0
 79
     0
 98
        1
 10
0.0
 20
0.0
  0
HATCH
  5
1FA
330
76
100
AcDbEntity
  8
1
  6
Continuous
 62
     2
100
AcDbHatch
 10
0.0
 20
0.0
 30
0.0
210
0.0
220
0.0
230
1.0
  2
CUSTOM18
 70
     0
 71
     1
 91
        2
 92
        1
 93
       12
 72
     1
 10
-870.9172292282851
 20
-1143.336657718938
 11
-872.2531570547128
 21
-1143.336657718938
 72
     1
 10
-872.2531570547128
 20
-1143.336657718938
 11
-872.2531570547128
 21
-1143.81654207268
 72
     1
 10
-872.2531570547128
 20
-1143.81654207268
 11
-870.9172292282851
 21
-1143.81654207268
 72
     1
 10
-870.9172292282851
 20
-1143.81654207268
 11
-870.9172292282851
 21
-1144.514555678122
 72
     1
 10
-870.9172292282851
 20
-1144.514555678122
 11
-872.2531570547128
 21
-1144.514555678122
 72
     1
 10
-872.2531570547128
 20
-1144.514555678122
 11
-872.2531570547128
 21
-1144.994440031864
 72
     1
 10
-872.2531570547128
 20
-1144.994440031864
 11
-870.9172292282851
 21
-1144.994440031864
 72
     1
 10
-870.9172292282851
 20
-1144.994440031864
 11
-870.9172292282851
 21
-1145.692453637306
 72
     1
 10
-870.9172292282851
 20
-1145.692453637306
 11
-874.0675489520661
 21
-1145.692453637306
 72
     2
 10
-874.0675489520661
 20
-1144.165548875401
 40
1.526904761906053
 50
90.0
 51
270.0
 73
     0
 72
     1
 10
-874.0675489520661
 20
-1142.638644113495
 11
-870.9172292282851
 21
-1142.638644113495
 72
     1
 10
-870.9172292282851
 20
-1142.638644113495
 11
-870.9172292282851
 21
-1143.336657718938
 97
       12
330
113
330
1A6
330
114
330
115
330
116
330
117
330
F4
330
F3
330
F2
330
F1
330
118
330
112
 92
       16
 93
        4
 72
     2
 10
-873.8512769419009
 20
-1144.00881769728
 40
0.5179085730130512
 50
38.12041979709668
 51
141.8795802029111
 73
     1
 72
     2
 10
-873.6515369055546
 20
-1144.165548875401
 40
0.7717997786797746
 50
141.879580202841
 51
218.1204197971457
 73
     1
 72
     2
 10
-873.8512769419009
 20
-1144.322280053521
 40
0.5179085730138424
 50
218.1204197971879
 51
321.8795802028044
 73
     1
 72
     2
 10
-874.051016978247
 20
-1144.165548875401
 40
0.7717997786794554
 50
321.8795802028439
 51
398.1204197971695
 73
     1
 97
        4
330
1A0
330
19F
330
19A
330
199
 75
     1
 76
     2
 52
45.0
 41
0.1
 77
     0
 78
     1
 53
45.0
 43
62.7811309658083
 44
-72.3161373035813
 45
-0.1414213562373095
 46
0.0
 79
     0
 98
        1
 10
0.0
 20
0.0
  0
HATCH
  5
1FB
330
76
100
AcDbEntity
  8
1
  6
Continuous
 62
     2
100
AcDbHatch
 10
0.0
 20
0.0
 30
0.0
210
0.0
220
0.0
230
1.0
  2
CUSTOM19
 70
     0
 71
     1
 91
        2
 92
        1
 93
       12
 72
     1
 10
-870.9172292282851
 20
-1143.336657718938
 11
-872.2531570547128
 21
-1143.336657718938
 72
     1
 10
-872.2531570547128
 20
-1143.336657718938
 11
-872.2531570547128
 21
-1143.81654207268
 72
     1
 10
-872.2531570547128
 20
-1143.81654207268
 11
-870.9172292282851
 21
-1143.81654207268
 72
     1
 10
-870.9172292282851
 20
-1143.81654207268
 11
-870.9172292282851
 21
-1144.514555678122
 72
     1
 10
-870.9172292282851
 20
-1144.514555678122
 11
-872.2531570547128
 21
-1144.514555678122
 72
     1
 10
-872.2531570547128
 20
-1144.514555678122
 11
-872.2531570547128
 21
-1144.994440031864
 72
     1
 10
-872.2531570547128
 20
-1144.994440031864
 11
-870.9172292282851
 21
-1144.994440031864
 72
     1
 10
-870.9172292282851
 20
-1144.994440031864
 11
-870.9172292282851
 21
-1145.692453637306
 72
     1
 10
-870.9172292282851
 20
-1145.692453637306
 11
-874.0675489520661
 21
-1145.692453637306
 72
     2
 10
-874.0675489520661
 20
-1144.165548875401
 40
1.526904761906053
 50
90.0
 51
270.0
 73
     0
 72
     1
 10
-874.0675489520661
 20
-1142.638644113495
 11
-870.9172292282851
 21
-1142.638644113495
 72
     1
 10
-870.9172292282851
 20
-1142.638644113495
 11
-870.9172292282851
 21
-1143.336657718938
 97
       12
330
113
330
1A6
330
114
330
115
330
116
330
117
330
F4
330
F3
330
F2
330
F1
330
118
330
112
 92
       16
 93
        4
 72
     2
 10
-873.8512769419009
 20
-1144.00881769728
 40
0.5179085730130512
 50
38.12041979709668
 51
141.8795802029111
 73
     1
 72
     2
 10
-873.6515369055546
 20
-1144.165548875401
 40
0.7717997786797746
 50
141.879580202841
 51
218.1204197971457
 73
     1
 72
     2
 10
-873.8512769419009
 20
-1144.322280053521
 40
0.5179085730138424
 50
218.1204197971879
 51
321.8795802028044
 73
     1
 72
     2
 10
-874.051016978247
 20
-1144.165548875401
 40
0.7717997786794554
 50
321.8795802028439
 51
398.1204197971695
 73
     1
 97
        4
330
1A0
330
19F
330
19A
330
199
 75
     1
 76
     2
 52
45.0
 41
0.1
 77
     0
 78
     1
 53
45.0
 43
62.7811309658083
 44
-72.3161373035813
 45
-0.1414213562373095
 46
0.0
 79
     0
 98
        1
 10
0.0
 20
0.0
  0
HATCH
  5
1FC
330
76
100
AcDbEntity
  8
1
  6
Continuous
 62
     2
100
AcDbHatch
 10
0.0
 20
0.0
 30
0.0
210
0.0
220
0.0
230
1.0
  2
CUSTOM20
 70
     0
 71
     1
 91
        4
 92
        1
 93
        8
 72
     1
 10
-882.8451562499547
 20
-1143.062888728897
 11
-882.8451562499547
 21
-1148.627399498097
 72
     2
 10
-883.2694008653385
 20
-1148.627399498097
 40
0.424244615383941
 50
0.0
 51
90.0
 73
     0
 72
     1
 10
-883.2694008653385
 20
-1149.051644113481
 11
-888.7427129560555
 21
-1149.051644113481
 72
     2
 10
-888.7427129560555
 20
-1148.627399498097
 40
0.4242446153828041
 50
90.0
 51
180.0
 73
     0
 72
     1
 10
-889.1669575714383
 20
-1148.627399498097
 11
-889.1669575714383
 21
-1143.062888728897
 72
     2
 10
-888.7427129560555
 20
-1143.062888728897
 40
0.424244615383941
 50
180.0
 51
270.0
 73
     0
 72
     1
 10
-888.7427129560555
 20
-1142.638644113513
 11
-883.2694008653385
 21
-1142.638644113513
 72
     2
 10
-883.2694008653385
 20
-1143.062888728897
 40
0.4242446153838273
 50
270.0
 51
360.0
 73
     0
 97
        8
330
107
330
196
330
108
330
1A1
330
105
330
198
330
106
330
197
 92
       16
 93
       12
 72
     2
 10
-888.1488182793089
 20
-1148.023371634847
 40
0.3157169230756836
 50
180.0
 51
270.0
 73
     1
 72
     1
 10
-888.1488182793089
 20
-1148.339088557924
 11
-886.6729850182994
 21
-1148.339088557924
 72
     2
 10
-886.6729850182994
 20
-1148.023371634847
 40
0.3157169230769341
 50
270.0
 51
360.0
 73
     1
 72
     1
 10
-886.3572680952227
 20
-1148.023371634847
 11
-886.3572680952227
 21
-1146.492600703315
 72
     2
 10
-886.6729850182994
 20
-1146.492600703315
 40
0.3157169230767067
 50
0.0
 51
64.80558935138451
 73
     1
 72
     2
 10
-886.1504005707244
 20
-1145.381770957253
 40
0.911897523557964
 50
115.1944106485059
 51
244.805589351488
 73
     0
 72
     2
 10
-886.6729850182994
 20
-1144.27094121119
 40
0.3157169230765287
 50
295.1944106485277
 51
360.0
 73
     1
 72
     1
 10
-886.3572680952227
 20
-1144.27094121119
 11
-886.3572680952227
 21
-1143.66691659213
 72
     2
 10
-886.6729850182994
 20
-1143.66691659213
 40
0.3157169230767067
 50
0.0
 51
90.0
 73
     1
 72
     1
 10
-886.6729850182994
 20
-1143.351199669054
 11
-888.1488182793089
 21
-1143.351199669054
 72
     2
 10
-888.1488182793089
 20
-1143.66691659213
 40
0.3157169230760246
 50
90.0
 51
180.0
 73
     1
 72
     1
 10
-888.4645352023846
 20
-1143.66691659213
 11
-888.4645352023846
 21
-1148.023371634847
 97
       12
330
192
330
109
330
195
330
104
330
1A2
330
1A3
330
194
330
103
330
193
330
102
330
1A4
330
101
 92
       16
 93
        8
 72
     2
 10
-885.5732695927771
 20
-1146.490912557221
 40
0.3157169230770072
 50
115.3740086783167
 51
180.0
 73
     1
 72
     1
 10
-885.888986515854
 20
-1146.490912557221
 11
-885.888986515854
 21
-1147.072763963916
 72
     2
 10
-885.5732695927771
 20
-1147.072763963916
 40
0.3157169230768204
 50
180.0
 51
269.8110329574179
 73
     1
 72
     2
 10
-885.5676534574671
 20
-1145.369929016347
 40
2.018561131933152
 50
269.811032957581
 51
450.188967042419
 73
     1
 72
     2
 10
-885.5732695927771
 20
-1143.667094068778
 40
0.3157169230760149
 50
90.18896704258206
 51
180.0
 73
     1
 72
     1
 10
-885.888986515854
 20
-1143.667094068778
 11
-885.888986515854
 21
-1144.272629357285
 72
     2
 10
-885.5732695927771
 20
-1144.272629357285
 40
0.3157169230768204
 50
180.0
 51
244.6259913215949
 73
     1
 72
     2
 10
-886.0993122908651
 20
-1145.381770957253
 40
0.9118481501437387
 50
295.3740086781774
 51
424.6259913217981
 73
     0
 97
        8
330
1AE
330
CE
330
1AB
330
1AC
330
18A
330
CD
330
1AD
330
189
 92
       16
 93
        1
 72
     2
 10
-886.1231273055379
 20
-1145.381770957253
 40
0.4709789327785074
 50
0.0
 51
360.0
 73
     1
 97
        1
330
1BC
 75
     1
 76
     2
 52
45.0
 41
0.1
 77
     0
 78
     1
 53
45.0
 43
62.7811309658083
 44
-72.3161373035813
 45
-0.1414213562373095
 46
0.0
 79
     0
 98
        1
 10
0.0
 20
0.0
  0
HATCH
  5
1FD
330
76
100
AcDbEntity
  8
1
  6
Continuous
 62
     2
100
AcDbHatch
 10
0.0
 20
0.0
 30
0.0
210
0.0
220
0.0
230
1.0
  2
CUSTOM21
 70
     0
 71
     1
 91
        4
 92
        1
 93
        8
 72
     1
 10
-882.8451562499547
 20
-1143.062888728897
 11
-882.8451562499547
 21
-1148.627399498097
 72
     2
 10
-883.2694008653385
 20
-1148.627399498097
 40
0.424244615383941
 50
0.0
 51
90.0
 73
     0
 72
     1
 10
-883.2694008653385
 20
-1149.051644113481
 11
-888.7427129560555
 21
-1149.051644113481
 72
     2
 10
-888.7427129560555
 20
-1148.627399498097
 40
0.4242446153828041
 50
90.0
 51
180.0
 73
     0
 72
     1
 10
-889.1669575714383
 20
-1148.627399498097
 11
-889.1669575714383
 21
-1143.062888728897
 72
     2
 10
-888.7427129560555
 20
-1143.062888728897
 40
0.424244615383941
 50
180.0
 51
270.0
 73
     0
 72
     1
 10
-888.7427129560555
 20
-1142.638644113513
 11
-883.2694008653385
 21
-1142.638644113513
 72
     2
 10
-883.2694008653385
 20
-1143.062888728897
 40
0.4242446153838273
 50
270.0
 51
360.0
 73
     0
 97
        8
330
107
330
196
330
108
330
1A1
330
105
330
198
330
106
330
197
 92
       16
 93
       12
 72
     2
 10
-888.1488182793089
 20
-1148.023371634847
 40
0.3157169230756836
 50
180.0
 51
270.0
 73
     1
 72
     1
 10
-888.1488182793089
 20
-1148.339088557924
 11
-886.6729850182994
 21
-1148.339088557924
 72
     2
 10
-886.6729850182994
 20
-1148.023371634847
 40
0.3157169230769341
 50
270.0
 51
360.0
 73
     1
 72
     1
 10
-886.3572680952227
 20
-1148.023371634847
 11
-886.3572680952227
 21
-1146.492600703315
 72
     2
 10
-886.6729850182994
 20
-1146.492600703315
 40
0.3157169230767067
 50
0.0
 51
64.80558935138451
 73
     1
 72
     2
 10
-886.1504005707244
 20
-1145.381770957253
 40
0.911897523557964
 50
115.1944106485059
 51
244.805589351488
 73
     0
 72
     2
 10
-886.6729850182994
 20
-1144.27094121119
 40
0.3157169230765287
 50
295.1944106485277
 51
360.0
 73
     1
 72
     1
 10
-886.3572680952227
 20
-1144.27094121119
 11
-886.3572680952227
 21
-1143.66691659213
 72
     2
 10
-886.6729850182994
 20
-1143.66691659213
 40
0.3157169230767067
 50
0.0
 51
90.0
 73
     1
 72
     1
 10
-886.6729850182994
 20
-1143.351199669054
 11
-888.1488182793089
 21
-1143.351199669054
 72
     2
 10
-888.1488182793089
 20
-1143.66691659213
 40
0.3157169230760246
 50
90.0
 51
180.0
 73
     1
 72
     1
 10
-888.4645352023846
 20
-1143.66691659213
 11
-888.4645352023846
 21
-1148.023371634847
 97
       12
330
192
330
109
330
195
330
104
330
1A2
330
1A3
330
194
330
103
330
193
330
102
330
1A4
330
101
 92
       16
 93
        8
 72
     2
 10
-885.5732695927771
 20
-1146.490912557221
 40
0.3157169230770072
 50
115.3740086783167
 51
180.0
 73
     1
 72
     1
 10
-885.888986515854
 20
-1146.490912557221
 11
-885.888986515854
 21
-1147.072763963916
 72
     2
 10
-885.5732695927771
 20
-1147.072763963916
 40
0.3157169230768204
 50
180.0
 51
269.8110329574179
 73
     1
 72
     2
 10
-885.5676534574671
 20
-1145.369929016347
 40
2.018561131933152
 50
269.811032957581
 51
450.188967042419
 73
     1
 72
     2
 10
-885.5732695927771
 20
-1143.667094068778
 40
0.3157169230760149
 50
90.18896704258206
 51
180.0
 73
     1
 72
     1
 10
-885.888986515854
 20
-1143.667094068778
 11
-885.888986515854
 21
-1144.272629357285
 72
     2
 10
-885.5732695927771
 20
-1144.272629357285
 40
0.3157169230768204
 50
180.0
 51
244.6259913215949
 73
     1
 72
     2
 10
-886.0993122908651
 20
-1145.381770957253
 40
0.9118481501437387
 50
295.3740086781774
 51
424.6259913217981
 73
     0
 97
        8
330
1AE
330
CE
330
1AB
330
1AC
330
18A
330
CD
330
1AD
330
189
 92
       16
 93
        1
 72
     2
 10
-886.1231273055379
 20
-1145.381770957253
 40
0.4709789327785074
 50
0.0
 51
360.0
 73
     1
 97
        1
330
1BC
 75
     1
 76
     2
 52
45.0
 41
0.1
 77
     0
 78
     1
 53
45.0
 43
62.7811309658083
 44
-72.3161373035813
 45
-0.1414213562373095
 46
0.0
 79
     0
 98
        1
 10
0.0
 20
0.0
  0
HATCH
  5
1FE
330
76
100
AcDbEntity
  8
1
  6
Continuous
 62
     2
100
AcDbHatch
 10
0.0
 20
0.0
 30
0.0
210
0.0
220
0.0
230
1.0
  2
CUSTOM22
 70
     0
 71
     1
 91
        1
 92
        1
 93
       18
 72
     1
 10
-861.2556083407337
 20
-1146.783099895793
 11
-862.0667073782072
 21
-1146.783099895793
 72
     1
 10
-862.0667073782072
 20
-1146.783099895793
 11
-862.0667073782072
 21
-1149.051644113481
 72
     1
 10
-862.0667073782072
 20
-1149.051644113481
 11
-863.2595000803749
 21
-1149.051644113481
 72
     1
 10
-863.2595000803749
 20
-1149.051644113481
 11
-863.2595000803749
 21
-1146.783099895793
 72
     1
 10
-863.2595000803749
 20
-1146.783099895793
 11
-864.3631393799429
 21
-1146.783099895793
 72
     2
 10
-864.3631393799429
 20
-1147.737622902619
 40
0.9545230068260935
 50
90.0
 51
109.3371432194401
 73
     1
 72
     2
 10
-864.5098093780466
 20
-1147.319667922236
 40
0.5115800601937612
 50
109.3371432195076
 51
151.4785267424227
 73
     1
 72
     2
 10
-864.1324521199651
 20
-1147.524739351575
 40
0.9410597353349766
 50
151.4785267423711
 51
208.5214732576897
 73
     1
 72
     2
 10
-864.5098093780466
 20
-1147.729810780914
 40
0.5115800601959901
 50
208.5214732576668
 51
246.6277221118294
 73
     1
 72
     2
 10
-864.3533693453435
 20
-1147.367818762204
 40
0.9059297849850417
 50
246.6277221118078
 51
288.4480761180874
 73
     1
 72
     2
 10
-864.7715370790055
 20
-1146.114272986167
 40
2.227384008972611
 50
288.4480761181346
 51
301.9309089499367
 73
     1
 72
     1
 10
-863.5934820369815
 20
-1148.004623705317
 11
-863.5934820369815
 21
-1148.87714071212
 72
     2
 10
-864.9294099540982
 20
-1144.212058406319
 40
4.852596863498941
 50
74.02000874166028
 51
84.84185523036345
 73
     0
 72
     2
 10
-864.6405538593624
 20
-1147.41194898954
 40
1.639695123940421
 50
84.84185523032548
 51
164.9381082228985
 73
     0
 72
     2
 10
-865.059681702824
 20
-1147.524739351575
 40
1.205656168392844
 50
164.9381082229099
 51
195.0618917770796
 73
     0
 72
     2
 10
-864.6405538593624
 20
-1147.63752971361
 40
1.639695123940101
 50
195.0618917771015
 51
270.0
 73
     0
 72
     1
 10
-864.6405538593624
 20
-1145.99783458967
 11
-861.2556083407337
 21
-1145.997834589669
 72
     1
 10
-861.2556083407337
 20
-1145.997834589669
 11
-861.2556083407337
 21
-1146.783099895793
 97
       18
330
D0
330
1A7
330
1A8
330
190
330
18F
330
134
330
18E
330
18D
330
1A9
330
18C
330
1AA
330
18B
330
135
330
CF
330
D4
330
D3
330
D2
330
D1
 75
     1
 76
     2
 52
45.0
 41
0.1
 77
     0
 78
     1
 53
45.0
 43
62.7811309658083
 44
-72.3161373035813
 45
-0.1414213562373095
 46
0.0
 79
     0
 98
        1
 10
0.0
 20
0.0
  0
HATCH
  5
1FF
330
76
100
AcDbEntity
  8
1
  6
Continuous
 62
     2
100
AcDbHatch
 10
0.0
 20
0.0
 30
0.0
210
0.0
220
0.0
230
1.0
  2
CUSTOM23
 70
     0
 71
     1
 91
        1
 92
        1
 93
       18
 72
     1
 10
-861.2556083407337
 20
-1146.783099895793
 11
-862.0667073782072
 21
-1146.783099895793
 72
     1
 10
-862.0667073782072
 20
-1146.783099895793
 11
-862.0667073782072
 21
-1149.051644113481
 72
     1
 10
-862.0667073782072
 20
-1149.051644113481
 11
-863.2595000803749
 21
-1149.051644113481
 72
     1
 10
-863.2595000803749
 20
-1149.051644113481
 11
-863.2595000803749
 21
-1146.783099895793
 72
     1
 10
-863.2595000803749
 20
-1146.783099895793
 11
-864.3631393799429
 21
-1146.783099895793
 72
     2
 10
-864.3631393799429
 20
-1147.737622902619
 40
0.9545230068260935
 50
90.0
 51
109.3371432194401
 73
     1
 72
     2
 10
-864.5098093780466
 20
-1147.319667922236
 40
0.5115800601937612
 50
109.3371432195076
 51
151.4785267424227
 73
     1
 72
     2
 10
-864.1324521199651
 20
-1147.524739351575
 40
0.9410597353349766
 50
151.4785267423711
 51
208.5214732576897
 73
     1
 72
     2
 10
-864.5098093780466
 20
-1147.729810780914
 40
0.5115800601959901
 50
208.5214732576668
 51
246.6277221118294
 73
     1
 72
     2
 10
-864.3533693453435
 20
-1147.367818762204
 40
0.9059297849850417
 50
246.6277221118078
 51
288.4480761180874
 73
     1
 72
     2
 10
-864.7715370790055
 20
-1146.114272986167
 40
2.227384008972611
 50
288.4480761181346
 51
301.9309089499367
 73
     1
 72
     1
 10
-863.5934820369815
 20
-1148.004623705317
 11
-863.5934820369815
 21
-1148.87714071212
 72
     2
 10
-864.9294099540982
 20
-1144.212058406319
 40
4.852596863498941
 50
74.02000874166028
 51
84.84185523036345
 73
     0
 72
     2
 10
-864.6405538593624
 20
-1147.41194898954
 40
1.639695123940421
 50
84.84185523032548
 51
164.9381082228985
 73
     0
 72
     2
 10
-865.059681702824
 20
-1147.524739351575
 40
1.205656168392844
 50
164.9381082229099
 51
195.0618917770796
 73
     0
 72
     2
 10
-864.6405538593624
 20
-1147.63752971361
 40
1.639695123940101
 50
195.0618917771015
 51
270.0
 73
     0
 72
     1
 10
-864.6405538593624
 20
-1145.99783458967
 11
-861.2556083407337
 21
-1145.997834589669
 72
     1
 10
-861.2556083407337
 20
-1145.997834589669
 11
-861.2556083407337
 21
-1146.783099895793
 97
       18
330
D0
330
1A7
330
1A8
330
190
330
18F
330
134
330
18E
330
18D
330
1A9
330
18C
330
1AA
330
18B
330
135
330
CF
330
D4
330
D3
330
D2
330
D1
 75
     1
 76
     2
 52
45.0
 41
0.1
 77
     0
 78
     1
 53
45.0
 43
62.7811309658083
 44
-72.3161373035813
 45
-0.1414213562373095
 46
0.0
 79
     0
 98
        1
 10
0.0
 20
0.0
  0
HATCH
  5
200
330
76
100
AcDbEntity
  8
1
  6
Continuous
 62
     2
100
AcDbHatch
 10
0.0
 20
0.0
 30
0.0
210
0.0
220
0.0
230
1.0
  2
CUSTOM24
 70
     0
 71
     1
 91
        1
 92
        1
 93
       14
 72
     2
 10
-880.7432553386152
 20
-1147.63752971361
 40
1.63969512394044
 50
84.84185523036614
 51
164.9381082228913
 73
     1
 72
     2
 10
-881.1623831820781
 20
-1147.524739351575
 40
1.205656168390868
 50
164.9381082228951
 51
195.0618917771153
 73
     1
 72
     2
 10
-880.7432553386152
 20
-1147.41194898954
 40
1.639695123939652
 50
195.0618917771087
 51
275.1581447696339
 73
     1
 72
     2
 10
-881.0321114333511
 20
-1144.212058406319
 40
4.852596863497932
 50
275.1581447696242
 51
285.9799912583526
 73
     1
 72
     1
 10
-879.6961835162333
 20
-1148.87714071212
 11
-879.6961835162333
 21
-1148.004623705316
 72
     2
 10
-880.8742385582584
 20
-1146.114272986167
 40
2.227384008972647
 50
58.069091050023
 51
71.5519238818626
 73
     0
 72
     2
 10
-880.4560708245974
 20
-1147.367818762204
 40
0.9059297849846808
 50
71.55192388184437
 51
113.3722778881394
 73
     0
 72
     2
 10
-880.6125108572995
 20
-1147.729810780914
 40
0.5115800601944485
 50
113.3722778881823
 51
151.4785267423843
 73
     0
 72
     2
 10
-880.2351535992192
 20
-1147.524739351575
 40
0.9410597353329787
 50
151.478526742305
 51
208.521473257695
 73
     0
 72
     2
 10
-880.6125108572995
 20
-1147.319667922236
 40
0.5115800601943187
 50
208.5214732576381
 51
246.6277221117773
 73
     0
 72
     2
 10
-880.4560708245974
 20
-1147.681659940947
 40
0.9059297849855745
 50
246.6277221118606
 51
288.4480761181374
 73
     0
 72
     2
 10
-880.8742385582584
 20
-1148.935205716983
 40
2.227384008972995
 50
288.4480761181374
 51
301.9309089499739
 73
     0
 72
     1
 10
-879.6961835162333
 20
-1147.044854997834
 11
-879.6961835162333
 21
-1146.17233799103
 72
     2
 10
-881.0321114333511
 20
-1150.837420296831
 40
4.852596863498158
 50
74.02000874164733
 51
84.84185523037584
 73
     1
 97
       14
330
1AF
330
1B0
330
1B1
330
1B2
330
136
330
188
330
187
330
186
330
1B3
330
1B4
330
185
330
1B5
330
137
330
184
 75
     1
 76
     2
 52
45.0
 41
0.1
 77
     0
 78
     1
 53
45.0
 43
62.7811309658083
 44
-72.3161373035813
 45
-0.1414213562373095
 46
0.0
 79
     0
 98
        1
 10
0.0
 20
0.0
  0
HATCH
  5
201
330
76
100
AcDbEntity
  8
1
  6
Continuous
 62
     2
100
AcDbHatch
 10
0.0
 20
0.0
 30
0.0
210
0.0
220
0.0
230
1.0
  2
CUSTOM25
 70
     0
 71
     1
 91
        1
 92
        1
 93
       14
 72
     2
 10
-880.7432553386152
 20
-1147.63752971361
 40
1.63969512394044
 50
84.84185523036614
 51
164.9381082228913
 73
     1
 72
     2
 10
-881.1623831820781
 20
-1147.524739351575
 40
1.205656168390868
 50
164.9381082228951
 51
195.0618917771153
 73
     1
 72
     2
 10
-880.7432553386152
 20
-1147.41194898954
 40
1.639695123939652
 50
195.0618917771087
 51
275.1581447696339
 73
     1
 72
     2
 10
-881.0321114333511
 20
-1144.212058406319
 40
4.852596863497932
 50
275.1581447696242
 51
285.9799912583526
 73
     1
 72
     1
 10
-879.6961835162333
 20
-1148.87714071212
 11
-879.6961835162333
 21
-1148.004623705316
 72
     2
 10
-880.8742385582584
 20
-1146.114272986167
 40
2.227384008972647
 50
58.069091050023
 51
71.5519238818626
 73
     0
 72
     2
 10
-880.4560708245974
 20
-1147.367818762204
 40
0.9059297849846808
 50
71.55192388184437
 51
113.3722778881394
 73
     0
 72
     2
 10
-880.6125108572995
 20
-1147.729810780914
 40
0.5115800601944485
 50
113.3722778881823
 51
151.4785267423843
 73
     0
 72
     2
 10
-880.2351535992192
 20
-1147.524739351575
 40
0.9410597353329787
 50
151.478526742305
 51
208.521473257695
 73
     0
 72
     2
 10
-880.6125108572995
 20
-1147.319667922236
 40
0.5115800601943187
 50
208.5214732576381
 51
246.6277221117773
 73
     0
 72
     2
 10
-880.4560708245974
 20
-1147.681659940947
 40
0.9059297849855745
 50
246.6277221118606
 51
288.4480761181374
 73
     0
 72
     2
 10
-880.8742385582584
 20
-1148.935205716983
 40
2.227384008972995
 50
288.4480761181374
 51
301.9309089499739
 73
     0
 72
     1
 10
-879.6961835162333
 20
-1147.044854997834
 11
-879.6961835162333
 21
-1146.17233799103
 72
     2
 10
-881.0321114333511
 20
-1150.837420296831
 40
4.852596863498158
 50
74.02000874164733
 51
84.84185523037584
 73
     1
 97
       14
330
1AF
330
1B0
330
1B1
330
1B2
330
136
330
188
330
187
330
186
330
1B3
330
1B4
330
185
330
1B5
330
137
330
184
 75
     1
 76
     2
 52
45.0
 41
0.1
 77
     0
 78
     1
 53
45.0
 43
62.7811309658083
 44
-72.3161373035813
 45
-0.1414213562373095
 46
0.0
 79
     0
 98
        1
 10
0.0
 20
0.0
  0
ENDBLK
  5
78
330
76
100
AcDbEntity
  8
0
100
AcDbBlockEnd
  0
BLOCK
  5
7A
330
79
100
AcDbEntity
  8
0
100
AcDbBlockBegin
  2
_punkt
 70
     0
 10
-763.8588079312509
 20
-1156.345144113497
 30
0.0
  3
_punkt
  1

  0
LINE
  5
202
330
79
100
AcDbEntity
  8
1
  6
Continuous
 62
     2
100
AcDbLine
 10
-763.8588079312508
 20
-1156.345144113497
 30
0.0
 11
-758.8588079312533
 21
-1156.345144113497
 31
0.0
  0
LINE
  5
203
330
79
100
AcDbEntity
  8
1
  6
Continuous
 62
     2
100
AcDbLine
 10
-763.8588079312508
 20
-1156.345144113497
 30
0.0
 11
-763.8588079312508
 21
-1161.345144113496
 31
0.0
  0
ENDBLK
  5
7B
330
79
100
AcDbEntity
  8
0
100
AcDbBlockEnd
  0
BLOCK
  5
7F
330
7C
100
AcDbEntity
  8
0
100
AcDbBlockBegin
  2
A3I_CS
 70
     0
 10
-763.8588079312508
 20
-1161.345144113496
 30
0.0
  3
A3I_CS
  1

  0
INSERT
  5
7D
330
7C
100
AcDbEntity
  8
1
100
AcDbBlockReference
  2
_rahmen
 10
-763.8588079312508
 20
-1161.345144113496
 30
0.0
  0
INSERT
  5
7E
330
7C
100
AcDbEntity
  8
1
100
AcDbBlockReference
  2
_punkt
 10
-763.8588079312509
 20
-1156.345144113497
 30
0.0
  0
ENDBLK
  5
80
330
7C
100
AcDbEntity
  8
0
100
AcDbBlockEnd
  0
BLOCK
  5
82
330
81
100
AcDbEntity
  8
0
100
AcDbBlockBegin
  2
CES_B16_WRG_BK-select__1
 70
     0
 10
-832.5232304421905
 20
-1116.21353288019
 30
0.0
  3
CES_B16_WRG_BK-select__1
  1

  0
LINE
  5
204
330
81
100
AcDbEntity
  8
0
  6
Continuous
 62
     7
100
AcDbLine
 10
-782.7267697247361
 20
-1116.21353288019
 30
0.0
 11
-781.4767697247387
 21
-1115.131001125462
 31
0.0
  0
LINE
  5
205
330
81
100
AcDbEntity
  8
0
  6
Continuous
 62
     7
100
AcDbLine
 10
-832.5232304421904
 20
-1101.841868297175
 30
0.0
 11
-832.5232304421905
 21
-1004.865661639708
 31
0.0
  0
LINE
  5
206
330
81
100
AcDbEntity
  8
0
  6
Continuous
 62
     7
100
AcDbLine
 10
-792.0365428154188
 20
-1100.808793071056
 30
0.0
 11
-821.9634573516613
 21
-1092.169636989299
 31
0.0
  0
LINE
  5
207
330
81
100
AcDbEntity
  8
0
  6
Continuous
 62
     7
100
AcDbLine
 10
-792.0365428154188
 20
-1102.252168744027
 30
0.0
 11
-823.2134573516586
 21
-1093.252168744027
 31
0.0
  0
LINE
  5
208
330
81
100
AcDbEntity
  8
0
  6
Continuous
 62
     7
100
AcDbLine
 10
-821.9634573516613
 20
-1092.169636989299
 30
0.0
 11
-821.9634573516613
 21
-1019.134827936808
 31
0.0
  0
LINE
  5
209
330
81
100
AcDbEntity
  8
0
  6
Continuous
 62
     7
100
AcDbLine
 10
-821.9634573516613
 20
-1092.169636989299
 30
0.0
 11
-823.2134573516586
 21
-1093.252168744027
 31
0.0
  0
LINE
  5
20A
330
81
100
AcDbEntity
  8
0
  6
Continuous
 62
     7
100
AcDbLine
 10
-823.2134573516586
 20
-1093.252168744027
 30
0.0
 11
-823.2134573516586
 21
-1018.773984018565
 31
0.0
  0
LINE
  5
20B
330
81
100
AcDbEntity
  8
0
  6
Continuous
 62
     7
100
AcDbLine
 10
-792.0365428154188
 20
-1027.773984018565
 30
0.0
 11
-792.0365428154188
 21
-1102.252168744027
 31
0.0
  0
LINE
  5
20C
330
81
100
AcDbEntity
  8
0
  6
Continuous
 62
     7
100
AcDbLine
 10
-823.2134573516586
 20
-1018.773984018565
 30
0.0
 11
-792.0365428154188
 21
-1027.773984018565
 31
0.0
  0
LINE
  5
20D
330
81
100
AcDbEntity
  8
0
  6
Continuous
 62
     7
100
AcDbLine
 10
-782.7267697247361
 20
-1019.243997056623
 30
0.0
 11
-781.4767697247387
 21
-1018.161465301895
 31
0.0
  0
LINE
  5
20E
330
81
100
AcDbEntity
  8
0
  6
Continuous
 62
     7
100
AcDbLine
 10
-832.5232304421905
 20
-1004.865661639708
 30
0.0
 11
-831.2732304421932
 21
-1003.78312988498
 31
0.0
  0
LINE
  5
20F
330
81
100
AcDbEntity
  8
0
  6
Continuous
 62
     7
100
AcDbLine
 10
-781.4767697247387
 20
-1018.161465301895
 30
0.0
 11
-781.4767697247387
 21
-1115.131001125462
 31
0.0
  0
LINE
  5
210
330
81
100
AcDbEntity
  8
0
  6
Continuous
 62
     7
100
AcDbLine
 10
-782.7267697247361
 20
-1116.21353288019
 30
0.0
 11
-782.7267697247361
 21
-1019.243997056623
 31
0.0
  0
SPLINE
  5
211
330
81
100
AcDbEntity
  8
0
  6
Continuous
 62
     7
100
AcDbSpline
210
0.0
220
0.0
230
1.0
 70
  1064
 71
     3
 72
    11
 73
     7
 74
     5
 42
0.000000001
 43
0.0000000001
 44
0.00000001
 40
0.0
 40
0.0
 40
0.0
 40
0.0
 40
12.36575736287018
 40
25.2342919464275
 40
38.58604900700712
 40
52.36843688020753
 40
52.36843688020753
 40
52.36843688020753
 40
52.36843688020753
 10
-831.2732304421932
 20
-1003.78312988498
 30
0.0
 10
-827.1485691212459
 20
-1003.981545307951
 30
0.0
 10
-818.7315425790978
 20
-1004.38644350776
 30
0.0
 10
-806.149842147959
 20
-1007.313343256866
 30
0.0
 10
-793.5328810670355
 20
-1011.744869509224
 30
0.0
 10
-785.537768819072
 20
-1016.000089296715
 30
0.0
 10
-781.4767697247387
 20
-1018.161465301895
 30
0.0
 11
-831.2732304421932
 21
-1003.78312988498
 31
0.0
 11
-818.9446120552223
 21
-1004.74079571806
 31
0.0
 11
-806.3747673185541
 21
-1007.497276384053
 31
0.0
 11
-793.8050395257487
 21
-1011.999649075482
 31
0.0
 11
-781.4767697247387
 21
-1018.161465301895
 31
0.0
  0
SPLINE
  5
212
330
81
100
AcDbEntity
  8
0
  6
Continuous
 62
     7
100
AcDbSpline
210
0.0
220
0.0
230
1.0
 70
  1064
 71
     3
 72
    11
 73
     7
 74
     5
 42
0.000000001
 43
0.0000000001
 44
0.00000001
 40
0.0
 40
0.0
 40
0.0
 40
0.0
 40
12.36527424659042
 40
25.23332678447061
 40
38.58463759579642
 40
52.3666439820545
 40
52.3666439820545
 40
52.3666439820545
 40
52.3666439820545
 10
-782.7267697247361
 20
-1116.21353288019
 30
0.0
 10
-786.8512990534497
 20
-1116.015708150684
 30
0.0
 10
-795.2680631536409
 20
-1115.612015023324
 30
0.0
 10
-807.8496845851349
 20
-1112.686822516162
 30
0.0
 10
-820.4667651472807
 20
-1108.256944521334
 30
0.0
 10
-828.4621045107273
 20
-1104.002736498365
 30
0.0
 10
-832.5232304421904
 20
-1101.841868297175
 30
0.0
 11
-782.7267697247361
 21
-1116.21353288019
 31
0.0
 11
-795.0550395257469
 21
-1115.257619218343
 31
0.0
 11
-807.6247673185526
 21
-1112.502856184951
 31
0.0
 11
-820.1946120552204
 21
-1108.002133608553
 31
0.0
 11
-832.5232304421904
 21
-1101.841868297175
 31
0.0
  0
SPLINE
  5
213
330
81
100
AcDbEntity
  8
0
  6
Continuous
 62
     7
100
AcDbSpline
210
0.0
220
0.0
230
1.0
 70
  1064
 71
     3
 72
    17
 73
    13
 74
    11
 42
0.000000001
 43
0.0000000001
 44
0.00000001
 40
0.0
 40
0.0
 40
0.0
 40
0.0
 40
0.7596543162428977
 40
1.575891073623225
 40
2.451054663054476
 40
3.373449687628282
 40
4.32183017865772
 40
5.27021066968751
 40
6.192605694261462
 40
7.067769283692693
 40
7.884006041073242
 40
8.643660357315806
 40
8.643660357315806
 40
8.643660357315806
 40
8.643660357315806
 10
-795.4900702116117
 20
-1105.862641018654
 30
0.0
 10
-795.5827460019516
 20
-1106.100229705391
 30
0.0
 10
-795.7750004748445
 20
-1106.593103748257
 30
0.0
 10
-795.7806059026733
 20
-1107.425879782891
 30
0.0
 10
-795.5974355449823
 20
-1108.282118822631
 30
0.0
 10
-795.2158823174428
 20
-1109.122025336556
 30
0.0
 10
-794.6673298751259
 20
-1109.891713101849
 30
0.0
 10
-793.9839011866273
 20
-1110.544594611581
 30
0.0
 10
-793.2071169301469
 20
-1111.04222101408
 30
0.0
 10
-792.3858272553866
 20
-1111.345832514592
 30
0.0
 10
-791.5607919638041
 20
-1111.459252584798
 30
0.0
 10
-791.0455082482622
 20
-1111.339380582331
 30
0.0
 10
-790.7971170343662
 20
-1111.281596579008
 30
0.0
 11
-795.4900702116117
 21
-1105.862641018654
 31
0.0
 11
-795.7242609067132
 21
-1106.585295432892
 31
0.0
 11
-795.7519664827662
 21
-1107.401061852745
 31
0.0
 11
-795.5713995386374
 21
-1108.257395252886
 31
0.0
 11
-795.1941936619139
 21
-1109.099136489796
 31
0.0
 11
-794.644643305518
 21
-1109.872065956243
 31
0.0
 11
-793.9581487241148
 21
-1110.526398244933
 31
0.0
 11
-793.1789275127021
 21
-1111.019983989291
 31
0.0
 11
-792.357172529141
 21
-1111.321032258682
 31
0.0
 11
-791.545815226109
 21
-1111.410148909874
 31
0.0
 11
-790.7971170343662
 21
-1111.281596579008
 31
0.0
  0
SPLINE
  5
214
330
81
100
AcDbEntity
  8
0
  6
Continuous
 62
     7
100
AcDbSpline
210
0.0
220
0.0
230
1.0
 70
  1064
 71
     3
 72
    17
 73
    13
 74
    11
 42
0.000000001
 43
0.0000000001
 44
0.00000001
 40
0.0
 40
0.0
 40
0.0
 40
0.0
 40
0.6443559633442486
 40
1.313038471553566
 40
2.023297012331593
 40
2.781864530400852
 40
3.585265182464721
 40
4.422034748181644
 40
5.27549205617436
 40
6.126540681131899
 40
6.956425422477425
 40
7.749497363845564
 40
7.749497363845564
 40
7.749497363845564
 40
7.749497363845564
 10
-791.3136423578328
 20
-1111.948118223764
 30
0.0
 10
-791.163474799233
 20
-1111.792272709491
 30
0.0
 10
-790.8574703761383
 20
-1111.474697994538
 30
0.0
 10
-790.5958172494644
 20
-1110.837561353816
 30
0.0
 10
-790.4928768349589
 20
-1110.127500333593
 30
0.0
 10
-790.5627531356272
 20
-1109.366568719147
 30
0.0
 10
-790.795484956014
 20
-1108.596701112893
 30
0.0
 10
-791.1794569115382
 20
-1107.854651307663
 30
0.0
 10
-791.6943509547891
 20
-1107.176295600265
 30
0.0
 10
-792.3157494604395
 20
-1106.59973563613
 30
0.0
 10
-793.0079352540592
 20
-1106.137950208446
 30
0.0
 10
-793.5189041914425
 20
-1105.955127376888
 30
0.0
 10
-793.7685936229877
 20
-1105.865789412003
 30
0.0
 11
-791.3136423578328
 21
-1111.948118223764
 31
0.0
 11
-790.8959401826453
 21
-1111.457486480549
 31
0.0
 11
-790.6275112142627
 21
-1110.845046938141
 31
0.0
 11
-790.5223054090841
 21
-1110.142623321703
 31
0.0
 11
-790.5857881916402
 21
-1109.386716834334
 31
0.0
 11
-790.8146622319755
 21
-1108.616606918449
 31
0.0
 11
-791.197032968162
 21
-1107.872311327371
 31
0.0
 11
-791.7130322469445
 21
-1107.192506854769
 31
0.0
 11
-792.3358457463628
 21
-1106.612517970172
 31
0.0
 11
-793.0331105367902
 21
-1106.162484088786
 31
0.0
 11
-793.7685936229877
 21
-1105.865789412003
 31
0.0
  0
SPLINE
  5
215
330
81
100
AcDbEntity
  8
0
  6
Continuous
 62
     7
100
AcDbSpline
210
0.0
220
0.0
230
1.0
 70
  1064
 71
     3
 72
    21
 73
    17
 74
    15
 42
0.000000001
 43
0.0000000001
 44
0.00000001
 40
0.0
 40
0.0
 40
0.0
 40
0.0
 40
0.6328630732747024
 40
1.288836453077626
 40
1.984518107259438
 40
2.72674459732208
 40
3.512764896660028
 40
4.332215540232938
 40
5.169643153911846
 40
6.007070767590632
 40
6.826521411164066
 40
7.612541710501893
 40
8.354768200564914
 40
9.050449854746045
 40
9.706423234549117
 40
10.33928630782416
 40
10.33928630782416
 40
10.33928630782416
 40
10.33928630782416
 10
-796.2235448881427
 20
-1106.278651128626
 30
0.0
 10
-796.3712527721144
 20
-1106.43142908694
 30
0.0
 10
-796.6720623892217
 20
-1106.742564015807
 30
0.0
 10
-796.9335437544124
 20
-1107.364993579179
 30
0.0
 10
-797.0422085464277
 20
-1108.059288287158
 30
0.0
 10
-796.9840392808874
 20
-1108.804790630834
 30
0.0
 10
-796.768013378589
 20
-1109.561600877568
 30
0.0
 10
-796.4046636929324
 20
-1110.29508898301
 30
0.0
 10
-795.912299158412
 20
-1110.969888128105
 30
0.0
 10
-795.3147590037946
 20
-1111.553602514339
 30
0.0
 10
-794.6407011501044
 20
-1112.018009453101
 30
0.0
 10
-793.9225141081284
 20
-1112.33993539608
 30
0.0
 10
-793.1929680395439
 20
-1112.504008372808
 30
0.0
 10
-792.4902709494572
 20
-1112.495643079225
 30
0.0
 10
-791.8368709670639
 20
-1112.32576215414
 30
0.0
 10
-791.4859544475866
 20
-1112.072485692415
 30
0.0
 10
-791.3136423578328
 20
-1111.948118223764
 30
0.0
 11
-796.2235448881427
 21
-1106.278651128626
 31
0.0
 11
-796.6350844988333
 21
-1106.759432602142
 31
0.0
 11
-796.9028868783759
 21
-1107.358250576744
 31
0.0
 11
-797.0135220604394
 21
-1108.045078665632
 31
0.0
 11
-796.9614436497955
 21
-1108.785475858566
 31
0.0
 11
-796.7492617485727
 21
-1109.542315836427
 31
0.0
 11
-796.3876173156698
 21
-1110.277647503257
 31
0.0
 11
-795.8946435589382
 21
-1110.954597930442
 31
0.0
 11
-795.2950612189908
 21
-1111.539222616301
 31
0.0
 11
-794.6189351051976
 21
-1112.002205158456
 31
0.0
 11
-793.9001694940268
 21
-1112.320330774358
 31
0.0
 11
-793.1748060921511
 21
-1112.477646060899
 31
0.0
 11
-792.4792175541315
 21
-1112.466263927061
 31
0.0
 11
-791.8482839819131
 21
-1112.286753736144
 31
0.0
 11
-791.3136423578328
 21
-1111.948118223764
 31
0.0
  0
SPLINE
  5
216
330
81
100
AcDbEntity
  8
0
  6
Continuous
 62
     7
100
AcDbSpline
210
0.0
220
0.0
230
1.0
 70
  1064
 71
     3
 72
    11
 73
     7
 74
     5
 42
0.000000001
 43
0.0000000001
 44
0.00000001
 40
0.0
 40
0.0
 40
0.0
 40
0.0
 40
0.7017794664383435
 40
1.361386040161661
 40
1.985768244181599
 40
2.589913356899219
 40
2.589913356899219
 40
2.589913356899219
 40
2.589913356899219
 10
-793.7685936229877
 20
-1105.865789412003
 30
0.0
 10
-793.9975709281794
 20
-1105.812986409452
 30
0.0
 10
-794.4417653273264
 20
-1105.710553574223
 30
0.0
 10
-795.1095074062814
 20
-1105.744104786631
 30
0.0
 10
-795.7262867081326
 20
-1105.916339355686
 30
0.0
 10
-796.0596224709814
 20
-1106.159214129987
 30
0.0
 10
-796.2235448881427
 20
-1106.278651128626
 30
0.0
 11
-793.7685936229877
 21
-1105.865789412003
 31
0.0
 11
-794.4591369315532
 21
-1105.740711999898
 31
0.0
 11
-795.1180980814374
 21
-1105.769884556363
 31
0.0
 11
-795.715338908799
 21
-1105.95197391459
 31
0.0
 11
-796.2235448881427
 21
-1106.278651128626
 31
0.0
  0
SPLINE
  5
217
330
81
100
AcDbEntity
  8
0
  6
Continuous
 62
     7
100
AcDbSpline
210
0.0
220
0.0
230
1.0
 70
  1064
 71
     3
 72
    21
 73
    17
 74
    15
 42
0.000000001
 43
0.0000000001
 44
0.00000001
 40
0.0
 40
0.0
 40
0.0
 40
0.0
 40
0.6328630732748012
 40
1.288836453078026
 40
1.984518107259164
 40
2.726744597322267
 40
3.512764896659777
 40
4.332215540232688
 40
5.169643153911595
 40
6.007070767590621
 40
6.826521411164055
 40
7.612541710501871
 40
8.354768200564845
 40
9.05044985474609
 40
9.706423234549051
 40
10.33928630782409
 40
10.33928630782409
 40
10.33928630782409
 40
10.33928630782409
 10
-823.9363578090938
 20
-1098.278651128653
 30
0.0
 10
-824.0840656930653
 20
-1098.431429086966
 30
0.0
 10
-824.3848753101726
 20
-1098.742564015834
 30
0.0
 10
-824.6463566753634
 20
-1099.364993579206
 30
0.0
 10
-824.7550214673789
 20
-1100.059288287185
 30
0.0
 10
-824.6968522018387
 20
-1100.804790630861
 30
0.0
 10
-824.4808262995401
 20
-1101.561600877595
 30
0.0
 10
-824.1174766138835
 20
-1102.295088983036
 30
0.0
 10
-823.6251120793632
 20
-1102.969888128132
 30
0.0
 10
-823.0275719247455
 20
-1103.553602514366
 30
0.0
 10
-822.3535140710553
 20
-1104.018009453127
 30
0.0
 10
-821.6353270290798
 20
-1104.339935396108
 30
0.0
 10
-820.9057809604947
 20
-1104.504008372835
 30
0.0
 10
-820.2030838704086
 20
-1104.495643079252
 30
0.0
 10
-819.5496838880149
 20
-1104.325762154167
 30
0.0
 10
-819.1987673685377
 20
-1104.072485692442
 30
0.0
 10
-819.0264552787839
 20
-1103.948118223791
 30
0.0
 11
-823.9363578090938
 21
-1098.278651128653
 31
0.0
 11
-824.3478974197843
 21
-1098.759432602169
 31
0.0
 11
-824.6156997993271
 21
-1099.358250576772
 31
0.0
 11
-824.7263349813907
 21
-1100.045078665659
 31
0.0
 11
-824.6742565707466
 21
-1100.785475858593
 31
0.0
 11
-824.4620746695239
 21
-1101.542315836454
 31
0.0
 11
-824.1004302366209
 21
-1102.277647503283
 31
0.0
 11
-823.6074564798894
 21
-1102.954597930469
 31
0.0
 11
-823.0078741399418
 21
-1103.539222616329
 31
0.0
 11
-822.3317480261486
 21
-1104.002205158483
 31
0.0
 11
-821.612982414978
 21
-1104.320330774386
 31
0.0
 11
-820.8876190131023
 21
-1104.477646060926
 31
0.0
 11
-820.1920304750826
 21
-1104.466263927088
 31
0.0
 11
-819.5610969028643
 21
-1104.286753736171
 31
0.0
 11
-819.0264552787839
 21
-1103.948118223791
 31
0.0
  0
SPLINE
  5
218
330
81
100
AcDbEntity
  8
0
  6
Continuous
 62
     7
100
AcDbSpline
210
0.0
220
0.0
230
1.0
 70
  1064
 71
     3
 72
    17
 73
    13
 74
    11
 42
0.000000001
 43
0.0000000001
 44
0.00000001
 40
0.0
 40
0.0
 40
0.0
 40
0.0
 40
0.6443559633441749
 40
1.313038471553792
 40
2.023297012331594
 40
2.781864530401088
 40
3.585265182464772
 40
4.422034748181493
 40
5.275492056174028
 40
6.126540681131639
 40
6.956425422477165
 40
7.749497363845369
 40
7.749497363845369
 40
7.749497363845369
 40
7.749497363845369
 10
-819.0264552787839
 20
-1103.948118223791
 30
0.0
 10
-818.8762877201841
 20
-1103.792272709519
 30
0.0
 10
-818.5702832970894
 20
-1103.474697994565
 30
0.0
 10
-818.3086301704153
 20
-1102.837561353842
 30
0.0
 10
-818.2056897559099
 20
-1102.127500333621
 30
0.0
 10
-818.2755660565783
 20
-1101.366568719174
 30
0.0
 10
-818.508297876965
 20
-1100.59670111292
 30
0.0
 10
-818.8922698324897
 20
-1099.854651307691
 30
0.0
 10
-819.4071638757405
 20
-1099.176295600292
 30
0.0
 10
-820.0285623813907
 20
-1098.599735636158
 30
0.0
 10
-820.7207481750104
 20
-1098.137950208473
 30
0.0
 10
-821.2317171123937
 20
-1097.955127376915
 30
0.0
 10
-821.4814065439388
 20
-1097.86578941203
 30
0.0
 11
-819.0264552787839
 21
-1103.948118223791
 31
0.0
 11
-818.6087531035965
 21
-1103.457486480576
 31
0.0
 11
-818.3403241352137
 21
-1102.845046938167
 31
0.0
 11
-818.2351183300351
 21
-1102.142623321731
 31
0.0
 11
-818.2986011125913
 21
-1101.386716834361
 31
0.0
 11
-818.5274751529267
 21
-1100.616606918476
 31
0.0
 11
-818.9098458891133
 21
-1099.872311327399
 31
0.0
 11
-819.4258451678958
 21
-1099.192506854796
 31
0.0
 11
-820.0486586673139
 21
-1098.612517970199
 31
0.0
 11
-820.7459234577414
 21
-1098.162484088813
 31
0.0
 11
-821.4814065439388
 21
-1097.86578941203
 31
0.0
  0
SPLINE
  5
219
330
81
100
AcDbEntity
  8
0
  6
Continuous
 62
     7
100
AcDbSpline
210
0.0
220
0.0
230
1.0
 70
  1064
 71
     3
 72
    11
 73
     7
 74
     5
 42
0.000000001
 43
0.0000000001
 44
0.00000001
 40
0.0
 40
0.0
 40
0.0
 40
0.0
 40
0.7017794664383435
 40
1.361386040161784
 40
1.985768244181765
 40
2.589913356899412
 40
2.589913356899412
 40
2.589913356899412
 40
2.589913356899412
 10
-821.4814065439388
 20
-1097.86578941203
 30
0.0
 10
-821.7103838491304
 20
-1097.812986409479
 30
0.0
 10
-822.1545782482772
 20
-1097.71055357425
 30
0.0
 10
-822.8223203272327
 20
-1097.744104786659
 30
0.0
 10
-823.4390996290836
 20
-1097.916339355712
 30
0.0
 10
-823.7724353919327
 20
-1098.159214130014
 30
0.0
 10
-823.9363578090938
 20
-1098.278651128653
 30
0.0
 11
-821.4814065439388
 21
-1097.86578941203
 31
0.0
 11
-822.1719498525042
 21
-1097.740711999925
 31
0.0
 11
-822.8309110023886
 21
-1097.76988455639
 31
0.0
 11
-823.4281518297503
 21
-1097.951973914617
 31
0.0
 11
-823.9363578090938
 21
-1098.278651128653
 31
0.0
  0
SPLINE
  5
21A
330
81
100
AcDbEntity
  8
0
  6
Continuous
 62
     7
100
AcDbSpline
210
0.0
220
0.0
230
1.0
 70
  1064
 71
     3
 72
    17
 73
    13
 74
    11
 42
0.000000001
 43
0.0000000001
 44
0.00000001
 40
0.0
 40
0.0
 40
0.0
 40
0.0
 40
0.7596543162426814
 40
1.575891073623009
 40
2.451054663054284
 40
3.37344968762825
 40
4.321830178657939
 40
5.270210669687489
 40
6.19260569426132
 40
7.067769283692629
 40
7.884006041073064
 40
8.64366035731574
 40
8.64366035731574
 40
8.64366035731574
 40
8.64366035731574
 10
-823.2028831325629
 20
-1097.862641018681
 30
0.0
 10
-823.2955589229027
 20
-1098.100229705419
 30
0.0
 10
-823.4878133957956
 20
-1098.593103748284
 30
0.0
 10
-823.4934188236249
 20
-1099.425879782918
 30
0.0
 10
-823.3102484659331
 20
-1100.282118822658
 30
0.0
 10
-822.9286952383942
 20
-1101.122025336583
 30
0.0
 10
-822.380142796077
 20
-1101.891713101876
 30
0.0
 10
-821.6967141075785
 20
-1102.544594611609
 30
0.0
 10
-820.9199298510981
 20
-1103.042221014107
 30
0.0
 10
-820.0986401763377
 20
-1103.345832514619
 30
0.0
 10
-819.2736048847553
 20
-1103.459252584825
 30
0.0
 10
-818.7583211692133
 20
-1103.339380582358
 30
0.0
 10
-818.5099299553174
 20
-1103.281596579035
 30
0.0
 11
-823.2028831325629
 21
-1097.862641018681
 31
0.0
 11
-823.4370738276643
 21
-1098.585295432919
 31
0.0
 11
-823.4647794037173
 21
-1099.401061852771
 31
0.0
 11
-823.2842124595884
 21
-1100.257395252913
 31
0.0
 11
-822.907006582865
 21
-1101.099136489823
 31
0.0
 11
-822.357456226469
 21
-1101.872065956271
 31
0.0
 11
-821.670961645066
 21
-1102.526398244961
 31
0.0
 11
-820.8917404336532
 21
-1103.019983989318
 31
0.0
 11
-820.0699854500922
 21
-1103.321032258709
 31
0.0
 11
-819.2586281470602
 21
-1103.410148909901
 31
0.0
 11
-818.5099299553174
 21
-1103.281596579035
 31
0.0
  0
SPLINE
  5
21B
330
81
100
AcDbEntity
  8
0
  6
Continuous
 62
     7
100
AcDbSpline
210
0.0
220
0.0
230
1.0
 70
  1064
 71
     3
 72
    11
 73
     7
 74
     5
 42
0.000000001
 43
0.0000000001
 44
0.00000001
 40
0.0
 40
0.0
 40
0.0
 40
0.0
 40
12.36575736287029
 40
25.23429194642749
 40
38.58604900700714
 40
52.36843688020755
 40
52.36843688020755
 40
52.36843688020755
 40
52.36843688020755
 10
-832.5232304421905
 20
-1004.865661639708
 30
0.0
 10
-828.3985691212436
 20
-1005.064077062679
 30
0.0
 10
-819.9815425790948
 20
-1005.468975262488
 30
0.0
 10
-807.3998421479562
 20
-1008.395875011593
 30
0.0
 10
-794.782881067033
 20
-1012.827401263952
 30
0.0
 10
-786.7877688190695
 20
-1017.082621051443
 30
0.0
 10
-782.7267697247361
 20
-1019.243997056623
 30
0.0
 11
-832.5232304421905
 21
-1004.865661639708
 31
0.0
 11
-820.1946120552195
 21
-1005.823327472788
 31
0.0
 11
-807.6247673185514
 21
-1008.579808138781
 31
0.0
 11
-795.0550395257461
 21
-1013.08218083021
 31
0.0
 11
-782.7267697247361
 21
-1019.243997056623
 31
0.0
  0
SPLINE
  5
21C
330
81
100
AcDbEntity
  8
0
  6
Continuous
 62
     7
100
AcDbSpline
210
0.0
220
0.0
230
1.0
 70
  1064
 71
     3
 72
    17
 73
    13
 74
    11
 42
0.000000001
 43
0.0000000001
 44
0.00000001
 40
0.0
 40
0.0
 40
0.0
 40
0.0
 40
0.7596543162419244
 40
1.575891073622592
 40
2.451054663054201
 40
3.373449687627856
 40
4.32183017865736
 40
5.270210669686832
 40
6.192605694260845
 40
7.067769283692271
 40
7.884006041072706
 40
8.643660357315383
 40
8.643660357315383
 40
8.643660357315383
 40
8.643660357315383
 10
-823.2028831325629
 20
-1008.662024428884
 30
0.0
 10
-823.2955589229027
 20
-1008.899613115621
 30
0.0
 10
-823.487813395796
 20
-1009.392487158487
 30
0.0
 10
-823.4934188236247
 20
-1010.225263193121
 30
0.0
 10
-823.3102484659335
 20
-1011.081502232861
 30
0.0
 10
-822.9286952383943
 20
-1011.921408746786
 30
0.0
 10
-822.380142796077
 20
-1012.691096512079
 30
0.0
 10
-821.6967141075785
 20
-1013.343978021811
 30
0.0
 10
-820.919929851098
 20
-1013.841604424309
 30
0.0
 10
-820.0986401763379
 20
-1014.145215924822
 30
0.0
 10
-819.2736048847553
 20
-1014.258635995028
 30
0.0
 10
-818.7583211692133
 20
-1014.138763992561
 30
0.0
 10
-818.5099299553174
 20
-1014.080979989238
 30
0.0
 11
-823.2028831325629
 21
-1008.662024428884
 31
0.0
 11
-823.4370738276643
 21
-1009.384678843121
 31
0.0
 11
-823.4647794037173
 21
-1010.200445262974
 31
0.0
 11
-823.2842124595884
 21
-1011.056778663116
 31
0.0
 11
-822.907006582865
 21
-1011.898519900025
 31
0.0
 11
-822.357456226469
 21
-1012.671449366473
 31
0.0
 11
-821.670961645066
 21
-1013.325781655163
 31
0.0
 11
-820.8917404336532
 21
-1013.819367399521
 31
0.0
 11
-820.0699854500922
 21
-1014.120415668912
 31
0.0
 11
-819.2586281470602
 21
-1014.209532320104
 31
0.0
 11
-818.5099299553174
 21
-1014.080979989238
 31
0.0
  0
SPLINE
  5
21D
330
81
100
AcDbEntity
  8
0
  6
Continuous
 62
     7
100
AcDbSpline
210
0.0
220
0.0
230
1.0
 70
  1064
 71
     3
 72
    11
 73
     7
 74
     5
 42
0.000000001
 43
0.0000000001
 44
0.00000001
 40
0.0
 40
0.0
 40
0.0
 40
0.0
 40
0.7017794664383232
 40
1.361386040161754
 40
1.985768244181735
 40
2.58991335689932
 40
2.58991335689932
 40
2.58991335689932
 40
2.58991335689932
 10
-821.4814065439388
 20
-1008.665172822233
 30
0.0
 10
-821.7103838491302
 20
-1008.612369819682
 30
0.0
 10
-822.1545782482774
 20
-1008.509936984453
 30
0.0
 10
-822.8223203272327
 20
-1008.543488196862
 30
0.0
 10
-823.4390996290837
 20
-1008.715722765915
 30
0.0
 10
-823.7724353919325
 20
-1008.958597540217
 30
0.0
 10
-823.9363578090938
 20
-1009.078034538856
 30
0.0
 11
-821.4814065439388
 21
-1008.665172822233
 31
0.0
 11
-822.1719498525042
 21
-1008.540095410128
 31
0.0
 11
-822.8309110023886
 21
-1008.569267966593
 31
0.0
 11
-823.4281518297503
 21
-1008.75135732482
 31
0.0
 11
-823.9363578090938
 21
-1009.078034538856
 31
0.0
  0
SPLINE
  5
21E
330
81
100
AcDbEntity
  8
0
  6
Continuous
 62
     7
100
AcDbSpline
210
0.0
220
0.0
230
1.0
 70
  1064
 71
     3
 72
    21
 73
    17
 74
    15
 42
0.000000001
 43
0.0000000001
 44
0.00000001
 40
0.0
 40
0.0
 40
0.0
 40
0.0
 40
0.6328630732748012
 40
1.28883645307761
 40
1.984518107259198
 40
2.726744597322301
 40
3.51276489665992
 40
4.332215540233035
 40
5.16964315391185
 40
6.007070767590876
 40
6.826521411163925
 40
7.612541710501694
 40
8.354768200564788
 40
9.050449854746027
 40
9.70642323454899
 40
10.33928630782409
 40
10.33928630782409
 40
10.33928630782409
 40
10.33928630782409
 10
-823.9363578090938
 20
-1009.078034538856
 30
0.0
 10
-824.0840656930654
 20
-1009.23081249717
 30
0.0
 10
-824.3848753101722
 20
-1009.541947426037
 30
0.0
 10
-824.6463566753637
 20
-1010.164376989408
 30
0.0
 10
-824.7550214673788
 20
-1010.858671697388
 30
0.0
 10
-824.6968522018387
 20
-1011.604174041064
 30
0.0
 10
-824.4808262995401
 20
-1012.360984287798
 30
0.0
 10
-824.1174766138838
 20
-1013.094472393239
 30
0.0
 10
-823.6251120793629
 20
-1013.769271538336
 30
0.0
 10
-823.0275719247461
 20
-1014.352985924569
 30
0.0
 10
-822.3535140710549
 20
-1014.81739286333
 30
0.0
 10
-821.63532702908
 20
-1015.13931880631
 30
0.0
 10
-820.9057809604943
 20
-1015.303391783038
 30
0.0
 10
-820.2030838704087
 20
-1015.295026489455
 30
0.0
 10
-819.5496838880149
 20
-1015.12514556437
 30
0.0
 10
-819.1987673685376
 20
-1014.871869102645
 30
0.0
 10
-819.0264552787839
 20
-1014.747501633994
 30
0.0
 11
-823.9363578090938
 21
-1009.078034538856
 31
0.0
 11
-824.3478974197843
 21
-1009.558816012372
 31
0.0
 11
-824.6156997993271
 21
-1010.157633986974
 31
0.0
 11
-824.7263349813907
 21
-1010.844462075862
 31
0.0
 11
-824.6742565707466
 21
-1011.584859268796
 31
0.0
 11
-824.4620746695239
 21
-1012.341699246657
 31
0.0
 11
-824.1004302366209
 21
-1013.077030913487
 31
0.0
 11
-823.6074564798894
 21
-1013.753981340672
 31
0.0
 11
-823.0078741399418
 21
-1014.338606026532
 31
0.0
 11
-822.3317480261486
 21
-1014.801588568685
 31
0.0
 11
-821.612982414978
 21
-1015.119714184588
 31
0.0
 11
-820.8876190131023
 21
-1015.277029471129
 31
0.0
 11
-820.1920304750826
 21
-1015.265647337291
 31
0.0
 11
-819.5610969028643
 21
-1015.086137146374
 31
0.0
 11
-819.0264552787839
 21
-1014.747501633994
 31
0.0
  0
SPLINE
  5
21F
330
81
100
AcDbEntity
  8
0
  6
Continuous
 62
     7
100
AcDbSpline
210
0.0
220
0.0
230
1.0
 70
  1064
 71
     3
 72
    17
 73
    13
 74
    11
 42
0.000000001
 43
0.0000000001
 44
0.00000001
 40
0.0
 40
0.0
 40
0.0
 40
0.0
 40
0.6443559633444346
 40
1.31303847155374
 40
2.023297012331654
 40
2.781864530400922
 40
3.585265182465042
 40
4.422034748181559
 40
5.275492056174276
 40
6.126540681131964
 40
6.956425422477428
 40
7.749497363845505
 40
7.749497363845505
 40
7.749497363845505
 40
7.749497363845505
 10
-819.0264552787839
 20
-1014.747501633994
 30
0.0
 10
-818.8762877201841
 20
-1014.591656119722
 30
0.0
 10
-818.5702832970894
 20
-1014.274081404767
 30
0.0
 10
-818.3086301704157
 20
-1013.636944764046
 30
0.0
 10
-818.2056897559096
 20
-1012.926883743823
 30
0.0
 10
-818.2755660565787
 20
-1012.165952129378
 30
0.0
 10
-818.5082978769648
 20
-1011.396084523123
 30
0.0
 10
-818.8922698324897
 20
-1010.654034717893
 30
0.0
 10
-819.4071638757404
 20
-1009.975679010495
 30
0.0
 10
-820.0285623813905
 20
-1009.39911904636
 30
0.0
 10
-820.7207481750106
 20
-1008.937333618676
 30
0.0
 10
-821.2317171123937
 20
-1008.754510787118
 30
0.0
 10
-821.4814065439388
 20
-1008.665172822233
 30
0.0
 11
-819.0264552787839
 21
-1014.747501633994
 31
0.0
 11
-818.6087531035965
 21
-1014.256869890779
 31
0.0
 11
-818.3403241352137
 21
-1013.64443034837
 31
0.0
 11
-818.2351183300351
 21
-1012.942006731933
 31
0.0
 11
-818.2986011125913
 21
-1012.186100244564
 31
0.0
 11
-818.5274751529267
 21
-1011.415990328679
 31
0.0
 11
-818.9098458891133
 21
-1010.671694737601
 31
0.0
 11
-819.4258451678958
 21
-1009.991890264999
 31
0.0
 11
-820.0486586673139
 21
-1009.411901380402
 31
0.0
 11
-820.7459234577414
 21
-1008.961867499016
 31
0.0
 11
-821.4814065439388
 21
-1008.665172822233
 31
0.0
  0
SPLINE
  5
220
330
81
100
AcDbEntity
  8
0
  6
Continuous
 62
     7
100
AcDbSpline
210
0.0
220
0.0
230
1.0
 70
  1064
 71
     3
 72
    17
 73
    13
 74
    11
 42
0.000000001
 43
0.0000000001
 44
0.00000001
 40
0.0
 40
0.0
 40
0.0
 40
0.0
 40
0.7596543162420325
 40
1.575891073622587
 40
2.451054663054172
 40
3.373449687627978
 40
4.321830178657454
 40
5.270210669686922
 40
6.192605694260874
 40
7.0677692836923
 40
7.884006041072849
 40
8.643660357315413
 40
8.643660357315413
 40
8.643660357315413
 40
8.643660357315413
 10
-795.4900702116117
 20
-1016.662024428857
 30
0.0
 10
-795.5827460019516
 20
-1016.899613115594
 30
0.0
 10
-795.7750004748445
 20
-1017.39248715846
 30
0.0
 10
-795.7806059026736
 20
-1018.225263193094
 30
0.0
 10
-795.5974355449824
 20
-1019.081502232834
 30
0.0
 10
-795.215882317443
 20
-1019.921408746758
 30
0.0
 10
-794.6673298751255
 20
-1020.691096512051
 30
0.0
 10
-793.9839011866273
 20
-1021.343978021784
 30
0.0
 10
-793.2071169301471
 20
-1021.841604424282
 30
0.0
 10
-792.3858272553865
 20
-1022.145215924795
 30
0.0
 10
-791.5607919638039
 20
-1022.258635995001
 30
0.0
 10
-791.0455082482623
 20
-1022.138763992534
 30
0.0
 10
-790.7971170343662
 20
-1022.080979989211
 30
0.0
 11
-795.4900702116117
 21
-1016.662024428857
 31
0.0
 11
-795.7242609067132
 21
-1017.384678843095
 31
0.0
 11
-795.7519664827662
 21
-1018.200445262947
 31
0.0
 11
-795.5713995386374
 21
-1019.056778663089
 31
0.0
 11
-795.1941936619139
 21
-1019.898519899999
 31
0.0
 11
-794.6446433055178
 21
-1020.671449366446
 31
0.0
 11
-793.9581487241148
 21
-1021.325781655136
 31
0.0
 11
-793.1789275127021
 21
-1021.819367399494
 31
0.0
 11
-792.357172529141
 21
-1022.120415668885
 31
0.0
 11
-791.545815226109
 21
-1022.209532320077
 31
0.0
 11
-790.7971170343662
 21
-1022.080979989211
 31
0.0
  0
SPLINE
  5
221
330
81
100
AcDbEntity
  8
0
  6
Continuous
 62
     7
100
AcDbSpline
210
0.0
220
0.0
230
1.0
 70
  1064
 71
     3
 72
    11
 73
     7
 74
     5
 42
0.000000001
 43
0.0000000001
 44
0.00000001
 40
0.0
 40
0.0
 40
0.0
 40
0.0
 40
0.7017794664383638
 40
1.361386040161686
 40
1.985768244181558
 40
2.5899133568993
 40
2.5899133568993
 40
2.5899133568993
 40
2.5899133568993
 10
-793.7685936229877
 20
-1016.665172822206
 30
0.0
 10
-793.9975709281794
 20
-1016.612369819655
 30
0.0
 10
-794.4417653273259
 20
-1016.509936984426
 30
0.0
 10
-795.1095074062818
 20
-1016.543488196835
 30
0.0
 10
-795.7262867081324
 20
-1016.715722765888
 30
0.0
 10
-796.0596224709813
 20
-1016.95859754019
 30
0.0
 10
-796.2235448881427
 20
-1017.078034538829
 30
0.0
 11
-793.7685936229877
 21
-1016.665172822206
 31
0.0
 11
-794.4591369315532
 21
-1016.540095410101
 31
0.0
 11
-795.1180980814374
 21
-1016.569267966565
 31
0.0
 11
-795.715338908799
 21
-1016.751357324793
 31
0.0
 11
-796.2235448881427
 21
-1017.078034538829
 31
0.0
  0
SPLINE
  5
222
330
81
100
AcDbEntity
  8
0
  6
Continuous
 62
     7
100
AcDbSpline
210
0.0
220
0.0
230
1.0
 70
  1064
 71
     3
 72
    21
 73
    17
 74
    15
 42
0.000000001
 43
0.0000000001
 44
0.00000001
 40
0.0
 40
0.0
 40
0.0
 40
0.0
 40
0.6328630732748751
 40
1.288836453077695
 40
1.984518107259058
 40
2.726744597322267
 40
3.512764896659886
 40
4.332215540233
 40
5.169643153911724
 40
6.007070767590668
 40
6.826521411163781
 40
7.612541710501608
 40
8.354768200564726
 40
9.050449854745853
 40
9.706423234548925
 40
10.33928630782403
 40
10.33928630782403
 40
10.33928630782403
 40
10.33928630782403
 10
-796.2235448881427
 20
-1017.078034538829
 30
0.0
 10
-796.3712527721144
 20
-1017.230812497143
 30
0.0
 10
-796.6720623892214
 20
-1017.54194742601
 30
0.0
 10
-796.9335437544123
 20
-1018.164376989381
 30
0.0
 10
-797.0422085464278
 20
-1018.858671697361
 30
0.0
 10
-796.9840392808876
 20
-1019.604174041037
 30
0.0
 10
-796.7680133785886
 20
-1020.360984287771
 30
0.0
 10
-796.4046636929326
 20
-1021.094472393212
 30
0.0
 10
-795.9122991584119
 20
-1021.769271538309
 30
0.0
 10
-795.314759003795
 20
-1022.352985924542
 30
0.0
 10
-794.640701150104
 20
-1022.817392863303
 30
0.0
 10
-793.9225141081284
 20
-1023.139318806282
 30
0.0
 10
-793.1929680395436
 20
-1023.303391783011
 30
0.0
 10
-792.4902709494576
 20
-1023.295026489428
 30
0.0
 10
-791.836870967064
 20
-1023.125145564343
 30
0.0
 10
-791.4859544475866
 20
-1022.871869102618
 30
0.0
 10
-791.3136423578328
 20
-1022.747501633967
 30
0.0
 11
-796.2235448881427
 21
-1017.078034538829
 31
0.0
 11
-796.6350844988333
 21
-1017.558816012345
 31
0.0
 11
-796.9028868783759
 21
-1018.157633986947
 31
0.0
 11
-797.0135220604394
 21
-1018.844462075835
 31
0.0
 11
-796.9614436497955
 21
-1019.584859268769
 31
0.0
 11
-796.7492617485727
 21
-1020.34169924663
 31
0.0
 11
-796.3876173156698
 21
-1021.07703091346
 31
0.0
 11
-795.8946435589382
 21
-1021.753981340645
 31
0.0
 11
-795.2950612189908
 21
-1022.338606026505
 31
0.0
 11
-794.6189351051976
 21
-1022.801588568659
 31
0.0
 11
-793.9001694940268
 21
-1023.119714184561
 31
0.0
 11
-793.1748060921511
 21
-1023.277029471102
 31
0.0
 11
-792.4792175541315
 21
-1023.265647337264
 31
0.0
 11
-791.8482839819131
 21
-1023.086137146347
 31
0.0
 11
-791.3136423578328
 21
-1022.747501633967
 31
0.0
  0
SPLINE
  5
223
330
81
100
AcDbEntity
  8
0
  6
Continuous
 62
     7
100
AcDbSpline
210
0.0
220
0.0
230
1.0
 70
  1064
 71
     3
 72
    17
 73
    13
 74
    11
 42
0.000000001
 43
0.0000000001
 44
0.00000001
 40
0.0
 40
0.0
 40
0.0
 40
0.0
 40
0.6443559633445083
 40
1.313038471553514
 40
2.023297012331541
 40
2.781864530400799
 40
3.585265182464777
 40
4.422034748181396
 40
5.275492056174112
 40
6.126540681131961
 40
6.956425422477425
 40
7.749497363845564
 40
7.749497363845564
 40
7.749497363845564
 40
7.749497363845564
 10
-791.3136423578328
 20
-1022.747501633967
 30
0.0
 10
-791.1634747992331
 20
-1022.591656119694
 30
0.0
 10
-790.8574703761385
 20
-1022.274081404741
 30
0.0
 10
-790.5958172494644
 20
-1021.636944764019
 30
0.0
 10
-790.4928768349589
 20
-1020.926883743797
 30
0.0
 10
-790.5627531356273
 20
-1020.165952129351
 30
0.0
 10
-790.7954849560139
 20
-1019.396084523096
 30
0.0
 10
-791.1794569115382
 20
-1018.654034717866
 30
0.0
 10
-791.6943509547892
 20
-1017.975679010468
 30
0.0
 10
-792.3157494604393
 20
-1017.399119046333
 30
0.0
 10
-793.0079352540597
 20
-1016.937333618649
 30
0.0
 10
-793.5189041914425
 20
-1016.754510787091
 30
0.0
 10
-793.7685936229877
 20
-1016.665172822206
 30
0.0
 11
-791.3136423578328
 21
-1022.747501633967
 31
0.0
 11
-790.8959401826453
 21
-1022.256869890752
 31
0.0
 11
-790.6275112142627
 21
-1021.644430348344
 31
0.0
 11
-790.5223054090841
 21
-1020.942006731907
 31
0.0
 11
-790.5857881916402
 21
-1020.186100244538
 31
0.0
 11
-790.8146622319755
 21
-1019.415990328652
 31
0.0
 11
-791.197032968162
 21
-1018.671694737575
 31
0.0
 11
-791.7130322469445
 21
-1017.991890264972
 31
0.0
 11
-792.3358457463628
 21
-1017.411901380375
 31
0.0
 11
-793.0331105367902
 21
-1016.961867498989
 31
0.0
 11
-793.7685936229877
 21
-1016.665172822206
 31
0.0
  0
ENDBLK
  5
83
330
81
100
AcDbEntity
  8
0
100
AcDbBlockEnd
  0
BLOCK
  5
86
330
84
100
AcDbEntity
  8
0
100
AcDbBlockBegin
  2
AllgSicht1
 70
     0
 10
-807.0000000000007
 20
-1060.0
 30
0.0
  3
AllgSicht1
  1

  0
INSERT
  5
85
330
84
100
AcDbEntity
  8
0
100
AcDbBlockReference
  2
CES_B16_WRG_BK-select__1
 10
-832.5232304421905
 20
-1116.21353288019
 30
0.0
  0
MTEXT
  5
224
330
84
100
AcDbEntity
  8
1
 62
     6
100
AcDbMText
 10
-807.0000000000001
 20
-1124.690289248723
 30
0.0
 40
5.0
 41
0.0
 71
     2
 72
     1
  1
 
  7
CONVERTER_11
 73
     1
 44
1.32052821128451
  0
ENDBLK
  5
87
330
84
100
AcDbEntity
  8
0
100
AcDbBlockEnd
  0
BLOCK
  5
89
330
88
100
AcDbEntity
  8
0
100
AcDbBlockBegin
  2
CES_B16_WRG_BK-select__2
 70
     0
 10
-1073.499999977084
 20
-1055.499999546309
 30
0.0
  3
CES_B16_WRG_BK-select__2
  1

  0
LINE
  5
225
330
88
100
AcDbEntity
  8
0
  6
Continuous
 62
     7
100
AcDbLine
 10
-1073.499999977084
 20
-1052.999999546315
 30
0.0
 11
-1015.999999977258
 21
-1052.999999546315
 31
0.0
  0
LINE
  5
226
330
88
100
AcDbEntity
  8
0
  6
Continuous
 62
     7
100
AcDbLine
 10
-1015.999999977258
 20
-1055.499999546309
 30
0.0
 11
-1015.999999977258
 21
-1052.999999546315
 31
0.0
  0
LINE
  5
227
330
88
100
AcDbEntity
  8
0
  6
Continuous
 62
     7
100
AcDbLine
 10
-1073.499999977084
 20
-1055.499999546309
 30
0.0
 11
-1073.499999977084
 21
-1052.999999546315
 31
0.0
  0
LINE
  5
228
330
88
100
AcDbEntity
  8
0
  6
Continuous
 62
     7
100
AcDbLine
 10
-1073.499999977084
 20
-1055.499999546309
 30
0.0
 11
-1015.999999977258
 21
-1055.499999546309
 31
0.0
  0
ENDBLK
  5
8A
330
88
100
AcDbEntity
  8
0
100
AcDbBlockEnd
  0
BLOCK
  5
8D
330
8B
100
AcDbEntity
  8
0
100
AcDbBlockBegin
  2
Drfsicht1
 70
     0
 10
-1044.749999880791
 20
-1054.24999954632
 30
0.0
  3
Drfsicht1
  1

  0
INSERT
  5
8C
330
8B
100
AcDbEntity
  8
0
100
AcDbBlockReference
  2
CES_B16_WRG_BK-select__2
 10
-1073.499999977084
 20
-1055.499999546309
 30
0.0
  0
MTEXT
  5
229
330
8B
100
AcDbEntity
  8
1
 62
     6
100
AcDbMText
 10
-1044.749999880791
 20
-1060.499999546321
 30
0.0
 40
5.0
 41
0.0
 71
     2
 72
     1
  1
 
  7
CONVERTER_11
 73
     1
 44
1.32052821128451
  0
DIMENSION
  5
236
330
8B
100
AcDbEntity
  8
1
100
AcDbDimension
  2
*D17
 10
-1086.050733949303
 20
-1052.999999546314
 30
0.0
 11
-1089.475733949303
 21
-1043.74589785601
 31
0.0
 70
    32
  1
<>
 71
     5
 42
-1.0
 53
90.0
  3
ME10_DIM_10
100
AcDbAlignedDimension
 13
-1073.499999977084
 23
-1055.499999546309
 33
0.0
 14
-1073.499999977084
 24
-1052.999999546315
 34
0.0
 50
90.0
100
AcDbRotatedDimension
  0
ENDBLK
  5
8E
330
8B
100
AcDbEntity
  8
0
100
AcDbBlockEnd
  0
BLOCK
  5
90
330
8F
100
AcDbEntity
  8
0
100
AcDbBlockBegin
  2
CES_B16_WRG_BK-select__3
 70
     0
 10
-931.0000000227427
 20
-1005.999998978273
 30
0.0
  3
CES_B16_WRG_BK-select__3
  1

  0
LINE
  5
237
330
8F
100
AcDbEntity
  8
1
  6
DOT_CENTER
 62
     2
100
AcDbLine
 10
-918.2500000227427
 20
-890.3424496015641
 30
0.0
 11
-918.2500000227427
 21
-898.5924496015641
 31
0.0
  0
LINE
  5
238
330
8F
100
AcDbEntity
  8
1
  6
DOT_CENTER
 62
     2
100
AcDbLine
 10
-914.1250000227427
 20
-894.4674496015641
 30
0.0
 11
-922.3750000227427
 21
-894.4674496015641
 31
0.0
  0
LINE
  5
239
330
8F
100
AcDbEntity
  8
1
  6
DOT_CENTER
 62
     2
100
AcDbLine
 10
-886.250000022917
 20
-993.3424496015451
 30
0.0
 11
-886.250000022917
 21
-1001.592449601545
 31
0.0
  0
LINE
  5
23A
330
8F
100
AcDbEntity
  8
1
  6
DOT_CENTER
 62
     2
100
AcDbLine
 10
-882.125000022917
 20
-997.4674496015451
 30
0.0
 11
-890.375000022917
 21
-997.4674496015451
 31
0.0
  0
LINE
  5
23B
330
8F
100
AcDbEntity
  8
1
  6
DOT_CENTER
 62
     2
100
AcDbLine
 10
-886.250000022917
 20
-890.342449601545
 30
0.0
 11
-886.250000022917
 21
-898.592449601545
 31
0.0
  0
LINE
  5
23C
330
8F
100
AcDbEntity
  8
1
  6
DOT_CENTER
 62
     2
100
AcDbLine
 10
-882.125000022917
 20
-894.467449601545
 30
0.0
 11
-890.375000022917
 21
-894.467449601545
 31
0.0
  0
LINE
  5
23D
330
8F
100
AcDbEntity
  8
1
  6
DOT_CENTER
 62
     2
100
AcDbLine
 10
-918.2500000227427
 20
-993.3424496015641
 30
0.0
 11
-918.2500000227427
 21
-1001.592449601564
 31
0.0
  0
LINE
  5
23E
330
8F
100
AcDbEntity
  8
1
  6
DOT_CENTER
 62
     2
100
AcDbLine
 10
-914.1250000227427
 20
-997.4674496015641
 30
0.0
 11
-922.3750000227427
 21
-997.4674496015641
 31
0.0
  0
LINE
  5
23F
330
8F
100
AcDbEntity
  8
0
  6
Continuous
 62
     7
100
AcDbLine
 10
-873.5000000229169
 20
-890.0107599595894
 30
0.0
 11
-873.500000022917
 21
-1001.989237996944
 31
0.0
  0
LINE
  5
240
330
8F
100
AcDbEntity
  8
0
  6
Continuous
 62
     7
100
AcDbLine
 10
-931.0000000227427
 20
-890.0146113673471
 30
0.0
 11
-931.0000000227427
 21
-1001.985386589206
 31
0.0
  0
LINE
  5
241
330
8F
100
AcDbEntity
  8
0
  6
Continuous
 62
     7
100
AcDbLine
 10
-884.2500000227427
 20
-902.9674496015641
 30
0.0
 11
-920.2500000227427
 21
-902.9674496015641
 31
0.0
  0
LINE
  5
242
330
8F
100
AcDbEntity
  8
0
  6
Continuous
 62
     7
100
AcDbLine
 10
-884.2500000227427
 20
-988.9674496015641
 30
0.0
 11
-884.2500000227427
 21
-902.9674496015641
 31
0.0
  0
LINE
  5
243
330
8F
100
AcDbEntity
  8
0
  6
Continuous
 62
     7
100
AcDbLine
 10
-920.2500000227427
 20
-988.9674496015641
 30
0.0
 11
-884.2500000227427
 21
-988.9674496015641
 31
0.0
  0
LINE
  5
244
330
8F
100
AcDbEntity
  8
0
  6
Continuous
 62
     7
100
AcDbLine
 10
-920.2500000227427
 20
-902.9674496015641
 30
0.0
 11
-920.2500000227427
 21
-988.9674496015641
 31
0.0
  0
ARC
  5
245
330
8F
100
AcDbEntity
  8
0
  6
Continuous
 62
     7
100
AcDbCircle
 10
-902.2432357911442
 20
-990.9999989782696
 30
0.0
 40
105.0
100
AcDbArc
 50
74.11275557368772
 51
105.8949198840293
  0
ARC
  5
246
330
8F
100
AcDbEntity
  8
0
  6
Continuous
 62
     7
100
AcDbCircle
 10
-902.2432357911789
 20
-900.9999989782733
 30
0.0
 40
105.0000000000003
100
AcDbArc
 50
254.1050801159904
 51
285.8872444263318
  0
CIRCLE
  5
247
330
8F
100
AcDbEntity
  8
0
  6
Continuous
 62
     7
100
AcDbCircle
 10
-918.2500000227427
 20
-997.4674496015641
 30
0.0
 40
3.75
  0
CIRCLE
  5
248
330
8F
100
AcDbEntity
  8
0
  6
Continuous
 62
     7
100
AcDbCircle
 10
-886.250000022917
 20
-997.4674496015451
 30
0.0
 40
3.75
  0
CIRCLE
  5
249
330
8F
100
AcDbEntity
  8
0
  6
Continuous
 62
     7
100
AcDbCircle
 10
-886.250000022917
 20
-894.467449601545
 30
0.0
 40
3.75
  0
CIRCLE
  5
24A
330
8F
100
AcDbEntity
  8
0
  6
Continuous
 62
     7
100
AcDbCircle
 10
-918.2500000227427
 20
-894.4674496015641
 30
0.0
 40
3.75
  0
ENDBLK
  5
91
330
8F
100
AcDbEntity
  8
0
100
AcDbBlockEnd
  0
BLOCK
  5
94
330
92
100
AcDbEntity
  8
0
100
AcDbBlockBegin
  2
Rckans1
 70
     0
 10
-902.25000011921
 20
-945.9999999999986
 30
0.0
  3
Rckans1
  1

  0
INSERT
  5
93
330
92
100
AcDbEntity
  8
0
100
AcDbBlockReference
  2
CES_B16_WRG_BK-select__3
 10
-931.0000000227427
 20
-1005.999998978273
 30
0.0
  0
MTEXT
  5
24B
330
92
100
AcDbEntity
  8
1
 62
     6
100
AcDbMText
 10
-902.2500001192093
 20
-1010.999999046326
 30
0.0
 40
5.0
 41
0.0
 71
     2
 72
     1
  1
 
  7
CONVERTER_11
 73
     1
 44
1.32052821128451
  0
ENDBLK
  5
95
330
92
100
AcDbEntity
  8
0
100
AcDbBlockEnd
  0
BLOCK
  5
97
330
96
100
AcDbEntity
  8
0
100
AcDbBlockBegin
  2
CES_B16_WRG_BK-select__4
 70
     0
 10
-972.1017315225612
 20
-1005.999998978273
 30
0.0
  3
CES_B16_WRG_BK-select__4
  1

  0
LINE
  5
24C
330
96
100
AcDbEntity
  8
0
  6
Continuous
 62
     7
100
AcDbLine
 10
-972.1017315225612
 20
-890.0107599595894
 30
0.0
 11
-972.1017315225612
 21
-1001.989237996944
 31
0.0
  0
LINE
  5
24D
330
96
100
AcDbEntity
  8
0
  6
Continuous
 62
     7
100
AcDbLine
 10
-969.6017315225665
 20
-1001.989237996944
 30
0.0
 11
-972.1017315225612
 21
-1001.989237996944
 31
0.0
  0
LINE
  5
24E
330
96
100
AcDbEntity
  8
0
  6
Continuous
 62
     7
100
AcDbLine
 10
-969.6017315225665
 20
-1005.999998978273
 30
0.0
 11
-972.1017315225612
 21
-1005.999998978273
 31
0.0
  0
LINE
  5
24F
330
96
100
AcDbEntity
  8
0
  6
Continuous
 62
     7
100
AcDbLine
 10
-972.1017315225612
 20
-1005.999998978273
 30
0.0
 11
-972.1017315225612
 21
-1001.989237996944
 31
0.0
  0
LINE
  5
250
330
96
100
AcDbEntity
  8
0
  6
Continuous
 62
     7
100
AcDbLine
 10
-969.6017315225665
 20
-890.0107599595894
 30
0.0
 11
-972.1017315225612
 21
-890.0107599595894
 31
0.0
  0
LINE
  5
251
330
96
100
AcDbEntity
  8
0
  6
Continuous
 62
     7
100
AcDbLine
 10
-969.6017315225665
 20
-1001.989237996944
 30
0.0
 11
-969.6017315225665
 21
-890.0107599595894
 31
0.0
  0
LINE
  5
252
330
96
100
AcDbEntity
  8
0
  6
Continuous
 62
     7
100
AcDbLine
 10
-969.6017315225665
 20
-1005.999998978273
 30
0.0
 11
-969.6017315225665
 21
-1001.989237996944
 31
0.0
  0
LINE
  5
253
330
96
100
AcDbEntity
  8
0
  6
Continuous
 62
     7
100
AcDbLine
 10
-969.6017315225665
 20
-885.9999989782696
 30
0.0
 11
-972.1017315225612
 21
-885.9999989782696
 31
0.0
  0
LINE
  5
254
330
96
100
AcDbEntity
  8
0
  6
Continuous
 62
     7
100
AcDbLine
 10
-972.1017315225612
 20
-890.0107599595894
 30
0.0
 11
-972.1017315225612
 21
-885.9999989782696
 31
0.0
  0
LINE
  5
255
330
96
100
AcDbEntity
  8
0
  6
Continuous
 62
     7
100
AcDbLine
 10
-969.6017315225665
 20
-890.0107599595894
 30
0.0
 11
-969.6017315225665
 21
-885.9999989782696
 31
0.0
  0
ENDBLK
  5
98
330
96
100
AcDbEntity
  8
0
100
AcDbBlockEnd
  0
BLOCK
  5
9B
330
99
100
AcDbEntity
  8
0
100
AcDbBlockBegin
  2
SA_Links1
 70
     0
 10
-970.8517315225562
 20
-945.9999999999986
 30
0.0
  3
SA_Links1
  1

  0
INSERT
  5
9A
330
99
100
AcDbEntity
  8
0
100
AcDbBlockReference
  2
CES_B16_WRG_BK-select__4
 10
-972.1017315225612
 20
-1005.999998978273
 30
0.0
  0
MTEXT
  5
256
330
99
100
AcDbEntity
  8
1
 62
     6
100
AcDbMText
 10
-970.8517315225562
 20
-1010.999999046326
 30
0.0
 40
5.0
 41
0.0
 71
     2
 72
     1
  1
 
  7
CONVERTER_11
 73
     1
 44
1.32052821128451
  0
ENDBLK
  5
9C
330
99
100
AcDbEntity
  8
0
100
AcDbBlockEnd
  0
BLOCK
  5
9E
330
9D
100
AcDbEntity
  8
0
100
AcDbBlockBegin
  2
CES_B16_WRG_BK-select__5
 70
     0
 10
-1132.749999761566
 20
-1005.999998978275
 30
0.0
  3
CES_B16_WRG_BK-select__5
  1

  0
LINE
  5
257
330
9D
100
AcDbEntity
  8
0
  6
Continuous
 62
     7
100
AcDbLine
 10
-1130.249999761571
 20
-890.0146113673484
 30
0.0
 11
-1130.249999761571
 21
-1001.985386589207
 31
0.0
  0
LINE
  5
258
330
9D
100
AcDbEntity
  8
0
  6
Continuous
 62
     7
100
AcDbLine
 10
-1132.749999761566
 20
-890.0146113673484
 30
0.0
 11
-1130.249999761571
 21
-890.0146113673484
 31
0.0
  0
LINE
  5
259
330
9D
100
AcDbEntity
  8
0
  6
Continuous
 62
     7
100
AcDbLine
 10
-1132.749999761566
 20
-885.9999989782709
 30
0.0
 11
-1130.249999761571
 21
-885.9999989782709
 31
0.0
  0
LINE
  5
25A
330
9D
100
AcDbEntity
  8
0
  6
Continuous
 62
     7
100
AcDbLine
 10
-1130.249999761571
 20
-885.9999989782709
 30
0.0
 11
-1130.249999761571
 21
-890.0146113673484
 31
0.0
  0
LINE
  5
25B
330
9D
100
AcDbEntity
  8
0
  6
Continuous
 62
     7
100
AcDbLine
 10
-1132.749999761566
 20
-1001.985386589207
 30
0.0
 11
-1130.249999761571
 21
-1001.985386589207
 31
0.0
  0
LINE
  5
25C
330
9D
100
AcDbEntity
  8
0
  6
Continuous
 62
     7
100
AcDbLine
 10
-1132.749999761566
 20
-1001.985386589207
 30
0.0
 11
-1132.749999761566
 21
-890.0146113673484
 31
0.0
  0
LINE
  5
25D
330
9D
100
AcDbEntity
  8
0
  6
Continuous
 62
     7
100
AcDbLine
 10
-1132.749999761566
 20
-885.9999989782709
 30
0.0
 11
-1132.749999761566
 21
-890.0146113673484
 31
0.0
  0
LINE
  5
25E
330
9D
100
AcDbEntity
  8
0
  6
Continuous
 62
     7
100
AcDbLine
 10
-1132.749999761566
 20
-1005.999998978275
 30
0.0
 11
-1130.249999761571
 21
-1005.999998978275
 31
0.0
  0
LINE
  5
25F
330
9D
100
AcDbEntity
  8
0
  6
Continuous
 62
     7
100
AcDbLine
 10
-1130.249999761571
 20
-1001.985386589207
 30
0.0
 11
-1130.249999761571
 21
-1005.999998978275
 31
0.0
  0
LINE
  5
260
330
9D
100
AcDbEntity
  8
0
  6
Continuous
 62
     7
100
AcDbLine
 10
-1132.749999761566
 20
-1001.985386589207
 30
0.0
 11
-1132.749999761566
 21
-1005.999998978275
 31
0.0
  0
ENDBLK
  5
9F
330
9D
100
AcDbEntity
  8
0
100
AcDbBlockEnd
  0
BLOCK
  5
A2
330
A0
100
AcDbEntity
  8
0
100
AcDbBlockBegin
  2
SA_Rechts1
 70
     0
 10
-1131.499999761576
 20
-946.0
 30
0.0
  3
SA_Rechts1
  1

  0
INSERT
  5
A1
330
A0
100
AcDbEntity
  8
0
100
AcDbBlockReference
  2
CES_B16_WRG_BK-select__5
 10
-1132.749999761566
 20
-1005.999998978275
 30
0.0
  0
MTEXT
  5
261
330
A0
100
AcDbEntity
  8
1
 62
     6
100
AcDbMText
 10
-1131.499999761576
 20
-1010.999999046326
 30
0.0
 40
5.0
 41
0.0
 71
     2
 72
     1
  1
 
  7
CONVERTER_11
 73
     1
 44
1.32052821128451
  0
ENDBLK
  5
A3
330
A0
100
AcDbEntity
  8
0
100
AcDbBlockEnd
  0
BLOCK
  5
A5
330
A4
100
AcDbEntity
  8
0
100
AcDbBlockBegin
  2
CES_B16_WRG_BK-select__6
 70
     0
 10
-1073.499999977084
 20
-1005.999998978275
 30
0.0
  3
CES_B16_WRG_BK-select__6
  1

  0
LINE
  5
262
330
A4
100
AcDbEntity
  8
1
  6
DOT_CENTER
 62
     2
100
AcDbLine
 10
-1028.749999977258
 20
-993.3424496015654
 30
0.0
 11
-1028.749999977258
 21
-1001.592449601565
 31
0.0
  0
LINE
  5
263
330
A4
100
AcDbEntity
  8
1
  6
DOT_CENTER
 62
     2
100
AcDbLine
 10
-1024.624999977258
 20
-997.4674496015654
 30
0.0
 11
-1032.874999977258
 21
-997.4674496015654
 31
0.0
  0
LINE
  5
264
330
A4
100
AcDbEntity
  8
1
  6
DOT_CENTER
 62
     2
100
AcDbLine
 10
-1060.749999977084
 20
-993.3424496015464
 30
0.0
 11
-1060.749999977084
 21
-1001.592449601546
 31
0.0
  0
LINE
  5
265
330
A4
100
AcDbEntity
  8
1
  6
DOT_CENTER
 62
     2
100
AcDbLine
 10
-1056.624999977084
 20
-997.4674496015464
 30
0.0
 11
-1064.874999977084
 21
-997.4674496015464
 31
0.0
  0
LINE
  5
266
330
A4
100
AcDbEntity
  8
1
  6
DOT_CENTER
 62
     2
100
AcDbLine
 10
-1028.749999977258
 20
-890.3424496015654
 30
0.0
 11
-1028.749999977258
 21
-898.5924496015654
 31
0.0
  0
LINE
  5
267
330
A4
100
AcDbEntity
  8
1
  6
DOT_CENTER
 62
     2
100
AcDbLine
 10
-1024.624999977258
 20
-894.4674496015654
 30
0.0
 11
-1032.874999977258
 21
-894.4674496015654
 31
0.0
  0
LINE
  5
268
330
A4
100
AcDbEntity
  8
1
  6
DOT_CENTER
 62
     2
100
AcDbLine
 10
-1060.749999977084
 20
-890.3424496015464
 30
0.0
 11
-1060.749999977084
 21
-898.5924496015464
 31
0.0
  0
LINE
  5
269
330
A4
100
AcDbEntity
  8
1
  6
DOT_CENTER
 62
     2
100
AcDbLine
 10
-1056.624999977084
 20
-894.4674496015464
 30
0.0
 11
-1064.874999977084
 21
-894.4674496015464
 31
0.0
  0
LINE
  5
26A
330
A4
100
AcDbEntity
  8
0
  6
Continuous
 62
     7
100
AcDbLine
 10
-1015.999999977258
 20
-1001.985386589207
 30
0.0
 11
-1015.999999977258
 21
-890.0146113673484
 31
0.0
  0
LINE
  5
26B
330
A4
100
AcDbEntity
  8
0
  6
Continuous
 62
     7
100
AcDbLine
 10
-1073.499999977084
 20
-1001.989237996945
 30
0.0
 11
-1073.499999977084
 21
-890.0107599595908
 31
0.0
  0
LINE
  5
26C
330
A4
100
AcDbEntity
  8
0
  6
Continuous
 62
     7
100
AcDbLine
 10
-1026.749999977258
 20
-902.9674496015654
 30
0.0
 11
-1026.749999977258
 21
-988.9674496015654
 31
0.0
  0
LINE
  5
26D
330
A4
100
AcDbEntity
  8
0
  6
Continuous
 62
     7
100
AcDbLine
 10
-1026.749999977258
 20
-988.9674496015654
 30
0.0
 11
-1062.749999977258
 21
-988.9674496015654
 31
0.0
  0
LINE
  5
26E
330
A4
100
AcDbEntity
  8
0
  6
Continuous
 62
     7
100
AcDbLine
 10
-1062.749999977258
 20
-988.9674496015654
 30
0.0
 11
-1062.749999977258
 21
-902.9674496015654
 31
0.0
  0
LINE
  5
26F
330
A4
100
AcDbEntity
  8
0
  6
Continuous
 62
     7
100
AcDbLine
 10
-1062.749999977258
 20
-902.9674496015654
 30
0.0
 11
-1026.749999977258
 21
-902.9674496015654
 31
0.0
  0
ARC
  5
270
330
A4
100
AcDbEntity
  8
0
  6
Continuous
 62
     7
100
AcDbCircle
 10
-1044.756764208857
 20
-990.9999989782708
 30
0.0
 40
105.0000000000001
100
AcDbArc
 50
74.10508011597038
 51
90.0
  0
ARC
  5
271
330
A4
100
AcDbEntity
  8
0
  6
Continuous
 62
     7
100
AcDbCircle
 10
-1044.756764208822
 20
-900.9999989782746
 30
0.0
 40
105.0000000000002
100
AcDbArc
 50
254.1127555736682
 51
270.0
  0
ARC
  5
272
330
A4
100
AcDbEntity
  8
0
  6
Continuous
 62
     7
100
AcDbCircle
 10
-1044.756764208857
 20
-990.9999989782708
 30
0.0
 40
104.9999999999999
100
AcDbArc
 50
90.0
 51
105.8872444263121
  0
ARC
  5
273
330
A4
100
AcDbEntity
  8
0
  6
Continuous
 62
     7
100
AcDbCircle
 10
-1044.756764208822
 20
-900.9999989782746
 30
0.0
 40
105.0000000000005
100
AcDbArc
 50
270.0
 51
285.8949198840097
  0
CIRCLE
  5
274
330
A4
100
AcDbEntity
  8
0
  6
Continuous
 62
     7
100
AcDbCircle
 10
-1028.749999977258
 20
-997.4674496015654
 30
0.0
 40
3.75
  0
CIRCLE
  5
275
330
A4
100
AcDbEntity
  8
0
  6
Continuous
 62
     7
100
AcDbCircle
 10
-1060.749999977084
 20
-997.4674496015464
 30
0.0
 40
3.75
  0
CIRCLE
  5
276
330
A4
100
AcDbEntity
  8
0
  6
Continuous
 62
     7
100
AcDbCircle
 10
-1060.749999977084
 20
-894.4674496015464
 30
0.0
 40
3.75
  0
CIRCLE
  5
277
330
A4
100
AcDbEntity
  8
0
  6
Continuous
 62
     7
100
AcDbCircle
 10
-1028.749999977258
 20
-894.4674496015654
 30
0.0
 40
3.75
  0
ENDBLK
  5
A6
330
A4
100
AcDbEntity
  8
0
100
AcDbBlockEnd
  0
BLOCK
  5
A9
330
A7
100
AcDbEntity
  8
0
100
AcDbBlockBegin
  2
Vordans1
 70
     0
 10
-1044.749999880791
 20
-946.0
 30
0.0
  3
Vordans1
  1

  0
INSERT
  5
A8
330
A7
100
AcDbEntity
  8
0
100
AcDbBlockReference
  2
CES_B16_WRG_BK-select__6
 10
-1073.499999977084
 20
-1005.999998978275
 30
0.0
  0
MTEXT
  5
278
330
A7
100
AcDbEntity
  8
1
 62
     6
100
AcDbMText
 10
-1044.749999880791
 20
-1010.999999046326
 30
0.0
 40
5.0
 41
0.0
 71
     2
 72
     1
  1
 
  7
CONVERTER_11
 73
     1
 44
1.32052821128451
  0
DIMENSION
  5
283
330
A7
100
AcDbEntity
  8
1
100
AcDbDimension
  2
*D18
 10
-1015.999999977258
 20
-1020.74911111948
 30
0.0
 11
-1044.28122701836
 21
-1016.82411111948
 31
0.0
 70
    32
  1
<>
 71
     5
 42
-1.0
 53
0.00013888888889
  3
ME10_DIM_11
100
AcDbAlignedDimension
 13
-1073.499999977084
 23
-1001.989237996945
 33
0.0
 14
-1015.999999977258
 24
-1001.985386589207
 34
0.0
100
AcDbRotatedDimension
  0
DIMENSION
  5
28E
330
A7
100
AcDbEntity
  8
1
100
AcDbDimension
  2
*D19
 10
-1086.050733949303
 20
-1005.999998978274
 30
0.0
 11
-1089.800733949303
 21
-945.034730094555
 31
0.0
 70
    33
  1
<>
 71
     5
 42
-1.0
 53
-89.99999999998327
  3
ME10_DIM_12
100
AcDbAlignedDimension
 13
-1044.756764208857
 23
-885.9999989782709
 33
0.0
 14
-1044.756764208822
 24
-1005.999998978275
 34
0.0
  0
ENDBLK
  5
AA
330
A7
100
AcDbEntity
  8
0
100
AcDbBlockEnd
  0
BLOCK
  5
B3
330
AB
100
AcDbEntity
  8
0
100
AcDbBlockBegin
  2
1
 70
     0
 10
0.0
 20
0.0
 30
0.0
  3
1
  1

  0
INSERT
  5
AC
330
AB
100
AcDbEntity
  8
0
100
AcDbBlockReference
  2
A3I_CS
 10
-763.8588079312508
 20
-1161.345144113496
 30
0.0
  0
INSERT
  5
AD
330
AB
100
AcDbEntity
  8
0
100
AcDbBlockReference
  2
AllgSicht1
 10
-807.0000000000007
 20
-1060.0
 30
0.0
  0
INSERT
  5
AE
330
AB
100
AcDbEntity
  8
0
100
AcDbBlockReference
  2
Drfsicht1
 10
-1044.749999880791
 20
-1054.24999954632
 30
0.0
  0
INSERT
  5
AF
330
AB
100
AcDbEntity
  8
0
100
AcDbBlockReference
  2
Rckans1
 10
-902.25000011921
 20
-945.9999999999986
 30
0.0
  0
INSERT
  5
B0
330
AB
100
AcDbEntity
  8
0
100
AcDbBlockReference
  2
SA_Links1
 10
-970.8517315225562
 20
-945.9999999999986
 30
0.0
  0
INSERT
  5
B1
330
AB
100
AcDbEntity
  8
0
100
AcDbBlockReference
  2
SA_Rechts1
 10
-1131.499999761576
 20
-946.0
 30
0.0
  0
INSERT
  5
B2
330
AB
100
AcDbEntity
  8
0
100
AcDbBlockReference
  2
Vordans1
 10
-1044.749999880791
 20
-946.0
 30
0.0
  0
ENDBLK
  5
B4
330
AB
100
AcDbEntity
  8
0
100
AcDbBlockEnd
  0
BLOCK
  5
233
330
22A
100
AcDbEntity
  8
0
100
AcDbBlockBegin
  2
*D17
 70
     1
 10
0.0
 20
0.0
 30
0.0
  3
*D17
  1

  0
LINE
  5
22B
330
22A
100
AcDbEntity
  8
1
  6
Continuous
 62
     2
100
AcDbLine
 10
-1086.050733949303
 20
-1055.499999546309
 30
0.0
 11
-1086.050733949303
 21
-1062.499999546309
 31
0.0
  0
LINE
  5
22C
330
22A
100
AcDbEntity
  8
1
  6
Continuous
 62
     2
100
AcDbLine
 10
-1086.050733949303
 20
-1052.999999546314
 30
0.0
 11
-1086.050733949303
 21
-1055.499999546309
 31
0.0
  0
LINE
  5
22D
330
22A
100
AcDbEntity
  8
1
  6
Continuous
 62
     2
100
AcDbLine
 10
-1086.050733949303
 20
-1040.50839785601
 30
0.0
 11
-1086.050733949303
 21
-1052.999999546314
 31
0.0
  0
LINE
  5
22E
330
22A
100
AcDbEntity
  8
1
  6
Continuous
 62
     2
100
AcDbLine
 10
-1073.499999977084
 20
-1055.499999546309
 30
0.0
 11
-1087.550733949303
 21
-1055.499999546309
 31
0.0
  0
LINE
  5
22F
330
22A
100
AcDbEntity
  8
1
  6
Continuous
 62
     2
100
AcDbLine
 10
-1073.499999977084
 20
-1052.999999546314
 30
0.0
 11
-1087.550733949303
 21
-1052.999999546314
 31
0.0
  0
SOLID
  5
230
330
22A
100
AcDbEntity
  8
1
 62
     2
100
AcDbTrace
 10
-1086.511517690859
 20
-1049.499999546314
 30
0.0
 11
-1085.589950207747
 21
-1049.499999546314
 31
0.0
 12
-1086.050733949303
 22
-1052.999999546314
 32
0.0
 13
-1086.050733949303
 23
-1052.999999546314
 33
0.0
  0
SOLID
  5
231
330
22A
100
AcDbEntity
  8
1
 62
     2
100
AcDbTrace
 10
-1085.589950207747
 20
-1058.999999546309
 30
0.0
 11
-1086.511517690859
 21
-1058.999999546309
 31
0.0
 12
-1086.050733949303
 22
-1055.499999546309
 32
0.0
 13
-1086.050733949303
 23
-1055.499999546309
 33
0.0
  0
MTEXT
  5
232
330
22A
100
AcDbEntity
  8
1
 62
     3
100
AcDbMText
 10
-1087.900733949303
 20
-1046.98339785601
 30
0.0
 40
3.5
 41
0.0
 71
     7
 72
     1
  1
2,5
  7
CONVERTER_11
 11
0.0
 21
1.0
 31
0.0
 73
     1
 44
0.60024009603842
  0
ENDBLK
  5
234
330
22A
100
AcDbEntity
  8
0
100
AcDbBlockEnd
  0
BLOCK
  5
280
330
279
100
AcDbEntity
  8
0
100
AcDbBlockBegin
  2
*D18
 70
     1
 10
0.0
 20
0.0
 30
0.0
  3
*D18
  1

  0
LINE
  5
27A
330
279
100
AcDbEntity
  8
1
  6
Continuous
 62
     2
100
AcDbLine
 10
-1015.999999977258
 20
-1020.74911111948
 30
0.0
 11
-1073.499999977084
 21
-1020.74911111948
 31
0.0
  0
LINE
  5
27B
330
279
100
AcDbEntity
  8
1
  6
Continuous
 62
     2
100
AcDbLine
 10
-1015.999999977258
 20
-1001.985386589207
 30
0.0
 11
-1015.999999977258
 21
-1022.74911111948
 31
0.0
  0
LINE
  5
27C
330
279
100
AcDbEntity
  8
1
  6
Continuous
 62
     2
100
AcDbLine
 10
-1073.499999977084
 20
-1001.989237996945
 30
0.0
 11
-1073.499999977084
 21
-1022.74911111948
 31
0.0
  0
SOLID
  5
27D
330
279
100
AcDbEntity
  8
1
 62
     2
100
AcDbTrace
 10
-1019.499999977258
 20
-1021.209894861036
 30
0.0
 11
-1019.499999977258
 21
-1020.288327377924
 31
0.0
 12
-1015.999999977258
 22
-1020.74911111948
 32
0.0
 13
-1015.999999977258
 23
-1020.74911111948
 33
0.0
  0
SOLID
  5
27E
330
279
100
AcDbEntity
  8
1
 62
     2
100
AcDbTrace
 10
-1069.999999977084
 20
-1020.288327377924
 30
0.0
 11
-1069.999999977084
 21
-1021.209894861036
 31
0.0
 12
-1073.499999977084
 22
-1020.74911111948
 32
0.0
 13
-1073.499999977084
 23
-1020.74911111948
 33
0.0
  0
MTEXT
  5
27F
330
279
100
AcDbEntity
  8
1
 62
     3
100
AcDbMText
 10
-1049.09372701836
 20
-1018.39911111948
 30
0.0
 40
3.5
 41
0.0
 71
     7
 72
     1
  1
57,5
  7
CONVERTER_11
 11
0.9999999999970619
 21
2.424068405545306E-6
 31
0.0
 73
     1
 44
0.60024009603842
  0
ENDBLK
  5
281
330
279
100
AcDbEntity
  8
0
100
AcDbBlockEnd
  0
BLOCK
  5
28B
330
284
100
AcDbEntity
  8
0
100
AcDbBlockBegin
  2
*D19
 70
     1
 10
0.0
 20
0.0
 30
0.0
  3
*D19
  1

  0
LINE
  5
285
330
284
100
AcDbEntity
  8
1
  6
Continuous
 62
     2
100
AcDbLine
 10
-1086.050733949303
 20
-1005.999998978274
 30
0.0
 11
-1086.050733949303
 21
-885.9999989782709
 31
0.0
  0
LINE
  5
286
330
284
100
AcDbEntity
  8
1
  6
Continuous
 62
     2
100
AcDbLine
 10
-1044.756764208856
 20
-885.9999989782709
 30
0.0
 11
-1088.050733949303
 21
-885.9999989782709
 31
0.0
  0
LINE
  5
287
330
284
100
AcDbEntity
  8
1
  6
Continuous
 62
     2
100
AcDbLine
 10
-1044.756764208822
 20
-1005.999998978274
 30
0.0
 11
-1088.050733949303
 21
-1005.999998978274
 31
0.0
  0
SOLID
  5
288
330
284
100
AcDbEntity
  8
1
 62
     2
100
AcDbTrace
 10
-1086.511517690859
 20
-1002.499998978274
 30
0.0
 11
-1085.589950207747
 21
-1002.499998978274
 31
0.0
 12
-1086.050733949303
 22
-1005.999998978274
 32
0.0
 13
-1086.050733949303
 23
-1005.999998978274
 33
0.0
  0
SOLID
  5
289
330
284
100
AcDbEntity
  8
1
 62
     2
100
AcDbTrace
 10
-1085.589950207747
 20
-889.4999989782709
 30
0.0
 11
-1086.511517690859
 21
-889.4999989782709
 31
0.0
 12
-1086.050733949303
 22
-885.9999989782709
 32
0.0
 13
-1086.050733949303
 23
-885.9999989782709
 33
0.0
  0
MTEXT
  5
28A
330
284
100
AcDbEntity
  8
1
 62
     3
100
AcDbMText
 10
-1088.050733949303
 20
-948.709730094555
 30
0.0
 40
3.5
 41
0.0
 71
     7
 72
     1
  1
120
  7
CONVERTER_11
 11
0.0
 21
1.0
 31
0.0
 73
     1
 44
0.60024009603842
  0
ENDBLK
  5
28C
330
284
100
AcDbEntity
  8
0
100
AcDbBlockEnd
  0
ENDSEC
  0
SECTION
  2
ENTITIES
  0
INSERT
  5
B5
330
1F
100
AcDbEntity
  8
1
100
AcDbBlockReference
  2
1
 10
0.0
 20
0.0
 30
0.0
  0
ENDSEC
  0
SECTION
  2
OBJECTS
  0
DICTIONARY
  5
C
330
0
100
AcDbDictionary
281
     1
  3
ACAD_DETAILVIEWSTYLE
350
2D4
  3
ACAD_GROUP
350
D
  3
ACAD_LAYOUT
350
1A
  3
ACAD_MATERIAL
350
43
  3
ACAD_MLEADERSTYLE
350
6B
  3
ACAD_MLINESTYLE
350
17
  3
ACAD_PLOTSETTINGS
350
19
  3
ACAD_PLOTSTYLENAME
350
E
  3
ACAD_SCALELIST
350
47
  3
ACAD_SECTIONVIEWSTYLE
350
2D5
  3
ACAD_TABLESTYLE
350
69
  3
ACAD_VISUALSTYLE
350
2A
  3
ACDB_RECOMPOSE_DATA
350
2D1
  3
AcDbVariableDictionary
350
291
  0
DICTIONARY
  5
28F
330
8
100
AcDbDictionary
280
     1
281
     1
  3
ACAD_XREC_ROUNDTRIP
360
290
  0
DICTIONARY
  5
2D4
102
{ACAD_REACTORS
330
C
102
}
330
C
100
AcDbDictionary
281
     1
  0
DICTIONARY
  5
D
102
{ACAD_REACTORS
330
C
102
}
330
C
100
AcDbDictionary
281
     1
  0
DICTIONARY
  5
1A
102
{ACAD_REACTORS
330
C
102
}
330
C
100
AcDbDictionary
281
     1
  3
Layout1
350
1E
  3
Layout2
350
26
  3
Model
350
22
  0
DICTIONARY
  5
43
102
{ACAD_REACTORS
330
C
102
}
330
C
100
AcDbDictionary
281
     1
  3
ByBlock
350
45
  3
ByLayer
350
44
  3
Global
350
46
  0
DICTIONARY
  5
6B
102
{ACAD_REACTORS
330
C
102
}
330
C
100
AcDbDictionary
281
     1
  3
Standard
350
6C
  0
DICTIONARY
  5
17
102
{ACAD_REACTORS
330
C
102
}
330
C
100
AcDbDictionary
281
     1
  3
Standard
350
18
  0
DICTIONARY
  5
19
102
{ACAD_REACTORS
330
C
102
}
330
C
100
AcDbDictionary
281
     1
  0
ACDBDICTIONARYWDFLT
  5
E
102
{ACAD_REACTORS
330
C
102
}
330
C
100
AcDbDictionary
281
     1
  3
Normal
350
F
100
AcDbDictionaryWithDefault
340
F
  0
DICTIONARY
  5
47
102
{ACAD_REACTORS
330
C
102
}
330
C
100
AcDbDictionary
281
     1
  3
A0
350
48
  3
A1
350
49
  3
A2
350
4A
  3
A3
350
4B
  3
A4
350
4C
  3
A5
350
4D
  3
A6
350
4E
  3
A7
350
4F
  3
A8
350
50
  3
A9
350
51
  3
B0
350
52
  3
B1
350
53
  3
B2
350
54
  3
B3
350
55
  3
B4
350
56
  3
B5
350
57
  3
B6
350
58
  3
B7
350
59
  3
B8
350
5A
  3
B9
350
5B
  3
C0
350
5C
  3
C1
350
5D
  3
C2
350
5E
  3
C3
350
5F
  3
C4
350
60
  3
C5
350
61
  3
C6
350
62
  3
C7
350
63
  3
C8
350
64
  3
C9
350
65
  3
D0
350
66
  3
D1
350
67
  3
D2
350
68
  0
DICTIONARY
  5
2D5
102
{ACAD_REACTORS
330
C
102
}
330
C
100
AcDbDictionary
281
     1
  0
DICTIONARY
  5
69
102
{ACAD_REACTORS
330
C
102
}
330
C
100
AcDbDictionary
281
     1
  3
Standard
350
6A
  0
DICTIONARY
  5
2A
102
{ACAD_REACTORS
330
C
102
}
330
C
100
AcDbDictionary
281
     1
  3
2dWireframe
350
2F
  3
Basic
350
32
  3
Brighten
350
36
  3
ColorChange
350
3A
  3
Conceptual
350
34
  3
Dim
350
35
  3
EdgeColorOff
350
3D
  3
Facepattern
350
39
  3
Flat
350
2B
  3
FlatWithEdges
350
2C
  3
Gouraud
350
2D
  3
GouraudWithEdges
350
2E
  3
Hidden
350
31
  3
JitterOff
350
3B
  3
Linepattern
350
38
  3
OverhangOff
350
3C
  3
Realistic
350
33
  3
Shaded
350
42
  3
Shaded with edges
350
41
  3
Shades of Gray
350
3E
  3
Sketchy
350
3F
  3
Thicken
350
37
  3
Wireframe
350
30
  3
X-Ray
350
40
  0
XRECORD
  5
2D1
102
{ACAD_REACTORS
330
C
102
}
330
C
100
AcDbXrecord
280
     1
 90
        1
330
6A
  0
DICTIONARY
  5
291
102
{ACAD_REACTORS
330
C
102
}
330
C
100
AcDbDictionary
281
     1
  3
CANNOSCALE
350
292
  3
CMLEADERSTYLE
350
2D3
  3
CTABLESTYLE
350
2D2
  3
MSLTSCALE
350
293
  3
XCLIPFRAME
350
294
  0
XRECORD
  5
290
102
{ACAD_REACTORS
330
28F
102
}
330
28F
100
AcDbXrecord
280
     1
102
VTR_0.000_0.000_1.000_1.000_VISUALSTYLE
340
2F
102
VTR_0.000_0.000_1.000_1.000_GRIDDISPLAY
 70
     3
102
VTR_0.000_0.000_1.000_1.000_GRIDMAJOR
 70
     5
102
VTR_0.000_0.000_1.000_1.000_DEFAULTLIGHTING
280
     1
102
VTR_0.000_0.000_1.000_1.000_DEFAULTLIGHTINGTYPE
 70
     1
102
VTR_0.000_0.000_1.000_1.000_BRIGHTNESS
141
0.0
102
VTR_0.000_0.000_1.000_1.000_CONTRAST
142
0.0
  0
LAYOUT
  5
1E
102
{ACAD_REACTORS
330
1A
102
}
330
1A
100
AcDbPlotSettings
  1

  2
none_device
  4

  6

 40
0.0
 41
0.0
 42
0.0
 43
0.0
 44
0.0
 45
0.0
 46
0.0
 47
0.0
 48
0.0
 49
0.0
140
0.0
141
0.0
142
1.0
143
1.0
 70
   688
 72
     0
 73
     0
 74
     5
  7

 75
    16
 76
     0
 77
     2
 78
   300
147
1.0
148
0.0
149
0.0
100
AcDbLayout
  1
Layout1
 70
     1
 71
     1
 10
0.0
 20
0.0
 11
12.0
 21
9.0
 12
0.0
 22
0.0
 32
0.0
 14
1.00000000000000E+20
 24
1.00000000000000E+20
 34
1.00000000000000E+20
 15
-1.00000000000000E+20
 25
-1.00000000000000E+20
 35
-1.00000000000000E+20
146
0.0
 13
0.0
 23
0.0
 33
0.0
 16
1.0
 26
0.0
 36
0.0
 17
0.0
 27
1.0
 37
0.0
 76
     0
330
1B
  0
LAYOUT
  5
26
102
{ACAD_REACTORS
330
1A
102
}
330
1A
100
AcDbPlotSettings
  1

  2
none_device
  4

  6

 40
0.0
 41
0.0
 42
0.0
 43
0.0
 44
0.0
 45
0.0
 46
0.0
 47
0.0
 48
0.0
 49
0.0
140
0.0
141
0.0
142
1.0
143
1.0
 70
   688
 72
     0
 73
     0
 74
     5
  7

 75
    16
 76
     0
 77
     2
 78
   300
147
1.0
148
0.0
149
0.0
100
AcDbLayout
  1
Layout2
 70
     1
 71
     2
 10
0.0
 20
0.0
 11
0.0
 21
0.0
 12
0.0
 22
0.0
 32
0.0
 14
0.0
 24
0.0
 34
0.0
 15
0.0
 25
0.0
 35
0.0
146
0.0
 13
0.0
 23
0.0
 33
0.0
 16
1.0
 26
0.0
 36
0.0
 17
0.0
 27
1.0
 37
0.0
 76
     0
330
23
  0
LAYOUT
  5
22
102
{ACAD_REACTORS
330
1A
102
}
330
1A
100
AcDbPlotSettings
  1

  2
none_device
  4
Letter_(8.50_x_11.00_Inches)
  6

 40
6.35
 41
6.35
 42
6.35000508
 43
6.35000508
 44
215.9
 45
279.4
 46
0.0
 47
0.0
 48
0.0
 49
0.0
140
0.0
141
0.0
142
1.0
143
1.0
 70
  1712
 72
     0
 73
     0
 74
     0
  7

 75
     0
 76
     0
 77
     2
 78
   300
147
1.0
148
0.0
149
0.0
100
AcDbLayout
  1
Model
 70
     1
 71
     0
 10
0.0
 20
0.0
 11
12.0
 21
9.0
 12
0.0
 22
0.0
 32
0.0
 14
-1178.858807931252
 24
-1161.345144113496
 34
0.0
 15
-758.8588079312533
 25
-864.3451441134963
 35
0.0
146
0.0
 13
0.0
 23
0.0
 33
0.0
 16
1.0
 26
0.0
 36
0.0
 17
0.0
 27
1.0
 37
0.0
 76
     0
330
1F
331
29
  0
MATERIAL
  5
45
102
{ACAD_REACTORS
330
43
102
}
102
{ACAD_XDICTIONARY
360
2C7
102
}
330
43
100
AcDbMaterial
  1
ByBlock
  0
MATERIAL
  5
44
102
{ACAD_REACTORS
330
43
102
}
102
{ACAD_XDICTIONARY
360
2C5
102
}
330
43
100
AcDbMaterial
  1
ByLayer
  0
MATERIAL
  5
46
102
{ACAD_REACTORS
330
43
102
}
102
{ACAD_XDICTIONARY
360
2C9
102
}
330
43
100
AcDbMaterial
  1
Global
  0
MLEADERSTYLE
  5
6C
102
{ACAD_REACTORS
330
6B
102
}
102
{ACAD_XDICTIONARY
360
2CF
102
}
330
6B
100
AcDbMLeaderStyle
170
     2
171
     1
172
     0
 90
        2
 40
0.0
 41
0.0
173
     1
 91
-1056964608
340
14
 92
       -2
290
     1
 42
0.09
291
     1
 43
0.36
  3
Standard
341
0
 44
0.18
300

342
11
174
     1
178
     6
175
     1
176
     0
 93
-1056964608
 45
0.18
292
     0
297
     0
 46
0.18
343
0
 94
-1056964608
 47
1.0
 49
1.0
140
1.0
293
     1
141
0.0
294
     1
177
     0
142
1.0
295
     0
296
     0
143
0.125
1001
ACAD_MLEADERVER
1070
     2
  0
MLINESTYLE
  5
18
102
{ACAD_REACTORS
330
17
102
}
330
17
100
AcDbMlineStyle
  2
Standard
 70
     0
  3

 62
   256
 51
90.0
 52
90.0
 71
     2
 49
0.5
 62
   256
  6
BYLAYER
 49
-0.5
 62
   256
  6
BYLAYER
  0
ACDBPLACEHOLDER
  5
F
102
{ACAD_REACTORS
330
E
102
}
330
E
  0
SCALE
  5
48
102
{ACAD_REACTORS
330
47
102
}
330
47
100
AcDbScale
 70
     0
300
1:1
140
1.0
141
1.0
290
     1
  0
SCALE
  5
49
102
{ACAD_REACTORS
330
47
102
}
330
47
100
AcDbScale
 70
     0
300
1:2
140
1.0
141
2.0
290
     0
  0
SCALE
  5
4A
102
{ACAD_REACTORS
330
47
102
}
330
47
100
AcDbScale
 70
     0
300
1:4
140
1.0
141
4.0
290
     0
  0
SCALE
  5
4B
102
{ACAD_REACTORS
330
47
102
}
330
47
100
AcDbScale
 70
     0
300
1:5
140
1.0
141
5.0
290
     0
  0
SCALE
  5
4C
102
{ACAD_REACTORS
330
47
102
}
330
47
100
AcDbScale
 70
     0
300
1:8
140
1.0
141
8.0
290
     0
  0
SCALE
  5
4D
102
{ACAD_REACTORS
330
47
102
}
330
47
100
AcDbScale
 70
     0
300
1:10
140
1.0
141
10.0
290
     0
  0
SCALE
  5
4E
102
{ACAD_REACTORS
330
47
102
}
330
47
100
AcDbScale
 70
     0
300
1:16
140
1.0
141
16.0
290
     0
  0
SCALE
  5
4F
102
{ACAD_REACTORS
330
47
102
}
330
47
100
AcDbScale
 70
     0
300
1:20
140
1.0
141
20.0
290
     0
  0
SCALE
  5
50
102
{ACAD_REACTORS
330
47
102
}
330
47
100
AcDbScale
 70
     0
300
1:30
140
1.0
141
30.0
290
     0
  0
SCALE
  5
51
102
{ACAD_REACTORS
330
47
102
}
330
47
100
AcDbScale
 70
     0
300
1:40
140
1.0
141
40.0
290
     0
  0
SCALE
  5
52
102
{ACAD_REACTORS
330
47
102
}
330
47
100
AcDbScale
 70
     0
300
1:50
140
1.0
141
50.0
290
     0
  0
SCALE
  5
53
102
{ACAD_REACTORS
330
47
102
}
330
47
100
AcDbScale
 70
     0
300
1:100
140
1.0
141
100.0
290
     0
  0
SCALE
  5
54
102
{ACAD_REACTORS
330
47
102
}
330
47
100
AcDbScale
 70
     0
300
2:1
140
2.0
141
1.0
290
     0
  0
SCALE
  5
55
102
{ACAD_REACTORS
330
47
102
}
330
47
100
AcDbScale
 70
     0
300
4:1
140
4.0
141
1.0
290
     0
  0
SCALE
  5
56
102
{ACAD_REACTORS
330
47
102
}
330
47
100
AcDbScale
 70
     0
300
8:1
140
8.0
141
1.0
290
     0
  0
SCALE
  5
57
102
{ACAD_REACTORS
330
47
102
}
330
47
100
AcDbScale
 70
     0
300
10:1
140
10.0
141
1.0
290
     0
  0
SCALE
  5
58
102
{ACAD_REACTORS
330
47
102
}
330
47
100
AcDbScale
 70
     0
300
100:1
140
100.0
141
1.0
290
     0
  0
SCALE
  5
59
102
{ACAD_REACTORS
330
47
102
}
330
47
100
AcDbScale
 70
     0
300
1/128" = 1'-0"
140
0.0078125
141
12.0
290
     0
  0
SCALE
  5
5A
102
{ACAD_REACTORS
330
47
102
}
330
47
100
AcDbScale
 70
     0
300
1/64" = 1'-0"
140
0.015625
141
12.0
290
     0
  0
SCALE
  5
5B
102
{ACAD_REACTORS
330
47
102
}
330
47
100
AcDbScale
 70
     0
300
1/32" = 1'-0"
140
0.03125
141
12.0
290
     0
  0
SCALE
  5
5C
102
{ACAD_REACTORS
330
47
102
}
330
47
100
AcDbScale
 70
     0
300
1/16" = 1'-0"
140
0.0625
141
12.0
290
     0
  0
SCALE
  5
5D
102
{ACAD_REACTORS
330
47
102
}
330
47
100
AcDbScale
 70
     0
300
3/32" = 1'-0"
140
0.09375
141
12.0
290
     0
  0
SCALE
  5
5E
102
{ACAD_REACTORS
330
47
102
}
330
47
100
AcDbScale
 70
     0
300
1/8" = 1'-0"
140
0.125
141
12.0
290
     0
  0
SCALE
  5
5F
102
{ACAD_REACTORS
330
47
102
}
330
47
100
AcDbScale
 70
     0
300
3/16" = 1'-0"
140
0.1875
141
12.0
290
     0
  0
SCALE
  5
60
102
{ACAD_REACTORS
330
47
102
}
330
47
100
AcDbScale
 70
     0
300
1/4" = 1'-0"
140
0.25
141
12.0
290
     0
  0
SCALE
  5
61
102
{ACAD_REACTORS
330
47
102
}
330
47
100
AcDbScale
 70
     0
300
3/8" = 1'-0"
140
0.375
141
12.0
290
     0
  0
SCALE
  5
62
102
{ACAD_REACTORS
330
47
102
}
330
47
100
AcDbScale
 70
     0
300
1/2" = 1'-0"
140
0.5
141
12.0
290
     0
  0
SCALE
  5
63
102
{ACAD_REACTORS
330
47
102
}
330
47
100
AcDbScale
 70
     0
300
3/4" = 1'-0"
140
0.75
141
12.0
290
     0
  0
SCALE
  5
64
102
{ACAD_REACTORS
330
47
102
}
330
47
100
AcDbScale
 70
     0
300
1" = 1'-0"
140
1.0
141
12.0
290
     0
  0
SCALE
  5
65
102
{ACAD_REACTORS
330
47
102
}
330
47
100
AcDbScale
 70
     0
300
1-1/2" = 1'-0"
140
1.5
141
12.0
290
     0
  0
SCALE
  5
66
102
{ACAD_REACTORS
330
47
102
}
330
47
100
AcDbScale
 70
     0
300
3" = 1'-0"
140
3.0
141
12.0
290
     0
  0
SCALE
  5
67
102
{ACAD_REACTORS
330
47
102
}
330
47
100
AcDbScale
 70
     0
300
6" = 1'-0"
140
6.0
141
12.0
290
     0
  0
SCALE
  5
68
102
{ACAD_REACTORS
330
47
102
}
330
47
100
AcDbScale
 70
     0
300
1'-0" = 1'-0"
140
12.0
141
12.0
290
     0
  0
TABLESTYLE
  5
6A
102
{ACAD_REACTORS
330
69
102
}
102
{ACAD_XDICTIONARY
360
2CB
102
}
330
69
100
AcDbTableStyle
  3
Standard
 70
     0
 71
     0
 40
0.06
 41
0.06
280
     0
281
     0
  7
Standard
140
0.18
170
     2
 62
     0
 63
   257
283
     0
274
    -2
284
     1
 64
     0
275
    -2
285
     1
 65
     0
276
    -2
286
     1
 66
     0
277
    -2
287
     1
 67
     0
278
    -2
288
     1
 68
     0
279
    -2
289
     1
 69
     0
  7
Standard
140
0.25
170
     5
 62
     0
 63
   257
283
     0
274
    -2
284
     1
 64
     0
275
    -2
285
     1
 65
     0
276
    -2
286
     1
 66
     0
277
    -2
287
     1
 67
     0
278
    -2
288
     1
 68
     0
279
    -2
289
     1
 69
     0
  7
Standard
140
0.18
170
     5
 62
     0
 63
   257
283
     0
274
    -2
284
     1
 64
     0
275
    -2
285
     1
 65
     0
276
    -2
286
     1
 66
     0
277
    -2
287
     1
 67
     0
278
    -2
288
     1
 68
     0
279
    -2
289
     1
 69
     0
  0
VISUALSTYLE
  5
2F
102
{ACAD_REACTORS
330
2A
102
}
102
{ACAD_XDICTIONARY
360
29D
102
}
330
2A
100
AcDbVisualStyle
  2
2dWireframe
 70
     4
 71
     0
 72
     2
 73
     0
 90
        0
 40
0.6
 41
30.0
 62
     5
 63
     7
421
 16777215
 74
     1
 91
        4
 64
     7
 65
   257
 75
     1
175
     1
 42
1.0
 92
        0
 66
   257
 43
1.0
 76
     1
 77
     6
 78
     2
 67
     7
 79
     5
170
     0
171
     0
290
     0
174
     0
 93
        1
 44
0.0
173
     0
291
     0
 45
0.0
1001
ACAD
1000
AcDbSavedByObjectVersion
1070
     0
  0
VISUALSTYLE
  5
32
102
{ACAD_REACTORS
330
2A
102
}
102
{ACAD_XDICTIONARY
360
2A3
102
}
330
2A
100
AcDbVisualStyle
  2
Basic
 70
     7
 71
     1
 72
     0
 73
     1
 90
        0
 40
0.6
 41
30.0
 62
     5
 63
     7
421
 16777215
 74
     0
 91
        4
 64
     7
 65
   257
 75
     1
175
     1
 42
1.0
 92
        8
 66
     7
 43
1.0
 76
     1
 77
     6
 78
     2
 67
     7
 79
     5
170
     0
171
     0
290
     0
174
     0
 93
        1
 44
0.0
173
     0
291
     1
 45
0.0
1001
ACAD
1000
AcDbSavedByObjectVersion
1070
     0
  0
VISUALSTYLE
  5
36
102
{ACAD_REACTORS
330
2A
102
}
102
{ACAD_XDICTIONARY
360
2AB
102
}
330
2A
100
AcDbVisualStyle
  2
Brighten
 70
    12
 71
     2
 72
     2
 73
     0
 90
        0
 40
0.6
 41
30.0
 62
     5
 63
     7
421
 16777215
 74
     1
 91
        4
 64
     7
 65
   257
 75
     1
175
     1
 42
1.0
 92
        8
 66
     7
 43
1.0
 76
     1
 77
     6
 78
     2
 67
     7
 79
     5
170
     0
171
     0
290
     0
174
     0
 93
        1
 44
50.0
173
     0
291
     1
 45
0.0
1001
ACAD
1000
AcDbSavedByObjectVersion
1070
     0
  0
VISUALSTYLE
  5
3A
102
{ACAD_REACTORS
330
2A
102
}
102
{ACAD_XDICTIONARY
360
2B3
102
}
330
2A
100
AcDbVisualStyle
  2
ColorChange
 70
    16
 71
     2
 72
     2
 73
     3
 90
        0
 40
0.6
 41
30.0
 62
     5
 63
     8
421
  8421504
 74
     1
 91
        4
 64
     7
 65
   257
 75
     1
175
     1
 42
1.0
 92
        8
 66
     8
424
  8421504
 43
1.0
 76
     1
 77
     6
 78
     2
 67
     7
 79
     5
170
     0
171
     0
290
     0
174
     0
 93
        1
 44
0.0
173
     0
291
     1
 45
0.0
1001
ACAD
1000
AcDbSavedByObjectVersion
1070
     0
  0
VISUALSTYLE
  5
34
102
{ACAD_REACTORS
330
2A
102
}
102
{ACAD_XDICTIONARY
360
2A7
102
}
330
2A
100
AcDbVisualStyle
  2
Conceptual
 70
     9
 71
     3
 72
     2
 73
     0
 90
        0
 40
0.6
 41
30.0
 62
     5
 63
     7
421
 16777215
 74
     2
 91
        2
 64
     7
 65
   257
 75
     1
175
     1
 42
179.0
 92
        8
 66
     7
 43
1.0
 76
     1
 77
     6
 78
     2
 67
     7
 79
     3
170
     0
171
     0
290
     0
174
     0
 93
        1
 44
0.0
173
     0
291
     0
 45
0.0
1001
ACAD
1000
AcDbSavedByObjectVersion
1070
     0
  0
VISUALSTYLE
  5
35
102
{ACAD_REACTORS
330
2A
102
}
102
{ACAD_XDICTIONARY
360
2A9
102
}
330
2A
100
AcDbVisualStyle
  2
Dim
 70
    11
 71
     2
 72
     2
 73
     0
 90
        0
 40
0.6
 41
30.0
 62
     5
 63
     7
421
 16777215
 74
     1
 91
        4
 64
     7
 65
   257
 75
     1
175
     1
 42
1.0
 92
        8
 66
     7
 43
1.0
 76
     1
 77
     6
 78
     2
 67
     7
 79
     5
170
     0
171
     0
290
     0
174
     0
 93
        1
 44
-50.0
173
     0
291
     1
 45
0.0
1001
ACAD
1000
AcDbSavedByObjectVersion
1070
     0
  0
VISUALSTYLE
  5
3D
102
{ACAD_REACTORS
330
2A
102
}
102
{ACAD_XDICTIONARY
360
2B9
102
}
330
2A
100
AcDbVisualStyle
  2
EdgeColorOff
 70
    22
 71
     2
 72
     2
 73
     0
 90
        0
 40
0.6
 41
30.0
 62
     5
 63
     7
421
 16777215
 74
     1
 91
        4
 64
     7
 65
   257
 75
     1
175
     1
 42
1.0
 92
        8
 66
     7
 43
1.0
 76
     1
 77
     6
 78
     2
 67
     7
 79
     5
170
     0
171
     0
290
     0
174
     0
 93
        1
 44
0.0
173
     0
291
     1
 45
0.0
1001
ACAD
1000
AcDbSavedByObjectVersion
1070
     0
  0
VISUALSTYLE
  5
39
102
{ACAD_REACTORS
330
2A
102
}
102
{ACAD_XDICTIONARY
360
2B1
102
}
330
2A
100
AcDbVisualStyle
  2
Facepattern
 70
    15
 71
     2
 72
     2
 73
     0
 90
        0
 40
0.6
 41
30.0
 62
     5
 63
     7
421
 16777215
 74
     1
 91
        4
 64
     7
 65
   257
 75
     1
175
     1
 42
1.0
 92
        8
 66
     7
 43
1.0
 76
     1
 77
     6
 78
     2
 67
     7
 79
     5
170
     0
171
     0
290
     0
174
     0
 93
        1
 44
0.0
173
     0
291
     1
 45
0.0
1001
ACAD
1000
AcDbSavedByObjectVersion
1070
     0
  0
VISUALSTYLE
  5
2B
102
{ACAD_REACTORS
330
2A
102
}
102
{ACAD_XDICTIONARY
360
295
102
}
330
2A
100
AcDbVisualStyle
  2
Flat
 70
     0
 71
     2
 72
     1
 73
     1
 90
        2
 40
0.6
 41
30.0
 62
     5
 63
     7
421
 16777215
 74
     0
 91
        0
 64
     7
 65
   257
 75
     1
175
     1
 42
1.0
 92
        8
 66
     7
 43
1.0
 76
     1
 77
     6
 78
     2
 67
     7
 79
     5
170
     0
171
     0
290
     0
174
     0
 93
       13
 44
0.0
173
     0
291
     1
 45
0.0
1001
ACAD
1000
AcDbSavedByObjectVersion
1070
     0
  0
VISUALSTYLE
  5
2C
102
{ACAD_REACTORS
330
2A
102
}
102
{ACAD_XDICTIONARY
360
297
102
}
330
2A
100
AcDbVisualStyle
  2
FlatWithEdges
 70
     1
 71
     2
 72
     1
 73
     1
 90
        2
 40
0.6
 41
30.0
 62
     5
 63
     7
421
 16777215
 74
     1
 91
        0
 64
     7
 65
   257
 75
     1
175
     1
 42
1.0
 92
        0
 66
   257
 43
1.0
 76
     1
 77
     6
 78
     2
 67
     7
 79
     5
170
     0
171
     0
290
     0
174
     0
 93
       13
 44
0.0
173
     0
291
     1
 45
0.0
1001
ACAD
1000
AcDbSavedByObjectVersion
1070
     0
  0
VISUALSTYLE
  5
2D
102
{ACAD_REACTORS
330
2A
102
}
102
{ACAD_XDICTIONARY
360
299
102
}
330
2A
100
AcDbVisualStyle
  2
Gouraud
 70
     2
 71
     2
 72
     2
 73
     1
 90
        2
 40
0.6
 41
30.0
 62
     5
 63
     7
421
 16777215
 74
     0
 91
        0
 64
     7
 65
   257
 75
     1
175
     1
 42
1.0
 92
        0
 66
     7
 43
1.0
 76
     1
 77
     6
 78
     2
 67
     7
 79
     5
170
     0
171
     0
290
     0
174
     0
 93
       13
 44
0.0
173
     0
291
     1
 45
0.0
1001
ACAD
1000
AcDbSavedByObjectVersion
1070
     0
  0
VISUALSTYLE
  5
2E
102
{ACAD_REACTORS
330
2A
102
}
102
{ACAD_XDICTIONARY
360
29B
102
}
330
2A
100
AcDbVisualStyle
  2
GouraudWithEdges
 70
     3
 71
     2
 72
     2
 73
     1
 90
        2
 40
0.6
 41
30.0
 62
     5
 63
     7
421
 16777215
 74
     1
 91
        0
 64
     7
 65
   257
 75
     1
175
     1
 42
1.0
 92
        0
 66
   257
 43
1.0
 76
     1
 77
     6
 78
     2
 67
     7
 79
     5
170
     0
171
     0
290
     0
174
     0
 93
       13
 44
0.0
173
     0
291
     1
 45
0.0
1001
ACAD
1000
AcDbSavedByObjectVersion
1070
     0
  0
VISUALSTYLE
  5
31
102
{ACAD_REACTORS
330
2A
102
}
102
{ACAD_XDICTIONARY
360
2A1
102
}
330
2A
100
AcDbVisualStyle
  2
Hidden
 70
     6
 71
     1
 72
     2
 73
     2
 90
        0
 40
0.6
 41
30.0
 62
     5
 63
     7
421
 16777215
 74
     2
 91
        2
 64
     7
 65
   257
 75
     2
175
     1
 42
40.0
 92
        0
 66
   257
 43
1.0
 76
     1
 77
     6
 78
     2
 67
     7
 79
     3
170
     0
171
     0
290
     0
174
     0
 93
        1
 44
0.0
173
     0
291
     0
 45
0.0
1001
ACAD
1000
AcDbSavedByObjectVersion
1070
     0
  0
VISUALSTYLE
  5
3B
102
{ACAD_REACTORS
330
2A
102
}
102
{ACAD_XDICTIONARY
360
2B5
102
}
330
2A
100
AcDbVisualStyle
  2
JitterOff
 70
    20
 71
     2
 72
     2
 73
     0
 90
        0
 40
0.6
 41
30.0
 62
     5
 63
     7
421
 16777215
 74
     1
 91
        4
 64
     7
 65
   257
 75
     1
175
     1
 42
1.0
 92
       10
 66
     7
 43
1.0
 76
     1
 77
     6
 78
     2
 67
     7
 79
     5
170
     0
171
     0
290
     0
174
     0
 93
        1
 44
0.0
173
     0
291
     1
 45
0.0
1001
ACAD
1000
AcDbSavedByObjectVersion
1070
     0
  0
VISUALSTYLE
  5
38
102
{ACAD_REACTORS
330
2A
102
}
102
{ACAD_XDICTIONARY
360
2AF
102
}
330
2A
100
AcDbVisualStyle
  2
Linepattern
 70
    14
 71
     2
 72
     2
 73
     0
 90
        0
 40
0.6
 41
30.0
 62
     5
 63
     7
421
 16777215
 74
     1
 91
        4
 64
     7
 65
   257
 75
     7
175
     7
 42
1.0
 92
        8
 66
     7
 43
1.0
 76
     1
 77
     6
 78
     2
 67
     7
 79
     5
170
     0
171
     0
290
     0
174
     0
 93
        1
 44
0.0
173
     0
291
     1
 45
0.0
1001
ACAD
1000
AcDbSavedByObjectVersion
1070
     0
  0
VISUALSTYLE
  5
3C
102
{ACAD_REACTORS
330
2A
102
}
102
{ACAD_XDICTIONARY
360
2B7
102
}
330
2A
100
AcDbVisualStyle
  2
OverhangOff
 70
    21
 71
     2
 72
     2
 73
     0
 90
        0
 40
0.6
 41
30.0
 62
     5
 63
     7
421
 16777215
 74
     1
 91
        4
 64
     7
 65
   257
 75
     1
175
     1
 42
1.0
 92
        9
 66
     7
 43
1.0
 76
     1
 77
     6
 78
     2
 67
     7
 79
     5
170
     0
171
     0
290
     0
174
     0
 93
        1
 44
0.0
173
     0
291
     1
 45
0.0
1001
ACAD
1000
AcDbSavedByObjectVersion
1070
     0
  0
VISUALSTYLE
  5
33
102
{ACAD_REACTORS
330
2A
102
}
102
{ACAD_XDICTIONARY
360
2A5
102
}
330
2A
100
AcDbVisualStyle
  2
Realistic
 70
     8
 71
     2
 72
     3
 73
     0
 90
        2
 40
0.6
 41
30.0
 62
     5
 63
     7
421
 16777215
 74
     0
 91
        0
 64
     7
 65
   257
 75
     1
175
     1
 42
1.0
 92
        8
 66
   257
 43
1.0
 76
     1
 77
     6
 78
     2
 67
     7
 79
     3
170
     0
171
     0
290
     0
174
     0
 93
       13
 44
0.0
173
     0
291
     0
 45
0.0
1001
ACAD
1000
AcDbSavedByObjectVersion
1070
     0
  0
VISUALSTYLE
  5
42
102
{ACAD_REACTORS
330
2A
102
}
102
{ACAD_XDICTIONARY
360
2C3
102
}
330
2A
100
AcDbVisualStyle
  2
Shaded
 70
    27
 71
     2
 72
     2
 73
     1
 90
        2
 40
0.6
 41
30.0
 62
     5
 63
     7
421
 16777215
 74
     0
 91
        4
 64
     7
 65
   257
 75
     1
175
     1
 42
1.0
 92
        8
 66
   257
 43
1.0
 76
     1
 77
     6
 78
     2
 67
     8
425
  7895160
 79
     3
170
     0
171
     0
290
     0
174
     0
 93
        5
 44
0.0
173
     0
291
     0
 45
0.0
1001
ACAD
1000
AcDbSavedByObjectVersion
1070
     0
  0
VISUALSTYLE
  5
41
102
{ACAD_REACTORS
330
2A
102
}
102
{ACAD_XDICTIONARY
360
2C1
102
}
330
2A
100
AcDbVisualStyle
  2
Shaded with edges
 70
    26
 71
     2
 72
     2
 73
     1
 90
        2
 40
0.6
 41
30.0
 62
     5
 63
     7
421
 16777215
 74
     1
 91
       10
 64
     7
 65
   257
 75
     2
175
     1
 42
1.0
 92
        8
 66
   257
 43
1.0
 76
     1
 77
     6
 78
     2
 67
     7
 79
     3
170
     0
171
     0
290
     0
174
     0
 93
        5
 44
0.0
173
     0
291
     0
 45
0.0
1001
ACAD
1000
AcDbSavedByObjectVersion
1070
     0
  0
VISUALSTYLE
  5
3E
102
{ACAD_REACTORS
330
2A
102
}
102
{ACAD_XDICTIONARY
360
2BB
102
}
330
2A
100
AcDbVisualStyle
  2
Shades of Gray
 70
    23
 71
     2
 72
     2
 73
     3
 90
        0
 40
0.6
 41
30.0
 62
     5
 63
     7
421
 16777215
 74
     2
 91
        2
 64
     7
 65
     7
 75
     1
175
     1
 42
40.0
 92
        8
 66
     7
 43
1.0
 76
     1
 77
     6
 78
     2
 67
     7
 79
     3
170
     0
171
     0
290
     0
174
     0
 93
        1
 44
0.0
173
     0
291
     0
 45
0.0
1001
ACAD
1000
AcDbSavedByObjectVersion
1070
     0
  0
VISUALSTYLE
  5
3F
102
{ACAD_REACTORS
330
2A
102
}
102
{ACAD_XDICTIONARY
360
2BD
102
}
330
2A
100
AcDbVisualStyle
  2
Sketchy
 70
    24
 71
     1
 72
     2
 73
     2
 90
        0
 40
0.6
 41
30.0
 62
     5
 63
     7
421
 16777215
 74
     2
 91
        2
 64
     7
 65
     7
 75
     1
175
     1
 42
40.0
 92
       11
 66
     7
 43
1.0
 76
     1
 77
     6
 78
     2
 67
     7
 79
     6
170
     0
171
     0
290
     0
174
     0
 93
        1
 44
0.0
173
     0
291
     0
 45
0.0
1001
ACAD
1000
AcDbSavedByObjectVersion
1070
     0
  0
VISUALSTYLE
  5
37
102
{ACAD_REACTORS
330
2A
102
}
102
{ACAD_XDICTIONARY
360
2AD
102
}
330
2A
100
AcDbVisualStyle
  2
Thicken
 70
    13
 71
     2
 72
     2
 73
     0
 90
        0
 40
0.6
 41
30.0
 62
     5
 63
     7
421
 16777215
 74
     1
 91
        4
 64
     7
 65
   257
 75
     1
175
     1
 42
1.0
 92
       12
 66
     7
 43
1.0
 76
     1
 77
     6
 78
     2
 67
     7
 79
     5
170
     0
171
     0
290
     0
174
     0
 93
        1
 44
0.0
173
     0
291
     1
 45
0.0
1001
ACAD
1000
AcDbSavedByObjectVersion
1070
     0
  0
VISUALSTYLE
  5
30
102
{ACAD_REACTORS
330
2A
102
}
102
{ACAD_XDICTIONARY
360
29F
102
}
330
2A
100
AcDbVisualStyle
  2
Wireframe
 70
     5
 71
     0
 72
     2
 73
     0
 90
        0
 40
0.6
 41
30.0
 62
     5
 63
     7
421
 16777215
 74
     1
 91
        4
 64
     7
 65
   257
 75
     1
175
     1
 42
1.0
 92
        0
 66
   257
 43
1.0
 76
     1
 77
     6
 78
     2
 67
     7
 79
     3
170
     0
171
     0
290
     0
174
     0
 93
        1
 44
0.0
173
     0
291
     0
 45
0.0
1001
ACAD
1000
AcDbSavedByObjectVersion
1070
     0
  0
VISUALSTYLE
  5
40
102
{ACAD_REACTORS
330
2A
102
}
102
{ACAD_XDICTIONARY
360
2BF
102
}
330
2A
100
AcDbVisualStyle
  2
X-Ray
 70
    25
 71
     2
 72
     2
 73
     1
 90
        1
 40
0.5
 41
30.0
 62
     5
 63
     7
421
 16777215
 74
     1
 91
        0
 64
     7
 65
   257
 75
     1
175
     1
 42
1.0
 92
        8
 66
     7
 43
1.0
 76
     1
 77
     6
 78
     2
 67
     7
 79
     3
170
     0
171
     0
290
     0
174
     0
 93
       13
 44
0.0
173
     0
291
     0
 45
0.0
1001
ACAD
1000
AcDbSavedByObjectVersion
1070
     0
  0
DICTIONARYVAR
  5
292
102
{ACAD_REACTORS
330
291
102
}
330
291
100
DictionaryVariables
280
     0
  1
1:1
  0
DICTIONARYVAR
  5
2D3
102
{ACAD_REACTORS
330
291
102
}
330
291
100
DictionaryVariables
280
     0
  1
Standard
  0
DICTIONARYVAR
  5
2D2
102
{ACAD_REACTORS
330
291
102
}
330
291
100
DictionaryVariables
280
     0
  1
Standard
  0
DICTIONARYVAR
  5
293
102
{ACAD_REACTORS
330
291
102
}
330
291
100
DictionaryVariables
280
     0
  1
1
  0
DICTIONARYVAR
  5
294
102
{ACAD_REACTORS
330
291
102
}
330
291
100
DictionaryVariables
280
     0
  1
2
  0
DICTIONARY
  5
2C7
330
45
100
AcDbDictionary
280
     1
281
     1
  3
ACAD_XREC_ROUNDTRIP
360
2C8
  0
DICTIONARY
  5
2C5
330
44
100
AcDbDictionary
280
     1
281
     1
  3
ACAD_XREC_ROUNDTRIP
360
2C6
  0
DICTIONARY
  5
2C9
330
46
100
AcDbDictionary
280
     1
281
     1
  3
ACAD_XREC_ROUNDTRIP
360
2CA
  0
DICTIONARY
  5
2CF
330
6C
100
AcDbDictionary
280
     1
281
     1
  3
ACAD_XREC_ROUNDTRIP
360
2D0
  0
DICTIONARY
  5
2CB
330
6A
100
AcDbDictionary
280
     1
281
     1
  3
ACAD_ROUNDTRIP_2008_TABLESTYLE_CELLSTYLEMAP
360
2CD
  3
ACAD_XREC_ROUNDTRIP
360
2CC
  0
DICTIONARY
  5
29D
330
2F
100
AcDbDictionary
280
     1
281
     1
  3
ACAD_XREC_ROUNDTRIP
360
29E
  0
DICTIONARY
  5
2A3
330
32
100
AcDbDictionary
280
     1
281
     1
  3
ACAD_XREC_ROUNDTRIP
360
2A4
  0
DICTIONARY
  5
2AB
330
36
100
AcDbDictionary
280
     1
281
     1
  3
ACAD_XREC_ROUNDTRIP
360
2AC
  0
DICTIONARY
  5
2B3
330
3A
100
AcDbDictionary
280
     1
281
     1
  3
ACAD_XREC_ROUNDTRIP
360
2B4
  0
DICTIONARY
  5
2A7
330
34
100
AcDbDictionary
280
     1
281
     1
  3
ACAD_XREC_ROUNDTRIP
360
2A8
  0
DICTIONARY
  5
2A9
330
35
100
AcDbDictionary
280
     1
281
     1
  3
ACAD_XREC_ROUNDTRIP
360
2AA
  0
DICTIONARY
  5
2B9
330
3D
100
AcDbDictionary
280
     1
281
     1
  3
ACAD_XREC_ROUNDTRIP
360
2BA
  0
DICTIONARY
  5
2B1
330
39
100
AcDbDictionary
280
     1
281
     1
  3
ACAD_XREC_ROUNDTRIP
360
2B2
  0
DICTIONARY
  5
295
330
2B
100
AcDbDictionary
280
     1
281
     1
  3
ACAD_XREC_ROUNDTRIP
360
296
  0
DICTIONARY
  5
297
330
2C
100
AcDbDictionary
280
     1
281
     1
  3
ACAD_XREC_ROUNDTRIP
360
298
  0
DICTIONARY
  5
299
330
2D
100
AcDbDictionary
280
     1
281
     1
  3
ACAD_XREC_ROUNDTRIP
360
29A
  0
DICTIONARY
  5
29B
330
2E
100
AcDbDictionary
280
     1
281
     1
  3
ACAD_XREC_ROUNDTRIP
360
29C
  0
DICTIONARY
  5
2A1
330
31
100
AcDbDictionary
280
     1
281
     1
  3
ACAD_XREC_ROUNDTRIP
360
2A2
  0
DICTIONARY
  5
2B5
330
3B
100
AcDbDictionary
280
     1
281
     1
  3
ACAD_XREC_ROUNDTRIP
360
2B6
  0
DICTIONARY
  5
2AF
330
38
100
AcDbDictionary
280
     1
281
     1
  3
ACAD_XREC_ROUNDTRIP
360
2B0
  0
DICTIONARY
  5
2B7
330
3C
100
AcDbDictionary
280
     1
281
     1
  3
ACAD_XREC_ROUNDTRIP
360
2B8
  0
DICTIONARY
  5
2A5
330
33
100
AcDbDictionary
280
     1
281
     1
  3
ACAD_XREC_ROUNDTRIP
360
2A6
  0
DICTIONARY
  5
2C3
330
42
100
AcDbDictionary
280
     1
281
     1
  3
ACAD_XREC_ROUNDTRIP
360
2C4
  0
DICTIONARY
  5
2C1
330
41
100
AcDbDictionary
280
     1
281
     1
  3
ACAD_XREC_ROUNDTRIP
360
2C2
  0
DICTIONARY
  5
2BB
330
3E
100
AcDbDictionary
280
     1
281
     1
  3
ACAD_XREC_ROUNDTRIP
360
2BC
  0
DICTIONARY
  5
2BD
330
3F
100
AcDbDictionary
280
     1
281
     1
  3
ACAD_XREC_ROUNDTRIP
360
2BE
  0
DICTIONARY
  5
2AD
330
37
100
AcDbDictionary
280
     1
281
     1
  3
ACAD_XREC_ROUNDTRIP
360
2AE
  0
DICTIONARY
  5
29F
330
30
100
AcDbDictionary
280
     1
281
     1
  3
ACAD_XREC_ROUNDTRIP
360
2A0
  0
DICTIONARY
  5
2BF
330
40
100
AcDbDictionary
280
     1
281
     1
  3
ACAD_XREC_ROUNDTRIP
360
2C0
  0
XRECORD
  5
2C8
102
{ACAD_REACTORS
330
2C7
102
}
330
2C7
100
AcDbXrecord
280
     1
102
MATERIAL
148
0.0
149
0.0
149
0.0
 93
        0
 94
      127
282
     0
 72
     1
 77
     1
171
     1
175
     1
179
     1
273
     0
  0
XRECORD
  5
2C6
102
{ACAD_REACTORS
330
2C5
102
}
330
2C5
100
AcDbXrecord
280
     1
102
MATERIAL
148
0.0
149
0.0
149
0.0
 93
        0
 94
      127
282
     0
 72
     1
 77
     1
171
     1
175
     1
179
     1
273
     0
  0
XRECORD
  5
2CA
102
{ACAD_REACTORS
330
2C9
102
}
330
2C9
100
AcDbXrecord
280
     1
102
MATERIAL
148
0.0
149
0.0
149
0.0
 93
        0
 94
      127
282
     0
 72
     1
 77
     1
171
     1
175
     1
179
     1
273
     0
  0
XRECORD
  5
2D0
102
{ACAD_REACTORS
330
2CF
102
}
330
2CF
100
AcDbXrecord
280
     1
102
ACAD_ROUNDTRIP_2010_MLEADER_STYLE
  0
CELLSTYLEMAP
  5
2CD
102
{ACAD_REACTORS
330
2CB
102
}
330
2CB
100
AcDbCellStyleMap
 90
        3
300
CELLSTYLE
  1
TABLEFORMAT_BEGIN
 90
        5
170
     1
 91
        0
 92
    32768
 62
   257
 93
        1
300
CONTENTFORMAT
  1
CONTENTFORMAT_BEGIN
 90
        0
 91
        0
 92
        4
 93
        0
300

 40
0.0
140
1.0
 94
        5
 62
     0
340
11
144
0.25
309
CONTENTFORMAT_END
171
     1
301
MARGIN
  1
CELLMARGIN_BEGIN
 40
0.06
 40
0.06
 40
0.06
 40
0.06
 40
0.06
 40
0.06
309
CELLMARGIN_END
 94
        6
 95
        1
302
GRIDFORMAT
  1
GRIDFORMAT_BEGIN
 90
        0
 91
        1
 62
     0
 92
       -2
340
14
 93
        0
 40
0.045
309
GRIDFORMAT_END
 95
        2
302
GRIDFORMAT
  1
GRIDFORMAT_BEGIN
 90
        0
 91
        1
 62
     0
 92
       -2
340
14
 93
        0
 40
0.045
309
GRIDFORMAT_END
 95
        4
302
GRIDFORMAT
  1
GRIDFORMAT_BEGIN
 90
        0
 91
        1
 62
     0
 92
       -2
340
14
 93
        0
 40
0.045
309
GRIDFORMAT_END
 95
        8
302
GRIDFORMAT
  1
GRIDFORMAT_BEGIN
 90
        0
 91
        1
 62
     0
 92
       -2
340
14
 93
        0
 40
0.045
309
GRIDFORMAT_END
 95
       16
302
GRIDFORMAT
  1
GRIDFORMAT_BEGIN
 90
        0
 91
        1
 62
     0
 92
       -2
340
14
 93
        0
 40
0.045
309
GRIDFORMAT_END
 95
       32
302
GRIDFORMAT
  1
GRIDFORMAT_BEGIN
 90
        0
 91
        1
 62
     0
 92
       -2
340
14
 93
        0
 40
0.045
309
GRIDFORMAT_END
309
TABLEFORMAT_END
  1
CELLSTYLE_BEGIN
 90
        1
 91
        1
300
_TITLE
309
CELLSTYLE_END
300
CELLSTYLE
  1
TABLEFORMAT_BEGIN
 90
        5
170
     1
 91
        0
 92
        0
 62
   257
 93
        1
300
CONTENTFORMAT
  1
CONTENTFORMAT_BEGIN
 90
        0
 91
        0
 92
        4
 93
        0
300

 40
0.0
140
1.0
 94
        5
 62
     0
340
11
144
0.18
309
CONTENTFORMAT_END
171
     1
301
MARGIN
  1
CELLMARGIN_BEGIN
 40
0.06
 40
0.06
 40
0.06
 40
0.06
 40
0.06
 40
0.06
309
CELLMARGIN_END
 94
        6
 95
        1
302
GRIDFORMAT
  1
GRIDFORMAT_BEGIN
 90
        0
 91
        1
 62
     0
 92
       -2
340
14
 93
        0
 40
0.045
309
GRIDFORMAT_END
 95
        2
302
GRIDFORMAT
  1
GRIDFORMAT_BEGIN
 90
        0
 91
        1
 62
     0
 92
       -2
340
14
 93
        0
 40
0.045
309
GRIDFORMAT_END
 95
        4
302
GRIDFORMAT
  1
GRIDFORMAT_BEGIN
 90
        0
 91
        1
 62
     0
 92
       -2
340
14
 93
        0
 40
0.045
309
GRIDFORMAT_END
 95
        8
302
GRIDFORMAT
  1
GRIDFORMAT_BEGIN
 90
        0
 91
        1
 62
     0
 92
       -2
340
14
 93
        0
 40
0.045
309
GRIDFORMAT_END
 95
       16
302
GRIDFORMAT
  1
GRIDFORMAT_BEGIN
 90
        0
 91
        1
 62
     0
 92
       -2
340
14
 93
        0
 40
0.045
309
GRIDFORMAT_END
 95
       32
302
GRIDFORMAT
  1
GRIDFORMAT_BEGIN
 90
        0
 91
        1
 62
     0
 92
       -2
340
14
 93
        0
 40
0.045
309
GRIDFORMAT_END
309
TABLEFORMAT_END
  1
CELLSTYLE_BEGIN
 90
        2
 91
        1
300
_HEADER
309
CELLSTYLE_END
300
CELLSTYLE
  1
TABLEFORMAT_BEGIN
 90
        5
170
     1
 91
        0
 92
        0
 62
   257
 93
        1
300
CONTENTFORMAT
  1
CONTENTFORMAT_BEGIN
 90
        0
 91
        0
 92
        4
 93
        0
300

 40
0.0
140
1.0
 94
        2
 62
     0
340
11
144
0.18
309
CONTENTFORMAT_END
171
     1
301
MARGIN
  1
CELLMARGIN_BEGIN
 40
0.06
 40
0.06
 40
0.06
 40
0.06
 40
0.06
 40
0.06
309
CELLMARGIN_END
 94
        6
 95
        1
302
GRIDFORMAT
  1
GRIDFORMAT_BEGIN
 90
        0
 91
        1
 62
     0
 92
       -2
340
14
 93
        0
 40
0.045
309
GRIDFORMAT_END
 95
        2
302
GRIDFORMAT
  1
GRIDFORMAT_BEGIN
 90
        0
 91
        1
 62
     0
 92
       -2
340
14
 93
        0
 40
0.045
309
GRIDFORMAT_END
 95
        4
302
GRIDFORMAT
  1
GRIDFORMAT_BEGIN
 90
        0
 91
        1
 62
     0
 92
       -2
340
14
 93
        0
 40
0.045
309
GRIDFORMAT_END
 95
        8
302
GRIDFORMAT
  1
GRIDFORMAT_BEGIN
 90
        0
 91
        1
 62
     0
 92
       -2
340
14
 93
        0
 40
0.045
309
GRIDFORMAT_END
 95
       16
302
GRIDFORMAT
  1
GRIDFORMAT_BEGIN
 90
        0
 91
        1
 62
     0
 92
       -2
340
14
 93
        0
 40
0.045
309
GRIDFORMAT_END
 95
       32
302
GRIDFORMAT
  1
GRIDFORMAT_BEGIN
 90
        0
 91
        1
 62
     0
 92
       -2
340
14
 93
        0
 40
0.045
309
GRIDFORMAT_END
309
TABLEFORMAT_END
  1
CELLSTYLE_BEGIN
 90
        3
 91
        2
300
_DATA
309
CELLSTYLE_END
  0
XRECORD
  5
2CC
102
{ACAD_REACTORS
330
2CB
102
}
330
2CB
100
AcDbXrecord
280
     1
102
ACAD_ROUNDTRIP_PRE2007_TABLESTYLE
 90
        4
 91
        0
  1

 92
        4
 93
        0
  2

 94
        4
 95
        0
  3

  0
XRECORD
  5
29E
102
{ACAD_REACTORS
330
29D
102
}
330
29D
100
AcDbXrecord
280
     1
102
RTVSPropertyOp0
 70
     1
102
RTVSPropertyOp1
 70
     1
102
RTVSPropertyOp2
 70
     1
102
RTVSPropertyOp3
 70
     1
102
RTVSPropertyOp4
 70
     1
102
RTVSPropertyOp5
 70
     1
102
RTVSPropertyOp6
 70
     1
102
RTVSPropertyOp7
 70
     1
102
RTVSPropertyOp8
 70
     1
102
RTVSPropertyOp9
 70
     1
102
RTVSPropertyOp10
 70
     1
102
RTVSPropertyOp11
 70
     1
102
RTVSPropertyOp12
 70
     1
102
RTVSPropertyOp13
 70
     1
102
RTVSPropertyOp14
 70
     1
102
RTVSPropertyOp15
 70
     1
102
RTVSPropertyOp16
 70
     1
102
RTVSPropertyOp17
 70
     1
102
RTVSPropertyOp18
 70
     1
102
RTVSPropertyOp19
 70
     1
102
RTVSPropertyOp20
 70
     1
102
RTVSPropertyOp21
 70
     1
102
RTVSPropertyOp22
 70
     1
102
RTVSPropertyOp23
 70
     1
102
RTVSPropertyOp24
 70
     1
102
RTVSPropertyOp25
 70
     1
102
RTVSPropertyOp26
 70
     1
102
RTVSPropertyOp27
 70
     1
102
RTVSPropertyOp28
 70
     1
102
RTVSPropertyOp29
 70
     1
102
RTVSPropertyOp30
 70
     1
102
RTVSPropertyOp31
 70
     1
102
RTVSPropertyOp32
 70
     1
102
RTVSPropertyOp33
 70
     1
102
RTVSPropertyOp34
 70
     1
102
RTVSPropertyOp35
 70
     1
102
RTVSPropertyOp36
 70
     1
102
RTVSPropertyOp37
 70
     1
102
RTVSPropertyOp38
 70
     1
102
RTVSPropertyOp39
 70
     1
102
RTVSPropertyOp40
 70
     1
102
RTVSPropertyOp41
 70
     1
102
RTVSPropertyOp42
 70
     1
102
RTVSPropertyOp43
 70
     1
102
RTVSPropertyOp44
 70
     1
102
RTVSPropertyOp45
 70
     1
102
RTVSPropertyOp46
 70
     1
102
RTVSPropertyOp47
 70
     1
102
RTVSPropertyOp48
 70
     1
102
RTVSPropertyOp49
 70
     1
102
RTVSPropertyOp50
 70
     1
102
RTVSPropertyOp51
 70
     0
102
RTVSPropertyOp52
 70
     0
102
RTVSPropertyOp53
 70
     1
102
RTVSPropertyOp54
 70
     1
102
RTVSPropertyOp55
 70
     1
102
RTVSPropertyOp56
 70
     1
102
RTVSPropertyOp57
 70
     1
102
RTVSPost2010Prop28
280
     1
102
RTVSPost2010PropOp28
 70
     1
102
RTVSPost2010Prop29
280
     1
102
RTVSPost2010PropOp29
 70
     1
102
RTVSPost2010Prop30
280
     0
102
RTVSPost2010PropOp30
 70
     1
102
RTVSPost2010Prop31
280
     0
102
RTVSPost2010PropOp31
 70
     1
102
RTVSPost2010Prop32
280
     0
102
RTVSPost2010PropOp32
 70
     1
102
RTVSPost2010Prop33
280
     0
102
RTVSPost2010PropOp33
 70
     1
102
RTVSPost2010Prop34
280
     0
102
RTVSPost2010PropOp34
 70
     1
102
RTVSPost2010Prop35
280
     0
102
RTVSPost2010PropOp35
 70
     1
102
RTVSPost2010Prop36
280
     0
102
RTVSPost2010PropOp36
 70
     1
102
RTVSPost2010Prop37
 90
       50
102
RTVSPost2010PropOp37
 70
     1
102
RTVSPost2010Prop38
140
0.0
102
RTVSPost2010PropOp38
 70
     1
102
RTVSPost2010Prop39
140
1.0
102
RTVSPost2010PropOp39
 70
     1
102
RTVSPost2010Prop40
 90
        0
102
RTVSPost2010PropOp40
 70
     1
102
RTVSPost2010Prop41ColorIndex
 90
       18
102
RTVSPost2010Prop41ColorRGB
 90
        0
102
RTVSPost2010PropOp41
 70
     1
102
RTVSPost2010Prop42
 90
       50
102
RTVSPost2010PropOp42
 70
     1
102
RTVSPost2010Prop43
 90
        3
102
RTVSPost2010PropOp43
 70
     1
102
RTVSPost2010Prop44ColorIndex
 90
        5
102
RTVSPost2010Prop44ColorRGB
 90
      255
102
RTVSPost2010PropOp44
 70
     1
102
RTVSPost2010Prop45
280
     0
102
RTVSPost2010PropOp45
 70
     1
102
RTVSPost2010Prop46
 90
       50
102
RTVSPost2010PropOp46
 70
     1
102
RTVSPost2010Prop47
 90
       50
102
RTVSPost2010PropOp47
 70
     1
102
RTVSPost2010Prop48
 90
       50
102
RTVSPost2010PropOp48
 70
     1
102
RTVSPost2010Prop49
280
     0
102
RTVSPost2010PropOp49
 70
     1
102
RTVSPost2010Prop50
 90
       50
102
RTVSPost2010PropOp50
 70
     1
102
RTVSPost2010Prop51ColorIndex
 90
      256
102
RTVSPost2010Prop51ColorRGB
 90
-16777216
102
RTVSPost2010PropOp51
 70
     0
102
RTVSPost2010Prop52
140
1.0
102
RTVSPost2010PropOp52
 70
     0
102
RTVSPost2010Prop53
 90
        2
102
RTVSPost2010PropOp53
 70
     1
102
RTVSPost2010Prop54
  1
strokes_ogs.tif
102
RTVSPost2010PropOp54
 70
     1
102
RTVSPost2010Prop55
280
     0
102
RTVSPost2010PropOp55
 70
     1
102
RTVSPost2010Prop56
140
1.0
102
RTVSPost2010PropOp56
 70
     1
102
RTVSPost2010Prop57
140
1.0
102
RTVSPost2010PropOp57
 70
     1
  0
XRECORD
  5
2A4
102
{ACAD_REACTORS
330
2A3
102
}
330
2A3
100
AcDbXrecord
280
     1
102
RTVSPropertyOp0
 70
     1
102
RTVSPropertyOp1
 70
     1
102
RTVSPropertyOp2
 70
     1
102
RTVSPropertyOp3
 70
     1
102
RTVSPropertyOp4
 70
     1
102
RTVSPropertyOp5
 70
     1
102
RTVSPropertyOp6
 70
     1
102
RTVSPropertyOp7
 70
     1
102
RTVSPropertyOp8
 70
     1
102
RTVSPropertyOp9
 70
     1
102
RTVSPropertyOp10
 70
     1
102
RTVSPropertyOp11
 70
     1
102
RTVSPropertyOp12
 70
     1
102
RTVSPropertyOp13
 70
     1
102
RTVSPropertyOp14
 70
     1
102
RTVSPropertyOp15
 70
     1
102
RTVSPropertyOp16
 70
     1
102
RTVSPropertyOp17
 70
     1
102
RTVSPropertyOp18
 70
     1
102
RTVSPropertyOp19
 70
     1
102
RTVSPropertyOp20
 70
     1
102
RTVSPropertyOp21
 70
     1
102
RTVSPropertyOp22
 70
     1
102
RTVSPropertyOp23
 70
     1
102
RTVSPropertyOp24
 70
     1
102
RTVSPropertyOp25
 70
     1
102
RTVSPropertyOp26
 70
     1
102
RTVSPropertyOp27
 70
     1
102
RTVSPropertyOp28
 70
     1
102
RTVSPropertyOp29
 70
     1
102
RTVSPropertyOp30
 70
     1
102
RTVSPropertyOp31
 70
     1
102
RTVSPropertyOp32
 70
     1
102
RTVSPropertyOp33
 70
     1
102
RTVSPropertyOp34
 70
     1
102
RTVSPropertyOp35
 70
     1
102
RTVSPropertyOp36
 70
     1
102
RTVSPropertyOp37
 70
     1
102
RTVSPropertyOp38
 70
     1
102
RTVSPropertyOp39
 70
     1
102
RTVSPropertyOp40
 70
     1
102
RTVSPropertyOp41
 70
     1
102
RTVSPropertyOp42
 70
     1
102
RTVSPropertyOp43
 70
     1
102
RTVSPropertyOp44
 70
     1
102
RTVSPropertyOp45
 70
     1
102
RTVSPropertyOp46
 70
     1
102
RTVSPropertyOp47
 70
     1
102
RTVSPropertyOp48
 70
     1
102
RTVSPropertyOp49
 70
     1
102
RTVSPropertyOp50
 70
     1
102
RTVSPropertyOp51
 70
     0
102
RTVSPropertyOp52
 70
     0
102
RTVSPropertyOp53
 70
     1
102
RTVSPropertyOp54
 70
     1
102
RTVSPropertyOp55
 70
     1
102
RTVSPropertyOp56
 70
     1
102
RTVSPropertyOp57
 70
     1
102
RTVSPost2010Prop28
280
     0
102
RTVSPost2010PropOp28
 70
     1
102
RTVSPost2010Prop29
280
     1
102
RTVSPost2010PropOp29
 70
     1
102
RTVSPost2010Prop30
280
     1
102
RTVSPost2010PropOp30
 70
     1
102
RTVSPost2010Prop31
280
     0
102
RTVSPost2010PropOp31
 70
     1
102
RTVSPost2010Prop32
280
     0
102
RTVSPost2010PropOp32
 70
     1
102
RTVSPost2010Prop33
280
     0
102
RTVSPost2010PropOp33
 70
     1
102
RTVSPost2010Prop34
280
     0
102
RTVSPost2010PropOp34
 70
     1
102
RTVSPost2010Prop35
280
     0
102
RTVSPost2010PropOp35
 70
     1
102
RTVSPost2010Prop36
280
     0
102
RTVSPost2010PropOp36
 70
     1
102
RTVSPost2010Prop37
 90
       50
102
RTVSPost2010PropOp37
 70
     1
102
RTVSPost2010Prop38
140
0.0
102
RTVSPost2010PropOp38
 70
     1
102
RTVSPost2010Prop39
140
1.0
102
RTVSPost2010PropOp39
 70
     1
102
RTVSPost2010Prop40
 90
        0
102
RTVSPost2010PropOp40
 70
     1
102
RTVSPost2010Prop41ColorIndex
 90
       18
102
RTVSPost2010Prop41ColorRGB
 90
        0
102
RTVSPost2010PropOp41
 70
     1
102
RTVSPost2010Prop42
 90
       50
102
RTVSPost2010PropOp42
 70
     1
102
RTVSPost2010Prop43
 90
        3
102
RTVSPost2010PropOp43
 70
     1
102
RTVSPost2010Prop44ColorIndex
 90
        5
102
RTVSPost2010Prop44ColorRGB
 90
      255
102
RTVSPost2010PropOp44
 70
     1
102
RTVSPost2010Prop45
280
     0
102
RTVSPost2010PropOp45
 70
     1
102
RTVSPost2010Prop46
 90
       50
102
RTVSPost2010PropOp46
 70
     1
102
RTVSPost2010Prop47
 90
       50
102
RTVSPost2010PropOp47
 70
     1
102
RTVSPost2010Prop48
 90
       50
102
RTVSPost2010PropOp48
 70
     1
102
RTVSPost2010Prop49
280
     0
102
RTVSPost2010PropOp49
 70
     1
102
RTVSPost2010Prop50
 90
       50
102
RTVSPost2010PropOp50
 70
     1
102
RTVSPost2010Prop51ColorIndex
 90
      256
102
RTVSPost2010Prop51ColorRGB
 90
-16777216
102
RTVSPost2010PropOp51
 70
     0
102
RTVSPost2010Prop52
140
1.0
102
RTVSPost2010PropOp52
 70
     0
102
RTVSPost2010Prop53
 90
        2
102
RTVSPost2010PropOp53
 70
     1
102
RTVSPost2010Prop54
  1
strokes_ogs.tif
102
RTVSPost2010PropOp54
 70
     1
102
RTVSPost2010Prop55
280
     0
102
RTVSPost2010PropOp55
 70
     1
102
RTVSPost2010Prop56
140
1.0
102
RTVSPost2010PropOp56
 70
     1
102
RTVSPost2010Prop57
140
1.0
102
RTVSPost2010PropOp57
 70
     1
  0
XRECORD
  5
2AC
102
{ACAD_REACTORS
330
2AB
102
}
330
2AB
100
AcDbXrecord
280
     1
102
RTVSPropertyOp0
 70
     1
102
RTVSPropertyOp1
 70
     1
102
RTVSPropertyOp2
 70
     1
102
RTVSPropertyOp3
 70
     1
102
RTVSPropertyOp4
 70
     1
102
RTVSPropertyOp5
 70
     1
102
RTVSPropertyOp6
 70
     1
102
RTVSPropertyOp7
 70
     1
102
RTVSPropertyOp8
 70
     1
102
RTVSPropertyOp9
 70
     1
102
RTVSPropertyOp10
 70
     1
102
RTVSPropertyOp11
 70
     1
102
RTVSPropertyOp12
 70
     1
102
RTVSPropertyOp13
 70
     1
102
RTVSPropertyOp14
 70
     1
102
RTVSPropertyOp15
 70
     1
102
RTVSPropertyOp16
 70
     1
102
RTVSPropertyOp17
 70
     1
102
RTVSPropertyOp18
 70
     1
102
RTVSPropertyOp19
 70
     1
102
RTVSPropertyOp20
 70
     1
102
RTVSPropertyOp21
 70
     1
102
RTVSPropertyOp22
 70
     1
102
RTVSPropertyOp23
 70
     1
102
RTVSPropertyOp24
 70
     1
102
RTVSPropertyOp25
 70
     1
102
RTVSPropertyOp26
 70
     1
102
RTVSPropertyOp27
 70
     1
102
RTVSPropertyOp28
 70
     1
102
RTVSPropertyOp29
 70
     1
102
RTVSPropertyOp30
 70
     1
102
RTVSPropertyOp31
 70
     1
102
RTVSPropertyOp32
 70
     1
102
RTVSPropertyOp33
 70
     1
102
RTVSPropertyOp34
 70
     1
102
RTVSPropertyOp35
 70
     1
102
RTVSPropertyOp36
 70
     1
102
RTVSPropertyOp37
 70
     1
102
RTVSPropertyOp38
 70
     1
102
RTVSPropertyOp39
 70
     1
102
RTVSPropertyOp40
 70
     1
102
RTVSPropertyOp41
 70
     1
102
RTVSPropertyOp42
 70
     1
102
RTVSPropertyOp43
 70
     1
102
RTVSPropertyOp44
 70
     1
102
RTVSPropertyOp45
 70
     1
102
RTVSPropertyOp46
 70
     1
102
RTVSPropertyOp47
 70
     1
102
RTVSPropertyOp48
 70
     1
102
RTVSPropertyOp49
 70
     1
102
RTVSPropertyOp50
 70
     1
102
RTVSPropertyOp51
 70
     0
102
RTVSPropertyOp52
 70
     0
102
RTVSPropertyOp53
 70
     1
102
RTVSPropertyOp54
 70
     1
102
RTVSPropertyOp55
 70
     1
102
RTVSPropertyOp56
 70
     1
102
RTVSPropertyOp57
 70
     1
102
RTVSPost2010Prop28
280
     0
102
RTVSPost2010PropOp28
 70
     1
102
RTVSPost2010Prop29
280
     1
102
RTVSPost2010PropOp29
 70
     1
102
RTVSPost2010Prop30
280
     1
102
RTVSPost2010PropOp30
 70
     1
102
RTVSPost2010Prop31
280
     0
102
RTVSPost2010PropOp31
 70
     1
102
RTVSPost2010Prop32
280
     0
102
RTVSPost2010PropOp32
 70
     1
102
RTVSPost2010Prop33
280
     0
102
RTVSPost2010PropOp33
 70
     1
102
RTVSPost2010Prop34
280
     0
102
RTVSPost2010PropOp34
 70
     1
102
RTVSPost2010Prop35
280
     0
102
RTVSPost2010PropOp35
 70
     1
102
RTVSPost2010Prop36
280
     0
102
RTVSPost2010PropOp36
 70
     1
102
RTVSPost2010Prop37
 90
       50
102
RTVSPost2010PropOp37
 70
     1
102
RTVSPost2010Prop38
140
0.0
102
RTVSPost2010PropOp38
 70
     1
102
RTVSPost2010Prop39
140
1.0
102
RTVSPost2010PropOp39
 70
     1
102
RTVSPost2010Prop40
 90
        0
102
RTVSPost2010PropOp40
 70
     1
102
RTVSPost2010Prop41ColorIndex
 90
       18
102
RTVSPost2010Prop41ColorRGB
 90
        0
102
RTVSPost2010PropOp41
 70
     1
102
RTVSPost2010Prop42
 90
       50
102
RTVSPost2010PropOp42
 70
     1
102
RTVSPost2010Prop43
 90
        3
102
RTVSPost2010PropOp43
 70
     1
102
RTVSPost2010Prop44ColorIndex
 90
        5
102
RTVSPost2010Prop44ColorRGB
 90
      255
102
RTVSPost2010PropOp44
 70
     1
102
RTVSPost2010Prop45
280
     0
102
RTVSPost2010PropOp45
 70
     1
102
RTVSPost2010Prop46
 90
       50
102
RTVSPost2010PropOp46
 70
     1
102
RTVSPost2010Prop47
 90
       50
102
RTVSPost2010PropOp47
 70
     1
102
RTVSPost2010Prop48
 90
       50
102
RTVSPost2010PropOp48
 70
     1
102
RTVSPost2010Prop49
280
     0
102
RTVSPost2010PropOp49
 70
     1
102
RTVSPost2010Prop50
 90
       50
102
RTVSPost2010PropOp50
 70
     1
102
RTVSPost2010Prop51ColorIndex
 90
      256
102
RTVSPost2010Prop51ColorRGB
 90
-16777216
102
RTVSPost2010PropOp51
 70
     0
102
RTVSPost2010Prop52
140
1.0
102
RTVSPost2010PropOp52
 70
     0
102
RTVSPost2010Prop53
 90
        2
102
RTVSPost2010PropOp53
 70
     1
102
RTVSPost2010Prop54
  1
strokes_ogs.tif
102
RTVSPost2010PropOp54
 70
     1
102
RTVSPost2010Prop55
280
     0
102
RTVSPost2010PropOp55
 70
     1
102
RTVSPost2010Prop56
140
1.0
102
RTVSPost2010PropOp56
 70
     1
102
RTVSPost2010Prop57
140
1.0
102
RTVSPost2010PropOp57
 70
     1
  0
XRECORD
  5
2B4
102
{ACAD_REACTORS
330
2B3
102
}
330
2B3
100
AcDbXrecord
280
     1
102
RTVSPropertyOp0
 70
     1
102
RTVSPropertyOp1
 70
     1
102
RTVSPropertyOp2
 70
     1
102
RTVSPropertyOp3
 70
     1
102
RTVSPropertyOp4
 70
     1
102
RTVSPropertyOp5
 70
     1
102
RTVSPropertyOp6
 70
     1
102
RTVSPropertyOp7
 70
     1
102
RTVSPropertyOp8
 70
     1
102
RTVSPropertyOp9
 70
     1
102
RTVSPropertyOp10
 70
     1
102
RTVSPropertyOp11
 70
     1
102
RTVSPropertyOp12
 70
     1
102
RTVSPropertyOp13
 70
     1
102
RTVSPropertyOp14
 70
     1
102
RTVSPropertyOp15
 70
     1
102
RTVSPropertyOp16
 70
     1
102
RTVSPropertyOp17
 70
     1
102
RTVSPropertyOp18
 70
     1
102
RTVSPropertyOp19
 70
     1
102
RTVSPropertyOp20
 70
     1
102
RTVSPropertyOp21
 70
     1
102
RTVSPropertyOp22
 70
     1
102
RTVSPropertyOp23
 70
     1
102
RTVSPropertyOp24
 70
     1
102
RTVSPropertyOp25
 70
     1
102
RTVSPropertyOp26
 70
     1
102
RTVSPropertyOp27
 70
     1
102
RTVSPropertyOp28
 70
     1
102
RTVSPropertyOp29
 70
     1
102
RTVSPropertyOp30
 70
     1
102
RTVSPropertyOp31
 70
     1
102
RTVSPropertyOp32
 70
     1
102
RTVSPropertyOp33
 70
     1
102
RTVSPropertyOp34
 70
     1
102
RTVSPropertyOp35
 70
     1
102
RTVSPropertyOp36
 70
     1
102
RTVSPropertyOp37
 70
     1
102
RTVSPropertyOp38
 70
     1
102
RTVSPropertyOp39
 70
     1
102
RTVSPropertyOp40
 70
     1
102
RTVSPropertyOp41
 70
     1
102
RTVSPropertyOp42
 70
     1
102
RTVSPropertyOp43
 70
     1
102
RTVSPropertyOp44
 70
     1
102
RTVSPropertyOp45
 70
     1
102
RTVSPropertyOp46
 70
     1
102
RTVSPropertyOp47
 70
     1
102
RTVSPropertyOp48
 70
     1
102
RTVSPropertyOp49
 70
     1
102
RTVSPropertyOp50
 70
     1
102
RTVSPropertyOp51
 70
     0
102
RTVSPropertyOp52
 70
     0
102
RTVSPropertyOp53
 70
     1
102
RTVSPropertyOp54
 70
     1
102
RTVSPropertyOp55
 70
     1
102
RTVSPropertyOp56
 70
     1
102
RTVSPropertyOp57
 70
     1
102
RTVSPost2010Prop28
280
     0
102
RTVSPost2010PropOp28
 70
     1
102
RTVSPost2010Prop29
280
     1
102
RTVSPost2010PropOp29
 70
     1
102
RTVSPost2010Prop30
280
     1
102
RTVSPost2010PropOp30
 70
     1
102
RTVSPost2010Prop31
280
     0
102
RTVSPost2010PropOp31
 70
     1
102
RTVSPost2010Prop32
280
     0
102
RTVSPost2010PropOp32
 70
     1
102
RTVSPost2010Prop33
280
     0
102
RTVSPost2010PropOp33
 70
     1
102
RTVSPost2010Prop34
280
     0
102
RTVSPost2010PropOp34
 70
     1
102
RTVSPost2010Prop35
280
     0
102
RTVSPost2010PropOp35
 70
     1
102
RTVSPost2010Prop36
280
     0
102
RTVSPost2010PropOp36
 70
     1
102
RTVSPost2010Prop37
 90
       50
102
RTVSPost2010PropOp37
 70
     1
102
RTVSPost2010Prop38
140
0.0
102
RTVSPost2010PropOp38
 70
     1
102
RTVSPost2010Prop39
140
1.0
102
RTVSPost2010PropOp39
 70
     1
102
RTVSPost2010Prop40
 90
        0
102
RTVSPost2010PropOp40
 70
     1
102
RTVSPost2010Prop41ColorIndex
 90
       18
102
RTVSPost2010Prop41ColorRGB
 90
        0
102
RTVSPost2010PropOp41
 70
     1
102
RTVSPost2010Prop42
 90
       50
102
RTVSPost2010PropOp42
 70
     1
102
RTVSPost2010Prop43
 90
        3
102
RTVSPost2010PropOp43
 70
     1
102
RTVSPost2010Prop44ColorIndex
 90
        5
102
RTVSPost2010Prop44ColorRGB
 90
      255
102
RTVSPost2010PropOp44
 70
     1
102
RTVSPost2010Prop45
280
     0
102
RTVSPost2010PropOp45
 70
     1
102
RTVSPost2010Prop46
 90
       50
102
RTVSPost2010PropOp46
 70
     1
102
RTVSPost2010Prop47
 90
       50
102
RTVSPost2010PropOp47
 70
     1
102
RTVSPost2010Prop48
 90
       50
102
RTVSPost2010PropOp48
 70
     1
102
RTVSPost2010Prop49
280
     0
102
RTVSPost2010PropOp49
 70
     1
102
RTVSPost2010Prop50
 90
       50
102
RTVSPost2010PropOp50
 70
     1
102
RTVSPost2010Prop51ColorIndex
 90
      256
102
RTVSPost2010Prop51ColorRGB
 90
-16777216
102
RTVSPost2010PropOp51
 70
     0
102
RTVSPost2010Prop52
140
1.0
102
RTVSPost2010PropOp52
 70
     0
102
RTVSPost2010Prop53
 90
        2
102
RTVSPost2010PropOp53
 70
     1
102
RTVSPost2010Prop54
  1
strokes_ogs.tif
102
RTVSPost2010PropOp54
 70
     1
102
RTVSPost2010Prop55
280
     0
102
RTVSPost2010PropOp55
 70
     1
102
RTVSPost2010Prop56
140
1.0
102
RTVSPost2010PropOp56
 70
     1
102
RTVSPost2010Prop57
140
1.0
102
RTVSPost2010PropOp57
 70
     1
  0
XRECORD
  5
2A8
102
{ACAD_REACTORS
330
2A7
102
}
330
2A7
100
AcDbXrecord
280
     1
102
RTVSPropertyOp0
 70
     1
102
RTVSPropertyOp1
 70
     1
102
RTVSPropertyOp2
 70
     1
102
RTVSPropertyOp3
 70
     1
102
RTVSPropertyOp4
 70
     1
102
RTVSPropertyOp5
 70
     1
102
RTVSPropertyOp6
 70
     1
102
RTVSPropertyOp7
 70
     1
102
RTVSPropertyOp8
 70
     1
102
RTVSPropertyOp9
 70
     1
102
RTVSPropertyOp10
 70
     1
102
RTVSPropertyOp11
 70
     1
102
RTVSPropertyOp12
 70
     1
102
RTVSPropertyOp13
 70
     1
102
RTVSPropertyOp14
 70
     1
102
RTVSPropertyOp15
 70
     1
102
RTVSPropertyOp16
 70
     1
102
RTVSPropertyOp17
 70
     1
102
RTVSPropertyOp18
 70
     1
102
RTVSPropertyOp19
 70
     1
102
RTVSPropertyOp20
 70
     1
102
RTVSPropertyOp21
 70
     1
102
RTVSPropertyOp22
 70
     1
102
RTVSPropertyOp23
 70
     1
102
RTVSPropertyOp24
 70
     1
102
RTVSPropertyOp25
 70
     1
102
RTVSPropertyOp26
 70
     1
102
RTVSPropertyOp27
 70
     1
102
RTVSPropertyOp28
 70
     1
102
RTVSPropertyOp29
 70
     1
102
RTVSPropertyOp30
 70
     1
102
RTVSPropertyOp31
 70
     1
102
RTVSPropertyOp32
 70
     1
102
RTVSPropertyOp33
 70
     1
102
RTVSPropertyOp34
 70
     1
102
RTVSPropertyOp35
 70
     1
102
RTVSPropertyOp36
 70
     1
102
RTVSPropertyOp37
 70
     1
102
RTVSPropertyOp38
 70
     1
102
RTVSPropertyOp39
 70
     1
102
RTVSPropertyOp40
 70
     1
102
RTVSPropertyOp41
 70
     1
102
RTVSPropertyOp42
 70
     1
102
RTVSPropertyOp43
 70
     1
102
RTVSPropertyOp44
 70
     1
102
RTVSPropertyOp45
 70
     1
102
RTVSPropertyOp46
 70
     1
102
RTVSPropertyOp47
 70
     1
102
RTVSPropertyOp48
 70
     1
102
RTVSPropertyOp49
 70
     1
102
RTVSPropertyOp50
 70
     1
102
RTVSPropertyOp51
 70
     0
102
RTVSPropertyOp52
 70
     0
102
RTVSPropertyOp53
 70
     1
102
RTVSPropertyOp54
 70
     1
102
RTVSPropertyOp55
 70
     1
102
RTVSPropertyOp56
 70
     1
102
RTVSPropertyOp57
 70
     1
102
RTVSPost2010Prop28
280
     0
102
RTVSPost2010PropOp28
 70
     1
102
RTVSPost2010Prop29
280
     1
102
RTVSPost2010PropOp29
 70
     1
102
RTVSPost2010Prop30
280
     1
102
RTVSPost2010PropOp30
 70
     1
102
RTVSPost2010Prop31
280
     0
102
RTVSPost2010PropOp31
 70
     1
102
RTVSPost2010Prop32
280
     0
102
RTVSPost2010PropOp32
 70
     1
102
RTVSPost2010Prop33
280
     0
102
RTVSPost2010PropOp33
 70
     1
102
RTVSPost2010Prop34
280
     0
102
RTVSPost2010PropOp34
 70
     1
102
RTVSPost2010Prop35
280
     0
102
RTVSPost2010PropOp35
 70
     1
102
RTVSPost2010Prop36
280
     0
102
RTVSPost2010PropOp36
 70
     1
102
RTVSPost2010Prop37
 90
       50
102
RTVSPost2010PropOp37
 70
     1
102
RTVSPost2010Prop38
140
0.0
102
RTVSPost2010PropOp38
 70
     1
102
RTVSPost2010Prop39
140
1.0
102
RTVSPost2010PropOp39
 70
     1
102
RTVSPost2010Prop40
 90
        0
102
RTVSPost2010PropOp40
 70
     1
102
RTVSPost2010Prop41ColorIndex
 90
       18
102
RTVSPost2010Prop41ColorRGB
 90
        0
102
RTVSPost2010PropOp41
 70
     1
102
RTVSPost2010Prop42
 90
       50
102
RTVSPost2010PropOp42
 70
     1
102
RTVSPost2010Prop43
 90
        3
102
RTVSPost2010PropOp43
 70
     1
102
RTVSPost2010Prop44ColorIndex
 90
        5
102
RTVSPost2010Prop44ColorRGB
 90
      255
102
RTVSPost2010PropOp44
 70
     1
102
RTVSPost2010Prop45
280
     0
102
RTVSPost2010PropOp45
 70
     1
102
RTVSPost2010Prop46
 90
       50
102
RTVSPost2010PropOp46
 70
     1
102
RTVSPost2010Prop47
 90
       50
102
RTVSPost2010PropOp47
 70
     1
102
RTVSPost2010Prop48
 90
       50
102
RTVSPost2010PropOp48
 70
     1
102
RTVSPost2010Prop49
280
     0
102
RTVSPost2010PropOp49
 70
     1
102
RTVSPost2010Prop50
 90
       50
102
RTVSPost2010PropOp50
 70
     1
102
RTVSPost2010Prop51ColorIndex
 90
      256
102
RTVSPost2010Prop51ColorRGB
 90
-16777216
102
RTVSPost2010PropOp51
 70
     0
102
RTVSPost2010Prop52
140
1.0
102
RTVSPost2010PropOp52
 70
     0
102
RTVSPost2010Prop53
 90
        2
102
RTVSPost2010PropOp53
 70
     1
102
RTVSPost2010Prop54
  1
strokes_ogs.tif
102
RTVSPost2010PropOp54
 70
     1
102
RTVSPost2010Prop55
280
     0
102
RTVSPost2010PropOp55
 70
     1
102
RTVSPost2010Prop56
140
1.0
102
RTVSPost2010PropOp56
 70
     1
102
RTVSPost2010Prop57
140
1.0
102
RTVSPost2010PropOp57
 70
     1
  0
XRECORD
  5
2AA
102
{ACAD_REACTORS
330
2A9
102
}
330
2A9
100
AcDbXrecord
280
     1
102
RTVSPropertyOp0
 70
     1
102
RTVSPropertyOp1
 70
     1
102
RTVSPropertyOp2
 70
     1
102
RTVSPropertyOp3
 70
     1
102
RTVSPropertyOp4
 70
     1
102
RTVSPropertyOp5
 70
     1
102
RTVSPropertyOp6
 70
     1
102
RTVSPropertyOp7
 70
     1
102
RTVSPropertyOp8
 70
     1
102
RTVSPropertyOp9
 70
     1
102
RTVSPropertyOp10
 70
     1
102
RTVSPropertyOp11
 70
     1
102
RTVSPropertyOp12
 70
     1
102
RTVSPropertyOp13
 70
     1
102
RTVSPropertyOp14
 70
     1
102
RTVSPropertyOp15
 70
     1
102
RTVSPropertyOp16
 70
     1
102
RTVSPropertyOp17
 70
     1
102
RTVSPropertyOp18
 70
     1
102
RTVSPropertyOp19
 70
     1
102
RTVSPropertyOp20
 70
     1
102
RTVSPropertyOp21
 70
     1
102
RTVSPropertyOp22
 70
     1
102
RTVSPropertyOp23
 70
     1
102
RTVSPropertyOp24
 70
     1
102
RTVSPropertyOp25
 70
     1
102
RTVSPropertyOp26
 70
     1
102
RTVSPropertyOp27
 70
     1
102
RTVSPropertyOp28
 70
     1
102
RTVSPropertyOp29
 70
     1
102
RTVSPropertyOp30
 70
     1
102
RTVSPropertyOp31
 70
     1
102
RTVSPropertyOp32
 70
     1
102
RTVSPropertyOp33
 70
     1
102
RTVSPropertyOp34
 70
     1
102
RTVSPropertyOp35
 70
     1
102
RTVSPropertyOp36
 70
     1
102
RTVSPropertyOp37
 70
     1
102
RTVSPropertyOp38
 70
     1
102
RTVSPropertyOp39
 70
     1
102
RTVSPropertyOp40
 70
     1
102
RTVSPropertyOp41
 70
     1
102
RTVSPropertyOp42
 70
     1
102
RTVSPropertyOp43
 70
     1
102
RTVSPropertyOp44
 70
     1
102
RTVSPropertyOp45
 70
     1
102
RTVSPropertyOp46
 70
     1
102
RTVSPropertyOp47
 70
     1
102
RTVSPropertyOp48
 70
     1
102
RTVSPropertyOp49
 70
     1
102
RTVSPropertyOp50
 70
     1
102
RTVSPropertyOp51
 70
     0
102
RTVSPropertyOp52
 70
     0
102
RTVSPropertyOp53
 70
     1
102
RTVSPropertyOp54
 70
     1
102
RTVSPropertyOp55
 70
     1
102
RTVSPropertyOp56
 70
     1
102
RTVSPropertyOp57
 70
     1
102
RTVSPost2010Prop28
280
     0
102
RTVSPost2010PropOp28
 70
     1
102
RTVSPost2010Prop29
280
     1
102
RTVSPost2010PropOp29
 70
     1
102
RTVSPost2010Prop30
280
     1
102
RTVSPost2010PropOp30
 70
     1
102
RTVSPost2010Prop31
280
     0
102
RTVSPost2010PropOp31
 70
     1
102
RTVSPost2010Prop32
280
     0
102
RTVSPost2010PropOp32
 70
     1
102
RTVSPost2010Prop33
280
     0
102
RTVSPost2010PropOp33
 70
     1
102
RTVSPost2010Prop34
280
     0
102
RTVSPost2010PropOp34
 70
     1
102
RTVSPost2010Prop35
280
     0
102
RTVSPost2010PropOp35
 70
     1
102
RTVSPost2010Prop36
280
     0
102
RTVSPost2010PropOp36
 70
     1
102
RTVSPost2010Prop37
 90
       50
102
RTVSPost2010PropOp37
 70
     1
102
RTVSPost2010Prop38
140
0.0
102
RTVSPost2010PropOp38
 70
     1
102
RTVSPost2010Prop39
140
1.0
102
RTVSPost2010PropOp39
 70
     1
102
RTVSPost2010Prop40
 90
        0
102
RTVSPost2010PropOp40
 70
     1
102
RTVSPost2010Prop41ColorIndex
 90
       18
102
RTVSPost2010Prop41ColorRGB
 90
        0
102
RTVSPost2010PropOp41
 70
     1
102
RTVSPost2010Prop42
 90
       50
102
RTVSPost2010PropOp42
 70
     1
102
RTVSPost2010Prop43
 90
        3
102
RTVSPost2010PropOp43
 70
     1
102
RTVSPost2010Prop44ColorIndex
 90
        5
102
RTVSPost2010Prop44ColorRGB
 90
      255
102
RTVSPost2010PropOp44
 70
     1
102
RTVSPost2010Prop45
280
     0
102
RTVSPost2010PropOp45
 70
     1
102
RTVSPost2010Prop46
 90
       50
102
RTVSPost2010PropOp46
 70
     1
102
RTVSPost2010Prop47
 90
       50
102
RTVSPost2010PropOp47
 70
     1
102
RTVSPost2010Prop48
 90
       50
102
RTVSPost2010PropOp48
 70
     1
102
RTVSPost2010Prop49
280
     0
102
RTVSPost2010PropOp49
 70
     1
102
RTVSPost2010Prop50
 90
       50
102
RTVSPost2010PropOp50
 70
     1
102
RTVSPost2010Prop51ColorIndex
 90
      256
102
RTVSPost2010Prop51ColorRGB
 90
-16777216
102
RTVSPost2010PropOp51
 70
     0
102
RTVSPost2010Prop52
140
1.0
102
RTVSPost2010PropOp52
 70
     0
102
RTVSPost2010Prop53
 90
        2
102
RTVSPost2010PropOp53
 70
     1
102
RTVSPost2010Prop54
  1
strokes_ogs.tif
102
RTVSPost2010PropOp54
 70
     1
102
RTVSPost2010Prop55
280
     0
102
RTVSPost2010PropOp55
 70
     1
102
RTVSPost2010Prop56
140
1.0
102
RTVSPost2010PropOp56
 70
     1
102
RTVSPost2010Prop57
140
1.0
102
RTVSPost2010PropOp57
 70
     1
  0
XRECORD
  5
2BA
102
{ACAD_REACTORS
330
2B9
102
}
330
2B9
100
AcDbXrecord
280
     1
102
RTVSPropertyOp0
 70
     0
102
RTVSPropertyOp1
 70
     0
102
RTVSPropertyOp2
 70
     0
102
RTVSPropertyOp3
 70
     0
102
RTVSPropertyOp4
 70
     0
102
RTVSPropertyOp5
 70
     0
102
RTVSPropertyOp6
 70
     0
102
RTVSPropertyOp7
 70
     0
102
RTVSPropertyOp8
 70
     0
102
RTVSPropertyOp9
 70
     0
102
RTVSPropertyOp10
 70
     0
102
RTVSPropertyOp11
 70
     0
102
RTVSPropertyOp12
 70
     0
102
RTVSPropertyOp13
 70
     0
102
RTVSPropertyOp14
 70
     2
102
RTVSPropertyOp15
 70
     0
102
RTVSPropertyOp16
 70
     0
102
RTVSPropertyOp17
 70
     0
102
RTVSPropertyOp18
 70
     0
102
RTVSPropertyOp19
 70
     0
102
RTVSPropertyOp20
 70
     0
102
RTVSPropertyOp21
 70
     0
102
RTVSPropertyOp22
 70
     0
102
RTVSPropertyOp23
 70
     0
102
RTVSPropertyOp24
 70
     0
102
RTVSPropertyOp25
 70
     0
102
RTVSPropertyOp26
 70
     0
102
RTVSPropertyOp27
 70
     0
102
RTVSPropertyOp28
 70
     0
102
RTVSPropertyOp29
 70
     0
102
RTVSPropertyOp30
 70
     0
102
RTVSPropertyOp31
 70
     0
102
RTVSPropertyOp32
 70
     0
102
RTVSPropertyOp33
 70
     0
102
RTVSPropertyOp34
 70
     0
102
RTVSPropertyOp35
 70
     0
102
RTVSPropertyOp36
 70
     0
102
RTVSPropertyOp37
 70
     0
102
RTVSPropertyOp38
 70
     0
102
RTVSPropertyOp39
 70
     0
102
RTVSPropertyOp40
 70
     0
102
RTVSPropertyOp41
 70
     0
102
RTVSPropertyOp42
 70
     0
102
RTVSPropertyOp43
 70
     0
102
RTVSPropertyOp44
 70
     0
102
RTVSPropertyOp45
 70
     0
102
RTVSPropertyOp46
 70
     0
102
RTVSPropertyOp47
 70
     0
102
RTVSPropertyOp48
 70
     0
102
RTVSPropertyOp49
 70
     0
102
RTVSPropertyOp50
 70
     0
102
RTVSPropertyOp51
 70
     0
102
RTVSPropertyOp52
 70
     0
102
RTVSPropertyOp53
 70
     0
102
RTVSPropertyOp54
 70
     0
102
RTVSPropertyOp55
 70
     0
102
RTVSPropertyOp56
 70
     0
102
RTVSPropertyOp57
 70
     0
102
RTVSPost2010Prop28
280
     0
102
RTVSPost2010PropOp28
 70
     0
102
RTVSPost2010Prop29
280
     1
102
RTVSPost2010PropOp29
 70
     0
102
RTVSPost2010Prop30
280
     1
102
RTVSPost2010PropOp30
 70
     0
102
RTVSPost2010Prop31
280
     0
102
RTVSPost2010PropOp31
 70
     0
102
RTVSPost2010Prop32
280
     0
102
RTVSPost2010PropOp32
 70
     0
102
RTVSPost2010Prop33
280
     0
102
RTVSPost2010PropOp33
 70
     0
102
RTVSPost2010Prop34
280
     0
102
RTVSPost2010PropOp34
 70
     0
102
RTVSPost2010Prop35
280
     0
102
RTVSPost2010PropOp35
 70
     0
102
RTVSPost2010Prop36
280
     0
102
RTVSPost2010PropOp36
 70
     0
102
RTVSPost2010Prop37
 90
       50
102
RTVSPost2010PropOp37
 70
     0
102
RTVSPost2010Prop38
140
0.0
102
RTVSPost2010PropOp38
 70
     0
102
RTVSPost2010Prop39
140
1.0
102
RTVSPost2010PropOp39
 70
     0
102
RTVSPost2010Prop40
 90
        0
102
RTVSPost2010PropOp40
 70
     0
102
RTVSPost2010Prop41ColorIndex
 90
       18
102
RTVSPost2010Prop41ColorRGB
 90
        0
102
RTVSPost2010PropOp41
 70
     0
102
RTVSPost2010Prop42
 90
       50
102
RTVSPost2010PropOp42
 70
     0
102
RTVSPost2010Prop43
 90
        3
102
RTVSPost2010PropOp43
 70
     0
102
RTVSPost2010Prop44ColorIndex
 90
        5
102
RTVSPost2010Prop44ColorRGB
 90
      255
102
RTVSPost2010PropOp44
 70
     0
102
RTVSPost2010Prop45
280
     0
102
RTVSPost2010PropOp45
 70
     0
102
RTVSPost2010Prop46
 90
       50
102
RTVSPost2010PropOp46
 70
     0
102
RTVSPost2010Prop47
 90
       50
102
RTVSPost2010PropOp47
 70
     0
102
RTVSPost2010Prop48
 90
       50
102
RTVSPost2010PropOp48
 70
     0
102
RTVSPost2010Prop49
280
     0
102
RTVSPost2010PropOp49
 70
     0
102
RTVSPost2010Prop50
 90
       50
102
RTVSPost2010PropOp50
 70
     0
102
RTVSPost2010Prop51ColorIndex
 90
      256
102
RTVSPost2010Prop51ColorRGB
 90
-16777216
102
RTVSPost2010PropOp51
 70
     0
102
RTVSPost2010Prop52
140
1.0
102
RTVSPost2010PropOp52
 70
     0
102
RTVSPost2010Prop53
 90
        2
102
RTVSPost2010PropOp53
 70
     0
102
RTVSPost2010Prop54
  1
strokes_ogs.tif
102
RTVSPost2010PropOp54
 70
     0
102
RTVSPost2010Prop55
280
     0
102
RTVSPost2010PropOp55
 70
     0
102
RTVSPost2010Prop56
140
1.0
102
RTVSPost2010PropOp56
 70
     0
102
RTVSPost2010Prop57
140
1.0
102
RTVSPost2010PropOp57
 70
     0
  0
XRECORD
  5
2B2
102
{ACAD_REACTORS
330
2B1
102
}
330
2B1
100
AcDbXrecord
280
     1
102
RTVSPropertyOp0
 70
     1
102
RTVSPropertyOp1
 70
     1
102
RTVSPropertyOp2
 70
     1
102
RTVSPropertyOp3
 70
     1
102
RTVSPropertyOp4
 70
     1
102
RTVSPropertyOp5
 70
     1
102
RTVSPropertyOp6
 70
     1
102
RTVSPropertyOp7
 70
     1
102
RTVSPropertyOp8
 70
     1
102
RTVSPropertyOp9
 70
     1
102
RTVSPropertyOp10
 70
     1
102
RTVSPropertyOp11
 70
     1
102
RTVSPropertyOp12
 70
     1
102
RTVSPropertyOp13
 70
     1
102
RTVSPropertyOp14
 70
     1
102
RTVSPropertyOp15
 70
     1
102
RTVSPropertyOp16
 70
     1
102
RTVSPropertyOp17
 70
     1
102
RTVSPropertyOp18
 70
     1
102
RTVSPropertyOp19
 70
     1
102
RTVSPropertyOp20
 70
     1
102
RTVSPropertyOp21
 70
     1
102
RTVSPropertyOp22
 70
     1
102
RTVSPropertyOp23
 70
     1
102
RTVSPropertyOp24
 70
     1
102
RTVSPropertyOp25
 70
     1
102
RTVSPropertyOp26
 70
     1
102
RTVSPropertyOp27
 70
     1
102
RTVSPropertyOp28
 70
     1
102
RTVSPropertyOp29
 70
     1
102
RTVSPropertyOp30
 70
     1
102
RTVSPropertyOp31
 70
     1
102
RTVSPropertyOp32
 70
     1
102
RTVSPropertyOp33
 70
     1
102
RTVSPropertyOp34
 70
     1
102
RTVSPropertyOp35
 70
     1
102
RTVSPropertyOp36
 70
     1
102
RTVSPropertyOp37
 70
     1
102
RTVSPropertyOp38
 70
     1
102
RTVSPropertyOp39
 70
     1
102
RTVSPropertyOp40
 70
     1
102
RTVSPropertyOp41
 70
     1
102
RTVSPropertyOp42
 70
     1
102
RTVSPropertyOp43
 70
     1
102
RTVSPropertyOp44
 70
     1
102
RTVSPropertyOp45
 70
     1
102
RTVSPropertyOp46
 70
     1
102
RTVSPropertyOp47
 70
     1
102
RTVSPropertyOp48
 70
     1
102
RTVSPropertyOp49
 70
     1
102
RTVSPropertyOp50
 70
     1
102
RTVSPropertyOp51
 70
     0
102
RTVSPropertyOp52
 70
     0
102
RTVSPropertyOp53
 70
     1
102
RTVSPropertyOp54
 70
     1
102
RTVSPropertyOp55
 70
     1
102
RTVSPropertyOp56
 70
     1
102
RTVSPropertyOp57
 70
     1
102
RTVSPost2010Prop28
280
     0
102
RTVSPost2010PropOp28
 70
     1
102
RTVSPost2010Prop29
280
     1
102
RTVSPost2010PropOp29
 70
     1
102
RTVSPost2010Prop30
280
     1
102
RTVSPost2010PropOp30
 70
     1
102
RTVSPost2010Prop31
280
     0
102
RTVSPost2010PropOp31
 70
     1
102
RTVSPost2010Prop32
280
     0
102
RTVSPost2010PropOp32
 70
     1
102
RTVSPost2010Prop33
280
     0
102
RTVSPost2010PropOp33
 70
     1
102
RTVSPost2010Prop34
280
     0
102
RTVSPost2010PropOp34
 70
     1
102
RTVSPost2010Prop35
280
     0
102
RTVSPost2010PropOp35
 70
     1
102
RTVSPost2010Prop36
280
     0
102
RTVSPost2010PropOp36
 70
     1
102
RTVSPost2010Prop37
 90
       50
102
RTVSPost2010PropOp37
 70
     1
102
RTVSPost2010Prop38
140
0.0
102
RTVSPost2010PropOp38
 70
     1
102
RTVSPost2010Prop39
140
1.0
102
RTVSPost2010PropOp39
 70
     1
102
RTVSPost2010Prop40
 90
        0
102
RTVSPost2010PropOp40
 70
     1
102
RTVSPost2010Prop41ColorIndex
 90
       18
102
RTVSPost2010Prop41ColorRGB
 90
        0
102
RTVSPost2010PropOp41
 70
     1
102
RTVSPost2010Prop42
 90
       50
102
RTVSPost2010PropOp42
 70
     1
102
RTVSPost2010Prop43
 90
        3
102
RTVSPost2010PropOp43
 70
     1
102
RTVSPost2010Prop44ColorIndex
 90
        5
102
RTVSPost2010Prop44ColorRGB
 90
      255
102
RTVSPost2010PropOp44
 70
     1
102
RTVSPost2010Prop45
280
     0
102
RTVSPost2010PropOp45
 70
     1
102
RTVSPost2010Prop46
 90
       50
102
RTVSPost2010PropOp46
 70
     1
102
RTVSPost2010Prop47
 90
       50
102
RTVSPost2010PropOp47
 70
     1
102
RTVSPost2010Prop48
 90
       50
102
RTVSPost2010PropOp48
 70
     1
102
RTVSPost2010Prop49
280
     0
102
RTVSPost2010PropOp49
 70
     1
102
RTVSPost2010Prop50
 90
       50
102
RTVSPost2010PropOp50
 70
     1
102
RTVSPost2010Prop51ColorIndex
 90
      256
102
RTVSPost2010Prop51ColorRGB
 90
-16777216
102
RTVSPost2010PropOp51
 70
     0
102
RTVSPost2010Prop52
140
1.0
102
RTVSPost2010PropOp52
 70
     0
102
RTVSPost2010Prop53
 90
        2
102
RTVSPost2010PropOp53
 70
     1
102
RTVSPost2010Prop54
  1
strokes_ogs.tif
102
RTVSPost2010PropOp54
 70
     1
102
RTVSPost2010Prop55
280
     0
102
RTVSPost2010PropOp55
 70
     1
102
RTVSPost2010Prop56
140
1.0
102
RTVSPost2010PropOp56
 70
     1
102
RTVSPost2010Prop57
140
1.0
102
RTVSPost2010PropOp57
 70
     1
  0
XRECORD
  5
296
102
{ACAD_REACTORS
330
295
102
}
330
295
100
AcDbXrecord
280
     1
102
RTVSPropertyOp0
 70
     1
102
RTVSPropertyOp1
 70
     1
102
RTVSPropertyOp2
 70
     1
102
RTVSPropertyOp3
 70
     1
102
RTVSPropertyOp4
 70
     1
102
RTVSPropertyOp5
 70
     1
102
RTVSPropertyOp6
 70
     1
102
RTVSPropertyOp7
 70
     1
102
RTVSPropertyOp8
 70
     1
102
RTVSPropertyOp9
 70
     1
102
RTVSPropertyOp10
 70
     1
102
RTVSPropertyOp11
 70
     1
102
RTVSPropertyOp12
 70
     1
102
RTVSPropertyOp13
 70
     1
102
RTVSPropertyOp14
 70
     1
102
RTVSPropertyOp15
 70
     1
102
RTVSPropertyOp16
 70
     1
102
RTVSPropertyOp17
 70
     1
102
RTVSPropertyOp18
 70
     1
102
RTVSPropertyOp19
 70
     1
102
RTVSPropertyOp20
 70
     1
102
RTVSPropertyOp21
 70
     1
102
RTVSPropertyOp22
 70
     1
102
RTVSPropertyOp23
 70
     1
102
RTVSPropertyOp24
 70
     1
102
RTVSPropertyOp25
 70
     1
102
RTVSPropertyOp26
 70
     1
102
RTVSPropertyOp27
 70
     1
102
RTVSPropertyOp28
 70
     1
102
RTVSPropertyOp29
 70
     1
102
RTVSPropertyOp30
 70
     1
102
RTVSPropertyOp31
 70
     1
102
RTVSPropertyOp32
 70
     1
102
RTVSPropertyOp33
 70
     1
102
RTVSPropertyOp34
 70
     1
102
RTVSPropertyOp35
 70
     1
102
RTVSPropertyOp36
 70
     1
102
RTVSPropertyOp37
 70
     1
102
RTVSPropertyOp38
 70
     1
102
RTVSPropertyOp39
 70
     1
102
RTVSPropertyOp40
 70
     1
102
RTVSPropertyOp41
 70
     1
102
RTVSPropertyOp42
 70
     1
102
RTVSPropertyOp43
 70
     1
102
RTVSPropertyOp44
 70
     1
102
RTVSPropertyOp45
 70
     1
102
RTVSPropertyOp46
 70
     1
102
RTVSPropertyOp47
 70
     1
102
RTVSPropertyOp48
 70
     1
102
RTVSPropertyOp49
 70
     1
102
RTVSPropertyOp50
 70
     1
102
RTVSPropertyOp51
 70
     0
102
RTVSPropertyOp52
 70
     0
102
RTVSPropertyOp53
 70
     1
102
RTVSPropertyOp54
 70
     1
102
RTVSPropertyOp55
 70
     1
102
RTVSPropertyOp56
 70
     1
102
RTVSPropertyOp57
 70
     1
102
RTVSPost2010Prop28
280
     0
102
RTVSPost2010PropOp28
 70
     1
102
RTVSPost2010Prop29
280
     1
102
RTVSPost2010PropOp29
 70
     1
102
RTVSPost2010Prop30
280
     1
102
RTVSPost2010PropOp30
 70
     1
102
RTVSPost2010Prop31
280
     0
102
RTVSPost2010PropOp31
 70
     1
102
RTVSPost2010Prop32
280
     0
102
RTVSPost2010PropOp32
 70
     1
102
RTVSPost2010Prop33
280
     0
102
RTVSPost2010PropOp33
 70
     1
102
RTVSPost2010Prop34
280
     0
102
RTVSPost2010PropOp34
 70
     1
102
RTVSPost2010Prop35
280
     0
102
RTVSPost2010PropOp35
 70
     1
102
RTVSPost2010Prop36
280
     0
102
RTVSPost2010PropOp36
 70
     1
102
RTVSPost2010Prop37
 90
       50
102
RTVSPost2010PropOp37
 70
     1
102
RTVSPost2010Prop38
140
0.0
102
RTVSPost2010PropOp38
 70
     1
102
RTVSPost2010Prop39
140
1.0
102
RTVSPost2010PropOp39
 70
     1
102
RTVSPost2010Prop40
 90
        0
102
RTVSPost2010PropOp40
 70
     1
102
RTVSPost2010Prop41ColorIndex
 90
       18
102
RTVSPost2010Prop41ColorRGB
 90
        0
102
RTVSPost2010PropOp41
 70
     1
102
RTVSPost2010Prop42
 90
       50
102
RTVSPost2010PropOp42
 70
     1
102
RTVSPost2010Prop43
 90
        3
102
RTVSPost2010PropOp43
 70
     1
102
RTVSPost2010Prop44ColorIndex
 90
        5
102
RTVSPost2010Prop44ColorRGB
 90
      255
102
RTVSPost2010PropOp44
 70
     1
102
RTVSPost2010Prop45
280
     0
102
RTVSPost2010PropOp45
 70
     1
102
RTVSPost2010Prop46
 90
       50
102
RTVSPost2010PropOp46
 70
     1
102
RTVSPost2010Prop47
 90
       50
102
RTVSPost2010PropOp47
 70
     1
102
RTVSPost2010Prop48
 90
       50
102
RTVSPost2010PropOp48
 70
     1
102
RTVSPost2010Prop49
280
     0
102
RTVSPost2010PropOp49
 70
     1
102
RTVSPost2010Prop50
 90
       50
102
RTVSPost2010PropOp50
 70
     1
102
RTVSPost2010Prop51ColorIndex
 90
      256
102
RTVSPost2010Prop51ColorRGB
 90
-16777216
102
RTVSPost2010PropOp51
 70
     0
102
RTVSPost2010Prop52
140
1.0
102
RTVSPost2010PropOp52
 70
     0
102
RTVSPost2010Prop53
 90
        2
102
RTVSPost2010PropOp53
 70
     1
102
RTVSPost2010Prop54
  1
strokes_ogs.tif
102
RTVSPost2010PropOp54
 70
     1
102
RTVSPost2010Prop55
280
     0
102
RTVSPost2010PropOp55
 70
     1
102
RTVSPost2010Prop56
140
1.0
102
RTVSPost2010PropOp56
 70
     1
102
RTVSPost2010Prop57
140
1.0
102
RTVSPost2010PropOp57
 70
     1
  0
XRECORD
  5
298
102
{ACAD_REACTORS
330
297
102
}
330
297
100
AcDbXrecord
280
     1
102
RTVSPropertyOp0
 70
     1
102
RTVSPropertyOp1
 70
     1
102
RTVSPropertyOp2
 70
     1
102
RTVSPropertyOp3
 70
     1
102
RTVSPropertyOp4
 70
     1
102
RTVSPropertyOp5
 70
     1
102
RTVSPropertyOp6
 70
     1
102
RTVSPropertyOp7
 70
     1
102
RTVSPropertyOp8
 70
     1
102
RTVSPropertyOp9
 70
     1
102
RTVSPropertyOp10
 70
     1
102
RTVSPropertyOp11
 70
     1
102
RTVSPropertyOp12
 70
     1
102
RTVSPropertyOp13
 70
     1
102
RTVSPropertyOp14
 70
     1
102
RTVSPropertyOp15
 70
     1
102
RTVSPropertyOp16
 70
     1
102
RTVSPropertyOp17
 70
     1
102
RTVSPropertyOp18
 70
     1
102
RTVSPropertyOp19
 70
     1
102
RTVSPropertyOp20
 70
     1
102
RTVSPropertyOp21
 70
     1
102
RTVSPropertyOp22
 70
     1
102
RTVSPropertyOp23
 70
     1
102
RTVSPropertyOp24
 70
     1
102
RTVSPropertyOp25
 70
     1
102
RTVSPropertyOp26
 70
     1
102
RTVSPropertyOp27
 70
     1
102
RTVSPropertyOp28
 70
     1
102
RTVSPropertyOp29
 70
     1
102
RTVSPropertyOp30
 70
     1
102
RTVSPropertyOp31
 70
     1
102
RTVSPropertyOp32
 70
     1
102
RTVSPropertyOp33
 70
     1
102
RTVSPropertyOp34
 70
     1
102
RTVSPropertyOp35
 70
     1
102
RTVSPropertyOp36
 70
     1
102
RTVSPropertyOp37
 70
     1
102
RTVSPropertyOp38
 70
     1
102
RTVSPropertyOp39
 70
     1
102
RTVSPropertyOp40
 70
     1
102
RTVSPropertyOp41
 70
     1
102
RTVSPropertyOp42
 70
     1
102
RTVSPropertyOp43
 70
     1
102
RTVSPropertyOp44
 70
     1
102
RTVSPropertyOp45
 70
     1
102
RTVSPropertyOp46
 70
     1
102
RTVSPropertyOp47
 70
     1
102
RTVSPropertyOp48
 70
     1
102
RTVSPropertyOp49
 70
     1
102
RTVSPropertyOp50
 70
     1
102
RTVSPropertyOp51
 70
     0
102
RTVSPropertyOp52
 70
     0
102
RTVSPropertyOp53
 70
     1
102
RTVSPropertyOp54
 70
     1
102
RTVSPropertyOp55
 70
     1
102
RTVSPropertyOp56
 70
     1
102
RTVSPropertyOp57
 70
     1
102
RTVSPost2010Prop28
280
     0
102
RTVSPost2010PropOp28
 70
     1
102
RTVSPost2010Prop29
280
     1
102
RTVSPost2010PropOp29
 70
     1
102
RTVSPost2010Prop30
280
     1
102
RTVSPost2010PropOp30
 70
     1
102
RTVSPost2010Prop31
280
     0
102
RTVSPost2010PropOp31
 70
     1
102
RTVSPost2010Prop32
280
     0
102
RTVSPost2010PropOp32
 70
     1
102
RTVSPost2010Prop33
280
     0
102
RTVSPost2010PropOp33
 70
     1
102
RTVSPost2010Prop34
280
     0
102
RTVSPost2010PropOp34
 70
     1
102
RTVSPost2010Prop35
280
     0
102
RTVSPost2010PropOp35
 70
     1
102
RTVSPost2010Prop36
280
     0
102
RTVSPost2010PropOp36
 70
     1
102
RTVSPost2010Prop37
 90
       50
102
RTVSPost2010PropOp37
 70
     1
102
RTVSPost2010Prop38
140
0.0
102
RTVSPost2010PropOp38
 70
     1
102
RTVSPost2010Prop39
140
1.0
102
RTVSPost2010PropOp39
 70
     1
102
RTVSPost2010Prop40
 90
        0
102
RTVSPost2010PropOp40
 70
     1
102
RTVSPost2010Prop41ColorIndex
 90
       18
102
RTVSPost2010Prop41ColorRGB
 90
        0
102
RTVSPost2010PropOp41
 70
     1
102
RTVSPost2010Prop42
 90
       50
102
RTVSPost2010PropOp42
 70
     1
102
RTVSPost2010Prop43
 90
        3
102
RTVSPost2010PropOp43
 70
     1
102
RTVSPost2010Prop44ColorIndex
 90
        5
102
RTVSPost2010Prop44ColorRGB
 90
      255
102
RTVSPost2010PropOp44
 70
     1
102
RTVSPost2010Prop45
280
     0
102
RTVSPost2010PropOp45
 70
     1
102
RTVSPost2010Prop46
 90
       50
102
RTVSPost2010PropOp46
 70
     1
102
RTVSPost2010Prop47
 90
       50
102
RTVSPost2010PropOp47
 70
     1
102
RTVSPost2010Prop48
 90
       50
102
RTVSPost2010PropOp48
 70
     1
102
RTVSPost2010Prop49
280
     0
102
RTVSPost2010PropOp49
 70
     1
102
RTVSPost2010Prop50
 90
       50
102
RTVSPost2010PropOp50
 70
     1
102
RTVSPost2010Prop51ColorIndex
 90
      256
102
RTVSPost2010Prop51ColorRGB
 90
-16777216
102
RTVSPost2010PropOp51
 70
     0
102
RTVSPost2010Prop52
140
1.0
102
RTVSPost2010PropOp52
 70
     0
102
RTVSPost2010Prop53
 90
        2
102
RTVSPost2010PropOp53
 70
     1
102
RTVSPost2010Prop54
  1
strokes_ogs.tif
102
RTVSPost2010PropOp54
 70
     1
102
RTVSPost2010Prop55
280
     0
102
RTVSPost2010PropOp55
 70
     1
102
RTVSPost2010Prop56
140
1.0
102
RTVSPost2010PropOp56
 70
     1
102
RTVSPost2010Prop57
140
1.0
102
RTVSPost2010PropOp57
 70
     1
  0
XRECORD
  5
29A
102
{ACAD_REACTORS
330
299
102
}
330
299
100
AcDbXrecord
280
     1
102
RTVSPropertyOp0
 70
     1
102
RTVSPropertyOp1
 70
     1
102
RTVSPropertyOp2
 70
     1
102
RTVSPropertyOp3
 70
     1
102
RTVSPropertyOp4
 70
     1
102
RTVSPropertyOp5
 70
     1
102
RTVSPropertyOp6
 70
     1
102
RTVSPropertyOp7
 70
     1
102
RTVSPropertyOp8
 70
     1
102
RTVSPropertyOp9
 70
     1
102
RTVSPropertyOp10
 70
     1
102
RTVSPropertyOp11
 70
     1
102
RTVSPropertyOp12
 70
     1
102
RTVSPropertyOp13
 70
     1
102
RTVSPropertyOp14
 70
     1
102
RTVSPropertyOp15
 70
     1
102
RTVSPropertyOp16
 70
     1
102
RTVSPropertyOp17
 70
     1
102
RTVSPropertyOp18
 70
     1
102
RTVSPropertyOp19
 70
     1
102
RTVSPropertyOp20
 70
     1
102
RTVSPropertyOp21
 70
     1
102
RTVSPropertyOp22
 70
     1
102
RTVSPropertyOp23
 70
     1
102
RTVSPropertyOp24
 70
     1
102
RTVSPropertyOp25
 70
     1
102
RTVSPropertyOp26
 70
     1
102
RTVSPropertyOp27
 70
     1
102
RTVSPropertyOp28
 70
     1
102
RTVSPropertyOp29
 70
     1
102
RTVSPropertyOp30
 70
     1
102
RTVSPropertyOp31
 70
     1
102
RTVSPropertyOp32
 70
     1
102
RTVSPropertyOp33
 70
     1
102
RTVSPropertyOp34
 70
     1
102
RTVSPropertyOp35
 70
     1
102
RTVSPropertyOp36
 70
     1
102
RTVSPropertyOp37
 70
     1
102
RTVSPropertyOp38
 70
     1
102
RTVSPropertyOp39
 70
     1
102
RTVSPropertyOp40
 70
     1
102
RTVSPropertyOp41
 70
     1
102
RTVSPropertyOp42
 70
     1
102
RTVSPropertyOp43
 70
     1
102
RTVSPropertyOp44
 70
     1
102
RTVSPropertyOp45
 70
     1
102
RTVSPropertyOp46
 70
     1
102
RTVSPropertyOp47
 70
     1
102
RTVSPropertyOp48
 70
     1
102
RTVSPropertyOp49
 70
     1
102
RTVSPropertyOp50
 70
     1
102
RTVSPropertyOp51
 70
     0
102
RTVSPropertyOp52
 70
     0
102
RTVSPropertyOp53
 70
     1
102
RTVSPropertyOp54
 70
     1
102
RTVSPropertyOp55
 70
     1
102
RTVSPropertyOp56
 70
     1
102
RTVSPropertyOp57
 70
     1
102
RTVSPost2010Prop28
280
     0
102
RTVSPost2010PropOp28
 70
     1
102
RTVSPost2010Prop29
280
     1
102
RTVSPost2010PropOp29
 70
     1
102
RTVSPost2010Prop30
280
     1
102
RTVSPost2010PropOp30
 70
     1
102
RTVSPost2010Prop31
280
     0
102
RTVSPost2010PropOp31
 70
     1
102
RTVSPost2010Prop32
280
     0
102
RTVSPost2010PropOp32
 70
     1
102
RTVSPost2010Prop33
280
     0
102
RTVSPost2010PropOp33
 70
     1
102
RTVSPost2010Prop34
280
     0
102
RTVSPost2010PropOp34
 70
     1
102
RTVSPost2010Prop35
280
     0
102
RTVSPost2010PropOp35
 70
     1
102
RTVSPost2010Prop36
280
     0
102
RTVSPost2010PropOp36
 70
     1
102
RTVSPost2010Prop37
 90
       50
102
RTVSPost2010PropOp37
 70
     1
102
RTVSPost2010Prop38
140
0.0
102
RTVSPost2010PropOp38
 70
     1
102
RTVSPost2010Prop39
140
1.0
102
RTVSPost2010PropOp39
 70
     1
102
RTVSPost2010Prop40
 90
        0
102
RTVSPost2010PropOp40
 70
     1
102
RTVSPost2010Prop41ColorIndex
 90
       18
102
RTVSPost2010Prop41ColorRGB
 90
        0
102
RTVSPost2010PropOp41
 70
     1
102
RTVSPost2010Prop42
 90
       50
102
RTVSPost2010PropOp42
 70
     1
102
RTVSPost2010Prop43
 90
        3
102
RTVSPost2010PropOp43
 70
     1
102
RTVSPost2010Prop44ColorIndex
 90
        5
102
RTVSPost2010Prop44ColorRGB
 90
      255
102
RTVSPost2010PropOp44
 70
     1
102
RTVSPost2010Prop45
280
     0
102
RTVSPost2010PropOp45
 70
     1
102
RTVSPost2010Prop46
 90
       50
102
RTVSPost2010PropOp46
 70
     1
102
RTVSPost2010Prop47
 90
       50
102
RTVSPost2010PropOp47
 70
     1
102
RTVSPost2010Prop48
 90
       50
102
RTVSPost2010PropOp48
 70
     1
102
RTVSPost2010Prop49
280
     0
102
RTVSPost2010PropOp49
 70
     1
102
RTVSPost2010Prop50
 90
       50
102
RTVSPost2010PropOp50
 70
     1
102
RTVSPost2010Prop51ColorIndex
 90
      256
102
RTVSPost2010Prop51ColorRGB
 90
-16777216
102
RTVSPost2010PropOp51
 70
     0
102
RTVSPost2010Prop52
140
1.0
102
RTVSPost2010PropOp52
 70
     0
102
RTVSPost2010Prop53
 90
        2
102
RTVSPost2010PropOp53
 70
     1
102
RTVSPost2010Prop54
  1
strokes_ogs.tif
102
RTVSPost2010PropOp54
 70
     1
102
RTVSPost2010Prop55
280
     0
102
RTVSPost2010PropOp55
 70
     1
102
RTVSPost2010Prop56
140
1.0
102
RTVSPost2010PropOp56
 70
     1
102
RTVSPost2010Prop57
140
1.0
102
RTVSPost2010PropOp57
 70
     1
  0
XRECORD
  5
29C
102
{ACAD_REACTORS
330
29B
102
}
330
29B
100
AcDbXrecord
280
     1
102
RTVSPropertyOp0
 70
     1
102
RTVSPropertyOp1
 70
     1
102
RTVSPropertyOp2
 70
     1
102
RTVSPropertyOp3
 70
     1
102
RTVSPropertyOp4
 70
     1
102
RTVSPropertyOp5
 70
     1
102
RTVSPropertyOp6
 70
     1
102
RTVSPropertyOp7
 70
     1
102
RTVSPropertyOp8
 70
     1
102
RTVSPropertyOp9
 70
     1
102
RTVSPropertyOp10
 70
     1
102
RTVSPropertyOp11
 70
     1
102
RTVSPropertyOp12
 70
     1
102
RTVSPropertyOp13
 70
     1
102
RTVSPropertyOp14
 70
     1
102
RTVSPropertyOp15
 70
     1
102
RTVSPropertyOp16
 70
     1
102
RTVSPropertyOp17
 70
     1
102
RTVSPropertyOp18
 70
     1
102
RTVSPropertyOp19
 70
     1
102
RTVSPropertyOp20
 70
     1
102
RTVSPropertyOp21
 70
     1
102
RTVSPropertyOp22
 70
     1
102
RTVSPropertyOp23
 70
     1
102
RTVSPropertyOp24
 70
     1
102
RTVSPropertyOp25
 70
     1
102
RTVSPropertyOp26
 70
     1
102
RTVSPropertyOp27
 70
     1
102
RTVSPropertyOp28
 70
     1
102
RTVSPropertyOp29
 70
     1
102
RTVSPropertyOp30
 70
     1
102
RTVSPropertyOp31
 70
     1
102
RTVSPropertyOp32
 70
     1
102
RTVSPropertyOp33
 70
     1
102
RTVSPropertyOp34
 70
     1
102
RTVSPropertyOp35
 70
     1
102
RTVSPropertyOp36
 70
     1
102
RTVSPropertyOp37
 70
     1
102
RTVSPropertyOp38
 70
     1
102
RTVSPropertyOp39
 70
     1
102
RTVSPropertyOp40
 70
     1
102
RTVSPropertyOp41
 70
     1
102
RTVSPropertyOp42
 70
     1
102
RTVSPropertyOp43
 70
     1
102
RTVSPropertyOp44
 70
     1
102
RTVSPropertyOp45
 70
     1
102
RTVSPropertyOp46
 70
     1
102
RTVSPropertyOp47
 70
     1
102
RTVSPropertyOp48
 70
     1
102
RTVSPropertyOp49
 70
     1
102
RTVSPropertyOp50
 70
     1
102
RTVSPropertyOp51
 70
     0
102
RTVSPropertyOp52
 70
     0
102
RTVSPropertyOp53
 70
     1
102
RTVSPropertyOp54
 70
     1
102
RTVSPropertyOp55
 70
     1
102
RTVSPropertyOp56
 70
     1
102
RTVSPropertyOp57
 70
     1
102
RTVSPost2010Prop28
280
     0
102
RTVSPost2010PropOp28
 70
     1
102
RTVSPost2010Prop29
280
     1
102
RTVSPost2010PropOp29
 70
     1
102
RTVSPost2010Prop30
280
     1
102
RTVSPost2010PropOp30
 70
     1
102
RTVSPost2010Prop31
280
     0
102
RTVSPost2010PropOp31
 70
     1
102
RTVSPost2010Prop32
280
     0
102
RTVSPost2010PropOp32
 70
     1
102
RTVSPost2010Prop33
280
     0
102
RTVSPost2010PropOp33
 70
     1
102
RTVSPost2010Prop34
280
     0
102
RTVSPost2010PropOp34
 70
     1
102
RTVSPost2010Prop35
280
     0
102
RTVSPost2010PropOp35
 70
     1
102
RTVSPost2010Prop36
280
     0
102
RTVSPost2010PropOp36
 70
     1
102
RTVSPost2010Prop37
 90
       50
102
RTVSPost2010PropOp37
 70
     1
102
RTVSPost2010Prop38
140
0.0
102
RTVSPost2010PropOp38
 70
     1
102
RTVSPost2010Prop39
140
1.0
102
RTVSPost2010PropOp39
 70
     1
102
RTVSPost2010Prop40
 90
        0
102
RTVSPost2010PropOp40
 70
     1
102
RTVSPost2010Prop41ColorIndex
 90
       18
102
RTVSPost2010Prop41ColorRGB
 90
        0
102
RTVSPost2010PropOp41
 70
     1
102
RTVSPost2010Prop42
 90
       50
102
RTVSPost2010PropOp42
 70
     1
102
RTVSPost2010Prop43
 90
        3
102
RTVSPost2010PropOp43
 70
     1
102
RTVSPost2010Prop44ColorIndex
 90
        5
102
RTVSPost2010Prop44ColorRGB
 90
      255
102
RTVSPost2010PropOp44
 70
     1
102
RTVSPost2010Prop45
280
     0
102
RTVSPost2010PropOp45
 70
     1
102
RTVSPost2010Prop46
 90
       50
102
RTVSPost2010PropOp46
 70
     1
102
RTVSPost2010Prop47
 90
       50
102
RTVSPost2010PropOp47
 70
     1
102
RTVSPost2010Prop48
 90
       50
102
RTVSPost2010PropOp48
 70
     1
102
RTVSPost2010Prop49
280
     0
102
RTVSPost2010PropOp49
 70
     1
102
RTVSPost2010Prop50
 90
       50
102
RTVSPost2010PropOp50
 70
     1
102
RTVSPost2010Prop51ColorIndex
 90
      256
102
RTVSPost2010Prop51ColorRGB
 90
-16777216
102
RTVSPost2010PropOp51
 70
     0
102
RTVSPost2010Prop52
140
1.0
102
RTVSPost2010PropOp52
 70
     0
102
RTVSPost2010Prop53
 90
        2
102
RTVSPost2010PropOp53
 70
     1
102
RTVSPost2010Prop54
  1
strokes_ogs.tif
102
RTVSPost2010PropOp54
 70
     1
102
RTVSPost2010Prop55
280
     0
102
RTVSPost2010PropOp55
 70
     1
102
RTVSPost2010Prop56
140
1.0
102
RTVSPost2010PropOp56
 70
     1
102
RTVSPost2010Prop57
140
1.0
102
RTVSPost2010PropOp57
 70
     1
  0
XRECORD
  5
2A2
102
{ACAD_REACTORS
330
2A1
102
}
330
2A1
100
AcDbXrecord
280
     1
102
RTVSPropertyOp0
 70
     1
102
RTVSPropertyOp1
 70
     1
102
RTVSPropertyOp2
 70
     1
102
RTVSPropertyOp3
 70
     1
102
RTVSPropertyOp4
 70
     1
102
RTVSPropertyOp5
 70
     1
102
RTVSPropertyOp6
 70
     1
102
RTVSPropertyOp7
 70
     1
102
RTVSPropertyOp8
 70
     1
102
RTVSPropertyOp9
 70
     1
102
RTVSPropertyOp10
 70
     1
102
RTVSPropertyOp11
 70
     1
102
RTVSPropertyOp12
 70
     1
102
RTVSPropertyOp13
 70
     1
102
RTVSPropertyOp14
 70
     1
102
RTVSPropertyOp15
 70
     1
102
RTVSPropertyOp16
 70
     1
102
RTVSPropertyOp17
 70
     1
102
RTVSPropertyOp18
 70
     1
102
RTVSPropertyOp19
 70
     1
102
RTVSPropertyOp20
 70
     1
102
RTVSPropertyOp21
 70
     1
102
RTVSPropertyOp22
 70
     1
102
RTVSPropertyOp23
 70
     1
102
RTVSPropertyOp24
 70
     1
102
RTVSPropertyOp25
 70
     1
102
RTVSPropertyOp26
 70
     1
102
RTVSPropertyOp27
 70
     1
102
RTVSPropertyOp28
 70
     1
102
RTVSPropertyOp29
 70
     1
102
RTVSPropertyOp30
 70
     1
102
RTVSPropertyOp31
 70
     1
102
RTVSPropertyOp32
 70
     1
102
RTVSPropertyOp33
 70
     1
102
RTVSPropertyOp34
 70
     1
102
RTVSPropertyOp35
 70
     1
102
RTVSPropertyOp36
 70
     1
102
RTVSPropertyOp37
 70
     1
102
RTVSPropertyOp38
 70
     1
102
RTVSPropertyOp39
 70
     1
102
RTVSPropertyOp40
 70
     1
102
RTVSPropertyOp41
 70
     1
102
RTVSPropertyOp42
 70
     1
102
RTVSPropertyOp43
 70
     1
102
RTVSPropertyOp44
 70
     1
102
RTVSPropertyOp45
 70
     1
102
RTVSPropertyOp46
 70
     1
102
RTVSPropertyOp47
 70
     1
102
RTVSPropertyOp48
 70
     1
102
RTVSPropertyOp49
 70
     1
102
RTVSPropertyOp50
 70
     1
102
RTVSPropertyOp51
 70
     0
102
RTVSPropertyOp52
 70
     0
102
RTVSPropertyOp53
 70
     1
102
RTVSPropertyOp54
 70
     1
102
RTVSPropertyOp55
 70
     1
102
RTVSPropertyOp56
 70
     1
102
RTVSPropertyOp57
 70
     1
102
RTVSPost2010Prop28
280
     0
102
RTVSPost2010PropOp28
 70
     1
102
RTVSPost2010Prop29
280
     1
102
RTVSPost2010PropOp29
 70
     1
102
RTVSPost2010Prop30
280
     1
102
RTVSPost2010PropOp30
 70
     1
102
RTVSPost2010Prop31
280
     0
102
RTVSPost2010PropOp31
 70
     1
102
RTVSPost2010Prop32
280
     0
102
RTVSPost2010PropOp32
 70
     1
102
RTVSPost2010Prop33
280
     0
102
RTVSPost2010PropOp33
 70
     1
102
RTVSPost2010Prop34
280
     0
102
RTVSPost2010PropOp34
 70
     1
102
RTVSPost2010Prop35
280
     0
102
RTVSPost2010PropOp35
 70
     1
102
RTVSPost2010Prop36
280
     0
102
RTVSPost2010PropOp36
 70
     1
102
RTVSPost2010Prop37
 90
       50
102
RTVSPost2010PropOp37
 70
     1
102
RTVSPost2010Prop38
140
0.0
102
RTVSPost2010PropOp38
 70
     1
102
RTVSPost2010Prop39
140
1.0
102
RTVSPost2010PropOp39
 70
     1
102
RTVSPost2010Prop40
 90
        0
102
RTVSPost2010PropOp40
 70
     1
102
RTVSPost2010Prop41ColorIndex
 90
       18
102
RTVSPost2010Prop41ColorRGB
 90
        0
102
RTVSPost2010PropOp41
 70
     1
102
RTVSPost2010Prop42
 90
       50
102
RTVSPost2010PropOp42
 70
     1
102
RTVSPost2010Prop43
 90
        3
102
RTVSPost2010PropOp43
 70
     1
102
RTVSPost2010Prop44ColorIndex
 90
        5
102
RTVSPost2010Prop44ColorRGB
 90
      255
102
RTVSPost2010PropOp44
 70
     1
102
RTVSPost2010Prop45
280
     0
102
RTVSPost2010PropOp45
 70
     1
102
RTVSPost2010Prop46
 90
       50
102
RTVSPost2010PropOp46
 70
     1
102
RTVSPost2010Prop47
 90
       50
102
RTVSPost2010PropOp47
 70
     1
102
RTVSPost2010Prop48
 90
       50
102
RTVSPost2010PropOp48
 70
     1
102
RTVSPost2010Prop49
280
     0
102
RTVSPost2010PropOp49
 70
     1
102
RTVSPost2010Prop50
 90
       50
102
RTVSPost2010PropOp50
 70
     1
102
RTVSPost2010Prop51ColorIndex
 90
      256
102
RTVSPost2010Prop51ColorRGB
 90
-16777216
102
RTVSPost2010PropOp51
 70
     0
102
RTVSPost2010Prop52
140
1.0
102
RTVSPost2010PropOp52
 70
     0
102
RTVSPost2010Prop53
 90
        2
102
RTVSPost2010PropOp53
 70
     1
102
RTVSPost2010Prop54
  1
strokes_ogs.tif
102
RTVSPost2010PropOp54
 70
     1
102
RTVSPost2010Prop55
280
     0
102
RTVSPost2010PropOp55
 70
     1
102
RTVSPost2010Prop56
140
1.0
102
RTVSPost2010PropOp56
 70
     1
102
RTVSPost2010Prop57
140
1.0
102
RTVSPost2010PropOp57
 70
     1
  0
XRECORD
  5
2B6
102
{ACAD_REACTORS
330
2B5
102
}
330
2B5
100
AcDbXrecord
280
     1
102
RTVSPropertyOp0
 70
     0
102
RTVSPropertyOp1
 70
     0
102
RTVSPropertyOp2
 70
     0
102
RTVSPropertyOp3
 70
     0
102
RTVSPropertyOp4
 70
     0
102
RTVSPropertyOp5
 70
     0
102
RTVSPropertyOp6
 70
     0
102
RTVSPropertyOp7
 70
     0
102
RTVSPropertyOp8
 70
     0
102
RTVSPropertyOp9
 70
     0
102
RTVSPropertyOp10
 70
     0
102
RTVSPropertyOp11
 70
     0
102
RTVSPropertyOp12
 70
     0
102
RTVSPropertyOp13
 70
     0
102
RTVSPropertyOp14
 70
     2
102
RTVSPropertyOp15
 70
     0
102
RTVSPropertyOp16
 70
     0
102
RTVSPropertyOp17
 70
     0
102
RTVSPropertyOp18
 70
     0
102
RTVSPropertyOp19
 70
     0
102
RTVSPropertyOp20
 70
     0
102
RTVSPropertyOp21
 70
     0
102
RTVSPropertyOp22
 70
     0
102
RTVSPropertyOp23
 70
     0
102
RTVSPropertyOp24
 70
     0
102
RTVSPropertyOp25
 70
     0
102
RTVSPropertyOp26
 70
     0
102
RTVSPropertyOp27
 70
     0
102
RTVSPropertyOp28
 70
     0
102
RTVSPropertyOp29
 70
     0
102
RTVSPropertyOp30
 70
     0
102
RTVSPropertyOp31
 70
     0
102
RTVSPropertyOp32
 70
     0
102
RTVSPropertyOp33
 70
     0
102
RTVSPropertyOp34
 70
     0
102
RTVSPropertyOp35
 70
     0
102
RTVSPropertyOp36
 70
     0
102
RTVSPropertyOp37
 70
     0
102
RTVSPropertyOp38
 70
     0
102
RTVSPropertyOp39
 70
     0
102
RTVSPropertyOp40
 70
     0
102
RTVSPropertyOp41
 70
     0
102
RTVSPropertyOp42
 70
     0
102
RTVSPropertyOp43
 70
     0
102
RTVSPropertyOp44
 70
     0
102
RTVSPropertyOp45
 70
     0
102
RTVSPropertyOp46
 70
     0
102
RTVSPropertyOp47
 70
     0
102
RTVSPropertyOp48
 70
     0
102
RTVSPropertyOp49
 70
     0
102
RTVSPropertyOp50
 70
     0
102
RTVSPropertyOp51
 70
     0
102
RTVSPropertyOp52
 70
     0
102
RTVSPropertyOp53
 70
     0
102
RTVSPropertyOp54
 70
     0
102
RTVSPropertyOp55
 70
     0
102
RTVSPropertyOp56
 70
     0
102
RTVSPropertyOp57
 70
     0
102
RTVSPost2010Prop28
280
     0
102
RTVSPost2010PropOp28
 70
     0
102
RTVSPost2010Prop29
280
     1
102
RTVSPost2010PropOp29
 70
     0
102
RTVSPost2010Prop30
280
     1
102
RTVSPost2010PropOp30
 70
     0
102
RTVSPost2010Prop31
280
     0
102
RTVSPost2010PropOp31
 70
     0
102
RTVSPost2010Prop32
280
     0
102
RTVSPost2010PropOp32
 70
     0
102
RTVSPost2010Prop33
280
     0
102
RTVSPost2010PropOp33
 70
     0
102
RTVSPost2010Prop34
280
     0
102
RTVSPost2010PropOp34
 70
     0
102
RTVSPost2010Prop35
280
     0
102
RTVSPost2010PropOp35
 70
     0
102
RTVSPost2010Prop36
280
     0
102
RTVSPost2010PropOp36
 70
     0
102
RTVSPost2010Prop37
 90
       50
102
RTVSPost2010PropOp37
 70
     0
102
RTVSPost2010Prop38
140
0.0
102
RTVSPost2010PropOp38
 70
     0
102
RTVSPost2010Prop39
140
1.0
102
RTVSPost2010PropOp39
 70
     0
102
RTVSPost2010Prop40
 90
        0
102
RTVSPost2010PropOp40
 70
     0
102
RTVSPost2010Prop41ColorIndex
 90
       18
102
RTVSPost2010Prop41ColorRGB
 90
        0
102
RTVSPost2010PropOp41
 70
     0
102
RTVSPost2010Prop42
 90
       50
102
RTVSPost2010PropOp42
 70
     0
102
RTVSPost2010Prop43
 90
        3
102
RTVSPost2010PropOp43
 70
     0
102
RTVSPost2010Prop44ColorIndex
 90
        5
102
RTVSPost2010Prop44ColorRGB
 90
      255
102
RTVSPost2010PropOp44
 70
     0
102
RTVSPost2010Prop45
280
     0
102
RTVSPost2010PropOp45
 70
     0
102
RTVSPost2010Prop46
 90
       50
102
RTVSPost2010PropOp46
 70
     0
102
RTVSPost2010Prop47
 90
       50
102
RTVSPost2010PropOp47
 70
     0
102
RTVSPost2010Prop48
 90
       50
102
RTVSPost2010PropOp48
 70
     0
102
RTVSPost2010Prop49
280
     0
102
RTVSPost2010PropOp49
 70
     0
102
RTVSPost2010Prop50
 90
       50
102
RTVSPost2010PropOp50
 70
     0
102
RTVSPost2010Prop51ColorIndex
 90
      256
102
RTVSPost2010Prop51ColorRGB
 90
-16777216
102
RTVSPost2010PropOp51
 70
     0
102
RTVSPost2010Prop52
140
1.0
102
RTVSPost2010PropOp52
 70
     0
102
RTVSPost2010Prop53
 90
        2
102
RTVSPost2010PropOp53
 70
     0
102
RTVSPost2010Prop54
  1
strokes_ogs.tif
102
RTVSPost2010PropOp54
 70
     0
102
RTVSPost2010Prop55
280
     0
102
RTVSPost2010PropOp55
 70
     0
102
RTVSPost2010Prop56
140
1.0
102
RTVSPost2010PropOp56
 70
     0
102
RTVSPost2010Prop57
140
1.0
102
RTVSPost2010PropOp57
 70
     0
  0
XRECORD
  5
2B0
102
{ACAD_REACTORS
330
2AF
102
}
330
2AF
100
AcDbXrecord
280
     1
102
RTVSPropertyOp0
 70
     1
102
RTVSPropertyOp1
 70
     1
102
RTVSPropertyOp2
 70
     1
102
RTVSPropertyOp3
 70
     1
102
RTVSPropertyOp4
 70
     1
102
RTVSPropertyOp5
 70
     1
102
RTVSPropertyOp6
 70
     1
102
RTVSPropertyOp7
 70
     1
102
RTVSPropertyOp8
 70
     1
102
RTVSPropertyOp9
 70
     1
102
RTVSPropertyOp10
 70
     1
102
RTVSPropertyOp11
 70
     1
102
RTVSPropertyOp12
 70
     1
102
RTVSPropertyOp13
 70
     1
102
RTVSPropertyOp14
 70
     1
102
RTVSPropertyOp15
 70
     1
102
RTVSPropertyOp16
 70
     1
102
RTVSPropertyOp17
 70
     1
102
RTVSPropertyOp18
 70
     1
102
RTVSPropertyOp19
 70
     1
102
RTVSPropertyOp20
 70
     1
102
RTVSPropertyOp21
 70
     1
102
RTVSPropertyOp22
 70
     1
102
RTVSPropertyOp23
 70
     1
102
RTVSPropertyOp24
 70
     1
102
RTVSPropertyOp25
 70
     1
102
RTVSPropertyOp26
 70
     1
102
RTVSPropertyOp27
 70
     1
102
RTVSPropertyOp28
 70
     1
102
RTVSPropertyOp29
 70
     1
102
RTVSPropertyOp30
 70
     1
102
RTVSPropertyOp31
 70
     1
102
RTVSPropertyOp32
 70
     1
102
RTVSPropertyOp33
 70
     1
102
RTVSPropertyOp34
 70
     1
102
RTVSPropertyOp35
 70
     1
102
RTVSPropertyOp36
 70
     1
102
RTVSPropertyOp37
 70
     1
102
RTVSPropertyOp38
 70
     1
102
RTVSPropertyOp39
 70
     1
102
RTVSPropertyOp40
 70
     1
102
RTVSPropertyOp41
 70
     1
102
RTVSPropertyOp42
 70
     1
102
RTVSPropertyOp43
 70
     1
102
RTVSPropertyOp44
 70
     1
102
RTVSPropertyOp45
 70
     1
102
RTVSPropertyOp46
 70
     1
102
RTVSPropertyOp47
 70
     1
102
RTVSPropertyOp48
 70
     1
102
RTVSPropertyOp49
 70
     1
102
RTVSPropertyOp50
 70
     1
102
RTVSPropertyOp51
 70
     0
102
RTVSPropertyOp52
 70
     0
102
RTVSPropertyOp53
 70
     1
102
RTVSPropertyOp54
 70
     1
102
RTVSPropertyOp55
 70
     1
102
RTVSPropertyOp56
 70
     1
102
RTVSPropertyOp57
 70
     1
102
RTVSPost2010Prop28
280
     0
102
RTVSPost2010PropOp28
 70
     1
102
RTVSPost2010Prop29
280
     1
102
RTVSPost2010PropOp29
 70
     1
102
RTVSPost2010Prop30
280
     1
102
RTVSPost2010PropOp30
 70
     1
102
RTVSPost2010Prop31
280
     0
102
RTVSPost2010PropOp31
 70
     1
102
RTVSPost2010Prop32
280
     0
102
RTVSPost2010PropOp32
 70
     1
102
RTVSPost2010Prop33
280
     0
102
RTVSPost2010PropOp33
 70
     1
102
RTVSPost2010Prop34
280
     0
102
RTVSPost2010PropOp34
 70
     1
102
RTVSPost2010Prop35
280
     0
102
RTVSPost2010PropOp35
 70
     1
102
RTVSPost2010Prop36
280
     0
102
RTVSPost2010PropOp36
 70
     1
102
RTVSPost2010Prop37
 90
       50
102
RTVSPost2010PropOp37
 70
     1
102
RTVSPost2010Prop38
140
0.0
102
RTVSPost2010PropOp38
 70
     1
102
RTVSPost2010Prop39
140
1.0
102
RTVSPost2010PropOp39
 70
     1
102
RTVSPost2010Prop40
 90
        0
102
RTVSPost2010PropOp40
 70
     1
102
RTVSPost2010Prop41ColorIndex
 90
       18
102
RTVSPost2010Prop41ColorRGB
 90
        0
102
RTVSPost2010PropOp41
 70
     1
102
RTVSPost2010Prop42
 90
       50
102
RTVSPost2010PropOp42
 70
     1
102
RTVSPost2010Prop43
 90
        3
102
RTVSPost2010PropOp43
 70
     1
102
RTVSPost2010Prop44ColorIndex
 90
        5
102
RTVSPost2010Prop44ColorRGB
 90
      255
102
RTVSPost2010PropOp44
 70
     1
102
RTVSPost2010Prop45
280
     0
102
RTVSPost2010PropOp45
 70
     1
102
RTVSPost2010Prop46
 90
       50
102
RTVSPost2010PropOp46
 70
     1
102
RTVSPost2010Prop47
 90
       50
102
RTVSPost2010PropOp47
 70
     1
102
RTVSPost2010Prop48
 90
       50
102
RTVSPost2010PropOp48
 70
     1
102
RTVSPost2010Prop49
280
     0
102
RTVSPost2010PropOp49
 70
     1
102
RTVSPost2010Prop50
 90
       50
102
RTVSPost2010PropOp50
 70
     1
102
RTVSPost2010Prop51ColorIndex
 90
      256
102
RTVSPost2010Prop51ColorRGB
 90
-16777216
102
RTVSPost2010PropOp51
 70
     0
102
RTVSPost2010Prop52
140
1.0
102
RTVSPost2010PropOp52
 70
     0
102
RTVSPost2010Prop53
 90
        2
102
RTVSPost2010PropOp53
 70
     1
102
RTVSPost2010Prop54
  1
strokes_ogs.tif
102
RTVSPost2010PropOp54
 70
     1
102
RTVSPost2010Prop55
280
     0
102
RTVSPost2010PropOp55
 70
     1
102
RTVSPost2010Prop56
140
1.0
102
RTVSPost2010PropOp56
 70
     1
102
RTVSPost2010Prop57
140
1.0
102
RTVSPost2010PropOp57
 70
     1
  0
XRECORD
  5
2B8
102
{ACAD_REACTORS
330
2B7
102
}
330
2B7
100
AcDbXrecord
280
     1
102
RTVSPropertyOp0
 70
     0
102
RTVSPropertyOp1
 70
     0
102
RTVSPropertyOp2
 70
     0
102
RTVSPropertyOp3
 70
     0
102
RTVSPropertyOp4
 70
     0
102
RTVSPropertyOp5
 70
     0
102
RTVSPropertyOp6
 70
     0
102
RTVSPropertyOp7
 70
     0
102
RTVSPropertyOp8
 70
     0
102
RTVSPropertyOp9
 70
     0
102
RTVSPropertyOp10
 70
     0
102
RTVSPropertyOp11
 70
     0
102
RTVSPropertyOp12
 70
     0
102
RTVSPropertyOp13
 70
     0
102
RTVSPropertyOp14
 70
     2
102
RTVSPropertyOp15
 70
     0
102
RTVSPropertyOp16
 70
     0
102
RTVSPropertyOp17
 70
     0
102
RTVSPropertyOp18
 70
     0
102
RTVSPropertyOp19
 70
     0
102
RTVSPropertyOp20
 70
     0
102
RTVSPropertyOp21
 70
     0
102
RTVSPropertyOp22
 70
     0
102
RTVSPropertyOp23
 70
     0
102
RTVSPropertyOp24
 70
     0
102
RTVSPropertyOp25
 70
     0
102
RTVSPropertyOp26
 70
     0
102
RTVSPropertyOp27
 70
     0
102
RTVSPropertyOp28
 70
     0
102
RTVSPropertyOp29
 70
     0
102
RTVSPropertyOp30
 70
     0
102
RTVSPropertyOp31
 70
     0
102
RTVSPropertyOp32
 70
     0
102
RTVSPropertyOp33
 70
     0
102
RTVSPropertyOp34
 70
     0
102
RTVSPropertyOp35
 70
     0
102
RTVSPropertyOp36
 70
     0
102
RTVSPropertyOp37
 70
     0
102
RTVSPropertyOp38
 70
     0
102
RTVSPropertyOp39
 70
     0
102
RTVSPropertyOp40
 70
     0
102
RTVSPropertyOp41
 70
     0
102
RTVSPropertyOp42
 70
     0
102
RTVSPropertyOp43
 70
     0
102
RTVSPropertyOp44
 70
     0
102
RTVSPropertyOp45
 70
     0
102
RTVSPropertyOp46
 70
     0
102
RTVSPropertyOp47
 70
     0
102
RTVSPropertyOp48
 70
     0
102
RTVSPropertyOp49
 70
     0
102
RTVSPropertyOp50
 70
     0
102
RTVSPropertyOp51
 70
     0
102
RTVSPropertyOp52
 70
     0
102
RTVSPropertyOp53
 70
     0
102
RTVSPropertyOp54
 70
     0
102
RTVSPropertyOp55
 70
     0
102
RTVSPropertyOp56
 70
     0
102
RTVSPropertyOp57
 70
     0
102
RTVSPost2010Prop28
280
     0
102
RTVSPost2010PropOp28
 70
     0
102
RTVSPost2010Prop29
280
     1
102
RTVSPost2010PropOp29
 70
     0
102
RTVSPost2010Prop30
280
     1
102
RTVSPost2010PropOp30
 70
     0
102
RTVSPost2010Prop31
280
     0
102
RTVSPost2010PropOp31
 70
     0
102
RTVSPost2010Prop32
280
     0
102
RTVSPost2010PropOp32
 70
     0
102
RTVSPost2010Prop33
280
     0
102
RTVSPost2010PropOp33
 70
     0
102
RTVSPost2010Prop34
280
     0
102
RTVSPost2010PropOp34
 70
     0
102
RTVSPost2010Prop35
280
     0
102
RTVSPost2010PropOp35
 70
     0
102
RTVSPost2010Prop36
280
     0
102
RTVSPost2010PropOp36
 70
     0
102
RTVSPost2010Prop37
 90
       50
102
RTVSPost2010PropOp37
 70
     0
102
RTVSPost2010Prop38
140
0.0
102
RTVSPost2010PropOp38
 70
     0
102
RTVSPost2010Prop39
140
1.0
102
RTVSPost2010PropOp39
 70
     0
102
RTVSPost2010Prop40
 90
        0
102
RTVSPost2010PropOp40
 70
     0
102
RTVSPost2010Prop41ColorIndex
 90
       18
102
RTVSPost2010Prop41ColorRGB
 90
        0
102
RTVSPost2010PropOp41
 70
     0
102
RTVSPost2010Prop42
 90
       50
102
RTVSPost2010PropOp42
 70
     0
102
RTVSPost2010Prop43
 90
        3
102
RTVSPost2010PropOp43
 70
     0
102
RTVSPost2010Prop44ColorIndex
 90
        5
102
RTVSPost2010Prop44ColorRGB
 90
      255
102
RTVSPost2010PropOp44
 70
     0
102
RTVSPost2010Prop45
280
     0
102
RTVSPost2010PropOp45
 70
     0
102
RTVSPost2010Prop46
 90
       50
102
RTVSPost2010PropOp46
 70
     0
102
RTVSPost2010Prop47
 90
       50
102
RTVSPost2010PropOp47
 70
     0
102
RTVSPost2010Prop48
 90
       50
102
RTVSPost2010PropOp48
 70
     0
102
RTVSPost2010Prop49
280
     0
102
RTVSPost2010PropOp49
 70
     0
102
RTVSPost2010Prop50
 90
       50
102
RTVSPost2010PropOp50
 70
     0
102
RTVSPost2010Prop51ColorIndex
 90
      256
102
RTVSPost2010Prop51ColorRGB
 90
-16777216
102
RTVSPost2010PropOp51
 70
     0
102
RTVSPost2010Prop52
140
1.0
102
RTVSPost2010PropOp52
 70
     0
102
RTVSPost2010Prop53
 90
        2
102
RTVSPost2010PropOp53
 70
     0
102
RTVSPost2010Prop54
  1
strokes_ogs.tif
102
RTVSPost2010PropOp54
 70
     0
102
RTVSPost2010Prop55
280
     0
102
RTVSPost2010PropOp55
 70
     0
102
RTVSPost2010Prop56
140
1.0
102
RTVSPost2010PropOp56
 70
     0
102
RTVSPost2010Prop57
140
1.0
102
RTVSPost2010PropOp57
 70
     0
  0
XRECORD
  5
2A6
102
{ACAD_REACTORS
330
2A5
102
}
330
2A5
100
AcDbXrecord
280
     1
102
RTVSPropertyOp0
 70
     1
102
RTVSPropertyOp1
 70
     1
102
RTVSPropertyOp2
 70
     1
102
RTVSPropertyOp3
 70
     1
102
RTVSPropertyOp4
 70
     1
102
RTVSPropertyOp5
 70
     1
102
RTVSPropertyOp6
 70
     1
102
RTVSPropertyOp7
 70
     1
102
RTVSPropertyOp8
 70
     1
102
RTVSPropertyOp9
 70
     1
102
RTVSPropertyOp10
 70
     1
102
RTVSPropertyOp11
 70
     1
102
RTVSPropertyOp12
 70
     1
102
RTVSPropertyOp13
 70
     1
102
RTVSPropertyOp14
 70
     1
102
RTVSPropertyOp15
 70
     1
102
RTVSPropertyOp16
 70
     1
102
RTVSPropertyOp17
 70
     1
102
RTVSPropertyOp18
 70
     1
102
RTVSPropertyOp19
 70
     1
102
RTVSPropertyOp20
 70
     1
102
RTVSPropertyOp21
 70
     1
102
RTVSPropertyOp22
 70
     1
102
RTVSPropertyOp23
 70
     1
102
RTVSPropertyOp24
 70
     1
102
RTVSPropertyOp25
 70
     1
102
RTVSPropertyOp26
 70
     1
102
RTVSPropertyOp27
 70
     1
102
RTVSPropertyOp28
 70
     1
102
RTVSPropertyOp29
 70
     1
102
RTVSPropertyOp30
 70
     1
102
RTVSPropertyOp31
 70
     1
102
RTVSPropertyOp32
 70
     1
102
RTVSPropertyOp33
 70
     1
102
RTVSPropertyOp34
 70
     1
102
RTVSPropertyOp35
 70
     1
102
RTVSPropertyOp36
 70
     1
102
RTVSPropertyOp37
 70
     1
102
RTVSPropertyOp38
 70
     1
102
RTVSPropertyOp39
 70
     1
102
RTVSPropertyOp40
 70
     1
102
RTVSPropertyOp41
 70
     1
102
RTVSPropertyOp42
 70
     1
102
RTVSPropertyOp43
 70
     1
102
RTVSPropertyOp44
 70
     1
102
RTVSPropertyOp45
 70
     1
102
RTVSPropertyOp46
 70
     1
102
RTVSPropertyOp47
 70
     1
102
RTVSPropertyOp48
 70
     1
102
RTVSPropertyOp49
 70
     1
102
RTVSPropertyOp50
 70
     1
102
RTVSPropertyOp51
 70
     0
102
RTVSPropertyOp52
 70
     0
102
RTVSPropertyOp53
 70
     1
102
RTVSPropertyOp54
 70
     1
102
RTVSPropertyOp55
 70
     1
102
RTVSPropertyOp56
 70
     1
102
RTVSPropertyOp57
 70
     1
102
RTVSPost2010Prop28
280
     0
102
RTVSPost2010PropOp28
 70
     1
102
RTVSPost2010Prop29
280
     1
102
RTVSPost2010PropOp29
 70
     1
102
RTVSPost2010Prop30
280
     1
102
RTVSPost2010PropOp30
 70
     1
102
RTVSPost2010Prop31
280
     0
102
RTVSPost2010PropOp31
 70
     1
102
RTVSPost2010Prop32
280
     0
102
RTVSPost2010PropOp32
 70
     1
102
RTVSPost2010Prop33
280
     0
102
RTVSPost2010PropOp33
 70
     1
102
RTVSPost2010Prop34
280
     0
102
RTVSPost2010PropOp34
 70
     1
102
RTVSPost2010Prop35
280
     0
102
RTVSPost2010PropOp35
 70
     1
102
RTVSPost2010Prop36
280
     0
102
RTVSPost2010PropOp36
 70
     1
102
RTVSPost2010Prop37
 90
       50
102
RTVSPost2010PropOp37
 70
     1
102
RTVSPost2010Prop38
140
0.0
102
RTVSPost2010PropOp38
 70
     1
102
RTVSPost2010Prop39
140
1.0
102
RTVSPost2010PropOp39
 70
     1
102
RTVSPost2010Prop40
 90
        0
102
RTVSPost2010PropOp40
 70
     1
102
RTVSPost2010Prop41ColorIndex
 90
       18
102
RTVSPost2010Prop41ColorRGB
 90
        0
102
RTVSPost2010PropOp41
 70
     1
102
RTVSPost2010Prop42
 90
       50
102
RTVSPost2010PropOp42
 70
     1
102
RTVSPost2010Prop43
 90
        3
102
RTVSPost2010PropOp43
 70
     1
102
RTVSPost2010Prop44ColorIndex
 90
        5
102
RTVSPost2010Prop44ColorRGB
 90
      255
102
RTVSPost2010PropOp44
 70
     1
102
RTVSPost2010Prop45
280
     0
102
RTVSPost2010PropOp45
 70
     1
102
RTVSPost2010Prop46
 90
       50
102
RTVSPost2010PropOp46
 70
     1
102
RTVSPost2010Prop47
 90
       50
102
RTVSPost2010PropOp47
 70
     1
102
RTVSPost2010Prop48
 90
       50
102
RTVSPost2010PropOp48
 70
     1
102
RTVSPost2010Prop49
280
     0
102
RTVSPost2010PropOp49
 70
     1
102
RTVSPost2010Prop50
 90
       50
102
RTVSPost2010PropOp50
 70
     1
102
RTVSPost2010Prop51ColorIndex
 90
      256
102
RTVSPost2010Prop51ColorRGB
 90
-16777216
102
RTVSPost2010PropOp51
 70
     0
102
RTVSPost2010Prop52
140
1.0
102
RTVSPost2010PropOp52
 70
     0
102
RTVSPost2010Prop53
 90
        2
102
RTVSPost2010PropOp53
 70
     1
102
RTVSPost2010Prop54
  1
strokes_ogs.tif
102
RTVSPost2010PropOp54
 70
     1
102
RTVSPost2010Prop55
280
     0
102
RTVSPost2010PropOp55
 70
     1
102
RTVSPost2010Prop56
140
1.0
102
RTVSPost2010PropOp56
 70
     1
102
RTVSPost2010Prop57
140
1.0
102
RTVSPost2010PropOp57
 70
     1
  0
XRECORD
  5
2C4
102
{ACAD_REACTORS
330
2C3
102
}
330
2C3
100
AcDbXrecord
280
     1
102
RTVSPropertyOp0
 70
     1
102
RTVSPropertyOp1
 70
     1
102
RTVSPropertyOp2
 70
     1
102
RTVSPropertyOp3
 70
     1
102
RTVSPropertyOp4
 70
     1
102
RTVSPropertyOp5
 70
     1
102
RTVSPropertyOp6
 70
     1
102
RTVSPropertyOp7
 70
     1
102
RTVSPropertyOp8
 70
     1
102
RTVSPropertyOp9
 70
     1
102
RTVSPropertyOp10
 70
     1
102
RTVSPropertyOp11
 70
     1
102
RTVSPropertyOp12
 70
     1
102
RTVSPropertyOp13
 70
     1
102
RTVSPropertyOp14
 70
     1
102
RTVSPropertyOp15
 70
     1
102
RTVSPropertyOp16
 70
     1
102
RTVSPropertyOp17
 70
     1
102
RTVSPropertyOp18
 70
     1
102
RTVSPropertyOp19
 70
     1
102
RTVSPropertyOp20
 70
     1
102
RTVSPropertyOp21
 70
     1
102
RTVSPropertyOp22
 70
     1
102
RTVSPropertyOp23
 70
     1
102
RTVSPropertyOp24
 70
     1
102
RTVSPropertyOp25
 70
     1
102
RTVSPropertyOp26
 70
     1
102
RTVSPropertyOp27
 70
     1
102
RTVSPropertyOp28
 70
     1
102
RTVSPropertyOp29
 70
     1
102
RTVSPropertyOp30
 70
     1
102
RTVSPropertyOp31
 70
     1
102
RTVSPropertyOp32
 70
     1
102
RTVSPropertyOp33
 70
     1
102
RTVSPropertyOp34
 70
     1
102
RTVSPropertyOp35
 70
     1
102
RTVSPropertyOp36
 70
     1
102
RTVSPropertyOp37
 70
     1
102
RTVSPropertyOp38
 70
     1
102
RTVSPropertyOp39
 70
     1
102
RTVSPropertyOp40
 70
     1
102
RTVSPropertyOp41
 70
     1
102
RTVSPropertyOp42
 70
     1
102
RTVSPropertyOp43
 70
     1
102
RTVSPropertyOp44
 70
     1
102
RTVSPropertyOp45
 70
     1
102
RTVSPropertyOp46
 70
     1
102
RTVSPropertyOp47
 70
     1
102
RTVSPropertyOp48
 70
     1
102
RTVSPropertyOp49
 70
     1
102
RTVSPropertyOp50
 70
     1
102
RTVSPropertyOp51
 70
     0
102
RTVSPropertyOp52
 70
     0
102
RTVSPropertyOp53
 70
     1
102
RTVSPropertyOp54
 70
     1
102
RTVSPropertyOp55
 70
     1
102
RTVSPropertyOp56
 70
     1
102
RTVSPropertyOp57
 70
     1
102
RTVSPost2010Prop28
280
     0
102
RTVSPost2010PropOp28
 70
     1
102
RTVSPost2010Prop29
280
     1
102
RTVSPost2010PropOp29
 70
     1
102
RTVSPost2010Prop30
280
     1
102
RTVSPost2010PropOp30
 70
     1
102
RTVSPost2010Prop31
280
     0
102
RTVSPost2010PropOp31
 70
     1
102
RTVSPost2010Prop32
280
     0
102
RTVSPost2010PropOp32
 70
     1
102
RTVSPost2010Prop33
280
     0
102
RTVSPost2010PropOp33
 70
     1
102
RTVSPost2010Prop34
280
     0
102
RTVSPost2010PropOp34
 70
     1
102
RTVSPost2010Prop35
280
     0
102
RTVSPost2010PropOp35
 70
     1
102
RTVSPost2010Prop36
280
     0
102
RTVSPost2010PropOp36
 70
     1
102
RTVSPost2010Prop37
 90
       50
102
RTVSPost2010PropOp37
 70
     1
102
RTVSPost2010Prop38
140
0.0
102
RTVSPost2010PropOp38
 70
     1
102
RTVSPost2010Prop39
140
1.0
102
RTVSPost2010PropOp39
 70
     1
102
RTVSPost2010Prop40
 90
        0
102
RTVSPost2010PropOp40
 70
     1
102
RTVSPost2010Prop41ColorIndex
 90
       18
102
RTVSPost2010Prop41ColorRGB
 90
        0
102
RTVSPost2010PropOp41
 70
     1
102
RTVSPost2010Prop42
 90
       50
102
RTVSPost2010PropOp42
 70
     1
102
RTVSPost2010Prop43
 90
        3
102
RTVSPost2010PropOp43
 70
     1
102
RTVSPost2010Prop44ColorIndex
 90
        5
102
RTVSPost2010Prop44ColorRGB
 90
      255
102
RTVSPost2010PropOp44
 70
     1
102
RTVSPost2010Prop45
280
     0
102
RTVSPost2010PropOp45
 70
     1
102
RTVSPost2010Prop46
 90
       50
102
RTVSPost2010PropOp46
 70
     1
102
RTVSPost2010Prop47
 90
       50
102
RTVSPost2010PropOp47
 70
     1
102
RTVSPost2010Prop48
 90
       50
102
RTVSPost2010PropOp48
 70
     1
102
RTVSPost2010Prop49
280
     0
102
RTVSPost2010PropOp49
 70
     1
102
RTVSPost2010Prop50
 90
       50
102
RTVSPost2010PropOp50
 70
     1
102
RTVSPost2010Prop51ColorIndex
 90
      256
102
RTVSPost2010Prop51ColorRGB
 90
-16777216
102
RTVSPost2010PropOp51
 70
     0
102
RTVSPost2010Prop52
140
1.0
102
RTVSPost2010PropOp52
 70
     0
102
RTVSPost2010Prop53
 90
        2
102
RTVSPost2010PropOp53
 70
     1
102
RTVSPost2010Prop54
  1
strokes_ogs.tif
102
RTVSPost2010PropOp54
 70
     1
102
RTVSPost2010Prop55
280
     0
102
RTVSPost2010PropOp55
 70
     1
102
RTVSPost2010Prop56
140
1.0
102
RTVSPost2010PropOp56
 70
     1
102
RTVSPost2010Prop57
140
1.0
102
RTVSPost2010PropOp57
 70
     1
  0
XRECORD
  5
2C2
102
{ACAD_REACTORS
330
2C1
102
}
330
2C1
100
AcDbXrecord
280
     1
102
RTVSPropertyOp0
 70
     1
102
RTVSPropertyOp1
 70
     1
102
RTVSPropertyOp2
 70
     1
102
RTVSPropertyOp3
 70
     1
102
RTVSPropertyOp4
 70
     1
102
RTVSPropertyOp5
 70
     1
102
RTVSPropertyOp6
 70
     1
102
RTVSPropertyOp7
 70
     1
102
RTVSPropertyOp8
 70
     1
102
RTVSPropertyOp9
 70
     1
102
RTVSPropertyOp10
 70
     1
102
RTVSPropertyOp11
 70
     1
102
RTVSPropertyOp12
 70
     1
102
RTVSPropertyOp13
 70
     1
102
RTVSPropertyOp14
 70
     1
102
RTVSPropertyOp15
 70
     1
102
RTVSPropertyOp16
 70
     1
102
RTVSPropertyOp17
 70
     1
102
RTVSPropertyOp18
 70
     1
102
RTVSPropertyOp19
 70
     1
102
RTVSPropertyOp20
 70
     1
102
RTVSPropertyOp21
 70
     1
102
RTVSPropertyOp22
 70
     1
102
RTVSPropertyOp23
 70
     1
102
RTVSPropertyOp24
 70
     1
102
RTVSPropertyOp25
 70
     1
102
RTVSPropertyOp26
 70
     1
102
RTVSPropertyOp27
 70
     1
102
RTVSPropertyOp28
 70
     1
102
RTVSPropertyOp29
 70
     1
102
RTVSPropertyOp30
 70
     1
102
RTVSPropertyOp31
 70
     1
102
RTVSPropertyOp32
 70
     1
102
RTVSPropertyOp33
 70
     1
102
RTVSPropertyOp34
 70
     1
102
RTVSPropertyOp35
 70
     1
102
RTVSPropertyOp36
 70
     1
102
RTVSPropertyOp37
 70
     1
102
RTVSPropertyOp38
 70
     1
102
RTVSPropertyOp39
 70
     1
102
RTVSPropertyOp40
 70
     1
102
RTVSPropertyOp41
 70
     1
102
RTVSPropertyOp42
 70
     1
102
RTVSPropertyOp43
 70
     1
102
RTVSPropertyOp44
 70
     1
102
RTVSPropertyOp45
 70
     1
102
RTVSPropertyOp46
 70
     1
102
RTVSPropertyOp47
 70
     1
102
RTVSPropertyOp48
 70
     1
102
RTVSPropertyOp49
 70
     1
102
RTVSPropertyOp50
 70
     1
102
RTVSPropertyOp51
 70
     0
102
RTVSPropertyOp52
 70
     0
102
RTVSPropertyOp53
 70
     1
102
RTVSPropertyOp54
 70
     1
102
RTVSPropertyOp55
 70
     1
102
RTVSPropertyOp56
 70
     1
102
RTVSPropertyOp57
 70
     1
102
RTVSPost2010Prop28
280
     0
102
RTVSPost2010PropOp28
 70
     1
102
RTVSPost2010Prop29
280
     1
102
RTVSPost2010PropOp29
 70
     1
102
RTVSPost2010Prop30
280
     1
102
RTVSPost2010PropOp30
 70
     1
102
RTVSPost2010Prop31
280
     0
102
RTVSPost2010PropOp31
 70
     1
102
RTVSPost2010Prop32
280
     0
102
RTVSPost2010PropOp32
 70
     1
102
RTVSPost2010Prop33
280
     0
102
RTVSPost2010PropOp33
 70
     1
102
RTVSPost2010Prop34
280
     0
102
RTVSPost2010PropOp34
 70
     1
102
RTVSPost2010Prop35
280
     0
102
RTVSPost2010PropOp35
 70
     1
102
RTVSPost2010Prop36
280
     0
102
RTVSPost2010PropOp36
 70
     1
102
RTVSPost2010Prop37
 90
       50
102
RTVSPost2010PropOp37
 70
     1
102
RTVSPost2010Prop38
140
0.0
102
RTVSPost2010PropOp38
 70
     1
102
RTVSPost2010Prop39
140
1.0
102
RTVSPost2010PropOp39
 70
     1
102
RTVSPost2010Prop40
 90
        0
102
RTVSPost2010PropOp40
 70
     1
102
RTVSPost2010Prop41ColorIndex
 90
       18
102
RTVSPost2010Prop41ColorRGB
 90
        0
102
RTVSPost2010PropOp41
 70
     1
102
RTVSPost2010Prop42
 90
       50
102
RTVSPost2010PropOp42
 70
     1
102
RTVSPost2010Prop43
 90
        3
102
RTVSPost2010PropOp43
 70
     1
102
RTVSPost2010Prop44ColorIndex
 90
        5
102
RTVSPost2010Prop44ColorRGB
 90
      255
102
RTVSPost2010PropOp44
 70
     1
102
RTVSPost2010Prop45
280
     0
102
RTVSPost2010PropOp45
 70
     1
102
RTVSPost2010Prop46
 90
       50
102
RTVSPost2010PropOp46
 70
     1
102
RTVSPost2010Prop47
 90
       50
102
RTVSPost2010PropOp47
 70
     1
102
RTVSPost2010Prop48
 90
       50
102
RTVSPost2010PropOp48
 70
     1
102
RTVSPost2010Prop49
280
     0
102
RTVSPost2010PropOp49
 70
     1
102
RTVSPost2010Prop50
 90
       50
102
RTVSPost2010PropOp50
 70
     1
102
RTVSPost2010Prop51ColorIndex
 90
      256
102
RTVSPost2010Prop51ColorRGB
 90
-16777216
102
RTVSPost2010PropOp51
 70
     0
102
RTVSPost2010Prop52
140
1.0
102
RTVSPost2010PropOp52
 70
     0
102
RTVSPost2010Prop53
 90
        2
102
RTVSPost2010PropOp53
 70
     1
102
RTVSPost2010Prop54
  1
strokes_ogs.tif
102
RTVSPost2010PropOp54
 70
     1
102
RTVSPost2010Prop55
280
     0
102
RTVSPost2010PropOp55
 70
     1
102
RTVSPost2010Prop56
140
1.0
102
RTVSPost2010PropOp56
 70
     1
102
RTVSPost2010Prop57
140
1.0
102
RTVSPost2010PropOp57
 70
     1
  0
XRECORD
  5
2BC
102
{ACAD_REACTORS
330
2BB
102
}
330
2BB
100
AcDbXrecord
280
     1
102
RTVSPropertyOp0
 70
     1
102
RTVSPropertyOp1
 70
     1
102
RTVSPropertyOp2
 70
     1
102
RTVSPropertyOp3
 70
     1
102
RTVSPropertyOp4
 70
     1
102
RTVSPropertyOp5
 70
     1
102
RTVSPropertyOp6
 70
     1
102
RTVSPropertyOp7
 70
     1
102
RTVSPropertyOp8
 70
     1
102
RTVSPropertyOp9
 70
     1
102
RTVSPropertyOp10
 70
     1
102
RTVSPropertyOp11
 70
     1
102
RTVSPropertyOp12
 70
     1
102
RTVSPropertyOp13
 70
     1
102
RTVSPropertyOp14
 70
     1
102
RTVSPropertyOp15
 70
     1
102
RTVSPropertyOp16
 70
     1
102
RTVSPropertyOp17
 70
     1
102
RTVSPropertyOp18
 70
     1
102
RTVSPropertyOp19
 70
     1
102
RTVSPropertyOp20
 70
     1
102
RTVSPropertyOp21
 70
     1
102
RTVSPropertyOp22
 70
     1
102
RTVSPropertyOp23
 70
     1
102
RTVSPropertyOp24
 70
     1
102
RTVSPropertyOp25
 70
     1
102
RTVSPropertyOp26
 70
     1
102
RTVSPropertyOp27
 70
     1
102
RTVSPropertyOp28
 70
     1
102
RTVSPropertyOp29
 70
     1
102
RTVSPropertyOp30
 70
     1
102
RTVSPropertyOp31
 70
     1
102
RTVSPropertyOp32
 70
     1
102
RTVSPropertyOp33
 70
     1
102
RTVSPropertyOp34
 70
     1
102
RTVSPropertyOp35
 70
     1
102
RTVSPropertyOp36
 70
     1
102
RTVSPropertyOp37
 70
     1
102
RTVSPropertyOp38
 70
     1
102
RTVSPropertyOp39
 70
     1
102
RTVSPropertyOp40
 70
     1
102
RTVSPropertyOp41
 70
     1
102
RTVSPropertyOp42
 70
     1
102
RTVSPropertyOp43
 70
     1
102
RTVSPropertyOp44
 70
     1
102
RTVSPropertyOp45
 70
     1
102
RTVSPropertyOp46
 70
     1
102
RTVSPropertyOp47
 70
     1
102
RTVSPropertyOp48
 70
     1
102
RTVSPropertyOp49
 70
     1
102
RTVSPropertyOp50
 70
     1
102
RTVSPropertyOp51
 70
     0
102
RTVSPropertyOp52
 70
     0
102
RTVSPropertyOp53
 70
     1
102
RTVSPropertyOp54
 70
     1
102
RTVSPropertyOp55
 70
     1
102
RTVSPropertyOp56
 70
     1
102
RTVSPropertyOp57
 70
     1
102
RTVSPost2010Prop28
280
     0
102
RTVSPost2010PropOp28
 70
     1
102
RTVSPost2010Prop29
280
     1
102
RTVSPost2010PropOp29
 70
     1
102
RTVSPost2010Prop30
280
     1
102
RTVSPost2010PropOp30
 70
     1
102
RTVSPost2010Prop31
280
     0
102
RTVSPost2010PropOp31
 70
     1
102
RTVSPost2010Prop32
280
     0
102
RTVSPost2010PropOp32
 70
     1
102
RTVSPost2010Prop33
280
     0
102
RTVSPost2010PropOp33
 70
     1
102
RTVSPost2010Prop34
280
     0
102
RTVSPost2010PropOp34
 70
     1
102
RTVSPost2010Prop35
280
     0
102
RTVSPost2010PropOp35
 70
     1
102
RTVSPost2010Prop36
280
     0
102
RTVSPost2010PropOp36
 70
     1
102
RTVSPost2010Prop37
 90
       50
102
RTVSPost2010PropOp37
 70
     1
102
RTVSPost2010Prop38
140
0.0
102
RTVSPost2010PropOp38
 70
     1
102
RTVSPost2010Prop39
140
1.0
102
RTVSPost2010PropOp39
 70
     1
102
RTVSPost2010Prop40
 90
        0
102
RTVSPost2010PropOp40
 70
     1
102
RTVSPost2010Prop41ColorIndex
 90
       18
102
RTVSPost2010Prop41ColorRGB
 90
        0
102
RTVSPost2010PropOp41
 70
     1
102
RTVSPost2010Prop42
 90
       50
102
RTVSPost2010PropOp42
 70
     1
102
RTVSPost2010Prop43
 90
        3
102
RTVSPost2010PropOp43
 70
     1
102
RTVSPost2010Prop44ColorIndex
 90
        5
102
RTVSPost2010Prop44ColorRGB
 90
      255
102
RTVSPost2010PropOp44
 70
     1
102
RTVSPost2010Prop45
280
     0
102
RTVSPost2010PropOp45
 70
     1
102
RTVSPost2010Prop46
 90
       50
102
RTVSPost2010PropOp46
 70
     1
102
RTVSPost2010Prop47
 90
       50
102
RTVSPost2010PropOp47
 70
     1
102
RTVSPost2010Prop48
 90
       50
102
RTVSPost2010PropOp48
 70
     1
102
RTVSPost2010Prop49
280
     0
102
RTVSPost2010PropOp49
 70
     1
102
RTVSPost2010Prop50
 90
       50
102
RTVSPost2010PropOp50
 70
     1
102
RTVSPost2010Prop51ColorIndex
 90
      256
102
RTVSPost2010Prop51ColorRGB
 90
-16777216
102
RTVSPost2010PropOp51
 70
     0
102
RTVSPost2010Prop52
140
1.0
102
RTVSPost2010PropOp52
 70
     0
102
RTVSPost2010Prop53
 90
        2
102
RTVSPost2010PropOp53
 70
     1
102
RTVSPost2010Prop54
  1
strokes_ogs.tif
102
RTVSPost2010PropOp54
 70
     1
102
RTVSPost2010Prop55
280
     0
102
RTVSPost2010PropOp55
 70
     1
102
RTVSPost2010Prop56
140
1.0
102
RTVSPost2010PropOp56
 70
     1
102
RTVSPost2010Prop57
140
1.0
102
RTVSPost2010PropOp57
 70
     1
  0
XRECORD
  5
2BE
102
{ACAD_REACTORS
330
2BD
102
}
330
2BD
100
AcDbXrecord
280
     1
102
RTVSPropertyOp0
 70
     1
102
RTVSPropertyOp1
 70
     1
102
RTVSPropertyOp2
 70
     1
102
RTVSPropertyOp3
 70
     1
102
RTVSPropertyOp4
 70
     1
102
RTVSPropertyOp5
 70
     1
102
RTVSPropertyOp6
 70
     1
102
RTVSPropertyOp7
 70
     1
102
RTVSPropertyOp8
 70
     1
102
RTVSPropertyOp9
 70
     1
102
RTVSPropertyOp10
 70
     1
102
RTVSPropertyOp11
 70
     1
102
RTVSPropertyOp12
 70
     1
102
RTVSPropertyOp13
 70
     1
102
RTVSPropertyOp14
 70
     1
102
RTVSPropertyOp15
 70
     1
102
RTVSPropertyOp16
 70
     1
102
RTVSPropertyOp17
 70
     1
102
RTVSPropertyOp18
 70
     1
102
RTVSPropertyOp19
 70
     1
102
RTVSPropertyOp20
 70
     1
102
RTVSPropertyOp21
 70
     1
102
RTVSPropertyOp22
 70
     1
102
RTVSPropertyOp23
 70
     1
102
RTVSPropertyOp24
 70
     1
102
RTVSPropertyOp25
 70
     1
102
RTVSPropertyOp26
 70
     1
102
RTVSPropertyOp27
 70
     1
102
RTVSPropertyOp28
 70
     1
102
RTVSPropertyOp29
 70
     1
102
RTVSPropertyOp30
 70
     1
102
RTVSPropertyOp31
 70
     1
102
RTVSPropertyOp32
 70
     1
102
RTVSPropertyOp33
 70
     1
102
RTVSPropertyOp34
 70
     1
102
RTVSPropertyOp35
 70
     1
102
RTVSPropertyOp36
 70
     1
102
RTVSPropertyOp37
 70
     1
102
RTVSPropertyOp38
 70
     1
102
RTVSPropertyOp39
 70
     1
102
RTVSPropertyOp40
 70
     1
102
RTVSPropertyOp41
 70
     1
102
RTVSPropertyOp42
 70
     1
102
RTVSPropertyOp43
 70
     1
102
RTVSPropertyOp44
 70
     1
102
RTVSPropertyOp45
 70
     1
102
RTVSPropertyOp46
 70
     1
102
RTVSPropertyOp47
 70
     1
102
RTVSPropertyOp48
 70
     1
102
RTVSPropertyOp49
 70
     1
102
RTVSPropertyOp50
 70
     1
102
RTVSPropertyOp51
 70
     0
102
RTVSPropertyOp52
 70
     0
102
RTVSPropertyOp53
 70
     1
102
RTVSPropertyOp54
 70
     1
102
RTVSPropertyOp55
 70
     1
102
RTVSPropertyOp56
 70
     1
102
RTVSPropertyOp57
 70
     1
102
RTVSPost2010Prop28
280
     0
102
RTVSPost2010PropOp28
 70
     1
102
RTVSPost2010Prop29
280
     1
102
RTVSPost2010PropOp29
 70
     1
102
RTVSPost2010Prop30
280
     1
102
RTVSPost2010PropOp30
 70
     1
102
RTVSPost2010Prop31
280
     0
102
RTVSPost2010PropOp31
 70
     1
102
RTVSPost2010Prop32
280
     0
102
RTVSPost2010PropOp32
 70
     1
102
RTVSPost2010Prop33
280
     0
102
RTVSPost2010PropOp33
 70
     1
102
RTVSPost2010Prop34
280
     0
102
RTVSPost2010PropOp34
 70
     1
102
RTVSPost2010Prop35
280
     0
102
RTVSPost2010PropOp35
 70
     1
102
RTVSPost2010Prop36
280
     0
102
RTVSPost2010PropOp36
 70
     1
102
RTVSPost2010Prop37
 90
       50
102
RTVSPost2010PropOp37
 70
     1
102
RTVSPost2010Prop38
140
0.0
102
RTVSPost2010PropOp38
 70
     1
102
RTVSPost2010Prop39
140
1.0
102
RTVSPost2010PropOp39
 70
     1
102
RTVSPost2010Prop40
 90
        0
102
RTVSPost2010PropOp40
 70
     1
102
RTVSPost2010Prop41ColorIndex
 90
       18
102
RTVSPost2010Prop41ColorRGB
 90
        0
102
RTVSPost2010PropOp41
 70
     1
102
RTVSPost2010Prop42
 90
       50
102
RTVSPost2010PropOp42
 70
     1
102
RTVSPost2010Prop43
 90
        3
102
RTVSPost2010PropOp43
 70
     1
102
RTVSPost2010Prop44ColorIndex
 90
        5
102
RTVSPost2010Prop44ColorRGB
 90
      255
102
RTVSPost2010PropOp44
 70
     1
102
RTVSPost2010Prop45
280
     0
102
RTVSPost2010PropOp45
 70
     1
102
RTVSPost2010Prop46
 90
       50
102
RTVSPost2010PropOp46
 70
     1
102
RTVSPost2010Prop47
 90
       50
102
RTVSPost2010PropOp47
 70
     1
102
RTVSPost2010Prop48
 90
       50
102
RTVSPost2010PropOp48
 70
     1
102
RTVSPost2010Prop49
280
     0
102
RTVSPost2010PropOp49
 70
     1
102
RTVSPost2010Prop50
 90
       50
102
RTVSPost2010PropOp50
 70
     1
102
RTVSPost2010Prop51ColorIndex
 90
      256
102
RTVSPost2010Prop51ColorRGB
 90
-16777216
102
RTVSPost2010PropOp51
 70
     0
102
RTVSPost2010Prop52
140
1.0
102
RTVSPost2010PropOp52
 70
     0
102
RTVSPost2010Prop53
 90
        2
102
RTVSPost2010PropOp53
 70
     1
102
RTVSPost2010Prop54
  1
strokes_ogs.tif
102
RTVSPost2010PropOp54
 70
     1
102
RTVSPost2010Prop55
280
     0
102
RTVSPost2010PropOp55
 70
     1
102
RTVSPost2010Prop56
140
1.0
102
RTVSPost2010PropOp56
 70
     1
102
RTVSPost2010Prop57
140
1.0
102
RTVSPost2010PropOp57
 70
     1
  0
XRECORD
  5
2AE
102
{ACAD_REACTORS
330
2AD
102
}
330
2AD
100
AcDbXrecord
280
     1
102
RTVSPropertyOp0
 70
     1
102
RTVSPropertyOp1
 70
     1
102
RTVSPropertyOp2
 70
     1
102
RTVSPropertyOp3
 70
     1
102
RTVSPropertyOp4
 70
     1
102
RTVSPropertyOp5
 70
     1
102
RTVSPropertyOp6
 70
     1
102
RTVSPropertyOp7
 70
     1
102
RTVSPropertyOp8
 70
     1
102
RTVSPropertyOp9
 70
     1
102
RTVSPropertyOp10
 70
     1
102
RTVSPropertyOp11
 70
     1
102
RTVSPropertyOp12
 70
     1
102
RTVSPropertyOp13
 70
     1
102
RTVSPropertyOp14
 70
     1
102
RTVSPropertyOp15
 70
     1
102
RTVSPropertyOp16
 70
     1
102
RTVSPropertyOp17
 70
     1
102
RTVSPropertyOp18
 70
     1
102
RTVSPropertyOp19
 70
     1
102
RTVSPropertyOp20
 70
     1
102
RTVSPropertyOp21
 70
     1
102
RTVSPropertyOp22
 70
     1
102
RTVSPropertyOp23
 70
     1
102
RTVSPropertyOp24
 70
     1
102
RTVSPropertyOp25
 70
     1
102
RTVSPropertyOp26
 70
     1
102
RTVSPropertyOp27
 70
     1
102
RTVSPropertyOp28
 70
     1
102
RTVSPropertyOp29
 70
     1
102
RTVSPropertyOp30
 70
     1
102
RTVSPropertyOp31
 70
     1
102
RTVSPropertyOp32
 70
     1
102
RTVSPropertyOp33
 70
     1
102
RTVSPropertyOp34
 70
     1
102
RTVSPropertyOp35
 70
     1
102
RTVSPropertyOp36
 70
     1
102
RTVSPropertyOp37
 70
     1
102
RTVSPropertyOp38
 70
     1
102
RTVSPropertyOp39
 70
     1
102
RTVSPropertyOp40
 70
     1
102
RTVSPropertyOp41
 70
     1
102
RTVSPropertyOp42
 70
     1
102
RTVSPropertyOp43
 70
     1
102
RTVSPropertyOp44
 70
     1
102
RTVSPropertyOp45
 70
     1
102
RTVSPropertyOp46
 70
     1
102
RTVSPropertyOp47
 70
     1
102
RTVSPropertyOp48
 70
     1
102
RTVSPropertyOp49
 70
     1
102
RTVSPropertyOp50
 70
     1
102
RTVSPropertyOp51
 70
     0
102
RTVSPropertyOp52
 70
     0
102
RTVSPropertyOp53
 70
     1
102
RTVSPropertyOp54
 70
     1
102
RTVSPropertyOp55
 70
     1
102
RTVSPropertyOp56
 70
     1
102
RTVSPropertyOp57
 70
     1
102
RTVSPost2010Prop28
280
     0
102
RTVSPost2010PropOp28
 70
     1
102
RTVSPost2010Prop29
280
     1
102
RTVSPost2010PropOp29
 70
     1
102
RTVSPost2010Prop30
280
     1
102
RTVSPost2010PropOp30
 70
     1
102
RTVSPost2010Prop31
280
     0
102
RTVSPost2010PropOp31
 70
     1
102
RTVSPost2010Prop32
280
     0
102
RTVSPost2010PropOp32
 70
     1
102
RTVSPost2010Prop33
280
     0
102
RTVSPost2010PropOp33
 70
     1
102
RTVSPost2010Prop34
280
     0
102
RTVSPost2010PropOp34
 70
     1
102
RTVSPost2010Prop35
280
     0
102
RTVSPost2010PropOp35
 70
     1
102
RTVSPost2010Prop36
280
     0
102
RTVSPost2010PropOp36
 70
     1
102
RTVSPost2010Prop37
 90
       50
102
RTVSPost2010PropOp37
 70
     1
102
RTVSPost2010Prop38
140
0.0
102
RTVSPost2010PropOp38
 70
     1
102
RTVSPost2010Prop39
140
1.0
102
RTVSPost2010PropOp39
 70
     1
102
RTVSPost2010Prop40
 90
        0
102
RTVSPost2010PropOp40
 70
     1
102
RTVSPost2010Prop41ColorIndex
 90
       18
102
RTVSPost2010Prop41ColorRGB
 90
        0
102
RTVSPost2010PropOp41
 70
     1
102
RTVSPost2010Prop42
 90
       50
102
RTVSPost2010PropOp42
 70
     1
102
RTVSPost2010Prop43
 90
        3
102
RTVSPost2010PropOp43
 70
     1
102
RTVSPost2010Prop44ColorIndex
 90
        5
102
RTVSPost2010Prop44ColorRGB
 90
      255
102
RTVSPost2010PropOp44
 70
     1
102
RTVSPost2010Prop45
280
     0
102
RTVSPost2010PropOp45
 70
     1
102
RTVSPost2010Prop46
 90
       50
102
RTVSPost2010PropOp46
 70
     1
102
RTVSPost2010Prop47
 90
       50
102
RTVSPost2010PropOp47
 70
     1
102
RTVSPost2010Prop48
 90
       50
102
RTVSPost2010PropOp48
 70
     1
102
RTVSPost2010Prop49
280
     0
102
RTVSPost2010PropOp49
 70
     1
102
RTVSPost2010Prop50
 90
       50
102
RTVSPost2010PropOp50
 70
     1
102
RTVSPost2010Prop51ColorIndex
 90
      256
102
RTVSPost2010Prop51ColorRGB
 90
-16777216
102
RTVSPost2010PropOp51
 70
     0
102
RTVSPost2010Prop52
140
1.0
102
RTVSPost2010PropOp52
 70
     0
102
RTVSPost2010Prop53
 90
        2
102
RTVSPost2010PropOp53
 70
     1
102
RTVSPost2010Prop54
  1
strokes_ogs.tif
102
RTVSPost2010PropOp54
 70
     1
102
RTVSPost2010Prop55
280
     0
102
RTVSPost2010PropOp55
 70
     1
102
RTVSPost2010Prop56
140
1.0
102
RTVSPost2010PropOp56
 70
     1
102
RTVSPost2010Prop57
140
1.0
102
RTVSPost2010PropOp57
 70
     1
  0
XRECORD
  5
2A0
102
{ACAD_REACTORS
330
29F
102
}
330
29F
100
AcDbXrecord
280
     1
102
RTVSPropertyOp0
 70
     1
102
RTVSPropertyOp1
 70
     1
102
RTVSPropertyOp2
 70
     1
102
RTVSPropertyOp3
 70
     1
102
RTVSPropertyOp4
 70
     1
102
RTVSPropertyOp5
 70
     1
102
RTVSPropertyOp6
 70
     1
102
RTVSPropertyOp7
 70
     1
102
RTVSPropertyOp8
 70
     1
102
RTVSPropertyOp9
 70
     1
102
RTVSPropertyOp10
 70
     1
102
RTVSPropertyOp11
 70
     1
102
RTVSPropertyOp12
 70
     1
102
RTVSPropertyOp13
 70
     1
102
RTVSPropertyOp14
 70
     1
102
RTVSPropertyOp15
 70
     1
102
RTVSPropertyOp16
 70
     1
102
RTVSPropertyOp17
 70
     1
102
RTVSPropertyOp18
 70
     1
102
RTVSPropertyOp19
 70
     1
102
RTVSPropertyOp20
 70
     1
102
RTVSPropertyOp21
 70
     1
102
RTVSPropertyOp22
 70
     1
102
RTVSPropertyOp23
 70
     1
102
RTVSPropertyOp24
 70
     1
102
RTVSPropertyOp25
 70
     1
102
RTVSPropertyOp26
 70
     1
102
RTVSPropertyOp27
 70
     1
102
RTVSPropertyOp28
 70
     1
102
RTVSPropertyOp29
 70
     1
102
RTVSPropertyOp30
 70
     1
102
RTVSPropertyOp31
 70
     1
102
RTVSPropertyOp32
 70
     1
102
RTVSPropertyOp33
 70
     1
102
RTVSPropertyOp34
 70
     1
102
RTVSPropertyOp35
 70
     1
102
RTVSPropertyOp36
 70
     1
102
RTVSPropertyOp37
 70
     1
102
RTVSPropertyOp38
 70
     1
102
RTVSPropertyOp39
 70
     1
102
RTVSPropertyOp40
 70
     1
102
RTVSPropertyOp41
 70
     1
102
RTVSPropertyOp42
 70
     1
102
RTVSPropertyOp43
 70
     1
102
RTVSPropertyOp44
 70
     1
102
RTVSPropertyOp45
 70
     1
102
RTVSPropertyOp46
 70
     1
102
RTVSPropertyOp47
 70
     1
102
RTVSPropertyOp48
 70
     1
102
RTVSPropertyOp49
 70
     1
102
RTVSPropertyOp50
 70
     1
102
RTVSPropertyOp51
 70
     0
102
RTVSPropertyOp52
 70
     0
102
RTVSPropertyOp53
 70
     1
102
RTVSPropertyOp54
 70
     1
102
RTVSPropertyOp55
 70
     1
102
RTVSPropertyOp56
 70
     1
102
RTVSPropertyOp57
 70
     1
102
RTVSPost2010Prop28
280
     0
102
RTVSPost2010PropOp28
 70
     1
102
RTVSPost2010Prop29
280
     1
102
RTVSPost2010PropOp29
 70
     1
102
RTVSPost2010Prop30
280
     1
102
RTVSPost2010PropOp30
 70
     1
102
RTVSPost2010Prop31
280
     0
102
RTVSPost2010PropOp31
 70
     1
102
RTVSPost2010Prop32
280
     0
102
RTVSPost2010PropOp32
 70
     1
102
RTVSPost2010Prop33
280
     0
102
RTVSPost2010PropOp33
 70
     1
102
RTVSPost2010Prop34
280
     0
102
RTVSPost2010PropOp34
 70
     1
102
RTVSPost2010Prop35
280
     0
102
RTVSPost2010PropOp35
 70
     1
102
RTVSPost2010Prop36
280
     0
102
RTVSPost2010PropOp36
 70
     1
102
RTVSPost2010Prop37
 90
       50
102
RTVSPost2010PropOp37
 70
     1
102
RTVSPost2010Prop38
140
0.0
102
RTVSPost2010PropOp38
 70
     1
102
RTVSPost2010Prop39
140
1.0
102
RTVSPost2010PropOp39
 70
     1
102
RTVSPost2010Prop40
 90
        0
102
RTVSPost2010PropOp40
 70
     1
102
RTVSPost2010Prop41ColorIndex
 90
       18
102
RTVSPost2010Prop41ColorRGB
 90
        0
102
RTVSPost2010PropOp41
 70
     1
102
RTVSPost2010Prop42
 90
       50
102
RTVSPost2010PropOp42
 70
     1
102
RTVSPost2010Prop43
 90
        3
102
RTVSPost2010PropOp43
 70
     1
102
RTVSPost2010Prop44ColorIndex
 90
        5
102
RTVSPost2010Prop44ColorRGB
 90
      255
102
RTVSPost2010PropOp44
 70
     1
102
RTVSPost2010Prop45
280
     0
102
RTVSPost2010PropOp45
 70
     1
102
RTVSPost2010Prop46
 90
       50
102
RTVSPost2010PropOp46
 70
     1
102
RTVSPost2010Prop47
 90
       50
102
RTVSPost2010PropOp47
 70
     1
102
RTVSPost2010Prop48
 90
       50
102
RTVSPost2010PropOp48
 70
     1
102
RTVSPost2010Prop49
280
     0
102
RTVSPost2010PropOp49
 70
     1
102
RTVSPost2010Prop50
 90
       50
102
RTVSPost2010PropOp50
 70
     1
102
RTVSPost2010Prop51ColorIndex
 90
      256
102
RTVSPost2010Prop51ColorRGB
 90
-16777216
102
RTVSPost2010PropOp51
 70
     0
102
RTVSPost2010Prop52
140
1.0
102
RTVSPost2010PropOp52
 70
     0
102
RTVSPost2010Prop53
 90
        2
102
RTVSPost2010PropOp53
 70
     1
102
RTVSPost2010Prop54
  1
strokes_ogs.tif
102
RTVSPost2010PropOp54
 70
     1
102
RTVSPost2010Prop55
280
     0
102
RTVSPost2010PropOp55
 70
     1
102
RTVSPost2010Prop56
140
1.0
102
RTVSPost2010PropOp56
 70
     1
102
RTVSPost2010Prop57
140
1.0
102
RTVSPost2010PropOp57
 70
     1
  0
XRECORD
  5
2C0
102
{ACAD_REACTORS
330
2BF
102
}
330
2BF
100
AcDbXrecord
280
     1
102
RTVSPropertyOp0
 70
     1
102
RTVSPropertyOp1
 70
     1
102
RTVSPropertyOp2
 70
     1
102
RTVSPropertyOp3
 70
     1
102
RTVSPropertyOp4
 70
     1
102
RTVSPropertyOp5
 70
     1
102
RTVSPropertyOp6
 70
     1
102
RTVSPropertyOp7
 70
     1
102
RTVSPropertyOp8
 70
     1
102
RTVSPropertyOp9
 70
     1
102
RTVSPropertyOp10
 70
     1
102
RTVSPropertyOp11
 70
     1
102
RTVSPropertyOp12
 70
     1
102
RTVSPropertyOp13
 70
     1
102
RTVSPropertyOp14
 70
     1
102
RTVSPropertyOp15
 70
     1
102
RTVSPropertyOp16
 70
     1
102
RTVSPropertyOp17
 70
     1
102
RTVSPropertyOp18
 70
     1
102
RTVSPropertyOp19
 70
     1
102
RTVSPropertyOp20
 70
     1
102
RTVSPropertyOp21
 70
     1
102
RTVSPropertyOp22
 70
     1
102
RTVSPropertyOp23
 70
     1
102
RTVSPropertyOp24
 70
     1
102
RTVSPropertyOp25
 70
     1
102
RTVSPropertyOp26
 70
     1
102
RTVSPropertyOp27
 70
     1
102
RTVSPropertyOp28
 70
     1
102
RTVSPropertyOp29
 70
     1
102
RTVSPropertyOp30
 70
     1
102
RTVSPropertyOp31
 70
     1
102
RTVSPropertyOp32
 70
     1
102
RTVSPropertyOp33
 70
     1
102
RTVSPropertyOp34
 70
     1
102
RTVSPropertyOp35
 70
     1
102
RTVSPropertyOp36
 70
     1
102
RTVSPropertyOp37
 70
     1
102
RTVSPropertyOp38
 70
     1
102
RTVSPropertyOp39
 70
     1
102
RTVSPropertyOp40
 70
     1
102
RTVSPropertyOp41
 70
     1
102
RTVSPropertyOp42
 70
     1
102
RTVSPropertyOp43
 70
     1
102
RTVSPropertyOp44
 70
     1
102
RTVSPropertyOp45
 70
     1
102
RTVSPropertyOp46
 70
     1
102
RTVSPropertyOp47
 70
     1
102
RTVSPropertyOp48
 70
     1
102
RTVSPropertyOp49
 70
     1
102
RTVSPropertyOp50
 70
     1
102
RTVSPropertyOp51
 70
     0
102
RTVSPropertyOp52
 70
     0
102
RTVSPropertyOp53
 70
     1
102
RTVSPropertyOp54
 70
     1
102
RTVSPropertyOp55
 70
     1
102
RTVSPropertyOp56
 70
     1
102
RTVSPropertyOp57
 70
     1
102
RTVSPost2010Prop28
280
     0
102
RTVSPost2010PropOp28
 70
     1
102
RTVSPost2010Prop29
280
     1
102
RTVSPost2010PropOp29
 70
     1
102
RTVSPost2010Prop30
280
     1
102
RTVSPost2010PropOp30
 70
     1
102
RTVSPost2010Prop31
280
     0
102
RTVSPost2010PropOp31
 70
     1
102
RTVSPost2010Prop32
280
     0
102
RTVSPost2010PropOp32
 70
     1
102
RTVSPost2010Prop33
280
     0
102
RTVSPost2010PropOp33
 70
     1
102
RTVSPost2010Prop34
280
     0
102
RTVSPost2010PropOp34
 70
     1
102
RTVSPost2010Prop35
280
     0
102
RTVSPost2010PropOp35
 70
     1
102
RTVSPost2010Prop36
280
     0
102
RTVSPost2010PropOp36
 70
     1
102
RTVSPost2010Prop37
 90
       50
102
RTVSPost2010PropOp37
 70
     1
102
RTVSPost2010Prop38
140
0.0
102
RTVSPost2010PropOp38
 70
     1
102
RTVSPost2010Prop39
140
1.0
102
RTVSPost2010PropOp39
 70
     1
102
RTVSPost2010Prop40
 90
        0
102
RTVSPost2010PropOp40
 70
     1
102
RTVSPost2010Prop41ColorIndex
 90
       18
102
RTVSPost2010Prop41ColorRGB
 90
        0
102
RTVSPost2010PropOp41
 70
     1
102
RTVSPost2010Prop42
 90
       50
102
RTVSPost2010PropOp42
 70
     1
102
RTVSPost2010Prop43
 90
        3
102
RTVSPost2010PropOp43
 70
     1
102
RTVSPost2010Prop44ColorIndex
 90
        5
102
RTVSPost2010Prop44ColorRGB
 90
      255
102
RTVSPost2010PropOp44
 70
     1
102
RTVSPost2010Prop45
280
     0
102
RTVSPost2010PropOp45
 70
     1
102
RTVSPost2010Prop46
 90
       50
102
RTVSPost2010PropOp46
 70
     1
102
RTVSPost2010Prop47
 90
       50
102
RTVSPost2010PropOp47
 70
     1
102
RTVSPost2010Prop48
 90
       50
102
RTVSPost2010PropOp48
 70
     1
102
RTVSPost2010Prop49
280
     0
102
RTVSPost2010PropOp49
 70
     1
102
RTVSPost2010Prop50
 90
       50
102
RTVSPost2010PropOp50
 70
     1
102
RTVSPost2010Prop51ColorIndex
 90
      256
102
RTVSPost2010Prop51ColorRGB
 90
-16777216
102
RTVSPost2010PropOp51
 70
     0
102
RTVSPost2010Prop52
140
1.0
102
RTVSPost2010PropOp52
 70
     0
102
RTVSPost2010Prop53
 90
        2
102
RTVSPost2010PropOp53
 70
     1
102
RTVSPost2010Prop54
  1
strokes_ogs.tif
102
RTVSPost2010PropOp54
 70
     1
102
RTVSPost2010Prop55
280
     0
102
RTVSPost2010PropOp55
 70
     1
102
RTVSPost2010Prop56
140
1.0
102
RTVSPost2010PropOp56
 70
     1
102
RTVSPost2010Prop57
140
1.0
102
RTVSPost2010PropOp57
 70
     1
  0
ENDSEC
  0
EOF
